  0
SECTION
  2
HEADER
  9
$ACADVER
  1
AC1015
  9
$ACADMAINTVER
 70
     6
  9
$DWGCODEPAGE
  3
ANSI_1252
  9
$INSBASE
 10
0.0
 20
0.0
 30
0.0
  9
$EXTMIN
 10
0.0
 20
0.0
 30
0.0
  9
$EXTMAX
 10
297.0
 20
210.0
 30
0.0
  9
$LIMMIN
 10
0.0
 20
0.0
  9
$LIMMAX
 10
297.0
 20
210.0
  9
$ORTHOMODE
 70
     0
  9
$REGENMODE
 70
     1
  9
$FILLMODE
 70
     1
  9
$QTEXTMODE
 70
     0
  9
$MIRRTEXT
 70
     1
  9
$LTSCALE
 40
1.0
  9
$ATTMODE
 70
     1
  9
$TEXTSIZE
 40
2.0
  9
$TRACEWID
 40
1.0
  9
$TEXTSTYLE
  7
Standard
  9
$CLAYER
  8
0
  9
$CELTYPE
  6
ByLayer
  9
$CECOLOR
 62
   256
  9
$CELTSCALE
 40
1.0
  9
$DISPSILH
 70
     0
  9
$DIMSCALE
 40
1.0
  9
$DIMASZ
 40
3.0
  9
$DIMEXO
 40
0.0
  9
$DIMDLI
 40
3.75
  9
$DIMRND
 40
0.0
  9
$DIMDLE
 40
0.0
  9
$DIMEXE
 40
1.0
  9
$DIMTP
 40
0.0
  9
$DIMTM
 40
0.0
  9
$DIMTXT
 40
2.0
  9
$DIMCEN
 40
2.5
  9
$DIMTSZ
 40
0.0
  9
$DIMTOL
 70
     0
  9
$DIMLIM
 70
     0
  9
$DIMTIH
 70
     1
  9
$DIMTOH
 70
     1
  9
$DIMSE1
 70
     0
  9
$DIMSE2
 70
     0
  9
$DIMTAD
 70
     1
  9
$DIMZIN
 70
     0
  9
$DIMBLK
  1

  9
$DIMASO
 70
     1
  9
$DIMSHO
 70
     1
  9
$DIMPOST
  1

  9
$DIMAPOST
  1

  9
$DIMALT
 70
     0
  9
$DIMALTD
 70
     3
  9
$DIMALTF
 40
0.0393700787
  9
$DIMLFAC
 40
2.0
  9
$DIMTOFL
 70
     1
  9
$DIMTVP
 40
0.0
  9
$DIMTIX
 70
     0
  9
$DIMSOXD
 70
     0
  9
$DIMSAH
 70
     0
  9
$DIMBLK1
  1

  9
$DIMBLK2
  1

  9
$DIMSTYLE
  2
ISO-25
  9
$DIMCLRD
 70
     0
  9
$DIMCLRE
 70
     0
  9
$DIMCLRT
 70
     0
  9
$DIMTFAC
 40
1.0
  9
$DIMGAP
 40
1.524
  9
$DIMJUST
 70
     0
  9
$DIMSD1
 70
     0
  9
$DIMSD2
 70
     0
  9
$DIMTOLJ
 70
     0
  9
$DIMTZIN
 70
     0
  9
$DIMALTZ
 70
     0
  9
$DIMALTTZ
 70
     0
  9
$DIMUPT
 70
     0
  9
$DIMDEC
 70
     2
  9
$DIMTDEC
 70
     3
  9
$DIMALTU
 70
     2
  9
$DIMALTTD
 70
     3
  9
$DIMTXSTY
  7
Standard
  9
$DIMAUNIT
 70
     0
  9
$DIMADEC
 70
     2
  9
$DIMALTRND
 40
0.0
  9
$DIMAZIN
 70
     0
  9
$DIMDSEP
 70
    44
  9
$DIMATFIT
 70
     3
  9
$DIMFRAC
 70
     0
  9
$DIMLDRBLK
  1

  9
$DIMLUNIT
 70
     2
  9
$DIMLWD
 70
    -2
  9
$DIMLWE
 70
    -2
  9
$DIMTMOVE
 70
     0
  9
$LUNITS
 70
     2
  9
$LUPREC
 70
     2
  9
$SKETCHINC
 40
1.0
  9
$FILLETRAD
 40
10.0
  9
$AUNITS
 70
     0
  9
$AUPREC
 70
     2
  9
$MENU
  1
.
  9
$ELEVATION
 40
0.0
  9
$PELEVATION
 40
0.0
  9
$THICKNESS
 40
0.0
  9
$LIMCHECK
 70
     0
  9
$CHAMFERA
 40
0.0
  9
$CHAMFERB
 40
0.0
  9
$CHAMFERC
 40
0.0
  9
$CHAMFERD
 40
0.0
  9
$SKPOLY
 70
     0
  9
$TDCREATE
 40
2458166.66079618
  9
$TDUCREATE
 40
2458166.619129514
  9
$TDUPDATE
 40
2458166.660798229
  9
$TDUUPDATE
 40
2458166.619131562
  9
$TDINDWG
 40
0.0000000116
  9
$TDUSRTIMER
 40
0.0000000116
  9
$USRTIMER
 70
     1
  9
$ANGBASE
 50
0.0
  9
$ANGDIR
 70
     0
  9
$PDMODE
 70
     0
  9
$PDSIZE
 40
-1.0
  9
$PLINEWID
 40
0.0
  9
$SPLFRAME
 70
     0
  9
$SPLINETYPE
 70
     6
  9
$SPLINESEGS
 70
     8
  9
$HANDSEED
  5
2B8
  9
$SURFTAB1
 70
     6
  9
$SURFTAB2
 70
     6
  9
$SURFTYPE
 70
     6
  9
$SURFU
 70
     6
  9
$SURFV
 70
     6
  9
$UCSBASE
  2

  9
$UCSNAME
  2

  9
$UCSORG
 10
0.0
 20
0.0
 30
0.0
  9
$UCSXDIR
 10
1.0
 20
0.0
 30
0.0
  9
$UCSYDIR
 10
0.0
 20
1.0
 30
0.0
  9
$UCSORTHOREF
  2

  9
$UCSORTHOVIEW
 70
     0
  9
$UCSORGTOP
 10
0.0
 20
0.0
 30
0.0
  9
$UCSORGBOTTOM
 10
0.0
 20
0.0
 30
0.0
  9
$UCSORGLEFT
 10
0.0
 20
0.0
 30
0.0
  9
$UCSORGRIGHT
 10
0.0
 20
0.0
 30
0.0
  9
$UCSORGFRONT
 10
0.0
 20
0.0
 30
0.0
  9
$UCSORGBACK
 10
0.0
 20
0.0
 30
0.0
  9
$PUCSBASE
  2

  9
$PUCSNAME
  2

  9
$PUCSORG
 10
0.0
 20
0.0
 30
0.0
  9
$PUCSXDIR
 10
1.0
 20
0.0
 30
0.0
  9
$PUCSYDIR
 10
0.0
 20
1.0
 30
0.0
  9
$PUCSORTHOREF
  2

  9
$PUCSORTHOVIEW
 70
     0
  9
$PUCSORGTOP
 10
0.0
 20
0.0
 30
0.0
  9
$PUCSORGBOTTOM
 10
0.0
 20
0.0
 30
0.0
  9
$PUCSORGLEFT
 10
0.0
 20
0.0
 30
0.0
  9
$PUCSORGRIGHT
 10
0.0
 20
0.0
 30
0.0
  9
$PUCSORGFRONT
 10
0.0
 20
0.0
 30
0.0
  9
$PUCSORGBACK
 10
0.0
 20
0.0
 30
0.0
  9
$USERI1
 70
     0
  9
$USERI2
 70
     0
  9
$USERI3
 70
     0
  9
$USERI4
 70
     0
  9
$USERI5
 70
     0
  9
$USERR1
 40
0.0
  9
$USERR2
 40
0.0
  9
$USERR3
 40
0.0
  9
$USERR4
 40
0.0
  9
$USERR5
 40
0.0
  9
$WORLDVIEW
 70
     1
  9
$SHADEDGE
 70
     3
  9
$SHADEDIF
 70
    70
  9
$TILEMODE
 70
     1
  9
$MAXACTVP
 70
    64
  9
$PINSBASE
 10
0.0
 20
0.0
 30
0.0
  9
$PLIMCHECK
 70
     0
  9
$PEXTMIN
 10
1.0000000000E+20
 20
1.0000000000E+20
 30
1.0000000000E+20
  9
$PEXTMAX
 10
-1.0000000000E+20
 20
-1.0000000000E+20
 30
-1.0000000000E+20
  9
$PLIMMIN
 10
0.0
 20
0.0
  9
$PLIMMAX
 10
420.0
 20
297.0
  9
$UNITMODE
 70
     0
  9
$VISRETAIN
 70
     1
  9
$PLINEGEN
 70
     0
  9
$PSLTSCALE
 70
     1
  9
$TREEDEPTH
 70
  3020
  9
$CMLSTYLE
  2
Standard
  9
$CMLJUST
 70
     0
  9
$CMLSCALE
 40
20.0
  9
$PROXYGRAPHICS
 70
     1
  9
$MEASUREMENT
 70
     1
  9
$CELWEIGHT
370
    -1
  9
$ENDCAPS
280
     0
  9
$JOINSTYLE
280
     0
  9
$LWDISPLAY
290
     1
  9
$INSUNITS
 70
     4
  9
$HYPERLINKBASE
  1

  9
$STYLESHEET
  1

  9
$XEDIT
290
     1
  9
$CEPSNTYPE
380
     0
  9
$PSTYLEMODE
290
     1
  9
$FINGERPRINTGUID
  2
{3B5E80BE-5E91-4259-85F2-0F759BFAB35A}
  9
$VERSIONGUID
  2
{FAEB1C32-E019-11D5-929B-00C0DF256EC4}
  9
$EXTNAMES
290
     1
  9
$PSVPSCALE
 40
0.0
  9
$OLESTARTUP
290
     0
  0
ENDSEC
  0
SECTION
  2
CLASSES
  0
CLASS
  1
ACDBDICTIONARYWDFLT
  2
AcDbDictionaryWithDefault
  3
ObjectDBX Classes
 90
        0
280
     0
281
     0
  0
CLASS
  1
VISUALSTYLE
  2
AcDbVisualStyle
  3
ObjectDBX Classes
 90
     4095
280
     0
281
     0
  0
CLASS
  1
MATERIAL
  2
AcDbMaterial
  3
ObjectDBX Classes
 90
     1153
280
     0
281
     0
  0
CLASS
  1
SCALE
  2
AcDbScale
  3
ObjectDBX Classes
 90
     1153
280
     0
281
     0
  0
CLASS
  1
TABLESTYLE
  2
AcDbTableStyle
  3
ObjectDBX Classes
 90
     4095
280
     0
281
     0
  0
CLASS
  1
MLEADERSTYLE
  2
AcDbMLeaderStyle
  3
ACDB_MLEADERSTYLE_CLASS
 90
     4095
280
     0
281
     0
  0
CLASS
  1
SUN
  2
AcDbSun
  3
SCENEOE
 90
     1153
280
     0
281
     0
  0
CLASS
  1
ACDBPLACEHOLDER
  2
AcDbPlaceHolder
  3
ObjectDBX Classes
 90
        0
280
     0
281
     0
  0
CLASS
  1
LAYOUT
  2
AcDbLayout
  3
ObjectDBX Classes
 90
        0
280
     0
281
     0
  0
ENDSEC
  0
SECTION
  2
TABLES
  0
TABLE
  2
VPORT
  5
8
330
0
100
AcDbSymbolTable
 70
     1
  0
VPORT
  5
29
330
8
100
AcDbSymbolTableRecord
100
AcDbViewportTableRecord
  2
*Active
 70
     0
 10
0.0
 20
0.0
 11
1.0
 21
1.0
 12
148.5
 22
105.0
 13
0.0
 23
0.0
 14
10.0
 24
10.0
 15
10.0
 25
10.0
 16
0.0
 26
0.0
 36
1.0
 17
0.0
 27
0.0
 37
0.0
 40
210.0
 41
1.4142857143
 42
50.0
 43
0.0
 44
0.0
 50
0.0
 51
0.0
 71
     0
 72
  2000
 73
     1
 74
     3
 75
     0
 76
     0
 77
     0
 78
     0
281
     0
 65
     1
110
0.0
120
0.0
130
0.0
111
1.0
121
0.0
131
0.0
112
0.0
122
1.0
132
0.0
 79
     0
146
0.0
  0
ENDTAB
  0
TABLE
  2
LTYPE
  5
5
330
0
100
AcDbSymbolTable
 70
     6
  0
LTYPE
  5
14
330
5
100
AcDbSymbolTableRecord
100
AcDbLinetypeTableRecord
  2
ByBlock
 70
     0
  3

 72
    65
 73
     0
 40
0.0
  0
LTYPE
  5
15
330
5
100
AcDbSymbolTableRecord
100
AcDbLinetypeTableRecord
  2
ByLayer
 70
     0
  3

 72
    65
 73
     0
 40
0.0
  0
LTYPE
  5
16
330
5
100
AcDbSymbolTableRecord
100
AcDbLinetypeTableRecord
  2
Continuous
 70
     0
  3
Solid line
 72
    65
 73
     0
 40
0.0
  0
LTYPE
  5
6E
330
5
100
AcDbSymbolTableRecord
100
AcDbLinetypeTableRecord
  2
HIDDEN
 70
     0
  3
Hidden __ __ __ __ __ __ __ __ __ __ __ __ __ __
 72
    65
 73
     2
 40
1.905
 49
1.27
 74
     0
 49
-0.635
 74
     0
  0
LTYPE
  5
6F
330
5
100
AcDbSymbolTableRecord
100
AcDbLinetypeTableRecord
  2
PHANTOM
 70
     0
  3
Phantom ______  __  __  ______  __  __  ______
 72
    65
 73
     6
 40
12.7
 49
6.35
 74
     0
 49
-1.27
 74
     0
 49
1.27
 74
     0
 49
-1.27
 74
     0
 49
1.27
 74
     0
 49
-1.27
 74
     0
  0
LTYPE
  5
70
330
5
100
AcDbSymbolTableRecord
100
AcDbLinetypeTableRecord
  2
CENTER
 70
     0
  3
Center ____ _ ____ _ ____ _ ____ _ ____ _ ____
 72
    65
 73
     4
 40
10.16
 49
6.35
 74
     0
 49
-1.27
 74
     0
 49
1.27
 74
     0
 49
-1.27
 74
     0
  0
LTYPE
  5
71
330
5
100
AcDbSymbolTableRecord
100
AcDbLinetypeTableRecord
  2
CENTERX2
 70
     0
  3
Center (2x) ________  __  ________  __  _____
 72
    65
 73
     4
 40
20.32
 49
12.7
 74
     0
 49
-2.54
 74
     0
 49
2.54
 74
     0
 49
-2.54
 74
     0
  0
LTYPE
  5
72
330
5
100
AcDbSymbolTableRecord
100
AcDbLinetypeTableRecord
  2
DOT2
 70
     0
  3
Dot (.5x) ........................................
 72
    65
 73
     2
 40
0.635
 49
0.0
 74
     0
 49
-0.635
 74
     0
  0
ENDTAB
  0
TABLE
  2
LAYER
  5
2
330
0
100
AcDbSymbolTable
 70
     5
  0
LAYER
  5
10
330
2
100
AcDbSymbolTableRecord
100
AcDbLayerTableRecord
  2
0
 70
     0
 62
     7
  6
Continuous
370
    -3
390
F
  0
LAYER
  5
73
330
2
100
AcDbSymbolTableRecord
100
AcDbLayerTableRecord
  2
FORMAT
 70
     0
 62
     7
  6
Continuous
370
    -3
390
F
  0
LAYER
  5
74
330
2
100
AcDbSymbolTableRecord
100
AcDbLayerTableRecord
  2
VERMASSUNG
 70
     0
 62
     7
  6
Continuous
370
    -3
390
F
  0
LAYER
  5
75
330
2
100
AcDbSymbolTableRecord
100
AcDbLayerTableRecord
  2
KOPF_DÜNN
 70
     0
 62
     7
  6
Continuous
370
    -3
390
F
  0
LAYER
  5
76
330
2
100
AcDbSymbolTableRecord
100
AcDbLayerTableRecord
  2
KOPF_DICK
 70
     0
 62
     7
  6
Continuous
370
    25
390
F
  0
ENDTAB
  0
TABLE
  2
STYLE
  5
3
330
0
100
AcDbSymbolTable
 70
     3
  0
STYLE
  5
11
330
3
100
AcDbSymbolTableRecord
100
AcDbTextStyleTableRecord
  2
Standard
 70
     0
 40
0.0
 41
1.0
 50
0.0
 71
     0
 42
2.0
  3
txt
  4

  0
STYLE
  5
77
330
3
100
AcDbSymbolTableRecord
100
AcDbTextStyleTableRecord
  2
SLDTEXTSTYLE0
 70
     0
 40
0.0
 41
0.7
 50
0.0
 71
     0
 42
2.0
  3
TXT
  4

  0
STYLE
  5
7B
330
3
100
AcDbSymbolTableRecord
100
AcDbTextStyleTableRecord
  2
SLDTEXTSTYLE1
 70
     0
 40
0.0
 41
0.6428571429
 50
0.0
 71
     0
 42
2.0
  3
TXT
  4

  0
ENDTAB
  0
TABLE
  2
VIEW
  5
6
330
0
100
AcDbSymbolTable
 70
     0
  0
ENDTAB
  0
TABLE
  2
UCS
  5
7
330
0
100
AcDbSymbolTable
 70
     0
  0
ENDTAB
  0
TABLE
  2
APPID
  5
9
330
0
100
AcDbSymbolTable
 70
     1
  0
APPID
  5
12
330
9
100
AcDbSymbolTableRecord
100
AcDbRegAppTableRecord
  2
ACAD
 70
     0
  0
ENDTAB
  0
TABLE
  2
DIMSTYLE
  5
A
330
0
100
AcDbSymbolTable
 70
     3
100
AcDbDimStyleTable
  0
DIMSTYLE
105
27
330
A
100
AcDbSymbolTableRecord
100
AcDbDimStyleTableRecord
  2
ISO-25
 70
     0
 41
2.5
 42
0.625
 43
3.75
 44
1.25
 73
     0
 74
     0
 77
     1
 78
     8
140
2.5
141
2.5
143
0.0393700787
147
0.625
171
     3
172
     1
178
     0
271
     2
272
     2
274
     3
278
    44
283
     0
284
     8
340
11
  0
DIMSTYLE
105
145
102
{ACAD_REACTORS
330
144
330
172
102
}
330
A
100
AcDbSymbolTableRecord
100
AcDbDimStyleTableRecord
  2
SLDDIMSTYLE0
 70
     0
 41
3.0
 44
0.0
 45
0.000000001
 73
     0
 74
     0
 77
     1
 78
    12
 79
     3
140
2.0
147
0.5
173
     1
178
     0
271
     0
272
     3
276
     2
284
    12
340
77
  0
DIMSTYLE
105
151
102
{ACAD_REACTORS
330
150
330
15C
330
167
330
17D
330
187
330
191
330
19B
102
}
330
A
100
AcDbSymbolTableRecord
100
AcDbDimStyleTableRecord
  2
SLDDIMSTYLE1
 70
     0
 41
3.0
 44
0.0
 45
0.000000001
 73
     0
 74
     0
 77
     1
 78
    12
 79
     3
140
2.0
147
0.5
173
     1
178
     0
271
     2
272
     3
276
     2
284
    12
340
77
  0
ENDTAB
  0
TABLE
  2
BLOCK_RECORD
  5
1
330
0
100
AcDbSymbolTable
 70
    10
  0
BLOCK_RECORD
  5
1F
330
1
100
AcDbSymbolTableRecord
100
AcDbBlockTableRecord
  2
*Model_Space
340
22
  0
BLOCK_RECORD
  5
1B
330
1
100
AcDbSymbolTableRecord
100
AcDbBlockTableRecord
  2
*Paper_Space
340
1E
  0
BLOCK_RECORD
  5
23
330
1
100
AcDbSymbolTableRecord
100
AcDbBlockTableRecord
  2
*Paper_Space0
340
26
  0
BLOCK_RECORD
  5
146
330
1
100
AcDbSymbolTableRecord
100
AcDbBlockTableRecord
  2
_D
340
0
  0
BLOCK_RECORD
  5
152
330
1
100
AcDbSymbolTableRecord
100
AcDbBlockTableRecord
  2
_D_1
340
0
  0
BLOCK_RECORD
  5
15D
330
1
100
AcDbSymbolTableRecord
100
AcDbBlockTableRecord
  2
_D_2
340
0
  0
BLOCK_RECORD
  5
168
330
1
100
AcDbSymbolTableRecord
100
AcDbBlockTableRecord
  2
_D_3
340
0
  0
BLOCK_RECORD
  5
173
330
1
100
AcDbSymbolTableRecord
100
AcDbBlockTableRecord
  2
_D_4
340
0
  0
BLOCK_RECORD
  5
17E
330
1
100
AcDbSymbolTableRecord
100
AcDbBlockTableRecord
  2
_D_5
340
0
  0
BLOCK_RECORD
  5
188
330
1
100
AcDbSymbolTableRecord
100
AcDbBlockTableRecord
  2
_D_6
340
0
  0
BLOCK_RECORD
  5
192
330
1
100
AcDbSymbolTableRecord
100
AcDbBlockTableRecord
  2
_D_7
340
0
  0
BLOCK_RECORD
  5
19C
330
1
100
AcDbSymbolTableRecord
100
AcDbBlockTableRecord
  2
_D_8
340
0
  0
ENDTAB
  0
ENDSEC
  0
SECTION
  2
BLOCKS
  0
BLOCK
  5
20
330
1F
100
AcDbEntity
  8
0
100
AcDbBlockBegin
  2
*Model_Space
 70
     0
 10
0.0
 20
0.0
 30
0.0
  3
*Model_Space
  1

  0
ENDBLK
  5
21
330
1F
100
AcDbEntity
  8
0
100
AcDbBlockEnd
  0
BLOCK
  5
1C
330
1B
100
AcDbEntity
 67
     1
  8
0
100
AcDbBlockBegin
  2
*Paper_Space
 70
     0
 10
0.0
 20
0.0
 30
0.0
  3
*Paper_Space
  1

  0
ENDBLK
  5
1D
330
1B
100
AcDbEntity
 67
     1
  8
0
100
AcDbBlockEnd
  0
BLOCK
  5
24
330
23
100
AcDbEntity
  8
0
100
AcDbBlockBegin
  2
*Paper_Space0
 70
     0
 10
0.0
 20
0.0
 30
0.0
  3
*Paper_Space0
  1

  0
ENDBLK
  5
25
330
23
100
AcDbEntity
  8
0
100
AcDbBlockEnd
  0
BLOCK
  5
147
330
146
100
AcDbEntity
  8
0
100
AcDbBlockBegin
  2
_D
 70
     0
 10
0.0
 20
0.0
 30
0.0
  3
_D
  1

  0
SOLID
  5
149
330
146
100
AcDbEntity
  8
VERMASSUNG
100
AcDbTrace
 10
290.0098401734
 20
97.0108773254
 30
0.0
 11
290.4598401734
 21
100.0108773254
 31
0.0
 12
289.5598401734
 22
100.0108773254
 32
0.0
 13
289.5598401734
 23
100.0108773254
 33
0.0
  0
SOLID
  5
14A
330
146
100
AcDbEntity
  8
VERMASSUNG
100
AcDbTrace
 10
290.0098401734
 20
147.1259968129
 30
0.0
 11
289.5598401734
 21
144.1259968129
 31
0.0
 12
290.4598401734
 22
144.1259968129
 32
0.0
 13
290.4598401734
 23
144.1259968129
 33
0.0
  0
LINE
  5
14B
330
146
100
AcDbEntity
  8
VERMASSUNG
100
AcDbLine
 10
79.8027208516
 20
97.0108773254
 30
0.0
 11
291.0098401734
 21
97.0108773254
 31
0.0
  0
LINE
  5
14C
330
146
100
AcDbEntity
  8
VERMASSUNG
100
AcDbLine
 10
79.8027208516
 20
147.1259968129
 30
0.0
 11
291.0098401734
 21
147.1259968129
 31
0.0
  0
LINE
  5
14D
330
146
100
AcDbEntity
  8
VERMASSUNG
100
AcDbLine
 10
290.0098401734
 20
97.0108773254
 30
0.0
 11
290.0098401734
 21
147.1259968129
 31
0.0
  0
MTEXT
  5
14E
330
146
100
AcDbEntity
  8
VERMASSUNG
100
AcDbMText
 10
287.4317048685
 20
118.8634371119
 30
0.0
 40
2.0
 41
0.0
 71
     1
 72
     1
  1
%%c
  7
SLDTEXTSTYLE0
 11
6.123233995736766E-17
 21
1.0
 31
0.0
 73
     1
 44
1.0
  0
MTEXT
  5
14F
330
146
100
AcDbEntity
  8
VERMASSUNG
100
AcDbMText
 10
287.2317049172
 20
122.4734371262
 30
0.0
 40
2.0
 41
0.0
 71
     1
 72
     1
  1
50
  7
SLDTEXTSTYLE0
 11
6.123233995736766E-17
 21
1.0
 31
0.0
 73
     1
 44
1.0
  0
ENDBLK
  5
148
330
146
100
AcDbEntity
  8
0
100
AcDbBlockEnd
  0
BLOCK
  5
153
330
152
100
AcDbEntity
  8
0
100
AcDbBlockBegin
  2
_D_1
 70
     0
 10
0.0
 20
0.0
 30
0.0
  3
_D_1
  1

  0
SOLID
  5
155
330
152
100
AcDbEntity
  8
VERMASSUNG
100
AcDbTrace
 10
280.0205060865
 20
98.0684370691
 30
0.0
 11
280.4705060865
 21
101.0684370691
 31
0.0
 12
279.5705060865
 22
101.0684370691
 32
0.0
 13
279.5705060865
 23
101.0684370691
 33
0.0
  0
SOLID
  5
156
330
152
100
AcDbEntity
  8
VERMASSUNG
100
AcDbTrace
 10
280.0205060865
 20
146.0684370691
 30
0.0
 11
279.5705060865
 21
143.0684370691
 31
0.0
 12
280.4705060865
 22
143.0684370691
 32
0.0
 13
280.4705060865
 23
143.0684370691
 33
0.0
  0
LINE
  5
157
330
152
100
AcDbEntity
  8
VERMASSUNG
100
AcDbLine
 10
211.2205060865
 20
98.0684370691
 30
0.0
 11
281.0205060865
 21
98.0684370691
 31
0.0
  0
LINE
  5
158
330
152
100
AcDbEntity
  8
VERMASSUNG
100
AcDbLine
 10
211.2205060865
 20
146.0684370691
 30
0.0
 11
281.0205060865
 21
146.0684370691
 31
0.0
  0
LINE
  5
159
330
152
100
AcDbEntity
  8
VERMASSUNG
100
AcDbLine
 10
280.0205060865
 20
98.0684370691
 30
0.0
 11
280.0205060865
 21
146.0684370691
 31
0.0
  0
MTEXT
  5
15A
330
152
100
AcDbEntity
  8
VERMASSUNG
100
AcDbMText
 10
277.4423707815
 20
118.763437049
 30
0.0
 40
2.0
 41
0.0
 71
     1
 72
     1
  1
%%c
  7
SLDTEXTSTYLE0
 11
6.123233995736766E-17
 21
1.0
 31
0.0
 73
     1
 44
1.0
  0
MTEXT
  5
15B
330
152
100
AcDbEntity
  8
VERMASSUNG
100
AcDbMText
 10
277.2423708302
 20
122.3734370633
 30
0.0
 40
2.0
 41
0.0
 71
     1
 72
     1
  1
48
  7
SLDTEXTSTYLE0
 11
6.123233995736766E-17
 21
1.0
 31
0.0
 73
     1
 44
1.0
  0
ENDBLK
  5
154
330
152
100
AcDbEntity
  8
0
100
AcDbBlockEnd
  0
BLOCK
  5
15E
330
15D
100
AcDbEntity
  8
0
100
AcDbBlockBegin
  2
_D_2
 70
     0
 10
0.0
 20
0.0
 30
0.0
  3
_D_2
  1

  0
SOLID
  5
160
330
15D
100
AcDbEntity
  8
VERMASSUNG
100
AcDbTrace
 10
269.7198084998
 20
111.0684370691
 30
0.0
 11
270.1698084998
 21
114.0684370691
 31
0.0
 12
269.2698084998
 22
114.0684370691
 32
0.0
 13
269.2698084998
 23
114.0684370691
 33
0.0
  0
SOLID
  5
161
330
15D
100
AcDbEntity
  8
VERMASSUNG
100
AcDbTrace
 10
269.7198084998
 20
133.0684370691
 30
0.0
 11
269.2698084998
 21
130.0684370691
 31
0.0
 12
270.1698084998
 22
130.0684370691
 32
0.0
 13
270.1698084998
 23
130.0684370691
 33
0.0
  0
LINE
  5
162
330
15D
100
AcDbEntity
  8
VERMASSUNG
100
AcDbLine
 10
230.2205060865
 20
111.0684370691
 30
0.0
 11
270.7198084998
 21
111.0684370691
 31
0.0
  0
LINE
  5
163
330
15D
100
AcDbEntity
  8
VERMASSUNG
100
AcDbLine
 10
230.2205060865
 20
133.0684370691
 30
0.0
 11
270.7198084998
 21
133.0684370691
 31
0.0
  0
LINE
  5
164
330
15D
100
AcDbEntity
  8
VERMASSUNG
100
AcDbLine
 10
269.7198084998
 20
111.0684370691
 30
0.0
 11
269.7198084998
 21
133.0684370691
 31
0.0
  0
MTEXT
  5
165
330
15D
100
AcDbEntity
  8
VERMASSUNG
100
AcDbMText
 10
267.1416731949
 20
118.8634371119
 30
0.0
 40
2.0
 41
0.0
 71
     1
 72
     1
  1
%%c
  7
SLDTEXTSTYLE0
 11
6.123233995736766E-17
 21
1.0
 31
0.0
 73
     1
 44
1.0
  0
MTEXT
  5
166
330
15D
100
AcDbEntity
  8
VERMASSUNG
100
AcDbMText
 10
266.9416732436
 20
122.4734371262
 30
0.0
 40
2.0
 41
0.0
 71
     1
 72
     1
  1
22
  7
SLDTEXTSTYLE0
 11
6.123233995736766E-17
 21
1.0
 31
0.0
 73
     1
 44
1.0
  0
ENDBLK
  5
15F
330
15D
100
AcDbEntity
  8
0
100
AcDbBlockEnd
  0
BLOCK
  5
169
330
168
100
AcDbEntity
  8
0
100
AcDbBlockBegin
  2
_D_3
 70
     0
 10
0.0
 20
0.0
 30
0.0
  3
_D_3
  1

  0
SOLID
  5
16B
330
168
100
AcDbEntity
  8
VERMASSUNG
100
AcDbTrace
 10
9.9752022441
 20
90.5684370691
 30
0.0
 11
10.4252022441
 21
93.5684370691
 31
0.0
 12
9.5252022441
 22
93.5684370691
 32
0.0
 13
9.5252022441
 23
93.5684370691
 33
0.0
  0
SOLID
  5
16C
330
168
100
AcDbEntity
  8
VERMASSUNG
100
AcDbTrace
 10
9.9752022441
 20
153.5684370691
 30
0.0
 11
9.5252022441
 21
150.5684370691
 31
0.0
 12
10.4252022441
 22
150.5684370691
 32
0.0
 13
10.4252022441
 23
150.5684370691
 33
0.0
  0
LINE
  5
16D
330
168
100
AcDbEntity
  8
VERMASSUNG
100
AcDbLine
 10
52.3205060865
 20
90.5684370691
 30
0.0
 11
8.9752022441
 21
90.5684370691
 31
0.0
  0
LINE
  5
16E
330
168
100
AcDbEntity
  8
VERMASSUNG
100
AcDbLine
 10
52.3205060865
 20
153.5684370691
 30
0.0
 11
8.9752022441
 21
153.5684370691
 31
0.0
  0
LINE
  5
16F
330
168
100
AcDbEntity
  8
VERMASSUNG
100
AcDbLine
 10
9.9752022441
 20
90.5684370691
 30
0.0
 11
9.9752022441
 21
153.5684370691
 31
0.0
  0
MTEXT
  5
170
330
168
100
AcDbEntity
  8
VERMASSUNG
100
AcDbMText
 10
7.3970669392
 20
118.8634371119
 30
0.0
 40
2.0
 41
0.0
 71
     1
 72
     1
  1
%%c
  7
SLDTEXTSTYLE0
 11
6.123233995736766E-17
 21
1.0
 31
0.0
 73
     1
 44
1.0
  0
MTEXT
  5
171
330
168
100
AcDbEntity
  8
VERMASSUNG
100
AcDbMText
 10
7.1970669879
 20
122.4734371262
 30
0.0
 40
2.0
 41
0.0
 71
     1
 72
     1
  1
63
  7
SLDTEXTSTYLE0
 11
6.123233995736766E-17
 21
1.0
 31
0.0
 73
     1
 44
1.0
  0
ENDBLK
  5
16A
330
168
100
AcDbEntity
  8
0
100
AcDbBlockEnd
  0
BLOCK
  5
174
330
173
100
AcDbEntity
  8
0
100
AcDbBlockBegin
  2
_D_4
 70
     0
 10
0.0
 20
0.0
 30
0.0
  3
_D_4
  1

  0
SOLID
  5
176
330
173
100
AcDbEntity
  8
VERMASSUNG
100
AcDbTrace
 10
259.1279679921
 20
118.0109370691
 30
0.0
 11
259.5779679921
 21
121.0109370691
 31
0.0
 12
258.6779679921
 22
121.0109370691
 32
0.0
 13
258.6779679921
 23
121.0109370691
 33
0.0
  0
SOLID
  5
177
330
173
100
AcDbEntity
  8
VERMASSUNG
100
AcDbTrace
 10
259.1279679921
 20
126.1259370691
 30
0.0
 11
258.6779679921
 21
123.1259370691
 31
0.0
 12
259.5779679921
 22
123.1259370691
 32
0.0
 13
259.5779679921
 23
123.1259370691
 33
0.0
  0
LINE
  5
178
330
173
100
AcDbEntity
  8
VERMASSUNG
100
AcDbLine
 10
246.0205060865
 20
118.0109370691
 30
0.0
 11
260.1279679921
 21
118.0109370691
 31
0.0
  0
LINE
  5
179
330
173
100
AcDbEntity
  8
VERMASSUNG
100
AcDbLine
 10
246.0205060865
 20
126.1259370691
 30
0.0
 11
260.1279679921
 21
126.1259370691
 31
0.0
  0
LINE
  5
17A
330
173
100
AcDbEntity
  8
VERMASSUNG
100
AcDbLine
 10
259.1279679921
 20
118.0109370691
 30
0.0
 11
259.1279679921
 21
126.1259370691
 31
0.0
  0
MTEXT
  5
17B
330
173
100
AcDbEntity
  8
VERMASSUNG
100
AcDbMText
 10
256.5498323962
 20
119.4684370621
 30
0.0
 40
2.0
 41
0.0
 71
     1
 72
     1
  1
SW
  7
SLDTEXTSTYLE0
 11
2.832769448823990E-16
 21
1.0
 31
0.0
 73
     1
 44
1.0
  0
MTEXT
  5
17C
330
173
100
AcDbEntity
  8
VERMASSUNG
100
AcDbMText
 10
256.5498323962
 20
123.2684371261
 30
0.0
 40
2.0
 41
0.0
 71
     1
 72
     1
  1
8
  7
SLDTEXTSTYLE0
 11
2.832769448823990E-16
 21
1.0
 31
0.0
 73
     1
 44
1.0
  0
ENDBLK
  5
175
330
173
100
AcDbEntity
  8
0
100
AcDbBlockEnd
  0
BLOCK
  5
17F
330
17E
100
AcDbEntity
  8
0
100
AcDbBlockBegin
  2
_D_5
 70
     0
 10
0.0
 20
0.0
 30
0.0
  3
_D_5
  1

  0
SOLID
  5
181
330
17E
100
AcDbEntity
  8
VERMASSUNG
100
AcDbTrace
 10
212.0205060865
 20
158.4301742428
 30
0.0
 11
209.0205060865
 21
158.8801742428
 31
0.0
 12
209.0205060865
 22
157.9801742428
 32
0.0
 13
209.0205060865
 23
157.9801742428
 33
0.0
  0
SOLID
  5
182
330
17E
100
AcDbEntity
  8
VERMASSUNG
100
AcDbTrace
 10
77.9705060865
 20
158.4301742428
 30
0.0
 11
80.9705060865
 21
157.9801742428
 31
0.0
 12
80.9705060865
 22
158.8801742428
 32
0.0
 13
80.9705060865
 23
158.8801742428
 33
0.0
  0
LINE
  5
183
330
17E
100
AcDbEntity
  8
VERMASSUNG
100
AcDbLine
 10
212.0205060865
 20
145.2684370691
 30
0.0
 11
212.0205060865
 21
159.4301742428
 31
0.0
  0
LINE
  5
184
330
17E
100
AcDbEntity
  8
VERMASSUNG
100
AcDbLine
 10
77.9705060865
 20
151.9148773929
 30
0.0
 11
77.9705060865
 21
159.4301742428
 31
0.0
  0
LINE
  5
185
330
17E
100
AcDbEntity
  8
VERMASSUNG
100
AcDbLine
 10
212.0205060865
 20
158.4301742428
 30
0.0
 11
77.9705060865
 21
158.4301742428
 31
0.0
  0
MTEXT
  5
186
330
17E
100
AcDbEntity
  8
VERMASSUNG
100
AcDbMText
 10
141.2955060853
 20
161.0083098387
 30
0.0
 40
2.0
 41
0.0
 71
     1
 72
     1
  1
134.05
  7
SLDTEXTSTYLE0
 73
     1
 44
1.0
  0
ENDBLK
  5
180
330
17E
100
AcDbEntity
  8
0
100
AcDbBlockEnd
  0
BLOCK
  5
189
330
188
100
AcDbEntity
  8
0
100
AcDbBlockBegin
  2
_D_6
 70
     0
 10
0.0
 20
0.0
 30
0.0
  3
_D_6
  1

  0
SOLID
  5
18B
330
188
100
AcDbEntity
  8
VERMASSUNG
100
AcDbTrace
 10
212.0205060865
 20
158.4301742428
 30
0.0
 11
215.0205060865
 21
157.9801742428
 31
0.0
 12
215.0205060865
 22
158.8801742428
 32
0.0
 13
215.0205060865
 23
158.8801742428
 33
0.0
  0
SOLID
  5
18C
330
188
100
AcDbEntity
  8
VERMASSUNG
100
AcDbTrace
 10
231.0205060865
 20
158.4301742428
 30
0.0
 11
228.0205060865
 21
158.8801742428
 31
0.0
 12
228.0205060865
 22
157.9801742428
 32
0.0
 13
228.0205060865
 23
157.9801742428
 33
0.0
  0
LINE
  5
18D
330
188
100
AcDbEntity
  8
VERMASSUNG
100
AcDbLine
 10
212.0205060865
 20
145.2684370691
 30
0.0
 11
212.0205060865
 21
159.4301742428
 31
0.0
  0
LINE
  5
18E
330
188
100
AcDbEntity
  8
VERMASSUNG
100
AcDbLine
 10
231.0205060865
 20
132.2684370691
 30
0.0
 11
231.0205060865
 21
159.4301742428
 31
0.0
  0
LINE
  5
18F
330
188
100
AcDbEntity
  8
VERMASSUNG
100
AcDbLine
 10
212.0205060865
 20
158.4301742428
 30
0.0
 11
231.0205060865
 21
158.4301742428
 31
0.0
  0
MTEXT
  5
190
330
188
100
AcDbEntity
  8
VERMASSUNG
100
AcDbMText
 10
220.3205060295
 20
161.0083098387
 30
0.0
 40
2.0
 41
0.0
 71
     1
 72
     1
  1
19
  7
SLDTEXTSTYLE0
 73
     1
 44
1.0
  0
ENDBLK
  5
18A
330
188
100
AcDbEntity
  8
0
100
AcDbBlockEnd
  0
BLOCK
  5
193
330
192
100
AcDbEntity
  8
0
100
AcDbBlockBegin
  2
_D_7
 70
     0
 10
0.0
 20
0.0
 30
0.0
  3
_D_7
  1

  0
SOLID
  5
195
330
192
100
AcDbEntity
  8
VERMASSUNG
100
AcDbTrace
 10
52.0205060865
 20
167.0496301142
 30
0.0
 11
55.0205060865
 21
166.5996301142
 31
0.0
 12
55.0205060865
 22
167.4996301142
 32
0.0
 13
55.0205060865
 23
167.4996301142
 33
0.0
  0
SOLID
  5
196
330
192
100
AcDbEntity
  8
VERMASSUNG
100
AcDbTrace
 10
212.0205060865
 20
167.0496301142
 30
0.0
 11
209.0205060865
 21
167.4996301142
 31
0.0
 12
209.0205060865
 22
166.5996301142
 32
0.0
 13
209.0205060865
 23
166.5996301142
 33
0.0
  0
LINE
  5
197
330
192
100
AcDbEntity
  8
VERMASSUNG
100
AcDbLine
 10
52.0205060865
 20
153.2684370691
 30
0.0
 11
52.0205060865
 21
168.0496301142
 31
0.0
  0
LINE
  5
198
330
192
100
AcDbEntity
  8
VERMASSUNG
100
AcDbLine
 10
212.0205060865
 20
145.2684370691
 30
0.0
 11
212.0205060865
 21
168.0496301142
 31
0.0
  0
LINE
  5
199
330
192
100
AcDbEntity
  8
VERMASSUNG
100
AcDbLine
 10
52.0205060865
 20
167.0496301142
 30
0.0
 11
212.0205060865
 21
167.0496301142
 31
0.0
  0
MTEXT
  5
19A
330
192
100
AcDbEntity
  8
VERMASSUNG
100
AcDbMText
 10
130.1205060544
 20
169.6277657101
 30
0.0
 40
2.0
 41
0.0
 71
     1
 72
     1
  1
160
  7
SLDTEXTSTYLE0
 73
     1
 44
1.0
  0
ENDBLK
  5
194
330
192
100
AcDbEntity
  8
0
100
AcDbBlockEnd
  0
BLOCK
  5
19D
330
19C
100
AcDbEntity
  8
0
100
AcDbBlockBegin
  2
_D_8
 70
     0
 10
0.0
 20
0.0
 30
0.0
  3
_D_8
  1

  0
SOLID
  5
19F
330
19C
100
AcDbEntity
  8
VERMASSUNG
100
AcDbTrace
 10
20.1205060865
 20
175.5684370691
 30
0.0
 11
23.1205060865
 21
175.1184370691
 31
0.0
 12
23.1205060865
 22
176.0184370691
 32
0.0
 13
23.1205060865
 23
176.0184370691
 33
0.0
  0
SOLID
  5
1A0
330
19C
100
AcDbEntity
  8
VERMASSUNG
100
AcDbTrace
 10
246.0205060865
 20
175.5684370691
 30
0.0
 11
243.0205060865
 21
176.0184370691
 31
0.0
 12
243.0205060865
 22
175.1184370691
 32
0.0
 13
243.0205060865
 23
175.1184370691
 33
0.0
  0
LINE
  5
1A1
330
19C
100
AcDbEntity
  8
VERMASSUNG
100
AcDbLine
 10
20.1205060865
 20
141.7591148156
 30
0.0
 11
20.1205060865
 21
176.5684370691
 31
0.0
  0
LINE
  5
1A2
330
19C
100
AcDbEntity
  8
VERMASSUNG
100
AcDbLine
 10
246.0205060865
 20
128.5684370691
 30
0.0
 11
246.0205060865
 21
176.5684370691
 31
0.0
  0
LINE
  5
1A3
330
19C
100
AcDbEntity
  8
VERMASSUNG
100
AcDbLine
 10
20.1205060865
 20
175.5684370691
 30
0.0
 11
246.0205060865
 21
175.5684370691
 31
0.0
  0
MTEXT
  5
1A4
330
19C
100
AcDbEntity
  8
VERMASSUNG
100
AcDbMText
 10
129.9705062303
 20
178.1465726651
 30
0.0
 40
2.0
 41
0.0
 71
     1
 72
     1
  1
225.9
  7
SLDTEXTSTYLE0
 73
     1
 44
1.0
  0
ENDBLK
  5
19E
330
19C
100
AcDbEntity
  8
0
100
AcDbBlockEnd
  0
ENDSEC
  0
SECTION
  2
ENTITIES
  0
MTEXT
  5
78
330
1F
100
AcDbEntity
  8
KOPF_DÜNN
100
AcDbMText
 10
13.8892156294
 20
23.8442973028
 30
0.0
 40
3.0
 41
0.0
 71
     1
 72
     1
  1
HA6.D22.K01.160
  7
SLDTEXTSTYLE0
 73
     1
 44
1.0
  0
MTEXT
  5
79
330
1F
100
AcDbEntity
  8
VERMASSUNG
100
AcDbMText
 10
13.9329988022
 20
28.8834360957
 30
0.0
 40
3.0
 41
0.0
 71
     1
 72
     1
  1
Fräsdorn Typ S_Milling arbor type S
  7
SLDTEXTSTYLE0
 73
     1
 44
1.0
  0
MTEXT
  5
7A
330
1F
100
AcDbEntity
  8
VERMASSUNG
100
AcDbMText
 10
98.8601118557
 20
13.8365368761
 30
0.0
 40
2.0
 41
0.0
 71
     1
 72
     1
  1
Datum: 16.02.2018
  7
SLDTEXTSTYLE0
 73
     1
 44
1.0
  0
MTEXT
  5
7C
330
1F
100
AcDbEntity
  8
VERMASSUNG
100
AcDbMText
 10
13.933048693
 20
18.0482802738
 30
0.0
 40
2.0
 41
0.0
 71
     1
 72
     1
  1
HSK A 63 / Ø22
  7
SLDTEXTSTYLE1
 73
     1
 44
1.0
  0
MTEXT
  5
7D
330
1F
100
AcDbEntity
  8
VERMASSUNG
100
AcDbMText
 10
13.9808475933
 20
13.9090974274
 30
0.0
 40
2.0
 41
0.0
 71
     1
 72
     1
  1
Gewicht: 2551g
  7
SLDTEXTSTYLE0
 73
     1
 44
1.0
  0
LINE
  5
7E
330
1F
100
AcDbEntity
  8
0
  6
Continuous
 62
     7
370
    25
100
AcDbLine
 10
212.0205025102
 20
99.5684361751
 30
0.0
 11
217.1204994346
 21
99.5684361751
 31
0.0
  0
LINE
  5
7F
330
1F
100
AcDbEntity
  8
0
  6
Continuous
 62
     7
370
    25
100
AcDbLine
 10
217.1204994346
 20
109.5684368829
 30
0.0
 11
212.0205025102
 21
109.5684368829
 31
0.0
  0
ARC
  5
80
330
1F
100
AcDbEntity
  8
0
  6
Continuous
 62
     7
370
    25
100
AcDbCircle
 10
217.1205060865
 20
100.0684370691
 30
0.0
 40
0.5
100
AcDbArc
 50
270.0
 51
0.0
  0
ARC
  5
81
330
1F
100
AcDbEntity
  8
0
  6
Continuous
 62
     7
370
    25
100
AcDbCircle
 10
217.1205060865
 20
109.0684370691
 30
0.0
 40
0.5
100
AcDbArc
 50
0.0
 51
90.0
  0
ARC
  5
82
330
1F
100
AcDbEntity
  8
0
  6
Continuous
 62
     7
370
    25
100
AcDbCircle
 10
217.1205060865
 20
135.0684370691
 30
0.0
 40
0.5
100
AcDbArc
 50
270.0
 51
0.0
  0
ARC
  5
83
330
1F
100
AcDbEntity
  8
0
  6
Continuous
 62
     7
370
    25
100
AcDbCircle
 10
217.1205060865
 20
144.0684370691
 30
0.0
 40
0.5
100
AcDbArc
 50
0.0
 51
90.0
  0
LINE
  5
84
330
1F
100
AcDbEntity
  8
0
  6
Continuous
 62
     7
370
    25
100
AcDbLine
 10
212.0205025102
 20
134.5684372554
 30
0.0
 11
217.1204994346
 21
134.5684372554
 31
0.0
  0
LINE
  5
85
330
1F
100
AcDbEntity
  8
0
  6
Continuous
 62
     7
370
    25
100
AcDbLine
 10
217.1204994346
 20
144.5684379632
 30
0.0
 11
212.0205025102
 21
144.5684379632
 31
0.0
  0
LINE
  5
86
330
1F
100
AcDbEntity
  8
0
  6
Continuous
 62
     7
370
    25
100
AcDbLine
 10
244.5205013181
 20
130.0684374491
 30
0.0
 11
236.0205064441
 21
130.0684374491
 31
0.0
  0
LINE
  5
87
330
1F
100
AcDbEntity
  8
0
  6
Continuous
 62
     7
370
    25
100
AcDbLine
 10
236.0205064441
 20
114.0684366892
 30
0.0
 11
244.5205013181
 21
114.0684366892
 31
0.0
  0
ARC
  5
88
330
1F
100
AcDbEntity
  8
0
  6
Continuous
 62
     7
370
    25
100
AcDbCircle
 10
244.5205060865
 20
128.5684370691
 30
0.0
 40
1.5
100
AcDbArc
 50
0.0
 51
90.0
  0
ARC
  5
89
330
1F
100
AcDbEntity
  8
0
  6
Continuous
 62
     7
370
    25
100
AcDbCircle
 10
244.5205060865
 20
115.5684370691
 30
0.0
 40
1.5
100
AcDbArc
 50
270.0
 51
0.0
  0
ARC
  5
8A
330
1F
100
AcDbEntity
  8
0
  6
Continuous
 62
     7
370
    25
100
AcDbCircle
 10
235.6205060865
 20
116.6684370691
 30
0.0
 40
0.4000000000000341
100
AcDbArc
 50
0.0
 51
90.0
  0
ARC
  5
8B
330
1F
100
AcDbEntity
  8
0
  6
Continuous
 62
     7
370
    25
100
AcDbCircle
 10
235.6205060865
 20
127.4684370691
 30
0.0
 40
0.4000000000000341
100
AcDbArc
 50
270.0
 51
0.0
  0
LINE
  5
8C
330
1F
100
AcDbEntity
  8
0
  6
Continuous
 62
     7
370
    25
100
AcDbLine
 10
235.620499673
 20
127.0684369574
 30
0.0
 11
231.0205112125
 21
127.0684369574
 31
0.0
  0
LINE
  5
8D
330
1F
100
AcDbEntity
  8
0
  6
Continuous
 62
     7
370
    25
100
AcDbLine
 10
231.0205112125
 20
117.0684371809
 30
0.0
 11
235.620499673
 21
117.0684371809
 31
0.0
  0
LINE
  5
8E
330
1F
100
AcDbEntity
  8
0
  6
Continuous
 62
     7
370
    25
100
AcDbLine
 10
52.3205061007
 20
90.5684365625
 30
0.0
 11
56.9705060596
 21
90.5684365625
 31
0.0
  0
LINE
  5
8F
330
1F
100
AcDbEntity
  8
0
  6
Continuous
 62
     7
370
    25
100
AcDbLine
 10
57.06491842
 20
153.5684375758
 30
0.0
 11
52.3205061007
 21
153.5684375758
 31
0.0
  0
ARC
  5
90
330
1F
100
AcDbEntity
  8
0
  6
Continuous
 62
     7
370
    25
100
AcDbCircle
 10
52.3205060865
 20
90.8684370691
 30
0.0
 40
0.2999999999999972
100
AcDbArc
 50
180.0
 51
270.0
  0
ARC
  5
91
330
1F
100
AcDbEntity
  8
0
  6
Continuous
 62
     7
370
    25
100
AcDbCircle
 10
52.3205060865
 20
153.2684370691
 30
0.0
 40
0.2999999999999972
100
AcDbArc
 50
90.0
 51
180.0
  0
ARC
  5
92
330
1F
100
AcDbEntity
  8
0
  6
Continuous
 62
     7
370
    25
100
AcDbCircle
 10
79.9705060865
 20
95.0179277237
 30
0.0
 40
2.000000000000004
100
AcDbArc
 50
94.8123490719
 51
160.9859065424
  0
ARC
  5
93
330
1F
100
AcDbEntity
  8
0
  6
Continuous
 62
     7
370
    25
100
AcDbCircle
 10
79.9705060865
 20
149.1189464146
 30
0.0
 40
2.000000000000019
100
AcDbArc
 50
198.6441290909
 51
265.1876509281
  0
ARC
  5
94
330
1F
100
AcDbEntity
  8
0
  6
Continuous
 62
     7
370
    25
100
AcDbCircle
 10
104.9705060865
 20
-201.9315629309
 30
0.0
 40
300.0
100
AcDbArc
 50
90.0
 51
94.8123490719
  0
ARC
  5
95
330
1F
100
AcDbEntity
  8
0
  6
Continuous
 62
     7
370
    25
100
AcDbCircle
 10
104.9705060865
 20
446.0684370691
 30
0.0
 40
300.0
100
AcDbArc
 50
265.1876509281
 51
270.0
  0
ARC
  5
96
330
1F
100
AcDbEntity
  8
0
  6
Continuous
 62
     7
370
    25
100
AcDbCircle
 10
51.5204993338
 20
97.4979994548
 30
0.0
 40
0.6000067526677164
100
AcDbArc
 50
33.5571153394
 51
90.0
  0
ARC
  5
97
330
1F
100
AcDbEntity
  8
0
  6
Continuous
 62
     7
370
    25
100
AcDbCircle
 10
51.5204993338
 20
146.6388746835
 30
0.0
 40
0.6000067526677242
100
AcDbArc
 50
270.0
 51
326.4428846606
  0
LINE
  5
98
330
1F
100
AcDbEntity
  8
0
  6
Continuous
 62
     7
370
    25
100
AcDbLine
 10
38.7900835748
 20
145.7262209351
 30
0.0
 11
26.2205052103
 21
145.0964829619
 31
0.0
  0
LINE
  5
99
330
1F
100
AcDbEntity
  8
0
  6
Continuous
 62
     7
370
    25
100
AcDbLine
 10
50.0205059915
 20
146.2888682927
 30
0.0
 11
47.2018966364
 21
146.147655576
 31
0.0
  0
LINE
  5
9A
330
1F
100
AcDbEntity
  8
0
  6
Continuous
 62
     7
370
    25
100
AcDbLine
 10
47.2021182912
 20
97.9892073865
 30
0.0
 11
50.0205059915
 21
97.8480058456
 31
0.0
  0
LINE
  5
9B
330
1F
100
AcDbEntity
  8
0
  6
Continuous
 62
     7
370
    25
100
AcDbLine
 10
30.2205058659
 20
98.8399910475
 30
0.0
 11
38.790782998
 21
98.410617813
 31
0.0
  0
LINE
  5
9C
330
1F
100
AcDbEntity
  8
0
  6
Continuous
 62
     7
370
    25
100
AcDbLine
 10
50.0205059915
 20
97.8480058456
 30
0.0
 11
50.8772189176
 21
98.0775619591
 31
0.0
  0
LINE
  5
9D
330
1F
100
AcDbEntity
  8
0
  6
Continuous
 62
     7
370
    25
100
AcDbLine
 10
50.8772189176
 20
146.0593121792
 30
0.0
 11
50.0205059915
 21
146.2888682927
 31
0.0
  0
LINE
  5
9E
330
1F
100
AcDbEntity
  8
0
  6
Continuous
 62
     7
370
    25
100
AcDbLine
 10
104.9705046142
 20
98.0684368605
 30
0.0
 11
211.2205038692
 21
98.0684368605
 31
0.0
  0
LINE
  5
9F
330
1F
100
AcDbEntity
  8
0
  6
Continuous
 62
     7
370
    25
100
AcDbLine
 10
211.2205038692
 20
146.0684372778
 30
0.0
 11
104.9705046142
 21
146.0684372778
 31
0.0
  0
ARC
  5
A0
330
1F
100
AcDbEntity
  8
0
  6
Continuous
 62
     7
370
    25
100
AcDbCircle
 10
211.2205060865
 20
98.8684370691
 30
0.0
 40
0.8000000000000114
100
AcDbArc
 50
270.0
 51
360.0
  0
ARC
  5
A1
330
1F
100
AcDbEntity
  8
0
  6
Continuous
 62
     7
370
    25
100
AcDbCircle
 10
211.2205060865
 20
145.2684370691
 30
0.0
 40
0.799999999999983
100
AcDbArc
 50
0.0
 51
90.0
  0
ARC
  5
A2
330
1F
100
AcDbEntity
  8
0
  6
Continuous
 62
     7
370
    25
100
AcDbCircle
 10
51.0325102869
 20
97.4980062074
 30
0.0
 40
0.5999999999999943
100
AcDbArc
 50
90.0
 51
105.0
  0
ARC
  5
A3
330
1F
100
AcDbEntity
  8
0
  6
Continuous
 62
     7
370
    25
100
AcDbCircle
 10
51.0325102869
 20
146.6388679309
 30
0.0
 40
0.5999999999999943
100
AcDbArc
 50
255.0
 51
270.0
  0
LINE
  5
A4
330
1F
100
AcDbEntity
  8
0
  6
Continuous
 62
     7
370
    25
100
AcDbLine
 10
51.0325103213
 20
98.0980063523
 30
0.0
 11
51.5204993106
 21
98.0980063523
 31
0.0
  0
LINE
  5
A5
330
1F
100
AcDbEntity
  8
0
  6
Continuous
 62
     7
370
    25
100
AcDbLine
 10
51.5204993106
 20
146.038867786
 30
0.0
 11
51.0325103213
 21
146.038867786
 31
0.0
  0
LINE
  5
A6
330
1F
100
AcDbEntity
  8
0
  6
Continuous
 62
     7
370
    25
100
AcDbLine
 10
21.4038426901
 20
101.1984369452
 30
0.0
 11
28.8205063815
 21
101.1984369452
 31
0.0
  0
ARC
  5
A7
330
1F
100
AcDbEntity
  8
0
  6
Continuous
 62
     7
370
    25
100
AcDbCircle
 10
212.4205060865
 20
110.8184370691
 30
0.0
 40
0.5999999999999948
100
AcDbArc
 50
90.0
 51
131.8103148958
  0
ARC
  5
A8
330
1F
100
AcDbEntity
  8
0
  6
Continuous
 62
     7
370
    25
100
AcDbCircle
 10
212.4205060865
 20
133.3184370691
 30
0.0
 40
0.6000000000000227
100
AcDbArc
 50
228.1896851042
 51
270.0
  0
ARC
  5
A9
330
1F
100
AcDbEntity
  8
0
  6
Continuous
 62
     7
370
    25
100
AcDbCircle
 10
230.2205060865
 20
111.8684370691
 30
0.0
 40
0.8000000000000398
100
AcDbArc
 50
270.0
 51
0.0
  0
ARC
  5
AA
330
1F
100
AcDbEntity
  8
0
  6
Continuous
 62
     7
370
    25
100
AcDbCircle
 10
230.2205060865
 20
132.2684370691
 30
0.0
 40
0.8000000000000398
100
AcDbArc
 50
0.0
 51
90.0
  0
LINE
  5
AB
330
1F
100
AcDbEntity
  8
0
  6
Continuous
 62
     7
370
    25
100
AcDbLine
 10
214.520500126
 20
111.0684371288
 30
0.0
 11
230.2205125714
 21
111.0684371288
 31
0.0
  0
LINE
  5
AC
330
1F
100
AcDbEntity
  8
0
  6
Continuous
 62
     7
370
    25
100
AcDbLine
 10
230.2205125714
 20
133.0684370095
 30
0.0
 11
214.520500126
 21
133.0684370095
 31
0.0
  0
LINE
  5
AD
330
1F
100
AcDbEntity
  8
0
  6
Continuous
 62
     7
370
    25
100
AcDbLine
 10
214.520500126
 20
133.0684370095
 30
0.0
 11
213.2905880834
 21
132.7388819973
 31
0.0
  0
LINE
  5
AE
330
1F
100
AcDbEntity
  8
0
  6
Continuous
 62
     7
370
    25
100
AcDbLine
 10
213.2905880834
 20
111.397992141
 30
0.0
 11
214.520500126
 21
111.0684371288
 31
0.0
  0
ARC
  5
AF
330
1F
100
AcDbEntity
  8
0
  6
Continuous
 62
     7
370
    25
100
AcDbCircle
 10
213.1352968053
 20
110.8184370691
 30
0.0
 40
0.6000000000000008
100
AcDbArc
 50
75.0
 51
90.0
  0
ARC
  5
B0
330
1F
100
AcDbEntity
  8
0
  6
Continuous
 62
     7
370
    25
100
AcDbCircle
 10
213.1352968053
 20
133.3184370691
 30
0.0
 40
0.6000000000000227
100
AcDbArc
 50
270.0
 51
285.0
  0
LINE
  5
B1
330
1F
100
AcDbEntity
  8
0
  6
Continuous
 62
     7
370
    25
100
AcDbLine
 10
212.4205092813
 20
111.4184374655
 30
0.0
 11
213.1353030826
 21
111.4184374655
 31
0.0
  0
LINE
  5
B2
330
1F
100
AcDbEntity
  8
0
  6
Continuous
 62
     7
370
    25
100
AcDbLine
 10
213.1353030826
 20
132.7184366728
 30
0.0
 11
212.4205092813
 21
132.7184366728
 31
0.0
  0
ARC
  5
B3
330
1F
100
AcDbEntity
  8
0
  6
Continuous
 62
     7
370
    25
100
AcDbCircle
 10
28.8205060865
 20
99.7984370691
 30
0.0
 40
1.400000000000006
100
AcDbArc
 50
42.2465410162
 51
90.0
  0
LINE
  5
B4
330
1F
100
AcDbEntity
  8
0
  6
Continuous
 62
     7
370
    25
100
AcDbLine
 10
20.1215381647
 20
102.3474040175
 30
0.0
 11
21.2616688485
 21
101.2072733338
 31
0.0
  0
LINE
  5
B5
330
1F
100
AcDbEntity
  8
0
  6
Continuous
 62
     7
370
    25
100
AcDbLine
 10
21.2616688485
 20
142.9296008045
 30
0.0
 11
20.1304080809
 21
141.7983381743
 31
0.0
  0
ARC
  5
B6
330
1F
100
AcDbEntity
  8
0
  6
Continuous
 62
     7
370
    25
100
AcDbCircle
 10
24.8205060865
 20
144.3384370691
 30
0.0
 40
1.40000000000001
100
AcDbArc
 50
270.0
 51
301.7485287426
  0
LINE
  5
B7
330
1F
100
AcDbEntity
  8
0
  6
Continuous
 62
     7
370
    25
100
AcDbLine
 10
24.8205057259
 20
142.9384371931
 30
0.0
 11
21.3947716082
 21
142.9384371931
 31
0.0
  0
LINE
  5
B8
330
1F
100
AcDbEntity
  8
0
  6
Continuous
 62
     7
370
    25
100
AcDbLine
 10
217.6205078984
 20
100.0684371884
 30
0.0
 11
217.6205078984
 21
109.0684368009
 31
0.0
  0
LINE
  5
B9
330
1F
100
AcDbEntity
  8
0
  6
Continuous
 62
     7
370
    25
100
AcDbLine
 10
217.6205078984
 20
135.0684373374
 30
0.0
 11
217.6205078984
 21
144.0684369499
 31
0.0
  0
LINE
  5
BA
330
1F
100
AcDbEntity
  8
0
  6
Continuous
 62
     7
370
    25
100
AcDbLine
 10
236.0205064441
 20
130.0684374491
 30
0.0
 11
236.0205064441
 21
114.0684366892
 31
0.0
  0
LINE
  5
BB
330
1F
100
AcDbEntity
  8
0
  6
Continuous
 62
     7
370
    25
100
AcDbLine
 10
246.0205118085
 20
128.5684372033
 30
0.0
 11
246.0205118085
 21
115.5684374007
 31
0.0
  0
LINE
  5
BC
330
1F
100
AcDbEntity
  8
0
  6
Continuous
 62
     7
370
    25
100
AcDbLine
 10
56.9705060596
 20
141.9184378082
 30
0.0
 11
66.6285735468
 21
141.9184378082
 31
0.0
  0
LINE
  5
BD
330
1F
100
AcDbEntity
  8
0
  6
Continuous
 62
     7
370
    25
100
AcDbLine
 10
66.6285735468
 20
91.8815194363
 30
0.0
 11
66.6285735468
 21
141.9184378082
 31
0.0
  0
LINE
  5
BE
330
1F
100
AcDbEntity
  8
0
  6
Continuous
 62
     7
370
    25
100
AcDbLine
 10
66.6285735468
 20
91.8815194363
 30
0.0
 11
64.9705064396
 21
91.8815194363
 31
0.0
  0
SPLINE
  5
BF
330
1F
100
AcDbEntity
  8
0
  6
Continuous
 62
     7
370
    25
100
AcDbSpline
210
0.0
220
0.0
230
1.0
 70
     8
 71
     3
 72
    28
 73
    24
 74
     0
 42
0.000000001
 43
0.00000001
 40
0.0
 40
0.0
 40
0.0
 40
0.0
 40
0.1250000000000001
 40
0.1250000000000001
 40
0.1875000000000001
 40
0.1875000000000001
 40
0.2500000000000001
 40
0.2500000000000001
 40
0.3749999999999999
 40
0.3749999999999999
 40
0.4375
 40
0.4375
 40
0.4999999999999999
 40
0.4999999999999999
 40
0.6249999999999999
 40
0.6249999999999999
 40
0.7499999999999997
 40
0.7499999999999997
 40
0.8124999999999998
 40
0.8124999999999998
 40
0.8749999999999998
 40
0.8749999999999998
 40
1.0
 40
1.0
 40
1.0
 40
1.0
 10
64.97050608645834
 20
91.88151937289841
 30
0.0
 10
64.43879832896542
 20
91.88151937289842
 30
0.0
 10
63.91655976365508
 20
91.86573465894821
 30
0.0
 10
63.14668927738007
 20
91.820739244872
 30
0.0
 10
62.89232970518874
 20
91.80218424979627
 30
0.0
 10
62.38820812449023
 20
91.75833152734975
 30
0.0
 10
62.13848530706231
 20
91.73298692039756
 30
0.0
 10
61.41289535561589
 20
91.64958484264746
 30
0.0
 10
60.95453509403436
 20
91.58371928349638
 30
0.0
 10
60.30403715064048
 20
91.47474894300458
 30
0.0
 10
60.09235509984802
 20
91.43650930723793
 30
0.0
 10
59.68828361071002
 20
91.35875056981857
 30
0.0
 10
59.49577709688915
 20
91.31924960764323
 30
0.0
 10
58.94594212586787
 20
91.20034186527722
 30
0.0
 10
58.61601334755906
 20
91.12052418385262
 30
0.0
 10
58.03154207899038
 20
90.96718102205656
 30
0.0
 10
57.78526494097694
 20
90.89584726878729
 30
0.0
 10
57.48542214827887
 20
90.80190376171268
 30
0.0
 10
57.39696529120669
 20
90.77270996835276
 30
0.0
 10
57.24360393790157
 20
90.71924339408935
 30
0.0
 10
57.17851572367532
 20
90.69488405981416
 30
0.0
 10
57.02292170773454
 20
90.63129391436942
 30
0.0
 10
56.97050608645834
 20
90.60119097928018
 30
0.0
 10
56.97050608645834
 20
90.58431408628326
 30
0.0
  0
LINE
  5
C0
330
1F
100
AcDbEntity
  8
0
  6
Continuous
 62
     7
370
    25
100
AcDbLine
 10
56.9705060596
 20
90.5843137498
 30
0.0
 11
56.9705060596
 21
90.5684365625
 31
0.0
  0
SPLINE
  5
C1
330
1F
100
AcDbEntity
  8
0
  6
Continuous
 62
     7
370
    25
100
AcDbSpline
210
0.0
220
0.0
230
1.0
 70
     8
 71
     3
 72
    13
 73
     9
 74
     0
 42
0.000000001
 43
0.00000001
 40
0.0
 40
0.0
 40
0.0
 40
0.0
 40
0.2099182057340242
 40
0.4196695958714599
 40
0.6337222317731117
 40
0.7410464986892825
 40
0.8516098234112257
 40
1.0
 40
1.0
 40
1.0
 40
1.0
 10
64.97050643961587
 20
152.535632505504
 30
0.0
 10
64.08709040253294
 20
152.558773637031
 30
0.0
 10
62.32096035215173
 20
152.6050375105334
 30
0.0
 10
59.96201393412054
 20
152.9238437335192
 30
0.0
 10
58.43502195843161
 20
153.2226807200273
 30
0.0
 10
57.59364533410147
 20
153.4144501432718
 30
0.0
 10
57.06795309165269
 20
153.5432213812258
 30
0.0
 10
57.06602391268544
 20
153.5441566378876
 30
0.0
 10
57.06491841997661
 20
153.5446925754227
 30
0.0
  0
LINE
  5
C2
330
1F
100
AcDbEntity
  8
0
  6
Continuous
 62
     7
370
    25
100
AcDbLine
 10
66.6285735468
 20
152.5356325055
 30
0.0
 11
64.9705064396
 21
152.5356325055
 31
0.0
  0
LINE
  5
C3
330
1F
100
AcDbEntity
  8
0
  6
Continuous
 62
     7
370
    25
100
AcDbLine
 10
66.6285735468
 20
146.5271266843
 30
0.0
 11
66.6285735468
 21
152.5356325055
 31
0.0
  0
LINE
  5
C4
330
1F
100
AcDbEntity
  8
0
  6
Continuous
 62
     7
370
    25
100
AcDbLine
 10
64.2161267723
 20
146.5271266843
 30
0.0
 11
66.6285735468
 21
146.5271266843
 31
0.0
  0
SPLINE
  5
C5
330
1F
100
AcDbEntity
  8
0
  6
Continuous
 62
     7
370
    25
100
AcDbSpline
210
0.0
220
0.0
230
1.0
 70
     8
 71
     3
 72
    20
 73
    16
 74
     0
 42
0.000000001
 43
0.00000001
 40
0.0
 40
0.0
 40
0.0
 40
0.0
 40
0.2499999999999997
 40
0.2499999999999997
 40
0.3749999999999997
 40
0.3749999999999997
 40
0.4999999999999998
 40
0.4999999999999998
 40
0.6249999999999998
 40
0.6249999999999998
 40
0.7499999999999999
 40
0.7499999999999999
 40
0.8749999999999999
 40
0.8749999999999999
 40
1.0
 40
1.0
 40
1.0
 40
1.0
 10
56.97050608645834
 20
141.9184370691456
 30
0.0
 10
57.2188798207464
 20
142.572299497443
 30
0.0
 10
57.53844991309166
 20
143.1760852794401
 30
0.0
 10
58.16075614629634
 20
144.0029240156087
 30
0.0
 10
58.39218040672711
 20
144.2653526535616
 30
0.0
 10
58.91339474637683
 20
144.7620153076666
 30
0.0
 10
59.2000152290119
 20
144.9926021866882
 30
0.0
 10
59.81949997031951
 20
145.4091564112708
 30
0.0
 10
60.15380034980647
 20
145.5966542132383
 30
0.0
 10
60.87906082243126
 20
145.9280511908747
 30
0.0
 10
61.26097587982172
 20
146.06755517837
 30
0.0
 10
62.05576405599341
 20
146.2930086858409
 30
0.0
 10
62.46992225019979
 20
146.3796347973846
 30
0.0
 10
63.33546859078118
 20
146.4976155862387
 30
0.0
 10
63.773356205793
 20
146.527126731513
 30
0.0
 10
64.21612643214762
 20
146.527126731513
 30
0.0
  0
SPLINE
  5
C6
330
1F
100
AcDbEntity
  8
0
  6
Continuous
 62
     7
370
    25
100
AcDbSpline
210
0.0
220
0.0
230
1.0
 70
    11
 71
     3
 72
    70
 73
    66
 74
     0
 42
0.000000001
 43
0.00000001
 40
0.0
 40
0.0
 40
0.0
 40
0.0
 40
0.0312499999999999
 40
0.0312499999999999
 40
0.0624999999999998
 40
0.0624999999999998
 40
0.0937499999999997
 40
0.0937499999999997
 40
0.1249999999999996
 40
0.1249999999999996
 40
0.1562499999999994
 40
0.1562499999999994
 40
0.1874999999999993
 40
0.1874999999999993
 40
0.2187499999999992
 40
0.2187499999999992
 40
0.2499999999999991
 40
0.2499999999999991
 40
0.281249999999999
 40
0.281249999999999
 40
0.3124999999999989
 40
0.3124999999999989
 40
0.3437499999999988
 40
0.3437499999999988
 40
0.3749999999999987
 40
0.3749999999999987
 40
0.4062499999999986
 40
0.4062499999999986
 40
0.4374999999999984
 40
0.4374999999999984
 40
0.4687499999999983
 40
0.4687499999999983
 40
0.4999999999999982
 40
0.4999999999999982
 40
0.5312499999999983
 40
0.5312499999999983
 40
0.5624999999999984
 40
0.5624999999999984
 40
0.5937499999999986
 40
0.5937499999999986
 40
0.6249999999999987
 40
0.6249999999999987
 40
0.6562499999999988
 40
0.6562499999999988
 40
0.6874999999999989
 40
0.6874999999999989
 40
0.718749999999999
 40
0.718749999999999
 40
0.7499999999999991
 40
0.7499999999999991
 40
0.7812499999999992
 40
0.7812499999999992
 40
0.8124999999999993
 40
0.8124999999999993
 40
0.8437499999999994
 40
0.8437499999999994
 40
0.8749999999999996
 40
0.8749999999999996
 40
0.9062499999999997
 40
0.9062499999999997
 40
0.9374999999999998
 40
0.9374999999999998
 40
0.9687499999999999
 40
0.9687499999999999
 40
1.0
 40
1.0
 40
1.0
 40
1.0
 10
60.02050608645835
 20
132.6893439551289
 30
0.0
 10
59.75596074779821
 20
132.6893439551289
 30
0.0
 10
59.49589008042111
 20
132.7140212499141
 30
0.0
 10
58.98431540058569
 20
132.810492922956
 30
0.0
 10
58.73014011684549
 20
132.8834738389361
 30
0.0
 10
58.24586948678379
 20
133.0732144418747
 30
0.0
 10
58.01622839490263
 20
133.1890751002684
 30
0.0
 10
57.58162404666914
 20
133.4616929462262
 30
0.0
 10
57.37605827002253
 20
133.6197320282799
 30
0.0
 10
57.00750112942729
 20
133.9632748792506
 30
0.0
 10
56.8420201466918
 20
134.1500373233523
 30
0.0
 10
56.5495956372567
 20
134.553580497749
 30
0.0
 10
56.42549466063021
 20
134.7670774941782
 30
0.0
 10
56.22591546388049
 20
135.2064608081007
 30
0.0
 10
56.14898187802221
 20
135.4356007952463
 30
0.0
 10
56.04612481950184
 20
135.9015749180064
 30
0.0
 10
56.02065191004272
 20
136.1344573636825
 30
0.0
 10
56.02036149947495
 20
136.5998548987623
 30
0.0
 10
56.04638613325069
 20
136.8347306561567
 30
0.0
 10
56.14853441774269
 20
137.2862238034029
 30
0.0
 10
56.22411086532585
 20
137.5042702788143
 30
0.0
 10
56.42460839647077
 20
137.9253648038521
 30
0.0
 10
56.54973723797915
 20
138.1272861883704
 30
0.0
 10
56.83909603900072
 20
138.4993156708893
 30
0.0
 10
57.00450702605621
 20
138.6719439744697
 30
0.0
 10
57.37749758420403
 20
138.9892619790157
 30
0.0
 10
57.57923061729313
 20
139.1290489125173
 30
0.0
 10
58.01208986812101
 20
139.3732251660691
 30
0.0
 10
58.24600840101038
 20
139.4784546771106
 30
0.0
 10
58.73019213615299
 20
139.6466118234858
 30
0.0
 10
58.9795077621085
 20
139.7098627140796
 30
0.0
 10
59.49254028653622
 20
139.7954419231822
 30
0.0
 10
59.75783410944087
 20
139.8173140881046
 30
0.0
 10
60.28016872931061
 20
139.8174777377486
 30
0.0
 10
60.53992239179236
 20
139.7964760456526
 30
0.0
 10
61.05653420743759
 20
139.7110736905749
 30
0.0
 10
61.30890024793786
 20
139.6470675072879
 30
0.0
 10
61.7904253694707
 20
139.4802529872468
 30
0.0
 10
62.02327610158426
 20
139.3761198238477
 30
0.0
 10
62.46036595002303
 20
139.1301331713526
 30
0.0
 10
62.6616869386802
 20
138.9903833404038
 30
0.0
 10
63.03077296398011
 20
138.6772452706792
 30
0.0
 10
63.19975771503181
 20
138.5017891114091
 30
0.0
 10
63.490213771691
 20
138.1289488473089
 30
0.0
 10
63.61328558305314
 20
137.930827037198
 30
0.0
 10
63.81462182447514
 20
137.5101156944643
 30
0.0
 10
63.89183437041739
 20
137.2881256737968
 30
0.0
 10
63.99403791331746
 20
136.8382607340884
 30
0.0
 10
64.02026626476979
 20
136.6080053209716
 30
0.0
 10
64.02074266408687
 20
136.1366893784226
 30
0.0
 10
63.99500025158891
 20
135.9034519627085
 30
0.0
 10
63.89368947522505
 20
135.4417754232104
 30
0.0
 10
63.8168568358341
 20
135.2108780360982
 30
0.0
 10
63.61645299661893
 20
134.7686020223066
 30
0.0
 10
63.49378149832688
 20
134.5575395910207
 30
0.0
 10
63.20383420916264
 20
134.156041080288
 30
0.0
 10
63.03526322979741
 20
133.9651345582121
 30
0.0
 10
62.66699363568426
 20
133.621409226215
 30
0.0
 10
62.46593177841395
 20
133.4662720400009
 30
0.0
 10
62.02890085982901
 20
133.1911946799212
 30
0.0
 10
61.79675264669941
 20
133.0740784504992
 30
0.0
 10
61.31574236520056
 20
132.8851519654346
 30
0.0
 10
61.06364228237012
 20
132.8120769950403
 30
0.0
 10
60.5465727961111
 20
132.7140249359058
 30
0.0
 10
60.28505142511849
 20
132.6893439551289
 30
0.0
 10
60.02050608645835
 20
132.6893439551289
 30
0.0
  0
SPLINE
  5
C7
330
1F
100
AcDbEntity
  8
0
  6
Continuous
 62
     7
370
    25
100
AcDbSpline
210
0.0
220
0.0
230
1.0
 70
    11
 71
     3
 72
    70
 73
    66
 74
     0
 42
0.000000001
 43
0.00000001
 40
0.0
 40
0.0
 40
0.0
 40
0.0
 40
0.0312500000000003
 40
0.0312500000000003
 40
0.0625000000000006
 40
0.0625000000000006
 40
0.0937500000000009
 40
0.0937500000000009
 40
0.1250000000000012
 40
0.1250000000000012
 40
0.1562500000000014
 40
0.1562500000000014
 40
0.1875000000000017
 40
0.1875000000000017
 40
0.2187500000000021
 40
0.2187500000000021
 40
0.2500000000000023
 40
0.2500000000000023
 40
0.2812500000000024
 40
0.2812500000000024
 40
0.3125000000000026
 40
0.3125000000000026
 40
0.3437500000000027
 40
0.3437500000000027
 40
0.3750000000000028
 40
0.3750000000000028
 40
0.4062500000000029
 40
0.4062500000000029
 40
0.4375000000000031
 40
0.4375000000000031
 40
0.4687500000000032
 40
0.4687500000000032
 40
0.5000000000000033
 40
0.5000000000000033
 40
0.5312500000000032
 40
0.5312500000000032
 40
0.562500000000003
 40
0.562500000000003
 40
0.5937500000000029
 40
0.5937500000000029
 40
0.6250000000000027
 40
0.6250000000000027
 40
0.6562500000000026
 40
0.6562500000000026
 40
0.6875000000000024
 40
0.6875000000000024
 40
0.7187500000000022
 40
0.7187500000000022
 40
0.7500000000000021
 40
0.7500000000000021
 40
0.7812500000000019
 40
0.7812500000000019
 40
0.8125000000000016
 40
0.8125000000000016
 40
0.8437500000000013
 40
0.8437500000000013
 40
0.875000000000001
 40
0.875000000000001
 40
0.9062500000000008
 40
0.9062500000000008
 40
0.9375000000000006
 40
0.9375000000000006
 40
0.9687500000000002
 40
0.9687500000000002
 40
1.0
 40
1.0
 40
1.0
 40
1.0
 10
60.02050608645835
 20
147.1274004639247
 30
0.0
 10
59.75596074779821
 20
147.1274004639247
 30
0.0
 10
59.49589008042111
 20
147.1433009043396
 30
0.0
 10
58.98431540058569
 20
147.2052452545138
 30
0.0
 10
58.73014011684549
 20
147.2520474886051
 30
0.0
 10
58.24586948678379
 20
147.3730244720602
 30
0.0
 10
58.01622839490263
 20
147.446626799867
 30
0.0
 10
57.58162404666914
 20
147.6184510708451
 30
0.0
 10
57.37605827002253
 20
147.7174544937725
 30
0.0
 10
57.00750112942729
 20
147.9305509076854
 30
0.0
 10
56.8420201466918
 20
148.0454506238151
 30
0.0
 10
56.5495956372567
 20
148.2908175225054
 30
0.0
 10
56.42549466063021
 20
148.4192574229756
 30
0.0
 10
56.22591546388049
 20
148.6801495710616
 30
0.0
 10
56.14898187802223
 20
148.814530742401
 30
0.0
 10
56.04612481950184
 20
149.0838506935073
 30
0.0
 10
56.02065191004272
 20
149.2165319577255
 30
0.0
 10
56.02036149947495
 20
149.4777184318565
 30
0.0
 10
56.04638613325069
 20
149.6074834700212
 30
0.0
 10
56.14853441774269
 20
149.8530661042939
 30
0.0
 10
56.22411086532585
 20
149.9697276416028
 30
0.0
 10
56.42460839647077
 20
150.1916328317573
 30
0.0
 10
56.54973723797915
 20
150.2962440856803
 30
0.0
 10
56.83909603900074
 20
150.4862904972884
 30
0.0
 10
57.00450702605621
 20
150.5730501687381
 30
0.0
 10
57.37749758420403
 20
150.7305545444896
 30
0.0
 10
57.57923061729313
 20
150.7988798092769
 30
0.0
 10
58.012089868121
 20
150.917109532896
 30
0.0
 10
58.24600840101038
 20
150.9674044489999
 30
0.0
 10
58.73019213615299
 20
151.0472699858895
 30
0.0
 10
58.9795077621085
 20
151.0770111136891
 30
0.0
 10
59.49254028653622
 20
151.1171638551973
 30
0.0
 10
59.75783410944086
 20
151.1273621246072
 30
0.0
 10
60.28016872931061
 20
151.1274385829919
 30
0.0
 10
60.53992239179235
 20
151.1176475713829
 30
0.0
 10
61.05653420743759
 20
151.0775807326441
 30
0.0
 10
61.30890024793786
 20
151.0474835657873
 30
0.0
 10
61.79042536947069
 20
150.9682613559571
 30
0.0
 10
62.02327610158424
 20
150.9185038764938
 30
0.0
 10
62.46036595002301
 20
150.7994119340433
 30
0.0
 10
62.6616869386802
 20
150.7310966724961
 30
0.0
 10
63.03077296398009
 20
150.5756957055625
 30
0.0
 10
63.19975771503179
 20
150.4875433634956
 30
0.0
 10
63.490213771691
 20
150.2971039743793
 30
0.0
 10
63.61328558305313
 20
150.1944793966802
 30
0.0
 10
63.81462182447514
 20
149.9728390500721
 30
0.0
 10
63.89183437041737
 20
149.8540849745246
 30
0.0
 10
63.99403791331746
 20
149.6094190356069
 30
0.0
 10
64.02026626476977
 20
149.4822623101584
 30
0.0
 10
64.02074266408687
 20
149.2178141643028
 30
0.0
 10
63.9950002515889
 20
149.0849134840456
 30
0.0
 10
63.89368947522505
 20
148.8181212105636
 30
0.0
 10
63.8168568358341
 20
148.682757309095
 30
0.0
 10
63.61645299661893
 20
148.4201775137925
 30
0.0
 10
63.49378149832689
 20
148.2932023540387
 30
0.0
 10
63.20383420916264
 20
148.0491229679563
 30
0.0
 10
63.03526322979741
 20
147.9316978432024
 30
0.0
 10
62.66699363568426
 20
147.718501382254
 30
0.0
 10
62.46593177841395
 20
147.6213272638291
 30
0.0
 10
62.02890085982901
 20
147.447972376615
 30
0.0
 10
61.79675264669941
 20
147.3735728249582
 30
0.0
 10
61.31574236520054
 20
147.2531199454536
 30
0.0
 10
61.06364228237012
 20
147.2062615701876
 30
0.0
 10
60.54657279611111
 20
147.1433040732039
 30
0.0
 10
60.28505142511849
 20
147.1274004639248
 30
0.0
 10
60.02050608645835
 20
147.1274004639247
 30
0.0
  0
LINE
  5
C8
330
1F
100
AcDbEntity
  8
0
  6
Continuous
 62
     7
370
    25
100
AcDbLine
 10
73.4124380077
 20
91.8815194363
 30
0.0
 11
73.4124380077
 21
141.9184378082
 31
0.0
  0
SPLINE
  5
C9
330
1F
100
AcDbEntity
  8
0
  6
Continuous
 62
     7
370
    25
100
AcDbSpline
210
0.0
220
0.0
230
1.0
 70
     8
 71
     3
 72
     8
 73
     4
 74
     0
 42
0.000000001
 43
0.00000001
 40
0.0
 40
0.0
 40
0.0
 40
0.0
 40
1.0
 40
1.0
 40
1.0
 40
1.0
 10
73.4124389179474
 20
91.88151937289841
 30
0.0
 10
72.91695925728166
 20
92.77704546083177
 30
0.0
 10
72.42284520923953
 20
93.67332987588404
 30
0.0
 10
71.93050608645835
 20
94.57059991009073
 30
0.0
  0
LINE
  5
CA
330
1F
100
AcDbEntity
  8
0
  6
Continuous
 62
     7
370
    25
100
AcDbLine
 10
71.9305063511
 20
94.5705997492
 30
0.0
 11
71.9305063511
 21
141.9184378082
 31
0.0
  0
SPLINE
  5
CB
330
1F
100
AcDbEntity
  8
0
  6
Continuous
 62
     7
370
    25
100
AcDbSpline
210
0.0
220
0.0
230
1.0
 70
    24
 71
     3
 72
     8
 73
     4
 74
     0
 42
0.000000001
 43
0.00000001
 40
0.0
 40
0.0
 40
0.0
 40
0.0
 40
1.0
 40
1.0
 40
1.0
 40
1.0
 10
71.93050608645835
 20
141.9184370691456
 30
0.0
 10
72.41045808082323
 20
141.9184370691456
 30
0.0
 10
72.90575880979685
 20
141.9184370691456
 30
0.0
 10
73.41243891794741
 20
141.9184370691456
 30
0.0
  0
LINE
  5
CC
330
1F
100
AcDbEntity
  8
0
  6
Continuous
 62
     7
370
    25
100
AcDbLine
 10
52.0205060865
 20
90.8684379155
 30
0.0
 11
52.0205060865
 21
153.2684362228
 31
0.0
  0
LINE
  5
CD
330
1F
100
AcDbEntity
  8
0
  6
Continuous
 62
     7
370
    25
100
AcDbLine
 10
77.9705057765
 20
92.5081598307
 30
0.0
 11
77.9705057765
 21
141.9184378082
 31
0.0
  0
SPLINE
  5
CE
330
1F
100
AcDbEntity
  8
0
  6
Continuous
 62
     7
370
    25
100
AcDbSpline
210
0.0
220
0.0
230
1.0
 70
     8
 71
     3
 72
    10
 73
     6
 74
     0
 42
0.000000001
 43
0.00000001
 40
0.0
 40
0.0
 40
0.0
 40
0.0
 40
0.5
 40
0.5
 40
1.0
 40
1.0
 40
1.0
 40
1.0
 10
77.97050608645834
 20
92.50815966855274
 30
0.0
 10
77.97050608645833
 20
92.34827240035908
 30
0.0
 10
77.90919643522251
 20
92.18714514484446
 30
0.0
 10
77.69009679768742
 20
91.95304614648964
 30
0.0
 10
77.53204859137394
 20
91.88151937289841
 30
0.0
 10
77.37050608645835
 20
91.88151937289841
 30
0.0
  0
SPLINE
  5
CF
330
1F
100
AcDbEntity
  8
0
  6
Continuous
 62
     7
370
    25
100
AcDbSpline
210
0.0
220
0.0
230
1.0
 70
    24
 71
     3
 72
    12
 73
     8
 74
     0
 42
0.000000001
 43
0.00000001
 40
0.0
 40
0.0
 40
0.0
 40
0.0
 40
0.2500000000000033
 40
0.2500000000000033
 40
0.5000000000000067
 40
0.5000000000000067
 40
1.0
 40
1.0
 40
1.0
 40
1.0
 10
77.37050608645833
 20
141.9184370691456
 30
0.0
 10
77.46074515414539
 20
141.9184370691456
 30
0.0
 10
77.55164326825188
 20
141.9184370691456
 30
0.0
 10
77.70624030474042
 20
141.9184370691456
 30
0.0
 10
77.77121872084852
 20
141.9184370691456
 30
0.0
 10
77.92305374878477
 20
141.9184370691456
 30
0.0
 10
77.97050608645834
 20
141.9184370691456
 30
0.0
 10
77.97050608645833
 20
141.9184370691456
 30
0.0
  0
LINE
  5
D0
330
1F
100
AcDbEntity
  8
0
  6
Continuous
 62
     7
370
    25
100
AcDbLine
 10
77.3705067958
 20
91.8815194363
 30
0.0
 11
73.4124380077
 21
91.8815194363
 31
0.0
  0
LINE
  5
D1
330
1F
100
AcDbEntity
  8
0
  6
Continuous
 62
     7
370
    25
100
AcDbLine
 10
73.4124380077
 20
141.9184378082
 30
0.0
 11
77.3705067958
 21
141.9184378082
 31
0.0
  0
LINE
  5
D2
330
1F
100
AcDbEntity
  8
0
  6
Continuous
 62
     7
370
    25
100
AcDbLine
 10
68.1105061347
 20
94.5705997492
 30
0.0
 11
68.1105061347
 21
141.9184378082
 31
0.0
  0
SPLINE
  5
D3
330
1F
100
AcDbEntity
  8
0
  6
Continuous
 62
     7
370
    25
100
AcDbSpline
210
0.0
220
0.0
230
1.0
 70
     8
 71
     3
 72
     8
 73
     4
 74
     0
 42
0.000000001
 43
0.00000001
 40
0.0
 40
0.0
 40
0.0
 40
0.0
 40
1.0
 40
1.0
 40
1.0
 40
1.0
 10
68.11050608645836
 20
94.57059991009072
 30
0.0
 10
67.61816696367717
 20
93.67332987588402
 30
0.0
 10
67.12405291563503
 20
92.77704546083176
 30
0.0
 10
66.6285732549693
 20
91.88151937289841
 30
0.0
  0
SPLINE
  5
D4
330
1F
100
AcDbEntity
  8
0
  6
Continuous
 62
     7
370
    25
100
AcDbSpline
210
0.0
220
0.0
230
1.0
 70
    24
 71
     3
 72
     8
 73
     4
 74
     0
 42
0.000000001
 43
0.00000001
 40
0.0
 40
0.0
 40
0.0
 40
0.0
 40
1.0
 40
1.0
 40
1.0
 40
1.0
 10
66.62857325496927
 20
141.9184370691456
 30
0.0
 10
67.1352533631198
 20
141.9184370691456
 30
0.0
 10
67.63055409209343
 20
141.9184370691456
 30
0.0
 10
68.11050608645836
 20
141.9184370691456
 30
0.0
  0
ARC
  5
D5
330
1F
100
AcDbEntity
  8
0
  6
Continuous
 62
     7
370
    25
100
AcDbCircle
 10
60.0175099611
 20
133.9674343789
 30
0.0
 40
4.114749566347884
100
AcDbArc
 50
19.3249307175
 51
159.3457844591
  0
SPLINE
  5
D6
330
1F
100
AcDbEntity
  8
0
  6
Continuous
 62
     7
370
    25
100
AcDbSpline
210
0.0
220
0.0
230
1.0
 70
    24
 71
     3
 72
    14
 73
    10
 74
     0
 42
0.000000001
 43
0.00000001
 40
0.0
 40
0.0
 40
0.0
 40
0.0
 40
0.4999999999999984
 40
0.4999999999999984
 40
0.7499999999999992
 40
0.7499999999999992
 40
0.8749999999999996
 40
0.8749999999999996
 40
1.0
 40
1.0
 40
1.0
 40
1.0
 10
71.83283128412606
 20
95.66843706914557
 30
0.0
 10
71.78604657907785
 20
95.66843706914558
 30
0.0
 10
71.72399538229823
 20
95.66843706914558
 30
0.0
 10
71.58060374374763
 20
95.66843706914557
 30
0.0
 10
71.52446009019647
 20
95.66843706914557
 30
0.0
 10
71.4115090680603
 20
95.66843706914558
 30
0.0
 10
71.36850830602214
 20
95.66843706914558
 30
0.0
 10
71.26444559571569
 20
95.66843706914557
 30
0.0
 10
71.19911335735877
 20
95.6684370691456
 30
0.0
 10
71.13050608645835
 20
95.66843706914557
 30
0.0
  0
SPLINE
  5
D7
330
1F
100
AcDbEntity
  8
0
  6
Continuous
 62
     7
370
    25
100
AcDbSpline
210
0.0
220
0.0
230
1.0
 70
    24
 71
     3
 72
    12
 73
     8
 74
     0
 42
0.000000001
 43
0.00000001
 40
0.0
 40
0.0
 40
0.0
 40
0.0
 40
0.5000000000000017
 40
0.5000000000000017
 40
0.7500000000000008
 40
0.7500000000000008
 40
1.0
 40
1.0
 40
1.0
 40
1.0
 10
71.53620855476737
 20
148.4684370691456
 30
0.0
 10
71.49312300515642
 20
148.4684370691456
 30
0.0
 10
71.4439708034071
 20
148.4684370691456
 30
0.0
 10
71.3474982091192
 20
148.4684370691456
 30
0.0
 10
71.3113966239846
 20
148.4684370691456
 30
0.0
 10
71.22829086612334
 20
148.4684370691456
 30
0.0
 10
71.18029426915705
 20
148.4684370691456
 30
0.0
 10
71.13050608645835
 20
148.4684370691456
 30
0.0
  0
SPLINE
  5
D8
330
1F
100
AcDbEntity
  8
0
  6
Continuous
 62
     7
370
    25
100
AcDbSpline
210
0.0
220
0.0
230
1.0
 70
     8
 71
     3
 72
    10
 73
     6
 74
     0
 42
0.000000001
 43
0.00000001
 40
0.0
 40
0.0
 40
0.0
 40
0.0
 40
0.5
 40
0.5
 40
1.0
 40
1.0
 40
1.0
 40
1.0
 10
71.93050608645835
 20
149.1880909201814
 30
0.0
 10
71.93050608645835
 20
149.0443208623633
 30
0.0
 10
71.89445702773946
 20
148.9019014998682
 30
0.0
 10
71.75894816696544
 20
148.6520072065109
 30
0.0
 10
71.65907217386928
 20
148.5439768702628
 30
0.0
 10
71.53620855476734
 20
148.4684370691456
 30
0.0
  0
SPLINE
  5
D9
330
1F
100
AcDbEntity
  8
0
  6
Continuous
 62
     7
370
    25
100
AcDbSpline
210
0.0
220
0.0
230
1.0
 70
     8
 71
     3
 72
    10
 73
     6
 74
     0
 42
0.000000001
 43
0.00000001
 40
0.0
 40
0.0
 40
0.0
 40
0.0
 40
0.5
 40
0.5
 40
1.0
 40
1.0
 40
1.0
 40
1.0
 10
71.90435846329821
 20
141.9184370691456
 30
0.0
 10
71.91304810620989
 20
141.9653159184637
 30
0.0
 10
71.9195871709604
 20
142.012738383865
 30
0.0
 10
71.92834580535342
 20
142.1086751824519
 30
0.0
 10
71.93050608645835
 20
142.1565904704624
 30
0.0
 10
71.93050608645835
 20
142.204303700607
 30
0.0
  0
SPLINE
  5
DA
330
1F
100
AcDbEntity
  8
0
  6
Continuous
 62
     7
370
    25
100
AcDbSpline
210
0.0
220
0.0
230
1.0
 70
     8
 71
     3
 72
    10
 73
     6
 74
     0
 42
0.000000001
 43
0.00000001
 40
0.0
 40
0.0
 40
0.0
 40
0.0
 40
0.5
 40
0.5
 40
1.0
 40
1.0
 40
1.0
 40
1.0
 10
68.5048036181493
 20
148.4684370691456
 30
0.0
 10
68.38326335448079
 20
148.5431632363573
 30
0.0
 10
68.28192899413185
 20
148.6521082522741
 30
0.0
 10
68.14629005124343
 20
148.9025387330357
 30
0.0
 10
68.11050608645836
 20
149.0449580951347
 30
0.0
 10
68.11050608645836
 20
149.1880909201814
 30
0.0
  0
SPLINE
  5
DB
330
1F
100
AcDbEntity
  8
0
  6
Continuous
 62
     7
370
    25
100
AcDbSpline
210
0.0
220
0.0
230
1.0
 70
    24
 71
     3
 72
    12
 73
     8
 74
     0
 42
0.000000001
 43
0.00000001
 40
0.0
 40
0.0
 40
0.0
 40
0.0
 40
0.2500000000000037
 40
0.2500000000000037
 40
0.5000000000000074
 40
0.5000000000000074
 40
1.0
 40
1.0
 40
1.0
 40
1.0
 10
68.91050608645835
 20
148.4684370691456
 30
0.0
 10
68.8606294041409
 20
148.4684370691456
 30
0.0
 10
68.8126262107373
 20
148.4684370691456
 30
0.0
 10
68.72957810802532
 20
148.4684370691456
 30
0.0
 10
68.69344852855748
 20
148.4684370691456
 30
0.0
 10
68.59753649761328
 20
148.4684370691456
 30
0.0
 10
68.54777782964447
 20
148.4684370691456
 30
0.0
 10
68.5048036181493
 20
148.4684370691456
 30
0.0
  0
SPLINE
  5
DC
330
1F
100
AcDbEntity
  8
0
  6
Continuous
 62
     7
370
    25
100
AcDbSpline
210
0.0
220
0.0
230
1.0
 70
    24
 71
     3
 72
    14
 73
    10
 74
     0
 42
0.000000001
 43
0.00000001
 40
0.0
 40
0.0
 40
0.0
 40
0.0
 40
0.1249999999999991
 40
0.1249999999999991
 40
0.2499999999999982
 40
0.2499999999999982
 40
0.4999999999999998
 40
0.4999999999999998
 40
1.0
 40
1.0
 40
1.0
 40
1.0
 10
68.91050608645834
 20
95.66843706914557
 30
0.0
 10
68.8420682385719
 20
95.66843706914557
 30
0.0
 10
68.77651819980683
 20
95.66843706914558
 30
0.0
 10
68.67209156039888
 20
95.66843706914558
 30
0.0
 10
68.62954695063748
 20
95.66843706914558
 30
0.0
 10
68.5169374900972
 20
95.66843706914557
 30
0.0
 10
68.46139844307773
 20
95.66843706914557
 30
0.0
 10
68.31878674761393
 20
95.66843706914557
 30
0.0
 10
68.25538139261816
 20
95.66843706914557
 30
0.0
 10
68.20818088879064
 20
95.66843706914557
 30
0.0
  0
SPLINE
  5
DD
330
1F
100
AcDbEntity
  8
0
  6
Continuous
 62
     7
370
    25
100
AcDbSpline
210
0.0
220
0.0
230
1.0
 70
     8
 71
     3
 72
    10
 73
     6
 74
     0
 42
0.000000001
 43
0.00000001
 40
0.0
 40
0.0
 40
0.0
 40
0.0
 40
0.5
 40
0.5
 40
1.0
 40
1.0
 40
1.0
 40
1.0
 10
68.11050608645836
 20
142.204303700607
 30
0.0
 10
68.11050608645836
 20
142.1565321926136
 30
0.0
 10
68.1126673300555
 20
142.108822470552
 30
0.0
 10
68.12133870391567
 20
142.0135273530037
 30
0.0
 10
68.12786788687166
 20
141.9658347890371
 30
0.0
 10
68.13665370961849
 20
141.9184370691456
 30
0.0
  0
LINE
  5
DE
330
1F
100
AcDbEntity
  8
0
  6
Continuous
 62
     7
370
    25
100
AcDbLine
 10
71.1305058474
 20
148.4684369261
 30
0.0
 11
68.9105066384
 21
148.4684369261
 31
0.0
  0
LINE
  5
DF
330
1F
100
AcDbEntity
  8
0
  6
Continuous
 62
     7
370
    25
100
AcDbLine
 10
71.1305058474
 20
95.6684372122
 30
0.0
 11
68.9105066384
 21
95.6684372122
 31
0.0
  0
LINE
  5
E0
330
1F
100
AcDbEntity
  8
0
  6
Continuous
 62
     7
370
    25
100
AcDbLine
 10
30.2205058659
 20
98.8399910475
 30
0.0
 11
30.2205058659
 21
100.1046991641
 31
0.0
  0
SPLINE
  5
E1
330
1F
100
AcDbEntity
  8
0
  6
Continuous
 62
     7
370
    25
100
AcDbSpline
210
0.0
220
0.0
230
1.0
 70
     8
 71
     3
 72
    14
 73
    10
 74
     0
 42
0.000000001
 43
0.00000001
 40
0.0
 40
0.0
 40
0.0
 40
0.0
 40
0.25
 40
0.25
 40
0.5
 40
0.5
 40
0.75
 40
0.75
 40
1.0
 40
1.0
 40
1.0
 40
1.0
 10
29.44221896854263
 20
101.2352857455856
 30
0.0
 10
29.4988456437447
 20
101.1275882917488
 30
0.0
 10
29.59336830403443
 20
101.0247987100294
 30
0.0
 10
29.77641327959667
 20
100.8264413978093
 30
0.0
 10
29.8680398565514
 20
100.7303818891311
 30
0.0
 10
30.02689317424459
 20
100.5428528464218
 30
0.0
 10
30.09478378186628
 20
100.4514438736382
 30
0.0
 10
30.19170080757387
 20
100.2730676527281
 30
0.0
 10
30.22050608645893
 20
100.1858457464819
 30
0.0
 10
30.22050608645892
 20
100.1046995379477
 30
0.0
  0
SPLINE
  5
E2
330
1F
100
AcDbEntity
  8
0
  6
Continuous
 62
     7
370
    25
100
AcDbSpline
210
0.0
220
0.0
230
1.0
 70
     8
 71
     3
 72
    14
 73
    10
 74
     0
 42
0.000000001
 43
0.00000001
 40
0.0
 40
0.0
 40
0.0
 40
0.0
 40
0.1249999999999975
 40
0.1249999999999975
 40
0.249999999999995
 40
0.249999999999995
 40
0.4999999999999953
 40
0.4999999999999953
 40
1.0
 40
1.0
 40
1.0
 40
1.0
 10
28.82050608645835
 20
101.6819676078649
 30
0.0
 10
28.86905049511551
 20
101.6877159211452
 30
0.0
 10
28.92196584990042
 20
101.684615032489
 30
0.0
 10
29.01726119488346
 20
101.6624201883267
 30
0.0
 10
29.05751219216841
 20
101.6451879612308
 30
0.0
 10
29.16178220568139
 20
101.5888600447788
 30
0.0
 10
29.21210418083471
 20
101.544673698833
 30
0.0
 10
29.33978712836009
 20
101.4136657999823
 30
0.0
 10
29.39587257542235
 20
101.323431279752
 30
0.0
 10
29.4422189685441
 20
101.2352857455862
 30
0.0
  0
SPLINE
  5
E3
330
1F
100
AcDbEntity
  8
0
  6
Continuous
 62
     7
370
    25
100
AcDbSpline
210
0.0
220
0.0
230
1.0
 70
     8
 71
     3
 72
     8
 73
     4
 74
     0
 42
0.000000001
 43
0.00000001
 40
0.0
 40
0.0
 40
0.0
 40
0.0
 40
1.0
 40
1.0
 40
1.0
 40
1.0
 10
26.55198099351212
 20
101.3721223212822
 30
0.0
 10
27.28655801999508
 20
101.4907473323511
 30
0.0
 10
28.05003308939075
 20
101.5907332044874
 30
0.0
 10
28.82050608645837
 20
101.6819676078649
 30
0.0
  0
SPLINE
  5
E4
330
1F
100
AcDbEntity
  8
0
  6
Continuous
 62
     7
370
    25
100
AcDbSpline
210
0.0
220
0.0
230
1.0
 70
     8
 71
     3
 72
    14
 73
    10
 74
     0
 42
0.000000001
 43
0.00000001
 40
0.0
 40
0.0
 40
0.0
 40
0.0
 40
0.500000000000001
 40
0.500000000000001
 40
0.7500000000000004
 40
0.7500000000000004
 40
0.8750000000000003
 40
0.8750000000000003
 40
1.0
 40
1.0
 40
1.0
 40
1.0
 10
21.27050608645835
 20
101.1984993037505
 30
0.0
 10
22.16265221701193
 20
101.1977770775499
 30
0.0
 10
23.05262865280552
 20
101.2023632840073
 30
0.0
 10
24.37922381988114
 20
101.2300882883989
 30
0.0
 10
24.82007074837986
 20
101.242694826023
 30
0.0
 10
25.47651098580228
 20
101.2737109740305
 30
0.0
 10
25.69452464239416
 20
101.2860541466572
 30
0.0
 10
26.12723349607694
 20
101.3190782018205
 30
0.0
 10
26.34250996124174
 20
101.338295366959
 30
0.0
 10
26.55198099351214
 20
101.3721223212822
 30
0.0
  0
SPLINE
  5
E5
330
1F
100
AcDbEntity
  8
0
  6
Continuous
 62
     7
370
    25
100
AcDbSpline
210
0.0
220
0.0
230
1.0
 70
     8
 71
     3
 72
     8
 73
     4
 74
     0
 42
0.000000001
 43
0.00000001
 40
0.0000005163856712
 40
0.0000005163856712
 40
0.0000005163856712
 40
0.0000005163856712
 40
0.000026289209185
 40
0.000026289209185
 40
0.000026289209185
 40
0.000026289209185
 10
21.26046115603966
 20
101.2084831768584
 30
0.0
 10
21.26378889425114
 20
101.2051489299856
 30
0.0
 10
21.26713734723043
 20
101.2018209727065
 30
0.0
 10
21.27050608645832
 20
101.1984993037505
 30
0.0
  0
SPLINE
  5
E6
330
1F
100
AcDbEntity
  8
0
  6
Continuous
 62
     7
370
    25
100
AcDbSpline
210
0.0
220
0.0
230
1.0
 70
     8
 71
     3
 72
     8
 73
     4
 74
     0
 42
0.000000001
 43
0.00000001
 40
0.0000005099763573
 40
0.0000005099763573
 40
0.0000005099763573
 40
0.0000005099763573
 40
0.0000262827998699
 40
0.0000262827998699
 40
0.0000262827998699
 40
0.0000262827998699
 10
21.27050608645834
 20
142.9383748345407
 30
0.0
 10
21.2671373472306
 20
142.9350531655848
 30
0.0
 10
21.26378889425146
 20
142.9317252083059
 30
0.0
 10
21.26046115604013
 20
142.9283909614333
 30
0.0
  0
SPLINE
  5
E7
330
1F
100
AcDbEntity
  8
0
  6
Continuous
 62
     7
370
    25
100
AcDbSpline
210
0.0
220
0.0
230
1.0
 70
     8
 71
     3
 72
    10
 73
     6
 74
     0
 42
0.000000001
 43
0.00000001
 40
0.0
 40
0.0
 40
0.0
 40
0.0
 40
0.5
 40
0.5
 40
1.0
 40
1.0
 40
1.0
 40
1.0
 10
24.82050608645836
 20
142.8915244609733
 30
0.0
 10
24.23292053936776
 20
142.9125899812097
 30
0.0
 10
23.64217414590737
 20
142.923348467082
 30
0.0
 10
22.45815498060852
 20
142.9367132476176
 30
0.0
 10
21.86474099240306
 20
142.9388558902822
 30
0.0
 10
21.27050608645835
 20
142.9383748345406
 30
0.0
  0
SPLINE
  5
E8
330
1F
100
AcDbEntity
  8
0
  6
Continuous
 62
     7
370
    25
100
AcDbSpline
210
0.0
220
0.0
230
1.0
 70
     8
 71
     3
 72
    18
 73
    14
 74
     0
 42
0.000000001
 43
0.00000001
 40
0.0
 40
0.0
 40
0.0
 40
0.0
 40
0.2500000000000009
 40
0.2500000000000009
 40
0.500000000000001
 40
0.500000000000001
 40
0.7500000000000011
 40
0.7500000000000011
 40
0.875000000000001
 40
0.875000000000001
 40
0.9375000000000006
 40
0.9375000000000006
 40
1.0
 40
1.0
 40
1.0
 40
1.0
 10
26.22050608645836
 20
143.9125447415086
 30
0.0
 10
26.22050608645837
 20
143.8293378326514
 30
0.0
 10
26.18465698652009
 20
143.7406011773378
 30
0.0
 10
26.05978525048616
 20
143.5584759867776
 30
0.0
 10
25.9693848328383
 20
143.463345938151
 30
0.0
 10
25.74714217809612
 20
143.2741644290266
 30
0.0
 10
25.61737739165035
 20
143.1792192609319
 30
0.0
 10
25.37673993433884
 20
143.040940553352
 30
0.0
 10
25.28897263620139
 20
142.9952301200496
 30
0.0
 10
25.13444854899459
 20
142.9374068148281
 30
0.0
 10
25.07783766293984
 20
142.9196920507903
 30
0.0
 10
24.95379363203323
 20
142.8951527475573
 30
0.0
 10
24.88607895701494
 20
142.8891736090191
 30
0.0
 10
24.82050608645835
 20
142.8915244609733
 30
0.0
  0
LINE
  5
E9
330
1F
100
AcDbEntity
  8
0
  6
Continuous
 62
     7
370
    25
100
AcDbLine
 10
26.2205052103
 20
143.9125447268
 30
0.0
 11
26.2205052103
 21
145.0964829619
 31
0.0
  0
LINE
  5
EA
330
1F
100
AcDbEntity
  8
0
  6
Continuous
 62
     7
370
    25
100
AcDbLine
 10
50.0205059915
 20
97.8480058456
 30
0.0
 11
50.0205059915
 21
146.2888682927
 31
0.0
  0
SPLINE
  5
EB
330
1F
100
AcDbEntity
  8
0
  6
Continuous
 62
     7
370
    25
100
AcDbSpline
210
0.0
220
0.0
230
1.0
 70
     8
 71
     3
 72
    18
 73
    14
 74
     0
 42
0.000000001
 43
0.00000001
 40
0.0
 40
0.0
 40
0.0
 40
0.0
 40
0.001067142096085
 40
0.1270947925777493
 40
0.2524053537361832
 40
0.3766468838452861
 40
0.4391416358858051
 40
0.5008278334298175
 40
0.5624255844801763
 40
0.6253162510714301
 40
0.7499985254815132
 40
0.8752758926324193
 40
1.0
 40
1.0
 40
1.0
 40
1.0
 10
38.79080721240201
 20
98.41109837540759
 30
0.0
 10
38.78989513711928
 20
98.41098320751557
 30
0.0
 10
38.68126853593876
 20
98.39726690918582
 30
0.0
 10
39.0689500079815
 20
98.44825317056747
 30
0.0
 10
39.93489846809105
 20
98.54781020644197
 30
0.0
 10
41.13530626181386
 20
98.61694083606103
 30
0.0
 10
42.19288181167159
 20
98.62089153632778
 30
0.0
 10
43.02001617579484
 20
98.59340466840352
 30
0.0
 10
43.84528781184269
 20
98.53486217959122
 30
0.0
 10
44.89965301895148
 20
98.4213435776315
 30
0.0
 10
46.06148922520489
 20
98.23818942179795
 30
0.0
 10
47.01372394587803
 20
98.03358927313182
 30
0.0
 10
47.13942904858667
 20
98.00430260312274
 30
0.0
 10
47.2021425056056
 20
97.98969167420043
 30
0.0
  0
SPLINE
  5
EC
330
1F
100
AcDbEntity
  8
0
  6
Continuous
 62
     7
370
    25
100
AcDbSpline
210
0.0
220
0.0
230
1.0
 70
     8
 71
     3
 72
    18
 73
    14
 74
     0
 42
0.000000001
 43
0.00000001
 40
0.0
 40
0.0
 40
0.0
 40
0.0
 40
0.1248907819469273
 40
0.2505384063477967
 40
0.3748721756041158
 40
0.4374907331267689
 40
0.4990776026247599
 40
0.5607931145009658
 40
0.6233901196104445
 40
0.7478191009174896
 40
0.8731941046696081
 40
0.9991614615322162
 40
0.9999999999999999
 40
0.9999999999999999
 40
0.9999999999999999
 40
0.9999999999999999
 10
47.20192364480057
 20
146.1471172715105
 30
0.0
 10
47.13818281283286
 20
146.1324558052835
 30
0.0
 10
47.01031487725329
 20
146.1030440238375
 30
0.0
 10
46.05831604066476
 20
145.8980900644799
 30
0.0
 10
44.89777196981213
 20
145.7148288026162
 30
0.0
 10
43.84550819814876
 20
145.6017982482412
 30
0.0
 10
43.02128089913049
 20
145.5435374407685
 30
0.0
 10
42.19367715380582
 20
145.5160903046464
 30
0.0
 10
41.13485982411158
 20
145.5200750985211
 30
0.0
 10
39.93264008448574
 20
145.589167883017
 30
0.0
 10
39.06745931348684
 20
145.6887766202041
 30
0.0
 10
38.68131056584917
 20
145.7396342258474
 30
0.0
 10
38.78938843821278
 20
145.725933418424
 30
0.0
 10
38.7901031325356
 20
145.7258428181089
 30
0.0
  0
SPLINE
  5
ED
330
1F
100
AcDbEntity
  8
0
  6
Continuous
 62
     7
370
    25
100
AcDbSpline
210
0.0
220
0.0
230
1.0
 70
    11
 71
     3
 72
    70
 73
    66
 74
     0
 42
0.000000001
 43
0.00000001
 40
0.0
 40
0.0
 40
0.0
 40
0.0
 40
0.03125
 40
0.03125
 40
0.0625
 40
0.0625
 40
0.09375
 40
0.09375
 40
0.125
 40
0.125
 40
0.15625
 40
0.15625
 40
0.1875
 40
0.1875
 40
0.21875
 40
0.21875
 40
0.25
 40
0.25
 40
0.28125
 40
0.28125
 40
0.3125
 40
0.3125
 40
0.34375
 40
0.34375
 40
0.375
 40
0.375
 40
0.40625
 40
0.40625
 40
0.4375
 40
0.4375
 40
0.46875
 40
0.46875
 40
0.5
 40
0.5
 40
0.53125
 40
0.53125
 40
0.5625
 40
0.5625
 40
0.59375
 40
0.59375
 40
0.625
 40
0.625
 40
0.65625
 40
0.65625
 40
0.6875
 40
0.6875
 40
0.71875
 40
0.71875
 40
0.75
 40
0.75
 40
0.78125
 40
0.78125
 40
0.8125
 40
0.8125
 40
0.84375
 40
0.84375
 40
0.875
 40
0.875
 40
0.90625
 40
0.90625
 40
0.9375
 40
0.9375
 40
0.96875
 40
0.96875
 40
1.0
 40
1.0
 40
1.0
 40
1.0
 10
120.4821048829837
 20
105.2787102993852
 30
0.0
 10
120.502101146196
 20
105.4351618424332
 30
0.0
 10
120.547172991995
 20
105.5889132239945
 30
0.0
 10
120.6840479631373
 20
105.8909684988099
 30
0.0
 10
120.7771569691308
 20
106.0402117136581
 30
0.0
 10
121.000539684479
 20
106.3194420263911
 30
0.0
 10
121.1318449517728
 20
106.4515987714968
 30
0.0
 10
121.4290466922224
 20
106.6975178113838
 30
0.0
 10
121.5914570544114
 20
106.8085862393556
 30
0.0
 10
121.941648006834
 20
107.007940013376
 30
0.0
 10
122.1311115651663
 20
107.0966383858089
 30
0.0
 10
122.5222220404949
 20
107.2450277606675
 30
0.0
 10
122.7248758586721
 20
107.3055517890532
 30
0.0
 10
123.1440936683617
 20
107.3991961467854
 30
0.0
 10
123.3603470748689
 20
107.4318887714453
 30
0.0
 10
123.7911804085443
 20
107.4673416983631
 30
0.0
 10
124.0076956140434
 20
107.4705976969085
 30
0.0
 10
124.4429675894875
 20
107.4475488491295
 30
0.0
 10
124.6599088775793
 20
107.421060678381
 30
0.0
 10
125.0801848966489
 20
107.3403593747758
 30
0.0
 10
125.2853602649681
 20
107.2860890518102
 30
0.0
 10
125.6852544730395
 20
107.1487937254574
 30
0.0
 10
125.8776406093362
 20
107.0662611210099
 30
0.0
 10
126.2359808263087
 20
106.8787269254498
 30
0.0
 10
126.4037063996382
 20
106.7731724311087
 30
0.0
 10
126.7140687098774
 20
106.5372141735643
 30
0.0
 10
126.8536137836164
 20
106.4087541780321
 30
0.0
 10
127.092926756504
 20
106.1383021861321
 30
0.0
 10
127.1943169904783
 20
105.9948651163444
 30
0.0
 10
127.3540949856502
 20
105.6933916023705
 30
0.0
 10
127.4096822945635
 20
105.5408666508608
 30
0.0
 10
127.4723268866402
 20
105.2327776652124
 30
0.0
 10
127.478765944433
 20
105.0751834783199
 30
0.0
 10
127.4402570513323
 20
104.7720887671456
 30
0.0
 10
127.3962188364575
 20
104.6254163183344
 30
0.0
 10
127.2586302332728
 20
104.3413634225282
 30
0.0
 10
127.1672529866765
 20
104.2086543563888
 30
0.0
 10
126.9443860168348
 20
103.9612087635028
 30
0.0
 10
126.8113215421068
 20
103.8455765042885
 30
0.0
 10
126.5168256732466
 20
103.6388954013251
 30
0.0
 10
126.3545823419573
 20
103.5465836902549
 30
0.0
 10
126.001043801392
 20
103.3821638811572
 30
0.0
 10
125.8142478791167
 20
103.3121873117583
 30
0.0
 10
125.4237620029506
 20
103.1944529713242
 30
0.0
 10
125.2179112137565
 20
103.1463093914002
 30
0.0
 10
124.7980783541594
 20
103.0734007165753
 30
0.0
 10
124.5851576437708
 20
103.0485614461774
 30
0.0
 10
124.1534845099929
 20
103.0209934584988
 30
0.0
 10
123.9326881045059
 20
103.0184394878521
 30
0.0
 10
123.4985463821795
 20
103.036082229474
 30
0.0
 10
123.2845895430947
 20
103.0560028615545
 30
0.0
 10
122.8629183027163
 20
103.1184489114675
 30
0.0
 10
122.6533075854927
 20
103.1616041163481
 30
0.0
 10
122.2551517238598
 20
103.2694150214764
 30
0.0
 10
122.0654856738286
 20
103.333981953741
 30
0.0
 10
121.705634975733
 20
103.4861954557172
 30
0.0
 10
121.5339349013815
 20
103.5750306733103
 30
0.0
 10
121.2260077306118
 20
103.7715510299694
 30
0.0
 10
121.0882525295805
 20
103.8795185445037
 30
0.0
 10
120.8474149148128
 20
104.1173981488438
 30
0.0
 10
120.7443040180442
 20
104.2485041594355
 30
0.0
 10
120.5870958283603
 20
104.5214944283816
 30
0.0
 10
120.5311091347938
 20
104.6647943425867
 30
0.0
 10
120.4680745104086
 20
104.966702818746
 30
0.0
 10
120.4621086197714
 20
105.1222587563371
 30
0.0
 10
120.4821048829837
 20
105.2787102993852
 30
0.0
  0
SPLINE
  5
EE
330
1F
100
AcDbEntity
  8
0
  6
Continuous
 62
     7
370
    25
100
AcDbSpline
210
0.0
220
0.0
230
1.0
 70
    11
 71
     3
 72
    68
 73
    64
 74
     0
 42
0.000000001
 43
0.00000001
 40
0.0
 40
0.0
 40
0.0
 40
0.0
 40
0.0312500000000003
 40
0.0312500000000003
 40
0.0625000000000005
 40
0.0625000000000005
 40
0.0937500000000008
 40
0.0937500000000008
 40
0.125000000000001
 40
0.125000000000001
 40
0.1562500000000013
 40
0.1562500000000013
 40
0.1875000000000016
 40
0.1875000000000016
 40
0.2187500000000018
 40
0.2187500000000018
 40
0.2500000000000021
 40
0.2500000000000021
 40
0.2812500000000023
 40
0.2812500000000023
 40
0.3125000000000026
 40
0.3125000000000026
 40
0.3437500000000028
 40
0.3437500000000028
 40
0.3750000000000031
 40
0.3750000000000031
 40
0.4062500000000033
 40
0.4062500000000033
 40
0.4375000000000036
 40
0.4375000000000036
 40
0.4687500000000038
 40
0.4687500000000038
 40
0.5000000000000041
 40
0.5000000000000041
 40
0.5312500000000044
 40
0.5312500000000044
 40
0.5625000000000049
 40
0.5625000000000049
 40
0.6250000000000056
 40
0.6250000000000056
 40
0.656250000000005
 40
0.656250000000005
 40
0.6875000000000043
 40
0.6875000000000043
 40
0.7187500000000037
 40
0.7187500000000037
 40
0.750000000000003
 40
0.750000000000003
 40
0.7812500000000024
 40
0.7812500000000024
 40
0.8125000000000018
 40
0.8125000000000018
 40
0.8437500000000014
 40
0.8437500000000014
 40
0.8750000000000012
 40
0.8750000000000012
 40
0.9062500000000009
 40
0.9062500000000009
 40
0.9375000000000006
 40
0.9375000000000006
 40
0.9687500000000003
 40
0.9687500000000003
 40
1.0
 40
1.0
 40
1.0
 40
1.0
 10
121.2784141141669
 20
140.3956730170129
 30
0.0
 10
121.4271816364594
 20
140.4999332466807
 30
0.0
 10
121.5893894987484
 20
140.5917008343246
 30
0.0
 10
121.938081773222
 20
140.7537988175718
 30
0.0
 10
122.126353366711
 20
140.8245898260283
 30
0.0
 10
122.5188012323913
 20
140.9428618483341
 30
0.0
 10
122.7214297411796
 20
140.9901642269058
 30
0.0
 10
123.1389481463535
 20
141.0628900752843
 30
0.0
 10
123.355690181083
 20
141.0883014491725
 30
0.0
 10
123.7876494365239
 20
141.1158892037221
 30
0.0
 10
124.0039242644319
 20
141.1184412920921
 30
0.0
 10
124.437062435773
 20
141.1011797969182
 30
0.0
 10
124.655367870221
 20
141.0809838733115
 30
0.0
 10
125.0768318027535
 20
141.0186554942653
 30
0.0
 10
125.2817392383384
 20
140.9766081369139
 30
0.0
 10
125.6795845460462
 20
140.8694272318449
 30
0.0
 10
125.8736641627404
 20
140.80356223658
 30
0.0
 10
126.2332392372427
 20
140.6516994161793
 30
0.0
 10
126.400710107253
 20
140.5653732821005
 30
0.0
 10
126.7094209725359
 20
140.3693999358807
 30
0.0
 10
126.8509232692509
 20
140.2588351746982
 30
0.0
 10
127.0911965315067
 20
140.0221756199955
 30
0.0
 10
127.1920833112524
 20
139.8950270849277
 30
0.0
 10
127.3517528475249
 20
139.6204530513899
 30
0.0
 10
127.4087962028373
 20
139.4746769799062
 30
0.0
 10
127.4720054126784
 20
139.1772538958066
 30
0.0
 10
127.4789081114404
 20
139.0219976962999
 30
0.0
 10
127.4410038201899
 20
138.7111262018103
 30
0.0
 10
127.397131950617
 20
138.5573287131565
 30
0.0
 10
127.2612237286278
 20
138.2533171082565
 30
0.0
 10
127.1691949513263
 20
138.1045282775101
 30
0.0
 10
126.9472047079075
 20
137.8247191745552
 30
0.0
 10
126.8148489089188
 20
137.690717096885
 30
0.0
 10
126.520005150437
 20
137.4453019246816
 30
0.0
 10
126.3581006329948
 20
137.3337460839444
 30
0.0
 10
126.0069192270431
 20
137.1326681103059
 30
0.0
 10
125.8182609378369
 20
137.0439162361877
 30
0.0
 10
125.2330427211803
 20
136.8203895595032
 30
0.0
 10
124.8049107350574
 20
136.7242449617618
 30
0.0
 10
124.1586019069767
 20
136.6698630414082
 30
0.0
 10
123.9398692547702
 20
136.6661993901457
 30
0.0
 10
123.5031822119515
 20
136.6887904367064
 30
0.0
 10
123.2888501411806
 20
136.7146881241545
 30
0.0
 10
122.8680342515873
 20
136.794781319754
 30
0.0
 10
122.6601405810745
 20
136.8494635851482
 30
0.0
 10
122.2592523217617
 20
136.9866653475022
 30
0.0
 10
122.0692015932343
 20
137.0679298135626
 30
0.0
 10
121.7100418768697
 20
137.2551680511636
 30
0.0
 10
121.5394251618606
 20
137.3622876665451
 30
0.0
 10
121.2289377527852
 20
137.59794910853
 30
0.0
 10
121.0908976579156
 20
137.724646898798
 30
0.0
 10
120.8504656958704
 20
137.9954120766363
 30
0.0
 10
120.7470441205794
 20
138.1417018324616
 30
0.0
 10
120.5883235461716
 20
138.440481649364
 30
0.0
 10
120.5322582577459
 20
138.5927211815056
 30
0.0
 10
120.4687320363928
 20
138.9026066170059
 30
0.0
 10
120.4622513365294
 20
139.059999595966
 30
0.0
 10
120.5002600278823
 20
139.3625978182507
 30
0.0
 10
120.5449412603114
 20
139.5116560935412
 30
0.0
 10
120.6818405197173
 20
139.7944997586868
 30
0.0
 10
120.7726970392986
 20
139.9269381387211
 30
0.0
 10
120.9966094824278
 20
140.1757487290747
 30
0.0
 10
121.1296465918745
 20
140.291412787345
 30
0.0
 10
121.2784141141669
 20
140.3956730170129
 30
0.0
  0
SPLINE
  5
EF
330
1F
100
AcDbEntity
  8
0
  6
Continuous
 62
     7
370
    25
100
AcDbSpline
210
0.0
220
0.0
230
1.0
 70
    11
 71
     3
 72
    82
 73
    78
 74
     0
 42
0.000000001
 43
0.00000001
 40
0.0
 40
0.0
 40
0.0
 40
0.0
 40
0.0312500000000029
 40
0.0312500000000029
 40
0.0468750000000031
 40
0.0468750000000031
 40
0.0625000000000034
 40
0.0625000000000034
 40
0.0937500000000038
 40
0.0937500000000038
 40
0.1250000000000043
 40
0.1250000000000043
 40
0.1562500000000048
 40
0.1562500000000048
 40
0.1875000000000053
 40
0.1875000000000053
 40
0.2187500000000057
 40
0.2187500000000057
 40
0.2500000000000061
 40
0.2500000000000061
 40
0.2656250000000063
 40
0.2656250000000063
 40
0.2812500000000066
 40
0.2812500000000066
 40
0.312500000000007
 40
0.312500000000007
 40
0.3281250000000072
 40
0.3281250000000072
 40
0.3437500000000074
 40
0.3437500000000074
 40
0.3750000000000065
 40
0.3750000000000065
 40
0.4062500000000055
 40
0.4062500000000055
 40
0.4375000000000046
 40
0.4375000000000046
 40
0.4687500000000036
 40
0.4687500000000036
 40
0.5000000000000026
 40
0.5000000000000026
 40
0.5312500000000016
 40
0.5312500000000016
 40
0.5625000000000006
 40
0.5625000000000006
 40
0.5937499999999997
 40
0.5937499999999997
 40
0.6249999999999987
 40
0.6249999999999987
 40
0.6406249999999981
 40
0.6406249999999981
 40
0.6562499999999976
 40
0.6562499999999976
 40
0.6874999999999964
 40
0.6874999999999964
 40
0.7187499999999954
 40
0.7187499999999954
 40
0.7499999999999943
 40
0.7499999999999943
 40
0.7812499999999932
 40
0.7812499999999932
 40
0.7968749999999927
 40
0.7968749999999927
 40
0.8124999999999921
 40
0.8124999999999921
 40
0.8437499999999911
 40
0.8437499999999911
 40
0.8593749999999913
 40
0.8593749999999913
 40
0.8749999999999916
 40
0.8749999999999916
 40
0.9062499999999937
 40
0.9062499999999937
 40
0.9374999999999958
 40
0.9374999999999958
 40
0.968749999999998
 40
0.968749999999998
 40
1.0
 40
1.0
 40
1.0
 40
1.0
 10
188.2205060864584
 20
111.3531882090718
 30
0.0
 10
187.8662987535162
 20
111.3531882090718
 30
0.0
 10
187.5175843703462
 20
111.3822965048653
 30
0.0
 10
187.0024460261188
 20
111.468251045273
 30
0.0
 10
186.8320647099166
 20
111.5040052879072
 30
0.0
 10
186.4940246050211
 20
111.5901416078295
 30
0.0
 10
186.3255013954587
 20
111.6408591919448
 30
0.0
 10
185.8327096692856
 20
111.8131231876881
 30
0.0
 10
185.52018191139
 20
111.9544303116217
 30
0.0
 10
184.926941492925
 20
112.2910785465257
 30
0.0
 10
184.643413869115
 20
112.4891698259335
 30
0.0
 10
184.1302942065976
 20
112.9297855921454
 30
0.0
 10
183.8994061492316
 20
113.1720396939546
 30
0.0
 10
183.4901273855108
 20
113.7030302076896
 30
0.0
 10
183.3116292299788
 20
113.9939760847864
 30
0.0
 10
183.0266134286144
 20
114.5980650666893
 30
0.0
 10
182.9172837393243
 20
114.9140979956127
 30
0.0
 10
182.7682496587703
 20
115.5763490162759
 30
0.0
 10
182.7307630185869
 20
115.9153016533399
 30
0.0
 10
182.7299094067482
 20
116.4239991664312
 30
0.0
 10
182.7387863934681
 20
116.5942068604756
 30
0.0
 10
182.7752677146524
 20
116.9359203095044
 30
0.0
 10
182.8030993858543
 20
117.1079690855099
 30
0.0
 10
182.9129004670446
 20
117.613785000565
 30
0.0
 10
183.0210674049978
 20
117.9412087569226
 30
0.0
 10
183.2349071852769
 20
118.4175601342652
 30
0.0
 10
183.3153638420659
 20
118.5746287054484
 30
0.0
 10
183.4905135099199
 20
118.8774635138736
 30
0.0
 10
183.5853363905084
 20
119.023754596426
 30
0.0
 10
183.8908605103419
 20
119.4476479842769
 30
0.0
 10
184.1241476072573
 20
119.7119833800781
 30
0.0
 10
184.6401587112866
 20
120.192447793251
 30
0.0
 10
184.9181366145509
 20
120.4048172460376
 30
0.0
 10
185.5122509287466
 20
120.7760336790163
 30
0.0
 10
185.8314891804729
 20
120.9356213195164
 30
0.0
 10
186.4852853920203
 20
121.1892304314073
 30
0.0
 10
186.8215934747711
 20
121.2849900972376
 30
0.0
 10
187.5129854380869
 20
121.4144784205525
 30
0.0
 10
187.8672369018339
 20
121.4472279756
 30
0.0
 10
188.5664441046215
 20
121.4476754225057
 30
0.0
 10
188.9149212970541
 20
121.4161849011462
 30
0.0
 10
189.6095434811285
 20
121.2875632326921
 30
0.0
 10
189.9488938284755
 20
121.1913024442264
 30
0.0
 10
190.6002748071157
 20
120.9397731061984
 30
0.0
 10
190.9153954934982
 20
120.783466240355
 30
0.0
 10
191.5158051514042
 20
120.4101229038844
 30
0.0
 10
191.7935701784932
 20
120.1980557000129
 30
0.0
 10
192.1770686025291
 20
119.8427034225033
 30
0.0
 10
192.2993382417713
 20
119.7180009701136
 30
0.0
 10
192.5323468939855
 20
119.4556854252888
 30
0.0
 10
192.6434834621563
 20
119.3173886023782
 30
0.0
 10
192.9516354179567
 20
118.8920706616236
 30
0.0
 10
193.1260622312952
 20
118.592457148844
 30
0.0
 10
193.4123466506566
 20
117.9613512080602
 30
0.0
 10
193.524227676102
 20
117.6265946495902
 30
0.0
 10
193.6719938755391
 20
116.9558348580861
 30
0.0
 10
193.7099774964099
 20
116.6166815944356
 30
0.0
 10
193.7116444416345
 20
115.9307683430009
 30
0.0
 10
193.6747429910239
 20
115.5914637276878
 30
0.0
 10
193.5660058264557
 20
115.099058056076
 30
0.0
 10
193.5207975502073
 20
114.937068438778
 30
0.0
 10
193.4121540892577
 20
114.6173752926626
 30
0.0
 10
193.3484984251795
 20
114.4595015919632
 30
0.0
 10
193.1346635946652
 20
114.0030646696721
 30
0.0
 10
192.9607342958755
 20
113.7177146950843
 30
0.0
 10
192.6537081698421
 20
113.3165926527638
 30
0.0
 10
192.543048206222
 20
113.1868952338559
 30
0.0
 10
192.3106081107127
 20
112.9414884438563
 30
0.0
 10
192.1884968000894
 20
112.8252196135351
 30
0.0
 10
191.805032335331
 20
112.4948115087691
 30
0.0
 10
191.5250142534105
 20
112.2979606802562
 30
0.0
 10
190.9259128470135
 20
111.9566603259483
 30
0.0
 10
190.6126443965002
 20
111.8150686838699
 30
0.0
 10
189.9598722936384
 20
111.5860337279535
 30
0.0
 10
189.6171916769346
 20
111.498303851315
 30
0.0
 10
188.9250865928567
 20
111.3823284856888
 30
0.0
 10
188.5747134194005
 20
111.3531882090718
 30
0.0
 10
188.2205060864584
 20
111.3531882090718
 30
0.0
  0
LINE
  5
F0
330
1F
100
AcDbEntity
  8
0
  6
Continuous
 62
     7
370
    25
100
AcDbLine
 10
212.0205025102
 20
98.8684373642
 30
0.0
 11
212.0205025102
 21
145.2684367741
 31
0.0
  0
SPLINE
  5
F1
330
1F
100
AcDbEntity
  8
0
  6
Continuous
 62
     7
370
    25
100
AcDbSpline
210
0.0
220
0.0
230
1.0
 70
     8
 71
     3
 72
     9
 73
     5
 74
     0
 42
0.000000001
 43
0.00000001
 40
0.0
 40
0.0
 40
0.0
 40
0.0
 40
0.7009339503679092
 40
0.9999999999999999
 40
0.9999999999999999
 40
0.9999999999999999
 40
0.9999999999999999
 10
20.14128965388694
 20
102.3671573693432
 30
0.0
 10
20.15043032483677
 20
102.3493280855823
 30
0.0
 10
20.16347102709558
 20
102.3238916179215
 30
0.0
 10
20.17863449036386
 20
102.377770977395
 30
0.0
 10
20.18316936742224
 20
102.3938844645895
 30
0.0
  0
LINE
  5
F2
330
1F
100
AcDbEntity
  8
0
  6
Continuous
 62
     7
370
    25
100
AcDbLine
 10
20.1205062593
 20
102.3777595455
 30
0.0
 11
20.1205062593
 21
141.7591145928
 31
0.0
  0
SPLINE
  5
F3
330
1F
100
AcDbEntity
  8
0
  6
Continuous
 62
     7
370
    25
100
AcDbSpline
210
0.0
220
0.0
230
1.0
 70
     8
 71
     3
 72
    10
 73
     6
 74
     0
 42
0.000000001
 43
0.00000001
 40
0.0
 40
0.0
 40
0.0
 40
0.0
 40
0.5
 40
0.5
 40
1.0
 40
1.0
 40
1.0
 40
1.0
 10
20.18316946118176
 20
141.7429896139263
 30
0.0
 10
20.17426517207299
 20
141.7887311331395
 30
0.0
 10
20.15774979188001
 20
141.8059219726085
 30
0.0
 10
20.13064184581839
 20
141.8055986956728
 30
0.0
 10
20.12050608645835
 20
141.7877211533763
 30
0.0
 10
20.12050608645835
 20
141.7591148156237
 30
0.0
  0
SPLINE
  5
F4
330
1F
100
AcDbEntity
  8
0
  6
Continuous
 62
     7
370
    25
100
AcDbSpline
210
0.0
220
0.0
230
1.0
 70
     8
 71
     3
 72
    26
 73
    22
 74
     0
 42
0.000000001
 43
0.00000001
 40
0.0
 40
0.0
 40
0.0
 40
0.0
 40
0.2500000000000165
 40
0.2500000000000165
 40
0.3750000000000256
 40
0.3750000000000256
 40
0.4375000000000291
 40
0.4375000000000291
 40
0.4687500000000291
 40
0.4687500000000291
 40
0.5000000000000292
 40
0.5000000000000292
 40
0.5312500000000293
 40
0.5312500000000293
 40
0.5625000000000293
 40
0.5625000000000293
 40
0.625000000000026
 40
0.625000000000026
 40
0.7500000000000173
 40
0.7500000000000173
 40
1.0
 40
1.0
 40
1.0
 40
1.0
 10
20.94465973256286
 20
142.4585564027434
 30
0.0
 10
20.90605920969439
 20
142.340781706388
 30
0.0
 10
20.85976220714013
 20
142.216392020226
 30
0.0
 10
20.76582285870621
 20
142.0111726878725
 30
0.0
 10
20.73051139179275
 20
141.9395998214261
 30
0.0
 10
20.66433141604707
 20
141.8236465888257
 30
0.0
 10
20.63979304937885
 20
141.7830620540154
 30
0.0
 10
20.59642030382505
 20
141.7189203721437
 30
0.0
 10
20.58091190239985
 20
141.6970539468586
 30
0.0
 10
20.54586925781282
 20
141.6514596785154
 30
0.0
 10
20.52631896709306
 20
141.627789387548
 30
0.0
 10
20.48439168672245
 20
141.5831728282081
 30
0.0
 10
20.46173957649081
 20
141.5622928156902
 30
0.0
 10
20.42076586240418
 20
141.5314194019393
 30
0.0
 10
20.40316656250876
 20
141.5215805321069
 30
0.0
 10
20.35853957665261
 20
141.5025909164108
 30
0.0
 10
20.33798035399928
 20
141.5022665917573
 30
0.0
 10
20.28685491450261
 20
141.5114900326336
 30
0.0
 10
20.26594350151406
 20
141.5327369288505
 30
0.0
 10
20.21449359395314
 20
141.6067058076813
 30
0.0
 10
20.19682829464858
 20
141.672823900996
 30
0.0
 10
20.18316946118176
 20
141.7429896139263
 30
0.0
  0
SPLINE
  5
F5
330
1F
100
AcDbEntity
  8
0
  6
Continuous
 62
     7
370
    25
100
AcDbSpline
210
0.0
220
0.0
230
1.0
 70
     8
 71
     3
 72
    10
 73
     6
 74
     0
 42
0.000000001
 43
0.00000001
 40
0.0
 40
0.0
 40
0.0
 40
0.0
 40
0.5
 40
0.5
 40
1.0
 40
1.0
 40
1.0
 40
1.0
 10
21.26046115604016
 20
142.9283909614332
 30
0.0
 10
21.19290190112191
 20
142.8606995686235
 30
0.0
 10
21.12926524578542
 20
142.7859924038698
 30
0.0
 10
21.01904449121354
 20
142.6270262714432
 30
0.0
 10
20.97222819799093
 20
142.5426710054352
 30
0.0
 10
20.94465973256285
 20
142.4585564027434
 30
0.0
  0
SPLINE
  5
F6
330
1F
100
AcDbEntity
  8
0
  6
Continuous
 62
     7
370
    25
100
AcDbSpline
210
0.0
220
0.0
230
1.0
 70
     8
 71
     3
 72
    10
 73
     6
 74
     0
 42
0.000000001
 43
0.00000001
 40
0.0
 40
0.0
 40
0.0
 40
0.0
 40
0.5
 40
0.5
 40
1.0
 40
1.0
 40
1.0
 40
1.0
 10
20.9446597325629
 20
101.6783177355476
 30
0.0
 10
20.9721371473161
 20
101.594480939082
 30
0.0
 10
21.01884577760377
 20
101.5101704514952
 30
0.0
 10
21.12912424034571
 20
101.3510492210123
 30
0.0
 10
21.19301177895736
 20
101.2760644769242
 30
0.0
 10
21.26046115603969
 20
101.2084831768584
 30
0.0
  0
SPLINE
  5
F7
330
1F
100
AcDbEntity
  8
0
  6
Continuous
 62
     7
370
    25
100
AcDbSpline
210
0.0
220
0.0
230
1.0
 70
     8
 71
     3
 72
    24
 73
    20
 74
     0
 42
0.000000001
 43
0.00000001
 40
0.0
 40
0.0
 40
0.0
 40
0.0
 40
0.25
 40
0.25
 40
0.374999999999999
 40
0.374999999999999
 40
0.4374999999999993
 40
0.4374999999999993
 40
0.4687499999999994
 40
0.4687499999999994
 40
0.4999999999999995
 40
0.4999999999999995
 40
0.5624999999999971
 40
0.5624999999999971
 40
0.6249999999999947
 40
0.6249999999999947
 40
0.7499999999999947
 40
0.7499999999999947
 40
1.0
 40
1.0
 40
1.0
 40
1.0
 10
20.18316946118176
 20
102.3938845243649
 30
0.0
 10
20.19692257985198
 20
102.4645345823551
 30
0.0
 10
20.21469514725785
 20
102.53113269512
 30
0.0
 10
20.2669462388132
 20
102.6052307153533
 30
0.0
 10
20.28798131439477
 20
102.6264885225148
 30
0.0
 10
20.3408817220232
 20
102.6346344486611
 30
0.0
 10
20.36198739490111
 20
102.6336946452653
 30
0.0
 10
20.40803956357909
 20
102.6126786536879
 30
0.0
 10
20.42641003556248
 20
102.6017698475803
 30
0.0
 10
20.46796167062817
 20
102.5691349366329
 30
0.0
 10
20.49052834338509
 20
102.5476429562616
 30
0.0
 10
20.55330935984511
 20
102.4791770126753
 30
0.0
 10
20.58643912081301
 20
102.4331025544702
 30
0.0
 10
20.64335680729801
 20
102.3480946661355
 30
0.0
 10
20.66754283280178
 20
102.3078143649541
 30
0.0
 10
20.73275078318154
 20
102.1928781384882
 30
0.0
 10
20.76746684337279
 20
102.1222951533412
 30
0.0
 10
20.86068211370368
 20
101.9180893942626
 30
0.0
 10
20.90635464906435
 20
101.7951910119352
 30
0.0
 10
20.94465973256289
 20
101.6783177355476
 30
0.0
  0
LINE
  5
F8
330
1F
100
AcDbEntity
  8
0
  6
Continuous
 62
     7
370
    25
100
AcDbLine
 10
71.9305063511
 20
142.2043035472
 30
0.0
 11
71.9305063511
 21
143.1185810561
 31
0.0
  0
SPLINE
  5
F9
330
1F
100
AcDbEntity
  8
0
  6
Continuous
 62
     7
370
    25
100
AcDbSpline
210
0.0
220
0.0
230
1.0
 70
     8
 71
     3
 72
     8
 73
     4
 74
     0
 42
0.000000001
 43
0.00000001
 40
0.0
 40
0.0
 40
0.0
 40
0.0
 40
1.0
 40
1.0
 40
1.0
 40
1.0
 10
71.93050608645835
 20
143.1185807367289
 30
0.0
 10
72.40978423704819
 20
144.2595919665815
 30
0.0
 10
72.90535207618812
 20
145.3959763773494
 30
0.0
 10
73.41243891794741
 20
146.527126731513
 30
0.0
  0
LINE
  5
FA
330
1F
100
AcDbEntity
  8
0
  6
Continuous
 62
     7
370
    25
100
AcDbLine
 10
73.4124380077
 20
146.5271266843
 30
0.0
 11
77.3705067958
 21
146.5271266843
 31
0.0
  0
SPLINE
  5
FB
330
1F
100
AcDbEntity
  8
0
  6
Continuous
 62
     7
370
    25
100
AcDbSpline
210
0.0
220
0.0
230
1.0
 70
     8
 71
     3
 72
    12
 73
     8
 74
     0
 42
0.000000001
 43
0.00000001
 40
0.0
 40
0.0
 40
0.0
 40
0.0
 40
0.25
 40
0.25
 40
0.5
 40
0.5
 40
1.0
 40
1.0
 40
1.0
 40
1.0
 10
77.37050608645835
 20
146.527126731513
 30
0.0
 10
77.461705808284
 20
146.527126731513
 30
0.0
 10
77.55230081742002
 20
146.4989070329252
 30
0.0
 10
77.70571354386666
 20
146.404464025677
 30
0.0
 10
77.77092241119036
 20
146.3381770489717
 30
0.0
 10
77.9237069405303
 20
146.1125522256834
 30
0.0
 10
77.97050608645834
 20
145.9301259626509
 30
0.0
 10
77.97050608645834
 20
145.749389330404
 30
0.0
  0
LINE
  5
FC
330
1F
100
AcDbEntity
  8
0
  6
Continuous
 62
     7
370
    25
100
AcDbLine
 10
77.9705057765
 20
145.7493885154
 30
0.0
 11
77.9705057765
 21
141.9184378082
 31
0.0
  0
SPLINE
  5
FD
330
1F
100
AcDbEntity
  8
0
  6
Continuous
 62
     7
370
    25
100
AcDbSpline
210
0.0
220
0.0
230
1.0
 70
     8
 71
     3
 72
     8
 73
     4
 74
     0
 42
0.000000001
 43
0.00000001
 40
0.0
 40
0.0
 40
0.0
 40
0.0
 40
1.0
 40
1.0
 40
1.0
 40
1.0
 10
66.6285732549693
 20
146.527126731513
 30
0.0
 10
67.13566009672857
 20
145.3959763773494
 30
0.0
 10
67.63122793586851
 20
144.2595919665815
 30
0.0
 10
68.11050608645836
 20
143.1185807367289
 30
0.0
  0
LINE
  5
FE
330
1F
100
AcDbEntity
  8
0
  6
Continuous
 62
     7
370
    25
100
AcDbLine
 10
68.1105061347
 20
143.1185810561
 30
0.0
 11
68.1105061347
 21
142.2043035472
 31
0.0
  0
SPLINE
  5
FF
330
1F
100
AcDbEntity
  8
0
  6
Continuous
 62
     7
370
    25
100
AcDbSpline
210
0.0
220
0.0
230
1.0
 70
     8
 71
     3
 72
     8
 73
     4
 74
     0
 42
0.000000001
 43
0.00000001
 40
0.0
 40
0.0
 40
0.0
 40
0.0
 40
1.0
 40
1.0
 40
1.0
 40
1.0
 10
68.11050608645836
 20
149.8736712603172
 30
0.0
 10
67.61779598961259
 20
150.7616902584436
 30
0.0
 10
67.12371328433362
 20
151.6489528941296
 30
0.0
 10
66.6285732549693
 20
152.5356325423098
 30
0.0
  0
LINE
  5
100
330
1F
100
AcDbEntity
  8
0
  6
Continuous
 62
     7
370
    25
100
AcDbLine
 10
68.1105061347
 20
143.1185810561
 30
0.0
 11
68.1105061347
 21
149.8736704434
 31
0.0
  0
SPLINE
  5
101
330
1F
100
AcDbEntity
  8
0
  6
Continuous
 62
     7
370
    25
100
AcDbSpline
210
0.0
220
0.0
230
1.0
 70
     8
 71
     3
 72
    10
 73
     6
 74
     0
 42
0.000000001
 43
0.00000001
 40
0.0
 40
0.0
 40
0.0
 40
0.0
 40
0.5
 40
0.5
 40
1.0
 40
1.0
 40
1.0
 40
1.0
 10
77.97050608645833
 20
151.9148773929095
 30
0.0
 10
77.97050608645833
 20
152.0752826592603
 30
0.0
 10
77.90826825535149
 20
152.2343444722489
 30
0.0
 10
77.68913333160891
 20
152.4652569378792
 30
0.0
 10
77.53154463661706
 20
152.5356325423098
 30
0.0
 10
77.37050608645835
 20
152.5356325423098
 30
0.0
  0
LINE
  5
102
330
1F
100
AcDbEntity
  8
0
  6
Continuous
 62
     7
370
    25
100
AcDbLine
 10
77.9705057765
 20
145.7493885154
 30
0.0
 11
77.9705057765
 21
151.9148780698
 31
0.0
  0
LINE
  5
103
330
1F
100
AcDbEntity
  8
0
  6
Continuous
 62
     7
370
    25
100
AcDbLine
 10
77.3705067958
 20
152.5356325055
 30
0.0
 11
73.4124380077
 21
152.5356325055
 31
0.0
  0
LINE
  5
104
330
1F
100
AcDbEntity
  8
0
  6
Continuous
 62
     7
370
    25
100
AcDbLine
 10
73.4124380077
 20
146.5271266843
 30
0.0
 11
73.4124380077
 21
152.5356325055
 31
0.0
  0
SPLINE
  5
105
330
1F
100
AcDbEntity
  8
0
  6
Continuous
 62
     7
370
    25
100
AcDbSpline
210
0.0
220
0.0
230
1.0
 70
     8
 71
     3
 72
     8
 73
     4
 74
     0
 42
0.000000001
 43
0.00000001
 40
0.0
 40
0.0
 40
0.0
 40
0.0
 40
1.0
 40
1.0
 40
1.0
 40
1.0
 10
73.41243891794741
 20
152.5356325423098
 30
0.0
 10
72.91729888858309
 20
151.6489528941296
 30
0.0
 10
72.4232161833041
 20
150.7616902584436
 30
0.0
 10
71.93050608645835
 20
149.8736712603172
 30
0.0
  0
LINE
  5
106
330
1F
100
AcDbEntity
  8
0
  6
Continuous
 62
     7
370
    25
100
AcDbLine
 10
71.9305063511
 20
143.1185810561
 30
0.0
 11
71.9305063511
 21
149.8736704434
 31
0.0
  0
ARC
  5
107
330
1F
100
AcDbEntity
  8
0
  6
Continuous
 62
     7
370
    25
100
AcDbCircle
 10
60.0206785872
 20
140.8663806626
 30
0.0
 40
7.162301240319883
100
AcDbArc
 50
70.7192150876
 51
109.3439968914
  0
LWPOLYLINE
  5
108
330
1F
100
AcDbEntity
  8
0
  6
Continuous
 62
     7
370
    25
100
AcDbPolyline
 90
       21
 70
   128
 43
0.0
 10
123.9705095912
 20
136.8629841799
 10
124.7430453921
 20
136.9495049784
 10
125.4399727012
 20
137.2005979265
 10
125.9930516506
 20
137.5916844899
 10
126.3481463219
 20
138.0844807918
 10
126.470507207
 20
138.6307517732
 10
126.3481463219
 20
139.177020892
 10
125.9930516506
 20
139.6698190565
 10
125.4399727012
 20
140.0609056199
 10
124.7430453921
 20
140.3119976366
 10
123.9705095912
 20
140.3985193665
 10
123.1979663397
 20
140.3119976366
 10
122.5010464812
 20
140.0609056199
 10
121.9479600812
 20
139.6698190565
 10
121.59286541
 20
139.177020892
 10
121.4705045248
 20
138.6307517732
 10
121.59286541
 20
138.0844807918
 10
121.9479600812
 20
137.5916844899
 10
122.5010464812
 20
137.2005979265
 10
123.1979663397
 20
136.9495049784
 10
123.9705095912
 20
136.8629841799
  0
LWPOLYLINE
  5
109
330
1F
100
AcDbEntity
  8
0
  6
Continuous
 62
     7
370
    25
100
AcDbPolyline
 90
       21
 70
   128
 43
0.0
 10
123.9705095912
 20
103.7383547718
 10
124.7430453921
 20
103.8248765016
 10
125.4399727012
 20
104.0759685183
 10
125.9930516506
 20
104.4670550818
 10
126.3481463219
 20
104.9598532463
 10
126.470507207
 20
105.5061223651
 10
126.3481463219
 20
106.0523933465
 10
125.9930516506
 20
106.5451896484
 10
125.4399727012
 20
106.9362762118
 10
124.7430453921
 20
107.1873691598
 10
123.9705095912
 20
107.2738899583
 10
123.1979663397
 20
107.1873691598
 10
122.5010464812
 20
106.9362762118
 10
121.9479600812
 20
106.5451896484
 10
121.59286541
 20
106.0523933465
 10
121.4705045248
 20
105.5061223651
 10
121.59286541
 20
104.9598532463
 10
121.9479600812
 20
104.4670550818
 10
122.5010464812
 20
104.0759685183
 10
123.1979663397
 20
103.8248765016
 10
123.9705095912
 20
103.7383547718
  0
LINE
  5
10A
330
1F
100
AcDbEntity
  8
0
  6
Continuous
 62
     7
370
    25
100
AcDbLine
 10
231.0205112125
 20
111.8684367011
 30
0.0
 11
231.0205112125
 21
132.2684365059
 31
0.0
  0
LINE
  5
10B
330
1F
100
AcDbEntity
  8
0
  6
Continuous
 62
     7
370
    25
100
AcDbLine
 10
214.520500126
 20
111.0684371288
 30
0.0
 11
214.520500126
 21
133.0684370095
 31
0.0
  0
LINE
  5
10C
330
1F
100
AcDbEntity
  8
0
  6
Continuous
 62
     7
370
    18
100
AcDbLine
 10
217.1204994346
 20
99.5684361751
 30
0.0
 11
217.1204994346
 21
109.5684368829
 31
0.0
  0
LINE
  5
10D
330
1F
100
AcDbEntity
  8
0
  6
Continuous
 62
     7
370
    18
100
AcDbLine
 10
217.1204994346
 20
134.5684372554
 30
0.0
 11
217.1204994346
 21
144.5684379632
 31
0.0
  0
LINE
  5
10E
330
1F
100
AcDbEntity
  8
0
  6
Continuous
 62
     7
370
    18
100
AcDbLine
 10
244.5205013181
 20
114.0684366892
 30
0.0
 11
244.5205013181
 21
130.0684374491
 31
0.0
  0
LINE
  5
10F
330
1F
100
AcDbEntity
  8
0
  6
Continuous
 62
     7
370
    18
100
AcDbLine
 10
235.620499673
 20
117.0684371809
 30
0.0
 11
235.620499673
 21
127.0684369574
 31
0.0
  0
LINE
  5
110
330
1F
100
AcDbEntity
  8
0
  6
Continuous
 62
     7
370
    18
100
AcDbLine
 10
52.3205061007
 20
90.5684365625
 30
0.0
 11
52.3205061007
 21
153.5684375758
 31
0.0
  0
LINE
  5
111
330
1F
100
AcDbEntity
  8
0
  6
Continuous
 62
     7
370
    18
100
AcDbLine
 10
77.3705067958
 20
91.8815194363
 30
0.0
 11
77.3705067958
 21
141.9184378082
 31
0.0
  0
LINE
  5
112
330
1F
100
AcDbEntity
  8
0
  6
Continuous
 62
     7
370
    18
100
AcDbLine
 10
71.1305058474
 20
95.6684372122
 30
0.0
 11
71.1305058474
 21
148.4684369261
 31
0.0
  0
LINE
  5
113
330
1F
100
AcDbEntity
  8
0
  6
Continuous
 62
     7
370
    18
100
AcDbLine
 10
68.9105066384
 20
95.6684372122
 30
0.0
 11
68.9105066384
 21
148.4684369261
 31
0.0
  0
LINE
  5
114
330
1F
100
AcDbEntity
  8
0
  6
Continuous
 62
     7
370
    18
100
AcDbLine
 10
79.8027208919
 20
97.0108772362
 30
0.0
 11
79.8027208919
 21
147.1259969021
 31
0.0
  0
LINE
  5
115
330
1F
100
AcDbEntity
  8
0
  6
Continuous
 62
     7
370
    18
100
AcDbLine
 10
64.2161267723
 20
146.5271266843
 30
0.0
 11
64.2161267723
 21
141.9184378082
 31
0.0
  0
LINE
  5
116
330
1F
100
AcDbEntity
  8
0
  6
Continuous
 62
     7
370
    18
100
AcDbLine
 10
104.9705046142
 20
98.0684368605
 30
0.0
 11
104.9705046142
 21
146.0684372778
 31
0.0
  0
LINE
  5
117
330
1F
100
AcDbEntity
  8
0
  6
Continuous
 62
     7
370
    18
100
AcDbLine
 10
51.5204993106
 20
98.0980063523
 30
0.0
 11
51.5204993106
 21
146.038867786
 31
0.0
  0
LINE
  5
118
330
1F
100
AcDbEntity
  8
0
  6
Continuous
 62
     7
370
    18
100
AcDbLine
 10
21.2604618544
 20
101.2084840531
 30
0.0
 11
21.2604618544
 21
142.9283900852
 31
0.0
  0
LINE
  5
119
330
1F
100
AcDbEntity
  8
0
  6
Continuous
 62
     7
370
    18
100
AcDbLine
 10
50.8772189176
 20
98.0775619591
 30
0.0
 11
50.8772189176
 21
146.0593121792
 31
0.0
  0
LINE
  5
11A
330
1F
100
AcDbEntity
  8
0
  6
Continuous
 62
     7
370
    18
100
AcDbLine
 10
211.2205038692
 20
98.0684368605
 30
0.0
 11
211.2205038692
 21
146.0684372778
 31
0.0
  0
LINE
  5
11B
330
1F
100
AcDbEntity
  8
0
  6
Continuous
 62
     7
370
    18
100
AcDbLine
 10
51.0325103213
 20
98.0980063523
 30
0.0
 11
51.0325103213
 21
146.038867786
 31
0.0
  0
LINE
  5
11C
330
1F
100
AcDbEntity
  8
0
  6
Continuous
 62
     7
370
    18
100
AcDbLine
 10
77.3705067958
 20
146.5271266843
 30
0.0
 11
77.3705067958
 21
152.5356325055
 31
0.0
  0
LINE
  5
11D
330
1F
100
AcDbEntity
  8
0
  6
Continuous
 62
     7
370
    18
100
AcDbLine
 10
28.8205063815
 20
101.3721230174
 30
0.0
 11
26.551981541
 21
101.3721230174
 31
0.0
  0
LINE
  5
11E
330
1F
100
AcDbEntity
  8
0
  6
Continuous
 62
     7
370
    18
100
AcDbLine
 10
28.8205063815
 20
101.1984369452
 30
0.0
 11
28.8205063815
 21
101.3721230174
 31
0.0
  0
LINE
  5
11F
330
1F
100
AcDbEntity
  8
0
  6
Continuous
 62
     7
370
    18
100
AcDbLine
 10
212.4205092813
 20
111.4184374655
 30
0.0
 11
212.4205092813
 21
132.7184366728
 31
0.0
  0
LINE
  5
120
330
1F
100
AcDbEntity
  8
0
  6
Continuous
 62
     7
370
    18
100
AcDbLine
 10
20.1831693674
 20
141.7429896737
 30
0.0
 11
20.9446596826
 21
142.4585564727
 31
0.0
  0
LINE
  5
121
330
1F
100
AcDbEntity
  8
0
  6
Continuous
 62
     7
370
    18
100
AcDbLine
 10
20.9446596826
 20
101.6783176655
 30
0.0
 11
20.1831693674
 21
102.3938844646
 31
0.0
  0
ARC
  5
122
330
1F
100
AcDbEntity
  8
0
  6
Continuous
 62
     7
370
    18
100
AcDbCircle
 10
28.8220220185
 20
99.8982364938
 30
0.0
 40
1.473887302894126
100
AcDbArc
 50
65.1155624511
 51
90.0589187627
  0
LINE
  5
123
330
1F
100
AcDbEntity
  8
0
  6
Continuous
 62
     7
370
    18
100
AcDbLine
 10
28.8205063815
 20
101.3721230174
 30
0.0
 11
28.8205063815
 21
101.68196845
 31
0.0
  0
LINE
  5
124
330
1F
100
AcDbEntity
  8
0
  6
Continuous
 62
     7
370
    18
100
AcDbLine
 10
230.2205125714
 20
111.0684371288
 30
0.0
 11
230.2205125714
 21
133.0684370095
 31
0.0
  0
LINE
  5
125
330
1F
100
AcDbEntity
  8
0
  6
Continuous
 62
     7
370
    18
100
AcDbLine
 10
213.2905880834
 20
111.397992141
 30
0.0
 11
213.2905880834
 21
132.7388819973
 31
0.0
  0
LINE
  5
126
330
1F
100
AcDbEntity
  8
0
  6
Continuous
 62
     7
370
    18
100
AcDbLine
 10
213.1353030826
 20
111.4184374655
 30
0.0
 11
213.1353030826
 21
132.7184366728
 31
0.0
  0
LINE
  5
127
330
1F
100
AcDbEntity
  8
0
  6
Continuous
 62
     7
370
    18
100
AcDbLine
 10
24.8205057259
 20
142.9384371931
 30
0.0
 11
24.8205057259
 21
142.8915246124
 31
0.0
  0
LINE
  5
128
330
1F
100
AcDbEntity
  8
0
  6
HIDDEN
 62
     7
370
    18
100
AcDbLine
 10
236.0205064441
 20
114.0684366892
 30
0.0
 11
236.0205064441
 21
130.0684374491
 31
0.0
  0
LINE
  5
129
330
1F
100
AcDbEntity
  8
0
  6
HIDDEN
 62
     7
370
    18
100
AcDbLine
 10
246.0205118085
 20
128.5684372033
 30
0.0
 11
246.0205118085
 21
115.568436935
 31
0.0
  0
LINE
  5
12A
330
1F
100
AcDbEntity
  8
0
  6
HIDDEN
 62
     7
370
    18
100
AcDbLine
 10
236.0205064441
 20
116.6684369291
 30
0.0
 11
236.0205064441
 21
127.4367820206
 31
0.0
  0
LINE
  5
12B
330
1F
100
AcDbEntity
  8
0
  6
HIDDEN
 62
     7
370
    18
100
AcDbLine
 10
218.8485125924
 20
117.0684371809
 30
0.0
 11
218.8485125924
 21
127.0684369574
 31
0.0
  0
LINE
  5
12C
330
1F
100
AcDbEntity
  8
0
  6
HIDDEN
 62
     7
370
    18
100
AcDbLine
 10
218.0204997684
 20
117.8964369664
 30
0.0
 11
218.0204997684
 21
126.2404371718
 31
0.0
  0
LINE
  5
12D
330
1F
100
AcDbEntity
  8
0
  6
HIDDEN
 62
     7
370
    18
100
AcDbLine
 10
246.0205118085
 20
122.0684370691
 30
0.0
 11
246.0205118085
 21
118.0109370234
 31
0.0
  0
LINE
  5
12E
330
1F
100
AcDbEntity
  8
0
  6
HIDDEN
 62
     7
370
    18
100
AcDbLine
 10
241.0205016757
 20
122.0684370691
 30
0.0
 11
241.0205016757
 21
120.0396870463
 31
0.0
  0
LINE
  5
12F
330
1F
100
AcDbEntity
  8
0
  6
HIDDEN
 62
     7
370
    18
100
AcDbLine
 10
241.0205016757
 20
122.0684370691
 30
0.0
 11
241.0205016757
 21
124.097187092
 31
0.0
  0
LINE
  5
130
330
1F
100
AcDbEntity
  8
0
  6
HIDDEN
 62
     7
370
    18
100
AcDbLine
 10
241.0205016757
 20
122.0684370691
 30
0.0
 11
246.0205118085
 21
122.0684370691
 31
0.0
  0
LINE
  5
131
330
1F
100
AcDbEntity
  8
0
  6
HIDDEN
 62
     7
370
    18
100
AcDbLine
 10
246.0205118085
 20
122.0684370691
 30
0.0
 11
246.0205118085
 21
126.1259371149
 31
0.0
  0
LINE
  5
132
330
1F
100
AcDbEntity
  8
0
  6
HIDDEN
 62
     7
370
    18
100
AcDbLine
 10
241.0205016757
 20
124.097187092
 30
0.0
 11
241.0205016757
 21
126.1259371149
 31
0.0
  0
LINE
  5
133
330
1F
100
AcDbEntity
  8
0
  6
HIDDEN
 62
     7
370
    18
100
AcDbLine
 10
241.0205016757
 20
120.0396870463
 30
0.0
 11
241.0205016757
 21
124.097187092
 31
0.0
  0
LINE
  5
134
330
1F
100
AcDbEntity
  8
0
  6
HIDDEN
 62
     7
370
    18
100
AcDbLine
 10
241.0205016757
 20
118.0109370234
 30
0.0
 11
241.0205016757
 21
120.0396870463
 31
0.0
  0
LINE
  5
135
330
1F
100
AcDbEntity
  8
0
  6
HIDDEN
 62
     7
370
    18
100
AcDbLine
 10
241.0205016757
 20
120.0396870463
 30
0.0
 11
241.0205016757
 21
118.0109370234
 31
0.0
  0
LINE
  5
136
330
1F
100
AcDbEntity
  8
0
  6
HIDDEN
 62
     7
370
    18
100
AcDbLine
 10
241.0205016757
 20
126.1259371149
 30
0.0
 11
241.0205016757
 21
124.097187092
 31
0.0
  0
LINE
  5
137
330
1F
100
AcDbEntity
  8
0
  6
HIDDEN
 62
     7
370
    18
100
AcDbLine
 10
241.0205016757
 20
124.097187092
 30
0.0
 11
241.0205016757
 21
120.0396870463
 31
0.0
  0
LINE
  5
138
330
1F
100
AcDbEntity
  8
0
  6
HIDDEN
 62
     7
370
    18
100
AcDbLine
 10
241.0205016757
 20
120.0396870463
 30
0.0
 11
241.0205016757
 21
118.0109370234
 31
0.0
  0
LINE
  5
139
330
1F
100
AcDbEntity
  8
0
  6
HIDDEN
 62
     7
370
    18
100
AcDbLine
 10
241.0205016757
 20
124.097187092
 30
0.0
 11
241.0205016757
 21
126.1259371149
 31
0.0
  0
LINE
  5
13A
330
1F
100
AcDbEntity
  8
0
  6
HIDDEN
 62
     7
370
    18
100
AcDbLine
 10
241.0205016757
 20
118.0109370234
 30
0.0
 11
246.0205118085
 21
118.0109370234
 31
0.0
  0
LINE
  5
13B
330
1F
100
AcDbEntity
  8
0
  6
HIDDEN
 62
     7
370
    18
100
AcDbLine
 10
241.0205016757
 20
126.1259371149
 30
0.0
 11
246.0205118085
 21
126.1259371149
 31
0.0
  0
LINE
  5
13C
330
1F
100
AcDbEntity
  8
0
  6
HIDDEN
 62
     7
370
    18
100
AcDbLine
 10
231.0205112125
 20
127.0684369574
 30
0.0
 11
218.8485125924
 21
127.0684369574
 31
0.0
  0
LINE
  5
13D
330
1F
100
AcDbEntity
  8
0
  6
HIDDEN
 62
     7
370
    18
100
AcDbLine
 10
218.8485125924
 20
117.0684371809
 30
0.0
 11
231.0205112125
 21
117.0684371809
 31
0.0
  0
LINE
  5
13E
330
1F
100
AcDbEntity
  8
0
  6
HIDDEN
 62
     7
370
    18
100
AcDbLine
 10
218.8485125924
 20
127.0684369574
 30
0.0
 11
218.0204997684
 21
126.2404371718
 31
0.0
  0
LINE
  5
13F
330
1F
100
AcDbEntity
  8
0
  6
HIDDEN
 62
     7
370
    18
100
AcDbLine
 10
218.0204997684
 20
117.8964369664
 30
0.0
 11
218.8485125924
 21
117.0684371809
 31
0.0
  0
LINE
  5
140
330
1F
100
AcDbEntity
  8
0
  6
HIDDEN
 62
     7
370
    18
100
AcDbLine
 10
241.0205016757
 20
126.1259371149
 30
0.0
 11
238.6779050256
 21
122.0684370691
 31
0.0
  0
LINE
  5
141
330
1F
100
AcDbEntity
  8
0
  6
HIDDEN
 62
     7
370
    18
100
AcDbLine
 10
238.6779050256
 20
122.0684370691
 30
0.0
 11
241.0205016757
 21
118.0109370234
 31
0.0
  0
LINE
  5
142
330
1F
100
AcDbEntity
  8
0
  6
HIDDEN
 62
     7
370
    18
100
AcDbLine
 10
244.5205013181
 20
130.0684374491
 30
0.0
 11
244.5205013181
 21
114.0684366892
 31
0.0
  0
LINE
  5
143
330
1F
100
AcDbEntity
  8
0
  6
HIDDEN
 62
     7
370
    18
100
AcDbLine
 10
235.620499673
 20
127.0684369574
 30
0.0
 11
235.620499673
 21
117.0684371809
 31
0.0
  0
DIMENSION
  5
144
330
1F
100
AcDbEntity
  8
VERMASSUNG
100
AcDbDimension
  2
_D
 10
290.0098401734
 20
147.1259968129
 30
0.0
 11
290.0098401734
 21
122.0684370691
 31
0.0
 70
   160
  1
%%c<>
 71
     2
 42
-1.0
  3
SLDDIMSTYLE0
100
AcDbAlignedDimension
 13
79.8027208516
 23
97.0108773254
 33
0.0
 14
79.8027208516
 24
147.1259968129
 34
0.0
 50
90.0
100
AcDbRotatedDimension
  0
DIMENSION
  5
150
330
1F
100
AcDbEntity
  8
VERMASSUNG
100
AcDbDimension
  2
_D_1
 10
280.0205060865
 20
146.0684370691
 30
0.0
 11
280.0205060865
 21
122.0684370691
 31
0.0
 70
   160
  1
%%c<>
 71
     2
 42
-1.0
  3
SLDDIMSTYLE1
100
AcDbAlignedDimension
 13
211.2205060865
 23
98.0684370691
 33
0.0
 14
211.2205060865
 24
146.0684370691
 34
0.0
 50
90.0
100
AcDbRotatedDimension
  0
DIMENSION
  5
15C
330
1F
100
AcDbEntity
  8
VERMASSUNG
100
AcDbDimension
  2
_D_2
 10
269.7198084998
 20
133.0684370691
 30
0.0
 11
269.7198084998
 21
122.0684370691
 31
0.0
 70
   160
  1
%%c<>
 71
     2
 42
-1.0
  3
SLDDIMSTYLE1
100
AcDbAlignedDimension
 13
230.2205060865
 23
111.0684370691
 33
0.0
 14
230.2205060865
 24
133.0684370691
 34
0.0
 50
90.0
100
AcDbRotatedDimension
  0
DIMENSION
  5
167
330
1F
100
AcDbEntity
  8
VERMASSUNG
100
AcDbDimension
  2
_D_3
 10
9.9752022441
 20
153.5684370691
 30
0.0
 11
9.9752022441
 21
122.0684370691
 31
0.0
 70
   160
  1
%%c<>
 71
     2
 42
-1.0
  3
SLDDIMSTYLE1
100
AcDbAlignedDimension
 13
52.3205060865
 23
90.5684370691
 33
0.0
 14
52.3205060865
 24
153.5684370691
 34
0.0
 50
90.0
100
AcDbRotatedDimension
  0
DIMENSION
  5
172
330
1F
100
AcDbEntity
  8
VERMASSUNG
100
AcDbDimension
  2
_D_4
 10
259.1279679921
 20
126.1259370691
 30
0.0
 11
259.1279679921
 21
122.0684370691
 31
0.0
 70
   160
  1
SW<>
 71
     2
 42
-1.0
  3
SLDDIMSTYLE0
100
AcDbAlignedDimension
 13
246.0205060865
 23
118.0109370691
 33
0.0
 14
246.0205060865
 24
126.1259370691
 34
0.0
 50
90.0
100
AcDbRotatedDimension
  0
DIMENSION
  5
17D
330
1F
100
AcDbEntity
  8
VERMASSUNG
100
AcDbDimension
  2
_D_5
 10
77.9705060865
 20
158.4301742428
 30
0.0
 11
144.9955060865
 21
158.4301742428
 31
0.0
 70
   160
  1
<>
 71
     2
 42
-1.0
  3
SLDDIMSTYLE1
100
AcDbAlignedDimension
 13
212.0205060865
 23
145.2684370691
 33
0.0
 14
77.9705060865
 24
151.9148773929
 34
0.0
100
AcDbRotatedDimension
  0
DIMENSION
  5
187
330
1F
100
AcDbEntity
  8
VERMASSUNG
100
AcDbDimension
  2
_D_6
 10
231.0205060865
 20
158.4301742428
 30
0.0
 11
221.5205060865
 21
158.4301742428
 31
0.0
 70
   160
  1
<>
 71
     2
 42
-1.0
  3
SLDDIMSTYLE1
100
AcDbAlignedDimension
 13
212.0205060865
 23
145.2684370691
 33
0.0
 14
231.0205060865
 24
132.2684370691
 34
0.0
100
AcDbRotatedDimension
  0
DIMENSION
  5
191
330
1F
100
AcDbEntity
  8
VERMASSUNG
100
AcDbDimension
  2
_D_7
 10
212.0205060865
 20
167.0496301142
 30
0.0
 11
132.0205060865
 21
167.0496301142
 31
0.0
 70
   160
  1
<>
 71
     2
 42
-1.0
  3
SLDDIMSTYLE1
100
AcDbAlignedDimension
 13
52.0205060865
 23
153.2684370691
 33
0.0
 14
212.0205060865
 24
145.2684370691
 34
0.0
100
AcDbRotatedDimension
  0
DIMENSION
  5
19B
330
1F
100
AcDbEntity
  8
VERMASSUNG
100
AcDbDimension
  2
_D_8
 10
246.0205060865
 20
175.5684370691
 30
0.0
 11
133.0705060865
 21
175.5684370691
 31
0.0
 70
   160
  1
<>
 71
     2
 42
-1.0
  3
SLDDIMSTYLE1
100
AcDbAlignedDimension
 13
20.1205060865
 23
141.7591148156
 33
0.0
 14
246.0205060865
 24
128.5684370691
 34
0.0
100
AcDbRotatedDimension
  0
LINE
  5
1A5
330
1F
100
AcDbEntity
  8
VERMASSUNG
  6
CENTERX2
370
    18
100
AcDbLine
 10
250.3777137983
 20
122.0684370691
 30
0.0
 11
14.5657066099
 21
122.0684370691
 31
0.0
  0
SPLINE
  5
1A6
330
1F
100
AcDbEntity
  8
0
  6
Continuous
 62
     7
370
    25
100
AcDbSpline
210
0.0
220
0.0
230
1.0
 70
     8
 71
     3
 72
    14
 73
    10
 74
     0
 42
0.000000001
 43
0.00000001
 40
0.0
 40
0.0
 40
0.0
 40
0.0
 40
0.0599883870382393
 40
0.2338491854848519
 40
0.408709642769849
 40
0.585242655703665
 40
0.7629907563351468
 40
0.9174528692138835
 40
1.0
 40
1.0
 40
1.0
 40
1.0
 10
260.5648565391094
 20
25.71014530786888
 30
0.0
 10
260.5984217180124
 20
25.77252079441753
 30
0.0
 10
260.7292668721273
 20
26.01567546891017
 30
0.0
 10
260.865615684064
 20
26.46729443178103
 30
0.0
 10
260.9556872554493
 20
27.02400106360736
 30
0.0
 10
260.9256843603648
 20
27.54365761732792
 30
0.0
 10
260.7758966662063
 20
27.9656513143045
 30
0.0
 10
260.5723985920299
 20
28.25587524892164
 30
0.0
 10
260.4006262619346
 20
28.34309004034889
 30
0.0
 10
260.3408002704307
 20
28.37346577879313
 30
0.0
  0
SPLINE
  5
1A7
330
1F
100
AcDbEntity
  8
0
  6
Continuous
 62
     7
370
    25
100
AcDbSpline
210
0.0
220
0.0
230
1.0
 70
     8
 71
     3
 72
    15
 73
    11
 74
     0
 42
0.000000001
 43
0.00000001
 40
0.0
 40
0.0
 40
0.0
 40
0.0
 40
0.0577111373612686
 40
0.1922178196623222
 40
0.3267943840276658
 40
0.4671701756759731
 40
0.6124048934186195
 40
0.7586891635973245
 40
0.9046193547296628
 40
1.0
 40
1.0
 40
1.0
 40
1.0
 10
257.8058984816228
 20
24.11157085884682
 30
0.0
 10
257.8496179745271
 20
24.07672857872669
 30
0.0
 10
257.9952339853536
 20
23.96067979814503
 30
0.0
 10
258.322163268871
 20
23.90706544162884
 30
0.0
 10
258.7391663765479
 20
23.94835540892777
 30
0.0
 10
259.1786681128937
 20
24.1278387201525
 30
0.0
 10
259.6194723640716
 20
24.43159133272594
 30
0.0
 10
260.0311966164821
 20
24.84814021968563
 30
0.0
 10
260.3588903752814
 20
25.28563738529868
 30
0.0
 10
260.5065088033361
 20
25.58988732160821
 30
0.0
 10
260.5648565391094
 20
25.71014530786888
 30
0.0
  0
LINE
  5
1A8
330
1F
100
AcDbEntity
  8
0
  6
Continuous
 62
     7
370
    25
100
AcDbLine
 10
256.0450143461
 20
25.103046137
 30
0.0
 11
257.8481355507
 21
24.0621264222
 31
0.0
  0
LINE
  5
1A9
330
1F
100
AcDbEntity
  8
0
  6
Continuous
 62
     7
370
    25
100
AcDbLine
 10
260.3479323075
 20
28.3923706063
 30
0.0
 11
258.5448111028
 21
29.4332903212
 31
0.0
  0
SPLINE
  5
1AA
330
1F
100
AcDbEntity
  8
0
  6
Continuous
 62
     7
370
    25
100
AcDbSpline
210
0.0
220
0.0
230
1.0
 70
     8
 71
     3
 72
    14
 73
    10
 74
     0
 42
0.000000001
 43
0.00000001
 40
0.0
 40
0.0
 40
0.0
 40
0.0
 40
0.0599883852836438
 40
0.2338492373290068
 40
0.4087096611089385
 40
0.5852426620048008
 40
0.7629908283930351
 40
0.917452871628298
 40
1.0
 40
1.0
 40
1.0
 40
1.0
 10
272.9392249332853
 20
32.85371612664633
 30
0.0
 10
272.9727901033833
 20
32.91609161187029
 30
0.0
 10
273.1036352560091
 20
33.15924634221823
 30
0.0
 10
273.2399846964605
 20
33.6108654417716
 30
0.0
 10
273.3300551989277
 20
34.16757165665346
 30
0.0
 10
273.3000539362537
 20
34.68722929397013
 30
0.0
 10
273.1502647529459
 20
35.1092216713339
 30
0.0
 10
272.9467673379769
 20
35.39944636163443
 30
0.0
 10
272.7749950033871
 20
35.48666106984703
 30
0.0
 10
272.7151689938789
 20
35.51703678765539
 30
0.0
  0
SPLINE
  5
1AB
330
1F
100
AcDbEntity
  8
0
  6
Continuous
 62
     7
370
    25
100
AcDbSpline
210
0.0
220
0.0
230
1.0
 70
     8
 71
     3
 72
     9
 73
     5
 74
     0
 42
0.000000001
 43
0.00000001
 40
0.0
 40
0.0
 40
0.0
 40
0.0
 40
0.5912592475643504
 40
1.0
 40
1.0
 40
1.0
 40
1.0
 10
272.4183261056386
 20
32.03185966553697
 30
0.0
 10
272.537679859368
 20
32.18242347195982
 30
0.0
 10
272.7395435159976
 20
32.43707286145028
 30
0.0
 10
272.8812881322036
 20
32.73282867349425
 30
0.0
 10
272.9392249332853
 20
32.85371612664633
 30
0.0
  0
LINE
  5
1AC
330
1F
100
AcDbEntity
  8
0
  6
Continuous
 62
     7
370
    25
100
AcDbLine
 10
272.7223010309
 20
35.5359416152
 30
0.0
 11
270.9191798263
 21
36.57686133
 31
0.0
  0
SPLINE
  5
1AD
330
1F
100
AcDbEntity
  8
0
  6
Continuous
 62
     7
370
    25
100
AcDbSpline
210
0.0
220
0.0
230
1.0
 70
     8
 71
     3
 72
    20
 73
    16
 74
     0
 42
0.000000001
 43
0.00000001
 40
0.0
 40
0.0
 40
0.0
 40
0.0
 40
0.0116627337276134
 40
0.087897235170955
 40
0.1630725811612683
 40
0.2402171070830619
 40
0.3213882597893886
 40
0.406258775618107
 40
0.4928298897567011
 40
0.5792732967040285
 40
0.6654078896620605
 40
0.7514974511028883
 40
0.8378966555262518
 40
0.9249767436768278
 40
1.0
 40
1.0
 40
1.0
 40
1.0
 10
272.9404292465543
 20
20.77359785103051
 30
0.0
 10
272.9615102952703
 20
20.7568545431952
 30
0.0
 10
273.1203895031743
 20
20.63066710715215
 30
0.0
 10
273.4947518865374
 20
20.52310023795558
 30
0.0
 10
274.0225165988502
 20
20.46736954597133
 30
0.0
 10
274.5773507376395
 20
20.55639529710331
 30
0.0
 10
275.1445058478962
 20
20.77261864203968
 30
0.0
 10
275.7151852190109
 20
21.12056997160201
 30
0.0
 10
276.2654849883186
 20
21.58900611951696
 30
0.0
 10
276.7706625094392
 20
22.15706977696242
 30
0.0
 10
277.2102461567514
 20
22.79943344603573
 30
0.0
 10
277.5699316764535
 20
23.49269514254955
 30
0.0
 10
277.8339952438831
 20
24.21259849457761
 30
0.0
 10
277.9927930851953
 20
24.90371593383827
 30
0.0
 10
278.0118573235849
 20
25.33410938360703
 30
0.0
 10
278.0206804681533
 20
25.53330032693174
 30
0.0
  0
SPLINE
  5
1AE
330
1F
100
AcDbEntity
  8
0
  6
Continuous
 62
     7
370
    25
100
AcDbSpline
210
0.0
220
0.0
230
1.0
 70
     8
 71
     3
 72
    12
 73
     8
 74
     0
 42
0.000000001
 43
0.00000001
 40
0.0
 40
0.0
 40
0.0
 40
0.0
 40
0.1415819057085008
 40
0.4061153428200767
 40
0.6344385050335815
 40
0.8526768321380817
 40
1.0
 40
1.0
 40
1.0
 40
1.0
 10
278.0206804681533
 20
25.53330032693174
 30
0.0
 10
278.016976653806
 20
25.65670527691109
 30
0.0
 10
278.0063525855267
 20
26.01068160824924
 30
0.0
 10
277.8936880253442
 20
26.52791758051816
 30
0.0
 10
277.6488126507153
 20
27.03881110506645
 30
0.0
 10
277.3589774551183
 20
27.41330296243065
 30
0.0
 10
277.1155639843486
 20
27.56184311956616
 30
0.0
 10
277.0174671002187
 20
27.62170556899049
 30
0.0
  0
LINE
  5
1AF
330
1F
100
AcDbEntity
  8
0
  6
Continuous
 62
     7
370
    25
100
AcDbLine
 10
276.9724193632
 20
27.6708335106
 30
0.0
 11
273.9672173554
 21
29.405699702
 31
0.0
  0
LINE
  5
1B0
330
1F
100
AcDbEntity
  8
0
  6
Continuous
 62
     7
370
    25
100
AcDbLine
 10
269.9675423471
 20
22.4773088173
 30
0.0
 11
272.9727443548
 21
20.7424426259
 31
0.0
  0
LINE
  5
1B1
330
1F
100
AcDbEntity
  8
0
  6
Continuous
 62
     7
370
    25
100
AcDbLine
 10
271.6559008113
 20
29.0079903492
 30
0.0
 11
270.8481564596
 21
29.474291238
 31
0.0
  0
LINE
  5
1B2
330
1F
100
AcDbEntity
  8
0
  6
Continuous
 62
     7
370
    25
100
AcDbLine
 10
268.3338980655
 20
25.1523955794
 30
0.0
 11
269.1561040546
 21
24.6777461651
 31
0.0
  0
SPLINE
  5
1B3
330
1F
100
AcDbEntity
  8
0
  6
Continuous
 62
     7
370
    25
100
AcDbSpline
210
0.0
220
0.0
230
1.0
 70
     8
 71
     3
 72
    15
 73
    11
 74
     0
 42
0.000000001
 43
0.00000001
 40
0.0
 40
0.0
 40
0.0
 40
0.0
 40
0.0698476438046538
 40
0.2175407668900943
 40
0.3664036286512747
 40
0.516031973805668
 40
0.6660328933450205
 40
0.8161188728430822
 40
0.9661326510960258
 40
1.0
 40
1.0
 40
1.0
 40
1.0
 10
259.6174467510562
 20
20.03148540518501
 30
0.0
 10
259.7554139682097
 20
20.02996857663128
 30
0.0
 10
260.1851134196216
 20
20.02524440801451
 30
0.0
 10
260.9469298208851
 20
20.1665467513115
 30
0.0
 10
261.8895333551073
 20
20.44624419737046
 30
0.0
 10
262.8514528566325
 20
20.86868826729839
 30
0.0
 10
263.8180454269561
 20
21.41577541458696
 30
0.0
 10
264.7733980602833
 20
22.09288274368821
 30
0.0
 10
265.4753923467803
 20
22.65574164331966
 30
0.0
 10
265.843473350187
 20
23.01987625158155
 30
0.0
 10
265.911266755416
 20
23.08694280711498
 30
0.0
  0
SPLINE
  5
1B4
330
1F
100
AcDbEntity
  8
0
  6
Continuous
 62
     7
370
    25
100
AcDbSpline
210
0.0
220
0.0
230
1.0
 70
     8
 71
     3
 72
    12
 73
     8
 74
     0
 42
0.000000001
 43
0.00000001
 40
0.0
 40
0.0
 40
0.0
 40
0.0
 40
0.0838211621955088
 40
0.3540115115707918
 40
0.6241511203173634
 40
0.893675430932934
 40
1.0
 40
1.0
 40
1.0
 40
1.0
 10
271.7845415540671
 20
36.07729896989962
 30
0.0
 10
271.7843192435905
 20
36.19280507912973
 30
0.0
 10
271.7833803343008
 20
36.68063525534267
 30
0.0
 10
271.6708990449099
 20
37.47721314263211
 30
0.0
 10
271.4376034286284
 20
38.44119799807952
 30
0.0
 10
271.1774336008278
 20
39.15408507894561
 30
0.0
 10
270.9626265906232
 20
39.50568329241639
 30
0.0
 10
270.9018594471589
 20
39.60514754667625
 30
0.0
  0
LINE
  5
1B5
330
1F
100
AcDbEntity
  8
0
  6
Continuous
 62
     7
370
    25
100
AcDbLine
 10
227.5743143904
 20
37.713044273
 30
0.0
 11
257.1997425063
 21
20.6106486564
 31
0.0
  0
LINE
  5
1B6
330
1F
100
AcDbEntity
  8
0
  6
Continuous
 62
     7
370
    25
100
AcDbLine
 10
219.6346950192
 20
42.2964889746
 30
0.0
 11
225.1257695186
 21
39.12655914
 31
0.0
  0
LINE
  5
1B7
330
1F
100
AcDbEntity
  8
0
  6
Continuous
 62
     7
370
    25
100
AcDbLine
 10
237.1235561506
 20
59.9124467032
 30
0.0
 11
231.6337197149
 21
63.0816618189
 31
0.0
  0
LINE
  5
1B8
330
1F
100
AcDbEntity
  8
0
  6
Continuous
 62
     7
370
    25
100
AcDbLine
 10
269.198767202
 20
41.3958215007
 30
0.0
 11
239.5828458346
 21
58.4927289881
 31
0.0
  0
SPLINE
  5
1B9
330
1F
100
AcDbEntity
  8
0
  6
Continuous
 62
     7
370
    25
100
AcDbSpline
210
0.0
220
0.0
230
1.0
 70
     8
 71
     3
 72
    12
 73
     8
 74
     0
 42
0.000000001
 43
0.00000001
 40
0.0
 40
0.0
 40
0.0
 40
0.0
 40
0.1974182697469318
 40
0.3991841367122022
 40
0.6032578511320453
 40
0.8123965513773862
 40
1.0
 40
1.0
 40
1.0
 40
1.0
 10
267.0872189819725
 20
22.41300514808672
 30
0.0
 10
267.248738358891
 20
22.32537205088892
 30
0.0
 10
267.5753341350582
 20
22.14817597730785
 30
0.0
 10
268.1461172559303
 20
22.05246760539527
 30
0.0
 10
268.7555302006153
 20
22.08615396049686
 30
0.0
 10
269.3707255411564
 20
22.24037287734351
 30
0.0
 10
269.778854890647
 20
22.44436267456303
 30
0.0
 10
269.9718428896962
 20
22.54082126750912
 30
0.0
  0
SPLINE
  5
1BA
330
1F
100
AcDbEntity
  8
0
  6
Continuous
 62
     7
370
    25
100
AcDbSpline
210
0.0
220
0.0
230
1.0
 70
     8
 71
     3
 72
    13
 73
     9
 74
     0
 42
0.000000001
 43
0.00000001
 40
0.0
 40
0.0
 40
0.0
 40
0.0
 40
0.1035404098542918
 40
0.3314981931479595
 40
0.5584290838162884
 40
0.7813578590700618
 40
0.9979153952411844
 40
1.0
 40
1.0
 40
1.0
 40
1.0
 10
273.9051157851384
 20
29.39263468651431
 30
0.0
 10
273.9038762127592
 20
29.50933351280854
 30
0.0
 10
273.8999075593171
 20
29.88296010085724
 30
0.0
 10
273.7690561764465
 20
30.44309289276106
 30
0.0
 10
273.5194513664059
 20
31.05512763902761
 30
0.0
 10
273.1441654368571
 20
31.53363806527008
 30
0.0
 10
272.8493898309333
 20
31.81196209040435
 30
0.0
 10
272.6692131730102
 20
31.88645628563995
 30
0.0
 10
272.6674953105847
 20
31.88716653734729
 30
0.0
  0
LINE
  5
1BB
330
1F
100
AcDbEntity
  8
0
  6
Continuous
 62
     7
370
    25
100
AcDbLine
 10
261.6162032544
 20
25.5664304526
 30
0.0
 11
267.1669958869
 21
22.3620260736
 31
0.0
  0
LINE
  5
1BC
330
1F
100
AcDbEntity
  8
0
  6
Continuous
 62
     7
370
    25
100
AcDbLine
 10
272.6665488175
 20
31.8885634688
 30
0.0
 11
267.115756185
 21
35.0929678479
 31
0.0
  0
SPLINE
  5
1BD
330
1F
100
AcDbEntity
  8
0
  6
Continuous
 62
     7
370
    25
100
AcDbSpline
210
0.0
220
0.0
230
1.0
 70
     8
 71
     3
 72
    11
 73
     7
 74
     0
 42
0.000000001
 43
0.00000001
 40
0.0
 40
0.0
 40
0.0
 40
0.0
 40
0.107884407334634
 40
0.4103702358149137
 40
0.6939476438432444
 40
1.0
 40
1.0
 40
1.0
 40
1.0
 10
268.5971760926269
 20
24.87078806796172
 30
0.0
 10
268.5702339465392
 20
24.88318999457181
 30
0.0
 10
268.4677515293252
 20
24.93036438865971
 30
0.0
 10
268.3410605634062
 20
25.10855264494313
 30
0.0
 10
268.2054332115466
 20
25.43059273145216
 30
0.0
 10
268.1872235373076
 20
25.73333702351489
 30
0.0
 10
268.1777716506422
 20
25.89047902944273
 30
0.0
  0
SPLINE
  5
1BE
330
1F
100
AcDbEntity
  8
0
  6
Continuous
 62
     7
370
    25
100
AcDbSpline
210
0.0
220
0.0
230
1.0
 70
     8
 71
     3
 72
    18
 73
    14
 74
     0
 42
0.000000001
 43
0.00000001
 40
0.0
 40
0.0
 40
0.0
 40
0.0
 40
0.0494259093836499
 40
0.1449572833354279
 40
0.2412384226348639
 40
0.3380768213147403
 40
0.4351278706323088
 40
0.5319033484080904
 40
0.6279188186151291
 40
0.7228483755192897
 40
0.8168526097522114
 40
0.9111736623622932
 40
1.0
 40
1.0
 40
1.0
 40
1.0
 10
268.1777716506422
 20
25.89047902944273
 30
0.0
 10
268.180303283954
 20
25.97532835418063
 30
0.0
 10
268.1877281081375
 20
26.22417612977506
 30
0.0
 10
268.2735580153115
 20
26.68598464644025
 30
0.0
 10
268.4671213240326
 20
27.2580065710744
 30
0.0
 10
268.749473359818
 20
27.824168768016
 30
0.0
 10
269.103203733987
 20
28.34846701943264
 30
0.0
 10
269.5066236159269
 20
28.79943341598789
 30
0.0
 10
269.9322060992376
 20
29.15034421456398
 30
0.0
 10
270.3497260792904
 20
29.38406939669915
 30
0.0
 10
270.7258018865246
 20
29.49189711451865
 30
0.0
 10
271.0276531964862
 20
29.49318984726644
 30
0.0
 10
271.1672606210116
 20
29.42344407570803
 30
0.0
 10
271.2349701101331
 20
29.38961743234243
 30
0.0
  0
LINE
  5
1BF
330
1F
100
AcDbEntity
  8
0
  6
Continuous
 62
     7
370
    25
100
AcDbLine
 10
266.5448171944
 20
35.3075137816
 30
0.0
 11
266.0447005497
 21
35.4094080332
 31
0.0
  0
LINE
  5
1C0
330
1F
100
AcDbEntity
  8
0
  6
Continuous
 62
     7
370
    25
100
AcDbLine
 10
260.8065578493
 20
26.3356958672
 30
0.0
 11
261.1448952978
 21
25.9535610301
 31
0.0
  0
LINE
  5
1C1
330
1F
100
AcDbEntity
  8
0
  6
Continuous
 62
     7
370
    25
100
AcDbLine
 10
260.9612372773
 20
26.1466013512
 30
0.0
 11
260.9873051031
 21
26.1315527156
 31
0.0
  0
LINE
  5
1C2
330
1F
100
AcDbEntity
  8
0
  6
Continuous
 62
     7
370
    25
100
AcDbLine
 10
266.3118722212
 20
35.354973094
 30
0.0
 11
266.2858043954
 21
35.3700217295
 31
0.0
  0
SPLINE
  5
1C3
330
1F
100
AcDbEntity
  8
0
  6
Continuous
 62
     7
370
    25
100
AcDbSpline
210
0.0
220
0.0
230
1.0
 70
     8
 71
     3
 72
    11
 73
     7
 74
     0
 42
0.000000001
 43
0.00000001
 40
0.0
 40
0.0
 40
0.0
 40
0.0
 40
0.1857080737823002
 40
0.5719843883016736
 40
0.9581419205817661
 40
1.0
 40
1.0
 40
1.0
 40
1.0
 10
210.855019810011
 20
46.75921256102289
 30
0.0
 10
211.4116388123827
 20
46.51470368420507
 30
0.0
 10
213.126035893265
 20
45.7616117076822
 30
0.0
 10
215.9349262647943
 20
44.33654749139057
 30
0.0
 10
218.3053327590102
 20
43.08639773567538
 30
0.0
 10
219.5121859560316
 20
42.36153816919659
 30
0.0
 10
219.6302109896668
 20
42.29065003224208
 30
0.0
  0
SPLINE
  5
1C4
330
1F
100
AcDbEntity
  8
0
  6
Continuous
 62
     7
370
    25
100
AcDbSpline
210
0.0
220
0.0
230
1.0
 70
     8
 71
     3
 72
    11
 73
     7
 74
     0
 42
0.000000001
 43
0.00000001
 40
0.0
 40
0.0
 40
0.0
 40
0.0
 40
0.1581263520834243
 40
0.5433550647955686
 40
0.9273952592750287
 40
0.9999999999999999
 40
0.9999999999999999
 40
0.9999999999999999
 40
0.9999999999999999
 10
231.6426502369727
 20
63.09760671514693
 30
0.0
 10
231.1898030714176
 20
63.35366124028715
 30
0.0
 10
229.6337259360085
 20
64.23351789457432
 30
0.0
 10
227.0658349116286
 20
65.87902729541906
 30
0.0
 10
224.7610936033224
 20
67.41095146671476
 30
0.0
 10
223.5645388526492
 20
68.3047283482657
 30
0.0
 10
223.3742913742732
 20
68.44683534157318
 30
0.0
  0
LINE
  5
1C5
330
1F
100
AcDbEntity
  8
0
  6
Continuous
 62
     7
370
    25
100
AcDbLine
 10
199.1452616332
 20
49.794777305
 30
0.0
 11
204.2039273916
 21
46.8744717231
 31
0.0
  0
LINE
  5
1C6
330
1F
100
AcDbEntity
  8
0
  6
Continuous
 62
     7
370
    25
100
AcDbLine
 10
217.0872826958
 20
75.8091509556
 30
0.0
 11
214.8939821225
 21
77.0753164254
 31
0.0
  0
SPLINE
  5
1C7
330
1F
100
AcDbEntity
  8
0
  6
Continuous
 62
     7
370
    25
100
AcDbSpline
210
0.0
220
0.0
230
1.0
 70
     8
 71
     3
 72
    10
 73
     6
 74
     0
 42
0.000000001
 43
0.00000001
 40
0.0
 40
0.0
 40
0.0
 40
0.0
 40
0.0798531709067894
 40
0.610423465349797
 40
1.0
 40
1.0
 40
1.0
 40
1.0
 10
212.8275808945572
 20
44.14794824782233
 30
0.0
 10
212.8801935380328
 20
44.15759308343898
 30
0.0
 10
213.2823816012855
 20
44.23132132632509
 30
0.0
 10
213.9631285660458
 20
44.45741025258981
 30
0.0
 10
214.5938574531773
 20
44.73814413826882
 30
0.0
 10
214.8608987191834
 20
44.85700270614488
 30
0.0
  0
LINE
  5
1C8
330
1F
100
AcDbEntity
  8
0
  6
Continuous
 62
     7
370
    25
100
AcDbLine
 10
206.6023856731
 20
45.4898712293
 30
0.0
 11
208.0017743133
 21
44.6820213629
 31
0.0
  0
LINE
  5
1C9
330
1F
100
AcDbEntity
  8
0
  6
Continuous
 62
     7
370
    25
100
AcDbLine
 10
207.7176880907
 20
76.6646389816
 30
0.0
 11
201.5273058369
 21
79.7488583012
 31
0.0
  0
LINE
  5
1CA
330
1F
100
AcDbEntity
  8
0
  6
Continuous
 62
     7
370
    25
100
AcDbLine
 10
190.145608007
 20
60.0330429207
 30
0.0
 11
195.9121701133
 21
56.2146653456
 31
0.0
  0
SPLINE
  5
1CB
330
1F
100
AcDbEntity
  8
0
  6
Continuous
 62
     7
370
    25
100
AcDbSpline
210
0.0
220
0.0
230
1.0
 70
     8
 71
     3
 72
    10
 73
     6
 74
     0
 42
0.000000001
 43
0.00000001
 40
0.0
 40
0.0
 40
0.0
 40
0.0
 40
0.0023063884983132
 40
0.5427829587642743
 40
1.0
 40
1.0
 40
1.0
 40
1.0
 10
225.7048158506622
 20
70.08387388432143
 30
0.0
 10
225.7041237548243
 20
70.08511579959601
 30
0.0
 10
225.5412466736474
 20
70.37738678853246
 30
0.0
 10
225.1634299410906
 20
70.83215804095235
 30
0.0
 10
224.7382200176328
 20
71.21478150335636
 30
0.0
 10
224.5433573655458
 20
71.390127887628
 30
0.0
  0
SPLINE
  5
1CC
330
1F
100
AcDbEntity
  8
0
  6
Continuous
 62
     7
370
    25
100
AcDbSpline
210
0.0
220
0.0
230
1.0
 70
     8
 71
     3
 72
    10
 73
     6
 74
     0
 42
0.000000001
 43
0.00000001
 40
0.0
 40
0.0
 40
0.0
 40
0.0
 40
0.2095615345808816
 40
0.6059936464607132
 40
0.9999999999999999
 40
0.9999999999999999
 40
0.9999999999999999
 40
0.9999999999999999
 10
226.7404910176649
 20
67.67322586241006
 30
0.0
 10
226.6883076126054
 20
67.86034365443167
 30
0.0
 10
226.5374077254673
 20
68.40143624249482
 30
0.0
 10
226.213240087975
 20
69.23070293533809
 30
0.0
 10
225.8739435099573
 20
69.80006600304742
 30
0.0
 10
225.7048158506622
 20
70.08387388432143
 30
0.0
  0
SPLINE
  5
1CD
330
1F
100
AcDbEntity
  8
0
  6
Continuous
 62
     7
370
    25
100
AcDbSpline
210
0.0
220
0.0
230
1.0
 70
     8
 71
     3
 72
    23
 73
    19
 74
     0
 42
0.000000001
 43
0.00000001
 40
0.0
 40
0.0
 40
0.0
 40
0.0
 40
0.056607410979542
 40
0.1176505959468053
 40
0.1791517342549808
 40
0.2414612329607981
 40
0.3046083245951723
 40
0.3683863460231306
 40
0.4325192002625386
 40
0.4967840815375255
 40
0.5610216849635856
 40
0.6251887766634974
 40
0.6892794006129693
 40
0.7533063543821616
 40
0.8172909154739831
 40
0.8812582020829877
 40
0.945234891741031
 40
1.0
 40
1.0
 40
1.0
 40
1.0
 10
201.6186881069964
 20
79.69613988364294
 30
0.0
 10
201.3961238662553
 20
79.80226129263413
 30
0.0
 10
200.9335551829939
 20
80.02281981658852
 30
0.0
 10
200.1523772532599
 20
80.18933267819084
 30
0.0
 10
199.3083418155427
 20
80.2336204793399
 30
0.0
 10
198.4207832600936
 20
80.13660461409957
 30
0.0
 10
197.5009679962967
 20
79.90201953829718
 30
0.0
 10
196.5600634909331
 20
79.53055411895751
 30
0.0
 10
195.6117011446608
 20
79.02724330942213
 30
0.0
 10
194.6697157651085
 20
78.39960072589403
 30
0.0
 10
193.7472580331229
 20
77.65723195288828
 30
0.0
 10
192.8565198529565
 20
76.8110168361469
 30
0.0
 10
192.0086722881653
 20
75.87266441056131
 30
0.0
 10
191.2145399507385
 20
74.85474178872012
 30
0.0
 10
190.4832273036249
 20
73.7707257484282
 30
0.0
 10
189.8271856660044
 20
72.6343731954823
 30
0.0
 10
189.2710540006988
 20
71.51802949089648
 30
0.0
 10
188.9809445205714
 20
70.77796206289209
 30
0.0
 10
188.8471426297053
 20
70.43663429520976
 30
0.0
  0
LINE
  5
1CE
330
1F
100
AcDbEntity
  8
0
  6
Continuous
 62
     7
370
    25
100
AcDbLine
 10
188.9614218338
 20
68.5891833388
 30
0.0
 11
191.5149821642
 21
67.1150443381
 31
0.0
  0
LINE
  5
1CF
330
1F
100
AcDbEntity
  8
0
  6
Continuous
 62
     7
370
    25
100
AcDbLine
 10
188.6631294891
 20
69.7174930122
 30
0.0
 11
188.6631294891
 21
69.2520870428
 31
0.0
  0
LINE
  5
1D0
330
1F
100
AcDbEntity
  8
0
  6
Continuous
 62
     7
370
    25
100
AcDbLine
 10
188.6631294891
 20
62.2461443474
 30
0.0
 11
188.6631294891
 21
61.780738378
 31
0.0
  0
SPLINE
  5
1D1
330
1F
100
AcDbEntity
  8
0
  6
Continuous
 62
     7
370
    25
100
AcDbSpline
210
0.0
220
0.0
230
1.0
 70
     8
 71
     3
 72
    10
 73
     6
 74
     0
 42
0.000000001
 43
0.00000001
 40
0.0
 40
0.0
 40
0.0
 40
0.0
 40
0.3497379073263391
 40
0.7525720922569389
 40
1.0
 40
1.0
 40
1.0
 40
1.0
 10
188.7773402045817
 20
61.49471496239556
 30
0.0
 10
188.9121064714667
 20
61.2867372948152
 30
0.0
 10
189.2020988609409
 20
60.83920734408661
 30
0.0
 10
189.6854718937354
 20
60.34708628793055
 30
0.0
 10
190.0553511588969
 20
60.11127415387413
 30
0.0
 10
190.196092028967
 20
60.02154648312816
 30
0.0
  0
LWPOLYLINE
  5
1D2
330
1F
100
AcDbEntity
  8
0
  6
Continuous
 62
     7
370
    25
100
AcDbPolyline
 90
        3
 70
   128
 43
0.0
 10
257.8481355507
 20
24.0621264222
 10
257.8480341349
 20
24.0621851775
 10
257.8045708559
 20
24.089093102
  0
LWPOLYLINE
  5
1D3
330
1F
100
AcDbEntity
  8
0
  6
Continuous
 62
     7
370
    25
100
AcDbPolyline
 90
       10
 70
   128
 43
0.0
 10
255.5271454817
 20
26.247657922
 10
255.5873812308
 20
26.8107720465
 10
255.7639817944
 20
27.4050566072
 10
256.0449129302
 20
27.9900125233
 10
256.4110294324
 20
28.5257759877
 10
256.837381025
 20
28.9758355259
 10
257.2949127245
 20
29.3095202132
 10
257.7524444239
 20
29.5040903819
 10
258.1787963458
 20
29.5462861047
 10
258.5448111028
 20
29.4332903212
  0
ARC
  5
1D4
330
1F
100
AcDbEntity
  8
0
  6
Continuous
 62
     7
370
    25
100
AcDbCircle
 10
256.71285393
 20
26.0946622389
 30
0.0
 40
1.195538457455781
100
AcDbArc
 50
172.6475709866
 51
236.0402845021
  0
ARC
  5
1D5
330
1F
100
AcDbEntity
  8
0
  6
Continuous
 62
     7
370
    25
100
AcDbCircle
 10
259.0389984359
 20
26.5333998956
 30
0.0
 40
1.050773680970546
100
AcDbArc
 50
333.8131682449
 51
26.1868317551
  0
LINE
  5
1D6
330
1F
100
AcDbEntity
  8
0
  6
Continuous
 62
     7
370
    25
100
AcDbLine
 10
259.9819205139
 20
27.0048299485
 30
0.0
 11
259.9819205139
 21
26.9971059269
 31
0.0
  0
LINE
  5
1D7
330
1F
100
AcDbEntity
  8
0
  6
Continuous
 62
     7
370
    25
100
AcDbLine
 10
259.9819205139
 20
27.0048299485
 30
0.0
 11
259.9761276271
 21
27.0053477969
 31
0.0
  0
ARC
  5
1D8
330
1F
100
AcDbEntity
  8
0
  6
Continuous
 62
     7
370
    25
100
AcDbCircle
 10
259.5959305729
 20
26.6736811808
 30
0.0
 40
0.5045320052619452
100
AcDbArc
 50
41.099964609
 51
128.6810084186
  0
LINE
  5
1D9
330
1F
100
AcDbEntity
  8
0
  6
Continuous
 62
     7
370
    25
100
AcDbLine
 10
259.2748136168
 20
27.0680558786
 30
0.0
 11
259.2806061743
 21
27.06753784
 31
0.0
  0
LINE
  5
1DA
330
1F
100
AcDbEntity
  8
0
  6
Continuous
 62
     7
370
    25
100
AcDbLine
 10
259.2748136168
 20
27.0680558786
 30
0.0
 11
259.2690210593
 21
27.0608498955
 31
0.0
  0
ARC
  5
1DB
330
1F
100
AcDbEntity
  8
0
  6
Continuous
 62
     7
370
    25
100
AcDbCircle
 10
260.2291283785
 20
25.5768894168
 30
0.0
 40
1.767468462674057
100
AcDbArc
 50
122.9024559174
 51
159.5083830919
  0
LINE
  5
1DC
330
1F
100
AcDbEntity
  8
0
  6
Continuous
 62
     7
370
    25
100
AcDbLine
 10
258.5677067197
 20
26.1884217029
 30
0.0
 11
258.5734992772
 21
26.1956276859
 31
0.0
  0
LINE
  5
1DD
330
1F
100
AcDbEntity
  8
0
  6
Continuous
 62
     7
370
    25
100
AcDbLine
 10
258.5677067197
 20
26.1884217029
 30
0.0
 11
258.5677067197
 21
26.1806976813
 31
0.0
  0
ARC
  5
1DE
330
1F
100
AcDbEntity
  8
0
  6
Continuous
 62
     7
370
    25
100
AcDbCircle
 10
259.5106287977
 20
25.71699165
 30
0.0
 40
1.050773680969932
100
AcDbArc
 50
153.8131682449
 51
206.1868317551
  0
LINE
  5
1DF
330
1F
100
AcDbEntity
  8
0
  6
Continuous
 62
     7
370
    25
100
AcDbLine
 10
258.5677067197
 20
25.2455615971
 30
0.0
 11
258.5677067197
 21
25.2532856187
 31
0.0
  0
LINE
  5
1E0
330
1F
100
AcDbEntity
  8
0
  6
Continuous
 62
     7
370
    25
100
AcDbLine
 10
258.5677067197
 20
25.2455615971
 30
0.0
 11
258.5734992772
 21
25.2450435585
 31
0.0
  0
ARC
  5
1E1
330
1F
100
AcDbEntity
  8
0
  6
Continuous
 62
     7
370
    25
100
AcDbCircle
 10
258.9536964706
 20
25.576711265
 30
0.0
 40
0.504532826861698
100
AcDbArc
 50
221.1000475288
 51
308.6809613804
  0
LINE
  5
1E2
330
1F
100
AcDbEntity
  8
0
  6
Continuous
 62
     7
370
    25
100
AcDbLine
 10
259.2748136168
 20
25.182335667
 30
0.0
 11
259.2690210593
 21
25.1828537055
 31
0.0
  0
LINE
  5
1E3
330
1F
100
AcDbEntity
  8
0
  6
Continuous
 62
     7
370
    25
100
AcDbLine
 10
259.2748136168
 20
25.182335667
 30
0.0
 11
259.2806061743
 21
25.1895416501
 31
0.0
  0
ARC
  5
1E4
330
1F
100
AcDbEntity
  8
0
  6
Continuous
 62
     7
370
    25
100
AcDbCircle
 10
258.3205008571
 20
26.6735000253
 30
0.0
 40
1.767465609170336
100
AcDbArc
 50
302.9024384701
 51
339.5084147368
  0
LINE
  5
1E5
330
1F
100
AcDbEntity
  8
0
  6
Continuous
 62
     7
370
    25
100
AcDbLine
 10
259.9819205139
 20
26.0619698427
 30
0.0
 11
259.9761276271
 21
26.0547636696
 31
0.0
  0
LINE
  5
1E6
330
1F
100
AcDbEntity
  8
0
  6
Continuous
 62
     7
370
    25
100
AcDbLine
 10
259.9819205139
 20
26.0619698427
 30
0.0
 11
259.9819205139
 21
26.0696938643
 31
0.0
  0
SPLINE
  5
1E7
330
1F
100
AcDbEntity
  8
0
  6
Continuous
 62
     7
370
    25
100
AcDbSpline
210
0.0
220
0.0
230
1.0
 70
     8
 71
     3
 72
    10
 73
     6
 74
     0
 42
0.000000001
 43
0.00000001
 40
0.0
 40
0.0
 40
0.0
 40
0.0
 40
0.2594355805691543
 40
0.9669726585171552
 40
0.9999999999999999
 40
0.9999999999999999
 40
0.9999999999999999
 40
0.9999999999999999
 10
258.5677067197242
 20
25.25328561866223
 30
0.0
 10
258.552933900914
 20
25.29949172156976
 30
0.0
 10
258.4978724022274
 20
25.47171188531983
 30
0.0
 10
258.4450324543458
 20
25.66509655390411
 30
0.0
 10
258.4632902454038
 20
25.77179744620884
 30
0.0
 10
258.4641044977284
 20
25.77655604210435
 30
0.0
  0
SPLINE
  5
1E8
330
1F
100
AcDbEntity
  8
0
  6
Continuous
 62
     7
370
    25
100
AcDbSpline
210
0.0
220
0.0
230
1.0
 70
     8
 71
     3
 72
    10
 73
     6
 74
     0
 42
0.000000001
 43
0.00000001
 40
0.0
 40
0.0
 40
0.0
 40
0.0
 40
0.4395945737939772
 40
0.7571234978211904
 40
1.0
 40
1.0
 40
1.0
 40
1.0
 10
259.2806061743068
 20
27.0675378400289
 30
0.0
 10
259.3333687771951
 20
27.08574333851055
 30
0.0
 10
259.4242429800045
 20
27.1170990728888
 30
0.0
 10
259.7082893698546
 20
27.07378204601224
 30
0.0
 10
259.8951453259327
 20
27.02603925090733
 30
0.0
 10
259.9761276271405
 20
27.00534779694011
 30
0.0
  0
LINE
  5
1E9
330
1F
100
AcDbEntity
  8
0
  6
Continuous
 62
     7
370
    25
100
AcDbLine
 10
258.6295723664
 20
26.3001966876
 30
0.0
 11
258.9869862029
 21
26.6363331948
 31
0.0
  0
SPLINE
  5
1EA
330
1F
100
AcDbEntity
  8
0
  6
Continuous
 62
     7
370
    25
100
AcDbSpline
210
0.0
220
0.0
230
1.0
 70
     8
 71
     3
 72
     9
 73
     5
 74
     0
 42
0.000000001
 43
0.00000001
 40
0.0
 40
0.0
 40
0.0
 40
0.0
 40
0.6786676632641356
 40
1.0
 40
1.0
 40
1.0
 40
1.0
 10
258.9869862028886
 20
26.63633319480074
 30
0.0
 10
258.9778723494311
 20
26.67236203502697
 30
0.0
 10
258.9644433119938
 20
26.72544963913197
 30
0.0
 10
258.9617636379414
 20
26.77461180836239
 30
0.0
 10
258.9609025720164
 20
26.79040920308021
 30
0.0
  0
LINE
  5
1EB
330
1F
100
AcDbEntity
  8
0
  6
Continuous
 62
     7
370
    25
100
AcDbLine
 10
258.4822842774
 20
25.6398531161
 30
0.0
 11
259.2748136168
 21
25.182335667
 31
0.0
  0
SPLINE
  5
1EC
330
1F
100
AcDbEntity
  8
0
  6
Continuous
 62
     7
370
    25
100
AcDbSpline
210
0.0
220
0.0
230
1.0
 70
     8
 71
     3
 72
    10
 73
     6
 74
     0
 42
0.000000001
 43
0.00000001
 40
0.0
 40
0.0
 40
0.0
 40
0.0
 40
0.4395944340869197
 40
0.7571232572006223
 40
1.0
 40
1.0
 40
1.0
 40
1.0
 10
259.2690210593224
 20
25.18285370554113
 30
0.0
 10
259.1222866473646
 20
25.21889696296184
 30
0.0
 10
258.869562710685
 20
25.28097506573669
 30
0.0
 10
258.658972447424
 20
25.28188687488252
 30
0.0
 10
258.5993425516812
 20
25.25618333414939
 30
0.0
 10
258.5734992772164
 20
25.24504355854509
 30
0.0
  0
SPLINE
  5
1ED
330
1F
100
AcDbEntity
  8
0
  6
Continuous
 62
     7
370
    25
100
AcDbSpline
210
0.0
220
0.0
230
1.0
 70
     8
 71
     3
 72
    11
 73
     7
 74
     0
 42
0.000000001
 43
0.00000001
 40
0.0
 40
0.0
 40
0.0
 40
0.0
 40
0.1784090564110245
 40
0.516527963050341
 40
0.8702860442948489
 40
1.0
 40
1.0
 40
1.0
 40
1.0
 10
259.981920513905
 20
26.9971059269078
 30
0.0
 10
259.961199589832
 20
26.95695417160138
 30
0.0
 10
259.9012085954328
 20
26.8407072455847
 30
0.0
 10
259.8556569755152
 20
26.58473312780166
 30
0.0
 10
259.9096816146536
 20
26.289794106173
 30
0.0
 10
259.9666390275535
 20
26.11625408154119
 30
0.0
 10
259.981920513905
 20
26.06969386430466
 30
0.0
  0
LINE
  5
1EE
330
1F
100
AcDbEntity
  8
0
  6
Continuous
 62
     7
370
    25
100
AcDbLine
 10
258.9869862029
 20
26.6363331948
 30
0.0
 11
259.9819205139
 21
26.0619698427
 31
0.0
  0
SPLINE
  5
1EF
330
1F
100
AcDbEntity
  8
0
  6
Continuous
 62
     7
370
    25
100
AcDbSpline
210
0.0
220
0.0
230
1.0
 70
     8
 71
     3
 72
    10
 73
     6
 74
     0
 42
0.000000001
 43
0.00000001
 40
0.0
 40
0.0
 40
0.0
 40
0.0
 40
0.4395942504288721
 40
0.7571231776042174
 40
1.0
 40
1.0
 40
1.0
 40
1.0
 10
259.9761276271405
 20
26.05476366957908
 30
0.0
 10
259.8293933382699
 20
25.95780205625967
 30
0.0
 10
259.5766695345695
 20
25.79080286391261
 30
0.0
 10
259.366079345172
 20
25.46193808124757
 30
0.0
 10
259.3064494489704
 20
25.27190218164658
 30
0.0
 10
259.2806061743068
 20
25.18954165006473
 30
0.0
  0
LWPOLYLINE
  5
1F0
330
1F
100
AcDbEntity
  8
0
  6
Continuous
 62
     7
370
    25
100
AcDbPolyline
 90
        9
 70
   128
 43
0.0
 10
268.1352240778
 20
34.540544474
 10
268.1383501886
 20
34.5486274259
 10
268.4192813244
 20
35.133583342
 10
268.7853978265
 20
35.6693468065
 10
269.2117497484
 20
36.1194065348
 10
269.6692814479
 20
36.453091222
 10
270.1268131474
 20
36.6476613908
 10
270.55316474
 20
36.6898569235
 10
270.9191798263
 20
36.57686133
  0
ARC
  5
1F1
330
1F
100
AcDbEntity
  8
0
  6
Continuous
 62
     7
370
    25
100
AcDbCircle
 10
271.4133671594
 20
33.6769709045
 30
0.0
 40
1.050773680969883
100
AcDbArc
 50
333.8131682449
 51
26.1868317551
  0
LINE
  5
1F2
330
1F
100
AcDbEntity
  8
0
  6
Continuous
 62
     7
370
    25
100
AcDbLine
 10
272.3562892374
 20
34.1484009574
 30
0.0
 11
272.3562892374
 21
34.1406769358
 31
0.0
  0
LINE
  5
1F3
330
1F
100
AcDbEntity
  8
0
  6
Continuous
 62
     7
370
    25
100
AcDbLine
 10
272.3562892374
 20
34.1484009574
 30
0.0
 11
272.3504966799
 21
34.1489189959
 31
0.0
  0
ARC
  5
1F4
330
1F
100
AcDbEntity
  8
0
  6
Continuous
 62
     7
370
    25
100
AcDbCircle
 10
271.9702994865
 20
33.8172512894
 30
0.0
 40
0.504532826861759
100
AcDbArc
 50
41.1000475288
 51
128.6809613804
  0
LINE
  5
1F5
330
1F
100
AcDbEntity
  8
0
  6
Continuous
 62
     7
370
    25
100
AcDbLine
 10
271.6491823403
 20
34.2116268874
 30
0.0
 11
271.6549748978
 21
34.2111088489
 31
0.0
  0
LINE
  5
1F6
330
1F
100
AcDbEntity
  8
0
  6
Continuous
 62
     7
370
    25
100
AcDbLine
 10
271.6491823403
 20
34.2116268874
 30
0.0
 11
271.6433897828
 21
34.2044209044
 31
0.0
  0
ARC
  5
1F7
330
1F
100
AcDbEntity
  8
0
  6
Continuous
 62
     7
370
    25
100
AcDbCircle
 10
272.6034951
 20
32.7204625291
 30
0.0
 40
1.767465609170336
100
AcDbArc
 50
122.9024384701
 51
159.5084147368
  0
LINE
  5
1F8
330
1F
100
AcDbEntity
  8
0
  6
Continuous
 62
     7
370
    25
100
AcDbLine
 10
270.9420754432
 20
33.3319927117
 30
0.0
 11
270.9478683299
 21
33.3391988849
 31
0.0
  0
LINE
  5
1F9
330
1F
100
AcDbEntity
  8
0
  6
Continuous
 62
     7
370
    25
100
AcDbLine
 10
270.9420754432
 20
33.3319927117
 30
0.0
 11
270.9420754432
 21
33.3242686901
 31
0.0
  0
ARC
  5
1FA
330
1F
100
AcDbEntity
  8
0
  6
Continuous
 62
     7
370
    25
100
AcDbCircle
 10
272.4389431621
 20
32.739849886
 30
0.0
 40
1.606909551470539
100
AcDbArc
 50
158.6729431623
 51
172.8320717407
  0
ARC
  5
1FB
330
1F
100
AcDbEntity
  8
0
  6
Continuous
 62
     7
370
    25
100
AcDbCircle
 10
270.6437147142
 20
33.8472592395
 30
0.0
 40
1.825981247893392
100
AcDbArc
 50
307.9699718548
 51
339.183024314
  0
LINE
  5
1FC
330
1F
100
AcDbEntity
  8
0
  6
Continuous
 62
     7
370
    25
100
AcDbLine
 10
272.3562892374
 20
33.2055408516
 30
0.0
 11
272.3504966799
 21
33.1983348685
 31
0.0
  0
LINE
  5
1FD
330
1F
100
AcDbEntity
  8
0
  6
Continuous
 62
     7
370
    25
100
AcDbLine
 10
272.3562892374
 20
33.2055408516
 30
0.0
 11
272.3562892374
 21
33.2132648732
 31
0.0
  0
SPLINE
  5
1FE
330
1F
100
AcDbEntity
  8
0
  6
Continuous
 62
     7
370
    25
100
AcDbSpline
210
0.0
220
0.0
230
1.0
 70
     8
 71
     3
 72
    10
 73
     6
 74
     0
 42
0.000000001
 43
0.00000001
 40
0.0
 40
0.0
 40
0.0
 40
0.0
 40
0.4395944340869197
 40
0.7571232572006223
 40
1.0
 40
1.0
 40
1.0
 40
1.0
 10
271.654974897755
 20
34.21110884889117
 30
0.0
 10
271.7077375008842
 20
34.22931436198961
 30
0.0
 10
271.7986117041088
 20
34.26067012154268
 30
0.0
 10
272.0826581819467
 20
34.21735294234531
 30
0.0
 10
272.2695142640102
 20
34.16961036905996
 30
0.0
 10
272.350496679861
 20
34.1489189958872
 30
0.0
  0
LINE
  5
1FF
330
1F
100
AcDbEntity
  8
0
  6
Continuous
 62
     7
370
    25
100
AcDbLine
 10
271.0039410899
 20
33.4437676965
 30
0.0
 11
271.3613549263
 21
33.7799042037
 31
0.0
  0
SPLINE
  5
200
330
1F
100
AcDbEntity
  8
0
  6
Continuous
 62
     7
370
    25
100
AcDbSpline
210
0.0
220
0.0
230
1.0
 70
     8
 71
     3
 72
     9
 73
     5
 74
     0
 42
0.000000001
 43
0.00000001
 40
0.0
 40
0.0
 40
0.0
 40
0.0
 40
0.6786676632641356
 40
1.0
 40
1.0
 40
1.0
 40
1.0
 10
271.3613549263368
 20
33.779904203663
 30
0.0
 10
271.3522410728792
 20
33.81593304388923
 30
0.0
 10
271.3388120354419
 20
33.86902064799423
 30
0.0
 10
271.3361323613896
 20
33.91818281722465
 30
0.0
 10
271.3352712954646
 20
33.93398021194247
 30
0.0
  0
SPLINE
  5
201
330
1F
100
AcDbEntity
  8
0
  6
Continuous
 62
     7
370
    25
100
AcDbSpline
210
0.0
220
0.0
230
1.0
 70
     8
 71
     3
 72
    11
 73
     7
 74
     0
 42
0.000000001
 43
0.00000001
 40
0.0
 40
0.0
 40
0.0
 40
0.0
 40
0.1784090564110245
 40
0.516527963050341
 40
0.8702860442948489
 40
1.0
 40
1.0
 40
1.0
 40
1.0
 10
272.3562892373531
 20
34.14067693577007
 30
0.0
 10
272.3355683132801
 20
34.10052518046363
 30
0.0
 10
272.2755773188809
 20
33.98427825444696
 30
0.0
 10
272.2300256989633
 20
33.72830413666392
 30
0.0
 10
272.2840503381017
 20
33.43336511503527
 30
0.0
 10
272.3410077510016
 20
33.25982509040344
 30
0.0
 10
272.3562892373531
 20
33.21326487316692
 30
0.0
  0
LINE
  5
202
330
1F
100
AcDbEntity
  8
0
  6
Continuous
 62
     7
370
    25
100
AcDbLine
 10
271.3613549263
 20
33.7799042037
 30
0.0
 11
272.3562892374
 21
33.2055408516
 31
0.0
  0
SPLINE
  5
203
330
1F
100
AcDbEntity
  8
0
  6
Continuous
 62
     7
370
    25
100
AcDbSpline
210
0.0
220
0.0
230
1.0
 70
     8
 71
     3
 72
    10
 73
     6
 74
     0
 42
0.000000001
 43
0.00000001
 40
0.0
 40
0.0
 40
0.0
 40
0.0
 40
0.4961432479329768
 40
0.854518535234313
 40
1.0
 40
1.0
 40
1.0
 40
1.0
 10
272.350496679861
 20
33.19833486852617
 30
0.0
 10
272.2044553372276
 20
33.10130509561988
 30
0.0
 10
271.9529250892385
 20
32.93418856271644
 30
0.0
 10
271.7605163348169
 20
32.64337867664383
 30
0.0
 10
271.7108477597225
 20
32.49220574413048
 30
0.0
 10
271.6965066656954
 20
32.44855671181179
 30
0.0
  0
LINE
  5
204
330
1F
100
AcDbEntity
  8
0
  6
Continuous
 62
     7
370
    25
100
AcDbLine
 10
276.9724193632
 20
27.6708335106
 30
0.0
 11
277.0125436568
 21
27.6467218362
 31
0.0
  0
LWPOLYLINE
  5
205
330
1F
100
AcDbEntity
  8
0
  6
Continuous
 62
     7
370
    25
100
AcDbPolyline
 90
       17
 70
   128
 43
0.0
 10
273.9672173554
 20
29.405699702
 10
273.8599669615
 20
29.4613038806
 10
273.3815934808
 20
29.5864927276
 10
272.8414118937
 20
29.5523781457
 10
272.2630310003
 20
29.3604508866
 10
271.6717287022
 20
29.0190993358
 10
271.0933478088
 20
28.5432422295
 10
270.5531662217
 20
27.9536764264
 10
270.074792741
 20
27.276169315
 10
269.6791342616
 20
26.5403308359
 10
269.3834831742
 20
25.7783207679
 10
269.2007606162
 20
25.0234425136
 10
269.1389525922
 20
24.3086879585
 10
269.2007606162
 20
23.665295429
 10
269.3834831742
 20
23.1213841495
 10
269.6791342616
 20
22.7007255611
 10
269.9675423471
 20
22.4773088173
  0
LINE
  5
206
330
1F
100
AcDbEntity
  8
0
  6
Continuous
 62
     7
370
    25
100
AcDbLine
 10
275.5029156538
 20
25.8133103669
 30
0.0
 11
274.0683727553
 21
24.0287526383
 31
0.0
  0
LINE
  5
207
330
1F
100
AcDbEntity
  8
0
  6
Continuous
 62
     7
370
    25
100
AcDbLine
 10
274.0683727553
 20
24.0287526383
 30
0.0
 11
274.0683727553
 21
22.1159251566
 31
0.0
  0
LINE
  5
208
330
1F
100
AcDbEntity
  8
0
  6
Continuous
 62
     7
370
    25
100
AcDbLine
 10
275.5029156538
 20
21.9876554036
 30
0.0
 11
274.0683727553
 21
22.1159251566
 31
0.0
  0
LINE
  5
209
330
1F
100
AcDbEntity
  8
0
  6
Continuous
 62
     7
370
    25
100
AcDbLine
 10
276.9374585523
 20
23.7722131322
 30
0.0
 11
275.5029156538
 21
21.9876554036
 31
0.0
  0
LINE
  5
20A
330
1F
100
AcDbEntity
  8
0
  6
Continuous
 62
     7
370
    25
100
AcDbLine
 10
276.9374585523
 20
23.7722131322
 30
0.0
 11
276.9374585523
 21
25.6850406138
 31
0.0
  0
LINE
  5
20B
330
1F
100
AcDbEntity
  8
0
  6
Continuous
 62
     7
370
    25
100
AcDbLine
 10
275.5029156538
 20
25.8133103669
 30
0.0
 11
276.9374585523
 21
25.6850406138
 31
0.0
  0
ARC
  5
20C
330
1F
100
AcDbEntity
  8
0
  6
Continuous
 62
     7
370
    25
100
AcDbCircle
 10
271.9162442317
 20
25.9734077544
 30
0.0
 40
3.275566879662363
100
AcDbArc
 50
320.7388720639
 51
349.0713768258
  0
ARC
  5
20D
330
1F
100
AcDbEntity
  8
0
  6
Continuous
 62
     7
370
    25
100
AcDbCircle
 10
272.1642337586
 20
25.7222712528
 30
0.0
 40
2.924863400669072
100
AcDbArc
 50
310.6183139769
 51
321.4736014978
  0
LINE
  5
20E
330
1F
100
AcDbEntity
  8
0
  6
Continuous
 62
     7
370
    25
100
AcDbLine
 10
274.0683686394
 20
22.8158017674
 30
0.0
 11
275.5029156538
 21
21.9876554036
 31
0.0
  0
LINE
  5
20F
330
1F
100
AcDbEntity
  8
0
  6
Continuous
 62
     7
370
    25
100
AcDbLine
 10
275.1696880169
 20
24.7927253401
 30
0.0
 11
276.9374585523
 21
23.7722131322
 31
0.0
  0
LINE
  5
210
330
1F
100
AcDbEntity
  8
0
  6
Continuous
 62
     7
370
    25
100
AcDbLine
 10
275.1696880169
 20
24.7927253401
 30
0.0
 11
275.1696880169
 21
25.3987848439
 31
0.0
  0
LINE
  5
211
330
1F
100
AcDbEntity
  8
0
  6
Continuous
 62
     7
370
    25
100
AcDbLine
 10
274.4524165676
 20
23.9004465233
 30
0.0
 11
274.068369195
 21
23.4226952152
 31
0.0
  0
LINE
  5
212
330
1F
100
AcDbEntity
  8
0
  6
Continuous
 62
     7
370
    25
100
AcDbLine
 10
275.1696880169
 20
24.7927253401
 30
0.0
 11
274.4524165676
 21
23.9004465233
 31
0.0
  0
ARC
  5
213
330
1F
100
AcDbEntity
  8
0
  6
Continuous
 62
     7
370
    25
100
AcDbCircle
 10
267.0539556361
 20
37.6800746273
 30
0.0
 40
4.279043000975275
100
AcDbArc
 50
28.3489957259
 51
91.483552851
  0
ARC
  5
214
330
1F
100
AcDbEntity
  8
0
  6
Continuous
 62
     7
370
    25
100
AcDbCircle
 10
259.3518036255
 20
24.3384835495
 30
0.0
 40
4.291401768717179
100
AcDbArc
 50
208.2456796979
 51
271.7807273489
  0
SPLINE
  5
215
330
1F
100
AcDbEntity
  8
0
  6
Continuous
 62
     7
370
    25
100
AcDbSpline
210
0.0
220
0.0
230
1.0
 70
    11
 71
     3
 72
    70
 73
    66
 74
     0
 42
0.000000001
 43
0.00000001
 40
0.0
 40
0.0
 40
0.0
 40
0.0
 40
0.03125
 40
0.03125
 40
0.0625
 40
0.0625
 40
0.09375
 40
0.09375
 40
0.125
 40
0.125
 40
0.15625
 40
0.15625
 40
0.1875
 40
0.1875
 40
0.21875
 40
0.21875
 40
0.25
 40
0.25
 40
0.28125
 40
0.28125
 40
0.3125
 40
0.3125
 40
0.34375
 40
0.34375
 40
0.375
 40
0.375
 40
0.40625
 40
0.40625
 40
0.4375
 40
0.4375
 40
0.46875
 40
0.46875
 40
0.5
 40
0.5
 40
0.53125
 40
0.53125
 40
0.5625
 40
0.5625
 40
0.59375
 40
0.59375
 40
0.625
 40
0.625
 40
0.65625
 40
0.65625
 40
0.6875
 40
0.6875
 40
0.71875
 40
0.71875
 40
0.75
 40
0.75
 40
0.78125
 40
0.78125
 40
0.8125
 40
0.8125
 40
0.84375
 40
0.84375
 40
0.875
 40
0.875
 40
0.90625
 40
0.90625
 40
0.9375
 40
0.9375
 40
0.96875
 40
0.96875
 40
1.0
 40
1.0
 40
1.0
 40
1.0
 10
225.182321409025
 20
53.09793909281891
 30
0.0
 10
225.244705129191
 20
53.18832445537533
 30
0.0
 10
225.314999755353
 20
53.27025372869135
 30
0.0
 10
225.4701850320453
 20
53.4184485835311
 30
0.0
 10
225.5558694814416
 20
53.48494849690454
 30
0.0
 10
225.7335700216761
 20
53.59704590246544
 30
0.0
 10
225.8267179094525
 20
53.64369701881505
 30
0.0
 10
226.0187401028422
 20
53.71810311120187
 30
0.0
 10
226.1154294563589
 20
53.7451040873442
 30
0.0
 10
226.3097228576755
 20
53.78063606001292
 30
0.0
 10
226.4080679514315
 20
53.78903149253652
 30
0.0
 10
226.5988099526897
 20
53.78745699862003
 30
0.0
 10
226.6918573726711
 20
53.77773118793512
 30
0.0
 10
226.8731815308701
 20
53.74095726701609
 30
0.0
 10
226.9611972442639
 20
53.71374918690223
 30
0.0
 10
227.1260543326837
 20
53.64416815604722
 30
0.0
 10
227.2037551870284
 20
53.60165725745167
 30
0.0
 10
227.3494980714954
 20
53.50089309127121
 30
0.0
 10
227.4168334168811
 20
53.44291463687257
 30
0.0
 10
227.5368912088933
 20
53.31516835265192
 30
0.0
 10
227.5902441993357
 20
53.24499735377261
 30
0.0
 10
227.6830869243333
 20
53.0912017604545
 30
0.0
 10
227.7219260129873
 20
53.00830278358423
 30
0.0
 10
227.7823150609914
 20
52.83494049242707
 30
0.0
 10
227.8042958567645
 20
52.74383156696433
 30
0.0
 10
227.8306016618687
 20
52.55161380629055
 30
0.0
 10
227.8345208288537
 20
52.45217396974827
 30
0.0
 10
227.8235115231022
 20
52.25161381021843
 30
0.0
 10
227.8086457217366
 20
52.14936616568153
 30
0.0
 10
227.7585487906322
 20
51.94230936232769
 30
0.0
 10
227.7242761584162
 20
51.84125830487175
 30
0.0
 10
227.6374984608668
 20
51.64398470670678
 30
0.0
 10
227.584057052468
 20
51.54660313169369
 30
0.0
 10
227.4632819399377
 20
51.36627508238173
 30
0.0
 10
227.3958555381692
 20
51.28248689062604
 30
0.0
 10
227.2467827565862
 20
51.1277326572294
 30
0.0
 10
227.1675562809329
 20
51.05933170584234
 30
0.0
 10
227.0012756797419
 20
50.9400034111497
 30
0.0
 10
226.9133481062271
 20
50.88877050846057
 30
0.0
 10
226.7361552885516
 20
50.80690540759189
 30
0.0
 10
226.6461564902328
 20
50.77560791195129
 30
0.0
 10
226.4630305595234
 20
50.73184087127211
 30
0.0
 10
226.3722477744809
 20
50.71996047441746
 30
0.0
 10
226.1925647937339
 20
50.7149294432762
 30
0.0
 10
226.1027642233405
 20
50.72193450914268
 30
0.0
 10
225.9285537831595
 20
50.75439541748107
 30
0.0
 10
225.8444929358051
 20
50.77958655783285
 30
0.0
 10
225.6821266802142
 20
50.84741134911866
 30
0.0
 10
225.6031603974419
 20
50.89059037462161
 30
0.0
 10
225.4559057706352
 20
50.9921885704299
 30
0.0
 10
225.387303611751
 20
51.05052882833265
 30
0.0
 10
225.2602983276754
 20
51.18228682810723
 30
0.0
 10
225.2014474169036
 20
51.25654783764229
 30
0.0
 10
225.0987949730897
 20
51.41569186907063
 30
0.0
 10
225.0545657558431
 20
51.50074492855681
 30
0.0
 10
224.9811549211418
 20
51.68207122597117
 30
0.0
 10
224.9518577700739
 20
51.77947141958538
 30
0.0
 10
224.9124695132099
 20
51.97817570600615
 30
0.0
 10
224.9019379756509
 20
52.08001230195778
 30
0.0
 10
224.9008921610348
 20
52.28882826234038
 30
0.0
 10
224.910789928447
 20
52.39655417544458
 30
0.0
 10
224.9517250751401
 20
52.60582032490764
 30
0.0
 10
224.9825949603405
 20
52.7087209881727
 30
0.0
 10
225.0670496205593
 20
52.9106708895547
 30
0.0
 10
225.1199376888589
 20
53.00755373026249
 30
0.0
 10
225.182321409025
 20
53.09793909281891
 30
0.0
  0
SPLINE
  5
216
330
1F
100
AcDbEntity
  8
0
  6
Continuous
 62
     7
370
    25
100
AcDbSpline
210
0.0
220
0.0
230
1.0
 70
     8
 71
     3
 72
    20
 73
    16
 74
     0
 42
0.000000001
 43
0.00000001
 40
0.0
 40
0.0
 40
0.0
 40
0.0
 40
0.0752862469080342
 40
0.1419583845268146
 40
0.2192813839539582
 40
0.2899260966954372
 40
0.3586841828935675
 40
0.4314214902130354
 40
0.5116527187831629
 40
0.5996978927882654
 40
0.6927835994322598
 40
0.786834082492711
 40
0.8772154796367578
 40
0.9590590662913019
 40
1.0
 40
1.0
 40
1.0
 40
1.0
 10
226.3796642743013
 20
38.48648303252954
 30
0.0
 10
226.2255005712487
 20
38.56362759475192
 30
0.0
 10
225.9348122830579
 20
38.7090899850009
 30
0.0
 10
225.5090899565549
 20
38.92026142027103
 30
0.0
 10
225.1647711611884
 20
39.10070913478311
 30
0.0
 10
224.9484787486745
 20
39.2317075259825
 30
0.0
 10
224.8787525099409
 20
39.29797172426893
 30
0.0
 10
224.9477848911881
 20
39.29548256416908
 30
0.0
 10
225.1616134739483
 20
39.20928302710998
 30
0.0
 10
225.5199854124852
 20
39.02302742178827
 30
0.0
 10
225.9940227237828
 20
38.73962097372577
 30
0.0
 10
226.5258859937207
 20
38.39375099097485
 30
0.0
 10
227.0266938205163
 20
38.05925475938032
 30
0.0
 10
227.3959756369229
 20
37.8174048383135
 30
0.0
 10
227.5306625691659
 20
37.74076864019933
 30
0.0
 10
227.575572210447
 20
37.71521527649031
 30
0.0
  0
LINE
  5
217
330
1F
100
AcDbEntity
  8
0
  6
Continuous
 62
     7
370
    25
100
AcDbLine
 10
237.8795803923
 20
59.4276031655
 30
0.0
 11
238.3084910889
 21
59.1444224903
 31
0.0
  0
LWPOLYLINE
  5
218
330
1F
100
AcDbEntity
  8
0
  6
Continuous
 62
     7
370
    25
100
AcDbPolyline
 90
       15
 70
   128
 43
0.0
 10
239.5823670728
 20
58.4919179994
 10
239.5633930884
 20
58.5038425304
 10
239.25946031
 20
58.6668407807
 10
238.8743685064
 20
58.8609390152
 10
238.4198746728
 20
59.0872029874
 10
237.9252669175
 20
59.3412921589
 10
237.4539067712
 20
59.6029198401
 10
237.0881468709
 20
59.8337414959
 10
236.894266758
 20
59.986931839
 10
236.8979723879
 20
60.0243607791
 10
237.0656193804
 20
59.9453997608
 10
237.3354533828
 20
59.7832915026
 10
237.675922869
 20
59.5625706304
 10
237.8795803923
 20
59.4276031655
 10
237.8795803923
 20
59.4276031655
  0
SPLINE
  5
219
330
1F
100
AcDbEntity
  8
0
  6
Continuous
 62
     7
370
    25
100
AcDbSpline
210
0.0
220
0.0
230
1.0
 70
    11
 71
     3
 72
    82
 73
    78
 74
     0
 42
0.000000001
 43
0.00000001
 40
0.0
 40
0.0
 40
0.0
 40
0.0
 40
0.0312500000000029
 40
0.0312500000000029
 40
0.0468750000000031
 40
0.0468750000000031
 40
0.0625000000000034
 40
0.0625000000000034
 40
0.0937500000000038
 40
0.0937500000000038
 40
0.1250000000000043
 40
0.1250000000000043
 40
0.1562500000000048
 40
0.1562500000000048
 40
0.1875000000000053
 40
0.1875000000000053
 40
0.2187500000000057
 40
0.2187500000000057
 40
0.2500000000000061
 40
0.2500000000000061
 40
0.2656250000000063
 40
0.2656250000000063
 40
0.2812500000000066
 40
0.2812500000000066
 40
0.312500000000007
 40
0.312500000000007
 40
0.3281250000000072
 40
0.3281250000000072
 40
0.3437500000000074
 40
0.3437500000000074
 40
0.3750000000000065
 40
0.3750000000000065
 40
0.4062500000000055
 40
0.4062500000000055
 40
0.4375000000000046
 40
0.4375000000000046
 40
0.4687500000000036
 40
0.4687500000000036
 40
0.5000000000000026
 40
0.5000000000000026
 40
0.5312500000000016
 40
0.5312500000000016
 40
0.5625000000000006
 40
0.5625000000000006
 40
0.5937499999999997
 40
0.5937499999999997
 40
0.6249999999999987
 40
0.6249999999999987
 40
0.6406249999999981
 40
0.6406249999999981
 40
0.6562499999999976
 40
0.6562499999999976
 40
0.6874999999999964
 40
0.6874999999999964
 40
0.7187499999999954
 40
0.7187499999999954
 40
0.7499999999999943
 40
0.7499999999999943
 40
0.7812499999999932
 40
0.7812499999999932
 40
0.7968749999999927
 40
0.7968749999999927
 40
0.8124999999999921
 40
0.8124999999999921
 40
0.8437499999999911
 40
0.8437499999999911
 40
0.8593749999999913
 40
0.8593749999999913
 40
0.8749999999999916
 40
0.8749999999999916
 40
0.9062499999999937
 40
0.9062499999999937
 40
0.9374999999999958
 40
0.9374999999999958
 40
0.968749999999998
 40
0.968749999999998
 40
1.0
 40
1.0
 40
1.0
 40
1.0
 10
251.2791150889346
 20
42.278258264949
 30
0.0
 10
251.1538838853998
 20
42.35055269991928
 30
0.0
 10
251.0408860695537
 20
42.43362574266098
 30
0.0
 10
250.8891466805254
 20
42.57364402581247
 30
0.0
 10
250.8415488221998
 20
42.62289995407919
 30
0.0
 10
250.7524873849193
 20
42.72662819125426
 30
0.0
 10
250.7108368066116
 20
42.7814109141232
 30
0.0
 10
250.5975131407389
 20
42.95084715916362
 30
0.0
 10
250.5369775050621
 20
43.07068144780296
 30
0.0
 10
250.4462584685644
 20
43.32305737295532
 30
0.0
 10
250.4160521593211
 20
43.45720983181488
 30
0.0
 10
250.390418160951
 20
43.72804957156057
 30
0.0
 10
250.3944366645016
 20
43.86493422464626
 30
0.0
 10
250.4374682663941
 20
44.14039618211978
 30
0.0
 10
250.4772245396179
 20
44.27969992716837
 30
0.0
 10
250.5900339444446
 20
44.5455894709539
 30
0.0
 10
250.6631145756636
 20
44.67383315942885
 30
0.0
 10
250.8445641649491
 20
44.91959505392457
 30
0.0
 10
250.9511484902948
 20
45.03424066312215
 30
0.0
 10
251.1306984234748
 20
45.1900976910655
 30
0.0
 10
251.1940144195623
 20
45.23957334763099
 30
0.0
 10
251.3277264628758
 20
45.33348164398858
 30
0.0
 10
251.3983948726993
 20
45.37801459091663
 30
0.0
 10
251.6160483490287
 20
45.50092119959687
 30
0.0
 10
251.7700529159132
 20
45.56983216416639
 30
0.0
 10
252.0140723398478
 20
45.65467872814757
 30
0.0
 10
252.0980501895488
 20
45.67994645602806
 30
0.0
 10
252.2670432217883
 20
45.72339537379495
 30
0.0
 10
252.3522898809761
 20
45.74169859799201
 30
0.0
 10
252.6101779139761
 20
45.7869491075712
 30
0.0
 10
252.7861140335115
 20
45.80434112285229
 30
0.0
 10
253.1384213312615
 20
45.81445013674329
 30
0.0
 10
253.3117853015617
 20
45.80726918134165
 30
0.0
 10
253.6530812602692
 20
45.77112646017574
 30
0.0
 10
253.8223717779697
 20
45.74168024979895
 30
0.0
 10
254.1431880067137
 20
45.66434521500735
 30
0.0
 10
254.2959470241905
 20
45.61650244459086
 30
0.0
 10
254.5861720328
 20
45.50340061258412
 30
0.0
 10
254.7229975551578
 20
45.43810105304163
 30
0.0
 10
254.9703628288013
 20
45.29548749811166
 30
0.0
 10
255.082434541132
 20
45.2176294466156
 30
0.0
 10
255.2825459425071
 20
45.04803515511874
 30
0.0
 10
255.3684910802674
 20
44.95786734397181
 30
0.0
 10
255.5098599835401
 20
44.76928652739961
 30
0.0
 10
255.5660091482648
 20
44.67001724181577
 30
0.0
 10
255.6462892160978
 20
44.46190819510969
 30
0.0
 10
255.669516904251
 20
44.35573447401284
 30
0.0
 10
255.6794680697875
 20
44.1921456491607
 30
0.0
 10
255.6786079404505
 20
44.13688992190035
 30
0.0
 10
255.6682463892003
 20
44.02465990741315
 30
0.0
 10
255.6586437890477
 20
43.96742665125206
 30
0.0
 10
255.6172193578049
 20
43.79664010855389
 30
0.0
 10
255.5729591757603
 20
43.68294690160133
 30
0.0
 10
255.4510463577119
 20
43.45448243463608
 30
0.0
 10
255.3722479573308
 20
43.33871721282245
 30
0.0
 10
255.187341799597
 20
43.11603095527511
 30
0.0
 10
255.0808622512484
 20
43.00788577776429
 30
0.0
 10
254.8389446496869
 20
42.79787368641556
 30
0.0
 10
254.7059357195178
 20
42.69835553989058
 30
0.0
 10
254.4933996315555
 20
42.56060452965367
 30
0.0
 10
254.4201441137684
 20
42.51643428274242
 30
0.0
 10
254.2687042540253
 20
42.43173905294955
 30
0.0
 10
254.1903817959922
 20
42.39119055069693
 30
0.0
 10
253.953404945169
 20
42.27799179834099
 30
0.0
 10
253.7910252008372
 20
42.21266067779167
 30
0.0
 10
253.5406570148733
 20
42.13044633732768
 30
0.0
 10
253.4556778473264
 20
42.1056187706774
 30
0.0
 10
253.2867334607703
 20
42.06242020056526
 30
0.0
 10
253.2024533536892
 20
42.04391919227065
 30
0.0
 10
252.9500612862823
 20
41.99766243497847
 30
0.0
 10
252.78146266613
 20
41.97904362796572
 30
0.0
 10
252.448980435113
 20
41.96824782628701
 30
0.0
 10
252.2881631071316
 20
41.97602434095703
 30
0.0
 10
251.9763972316515
 20
42.01771986938295
 30
0.0
 10
251.8242241423834
 20
42.05216258122532
 30
0.0
 10
251.5385245595184
 20
42.14636563619919
 30
0.0
 10
251.4043462924693
 20
42.20596382997874
 30
0.0
 10
251.2791150889346
 20
42.278258264949
 30
0.0
  0
LWPOLYLINE
  5
21A
330
1F
100
AcDbEntity
  8
0
  6
Continuous
 62
     7
370
    25
100
AcDbPolyline
 90
       18
 70
   128
 43
0.0
 10
259.048986522
 20
29.142236298
 10
259.2302304829
 20
30.070973761
 10
259.528473766
 20
31.028299544
 10
259.9345616149
 20
31.9804879766
 10
260.4374169816
 20
32.9015655376
 10
261.0233233718
 20
33.7664078202
 10
261.6762985688
 20
34.5514237234
 10
262.3785313311
 20
35.2352009012
 10
263.1108664097
 20
35.7990869012
 10
263.8533277626
 20
36.227700717
 10
264.5856628413
 20
36.509350801
 10
265.2878956035
 20
36.6363543125
 10
265.9408708006
 20
36.6052475245
 10
266.5267771908
 20
36.4168783609
 10
267.0296325575
 20
36.0763852481
 10
267.4357204063
 20
35.5930558658
 10
267.7339636895
 20
34.980074448
 10
267.8263680206
 20
34.6827404715
  0
ARC
  5
21B
330
1F
100
AcDbEntity
  8
0
  6
Continuous
 62
     7
370
    25
100
AcDbCircle
 10
261.5212548141
 20
27.6146362191
 30
0.0
 40
2.587048609725365
100
AcDbArc
 50
243.1542488331
 51
288.14253186
  0
LINE
  5
21C
330
1F
100
AcDbEntity
  8
0
  6
Continuous
 62
     7
370
    25
100
AcDbLine
 10
267.1669958869
 20
22.3620260736
 30
0.0
 11
267.0956292539
 21
22.4054208854
 31
0.0
  0
LWPOLYLINE
  5
21D
330
1F
100
AcDbEntity
  8
0
  6
Continuous
 62
     7
370
    25
100
AcDbPolyline
 90
       15
 70
   128
 43
0.0
 10
260.4800755192
 20
28.2680750399
 10
260.5393916108
 20
28.9225512862
 10
260.7248805496
 20
29.8057526885
 10
261.0273974574
 20
30.7057942069
 10
261.4372189243
 20
31.5937475097
 10
261.9411734018
 20
32.4410735654
 10
262.5230631644
 20
33.2205382006
 10
263.1641856304
 20
33.9070888172
 10
263.8439348188
 20
34.4786590247
 10
264.5404629599
 20
34.9168785292
 10
265.2313830182
 20
35.2076623435
 10
265.8944883584
 20
35.3416642641
 10
266.5084661961
 20
35.31457733
 10
267.0535826688
 20
35.1272726495
 10
267.115756185
 20
35.0929678479
  0
ARC
  5
21E
330
1F
100
AcDbEntity
  8
0
  6
Continuous
 62
     7
370
    25
100
AcDbCircle
 10
262.6543212579
 20
27.3140848399
 30
0.0
 40
2.032728424223648
100
AcDbArc
 50
205.4579744904
 51
239.2894144201
  0
LWPOLYLINE
  5
21F
330
1F
100
AcDbEntity
  8
0
  6
Continuous
 62
     7
370
    25
100
AcDbPolyline
 90
       17
 70
   128
 43
0.0
 10
268.7517275983
 20
28.4717786773
 10
268.7073217775
 20
28.7039368604
 10
268.5808646037
 20
28.8494812664
 10
268.3916079671
 20
28.8862538125
 10
268.168364507
 20
28.8086564991
 10
267.9451212115
 20
28.6285024949
 10
267.7558645749
 20
28.3732188873
 10
267.6294074011
 20
28.0816701362
 10
267.5850014157
 20
27.7982419887
 10
267.6294074011
 20
27.5660837105
 10
267.7558645749
 20
27.4205393045
 10
267.9451212115
 20
27.3837667584
 10
268.168364507
 20
27.4613641668
 10
268.3916079671
 20
27.641518076
 10
268.5808646037
 20
27.8968016836
 10
268.7073217775
 20
28.1883504347
 10
268.7517275983
 20
28.4717786773
  0
LWPOLYLINE
  5
220
330
1F
100
AcDbEntity
  8
0
  6
Continuous
 62
     7
370
    25
100
AcDbPolyline
 90
        3
 70
   128
 43
0.0
 10
265.9005726512
 20
35.433344484
 10
266.0094386194
 20
35.4162599757
 10
266.0447005497
 20
35.4094080332
  0
LINE
  5
221
330
1F
100
AcDbEntity
  8
0
  6
Continuous
 62
     7
370
    25
100
AcDbLine
 10
261.005201544
 20
26.1220459666
 30
0.0
 11
260.9612372773
 21
26.1466013512
 31
0.0
  0
LWPOLYLINE
  5
222
330
1F
100
AcDbEntity
  8
0
  6
Continuous
 62
     7
370
    25
100
AcDbPolyline
 90
       18
 70
   128
 43
0.0
 10
225.8710608019
 20
51.110104635
 10
226.2325602485
 20
50.9988817582
 10
226.6296467817
 20
51.0488804117
 10
227.0086924882
 20
51.2533506602
 10
227.3185040934
 20
51.5846761361
 10
227.5172416307
 20
51.9981090737
 10
227.5780615087
 20
52.4378157631
 10
227.4927506897
 20
52.8444094435
 10
227.2728320561
 20
53.16297734
 10
226.9480036605
 20
53.3504967814
 10
226.562140372
 20
53.3816393447
 10
226.1673511713
 20
53.2522015062
 10
225.8169561022
 20
52.9796630164
 10
225.558280478
 20
52.6008315998
 10
225.4262548165
 20
52.1668724832
 10
225.4387111859
 20
51.7363928971
 10
225.5939696391
 20
51.3675322701
 10
225.8710608019
 20
51.110104635
  0
ARC
  5
223
330
1F
100
AcDbEntity
  8
0
  6
Continuous
 62
     7
370
    25
100
AcDbCircle
 10
229.6059599733
 20
50.3369496185
 30
0.0
 40
24.59251121709632
100
AcDbArc
 50
126.2998646377
 51
166.2212593607
  0
SPLINE
  5
224
330
1F
100
AcDbEntity
  8
0
  6
Continuous
 62
     7
370
    25
100
AcDbSpline
210
0.0
220
0.0
230
1.0
 70
     8
 71
     3
 72
    10
 73
     6
 74
     0
 42
0.000000001
 43
0.00000001
 40
0.0
 40
0.0
 40
0.0
 40
0.0
 40
0.5
 40
0.5
 40
1.0
 40
1.0
 40
1.0
 40
1.0
 10
205.6371300396986
 20
55.84095094014807
 30
0.0
 10
205.5806013539161
 20
55.80831762446545
 30
0.0
 10
205.5019580313414
 20
55.78794464900648
 30
0.0
 10
205.3417281170103
 20
55.78488324904512
 30
0.0
 10
205.2605611044696
 20
55.80254244892537
 30
0.0
 10
205.2034472041317
 20
55.83551360177969
 30
0.0
  0
SPLINE
  5
225
330
1F
100
AcDbEntity
  8
0
  6
Continuous
 62
     7
370
    25
100
AcDbSpline
210
0.0
220
0.0
230
1.0
 70
     8
 71
     3
 72
    12
 73
     8
 74
     0
 42
0.000000001
 43
0.00000001
 40
0.0
 40
0.0
 40
0.0
 40
0.0
 40
0.2500000000000033
 40
0.2500000000000033
 40
0.5000000000000067
 40
0.5000000000000067
 40
1.0
 40
1.0
 40
1.0
 40
1.0
 10
222.8941691104765
 20
72.3594754800348
 30
0.0
 10
222.9260734388212
 20
72.34105750331902
 30
0.0
 10
222.9582107752622
 20
72.31114296268697
 30
0.0
 10
223.0128690816883
 20
72.24074554274407
 30
0.0
 10
223.0358424210187
 20
72.20036484606823
 30
0.0
 10
223.0895242099564
 20
72.07784101603285
 30
0.0
 10
223.1063011448325
 20
71.99303969442717
 30
0.0
 10
223.1063011448325
 20
71.91948709879357
 30
0.0
  0
LINE
  5
226
330
1F
100
AcDbEntity
  8
0
  6
Continuous
 62
     7
370
    25
100
AcDbLine
 10
205.2034474773
 20
55.8355133118
 30
0.0
 11
203.8040588371
 21
56.6433631782
 31
0.0
  0
LWPOLYLINE
  5
227
330
1F
100
AcDbEntity
  8
0
  6
Continuous
 62
     7
370
    25
100
AcDbPolyline
 90
       20
 70
   128
 43
0.0
 10
203.8040588371
 20
56.6433631782
 10
204.1890887375
 20
58.1169630669
 10
204.6838117381
 20
59.6013664451
 10
205.2829515801
 20
61.0807447728
 10
205.9801197235
 20
62.5393247479
 10
206.7678838349
 20
63.961554461
 10
207.637844179
 20
65.332269169
 10
208.5807238393
 20
66.6368532655
 10
209.5864701341
 20
67.8613976867
 10
210.6443593244
 20
68.9928447701
 10
211.7431110369
 20
70.0191295947
 10
212.8710102585
 20
70.9293112443
 10
214.0160306495
 20
71.7136835387
 10
215.1659634121
 20
72.3638844089
 10
216.3085473943
 20
72.8729801306
 10
217.4315998929
 20
73.2355431161
 10
218.523145976
 20
73.4477060381
 10
219.5715475156
 20
73.5072081819
 10
220.5656253895
 20
73.4134142793
 10
221.4947809823
 20
73.1673253333
  0
LINE
  5
228
330
1F
100
AcDbEntity
  8
0
  6
Continuous
 62
     7
370
    25
100
AcDbLine
 10
221.4947809823
 20
73.1673253333
 30
0.0
 11
222.8941696226
 21
72.3594754668
 31
0.0
  0
LINE
  5
229
330
1F
100
AcDbEntity
  8
0
  6
Continuous
 62
     7
370
    25
100
AcDbLine
 10
225.5490641476
 20
66.9275957002
 30
0.0
 11
226.6405766449
 21
67.5577124525
 31
0.0
  0
LINE
  5
22A
330
1F
100
AcDbEntity
  8
0
  6
Continuous
 62
     7
370
    25
100
AcDbLine
 10
206.7544567709
 20
55.2189493697
 30
0.0
 11
206.7544567709
 21
56.4859699008
 31
0.0
  0
LINE
  5
22B
330
1F
100
AcDbEntity
  8
0
  6
Continuous
 62
     7
370
    25
100
AcDbLine
 10
206.7544567709
 20
56.4859699008
 30
0.0
 11
205.6371299874
 21
55.8409508783
 31
0.0
  0
LINE
  5
22C
330
1F
100
AcDbEntity
  8
0
  6
Continuous
 62
     7
370
    25
100
AcDbLine
 10
223.1063012966
 20
71.9194869802
 30
0.0
 11
223.1063012966
 21
70.3554231798
 31
0.0
  0
LINE
  5
22D
330
1F
100
AcDbEntity
  8
0
  6
Continuous
 62
     7
370
    25
100
AcDbLine
 10
224.4607469083
 20
71.1373279881
 30
0.0
 11
223.1063012966
 21
70.3554231798
 31
0.0
  0
SPLINE
  5
22E
330
1F
100
AcDbEntity
  8
0
  6
Continuous
 62
     7
370
    25
100
AcDbSpline
210
0.0
220
0.0
230
1.0
 70
     8
 71
     3
 72
    20
 73
    16
 74
     0
 42
0.000000001
 43
0.00000001
 40
0.0
 40
0.0
 40
0.0
 40
0.0
 40
0.25
 40
0.25
 40
0.5
 40
0.5
 40
0.53125
 40
0.53125
 40
0.5625
 40
0.5625
 40
0.625
 40
0.625
 40
0.75
 40
0.75
 40
1.0
 40
1.0
 40
1.0
 40
1.0
 10
206.7544568298935
 20
50.40412334984166
 30
0.0
 10
206.7544568298935
 20
50.80231901847091
 30
0.0
 10
206.7658540809756
 20
51.19404434884706
 30
0.0
 10
206.7850874194025
 20
51.97951671937736
 30
0.0
 10
206.7927036769108
 20
52.37338855922131
 30
0.0
 10
206.7929248976406
 20
52.82123309711474
 30
0.0
 10
206.792844727538
 20
52.87232956170812
 30
0.0
 10
206.7924730709493
 20
52.97364138877387
 30
0.0
 10
206.7921822234378
 20
53.02435556300454
 30
0.0
 10
206.79100671754
 20
53.17666615833574
 30
0.0
 10
206.7898163992269
 20
53.27843214802689
 30
0.0
 10
206.7852227158466
 20
53.58429748823792
 30
0.0
 10
206.7807618692572
 20
53.78898348959314
 30
0.0
 10
206.7661818137976
 20
54.40370583016573
 30
0.0
 10
206.7544568298935
 20
54.81466891327713
 30
0.0
 10
206.7544568298935
 20
55.21894927620973
 30
0.0
  0
LWPOLYLINE
  5
22F
330
1F
100
AcDbEntity
  8
0
  6
Continuous
 62
     7
370
    25
100
AcDbPolyline
 90
       18
 70
   128
 43
0.0
 10
202.8802763089
 20
58.2743449708
 10
203.2955399877
 20
59.7425431163
 10
203.8267957448
 20
61.2165954479
 10
204.4674225738
 20
62.6781309442
 10
205.2094362811
 20
64.1089330856
 10
206.0435882676
 20
65.4911702653
 10
206.9594820911
 20
66.8076147918
 10
207.9457038583
 20
68.0418599888
 10
208.9899615066
 20
69.1785230354
 10
210.0792395624
 20
70.2034362085
 10
211.1999624598
 20
71.1038270965
 10
212.3381624083
 20
71.8684725421
 10
213.4796533918
 20
72.4878439576
 10
214.6102088527
 20
72.9542205455
 10
215.7157381405
 20
73.2617904001
 10
216.7824630225
 20
73.4067204654
 10
217.7970881436
 20
73.3872039883
 10
217.9953423092
 20
73.3631764313
  0
SPLINE
  5
230
330
1F
100
AcDbEntity
  8
0
  6
Continuous
 62
     7
370
    25
100
AcDbSpline
210
0.0
220
0.0
230
1.0
 70
     8
 71
     3
 72
     8
 73
     4
 74
     0
 42
0.000000001
 43
0.00000001
 40
0.0
 40
0.0
 40
0.0
 40
0.0
 40
1.0
 40
1.0
 40
1.0
 40
1.0
 10
202.8802763487407
 20
58.27434517162634
 30
0.0
 10
202.3889753196882
 20
58.19169795142246
 30
0.0
 10
201.8973952287855
 20
58.10961416393202
 30
0.0
 10
201.4056004300336
 20
58.02796387685027
 30
0.0
  0
LWPOLYLINE
  5
231
330
1F
100
AcDbEntity
  8
0
  6
Continuous
 62
     7
370
    25
100
AcDbPolyline
 90
       20
 70
   128
 43
0.0
 10
201.4056005556
 20
58.0279636721
 10
201.790630456
 20
59.5015635608
 10
202.2853534566
 20
60.985966939
 10
202.8844932987
 20
62.4653452667
 10
203.5816614421
 20
63.9239252417
 10
204.3694255534
 20
65.3461549548
 10
205.2393858975
 20
66.7168696629
 10
206.1822655579
 20
68.0214537593
 10
207.1880118526
 20
69.2459981805
 10
208.245901043
 20
70.377445264
 10
209.3446527554
 20
71.4037300885
 10
210.472551977
 20
72.3139117382
 10
211.617572368
 20
73.0982840325
 10
212.7675051307
 20
73.7484849028
 10
213.9100891128
 20
74.2575806244
 10
215.0331416115
 20
74.6201436099
 10
216.1246876945
 20
74.8323065319
 10
217.1730892342
 20
74.8918086758
 10
218.167167108
 20
74.7980147731
 10
219.0963227009
 20
74.5519258271
  0
LINE
  5
232
330
1F
100
AcDbEntity
  8
0
  6
Continuous
 62
     7
370
    25
100
AcDbLine
 10
219.0963227009
 20
74.5519258271
 30
0.0
 11
219.4429133583
 21
73.4321371974
 31
0.0
  0
LINE
  5
233
330
1F
100
AcDbEntity
  8
0
  6
Continuous
 62
     7
370
    25
100
AcDbLine
 10
215.6816801942
 20
76.5231569874
 30
0.0
 11
219.0963227009
 21
74.5519258271
 31
0.0
  0
LINE
  5
234
330
1F
100
AcDbEntity
  8
0
  6
Continuous
 62
     7
370
    25
100
AcDbLine
 10
201.4056005556
 20
58.0279636721
 30
0.0
 11
200.8193853081
 21
58.3663785311
 31
0.0
  0
SPLINE
  5
235
330
1F
100
AcDbEntity
  8
0
  6
Continuous
 62
     7
370
    25
100
AcDbSpline
210
0.0
220
0.0
230
1.0
 70
     8
 71
     3
 72
    28
 73
    24
 74
     0
 42
0.000000001
 43
0.00000001
 40
0.0
 40
0.0
 40
0.0
 40
0.0
 40
0.1250000000000001
 40
0.1250000000000001
 40
0.1875000000000001
 40
0.1875000000000001
 40
0.2500000000000001
 40
0.2500000000000001
 40
0.3749999999999999
 40
0.3749999999999999
 40
0.4375
 40
0.4375
 40
0.4999999999999999
 40
0.4999999999999999
 40
0.6249999999999999
 40
0.6249999999999999
 40
0.7499999999999997
 40
0.7499999999999997
 40
0.8124999999999998
 40
0.8124999999999998
 40
0.8749999999999998
 40
0.8749999999999998
 40
1.0
 40
1.0
 40
1.0
 40
1.0
 10
200.8193851607751
 20
58.36637874843009
 30
0.0
 10
200.6313980803088
 20
58.47490138001416
 30
0.0
 10
200.4411781257081
 20
58.55684510056207
 30
0.0
 10
200.1530795237601
 20
58.64200283060053
 30
0.0
 10
200.0565896531605
 20
58.66405276100433
 30
0.0
 10
199.8628514803256
 20
58.6953265844633
 30
0.0
 10
199.7656004597943
 20
58.70445383578672
 30
0.0
 10
199.4795785849089
 20
58.71223667789513
 30
0.0
 10
199.2942367685523
 20
58.69193013425806
 30
0.0
 10
199.0257241817365
 20
58.62470948112492
 30
0.0
 10
198.9373635220707
 20
58.59592312351933
 30
0.0
 10
198.7670108117811
 20
58.52691123342418
 30
0.0
 10
198.6849837819996
 20
58.48677134351405
 30
0.0
 10
198.448547528247
 20
58.35015157575083
 30
0.0
 10
198.3036802781247
 20
58.23763708606177
 30
0.0
 10
198.0428234846406
 20
57.9693801210623
 30
0.0
 10
197.9305310771382
 20
57.81722673468502
 30
0.0
 10
197.7913065956844
 20
57.56531034698671
 30
0.0
 10
197.7497108093186
 20
57.47726806131033
 30
0.0
 10
197.6765860942574
 20
57.29292700625852
 30
0.0
 10
197.6449616102045
 20
57.19613824357673
 30
0.0
 10
197.5674683067822
 20
56.89812316467992
 30
0.0
 10
197.5382935913924
 20
56.6886502875434
 30
0.0
 10
197.5323267086507
 20
56.46826949485953
 30
0.0
  0
ARC
  5
236
330
1F
100
AcDbEntity
  8
0
  6
Continuous
 62
     7
370
    25
100
AcDbCircle
 10
212.3768765463
 20
56.0599990257
 30
0.0
 40
14.85016324616775
100
AcDbArc
 50
178.4245883563
 51
181.5754116437
  0
SPLINE
  5
237
330
1F
100
AcDbEntity
  8
0
  6
Continuous
 62
     7
370
    25
100
AcDbSpline
210
0.0
220
0.0
230
1.0
 70
     8
 71
     3
 72
    30
 73
    26
 74
     0
 42
0.000000001
 43
0.00000001
 40
0.0
 40
0.0
 40
0.0
 40
0.0
 40
0.1250000000000003
 40
0.1250000000000003
 40
0.1875000000000005
 40
0.1875000000000005
 40
0.2500000000000007
 40
0.2500000000000007
 40
0.3750000000000011
 40
0.3750000000000011
 40
0.4375000000000012
 40
0.4375000000000012
 40
0.5000000000000012
 40
0.5000000000000012
 40
0.6250000000000014
 40
0.6250000000000014
 40
0.6875000000000012
 40
0.6875000000000012
 40
0.7500000000000011
 40
0.7500000000000011
 40
0.8125000000000009
 40
0.8125000000000009
 40
0.8750000000000008
 40
0.8750000000000008
 40
1.0
 40
1.0
 40
1.0
 40
1.0
 10
197.5323267086507
 20
55.65172868297378
 30
0.0
 10
197.5382943073421
 20
55.43821149019907
 30
0.0
 10
197.5674395273416
 20
55.22066159217994
 30
0.0
 10
197.6438741886004
 20
54.88836256264435
 30
0.0
 10
197.6748401721778
 20
54.77658826134477
 30
0.0
 10
197.7478101129934
 20
54.55088638780978
 30
0.0
 10
197.789946311552
 20
54.43679861523726
 30
0.0
 10
197.9298381009164
 20
54.09863588787607
 30
0.0
 10
198.0416820254587
 20
53.87612566860329
 30
0.0
 10
198.2354686226033
 20
53.54551541265374
 30
0.0
 10
198.3048092602065
 20
53.43528877294759
 30
0.0
 10
198.4503016446532
 20
53.21855877249405
 30
0.0
 10
198.5261889353723
 20
53.11236183686333
 30
0.0
 10
198.7625768838437
 20
52.79972366361371
 30
0.0
 10
198.9317223860946
 20
52.59918111577855
 30
0.0
 10
199.2015883834286
 20
52.30907627635621
 30
0.0
 10
199.2937798894795
 20
52.21473285998376
 30
0.0
 10
199.4793784845142
 20
52.03342783192337
 30
0.0
 10
199.573207364801
 20
51.94600849842922
 30
0.0
 10
199.7626574152664
 20
51.77740094810456
 30
0.0
 10
199.8582788304721
 20
51.69621276233522
 30
0.0
 10
200.0511405198985
 20
51.54005008278708
 30
0.0
 10
200.1488754287969
 20
51.46472310309037
 30
0.0
 10
200.4401313839172
 20
51.25143286964654
 30
0.0
 10
200.6313887748904
 20
51.12603944494611
 30
0.0
 10
200.8193851607751
 20
51.01751144145834
 30
0.0
  0
LINE
  5
238
330
1F
100
AcDbEntity
  8
0
  6
Continuous
 62
     7
370
    25
100
AcDbLine
 10
200.8193853081
 20
51.0175115405
 30
0.0
 11
201.4056005556
 21
50.6790966814
 31
0.0
  0
ARC
  5
239
330
1F
100
AcDbEntity
  8
0
  6
Continuous
 62
     7
370
    25
100
AcDbCircle
 10
207.2694996485
 20
52.1106009967
 30
0.0
 40
6.03610115683797
100
AcDbArc
 50
193.7188113049
 51
252.9033667284
  0
LINE
  5
23A
330
1F
100
AcDbEntity
  8
0
  6
Continuous
 62
     7
370
    25
100
AcDbLine
 10
220.7257402792
 20
73.6109772946
 30
0.0
 11
221.0600523743
 21
73.3036485742
 31
0.0
  0
LINE
  5
23B
330
1F
100
AcDbEntity
  8
0
  6
Continuous
 62
     7
370
    25
100
AcDbLine
 10
219.8728115424
 20
74.1033625737
 30
0.0
 11
220.7257402792
 21
73.6109772946
 31
0.0
  0
SPLINE
  5
23C
330
1F
100
AcDbEntity
  8
0
  6
Continuous
 62
     7
370
    25
100
AcDbSpline
210
0.0
220
0.0
230
1.0
 70
     8
 71
     3
 72
    20
 73
    16
 74
     0
 42
0.000000001
 43
0.00000001
 40
0.0
 40
0.0
 40
0.0
 40
0.0
 40
0.2499999999999997
 40
0.2499999999999997
 40
0.3749999999999997
 40
0.3749999999999997
 40
0.4999999999999998
 40
0.4999999999999998
 40
0.6249999999999998
 40
0.6249999999999998
 40
0.7499999999999999
 40
0.7499999999999999
 40
0.8749999999999999
 40
0.8749999999999999
 40
1.0
 40
1.0
 40
1.0
 40
1.0
 10
215.6816799423738
 20
76.52315685033054
 30
0.0
 10
216.0006685967717
 20
76.38926646107073
 30
0.0
 10
216.3271241968697
 20
76.22937011400873
 30
0.0
 10
216.8394743142528
 20
75.95145118653923
 30
0.0
 10
217.0140776809307
 20
75.85245217372893
 30
0.0
 10
217.3739515432795
 20
75.64151146883022
 30
0.0
 10
217.556811959633
 20
75.53095565162019
 30
0.0
 10
217.9231070488103
 20
75.30553778260936
 30
0.0
 10
218.1075905650689
 20
75.1900571812299
 30
0.0
 10
218.4811753893044
 20
74.95522483693412
 30
0.0
 10
218.6655248605436
 20
74.83889491165887
 30
0.0
 10
219.0262347670201
 20
74.61320022485948
 30
0.0
 10
219.2032887562739
 20
74.5033902507628
 30
0.0
 10
219.5510181076263
 20
74.2919954872269
 30
0.0
 10
219.7162685240845
 20
74.19373265208387
 30
0.0
 10
219.872811438866
 20
74.10336235096649
 30
0.0
  0
SPLINE
  5
23D
330
1F
100
AcDbEntity
  8
0
  6
Continuous
 62
     7
370
    25
100
AcDbSpline
210
0.0
220
0.0
230
1.0
 70
    11
 71
     3
 72
    70
 73
    66
 74
     0
 42
0.000000001
 43
0.00000001
 40
0.0
 40
0.0
 40
0.0
 40
0.0
 40
0.0312499999999999
 40
0.0312499999999999
 40
0.0624999999999998
 40
0.0624999999999998
 40
0.0937499999999997
 40
0.0937499999999997
 40
0.1249999999999996
 40
0.1249999999999996
 40
0.1562499999999994
 40
0.1562499999999994
 40
0.1874999999999993
 40
0.1874999999999993
 40
0.2187499999999992
 40
0.2187499999999992
 40
0.2499999999999991
 40
0.2499999999999991
 40
0.281249999999999
 40
0.281249999999999
 40
0.3124999999999989
 40
0.3124999999999989
 40
0.3437499999999988
 40
0.3437499999999988
 40
0.3749999999999987
 40
0.3749999999999987
 40
0.4062499999999986
 40
0.4062499999999986
 40
0.4374999999999984
 40
0.4374999999999984
 40
0.4687499999999983
 40
0.4687499999999983
 40
0.4999999999999982
 40
0.4999999999999982
 40
0.5312499999999983
 40
0.5312499999999983
 40
0.5624999999999984
 40
0.5624999999999984
 40
0.5937499999999986
 40
0.5937499999999986
 40
0.6249999999999987
 40
0.6249999999999987
 40
0.6562499999999988
 40
0.6562499999999988
 40
0.6874999999999989
 40
0.6874999999999989
 40
0.718749999999999
 40
0.718749999999999
 40
0.7499999999999991
 40
0.7499999999999991
 40
0.7812499999999992
 40
0.7812499999999992
 40
0.8124999999999993
 40
0.8124999999999993
 40
0.8437499999999994
 40
0.8437499999999994
 40
0.8749999999999996
 40
0.8749999999999996
 40
0.9062499999999997
 40
0.9062499999999997
 40
0.9374999999999998
 40
0.9374999999999998
 40
0.9687499999999999
 40
0.9687499999999999
 40
1.0
 40
1.0
 40
1.0
 40
1.0
 10
213.4970406211216
 20
76.13865678000474
 30
0.0
 10
213.4035097196727
 20
76.1926510201115
 30
0.0
 10
213.3202855946696
 20
76.24717373548594
 30
0.0
 10
213.1735245191723
 20
76.35706179979952
 30
0.0
 10
213.1094626360943
 20
76.41303703373869
 30
0.0
 10
213.0053305463734
 20
76.52200406814394
 30
0.0
 10
212.9651030883308
 20
76.57485576660292
 30
0.0
 10
212.9078322112208
 20
76.67661381875465
 30
0.0
 10
212.8910289872038
 20
76.72568469235769
 30
0.0
 10
212.8821851002938
 20
76.81478736816558
 30
0.0
 10
212.8897092331166
 20
76.85539763370497
 30
0.0
 10
212.928995613872
 20
76.92767707960257
 30
0.0
 10
212.9606018797787
 20
76.95864061094017
 30
0.0
 10
213.0453854384834
 20
77.0083911431803
 30
0.0
 10
213.0991985277285
 20
77.02753969955447
 30
0.0
 10
213.2275797969728
 20
77.05257676132085
 30
0.0
 10
213.3009101417437
 20
77.05835884056361
 30
0.0
 10
213.465350342604
 20
77.0566096601319
 30
0.0
 10
213.5575925605093
 20
77.04884861637895
 30
0.0
 10
213.7533343658733
 20
77.02039810953836
 30
0.0
 10
213.8571457458539
 20
76.99984620386945
 30
0.0
 10
214.0769117248831
 20
76.9464800383068
 30
0.0
 10
214.1925414411892
 20
76.91362767657381
 30
0.0
 10
214.4263775113336
 20
76.83907487936227
 30
0.0
 10
214.5458924486916
 20
76.79705624410163
 30
0.0
 10
214.7899533815876
 20
76.70426934786711
 30
0.0
 10
214.910698923731
 20
76.65496233879166
 30
0.0
 10
215.1500671218565
 20
76.55156966473503
 30
0.0
 10
215.2699740627014
 20
76.49685004810725
 30
0.0
 10
215.5006113931846
 20
76.38649965214539
 30
0.0
 10
215.6111203448965
 20
76.33105325064885
 30
0.0
 10
215.822761552935
 20
76.22010627169004
 30
0.0
 10
215.9242900615944
 20
76.164317587702
 30
0.0
 10
216.1090210963601
 20
76.057695864736
 30
0.0
 10
216.1934326650008
 20
76.00625699463633
 30
0.0
 10
216.3458882318403
 20
75.90704078129426
 30
0.0
 10
216.4124834980098
 20
75.86014672614508
 30
0.0
 10
216.5237504982228
 20
75.7733061833186
 30
0.0
 10
216.5692590310707
 20
75.73269463126692
 30
0.0
 10
216.6368242139498
 20
75.65865125433882
 30
0.0
 10
216.6585929055204
 20
75.62568586581922
 30
0.0
 10
216.6783734949108
 20
75.56681546276698
 30
0.0
 10
216.6760855065933
 20
75.54073992976254
 30
0.0
 10
216.6469582907211
 20
75.49700099730778
 30
0.0
 10
216.6204241091995
 20
75.47907112721033
 30
0.0
 10
216.542863298319
 20
75.4504580447213
 30
0.0
 10
216.4916767312484
 20
75.43993115332661
 30
0.0
 10
216.3687598656284
 20
75.4266689045803
 30
0.0
 10
216.2966254062041
 20
75.42375853994301
 30
0.0
 10
216.1301584892691
 20
75.42553758985773
 30
0.0
 10
216.0385952929094
 20
75.43019489672423
 30
0.0
 10
215.8395492185254
 20
75.44689902820245
 30
0.0
 10
215.7307502242679
 20
75.4591439551029
 30
0.0
 10
215.5035285831713
 20
75.49099386384216
 30
0.0
 10
215.385535820813
 20
75.51046142300372
 30
0.0
 10
215.141072813848
 20
75.5571422611187
 30
0.0
 10
215.0139783243715
 20
75.58457908010271
 30
0.0
 10
214.76225010416
 20
75.64586671585258
 30
0.0
 10
214.63631472461
 20
75.67992855898383
 30
0.0
 10
214.3845464282186
 20
75.75596991594571
 30
0.0
 10
214.2610628003408
 20
75.79730582840294
 30
0.0
 10
214.0242043850392
 20
75.88540180499248
 30
0.0
 10
213.9092376424353
 20
75.93275624927779
 30
0.0
 10
213.6917593344344
 20
76.03272807291295
 30
0.0
 10
213.5905715225705
 20
76.08466253989799
 30
0.0
 10
213.4970406211216
 20
76.13865678000474
 30
0.0
  0
LINE
  5
23E
330
1F
100
AcDbEntity
  8
0
  6
Continuous
 62
     7
370
    25
100
AcDbLine
 10
204.0148912028
 20
57.5000863045
 30
0.0
 11
203.5512633568
 21
57.767732963
 31
0.0
  0
LINE
  5
23F
330
1F
100
AcDbEntity
  8
0
  6
Continuous
 62
     7
370
    25
100
AcDbLine
 10
203.1254451853
 20
58.4158779504
 30
0.0
 11
202.8802763089
 21
58.2743449708
 31
0.0
  0
SPLINE
  5
240
330
1F
100
AcDbEntity
  8
0
  6
Continuous
 62
     7
370
    25
100
AcDbSpline
210
0.0
220
0.0
230
1.0
 70
     8
 71
     3
 72
    14
 73
    10
 74
     0
 42
0.000000001
 43
0.00000001
 40
0.0
 40
0.0
 40
0.0
 40
0.0
 40
0.1249999999999991
 40
0.1249999999999991
 40
0.2499999999999982
 40
0.2499999999999982
 40
0.4999999999999998
 40
0.4999999999999998
 40
1.0
 40
1.0
 40
1.0
 40
1.0
 10
203.5512631111185
 20
57.76773303080436
 30
0.0
 10
203.5270666779533
 20
57.78170133434691
 30
0.0
 10
203.5038912394944
 20
57.80906651034445
 30
0.0
 10
203.4669708470635
 20
57.86686827946998
 30
0.0
 10
203.4519290560309
 20
57.89783875858635
 30
0.0
 10
203.412115599444
 20
57.99086523151555
 30
0.0
 10
203.3924795810599
 20
58.05347628580032
 30
0.0
 10
203.3420587325904
 20
58.23780703671531
 30
0.0
 10
203.3196415543499
 20
58.35935127161599
 30
0.0
 10
203.302953656184
 20
58.47848033691835
 30
0.0
  0
SPLINE
  5
241
330
1F
100
AcDbEntity
  8
0
  6
Continuous
 62
     7
370
    25
100
AcDbSpline
210
0.0
220
0.0
230
1.0
 70
     8
 71
     3
 72
    10
 73
     6
 74
     0
 42
0.000000001
 43
0.00000001
 40
0.0
 40
0.0
 40
0.0
 40
0.0
 40
0.5
 40
0.5
 40
1.0
 40
1.0
 40
1.0
 40
1.0
 10
203.302953656184
 20
58.47848033691835
 30
0.0
 10
203.2695636379962
 20
58.47233056771812
 30
0.0
 10
203.2373242865681
 20
58.46378395987004
 30
0.0
 10
203.1773363923058
 20
58.44254798610113
 30
0.0
 10
203.1500745190567
 20
58.43009634009294
 30
0.0
 10
203.1254449531069
 20
58.41587799431608
 30
0.0
  0
LWPOLYLINE
  5
242
330
1F
100
AcDbEntity
  8
0
  6
Continuous
 62
     7
370
    25
100
AcDbPolyline
 90
       21
 70
   128
 43
0.0
 10
195.8826903684
 20
57.128294377
 10
195.9431184124
 20
58.4946661863
 10
196.1237407074
 20
59.9158365098
 10
196.4225789855
 20
61.3762354359
 10
196.8363583049
 20
62.8598616116
 10
197.3605459038
 20
64.3504603778
 10
197.989397957
 20
65.8317009527
 10
198.7160247719
 20
67.2873538036
 10
199.5324658624
 20
68.7014712495
 10
200.4297755599
 20
70.0585589381
 10
201.398123112
 20
71.3437492214
 10
202.4268983789
 20
72.5429610331
 10
203.5048307007
 20
73.6430552026
 10
204.6201099046
 20
74.6319795961
 10
205.7605163682
 20
75.4988981938
 10
206.9135558557
 20
76.2343137964
 10
208.0665953432
 20
76.8301692491
 10
209.2070018067
 20
77.2799359279
 10
210.3222810107
 20
77.5786854943
 10
211.4002133324
 20
77.7231454924
 10
212.292611605
 20
77.7224400775
  0
ARC
  5
243
330
1F
100
AcDbEntity
  8
0
  6
Continuous
 62
     7
370
    25
100
AcDbCircle
 10
205.7095073952
 20
56.7802482253
 30
0.0
 40
9.832978643474856
100
AcDbArc
 50
177.9715462981
 51
210.1422546287
  0
LINE
  5
244
330
1F
100
AcDbEntity
  8
0
  6
Continuous
 62
     7
370
    25
100
AcDbLine
 10
202.1582629276
 20
51.7904291383
 30
0.0
 11
203.3029538817
 21
51.1296131163
 31
0.0
  0
ARC
  5
245
330
1F
100
AcDbEntity
  8
0
  6
Continuous
 62
     7
370
    25
100
AcDbCircle
 10
205.4706989578
 20
56.9688514706
 30
0.0
 40
6.147218094902083
100
AcDbArc
 50
182.6054747885
 51
237.394528727
  0
LINE
  5
246
330
1F
100
AcDbEntity
  8
0
  6
Continuous
 62
     7
370
    25
100
AcDbLine
 10
199.3298356685
 20
57.5059493601
 30
0.0
 11
199.3298356685
 21
56.6894085094
 31
0.0
  0
ARC
  5
247
330
1F
100
AcDbEntity
  8
0
  6
Continuous
 62
     7
370
    25
100
AcDbCircle
 10
201.8867898213
 20
57.5982844571
 30
0.0
 40
2.558620782671509
100
AcDbArc
 50
154.7300572726
 51
182.0681299793
  0
LINE
  5
248
330
1F
100
AcDbEntity
  8
0
  6
Continuous
 62
     7
370
    25
100
AcDbLine
 10
206.7544567709
 20
49.1371029102
 30
0.0
 11
206.7544567709
 21
50.4041234413
 31
0.0
  0
LINE
  5
249
330
1F
100
AcDbEntity
  8
0
  6
Continuous
 62
     7
370
    25
100
AcDbLine
 10
204.5844610794
 20
50.3898147581
 30
0.0
 11
206.7544567709
 21
49.1371029102
 31
0.0
  0
SPLINE
  5
24A
330
1F
100
AcDbEntity
  8
0
  6
Continuous
 62
     7
370
    25
100
AcDbSpline
210
0.0
220
0.0
230
1.0
 70
     8
 71
     3
 72
    14
 73
    10
 74
     0
 42
0.000000001
 43
0.00000001
 40
0.0
 40
0.0
 40
0.0
 40
0.0
 40
0.1249999999999997
 40
0.1249999999999997
 40
0.2499999999999993
 40
0.2499999999999993
 40
0.4999999999999996
 40
0.4999999999999996
 40
1.0
 40
1.0
 40
1.0
 40
1.0
 10
204.3361516382356
 20
51.10056183974246
 30
0.0
 10
204.3605809868793
 20
51.08645907695615
 30
0.0
 10
204.3835595409454
 20
51.05917694709647
 30
0.0
 10
204.4204426544372
 20
51.00142354358998
 30
0.0
 10
204.4355678007541
 20
50.97027596191938
 30
0.0
 10
204.4752851612133
 20
50.8774388603634
 30
0.0
 10
204.4947472791024
 20
50.81548839054663
 30
0.0
 10
204.5456154002964
 20
50.62957368504913
 30
0.0
 10
204.5678996277115
 20
50.50804104007585
 30
0.0
 10
204.5844610931701
 20
50.3898145336283
 30
0.0
  0
LINE
  5
24B
330
1F
100
AcDbEntity
  8
0
  6
Continuous
 62
     7
370
    25
100
AcDbLine
 10
203.5512633568
 20
51.5536682427
 30
0.0
 11
204.3361516043
 21
51.1005619021
 31
0.0
  0
SPLINE
  5
24C
330
1F
100
AcDbEntity
  8
0
  6
Continuous
 62
     7
370
    25
100
AcDbSpline
210
0.0
220
0.0
230
1.0
 70
     8
 71
     3
 72
    14
 73
    10
 74
     0
 42
0.000000001
 43
0.00000001
 40
0.0
 40
0.0
 40
0.0
 40
0.0
 40
0.4999999999999968
 40
0.4999999999999968
 40
0.7499999999999967
 40
0.7499999999999967
 40
0.8749999999999983
 40
0.8749999999999983
 40
1.0
 40
1.0
 40
1.0
 40
1.0
 10
203.3029536561839
 20
51.12961302994636
 30
0.0
 10
203.3195777376377
 20
51.22909277417648
 30
0.0
 10
203.341995139242
 20
51.32492790757247
 30
0.0
 10
203.3924261970907
 20
51.45114385714611
 30
0.0
 10
203.4119608910219
 20
51.49097740584035
 30
0.0
 10
203.4519040483574
 20
51.53823773731222
 30
0.0
 10
203.466921015523
 20
51.55184035091747
 30
0.0
 10
203.5039823830447
 20
51.56706075249318
 30
0.0
 10
203.5269660453931
 20
51.56769473928707
 30
0.0
 10
203.5512631111185
 20
51.55366834180404
 30
0.0
  0
LINE
  5
24D
330
1F
100
AcDbEntity
  8
0
  6
Continuous
 62
     7
370
    25
100
AcDbLine
 10
205.6371299874
 20
48.4920838877
 30
0.0
 11
206.7544567709
 21
49.1371029102
 31
0.0
  0
LWPOLYLINE
  5
24E
330
1F
100
AcDbEntity
  8
0
  6
Continuous
 62
     7
370
    25
100
AcDbPolyline
 90
       11
 70
   128
 43
0.0
 10
212.6987521374
 20
44.1620202161
 10
212.0905612596
 20
44.0421576099
 10
211.0256826071
 20
43.9454694261
 10
210.0130199486
 20
44.0035510737
 10
209.0634758178
 20
44.2157785203
 10
208.1872711547
 20
44.579865806
 10
207.3938396093
 20
45.0918945209
 10
206.6917218454
 20
45.7463516486
 10
206.0884772954
 20
46.5361923118
 10
205.5905992081
 20
47.452913546
 10
205.2684412105
 20
48.2812308306
  0
SPLINE
  5
24F
330
1F
100
AcDbEntity
  8
0
  6
Continuous
 62
     7
370
    25
100
AcDbSpline
210
0.0
220
0.0
230
1.0
 70
     8
 71
     3
 72
    12
 73
     8
 74
     0
 42
0.000000001
 43
0.00000001
 40
0.0
 40
0.0
 40
0.0
 40
0.0
 40
0.2499999999999962
 40
0.2499999999999962
 40
0.4999999999999925
 40
0.4999999999999925
 40
1.0
 40
1.0
 40
1.0
 40
1.0
 10
205.2034472041317
 20
48.48664629480793
 30
0.0
 10
205.2316894042041
 20
48.47034241974391
 30
0.0
 10
205.2662355361095
 20
48.45738662633391
 30
0.0
 10
205.3409595958072
 20
48.44067488814137
 30
0.0
 10
205.3812499871089
 20
48.43678797935392
 30
0.0
 10
205.5023630045452
 20
48.43905137724322
 30
0.0
 10
205.5804805669631
 20
48.45938058866997
 30
0.0
 10
205.6371300396987
 20
48.49208363317632
 30
0.0
  0
ARC
  5
250
330
1F
100
AcDbEntity
  8
0
  6
Continuous
 62
     7
370
    25
100
AcDbCircle
 10
209.990683299
 20
50.9133929898
 30
0.0
 40
6.394931515601122
100
AcDbArc
 50
194.6641757708
 51
238.0052799592
  0
LINE
  5
251
330
1F
100
AcDbEntity
  8
0
  6
Continuous
 62
     7
370
    25
100
AcDbLine
 10
203.8040588371
 20
49.2944961876
 30
0.0
 11
205.2034474773
 21
48.4866463212
 31
0.0
  0
SPLINE
  5
252
330
1F
100
AcDbEntity
  8
0
  6
Continuous
 62
     7
370
    25
100
AcDbSpline
210
0.0
220
0.0
230
1.0
 70
     8
 71
     3
 72
     8
 73
     4
 74
     0
 42
0.000000001
 43
0.00000001
 40
0.0
 40
0.0
 40
0.0
 40
0.0
 40
1.0
 40
1.0
 40
1.0
 40
1.0
 10
204.230850300807
 20
50.14580811786391
 30
0.0
 10
204.0876856041165
 20
49.86218607085691
 30
0.0
 10
203.945496907264
 20
49.57840292487289
 30
0.0
 10
203.8040591365088
 20
49.2944958306858
 30
0.0
  0
LINE
  5
253
330
1F
100
AcDbEntity
  8
0
  6
Continuous
 62
     7
370
    25
100
AcDbLine
 10
204.4760192138
 20
50.2873411689
 30
0.0
 11
204.2308503375
 21
50.1458081892
 31
0.0
  0
SPLINE
  5
254
330
1F
100
AcDbEntity
  8
0
  6
Continuous
 62
     7
370
    25
100
AcDbSpline
210
0.0
220
0.0
230
1.0
 70
     8
 71
     3
 72
    10
 73
     6
 74
     0
 42
0.000000001
 43
0.00000001
 40
0.0
 40
0.0
 40
0.0
 40
0.0
 40
0.5
 40
0.5
 40
1.0
 40
1.0
 40
1.0
 40
1.0
 10
204.5844610931701
 20
50.3898145336283
 30
0.0
 10
204.5738082262001
 20
50.37053888642218
 30
0.0
 10
204.559003463048
 20
50.35192750499714
 30
0.0
 10
204.5222176917171
 20
50.31729723076563
 30
0.0
 10
204.5006484711231
 20
50.30155928633053
 30
0.0
 10
204.4760189051732
 20
50.28734094055368
 30
0.0
  0
SPLINE
  5
255
330
1F
100
AcDbEntity
  8
0
  6
Continuous
 62
     7
370
    25
100
AcDbSpline
210
0.0
220
0.0
230
1.0
 70
     8
 71
     3
 72
    14
 73
    10
 74
     0
 42
0.000000001
 43
0.00000001
 40
0.0
 40
0.0
 40
0.0
 40
0.0
 40
0.500000000000001
 40
0.500000000000001
 40
0.7500000000000004
 40
0.7500000000000004
 40
0.8750000000000003
 40
0.8750000000000003
 40
1.0
 40
1.0
 40
1.0
 40
1.0
 10
188.6631518364914
 20
61.7848738807651
 30
0.0
 10
188.9783177803312
 20
61.55778588986924
 30
0.0
 10
189.2945934355972
 20
61.32793951482111
 30
0.0
 10
189.7734179241682
 20
60.97263091283199
 30
0.0
 10
189.9337379345922
 20
60.85249259863645
 30
0.0
 10
190.176790470546
 20
60.66622376439264
 30
0.0
 10
190.2582339085625
 20
60.60313052316562
 30
0.0
 10
190.422895357596
 20
60.47278528075348
 30
0.0
 10
190.5058013756622
 20
60.40626083877623
 30
0.0
 10
190.5918202037469
 20
60.33246736745268
 30
0.0
  0
SPLINE
  5
256
330
1F
100
AcDbEntity
  8
0
  6
Continuous
 62
     7
370
    25
100
AcDbSpline
210
0.0
220
0.0
230
1.0
 70
     8
 71
     3
 72
     8
 73
     4
 74
     0
 42
0.000000001
 43
0.00000001
 40
0.0
 40
0.0
 40
0.0
 40
0.0
 40
1.0
 40
1.0
 40
1.0
 40
1.0
 10
190.5918202037469
 20
60.33246736745268
 30
0.0
 10
190.8934726769844
 20
60.07368700937085
 30
0.0
 10
191.1987522205078
 20
59.82611199396619
 30
0.0
 10
191.5034117936345
 20
59.58513913739966
 30
0.0
  0
SPLINE
  5
257
330
1F
100
AcDbEntity
  8
0
  6
Continuous
 62
     7
370
    25
100
AcDbSpline
210
0.0
220
0.0
230
1.0
 70
     8
 71
     3
 72
    14
 73
    10
 74
     0
 42
0.000000001
 43
0.00000001
 40
0.0
 40
0.0
 40
0.0
 40
0.0
 40
0.1249999999999988
 40
0.1249999999999988
 40
0.2499999999999976
 40
0.2499999999999976
 40
0.4999999999999982
 40
0.4999999999999982
 40
1.0
 40
1.0
 40
1.0
 40
1.0
 10
191.5034117936345
 20
59.58513913739962
 30
0.0
 10
191.52260716956
 20
59.56995640566341
 30
0.0
 10
191.5402192429604
 20
59.55858858716663
 30
0.0
 10
191.5660641728797
 20
59.54732011795418
 30
0.0
 10
191.5742025371274
 20
59.54693664771713
 30
0.0
 10
191.5911526280954
 20
59.55271244041152
 30
0.0
 10
191.5933219006052
 20
59.56537786602955
 30
0.0
 10
191.5921463527906
 20
59.60981469307332
 30
0.0
 10
191.5800728321864
 20
59.65029796384676
 30
0.0
 10
191.5652946041463
 20
59.69430163372926
 30
0.0
  0
SPLINE
  5
258
330
1F
100
AcDbEntity
  8
0
  6
Continuous
 62
     7
370
    25
100
AcDbSpline
210
0.0
220
0.0
230
1.0
 70
     8
 71
     3
 72
    14
 73
    10
 74
     0
 42
0.000000001
 43
0.00000001
 40
0.0
 40
0.0
 40
0.0
 40
0.0
 40
0.25
 40
0.25
 40
0.5
 40
0.5
 40
0.75
 40
0.75
 40
1.0
 40
1.0
 40
1.0
 40
1.0
 10
191.5652946041456
 20
59.69430163372996
 30
0.0
 10
191.5472383571991
 20
59.74806593671673
 30
0.0
 10
191.5443155590979
 20
59.79261654581379
 30
0.0
 10
191.5389018305546
 20
59.88487789565851
 30
0.0
 10
191.5373345525134
 20
59.93217229857875
 30
0.0
 10
191.5271961527063
 20
60.03693335340653
 30
0.0
 10
191.5188811549621
 20
60.09419456044154
 30
0.0
 10
191.4900809803033
 20
60.22381591781596
 30
0.0
 10
191.4694275836327
 20
60.29661011742901
 30
0.0
 10
191.4407380664716
 20
60.37629681638877
 30
0.0
  0
ARC
  5
259
330
1F
100
AcDbEntity
  8
0
  6
Continuous
 62
     7
370
    25
100
AcDbCircle
 10
201.7957083948
 20
63.462858283
 30
0.0
 40
10.80519673566306
100
AcDbArc
 50
163.4019784234
 51
196.5980215766
  0
SPLINE
  5
25A
330
1F
100
AcDbEntity
  8
0
  6
Continuous
 62
     7
370
    25
100
AcDbSpline
210
0.0
220
0.0
230
1.0
 70
     8
 71
     3
 72
    14
 73
    10
 74
     0
 42
0.000000001
 43
0.00000001
 40
0.0
 40
0.0
 40
0.0
 40
0.0
 40
0.25
 40
0.25
 40
0.5
 40
0.5
 40
0.75
 40
0.75
 40
1.0
 40
1.0
 40
1.0
 40
1.0
 10
191.5652946041456
 20
68.01062482865295
 30
0.0
 10
191.5472383571991
 20
67.88978274970839
 30
0.0
 10
191.5443155590979
 20
67.7646884831423
 30
0.0
 10
191.5389018305546
 20
67.51673717249093
 30
0.0
 10
191.5373345525134
 20
67.39282854817718
 30
0.0
 10
191.5271961527063
 20
67.14667280893697
 30
0.0
 10
191.5188811549621
 20
67.02438486707555
 30
0.0
 10
191.4900809803033
 20
66.78238768986677
 30
0.0
 10
191.4694275836327
 20
66.66223072268718
 30
0.0
 10
191.4407380664716
 20
66.54941981228191
 30
0.0
  0
SPLINE
  5
25B
330
1F
100
AcDbEntity
  8
0
  6
Continuous
 62
     7
370
    25
100
AcDbSpline
210
0.0
220
0.0
230
1.0
 70
     8
 71
     3
 72
    14
 73
    10
 74
     0
 42
0.000000001
 43
0.00000001
 40
0.0
 40
0.0
 40
0.0
 40
0.0
 40
0.1249999999999975
 40
0.1249999999999975
 40
0.249999999999995
 40
0.249999999999995
 40
0.4999999999999953
 40
0.4999999999999953
 40
1.0
 40
1.0
 40
1.0
 40
1.0
 10
191.5034117936346
 20
68.55591039294698
 30
0.0
 10
191.5226071695601
 20
68.55362358497315
 30
0.0
 10
191.5402192429605
 20
68.54212534570034
 30
0.0
 10
191.5660641728797
 20
68.50543384317382
 30
0.0
 10
191.5742025371274
 20
68.48235242807174
 30
0.0
 10
191.5911526280954
 20
68.41101990899465
 30
0.0
 10
191.5933219006052
 20
68.35977580338657
 30
0.0
 10
191.5921463527906
 20
68.20974032362498
 30
0.0
 10
191.5800728321864
 20
68.1095286487419
 30
0.0
 10
191.5652946041463
 20
68.01062482865328
 30
0.0
  0
SPLINE
  5
25C
330
1F
100
AcDbEntity
  8
0
  6
Continuous
 62
     7
370
    25
100
AcDbSpline
210
0.0
220
0.0
230
1.0
 70
     8
 71
     3
 72
     8
 73
     4
 74
     0
 42
0.000000001
 43
0.00000001
 40
0.0
 40
0.0
 40
0.0
 40
0.0
 40
1.0
 40
1.0
 40
1.0
 40
1.0
 10
190.5918202037469
 20
68.60812320408306
 30
0.0
 10
190.8934726769844
 20
68.61546945122616
 30
0.0
 10
191.1987522205079
 20
68.59220548525622
 30
0.0
 10
191.5034117936346
 20
68.55591039294697
 30
0.0
  0
SPLINE
  5
25D
330
1F
100
AcDbEntity
  8
0
  6
Continuous
 62
     7
370
    25
100
AcDbSpline
210
0.0
220
0.0
230
1.0
 70
     8
 71
     3
 72
    14
 73
    10
 74
     0
 42
0.000000001
 43
0.00000001
 40
0.0
 40
0.0
 40
0.0
 40
0.0
 40
0.500000000000001
 40
0.500000000000001
 40
0.7500000000000004
 40
0.7500000000000004
 40
0.8750000000000003
 40
0.8750000000000003
 40
1.0
 40
1.0
 40
1.0
 40
1.0
 10
188.6631518364914
 20
69.24076254906805
 30
0.0
 10
188.9783177803312
 20
69.10337805534192
 30
0.0
 10
189.2945934355972
 20
68.97180454771076
 30
0.0
 10
189.7734179241682
 20
68.79690908119001
 30
0.0
 10
189.9337379345922
 20
68.74223793092548
 30
0.0
 10
190.176790470546
 20
68.67320611520545
 30
0.0
 10
190.2582339085625
 20
68.65234383069665
 30
0.0
 10
190.422895357596
 20
68.61953611726702
 30
0.0
 10
190.5058013756622
 20
68.60602835777436
 30
0.0
 10
190.5918202037469
 20
68.60812320408306
 30
0.0
  0
SPLINE
  5
25E
330
1F
100
AcDbEntity
  8
0
  6
Continuous
 62
     7
370
    25
100
AcDbSpline
210
0.0
220
0.0
230
1.0
 70
     8
 71
     3
 72
     8
 73
     4
 74
     0
 42
0.000000001
 43
0.00000001
 40
0.0000005163856712
 40
0.0000005163856712
 40
0.0000005163856712
 40
0.0000005163856712
 40
0.000026289209185
 40
0.000026289209185
 40
0.000026289209185
 40
0.000026289209185
 10
188.6631302494721
 20
69.2536416602735
 30
0.0
 10
188.6631279483128
 20
69.24934882524222
 30
0.0
 10
188.6631351946371
 20
69.24505575756193
 30
0.0
 10
188.6631518364914
 20
69.24076254906805
 30
0.0
  0
SPLINE
  5
25F
330
1F
100
AcDbEntity
  8
0
  6
Continuous
 62
     7
370
    25
100
AcDbSpline
210
0.0
220
0.0
230
1.0
 70
     8
 71
     3
 72
     8
 73
     4
 74
     0
 42
0.000000001
 43
0.00000001
 40
0.0000005163856716
 40
0.0000005163856716
 40
0.0000005163856716
 40
0.0000005163856716
 40
0.0000262892091854
 40
0.0000262892091854
 40
0.0000262892091854
 40
0.0000262892091854
 10
188.6631302494721
 20
61.78017060839423
 30
0.0
 10
188.6631279483128
 20
61.78174399409369
 30
0.0
 10
188.6631351946371
 20
61.78331172402761
 30
0.0
 10
188.6631518364914
 20
61.78487388076511
 30
0.0
  0
SPLINE
  5
260
330
1F
100
AcDbEntity
  8
0
  6
Continuous
 62
     7
370
    25
100
AcDbSpline
210
0.0
220
0.0
230
1.0
 70
     8
 71
     3
 72
    18
 73
    14
 74
     0
 42
0.000000001
 43
0.00000001
 40
0.0
 40
0.0
 40
0.0
 40
0.0
 40
0.1234563368639667
 40
0.2475868750327803
 40
0.3716947448719001
 40
0.4950964488176596
 40
0.6174454062763006
 40
0.6789881750435501
 40
0.7397347060341946
 40
0.8003941378376358
 40
0.8623267901847362
 40
0.9851097780813752
 40
1.0
 40
1.0
 40
1.0
 40
1.0
 10
194.3519988192686
 20
59.90719951207221
 30
0.0
 10
194.2189519456986
 20
60.15213426598874
 30
0.0
 10
193.9521316228473
 20
60.64334137491126
 30
0.0
 10
193.8274362037489
 20
61.39536242489812
 30
0.0
 10
193.9632628341499
 20
62.02004947821575
 30
0.0
 10
194.3303384121604
 20
62.43691461475182
 30
0.0
 10
194.7729792723643
 20
62.53089823511776
 30
0.0
 10
195.1492024713067
 20
62.44895389715593
 30
0.0
 10
195.4314325526269
 20
62.30668111153767
 30
0.0
 10
195.7037875837175
 20
62.08998416317431
 30
0.0
 10
196.030169681519
 20
61.71223570993767
 30
0.0
 10
196.2850443723587
 20
61.32974292940857
 30
0.0
 10
196.3767024711055
 20
61.03501577576505
 30
0.0
 10
196.386615869891
 20
61.00313918387702
 30
0.0
  0
SPLINE
  5
261
330
1F
100
AcDbEntity
  8
0
  6
Continuous
 62
     7
370
    25
100
AcDbSpline
210
0.0
220
0.0
230
1.0
 70
     8
 71
     3
 72
    13
 73
     9
 74
     0
 42
0.000000001
 43
0.00000001
 40
0.0
 40
0.0
 40
0.0
 40
0.0
 40
0.0517689636290026
 40
0.2111221383550463
 40
0.367848507693989
 40
0.5246918827842204
 40
0.6837993343521848
 40
1.0
 40
1.0
 40
1.0
 40
1.0
 10
196.0069154055647
 20
58.58015273519538
 30
0.0
 10
195.9851900055343
 20
58.57576340007547
 30
0.0
 10
195.8965903390641
 20
58.55786298732794
 30
0.0
 10
195.6911824704741
 20
58.64401487485427
 30
0.0
 10
195.4236530520591
 20
58.78092439089281
 30
0.0
 10
195.1406647859029
 20
58.99189886135019
 30
0.0
 10
194.7609906307891
 20
59.3399241717867
 30
0.0
 10
194.5153873827908
 20
59.68057809726628
 30
0.0
 10
194.3519988192686
 20
59.90719951207221
 30
0.0
  0
ARC
  5
262
330
1F
100
AcDbEntity
  8
0
  6
Continuous
 62
     7
370
    25
100
AcDbCircle
 10
209.0515256695
 20
52.9192578584
 30
0.0
 40
6.485327815417
100
AcDbArc
 50
197.9043770853
 51
217.5646516782
  0
SPLINE
  5
263
330
1F
100
AcDbEntity
  8
0
  6
Continuous
 62
     7
370
    25
100
AcDbSpline
210
0.0
220
0.0
230
1.0
 70
     8
 71
     3
 72
     8
 73
     4
 74
     0
 42
0.000000001
 43
0.00000001
 40
0.0
 40
0.0
 40
0.0
 40
0.0
 40
1.0
 40
1.0
 40
1.0
 40
1.0
 10
201.4056004300336
 20
50.67909656987852
 30
0.0
 10
201.8973952287855
 20
50.76074685696027
 30
0.0
 10
202.3889753196882
 20
50.84283064445071
 30
0.0
 10
202.8802763487407
 20
50.9254778646546
 30
0.0
  0
SPLINE
  5
264
330
1F
100
AcDbEntity
  8
0
  6
Continuous
 62
     7
370
    25
100
AcDbSpline
210
0.0
220
0.0
230
1.0
 70
     8
 71
     3
 72
    10
 73
     6
 74
     0
 42
0.000000001
 43
0.00000001
 40
0.0
 40
0.0
 40
0.0
 40
0.0
 40
0.5
 40
0.5
 40
1.0
 40
1.0
 40
1.0
 40
1.0
 10
203.1254449531069
 20
51.06701068734437
 30
0.0
 10
203.1502772564589
 20
51.08134607093221
 30
0.0
 10
203.1779522539523
 20
51.0939415110683
 30
0.0
 10
203.2380772634068
 20
51.11513940920857
 30
0.0
 10
203.2697716636015
 20
51.12350157487523
 30
0.0
 10
203.3029536561832
 20
51.12961302994648
 30
0.0
  0
LINE
  5
265
330
1F
100
AcDbEntity
  8
0
  6
Continuous
 62
     7
370
    25
100
AcDbLine
 10
202.8802763089
 20
50.9254779801
 30
0.0
 11
203.1254451853
 21
51.0670109598
 31
0.0
  0
SPLINE
  5
266
330
1F
100
AcDbEntity
  8
0
  6
Continuous
 62
     7
370
    25
100
AcDbSpline
210
0.0
220
0.0
230
1.0
 70
     8
 71
     3
 72
    12
 73
     8
 74
     0
 42
0.000000001
 43
0.00000001
 40
0.0
 40
0.0
 40
0.0
 40
0.0
 40
0.0817093131319858
 40
0.3407517811651223
 40
0.5989469881585451
 40
0.8606927527522742
 40
1.0
 40
1.0
 40
1.0
 40
1.0
 10
195.370920284716
 20
62.22638700944424
 30
0.0
 10
195.3574264686036
 20
62.17987182264678
 30
0.0
 10
195.3011533009714
 20
61.98588986214665
 30
0.0
 10
195.3793060107624
 20
61.55255507605341
 30
0.0
 10
195.6027462189289
 20
61.00460973565148
 30
0.0
 10
195.9046436840586
 20
60.54839743123051
 30
0.0
 10
196.1302908509706
 20
60.33470240171203
 30
0.0
 10
196.2086702291167
 20
60.26047464270319
 30
0.0
  0
LINE
  5
267
330
1F
100
AcDbEntity
  8
0
  6
Continuous
 62
     7
370
    25
100
AcDbLine
 10
223.1241985607
 20
72.2263768008
 30
0.0
 11
224.5235872009
 21
71.4185269344
 31
0.0
  0
SPLINE
  5
268
330
1F
100
AcDbEntity
  8
0
  6
Continuous
 62
     7
370
    25
100
AcDbSpline
210
0.0
220
0.0
230
1.0
 70
     8
 71
     3
 72
    12
 73
     8
 74
     0
 42
0.000000001
 43
0.00000001
 40
0.0
 40
0.0
 40
0.0
 40
0.0
 40
0.25
 40
0.25
 40
0.5
 40
0.5
 40
1.0
 40
1.0
 40
1.0
 40
1.0
 10
224.5235869667987
 20
71.41852678702278
 30
0.0
 10
224.5558309376713
 20
71.39991273884917
 30
0.0
 10
224.5778839402049
 20
71.37566241605175
 30
0.0
 10
224.5987328843699
 20
71.32507455816422
 30
0.0
 10
224.5983517151426
 20
71.29823598973016
 30
0.0
 10
224.5725987822453
 20
71.22100187346133
 30
0.0
 10
224.5246473551367
 20
71.1742165026335
 30
0.0
 10
224.4607473060014
 20
71.13732778946604
 30
0.0
  0
SPLINE
  5
269
330
1F
100
AcDbEntity
  8
0
  6
Continuous
 62
     7
370
    25
100
AcDbSpline
210
0.0
220
0.0
230
1.0
 70
     8
 71
     3
 72
    12
 73
     8
 74
     0
 42
0.000000001
 43
0.00000001
 40
0.0
 40
0.0
 40
0.0
 40
0.0
 40
0.1909064508554006
 40
0.3669933875138182
 40
0.6739340139147095
 40
0.9485652561690476
 40
1.0
 40
1.0
 40
1.0
 40
1.0
 10
194.6432681160655
 20
60.09012267033351
 30
0.0
 10
194.7228254627106
 20
59.97571224618973
 30
0.0
 10
194.875764349878
 20
59.75577274736565
 30
0.0
 10
195.2005604261898
 20
59.40200427777789
 30
0.0
 10
195.5854747227922
 20
59.09740685657751
 30
0.0
 10
195.8853487010615
 20
58.93022967952598
 30
0.0
 10
196.0148181115447
 20
58.91379639759247
 30
0.0
 10
196.0352410512143
 20
58.9112041565044
 30
0.0
  0
SPLINE
  5
26A
330
1F
100
AcDbEntity
  8
0
  6
Continuous
 62
     7
370
    25
100
AcDbSpline
210
0.0
220
0.0
230
1.0
 70
     8
 71
     3
 72
    17
 73
    13
 74
     0
 42
0.000000001
 43
0.00000001
 40
0.0
 40
0.0
 40
0.0
 40
0.0
 40
0.0289239068634251
 40
0.1765371729176248
 40
0.2609432664131565
 40
0.3522926748391977
 40
0.456101688947114
 40
0.5447533116951316
 40
0.6761050603926275
 40
0.8084232836761591
 40
0.8968641817621691
 40
1.0
 40
1.0
 40
1.0
 40
1.0
 10
195.6865698870152
 20
62.08848719782358
 30
0.0
 10
195.6593096128937
 20
62.114531146741
 30
0.0
 10
195.4929264285922
 20
62.27349048564373
 30
0.0
 10
195.2051526926371
 20
62.35197467641669
 30
0.0
 10
194.8848791064554
 20
62.35562029506458
 30
0.0
 10
194.6309340730179
 20
62.26456903214407
 30
0.0
 10
194.4224543799527
 20
62.0837687832068
 30
0.0
 10
194.2593599465355
 20
61.79164314876076
 30
0.0
 10
194.1823559164334
 20
61.38185552936967
 30
0.0
 10
194.2577475997255
 20
60.91725901104013
 30
0.0
 10
194.4164925009387
 20
60.47531988921061
 30
0.0
 10
194.5639070917464
 20
60.22492396207671
 30
0.0
 10
194.6432681160655
 20
60.09012267033351
 30
0.0
  0
SPLINE
  5
26B
330
1F
100
AcDbEntity
  8
0
  6
Continuous
 62
     7
370
    25
100
AcDbSpline
210
0.0
220
0.0
230
1.0
 70
     8
 71
     3
 72
    10
 73
     6
 74
     0
 42
0.000000001
 43
0.00000001
 40
0.0
 40
0.0
 40
0.0
 40
0.0
 40
0.5
 40
0.5
 40
1.0
 40
1.0
 40
1.0
 40
1.0
 10
226.6405765151626
 20
67.55771209593686
 30
0.0
 10
226.6774923491002
 20
67.57902315325046
 30
0.0
 10
226.7050448022926
 20
67.60545747178107
 30
0.0
 10
226.7352574871034
 20
67.66255362634132
 30
0.0
 10
226.7380161114814
 20
67.69332767910619
 30
0.0
 10
226.7269155489864
 20
67.72295468498228
 30
0.0
  0
LINE
  5
26C
330
1F
100
AcDbEntity
  8
0
  6
Continuous
 62
     7
370
    25
100
AcDbLine
 10
220.7257402792
 20
73.6109772946
 30
0.0
 11
220.5881983196
 21
73.404078135
 31
0.0
  0
LINE
  5
26D
330
1F
100
AcDbEntity
  8
0
  6
Continuous
 62
     7
370
    25
100
AcDbLine
 10
190.5029072567
 20
63.959855101
 30
0.0
 11
191.0032904473
 21
63.6709900337
 31
0.0
  0
SPLINE
  5
26E
330
1F
100
AcDbEntity
  8
0
  6
Continuous
 62
     7
370
    25
100
AcDbSpline
210
0.0
220
0.0
230
1.0
 70
     8
 71
     3
 72
     9
 73
     5
 74
     0
 42
0.000000001
 43
0.00000001
 40
0.0
 40
0.0
 40
0.0
 40
0.0
 40
0.7009339503679092
 40
0.9999999999999999
 40
0.9999999999999999
 40
0.9999999999999999
 40
0.9999999999999999
 10
188.6770965595766
 20
69.7172336943033
 30
0.0
 10
188.6740246710577
 20
69.77123767865731
 30
0.0
 10
188.6696421061708
 20
69.84828343214899
 30
0.0
 10
188.6940524302473
 20
69.93791617256328
 30
0.0
 10
188.7013527294391
 20
69.96472228215667
 30
0.0
  0
SPLINE
  5
26F
330
1F
100
AcDbEntity
  8
0
  6
Continuous
 62
     7
370
    25
100
AcDbSpline
210
0.0
220
0.0
230
1.0
 70
     8
 71
     3
 72
    10
 73
     6
 74
     0
 42
0.000000001
 43
0.00000001
 40
0.0
 40
0.0
 40
0.0
 40
0.0
 40
0.5
 40
0.5
 40
1.0
 40
1.0
 40
1.0
 40
1.0
 10
188.7175891866902
 20
69.7695838393809
 30
0.0
 10
188.697663136194
 20
69.68562336536517
 30
0.0
 10
188.6843688720533
 20
69.60017750285378
 30
0.0
 10
188.6671003459126
 20
69.4277640319213
 30
0.0
 10
188.6631768912902
 20
69.3406524256574
 30
0.0
 10
188.6631302494721
 20
69.2536416602735
 30
0.0
  0
SPLINE
  5
270
330
1F
100
AcDbEntity
  8
0
  6
Continuous
 62
     7
370
    25
100
AcDbSpline
210
0.0
220
0.0
230
1.0
 70
     8
 71
     3
 72
    24
 73
    20
 74
     0
 42
0.000000001
 43
0.00000001
 40
0.0
 40
0.0
 40
0.0
 40
0.0
 40
0.25
 40
0.25
 40
0.374999999999999
 40
0.374999999999999
 40
0.4374999999999993
 40
0.4374999999999993
 40
0.4687499999999994
 40
0.4687499999999994
 40
0.4999999999999995
 40
0.4999999999999995
 40
0.5624999999999971
 40
0.5624999999999971
 40
0.6249999999999947
 40
0.6249999999999947
 40
0.7499999999999947
 40
0.7499999999999947
 40
1.0
 40
1.0
 40
1.0
 40
1.0
 10
188.7013527837219
 20
69.96472219009713
 30
0.0
 10
188.731193813007
 20
70.07200124665339
 30
0.0
 10
188.7610233530481
 20
70.17788582002406
 30
0.0
 10
188.8056945099194
 20
70.32783386327435
 30
0.0
 10
188.8206473020111
 20
70.3768341260373
 30
0.0
 10
188.8422304403005
 20
70.43998440794003
 30
0.0
 10
188.8493601518302
 20
70.45962459216855
 30
0.0
 10
188.8582117771316
 20
70.47733452165656
 30
0.0
 10
188.8608498744014
 20
70.48105088814222
 30
0.0
 10
188.8640024124464
 20
70.47890253976003
 30
0.0
 10
188.8643823735832
 20
70.47274013069344
 30
0.0
 10
188.8623724483224
 20
70.4440950473407
 30
0.0
 10
188.857795806724
 20
70.41579404235252
 30
0.0
 10
188.8478644206176
 20
70.35941503220322
 30
0.0
 10
188.8421742348826
 20
70.32994528424717
 30
0.0
 10
188.824592634264
 20
70.24209086368083
 30
0.0
 10
188.8119117613358
 20
70.1828658706315
 30
0.0
 10
188.7726706977154
 20
70.00437256350173
 30
0.0
 10
188.7453672376789
 20
69.886629529328
 30
0.0
 10
188.7175891866902
 20
69.76958383938091
 30
0.0
  0
ARC
  5
271
330
1F
100
AcDbEntity
  8
0
  6
Continuous
 62
     7
370
    25
100
AcDbCircle
 10
189.3802672141
 20
69.1749750084
 30
0.0
 40
0.7201273031243745
100
AcDbArc
 50
174.7584203609
 51
234.4349513408
  0
ARC
  5
272
330
1F
100
AcDbEntity
  8
0
  6
Continuous
 62
     7
370
    25
100
AcDbCircle
 10
190.8756019815
 20
61.6750772721
 30
0.0
 40
2.215173511102384
100
AcDbArc
 50
122.6235856257
 51
177.1589283586
  0
LINE
  5
273
330
1F
100
AcDbEntity
  8
0
  6
Continuous
 62
     7
370
    25
100
AcDbLine
 10
189.6813631048
 20
63.5407640598
 30
0.0
 11
190.4254499102
 21
63.9703162293
 31
0.0
  0
SPLINE
  5
274
330
1F
100
AcDbEntity
  8
0
  6
Continuous
 62
     7
370
    25
100
AcDbSpline
210
0.0
220
0.0
230
1.0
 70
     8
 71
     3
 72
     8
 73
     4
 74
     0
 42
0.000000001
 43
0.00000001
 40
0.0
 40
0.0
 40
0.0
 40
0.0
 40
0.000159097695343
 40
0.000159097695343
 40
0.000159097695343
 40
0.000159097695343
 10
190.50290768279
 20
63.95985508336823
 30
0.0
 10
190.4770875532243
 20
63.96333963283013
 30
0.0
 10
190.4512684086718
 20
63.96682661556765
 30
0.0
 10
190.4254502290156
 20
63.97031597668706
 30
0.0
  0
ARC
  5
275
330
1F
100
AcDbEntity
  8
0
  6
Continuous
 62
     7
370
    25
100
AcDbCircle
 10
190.0102219315
 20
62.1697360291
 30
0.0
 40
1.353479563765847
100
AcDbArc
 50
122.9135810547
 51
170.975405912
  0
LINE
  5
276
330
1F
100
AcDbEntity
  8
0
  6
Continuous
 62
     7
370
    25
100
AcDbLine
 10
189.6813631048
 20
63.5407640598
 30
0.0
 11
189.274777067
 21
63.3059700635
 31
0.0
  0
SPLINE
  5
277
330
1F
100
AcDbEntity
  8
0
  6
Continuous
 62
     7
370
    25
100
AcDbSpline
210
0.0
220
0.0
230
1.0
 70
     8
 71
     3
 72
    10
 73
     6
 74
     0
 42
0.000000001
 43
0.00000001
 40
0.0
 40
0.0
 40
0.0
 40
0.0
 40
0.5
 40
0.5
 40
1.0
 40
1.0
 40
1.0
 40
1.0
 10
188.7175891866902
 20
61.58492822367691
 30
0.0
 10
188.697663136194
 20
61.62344978519255
 30
0.0
 10
188.6843688720533
 20
61.65541311238564
 30
0.0
 10
188.6671003459126
 20
61.71785653588248
 30
0.0
 10
188.6631768912902
 20
61.74827991309467
 30
0.0
 10
188.6631302494721
 20
61.78017060839422
 30
0.0
  0
LINE
  5
278
330
1F
100
AcDbEntity
  8
0
  6
Continuous
 62
     7
370
    25
100
AcDbLine
 10
188.6734969553
 20
62.3820406864
 30
0.0
 11
188.6770965596
 21
62.2464044257
 31
0.0
  0
LINE
  5
279
330
1F
100
AcDbEntity
  8
0
  6
Continuous
 62
     7
370
    25
100
AcDbLine
 10
188.7721482397
 20
61.4902471537
 30
0.0
 11
188.7175891443
 21
61.5849284014
 31
0.0
  0
LWPOLYLINE
  5
27A
330
1F
100
AcDbEntity
  8
0
  6
Continuous
 62
     7
370
    18
100
AcDbPolyline
 90
       23
 70
   128
 43
0.0
 10
257.6838234276
 20
25.2067366865
 10
257.7482699103
 20
25.7615446402
 10
257.9363877588
 20
26.3458133942
 10
258.2329362776
 20
26.912208653
 10
258.6138924217
 20
27.4148452466
 10
259.0483921855
 20
27.8130020477
 10
259.5012350481
 20
28.0744226677
 10
259.9357348119
 20
28.1779286158
 10
260.3166906267
 20
28.1151344337
 10
260.6132398041
 20
27.891127187
 10
260.8013576526
 20
27.5240546778
 10
260.865803806
 20
27.043654859
 10
260.8013576526
 20
26.4888470954
 10
260.6132398041
 20
25.9045783414
 10
260.3166906267
 20
25.3381827025
 10
259.9357348119
 20
24.8355462989
 10
259.5012350481
 20
24.4373894979
 10
259.0483921855
 20
24.1759688778
 10
258.6138924217
 20
24.0724629298
 10
258.2329362776
 20
24.1352569218
 10
257.9363877588
 20
24.3592645486
 10
257.7482699103
 20
24.7263370579
 10
257.6838234276
 20
25.2067366865
  0
LWPOLYLINE
  5
27B
330
1F
100
AcDbEntity
  8
0
  6
Continuous
 62
     7
370
    18
100
AcDbPolyline
 90
       11
 70
   128
 43
0.0
 10
257.3302666864
 20
25.2067382072
 10
257.3905024354
 20
25.7698523317
 10
257.567102999
 20
26.3641368923
 10
257.8480341349
 20
26.9490928084
 10
258.214150637
 20
27.4848562729
 10
258.6405022296
 20
27.9349158111
 10
259.0980339291
 20
28.2686004983
 10
259.5555656285
 20
28.4631706671
 10
259.9819175505
 20
28.5053663899
 10
260.3480340526
 20
28.3923120411
 10
260.3493122875
 20
28.391572276
  0
ARC
  5
27C
330
1F
100
AcDbEntity
  8
0
  6
Continuous
 62
     7
370
    18
100
AcDbCircle
 10
258.6003490929
 20
25.0862687205
 30
0.0
 40
1.275782981799105
100
AcDbArc
 50
174.5816080803
 51
231.4090062631
  0
LWPOLYLINE
  5
27D
330
1F
100
AcDbEntity
  8
0
  6
Continuous
 62
     7
370
    18
100
AcDbPolyline
 90
       15
 70
   128
 43
0.0
 10
270.2344552106
 20
33.29258139
 10
270.310756153
 20
33.489384213
 10
270.6073053304
 20
34.0557798519
 10
270.9882611452
 20
34.5584162555
 10
271.422760909
 20
34.9565730565
 10
271.8756037715
 20
35.2179936766
 10
272.3101035354
 20
35.3214996247
 10
272.6910596794
 20
35.2587056326
 10
272.9876081983
 20
35.0346980058
 10
273.1757260468
 20
34.6676254966
 10
273.2401725294
 20
34.1872258679
 10
273.1757260468
 20
33.6324179142
 10
272.9876081983
 20
33.0481491602
 10
272.6910596794
 20
32.4817539015
 10
272.3772836363
 20
32.0555525438
  0
LWPOLYLINE
  5
27E
330
1F
100
AcDbEntity
  8
0
  6
Continuous
 62
     7
370
    18
100
AcDbPolyline
 90
       10
 70
   128
 43
0.0
 10
269.9270696834
 20
33.4700309779
 10
269.9414713932
 20
33.5077077111
 10
270.2224025291
 20
34.0926636272
 10
270.5885190312
 20
34.6284270917
 10
271.0148709531
 20
35.0784868199
 10
271.4724026525
 20
35.4121715072
 10
271.929934352
 20
35.6067416759
 10
272.3562859446
 20
35.6489372087
 10
272.7224024468
 20
35.5358828599
 10
272.7236806816
 20
35.5351430947
  0
LWPOLYLINE
  5
27F
330
1F
100
AcDbEntity
  8
0
  6
Continuous
 62
     7
370
    18
100
AcDbPolyline
 90
       28
 70
   128
 43
0.0
 10
277.8010127401
 20
25.2271460943
 10
277.7390672448
 20
25.8033843451
 10
277.5565702383
 20
26.277036722
 10
277.2633600462
 20
26.622568287
 10
276.8752440416
 20
26.8213517768
 10
276.4131454183
 20
26.8626702585
 10
275.9019760096
 20
26.7442967078
 10
275.3692931968
 20
26.4726122032
 10
274.843813976
 20
26.062263518
 10
274.3538671107
 20
25.5353728004
 10
273.9258656994
 20
24.9203447762
 10
273.5828835366
 20
24.2503355773
 10
273.3434109056
 20
23.5614659315
 10
273.2203575837
 20
22.8908726168
 10
273.2203575837
 20
22.2747077017
 10
273.3434109056
 20
21.7461887283
 10
273.5828835366
 20
21.333808297
 10
273.9258656994
 20
21.0597978742
 10
274.3538671107
 20
20.938929761
 10
274.843813976
 20
20.9777196532
 10
275.3692931968
 20
21.1740763623
 10
275.9019760096
 20
21.5174143421
 10
276.4131454183
 20
21.9892244284
 10
276.8752440416
 20
22.5640706241
 10
277.2633600462
 20
23.2109633145
 10
277.5565702383
 20
23.8950281614
 10
277.7390672448
 20
24.5793870971
 10
277.8010127401
 20
25.2271460943
  0
LWPOLYLINE
  5
280
330
1F
100
AcDbEntity
  8
0
  6
Continuous
 62
     7
370
    18
100
AcDbPolyline
 90
       17
 70
   128
 43
0.0
 10
272.9453316165
 20
20.758707602
 10
272.6843362693
 20
20.9658593697
 10
272.388685182
 20
21.3865179581
 10
272.205962624
 20
21.9304292376
 10
272.1441545999
 20
22.5738217671
 10
272.205962624
 20
23.2885763222
 10
272.388685182
 20
24.0434545765
 10
272.6843362693
 20
24.8054646445
 10
273.0799947488
 20
25.5413031236
 10
273.5583682294
 20
26.218810235
 10
274.0985498165
 20
26.8083760382
 10
274.6769307099
 20
27.2842331444
 10
275.268233008
 20
27.6255846952
 10
275.8466139015
 20
27.8175119543
 10
276.3867954885
 20
27.8516265362
 10
276.8651689692
 20
27.7264376892
 10
276.9724193632
 20
27.6708335106
  0
LWPOLYLINE
  5
281
330
1F
100
AcDbEntity
  8
0
  6
Continuous
 62
     7
370
    18
100
AcDbPolyline
 90
       27
 70
   128
 43
0.0
 10
255.2796585287
 20
26.1047867452
 10
255.3394635897
 20
27.2810196959
 10
255.518006201
 20
28.5091495614
 10
255.8126837949
 20
29.7712682552
 10
256.2191980514
 20
31.0489705069
 10
256.7316227283
 20
32.3236251518
 10
257.3424833455
 20
33.5766441362
 10
258.0428740765
 20
34.7897564637
 10
258.8225808957
 20
35.9452709237
 10
259.6702337032
 20
37.0263395771
 10
260.5734722769
 20
38.0171957658
 10
261.5191250682
 20
38.9033923111
 10
262.4934023197
 20
39.6720050143
 10
263.4820970862
 20
40.3118270309
 10
264.4707918526
 20
40.8135276936
 10
265.4450691041
 20
41.1697915614
 10
266.3907218955
 20
41.3754224887
 10
267.2939604692
 20
41.4274233594
 10
268.1416132766
 20
41.3250338057
 10
268.9213200959
 20
41.0697496773
 10
269.6217108268
 20
40.665291275
 10
270.2325714441
 20
40.1175569469
 10
270.744996121
 20
39.4345352408
 10
271.1515103774
 20
38.626184359
 10
271.4461879713
 20
37.7042931733
 10
271.6247305827
 20
36.682304219
 10
271.6692745332
 20
36.1438411712
  0
LWPOLYLINE
  5
282
330
1F
100
AcDbEntity
  8
0
  6
Continuous
 62
     7
370
    18
100
AcDbPolyline
 90
       17
 70
   128
 43
0.0
 10
265.8393489207
 20
23.1284599295
 10
265.4450691041
 20
22.7765151559
 10
264.4707918526
 20
22.0079024528
 10
263.4820970862
 20
21.3680804361
 10
262.4934023197
 20
20.8663797734
 10
261.5191250682
 20
20.5101159056
 10
260.5734722769
 20
20.3044849783
 10
259.6702337032
 20
20.2524841077
 10
258.8225808957
 20
20.3548736613
 10
258.0428740765
 20
20.6101577897
 10
257.3424833455
 20
21.014616192
 10
256.7316227283
 20
21.5623505201
 10
256.2191980514
 20
22.2453722263
 10
255.8126837949
 20
23.053723108
 10
255.518006201
 20
23.9756142938
 10
255.3394635897
 20
24.997603248
 10
255.2796585287
 20
26.1047867452
  0
LWPOLYLINE
  5
283
330
1F
100
AcDbEntity
  8
0
  6
Continuous
 62
     7
370
    18
100
AcDbPolyline
 90
       19
 70
   128
 43
0.0
 10
254.7139734062
 20
26.104786365
 10
254.7735308544
 20
27.2980666356
 10
254.9513668475
 20
28.5433592643
 10
255.2449855018
 20
29.8231833445
 10
255.6502643288
 20
31.1195725669
 10
256.1615141623
 20
32.4143286376
 10
256.7715588429
 20
33.6892760262
 10
257.4718339992
 20
34.9265169016
 10
258.2525098668
 20
36.1086845444
 10
259.102627277
 20
37.21918231
 10
260.0102520865
 20
38.2424218291
 10
260.9626435991
 20
39.1640388678
 10
261.9464322089
 20
39.9710962601
 10
262.9478077232
 20
40.6522641079
 10
263.9527129949
 20
41.1979809923
 10
264.9470413626
 20
41.6005862051
 10
265.9168347492
 20
41.8544280244
 10
266.8484791464
 20
41.9559423449
 10
266.9431712612
 20
41.9576832848
  0
ARC
  5
284
330
1F
100
AcDbEntity
  8
0
  6
Continuous
 62
     7
370
    18
100
AcDbCircle
 10
262.4757539316
 20
25.8619979663
 30
0.0
 40
7.765576806081029
100
AcDbArc
 50
178.2083729062
 51
207.2398684742
  0
LWPOLYLINE
  5
285
330
1F
100
AcDbEntity
  8
0
  6
Continuous
 62
     7
370
    18
100
AcDbPolyline
 90
       21
 70
   128
 43
0.0
 10
217.1489259191
 20
47.7906266832
 10
217.2084833673
 20
48.9839069539
 10
217.3863193604
 20
50.2291995825
 10
217.6799380147
 20
51.5090236628
 10
218.0852168416
 20
52.8054128851
 10
218.5964666752
 20
54.1001689558
 10
219.2065113558
 20
55.3751163444
 10
219.9067865121
 20
56.6123572198
 10
220.6874623797
 20
57.7945248626
 10
221.5375797899
 20
58.9050226283
 10
222.4452045993
 20
59.9282621473
 10
223.397596112
 20
60.849879186
 10
224.3813847218
 20
61.6569365784
 10
225.3827602361
 20
62.3381044261
 10
226.3876655078
 20
62.8838213105
 10
227.3819938755
 20
63.2864265233
 10
228.3517872621
 20
63.5402683426
 10
229.2834316593
 20
63.6417826632
 10
230.1638490316
 20
63.5895459849
 10
230.9806799805
 20
63.3842896068
 10
231.6337197149
 20
63.0816618189
  0
LWPOLYLINE
  5
286
330
1F
100
AcDbEntity
  8
0
  6
Continuous
 62
     7
370
    18
100
AcDbPolyline
 90
        8
 70
   128
 43
0.0
 10
219.6346950192
 20
42.2964889746
 10
219.2065113558
 20
42.5817746004
 10
218.5964666752
 20
43.1523793931
 10
218.0852168416
 20
43.8568589704
 10
217.6799380147
 20
44.6853232193
 10
217.3863193604
 20
45.6261424171
 10
217.2084833673
 20
46.6661099786
 10
217.1489259191
 20
47.7906266832
  0
LWPOLYLINE
  5
287
330
1F
100
AcDbEntity
  8
0
  6
Continuous
 62
     7
370
    18
100
AcDbPolyline
 90
       18
 70
   128
 43
0.0
 10
266.59336987
 20
24.8801726659
 10
266.6547732185
 20
25.6808188809
 10
266.8368917265
 20
26.5250945479
 10
267.1335235512
 20
27.3842489053
 10
267.5345676077
 20
28.229024519
 10
268.0263666706
 20
29.0306537891
 10
268.59217313
 20
29.7618379544
 10
269.212718879
 20
30.3976772278
 10
269.8668723151
 20
30.9165192807
 10
270.5323568532
 20
31.3006953272
 10
271.1865102893
 20
31.5371227552
 10
271.8070560383
 20
31.6177503532
 10
272.3728624977
 20
31.5398324207
 10
272.8646615606
 20
31.3060222623
 10
273.2657056171
 20
30.9242822602
 10
273.5623374418
 20
30.4076117176
 10
273.7444559499
 20
29.7736056044
 10
273.7835112612
 20
29.4938448
  0
LWPOLYLINE
  5
288
330
1F
100
AcDbEntity
  8
0
  6
Continuous
 62
     7
370
    18
100
AcDbPolyline
 90
        9
 70
   128
 43
0.0
 10
269.7993426711
 20
22.5923144811
 10
269.212718879
 20
22.3869040972
 10
268.59217313
 20
22.3062764992
 10
268.0263666706
 20
22.3841944317
 10
267.5345676077
 20
22.6180045901
 10
267.1335235512
 20
22.9997445922
 10
266.8368917265
 20
23.5164151348
 10
266.6547732185
 20
24.150421248
 10
266.59336987
 20
24.8801726659
  0
LWPOLYLINE
  5
289
330
1F
100
AcDbEntity
  8
0
  6
Continuous
 62
     7
370
    18
100
AcDbPolyline
 90
       15
 70
   128
 43
0.0
 10
266.0276850767
 20
24.8801724759
 10
266.0901842432
 20
25.7181469072
 10
266.2756731821
 20
26.6013483095
 10
266.5781900898
 20
27.5013898279
 10
266.9880115568
 20
28.3893431307
 10
267.4919660342
 20
29.2366691863
 10
268.0738557968
 20
30.0161338216
 10
268.7149782629
 20
30.7026844382
 10
269.3947274513
 20
31.2742546457
 10
270.0912555923
 20
31.7124741501
 10
270.7821756506
 20
32.0032579644
 10
271.4452809909
 20
32.1372598851
 10
272.0592588286
 20
32.110172951
 10
272.6043753012
 20
31.9228682704
 10
272.6685738419
 20
31.8873927363
  0
ARC
  5
28A
330
1F
100
AcDbEntity
  8
0
  6
Continuous
 62
     7
370
    18
100
AcDbCircle
 10
268.7977764645
 20
24.607762455
 30
0.0
 40
2.783453523232954
100
AcDbArc
 50
174.3836072553
 51
232.3002571401
  0
LWPOLYLINE
  5
28B
330
1F
100
AcDbEntity
  8
0
  6
Continuous
 62
     7
370
    18
100
AcDbPolyline
 90
       12
 70
   128
 43
0.0
 10
268.0606165827
 20
25.7271961638
 10
268.122771989
 20
26.3541960253
 10
268.3056259266
 20
27.0165199448
 10
268.5985516275
 20
27.6756763317
 10
268.9845252221
 20
28.2933570868
 10
269.4411154499
 20
28.8336649057
 10
269.9417868566
 20
29.2651993076
 10
270.4574423117
 20
29.5628808655
 10
270.9581137184
 20
29.7094093654
 10
271.4147039462
 20
29.6962694024
 10
271.8006775409
 20
29.5242242741
 10
272.0577767741
 20
29.2581821504
  0
ARC
  5
28C
330
1F
100
AcDbEntity
  8
0
  6
Continuous
 62
     7
370
    18
100
AcDbCircle
 10
269.3732472622
 20
25.5139174995
 30
0.0
 40
1.329844761436118
100
AcDbArc
 50
170.7711267902
 51
259.9165088347
  0
LWPOLYLINE
  5
28D
330
1F
100
AcDbEntity
  8
0
  6
Continuous
 62
     7
370
    18
100
AcDbPolyline
 90
        3
 70
   128
 43
0.0
 10
271.2416474222
 20
29.3913290997
 10
271.5242500263
 20
29.1249816811
 10
271.5668985211
 20
29.0593703593
  0
ARC
  5
28E
330
1F
100
AcDbEntity
  8
0
  6
Continuous
 62
     7
370
    18
100
AcDbCircle
 10
269.0708075009
 20
25.6747783854
 30
0.0
 40
0.9456596139696416
100
AcDbArc
 50
239.0613469643
 51
269.7754706676
  0
LWPOLYLINE
  5
28F
330
1F
100
AcDbEntity
  8
0
  6
Continuous
 62
     7
370
    18
100
AcDbPolyline
 90
       16
 70
   128
 43
0.0
 10
259.4183144164
 20
28.9290275184
 10
259.4673269206
 20
29.405027418
 10
259.648103315
 20
30.2884670972
 10
259.9432876589
 20
31.1898673954
 10
260.3439112347
 20
32.0818398471
 10
260.8378013411
 20
32.9372826022
 10
261.4099510658
 20
33.7302029262
 10
262.0429761509
 20
34.4365085145
 10
262.7176424047
 20
35.0347389604
 10
263.4134504067
 20
35.5067167991
 10
264.1092584087
 20
35.8381017794
 10
264.7839246624
 20
36.0188244097
 10
265.4169497476
 20
36.0433940276
 10
265.9890994723
 20
35.9110637146
 10
266.4829895786
 20
35.6258543386
 10
266.8741011376
 20
35.2098624989
  0
LWPOLYLINE
  5
290
330
1F
100
AcDbEntity
  8
0
  6
Continuous
 62
     7
370
    18
100
AcDbPolyline
 90
        3
 70
   128
 43
0.0
 10
261.3941278876
 20
25.7172417175
 10
260.8378013411
 20
25.8481015215
 10
260.6668063083
 20
25.9249220371
  0
LWPOLYLINE
  5
291
330
1F
100
AcDbEntity
  8
0
  6
Continuous
 62
     7
370
    18
100
AcDbPolyline
 90
       13
 70
   128
 43
0.0
 10
260.1595177846
 20
28.5011402884
 10
260.2191950879
 20
29.2157364512
 10
260.399126899
 20
30.0724775459
 10
260.6925802586
 20
30.9455539006
 10
261.0901238217
 20
31.8069047019
 10
261.5789800139
 20
32.6288451663
 10
262.1434366217
 20
33.3849571467
 10
262.7653513201
 20
34.0509390445
 10
263.4247355135
 20
34.6053854435
 10
264.1003959431
 20
35.0304761359
 10
264.7706163834
 20
35.3125479858
 10
265.4138552469
 20
35.4425352908
 10
265.9005726512
 20
35.433344484
  0
LWPOLYLINE
  5
292
330
1F
100
AcDbEntity
  8
0
  6
Continuous
 62
     7
370
    18
100
AcDbPolyline
 90
       15
 70
   128
 43
0.0
 10
259.8589758519
 20
28.6746391825
 10
259.9186877288
 20
29.3959365292
 10
260.0982747918
 20
30.251036102
 10
260.3911660837
 20
31.1224398713
 10
260.7879480401
 20
31.9821403495
 10
261.2758674527
 20
32.8025057931
 10
261.8392425657
 20
33.557169098
 10
262.4599657102
 20
34.2218752885
 10
263.1180864859
 20
34.7752592493
 10
263.7924523405
 20
35.1995352985
 10
264.4613885779
 20
35.4810665561
 10
265.10339514
 20
35.61080483
 10
265.6978372548
 20
35.5845801927
 10
266.2256091469
 20
35.4032348911
 10
266.2858043954
 20
35.3700217295
  0
LWPOLYLINE
  5
293
330
1F
100
AcDbEntity
  8
0
  6
Continuous
 62
     7
370
    18
100
AcDbPolyline
 90
        3
 70
   128
 43
0.0
 10
260.9612372773
 20
26.1466013512
 10
260.7879480401
 20
26.2606000672
 10
260.7718838346
 20
26.2726988281
  0
LWPOLYLINE
  5
294
330
1F
100
AcDbEntity
  8
0
  6
Continuous
 62
     7
370
    18
100
AcDbPolyline
 90
       14
 70
   128
 43
0.0
 10
260.1116936239
 20
28.528748318
 10
260.1714055008
 20
29.2500456648
 10
260.3509925638
 20
30.1051452375
 10
260.6438838557
 20
30.9765490069
 10
261.0406658121
 20
31.8362494851
 10
261.5285852247
 20
32.6566149286
 10
262.0919603378
 20
33.4112782336
 10
262.7126834822
 20
34.0759844241
 10
263.3708042579
 20
34.6293683849
 10
264.0451701125
 20
35.053644434
 10
264.7141063499
 20
35.3351756916
 10
265.356112912
 20
35.4649139656
 10
265.9505550269
 20
35.4386893283
 10
266.1780953253
 20
35.3822290834
  0
LINE
  5
295
330
1F
100
AcDbEntity
  8
0
  6
Continuous
 62
     7
370
    18
100
AcDbLine
 10
260.8968028131
 20
26.2337705059
 30
0.0
 11
260.8031762233
 21
26.3258475828
 31
0.0
  0
LWPOLYLINE
  5
296
330
1F
100
AcDbEntity
  8
0
  6
Continuous
 62
     7
370
    18
100
AcDbPolyline
 90
       22
 70
   128
 43
0.0
 10
207.8768668594
 20
52.7115723161
 10
207.9367693849
 20
53.9338140231
 10
208.1156676103
 20
55.208689319
 10
208.4111413846
 20
56.5189575966
 10
208.819195318
 20
57.8468993046
 10
209.3343108078
 20
59.1745564395
 10
209.9495224286
 20
60.4839755064
 10
210.6565101292
 20
61.7574476261
 10
211.4457134895
 20
62.9777528235
 10
212.3064594789
 20
64.1283866331
 10
213.2271079937
 20
65.1937905061
 10
214.1952090856
 20
66.1595558846
 10
215.197670725
 20
67.0126221913
 10
216.2209362793
 20
67.7414530505
 10
217.2511679174
 20
68.3361931158
 10
218.2744334717
 20
68.788799518
 10
219.2768951111
 20
69.0931507838
 10
220.2449962029
 20
69.245131134
 10
221.1656447178
 20
69.2426854106
 10
222.0263907071
 20
69.0858477667
 10
222.8155940675
 20
68.776737374
 10
223.3622070826
 20
68.4415500874
  0
LWPOLYLINE
  5
297
330
1F
100
AcDbEntity
  8
0
  6
Continuous
 62
     7
370
    18
100
AcDbPolyline
 90
        9
 70
   128
 43
0.0
 10
210.8572884958
 20
46.7788064294
 10
210.6565101292
 20
46.8750048133
 10
209.9495224286
 20
47.3322063087
 10
209.3343108078
 20
47.9313171576
 10
208.819195318
 20
48.6642346074
 10
208.4111413846
 20
49.5210472721
 10
208.1156676103
 20
50.4901687915
 10
207.9367693849
 20
51.5584925929
 10
207.8768668594
 20
52.7115723161
  0
LINE
  5
298
330
1F
100
AcDbEntity
  8
0
  6
Continuous
 62
     7
370
    18
100
AcDbLine
 10
205.6371299874
 20
55.8409508783
 30
0.0
 11
205.7211543397
 21
56.1942243953
 31
0.0
  0
LWPOLYLINE
  5
299
330
1F
100
AcDbEntity
  8
0
  6
Continuous
 62
     7
370
    18
100
AcDbPolyline
 90
        9
 70
   128
 43
0.0
 10
215.0469160577
 20
70.1567843359
 10
215.3284272066
 20
70.3461895122
 10
216.5250969964
 20
71.0574732919
 10
217.7165244427
 20
71.614453369
 10
218.8884109801
 20
72.0104441924
 10
220.0266933083
 20
72.2406945214
 10
221.1177105801
 20
72.3024405948
 10
222.1483692844
 20
72.1949412393
 10
223.1063012966
 20
71.9194869802
  0
LWPOLYLINE
  5
29A
330
1F
100
AcDbEntity
  8
0
  6
Continuous
 62
     7
370
    18
100
AcDbPolyline
 90
       20
 70
   128
 43
0.0
 10
205.2034474773
 20
55.8355133118
 10
205.5884773777
 20
57.3091132005
 10
206.0832003783
 20
58.7935165787
 10
206.6823402204
 20
60.2728949064
 10
207.3795083637
 20
61.7314748815
 10
208.1672724751
 20
63.1537045946
 10
209.0372328192
 20
64.5244193026
 10
209.9801124796
 20
65.8290033991
 10
210.9858587743
 20
67.0535478203
 10
212.0437479647
 20
68.1849949037
 10
213.1424996771
 20
69.2112797283
 10
214.2703988987
 20
70.1214613779
 10
215.4154192897
 20
70.9058336722
 10
216.5653520523
 20
71.5560345425
 10
217.7079360345
 20
72.0651302641
 10
218.8309885332
 20
72.4276932496
 10
219.9225346162
 20
72.6398561717
 10
220.9709361558
 20
72.6993583155
 10
221.9650140297
 20
72.6055644128
 10
222.8941696226
 20
72.3594754668
  0
LWPOLYLINE
  5
29B
330
1F
100
AcDbEntity
  8
0
  6
Continuous
 62
     7
370
    18
100
AcDbPolyline
 90
       24
 70
   128
 43
0.0
 10
206.7544567709
 20
55.2189493697
 10
207.0477738118
 20
56.5839770713
 10
207.4555663031
 20
57.9694653122
 10
207.9726705973
 20
59.3578706979
 10
208.5925387864
 20
60.7316130815
 10
209.3073210197
 20
62.0732957098
 10
210.1079669202
 20
63.3659310713
 10
210.9843388536
 20
64.5931503929
 10
211.9253390279
 20
65.7394146568
 10
212.9190520682
 20
66.7902086952
 10
213.9528954936
 20
67.7322269188
 10
215.0137780157
 20
68.5535415074
 10
216.088266232
 20
69.2437526329
 10
217.1627544482
 20
69.7941191955
 10
218.2236369703
 20
70.1976734948
 10
219.2574803958
 20
70.4493054827
 10
220.251193436
 20
70.5458280992
 10
221.1921936104
 20
70.4860195107
 10
222.0685655438
 20
70.2706376859
 10
222.8692114443
 20
69.9024084046
 10
223.5839936776
 20
69.3859957765
 10
224.2038618666
 20
68.7279379702
 10
224.7209661608
 20
67.9365684943
 10
224.9747007256
 20
67.4121617955
  0
ARC
  5
29C
330
1F
100
AcDbEntity
  8
0
  6
Continuous
 62
     7
370
    18
100
AcDbCircle
 10
220.1141201489
 20
66.0369034833
 30
0.0
 40
6.701305418784677
100
AcDbArc
 50
13.117112618
 51
49.5620710787
  0
LWPOLYLINE
  5
29D
330
1F
100
AcDbEntity
  8
0
  6
Continuous
 62
     7
370
    18
100
AcDbPolyline
 90
       10
 70
   128
 43
0.0
 10
212.6134126717
 20
45.9046702699
 10
211.9253390279
 20
45.8538317294
 10
210.9843388536
 20
45.9136403179
 10
210.1079669202
 20
46.1290221428
 10
209.3073210197
 20
46.4972514241
 10
208.5925387864
 20
47.0136640521
 10
207.9726705973
 20
47.6717218584
 10
207.4555663031
 20
48.4630913343
 10
207.0477738118
 20
49.3777523866
 10
206.7544567709
 20
50.4041234413
  0
LWPOLYLINE
  5
29E
330
1F
100
AcDbEntity
  8
0
  6
Continuous
 62
     7
370
    18
100
AcDbPolyline
 90
       24
 70
   128
 43
0.0
 10
195.8826898951
 20
57.0058328812
 10
195.9436987754
 20
58.385342678
 10
196.1260589693
 20
59.8201788319
 10
196.427770477
 20
61.2946198159
 10
196.8455287224
 20
62.7925119021
 10
197.3747561624
 20
64.2974434
 10
198.0096549713
 20
65.792926117
 10
198.7432689434
 20
67.2625761527
 10
199.5675598844
 20
68.6902899385
 10
200.4734978321
 20
70.0604271212
 10
201.4511558865
 20
71.3579748133
 10
202.4898234797
 20
72.568717166
 10
203.5781206334
 20
73.6793895424
 10
204.7041235762
 20
74.6778225181
 10
205.8554955466
 20
75.5530782298
 10
207.0196218779
 20
76.2955648593
 10
208.1837482091
 20
76.8971498824
 10
209.3351201796
 20
77.351239952
 10
210.4611231223
 20
77.6528623014
 10
211.549420276
 20
77.7987110729
 10
212.5880878693
 20
77.7871887973
 10
213.5657459237
 20
77.6184210681
 10
214.4716838713
 20
77.2942575756
 10
214.8939821225
 20
77.0753164254
  0
LWPOLYLINE
  5
29F
330
1F
100
AcDbEntity
  8
0
  6
Continuous
 62
     7
370
    18
100
AcDbPolyline
 90
        9
 70
   128
 43
0.0
 10
199.1452616332
 20
49.794777305
 10
198.7432689434
 20
50.0518438778
 10
198.0096549713
 20
50.6744812505
 10
197.3747561624
 20
51.4369254059
 10
196.8455287224
 20
52.3308239078
 10
196.427770477
 20
53.3463825906
 10
196.1260589693
 20
54.4724748825
 10
195.9436987754
 20
55.6967624383
 10
195.8826898951
 20
57.0058328812
  0
LWPOLYLINE
  5
2A0
330
1F
100
AcDbEntity
  8
0
  6
Continuous
 62
     7
370
    18
100
AcDbPolyline
 90
       15
 70
   128
 43
0.0
 10
203.5512633568
 20
57.767732963
 10
203.9111552963
 20
59.1626063885
 10
204.3838723735
 20
60.5686240773
 10
204.9634699074
 20
61.9681084864
 10
205.6426624198
 20
63.3434650894
 10
206.4129099058
 20
64.6774017614
 10
207.2645291268
 20
65.953147402
 10
208.1868121492
 20
67.1546633327
 10
209.1681639797
 20
68.2668436659
 10
210.1962469517
 20
69.275705122
 10
211.2581351536
 20
70.1685628719
 10
212.3404779537
 20
70.9341933795
 10
213.4296676822
 20
71.5629692259
 10
214.5120104823
 20
72.0469851157
 10
214.6973263885
 20
72.1154733611
  0
LWPOLYLINE
  5
2A1
330
1F
100
AcDbEntity
  8
0
  6
Continuous
 62
     7
370
    18
100
AcDbPolyline
 90
       17
 70
   128
 43
0.0
 10
203.1254451853
 20
58.4158779504
 10
203.542595594
 20
59.8620704042
 10
204.0742978443
 20
61.3126905509
 10
204.7138301724
 20
62.7493974168
 10
205.453104993
 20
64.1540235417
 10
206.2827749256
 20
65.5088091921
 10
207.1923496853
 20
66.7966245947
 10
208.1703281216
 20
68.0011860863
 10
209.2043450735
 20
69.1072625654
 10
210.2813253045
 20
70.1008685401
 10
211.3876517605
 20
70.96944035
 10
212.5093356802
 20
71.7019967263
 10
213.6321941141
 20
72.2892732111
 10
214.7420295422
 20
72.7238463809
 10
215.8248085868
 20
73.0002195246
 10
216.866840684
 20
73.1148984117
 10
217.0167224505
 20
73.1180195462
  0
LINE
  5
2A2
330
1F
100
AcDbEntity
  8
0
  6
Continuous
 62
     7
370
    18
100
AcDbLine
 10
197.5323265802
 20
56.468269451
 30
0.0
 11
199.3298356685
 21
57.5059493601
 31
0.0
  0
LWPOLYLINE
  5
2A3
330
1F
100
AcDbEntity
  8
0
  6
Continuous
 62
     7
370
    18
100
AcDbPolyline
 90
       12
 70
   128
 43
0.0
 10
214.7249266474
 20
44.8958536673
 10
213.9337409034
 20
44.5882576438
 10
212.7952361518
 20
44.2700074254
 10
211.694872487
 20
44.1130984732
 10
210.6453945564
 20
44.1193466222
 10
209.6589581037
 20
44.2886809595
 10
208.7469885469
 20
44.6191397495
 10
207.9200489399
 20
45.1068945914
 10
207.1877158369
 20
45.746297389
 10
206.5584732668
 20
46.5299419586
 10
206.0396080246
 20
47.4487511118
 10
205.6371299874
 20
48.4920838877
  0
LINE
  5
2A4
330
1F
100
AcDbEntity
  8
0
  6
Continuous
 62
     7
370
    18
100
AcDbLine
 10
205.2684412105
 20
48.2812308306
 30
0.0
 11
205.2034474773
 21
48.4866463212
 31
0.0
  0
LWPOLYLINE
  5
2A5
330
1F
100
AcDbEntity
  8
0
  6
Continuous
 62
     7
370
    18
100
AcDbPolyline
 90
       17
 70
   128
 43
0.0
 10
188.6631308062
 20
69.253641729
 10
189.111028658
 20
70.5194609068
 10
189.6616067696
 20
71.7742376542
 10
190.3067037987
 20
72.9993721948
 10
191.0367573499
 20
74.1767057623
 10
191.8409462198
 20
75.288785608
 10
192.7073500943
 20
76.3191286764
 10
193.6231266969
 20
77.2524626558
 10
194.5747016143
 20
78.0749519124
 10
195.5479701403
 20
78.7744060285
 10
196.5285057049
 20
79.3404571612
 10
197.5017742309
 20
79.7647149663
 10
198.4533491484
 20
80.0408907237
 10
199.369125751
 20
80.1648899037
 10
200.2355296255
 20
80.1348754561
 10
201.0397184954
 20
79.9512923161
 10
201.5273058369
 20
79.7488583012
  0
ARC
  5
2A6
330
1F
100
AcDbEntity
  8
0
  6
Continuous
 62
     7
370
    18
100
AcDbCircle
 10
192.5653263942
 20
63.5887499719
 30
0.0
 40
4.300940560710754
100
AcDbArc
 50
204.8666556743
 51
235.7640548478
  0
LINE
  5
2A7
330
1F
100
AcDbEntity
  8
0
  6
Continuous
 62
     7
370
    18
100
AcDbLine
 10
197.5323265802
 20
55.6517286004
 30
0.0
 11
199.3298356685
 21
56.6894085094
 31
0.0
  0
LINE
  5
2A8
330
1F
100
AcDbEntity
  8
0
  6
Continuous
 62
     7
370
    18
100
AcDbLine
 10
200.8193853081
 20
51.0175115405
 30
0.0
 11
202.1582629276
 21
51.7904291383
 31
0.0
  0
LINE
  5
2A9
330
1F
100
AcDbEntity
  8
0
  6
Continuous
 62
     7
370
    18
100
AcDbLine
 10
204.5307034327
 20
50.5191005642
 30
0.0
 11
204.3361516043
 21
51.1005619021
 31
0.0
  0
LWPOLYLINE
  5
2AA
330
1F
100
AcDbEntity
  8
0
  6
Continuous
 62
     7
370
    18
100
AcDbPolyline
 90
        3
 70
   128
 43
0.0
 10
204.1760785322
 20
50.0528478857
 10
203.9111552963
 20
50.5743172058
 10
203.5512633568
 20
51.5536682427
  0
LWPOLYLINE
  5
2AB
330
1F
100
AcDbEntity
  8
0
  6
Continuous
 62
     7
370
    18
100
AcDbPolyline
 90
        3
 70
   128
 43
0.0
 10
203.8985869743
 20
49.5093104106
 10
203.5321807126
 20
50.1223048784
 10
203.1254451853
 20
51.0670109598
  0
LINE
  5
2AC
330
1F
100
AcDbEntity
  8
0
  6
Continuous
 62
     7
370
    18
100
AcDbLine
 10
219.8728115424
 20
74.1033625737
 30
0.0
 11
219.3318224975
 21
73.7910562456
 31
0.0
  0
ARC
  5
2AD
330
1F
100
AcDbEntity
  8
0
  6
Continuous
 62
     7
370
    18
100
AcDbCircle
 10
192.4255698792
 20
67.7575507604
 30
0.0
 40
1.102097410650418
100
AcDbArc
 50
159.4112025223
 51
213.191486534
  0
ARC
  5
2AE
330
1F
100
AcDbEntity
  8
0
  6
Continuous
 62
     7
370
    18
100
AcDbCircle
 10
191.093745222
 20
67.5860529753
 30
0.0
 40
0.6345234148782194
100
AcDbArc
 50
41.9991509505
 51
61.7717641965
  0
LINE
  5
2AF
330
1F
100
AcDbEntity
  8
0
  6
Continuous
 62
     7
370
    18
100
AcDbLine
 10
191.3938652924
 20
68.1451128177
 30
0.0
 11
191.5034121957
 21
68.5559106761
 31
0.0
  0
LINE
  5
2B0
330
1F
100
AcDbEntity
  8
0
  6
Continuous
 62
     7
370
    18
100
AcDbLine
 10
191.3938652924
 20
68.1451128177
 30
0.0
 11
190.5918206434
 21
68.6081233381
 31
0.0
  0
LINE
  5
2B1
330
1F
100
AcDbEntity
  8
0
  6
Continuous
 62
     7
370
    18
100
AcDbLine
 10
188.7175891443
 20
69.7695836535
 30
0.0
 11
188.7013527294
 21
69.9647222822
 31
0.0
  0
ARC
  5
2B2
330
1F
100
AcDbEntity
  8
0
  6
Continuous
 62
     7
370
    18
100
AcDbCircle
 10
191.1839016413
 20
59.4924910091
 30
0.0
 40
0.4314949854781371
100
AcDbArc
 50
27.885175929
 51
60.8829215863
  0
ARC
  5
2B3
330
1F
100
AcDbEntity
  8
0
  6
Continuous
 62
     7
370
    18
100
AcDbCircle
 10
192.6336003315
 20
60.2645517418
 30
0.0
 40
1.301169858630977
100
AcDbArc
 50
165.9701496118
 51
197.6767200265
  0
LINE
  5
2B4
330
1F
100
AcDbEntity
  8
0
  6
Continuous
 62
     7
370
    18
100
AcDbLine
 10
191.0020938719
 20
62.778322417
 30
0.0
 11
189.6813631048
 21
63.5407640598
 31
0.0
  0
LINE
  5
2B5
330
1F
100
AcDbEntity
  8
0
  6
Continuous
 62
     7
370
    18
100
AcDbLine
 10
191.3938652924
 20
59.8694567737
 30
0.0
 11
190.5918206434
 21
60.3324672941
 31
0.0
  0
LINE
  5
2B6
330
1F
100
AcDbEntity
  8
0
  6
Continuous
 62
     7
370
    18
100
AcDbLine
 10
191.3938652924
 20
59.8694567737
 30
0.0
 11
191.5034121957
 21
59.5851390776
 31
0.0
  0
OLE2FRAME
  5
2B7
330
1F
100
AcDbEntity
  8
0
100
AcDbOle2Frame
 70
     2
  3
Paintbrush-Bild
 10
13.8511154363
 20
38.264191557
 30
0.0
 11
51.6290888628
 21
31.9806341108
 31
0.0
 71
     2
 72
     0
 73
     1
 90
    12928
310
80552BED0767C5B32B40DDAF6807D121434000000000000000006FFBDDFB85D0
310
4940DDAF6807D121434000000000000000006FFBDDFB85D04940416F4BD60AFB
310
3F4000000000000000002BED0767C5B32B40416F4BD60AFB3F40000000000000
310
0000000000000100000000010000010000000100000000000100000000320000
310
D0CF11E0A1B11AE1000000000000000000000000000000003E000300FEFF0900
310
0600000000000000000000000100000001000000000000000010000002000000
310
01000000FEFFFFFF0000000000000000FFFFFFFFFFFFFFFFFFFFFFFFFFFFFFFF
310
FFFFFFFFFFFFFFFFFFFFFFFFFFFFFFFFFFFFFFFFFFFFFFFFFFFFFFFFFFFFFFFF
310
FFFFFFFFFFFFFFFFFFFFFFFFFFFFFFFFFFFFFFFFFFFFFFFFFFFFFFFFFFFFFFFF
310
FFFFFFFFFFFFFFFFFFFFFFFFFFFFFFFFFFFFFFFFFFFFFFFFFFFFFFFFFFFFFFFF
310
FFFFFFFFFFFFFFFFFFFFFFFFFFFFFFFFFFFFFFFFFFFFFFFFFFFFFFFFFFFFFFFF
310
FFFFFFFFFFFFFFFFFFFFFFFFFFFFFFFFFFFFFFFFFFFFFFFFFFFFFFFFFFFFFFFF
310
FFFFFFFFFFFFFFFFFFFFFFFFFFFFFFFFFFFFFFFFFFFFFFFFFFFFFFFFFFFFFFFF
310
FFFFFFFFFFFFFFFFFFFFFFFFFFFFFFFFFFFFFFFFFFFFFFFFFFFFFFFFFFFFFFFF
310
FFFFFFFFFFFFFFFFFFFFFFFFFFFFFFFFFFFFFFFFFFFFFFFFFFFFFFFFFFFFFFFF
310
FFFFFFFFFFFFFFFFFFFFFFFFFFFFFFFFFFFFFFFFFFFFFFFFFFFFFFFFFFFFFFFF
310
FFFFFFFFFFFFFFFFFFFFFFFFFFFFFFFFFFFFFFFFFFFFFFFFFFFFFFFFFFFFFFFF
310
FFFFFFFFFFFFFFFFFFFFFFFFFFFFFFFFFFFFFFFFFFFFFFFFFFFFFFFFFFFFFFFF
310
FFFFFFFFFFFFFFFFFFFFFFFFFFFFFFFFFFFFFFFFFFFFFFFFFFFFFFFFFFFFFFFF
310
FFFFFFFFFFFFFFFFFFFFFFFFFFFFFFFFFFFFFFFFFFFFFFFFFFFFFFFFFFFFFFFF
310
FDFFFFFFFEFFFFFFFEFFFFFFFEFFFFFF05000000060000000700000008000000
310
090000000A0000000B0000000C0000000D0000000E0000000F00000010000000
310
11000000120000001300000014000000150000001600000017000000FEFFFFFF
310
FFFFFFFFFFFFFFFFFFFFFFFFFFFFFFFFFFFFFFFFFFFFFFFFFFFFFFFFFFFFFFFF
310
FFFFFFFFFFFFFFFFFFFFFFFFFFFFFFFFFFFFFFFFFFFFFFFFFFFFFFFFFFFFFFFF
310
FFFFFFFFFFFFFFFFFFFFFFFFFFFFFFFFFFFFFFFFFFFFFFFFFFFFFFFFFFFFFFFF
310
FFFFFFFFFFFFFFFFFFFFFFFFFFFFFFFFFFFFFFFFFFFFFFFFFFFFFFFFFFFFFFFF
310
FFFFFFFFFFFFFFFFFFFFFFFFFFFFFFFFFFFFFFFFFFFFFFFFFFFFFFFFFFFFFFFF
310
FFFFFFFFFFFFFFFFFFFFFFFFFFFFFFFFFFFFFFFFFFFFFFFFFFFFFFFFFFFFFFFF
310
FFFFFFFFFFFFFFFFFFFFFFFFFFFFFFFFFFFFFFFFFFFFFFFFFFFFFFFFFFFFFFFF
310
FFFFFFFFFFFFFFFFFFFFFFFFFFFFFFFFFFFFFFFFFFFFFFFFFFFFFFFFFFFFFFFF
310
FFFFFFFFFFFFFFFFFFFFFFFFFFFFFFFFFFFFFFFFFFFFFFFFFFFFFFFFFFFFFFFF
310
FFFFFFFFFFFFFFFFFFFFFFFFFFFFFFFFFFFFFFFFFFFFFFFFFFFFFFFFFFFFFFFF
310
FFFFFFFFFFFFFFFFFFFFFFFFFFFFFFFFFFFFFFFFFFFFFFFFFFFFFFFFFFFFFFFF
310
FFFFFFFFFFFFFFFFFFFFFFFFFFFFFFFFFFFFFFFFFFFFFFFFFFFFFFFFFFFFFFFF
310
FFFFFFFFFFFFFFFFFFFFFFFFFFFFFFFFFFFFFFFFFFFFFFFFFFFFFFFFFFFFFFFF
310
52006F006F007400200045006E00740072007900000000000000000000000000
310
0000000000000000000000000000000000000000000000000000000000000000
310
16000500FFFFFFFFFFFFFFFF020000000A00030000000000C000000000000046
310
00000000000000000000000050B1C2A235A7D30103000000C000000000000000
310
01004F006C006500000000000000000000000000000000000000000000000000
310
0000000000000000000000000000000000000000000000000000000000000000
310
0A000200FFFFFFFFFFFFFFFFFFFFFFFF00000000000000000000000000000000
310
0000000000000000000000000000000000000000000000001400000000000000
310
010043006F006D0070004F0062006A0000000000000000000000000000000000
310
0000000000000000000000000000000000000000000000000000000000000000
310
120002010100000003000000FFFFFFFF00000000000000000000000000000000
310
0000000000000000000000000000000000000000010000004D00000000000000
310
01004F006C006500310030004E00610074006900760065000000000000000000
310
0000000000000000000000000000000000000000000000000000000000000000
310
1A000200FFFFFFFFFFFFFFFFFFFFFFFF00000000000000000000000000000000
310
0000000000000000000000000000000000000000040000002426000000000000
310
FEFFFFFF02000000FEFFFFFFFFFFFFFFFFFFFFFFFFFFFFFFFFFFFFFFFFFFFFFF
310
FFFFFFFFFFFFFFFFFFFFFFFFFFFFFFFFFFFFFFFFFFFFFFFFFFFFFFFFFFFFFFFF
310
FFFFFFFFFFFFFFFFFFFFFFFFFFFFFFFFFFFFFFFFFFFFFFFFFFFFFFFFFFFFFFFF
310
FFFFFFFFFFFFFFFFFFFFFFFFFFFFFFFFFFFFFFFFFFFFFFFFFFFFFFFFFFFFFFFF
310
FFFFFFFFFFFFFFFFFFFFFFFFFFFFFFFFFFFFFFFFFFFFFFFFFFFFFFFFFFFFFFFF
310
FFFFFFFFFFFFFFFFFFFFFFFFFFFFFFFFFFFFFFFFFFFFFFFFFFFFFFFFFFFFFFFF
310
FFFFFFFFFFFFFFFFFFFFFFFFFFFFFFFFFFFFFFFFFFFFFFFFFFFFFFFFFFFFFFFF
310
FFFFFFFFFFFFFFFFFFFFFFFFFFFFFFFFFFFFFFFFFFFFFFFFFFFFFFFFFFFFFFFF
310
FFFFFFFFFFFFFFFFFFFFFFFFFFFFFFFFFFFFFFFFFFFFFFFFFFFFFFFFFFFFFFFF
310
FFFFFFFFFFFFFFFFFFFFFFFFFFFFFFFFFFFFFFFFFFFFFFFFFFFFFFFFFFFFFFFF
310
FFFFFFFFFFFFFFFFFFFFFFFFFFFFFFFFFFFFFFFFFFFFFFFFFFFFFFFFFFFFFFFF
310
FFFFFFFFFFFFFFFFFFFFFFFFFFFFFFFFFFFFFFFFFFFFFFFFFFFFFFFFFFFFFFFF
310
FFFFFFFFFFFFFFFFFFFFFFFFFFFFFFFFFFFFFFFFFFFFFFFFFFFFFFFFFFFFFFFF
310
FFFFFFFFFFFFFFFFFFFFFFFFFFFFFFFFFFFFFFFFFFFFFFFFFFFFFFFFFFFFFFFF
310
FFFFFFFFFFFFFFFFFFFFFFFFFFFFFFFFFFFFFFFFFFFFFFFFFFFFFFFFFFFFFFFF
310
FFFFFFFFFFFFFFFFFFFFFFFFFFFFFFFFFFFFFFFFFFFFFFFFFFFFFFFFFFFFFFFF
310
0100000200000000000000000000000000000000000000000000000000000000
310
0000000000000000000000000000000000000000000000000000000000000000
310
0100FEFF030A0000FFFFFFFF0A00030000000000C00000000000004607000000
310
5042727573680007000000504272757368000700000050427275736800F439B2
310
7100000000000000000000000000000000000000000000000000000000000000
310
0000000000000000000000000000000000000000000000000000000000000000
310
0000000000000000000000000000000000000000000000000000000000000000
310
0000000000000000000000000000000000000000000000000000000000000000
310
0000000000000000000000000000000000000000000000000000000000000000
310
0000000000000000000000000000000000000000000000000000000000000000
310
0000000000000000000000000000000000000000000000000000000000000000
310
0000000000000000000000000000000000000000000000000000000000000000
310
0000000000000000000000000000000000000000000000000000000000000000
310
0000000000000000000000000000000000000000000000000000000000000000
310
0000000000000000000000000000000000000000000000000000000000000000
310
0000000000000000000000000000000000000000000000000000000000000000
310
20260000424D0E260000000000003E00000028000000B40200006E0000000100
310
01000000000000000000130B0000130B00000200000002000000000000FFFFFF
310
FFFFFFFFFFFFFFFFFFFFFFFFFFFFFFFFFFFFFFFFFFFFFFFFFFFFFFFFFFFFFFFF
310
FFFFFFFFFFFFFFFFFFFFFFFFFFFFFFFFFFFFFFFFFFFFFFFFFFFFFFFFFFFFFFFF
310
FFFFFFFFFFFFFFFFFFFFFFFFFFFFFFFFFFFFFFFFFFFFFFFFF000FFFFFFFFFFFF
310
FFFFFFFFFFFFFFFFFFFFFFFFFFFFFFFFFFFFFFFFFFFFFFFFFFFFFFFFFFFFFFFF
310
FFFFFFFFFFFFFFFFFFFFFFFFFFFFFFFFFFFFFFFFFFFFFFFFFFFFFFFFFFFFFFFF
310
FFFFFFFFFFFFFFFFFFFFFFFFFFFFFFFFF000FFFFFFFFFFFFFFFFFFFFFFFFFFFF
310
FFFFFFFFFFFFFFFFFFFFFFFFFFFFFFFFFFFFFFFFFFFFFFFFFFFFFFFFFFFFFFFF
310
FFFFFFFFFFFFFFFFFFFFFFFFFFFFFFFFFFFFFFFFFFFFFFFFFFFFFFFFFFFFFFFF
310
FFFFFFFFFFFFFFFFF000FFFFFFFFFFFFFFFFFFFFFFFFFFFFFFFFFFFFFFFFFFFF
310
FFFFFFFFFFFFFFFFFFFFFFFFFFFFFFFFFFFFFFFFFFFFFFFFFFFFFFFFFFFFFFFF
310
FFFFFFFFFFFFFFFFFFFFFFFFFFFFFFFFFFFFFFFFFFFFFFFFFFFFFFFFFFFFFFFF
310
F000FFFFFFFFFFFFFFFFFFFFFFFFFFFFFFFFFFFFFFFFFFFFFFFFFFFFFFFFFFFF
310
FFFFFFFFFFFFFFFFFFFFFFFFFFFFFFFFFFFFFFFFFFFFFFFFFFFFFFFFFFFFFFFF
310
FFFFFFFFFFFFFFFFFFFFFFFFFFFFFFFFFFFFFFFFFFFFFFFFF000FFFFFFFFFFFF
310
FFFFFFFFFFFFFFFFFFFFFFFFFFFFFFFFFFFFFFFFFFFFFFFFFFFFFFFFFFFFFFFF
310
FFFFFFFFFFFFFFFFFFFFFFFFFFFFFFFFFFFFFFFFFFFFFFFFFFFFFFFFFFFFFFFF
310
FFFFFFFFFFFFFFFFFFFFFFFFFFFFFFFFF000FFFFFFFFFFFFFFFFFFFFFFFFFFFF
310
FFFFFFFFFFFFFFFFFFFFFFFFFFFFFFFFFFFFFFFFFFFFFFFFFFFFFFFFFFFFFFFF
310
FFFFFFFFFFFFFFFFFFFFFFFFFFFFFFFFFFFFFFFFFFFFFFFFFFFFFFFFFFFFFFFF
310
FFFFFFFFFFFFFFFFF000FFFFFFFFFFFFFFFFFFFFFFFFFFFFFFFFFFFFFFFFFFFF
310
FFFFFFFFFFFFFFFFFFFFFFFFFFFFFFFFFFFFFFFFFFFFFFFFFFFFFFFFFFFFFFFF
310
FFFFFFFFFFFFFFFFFFFFFFFFFFFFFFFFFFFFFFFFFFFFFFFFFFFFFFFFFFFFFFFF
310
F000FFFFFFFFFFFFFFFFFFFFFFFFFFFFFFFFFFFFFFFFFFFFFFFFFFFFFFFFFFFF
310
FFFFFFFFFFFFFFFFFFFFFFFFFFFFFFFFFFFFFFFFFFFFFFFFFFFFFFFFFFFFFFFF
310
FFFFFFFFFFFFFFFFFFFFFFFFFFFFFFFFFFFFFFFFFFFFFFFFF000FFFFFFFFFFFF
310
FFFFFFFFFFFFFFFFFFFFFFFFFFFFFFFFFFFFFFFFFFFFFFFFFFFFFFFFFFFFFFFF
310
FFFFFFFFFFFFFFFFFFFFFFFFFFFFFFFFFFFFFFFFFFFFFFFFFFFFFFFFFFFFFFFF
310
FFFFFFFFFFFFFFFFFFFFFFFFFFFFFFFFF000FFFFFFFFFFFFFFFFFFFFFFFFFFFF
310
FFFFFFFFFFFFFFFFFFFFFFFFFFFFFFFFFFFFFFFFFFFFFFFFFFFFFFFFFFFFFFFF
310
FFFFFFFFFFFFFFFFFFFFFFFFFFFFFFFFFFFFFFFFFFFFFFFFFFFFFFFFFFFFFFFF
310
FFFFFFFFFFFFFFFFF000FFFFFFFFFFFFFFFFFFFFFFFFFFFFFFFFFFFFFFFFFFFF
310
FFFFFFFFFFFFFFFFFFFFFFFFFFFFFFFFFFFFFFFFFFFFFFFFFFFFFFFFFFFFFFFF
310
FFFFFFFFFFFFFFFFFFFFFFFFFFFFFFFFFFFFFFFFFFFFFFFFFFFFFFFFFFFFFFFF
310
F000FFFFFFFFFFFFFFFFFFFFFFFFFFFFFFFFFFFFFFFFFFFFFFFFFFFFFFFFFFFF
310
FFFFFFFFFFFFFFFFFFFFFFFFFFFFFFFFFFFFFFFFFFFFFFFFFFFFFFFFFFFFFFFF
310
FFFFFFFFFFFFFFFFFFFFFFFFFFFFFFFFFFFFFFFFFFFFFFFFF000FFFFFFFFFFFF
310
FFFFFFFFFFFFFFFFFFFFFFFFFFFFFFFFFFFFFFFFFFFFFFFFFFFFFFFFFFFFFFFF
310
FFFFFFFFFFFFFFFFFFFFFFFFFFFFFFFFFFFFFFFFFFFFFFFFFFFFFFFFFFFFFFFF
310
FFFFFFFFFFFFFFFFFFFFFFFFFFFFFFFFF000FFFFFFFFFFFFFFFFFFFFFFFFFFFF
310
FFFFFFFFFFFFFFFFFFFFFFFFFFFFFFFFFFFFFFFFFFFFFFFFFFFFFFFFFFFFFFFF
310
FFFFFFFFFFFFFFFFFFFFFFFFFFFFFFFFFFFFFFFFFFFFFFFFFFFFFFFFFFFFFFFF
310
FFFFFFFFFFFFFFFFF000FFFFFFFFFFFFFFFFFFFFFFFFFFFFFFFFFFFFFFFFFFFF
310
FFFFFFFFFFFFFFFFFFFFFFFFFFFFFFFFFFFFFFFFFFFFFFFFFFFFFFFFFFFFFFFF
310
FFFFFFFFFFFFFFFFFFFFFFFFFFFFFFFFFFFFFFFFFFFFFFFFFFFFFFFFFFFFFFFF
310
F000FFFFFFFFFFFFFFFFFFFFFFFFFFFFFFFFFFFFFFFFFFFFFFFFFFFFFFFFFFFF
310
FFFFFFFFFFFFFFFFFFFFFFFFFFFFFFFFFFFFFFFFFFFFFFFFFFFFFFFFFFFFFFFF
310
FFFFFFFFFFFFFFFFFFFFFFFFFFFFFFFFFFFFFFFFFFFFFFFFF000FFFFFFFFFFFF
310
FFFFFFFFFFFFFFFFFFFFFFFFFFFFFFFFFFFFFFFFFFFFFFFFFFFFFFFFFFFFFFFF
310
FFFFFFFFFFFFFFFFFFFFFFFFFFFFFFFFFFFFFFFFFFFFFFFFFFFFFFFFFFFFFFFF
310
FFFFFFFFFFFFFFFFFFFFFFFFFFFFFFFFF000FFFFFFFFFFFFFFFFFFFFFFFFFFFF
310
FFFFFFFFFFFFFFFFFFFFFFFFFFFFFFFFFFFFFFFFFFFFFFFFFFFFFFFFFFFFFFFF
310
FFFFFFFFFFFFFFFFFFFFFFFFFFFFFFFFFFFFFFFFFFFFFFFFFFFFFFFFFFFFFFFF
310
FFFFFFFFFFFFFFFFF000FFFFF80003FFFFFFFFFFFFFFFFFFFFFFFFFFFFFFFFFF
310
FFFFF00007FFFFFFFFFF00007FFFFFF800000000000000007FFFFFFFFFFFFFFF
310
FFFFFFFC001FFFFFFFFFFFFFFC001FFFFFFFFFFFFFFFFFFFFFFFFFFE0007FFFF
310
F000FFFF8000007FFFFFFFF8000FFFFFC0007FFFFF80007FFFFF0000007FFFFF
310
FFF8000007FFFFF800000000000000007FFFFFF0001FFFFFFFFFFFC00001FFFF
310
FFFFFFFFC00001FFFFFFFF000000000003FFFFE000007FFFF000FFFE0000000F
310
FFFFFFF0000FFFFF80007FFFFF80007FFFFC0000001FFFFFFFC0000001FFFFF8
310
00000000000000007FFFFFF0001FFFFFFFFFFE0000003FFFFFFFFFFE0000003F
310
FFFFFF000000000003FFFF0000000FFFF000FFF800000003FFFFFFF00007FFFF
310
80007FFFFF80007FFFF000000007FFFFFF000000003FFFF80000000000000000
310
7FFFFFF0001FFFFFFFFFF80000000FFFFFFFFFF80000000FFFFFFF0000000000
310
03FFFC00000003FFF000FFE000000000FFFFFFF00007FFFF80003FFFFF80007F
310
FFC000000001FFFFFC000000001FFFF800000000000000007FFFFFF0001FFFFF
310
FFFFE000000003FFFFFFFFE000000003FFFFFF000000000003FFF000000000FF
310
F000FF80000000007FFFFFF00007FFFF80003FFFFF80007FFF8000000000FFFF
310
F80000000007FFF800000000000000007FFFFFF0001FFFFFFFFFC000000001FF
310
FFFFFFC000000001FFFFFF000000000003FFC0000000007FF000FF0000000000
310
3FFFFFE00007FFFF00003FFFFF80007FFE00000000003FFFF00000000003FFF8
310
00000000000000007FFFFFF0001FFFFFFFFF8000000000FFFFFFFF8000000000
310
FFFFFF000000000003FF80000000003FF000FE00000000001FFFFFE00003FFFF
310
00003FFFFF80007FFC00000000001FFFE00000000001FFF8000001FFFE000000
310
7FFFFFF0001FFFFFFFFE00000000003FFFFFFE00000000003FFFFF0000000000
310
03FF00000000001FF000FC00000000000FFFFFE00003FFFF00001FFFFF80007F
310
F800000000001FFFC00000000000FFF8000001FFFE0000007FFFFFF0001FFFFF
310
FFFC00000000001FFFFFFC00000000001FFFFF000000000003FE00000000000F
310
F000F8000000000007FFFFE00003FFFF00001FFFFF80007FF800000000000FFF
310
800000000000FFF8000001FFFE0000007FFFFFF0001FFFFFFFF800000000000F
310
FFFFF800000000000FFFFF000000000003FC000000000007F000F80000000000
310
03FFFFC00003FFFE00001FFFFF80007FF0000000000007FF0000000000007FF8
310
000001FFFE0000007FFFFFF0001FFFFFFFF0000000000007FFFFF00000000000
310
07FFFF000000000003F8000000000003F000F0000000000003FFFFC00001FFFE
310
00001FFFFF80007FE0000000000007FE0000000000003FF8000001FFFE000000
310
7FFFFFF0001FFFFFFFF0000000000007FFFFF0000000000007FFFF0000000000
310
03F800001F800003F000E00001FFF00001FFFFC00001FFFE00000FFFFF80007F
310
E00001FFE00003FE00001FFF00003FF8000001FFFE0000007FFFFFF0001FFFFF
310
FFE000003E000003FFFFE000003E000003FFFF000000000003F00001FFF80001
310
F000E00007FFFC0001FFFFC00001FFFE00000FFFFF80007FC0000FFFFC0003FC
310
0000FFFFC0001FF8000001FFFE0000007FFFFFF0001FFFFFFFC00003FFE00001
310
FFFFC00003FFE00001FFFF0001FFFFFFFFF00007FFFE0001F000E0000FFFFF00
310
00FFFF800001FFFC00000FFFFF80007FC0001FFFFE0001FC0001FFFFE0001FF8
310
000001FFFE0000007FFFFFF0001FFFFFFF80000FFFF80000FFFF80000FFFF800
310
00FFFF0003FFFFFFFFE0000FFFFF8000F000C0003FFFFF8000FFFF800000FFFC
310
000007FFFF80007F80003FFFFF0001FC0003FFFFF0001FF8000001FFFE000000
310
7FFFFFF0001FFFFFFF80003FFFFE0000FFFF80003FFFFE0000FFFF0003FFFFFF
310
FFE0003FFFFF8000F000C0003FFFFF8000FFFF800000FFFC000007FFFF80007F
310
80007FFFFF8001F80007FFFFF8000FF8000001FFFE0000007FFFFFF0001FFFFF
310
FF00007FFFFF00007FFF00007FFFFF00007FFF0003FFFFFFFFE0003FFFFFC000
310
F000C0007FFFFFC000FFFF000000FFFC000007FFFF80007F8000FFFFFF8000F8
310
000FFFFFF8000FF8000001FFFE0000007FFFFFF0001FFFFFFF0000FFFFFF8000
310
7FFF0000FFFFFF80007FFF0003FFFFFFFFC0007FFFFFC00070008000FFFFFFC0
310
00FFFF000000FFF8000007FFFF80007F8000FFFFFF8000F8000FFFFFF8000FF8
310
000001FFFE0000007FFFFFF0001FFFFFFE0001FFFFFFC0003FFE0001FFFFFFC0
310
003FFF0003FFFFFFFFC0007FFFFFE00070008000FFFFFFC0007FFF0000007FF8
310
000003FFFF80007F0001FFFFFF8000F8000FFFFFF8000FF8000001FFFE000000
310
7FFFFFF0001FFFFFFE0001FFFFFFC0003FFE0001FFFFFFC0003FFF0003FFFFFF
310
FFC000FFFFFFE00070008000FFFFFFC0007FFF0000007FF8000003FFFF80007F
310
0001FFFFFF8000F8001FFFFFF8000FF8000001FFFE0000007FFFFFF0001FFFFF
310
FE0003FFFFFFE0003FFE0003FFFFFFE0003FFF0003FFFFFFFFC000FFFFFFE000
310
70008000FFFFFFC0007FFE0000007FF8000003FFFF80007F0001FFFFFF8000F0
310
001FFFFFF8000FF8000001FFFE0000007FFFFFF0001FFFFFFC0003FFFFFFE000
310
1FFC0003FFFFFFE0001FFF0003FFFFFFFFC000FFFFFFC00070008000FFFFFF80
310
007FFE0000007FF0000003FFFF80007F0001FFFFFF0000F0001FFFFFF8000FF8
310
000001FFFE0000007FFFFFF0001FFFFFFC0007FFFFFFF0001FFC0007FFFFFFF0
310
001FFF0003FFFFFFFFC000FFFFFFC00070008001FFFFFF0000FFFE0000003FF0
310
000001FFFF80007F0001FFFFFF0000F8001FFFFFF0000FF8000001FFFE000000
310
7FFFFFF0001FFFFFFC0007FFFFFFF0001FFC0007FFFFFFF0001FFF0003FFFFFF
310
FFC001FFFFFF80007000FFFFFFFFFE0000FFFE0008003FF0008001FFFF80007F
310
FFFFFFFFFC0000FFFFFFFFFFE0000FF8000001FFFE0000007FFFFFF0001FFFFF
310
F8000FFFFFFFF8000FF8000FFFFFFFF8000FFF0003FFFFFFFFFFFFFFFFFF0000
310
7000FFFFFFFFFC0000FFFC0008003FF0008001FFFF80007FFFFFFFFFF80001FF
310
FFFFFFFF80000FF8000001FFFE0000007FFFFFF0001FFFFFF8000FFFFFFFF800
310
0FF8000FFFFFFFF8000FFF0003FFFFFFFFFFFFFFFFFE0000F000FFFFFFFFE000
310
00FFFC000C003FE000C001FFFF80007FFFFFFFFFC00001FFFFFFFFFE00001FF8
310
000001FFFE0000007FFFFFF0001FFFFFF8000FFFFFFFF8000FF8000FFFFFFFF8
310
000FFF0003FFFFFFFFFFFFFFFFF00000F000FFFFFFFE000001FFFC000C001FE0
310
00C000FFFF80007FFFFFFFFE000001FFFFFFFFE000001FF80FFFFFFFFFFFFFC0
310
7FFFFFF0001FFFFFF8000FFFFFFFF8000FF8000FFFFFFFF8000FFF0003FFFFFF
310
FFFFFFFFFF800000F000FFFFFFC0000001FFFC001C001FE001C000FFFF80007F
310
FFFFFF80000003FFFFFFF80000001FF80FFFFFFFFFFFFFC07FFFFFF0001FFFFF
310
F8001FFFFFFFFC000FF8001FFFFFFFFC000FFF0003FFFFFFFFFFFFFFF0000001
310
F000FFFFF800000001FFF8001C001FE001C000FFFF80007FFFFFF800000003FF
310
FFFF800000003FF80FFFFFFFFFFFFFC07FFFFFF0001FFFFFF8001FFFFFFFFC00
310
0FF8001FFFFFFFFC000FFF0003FFFFFFFFFFFFFE00000001F000FFFFC0000000
310
03FFF8001E001FC001E000FFFF80007FFFFF8000000007FFFFFC000000003FF8
310
0FFFFFFFFFFFFFC07FFFFFF0001FFFFFF8001FFFFFFFFC000FF8001FFFFFFFFC
310
000FFF0003FFFFFFFFFFFFE000000003F000FFFE0000000007FFF8001E000FC0
310
01E0007FFF80007FFFFE0000000007FFFFE0000000007FF80FFFFFFFFFFFFFC0
310
7FFFFFF0001FFFFFF0001FFFFFFFFC0007F0001FFFFFFFFC0007FF0003FFFFFF
310
FFFFFF0000000003F000FFF80000000007FFF8001E000FC003E0007FFF80007F
310
FFF0000000000FFFFF8000000000FFF80FFFFFFFFFFFFFC07FFFFFF0001FFFFF
310
F0001FFFFFFFFC0007F0001FFFFFFFFC0007FF0003FFFFFFFFFFFC0000000007
310
F000FFE0000000000FFFF0003E000FC003E0007FFF80007FFFC0000000001FFF
310
FE0000000001FFF80FFFFFFFFFFFFFC07FFFFFF0001FFFFFF0001FFFFFFFFC00
310
07F0001FFFFFFFFC0007FF0003FFFFFFFFFFF0000000000FF000FFC000000000
310
1FFFF0003F000F8003F0003FFF80007FFF80000000003FFFF80000000003FFF8
310
0FFFFFFFFFFFFFC07FFFFFF0001FFFFFF0001FFFFFFFFC0007F0001FFFFFFFFC
310
0007FF0003FFFFFFFFFFE0000000001FF000FF00000000007FFFF0003F000780
310
03F0003FFF80007FFF00000000007FFFF00000000007FFF80FFFFFFFFFFFFFC0
310
7FFFFFF0001FFFFFF0001FFFFFFFFC0007F0001FFFFFFFFC0007FF0003FFFFFF
310
FFFF80000000007FF000FE0000000000FFFFE0003F00078007F0003FFF80007F
310
FE0000000001FFFFE0000000001FFFF80FFFFFFFFFFFFFC07FFFFFF0001FFFFF
310
F0001FFFFFFFFC0007F0001FFFFFFFFC0007FF0003FFFFFFFFFF0000000000FF
310
F000FC0000000003FFFFE0007F00078007F0003FFF80007FFC0000000007FFFF
310
C0000000007FFFF80FFFFFFFFFFFFFC07FFFFFF0001FFFFFF8001FFFFFFFFC00
310
0FF8001FFFFFFFFC000FFF0003FFFFFFFFFE0000000003FFF000FC000000000F
310
FFFFE0007F80070007F8001FFF80007FF8000000001FFFFF8000000001FFFFF8
310
0FFFFFFFFFFFFFC07FFFFFF0001FFFFFF8001FFFFFFFFC000FF8001FFFFFFFFC
310
000FFF0003FFFFFFFFFC000000000FFFF000F8000000007FFFFFE0007F800700
310
07F8001FFF80007FF000000000FFFFFF800000000FFFFFF80FFFFFFFFFFFFFC0
310
7FFFFFF0001FFFFFF8000FFFFFFFF8000FF8000FFFFFFFF8000FFF0003FFFFFF
310
FFFC000000007FFFF000F800000007FFFFFFC0007F8003000FF8001FFF80007F
310
F000000007FFFFFF000000007FFFFFF80FFFFFFFFFFFFFC07FFFFFF0001FFFFF
310
F8000FFFFFFFF8000FF8000FFFFFFFF8000FFF0003FFFFFFFFF80000000FFFFF
310
F000F0000000FFFFFFFFC000FF8003000FF8001FFF80007FE0000000FFFFFFFF
310
0000000FFFFFFFF8000001FFFE0000007FFFFFF0001FFFFFF8000FFFFFFFF800
310
0FF8000FFFFFFFF8000FFF0003FFFFFFFFF8000000FFFFFFF000F000000FFFFF
310
FFFFC000FFC002000FF8000FFF80007FE000001FFFFFFFFE000001FFFFFFFFF8
310
000001FFFE0000007FFFFFF0001FFFFFF8000FFFFFFFF8000FF8000FFFFFFFF8
310
000FFF0003FFFFFFFFF000001FFFFFFFF000E00000FFFFFFFFFFC000FFC00200
310
0FFC000FFF80007FE00001FFFFFFFFFE00001FFFFFFFFFF8000001FFFE000000
310
7FFFFFF0001FFFFFFC000FFFFFFFF8001FFC000FFFFFFFF8001FFF0003FFFFFF
310
FFF00001FFFFFFFFF000E00007FFFFFFFFFF8000FFC000001FFC000FFF80007F
310
C0000FFFFFFFFFFE0000FFFFFFFFFFF8000001FFFE0000007FFFFFF0001FFFFF
310
FC0007FFFFFFF0001FFC0007FFFFFFF0001FFF0003FFFFFFFFF00007FFFFFFFF
310
F000E0001FFFFFFFFFFF8000FFC000001FFC000FFF80007FC0003FFFFFFFFFFE
310
0001FFFFFFFFFFF8000001FFFE0000007FFFFFF0001FFFFFFC0007FFFFFFF000
310
1FFC0007FFFFFFF0001FFF0003FFFFFFFFF0001FFFFFFFFFF000E0003FFFFF00
310
03FF8001FFE000001FFC0007FF80007FC0007FFFFF0007FC0003FFFFF0003FF8
310
000001FFFE0000007FFFFFF0001FFFFFFC0003FFFFFFE0001FFC0003FFFFFFE0
310
001FFF0003FFFFFFFFF0003FFFFFFFFFF000E0003FFFFF0001FF8001FFE00000
310
1FFE0007FF80007FC0007FFFFE0003FC0007FFFFE0003FF8000001FFFE000000
310
7FFFFFF0001FFFFFFE0003FFFFFFE0003FFE0003FFFFFFE0003FFF0003FFFFFF
310
FFF0003FFFFF8001F000E0003FFFFF0001FF0001FFE000001FFE0007FF80007F
310
C0007FFFFE0003FC0007FFFFE0003FF8000001FFFE0000007FFFFFF0001FFFFF
310
FE0001FFFFFFC0003FFE0001FFFFFFC0003FFF0003FFFFFFFFF0003FFFFF0001
310
F000E0003FFFFF0003FF0001FFE000003FFE0007FF80007FC0007FFFFE0003FC
310
0007FFFFE0003FF8000001FFFE0000007FFFFFF0001FFFFFFF0001FFFFFFC000
310
7FFF0001FFFFFFC0007FFF0003FFFFFFFFF0003FFFFF0001F000E0003FFFFE00
310
03FF0003FFF000003FFE0003FF80007FC0007FFFFC0003FE0007FFFFE0003FF8
310
000001FFFE0000007FFFFFF0001FFFFFFF0000FFFFFF80007FFF0000FFFFFF80
310
007FFF0003FFFFFFFFF0003FFFFF0001F000E0003FFFFE0003FF0003FFF00000
310
3FFF0003FF80007FC0007FFFFC0007FE0007FFFFC0003FF8000001FFFE000000
310
7FFFFFF0001FFFFFFF80007FFFFF0000FFFF80007FFFFF0000FFFF0003FFFFFF
310
FFF0003FFFFF0003F000E0003FFFFC0003FE0003FFF000003FFF0003FF80007F
310
E0003FFFF80007FE0003FFFFC0007FF8000001FFFE0000007FFFFFF0001FFFFF
310
FF80003FFFFE0000FFFF80003FFFFE0000FFFF0003FFFFFFFFF0001FFFFE0003
310
F000F0001FFFF80003FE0003FFF000007FFF0001FF80007FE0003FFFF00007FE
310
0001FFFF80007FF8000001FFFE0000007FFFFFF0001FFFFFFFC0000FFFF80001
310
FFFFC0000FFFF80001FFFF0003FFFFFFFFF0001FFFFC0003F000F0000FFFF000
310
07FE0007FFF800007FFF0001FF80007FE0001FFFE00007FF0000FFFE00007FF8
310
000001FFFE0000007FFFFFF0001FFFFFFFC00003FFE00001FFFFC00003FFE000
310
01FFFF0003FFFFFFFFF8000FFFF80003F000F00003FFC00007FC0007FFF80000
310
7FFF8001FF80007FF00007FF80000FFF00007FF80000FFF8000001FFFE000000
310
7F80000000000001FFE000003E000003FFFFE000003E000003FFFF0003FFFFFF
310
FFF80003FFE00007F000F800000000000FFC0007FFF800007FFF8001FF80007F
310
F000000000000FFF000000000000FFF8000001FFFE0000007F80000000000001
310
FFF0000000000007FFFFF0000000000007FFFF0003FFFFFFFFFC00007E000007
310
F000F800000000000FFC0007FFF80000FFFF8000FF80007FF800000000001FFF
310
800000000001FFF8000001FFFE0000007F80000000000001FFF800000000000F
310
FFFFF800000000000FFFFF0003FFFFFFFFFC00000000000FF000FC0000000000
310
1FFC0007FFFC0000FFFF8000FF80007FF800000000003FFFC00000000001FFF8
310
000001FFFE0000007F80000000000001FFF800000000000FFFFFF80000000000
310
0FFFFF0003FFFFFFFFFE00000000001FF000FE00000000003FF8000FFFFC0000
310
FFFF8000FF80007FFC00000000003FFFC00000000003FFF8000001FFFE000000
310
7F80000000000001FFFC00000000001FFFFFFC00000000001FFFFF0003FFFFFF
310
FFFF00000000001FF000FF00000000003FF8000FFFFC0000FFFFC000FF80007F
310
FE00000000007FFFE00000000007FFF8000001FFFE0000007F80000000000001
310
FFFE00000000003FFFFFFE00000000003FFFFF0003FFFFFFFFFF80000000003F
310
F000FF80000000007FF8000FFFFC0001FFFFC0007F80007FFF0000000000FFFF
310
F0000000000FFFF800000000000000007F80000000000001FFFF8000000000FF
310
FFFFFF8000000000FFFFFF0003FFFFFFFFFFC0000000007FF000FFC000000000
310
FFF8000FFFFE0001FFFFC0007F80007FFF8000000001FFFFF8000000001FFFF8
310
00000000000000007F80000000000001FFFFC000000001FFFFFFFFC000000001
310
FFFFFF0003FFFFFFFFFFE000000000FFF000FFE000000003FFF0001FFFFE0001
310
FFFFC0007F80007FFFC000000007FFFFFE000000003FFFF80000000000000000
310
7F80000000000001FFFFE000000003FFFFFFFFE000000003FFFFFF0003FFFFFF
310
FFFFF000000003FFF000FFF80000000FFFF0001FFFFE0001FFFFE0007F80007F
310
FFF00000000FFFFFFF00000000FFFFF800000000000000007F80000000000001
310
FFFFF80000000FFFFFFFFFF80000000FFFFFFF0003FFFFFFFFFFFC0000000FFF
310
F000FFFE0000003FFFF0001FFFFE0003FFFFE0003F80007FFFFC0000003FFFFF
310
FFC0000003FFFFF800000000000000007F80000000000001FFFFFE0000003FFF
310
FFFFFFFE0000003FFFFFFF0003FFFFFFFFFFFF0000003FFFF000FFFF800000FF
310
FFF0001FFFFF0003FFFFE0003F80007FFFFF000001FFFFFFFFF800001FFFFFF8
310
00000000000000007F80000000000001FFFFFFC00001FFFFFFFFFFFFC00001FF
310
FFFFFF0003FFFFFFFFFFFFC00000FFFFF000FFFFF8000FFFFFFFFFFFFFFFFFFF
310
FFFFFFFFFFFFFFFFFFFFF0001FFFFFFFFFFF0000FFFFFFF80000000000000000
310
7FFFFFFFFFFFFFFFFFFFFFFC001FFFFFFFFFFFFFFC001FFFFFFFFFFFFFFFFFFF
310
FFFFFFFC001FFFFFF000FFFFFFFFFFFFFFFFFFFFFFFFFFFFFFFFFFFFFFFFFFFF
310
FFFFFFFFFFFFFFFFFFFFFFFFFFFFFFFFFFFFFFFFFFFFFFFFFFFFFFFFFFFFFFFF
310
FFFFFFFFFFFFFFFFFFFFFFFFFFFFFFFFFFFFFFFFFFFFFFFFFFFFFFFFFFFFFFFF
310
F000FFFFFFFFFFFFFFFFFFFFFFFFFFFFFFFFFFFFFFFFFFFFFFFFFFFFFFFFFFFF
310
FFFFFFFFFFFFFFFFFFFFFFFFFFFFFFFFFFFFFFFFFFFFFFFFFFFFFFFFFFFFFFFF
310
FFFFFFFFFFFFFFFFFFFFFFFFFFFFFFFFFFFFFFFFFFFFFFFFF000FFFFFFFFFFFF
310
FFFFFFFFFFFFFFFFFFFFFFFFFFFFFFFFFFFFFFFFFFFFFFFFFFFFFFFFFFFFFFFF
310
FFFFFFFFFFFFFFFFFFFFFFFFFFFFFFFFFFFFFFFFFFFFFFFFFFFFFFFFFFFFFFFF
310
FFFFFFFFFFFFFFFFFFFFFFFFFFFFFFFFF000FFFFFFFFFFFFFFFFFFFFFFFFFFFF
310
FFFFFFFFFFFFFFFFFFFFFFFFFFFFFFFFFFFFFFFFFFFFFFFFFFFFFFFFFFFFFFFF
310
FFFFFFFFFFFFFFFFFFFFFFFFFFFFFFFFFFFFFFFFFFFFFFFFFFFFFFFFFFFFFFFF
310
FFFFFFFFFFFFFFFFF000FFFFFFFFFFFFFFFFFFFFFFFFFFFFFFFFFFFFFFFFFFFF
310
FFFFFFFFFFFFFFFFFFFFFFFFFFFFFFFFFFFFFFFFFFFFFFFFFFFFFFFFFFFFFFFF
310
FFFFFFFFFFFFFFFFFFFFFFFFFFFFFFFFFFFFFFFFFFFFFFFFFFFFFFFFFFFFFFFF
310
F000FFFFFFFFFFFFFFFFFFFFFFFFFFFFFFFFFFFFFFFFFFFFFFFFFFFFFFFFFFFF
310
FFFFFFFFFFFFFFFFFFFFFFFFFFFFFFFFFFFFFFFFFFFFFFFFFFFFFFFFFFFFFFFF
310
FFFFFFFFFFFFFFFFFFFFFFFFFFFFFFFFFFFFFFFFFFFFFFFFF000FFFFFFFFFFFF
310
FFFFFFFFFFFFFFFFFFFFFFFFFFFFFFFFFFFFFFFFFFFFFFFFFFFFFFFFFFFFFFFF
310
FFFFFFFFFFFFFFFFFFFFFFFFFFFFFFFFFFFFFFFFFFFFFFFFFFFFFFFFFFFFFFFF
310
FFFFFFFFFFFFFFFFFFFFFFFFFFFFFFFFF000FFFFFFFFFFFFFFFFFFFFFFFFFFFF
310
FFFFFFFFFFFFFFFFFFFFFFFFFFFFFFFFFFFFFFFFFFFFFFFFFFFFFFFFFFFFFFFF
310
FFFFFFFFFFFFFFFFFFFFFFFFFFFFFFFFFFFFFFFFFFFFFFFFFFFFFFFFFFFFFFFF
310
FFFFFFFFFFFFFFFFF000FFFFFFFFFFFFFFFFFFFFFFFFFFFFFFFFFFFFFFFFFFFF
310
FFFFFFFFFFFFFFFFFFFFFFFFFFFFFFFFFFFFFFFFFFFFFFFFFFFFFFFFFFFFFFFF
310
FFFFFFFFFFFFFFFFFFFFFFFFFFFFFFFFFFFFFFFFFFFFFFFFFFFFFFFFFFFFFFFF
310
F000FFFFFFFFFFFFFFFFFFFFFFFFFFFFFFFFFFFFFFFFFFFFFFFFFFFFFFFFFFFF
310
FFFFFFFFFFFFFFFFFFFFFFFFFFFFFFFFFFFFFFFFFFFFFFFFFFFFFFFFFFFFFFFF
310
FFFFFFFFFFFFFFFFFFFFFFFFFFFFFFFFFFFFFFFFFFFFFFFFF000FFFFFFFFFFFF
310
FFFFFFFFFFFFFFFFFFFFFFFFFFFFFFFFFFFFFFFFFFFFFFFFFFFFFFFFFFFFFFFF
310
FFFFFFFFFFFFFFFFFFFFFFFFFFFFFFFFFFFFFFFFFFFFFFFFFFFFFFFFFFFFFFFF
310
FFFFFFFFFFFFFFFFFFFFFFFFFFFFFFFFF000FFFFFFFFFFFFFFFFFFFFFFFFFFFF
310
FFFFFFFFFFFFFFFFFFFFFFFFFFFFFFFFFFFFFFFFFFFFFFFFFFFFFFFFFFFFFFFF
310
FFFFFFFFFFFFFFFFFFFFFFFFFFFFFFFFFFFFFFFFFFFFFFFFFFFFFFFFFFFFFFFF
310
FFFFFFFFFFFFFFFFF000FFFFFFFFFFFFFFFFFFFFFFFFFFFFFFFFFFFFFFFFFFFF
310
FFFFFFFFFFFFFFFFFFFFFFFFFFFFFFFFFFFFFFFFFFFFFFFFFFFFFFFFFFFFFFFF
310
FFFFFFFFFFFFFFFFFFFFFFFFFFFFFFFFFFFFFFFFFFFFFFFFFFFFFFFFFFFFFFFF
310
F000FFFFFFFFFFFFFFFFFFFFFFFFFFFFFFFFFFFFFFFFFFFFFFFFFFFFFFFFFFFF
310
FFFFFFFFFFFFFFFFFFFFFFFFFFFFFFFFFFFFFFFFFFFFFFFFFFFFFFFFFFFFFFFF
310
FFFFFFFFFFFFFFFFFFFFFFFFFFFFFFFFFFFFFFFFFFFFFFFFF000FFFFFFFFFFFF
310
FFFFFFFFFFFFFFFFFFFFFFFFFFFFFFFFFFFFFFFFFFFFFFFFFFFFFFFFFFFFFFFF
310
FFFFFFFFFFFFFFFFFFFFFFFFFFFFFFFFFFFFFFFFFFFFFFFFFFFFFFFFFFFFFFFF
310
FFFFFFFFFFFFFFFFFFFFFFFFFFFFFFFFF000FFFFFFFFFFFFFFFFFFFFFFFFFFFF
310
FFFFFFFFFFFFFFFFFFFFFFFFFFFFFFFFFFFFFFFFFFFFFFFFFFFFFFFFFFFFFFFF
310
FFFFFFFFFFFFFFFFFFFFFFFFFFFFFFFFFFFFFFFFFFFFFFFFFFFFFFFFFFFFFFFF
310
FFFFFFFFFFFFFFFFF000FFFFFFFFFFFFFFFFFFFFFFFFFFFFFFFFFFFFFFFFFFFF
310
FFFFFFFFFFFFFFFFFFFFFFFFFFFFFFFFFFFFFFFFFFFFFFFFFFFFFFFFFFFFFFFF
310
FFFFFFFFFFFFFFFFFFFFFFFFFFFFFFFFFFFFFFFFFFFFFFFFFFFFFFFFFFFFFFFF
310
F000FFFFFFFFFFFFFFFFFFFFFFFFFFFFFFFFFFFFFFFFFFFFFFFFFFFFFFFFFFFF
310
FFFFFFFFFFFFFFFFFFFFFFFFFFFFFFFFFFFFFFFFFFFFFFFFFFFFFFFFFFFFFFFF
310
FFFFFFFFFFFFFFFFFFFFFFFFFFFFFFFFFFFFFFFFFFFFFFFFF000FFFFFFFFFFFF
310
FFFFFFFFFFFFFFFFFFFFFFFFFFFFFFFFFFFFFFFFFFFFFFFFFFFFFFFFFFFFFFFF
310
FFFFFFFFFFFFFFFFFFFFFFFFFFFFFFFFFFFFFFFFFFFFFFFFFFFFFFFFFFFFFFFF
310
FFFFFFFFFFFFFFFFFFFFFFFFFFFFFFFFF000FFFFFFFFFFFFFFFFFFFFFFFFFFFF
310
FFFFFFFFFFFFFFFFFFFFFFFFFFFFFFFFFFFFFFFFFFFFFFFFFFFFFFFFFFFFFFFF
310
FFFFFFFFFFFFFFFFFFFFFFFFFFFFFFFFFFFFFFFFFFFFFFFFFFFFFFFFFFFFFFFF
310
FFFFFFFFFFFFFFFFF000FFFFFFFFFFFFFFFFFFFFFFFFFFFFFFFFFFFFFFFFFFFF
310
FFFFFFFFFFFFFFFFFFFFFFFFFFFFFFFFFFFFFFFFFFFFFFFFFFFFFFFFFFFFFFFF
310
FFFFFFFFFFFFFFFFFFFFFFFFFFFFFFFFFFFFFFFFFFFFFFFFFFFFFFFFFFFFFFFF
310
F000FFFFFFFFFFFFFFFFFFFFFFFFFFFFFFFFFFFFFFFFFFFFFFFFFFFFFFFFFFFF
310
FFFFFFFFFFFFFFFFFFFFFFFFFFFFFFFFFFFFFFFFFFFFFFFFFFFFFFFFFFFFFFFF
310
FFFFFFFFFFFFFFFFFFFFFFFFFFFFFFFFFFFFFFFFFFFFFFFFF000FFFFFFFFFFFF
310
FFFFFFFFFFFFFFFFFFFFFFFFFFFFFFFFFFFFFFFFFFFFFFFFFFFFFFFFFFFFFFFF
310
FFFFFFFFFFFFFFFFFFFFFFFFFFFFFFFFFFFFFFFFFFFFFFFFFFFFFFFFFFFFFFFF
310
FFFFFFFFFFFFFFFFFFFFFFFFFFFFFFFFF0000000000000000000000000000000
310
0000000000000000000000000000000000000000000000000000000000000000
310
0000000000000000000000000000000000000000000000000000000000000000
310
0000000000000000000000000000000000000000000000000000000000000000
310
0000000000000000000000000000000000000000000000000000000000000000
310
0000000000000000000000000000000000000000000000000000000000000000
310
0000000000000000000000000000000000000000000000000000000000000000
310
0000000000000000000000000000000000000000000000000000000000000000
310
0000000000000000000000000000000000000000000000000000000000000000
310
0000000000000000000000000000000000000000000000000000000000000000
310
0000000000000000000000000000000000000000000000000000000000000000
310
0000000000000000000000000000000000000000000000000000000000000000
310
0000000000000000000000000000000000000000000000000000000000000000
310
0000000000000000000000000000000000000000000000000000000000000000
310
0000000000000000000000000000000000000000000000000000000000000000
310
0000000000000000000000000000000000000000000000000000000000000000
  1
OLE
  0
ENDSEC
  0
SECTION
  2
OBJECTS
  0
DICTIONARY
  5
C
330
0
100
AcDbDictionary
281
     1
  3
ACAD_GROUP
350
D
  3
ACAD_LAYOUT
350
1A
  3
ACAD_MLINESTYLE
350
17
  3
ACAD_PLOTSETTINGS
350
19
  3
ACAD_PLOTSTYLENAME
350
E
  3
ACAD_SCALELIST
350
47
  0
DICTIONARY
  5
D
102
{ACAD_REACTORS
330
C
102
}
330
C
100
AcDbDictionary
281
     1
  0
DICTIONARY
  5
1A
102
{ACAD_REACTORS
330
C
102
}
330
C
100
AcDbDictionary
281
     1
  3
Layout1
350
1E
  3
Layout2
350
26
  3
Model
350
22
  0
DICTIONARY
  5
17
102
{ACAD_REACTORS
330
C
102
}
330
C
100
AcDbDictionary
281
     1
  3
Standard
350
18
  0
DICTIONARY
  5
19
102
{ACAD_REACTORS
330
C
102
}
330
C
100
AcDbDictionary
281
     1
  0
ACDBDICTIONARYWDFLT
  5
E
102
{ACAD_REACTORS
330
C
102
}
330
C
100
AcDbDictionary
281
     1
  3
Normal
350
F
100
AcDbDictionaryWithDefault
340
F
  0
DICTIONARY
  5
47
102
{ACAD_REACTORS
330
C
102
}
330
C
100
AcDbDictionary
281
     1
  3
A0
350
48
  3
A1
350
49
  3
A2
350
4A
  3
A3
350
4B
  3
A4
350
4C
  3
A5
350
4D
  3
A6
350
4E
  3
A7
350
4F
  3
A8
350
50
  3
A9
350
51
  3
B0
350
52
  3
B1
350
53
  3
B2
350
54
  3
B3
350
55
  3
B4
350
56
  3
B5
350
57
  3
B6
350
58
  3
B7
350
59
  3
B8
350
5A
  3
B9
350
5B
  3
C0
350
5C
  3
C1
350
5D
  3
C2
350
5E
  3
C3
350
5F
  3
C4
350
60
  3
C5
350
61
  3
C6
350
62
  3
C7
350
63
  3
C8
350
64
  3
C9
350
65
  3
D0
350
66
  3
D1
350
67
  3
D2
350
68
  0
LAYOUT
  5
1E
102
{ACAD_REACTORS
330
1A
102
}
330
1A
100
AcDbPlotSettings
  1

  2
none_device
  4

  6

 40
0.0
 41
0.0
 42
0.0
 43
0.0
 44
0.0
 45
0.0
 46
0.0
 47
0.0
 48
0.0
 49
0.0
140
0.0
141
0.0
142
1.0
143
1.0
 70
   688
 72
     1
 73
     0
 74
     5
  7

 75
    16
147
1.0
148
0.0
149
0.0
100
AcDbLayout
  1
Layout1
 70
     1
 71
     1
 10
0.0
 20
0.0
 11
420.0
 21
297.0
 12
0.0
 22
0.0
 32
0.0
 14
1.0000000000E+20
 24
1.0000000000E+20
 34
1.0000000000E+20
 15
-1.0000000000E+20
 25
-1.0000000000E+20
 35
-1.0000000000E+20
146
0.0
 13
0.0
 23
0.0
 33
0.0
 16
1.0
 26
0.0
 36
0.0
 17
0.0
 27
1.0
 37
0.0
 76
     0
330
1B
  0
LAYOUT
  5
26
102
{ACAD_REACTORS
330
1A
102
}
330
1A
100
AcDbPlotSettings
  1

  2
none_device
  4

  6

 40
0.0
 41
0.0
 42
0.0
 43
0.0
 44
0.0
 45
0.0
 46
0.0
 47
0.0
 48
0.0
 49
0.0
140
0.0
141
0.0
142
1.0
143
1.0
 70
   688
 72
     1
 73
     0
 74
     5
  7

 75
    16
147
1.0
148
0.0
149
0.0
100
AcDbLayout
  1
Layout2
 70
     1
 71
     2
 10
0.0
 20
0.0
 11
0.0
 21
0.0
 12
0.0
 22
0.0
 32
0.0
 14
0.0
 24
0.0
 34
0.0
 15
0.0
 25
0.0
 35
0.0
146
0.0
 13
0.0
 23
0.0
 33
0.0
 16
1.0
 26
0.0
 36
0.0
 17
0.0
 27
1.0
 37
0.0
 76
     0
330
23
  0
LAYOUT
  5
22
102
{ACAD_REACTORS
330
1A
102
}
330
1A
100
AcDbPlotSettings
  1

  2
none_device
  4
Letter_(8.50_x_11.00_Inches)
  6

 40
6.35
 41
6.35
 42
6.35000508
 43
6.35000508
 44
215.9
 45
279.4
 46
0.0
 47
0.0
 48
0.0
 49
0.0
140
0.0
141
0.0
142
1.0
143
1.0
 70
  1712
 72
     1
 73
     0
 74
     0
  7

 75
     0
147
1.0
148
0.0
149
0.0
100
AcDbLayout
  1
Model
 70
     1
 71
     0
 10
0.0
 20
0.0
 11
297.0
 21
210.0
 12
0.0
 22
0.0
 32
0.0
 14
0.0
 24
0.0
 34
0.0
 15
297.0
 25
210.0
 35
0.0
146
0.0
 13
0.0
 23
0.0
 33
0.0
 16
1.0
 26
0.0
 36
0.0
 17
0.0
 27
1.0
 37
0.0
 76
     0
330
1F
331
29
  0
MLINESTYLE
  5
18
102
{ACAD_REACTORS
330
17
102
}
330
17
100
AcDbMlineStyle
  2
Standard
 70
     0
  3

 62
   256
 51
90.0
 52
90.0
 71
     2
 49
0.5
 62
   256
  6
BYLAYER
 49
-0.5
 62
   256
  6
BYLAYER
  0
ACDBPLACEHOLDER
  5
F
102
{ACAD_REACTORS
330
E
102
}
330
E
  0
SCALE
  5
48
102
{ACAD_REACTORS
330
47
102
}
330
47
100
AcDbScale
 70
     0
300
1:1
140
1.0
141
1.0
290
     1
  0
SCALE
  5
49
102
{ACAD_REACTORS
330
47
102
}
330
47
100
AcDbScale
 70
     0
300
1:2
140
1.0
141
2.0
290
     0
  0
SCALE
  5
4A
102
{ACAD_REACTORS
330
47
102
}
330
47
100
AcDbScale
 70
     0
300
1:4
140
1.0
141
4.0
290
     0
  0
SCALE
  5
4B
102
{ACAD_REACTORS
330
47
102
}
330
47
100
AcDbScale
 70
     0
300
1:5
140
1.0
141
5.0
290
     0
  0
SCALE
  5
4C
102
{ACAD_REACTORS
330
47
102
}
330
47
100
AcDbScale
 70
     0
300
1:8
140
1.0
141
8.0
290
     0
  0
SCALE
  5
4D
102
{ACAD_REACTORS
330
47
102
}
330
47
100
AcDbScale
 70
     0
300
1:10
140
1.0
141
10.0
290
     0
  0
SCALE
  5
4E
102
{ACAD_REACTORS
330
47
102
}
330
47
100
AcDbScale
 70
     0
300
1:16
140
1.0
141
16.0
290
     0
  0
SCALE
  5
4F
102
{ACAD_REACTORS
330
47
102
}
330
47
100
AcDbScale
 70
     0
300
1:20
140
1.0
141
20.0
290
     0
  0
SCALE
  5
50
102
{ACAD_REACTORS
330
47
102
}
330
47
100
AcDbScale
 70
     0
300
1:30
140
1.0
141
30.0
290
     0
  0
SCALE
  5
51
102
{ACAD_REACTORS
330
47
102
}
330
47
100
AcDbScale
 70
     0
300
1:40
140
1.0
141
40.0
290
     0
  0
SCALE
  5
52
102
{ACAD_REACTORS
330
47
102
}
330
47
100
AcDbScale
 70
     0
300
1:50
140
1.0
141
50.0
290
     0
  0
SCALE
  5
53
102
{ACAD_REACTORS
330
47
102
}
330
47
100
AcDbScale
 70
     0
300
1:100
140
1.0
141
100.0
290
     0
  0
SCALE
  5
54
102
{ACAD_REACTORS
330
47
102
}
330
47
100
AcDbScale
 70
     0
300
2:1
140
2.0
141
1.0
290
     0
  0
SCALE
  5
55
102
{ACAD_REACTORS
330
47
102
}
330
47
100
AcDbScale
 70
     0
300
4:1
140
4.0
141
1.0
290
     0
  0
SCALE
  5
56
102
{ACAD_REACTORS
330
47
102
}
330
47
100
AcDbScale
 70
     0
300
8:1
140
8.0
141
1.0
290
     0
  0
SCALE
  5
57
102
{ACAD_REACTORS
330
47
102
}
330
47
100
AcDbScale
 70
     0
300
10:1
140
10.0
141
1.0
290
     0
  0
SCALE
  5
58
102
{ACAD_REACTORS
330
47
102
}
330
47
100
AcDbScale
 70
     0
300
100:1
140
100.0
141
1.0
290
     0
  0
SCALE
  5
59
102
{ACAD_REACTORS
330
47
102
}
330
47
100
AcDbScale
 70
     0
300
1/128" = 1'-0"
140
0.0078125
141
12.0
290
     0
  0
SCALE
  5
5A
102
{ACAD_REACTORS
330
47
102
}
330
47
100
AcDbScale
 70
     0
300
1/64" = 1'-0"
140
0.015625
141
12.0
290
     0
  0
SCALE
  5
5B
102
{ACAD_REACTORS
330
47
102
}
330
47
100
AcDbScale
 70
     0
300
1/32" = 1'-0"
140
0.03125
141
12.0
290
     0
  0
SCALE
  5
5C
102
{ACAD_REACTORS
330
47
102
}
330
47
100
AcDbScale
 70
     0
300
1/16" = 1'-0"
140
0.0625
141
12.0
290
     0
  0
SCALE
  5
5D
102
{ACAD_REACTORS
330
47
102
}
330
47
100
AcDbScale
 70
     0
300
3/32" = 1'-0"
140
0.09375
141
12.0
290
     0
  0
SCALE
  5
5E
102
{ACAD_REACTORS
330
47
102
}
330
47
100
AcDbScale
 70
     0
300
1/8" = 1'-0"
140
0.125
141
12.0
290
     0
  0
SCALE
  5
5F
102
{ACAD_REACTORS
330
47
102
}
330
47
100
AcDbScale
 70
     0
300
3/16" = 1'-0"
140
0.1875
141
12.0
290
     0
  0
SCALE
  5
60
102
{ACAD_REACTORS
330
47
102
}
330
47
100
AcDbScale
 70
     0
300
1/4" = 1'-0"
140
0.25
141
12.0
290
     0
  0
SCALE
  5
61
102
{ACAD_REACTORS
330
47
102
}
330
47
100
AcDbScale
 70
     0
300
3/8" = 1'-0"
140
0.375
141
12.0
290
     0
  0
SCALE
  5
62
102
{ACAD_REACTORS
330
47
102
}
330
47
100
AcDbScale
 70
     0
300
1/2" = 1'-0"
140
0.5
141
12.0
290
     0
  0
SCALE
  5
63
102
{ACAD_REACTORS
330
47
102
}
330
47
100
AcDbScale
 70
     0
300
3/4" = 1'-0"
140
0.75
141
12.0
290
     0
  0
SCALE
  5
64
102
{ACAD_REACTORS
330
47
102
}
330
47
100
AcDbScale
 70
     0
300
1" = 1'-0"
140
1.0
141
12.0
290
     0
  0
SCALE
  5
65
102
{ACAD_REACTORS
330
47
102
}
330
47
100
AcDbScale
 70
     0
300
1-1/2" = 1'-0"
140
1.5
141
12.0
290
     0
  0
SCALE
  5
66
102
{ACAD_REACTORS
330
47
102
}
330
47
100
AcDbScale
 70
     0
300
3" = 1'-0"
140
3.0
141
12.0
290
     0
  0
SCALE
  5
67
102
{ACAD_REACTORS
330
47
102
}
330
47
100
AcDbScale
 70
     0
300
6" = 1'-0"
140
6.0
141
12.0
290
     0
  0
SCALE
  5
68
102
{ACAD_REACTORS
330
47
102
}
330
47
100
AcDbScale
 70
     0
300
1'-0" = 1'-0"
140
12.0
141
12.0
290
     0
  0
ENDSEC
  0
EOF
