  0
SECTION
  2
HEADER
  9
$ACADVER
  1
AC1015
  9
$ACADMAINTVER
 70
     6
  9
$DWGCODEPAGE
  3
ANSI_1252
  9
$INSBASE
 10
0.0
 20
0.0
 30
0.0
  9
$EXTMIN
 10
0.0
 20
0.0
 30
0.0
  9
$EXTMAX
 10
297.0
 20
210.0
 30
0.0
  9
$LIMMIN
 10
0.0
 20
0.0
  9
$LIMMAX
 10
297.0
 20
210.0
  9
$ORTHOMODE
 70
     0
  9
$REGENMODE
 70
     1
  9
$FILLMODE
 70
     1
  9
$QTEXTMODE
 70
     0
  9
$MIRRTEXT
 70
     1
  9
$LTSCALE
 40
1.0
  9
$ATTMODE
 70
     1
  9
$TEXTSIZE
 40
2.0
  9
$TRACEWID
 40
1.0
  9
$TEXTSTYLE
  7
Standard
  9
$CLAYER
  8
0
  9
$CELTYPE
  6
ByLayer
  9
$CECOLOR
 62
   256
  9
$CELTSCALE
 40
1.0
  9
$DISPSILH
 70
     0
  9
$DIMSCALE
 40
1.0
  9
$DIMASZ
 40
3.0
  9
$DIMEXO
 40
0.0
  9
$DIMDLI
 40
3.75
  9
$DIMRND
 40
0.0
  9
$DIMDLE
 40
0.0
  9
$DIMEXE
 40
1.0
  9
$DIMTP
 40
0.0
  9
$DIMTM
 40
0.0
  9
$DIMTXT
 40
2.0
  9
$DIMCEN
 40
2.5
  9
$DIMTSZ
 40
0.0
  9
$DIMTOL
 70
     0
  9
$DIMLIM
 70
     0
  9
$DIMTIH
 70
     1
  9
$DIMTOH
 70
     1
  9
$DIMSE1
 70
     0
  9
$DIMSE2
 70
     0
  9
$DIMTAD
 70
     1
  9
$DIMZIN
 70
     0
  9
$DIMBLK
  1

  9
$DIMASO
 70
     1
  9
$DIMSHO
 70
     1
  9
$DIMPOST
  1

  9
$DIMAPOST
  1

  9
$DIMALT
 70
     0
  9
$DIMALTD
 70
     3
  9
$DIMALTF
 40
0.0393700787
  9
$DIMLFAC
 40
2.0
  9
$DIMTOFL
 70
     1
  9
$DIMTVP
 40
0.0
  9
$DIMTIX
 70
     0
  9
$DIMSOXD
 70
     0
  9
$DIMSAH
 70
     0
  9
$DIMBLK1
  1

  9
$DIMBLK2
  1

  9
$DIMSTYLE
  2
ISO-25
  9
$DIMCLRD
 70
     0
  9
$DIMCLRE
 70
     0
  9
$DIMCLRT
 70
     0
  9
$DIMTFAC
 40
1.0
  9
$DIMGAP
 40
1.524
  9
$DIMJUST
 70
     0
  9
$DIMSD1
 70
     0
  9
$DIMSD2
 70
     0
  9
$DIMTOLJ
 70
     0
  9
$DIMTZIN
 70
     0
  9
$DIMALTZ
 70
     0
  9
$DIMALTTZ
 70
     0
  9
$DIMUPT
 70
     0
  9
$DIMDEC
 70
     2
  9
$DIMTDEC
 70
     3
  9
$DIMALTU
 70
     2
  9
$DIMALTTD
 70
     3
  9
$DIMTXSTY
  7
Standard
  9
$DIMAUNIT
 70
     0
  9
$DIMADEC
 70
     2
  9
$DIMALTRND
 40
0.0
  9
$DIMAZIN
 70
     0
  9
$DIMDSEP
 70
    44
  9
$DIMATFIT
 70
     3
  9
$DIMFRAC
 70
     0
  9
$DIMLDRBLK
  1

  9
$DIMLUNIT
 70
     2
  9
$DIMLWD
 70
    -2
  9
$DIMLWE
 70
    -2
  9
$DIMTMOVE
 70
     0
  9
$LUNITS
 70
     2
  9
$LUPREC
 70
     2
  9
$SKETCHINC
 40
1.0
  9
$FILLETRAD
 40
10.0
  9
$AUNITS
 70
     0
  9
$AUPREC
 70
     2
  9
$MENU
  1
.
  9
$ELEVATION
 40
0.0
  9
$PELEVATION
 40
0.0
  9
$THICKNESS
 40
0.0
  9
$LIMCHECK
 70
     0
  9
$CHAMFERA
 40
0.0
  9
$CHAMFERB
 40
0.0
  9
$CHAMFERC
 40
0.0
  9
$CHAMFERD
 40
0.0
  9
$SKPOLY
 70
     0
  9
$TDCREATE
 40
2458166.650450405
  9
$TDUCREATE
 40
2458166.608783738
  9
$TDUPDATE
 40
2458166.650452813
  9
$TDUUPDATE
 40
2458166.608786146
  9
$TDINDWG
 40
0.0000000116
  9
$TDUSRTIMER
 40
0.0000000116
  9
$USRTIMER
 70
     1
  9
$ANGBASE
 50
0.0
  9
$ANGDIR
 70
     0
  9
$PDMODE
 70
     0
  9
$PDSIZE
 40
-1.0
  9
$PLINEWID
 40
0.0
  9
$SPLFRAME
 70
     0
  9
$SPLINETYPE
 70
     6
  9
$SPLINESEGS
 70
     8
  9
$HANDSEED
  5
2A6
  9
$SURFTAB1
 70
     6
  9
$SURFTAB2
 70
     6
  9
$SURFTYPE
 70
     6
  9
$SURFU
 70
     6
  9
$SURFV
 70
     6
  9
$UCSBASE
  2

  9
$UCSNAME
  2

  9
$UCSORG
 10
0.0
 20
0.0
 30
0.0
  9
$UCSXDIR
 10
1.0
 20
0.0
 30
0.0
  9
$UCSYDIR
 10
0.0
 20
1.0
 30
0.0
  9
$UCSORTHOREF
  2

  9
$UCSORTHOVIEW
 70
     0
  9
$UCSORGTOP
 10
0.0
 20
0.0
 30
0.0
  9
$UCSORGBOTTOM
 10
0.0
 20
0.0
 30
0.0
  9
$UCSORGLEFT
 10
0.0
 20
0.0
 30
0.0
  9
$UCSORGRIGHT
 10
0.0
 20
0.0
 30
0.0
  9
$UCSORGFRONT
 10
0.0
 20
0.0
 30
0.0
  9
$UCSORGBACK
 10
0.0
 20
0.0
 30
0.0
  9
$PUCSBASE
  2

  9
$PUCSNAME
  2

  9
$PUCSORG
 10
0.0
 20
0.0
 30
0.0
  9
$PUCSXDIR
 10
1.0
 20
0.0
 30
0.0
  9
$PUCSYDIR
 10
0.0
 20
1.0
 30
0.0
  9
$PUCSORTHOREF
  2

  9
$PUCSORTHOVIEW
 70
     0
  9
$PUCSORGTOP
 10
0.0
 20
0.0
 30
0.0
  9
$PUCSORGBOTTOM
 10
0.0
 20
0.0
 30
0.0
  9
$PUCSORGLEFT
 10
0.0
 20
0.0
 30
0.0
  9
$PUCSORGRIGHT
 10
0.0
 20
0.0
 30
0.0
  9
$PUCSORGFRONT
 10
0.0
 20
0.0
 30
0.0
  9
$PUCSORGBACK
 10
0.0
 20
0.0
 30
0.0
  9
$USERI1
 70
     0
  9
$USERI2
 70
     0
  9
$USERI3
 70
     0
  9
$USERI4
 70
     0
  9
$USERI5
 70
     0
  9
$USERR1
 40
0.0
  9
$USERR2
 40
0.0
  9
$USERR3
 40
0.0
  9
$USERR4
 40
0.0
  9
$USERR5
 40
0.0
  9
$WORLDVIEW
 70
     1
  9
$SHADEDGE
 70
     3
  9
$SHADEDIF
 70
    70
  9
$TILEMODE
 70
     1
  9
$MAXACTVP
 70
    64
  9
$PINSBASE
 10
0.0
 20
0.0
 30
0.0
  9
$PLIMCHECK
 70
     0
  9
$PEXTMIN
 10
1.0000000000E+20
 20
1.0000000000E+20
 30
1.0000000000E+20
  9
$PEXTMAX
 10
-1.0000000000E+20
 20
-1.0000000000E+20
 30
-1.0000000000E+20
  9
$PLIMMIN
 10
0.0
 20
0.0
  9
$PLIMMAX
 10
420.0
 20
297.0
  9
$UNITMODE
 70
     0
  9
$VISRETAIN
 70
     1
  9
$PLINEGEN
 70
     0
  9
$PSLTSCALE
 70
     1
  9
$TREEDEPTH
 70
  3020
  9
$CMLSTYLE
  2
Standard
  9
$CMLJUST
 70
     0
  9
$CMLSCALE
 40
20.0
  9
$PROXYGRAPHICS
 70
     1
  9
$MEASUREMENT
 70
     1
  9
$CELWEIGHT
370
    -1
  9
$ENDCAPS
280
     0
  9
$JOINSTYLE
280
     0
  9
$LWDISPLAY
290
     1
  9
$INSUNITS
 70
     4
  9
$HYPERLINKBASE
  1

  9
$STYLESHEET
  1

  9
$XEDIT
290
     1
  9
$CEPSNTYPE
380
     0
  9
$PSTYLEMODE
290
     1
  9
$FINGERPRINTGUID
  2
{EB4D2EFC-9B21-46A1-86B2-B9A01200332F}
  9
$VERSIONGUID
  2
{FAEB1C32-E019-11D5-929B-00C0DF256EC4}
  9
$EXTNAMES
290
     1
  9
$PSVPSCALE
 40
0.0
  9
$OLESTARTUP
290
     0
  0
ENDSEC
  0
SECTION
  2
CLASSES
  0
CLASS
  1
ACDBDICTIONARYWDFLT
  2
AcDbDictionaryWithDefault
  3
ObjectDBX Classes
 90
        0
280
     0
281
     0
  0
CLASS
  1
VISUALSTYLE
  2
AcDbVisualStyle
  3
ObjectDBX Classes
 90
     4095
280
     0
281
     0
  0
CLASS
  1
MATERIAL
  2
AcDbMaterial
  3
ObjectDBX Classes
 90
     1153
280
     0
281
     0
  0
CLASS
  1
SCALE
  2
AcDbScale
  3
ObjectDBX Classes
 90
     1153
280
     0
281
     0
  0
CLASS
  1
TABLESTYLE
  2
AcDbTableStyle
  3
ObjectDBX Classes
 90
     4095
280
     0
281
     0
  0
CLASS
  1
MLEADERSTYLE
  2
AcDbMLeaderStyle
  3
ACDB_MLEADERSTYLE_CLASS
 90
     4095
280
     0
281
     0
  0
CLASS
  1
SUN
  2
AcDbSun
  3
SCENEOE
 90
     1153
280
     0
281
     0
  0
CLASS
  1
ACDBPLACEHOLDER
  2
AcDbPlaceHolder
  3
ObjectDBX Classes
 90
        0
280
     0
281
     0
  0
CLASS
  1
LAYOUT
  2
AcDbLayout
  3
ObjectDBX Classes
 90
        0
280
     0
281
     0
  0
ENDSEC
  0
SECTION
  2
TABLES
  0
TABLE
  2
VPORT
  5
8
330
0
100
AcDbSymbolTable
 70
     1
  0
VPORT
  5
29
330
8
100
AcDbSymbolTableRecord
100
AcDbViewportTableRecord
  2
*Active
 70
     0
 10
0.0
 20
0.0
 11
1.0
 21
1.0
 12
148.5
 22
105.0
 13
0.0
 23
0.0
 14
10.0
 24
10.0
 15
10.0
 25
10.0
 16
0.0
 26
0.0
 36
1.0
 17
0.0
 27
0.0
 37
0.0
 40
210.0
 41
1.4142857143
 42
50.0
 43
0.0
 44
0.0
 50
0.0
 51
0.0
 71
     0
 72
  2000
 73
     1
 74
     3
 75
     0
 76
     0
 77
     0
 78
     0
281
     0
 65
     1
110
0.0
120
0.0
130
0.0
111
1.0
121
0.0
131
0.0
112
0.0
122
1.0
132
0.0
 79
     0
146
0.0
  0
ENDTAB
  0
TABLE
  2
LTYPE
  5
5
330
0
100
AcDbSymbolTable
 70
     6
  0
LTYPE
  5
14
330
5
100
AcDbSymbolTableRecord
100
AcDbLinetypeTableRecord
  2
ByBlock
 70
     0
  3

 72
    65
 73
     0
 40
0.0
  0
LTYPE
  5
15
330
5
100
AcDbSymbolTableRecord
100
AcDbLinetypeTableRecord
  2
ByLayer
 70
     0
  3

 72
    65
 73
     0
 40
0.0
  0
LTYPE
  5
16
330
5
100
AcDbSymbolTableRecord
100
AcDbLinetypeTableRecord
  2
Continuous
 70
     0
  3
Solid line
 72
    65
 73
     0
 40
0.0
  0
LTYPE
  5
6E
330
5
100
AcDbSymbolTableRecord
100
AcDbLinetypeTableRecord
  2
HIDDEN
 70
     0
  3
Hidden __ __ __ __ __ __ __ __ __ __ __ __ __ __
 72
    65
 73
     2
 40
1.905
 49
1.27
 74
     0
 49
-0.635
 74
     0
  0
LTYPE
  5
6F
330
5
100
AcDbSymbolTableRecord
100
AcDbLinetypeTableRecord
  2
PHANTOM
 70
     0
  3
Phantom ______  __  __  ______  __  __  ______
 72
    65
 73
     6
 40
12.7
 49
6.35
 74
     0
 49
-1.27
 74
     0
 49
1.27
 74
     0
 49
-1.27
 74
     0
 49
1.27
 74
     0
 49
-1.27
 74
     0
  0
LTYPE
  5
70
330
5
100
AcDbSymbolTableRecord
100
AcDbLinetypeTableRecord
  2
CENTER
 70
     0
  3
Center ____ _ ____ _ ____ _ ____ _ ____ _ ____
 72
    65
 73
     4
 40
10.16
 49
6.35
 74
     0
 49
-1.27
 74
     0
 49
1.27
 74
     0
 49
-1.27
 74
     0
  0
LTYPE
  5
71
330
5
100
AcDbSymbolTableRecord
100
AcDbLinetypeTableRecord
  2
CENTERX2
 70
     0
  3
Center (2x) ________  __  ________  __  _____
 72
    65
 73
     4
 40
20.32
 49
12.7
 74
     0
 49
-2.54
 74
     0
 49
2.54
 74
     0
 49
-2.54
 74
     0
  0
LTYPE
  5
72
330
5
100
AcDbSymbolTableRecord
100
AcDbLinetypeTableRecord
  2
DOT2
 70
     0
  3
Dot (.5x) ........................................
 72
    65
 73
     2
 40
0.635
 49
0.0
 74
     0
 49
-0.635
 74
     0
  0
ENDTAB
  0
TABLE
  2
LAYER
  5
2
330
0
100
AcDbSymbolTable
 70
     5
  0
LAYER
  5
10
330
2
100
AcDbSymbolTableRecord
100
AcDbLayerTableRecord
  2
0
 70
     0
 62
     7
  6
Continuous
370
    -3
390
F
  0
LAYER
  5
73
330
2
100
AcDbSymbolTableRecord
100
AcDbLayerTableRecord
  2
FORMAT
 70
     0
 62
     7
  6
Continuous
370
    -3
390
F
  0
LAYER
  5
74
330
2
100
AcDbSymbolTableRecord
100
AcDbLayerTableRecord
  2
VERMASSUNG
 70
     0
 62
     7
  6
Continuous
370
    -3
390
F
  0
LAYER
  5
75
330
2
100
AcDbSymbolTableRecord
100
AcDbLayerTableRecord
  2
KOPF_DÜNN
 70
     0
 62
     7
  6
Continuous
370
    -3
390
F
  0
LAYER
  5
76
330
2
100
AcDbSymbolTableRecord
100
AcDbLayerTableRecord
  2
KOPF_DICK
 70
     0
 62
     7
  6
Continuous
370
    25
390
F
  0
ENDTAB
  0
TABLE
  2
STYLE
  5
3
330
0
100
AcDbSymbolTable
 70
     3
  0
STYLE
  5
11
330
3
100
AcDbSymbolTableRecord
100
AcDbTextStyleTableRecord
  2
Standard
 70
     0
 40
0.0
 41
1.0
 50
0.0
 71
     0
 42
2.0
  3
txt
  4

  0
STYLE
  5
77
330
3
100
AcDbSymbolTableRecord
100
AcDbTextStyleTableRecord
  2
SLDTEXTSTYLE0
 70
     0
 40
0.0
 41
0.7
 50
0.0
 71
     0
 42
2.0
  3
TXT
  4

  0
STYLE
  5
7B
330
3
100
AcDbSymbolTableRecord
100
AcDbTextStyleTableRecord
  2
SLDTEXTSTYLE1
 70
     0
 40
0.0
 41
0.6428571429
 50
0.0
 71
     0
 42
2.0
  3
TXT
  4

  0
ENDTAB
  0
TABLE
  2
VIEW
  5
6
330
0
100
AcDbSymbolTable
 70
     0
  0
ENDTAB
  0
TABLE
  2
UCS
  5
7
330
0
100
AcDbSymbolTable
 70
     0
  0
ENDTAB
  0
TABLE
  2
APPID
  5
9
330
0
100
AcDbSymbolTable
 70
     1
  0
APPID
  5
12
330
9
100
AcDbSymbolTableRecord
100
AcDbRegAppTableRecord
  2
ACAD
 70
     0
  0
ENDTAB
  0
TABLE
  2
DIMSTYLE
  5
A
330
0
100
AcDbSymbolTable
 70
     4
100
AcDbDimStyleTable
  0
DIMSTYLE
105
27
330
A
100
AcDbSymbolTableRecord
100
AcDbDimStyleTableRecord
  2
ISO-25
 70
     0
 41
2.5
 42
0.625
 43
3.75
 44
1.25
 73
     0
 74
     0
 77
     1
 78
     8
140
2.5
141
2.5
143
0.0393700787
147
0.625
171
     3
172
     1
178
     0
271
     2
272
     2
274
     3
278
    44
283
     0
284
     8
340
11
  0
DIMSTYLE
105
12A
102
{ACAD_REACTORS
330
129
102
}
330
A
100
AcDbSymbolTableRecord
100
AcDbDimStyleTableRecord
  2
SLDDIMSTYLE0
 70
     0
 41
3.0
 44
0.0
 45
0.000000001
 73
     0
 74
     0
 77
     1
 78
    12
 79
     3
140
2.0
147
0.5
173
     1
178
     0
271
     1
272
     3
276
     2
284
    12
340
77
  0
DIMSTYLE
105
136
102
{ACAD_REACTORS
330
135
330
141
330
15A
330
166
330
170
330
17A
330
184
102
}
330
A
100
AcDbSymbolTableRecord
100
AcDbDimStyleTableRecord
  2
SLDDIMSTYLE1
 70
     0
 41
3.0
 44
0.0
 45
0.000000001
 73
     0
 74
     0
 77
     1
 78
    12
 79
     3
140
2.0
147
0.5
173
     1
178
     0
271
     2
272
     3
276
     2
284
    12
340
77
  0
DIMSTYLE
105
14D
102
{ACAD_REACTORS
330
14C
102
}
330
A
100
AcDbSymbolTableRecord
100
AcDbDimStyleTableRecord
  2
SLDDIMSTYLE2
 70
     0
 41
3.0
 44
0.0
 45
0.000000001
 73
     0
 74
     0
 77
     1
 78
    12
 79
     3
140
2.0
147
0.5
172
     1
173
     1
178
     0
271
     0
272
     3
276
     2
284
    12
289
     0
340
77
  0
ENDTAB
  0
TABLE
  2
BLOCK_RECORD
  5
1
330
0
100
AcDbSymbolTable
 70
    10
  0
BLOCK_RECORD
  5
1F
330
1
100
AcDbSymbolTableRecord
100
AcDbBlockTableRecord
  2
*Model_Space
340
22
  0
BLOCK_RECORD
  5
1B
330
1
100
AcDbSymbolTableRecord
100
AcDbBlockTableRecord
  2
*Paper_Space
340
1E
  0
BLOCK_RECORD
  5
23
330
1
100
AcDbSymbolTableRecord
100
AcDbBlockTableRecord
  2
*Paper_Space0
340
26
  0
BLOCK_RECORD
  5
12B
330
1
100
AcDbSymbolTableRecord
100
AcDbBlockTableRecord
  2
_D
340
0
  0
BLOCK_RECORD
  5
137
330
1
100
AcDbSymbolTableRecord
100
AcDbBlockTableRecord
  2
_D_1
340
0
  0
BLOCK_RECORD
  5
142
330
1
100
AcDbSymbolTableRecord
100
AcDbBlockTableRecord
  2
_D_2
340
0
  0
BLOCK_RECORD
  5
14E
330
1
100
AcDbSymbolTableRecord
100
AcDbBlockTableRecord
  2
_D_3
340
0
  0
BLOCK_RECORD
  5
15B
330
1
100
AcDbSymbolTableRecord
100
AcDbBlockTableRecord
  2
_D_4
340
0
  0
BLOCK_RECORD
  5
167
330
1
100
AcDbSymbolTableRecord
100
AcDbBlockTableRecord
  2
_D_5
340
0
  0
BLOCK_RECORD
  5
171
330
1
100
AcDbSymbolTableRecord
100
AcDbBlockTableRecord
  2
_D_6
340
0
  0
BLOCK_RECORD
  5
17B
330
1
100
AcDbSymbolTableRecord
100
AcDbBlockTableRecord
  2
_D_7
340
0
  0
BLOCK_RECORD
  5
185
330
1
100
AcDbSymbolTableRecord
100
AcDbBlockTableRecord
  2
_D_8
340
0
  0
ENDTAB
  0
ENDSEC
  0
SECTION
  2
BLOCKS
  0
BLOCK
  5
20
330
1F
100
AcDbEntity
  8
0
100
AcDbBlockBegin
  2
*Model_Space
 70
     0
 10
0.0
 20
0.0
 30
0.0
  3
*Model_Space
  1

  0
ENDBLK
  5
21
330
1F
100
AcDbEntity
  8
0
100
AcDbBlockEnd
  0
BLOCK
  5
1C
330
1B
100
AcDbEntity
 67
     1
  8
0
100
AcDbBlockBegin
  2
*Paper_Space
 70
     0
 10
0.0
 20
0.0
 30
0.0
  3
*Paper_Space
  1

  0
ENDBLK
  5
1D
330
1B
100
AcDbEntity
 67
     1
  8
0
100
AcDbBlockEnd
  0
BLOCK
  5
24
330
23
100
AcDbEntity
  8
0
100
AcDbBlockBegin
  2
*Paper_Space0
 70
     0
 10
0.0
 20
0.0
 30
0.0
  3
*Paper_Space0
  1

  0
ENDBLK
  5
25
330
23
100
AcDbEntity
  8
0
100
AcDbBlockEnd
  0
BLOCK
  5
12C
330
12B
100
AcDbEntity
  8
0
100
AcDbBlockBegin
  2
_D
 70
     0
 10
0.0
 20
0.0
 30
0.0
  3
_D
  1

  0
SOLID
  5
12E
330
12B
100
AcDbEntity
  8
VERMASSUNG
100
AcDbTrace
 10
284.6848001073
 20
147.5525330289
 30
0.0
 11
284.2348001073
 21
144.5525330289
 31
0.0
 12
285.1348001073
 22
144.5525330289
 32
0.0
 13
285.1348001073
 23
144.5525330289
 33
0.0
  0
SOLID
  5
12F
330
12B
100
AcDbEntity
  8
VERMASSUNG
100
AcDbTrace
 10
284.6848001073
 20
103.3340612732
 30
0.0
 11
285.1348001073
 21
106.3340612732
 31
0.0
 12
284.2348001073
 22
106.3340612732
 32
0.0
 13
284.2348001073
 23
106.3340612732
 33
0.0
  0
LINE
  5
130
330
12B
100
AcDbEntity
  8
VERMASSUNG
100
AcDbLine
 10
84.4515973941
 20
147.5525330289
 30
0.0
 11
285.6848001073
 21
147.5525330289
 31
0.0
  0
LINE
  5
131
330
12B
100
AcDbEntity
  8
VERMASSUNG
100
AcDbLine
 10
84.4515973941
 20
103.3340612732
 30
0.0
 11
285.6848001073
 21
103.3340612732
 31
0.0
  0
LINE
  5
132
330
12B
100
AcDbEntity
  8
VERMASSUNG
100
AcDbLine
 10
284.6848001073
 20
147.5525330289
 30
0.0
 11
284.6848001073
 21
103.3340612732
 31
0.0
  0
MTEXT
  5
133
330
12B
100
AcDbEntity
  8
VERMASSUNG
100
AcDbMText
 10
282.1066648023
 20
121.038296904
 30
0.0
 40
2.0
 41
0.0
 71
     1
 72
     1
  1
%%c
  7
SLDTEXTSTYLE0
 11
-5.267838178243384E-15
 21
1.0
 31
0.0
 73
     1
 44
1.0
  0
MTEXT
  5
134
330
12B
100
AcDbEntity
  8
VERMASSUNG
100
AcDbMText
 10
281.906664851
 20
124.6482969183
 30
0.0
 40
2.0
 41
0.0
 71
     1
 72
     1
  1
44.2
  7
SLDTEXTSTYLE0
 11
-5.267838178243384E-15
 21
1.0
 31
0.0
 73
     1
 44
1.0
  0
ENDBLK
  5
12D
330
12B
100
AcDbEntity
  8
0
100
AcDbBlockEnd
  0
BLOCK
  5
138
330
137
100
AcDbEntity
  8
0
100
AcDbBlockBegin
  2
_D_1
 70
     0
 10
0.0
 20
0.0
 30
0.0
  3
_D_1
  1

  0
SOLID
  5
13A
330
137
100
AcDbEntity
  8
VERMASSUNG
100
AcDbTrace
 10
265.311241801
 20
133.443297151
 30
0.0
 11
264.861241801
 21
130.443297151
 31
0.0
 12
265.761241801
 22
130.443297151
 32
0.0
 13
265.761241801
 23
130.443297151
 33
0.0
  0
SOLID
  5
13B
330
137
100
AcDbEntity
  8
VERMASSUNG
100
AcDbTrace
 10
265.311241801
 20
117.443297151
 30
0.0
 11
265.761241801
 21
120.443297151
 31
0.0
 12
264.861241801
 22
120.443297151
 32
0.0
 13
264.861241801
 23
120.443297151
 33
0.0
  0
LINE
  5
13C
330
137
100
AcDbEntity
  8
VERMASSUNG
100
AcDbLine
 10
232.4438654353
 20
133.443297151
 30
0.0
 11
266.311241801
 21
133.443297151
 31
0.0
  0
LINE
  5
13D
330
137
100
AcDbEntity
  8
VERMASSUNG
100
AcDbLine
 10
232.4438654353
 20
117.443297151
 30
0.0
 11
266.311241801
 21
117.443297151
 31
0.0
  0
LINE
  5
13E
330
137
100
AcDbEntity
  8
VERMASSUNG
100
AcDbLine
 10
265.311241801
 20
133.443297151
 30
0.0
 11
265.311241801
 21
117.443297151
 31
0.0
  0
MTEXT
  5
13F
330
137
100
AcDbEntity
  8
VERMASSUNG
100
AcDbMText
 10
262.7331064961
 20
122.4382970869
 30
0.0
 40
2.0
 41
0.0
 71
     1
 72
     1
  1
%%c
  7
SLDTEXTSTYLE0
 11
-7.044195017643634E-15
 21
1.0
 31
0.0
 73
     1
 44
1.0
  0
MTEXT
  5
140
330
137
100
AcDbEntity
  8
VERMASSUNG
100
AcDbMText
 10
262.5331065448
 20
126.0482971012
 30
0.0
 40
2.0
 41
0.0
 71
     1
 72
     1
  1
16
  7
SLDTEXTSTYLE0
 11
-7.044195017643634E-15
 21
1.0
 31
0.0
 73
     1
 44
1.0
  0
ENDBLK
  5
139
330
137
100
AcDbEntity
  8
0
100
AcDbBlockEnd
  0
BLOCK
  5
143
330
142
100
AcDbEntity
  8
0
100
AcDbBlockBegin
  2
_D_2
 70
     0
 10
0.0
 20
0.0
 30
0.0
  3
_D_2
  1

  0
SOLID
  5
145
330
142
100
AcDbEntity
  8
VERMASSUNG
100
AcDbTrace
 10
274.2438654353
 20
144.443297151
 30
0.0
 11
273.7938654353
 21
141.443297151
 31
0.0
 12
274.6938654353
 22
141.443297151
 32
0.0
 13
274.6938654353
 23
141.443297151
 33
0.0
  0
SOLID
  5
146
330
142
100
AcDbEntity
  8
VERMASSUNG
100
AcDbTrace
 10
274.2438654353
 20
106.443297151
 30
0.0
 11
274.6938654353
 21
109.443297151
 31
0.0
 12
273.7938654353
 22
109.443297151
 32
0.0
 13
273.7938654353
 23
109.443297151
 33
0.0
  0
LINE
  5
147
330
142
100
AcDbEntity
  8
VERMASSUNG
100
AcDbLine
 10
215.4438654353
 20
144.443297151
 30
0.0
 11
275.2438654353
 21
144.443297151
 31
0.0
  0
LINE
  5
148
330
142
100
AcDbEntity
  8
VERMASSUNG
100
AcDbLine
 10
215.4438654353
 20
106.443297151
 30
0.0
 11
275.2438654353
 21
106.443297151
 31
0.0
  0
LINE
  5
149
330
142
100
AcDbEntity
  8
VERMASSUNG
100
AcDbLine
 10
274.2438654353
 20
144.443297151
 30
0.0
 11
274.2438654353
 21
106.443297151
 31
0.0
  0
MTEXT
  5
14A
330
142
100
AcDbEntity
  8
VERMASSUNG
100
AcDbMText
 10
271.6657301304
 20
122.2382971938
 30
0.0
 40
2.0
 41
0.0
 71
     1
 72
     1
  1
%%c
  7
SLDTEXTSTYLE0
 11
-7.044195017643634E-15
 21
1.0
 31
0.0
 73
     1
 44
1.0
  0
MTEXT
  5
14B
330
142
100
AcDbEntity
  8
VERMASSUNG
100
AcDbMText
 10
271.4657301791
 20
125.8482972081
 30
0.0
 40
2.0
 41
0.0
 71
     1
 72
     1
  1
38
  7
SLDTEXTSTYLE0
 11
-7.044195017643634E-15
 21
1.0
 31
0.0
 73
     1
 44
1.0
  0
ENDBLK
  5
144
330
142
100
AcDbEntity
  8
0
100
AcDbBlockEnd
  0
BLOCK
  5
14F
330
14E
100
AcDbEntity
  8
0
100
AcDbBlockBegin
  2
_D_3
 70
     0
 10
0.0
 20
0.0
 30
0.0
  3
_D_3
  1

  0
SOLID
  5
151
330
14E
100
AcDbEntity
  8
VERMASSUNG
100
AcDbTrace
 10
256.2438654353
 20
128.490797151
 30
0.0
 11
256.6938654353
 21
131.490797151
 31
0.0
 12
255.7938654353
 22
131.490797151
 32
0.0
 13
255.7938654353
 23
131.490797151
 33
0.0
  0
SOLID
  5
152
330
14E
100
AcDbEntity
  8
VERMASSUNG
100
AcDbTrace
 10
256.2438654353
 20
122.395797151
 30
0.0
 11
255.7938654353
 21
119.395797151
 31
0.0
 12
256.6938654353
 22
119.395797151
 32
0.0
 13
256.6938654353
 23
119.395797151
 33
0.0
  0
LINE
  5
153
330
14E
100
AcDbEntity
  8
VERMASSUNG
100
AcDbLine
 10
246.2438654353
 20
128.490797151
 30
0.0
 11
257.2438654353
 21
128.490797151
 31
0.0
  0
LINE
  5
154
330
14E
100
AcDbEntity
  8
VERMASSUNG
100
AcDbLine
 10
246.2438654353
 20
122.395797151
 30
0.0
 11
257.2438654353
 21
122.395797151
 31
0.0
  0
LINE
  5
155
330
14E
100
AcDbEntity
  8
VERMASSUNG
100
AcDbLine
 10
256.2438654353
 20
128.490797151
 30
0.0
 11
256.2438654353
 21
134.490797151
 31
0.0
  0
LINE
  5
156
330
14E
100
AcDbEntity
  8
VERMASSUNG
100
AcDbLine
 10
256.2438654353
 20
128.490797151
 30
0.0
 11
256.2438654353
 21
122.395797151
 31
0.0
  0
LINE
  5
157
330
14E
100
AcDbEntity
  8
VERMASSUNG
100
AcDbLine
 10
256.2438654353
 20
122.395797151
 30
0.0
 11
256.2438654353
 21
116.395797151
 31
0.0
  0
MTEXT
  5
158
330
14E
100
AcDbEntity
  8
VERMASSUNG
100
AcDbMText
 10
253.6657298393
 20
122.8432971439
 30
0.0
 40
2.0
 41
0.0
 71
     1
 72
     1
  1
SW
  7
SLDTEXTSTYLE0
 11
-7.044195017643634E-15
 21
1.0
 31
0.0
 73
     1
 44
1.0
  0
MTEXT
  5
159
330
14E
100
AcDbEntity
  8
VERMASSUNG
100
AcDbMText
 10
253.6657298393
 20
126.643297208
 30
0.0
 40
2.0
 41
0.0
 71
     1
 72
     1
  1
6
  7
SLDTEXTSTYLE0
 11
-7.044195017643634E-15
 21
1.0
 31
0.0
 73
     1
 44
1.0
  0
ENDBLK
  5
150
330
14E
100
AcDbEntity
  8
0
100
AcDbBlockEnd
  0
BLOCK
  5
15C
330
15B
100
AcDbEntity
  8
0
100
AcDbBlockBegin
  2
_D_4
 70
     0
 10
0.0
 20
0.0
 30
0.0
  3
_D_4
  1

  0
SOLID
  5
15E
330
15B
100
AcDbEntity
  8
VERMASSUNG
100
AcDbTrace
 10
14.198561593
 20
156.943297151
 30
0.0
 11
13.748561593
 21
153.943297151
 31
0.0
 12
14.648561593
 22
153.943297151
 32
0.0
 13
14.648561593
 23
153.943297151
 33
0.0
  0
SOLID
  5
15F
330
15B
100
AcDbEntity
  8
VERMASSUNG
100
AcDbTrace
 10
14.198561593
 20
93.943297151
 30
0.0
 11
14.648561593
 21
96.943297151
 31
0.0
 12
13.748561593
 22
96.943297151
 32
0.0
 13
13.748561593
 23
96.943297151
 33
0.0
  0
LINE
  5
160
330
15B
100
AcDbEntity
  8
VERMASSUNG
100
AcDbLine
 10
56.5438654353
 20
156.943297151
 30
0.0
 11
13.198561593
 21
156.943297151
 31
0.0
  0
LINE
  5
161
330
15B
100
AcDbEntity
  8
VERMASSUNG
100
AcDbLine
 10
56.5438654353
 20
93.943297151
 30
0.0
 11
13.198561593
 21
93.943297151
 31
0.0
  0
LINE
  5
162
330
15B
100
AcDbEntity
  8
VERMASSUNG
100
AcDbLine
 10
14.198561593
 20
156.943297151
 30
0.0
 11
14.198561593
 21
93.943297151
 31
0.0
  0
MTEXT
  5
163
330
15B
100
AcDbEntity
  8
VERMASSUNG
100
AcDbMText
 10
11.4204263368
 20
117.7382978532
 30
0.0
 40
2.0
 41
0.0
 71
     1
 72
     1
  1
HSK A
  7
SLDTEXTSTYLE0
 11
-7.044195017643634E-15
 21
1.0
 31
0.0
 73
     1
 44
1.0
  0
MTEXT
  5
164
330
15B
100
AcDbEntity
  8
VERMASSUNG
100
AcDbMText
 10
11.620426288
 20
126.7382974657
 30
0.0
 40
2.0
 41
0.0
 71
     1
 72
     1
  1
%%c
  7
SLDTEXTSTYLE0
 11
-7.044195017643634E-15
 21
1.0
 31
0.0
 73
     1
 44
1.0
  0
MTEXT
  5
165
330
15B
100
AcDbEntity
  8
VERMASSUNG
100
AcDbMText
 10
11.4204263368
 20
130.34829748
 30
0.0
 40
2.0
 41
0.0
 71
     1
 72
     1
  1
63
  7
SLDTEXTSTYLE0
 11
-7.044195017643634E-15
 21
1.0
 31
0.0
 73
     1
 44
1.0
  0
ENDBLK
  5
15D
330
15B
100
AcDbEntity
  8
0
100
AcDbBlockEnd
  0
BLOCK
  5
168
330
167
100
AcDbEntity
  8
0
100
AcDbBlockBegin
  2
_D_5
 70
     0
 10
0.0
 20
0.0
 30
0.0
  3
_D_5
  1

  0
SOLID
  5
16A
330
167
100
AcDbEntity
  8
VERMASSUNG
100
AcDbTrace
 10
233.2438654353
 20
163.2277070585
 30
0.0
 11
230.2438654353
 21
163.6777070585
 31
0.0
 12
230.2438654353
 22
162.7777070585
 32
0.0
 13
230.2438654353
 23
162.7777070585
 33
0.0
  0
SOLID
  5
16B
330
167
100
AcDbEntity
  8
VERMASSUNG
100
AcDbTrace
 10
216.2438654353
 20
163.2277070585
 30
0.0
 11
219.2438654353
 21
162.7777070585
 31
0.0
 12
219.2438654353
 22
163.6777070585
 32
0.0
 13
219.2438654353
 23
163.6777070585
 33
0.0
  0
LINE
  5
16C
330
167
100
AcDbEntity
  8
VERMASSUNG
100
AcDbLine
 10
233.2438654353
 20
132.643297151
 30
0.0
 11
233.2438654353
 21
164.2277070585
 31
0.0
  0
LINE
  5
16D
330
167
100
AcDbEntity
  8
VERMASSUNG
100
AcDbLine
 10
216.2438654353
 20
143.643297151
 30
0.0
 11
216.2438654353
 21
164.2277070585
 31
0.0
  0
LINE
  5
16E
330
167
100
AcDbEntity
  8
VERMASSUNG
100
AcDbLine
 10
233.2438654353
 20
163.2277070585
 30
0.0
 11
216.2438654353
 21
163.2277070585
 31
0.0
  0
MTEXT
  5
16F
330
167
100
AcDbEntity
  8
VERMASSUNG
100
AcDbMText
 10
223.5438653783
 20
165.8058426544
 30
0.0
 40
2.0
 41
0.0
 71
     1
 72
     1
  1
17
  7
SLDTEXTSTYLE0
 73
     1
 44
1.0
  0
ENDBLK
  5
169
330
167
100
AcDbEntity
  8
0
100
AcDbBlockEnd
  0
BLOCK
  5
172
330
171
100
AcDbEntity
  8
0
100
AcDbBlockBegin
  2
_D_6
 70
     0
 10
0.0
 20
0.0
 30
0.0
  3
_D_6
  1

  0
SOLID
  5
174
330
171
100
AcDbEntity
  8
VERMASSUNG
100
AcDbTrace
 10
82.1938654353
 20
163.2277070585
 30
0.0
 11
85.1938654353
 21
162.7777070585
 31
0.0
 12
85.1938654353
 22
163.6777070585
 32
0.0
 13
85.1938654353
 23
163.6777070585
 33
0.0
  0
SOLID
  5
175
330
171
100
AcDbEntity
  8
VERMASSUNG
100
AcDbTrace
 10
216.1438654353
 20
163.2277070585
 30
0.0
 11
213.1438654353
 21
163.6777070585
 31
0.0
 12
213.1438654353
 22
162.7777070585
 32
0.0
 13
213.1438654353
 23
162.7777070585
 33
0.0
  0
LINE
  5
176
330
171
100
AcDbEntity
  8
VERMASSUNG
100
AcDbLine
 10
82.1938654353
 20
145.293297151
 30
0.0
 11
82.1938654353
 21
164.2277070585
 31
0.0
  0
LINE
  5
177
330
171
100
AcDbEntity
  8
VERMASSUNG
100
AcDbLine
 10
216.1438654353
 20
133.793297151
 30
0.0
 11
216.1438654353
 21
164.2277070585
 31
0.0
  0
LINE
  5
178
330
171
100
AcDbEntity
  8
VERMASSUNG
100
AcDbLine
 10
82.1938654353
 20
163.2277070585
 30
0.0
 11
216.1438654353
 21
163.2277070585
 31
0.0
  0
MTEXT
  5
179
330
171
100
AcDbEntity
  8
VERMASSUNG
100
AcDbMText
 10
145.5688654971
 20
165.8058426544
 30
0.0
 40
2.0
 41
0.0
 71
     1
 72
     1
  1
133.95
  7
SLDTEXTSTYLE0
 73
     1
 44
1.0
  0
ENDBLK
  5
173
330
171
100
AcDbEntity
  8
0
100
AcDbBlockEnd
  0
BLOCK
  5
17C
330
17B
100
AcDbEntity
  8
0
100
AcDbBlockBegin
  2
_D_7
 70
     0
 10
0.0
 20
0.0
 30
0.0
  3
_D_7
  1

  0
SOLID
  5
17E
330
17B
100
AcDbEntity
  8
VERMASSUNG
100
AcDbTrace
 10
56.2438654353
 20
172.943297151
 30
0.0
 11
59.2438654353
 21
172.493297151
 31
0.0
 12
59.2438654353
 22
173.393297151
 32
0.0
 13
59.2438654353
 23
173.393297151
 33
0.0
  0
SOLID
  5
17F
330
17B
100
AcDbEntity
  8
VERMASSUNG
100
AcDbTrace
 10
233.2438654353
 20
172.943297151
 30
0.0
 11
230.2438654353
 21
173.393297151
 31
0.0
 12
230.2438654353
 22
172.493297151
 32
0.0
 13
230.2438654353
 23
172.493297151
 33
0.0
  0
LINE
  5
180
330
17B
100
AcDbEntity
  8
VERMASSUNG
100
AcDbLine
 10
56.2438654353
 20
156.643297151
 30
0.0
 11
56.2438654353
 21
173.943297151
 31
0.0
  0
LINE
  5
181
330
17B
100
AcDbEntity
  8
VERMASSUNG
100
AcDbLine
 10
233.2438654353
 20
132.643297151
 30
0.0
 11
233.2438654353
 21
173.943297151
 31
0.0
  0
LINE
  5
182
330
17B
100
AcDbEntity
  8
VERMASSUNG
100
AcDbLine
 10
56.2438654353
 20
172.943297151
 30
0.0
 11
233.2438654353
 21
172.943297151
 31
0.0
  0
MTEXT
  5
183
330
17B
100
AcDbEntity
  8
VERMASSUNG
100
AcDbMText
 10
142.8438654033
 20
175.521432747
 30
0.0
 40
2.0
 41
0.0
 71
     1
 72
     1
  1
177
  7
SLDTEXTSTYLE0
 73
     1
 44
1.0
  0
ENDBLK
  5
17D
330
17B
100
AcDbEntity
  8
0
100
AcDbBlockEnd
  0
BLOCK
  5
186
330
185
100
AcDbEntity
  8
0
100
AcDbBlockBegin
  2
_D_8
 70
     0
 10
0.0
 20
0.0
 30
0.0
  3
_D_8
  1

  0
SOLID
  5
188
330
185
100
AcDbEntity
  8
VERMASSUNG
100
AcDbTrace
 10
24.3438654353
 20
183.2868305454
 30
0.0
 11
27.3438654353
 21
182.8368305454
 31
0.0
 12
27.3438654353
 22
183.7368305454
 32
0.0
 13
27.3438654353
 23
183.7368305454
 33
0.0
  0
SOLID
  5
189
330
185
100
AcDbEntity
  8
VERMASSUNG
100
AcDbTrace
 10
246.2438654353
 20
183.2868305454
 30
0.0
 11
243.2438654353
 21
183.7368305454
 31
0.0
 12
243.2438654353
 22
182.8368305454
 32
0.0
 13
243.2438654353
 23
182.8368305454
 33
0.0
  0
LINE
  5
18A
330
185
100
AcDbEntity
  8
VERMASSUNG
100
AcDbLine
 10
24.3438654353
 20
145.1339748975
 30
0.0
 11
24.3438654353
 21
184.2868305454
 31
0.0
  0
LINE
  5
18B
330
185
100
AcDbEntity
  8
VERMASSUNG
100
AcDbLine
 10
246.2438654353
 20
131.543297151
 30
0.0
 11
246.2438654353
 21
184.2868305454
 31
0.0
  0
LINE
  5
18C
330
185
100
AcDbEntity
  8
VERMASSUNG
100
AcDbLine
 10
24.3438654353
 20
183.2868305454
 30
0.0
 11
246.2438654353
 21
183.2868305454
 31
0.0
  0
MTEXT
  5
18D
330
185
100
AcDbEntity
  8
VERMASSUNG
100
AcDbMText
 10
132.3938654722
 20
185.8649661414
 30
0.0
 40
2.0
 41
0.0
 71
     1
 72
     1
  1
221.9
  7
SLDTEXTSTYLE0
 73
     1
 44
1.0
  0
ENDBLK
  5
187
330
185
100
AcDbEntity
  8
0
100
AcDbBlockEnd
  0
ENDSEC
  0
SECTION
  2
ENTITIES
  0
MTEXT
  5
78
330
1F
100
AcDbEntity
  8
KOPF_DÜNN
100
AcDbMText
 10
13.8892156294
 20
23.8442973028
 30
0.0
 40
3.0
 41
0.0
 71
     1
 72
     1
  1
HA6.D16.K01.160
  7
SLDTEXTSTYLE0
 73
     1
 44
1.0
  0
MTEXT
  5
79
330
1F
100
AcDbEntity
  8
VERMASSUNG
100
AcDbMText
 10
13.9329988022
 20
28.8834360957
 30
0.0
 40
3.0
 41
0.0
 71
     1
 72
     1
  1
Fräsdorn Typ S_Milling arbor type S
  7
SLDTEXTSTYLE0
 73
     1
 44
1.0
  0
MTEXT
  5
7A
330
1F
100
AcDbEntity
  8
VERMASSUNG
100
AcDbMText
 10
98.8601118557
 20
13.8365368761
 30
0.0
 40
2.0
 41
0.0
 71
     1
 72
     1
  1
Datum: 16.02.2018
  7
SLDTEXTSTYLE0
 73
     1
 44
1.0
  0
MTEXT
  5
7C
330
1F
100
AcDbEntity
  8
VERMASSUNG
100
AcDbMText
 10
13.933048693
 20
18.0482802738
 30
0.0
 40
2.0
 41
0.0
 71
     1
 72
     1
  1
HSK A 63 / Ø16
  7
SLDTEXTSTYLE1
 73
     1
 44
1.0
  0
MTEXT
  5
7D
330
1F
100
AcDbEntity
  8
VERMASSUNG
100
AcDbMText
 10
13.9808475933
 20
13.9090974274
 30
0.0
 40
2.0
 41
0.0
 71
     1
 72
     1
  1
Gewicht: 1833g
  7
SLDTEXTSTYLE0
 73
     1
 44
1.0
  0
LINE
  5
7E
330
1F
100
AcDbEntity
  8
0
  6
Continuous
 62
     7
370
    25
100
AcDbLine
 10
216.243861859
 20
135.4432969275
 30
0.0
 11
220.743863528
 21
135.4432969275
 31
0.0
  0
LINE
  5
7F
330
1F
100
AcDbEntity
  8
0
  6
Continuous
 62
     7
370
    25
100
AcDbLine
 10
220.743863528
 20
143.4432963762
 30
0.0
 11
216.243861859
 21
143.4432963762
 31
0.0
  0
ARC
  5
80
330
1F
100
AcDbEntity
  8
0
  6
Continuous
 62
     7
370
    25
100
AcDbCircle
 10
220.7438654353
 20
135.943297151
 30
0.0
 40
0.5
100
AcDbArc
 50
270.0
 51
0.0
  0
ARC
  5
81
330
1F
100
AcDbEntity
  8
0
  6
Continuous
 62
     7
370
    25
100
AcDbCircle
 10
220.7438654353
 20
142.943297151
 30
0.0
 40
0.5
100
AcDbArc
 50
0.0
 51
90.0
  0
ARC
  5
82
330
1F
100
AcDbEntity
  8
0
  6
Continuous
 62
     7
370
    25
100
AcDbCircle
 10
220.7438654353
 20
107.943297151
 30
0.0
 40
0.5
100
AcDbArc
 50
270.0
 51
0.0
  0
ARC
  5
83
330
1F
100
AcDbEntity
  8
0
  6
Continuous
 62
     7
370
    25
100
AcDbCircle
 10
220.7438654353
 20
114.943297151
 30
0.0
 40
0.5
100
AcDbArc
 50
0.0
 51
90.0
  0
LINE
  5
84
330
1F
100
AcDbEntity
  8
0
  6
Continuous
 62
     7
370
    25
100
AcDbLine
 10
216.243861859
 20
107.4432979259
 30
0.0
 11
220.743863528
 21
107.4432979259
 31
0.0
  0
LINE
  5
85
330
1F
100
AcDbEntity
  8
0
  6
Continuous
 62
     7
370
    25
100
AcDbLine
 10
220.743863528
 20
115.4432973745
 30
0.0
 11
216.243861859
 21
115.4432973745
 31
0.0
  0
LINE
  5
86
330
1F
100
AcDbEntity
  8
0
  6
Continuous
 62
     7
370
    25
100
AcDbLine
 10
245.8438711812
 20
131.9432972851
 30
0.0
 11
238.2438617398
 21
131.9432972851
 31
0.0
  0
LINE
  5
87
330
1F
100
AcDbEntity
  8
0
  6
Continuous
 62
     7
370
    25
100
AcDbLine
 10
238.2438617398
 20
118.9432970169
 30
0.0
 11
245.8438711812
 21
118.9432970169
 31
0.0
  0
ARC
  5
88
330
1F
100
AcDbEntity
  8
0
  6
Continuous
 62
     7
370
    25
100
AcDbCircle
 10
245.8438654353
 20
131.543297151
 30
0.0
 40
0.4000000000000057
100
AcDbArc
 50
0.0
 51
90.0
  0
ARC
  5
89
330
1F
100
AcDbEntity
  8
0
  6
Continuous
 62
     7
370
    25
100
AcDbCircle
 10
245.8438654353
 20
119.343297151
 30
0.0
 40
0.4000000000000057
100
AcDbArc
 50
270.0
 51
0.0
  0
ARC
  5
8A
330
1F
100
AcDbEntity
  8
0
  6
Continuous
 62
     7
370
    25
100
AcDbCircle
 10
237.8438654353
 20
121.043297151
 30
0.0
 40
0.4000000000000057
100
AcDbArc
 50
0.0
 51
90.0
  0
ARC
  5
8B
330
1F
100
AcDbEntity
  8
0
  6
Continuous
 62
     7
370
    25
100
AcDbCircle
 10
237.8438654353
 20
129.843297151
 30
0.0
 40
0.4000000000000341
100
AcDbArc
 50
270.0
 51
0.0
  0
LINE
  5
8C
330
1F
100
AcDbEntity
  8
0
  6
Continuous
 62
     7
370
    25
100
AcDbLine
 10
237.8438698699
 20
129.443297341
 30
0.0
 11
233.2438665082
 21
129.443297341
 31
0.0
  0
LINE
  5
8D
330
1F
100
AcDbEntity
  8
0
  6
Continuous
 62
     7
370
    25
100
AcDbLine
 10
233.2438665082
 20
121.443296961
 30
0.0
 11
237.8438698699
 21
121.443296961
 31
0.0
  0
ARC
  5
8E
330
1F
100
AcDbEntity
  8
0
  6
Continuous
 62
     7
370
    25
100
AcDbCircle
 10
56.5438654353
 20
94.243297151
 30
0.0
 40
0.2999999999999972
100
AcDbArc
 50
180.0
 51
270.0
  0
ARC
  5
8F
330
1F
100
AcDbEntity
  8
0
  6
Continuous
 62
     7
370
    25
100
AcDbCircle
 10
56.5438654353
 20
156.643297151
 30
0.0
 40
0.2999999999999972
100
AcDbArc
 50
90.0
 51
180.0
  0
LINE
  5
90
330
1F
100
AcDbEntity
  8
0
  6
Continuous
 62
     7
370
    25
100
AcDbLine
 10
56.5438654496
 20
93.9432966444
 30
0.0
 11
61.1938654085
 21
93.9432966444
 31
0.0
  0
LINE
  5
91
330
1F
100
AcDbEntity
  8
0
  6
Continuous
 62
     7
370
    25
100
AcDbLine
 10
61.2882777688
 20
156.9432976577
 30
0.0
 11
56.5438654496
 21
156.9432976577
 31
0.0
  0
ARC
  5
92
330
1F
100
AcDbEntity
  8
0
  6
Continuous
 62
     7
370
    25
100
AcDbCircle
 10
85.1938654353
 20
100.4273383495
 30
0.0
 40
3.000000000000003
100
AcDbArc
 50
104.3250519401
 51
180.0
  0
ARC
  5
93
330
1F
100
AcDbEntity
  8
0
  6
Continuous
 62
     7
370
    25
100
AcDbCircle
 10
85.1938654353
 20
150.4592559525
 30
0.0
 40
2.999999999999989
100
AcDbArc
 50
180.0
 51
255.6749480599
  0
ARC
  5
94
330
1F
100
AcDbEntity
  8
0
  6
Continuous
 62
     7
370
    25
100
AcDbCircle
 10
55.7438586826
 20
100.8728595366
 30
0.0
 40
0.6000067526677164
100
AcDbArc
 50
33.5571153394
 51
90.0
  0
ARC
  5
95
330
1F
100
AcDbEntity
  8
0
  6
Continuous
 62
     7
370
    25
100
AcDbCircle
 10
55.7438586826
 20
150.0137347654
 30
0.0
 40
0.6000067526677242
100
AcDbArc
 50
270.0
 51
326.4428846606
  0
LINE
  5
96
330
1F
100
AcDbEntity
  8
0
  6
Continuous
 62
     7
370
    25
100
AcDbLine
 10
54.2438653403
 20
101.2228659275
 30
0.0
 11
55.1005782665
 21
101.452422041
 31
0.0
  0
LINE
  5
97
330
1F
100
AcDbEntity
  8
0
  6
Continuous
 62
     7
370
    25
100
AcDbLine
 10
55.1005782665
 20
149.434172261
 30
0.0
 11
54.2438653403
 21
149.6637283745
 31
0.0
  0
LINE
  5
98
330
1F
100
AcDbEntity
  8
0
  6
Continuous
 62
     7
370
    25
100
AcDbLine
 10
43.0134429236
 20
149.1010810169
 30
0.0
 11
30.4438645591
 21
148.4713430437
 31
0.0
  0
LINE
  5
99
330
1F
100
AcDbEntity
  8
0
  6
Continuous
 62
     7
370
    25
100
AcDbLine
 10
54.2438653403
 20
149.6637283745
 30
0.0
 11
51.4252559853
 21
149.5225156578
 31
0.0
  0
LINE
  5
9A
330
1F
100
AcDbEntity
  8
0
  6
Continuous
 62
     7
370
    25
100
AcDbLine
 10
51.4254776401
 20
101.3640674683
 30
0.0
 11
54.2438653403
 21
101.2228659275
 31
0.0
  0
LINE
  5
9B
330
1F
100
AcDbEntity
  8
0
  6
Continuous
 62
     7
370
    25
100
AcDbLine
 10
34.4438652148
 20
102.2148511293
 30
0.0
 11
43.0141423469
 21
101.7854778948
 31
0.0
  0
ARC
  5
9C
330
1F
100
AcDbEntity
  8
0
  6
Continuous
 62
     7
370
    25
100
AcDbCircle
 10
55.2558696358
 20
100.8728662893
 30
0.0
 40
0.5999999999999943
100
AcDbArc
 50
90.0
 51
105.0
  0
ARC
  5
9D
330
1F
100
AcDbEntity
  8
0
  6
Continuous
 62
     7
370
    25
100
AcDbCircle
 10
55.2558696358
 20
150.0137280127
 30
0.0
 40
0.5999999999999943
100
AcDbArc
 50
255.0
 51
270.0
  0
LINE
  5
9E
330
1F
100
AcDbEntity
  8
0
  6
Continuous
 62
     7
370
    25
100
AcDbLine
 10
55.2558696701
 20
101.4728664341
 30
0.0
 11
55.7438586595
 21
101.4728664341
 31
0.0
  0
LINE
  5
9F
330
1F
100
AcDbEntity
  8
0
  6
Continuous
 62
     7
370
    25
100
AcDbLine
 10
55.7438586595
 20
149.4137278679
 30
0.0
 11
55.2558696701
 21
149.4137278679
 31
0.0
  0
ARC
  5
A0
330
1F
100
AcDbEntity
  8
0
  6
Continuous
 62
     7
370
    25
100
AcDbCircle
 10
109.1938654353
 20
6.443297151
 30
0.0
 40
100.0
100
AcDbArc
 50
90.0
 51
104.3250519401
  0
ARC
  5
A1
330
1F
100
AcDbEntity
  8
0
  6
Continuous
 62
     7
370
    25
100
AcDbCircle
 10
109.1938654353
 20
244.443297151
 30
0.0
 40
100.0
100
AcDbArc
 50
255.6749480599
 51
270.0
  0
LINE
  5
A2
330
1F
100
AcDbEntity
  8
0
  6
Continuous
 62
     7
370
    25
100
AcDbLine
 10
109.1938639631
 20
106.443297762
 30
0.0
 11
215.443863218
 21
106.443297762
 31
0.0
  0
LINE
  5
A3
330
1F
100
AcDbEntity
  8
0
  6
Continuous
 62
     7
370
    25
100
AcDbLine
 10
215.443863218
 20
144.4432965401
 30
0.0
 11
109.1938639631
 21
144.4432965401
 31
0.0
  0
ARC
  5
A4
330
1F
100
AcDbEntity
  8
0
  6
Continuous
 62
     7
370
    25
100
AcDbCircle
 10
215.4438654353
 20
107.243297151
 30
0.0
 40
0.7999999999999972
100
AcDbArc
 50
270.0
 51
0.0
  0
ARC
  5
A5
330
1F
100
AcDbEntity
  8
0
  6
Continuous
 62
     7
370
    25
100
AcDbCircle
 10
215.4438654353
 20
143.643297151
 30
0.0
 40
0.8000000000000398
100
AcDbArc
 50
0.0
 51
90.0
  0
LINE
  5
A6
330
1F
100
AcDbEntity
  8
0
  6
Continuous
 62
     7
370
    25
100
AcDbLine
 10
25.6272020389
 20
104.573297027
 30
0.0
 11
33.0438657303
 21
104.573297027
 31
0.0
  0
ARC
  5
A7
330
1F
100
AcDbEntity
  8
0
  6
Continuous
 62
     7
370
    25
100
AcDbCircle
 10
33.0438654353
 20
103.173297151
 30
0.0
 40
1.400000000000006
100
AcDbArc
 50
42.2465410162
 51
90.0
  0
LINE
  5
A8
330
1F
100
AcDbEntity
  8
0
  6
Continuous
 62
     7
370
    25
100
AcDbLine
 10
24.3448975136
 20
105.7222640994
 30
0.0
 11
25.4850281974
 21
104.5821334156
 31
0.0
  0
LINE
  5
A9
330
1F
100
AcDbEntity
  8
0
  6
Continuous
 62
     7
370
    25
100
AcDbLine
 10
25.4850281974
 20
146.3044608864
 30
0.0
 11
24.3537674298
 21
145.1731982562
 31
0.0
  0
ARC
  5
AA
330
1F
100
AcDbEntity
  8
0
  6
Continuous
 62
     7
370
    25
100
AcDbCircle
 10
29.0438654353
 20
147.713297151
 30
0.0
 40
1.40000000000001
100
AcDbArc
 50
270.0
 51
301.7485287426
  0
LINE
  5
AB
330
1F
100
AcDbEntity
  8
0
  6
Continuous
 62
     7
370
    25
100
AcDbLine
 10
29.0438650747
 20
146.313297275
 30
0.0
 11
25.6181309571
 21
146.313297275
 31
0.0
  0
ARC
  5
AC
330
1F
100
AcDbEntity
  8
0
  6
Continuous
 62
     7
370
    25
100
AcDbCircle
 10
216.7438654353
 20
117.093297151
 30
0.0
 40
0.6000000000000097
100
AcDbArc
 50
90.0
 51
146.4426902381
  0
ARC
  5
AD
330
1F
100
AcDbEntity
  8
0
  6
Continuous
 62
     7
370
    25
100
AcDbCircle
 10
216.7438654353
 20
133.793297151
 30
0.0
 40
0.6000000000000019
100
AcDbArc
 50
213.5573097619
 51
270.0
  0
LINE
  5
AE
330
1F
100
AcDbEntity
  8
0
  6
Continuous
 62
     7
370
    25
100
AcDbLine
 10
218.2438659121
 20
117.443296771
 30
0.0
 11
232.4438678672
 21
117.443296771
 31
0.0
  0
LINE
  5
AF
330
1F
100
AcDbEntity
  8
0
  6
Continuous
 62
     7
370
    25
100
AcDbLine
 10
232.4438678672
 20
133.443297531
 30
0.0
 11
218.2438659121
 21
133.443297531
 31
0.0
  0
LINE
  5
B0
330
1F
100
AcDbEntity
  8
0
  6
Continuous
 62
     7
370
    25
100
AcDbLine
 10
218.2438659121
 20
133.443297531
 30
0.0
 11
217.3871534516
 21
133.2137418832
 31
0.0
  0
LINE
  5
B1
330
1F
100
AcDbEntity
  8
0
  6
Continuous
 62
     7
370
    25
100
AcDbLine
 10
217.3871534516
 20
117.6728524189
 30
0.0
 11
218.2438659121
 21
117.443296771
 31
0.0
  0
ARC
  5
B2
330
1F
100
AcDbEntity
  8
0
  6
Continuous
 62
     7
370
    25
100
AcDbCircle
 10
232.4438654353
 20
118.243297151
 30
0.0
 40
0.8000000000000398
100
AcDbArc
 50
270.0
 51
0.0
  0
ARC
  5
B3
330
1F
100
AcDbEntity
  8
0
  6
Continuous
 62
     7
370
    25
100
AcDbCircle
 10
232.4438654353
 20
132.643297151
 30
0.0
 40
0.8000000000000398
100
AcDbArc
 50
0.0
 51
90.0
  0
ARC
  5
B4
330
1F
100
AcDbEntity
  8
0
  6
Continuous
 62
     7
370
    25
100
AcDbCircle
 10
217.2318612349
 20
117.093297151
 30
0.0
 40
0.6000000000000227
100
AcDbArc
 50
75.0
 51
90.0
  0
ARC
  5
B5
330
1F
100
AcDbEntity
  8
0
  6
Continuous
 62
     7
370
    25
100
AcDbCircle
 10
217.2318612349
 20
133.793297151
 30
0.0
 40
0.6000000000000227
100
AcDbArc
 50
270.0
 51
285.0
  0
LINE
  5
B6
330
1F
100
AcDbEntity
  8
0
  6
Continuous
 62
     7
370
    25
100
AcDbLine
 10
216.7438703229
 20
117.6932972777
 30
0.0
 11
217.2318684508
 21
117.6932972777
 31
0.0
  0
LINE
  5
B7
330
1F
100
AcDbEntity
  8
0
  6
Continuous
 62
     7
370
    25
100
AcDbLine
 10
217.2318684508
 20
133.1932970244
 30
0.0
 11
216.7438703229
 21
133.1932970244
 31
0.0
  0
LINE
  5
B8
330
1F
100
AcDbEntity
  8
0
  6
Continuous
 62
     7
370
    25
100
AcDbLine
 10
221.2438719918
 20
135.9432970095
 30
0.0
 11
221.2438719918
 21
142.9432972255
 31
0.0
  0
LINE
  5
B9
330
1F
100
AcDbEntity
  8
0
  6
Continuous
 62
     7
370
    25
100
AcDbLine
 10
221.2438719918
 20
107.9432970765
 30
0.0
 11
221.2438719918
 21
114.9432963613
 31
0.0
  0
LINE
  5
BA
330
1F
100
AcDbEntity
  8
0
  6
Continuous
 62
     7
370
    25
100
AcDbLine
 10
238.2438617398
 20
131.9432972851
 30
0.0
 11
238.2438617398
 21
118.9432970169
 31
0.0
  0
LINE
  5
BB
330
1F
100
AcDbEntity
  8
0
  6
Continuous
 62
     7
370
    25
100
AcDbLine
 10
246.2438630511
 20
131.5432970333
 30
0.0
 11
246.2438630511
 21
119.3432972687
 31
0.0
  0
LINE
  5
BC
330
1F
100
AcDbEntity
  8
0
  6
Continuous
 62
     7
370
    25
100
AcDbLine
 10
56.2438654353
 20
94.2432979974
 30
0.0
 11
56.2438654353
 21
156.6432963046
 31
0.0
  0
LINE
  5
BD
330
1F
100
AcDbEntity
  8
0
  6
Continuous
 62
     7
370
    25
100
AcDbLine
 10
72.3338654836
 20
97.945459831
 30
0.0
 11
72.3338654836
 21
145.2932978901
 31
0.0
  0
SPLINE
  5
BE
330
1F
100
AcDbEntity
  8
0
  6
Continuous
 62
     7
370
    25
100
AcDbSpline
210
0.0
220
0.0
230
1.0
 70
     8
 71
     3
 72
     8
 73
     4
 74
     0
 42
0.000000001
 43
0.00000001
 40
0.0
 40
0.0
 40
0.0
 40
0.0
 40
1.0
 40
1.0
 40
1.0
 40
1.0
 10
72.33386543530595
 20
97.94545999195685
 30
0.0
 10
71.84152631252478
 20
97.04818995775015
 30
0.0
 10
71.34741226448263
 20
96.15190554269789
 30
0.0
 10
70.85193260381689
 20
95.25637945476454
 30
0.0
  0
LINE
  5
BF
330
1F
100
AcDbEntity
  8
0
  6
Continuous
 62
     7
370
    25
100
AcDbLine
 10
70.8519328957
 20
95.2563795182
 30
0.0
 11
70.8519328957
 21
145.2932978901
 31
0.0
  0
SPLINE
  5
C0
330
1F
100
AcDbEntity
  8
0
  6
Continuous
 62
     7
370
    25
100
AcDbSpline
210
0.0
220
0.0
230
1.0
 70
    24
 71
     3
 72
     8
 73
     4
 74
     0
 42
0.000000001
 43
0.00000001
 40
0.0
 40
0.0
 40
0.0
 40
0.0
 40
1.0
 40
1.0
 40
1.0
 40
1.0
 10
70.85193260381686
 20
145.2932971510117
 30
0.0
 10
71.35861271196741
 20
145.2932971510117
 30
0.0
 10
71.85391344094104
 20
145.2932971510117
 30
0.0
 10
72.33386543530595
 20
145.2932971510117
 30
0.0
  0
LINE
  5
C1
330
1F
100
AcDbEntity
  8
0
  6
Continuous
 62
     7
370
    25
100
AcDbLine
 10
82.1938651254
 20
95.8830199125
 30
0.0
 11
82.1938651254
 21
145.2932978901
 31
0.0
  0
SPLINE
  5
C2
330
1F
100
AcDbEntity
  8
0
  6
Continuous
 62
     7
370
    25
100
AcDbSpline
210
0.0
220
0.0
230
1.0
 70
     8
 71
     3
 72
    10
 73
     6
 74
     0
 42
0.000000001
 43
0.00000001
 40
0.0
 40
0.0
 40
0.0
 40
0.0
 40
0.5
 40
0.5
 40
1.0
 40
1.0
 40
1.0
 40
1.0
 10
82.19386543530595
 20
95.88301975041887
 30
0.0
 10
82.19386543530594
 20
95.72313248222521
 30
0.0
 10
82.1325557840701
 20
95.5620052267106
 30
0.0
 10
81.91345614653501
 20
95.32790622835577
 30
0.0
 10
81.75540794022155
 20
95.25637945476454
 30
0.0
 10
81.59386543530594
 20
95.25637945476454
 30
0.0
  0
SPLINE
  5
C3
330
1F
100
AcDbEntity
  8
0
  6
Continuous
 62
     7
370
    25
100
AcDbSpline
210
0.0
220
0.0
230
1.0
 70
    24
 71
     3
 72
    12
 73
     8
 74
     0
 42
0.000000001
 43
0.00000001
 40
0.0
 40
0.0
 40
0.0
 40
0.0
 40
0.2500000000000033
 40
0.2500000000000033
 40
0.5000000000000067
 40
0.5000000000000067
 40
1.0
 40
1.0
 40
1.0
 40
1.0
 10
81.59386543530593
 20
145.2932971510117
 30
0.0
 10
81.684104502993
 20
145.2932971510117
 30
0.0
 10
81.77500261709949
 20
145.2932971510117
 30
0.0
 10
81.92959965358803
 20
145.2932971510117
 30
0.0
 10
81.99457806969612
 20
145.2932971510117
 30
0.0
 10
82.14641309763236
 20
145.2932971510117
 30
0.0
 10
82.19386543530595
 20
145.2932971510117
 30
0.0
 10
82.19386543530594
 20
145.2932971510117
 30
0.0
  0
LINE
  5
C4
330
1F
100
AcDbEntity
  8
0
  6
Continuous
 62
     7
370
    25
100
AcDbLine
 10
61.1938654085
 20
145.2932978901
 30
0.0
 11
70.8519328957
 21
145.2932978901
 31
0.0
  0
LINE
  5
C5
330
1F
100
AcDbEntity
  8
0
  6
Continuous
 62
     7
370
    25
100
AcDbLine
 10
70.8519328957
 20
95.2563795182
 30
0.0
 11
69.1938657885
 21
95.2563795182
 31
0.0
  0
SPLINE
  5
C6
330
1F
100
AcDbEntity
  8
0
  6
Continuous
 62
     7
370
    25
100
AcDbSpline
210
0.0
220
0.0
230
1.0
 70
     8
 71
     3
 72
    28
 73
    24
 74
     0
 42
0.000000001
 43
0.00000001
 40
0.0
 40
0.0
 40
0.0
 40
0.0
 40
0.1250000000000001
 40
0.1250000000000001
 40
0.1875000000000001
 40
0.1875000000000001
 40
0.2500000000000001
 40
0.2500000000000001
 40
0.3749999999999999
 40
0.3749999999999999
 40
0.4375
 40
0.4375
 40
0.4999999999999999
 40
0.4999999999999999
 40
0.6249999999999999
 40
0.6249999999999999
 40
0.7499999999999997
 40
0.7499999999999997
 40
0.8124999999999998
 40
0.8124999999999998
 40
0.8749999999999998
 40
0.8749999999999998
 40
1.0
 40
1.0
 40
1.0
 40
1.0
 10
69.19386543530594
 20
95.25637945476454
 30
0.0
 10
68.66215767781301
 20
95.25637945476456
 30
0.0
 10
68.13991911250268
 20
95.24059474081434
 30
0.0
 10
67.37004862622767
 20
95.19559932673813
 30
0.0
 10
67.11568905403634
 20
95.17704433166242
 30
0.0
 10
66.61156747333783
 20
95.13319160921588
 30
0.0
 10
66.36184465590992
 20
95.1078470022637
 30
0.0
 10
65.6362547044635
 20
95.02444492451359
 30
0.0
 10
65.17789444288195
 20
94.95857936536251
 30
0.0
 10
64.52739649948808
 20
94.84960902487072
 30
0.0
 10
64.31571444869562
 20
94.81136938910406
 30
0.0
 10
63.91164295955762
 20
94.7336106516847
 30
0.0
 10
63.71913644573675
 20
94.69410968950936
 30
0.0
 10
63.16930147471547
 20
94.57520194714336
 30
0.0
 10
62.83937269640666
 20
94.49538426571876
 30
0.0
 10
62.25490142783797
 20
94.3420411039227
 30
0.0
 10
62.00862428982454
 20
94.27070735065344
 30
0.0
 10
61.70878149712647
 20
94.17676384357881
 30
0.0
 10
61.62032464005429
 20
94.14757005021889
 30
0.0
 10
61.46696328674916
 20
94.09410347595548
 30
0.0
 10
61.40187507252293
 20
94.06974414168029
 30
0.0
 10
61.24628105658214
 20
94.00615399623555
 30
0.0
 10
61.19386543530594
 20
93.97605106114631
 30
0.0
 10
61.19386543530594
 20
93.95917416814939
 30
0.0
  0
LINE
  5
C7
330
1F
100
AcDbEntity
  8
0
  6
Continuous
 62
     7
370
    25
100
AcDbLine
 10
61.1938654085
 20
93.9591738316
 30
0.0
 11
61.1938654085
 21
93.9432966444
 31
0.0
  0
SPLINE
  5
C8
330
1F
100
AcDbEntity
  8
0
  6
Continuous
 62
     7
370
    25
100
AcDbSpline
210
0.0
220
0.0
230
1.0
 70
     8
 71
     3
 72
    13
 73
     9
 74
     0
 42
0.000000001
 43
0.00000001
 40
0.0
 40
0.0
 40
0.0
 40
0.0
 40
0.2099182057340242
 40
0.4196695958714599
 40
0.6337222317731117
 40
0.7410464986892825
 40
0.8516098234112257
 40
1.0
 40
1.0
 40
1.0
 40
1.0
 10
69.19386578846347
 20
155.9104925873702
 30
0.0
 10
68.31044975138053
 20
155.9336337188971
 30
0.0
 10
66.54431970099934
 20
155.9798975923995
 30
0.0
 10
64.18537328296814
 20
156.2987038153854
 30
0.0
 10
62.65838130727921
 20
156.5975408018934
 30
0.0
 10
61.81700468294907
 20
156.7893102251379
 30
0.0
 10
61.29131244050029
 20
156.9180814630919
 30
0.0
 10
61.28938326153303
 20
156.9190167197537
 30
0.0
 10
61.28827776882422
 20
156.9195526572888
 30
0.0
  0
LINE
  5
C9
330
1F
100
AcDbEntity
  8
0
  6
Continuous
 62
     7
370
    25
100
AcDbLine
 10
70.8519328957
 20
155.9104925874
 30
0.0
 11
69.1938657885
 21
155.9104925874
 31
0.0
  0
LINE
  5
CA
330
1F
100
AcDbEntity
  8
0
  6
Continuous
 62
     7
370
    25
100
AcDbLine
 10
70.8519328957
 20
149.9019867661
 30
0.0
 11
70.8519328957
 21
155.9104925874
 31
0.0
  0
LINE
  5
CB
330
1F
100
AcDbEntity
  8
0
  6
Continuous
 62
     7
370
    25
100
AcDbLine
 10
68.4394861211
 20
149.9019867661
 30
0.0
 11
70.8519328957
 21
149.9019867661
 31
0.0
  0
SPLINE
  5
CC
330
1F
100
AcDbEntity
  8
0
  6
Continuous
 62
     7
370
    25
100
AcDbSpline
210
0.0
220
0.0
230
1.0
 70
     8
 71
     3
 72
    20
 73
    16
 74
     0
 42
0.000000001
 43
0.00000001
 40
0.0
 40
0.0
 40
0.0
 40
0.0
 40
0.2499999999999997
 40
0.2499999999999997
 40
0.3749999999999997
 40
0.3749999999999997
 40
0.4999999999999998
 40
0.4999999999999998
 40
0.6249999999999998
 40
0.6249999999999998
 40
0.7499999999999999
 40
0.7499999999999999
 40
0.8749999999999999
 40
0.8749999999999999
 40
1.0
 40
1.0
 40
1.0
 40
1.0
 10
61.19386543530594
 20
145.2932971510117
 30
0.0
 10
61.442239169594
 20
145.9471595793091
 30
0.0
 10
61.76180926193926
 20
146.5509453613063
 30
0.0
 10
62.38411549514394
 20
147.3777840974749
 30
0.0
 10
62.61553975557471
 20
147.6402127354278
 30
0.0
 10
63.13675409522443
 20
148.1368753895327
 30
0.0
 10
63.4233745778595
 20
148.3674622685543
 30
0.0
 10
64.0428593191671
 20
148.7840164931369
 30
0.0
 10
64.37715969865407
 20
148.9715142951044
 30
0.0
 10
65.10242017127887
 20
149.3029112727408
 30
0.0
 10
65.48433522866932
 20
149.4424152602361
 30
0.0
 10
66.27912340484102
 20
149.667868767707
 30
0.0
 10
66.69328159904738
 20
149.7544948792507
 30
0.0
 10
67.55882793962878
 20
149.8724756681048
 30
0.0
 10
67.9967155546406
 20
149.9019868133792
 30
0.0
 10
68.43948578099523
 20
149.9019868133792
 30
0.0
  0
SPLINE
  5
CD
330
1F
100
AcDbEntity
  8
0
  6
Continuous
 62
     7
370
    25
100
AcDbSpline
210
0.0
220
0.0
230
1.0
 70
    11
 71
     3
 72
    70
 73
    66
 74
     0
 42
0.000000001
 43
0.00000001
 40
0.0
 40
0.0
 40
0.0
 40
0.0
 40
0.0312499999999999
 40
0.0312499999999999
 40
0.0624999999999998
 40
0.0624999999999998
 40
0.0937499999999997
 40
0.0937499999999997
 40
0.1249999999999996
 40
0.1249999999999996
 40
0.1562499999999994
 40
0.1562499999999994
 40
0.1874999999999993
 40
0.1874999999999993
 40
0.2187499999999992
 40
0.2187499999999992
 40
0.2499999999999991
 40
0.2499999999999991
 40
0.281249999999999
 40
0.281249999999999
 40
0.3124999999999989
 40
0.3124999999999989
 40
0.3437499999999988
 40
0.3437499999999988
 40
0.3749999999999987
 40
0.3749999999999987
 40
0.4062499999999986
 40
0.4062499999999986
 40
0.4374999999999984
 40
0.4374999999999984
 40
0.4687499999999983
 40
0.4687499999999983
 40
0.4999999999999982
 40
0.4999999999999982
 40
0.5312499999999982
 40
0.5312499999999982
 40
0.5624999999999982
 40
0.5624999999999982
 40
0.5937499999999982
 40
0.5937499999999982
 40
0.6249999999999982
 40
0.6249999999999982
 40
0.6562499999999982
 40
0.6562499999999982
 40
0.6874999999999982
 40
0.6874999999999982
 40
0.7187499999999982
 40
0.7187499999999982
 40
0.7499999999999982
 40
0.7499999999999982
 40
0.7812499999999984
 40
0.7812499999999984
 40
0.8124999999999987
 40
0.8124999999999987
 40
0.8437499999999989
 40
0.8437499999999989
 40
0.8749999999999991
 40
0.8749999999999991
 40
0.9062499999999993
 40
0.9062499999999993
 40
0.9374999999999996
 40
0.9374999999999996
 40
0.9687499999999998
 40
0.9687499999999998
 40
1.0
 40
1.0
 40
1.0
 40
1.0
 10
64.24386543530596
 20
136.0642040369951
 30
0.0
 10
63.97932009664581
 20
136.0642040369951
 30
0.0
 10
63.71924942926869
 20
136.0888813317802
 30
0.0
 10
63.20767474943329
 20
136.1853530048222
 30
0.0
 10
62.95349946569309
 20
136.2583339208022
 30
0.0
 10
62.46922883563138
 20
136.4480745237408
 30
0.0
 10
62.23958774375023
 20
136.5639351821346
 30
0.0
 10
61.80498339551674
 20
136.8365530280923
 30
0.0
 10
61.59941761887013
 20
136.994592110146
 30
0.0
 10
61.23086047827489
 20
137.3381349611167
 30
0.0
 10
61.06537949553939
 20
137.5248974052184
 30
0.0
 10
60.7729549861043
 20
137.9284405796152
 30
0.0
 10
60.64885400947779
 20
138.1419375760443
 30
0.0
 10
60.44927481272808
 20
138.5813208899668
 30
0.0
 10
60.37234122686981
 20
138.8104608771125
 30
0.0
 10
60.26948416834944
 20
139.2764349998725
 30
0.0
 10
60.24401125889031
 20
139.5093174455486
 30
0.0
 10
60.24372084832254
 20
139.9747149806285
 30
0.0
 10
60.26974548209828
 20
140.2095907380228
 30
0.0
 10
60.37189376659028
 20
140.6610838852691
 30
0.0
 10
60.44747021417344
 20
140.8791303606804
 30
0.0
 10
60.64796774531838
 20
141.3002248857183
 30
0.0
 10
60.77309658682675
 20
141.5021462702366
 30
0.0
 10
61.06245538784832
 20
141.8741757527555
 30
0.0
 10
61.22786637490381
 20
142.0468040563358
 30
0.0
 10
61.60085693305163
 20
142.3641220608818
 30
0.0
 10
61.80258996614073
 20
142.5039089943835
 30
0.0
 10
62.2354492169686
 20
142.7480852479353
 30
0.0
 10
62.46936774985798
 20
142.8533147589768
 30
0.0
 10
62.95355148500059
 20
143.0214719053519
 30
0.0
 10
63.2028671109561
 20
143.0847227959458
 30
0.0
 10
63.71589963538382
 20
143.1703020050483
 30
0.0
 10
63.98119345828847
 20
143.1921741699708
 30
0.0
 10
64.50352807815821
 20
143.1923378196147
 30
0.0
 10
64.76328174063994
 20
143.1713361275187
 30
0.0
 10
65.27989355628519
 20
143.0859337724411
 30
0.0
 10
65.53225959678547
 20
143.0219275891541
 30
0.0
 10
66.0137847183183
 20
142.8551130691129
 30
0.0
 10
66.24663545043185
 20
142.7509799057138
 30
0.0
 10
66.68372529887063
 20
142.5049932532188
 30
0.0
 10
66.88504628752781
 20
142.3652434222699
 30
0.0
 10
67.2541323128277
 20
142.0521053525454
 30
0.0
 10
67.4231170638794
 20
141.8766491932753
 30
0.0
 10
67.71357312053861
 20
141.503808929175
 30
0.0
 10
67.83664493190075
 20
141.3056871190641
 30
0.0
 10
68.03798117332276
 20
140.8849757763304
 30
0.0
 10
68.11519371926498
 20
140.6629857556629
 30
0.0
 10
68.21739726216505
 20
140.2131208159545
 30
0.0
 10
68.24362561361738
 20
139.9828654028378
 30
0.0
 10
68.24410201293449
 20
139.5115494602887
 30
0.0
 10
68.21835960043651
 20
139.2783120445746
 30
0.0
 10
68.11704882407265
 20
138.8166355050765
 30
0.0
 10
68.04021618468171
 20
138.5857381179644
 30
0.0
 10
67.83981234546653
 20
138.1434621041727
 30
0.0
 10
67.71714084717449
 20
137.9323996728868
 30
0.0
 10
67.42719355801026
 20
137.5309011621541
 30
0.0
 10
67.25862257864503
 20
137.3399946400782
 30
0.0
 10
66.89035298453186
 20
136.9962693080811
 30
0.0
 10
66.68929112726154
 20
136.841132121867
 30
0.0
 10
66.25226020867663
 20
136.5660547617873
 30
0.0
 10
66.02011199554701
 20
136.4489385323653
 30
0.0
 10
65.53910171404814
 20
136.2600120473008
 30
0.0
 10
65.28700163121773
 20
136.1869370769065
 30
0.0
 10
64.76993214495872
 20
136.0888850177719
 30
0.0
 10
64.5084107739661
 20
136.0642040369951
 30
0.0
 10
64.24386543530596
 20
136.0642040369951
 30
0.0
  0
SPLINE
  5
CE
330
1F
100
AcDbEntity
  8
0
  6
Continuous
 62
     7
370
    25
100
AcDbSpline
210
0.0
220
0.0
230
1.0
 70
    11
 71
     3
 72
    70
 73
    66
 74
     0
 42
0.000000001
 43
0.00000001
 40
0.0
 40
0.0
 40
0.0
 40
0.0
 40
0.0312499999999998
 40
0.0312499999999998
 40
0.0624999999999996
 40
0.0624999999999996
 40
0.0937499999999995
 40
0.0937499999999995
 40
0.1249999999999993
 40
0.1249999999999993
 40
0.1562499999999991
 40
0.1562499999999991
 40
0.1874999999999989
 40
0.1874999999999989
 40
0.2187499999999987
 40
0.2187499999999987
 40
0.2499999999999986
 40
0.2499999999999986
 40
0.2812499999999986
 40
0.2812499999999986
 40
0.3124999999999985
 40
0.3124999999999985
 40
0.3437499999999985
 40
0.3437499999999985
 40
0.3749999999999985
 40
0.3749999999999985
 40
0.4062499999999985
 40
0.4062499999999985
 40
0.4374999999999984
 40
0.4374999999999984
 40
0.4687499999999984
 40
0.4687499999999984
 40
0.4999999999999984
 40
0.4999999999999984
 40
0.5312499999999984
 40
0.5312499999999984
 40
0.5624999999999986
 40
0.5624999999999986
 40
0.5937499999999986
 40
0.5937499999999986
 40
0.6249999999999986
 40
0.6249999999999986
 40
0.6562499999999987
 40
0.6562499999999987
 40
0.6874999999999987
 40
0.6874999999999987
 40
0.7187499999999988
 40
0.7187499999999988
 40
0.7499999999999988
 40
0.7499999999999988
 40
0.7812499999999989
 40
0.7812499999999989
 40
0.8124999999999991
 40
0.8124999999999991
 40
0.8437499999999992
 40
0.8437499999999992
 40
0.8749999999999993
 40
0.8749999999999993
 40
0.9062499999999996
 40
0.9062499999999996
 40
0.9374999999999997
 40
0.9374999999999997
 40
0.9687499999999999
 40
0.9687499999999999
 40
1.0
 40
1.0
 40
1.0
 40
1.0
 10
64.24386543530596
 20
150.5022605457909
 30
0.0
 10
63.97932009664581
 20
150.5022605457909
 30
0.0
 10
63.71924942926871
 20
150.5181609862057
 30
0.0
 10
63.20767474943329
 20
150.5801053363799
 30
0.0
 10
62.95349946569309
 20
150.6269075704712
 30
0.0
 10
62.46922883563138
 20
150.7478845539263
 30
0.0
 10
62.23958774375023
 20
150.8214868817331
 30
0.0
 10
61.80498339551674
 20
150.9933111527112
 30
0.0
 10
61.59941761887013
 20
151.0923145756387
 30
0.0
 10
61.23086047827489
 20
151.3054109895515
 30
0.0
 10
61.0653794955394
 20
151.4203107056812
 30
0.0
 10
60.7729549861043
 20
151.6656776043715
 30
0.0
 10
60.64885400947781
 20
151.7941175048418
 30
0.0
 10
60.44927481272808
 20
152.0550096529277
 30
0.0
 10
60.37234122686981
 20
152.1893908242672
 30
0.0
 10
60.26948416834944
 20
152.4587107753735
 30
0.0
 10
60.24401125889031
 20
152.5913920395916
 30
0.0
 10
60.24372084832254
 20
152.8525785137226
 30
0.0
 10
60.26974548209828
 20
152.9823435518874
 30
0.0
 10
60.37189376659028
 20
153.22792618616
 30
0.0
 10
60.44747021417344
 20
153.3445877234689
 30
0.0
 10
60.64796774531838
 20
153.5664929136234
 30
0.0
 10
60.77309658682675
 20
153.6711041675465
 30
0.0
 10
61.06245538784834
 20
153.8611505791545
 30
0.0
 10
61.22786637490381
 20
153.9479102506042
 30
0.0
 10
61.60085693305163
 20
154.1054146263558
 30
0.0
 10
61.80258996614073
 20
154.173739891143
 30
0.0
 10
62.23544921696861
 20
154.2919696147622
 30
0.0
 10
62.46936774985798
 20
154.3422645308661
 30
0.0
 10
62.95355148500059
 20
154.4221300677557
 30
0.0
 10
63.2028671109561
 20
154.4518711955553
 30
0.0
 10
63.71589963538382
 20
154.4920239370635
 30
0.0
 10
63.98119345828847
 20
154.5022222064733
 30
0.0
 10
64.50352807815823
 20
154.502298664858
 30
0.0
 10
64.76328174063994
 20
154.492507653249
 30
0.0
 10
65.27989355628519
 20
154.4524408145102
 30
0.0
 10
65.53225959678547
 20
154.4223436476534
 30
0.0
 10
66.01378471831829
 20
154.3431214378232
 30
0.0
 10
66.24663545043185
 20
154.2933639583599
 30
0.0
 10
66.68372529887063
 20
154.1742720159095
 30
0.0
 10
66.88504628752781
 20
154.1059567543622
 30
0.0
 10
67.25413231282769
 20
153.9505557874286
 30
0.0
 10
67.42311706387939
 20
153.8624034453617
 30
0.0
 10
67.71357312053861
 20
153.6719640562454
 30
0.0
 10
67.83664493190074
 20
153.5693394785463
 30
0.0
 10
68.03798117332275
 20
153.3476991319382
 30
0.0
 10
68.11519371926498
 20
153.2289450563907
 30
0.0
 10
68.21739726216505
 20
152.984279117473
 30
0.0
 10
68.24362561361738
 20
152.8571223920245
 30
0.0
 10
68.24410201293449
 20
152.592674246169
 30
0.0
 10
68.21835960043651
 20
152.4597735659118
 30
0.0
 10
68.11704882407265
 20
152.1929812924297
 30
0.0
 10
68.04021618468171
 20
152.0576173909612
 30
0.0
 10
67.83981234546653
 20
151.7950375956586
 30
0.0
 10
67.71714084717449
 20
151.6680624359048
 30
0.0
 10
67.42719355801025
 20
151.4239830498224
 30
0.0
 10
67.25862257864503
 20
151.3065579250686
 30
0.0
 10
66.89035298453186
 20
151.0933614641201
 30
0.0
 10
66.68929112726154
 20
150.9961873456952
 30
0.0
 10
66.25226020867662
 20
150.8228324584811
 30
0.0
 10
66.02011199554701
 20
150.7484329068244
 30
0.0
 10
65.53910171404814
 20
150.6279800273197
 30
0.0
 10
65.28700163121772
 20
150.5811216520537
 30
0.0
 10
64.76993214495872
 20
150.51816415507
 30
0.0
 10
64.5084107739661
 20
150.5022605457909
 30
0.0
 10
64.24386543530596
 20
150.5022605457909
 30
0.0
  0
LINE
  5
CF
330
1F
100
AcDbEntity
  8
0
  6
Continuous
 62
     7
370
    25
100
AcDbLine
 10
77.6357973565
 20
95.2563795182
 30
0.0
 11
77.6357973565
 21
145.2932978901
 31
0.0
  0
SPLINE
  5
D0
330
1F
100
AcDbEntity
  8
0
  6
Continuous
 62
     7
370
    25
100
AcDbSpline
210
0.0
220
0.0
230
1.0
 70
     8
 71
     3
 72
     8
 73
     4
 74
     0
 42
0.000000001
 43
0.00000001
 40
0.0
 40
0.0
 40
0.0
 40
0.0
 40
1.0
 40
1.0
 40
1.0
 40
1.0
 10
77.63579826679499
 20
95.25637945476454
 30
0.0
 10
77.14031860612926
 20
96.1519055426979
 30
0.0
 10
76.64620455808713
 20
97.04818995775017
 30
0.0
 10
76.15386543530595
 20
97.94545999195687
 30
0.0
  0
LINE
  5
D1
330
1F
100
AcDbEntity
  8
0
  6
Continuous
 62
     7
370
    25
100
AcDbLine
 10
76.1538657
 20
97.945459831
 30
0.0
 11
76.1538657
 21
145.2932978901
 31
0.0
  0
SPLINE
  5
D2
330
1F
100
AcDbEntity
  8
0
  6
Continuous
 62
     7
370
    25
100
AcDbSpline
210
0.0
220
0.0
230
1.0
 70
    24
 71
     3
 72
     8
 73
     4
 74
     0
 42
0.000000001
 43
0.00000001
 40
0.0
 40
0.0
 40
0.0
 40
0.0
 40
1.0
 40
1.0
 40
1.0
 40
1.0
 10
76.15386543530595
 20
145.2932971510117
 30
0.0
 10
76.63381742967083
 20
145.2932971510117
 30
0.0
 10
77.12911815864446
 20
145.2932971510117
 30
0.0
 10
77.635798266795
 20
145.2932971510117
 30
0.0
  0
LINE
  5
D3
330
1F
100
AcDbEntity
  8
0
  6
Continuous
 62
     7
370
    25
100
AcDbLine
 10
81.5938661446
 20
95.2563795182
 30
0.0
 11
77.6357973565
 21
95.2563795182
 31
0.0
  0
LINE
  5
D4
330
1F
100
AcDbEntity
  8
0
  6
Continuous
 62
     7
370
    25
100
AcDbLine
 10
77.6357973565
 20
145.2932978901
 30
0.0
 11
81.5938661446
 21
145.2932978901
 31
0.0
  0
ARC
  5
D5
330
1F
100
AcDbEntity
  8
0
  6
Continuous
 62
     7
370
    25
100
AcDbCircle
 10
64.24086931
 20
137.3422944608
 30
0.0
 40
4.114749566347884
100
AcDbArc
 50
19.3249307175
 51
159.3457844591
  0
SPLINE
  5
D6
330
1F
100
AcDbEntity
  8
0
  6
Continuous
 62
     7
370
    25
100
AcDbSpline
210
0.0
220
0.0
230
1.0
 70
     8
 71
     3
 72
    10
 73
     6
 74
     0
 42
0.000000001
 43
0.00000001
 40
0.0
 40
0.0
 40
0.0
 40
0.0
 40
0.5
 40
0.5
 40
1.0
 40
1.0
 40
1.0
 40
1.0
 10
72.7281629669969
 20
151.8432971510117
 30
0.0
 10
72.6066227033284
 20
151.9180233182234
 30
0.0
 10
72.50528834297945
 20
152.0269683341403
 30
0.0
 10
72.36964940009102
 20
152.2773988149019
 30
0.0
 10
72.33386543530595
 20
152.4198181770008
 30
0.0
 10
72.33386543530595
 20
152.5629510020475
 30
0.0
  0
SPLINE
  5
D7
330
1F
100
AcDbEntity
  8
0
  6
Continuous
 62
     7
370
    25
100
AcDbSpline
210
0.0
220
0.0
230
1.0
 70
    24
 71
     3
 72
    12
 73
     8
 74
     0
 42
0.000000001
 43
0.00000001
 40
0.0
 40
0.0
 40
0.0
 40
0.0
 40
0.2500000000000037
 40
0.2500000000000037
 40
0.5000000000000074
 40
0.5000000000000074
 40
1.0
 40
1.0
 40
1.0
 40
1.0
 10
73.13386543530595
 20
151.8432971510117
 30
0.0
 10
73.08398875298849
 20
151.8432971510117
 30
0.0
 10
73.0359855595849
 20
151.8432971510117
 30
0.0
 10
72.95293745687292
 20
151.8432971510117
 30
0.0
 10
72.91680787740508
 20
151.8432971510117
 30
0.0
 10
72.82089584646087
 20
151.8432971510117
 30
0.0
 10
72.77113717849207
 20
151.8432971510117
 30
0.0
 10
72.7281629669969
 20
151.8432971510117
 30
0.0
  0
SPLINE
  5
D8
330
1F
100
AcDbEntity
  8
0
  6
Continuous
 62
     7
370
    25
100
AcDbSpline
210
0.0
220
0.0
230
1.0
 70
    24
 71
     3
 72
    14
 73
    10
 74
     0
 42
0.000000001
 43
0.00000001
 40
0.0
 40
0.0
 40
0.0
 40
0.0
 40
0.1249999999999991
 40
0.1249999999999991
 40
0.2499999999999982
 40
0.2499999999999982
 40
0.4999999999999998
 40
0.4999999999999998
 40
1.0
 40
1.0
 40
1.0
 40
1.0
 10
73.13386543530594
 20
99.0432971510117
 30
0.0
 10
73.06542758741949
 20
99.0432971510117
 30
0.0
 10
72.99987754865444
 20
99.04329715101171
 30
0.0
 10
72.89545090924648
 20
99.04329715101171
 30
0.0
 10
72.85290629948507
 20
99.04329715101171
 30
0.0
 10
72.74029683894481
 20
99.0432971510117
 30
0.0
 10
72.68475779192532
 20
99.0432971510117
 30
0.0
 10
72.54214609646152
 20
99.0432971510117
 30
0.0
 10
72.47874074146577
 20
99.0432971510117
 30
0.0
 10
72.43154023763823
 20
99.0432971510117
 30
0.0
  0
SPLINE
  5
D9
330
1F
100
AcDbEntity
  8
0
  6
Continuous
 62
     7
370
    25
100
AcDbSpline
210
0.0
220
0.0
230
1.0
 70
     8
 71
     3
 72
    10
 73
     6
 74
     0
 42
0.000000001
 43
0.00000001
 40
0.0
 40
0.0
 40
0.0
 40
0.0
 40
0.5
 40
0.5
 40
1.0
 40
1.0
 40
1.0
 40
1.0
 10
72.33386543530595
 20
145.5791637824731
 30
0.0
 10
72.33386543530595
 20
145.5313922744798
 30
0.0
 10
72.3360266789031
 20
145.4836825524181
 30
0.0
 10
72.34469805276326
 20
145.3883874348699
 30
0.0
 10
72.35122723571925
 20
145.3406948709032
 30
0.0
 10
72.36001305846608
 20
145.2932971510117
 30
0.0
  0
SPLINE
  5
DA
330
1F
100
AcDbEntity
  8
0
  6
Continuous
 62
     7
370
    25
100
AcDbSpline
210
0.0
220
0.0
230
1.0
 70
    24
 71
     3
 72
    14
 73
    10
 74
     0
 42
0.000000001
 43
0.00000001
 40
0.0
 40
0.0
 40
0.0
 40
0.0
 40
0.4999999999999984
 40
0.4999999999999984
 40
0.7499999999999992
 40
0.7499999999999992
 40
0.8749999999999996
 40
0.8749999999999996
 40
1.0
 40
1.0
 40
1.0
 40
1.0
 10
76.05619063297365
 20
99.0432971510117
 30
0.0
 10
76.00940592792544
 20
99.04329715101171
 30
0.0
 10
75.94735473114584
 20
99.04329715101171
 30
0.0
 10
75.80396309259523
 20
99.0432971510117
 30
0.0
 10
75.74781943904408
 20
99.0432971510117
 30
0.0
 10
75.63486841690789
 20
99.04329715101171
 30
0.0
 10
75.59186765486973
 20
99.04329715101171
 30
0.0
 10
75.48780494456328
 20
99.0432971510117
 30
0.0
 10
75.42247270620636
 20
99.04329715101173
 30
0.0
 10
75.35386543530595
 20
99.0432971510117
 30
0.0
  0
SPLINE
  5
DB
330
1F
100
AcDbEntity
  8
0
  6
Continuous
 62
     7
370
    25
100
AcDbSpline
210
0.0
220
0.0
230
1.0
 70
    24
 71
     3
 72
    12
 73
     8
 74
     0
 42
0.000000001
 43
0.00000001
 40
0.0
 40
0.0
 40
0.0
 40
0.0
 40
0.5000000000000017
 40
0.5000000000000017
 40
0.7500000000000008
 40
0.7500000000000008
 40
1.0
 40
1.0
 40
1.0
 40
1.0
 10
75.75956790361498
 20
151.8432971510117
 30
0.0
 10
75.71648235400403
 20
151.8432971510117
 30
0.0
 10
75.6673301522547
 20
151.8432971510117
 30
0.0
 10
75.57085755796679
 20
151.8432971510117
 30
0.0
 10
75.53475597283222
 20
151.8432971510117
 30
0.0
 10
75.45165021497094
 20
151.8432971510117
 30
0.0
 10
75.40365361800465
 20
151.8432971510117
 30
0.0
 10
75.35386543530595
 20
151.8432971510117
 30
0.0
  0
SPLINE
  5
DC
330
1F
100
AcDbEntity
  8
0
  6
Continuous
 62
     7
370
    25
100
AcDbSpline
210
0.0
220
0.0
230
1.0
 70
     8
 71
     3
 72
    10
 73
     6
 74
     0
 42
0.000000001
 43
0.00000001
 40
0.0
 40
0.0
 40
0.0
 40
0.0
 40
0.5
 40
0.5
 40
1.0
 40
1.0
 40
1.0
 40
1.0
 10
76.15386543530595
 20
152.5629510020475
 30
0.0
 10
76.15386543530595
 20
152.4191809442295
 30
0.0
 10
76.11781637658706
 20
152.2767615817343
 30
0.0
 10
75.98230751581305
 20
152.0268672883771
 30
0.0
 10
75.88243152271687
 20
151.9188369521289
 30
0.0
 10
75.75956790361495
 20
151.8432971510117
 30
0.0
  0
SPLINE
  5
DD
330
1F
100
AcDbEntity
  8
0
  6
Continuous
 62
     7
370
    25
100
AcDbSpline
210
0.0
220
0.0
230
1.0
 70
     8
 71
     3
 72
    10
 73
     6
 74
     0
 42
0.000000001
 43
0.00000001
 40
0.0
 40
0.0
 40
0.0
 40
0.0
 40
0.5
 40
0.5
 40
1.0
 40
1.0
 40
1.0
 40
1.0
 10
76.1277178121458
 20
145.2932971510117
 30
0.0
 10
76.13640745505748
 20
145.3401760003299
 30
0.0
 10
76.14294651980799
 20
145.3875984657312
 30
0.0
 10
76.15170515420101
 20
145.483535264318
 30
0.0
 10
76.15386543530595
 20
145.5314505523285
 30
0.0
 10
76.15386543530595
 20
145.5791637824731
 30
0.0
  0
LINE
  5
DE
330
1F
100
AcDbEntity
  8
0
  6
Continuous
 62
     7
370
    25
100
AcDbLine
 10
75.3538651963
 20
151.843297008
 30
0.0
 11
73.1338659872
 21
151.843297008
 31
0.0
  0
LINE
  5
DF
330
1F
100
AcDbEntity
  8
0
  6
Continuous
 62
     7
370
    25
100
AcDbLine
 10
75.3538651963
 20
99.0432972941
 30
0.0
 11
73.1338659872
 21
99.0432972941
 31
0.0
  0
LINE
  5
E0
330
1F
100
AcDbEntity
  8
0
  6
Continuous
 62
     7
370
    25
100
AcDbLine
 10
54.2438653403
 20
101.2228659275
 30
0.0
 11
54.2438653403
 21
149.6637283745
 31
0.0
  0
LINE
  5
E1
330
1F
100
AcDbEntity
  8
0
  6
Continuous
 62
     7
370
    25
100
AcDbLine
 10
34.4438652148
 20
102.2148511293
 30
0.0
 11
34.4438652148
 21
103.479559246
 31
0.0
  0
SPLINE
  5
E2
330
1F
100
AcDbEntity
  8
0
  6
Continuous
 62
     7
370
    25
100
AcDbSpline
210
0.0
220
0.0
230
1.0
 70
     8
 71
     3
 72
    14
 73
    10
 74
     0
 42
0.000000001
 43
0.00000001
 40
0.0
 40
0.0
 40
0.0
 40
0.0
 40
0.25
 40
0.25
 40
0.5
 40
0.5
 40
0.75
 40
0.75
 40
1.0
 40
1.0
 40
1.0
 40
1.0
 10
33.66557831739023
 20
104.6101458274518
 30
0.0
 10
33.7222049925923
 20
104.5024483736149
 30
0.0
 10
33.81672765288203
 20
104.3996587918956
 30
0.0
 10
33.99977262844427
 20
104.2013014796754
 30
0.0
 10
34.091399205399
 20
104.1052419709972
 30
0.0
 10
34.25025252309219
 20
103.9177129282879
 30
0.0
 10
34.31814313071388
 20
103.8263039555044
 30
0.0
 10
34.41506015642147
 20
103.6479277345942
 30
0.0
 10
34.44386543530653
 20
103.5607058283481
 30
0.0
 10
34.44386543530652
 20
103.4795596198138
 30
0.0
  0
SPLINE
  5
E3
330
1F
100
AcDbEntity
  8
0
  6
Continuous
 62
     7
370
    25
100
AcDbSpline
210
0.0
220
0.0
230
1.0
 70
     8
 71
     3
 72
    14
 73
    10
 74
     0
 42
0.000000001
 43
0.00000001
 40
0.0
 40
0.0
 40
0.0
 40
0.0
 40
0.1249999999999975
 40
0.1249999999999975
 40
0.249999999999995
 40
0.249999999999995
 40
0.4999999999999953
 40
0.4999999999999953
 40
1.0
 40
1.0
 40
1.0
 40
1.0
 10
33.04386543530595
 20
105.0568276897311
 30
0.0
 10
33.09240984396311
 20
105.0625760030114
 30
0.0
 10
33.14532519874802
 20
105.0594751143551
 30
0.0
 10
33.24062054373106
 20
105.0372802701928
 30
0.0
 10
33.28087154101601
 20
105.0200480430969
 30
0.0
 10
33.38514155452899
 20
104.9637201266449
 30
0.0
 10
33.43546352968231
 20
104.9195337806991
 30
0.0
 10
33.5631464772077
 20
104.7885258818485
 30
0.0
 10
33.61923192426995
 20
104.6982913616182
 30
0.0
 10
33.6655783173917
 20
104.6101458274523
 30
0.0
  0
SPLINE
  5
E4
330
1F
100
AcDbEntity
  8
0
  6
Continuous
 62
     7
370
    25
100
AcDbSpline
210
0.0
220
0.0
230
1.0
 70
     8
 71
     3
 72
     8
 73
     4
 74
     0
 42
0.000000001
 43
0.00000001
 40
0.0
 40
0.0
 40
0.0
 40
0.0
 40
1.0
 40
1.0
 40
1.0
 40
1.0
 10
30.77534034235972
 20
104.7469824031483
 30
0.0
 10
31.50991736884268
 20
104.8656074142172
 30
0.0
 10
32.27339243823835
 20
104.9655932863535
 30
0.0
 10
33.04386543530596
 20
105.0568276897311
 30
0.0
  0
SPLINE
  5
E5
330
1F
100
AcDbEntity
  8
0
  6
Continuous
 62
     7
370
    25
100
AcDbSpline
210
0.0
220
0.0
230
1.0
 70
     8
 71
     3
 72
    14
 73
    10
 74
     0
 42
0.000000001
 43
0.00000001
 40
0.0
 40
0.0
 40
0.0
 40
0.0
 40
0.500000000000001
 40
0.500000000000001
 40
0.7500000000000004
 40
0.7500000000000004
 40
0.8750000000000003
 40
0.8750000000000003
 40
1.0
 40
1.0
 40
1.0
 40
1.0
 10
25.49386543530595
 20
104.5733593856166
 30
0.0
 10
26.38601156585953
 20
104.572637159416
 30
0.0
 10
27.27598800165312
 20
104.5772233658735
 30
0.0
 10
28.60258316872874
 20
104.604948370265
 30
0.0
 10
29.04343009722746
 20
104.6175549078892
 30
0.0
 10
29.69987033464988
 20
104.6485710558966
 30
0.0
 10
29.91788399124176
 20
104.6609142285234
 30
0.0
 10
30.35059284492454
 20
104.6939382836867
 30
0.0
 10
30.56586931008934
 20
104.7131554488251
 30
0.0
 10
30.77534034235974
 20
104.7469824031483
 30
0.0
  0
SPLINE
  5
E6
330
1F
100
AcDbEntity
  8
0
  6
Continuous
 62
     7
370
    25
100
AcDbSpline
210
0.0
220
0.0
230
1.0
 70
     8
 71
     3
 72
     8
 73
     4
 74
     0
 42
0.000000001
 43
0.00000001
 40
0.0000005163856712
 40
0.0000005163856712
 40
0.0000005163856712
 40
0.0000005163856712
 40
0.000026289209185
 40
0.000026289209185
 40
0.000026289209185
 40
0.000026289209185
 10
25.48382050488726
 20
104.5833432587245
 30
0.0
 10
25.48714824309874
 20
104.5800090118517
 30
0.0
 10
25.49049669607803
 20
104.5766810545727
 30
0.0
 10
25.49386543530592
 20
104.5733593856166
 30
0.0
  0
SPLINE
  5
E7
330
1F
100
AcDbEntity
  8
0
  6
Continuous
 62
     7
370
    25
100
AcDbSpline
210
0.0
220
0.0
230
1.0
 70
     8
 71
     3
 72
     8
 73
     4
 74
     0
 42
0.000000001
 43
0.00000001
 40
0.0000005099763573
 40
0.0000005099763573
 40
0.0000005099763573
 40
0.0000005099763573
 40
0.0000262827998699
 40
0.0000262827998699
 40
0.0000262827998699
 40
0.0000262827998699
 10
25.49386543530593
 20
146.3132349164068
 30
0.0
 10
25.4904966960782
 20
146.3099132474509
 30
0.0
 10
25.48714824309906
 20
146.3065852901721
 30
0.0
 10
25.48382050488773
 20
146.3032510432994
 30
0.0
  0
SPLINE
  5
E8
330
1F
100
AcDbEntity
  8
0
  6
Continuous
 62
     7
370
    25
100
AcDbSpline
210
0.0
220
0.0
230
1.0
 70
     8
 71
     3
 72
    10
 73
     6
 74
     0
 42
0.000000001
 43
0.00000001
 40
0.0
 40
0.0
 40
0.0
 40
0.0
 40
0.5
 40
0.5
 40
1.0
 40
1.0
 40
1.0
 40
1.0
 10
29.04386543530596
 20
146.2663845428395
 30
0.0
 10
28.45627988821536
 20
146.2874500630759
 30
0.0
 10
27.86553349475497
 20
146.2982085489481
 30
0.0
 10
26.68151432945612
 20
146.3115733294837
 30
0.0
 10
26.08810034125066
 20
146.3137159721483
 30
0.0
 10
25.49386543530595
 20
146.3132349164068
 30
0.0
  0
SPLINE
  5
E9
330
1F
100
AcDbEntity
  8
0
  6
Continuous
 62
     7
370
    25
100
AcDbSpline
210
0.0
220
0.0
230
1.0
 70
     8
 71
     3
 72
    18
 73
    14
 74
     0
 42
0.000000001
 43
0.00000001
 40
0.0
 40
0.0
 40
0.0
 40
0.0
 40
0.2500000000000009
 40
0.2500000000000009
 40
0.500000000000001
 40
0.500000000000001
 40
0.7500000000000011
 40
0.7500000000000011
 40
0.875000000000001
 40
0.875000000000001
 40
0.9375000000000006
 40
0.9375000000000006
 40
1.0
 40
1.0
 40
1.0
 40
1.0
 10
30.44386543530596
 20
147.2874048233747
 30
0.0
 10
30.44386543530597
 20
147.2041979145175
 30
0.0
 10
30.40801633536769
 20
147.1154612592039
 30
0.0
 10
30.28314459933376
 20
146.9333360686437
 30
0.0
 10
30.1927441816859
 20
146.8382060200171
 30
0.0
 10
29.97050152694372
 20
146.6490245108928
 30
0.0
 10
29.84073674049795
 20
146.554079342798
 30
0.0
 10
29.60009928318644
 20
146.4158006352181
 30
0.0
 10
29.51233198504899
 20
146.3700902019157
 30
0.0
 10
29.35780789784219
 20
146.3122668966942
 30
0.0
 10
29.30119701178743
 20
146.2945521326564
 30
0.0
 10
29.17715298088083
 20
146.2700128294235
 30
0.0
 10
29.10943830586255
 20
146.2640336908852
 30
0.0
 10
29.04386543530595
 20
146.2663845428395
 30
0.0
  0
LINE
  5
EA
330
1F
100
AcDbEntity
  8
0
  6
Continuous
 62
     7
370
    25
100
AcDbLine
 10
30.4438645591
 20
147.2874048087
 30
0.0
 11
30.4438645591
 21
148.4713430437
 31
0.0
  0
SPLINE
  5
EB
330
1F
100
AcDbEntity
  8
0
  6
Continuous
 62
     7
370
    25
100
AcDbSpline
210
0.0
220
0.0
230
1.0
 70
     8
 71
     3
 72
    18
 73
    14
 74
     0
 42
0.000000001
 43
0.00000001
 40
0.0
 40
0.0
 40
0.0
 40
0.0
 40
0.001067142096085
 40
0.1270947925777493
 40
0.2524053537361832
 40
0.3766468838452861
 40
0.4391416358858051
 40
0.5008278334298175
 40
0.5624255844801763
 40
0.6253162510714301
 40
0.7499985254815132
 40
0.8752758926324193
 40
1.0
 40
1.0
 40
1.0
 40
1.0
 10
43.01416656124961
 20
101.7859584572737
 30
0.0
 10
43.01325448596688
 20
101.7858432893817
 30
0.0
 10
42.90462788478636
 20
101.7721269910519
 30
0.0
 10
43.29230935682909
 20
101.8231132524336
 30
0.0
 10
44.15825781693865
 20
101.9226702883081
 30
0.0
 10
45.35866561066146
 20
101.9918009179272
 30
0.0
 10
46.41624116051919
 20
101.9957516181939
 30
0.0
 10
47.24337552464245
 20
101.9682647502697
 30
0.0
 10
48.06864716069029
 20
101.9097222614573
 30
0.0
 10
49.12301236779908
 20
101.7962036594976
 30
0.0
 10
50.2848485740525
 20
101.6130495036641
 30
0.0
 10
51.23708329472564
 20
101.408449354998
 30
0.0
 10
51.36278839743427
 20
101.3791626849889
 30
0.0
 10
51.4255018544532
 20
101.3645517560666
 30
0.0
  0
SPLINE
  5
EC
330
1F
100
AcDbEntity
  8
0
  6
Continuous
 62
     7
370
    25
100
AcDbSpline
210
0.0
220
0.0
230
1.0
 70
     8
 71
     3
 72
    18
 73
    14
 74
     0
 42
0.000000001
 43
0.00000001
 40
0.0
 40
0.0
 40
0.0
 40
0.0
 40
0.1248907819469273
 40
0.2505384063477967
 40
0.3748721756041158
 40
0.4374907331267689
 40
0.4990776026247599
 40
0.5607931145009658
 40
0.6233901196104445
 40
0.7478191009174896
 40
0.8731941046696081
 40
0.9991614615322162
 40
0.9999999999999999
 40
0.9999999999999999
 40
0.9999999999999999
 40
0.9999999999999999
 10
51.42528299364817
 20
149.5219773533766
 30
0.0
 10
51.36154216168045
 20
149.5073158871496
 30
0.0
 10
51.2336742261009
 20
149.4779041057036
 30
0.0
 10
50.28167538951237
 20
149.272950146346
 30
0.0
 10
49.12113131865974
 20
149.0896888844824
 30
0.0
 10
48.06886754699637
 20
148.9766583301073
 30
0.0
 10
47.24464024797809
 20
148.9183975226346
 30
0.0
 10
46.41703650265342
 20
148.8909503865125
 30
0.0
 10
45.35821917295918
 20
148.8949351803872
 30
0.0
 10
44.15599943333334
 20
148.9640279648831
 30
0.0
 10
43.29081866233444
 20
149.0636367020702
 30
0.0
 10
42.90466991469677
 20
149.1144943077135
 30
0.0
 10
43.01274778706038
 20
149.1007935002901
 30
0.0
 10
43.0134624813832
 20
149.1007028999751
 30
0.0
  0
SPLINE
  5
ED
330
1F
100
AcDbEntity
  8
0
  6
Continuous
 62
     7
370
    25
100
AcDbSpline
210
0.0
220
0.0
230
1.0
 70
     8
 71
     3
 72
     9
 73
     5
 74
     0
 42
0.000000001
 43
0.00000001
 40
0.0
 40
0.0
 40
0.0
 40
0.0
 40
0.7009339503679092
 40
0.9999999999999999
 40
0.9999999999999999
 40
0.9999999999999999
 40
0.9999999999999999
 10
24.36464900273454
 20
105.7420174512093
 30
0.0
 10
24.37378967368436
 20
105.7241881674484
 30
0.0
 10
24.38683037594318
 20
105.6987516997876
 30
0.0
 10
24.40199383921146
 20
105.7526310592612
 30
0.0
 10
24.40652871626985
 20
105.7687445464556
 30
0.0
  0
LINE
  5
EE
330
1F
100
AcDbEntity
  8
0
  6
Continuous
 62
     7
370
    25
100
AcDbLine
 10
24.3438656082
 20
105.7526196274
 30
0.0
 11
24.3438656082
 21
145.1339746746
 31
0.0
  0
SPLINE
  5
EF
330
1F
100
AcDbEntity
  8
0
  6
Continuous
 62
     7
370
    25
100
AcDbSpline
210
0.0
220
0.0
230
1.0
 70
     8
 71
     3
 72
    10
 73
     6
 74
     0
 42
0.000000001
 43
0.00000001
 40
0.0
 40
0.0
 40
0.0
 40
0.0
 40
0.5
 40
0.5
 40
1.0
 40
1.0
 40
1.0
 40
1.0
 10
24.40652881002936
 20
145.1178496957924
 30
0.0
 10
24.39762452092059
 20
145.1635912150056
 30
0.0
 10
24.38110914072761
 20
145.1807820544746
 30
0.0
 10
24.35400119466599
 20
145.1804587775389
 30
0.0
 10
24.34386543530595
 20
145.1625812352424
 30
0.0
 10
24.34386543530595
 20
145.1339748974898
 30
0.0
  0
SPLINE
  5
F0
330
1F
100
AcDbEntity
  8
0
  6
Continuous
 62
     7
370
    25
100
AcDbSpline
210
0.0
220
0.0
230
1.0
 70
     8
 71
     3
 72
    26
 73
    22
 74
     0
 42
0.000000001
 43
0.00000001
 40
0.0
 40
0.0
 40
0.0
 40
0.0
 40
0.2500000000000165
 40
0.2500000000000165
 40
0.3750000000000256
 40
0.3750000000000256
 40
0.4375000000000291
 40
0.4375000000000291
 40
0.4687500000000291
 40
0.4687500000000291
 40
0.5000000000000292
 40
0.5000000000000292
 40
0.5312500000000293
 40
0.5312500000000293
 40
0.5625000000000293
 40
0.5625000000000293
 40
0.625000000000026
 40
0.625000000000026
 40
0.7500000000000173
 40
0.7500000000000173
 40
1.0
 40
1.0
 40
1.0
 40
1.0
 10
25.16801908141046
 20
145.8334164846095
 30
0.0
 10
25.12941855854199
 20
145.7156417882541
 30
0.0
 10
25.08312155598773
 20
145.5912521020922
 30
0.0
 10
24.98918220755381
 20
145.3860327697387
 30
0.0
 10
24.95387074064034
 20
145.3144599032923
 30
0.0
 10
24.88769076489466
 20
145.1985066706918
 30
0.0
 10
24.86315239822645
 20
145.1579221358816
 30
0.0
 10
24.81977965267265
 20
145.0937804540098
 30
0.0
 10
24.80427125124746
 20
145.0719140287248
 30
0.0
 10
24.76922860666042
 20
145.0263197603816
 30
0.0
 10
24.74967831594066
 20
145.0026494694142
 30
0.0
 10
24.70775103557005
 20
144.9580329100742
 30
0.0
 10
24.6850989253384
 20
144.9371528975563
 30
0.0
 10
24.64412521125178
 20
144.9062794838055
 30
0.0
 10
24.62652591135636
 20
144.8964406139731
 30
0.0
 10
24.58189892550021
 20
144.8774509982769
 30
0.0
 10
24.56133970284688
 20
144.8771266736235
 30
0.0
 10
24.51021426335021
 20
144.8863501144997
 30
0.0
 10
24.48930285036166
 20
144.9075970107166
 30
0.0
 10
24.43785294280073
 20
144.9815658895474
 30
0.0
 10
24.42018764349618
 20
145.0476839828622
 30
0.0
 10
24.40652881002936
 20
145.1178496957924
 30
0.0
  0
SPLINE
  5
F1
330
1F
100
AcDbEntity
  8
0
  6
Continuous
 62
     7
370
    25
100
AcDbSpline
210
0.0
220
0.0
230
1.0
 70
     8
 71
     3
 72
    10
 73
     6
 74
     0
 42
0.000000001
 43
0.00000001
 40
0.0
 40
0.0
 40
0.0
 40
0.0
 40
0.5
 40
0.5
 40
1.0
 40
1.0
 40
1.0
 40
1.0
 10
25.48382050488776
 20
146.3032510432994
 30
0.0
 10
25.41626124996951
 20
146.2355596504896
 30
0.0
 10
25.35262459463301
 20
146.160852485736
 30
0.0
 10
25.24240384006114
 20
146.0018863533093
 30
0.0
 10
25.19558754683852
 20
145.9175310873013
 30
0.0
 10
25.16801908141045
 20
145.8334164846095
 30
0.0
  0
SPLINE
  5
F2
330
1F
100
AcDbEntity
  8
0
  6
Continuous
 62
     7
370
    25
100
AcDbSpline
210
0.0
220
0.0
230
1.0
 70
     8
 71
     3
 72
    10
 73
     6
 74
     0
 42
0.000000001
 43
0.00000001
 40
0.0
 40
0.0
 40
0.0
 40
0.0
 40
0.5
 40
0.5
 40
1.0
 40
1.0
 40
1.0
 40
1.0
 10
25.1680190814105
 20
105.0531778174137
 30
0.0
 10
25.19549649616371
 20
104.9693410209481
 30
0.0
 10
25.24220512645137
 20
104.8850305333613
 30
0.0
 10
25.35248358919332
 20
104.7259093028784
 30
0.0
 10
25.41637112780495
 20
104.6509245587904
 30
0.0
 10
25.48382050488729
 20
104.5833432587245
 30
0.0
  0
SPLINE
  5
F3
330
1F
100
AcDbEntity
  8
0
  6
Continuous
 62
     7
370
    25
100
AcDbSpline
210
0.0
220
0.0
230
1.0
 70
     8
 71
     3
 72
    24
 73
    20
 74
     0
 42
0.000000001
 43
0.00000001
 40
0.0
 40
0.0
 40
0.0
 40
0.0
 40
0.25
 40
0.25
 40
0.374999999999999
 40
0.374999999999999
 40
0.4374999999999993
 40
0.4374999999999993
 40
0.4687499999999994
 40
0.4687499999999994
 40
0.4999999999999995
 40
0.4999999999999995
 40
0.5624999999999971
 40
0.5624999999999971
 40
0.6249999999999947
 40
0.6249999999999947
 40
0.7499999999999947
 40
0.7499999999999947
 40
1.0
 40
1.0
 40
1.0
 40
1.0
 10
24.40652881002936
 20
105.768744606231
 30
0.0
 10
24.42028192869958
 20
105.8393946642213
 30
0.0
 10
24.43805449610545
 20
105.9059927769862
 30
0.0
 10
24.4903055876608
 20
105.9800907972194
 30
0.0
 10
24.51134066324237
 20
106.0013486043809
 30
0.0
 10
24.5642410708708
 20
106.0094945305272
 30
0.0
 10
24.58534674374871
 20
106.0085547271314
 30
0.0
 10
24.63139891242669
 20
105.9875387355541
 30
0.0
 10
24.64976938441007
 20
105.9766299294465
 30
0.0
 10
24.69132101947577
 20
105.9439950184991
 30
0.0
 10
24.71388769223269
 20
105.9225030381277
 30
0.0
 10
24.7766687086927
 20
105.8540370945414
 30
0.0
 10
24.80979846966061
 20
105.8079626363363
 30
0.0
 10
24.86671615614561
 20
105.7229547480016
 30
0.0
 10
24.89090218164938
 20
105.6826744468203
 30
0.0
 10
24.95611013202914
 20
105.5677382203543
 30
0.0
 10
24.99082619222039
 20
105.4971552352073
 30
0.0
 10
25.08404146255128
 20
105.2929494761287
 30
0.0
 10
25.12971399791195
 20
105.1700510938013
 30
0.0
 10
25.16801908141049
 20
105.0531778174138
 30
0.0
  0
SPLINE
  5
F4
330
1F
100
AcDbEntity
  8
0
  6
Continuous
 62
     7
370
    25
100
AcDbSpline
210
0.0
220
0.0
230
1.0
 70
     8
 71
     3
 72
     8
 73
     4
 74
     0
 42
0.000000001
 43
0.00000001
 40
0.0
 40
0.0
 40
0.0
 40
0.0
 40
1.0
 40
1.0
 40
1.0
 40
1.0
 10
77.635798266795
 20
155.910492624176
 30
0.0
 10
77.14065823743069
 20
155.0238129759957
 30
0.0
 10
76.6465755321517
 20
154.1365503403097
 30
0.0
 10
76.15386543530595
 20
153.2485313421833
 30
0.0
  0
LINE
  5
F5
330
1F
100
AcDbEntity
  8
0
  6
Continuous
 62
     7
370
    25
100
AcDbLine
 10
77.6357973565
 20
149.9019867661
 30
0.0
 11
77.6357973565
 21
155.9104925874
 31
0.0
  0
SPLINE
  5
F6
330
1F
100
AcDbEntity
  8
0
  6
Continuous
 62
     7
370
    25
100
AcDbSpline
210
0.0
220
0.0
230
1.0
 70
     8
 71
     3
 72
     8
 73
     4
 74
     0
 42
0.000000001
 43
0.00000001
 40
0.0
 40
0.0
 40
0.0
 40
0.0
 40
1.0
 40
1.0
 40
1.0
 40
1.0
 10
76.15386543530595
 20
146.493440818595
 30
0.0
 10
76.6331435858958
 20
147.6344520484476
 30
0.0
 10
77.12871142503572
 20
148.7708364592155
 30
0.0
 10
77.635798266795
 20
149.9019868133792
 30
0.0
  0
LINE
  5
F7
330
1F
100
AcDbEntity
  8
0
  6
Continuous
 62
     7
370
    25
100
AcDbLine
 10
76.1538657
 20
146.493441138
 30
0.0
 11
76.1538657
 21
153.2485305252
 31
0.0
  0
LINE
  5
F8
330
1F
100
AcDbEntity
  8
0
  6
Continuous
 62
     7
370
    25
100
AcDbLine
 10
76.1538657
 20
145.5791636291
 30
0.0
 11
76.1538657
 21
146.493441138
 31
0.0
  0
LINE
  5
F9
330
1F
100
AcDbEntity
  8
0
  6
Continuous
 62
     7
370
    25
100
AcDbLine
 10
77.6357973565
 20
149.9019867661
 30
0.0
 11
81.5938661446
 21
149.9019867661
 31
0.0
  0
SPLINE
  5
FA
330
1F
100
AcDbEntity
  8
0
  6
Continuous
 62
     7
370
    25
100
AcDbSpline
210
0.0
220
0.0
230
1.0
 70
     8
 71
     3
 72
    12
 73
     8
 74
     0
 42
0.000000001
 43
0.00000001
 40
0.0
 40
0.0
 40
0.0
 40
0.0
 40
0.25
 40
0.25
 40
0.5
 40
0.5
 40
1.0
 40
1.0
 40
1.0
 40
1.0
 10
81.59386543530594
 20
149.9019868133792
 30
0.0
 10
81.6850651571316
 20
149.9019868133792
 30
0.0
 10
81.77566016626763
 20
149.8737671147913
 30
0.0
 10
81.92907289271427
 20
149.7793241075431
 30
0.0
 10
81.99428176003795
 20
149.7130371308378
 30
0.0
 10
82.14706628937789
 20
149.4874123075496
 30
0.0
 10
82.19386543530595
 20
149.304986044517
 30
0.0
 10
82.19386543530595
 20
149.1242494122701
 30
0.0
  0
LINE
  5
FB
330
1F
100
AcDbEntity
  8
0
  6
Continuous
 62
     7
370
    25
100
AcDbLine
 10
82.1938651254
 20
149.1242485973
 30
0.0
 11
82.1938651254
 21
145.2932978901
 31
0.0
  0
SPLINE
  5
FC
330
1F
100
AcDbEntity
  8
0
  6
Continuous
 62
     7
370
    25
100
AcDbSpline
210
0.0
220
0.0
230
1.0
 70
     8
 71
     3
 72
    10
 73
     6
 74
     0
 42
0.000000001
 43
0.00000001
 40
0.0
 40
0.0
 40
0.0
 40
0.0
 40
0.5
 40
0.5
 40
1.0
 40
1.0
 40
1.0
 40
1.0
 10
82.19386543530594
 20
155.2897374747756
 30
0.0
 10
82.19386543530594
 20
155.4501427411264
 30
0.0
 10
82.1316276041991
 20
155.609204554115
 30
0.0
 10
81.91249268045651
 20
155.8401170197453
 30
0.0
 10
81.75490398546467
 20
155.910492624176
 30
0.0
 10
81.59386543530594
 20
155.910492624176
 30
0.0
  0
LINE
  5
FD
330
1F
100
AcDbEntity
  8
0
  6
Continuous
 62
     7
370
    25
100
AcDbLine
 10
82.1938651254
 20
149.1242485973
 30
0.0
 11
82.1938651254
 21
155.2897381517
 31
0.0
  0
SPLINE
  5
FE
330
1F
100
AcDbEntity
  8
0
  6
Continuous
 62
     7
370
    25
100
AcDbSpline
210
0.0
220
0.0
230
1.0
 70
     8
 71
     3
 72
     8
 73
     4
 74
     0
 42
0.000000001
 43
0.00000001
 40
0.0
 40
0.0
 40
0.0
 40
0.0
 40
1.0
 40
1.0
 40
1.0
 40
1.0
 10
70.85193260381689
 20
149.9019868133792
 30
0.0
 10
71.35901944557617
 20
148.7708364592155
 30
0.0
 10
71.8545872847161
 20
147.6344520484476
 30
0.0
 10
72.33386543530595
 20
146.493440818595
 30
0.0
  0
LINE
  5
FF
330
1F
100
AcDbEntity
  8
0
  6
Continuous
 62
     7
370
    25
100
AcDbLine
 10
72.3338654836
 20
146.493441138
 30
0.0
 11
72.3338654836
 21
145.5791636291
 31
0.0
  0
LINE
  5
100
330
1F
100
AcDbEntity
  8
0
  6
Continuous
 62
     7
370
    25
100
AcDbLine
 10
81.5938661446
 20
155.9104925874
 30
0.0
 11
77.6357973565
 21
155.9104925874
 31
0.0
  0
SPLINE
  5
101
330
1F
100
AcDbEntity
  8
0
  6
Continuous
 62
     7
370
    25
100
AcDbSpline
210
0.0
220
0.0
230
1.0
 70
     8
 71
     3
 72
     8
 73
     4
 74
     0
 42
0.000000001
 43
0.00000001
 40
0.0
 40
0.0
 40
0.0
 40
0.0
 40
1.0
 40
1.0
 40
1.0
 40
1.0
 10
72.33386543530595
 20
153.2485313421833
 30
0.0
 10
71.8411553384602
 20
154.1365503403097
 30
0.0
 10
71.34707263318121
 20
155.0238129759957
 30
0.0
 10
70.85193260381689
 20
155.910492624176
 30
0.0
  0
LINE
  5
102
330
1F
100
AcDbEntity
  8
0
  6
Continuous
 62
     7
370
    25
100
AcDbLine
 10
72.3338654836
 20
146.493441138
 30
0.0
 11
72.3338654836
 21
153.2485305252
 31
0.0
  0
ARC
  5
103
330
1F
100
AcDbEntity
  8
0
  6
Continuous
 62
     7
370
    25
100
AcDbCircle
 10
64.2440379361
 20
144.2412407445
 30
0.0
 40
7.162301240319883
100
AcDbArc
 50
70.7192150876
 51
109.3439968914
  0
SPLINE
  5
104
330
1F
100
AcDbEntity
  8
0
  6
Continuous
 62
     7
370
    25
100
AcDbSpline
210
0.0
220
0.0
230
1.0
 70
    11
 71
     3
 72
    62
 73
    58
 74
     0
 42
0.000000001
 43
0.00000001
 40
0.0
 40
0.0
 40
0.0
 40
0.0
 40
0.0312499999999996
 40
0.0312499999999996
 40
0.0624999999999992
 40
0.0624999999999992
 40
0.0937499999999988
 40
0.0937499999999988
 40
0.1249999999999984
 40
0.1249999999999984
 40
0.1562499999999981
 40
0.1562499999999981
 40
0.1874999999999977
 40
0.1874999999999977
 40
0.2187499999999973
 40
0.2187499999999973
 40
0.2499999999999969
 40
0.2499999999999969
 40
0.2812499999999965
 40
0.2812499999999965
 40
0.3124999999999961
 40
0.3124999999999961
 40
0.3437499999999957
 40
0.3437499999999957
 40
0.3749999999999953
 40
0.3749999999999953
 40
0.4062499999999949
 40
0.4062499999999949
 40
0.4374999999999946
 40
0.4374999999999946
 40
0.4687499999999942
 40
0.4687499999999942
 40
0.4999999999999938
 40
0.4999999999999938
 40
0.5312499999999933
 40
0.5312499999999933
 40
0.562499999999993
 40
0.562499999999993
 40
0.624999999999994
 40
0.624999999999994
 40
0.687499999999995
 40
0.687499999999995
 40
0.749999999999996
 40
0.749999999999996
 40
0.812499999999997
 40
0.812499999999997
 40
0.8437499999999974
 40
0.8437499999999974
 40
0.874999999999998
 40
0.874999999999998
 40
0.9062499999999984
 40
0.9062499999999984
 40
0.937499999999999
 40
0.937499999999999
 40
0.9687499999999994
 40
0.9687499999999994
 40
1.0
 40
1.0
 40
1.0
 40
1.0
 10
125.4873625204839
 20
140.1782479761133
 30
0.0
 10
125.6352036769505
 20
140.278683346008
 30
0.0
 10
125.796245892064
 20
140.3666669698329
 30
0.0
 10
126.1418767578811
 20
140.5217935775726
 30
0.0
 10
126.328125261728
 20
140.5893416510194
 30
0.0
 10
126.7163826647113
 20
140.7024598590398
 30
0.0
 10
126.9166965774539
 20
140.7477884087097
 30
0.0
 10
127.32911004836
 20
140.8180040499016
 30
0.0
 10
127.5430796063139
 20
140.842910215703
 30
0.0
 10
127.9701666314571
 20
140.8712142623162
 30
0.0
 10
128.1840176828822
 20
140.8749315159883
 30
0.0
 10
128.6123295969063
 20
140.8617624420346
 30
0.0
 10
128.828600788585
 20
140.8445334365694
 30
0.0
 10
129.247657794612
 20
140.7895198306519
 30
0.0
 10
129.4515807716264
 20
140.7518893121463
 30
0.0
 10
129.8480099485674
 20
140.6551740505452
 30
0.0
 10
130.0423534023884
 20
140.5952728049287
 30
0.0
 10
130.4049941591195
 20
140.455503426551
 30
0.0
 10
130.574305876405
 20
140.3756877306821
 30
0.0
 10
130.8875565815054
 20
140.193655388614
 30
0.0
 10
131.0329624752261
 20
140.0898766914308
 30
0.0
 10
131.2824327749576
 20
139.8650637399578
 30
0.0
 10
131.3878122240321
 20
139.743815751478
 30
0.0
 10
131.5565901254041
 20
139.4809138273825
 30
0.0
 10
131.6194664723954
 20
139.3381078356228
 30
0.0
 10
131.6917181312096
 20
139.0467196849368
 30
0.0
 10
131.7026433585291
 20
138.8955515871626
 30
0.0
 10
131.6709424343244
 20
138.5858559597572
 30
0.0
 10
131.6291165222771
 20
138.4327361877745
 30
0.0
 10
131.4967607252766
 20
138.130204401414
 30
0.0
 10
131.405510681227
 20
137.9809939548732
 30
0.0
 10
131.185142698179
 20
137.7010153710489
 30
0.0
 10
131.0537608030203
 20
137.567091513474
 30
0.0
 10
130.7605878268129
 20
137.3209955115391
 30
0.0
 10
130.599781749609
 20
137.2090913791145
 30
0.0
 10
130.2517321782796
 20
137.0071149268968
 30
0.0
 10
130.0648361851924
 20
136.917665674228
 30
0.0
 10
129.4857021515839
 20
136.6915230771902
 30
0.0
 10
129.0627770583021
 20
136.5927803148288
 30
0.0
 10
128.2108736381822
 20
136.5134093552313
 30
0.0
 10
127.7713304864163
 20
136.5320224150907
 30
0.0
 10
126.9354079511533
 20
136.6824262194846
 30
0.0
 10
126.5269569776648
 20
136.8164882338793
 30
0.0
 10
125.8043467597942
 20
137.1795848544207
 30
0.0
 10
125.4784865281146
 20
137.4149517628615
 30
0.0
 10
125.1058678511674
 20
137.8137405303941
 30
0.0
 10
124.9984814770349
 20
137.9564785485534
 30
0.0
 10
124.8286467322429
 20
138.2539780760799
 30
0.0
 10
124.7678472658366
 20
138.4050505852614
 30
0.0
 10
124.6957494679257
 20
138.7112677950095
 30
0.0
 10
124.6852108076242
 20
138.8681404322308
 30
0.0
 10
124.7174534054198
 20
139.1684067215193
 30
0.0
 10
124.7596864999755
 20
139.3146049331722
 30
0.0
 10
124.8941922970712
 20
139.593893788571
 30
0.0
 10
124.9843960428769
 20
139.7235423081433
 30
0.0
 10
125.2067558480255
 20
139.9655886202734
 30
0.0
 10
125.3395213640174
 20
140.0778126062186
 30
0.0
 10
125.4873625204839
 20
140.1782479761133
 30
0.0
  0
SPLINE
  5
105
330
1F
100
AcDbEntity
  8
0
  6
Continuous
 62
     7
370
    25
100
AcDbSpline
210
0.0
220
0.0
230
1.0
 70
    11
 71
     3
 72
    70
 73
    66
 74
     0
 42
0.000000001
 43
0.00000001
 40
0.0
 40
0.0
 40
0.0
 40
0.0
 40
0.03125
 40
0.03125
 40
0.0625
 40
0.0625
 40
0.09375
 40
0.09375
 40
0.125
 40
0.125
 40
0.15625
 40
0.15625
 40
0.1875
 40
0.1875
 40
0.21875
 40
0.21875
 40
0.25
 40
0.25
 40
0.28125
 40
0.28125
 40
0.3125
 40
0.3125
 40
0.34375
 40
0.34375
 40
0.375
 40
0.375
 40
0.40625
 40
0.40625
 40
0.4375
 40
0.4375
 40
0.46875
 40
0.46875
 40
0.5
 40
0.5
 40
0.53125
 40
0.53125
 40
0.5625
 40
0.5625
 40
0.59375
 40
0.59375
 40
0.625
 40
0.625
 40
0.65625
 40
0.65625
 40
0.6875
 40
0.6875
 40
0.71875
 40
0.71875
 40
0.75
 40
0.75
 40
0.78125
 40
0.78125
 40
0.8125
 40
0.8125
 40
0.84375
 40
0.84375
 40
0.875
 40
0.875
 40
0.90625
 40
0.90625
 40
0.9375
 40
0.9375
 40
0.96875
 40
0.96875
 40
1.0
 40
1.0
 40
1.0
 40
1.0
 10
124.7062110043302
 20
112.1903250925109
 30
0.0
 10
124.727151870605
 20
112.3455017807341
 30
0.0
 10
124.773847636492
 20
112.498029087209
 30
0.0
 10
124.914499700248
 20
112.7977143520861
 30
0.0
 10
125.0098898660383
 20
112.9459536412728
 30
0.0
 10
125.2374795527862
 20
113.2230193988424
 30
0.0
 10
125.3708922338455
 20
113.3541392205238
 30
0.0
 10
125.6704058129653
 20
113.5971318724963
 30
0.0
 10
125.833541204592
 20
113.7068474886652
 30
0.0
 10
126.1842351233137
 20
113.9036860177787
 30
0.0
 10
126.3731745740189
 20
113.9910679111942
 30
0.0
 10
126.7621370425465
 20
114.1371679694482
 30
0.0
 10
126.9634046465
 20
114.1967754622426
 30
0.0
 10
127.3792530606757
 20
114.2889206382755
 30
0.0
 10
127.5931415963762
 20
114.3209831263723
 30
0.0
 10
128.0193874579286
 20
114.3556792260106
 30
0.0
 10
128.2335512303193
 20
114.358759482618
 30
0.0
 10
128.6640017665856
 20
114.3357815537115
 30
0.0
 10
128.8787758744065
 20
114.3095232284824
 30
0.0
 10
129.2950590378933
 20
114.2296816203183
 30
0.0
 10
129.4984021098415
 20
114.1760448710618
 30
0.0
 10
129.8950115745265
 20
114.0406190923448
 30
0.0
 10
130.0870799044881
 20
113.9588717091077
 30
0.0
 10
130.4448325479475
 20
113.7734597239913
 30
0.0
 10
130.6125432662307
 20
113.6691869635162
 30
0.0
 10
130.9235036313954
 20
113.4364466738343
 30
0.0
 10
131.0653906324307
 20
113.3083699652756
 30
0.0
 10
131.3079288101742
 20
113.040088556963
 30
0.0
 10
131.4106001793351
 20
112.8985275973246
 30
0.0
 10
131.5737793290434
 20
112.5996527514758
 30
0.0
 10
131.6315149840819
 20
112.4465688774603
 30
0.0
 10
131.695759749728
 20
112.1411706612781
 30
0.0
 10
131.7024125809197
 20
111.9854022789631
 30
0.0
 10
131.6625045494615
 20
111.6857043645539
 30
0.0
 10
131.6169776014416
 20
111.5417866999465
 30
0.0
 10
131.4759088342499
 20
111.2649993139853
 30
0.0
 10
131.382084816487
 20
111.1359759274603
 30
0.0
 10
131.1550812434643
 20
110.8976921428952
 30
0.0
 10
131.0202023095313
 20
110.7872669653334
 30
0.0
 10
130.7230601350555
 20
110.5909182941132
 30
0.0
 10
130.5597880457277
 20
110.5037089565827
 30
0.0
 10
130.2057531759829
 20
110.3492471281493
 30
0.0
 10
130.0196649163638
 20
110.2840014001393
 30
0.0
 10
129.6308068130133
 20
110.1743117117001
 30
0.0
 10
129.4261563129054
 20
110.1296409437001
 30
0.0
 10
129.0099886956362
 20
110.0622215130926
 30
0.0
 10
128.7990552406638
 20
110.0393184686137
 30
0.0
 10
128.3716471663601
 20
110.0140034341492
 30
0.0
 10
128.1531984550429
 20
110.0117484312147
 30
0.0
 10
127.7234474033997
 20
110.0282937781573
 30
0.0
 10
127.5116082342346
 20
110.0468450850122
 30
0.0
 10
127.0940052798882
 20
110.1049429090862
 30
0.0
 10
126.8862659120036
 20
110.1450642225018
 30
0.0
 10
126.4901983839574
 20
110.2458301648956
 30
0.0
 10
126.3013415744925
 20
110.3062678316433
 30
0.0
 10
125.9425790795545
 20
110.4491296266047
 30
0.0
 10
125.7708272929893
 20
110.5327566836115
 30
0.0
 10
125.46068830689
 20
110.7196641522882
 30
0.0
 10
125.3217687425178
 20
110.8226644925981
 30
0.0
 10
125.0784849523778
 20
111.0505310356121
 30
0.0
 10
124.9732743515917
 20
111.1773874438262
 30
0.0
 10
124.8125220075176
 20
111.4437674552753
 30
0.0
 10
124.7554261359207
 20
111.5839478280847
 30
0.0
 10
124.6912836178606
 20
111.8800542937428
 30
0.0
 10
124.6852701380554
 20
112.0351484042877
 30
0.0
 10
124.7062110043302
 20
112.1903250925109
 30
0.0
  0
SPLINE
  5
106
330
1F
100
AcDbEntity
  8
0
  6
Continuous
 62
     7
370
    25
100
AcDbSpline
210
0.0
220
0.0
230
1.0
 70
    11
 71
     3
 72
    77
 73
    73
 74
     0
 42
0.000000001
 43
0.00000001
 40
0.0
 40
0.0
 40
0.0
 40
0.0
 40
0.0312499999999988
 40
0.0312499999999988
 40
0.0624999999999976
 40
0.0624999999999976
 40
0.0937499999999964
 40
0.0937499999999964
 40
0.1249999999999952
 40
0.1249999999999952
 40
0.156249999999994
 40
0.156249999999994
 40
0.1874999999999928
 40
0.1874999999999928
 40
0.2187499999999916
 40
0.2187499999999916
 40
0.2343749999999914
 40
0.2343749999999914
 40
0.2499999999999911
 40
0.2656249999999908
 40
0.2656249999999908
 40
0.2812499999999906
 40
0.2812499999999906
 40
0.3124999999999901
 40
0.3124999999999901
 40
0.3437499999999896
 40
0.3437499999999896
 40
0.3749999999999892
 40
0.3749999999999892
 40
0.4062499999999888
 40
0.4062499999999888
 40
0.4374999999999884
 40
0.4374999999999884
 40
0.468749999999988
 40
0.468749999999988
 40
0.4999999999999876
 40
0.4999999999999876
 40
0.5312499999999871
 40
0.5312499999999871
 40
0.5624999999999867
 40
0.5624999999999867
 40
0.5937499999999863
 40
0.5937499999999863
 40
0.6249999999999859
 40
0.6249999999999859
 40
0.6562499999999855
 40
0.6562499999999855
 40
0.687499999999985
 40
0.687499999999985
 40
0.7031249999999855
 40
0.7031249999999855
 40
0.7187499999999859
 40
0.7187499999999859
 40
0.7499999999999873
 40
0.7499999999999873
 40
0.7656249999999881
 40
0.7656249999999881
 40
0.7812499999999888
 40
0.7812499999999888
 40
0.8124999999999903
 40
0.8124999999999903
 40
0.843749999999992
 40
0.843749999999992
 40
0.8749999999999936
 40
0.8749999999999936
 40
0.9062499999999951
 40
0.9062499999999951
 40
0.9374999999999967
 40
0.9374999999999967
 40
0.9687499999999983
 40
0.9687499999999983
 40
1.0
 40
1.0
 40
1.0
 40
1.0
 10
207.943865435306
 20
117.1561223826951
 30
0.0
 10
207.6495791847465
 20
117.1561223826951
 30
0.0
 10
207.3594943150059
 20
117.1789544437663
 30
0.0
 10
206.7874560699377
 20
117.2690613400043
 30
0.0
 10
206.5039727971493
 20
117.3368376343015
 30
0.0
 10
205.9524546606811
 20
117.5186769139743
 30
0.0
 10
205.6893398507091
 20
117.6308388643373
 30
0.0
 10
205.1884445312321
 20
117.8988154884848
 30
0.0
 10
204.948411505297
 20
118.0564825330769
 30
0.0
 10
204.5077299858779
 20
118.4127768952478
 30
0.0
 10
204.3089079504244
 20
118.609136538148
 30
0.0
 10
203.955378671723
 20
119.0404820236963
 30
0.0
 10
203.7991443110616
 20
119.2790492435375
 30
0.0
 10
203.5478357143789
 20
119.7791661498949
 30
0.0
 10
203.4514498841777
 20
120.0407595541235
 30
0.0
 10
203.3524854404242
 20
120.451642149402
 30
0.0
 10
203.3270912384519
 20
120.5926991753456
 30
0.0
 10
203.2933217044506
 20
120.8748478736522
 30
0.0
 10
203.2761783775308
 20
121.1575443272757
 30
0.0
 10
203.2915701944814
 20
121.4413371856858
 30
0.0
 10
203.3234162717904
 20
121.7256733713929
 30
0.0
 10
203.3478148947692
 20
121.8690381595614
 30
0.0
 10
203.4446516256956
 20
122.2914541906254
 30
0.0
 10
203.5399529474509
 20
122.5632019482464
 30
0.0
 10
203.789454887174
 20
123.0874461638241
 30
0.0
 10
203.9440898113408
 20
123.3388054490178
 30
0.0
 10
204.2970554487285
 20
123.8002214549949
 30
0.0
 10
204.4986477411159
 20
124.0149907712153
 30
0.0
 10
204.9393253831161
 20
124.4013339025038
 30
0.0
 10
205.1757558907682
 20
124.5712962345123
 30
0.0
 10
205.6789539971671
 20
124.867301065534
 30
0.0
 10
205.9473871271839
 20
124.9934425559472
 30
0.0
 10
206.4948250571057
 20
125.1934388275671
 30
0.0
 10
206.7759365787444
 20
125.2688295344235
 30
0.0
 10
207.3528416001323
 20
125.3707103889774
 30
0.0
 10
207.6467139456806
 20
125.3963565707584
 30
0.0
 10
208.2280463144706
 20
125.3971001863347
 30
0.0
 10
208.517972771243
 20
125.3726960079594
 30
0.0
 10
209.0962917431754
 20
125.2725144413428
 30
0.0
 10
209.3801856220037
 20
125.1971577070841
 30
0.0
 10
209.9259357887252
 20
124.9995893931981
 30
0.0
 10
210.1896691272855
 20
124.8770988723221
 30
0.0
 10
210.6974674894547
 20
124.5811799564071
 30
0.0
 10
210.9356500080521
 20
124.4108337262303
 30
0.0
 10
211.3728671514644
 20
124.0307821404292
 30
0.0
 10
211.5735151515277
 20
123.8200138895341
 30
0.0
 10
211.9331690897041
 20
123.3549393450177
 30
0.0
 10
212.0858208246705
 20
123.1089505588984
 30
0.0
 10
212.274054569386
 20
122.7201253590377
 30
0.0
 10
212.3299587164426
 20
122.5871846473247
 30
0.0
 10
212.427421577451
 20
122.314359470728
 30
0.0
 10
212.4690069434371
 20
122.1739053794591
 30
0.0
 10
212.5682499861371
 20
121.7532919104676
 30
0.0
 10
212.6021539754645
 20
121.4704947868644
 30
0.0
 10
212.6040244104437
 20
121.0428050437343
 30
0.0
 10
212.5962557998583
 20
120.8987603947643
 30
0.0
 10
212.5643043884182
 20
120.616147354932
 30
0.0
 10
212.5402334524092
 20
120.4770947232563
 30
0.0
 10
212.4444577485954
 20
120.0664361855468
 30
0.0
 10
212.3479094672954
 20
119.7984818691724
 30
0.0
 10
212.0977744101143
 20
119.294189386929
 30
0.0
 10
211.9458844155992
 20
119.0593653341304
 30
0.0
 10
211.5909338391623
 20
118.6217056065199
 30
0.0
 10
211.3884956120616
 20
118.4207395229298
 30
0.0
 10
210.9505389205074
 20
118.0645071720168
 30
0.0
 10
210.7113282264297
 20
117.9060040715412
 30
0.0
 10
210.2051696547755
 20
117.6337463905801
 30
0.0
 10
209.9413433971355
 20
117.5211667039807
 30
0.0
 10
209.3933313282612
 20
117.3395183701906
 30
0.0
 10
209.1069112154627
 20
117.2703411601968
 30
0.0
 10
208.5301772713105
 20
117.1790291454266
 30
0.0
 10
208.2381516858655
 20
117.1561223826951
 30
0.0
 10
207.943865435306
 20
117.1561223826951
 30
0.0
  0
LINE
  5
107
330
1F
100
AcDbEntity
  8
0
  6
Continuous
 62
     7
370
    25
100
AcDbLine
 10
216.243861859
 20
107.243296403
 30
0.0
 11
216.243861859
 21
143.643297899
 31
0.0
  0
LWPOLYLINE
  5
108
330
1F
100
AcDbEntity
  8
0
  6
Continuous
 62
     7
370
    25
100
AcDbPolyline
 90
       21
 70
   128
 43
0.0
 10
128.1938689401
 20
136.7023109379
 10
128.966404741
 20
136.7888317364
 10
129.66333205
 20
137.0399237531
 10
130.2164109995
 20
137.4310103166
 10
130.5715056707
 20
137.9238075498
 10
130.6938665559
 20
138.4700775999
 10
130.5715056707
 20
139.01634765
 10
130.2164109995
 20
139.5091448831
 10
129.66333205
 20
139.9002314466
 10
128.966404741
 20
140.1513243946
 10
128.1938689401
 20
140.2378442618
 10
127.4213256885
 20
140.1513243946
 10
126.7244058301
 20
139.9002314466
 10
126.1713194301
 20
139.5091448831
 10
125.8162247588
 20
139.01634765
 10
125.6938638737
 20
138.4700775999
 10
125.8162247588
 20
137.9238075498
 10
126.1713194301
 20
137.4310103166
 10
126.7244058301
 20
137.0399237531
 10
127.4213256885
 20
136.7888317364
 10
128.1938689401
 20
136.7023109379
  0
LWPOLYLINE
  5
109
330
1F
100
AcDbEntity
  8
0
  6
Continuous
 62
     7
370
    25
100
AcDbPolyline
 90
       21
 70
   128
 43
0.0
 10
128.1938689401
 20
110.6487500402
 10
128.966404741
 20
110.7352699074
 10
129.66333205
 20
110.9863628554
 10
130.2164109995
 20
111.3774494189
 10
130.5715056707
 20
111.870246652
 10
130.6938665559
 20
112.4165167022
 10
130.5715056707
 20
112.9627867523
 10
130.2164109995
 20
113.4555839854
 10
129.66333205
 20
113.8466705489
 10
128.966404741
 20
114.0977625656
 10
128.1938689401
 20
114.1842833641
 10
127.4213256885
 20
114.0977625656
 10
126.7244058301
 20
113.8466705489
 10
126.1713194301
 20
113.4555839854
 10
125.8162247588
 20
112.9627867523
 10
125.6938638737
 20
112.4165167022
 10
125.8162247588
 20
111.870246652
 10
126.1713194301
 20
111.3774494189
 10
126.7244058301
 20
110.9863628554
 10
127.4213256885
 20
110.7352699074
 10
128.1938689401
 20
110.6487500402
  0
LINE
  5
10A
330
1F
100
AcDbEntity
  8
0
  6
Continuous
 62
     7
370
    25
100
AcDbLine
 10
218.2438659121
 20
117.443296771
 30
0.0
 11
218.2438659121
 21
133.443297531
 31
0.0
  0
LINE
  5
10B
330
1F
100
AcDbEntity
  8
0
  6
Continuous
 62
     7
370
    25
100
AcDbLine
 10
233.2438665082
 20
120.8640725273
 30
0.0
 11
233.2438665082
 21
132.6432970273
 31
0.0
  0
SPLINE
  5
10C
330
1F
100
AcDbEntity
  8
0
  6
Continuous
 62
     7
370
    25
100
AcDbSpline
210
0.0
220
0.0
230
1.0
 70
     8
 71
     3
 72
    14
 73
    10
 74
     0
 42
0.000000001
 43
0.00000001
 40
0.0
 40
0.0
 40
0.0
 40
0.0
 40
0.25
 40
0.25
 40
0.5
 40
0.5
 40
0.75
 40
0.75
 40
1.0
 40
1.0
 40
1.0
 40
1.0
 10
233.243865435306
 20
120.8640724191836
 30
0.0
 10
233.243865435306
 20
120.7440706696158
 30
0.0
 10
233.2379764146994
 20
120.6283116039918
 30
0.0
 10
233.2282270722236
 20
120.4131514856913
 30
0.0
 10
233.2244872996691
 20
120.3142414877388
 30
0.0
 10
233.2244930743279
 20
120.1423023477657
 30
0.0
 10
233.2282774012619
 20
120.068218093966
 30
0.0
 10
233.2379687198222
 20
119.9534647282371
 30
0.0
 10
233.243865435306
 20
119.911229649445
 30
0.0
 10
233.243865435306
 20
119.8871563270752
 30
0.0
  0
LINE
  5
10D
330
1F
100
AcDbEntity
  8
0
  6
Continuous
 62
     7
370
    25
100
AcDbLine
 10
233.2438665082
 20
118.2432972747
 30
0.0
 11
233.2438665082
 21
119.8871561247
 31
0.0
  0
LINE
  5
10E
330
1F
100
AcDbEntity
  8
0
  6
Continuous
 62
     7
370
    25
100
AcDbLine
 10
233.2438665082
 20
119.8871561247
 30
0.0
 11
233.2438665082
 21
120.8640725273
 31
0.0
  0
LINE
  5
10F
330
1F
100
AcDbEntity
  8
0
  6
HIDDEN
 62
     7
370
    18
100
AcDbLine
 10
238.2438617398
 20
118.9432970169
 30
0.0
 11
238.2438617398
 21
131.9432972851
 31
0.0
  0
LINE
  5
110
330
1F
100
AcDbEntity
  8
0
  6
HIDDEN
 62
     7
370
    18
100
AcDbLine
 10
246.2438630511
 20
119.3432972687
 30
0.0
 11
246.2438630511
 21
131.5432970333
 31
0.0
  0
LINE
  5
111
330
1F
100
AcDbEntity
  8
0
  6
HIDDEN
 62
     7
370
    18
100
AcDbLine
 10
238.2438617398
 20
121.0432971749
 30
0.0
 11
238.2438617398
 21
129.8432971272
 31
0.0
  0
LINE
  5
112
330
1F
100
AcDbEntity
  8
0
  6
HIDDEN
 62
     7
370
    18
100
AcDbLine
 10
213.9343606879
 20
121.443296961
 30
0.0
 11
213.9343606879
 21
129.443297341
 31
0.0
  0
LINE
  5
113
330
1F
100
AcDbEntity
  8
0
  6
HIDDEN
 62
     7
370
    18
100
AcDbLine
 10
213.2438706805
 20
122.133797213
 30
0.0
 11
213.2438706805
 21
128.7527970891
 31
0.0
  0
LINE
  5
114
330
1F
100
AcDbEntity
  8
0
  6
HIDDEN
 62
     7
370
    18
100
AcDbLine
 10
246.2438630511
 20
125.443297151
 30
0.0
 11
246.2438630511
 21
122.3957971125
 31
0.0
  0
LINE
  5
115
330
1F
100
AcDbEntity
  8
0
  6
HIDDEN
 62
     7
370
    18
100
AcDbLine
 10
242.243869846
 20
125.443297151
 30
0.0
 11
242.243869846
 21
123.9195471318
 31
0.0
  0
LINE
  5
116
330
1F
100
AcDbEntity
  8
0
  6
HIDDEN
 62
     7
370
    18
100
AcDbLine
 10
242.243869846
 20
125.443297151
 30
0.0
 11
242.243869846
 21
126.9670471703
 31
0.0
  0
LINE
  5
117
330
1F
100
AcDbEntity
  8
0
  6
HIDDEN
 62
     7
370
    18
100
AcDbLine
 10
242.243869846
 20
125.443297151
 30
0.0
 11
246.2438630511
 21
125.443297151
 31
0.0
  0
LINE
  5
118
330
1F
100
AcDbEntity
  8
0
  6
HIDDEN
 62
     7
370
    18
100
AcDbLine
 10
246.2438630511
 20
125.443297151
 30
0.0
 11
246.2438630511
 21
128.4907971895
 31
0.0
  0
LINE
  5
119
330
1F
100
AcDbEntity
  8
0
  6
HIDDEN
 62
     7
370
    18
100
AcDbLine
 10
242.243869846
 20
126.9670471703
 30
0.0
 11
242.243869846
 21
128.4907971895
 31
0.0
  0
LINE
  5
11A
330
1F
100
AcDbEntity
  8
0
  6
HIDDEN
 62
     7
370
    18
100
AcDbLine
 10
242.243869846
 20
123.9195471318
 30
0.0
 11
242.243869846
 21
126.9670471703
 31
0.0
  0
LINE
  5
11B
330
1F
100
AcDbEntity
  8
0
  6
HIDDEN
 62
     7
370
    18
100
AcDbLine
 10
242.243869846
 20
122.3957971125
 30
0.0
 11
242.243869846
 21
123.9195471318
 31
0.0
  0
LINE
  5
11C
330
1F
100
AcDbEntity
  8
0
  6
HIDDEN
 62
     7
370
    18
100
AcDbLine
 10
242.243869846
 20
123.9195471318
 30
0.0
 11
242.243869846
 21
122.3957971125
 31
0.0
  0
LINE
  5
11D
330
1F
100
AcDbEntity
  8
0
  6
HIDDEN
 62
     7
370
    18
100
AcDbLine
 10
242.243869846
 20
128.4907971895
 30
0.0
 11
242.243869846
 21
126.9670471703
 31
0.0
  0
LINE
  5
11E
330
1F
100
AcDbEntity
  8
0
  6
HIDDEN
 62
     7
370
    18
100
AcDbLine
 10
242.243869846
 20
126.9670471703
 30
0.0
 11
242.243869846
 21
123.9195471318
 31
0.0
  0
LINE
  5
11F
330
1F
100
AcDbEntity
  8
0
  6
HIDDEN
 62
     7
370
    18
100
AcDbLine
 10
242.243869846
 20
123.9195471318
 30
0.0
 11
242.243869846
 21
122.3957971125
 31
0.0
  0
LINE
  5
120
330
1F
100
AcDbEntity
  8
0
  6
HIDDEN
 62
     7
370
    18
100
AcDbLine
 10
242.243869846
 20
126.9670471703
 30
0.0
 11
242.243869846
 21
128.4907971895
 31
0.0
  0
LINE
  5
121
330
1F
100
AcDbEntity
  8
0
  6
HIDDEN
 62
     7
370
    18
100
AcDbLine
 10
242.243869846
 20
128.4907971895
 30
0.0
 11
246.2438630511
 21
128.4907971895
 31
0.0
  0
LINE
  5
122
330
1F
100
AcDbEntity
  8
0
  6
HIDDEN
 62
     7
370
    18
100
AcDbLine
 10
242.243869846
 20
122.3957971125
 30
0.0
 11
246.2438630511
 21
122.3957971125
 31
0.0
  0
LINE
  5
123
330
1F
100
AcDbEntity
  8
0
  6
HIDDEN
 62
     7
370
    18
100
AcDbLine
 10
233.2438665082
 20
129.443297341
 30
0.0
 11
213.9343606879
 21
129.443297341
 31
0.0
  0
LINE
  5
124
330
1F
100
AcDbEntity
  8
0
  6
HIDDEN
 62
     7
370
    18
100
AcDbLine
 10
213.9343606879
 20
121.443296961
 30
0.0
 11
233.2438665082
 21
121.443296961
 31
0.0
  0
LINE
  5
125
330
1F
100
AcDbEntity
  8
0
  6
HIDDEN
 62
     7
370
    18
100
AcDbLine
 10
213.9343606879
 20
129.443297341
 30
0.0
 11
213.2438706805
 21
128.7527970891
 31
0.0
  0
LINE
  5
126
330
1F
100
AcDbEntity
  8
0
  6
HIDDEN
 62
     7
370
    18
100
AcDbLine
 10
213.2438706805
 20
122.133797213
 30
0.0
 11
213.9343606879
 21
121.443296961
 31
0.0
  0
LINE
  5
127
330
1F
100
AcDbEntity
  8
0
  6
HIDDEN
 62
     7
370
    18
100
AcDbLine
 10
242.243869846
 20
128.4907971895
 30
0.0
 11
240.4843854358
 21
125.443297151
 31
0.0
  0
LINE
  5
128
330
1F
100
AcDbEntity
  8
0
  6
HIDDEN
 62
     7
370
    18
100
AcDbLine
 10
240.4843854358
 20
125.443297151
 30
0.0
 11
242.243869846
 21
122.3957971125
 31
0.0
  0
DIMENSION
  5
129
330
1F
100
AcDbEntity
  8
VERMASSUNG
100
AcDbDimension
  2
_D
 10
284.6848001073
 20
103.3340612732
 30
0.0
 11
284.6848001073
 21
125.443297151
 31
0.0
 70
   160
  1
%%c<>
 71
     2
 42
-1.0
  3
SLDDIMSTYLE0
100
AcDbAlignedDimension
 13
84.4515973941
 23
147.5525330289
 33
0.0
 14
84.4515973941
 24
103.3340612732
 34
0.0
 50
90.0
100
AcDbRotatedDimension
  0
DIMENSION
  5
135
330
1F
100
AcDbEntity
  8
VERMASSUNG
100
AcDbDimension
  2
_D_1
 10
265.311241801
 20
117.443297151
 30
0.0
 11
265.311241801
 21
125.443297151
 31
0.0
 70
   160
  1
%%c<>
 71
     2
 42
-1.0
  3
SLDDIMSTYLE1
100
AcDbAlignedDimension
 13
232.4438654353
 23
133.443297151
 33
0.0
 14
232.4438654353
 24
117.443297151
 34
0.0
 50
90.0
100
AcDbRotatedDimension
  0
DIMENSION
  5
141
330
1F
100
AcDbEntity
  8
VERMASSUNG
100
AcDbDimension
  2
_D_2
 10
274.2438654353
 20
106.443297151
 30
0.0
 11
274.2438654353
 21
125.443297151
 31
0.0
 70
   160
  1
%%c<>
 71
     2
 42
-1.0
  3
SLDDIMSTYLE1
100
AcDbAlignedDimension
 13
215.4438654353
 23
144.443297151
 33
0.0
 14
215.4438654353
 24
106.443297151
 34
0.0
 50
90.0
100
AcDbRotatedDimension
  0
DIMENSION
  5
14C
330
1F
100
AcDbEntity
  8
VERMASSUNG
100
AcDbDimension
  2
_D_3
 10
256.2438654353
 20
122.395797151
 30
0.0
 11
256.2438654353
 21
125.443297151
 31
0.0
 70
   160
  1
SW<>
 71
     2
 42
-1.0
  3
SLDDIMSTYLE2
100
AcDbAlignedDimension
 13
246.2438654353
 23
128.490797151
 33
0.0
 14
246.2438654353
 24
122.395797151
 34
0.0
 50
90.0
100
AcDbRotatedDimension
  0
DIMENSION
  5
15A
330
1F
100
AcDbEntity
  8
VERMASSUNG
100
AcDbDimension
  2
_D_4
 10
14.198561593
 20
93.943297151
 30
0.0
 11
14.198561593
 21
125.443297151
 31
0.0
 70
   160
  1
HSK A %%c<>
 71
     2
 42
-1.0
  3
SLDDIMSTYLE1
100
AcDbAlignedDimension
 13
56.5438654353
 23
156.943297151
 33
0.0
 14
56.5438654353
 24
93.943297151
 34
0.0
 50
90.0
100
AcDbRotatedDimension
  0
DIMENSION
  5
166
330
1F
100
AcDbEntity
  8
VERMASSUNG
100
AcDbDimension
  2
_D_5
 10
216.2438654353
 20
163.2277070585
 30
0.0
 11
224.7438654353
 21
163.2277070585
 31
0.0
 70
   160
  1
<>
 71
     2
 42
-1.0
  3
SLDDIMSTYLE1
100
AcDbAlignedDimension
 13
233.2438654353
 23
132.643297151
 33
0.0
 14
216.2438654353
 24
143.643297151
 34
0.0
100
AcDbRotatedDimension
  0
DIMENSION
  5
170
330
1F
100
AcDbEntity
  8
VERMASSUNG
100
AcDbDimension
  2
_D_6
 10
216.1438654353
 20
163.2277070585
 30
0.0
 11
149.1688654353
 21
163.2277070585
 31
0.0
 70
   160
  1
<>
 71
     2
 42
-1.0
  3
SLDDIMSTYLE1
100
AcDbAlignedDimension
 13
82.1938654353
 23
145.293297151
 33
0.0
 14
216.1438654353
 24
133.793297151
 34
0.0
100
AcDbRotatedDimension
  0
DIMENSION
  5
17A
330
1F
100
AcDbEntity
  8
VERMASSUNG
100
AcDbDimension
  2
_D_7
 10
233.2438654353
 20
172.943297151
 30
0.0
 11
144.7438654353
 21
172.943297151
 31
0.0
 70
   160
  1
<>
 71
     2
 42
-1.0
  3
SLDDIMSTYLE1
100
AcDbAlignedDimension
 13
56.2438654353
 23
156.643297151
 33
0.0
 14
233.2438654353
 24
132.643297151
 34
0.0
100
AcDbRotatedDimension
  0
DIMENSION
  5
184
330
1F
100
AcDbEntity
  8
VERMASSUNG
100
AcDbDimension
  2
_D_8
 10
246.2438654353
 20
183.2868305454
 30
0.0
 11
135.2938654353
 21
183.2868305454
 31
0.0
 70
   160
  1
<>
 71
     2
 42
-1.0
  3
SLDDIMSTYLE1
100
AcDbAlignedDimension
 13
24.3438654353
 23
145.1339748975
 33
0.0
 14
246.2438654353
 24
131.543297151
 34
0.0
100
AcDbRotatedDimension
  0
LINE
  5
18E
330
1F
100
AcDbEntity
  8
VERMASSUNG
  6
CENTERX2
370
    18
100
AcDbLine
 10
249.8438654353
 20
125.443297151
 30
0.0
 11
20.6490881455
 21
125.443297151
 31
0.0
  0
SPLINE
  5
18F
330
1F
100
AcDbEntity
  8
0
  6
Continuous
 62
     7
370
    25
100
AcDbSpline
210
0.0
220
0.0
230
1.0
 70
     8
 71
     3
 72
    16
 73
    12
 74
     0
 42
0.000000001
 43
0.00000001
 40
0.0
 40
0.0
 40
0.0
 40
0.0
 40
0.0770876746946531
 40
0.212283171385142
 40
0.3473201221757629
 40
0.4828603904461354
 40
0.6196157616683547
 40
0.7583847245109456
 40
0.8805443898010102
 40
0.9976261742065056
 40
1.0
 40
1.0
 40
1.0
 40
1.0
 10
278.9562149765001
 20
26.56416021362254
 30
0.0
 10
279.029145585103
 20
26.62642272826854
 30
0.0
 10
279.2299810746491
 20
26.79788054068566
 30
0.0
 10
279.508411822255
 20
27.18147991527788
 30
0.0
 10
279.7660048352731
 20
27.66692737892447
 30
0.0
 10
279.9290005312108
 20
28.1779298344974
 30
0.0
 10
279.9844146896687
 20
28.67302560755772
 30
0.0
 10
279.9255431616749
 20
29.1093256169022
 30
0.0
 10
279.7509784866697
 20
29.43879026813628
 30
0.0
 10
279.5902638525736
 20
29.62924260085077
 30
0.0
 10
279.4815055430793
 20
29.66533883879925
 30
0.0
 10
279.4793442943953
 20
29.66605614442055
 30
0.0
  0
LINE
  5
190
330
1F
100
AcDbEntity
  8
0
  6
Continuous
 62
     7
370
    25
100
AcDbLine
 10
279.477466784
 20
29.6687664105
 30
0.0
 11
277.8864759363
 21
30.5872258769
 31
0.0
  0
SPLINE
  5
191
330
1F
100
AcDbEntity
  8
0
  6
Continuous
 62
     7
370
    25
100
AcDbSpline
210
0.0
220
0.0
230
1.0
 70
     8
 71
     3
 72
    20
 73
    16
 74
     0
 42
0.000000001
 43
0.00000001
 40
0.0
 40
0.0
 40
0.0
 40
0.0
 40
0.0513898580346063
 40
0.1319463907031714
 40
0.2140382324497935
 40
0.3009529731722506
 40
0.3903544981218308
 40
0.4796601197896815
 40
0.5688611752285054
 40
0.6583945726284943
 40
0.7487306597087556
 40
0.8403968589910918
 40
0.921091504201092
 40
0.9984318688027916
 40
1.0
 40
1.0
 40
1.0
 40
1.0
 10
267.5726804659616
 20
20.51480931969441
 30
0.0
 10
267.6360078102651
 20
20.47468419693494
 30
0.0
 10
267.7986043776277
 20
20.37166065635482
 30
0.0
 10
268.1278156131103
 20
20.36160317485536
 30
0.0
 10
268.5096511805481
 20
20.4588250258516
 30
0.0
 10
268.9025185095961
 20
20.68647055841071
 30
0.0
 10
269.2796995572241
 20
21.02956826371362
 30
0.0
 10
269.610009823233
 20
21.46371297715408
 30
0.0
 10
269.8662164749229
 20
21.95285290978697
 30
0.0
 10
270.0295851611377
 20
22.4628611425497
 30
0.0
 10
270.0848978832068
 20
22.95822688528679
 30
0.0
 10
270.0260535863471
 20
23.39445579885989
 30
0.0
 10
269.8514816308789
 20
23.72393491736779
 30
0.0
 10
269.6907701873105
 20
23.91439032243089
 30
0.0
 10
269.5820104113472
 20
23.95048194439065
 30
0.0
 10
269.579849052219
 20
23.95119918526288
 30
0.0
  0
LINE
  5
192
330
1F
100
AcDbEntity
  8
0
  6
Continuous
 62
     7
370
    25
100
AcDbLine
 10
265.9871430253
 20
21.4081733804
 30
0.0
 11
267.578133873
 21
20.4897139139
 31
0.0
  0
LINE
  5
193
330
1F
100
AcDbEntity
  8
0
  6
Continuous
 62
     7
370
    25
100
AcDbLine
 10
269.5779715418
 20
23.9539094513
 30
0.0
 11
267.9869806941
 21
24.8723689178
 31
0.0
  0
SPLINE
  5
194
330
1F
100
AcDbEntity
  8
0
  6
Continuous
 62
     7
370
    25
100
AcDbSpline
210
0.0
220
0.0
230
1.0
 70
     8
 71
     3
 72
    11
 73
     7
 74
     0
 42
0.000000001
 43
0.00000001
 40
0.0
 40
0.0
 40
0.0
 40
0.0
 40
0.2123147960993902
 40
0.5278303843933527
 40
0.8442224352974307
 40
1.0
 40
1.0
 40
1.0
 40
1.0
 10
284.1920588626389
 20
19.16208460625815
 30
0.0
 10
284.2650995229893
 20
19.30051346679801
 30
0.0
 10
284.4466840405897
 20
19.64465791651259
 30
0.0
 10
284.6340372202432
 20
20.2200876236019
 30
0.0
 10
284.7414508414525
 20
20.74629133473455
 30
0.0
 10
284.751815947352
 20
21.04139431166477
 30
0.0
 10
284.7552355891535
 20
21.13875428901868
 30
0.0
  0
SPLINE
  5
195
330
1F
100
AcDbEntity
  8
0
  6
Continuous
 62
     7
370
    25
100
AcDbSpline
210
0.0
220
0.0
230
1.0
 70
     8
 71
     3
 72
    12
 73
     8
 74
     0
 42
0.000000001
 43
0.00000001
 40
0.0
 40
0.0
 40
0.0
 40
0.0
 40
0.188704815855899
 40
0.4330022695992093
 40
0.6769608534561181
 40
0.9205453491214398
 40
1.0
 40
1.0
 40
1.0
 40
1.0
 10
282.3860734112722
 20
17.23994991736861
 30
0.0
 10
282.516429226639
 20
17.31075566838535
 30
0.0
 10
282.8155438181415
 20
17.47322661938816
 30
0.0
 10
283.2672537327427
 20
17.86551969576952
 30
0.0
 10
283.711136721919
 20
18.37286606789106
 30
0.0
 10
284.0261455630223
 20
18.81816028232741
 30
0.0
 10
284.1593065981777
 20
19.09419191508736
 30
0.0
 10
284.1920588626388
 20
19.16208460625815
 30
0.0
  0
LINE
  5
196
330
1F
100
AcDbEntity
  8
0
  6
Continuous
 62
     7
370
    25
100
AcDbLine
 10
284.7586674292
 20
21.2013008053
 30
0.0
 11
284.7550120133
 21
21.2720311557
 31
0.0
  0
LINE
  5
197
330
1F
100
AcDbEntity
  8
0
  6
Continuous
 62
     7
370
    25
100
AcDbLine
 10
284.0268609972
 20
22.7709365132
 30
0.0
 11
281.3398518906
 21
24.3221138527
 31
0.0
  0
LINE
  5
198
330
1F
100
AcDbEntity
  8
0
  6
Continuous
 62
     7
370
    25
100
AcDbLine
 10
278.0901161728
 20
18.6927962232
 30
0.0
 11
280.7771252793
 21
17.1416188837
 31
0.0
  0
LINE
  5
199
330
1F
100
AcDbEntity
  8
0
  6
Continuous
 62
     7
370
    25
100
AcDbLine
 10
279.433933617
 20
23.9790405187
 30
0.0
 11
278.3904724783
 21
24.5814178121
 31
0.0
  0
LINE
  5
19A
330
1F
100
AcDbEntity
  8
0
  6
Continuous
 62
     7
370
    25
100
AcDbLine
 10
276.378322826
 20
21.1243300216
 30
0.0
 11
277.4340961128
 21
20.5148450763
 31
0.0
  0
SPLINE
  5
19B
330
1F
100
AcDbEntity
  8
0
  6
Continuous
 62
     7
370
    25
100
AcDbSpline
210
0.0
220
0.0
230
1.0
 70
     8
 71
     3
 72
    17
 73
    13
 74
     0
 42
0.000000001
 43
0.00000001
 40
0.0
 40
0.0
 40
0.0
 40
0.0
 40
0.0477948953465124
 40
0.1533593899980399
 40
0.2589713860629101
 40
0.3654918794846024
 40
0.4733370943387936
 40
0.5823434520369696
 40
0.6920664317228579
 40
0.8020901164782036
 40
0.912120251336704
 40
1.0
 40
1.0
 40
1.0
 40
1.0
 10
266.7977454601825
 20
18.01975498515023
 30
0.0
 10
266.8869554866248
 20
17.95847205561549
 30
0.0
 10
267.1732035291763
 20
17.76183363591396
 30
0.0
 10
267.7356155411429
 20
17.56864392326647
 30
0.0
 10
268.46427669229
 20
17.44055165274491
 30
0.0
 10
269.2439778911976
 20
17.45603534939229
 30
0.0
 10
270.0601518225725
 20
17.6058473958252
 30
0.0
 10
270.9031690923787
 20
17.89187223285473
 30
0.0
 10
271.7594789564546
 20
18.30871612058122
 30
0.0
 10
272.6131816461345
 20
18.8532596578437
 30
0.0
 10
273.3990916824112
 20
19.45883469833434
 30
0.0
 10
273.8803877063173
 20
19.92614179302207
 30
0.0
 10
274.0941020133588
 20
20.1336444669611
 30
0.0
  0
SPLINE
  5
19C
330
1F
100
AcDbEntity
  8
0
  6
Continuous
 62
     7
370
    25
100
AcDbSpline
210
0.0
220
0.0
230
1.0
 70
     8
 71
     3
 72
    14
 73
    10
 74
     0
 42
0.000000001
 43
0.00000001
 40
0.0
 40
0.0
 40
0.0
 40
0.0
 40
0.0324708371564135
 40
0.2055864659645387
 40
0.3786348443594529
 40
0.5510094393266022
 40
0.7218669122977843
 40
0.8904858373756157
 40
0.9999999999999999
 40
0.9999999999999999
 40
0.9999999999999999
 40
0.9999999999999999
 10
278.4721110061479
 20
30.24914554935325
 30
0.0
 10
278.4720879785336
 20
30.31125692480204
 30
0.0
 10
278.471942181066
 20
30.70451004954291
 30
0.0
 10
278.3645594698795
 20
31.368352186327
 30
0.0
 10
278.1433494893903
 20
32.21810791843001
 30
0.0
 10
277.8050990774541
 20
32.96882088958938
 30
0.0
 10
277.3638290245858
 20
33.60570183632468
 30
0.0
 10
276.8994890553721
 20
34.07933698859416
 30
0.0
 10
276.5526457343359
 20
34.28179141786181
 30
0.0
 10
276.4160771003091
 20
34.36150731025712
 30
0.0
  0
LINE
  5
19D
330
1F
100
AcDbEntity
  8
0
  6
Continuous
 62
     7
370
    25
100
AcDbLine
 10
237.2791991179
 20
35.0357541096
 30
0.0
 11
266.9043532793
 21
17.9335166436
 31
0.0
  0
LINE
  5
19E
330
1F
100
AcDbEntity
  8
0
  6
Continuous
 62
     7
370
    25
100
AcDbLine
 10
229.3393057922
 20
39.6193569618
 30
0.0
 11
234.8291843747
 21
36.4501175152
 31
0.0
  0
LINE
  5
19F
330
1F
100
AcDbEntity
  8
0
  6
Continuous
 62
     7
370
    25
100
AcDbLine
 10
244.3253882773
 20
52.9067919144
 30
0.0
 11
238.8385337312
 21
56.0742856219
 31
0.0
  0
LINE
  5
1A0
330
1F
100
AcDbEntity
  8
0
  6
Continuous
 62
     7
370
    25
100
AcDbLine
 10
276.4035812183
 20
34.3884453037
 30
0.0
 11
246.7847543525
 21
51.4870300997
 31
0.0
  0
SPLINE
  5
1A1
330
1F
100
AcDbEntity
  8
0
  6
Continuous
 62
     7
370
    25
100
AcDbSpline
210
0.0
220
0.0
230
1.0
 70
     8
 71
     3
 72
    12
 73
     8
 74
     0
 42
0.000000001
 43
0.00000001
 40
0.0
 40
0.0
 40
0.0
 40
0.0
 40
0.1716191664835692
 40
0.4143018125307648
 40
0.6584131507975676
 40
0.9108348330881287
 40
1.0
 40
1.0
 40
1.0
 40
1.0
 10
275.5867252447464
 20
19.29477133868221
 30
0.0
 10
275.6831311492986
 20
19.23146451445439
 30
0.0
 10
275.9158623867995
 20
19.078636991978
 30
0.0
 10
276.3629935802124
 20
18.99058751857135
 30
0.0
 10
276.8833617458073
 20
19.0186972358911
 30
0.0
 10
277.3087208675095
 20
19.12291635500896
 30
0.0
 10
277.5538301868852
 20
19.25510918179654
 30
0.0
 10
277.6178116118868
 20
19.28961576626428
 30
0.0
  0
SPLINE
  5
1A2
330
1F
100
AcDbEntity
  8
0
  6
Continuous
 62
     7
370
    25
100
AcDbSpline
210
0.0
220
0.0
230
1.0
 70
     8
 71
     3
 72
    11
 73
     7
 74
     0
 42
0.000000001
 43
0.00000001
 40
0.0
 40
0.0
 40
0.0
 40
0.0
 40
0.2825367176853346
 40
0.5723305257801766
 40
0.8539392776340398
 40
1.0
 40
1.0
 40
1.0
 40
1.0
 10
280.5964519471688
 20
24.45246521046091
 30
0.0
 10
280.569480898795
 20
24.65523863957684
 30
0.0
 10
280.5148460378005
 20
25.06599383009133
 30
0.0
 10
280.2772737271082
 20
25.57680567106859
 30
0.0
 10
279.9967578866963
 20
25.9448247304956
 30
0.0
 10
279.7653982202886
 20
26.07520323121293
 30
0.0
 10
279.6863826205349
 20
26.11973102462279
 30
0.0
  0
LINE
  5
1A3
330
1F
100
AcDbEntity
  8
0
  6
Continuous
 62
     7
370
    25
100
AcDbLine
 10
270.6440801908
 20
22.1252993031
 30
0.0
 11
275.6645390284
 21
19.2270501071
 31
0.0
  0
LINE
  5
1A4
330
1F
100
AcDbEntity
  8
0
  6
Continuous
 62
     7
370
    25
100
AcDbLine
 10
279.6642140368
 20
26.1554409918
 30
0.0
 11
274.6437551991
 21
29.0536901878
 31
0.0
  0
SPLINE
  5
1A5
330
1F
100
AcDbEntity
  8
0
  6
Continuous
 62
     7
370
    25
100
AcDbSpline
210
0.0
220
0.0
230
1.0
 70
     8
 71
     3
 72
    11
 73
     7
 74
     0
 42
0.000000001
 43
0.00000001
 40
0.0
 40
0.0
 40
0.0
 40
0.0
 40
0.1533883429900539
 40
0.4755680521868727
 40
0.7809212813679655
 40
1.0
 40
1.0
 40
1.0
 40
1.0
 10
276.6003376066885
 20
20.86597899524394
 30
0.0
 10
276.572760298593
 20
20.87922692995265
 30
0.0
 10
276.4872591031312
 20
20.9203010714559
 30
0.0
 10
276.3816542988615
 20
21.08299894963359
 30
0.0
 10
276.2925117242403
 20
21.34847355037307
 30
0.0
 10
276.2829314072265
 20
21.56858250014305
 30
0.0
 10
276.2789292796211
 20
21.66053186912433
 30
0.0
  0
SPLINE
  5
1A6
330
1F
100
AcDbEntity
  8
0
  6
Continuous
 62
     7
370
    25
100
AcDbSpline
210
0.0
220
0.0
230
1.0
 70
     8
 71
     3
 72
    18
 73
    14
 74
     0
 42
0.000000001
 43
0.00000001
 40
0.0
 40
0.0
 40
0.0
 40
0.0
 40
0.0535454782450353
 40
0.1572873227189104
 40
0.2620951806493088
 40
0.3676474340503175
 40
0.473362091997764
 40
0.578398054145339
 40
0.6820901580644859
 40
0.7841983589382883
 40
0.8859573342822437
 40
0.9911928459455548
 40
1.0
 40
1.0
 40
1.0
 40
1.0
 10
276.2789292796211
 20
21.66053186912433
 30
0.0
 10
276.281347246352
 20
21.73534740263394
 30
0.0
 10
276.2884499098444
 20
21.9551145118129
 30
0.0
 10
276.3714709444216
 20
22.36943422433401
 30
0.0
 10
276.5590332335833
 20
22.88176653317933
 30
0.0
 10
276.8308261652406
 20
23.38210083903653
 30
0.0
 10
277.1661615756622
 20
23.83127880389926
 30
0.0
 10
277.5387555858301
 20
24.19662945280878
 30
0.0
 10
277.9154240464784
 20
24.45200703907096
 30
0.0
 10
278.2619752957051
 20
24.58924347905743
 30
0.0
 10
278.5373920085988
 20
24.60019689741422
 30
0.0
 10
278.6777136339807
 20
24.58019506975565
 30
0.0
 10
278.7320142237587
 20
24.52525365372327
 30
0.0
 10
278.7362076864106
 20
24.52101070208827
 30
0.0
  0
LINE
  5
1A7
330
1F
100
AcDbEntity
  8
0
  6
Continuous
 62
     7
370
    25
100
AcDbLine
 10
274.2285267525
 20
29.2097236633
 30
0.0
 11
273.8801636225
 21
29.2806999362
 31
0.0
  0
LINE
  5
1A8
330
1F
100
AcDbEntity
  8
0
  6
Continuous
 62
     7
370
    25
100
AcDbLine
 10
270.0656369209
 20
22.6730297356
 30
0.0
 11
270.3013107379
 21
22.4068487449
 31
0.0
  0
LINE
  5
1A9
330
1F
100
AcDbEntity
  8
0
  6
Continuous
 62
     7
370
    25
100
AcDbLine
 10
270.1762465503
 20
22.5397075494
 30
0.0
 11
270.1914510259
 21
22.5309301925
 31
0.0
  0
LINE
  5
1AA
330
1F
100
AcDbEntity
  8
0
  6
Continuous
 62
     7
370
    25
100
AcDbLine
 10
274.0661362623
 20
29.242808868
 30
0.0
 11
274.0509317867
 21
29.2515862249
 31
0.0
  0
SPLINE
  5
1AB
330
1F
100
AcDbEntity
  8
0
  6
Continuous
 62
     7
370
    25
100
AcDbSpline
210
0.0
220
0.0
230
1.0
 70
     8
 71
     3
 72
    12
 73
     8
 74
     0
 42
0.000000001
 43
0.00000001
 40
0.0
 40
0.0
 40
0.0
 40
0.0
 40
0.1216797711055349
 40
0.3469739109555679
 40
0.5752070402950286
 40
0.8049333218639023
 40
0.9999999999999999
 40
0.9999999999999999
 40
0.9999999999999999
 40
0.9999999999999999
 10
220.9166634514378
 20
42.88443274022887
 30
0.0
 10
221.2624238632821
 20
42.81104889510448
 30
0.0
 10
222.2483711679264
 20
42.60179242204881
 30
0.0
 10
223.9003372595969
 20
42.096383958841
 30
0.0
 10
225.8423052030074
 20
41.37148011639994
 30
0.0
 10
227.6714084803944
 20
40.54712301041823
 30
0.0
 10
228.8119840757968
 20
39.90511085215767
 30
0.0
 10
229.3357410907736
 20
39.61029622264532
 30
0.0
  0
SPLINE
  5
1AC
330
1F
100
AcDbEntity
  8
0
  6
Continuous
 62
     7
370
    25
100
AcDbSpline
210
0.0
220
0.0
230
1.0
 70
     8
 71
     3
 72
    13
 73
     9
 74
     0
 42
0.000000001
 43
0.00000001
 40
0.0
 40
0.0
 40
0.0
 40
0.0
 40
0.0289086025161778
 40
0.2582101932073279
 40
0.4855891365756116
 40
0.710042246120263
 40
0.930654433178736
 40
1.0
 40
1.0
 40
1.0
 40
1.0
 10
238.8418037339071
 20
56.08188505145231
 30
0.0
 10
238.7634789501041
 20
56.12403216640525
 30
0.0
 10
238.0638858948054
 20
56.50048809121306
 30
0.0
 10
236.8178519971884
 20
57.33189792898248
 30
0.0
 10
235.1348860008448
 20
58.56227525557686
 30
0.0
 10
233.5968841560443
 20
59.88962120631801
 30
0.0
 10
232.4832106952069
 20
60.95247412778495
 30
0.0
 10
231.9305381312309
 20
61.58159642709131
 30
0.0
 10
231.7983623514745
 20
61.73205573318523
 30
0.0
  0
LINE
  5
1AD
330
1F
100
AcDbEntity
  8
0
  6
Continuous
 62
     7
370
    25
100
AcDbLine
 10
207.5999740278
 20
44.9525232001
 30
0.0
 11
212.6586397862
 21
42.0322176182
 31
0.0
  0
LINE
  5
1AE
330
1F
100
AcDbEntity
  8
0
  6
Continuous
 62
     7
370
    25
100
AcDbLine
 10
225.5419950904
 20
70.9668968507
 30
0.0
 11
223.3486945171
 21
72.2330623205
 31
0.0
  0
SPLINE
  5
1AF
330
1F
100
AcDbEntity
  8
0
  6
Continuous
 62
     7
370
    25
100
AcDbSpline
210
0.0
220
0.0
230
1.0
 70
     8
 71
     3
 72
    13
 73
     9
 74
     0
 42
0.000000001
 43
0.00000001
 40
0.0
 40
0.0
 40
0.0
 40
0.0
 40
0.117614225847781
 40
0.3373975775451992
 40
0.5577000316209534
 40
0.7782665578327727
 40
0.998913240381384
 40
1.0
 40
1.0
 40
1.0
 40
1.0
 10
220.8162960000652
 20
39.21747531381926
 30
0.0
 10
221.0014582955637
 20
39.24775255980727
 30
0.0
 10
221.5326296696351
 20
39.33460828986421
 30
0.0
 10
222.4400364803543
 20
39.62714038250227
 30
0.0
 10
223.5256420766203
 20
40.07635160696553
 30
0.0
 10
224.6181193762338
 20
40.67392050407464
 30
0.0
 10
225.3509736799339
 20
41.11889189390514
 30
0.0
 10
225.7112422384314
 20
41.39388742267811
 30
0.0
 10
225.7130079861572
 20
41.39523523035677
 30
0.0
  0
LINE
  5
1B0
330
1F
100
AcDbEntity
  8
0
  6
Continuous
 62
     7
370
    25
100
AcDbLine
 10
215.0570980677
 20
40.6476171244
 30
0.0
 11
216.4564867079
 21
39.839767258
 31
0.0
  0
LINE
  5
1B1
330
1F
100
AcDbEntity
  8
0
  6
Continuous
 62
     7
370
    25
100
AcDbLine
 10
216.1724004854
 20
71.8223848767
 30
0.0
 11
209.9820182315
 21
74.9066041963
 31
0.0
  0
LINE
  5
1B2
330
1F
100
AcDbEntity
  8
0
  6
Continuous
 62
     7
370
    25
100
AcDbLine
 10
198.6003204016
 20
55.1907888158
 30
0.0
 11
204.3668825079
 21
51.3724112407
 31
0.0
  0
SPLINE
  5
1B3
330
1F
100
AcDbEntity
  8
0
  6
Continuous
 62
     7
370
    25
100
AcDbSpline
210
0.0
220
0.0
230
1.0
 70
     8
 71
     3
 72
    10
 73
     6
 74
     0
 42
0.000000001
 43
0.00000001
 40
0.0
 40
0.0
 40
0.0
 40
0.0
 40
0.1362940590427484
 40
0.5976818703347034
 40
0.9999999999999999
 40
0.9999999999999999
 40
0.9999999999999999
 40
0.9999999999999999
 10
234.3081255207792
 20
64.97627695662858
 30
0.0
 10
234.2615115494225
 20
65.06284052194547
 30
0.0
 10
234.0570981965599
 20
65.44244234747488
 30
0.0
 10
233.6265193442504
 20
65.98178202471588
 30
0.0
 10
233.2009063460372
 20
66.37227221068841
 30
0.0
 10
233.0026538884791
 20
66.55416430361416
 30
0.0
  0
SPLINE
  5
1B4
330
1F
100
AcDbEntity
  8
0
  6
Continuous
 62
     7
370
    25
100
AcDbSpline
210
0.0
220
0.0
230
1.0
 70
     8
 71
     3
 72
    10
 73
     6
 74
     0
 42
0.000000001
 43
0.00000001
 40
0.0
 40
0.0
 40
0.0
 40
0.0
 40
0.2367191884548407
 40
0.6845208171870653
 40
0.9999999999999999
 40
0.9999999999999999
 40
0.9999999999999999
 40
0.9999999999999999
 10
235.1952034122781
 20
62.83097175752054
 30
0.0
 10
235.1432293783416
 20
63.01687435822871
 30
0.0
 10
234.9929360775959
 20
63.55444886152349
 30
0.0
 10
234.7119616678279
 20
64.28860298344168
 30
0.0
 10
234.4262258381135
 20
64.7751693662124
 30
0.0
 10
234.3081255207792
 20
64.97627695662858
 30
0.0
  0
SPLINE
  5
1B5
330
1F
100
AcDbEntity
  8
0
  6
Continuous
 62
     7
370
    25
100
AcDbSpline
210
0.0
220
0.0
230
1.0
 70
     8
 71
     3
 72
    23
 73
    19
 74
     0
 42
0.000000001
 43
0.00000001
 40
0.0
 40
0.0
 40
0.0
 40
0.0
 40
0.0512870904387273
 40
0.112222570271092
 40
0.1736000839005294
 40
0.2357739689072706
 40
0.2987834669910618
 40
0.3624306933551437
 40
0.4264428965329953
 40
0.4905958589554447
 40
0.554728360643114
 40
0.6187921919052642
 40
0.6827796213489145
 40
0.746702276041178
 40
0.8105807463236183
 40
0.8744395535382979
 40
0.9383049112710878
 40
1.0
 40
1.0
 40
1.0
 40
1.0
 10
210.0263514477814
 20
74.87299757821967
 30
0.0
 10
209.8258462301598
 20
74.9692356086807
 30
0.0
 10
209.3871157293306
 20
75.1798164594129
 30
0.0
 10
208.6340236319319
 20
75.34268623604257
 30
0.0
 10
207.796847943892
 20
75.39215528565548
 30
0.0
 10
206.9160113422589
 20
75.30134641330052
 30
0.0
 10
206.0029017247168
 20
75.07472801473658
 30
0.0
 10
205.0683063630268
 20
74.71262407121624
 30
0.0
 10
204.1256017341506
 20
74.21990390388343
 30
0.0
 10
203.1883832396938
 20
73.60379581325002
 30
0.0
 10
202.2696224959462
 20
72.87363949030863
 30
0.0
 10
201.3813503040003
 20
72.04004363737927
 30
0.0
 10
200.534607221385
 20
71.11444300930428
 30
0.0
 10
199.7400223634558
 20
70.10912118424655
 30
0.0
 10
199.0067814160222
 20
69.03722066183495
 30
0.0
 10
198.3465107722666
 20
67.91228422657161
 30
0.0
 10
197.7651122029937
 20
66.7628698495191
 30
0.0
 10
197.453402971363
 20
65.98435134881518
 30
0.0
 10
197.3002422488185
 20
65.60182031032704
 30
0.0
  0
LINE
  5
1B6
330
1F
100
AcDbEntity
  8
0
  6
Continuous
 62
     7
370
    25
100
AcDbLine
 10
197.4161342284
 20
63.746929234
 30
0.0
 11
199.9696945588
 21
62.2727902332
 31
0.0
  0
LINE
  5
1B7
330
1F
100
AcDbEntity
  8
0
  6
Continuous
 62
     7
370
    25
100
AcDbLine
 10
197.1178418837
 20
64.8752389073
 30
0.0
 11
197.1178418837
 21
64.4098329379
 31
0.0
  0
LINE
  5
1B8
330
1F
100
AcDbEntity
  8
0
  6
Continuous
 62
     7
370
    25
100
AcDbLine
 10
197.1178418837
 20
57.4038902425
 30
0.0
 11
197.1178418837
 21
56.9384842731
 31
0.0
  0
SPLINE
  5
1B9
330
1F
100
AcDbEntity
  8
0
  6
Continuous
 62
     7
370
    25
100
AcDbSpline
210
0.0
220
0.0
230
1.0
 70
     8
 71
     3
 72
    10
 73
     6
 74
     0
 42
0.000000001
 43
0.00000001
 40
0.0
 40
0.0
 40
0.0
 40
0.0
 40
0.3431439833650783
 40
0.7403478280699968
 40
1.0
 40
1.0
 40
1.0
 40
1.0
 10
197.2321737713844
 20
56.6524707345018
 30
0.0
 10
197.3653122321347
 20
56.44653319207353
 30
0.0
 10
197.6525641585199
 20
56.0022141317197
 30
0.0
 10
198.1395490205891
 20
55.50581399499325
 30
0.0
 10
198.5156637279332
 20
55.26464431780796
 30
0.0
 10
198.6643401473973
 20
55.16931105009181
 30
0.0
  0
LWPOLYLINE
  5
1BA
330
1F
100
AcDbEntity
  8
0
  6
Continuous
 62
     7
370
    25
100
AcDbPolyline
 90
        9
 70
   128
 43
0.0
 10
275.5316890339
 20
28.5410969926
 10
275.5351730636
 20
28.5563499829
 10
275.7180788616
 20
29.1005276223
 10
276.0048091404
 20
29.6229005105
 10
276.3698867885
 20
30.0770534763
 10
276.7808725622
 20
30.4226328437
 10
277.2012491805
 20
30.6289328366
 10
277.593663999
 20
30.6776223897
 10
277.8864759363
 20
30.5872258769
  0
ARC
  5
1BB
330
1F
100
AcDbEntity
  8
0
  6
Continuous
 62
     7
370
    25
100
AcDbCircle
 10
278.4185124564
 20
28.2428200231
 30
0.0
 40
1.050773680970597
100
AcDbArc
 50
333.8131682449
 51
26.1868317551
  0
LINE
  5
1BC
330
1F
100
AcDbEntity
  8
0
  6
Continuous
 62
     7
370
    25
100
AcDbLine
 10
279.3614345344
 20
28.714250076
 30
0.0
 11
279.3614345344
 21
28.7065260544
 31
0.0
  0
LINE
  5
1BD
330
1F
100
AcDbEntity
  8
0
  6
Continuous
 62
     7
370
    25
100
AcDbLine
 10
279.3614345344
 20
28.714250076
 30
0.0
 11
279.3556413184
 21
28.7147677344
 31
0.0
  0
ARC
  5
1BE
330
1F
100
AcDbEntity
  8
0
  6
Continuous
 62
     7
370
    25
100
AcDbCircle
 10
278.9754443584
 20
28.3831017072
 30
0.0
 40
0.5045315470162584
100
AcDbArc
 50
41.0999212461
 51
128.6810159
  0
LINE
  5
1BF
330
1F
100
AcDbEntity
  8
0
  6
Continuous
 62
     7
370
    25
100
AcDbLine
 10
278.6543276373
 20
28.7774760061
 30
0.0
 11
278.6601201948
 21
28.7769579676
 31
0.0
  0
LINE
  5
1C0
330
1F
100
AcDbEntity
  8
0
  6
Continuous
 62
     7
370
    25
100
AcDbLine
 10
278.6543276373
 20
28.7774760061
 30
0.0
 11
278.6485347506
 21
28.7702698329
 31
0.0
  0
ARC
  5
1C1
330
1F
100
AcDbEntity
  8
0
  6
Continuous
 62
     7
370
    25
100
AcDbCircle
 10
279.608641227
 20
27.2863105259
 30
0.0
 40
1.767467021205183
100
AcDbArc
 50
122.9024536109
 51
159.5083995959
  0
LINE
  5
1C2
330
1F
100
AcDbEntity
  8
0
  6
Continuous
 62
     7
370
    25
100
AcDbLine
 10
277.9472207402
 20
27.8978418304
 30
0.0
 11
277.9530132977
 21
27.9050478134
 31
0.0
  0
LINE
  5
1C3
330
1F
100
AcDbEntity
  8
0
  6
Continuous
 62
     7
370
    25
100
AcDbLine
 10
277.9472207402
 20
27.8978418304
 30
0.0
 11
277.9472207402
 21
27.8901178088
 31
0.0
  0
ARC
  5
1C4
330
1F
100
AcDbEntity
  8
0
  6
Continuous
 62
     7
370
    25
100
AcDbCircle
 10
279.1536639897
 20
27.3779091399
 30
0.0
 40
1.310672741227731
100
AcDbArc
 50
156.9958194069
 51
187.8105639736
  0
LWPOLYLINE
  5
1C5
330
1F
100
AcDbEntity
  8
0
  6
Continuous
 62
     7
370
    25
100
AcDbPolyline
 90
        3
 70
   128
 43
0.0
 10
278.6485347506
 20
26.892273643
 10
278.5438811623
 20
26.8405361495
 10
278.5042361243
 20
26.8250818453
  0
LINE
  5
1C6
330
1F
100
AcDbEntity
  8
0
  6
Continuous
 62
     7
370
    25
100
AcDbLine
 10
278.6543276373
 20
26.8917557945
 30
0.0
 11
278.6485347506
 21
26.892273643
 31
0.0
  0
LINE
  5
1C7
330
1F
100
AcDbEntity
  8
0
  6
Continuous
 62
     7
370
    25
100
AcDbLine
 10
278.6543276373
 20
26.8917557945
 30
0.0
 11
278.6601201948
 21
26.8989617776
 31
0.0
  0
ARC
  5
1C8
330
1F
100
AcDbEntity
  8
0
  6
Continuous
 62
     7
370
    25
100
AcDbCircle
 10
277.7000157204
 20
28.3829189812
 30
0.0
 40
1.767464167704958
100
AcDbArc
 50
302.9024361636
 51
339.5084312408
  0
LINE
  5
1C9
330
1F
100
AcDbEntity
  8
0
  6
Continuous
 62
     7
370
    25
100
AcDbLine
 10
279.3614345344
 20
27.7713899702
 30
0.0
 11
279.3556413184
 21
27.764183607
 31
0.0
  0
LINE
  5
1CA
330
1F
100
AcDbEntity
  8
0
  6
Continuous
 62
     7
370
    25
100
AcDbLine
 10
279.3614345344
 20
27.7713899702
 30
0.0
 11
279.3614345344
 21
27.7791139918
 31
0.0
  0
SPLINE
  5
1CB
330
1F
100
AcDbEntity
  8
0
  6
Continuous
 62
     7
370
    25
100
AcDbSpline
210
0.0
220
0.0
230
1.0
 70
     8
 71
     3
 72
     9
 73
     5
 74
     0
 42
0.000000001
 43
0.00000001
 40
0.0
 40
0.0
 40
0.0
 40
0.0
 40
0.9442783302765648
 40
1.0
 40
1.0
 40
1.0
 40
1.0
 10
277.8902540061198
 20
27.17952633703994
 30
0.0
 10
277.859999610785
 20
27.28460656770168
 30
0.0
 10
277.8279599098148
 20
27.3958875611255
 30
0.0
 10
277.8427920468038
 20
27.48122123484668
 30
0.0
 10
277.8436185182425
 20
27.48597616963006
 30
0.0
  0
SPLINE
  5
1CC
330
1F
100
AcDbEntity
  8
0
  6
Continuous
 62
     7
370
    25
100
AcDbSpline
210
0.0
220
0.0
230
1.0
 70
     8
 71
     3
 72
    10
 73
     6
 74
     0
 42
0.000000001
 43
0.00000001
 40
0.0
 40
0.0
 40
0.0
 40
0.0
 40
0.4395943805166416
 40
0.7571237413483523
 40
1.0
 40
1.0
 40
1.0
 40
1.0
 10
278.6601201948209
 20
28.77695796755461
 30
0.0
 10
278.7128826800614
 20
28.79516331807293
 30
0.0
 10
278.8037567494276
 20
28.82651882148221
 30
0.0
 10
279.0878032141518
 20
28.78320236886654
 30
0.0
 10
279.2746591395849
 20
28.73545928542735
 30
0.0
 10
279.3556413183823
 20
28.71476773438099
 30
0.0
  0
LINE
  5
1CD
330
1F
100
AcDbEntity
  8
0
  6
Continuous
 62
     7
370
    25
100
AcDbLine
 10
278.0090811186
 20
28.0096198565
 30
0.0
 11
278.3665002234
 21
28.3457533223
 31
0.0
  0
SPLINE
  5
1CE
330
1F
100
AcDbEntity
  8
0
  6
Continuous
 62
     7
370
    25
100
AcDbSpline
210
0.0
220
0.0
230
1.0
 70
     8
 71
     3
 72
     9
 73
     5
 74
     0
 42
0.000000001
 43
0.00000001
 40
0.0
 40
0.0
 40
0.0
 40
0.0
 40
0.6786713194278913
 40
1.0
 40
1.0
 40
1.0
 40
1.0
 10
278.3665002234027
 20
28.34575332232644
 30
0.0
 10
278.3573840238138
 20
28.38178333215772
 30
0.0
 10
278.343951601774
 20
28.43487237364198
 30
0.0
 10
278.3412722702408
 20
28.48403500764537
 30
0.0
 10
278.3404113241745
 20
28.49983237196314
 30
0.0
  0
LINE
  5
1CF
330
1F
100
AcDbEntity
  8
0
  6
Continuous
 62
     7
370
    25
100
AcDbLine
 10
277.8617982979
 20
27.3492732436
 30
0.0
 11
278.6543276373
 21
26.8917557945
 31
0.0
  0
SPLINE
  5
1D0
330
1F
100
AcDbEntity
  8
0
  6
Continuous
 62
     7
370
    25
100
AcDbSpline
210
0.0
220
0.0
230
1.0
 70
     8
 71
     3
 72
     9
 73
     5
 74
     0
 42
0.000000001
 43
0.00000001
 40
0.0
 40
0.0
 40
0.0
 40
0.0
 40
0.9874377562384344
 40
1.0
 40
1.0
 40
1.0
 40
1.0
 10
278.6485347505642
 20
26.89227364298201
 30
0.0
 10
278.4902008790075
 20
26.93505890029974
 30
0.0
 10
278.3298526742155
 20
26.97838847428799
 30
0.0
 10
278.2374454140061
 20
26.97975003301848
 30
0.0
 10
278.236284571478
 20
26.97976713725116
 30
0.0
  0
SPLINE
  5
1D1
330
1F
100
AcDbEntity
  8
0
  6
Continuous
 62
     7
370
    25
100
AcDbSpline
210
0.0
220
0.0
230
1.0
 70
     8
 71
     3
 72
    11
 73
     7
 74
     0
 42
0.000000001
 43
0.00000001
 40
0.0
 40
0.0
 40
0.0
 40
0.0
 40
0.1784106253049963
 40
0.5165278304741914
 40
0.8702841315496712
 40
1.0
 40
1.0
 40
1.0
 40
1.0
 10
279.3614345344191
 20
28.7065260544335
 30
0.0
 10
279.3407115060065
 20
28.66637564799255
 30
0.0
 10
279.2807149621432
 20
28.55013367924124
 30
0.0
 10
279.2351678287574
 20
28.29415530223817
 30
0.0
 10
279.2891869594145
 20
27.99921665248141
 30
0.0
 10
279.3461510384035
 20
27.82567525200891
 30
0.0
 10
279.3614345344191
 20
27.77911399183036
 30
0.0
  0
LINE
  5
1D2
330
1F
100
AcDbEntity
  8
0
  6
Continuous
 62
     7
370
    25
100
AcDbLine
 10
278.3665002234
 20
28.3457533223
 30
0.0
 11
279.3614345344
 21
27.7713899702
 31
0.0
  0
SPLINE
  5
1D3
330
1F
100
AcDbEntity
  8
0
  6
Continuous
 62
     7
370
    25
100
AcDbSpline
210
0.0
220
0.0
230
1.0
 70
     8
 71
     3
 72
    10
 73
     6
 74
     0
 42
0.000000001
 43
0.00000001
 40
0.0
 40
0.0
 40
0.0
 40
0.0
 40
0.4395940571515967
 40
0.7571234211314812
 40
1.0
 40
1.0
 40
1.0
 40
1.0
 10
279.3556413183823
 20
27.76418360701996
 30
0.0
 10
279.2089071923193
 20
27.66722200764078
 30
0.0
 10
278.9561834766226
 20
27.50022271216341
 30
0.0
 10
278.7455930352414
 20
27.17135831506784
 30
0.0
 10
278.685963345277
 20
26.98132226388203
 30
0.0
 10
278.6601201948209
 20
26.89896177759045
 30
0.0
  0
LWPOLYLINE
  5
1D4
330
1F
100
AcDbEntity
  8
0
  6
Continuous
 62
     7
370
    25
100
AcDbPolyline
 90
        9
 70
   128
 43
0.0
 10
265.5728487241
 20
22.3238632836
 10
265.6356778214
 20
22.8414930237
 10
265.8185839487
 20
23.3856708532
 10
266.1053142275
 20
23.9080437414
 10
266.4703918756
 20
24.3621967073
 10
266.8813776492
 20
24.7077760747
 10
267.3017542676
 20
24.9140760675
 10
267.6941687568
 20
24.9627654305
 10
267.9869806941
 20
24.8723689178
  0
ARC
  5
1D5
330
1F
100
AcDbEntity
  8
0
  6
Continuous
 62
     7
370
    25
100
AcDbCircle
 10
266.5470101071
 20
22.2130458839
 30
0.0
 40
0.9804442341601379
100
AcDbArc
 50
173.5101186345
 51
235.1776324295
  0
ARC
  5
1D6
330
1F
100
AcDbEntity
  8
0
  6
Continuous
 62
     7
370
    25
100
AcDbCircle
 10
268.5190183363
 20
22.527963064
 30
0.0
 40
1.050772674065908
100
AcDbArc
 50
333.8131412446
 51
26.1868587554
  0
LINE
  5
1D7
330
1F
100
AcDbEntity
  8
0
  6
Continuous
 62
     7
370
    25
100
AcDbLine
 10
269.4619392922
 20
22.9993931169
 30
0.0
 11
269.4619392922
 21
22.9916690953
 31
0.0
  0
LINE
  5
1D8
330
1F
100
AcDbEntity
  8
0
  6
Continuous
 62
     7
370
    25
100
AcDbLine
 10
269.4619392922
 20
22.9993931169
 30
0.0
 11
269.4561467348
 21
22.9999111554
 31
0.0
  0
ARC
  5
1D9
330
1F
100
AcDbEntity
  8
0
  6
Continuous
 62
     7
370
    25
100
AcDbCircle
 10
269.0759496356
 20
22.6682440379
 30
0.0
 40
0.5045323686147224
100
AcDbArc
 50
41.1000041658
 51
128.6809688618
  0
LINE
  5
1DA
330
1F
100
AcDbEntity
  8
0
  6
Continuous
 62
     7
370
    25
100
AcDbLine
 10
268.7548323952
 20
23.0626190469
 30
0.0
 11
268.7606252819
 21
23.0621011985
 31
0.0
  0
LINE
  5
1DB
330
1F
100
AcDbEntity
  8
0
  6
Continuous
 62
     7
370
    25
100
AcDbLine
 10
268.7548323952
 20
23.0626190469
 30
0.0
 11
268.7490398377
 21
23.0554130639
 31
0.0
  0
ARC
  5
1DC
330
1F
100
AcDbEntity
  8
0
  6
Continuous
 62
     7
370
    25
100
AcDbCircle
 10
269.7091443121
 20
21.5714558602
 30
0.0
 40
1.767464167705434
100
AcDbArc
 50
122.9024361636
 51
159.5084312408
  0
LINE
  5
1DD
330
1F
100
AcDbEntity
  8
0
  6
Continuous
 62
     7
370
    25
100
AcDbLine
 10
268.0477254981
 20
22.1829848712
 30
0.0
 11
268.0535187141
 21
22.1901912344
 31
0.0
  0
LINE
  5
1DE
330
1F
100
AcDbEntity
  8
0
  6
Continuous
 62
     7
370
    25
100
AcDbLine
 10
268.0477254981
 20
22.1829848712
 30
0.0
 11
268.0477254981
 21
22.1752608496
 31
0.0
  0
ARC
  5
1DF
330
1F
100
AcDbEntity
  8
0
  6
Continuous
 62
     7
370
    25
100
AcDbCircle
 10
268.990647576
 20
21.7115548183
 30
0.0
 40
1.050773680970545
100
AcDbArc
 50
153.8131682449
 51
206.1868317551
  0
LINE
  5
1E0
330
1F
100
AcDbEntity
  8
0
  6
Continuous
 62
     7
370
    25
100
AcDbLine
 10
268.0477254981
 20
21.2401247654
 30
0.0
 11
268.0477254981
 21
21.247848787
 31
0.0
  0
LINE
  5
1E1
330
1F
100
AcDbEntity
  8
0
  6
Continuous
 62
     7
370
    25
100
AcDbLine
 10
268.0477254981
 20
21.2401247654
 30
0.0
 11
268.0535187141
 21
21.2396071071
 31
0.0
  0
ARC
  5
1E2
330
1F
100
AcDbEntity
  8
0
  6
Continuous
 62
     7
370
    25
100
AcDbCircle
 10
268.4337156741
 20
21.5712731342
 30
0.0
 40
0.5045315470162645
100
AcDbArc
 50
221.0999212461
 51
308.6810159
  0
LINE
  5
1E3
330
1F
100
AcDbEntity
  8
0
  6
Continuous
 62
     7
370
    25
100
AcDbLine
 10
268.7548323952
 20
21.1768988354
 30
0.0
 11
268.7490398377
 21
21.1774168739
 31
0.0
  0
LINE
  5
1E4
330
1F
100
AcDbEntity
  8
0
  6
Continuous
 62
     7
370
    25
100
AcDbLine
 10
268.7548323952
 20
21.1768988354
 30
0.0
 11
268.7606252819
 21
21.1841050085
 31
0.0
  0
ARC
  5
1E5
330
1F
100
AcDbEntity
  8
0
  6
Continuous
 62
     7
370
    25
100
AcDbCircle
 10
267.8005188055
 20
22.6680643156
 30
0.0
 40
1.767467021205757
100
AcDbArc
 50
302.902453611
 51
339.5083995959
  0
LINE
  5
1E6
330
1F
100
AcDbEntity
  8
0
  6
Continuous
 62
     7
370
    25
100
AcDbLine
 10
269.4619392922
 20
22.0565330111
 30
0.0
 11
269.4561467348
 21
22.049327028
 31
0.0
  0
LINE
  5
1E7
330
1F
100
AcDbEntity
  8
0
  6
Continuous
 62
     7
370
    25
100
AcDbLine
 10
269.4619392922
 20
22.0565330111
 30
0.0
 11
269.4619392922
 21
22.0642570327
 31
0.0
  0
SPLINE
  5
1E8
330
1F
100
AcDbEntity
  8
0
  6
Continuous
 62
     7
370
    25
100
AcDbSpline
210
0.0
220
0.0
230
1.0
 70
     8
 71
     3
 72
    10
 73
     6
 74
     0
 42
0.000000001
 43
0.00000001
 40
0.0
 40
0.0
 40
0.0
 40
0.0
 40
0.2594388269203068
 40
0.9669707647096555
 40
1.0
 40
1.0
 40
1.0
 40
1.0
 10
268.0477254980619
 20
21.24784878703026
 30
0.0
 10
268.0329517192826
 20
21.29405510213401
 30
0.0
 10
267.9778874394538
 20
21.46627356450012
 30
0.0
 10
267.9250100801694
 20
21.65969095752347
 30
0.0
 10
267.9433072185794
 20
21.76636166701681
 30
0.0
 10
267.9441232760661
 20
21.77111921047238
 30
0.0
  0
SPLINE
  5
1E9
330
1F
100
AcDbEntity
  8
0
  6
Continuous
 62
     7
370
    25
100
AcDbSpline
210
0.0
220
0.0
230
1.0
 70
     8
 71
     3
 72
    10
 73
     6
 74
     0
 42
0.000000001
 43
0.00000001
 40
0.0
 40
0.0
 40
0.0
 40
0.0
 40
0.4395942408097021
 40
0.7571235007278041
 40
1.0
 40
1.0
 40
1.0
 40
1.0
 10
268.7606252819168
 20
23.06210119848176
 30
0.0
 10
268.8133877673984
 20
23.08030656361693
 30
0.0
 10
268.9042618371798
 20
23.11166209220112
 30
0.0
 10
269.1883083898915
 20
23.06834548726422
 30
0.0
 10
269.3751644413102
 20
23.02060262564495
 30
0.0
 10
269.4561467347505
 20
22.99991115539298
 30
0.0
  0
LINE
  5
1EA
330
1F
100
AcDbEntity
  8
0
  6
Continuous
 62
     7
370
    25
100
AcDbLine
 10
268.1095862057
 20
22.2947630874
 30
0.0
 11
268.4670049812
 21
22.6308963632
 31
0.0
  0
SPLINE
  5
1EB
330
1F
100
AcDbEntity
  8
0
  6
Continuous
 62
     7
370
    25
100
AcDbSpline
210
0.0
220
0.0
230
1.0
 70
     8
 71
     3
 72
     9
 73
     5
 74
     0
 42
0.000000001
 43
0.00000001
 40
0.0
 40
0.0
 40
0.0
 40
0.0
 40
0.6786713194278913
 40
1.0
 40
1.0
 40
1.0
 40
1.0
 10
268.4670049812264
 20
22.63089636316877
 30
0.0
 10
268.4578887816375
 20
22.66692637300006
 30
0.0
 10
268.4444563595976
 20
22.72001541448431
 30
0.0
 10
268.4417770280645
 20
22.7691780484877
 30
0.0
 10
268.4409160819981
 20
22.78497541280547
 30
0.0
  0
LINE
  5
1EC
330
1F
100
AcDbEntity
  8
0
  6
Continuous
 62
     7
370
    25
100
AcDbLine
 10
267.9623030558
 20
21.6344162845
 30
0.0
 11
268.7548323952
 21
21.1768988354
 31
0.0
  0
SPLINE
  5
1ED
330
1F
100
AcDbEntity
  8
0
  6
Continuous
 62
     7
370
    25
100
AcDbSpline
210
0.0
220
0.0
230
1.0
 70
     8
 71
     3
 72
    10
 73
     6
 74
     0
 42
0.000000001
 43
0.00000001
 40
0.0
 40
0.0
 40
0.0
 40
0.0
 40
0.4395943805166416
 40
0.7571237413483523
 40
1.0
 40
1.0
 40
1.0
 40
1.0
 10
268.7490398376601
 20
21.17741687390917
 30
0.0
 10
268.6023056012855
 20
21.21346026060372
 30
0.0
 10
268.3495817746132
 20
21.27553863329127
 30
0.0
 10
268.1389912051954
 20
21.27644990016632
 30
0.0
 10
268.0793617455678
 20
21.25074670824393
 30
0.0
 10
268.0535187140987
 20
21.23960710708278
 30
0.0
  0
SPLINE
  5
1EE
330
1F
100
AcDbEntity
  8
0
  6
Continuous
 62
     7
370
    25
100
AcDbSpline
210
0.0
220
0.0
230
1.0
 70
     8
 71
     3
 72
    11
 73
     7
 74
     0
 42
0.000000001
 43
0.00000001
 40
0.0
 40
0.0
 40
0.0
 40
0.0
 40
0.1784106253049963
 40
0.5165278304741914
 40
0.8702841315496712
 40
1.0
 40
1.0
 40
1.0
 40
1.0
 10
269.4619392922427
 20
22.99166909527583
 30
0.0
 10
269.4412162638301
 20
22.95151868883488
 30
0.0
 10
269.3812197199669
 20
22.83527672008357
 30
0.0
 10
269.335672586581
 20
22.5792983430805
 30
0.0
 10
269.3896917172381
 20
22.28435969332374
 30
0.0
 10
269.4466557962272
 20
22.11081829285124
 30
0.0
 10
269.4619392922427
 20
22.06425703267269
 30
0.0
  0
LINE
  5
1EF
330
1F
100
AcDbEntity
  8
0
  6
Continuous
 62
     7
370
    25
100
AcDbLine
 10
268.4670049812
 20
22.6308963632
 30
0.0
 11
269.4619392922
 21
22.0565330111
 31
0.0
  0
SPLINE
  5
1F0
330
1F
100
AcDbEntity
  8
0
  6
Continuous
 62
     7
370
    25
100
AcDbSpline
210
0.0
220
0.0
230
1.0
 70
     8
 71
     3
 72
    10
 73
     6
 74
     0
 42
0.000000001
 43
0.00000001
 40
0.0
 40
0.0
 40
0.0
 40
0.0
 40
0.4395942408097021
 40
0.7571235007278041
 40
1.0
 40
1.0
 40
1.0
 40
1.0
 10
269.4561467347505
 20
22.04932702803195
 30
0.0
 10
269.3094124856004
 20
21.95236537966309
 30
0.0
 10
269.0566886369245
 20
21.78536605202368
 30
0.0
 10
268.8460981216797
 20
21.45650154581351
 30
0.0
 10
268.7864684321741
 20
21.26646549475431
 30
0.0
 10
268.7606252819168
 20
21.1841050085176
 30
0.0
  0
LWPOLYLINE
  5
1F1
330
1F
100
AcDbEntity
  8
0
  6
Continuous
 62
     7
370
    25
100
AcDbPolyline
 90
       23
 70
   128
 43
0.0
 10
282.2786648123
 20
17.2351482557
 10
282.2683706812
 20
17.2298711755
 10
281.7428914604
 20
17.0335144665
 10
281.2529445951
 20
16.9947245742
 10
280.8249431838
 20
17.1155926875
 10
280.481961021
 20
17.3896031102
 10
280.24248839
 20
17.8019835416
 10
280.1194350682
 20
18.330502515
 10
280.1194350682
 20
18.94666743
 10
280.24248839
 20
19.6172607447
 10
280.481961021
 20
20.3061303906
 10
280.8249431838
 20
20.9761395894
 10
281.2529445951
 20
21.5911676136
 10
281.7428914604
 20
22.1180583312
 10
282.2683706812
 20
22.5284070165
 10
282.801053494
 20
22.8000915211
 10
283.3122229028
 20
22.9184650718
 10
283.7743215261
 20
22.8771465901
 10
284.1624375307
 20
22.6783631003
 10
284.4556477228
 20
22.3328315353
 10
284.6381447293
 20
21.8591791583
 10
284.7000902245
 20
21.2829409076
 10
284.7000902245
 20
21.2829409076
  0
LWPOLYLINE
  5
1F2
330
1F
100
AcDbEntity
  8
0
  6
Continuous
 62
     7
370
    25
100
AcDbPolyline
 90
       15
 70
   128
 43
0.0
 10
281.3398518906
 20
24.3221138527
 10
281.0873124195
 20
24.4283239295
 10
280.6252137962
 20
24.4696424112
 10
280.1140443875
 20
24.3512688606
 10
279.5813615747
 20
24.0795843559
 10
279.0558823539
 20
23.6692356707
 10
278.5659354886
 20
23.1423449531
 10
278.1379340773
 20
22.5273169289
 10
277.7949519145
 20
21.85730773
 10
277.5554792835
 20
21.1684380842
 10
277.4324259616
 20
20.4978447695
 10
277.4324259616
 20
19.8816798545
 10
277.5554792835
 20
19.353160881
 10
277.7949519145
 20
18.9407804497
 10
278.0901161728
 20
18.6927962232
  0
LINE
  5
1F3
330
1F
100
AcDbEntity
  8
0
  6
Continuous
 62
     7
370
    25
100
AcDbLine
 10
282.5434116201
 20
21.3113216758
 30
0.0
 11
281.4659576486
 21
19.9709791732
 31
0.0
  0
LINE
  5
1F4
330
1F
100
AcDbEntity
  8
0
  6
Continuous
 62
     7
370
    25
100
AcDbLine
 10
281.4659576486
 20
19.9709791732
 30
0.0
 11
281.4659576486
 21
18.534296044
 31
0.0
  0
LINE
  5
1F5
330
1F
100
AcDbEntity
  8
0
  6
Continuous
 62
     7
370
    25
100
AcDbLine
 10
282.5434116201
 20
18.4379554175
 30
0.0
 11
281.4659576486
 21
18.534296044
 31
0.0
  0
LINE
  5
1F6
330
1F
100
AcDbEntity
  8
0
  6
Continuous
 62
     7
370
    25
100
AcDbLine
 10
283.6208655915
 20
19.7782979201
 30
0.0
 11
282.5434116201
 21
18.4379554175
 31
0.0
  0
LINE
  5
1F7
330
1F
100
AcDbEntity
  8
0
  6
Continuous
 62
     7
370
    25
100
AcDbLine
 10
283.6208655915
 20
19.7782979201
 30
0.0
 11
283.6208655915
 21
21.2149810493
 31
0.0
  0
LINE
  5
1F8
330
1F
100
AcDbEntity
  8
0
  6
Continuous
 62
     7
370
    25
100
AcDbLine
 10
282.5434116201
 20
21.3113216758
 30
0.0
 11
283.6208655915
 21
21.2149810493
 31
0.0
  0
ARC
  5
1F9
330
1F
100
AcDbEntity
  8
0
  6
Continuous
 62
     7
370
    25
100
AcDbCircle
 10
279.6807522955
 20
21.5267682102
 30
0.0
 40
2.55264987980073
100
AcDbArc
 50
321.121196145
 51
343.2437586159
  0
LWPOLYLINE
  5
1FA
330
1F
100
AcDbEntity
  8
0
  6
Continuous
 62
     7
370
    25
100
AcDbPolyline
 90
        3
 70
   128
 43
0.0
 10
281.4659600564
 20
19.7035818979
 10
281.5415242315
 20
19.7795800197
 10
281.6679274458
 20
19.9245334175
  0
LINE
  5
1FB
330
1F
100
AcDbEntity
  8
0
  6
Continuous
 62
     7
370
    25
100
AcDbLine
 10
281.465959048
 20
19.0599555477
 30
0.0
 11
282.5434116201
 21
18.4379554175
 31
0.0
  0
LINE
  5
1FC
330
1F
100
AcDbEntity
  8
0
  6
Continuous
 62
     7
370
    25
100
AcDbLine
 10
282.2066544315
 20
20.5947046451
 30
0.0
 11
283.6208655915
 21
19.7782979201
 31
0.0
  0
LINE
  5
1FD
330
1F
100
AcDbEntity
  8
0
  6
Continuous
 62
     7
370
    25
100
AcDbLine
 10
282.2066544315
 20
20.5947046451
 30
0.0
 11
282.2066544315
 21
20.8923944979
 31
0.0
  0
LINE
  5
1FE
330
1F
100
AcDbEntity
  8
0
  6
Continuous
 62
     7
370
    25
100
AcDbLine
 10
281.6679274458
 20
19.9245334175
 30
0.0
 11
281.4659600564
 21
19.673287908
 31
0.0
  0
LINE
  5
1FF
330
1F
100
AcDbEntity
  8
0
  6
Continuous
 62
     7
370
    25
100
AcDbLine
 10
282.2066544315
 20
20.5947046451
 30
0.0
 11
281.6679274458
 21
19.9245334175
 31
0.0
  0
LINE
  5
200
330
1F
100
AcDbEntity
  8
0
  6
Continuous
 62
     7
370
    25
100
AcDbLine
 10
266.9043532793
 20
17.9335166436
 30
0.0
 11
266.7976443736
 21
17.9979502208
 31
0.0
  0
LINE
  5
201
330
1F
100
AcDbEntity
  8
0
  6
Continuous
 62
     7
370
    25
100
AcDbLine
 10
245.059133629
 20
52.4259423108
 30
0.0
 11
245.5034019128
 21
52.1241540866
 31
0.0
  0
LWPOLYLINE
  5
202
330
1F
100
AcDbEntity
  8
0
  6
Continuous
 62
     7
370
    25
100
AcDbPolyline
 90
       15
 70
   128
 43
0.0
 10
246.7838900128
 20
51.4855672403
 10
246.752764236
 20
51.5051296452
 10
246.4575133791
 20
51.6599243136
 10
246.0847725777
 20
51.8418655915
 10
245.6384124273
 20
52.0566516199
 10
245.1434273261
 20
52.3041340869
 10
244.666252561
 20
52.5665665991
 10
244.2965160397
 20
52.8045465675
 10
244.1039177836
 20
52.9670155358
 10
244.1149717825
 20
53.0085047593
 10
244.2873082704
 20
52.9285210451
 10
244.5492664097
 20
52.7683962016
 10
244.8739183154
 20
52.552293346
 10
245.059133629
 20
52.4259423108
 10
245.059133629
 20
52.4259423108
  0
SPLINE
  5
203
330
1F
100
AcDbEntity
  8
0
  6
Continuous
 62
     7
370
    25
100
AcDbSpline
210
0.0
220
0.0
230
1.0
 70
    11
 71
     3
 72
    70
 73
    66
 74
     0
 42
0.000000001
 43
0.00000001
 40
0.0
 40
0.0
 40
0.0
 40
0.0
 40
0.03125
 40
0.03125
 40
0.0625
 40
0.0625
 40
0.09375
 40
0.09375
 40
0.125
 40
0.125
 40
0.15625
 40
0.15625
 40
0.1875
 40
0.1875
 40
0.21875
 40
0.21875
 40
0.25
 40
0.25
 40
0.28125
 40
0.28125
 40
0.3125
 40
0.3125
 40
0.34375
 40
0.34375
 40
0.375
 40
0.375
 40
0.40625
 40
0.40625
 40
0.4375
 40
0.4375
 40
0.46875
 40
0.46875
 40
0.5
 40
0.5
 40
0.53125
 40
0.53125
 40
0.5625
 40
0.5625
 40
0.59375
 40
0.59375
 40
0.625
 40
0.625
 40
0.65625
 40
0.65625
 40
0.6875
 40
0.6875
 40
0.71875
 40
0.71875
 40
0.75
 40
0.75
 40
0.78125
 40
0.78125
 40
0.8125
 40
0.8125
 40
0.84375
 40
0.84375
 40
0.875
 40
0.875
 40
0.90625
 40
0.90625
 40
0.9375
 40
0.9375
 40
0.96875
 40
0.96875
 40
1.0
 40
1.0
 40
1.0
 40
1.0
 10
234.8877294474498
 20
47.53422056574752
 30
0.0
 10
234.9499964059855
 20
47.6232893900764
 30
0.0
 10
235.0204323987035
 20
47.70340497563552
 30
0.0
 10
235.1761151542465
 20
47.84732670973656
 30
0.0
 10
235.262251174102
 20
47.9114041076369
 30
0.0
 10
235.4406738175218
 20
48.01837571135892
 30
0.0
 10
235.5342001807879
 20
48.06233824215789
 30
0.0
 10
235.7260050982086
 20
48.13125594959496
 30
0.0
 10
235.8224724971415
 20
48.15568041734318
 30
0.0
 10
236.0160544505335
 20
48.18655269425962
 30
0.0
 10
236.1137487986406
 20
48.1928380223375
 30
0.0
 10
236.3029219691637
 20
48.18787809071312
 30
0.0
 10
236.3951552441402
 20
48.17684254155344
 30
0.0
 10
236.5747581003582
 20
48.13822861132488
 30
0.0
 10
236.6617149187416
 20
48.11055259801125
 30
0.0
 10
236.8246825119872
 20
48.0408400104102
 30
0.0
 10
236.9014898750256
 20
47.998657551235
 30
0.0
 10
237.0455531969316
 20
47.89936273387713
 30
0.0
 10
237.1122035910473
 20
47.84245848090969
 30
0.0
 10
237.2311536436681
 20
47.71749660828478
 30
0.0
 10
237.284082821649
 20
47.64904032994037
 30
0.0
 10
237.3764251993906
 20
47.49935097199162
 30
0.0
 10
237.4154295441586
 20
47.41837204310101
 30
0.0
 10
237.4763611682528
 20
47.24934059232475
 30
0.0
 10
237.4987898733281
 20
47.16057404267788
 30
0.0
 10
237.5264448462276
 20
46.9733630181874
 30
0.0
 10
237.5313275219577
 20
46.875367371354
 30
0.0
 10
237.5222259155052
 20
46.67847735175634
 30
0.0
 10
237.5084763689331
 20
46.57846390304219
 30
0.0
 10
237.4605006954737
 20
46.37458992065497
 30
0.0
 10
237.4267900093674
 20
46.27366530933202
 30
0.0
 10
237.341529389277
 20
46.07867432244632
 30
0.0
 10
237.2888090805872
 20
45.98247212009889
 30
0.0
 10
237.1687402469602
 20
45.80388246274351
 30
0.0
 10
237.1017614618362
 20
45.7213758290408
 30
0.0
 10
236.9540270021087
 20
45.56974040019851
 30
0.0
 10
236.8752385467378
 20
45.50276010440086
 30
0.0
 10
236.7107346238625
 20
45.38694861888824
 30
0.0
 10
236.624006523517
 20
45.33764670841025
 30
0.0
 10
236.4495311617944
 20
45.2594208578459
 30
0.0
 10
236.360972604048
 20
45.22983494403606
 30
0.0
 10
236.1811918723016
 20
45.18921303662515
 30
0.0
 10
236.092331888804
 20
45.17869787418127
 30
0.0
 10
235.916068626644
 20
45.17581128878138
 30
0.0
 10
235.8279202469575
 20
45.18364188864641
 30
0.0
 10
235.6569464065337
 20
45.2171068476294
 30
0.0
 10
235.5742727193082
 20
45.24251134899017
 30
0.0
 10
235.4142109292033
 20
45.31023151843799
 30
0.0
 10
235.336180382713
 20
45.3530707290974
 30
0.0
 10
235.1900901048037
 20
45.45354999417556
 30
0.0
 10
235.1217525257233
 20
45.51110683624952
 30
0.0
 10
234.9946482679799
 20
45.64082150988068
 30
0.0
 10
234.9353863364977
 20
45.71381791244067
 30
0.0
 10
234.8309814596428
 20
45.87055936575742
 30
0.0
 10
234.785578436318
 20
45.95426191657488
 30
0.0
 10
234.7092460118098
 20
46.13254641932868
 30
0.0
 10
234.6780892148793
 20
46.22836442262057
 30
0.0
 10
234.6345202940666
 20
46.4248796262118
 30
0.0
 10
234.6218209306119
 20
46.52551205103021
 30
0.0
 10
234.6163701106169
 20
46.73166360212262
 30
0.0
 10
234.6240230592252
 20
46.83864619600423
 30
0.0
 10
234.6613680791661
 20
47.04685770893308
 30
0.0
 10
234.6907428862755
 20
47.14890631002213
 30
0.0
 10
234.7727545264442
 20
47.34845714365846
 30
0.0
 10
234.825462488914
 20
47.44515174141864
 30
0.0
 10
234.8877294474498
 20
47.53422056574752
 30
0.0
  0
SPLINE
  5
204
330
1F
100
AcDbEntity
  8
0
  6
Continuous
 62
     7
370
    25
100
AcDbSpline
210
0.0
220
0.0
230
1.0
 70
     8
 71
     3
 72
    20
 73
    16
 74
     0
 42
0.000000001
 43
0.00000001
 40
0.0
 40
0.0
 40
0.0
 40
0.0
 40
0.0794190663801949
 40
0.146218499660429
 40
0.2224438004583663
 40
0.2904464973583172
 40
0.3563015934732671
 40
0.4270113832398654
 40
0.5067336126306083
 40
0.5959059668543377
 40
0.6910889117585823
 40
0.7875285094616713
 40
0.8799899555632471
 40
0.9620446767374785
 40
1.0
 40
1.0
 40
1.0
 40
1.0
 10
236.0907159418353
 20
35.8241388932816
 30
0.0
 10
235.9285752043406
 20
35.90268104645937
 30
0.0
 10
235.6300577770919
 20
36.04728506059844
 30
0.0
 10
235.1983899518312
 20
36.25418088192146
 30
0.0
 10
234.8618885492629
 20
36.42715548542382
 30
0.0
 10
234.6583452773794
 20
36.55243952293272
 30
0.0
 10
234.5972334571059
 20
36.61797945210309
 30
0.0
 10
234.6679116355929
 20
36.62094086581738
 30
0.0
 10
234.879761555222
 20
36.54378399761952
 30
0.0
 10
235.2367581912652
 20
36.36431282924611
 30
0.0
 10
235.7116048862817
 20
36.079712643879
 30
0.0
 10
236.2454866859455
 20
35.72416635894167
 30
0.0
 10
236.7465457807574
 20
35.37904803680199
 30
0.0
 10
237.1106530753712
 20
35.13432782746563
 30
0.0
 10
237.2398269616355
 20
35.06138345966288
 30
0.0
 10
237.2806805137965
 20
35.03831349853481
 30
0.0
  0
SPLINE
  5
205
330
1F
100
AcDbEntity
  8
0
  6
Continuous
 62
     7
370
    25
100
AcDbSpline
210
0.0
220
0.0
230
1.0
 70
    11
 71
     3
 72
    77
 73
    73
 74
     0
 42
0.000000001
 43
0.00000001
 40
0.0
 40
0.0
 40
0.0
 40
0.0
 40
0.0312499999999988
 40
0.0312499999999988
 40
0.0624999999999976
 40
0.0624999999999976
 40
0.0937499999999964
 40
0.0937499999999964
 40
0.1249999999999952
 40
0.1249999999999952
 40
0.156249999999994
 40
0.156249999999994
 40
0.1874999999999928
 40
0.1874999999999928
 40
0.2187499999999916
 40
0.2187499999999916
 40
0.2343749999999914
 40
0.2343749999999914
 40
0.2499999999999911
 40
0.2656249999999908
 40
0.2656249999999908
 40
0.2812499999999906
 40
0.2812499999999906
 40
0.3124999999999901
 40
0.3124999999999901
 40
0.3437499999999896
 40
0.3437499999999896
 40
0.3749999999999892
 40
0.3749999999999892
 40
0.4062499999999888
 40
0.4062499999999888
 40
0.4374999999999884
 40
0.4374999999999884
 40
0.468749999999988
 40
0.468749999999988
 40
0.4999999999999876
 40
0.4999999999999876
 40
0.5312499999999871
 40
0.5312499999999871
 40
0.5624999999999867
 40
0.5624999999999867
 40
0.5937499999999863
 40
0.5937499999999863
 40
0.6249999999999859
 40
0.6249999999999859
 40
0.6562499999999855
 40
0.6562499999999855
 40
0.687499999999985
 40
0.687499999999985
 40
0.7031249999999855
 40
0.7031249999999855
 40
0.7187499999999859
 40
0.7187499999999859
 40
0.7499999999999873
 40
0.7499999999999873
 40
0.7656249999999881
 40
0.7656249999999881
 40
0.7812499999999888
 40
0.7812499999999888
 40
0.8124999999999903
 40
0.8124999999999903
 40
0.843749999999992
 40
0.843749999999992
 40
0.8749999999999936
 40
0.8749999999999936
 40
0.9062499999999951
 40
0.9062499999999951
 40
0.9374999999999967
 40
0.9374999999999967
 40
0.9687499999999983
 40
0.9687499999999983
 40
1.0
 40
1.0
 40
1.0
 40
1.0
 10
266.072358865496
 20
32.98069866463123
 30
0.0
 10
265.9683129638057
 20
33.04076308516989
 30
0.0
 10
265.873824827155
 20
33.10917040778581
 30
0.0
 10
265.7034363647429
 20
33.26196693133289
 30
0.0
 10
265.6271724311227
 20
33.34687007222775
 30
0.0
 10
265.4964712178721
 20
33.53109377413689
 30
0.0
 10
265.4431013225376
 20
33.62865748565119
 30
0.0
 10
265.3607521280712
 20
33.83392356422858
 30
0.0
 10
265.3316313560979
 20
33.94278184321313
 30
0.0
 10
265.3017959905303
 20
34.16509589062746
 30
0.0
 10
265.3009254032941
 20
34.27735040562659
 30
0.0
 10
265.3284375870679
 20
34.50298871206291
 30
0.0
 10
265.3575466485882
 20
34.61788356027864
 30
0.0
 10
265.4455136700815
 20
34.83813021455612
 30
0.0
 10
265.5039233680305
 20
34.94383574470909
 30
0.0
 10
265.6142030880897
 20
35.09492274057967
 30
0.0
 10
265.6550960716704
 20
35.1443492621157
 30
0.0
 10
265.7429113673633
 20
35.23830139461934
 30
0.0
 10
265.836798575692
 20
35.32761834253704
 30
0.0
 10
265.9425763320793
 20
35.40782602782462
 30
0.0
 10
266.0543636432142
 20
35.4834445054442
 30
0.0
 10
266.1136769660427
 20
35.51916347479178
 30
0.0
 10
266.2972605406194
 20
35.61730144362161
 30
0.0
 10
266.427031987147
 20
35.67102039187122
 30
0.0
 10
266.7005925638121
 20
35.75687109800332
 30
0.0
 10
266.8441331930928
 20
35.78856516122708
 30
0.0
 10
267.1320605843413
 20
35.82936943046482
 30
0.0
 10
267.2792666427774
 20
35.83899351681508
 30
0.0
 10
267.5716626412648
 20
35.83817919718054
 30
0.0
 10
267.7153442076396
 20
35.82794513298035
 30
0.0
 10
267.9979051159368
 20
35.79026492418797
 30
0.0
 10
268.1374083108318
 20
35.76248543085317
 30
0.0
 10
268.4016662070322
 20
35.69307564796996
 30
0.0
 10
268.5277087786708
 20
35.65135173783246
 30
0.0
 10
268.7676958265968
 20
35.55466877438818
 30
0.0
 10
268.8806626852914
 20
35.49992832569145
 30
0.0
 10
269.0864576231471
 20
35.38142972786525
 30
0.0
 10
269.1803339249524
 20
35.31727054072651
 30
0.0
 10
269.3493810257713
 20
35.17852738692079
 30
0.0
 10
269.4231100402985
 20
35.10494396062482
 30
0.0
 10
269.5462109149116
 20
34.95176659498687
 30
0.0
 10
269.5961477920007
 20
34.87173871106111
 30
0.0
 10
269.6710584886209
 20
34.70315407234575
 30
0.0
 10
269.6950422383974
 20
34.61645508863004
 30
0.0
 10
269.7152533151159
 20
34.43964467578171
 30
0.0
 10
269.7116752661207
 20
34.34897515776716
 30
0.0
 10
269.6744034533108
 20
34.1620111849919
 30
0.0
 10
269.6414038224077
 20
34.06902997296429
 30
0.0
 10
269.5704840333171
 20
33.92937698781939
 30
0.0
 10
269.5432474946832
 20
33.88279860895092
 30
0.0
 10
269.4812475534246
 20
33.78945682528185
 30
0.0
 10
269.4462921803773
 20
33.74252067134749
 30
0.0
 10
269.3326705765255
 20
33.60509210101383
 30
0.0
 10
269.2446735650068
 20
33.51673193336998
 30
0.0
 10
269.0941237048301
 20
33.3889055355229
 30
0.0
 10
269.0404496121772
 20
33.34684645685797
 30
0.0
 10
268.9292342838698
 20
33.26632290197273
 30
0.0
 10
268.8715613934292
 20
33.22770085055017
 30
0.0
 10
268.6925098502261
 20
33.11668426628009
 30
0.0
 10
268.5636387209382
 20
33.04843030452231
 30
0.0
 10
268.2969083064177
 20
32.92933610413571
 30
0.0
 10
268.1601842438
 20
32.87873642083531
 30
0.0
 10
267.8799541833848
 20
32.79563302048641
 30
0.0
 10
267.7373292215601
 20
32.76363645555099
 30
0.0
 10
267.4565409928238
 20
32.72075451958491
 30
0.0
 10
267.3159279322738
 20
32.70943603807221
 30
0.0
 10
267.0407162268688
 20
32.70810429070037
 30
0.0
 10
266.9076366290435
 20
32.71792778437616
 30
0.0
 10
266.6496627196998
 20
32.75820921164733
 30
0.0
 10
266.5239400805407
 20
32.78907244144959
 30
0.0
 10
266.2877501666915
 20
32.87026242250746
 30
0.0
 10
266.1764047671862
 20
32.92063424409257
 30
0.0
 10
266.072358865496
 20
32.98069866463123
 30
0.0
  0
LWPOLYLINE
  5
206
330
1F
100
AcDbEntity
  8
0
  6
Continuous
 62
     7
370
    25
100
AcDbPolyline
 90
       16
 70
   128
 43
0.0
 10
268.7286397752
 20
24.4442184855
 10
268.7800826379
 20
24.900449639
 10
268.9632376951
 20
25.7034076438
 10
269.2606657001
 20
26.5176752241
 10
269.660936296
 20
27.311960357
 10
270.1486673649
 20
28.0557392202
 10
270.7051157422
 20
28.7204289131
 10
271.3088974587
 20
29.2804853786
 10
271.9368094808
 20
29.7143863433
 10
272.5647215029
 20
30.0054571678
 10
273.1685032194
 20
30.1425122338
 10
273.7249515967
 20
30.1202841622
 10
274.2126826656
 20
29.9396276047
 10
274.6129532615
 20
29.6074850648
 10
274.9103812665
 20
29.1366205496
 10
275.0228287291
 20
28.8348556614
  0
ARC
  5
207
330
1F
100
AcDbEntity
  8
0
  6
Continuous
 62
     7
370
    25
100
AcDbCircle
 10
270.5261083019
 20
23.7717487028
 30
0.0
 40
1.930372549028633
100
AcDbArc
 50
249.2431221449
 51
284.9209914068
  0
SPLINE
  5
208
330
1F
100
AcDbEntity
  8
0
  6
Continuous
 62
     7
370
    25
100
AcDbSpline
210
0.0
220
0.0
230
1.0
 70
     8
 71
     3
 72
    14
 73
    10
 74
     0
 42
0.000000001
 43
0.00000001
 40
0.0
 40
0.0
 40
0.0
 40
0.0
 40
0.25
 40
0.25
 40
0.5
 40
0.5
 40
0.75
 40
0.75
 40
1.0
 40
1.0
 40
1.0
 40
1.0
 10
276.3282179550567
 20
23.86174323889438
 30
0.0
 10
276.2857909296199
 20
23.82732510157025
 30
0.0
 10
276.2427818362739
 20
23.78782006579871
 30
0.0
 10
276.1632643338399
 20
23.69870690780671
 30
0.0
 10
276.1269721594335
 20
23.64922508415146
 30
0.0
 10
276.0661845351706
 20
23.54391520780695
 30
0.0
 10
276.0413297576688
 20
23.48727911134984
 30
0.0
 10
276.0041847146696
 20
23.37457596176485
 30
0.0
 10
275.9913371631134
 20
23.31693398004484
 30
0.0
 10
275.9828259583667
 20
23.26350675385535
 30
0.0
  0
LINE
  5
209
330
1F
100
AcDbEntity
  8
0
  6
Continuous
 62
     7
370
    25
100
AcDbLine
 10
275.6645390284
 20
19.2270501071
 30
0.0
 11
275.5924519478
 21
19.2717790285
 31
0.0
  0
LWPOLYLINE
  5
20A
330
1F
100
AcDbEntity
  8
0
  6
Continuous
 62
     7
370
    25
100
AcDbPolyline
 90
       17
 70
   128
 43
0.0
 10
270.6440801908
 20
22.1252993031
 10
270.518778598
 20
22.207324702
 10
270.1787078604
 20
22.5651312081
 10
269.9452311126
 20
23.0537089832
 10
269.8284433478
 20
23.651932134
 10
269.833394944
 20
24.3339342771
 10
269.9598712155
 20
25.0702258224
 10
270.2024037736
 20
25.8289702188
 10
270.550505626
 20
26.5773597524
 10
270.9891250797
 20
27.2830349075
 10
271.4992965466
 20
27.9154824644
 10
272.0589605555
 20
28.4473560372
 10
272.643917695
 20
28.8556581482
 10
273.2288748344
 20
29.1227331746
 10
273.7885388434
 20
29.2370339123
 10
274.2987103103
 20
29.1936177932
 10
274.6437551991
 20
29.0536901878
  0
LWPOLYLINE
  5
20B
330
1F
100
AcDbEntity
  8
0
  6
Continuous
 62
     7
370
    25
100
AcDbPolyline
 90
        9
 70
   128
 43
0.0
 10
275.9828262661
 20
23.2635064494
 10
275.9748093099
 20
23.1271948939
 10
275.9963101296
 20
23.0099544037
 10
276.0458901346
 20
22.9196296689
 10
276.120231907
 20
22.8622640192
 10
276.2143612955
 20
22.8416959774
 10
276.3219799805
 20
22.8593015268
 10
276.4358876008
 20
22.9139029107
 10
276.5484624918
 20
23.0018467249
  0
LWPOLYLINE
  5
20C
330
1F
100
AcDbEntity
  8
0
  6
Continuous
 62
     7
370
    25
100
AcDbPolyline
 90
        9
 70
   128
 43
0.0
 10
276.837582217
 20
23.502616777
 10
276.8574613707
 20
23.6440900971
 10
276.8478004405
 20
23.7700492765
 10
276.80924587
 20
23.8720662819
 10
276.7443773426
 20
23.9433156218
 10
276.6575350783
 20
23.9790297846
 10
276.5545298269
 20
23.9768192785
 10
276.4422534213
 20
23.9368318421
 10
276.3282183726
 20
23.8617431246
  0
SPLINE
  5
20D
330
1F
100
AcDbEntity
  8
0
  6
Continuous
 62
     7
370
    25
100
AcDbSpline
210
0.0
220
0.0
230
1.0
 70
     8
 71
     3
 72
    14
 73
    10
 74
     0
 42
0.000000001
 43
0.00000001
 40
0.0
 40
0.0
 40
0.0
 40
0.0
 40
0.25
 40
0.25
 40
0.5
 40
0.5
 40
0.75
 40
0.75
 40
1.0
 40
1.0
 40
1.0
 40
1.0
 10
276.5484620433239
 20
23.00184686654035
 30
0.0
 10
276.5821947033517
 20
23.03356151914432
 30
0.0
 10
276.6126682847433
 20
23.07044131158264
 30
0.0
 10
276.6699687843432
 20
23.15007118638028
 30
0.0
 10
276.6963800013575
 20
23.1920132177446
 30
0.0
 10
276.7466779921141
 20
23.27911194615378
 30
0.0
 10
276.7700686007828
 20
23.32351332129637
 30
0.0
 10
276.8100680797654
 20
23.41223165773008
 30
0.0
 10
276.8269836148989
 20
23.45755430390042
 30
0.0
 10
276.8375818700994
 20
23.5026170945213
 30
0.0
  0
LINE
  5
20E
330
1F
100
AcDbEntity
  8
0
  6
Continuous
 62
     7
370
    25
100
AcDbLine
 10
273.8289603053
 20
29.2901771616
 30
0.0
 11
273.8801636225
 21
29.2806999362
 31
0.0
  0
LINE
  5
20F
330
1F
100
AcDbEntity
  8
0
  6
Continuous
 62
     7
370
    25
100
AcDbLine
 10
270.1762465503
 20
22.5397075494
 30
0.0
 11
270.0590751834
 21
22.6160742464
 31
0.0
  0
LWPOLYLINE
  5
210
330
1F
100
AcDbEntity
  8
0
  6
Continuous
 62
     7
370
    25
100
AcDbPolyline
 90
       18
 70
   128
 43
0.0
 10
235.5757736493
 20
45.5460068062
 10
235.9372724373
 20
45.434783169
 10
236.3343592998
 20
45.4847823929
 10
236.713404677
 20
45.6892524513
 10
237.0232162822
 20
46.0205779271
 10
237.221954478
 20
46.434011245
 10
237.2827740268
 20
46.873717364
 10
237.1974632078
 20
47.2803114247
 10
236.9775445742
 20
47.5988789409
 10
236.6527161786
 20
47.7863983823
 10
236.2668528901
 20
47.8175413258
 10
235.8720636894
 20
47.6881031071
 10
235.5216689496
 20
47.4155651876
 10
235.2629926668
 20
47.0367333908
 10
235.1309670053
 20
46.6027742742
 10
235.143423704
 20
46.1722948782
 10
235.2986818279
 20
45.8034336809
 10
235.5757736493
 20
45.5460068062
  0
LINE
  5
211
330
1F
100
AcDbEntity
  8
0
  6
Continuous
 62
     7
370
    25
100
AcDbLine
 10
231.6986126149
 20
61.8188586065
 30
0.0
 11
231.7768654831
 21
61.7353687883
 31
0.0
  0
LINE
  5
212
330
1F
100
AcDbEntity
  8
0
  6
Continuous
 62
     7
370
    25
100
AcDbLine
 10
220.9059989817
 20
42.9035034716
 30
0.0
 11
220.8365584268
 21
42.919311836
 31
0.0
  0
ARC
  5
213
330
1F
100
AcDbEntity
  8
0
  6
Continuous
 62
     7
370
    25
100
AcDbCircle
 10
238.1923319567
 20
45.4146004587
 30
0.0
 40
24.73950838846778
100
AcDbArc
 50
126.7559191454
 51
166.0648915353
  0
SPLINE
  5
214
330
1F
100
AcDbEntity
  8
0
  6
Continuous
 62
     7
370
    25
100
AcDbSpline
210
0.0
220
0.0
230
1.0
 70
     8
 71
     3
 72
    10
 73
     6
 74
     0
 42
0.000000001
 43
0.00000001
 40
0.0
 40
0.0
 40
0.0
 40
0.0
 40
0.5
 40
0.5
 40
1.0
 40
1.0
 40
1.0
 40
1.0
 10
214.0918424343119
 20
50.99869683525854
 30
0.0
 10
214.0353137485293
 20
50.96606351957593
 30
0.0
 10
213.9566704259546
 20
50.94569054411695
 30
0.0
 10
213.7964405116235
 20
50.94262914415561
 30
0.0
 10
213.7152734990828
 20
50.96028834403585
 30
0.0
 10
213.658159598745
 20
50.99325949689016
 30
0.0
  0
SPLINE
  5
215
330
1F
100
AcDbEntity
  8
0
  6
Continuous
 62
     7
370
    25
100
AcDbSpline
210
0.0
220
0.0
230
1.0
 70
     8
 71
     3
 72
    12
 73
     8
 74
     0
 42
0.000000001
 43
0.00000001
 40
0.0
 40
0.0
 40
0.0
 40
0.0
 40
0.2500000000000033
 40
0.2500000000000033
 40
0.5000000000000067
 40
0.5000000000000067
 40
1.0
 40
1.0
 40
1.0
 40
1.0
 10
231.3488815050897
 20
67.51722137514527
 30
0.0
 10
231.3807858334345
 20
67.4988033984295
 30
0.0
 10
231.4129231698754
 20
67.46888885779745
 30
0.0
 10
231.4675814763015
 20
67.39849143785453
 30
0.0
 10
231.490554815632
 20
67.3581107411787
 30
0.0
 10
231.5442366045696
 20
67.23558691114333
 30
0.0
 10
231.5610135394457
 20
67.15078558953765
 30
0.0
 10
231.5610135394457
 20
67.07723299390403
 30
0.0
  0
LINE
  5
216
330
1F
100
AcDbEntity
  8
0
  6
Continuous
 62
     7
370
    25
100
AcDbLine
 10
213.6581598719
 20
50.9932592069
 30
0.0
 11
212.2587712317
 21
51.8011090733
 31
0.0
  0
LWPOLYLINE
  5
217
330
1F
100
AcDbEntity
  8
0
  6
Continuous
 62
     7
370
    25
100
AcDbPolyline
 90
       20
 70
   128
 43
0.0
 10
212.2587712317
 20
51.8011090733
 10
212.6438011321
 20
53.2747089621
 10
213.1385241327
 20
54.7591123403
 10
213.7376639748
 20
56.2384906679
 10
214.4348321181
 20
57.697070643
 10
215.2225962295
 20
59.1193003561
 10
216.0925565736
 20
60.4900150641
 10
217.035436234
 20
61.7945991606
 10
218.0411825287
 20
63.0191435818
 10
219.0990717191
 20
64.1505906652
 10
220.1978234315
 20
65.1768754898
 10
221.3257226531
 20
66.0870571394
 10
222.4707430441
 20
66.8714294338
 10
223.6206758067
 20
67.521630304
 10
224.7632597889
 20
68.0307260257
 10
225.8863122876
 20
68.3932890112
 10
226.9778583706
 20
68.6054519332
 10
228.0262599102
 20
68.6649540771
 10
229.0203377841
 20
68.5711601744
 10
229.949493377
 20
68.3250712284
  0
LINE
  5
218
330
1F
100
AcDbEntity
  8
0
  6
Continuous
 62
     7
370
    25
100
AcDbLine
 10
229.949493377
 20
68.3250712284
 30
0.0
 11
231.3488820172
 21
67.5172213619
 31
0.0
  0
LINE
  5
219
330
1F
100
AcDbEntity
  8
0
  6
Continuous
 62
     7
370
    25
100
AcDbLine
 10
233.8767880877
 20
62.0120327209
 30
0.0
 11
235.0952890395
 21
62.7154583476
 31
0.0
  0
LINE
  5
21A
330
1F
100
AcDbEntity
  8
0
  6
Continuous
 62
     7
370
    25
100
AcDbLine
 10
233.8767880877
 20
59.6729194956
 30
0.0
 11
233.8767880877
 21
62.0120327209
 31
0.0
  0
LINE
  5
21B
330
1F
100
AcDbEntity
  8
0
  6
Continuous
 62
     7
370
    25
100
AcDbLine
 10
214.091842382
 20
43.6498297828
 30
0.0
 11
215.2091691655
 21
44.2948488053
 31
0.0
  0
LINE
  5
21C
330
1F
100
AcDbEntity
  8
0
  6
Continuous
 62
     7
370
    25
100
AcDbLine
 10
215.2091691655
 20
44.2948488053
 30
0.0
 11
215.2091691655
 21
51.6437157959
 31
0.0
  0
LINE
  5
21D
330
1F
100
AcDbEntity
  8
0
  6
Continuous
 62
     7
370
    25
100
AcDbLine
 10
215.2091691655
 20
51.6437157959
 30
0.0
 11
214.091842382
 21
50.9986967734
 31
0.0
  0
LINE
  5
21E
330
1F
100
AcDbEntity
  8
0
  6
Continuous
 62
     7
370
    25
100
AcDbLine
 10
231.5610136912
 20
67.0772328753
 30
0.0
 11
231.5610136912
 21
65.5131690749
 31
0.0
  0
LINE
  5
21F
330
1F
100
AcDbEntity
  8
0
  6
Continuous
 62
     7
370
    25
100
AcDbLine
 10
232.9154593029
 20
66.2950738833
 30
0.0
 11
231.5610136912
 21
65.5131690749
 31
0.0
  0
LWPOLYLINE
  5
220
330
1F
100
AcDbEntity
  8
0
  6
Continuous
 62
     7
370
    25
100
AcDbPolyline
 90
       18
 70
   128
 43
0.0
 10
211.3349887035
 20
53.4320908659
 10
211.7502523823
 20
54.9002890114
 10
212.2815081394
 20
56.374341343
 10
212.9221349684
 20
57.8358768393
 10
213.6641486757
 20
59.2666789807
 10
214.4983006622
 20
60.6489161604
 10
215.4141944857
 20
61.9653606869
 10
216.4004162529
 20
63.1996058839
 10
217.4446739012
 20
64.3362689305
 10
218.533951957
 20
65.3611821036
 10
219.6546748545
 20
66.2615729916
 10
220.7928748029
 20
67.0262184373
 10
221.9343657864
 20
67.6455898527
 10
223.0649212473
 20
68.1119664406
 10
224.1704505351
 20
68.4195362952
 10
225.2371754171
 20
68.5644663605
 10
226.2518005382
 20
68.5449498834
 10
226.4500547038
 20
68.5209223264
  0
SPLINE
  5
221
330
1F
100
AcDbEntity
  8
0
  6
Continuous
 62
     7
370
    25
100
AcDbSpline
210
0.0
220
0.0
230
1.0
 70
     8
 71
     3
 72
     8
 73
     4
 74
     0
 42
0.000000001
 43
0.00000001
 40
0.0
 40
0.0
 40
0.0
 40
0.0
 40
1.0
 40
1.0
 40
1.0
 40
1.0
 10
211.334988743354
 20
53.43209106673682
 30
0.0
 10
210.8436877143014
 20
53.34944384653294
 30
0.0
 10
210.3521076233987
 20
53.2673600590425
 30
0.0
 10
209.8603128246468
 20
53.18570977196075
 30
0.0
  0
LWPOLYLINE
  5
222
330
1F
100
AcDbEntity
  8
0
  6
Continuous
 62
     7
370
    25
100
AcDbPolyline
 90
       20
 70
   128
 43
0.0
 10
209.8603129503
 20
53.1857095672
 10
210.2453428506
 20
54.6593094559
 10
210.7400658512
 20
56.1437128341
 10
211.3392056933
 20
57.6230911618
 10
212.0363738367
 20
59.0816711369
 10
212.824137948
 20
60.5039008499
 10
213.6940982921
 20
61.874615558
 10
214.6369779525
 20
63.1791996544
 10
215.6427242472
 20
64.4037440756
 10
216.7006134376
 20
65.5351911591
 10
217.79936515
 20
66.5614759836
 10
218.9272643716
 20
67.4716576333
 10
220.0722847627
 20
68.2560299276
 10
221.2222175253
 20
68.9062307979
 10
222.3648015074
 20
69.4153265195
 10
223.4878540061
 20
69.777889505
 10
224.5794000891
 20
69.990052427
 10
225.6278016288
 20
70.0495545709
 10
226.6218795026
 20
69.9557606682
 10
227.5510350955
 20
69.7096717222
  0
LINE
  5
223
330
1F
100
AcDbEntity
  8
0
  6
Continuous
 62
     7
370
    25
100
AcDbLine
 10
227.5510350955
 20
69.7096717222
 30
0.0
 11
227.8973985551
 21
68.5906165377
 31
0.0
  0
LINE
  5
224
330
1F
100
AcDbEntity
  8
0
  6
Continuous
 62
     7
370
    25
100
AcDbLine
 10
224.1363925888
 20
71.6809028825
 30
0.0
 11
227.5510350955
 21
69.7096717222
 31
0.0
  0
LINE
  5
225
330
1F
100
AcDbEntity
  8
0
  6
Continuous
 62
     7
370
    25
100
AcDbLine
 10
209.8603129503
 20
53.1857095672
 30
0.0
 11
209.2740977027
 21
53.5241244262
 31
0.0
  0
SPLINE
  5
226
330
1F
100
AcDbEntity
  8
0
  6
Continuous
 62
     7
370
    25
100
AcDbSpline
210
0.0
220
0.0
230
1.0
 70
     8
 71
     3
 72
    28
 73
    24
 74
     0
 42
0.000000001
 43
0.00000001
 40
0.0
 40
0.0
 40
0.0
 40
0.0
 40
0.1250000000000001
 40
0.1250000000000001
 40
0.1875000000000001
 40
0.1875000000000001
 40
0.2500000000000001
 40
0.2500000000000001
 40
0.3749999999999999
 40
0.3749999999999999
 40
0.4375
 40
0.4375
 40
0.4999999999999999
 40
0.4999999999999999
 40
0.6249999999999999
 40
0.6249999999999999
 40
0.7499999999999997
 40
0.7499999999999997
 40
0.8124999999999998
 40
0.8124999999999998
 40
0.8749999999999998
 40
0.8749999999999998
 40
1.0
 40
1.0
 40
1.0
 40
1.0
 10
209.2740975553884
 20
53.52412464354056
 30
0.0
 10
209.086110474922
 20
53.63264727512464
 30
0.0
 10
208.8958905203213
 20
53.71459099567254
 30
0.0
 10
208.6077919183733
 20
53.79974872571101
 30
0.0
 10
208.5113020477737
 20
53.82179865611481
 30
0.0
 10
208.3175638749388
 20
53.85307247957377
 30
0.0
 10
208.2203128544075
 20
53.8621997308972
 30
0.0
 10
207.9342909795221
 20
53.8699825730056
 30
0.0
 10
207.7489491631655
 20
53.84967602936853
 30
0.0
 10
207.4804365763497
 20
53.7824553762354
 30
0.0
 10
207.392075916684
 20
53.75366901862981
 30
0.0
 10
207.2217232063943
 20
53.68465712853465
 30
0.0
 10
207.1396961766128
 20
53.64451723862452
 30
0.0
 10
206.9032599228602
 20
53.50789747086131
 30
0.0
 10
206.7583926727379
 20
53.39538298117224
 30
0.0
 10
206.4975358792538
 20
53.12712601617277
 30
0.0
 10
206.3852434717514
 20
52.97497262979549
 30
0.0
 10
206.2460189902976
 20
52.72305624209719
 30
0.0
 10
206.2044232039318
 20
52.63501395642081
 30
0.0
 10
206.1312984888706
 20
52.45067290136898
 30
0.0
 10
206.0996740048176
 20
52.35388413868721
 30
0.0
 10
206.0221807013955
 20
52.05586905979039
 30
0.0
 10
205.9930059860056
 20
51.84639618265387
 30
0.0
 10
205.9870391032638
 20
51.62601538997001
 30
0.0
  0
ARC
  5
227
330
1F
100
AcDbEntity
  8
0
  6
Continuous
 62
     7
370
    25
100
AcDbCircle
 10
220.831588941
 20
51.2177449208
 30
0.0
 40
14.85016324623454
100
AcDbArc
 50
178.4245883564
 51
181.5754116436
  0
SPLINE
  5
228
330
1F
100
AcDbEntity
  8
0
  6
Continuous
 62
     7
370
    25
100
AcDbSpline
210
0.0
220
0.0
230
1.0
 70
     8
 71
     3
 72
    30
 73
    26
 74
     0
 42
0.000000001
 43
0.00000001
 40
0.0
 40
0.0
 40
0.0
 40
0.0
 40
0.1250000000000003
 40
0.1250000000000003
 40
0.1875000000000005
 40
0.1875000000000005
 40
0.2500000000000007
 40
0.2500000000000007
 40
0.3750000000000011
 40
0.3750000000000011
 40
0.4375000000000012
 40
0.4375000000000012
 40
0.5000000000000012
 40
0.5000000000000012
 40
0.6250000000000014
 40
0.6250000000000014
 40
0.6875000000000012
 40
0.6875000000000012
 40
0.7500000000000011
 40
0.7500000000000011
 40
0.8125000000000009
 40
0.8125000000000009
 40
0.8750000000000008
 40
0.8750000000000008
 40
1.0
 40
1.0
 40
1.0
 40
1.0
 10
205.9870391032638
 20
50.80947457808426
 30
0.0
 10
205.9930067019554
 20
50.59595738530954
 30
0.0
 10
206.0221519219548
 20
50.37840748729041
 30
0.0
 10
206.0985865832137
 20
50.04610845775482
 30
0.0
 10
206.129552566791
 20
49.93433415645525
 30
0.0
 10
206.2025225076067
 20
49.70863228292026
 30
0.0
 10
206.2446587061652
 20
49.59454451034774
 30
0.0
 10
206.3845504955297
 20
49.25638178298654
 30
0.0
 10
206.4963944200719
 20
49.03387156371377
 30
0.0
 10
206.6901810172165
 20
48.70326130776421
 30
0.0
 10
206.7595216548198
 20
48.59303466805806
 30
0.0
 10
206.9050140392665
 20
48.37630466760452
 30
0.0
 10
206.9809013299855
 20
48.2701077319738
 30
0.0
 10
207.2172892784569
 20
47.95746955872419
 30
0.0
 10
207.3864347807078
 20
47.75692701088902
 30
0.0
 10
207.6563007780419
 20
47.46682217146669
 30
0.0
 10
207.7484922840927
 20
47.37247875509424
 30
0.0
 10
207.9340908791274
 20
47.19117372703384
 30
0.0
 10
208.0279197594143
 20
47.10375439353968
 30
0.0
 10
208.2173698098796
 20
46.93514684321504
 30
0.0
 10
208.3129912250853
 20
46.85395865744569
 30
0.0
 10
208.5058529145117
 20
46.69779597789756
 30
0.0
 10
208.6035878234101
 20
46.62246899820085
 30
0.0
 10
208.8948437785305
 20
46.40917876475701
 30
0.0
 10
209.0861011695036
 20
46.28378534005658
 30
0.0
 10
209.2740975553884
 20
46.17525733656881
 30
0.0
  0
LINE
  5
229
330
1F
100
AcDbEntity
  8
0
  6
Continuous
 62
     7
370
    25
100
AcDbLine
 10
209.2740977027
 20
46.1752574356
 30
0.0
 11
209.8603129503
 21
45.8368425765
 31
0.0
  0
ARC
  5
22A
330
1F
100
AcDbEntity
  8
0
  6
Continuous
 62
     7
370
    25
100
AcDbCircle
 10
215.7242120431
 20
47.2683468918
 30
0.0
 40
6.036101156838018
100
AcDbArc
 50
193.7188113049
 51
252.9033667284
  0
LINE
  5
22B
330
1F
100
AcDbEntity
  8
0
  6
Continuous
 62
     7
370
    25
100
AcDbLine
 10
229.1804526738
 20
68.7687231897
 30
0.0
 11
229.5147647689
 21
68.4613944693
 31
0.0
  0
LINE
  5
22C
330
1F
100
AcDbEntity
  8
0
  6
Continuous
 62
     7
370
    25
100
AcDbLine
 10
228.327523937
 20
69.2611084688
 30
0.0
 11
229.1804526738
 21
68.7687231897
 31
0.0
  0
SPLINE
  5
22D
330
1F
100
AcDbEntity
  8
0
  6
Continuous
 62
     7
370
    25
100
AcDbSpline
210
0.0
220
0.0
230
1.0
 70
     8
 71
     3
 72
    20
 73
    16
 74
     0
 42
0.000000001
 43
0.00000001
 40
0.0
 40
0.0
 40
0.0
 40
0.0
 40
0.2499999999999997
 40
0.2499999999999997
 40
0.3749999999999997
 40
0.3749999999999997
 40
0.4999999999999998
 40
0.4999999999999998
 40
0.6249999999999998
 40
0.6249999999999998
 40
0.7499999999999999
 40
0.7499999999999999
 40
0.8749999999999999
 40
0.8749999999999999
 40
1.0
 40
1.0
 40
1.0
 40
1.0
 10
224.1363923369869
 20
71.680902745441
 30
0.0
 10
224.4553809913849
 20
71.5470123561812
 30
0.0
 10
224.7818365914829
 20
71.38711600911923
 30
0.0
 10
225.294186708866
 20
71.1091970816497
 30
0.0
 10
225.4687900755439
 20
71.0101980688394
 30
0.0
 10
225.8286639378927
 20
70.7992573639407
 30
0.0
 10
226.0115243542462
 20
70.68870154673067
 30
0.0
 10
226.3778194434235
 20
70.46328367771983
 30
0.0
 10
226.5623029596821
 20
70.34780307634037
 30
0.0
 10
226.9358877839176
 20
70.1129707320446
 30
0.0
 10
227.1202372551568
 20
69.99664080676935
 30
0.0
 10
227.4809471616333
 20
69.77094611996996
 30
0.0
 10
227.6580011508871
 20
69.66113614587327
 30
0.0
 10
228.0057305022395
 20
69.44974138233736
 30
0.0
 10
228.1709809186978
 20
69.35147854719435
 30
0.0
 10
228.3275238334792
 20
69.26110824607699
 30
0.0
  0
SPLINE
  5
22E
330
1F
100
AcDbEntity
  8
0
  6
Continuous
 62
     7
370
    25
100
AcDbSpline
210
0.0
220
0.0
230
1.0
 70
    11
 71
     3
 72
    70
 73
    66
 74
     0
 42
0.000000001
 43
0.00000001
 40
0.0
 40
0.0
 40
0.0
 40
0.0
 40
0.0312499999999999
 40
0.0312499999999999
 40
0.0624999999999998
 40
0.0624999999999998
 40
0.0937499999999997
 40
0.0937499999999997
 40
0.1249999999999996
 40
0.1249999999999996
 40
0.1562499999999994
 40
0.1562499999999994
 40
0.1874999999999993
 40
0.1874999999999993
 40
0.2187499999999992
 40
0.2187499999999992
 40
0.2499999999999991
 40
0.2499999999999991
 40
0.281249999999999
 40
0.281249999999999
 40
0.3124999999999989
 40
0.3124999999999989
 40
0.3437499999999988
 40
0.3437499999999988
 40
0.3749999999999987
 40
0.3749999999999987
 40
0.4062499999999986
 40
0.4062499999999986
 40
0.4374999999999984
 40
0.4374999999999984
 40
0.4687499999999983
 40
0.4687499999999983
 40
0.4999999999999982
 40
0.4999999999999982
 40
0.5312499999999982
 40
0.5312499999999982
 40
0.5624999999999982
 40
0.5624999999999982
 40
0.5937499999999982
 40
0.5937499999999982
 40
0.6249999999999982
 40
0.6249999999999982
 40
0.6562499999999982
 40
0.6562499999999982
 40
0.6874999999999982
 40
0.6874999999999982
 40
0.7187499999999982
 40
0.7187499999999982
 40
0.7499999999999982
 40
0.7499999999999982
 40
0.7812499999999984
 40
0.7812499999999984
 40
0.8124999999999987
 40
0.8124999999999987
 40
0.8437499999999989
 40
0.8437499999999989
 40
0.8749999999999991
 40
0.8749999999999991
 40
0.9062499999999993
 40
0.9062499999999993
 40
0.9374999999999996
 40
0.9374999999999996
 40
0.9687499999999998
 40
0.9687499999999998
 40
1.0
 40
1.0
 40
1.0
 40
1.0
 10
221.9517530157348
 20
71.29640267511522
 30
0.0
 10
221.8582221142859
 20
71.35039691522198
 30
0.0
 10
221.7749979892828
 20
71.40491963059642
 30
0.0
 10
221.6282369137855
 20
71.51480769491
 30
0.0
 10
221.5641750307075
 20
71.57078292884917
 30
0.0
 10
221.4600429409866
 20
71.67974996325441
 30
0.0
 10
221.419815482944
 20
71.7326016617134
 30
0.0
 10
221.362544605834
 20
71.83435971386513
 30
0.0
 10
221.345741381817
 20
71.88343058746815
 30
0.0
 10
221.336897494907
 20
71.97253326327606
 30
0.0
 10
221.3444216277298
 20
72.01314352881543
 30
0.0
 10
221.3837080084852
 20
72.08542297471304
 30
0.0
 10
221.415314274392
 20
72.11638650605063
 30
0.0
 10
221.5000978330966
 20
72.16613703829078
 30
0.0
 10
221.5539109223418
 20
72.18528559466495
 30
0.0
 10
221.682292191586
 20
72.21032265643133
 30
0.0
 10
221.7556225363569
 20
72.21610473567408
 30
0.0
 10
221.9200627372172
 20
72.21435555524236
 30
0.0
 10
222.0123049551225
 20
72.20659451148943
 30
0.0
 10
222.2080467604865
 20
72.17814400464886
 30
0.0
 10
222.3118581404671
 20
72.15759209897993
 30
0.0
 10
222.5316241194964
 20
72.10422593341728
 30
0.0
 10
222.6472538358024
 20
72.07137357168428
 30
0.0
 10
222.8810899059468
 20
71.99682077447274
 30
0.0
 10
223.0006048433048
 20
71.95480213921209
 30
0.0
 10
223.2446657762008
 20
71.86201524297758
 30
0.0
 10
223.3654113183443
 20
71.81270823390214
 30
0.0
 10
223.6047795164697
 20
71.70931555984549
 30
0.0
 10
223.7246864573146
 20
71.65459594321773
 30
0.0
 10
223.9553237877978
 20
71.54424554725587
 30
0.0
 10
224.0658327395097
 20
71.48879914575933
 30
0.0
 10
224.2774739475483
 20
71.37785216680051
 30
0.0
 10
224.3790024562076
 20
71.32206348281248
 30
0.0
 10
224.5637334909733
 20
71.21544175984648
 30
0.0
 10
224.648145059614
 20
71.16400288974681
 30
0.0
 10
224.8006006264536
 20
71.06478667640474
 30
0.0
 10
224.867195892623
 20
71.01789262125554
 30
0.0
 10
224.978462892836
 20
70.93105207842908
 30
0.0
 10
225.0239714256839
 20
70.89044052637739
 30
0.0
 10
225.0915366085631
 20
70.81639714944929
 30
0.0
 10
225.1133053001336
 20
70.7834317609297
 30
0.0
 10
225.133085889524
 20
70.72456135787746
 30
0.0
 10
225.1307979012065
 20
70.698485824873
 30
0.0
 10
225.1016706853344
 20
70.65474689241825
 30
0.0
 10
225.0751365038127
 20
70.6368170223208
 30
0.0
 10
224.9975756929322
 20
70.6082039398318
 30
0.0
 10
224.9463891258616
 20
70.59767704843709
 30
0.0
 10
224.8234722602416
 20
70.58441479969078
 30
0.0
 10
224.7513378008173
 20
70.58150443505349
 30
0.0
 10
224.5848708838823
 20
70.58328348496819
 30
0.0
 10
224.4933076875226
 20
70.5879407918347
 30
0.0
 10
224.2942616131386
 20
70.60464492331293
 30
0.0
 10
224.1854626188811
 20
70.61688985021337
 30
0.0
 10
223.9582409777846
 20
70.64873975895264
 30
0.0
 10
223.8402482154263
 20
70.66820731811418
 30
0.0
 10
223.5957852084613
 20
70.71488815622918
 30
0.0
 10
223.4686907189847
 20
70.7423249752132
 30
0.0
 10
223.2169624987732
 20
70.80361261096304
 30
0.0
 10
223.0910271192232
 20
70.83767445409433
 30
0.0
 10
222.8392588228318
 20
70.91371581105619
 30
0.0
 10
222.715775194954
 20
70.9550517235134
 30
0.0
 10
222.4789167796525
 20
71.04314770010296
 30
0.0
 10
222.3639500370485
 20
71.09050214438825
 30
0.0
 10
222.1464717290476
 20
71.19047396802341
 30
0.0
 10
222.0452839171838
 20
71.24240843500846
 30
0.0
 10
221.9517530157348
 20
71.29640267511522
 30
0.0
  0
LINE
  5
22F
330
1F
100
AcDbEntity
  8
0
  6
Continuous
 62
     7
370
    25
100
AcDbLine
 10
212.4696035974
 20
52.6578321997
 30
0.0
 11
212.0059757514
 21
52.9254788581
 31
0.0
  0
LINE
  5
230
330
1F
100
AcDbEntity
  8
0
  6
Continuous
 62
     7
370
    25
100
AcDbLine
 10
211.5801575799
 20
53.5736238456
 30
0.0
 11
211.3349887035
 21
53.4320908659
 31
0.0
  0
SPLINE
  5
231
330
1F
100
AcDbEntity
  8
0
  6
Continuous
 62
     7
370
    25
100
AcDbSpline
210
0.0
220
0.0
230
1.0
 70
     8
 71
     3
 72
    14
 73
    10
 74
     0
 42
0.000000001
 43
0.00000001
 40
0.0
 40
0.0
 40
0.0
 40
0.0
 40
0.1249999999999991
 40
0.1249999999999991
 40
0.2499999999999982
 40
0.2499999999999982
 40
0.4999999999999998
 40
0.4999999999999998
 40
1.0
 40
1.0
 40
1.0
 40
1.0
 10
212.0059755057317
 20
52.92547892591485
 30
0.0
 10
211.9817790725666
 20
52.93944722945739
 30
0.0
 10
211.9586036341076
 20
52.96681240545494
 30
0.0
 10
211.9216832416767
 20
53.02461417458046
 30
0.0
 10
211.9066414506441
 20
53.05558465369682
 30
0.0
 10
211.8668279940572
 20
53.14861112662603
 30
0.0
 10
211.8471919756732
 20
53.21122218091079
 30
0.0
 10
211.7967711272037
 20
53.39555293182578
 30
0.0
 10
211.7743539489631
 20
53.51709716672647
 30
0.0
 10
211.7576660507972
 20
53.63622623202883
 30
0.0
  0
SPLINE
  5
232
330
1F
100
AcDbEntity
  8
0
  6
Continuous
 62
     7
370
    25
100
AcDbSpline
210
0.0
220
0.0
230
1.0
 70
     8
 71
     3
 72
    10
 73
     6
 74
     0
 42
0.000000001
 43
0.00000001
 40
0.0
 40
0.0
 40
0.0
 40
0.0
 40
0.5
 40
0.5
 40
1.0
 40
1.0
 40
1.0
 40
1.0
 10
211.7576660507972
 20
53.63622623202883
 30
0.0
 10
211.7242760326094
 20
53.63007646282859
 30
0.0
 10
211.6920366811813
 20
53.62152985498052
 30
0.0
 10
211.632048786919
 20
53.60029388121161
 30
0.0
 10
211.6047869136699
 20
53.58784223520341
 30
0.0
 10
211.5801573477201
 20
53.57362388942655
 30
0.0
  0
LWPOLYLINE
  5
233
330
1F
100
AcDbEntity
  8
0
  6
Continuous
 62
     7
370
    25
100
AcDbPolyline
 90
       22
 70
   128
 43
0.0
 10
204.337402763
 20
52.2860402721
 10
204.3958676859
 20
53.6295289866
 10
204.5706427641
 20
55.0262785437
 10
204.859875512
 20
56.4614830947
 10
205.2604997464
 20
57.9199292971
 10
205.7682685136
 20
59.3861567683
 10
206.377800188
 20
60.8446236728
 10
207.0826324724
 20
62.2798696458
 10
207.8752954963
 20
63.6766808073
 10
208.7473849148
 20
65.0202502124
 10
209.6896580557
 20
66.2963363992
 10
210.6921254574
 20
67.4914120503
 10
211.7441611749
 20
68.5928090413
 10
212.8346135801
 20
69.5888531267
 10
213.9519232414
 20
70.4689844629
 10
215.0842464622
 20
71.2238745528
 10
216.2195804249
 20
71.8455213044
 10
217.3458902494
 20
72.3273345467
 10
218.4512367911
 20
72.6642075251
 10
219.5239030617
 20
72.8525685895
 10
220.5525186316
 20
72.8904225917
 10
220.5921709135
 20
72.8888127734
  0
ARC
  5
234
330
1F
100
AcDbEntity
  8
0
  6
Continuous
 62
     7
370
    25
100
AcDbCircle
 10
213.7045983809
 20
51.8373542045
 30
0.0
 40
9.377935430140505
100
AcDbArc
 50
177.2576441363
 51
212.4910906363
  0
LINE
  5
235
330
1F
100
AcDbEntity
  8
0
  6
Continuous
 62
     7
370
    25
100
AcDbLine
 10
210.6129753222
 20
46.9481750334
 30
0.0
 11
211.7576662764
 21
46.2873590114
 31
0.0
  0
ARC
  5
236
330
1F
100
AcDbEntity
  8
0
  6
Continuous
 62
     7
370
    25
100
AcDbCircle
 10
213.9254113524
 20
52.1265973657
 30
0.0
 40
6.147218094902273
100
AcDbArc
 50
182.6054747885
 51
237.394528727
  0
LINE
  5
237
330
1F
100
AcDbEntity
  8
0
  6
Continuous
 62
     7
370
    25
100
AcDbLine
 10
207.7845480631
 20
52.6636952552
 30
0.0
 11
207.7845480631
 21
51.8471544045
 31
0.0
  0
ARC
  5
238
330
1F
100
AcDbEntity
  8
0
  6
Continuous
 62
     7
370
    25
100
AcDbCircle
 10
210.3415022159
 20
52.7560303522
 30
0.0
 40
2.558620782673649
100
AcDbArc
 50
154.7300572726
 51
182.0681299793
  0
LINE
  5
239
330
1F
100
AcDbEntity
  8
0
  6
Continuous
 62
     7
370
    25
100
AcDbLine
 10
213.039173474
 20
45.5475606533
 30
0.0
 11
215.2091691655
 21
44.2948488053
 31
0.0
  0
SPLINE
  5
23A
330
1F
100
AcDbEntity
  8
0
  6
Continuous
 62
     7
370
    25
100
AcDbSpline
210
0.0
220
0.0
230
1.0
 70
     8
 71
     3
 72
    14
 73
    10
 74
     0
 42
0.000000001
 43
0.00000001
 40
0.0
 40
0.0
 40
0.0
 40
0.0
 40
0.1249999999999997
 40
0.1249999999999997
 40
0.2499999999999993
 40
0.2499999999999993
 40
0.4999999999999996
 40
0.4999999999999996
 40
1.0
 40
1.0
 40
1.0
 40
1.0
 10
212.7908640328488
 20
46.25830773485294
 30
0.0
 10
212.8152933814926
 20
46.24420497206663
 30
0.0
 10
212.8382719355587
 20
46.21692284220695
 30
0.0
 10
212.8751550490504
 20
46.15916943870045
 30
0.0
 10
212.8902801953673
 20
46.12802185702986
 30
0.0
 10
212.9299975558265
 20
46.03518475547387
 30
0.0
 10
212.9494596737156
 20
45.97323428565711
 30
0.0
 10
213.0003277949096
 20
45.78731958015961
 30
0.0
 10
213.0226120223248
 20
45.66578693518632
 30
0.0
 10
213.0391734877833
 20
45.54756042873878
 30
0.0
  0
LINE
  5
23B
330
1F
100
AcDbEntity
  8
0
  6
Continuous
 62
     7
370
    25
100
AcDbLine
 10
212.0059757514
 20
46.7114141378
 30
0.0
 11
212.7908639989
 21
46.2583077972
 31
0.0
  0
SPLINE
  5
23C
330
1F
100
AcDbEntity
  8
0
  6
Continuous
 62
     7
370
    25
100
AcDbSpline
210
0.0
220
0.0
230
1.0
 70
     8
 71
     3
 72
    14
 73
    10
 74
     0
 42
0.000000001
 43
0.00000001
 40
0.0
 40
0.0
 40
0.0
 40
0.0
 40
0.4999999999999968
 40
0.4999999999999968
 40
0.7499999999999967
 40
0.7499999999999967
 40
0.8749999999999983
 40
0.8749999999999983
 40
1.0
 40
1.0
 40
1.0
 40
1.0
 10
211.7576660507972
 20
46.28735892505684
 30
0.0
 10
211.7742901322509
 20
46.38683866928694
 30
0.0
 10
211.7967075338552
 20
46.48267380268295
 30
0.0
 10
211.8471385917039
 20
46.60888975225658
 30
0.0
 10
211.8666732856351
 20
46.64872330095083
 30
0.0
 10
211.9066164429706
 20
46.69598363242269
 30
0.0
 10
211.9216334101362
 20
46.70958624602795
 30
0.0
 10
211.9586947776579
 20
46.72480664760366
 30
0.0
 10
211.9816784400062
 20
46.72544063439755
 30
0.0
 10
212.0059755057317
 20
46.71141423691452
 30
0.0
  0
ARC
  5
23D
330
1F
100
AcDbEntity
  8
0
  6
Continuous
 62
     7
370
    25
100
AcDbCircle
 10
219.4357361391
 20
45.0140975287
 30
0.0
 40
5.923932037712049
100
AcDbArc
 50
195.7801162744
 51
282.1923849816
  0
SPLINE
  5
23E
330
1F
100
AcDbEntity
  8
0
  6
Continuous
 62
     7
370
    25
100
AcDbSpline
210
0.0
220
0.0
230
1.0
 70
     8
 71
     3
 72
    12
 73
     8
 74
     0
 42
0.000000001
 43
0.00000001
 40
0.0
 40
0.0
 40
0.0
 40
0.0
 40
0.2499999999999962
 40
0.2499999999999962
 40
0.4999999999999925
 40
0.4999999999999925
 40
1.0
 40
1.0
 40
1.0
 40
1.0
 10
213.658159598745
 20
43.64439218991841
 30
0.0
 10
213.6864017988173
 20
43.62808831485439
 30
0.0
 10
213.7209479307227
 20
43.61513252144439
 30
0.0
 10
213.7956719904204
 20
43.59842078325184
 30
0.0
 10
213.8359623817221
 20
43.5945338744644
 30
0.0
 10
213.9570753991584
 20
43.5967972723537
 30
0.0
 10
214.0351929615763
 20
43.61712648378044
 30
0.0
 10
214.0918424343119
 20
43.64982952828679
 30
0.0
  0
ARC
  5
23F
330
1F
100
AcDbEntity
  8
0
  6
Continuous
 62
     7
370
    25
100
AcDbCircle
 10
218.4453956937
 20
46.071138885
 30
0.0
 40
6.394931515601622
100
AcDbArc
 50
194.6641757708
 51
238.0052799592
  0
LINE
  5
240
330
1F
100
AcDbEntity
  8
0
  6
Continuous
 62
     7
370
    25
100
AcDbLine
 10
212.2587712317
 20
44.4522420827
 30
0.0
 11
213.6581598719
 21
43.6443922163
 31
0.0
  0
SPLINE
  5
241
330
1F
100
AcDbEntity
  8
0
  6
Continuous
 62
     7
370
    25
100
AcDbSpline
210
0.0
220
0.0
230
1.0
 70
     8
 71
     3
 72
     8
 73
     4
 74
     0
 42
0.000000001
 43
0.00000001
 40
0.0
 40
0.0
 40
0.0
 40
0.0
 40
1.0
 40
1.0
 40
1.0
 40
1.0
 10
212.6855626954203
 20
45.30355401297439
 30
0.0
 10
212.5423979987298
 20
45.01993196596738
 30
0.0
 10
212.4002093018772
 20
44.73614881998336
 30
0.0
 10
212.258771531122
 20
44.45224172579628
 30
0.0
  0
LINE
  5
242
330
1F
100
AcDbEntity
  8
0
  6
Continuous
 62
     7
370
    25
100
AcDbLine
 10
212.9307316084
 20
45.445087064
 30
0.0
 11
212.6855627321
 21
45.3035540843
 31
0.0
  0
SPLINE
  5
243
330
1F
100
AcDbEntity
  8
0
  6
Continuous
 62
     7
370
    25
100
AcDbSpline
210
0.0
220
0.0
230
1.0
 70
     8
 71
     3
 72
    10
 73
     6
 74
     0
 42
0.000000001
 43
0.00000001
 40
0.0
 40
0.0
 40
0.0
 40
0.0
 40
0.5
 40
0.5
 40
1.0
 40
1.0
 40
1.0
 40
1.0
 10
213.0391734877833
 20
45.54756042873877
 30
0.0
 10
213.0285206208133
 20
45.52828478153266
 30
0.0
 10
213.0137158576612
 20
45.50967340010762
 30
0.0
 10
212.9769300863303
 20
45.47504312587609
 30
0.0
 10
212.9553608657363
 20
45.459305181441
 30
0.0
 10
212.9307312997865
 20
45.44508683566416
 30
0.0
  0
SPLINE
  5
244
330
1F
100
AcDbEntity
  8
0
  6
Continuous
 62
     7
370
    25
100
AcDbSpline
210
0.0
220
0.0
230
1.0
 70
     8
 71
     3
 72
    14
 73
    10
 74
     0
 42
0.000000001
 43
0.00000001
 40
0.0
 40
0.0
 40
0.0
 40
0.0
 40
0.500000000000001
 40
0.500000000000001
 40
0.7500000000000004
 40
0.7500000000000004
 40
0.8750000000000003
 40
0.8750000000000003
 40
1.0
 40
1.0
 40
1.0
 40
1.0
 10
197.1178642311046
 20
56.94261977587558
 30
0.0
 10
197.4330301749445
 20
56.71553178497972
 30
0.0
 10
197.7493058302104
 20
56.48568540993158
 30
0.0
 10
198.2281303187814
 20
56.13037680794247
 30
0.0
 10
198.3884503292055
 20
56.01023849374693
 30
0.0
 10
198.6315028651592
 20
55.82396965950311
 30
0.0
 10
198.7129463031758
 20
55.7608764182761
 30
0.0
 10
198.8776077522092
 20
55.63053117586396
 30
0.0
 10
198.9605137702754
 20
55.56400673388671
 30
0.0
 10
199.0465325983601
 20
55.49021326256315
 30
0.0
  0
SPLINE
  5
245
330
1F
100
AcDbEntity
  8
0
  6
Continuous
 62
     7
370
    25
100
AcDbSpline
210
0.0
220
0.0
230
1.0
 70
     8
 71
     3
 72
     8
 73
     4
 74
     0
 42
0.000000001
 43
0.00000001
 40
0.0
 40
0.0
 40
0.0
 40
0.0
 40
1.0
 40
1.0
 40
1.0
 40
1.0
 10
199.0465325983601
 20
55.49021326256315
 30
0.0
 10
199.3481850715976
 20
55.23143290448132
 30
0.0
 10
199.653464615121
 20
54.98385788907667
 30
0.0
 10
199.9581241882477
 20
54.74288503251014
 30
0.0
  0
SPLINE
  5
246
330
1F
100
AcDbEntity
  8
0
  6
Continuous
 62
     7
370
    25
100
AcDbSpline
210
0.0
220
0.0
230
1.0
 70
     8
 71
     3
 72
    14
 73
    10
 74
     0
 42
0.000000001
 43
0.00000001
 40
0.0
 40
0.0
 40
0.0
 40
0.0
 40
0.1249999999999988
 40
0.1249999999999988
 40
0.2499999999999976
 40
0.2499999999999976
 40
0.4999999999999982
 40
0.4999999999999982
 40
1.0
 40
1.0
 40
1.0
 40
1.0
 10
199.9581241882478
 20
54.74288503251009
 30
0.0
 10
199.9773195641733
 20
54.72770230077388
 30
0.0
 10
199.9949316375736
 20
54.7163344822771
 30
0.0
 10
200.0207765674929
 20
54.70506601306466
 30
0.0
 10
200.0289149317406
 20
54.70468254282761
 30
0.0
 10
200.0458650227086
 20
54.710458335522
 30
0.0
 10
200.0480342952184
 20
54.72312376114002
 30
0.0
 10
200.0468587474038
 20
54.76756058818379
 30
0.0
 10
200.0347852267996
 20
54.80804385895724
 30
0.0
 10
200.0200069987596
 20
54.85204752883973
 30
0.0
  0
SPLINE
  5
247
330
1F
100
AcDbEntity
  8
0
  6
Continuous
 62
     7
370
    25
100
AcDbSpline
210
0.0
220
0.0
230
1.0
 70
     8
 71
     3
 72
    14
 73
    10
 74
     0
 42
0.000000001
 43
0.00000001
 40
0.0
 40
0.0
 40
0.0
 40
0.0
 40
0.25
 40
0.25
 40
0.5
 40
0.5
 40
0.75
 40
0.75
 40
1.0
 40
1.0
 40
1.0
 40
1.0
 10
200.0200069987589
 20
54.85204752884044
 30
0.0
 10
200.0019507518123
 20
54.90581183182721
 30
0.0
 10
199.9990279537111
 20
54.95036244092426
 30
0.0
 10
199.9936142251678
 20
55.04262379076898
 30
0.0
 10
199.9920469471267
 20
55.08991819368924
 30
0.0
 10
199.9819085473195
 20
55.19467924851701
 30
0.0
 10
199.9735935495753
 20
55.25194045555202
 30
0.0
 10
199.9447933749165
 20
55.38156181292644
 30
0.0
 10
199.9241399782459
 20
55.45435601253948
 30
0.0
 10
199.8954504610848
 20
55.53404271149925
 30
0.0
  0
ARC
  5
248
330
1F
100
AcDbEntity
  8
0
  6
Continuous
 62
     7
370
    25
100
AcDbCircle
 10
210.2504207894
 20
58.6206041782
 30
0.0
 40
10.80519673566328
100
AcDbArc
 50
163.4019784234
 51
196.5980215766
  0
SPLINE
  5
249
330
1F
100
AcDbEntity
  8
0
  6
Continuous
 62
     7
370
    25
100
AcDbSpline
210
0.0
220
0.0
230
1.0
 70
     8
 71
     3
 72
    14
 73
    10
 74
     0
 42
0.000000001
 43
0.00000001
 40
0.0
 40
0.0
 40
0.0
 40
0.0
 40
0.25
 40
0.25
 40
0.5
 40
0.5
 40
0.75
 40
0.75
 40
1.0
 40
1.0
 40
1.0
 40
1.0
 10
200.0200069987589
 20
63.16837072376342
 30
0.0
 10
200.0019507518123
 20
63.04752864481887
 30
0.0
 10
199.9990279537111
 20
62.92243437825276
 30
0.0
 10
199.9936142251678
 20
62.6744830676014
 30
0.0
 10
199.9920469471267
 20
62.55057444328765
 30
0.0
 10
199.9819085473195
 20
62.30441870404744
 30
0.0
 10
199.9735935495753
 20
62.18213076218603
 30
0.0
 10
199.9447933749165
 20
61.94013358497725
 30
0.0
 10
199.9241399782459
 20
61.81997661779766
 30
0.0
 10
199.8954504610848
 20
61.70716570739238
 30
0.0
  0
SPLINE
  5
24A
330
1F
100
AcDbEntity
  8
0
  6
Continuous
 62
     7
370
    25
100
AcDbSpline
210
0.0
220
0.0
230
1.0
 70
     8
 71
     3
 72
    14
 73
    10
 74
     0
 42
0.000000001
 43
0.00000001
 40
0.0
 40
0.0
 40
0.0
 40
0.0
 40
0.1249999999999975
 40
0.1249999999999975
 40
0.249999999999995
 40
0.249999999999995
 40
0.4999999999999953
 40
0.4999999999999953
 40
1.0
 40
1.0
 40
1.0
 40
1.0
 10
199.9581241882478
 20
63.71365628805744
 30
0.0
 10
199.9773195641734
 20
63.71136948008363
 30
0.0
 10
199.9949316375737
 20
63.69987124081081
 30
0.0
 10
200.020776567493
 20
63.66317973828428
 30
0.0
 10
200.0289149317406
 20
63.64009832318221
 30
0.0
 10
200.0458650227087
 20
63.56876580410511
 30
0.0
 10
200.0480342952184
 20
63.51752169849704
 30
0.0
 10
200.0468587474038
 20
63.36748621873545
 30
0.0
 10
200.0347852267996
 20
63.26727454385238
 30
0.0
 10
200.0200069987596
 20
63.16837072376374
 30
0.0
  0
SPLINE
  5
24B
330
1F
100
AcDbEntity
  8
0
  6
Continuous
 62
     7
370
    25
100
AcDbSpline
210
0.0
220
0.0
230
1.0
 70
     8
 71
     3
 72
     8
 73
     4
 74
     0
 42
0.000000001
 43
0.00000001
 40
0.0
 40
0.0
 40
0.0
 40
0.0
 40
1.0
 40
1.0
 40
1.0
 40
1.0
 10
199.0465325983601
 20
63.76586909919354
 30
0.0
 10
199.3481850715976
 20
63.77321534633665
 30
0.0
 10
199.6534646151211
 20
63.7499513803667
 30
0.0
 10
199.9581241882478
 20
63.71365628805744
 30
0.0
  0
SPLINE
  5
24C
330
1F
100
AcDbEntity
  8
0
  6
Continuous
 62
     7
370
    25
100
AcDbSpline
210
0.0
220
0.0
230
1.0
 70
     8
 71
     3
 72
    14
 73
    10
 74
     0
 42
0.000000001
 43
0.00000001
 40
0.0
 40
0.0
 40
0.0
 40
0.0
 40
0.500000000000001
 40
0.500000000000001
 40
0.7500000000000004
 40
0.7500000000000004
 40
0.8750000000000003
 40
0.8750000000000003
 40
1.0
 40
1.0
 40
1.0
 40
1.0
 10
197.1178642311046
 20
64.39850844417852
 30
0.0
 10
197.4330301749445
 20
64.2611239504524
 30
0.0
 10
197.7493058302104
 20
64.12955044282123
 30
0.0
 10
198.2281303187814
 20
63.95465497630047
 30
0.0
 10
198.3884503292055
 20
63.89998382603596
 30
0.0
 10
198.6315028651592
 20
63.83095201031591
 30
0.0
 10
198.7129463031758
 20
63.81008972580712
 30
0.0
 10
198.8776077522092
 20
63.77728201237749
 30
0.0
 10
198.9605137702754
 20
63.76377425288485
 30
0.0
 10
199.0465325983601
 20
63.76586909919353
 30
0.0
  0
SPLINE
  5
24D
330
1F
100
AcDbEntity
  8
0
  6
Continuous
 62
     7
370
    25
100
AcDbSpline
210
0.0
220
0.0
230
1.0
 70
     8
 71
     3
 72
     8
 73
     4
 74
     0
 42
0.000000001
 43
0.00000001
 40
0.0000005163856712
 40
0.0000005163856712
 40
0.0000005163856712
 40
0.0000005163856712
 40
0.000026289209185
 40
0.000026289209185
 40
0.000026289209185
 40
0.000026289209185
 10
197.1178426440853
 20
64.411387555384
 30
0.0
 10
197.117840342926
 20
64.40709472035269
 30
0.0
 10
197.1178475892503
 20
64.40280165267241
 30
0.0
 10
197.1178642311046
 20
64.39850844417852
 30
0.0
  0
LINE
  5
24E
330
1F
100
AcDbEntity
  8
0
  6
Continuous
 62
     7
370
    25
100
AcDbLine
 10
209.9820182315
 20
74.9066041963
 30
0.0
 11
210.0261644211
 21
74.8842500495
 31
0.0
  0
SPLINE
  5
24F
330
1F
100
AcDbEntity
  8
0
  6
Continuous
 62
     7
370
    25
100
AcDbSpline
210
0.0
220
0.0
230
1.0
 70
     8
 71
     3
 72
     8
 73
     4
 74
     0
 42
0.000000001
 43
0.00000001
 40
0.0000005163856716
 40
0.0000005163856716
 40
0.0000005163856716
 40
0.0000005163856716
 40
0.0000262892091854
 40
0.0000262892091854
 40
0.0000262892091854
 40
0.0000262892091854
 10
197.1178426440853
 20
56.9379165035047
 30
0.0
 10
197.117840342926
 20
56.93948988920417
 30
0.0
 10
197.1178475892503
 20
56.94105761913808
 30
0.0
 10
197.1178642311046
 20
56.94261977587558
 30
0.0
  0
SPLINE
  5
250
330
1F
100
AcDbEntity
  8
0
  6
Continuous
 62
     7
370
    25
100
AcDbSpline
210
0.0
220
0.0
230
1.0
 70
     8
 71
     3
 72
    18
 73
    14
 74
     0
 42
0.000000001
 43
0.00000001
 40
0.0
 40
0.0
 40
0.0
 40
0.0
 40
0.1234635735846665
 40
0.2476013879942779
 40
0.3717165327454312
 40
0.4951254702094371
 40
0.6174815994767964
 40
0.6790279757367026
 40
0.7397780675464141
 40
0.8004410550633725
 40
0.86237733775719
 40
0.9851675229043927
 40
1.0
 40
1.0
 40
1.0
 40
1.0
 10
202.8067112138818
 20
55.06494540718269
 30
0.0
 10
202.6736643402461
 20
55.309880161075
 30
0.0
 10
202.406844017263
 20
55.80108726994897
 30
0.0
 10
202.2821485991575
 20
56.55310832030147
 30
0.0
 10
202.4179752257889
 20
57.177795372231
 30
0.0
 10
202.7850508177675
 20
57.59466051391056
 30
0.0
 10
203.2276916348593
 20
57.68864411840144
 30
0.0
 10
203.603914921642
 20
57.60669981278483
 30
0.0
 10
203.8861447378152
 20
57.46442692953213
 30
0.0
 10
204.1585007671759
 20
57.24773034875937
 30
0.0
 10
204.484877808774
 20
56.8699800336889
 30
0.0
 10
204.7397025024489
 20
56.48760872133317
 30
0.0
 10
204.83133178176
 20
56.19301077553897
 30
0.0
 10
204.8412072569509
 20
56.16126006521122
 30
0.0
  0
SPLINE
  5
251
330
1F
100
AcDbEntity
  8
0
  6
Continuous
 62
     7
370
    25
100
AcDbSpline
210
0.0
220
0.0
230
1.0
 70
     8
 71
     3
 72
    13
 73
     9
 74
     0
 42
0.000000001
 43
0.00000001
 40
0.0
 40
0.0
 40
0.0
 40
0.0
 40
0.0512439086405754
 40
0.2106853204903815
 40
0.3674984724370254
 40
0.5244286949234442
 40
0.6836242475532146
 40
1.0
 40
1.0
 40
1.0
 40
1.0
 10
204.4609126208423
 20
53.73780139021179
 30
0.0
 10
204.4394147937294
 20
53.73346929487926
 30
0.0
 10
204.3510281597804
 20
53.7156582239102
 30
0.0
 10
204.1458821520598
 20
53.80179038834739
 30
0.0
 10
203.8783688240042
 20
53.9386624176093
 30
0.0
 10
203.595376284609
 20
54.14964684371503
 30
0.0
 10
203.2157035223103
 20
54.49766890921767
 30
0.0
 10
202.9700999759143
 20
54.83832352989416
 30
0.0
 10
202.8067112138818
 20
55.06494540718269
 30
0.0
  0
ARC
  5
252
330
1F
100
AcDbEntity
  8
0
  6
Continuous
 62
     7
370
    25
100
AcDbCircle
 10
217.5062380641
 20
48.0770037535
 30
0.0
 40
6.48532781541405
100
AcDbArc
 50
197.9043770853
 51
217.5646516782
  0
SPLINE
  5
253
330
1F
100
AcDbEntity
  8
0
  6
Continuous
 62
     7
370
    25
100
AcDbSpline
210
0.0
220
0.0
230
1.0
 70
     8
 71
     3
 72
     8
 73
     4
 74
     0
 42
0.000000001
 43
0.00000001
 40
0.0
 40
0.0
 40
0.0
 40
0.0
 40
1.0
 40
1.0
 40
1.0
 40
1.0
 10
209.8603128246468
 20
45.836842464989
 30
0.0
 10
210.3521076233987
 20
45.91849275207075
 30
0.0
 10
210.8436877143014
 20
46.00057653956119
 30
0.0
 10
211.334988743354
 20
46.08322375976508
 30
0.0
  0
SPLINE
  5
254
330
1F
100
AcDbEntity
  8
0
  6
Continuous
 62
     7
370
    25
100
AcDbSpline
210
0.0
220
0.0
230
1.0
 70
     8
 71
     3
 72
    10
 73
     6
 74
     0
 42
0.000000001
 43
0.00000001
 40
0.0
 40
0.0
 40
0.0
 40
0.0
 40
0.5
 40
0.5
 40
1.0
 40
1.0
 40
1.0
 40
1.0
 10
211.5801573477202
 20
46.22475658245484
 30
0.0
 10
211.6049896510721
 20
46.23909196604269
 30
0.0
 10
211.6326646485655
 20
46.25168740617878
 30
0.0
 10
211.69278965802
 20
46.27288530431905
 30
0.0
 10
211.7244840582148
 20
46.28124746998571
 30
0.0
 10
211.7576660507964
 20
46.28735892505695
 30
0.0
  0
LINE
  5
255
330
1F
100
AcDbEntity
  8
0
  6
Continuous
 62
     7
370
    25
100
AcDbLine
 10
211.3349887035
 20
46.0832238752
 30
0.0
 11
211.5801575799
 21
46.2247568549
 31
0.0
  0
SPLINE
  5
256
330
1F
100
AcDbEntity
  8
0
  6
Continuous
 62
     7
370
    25
100
AcDbSpline
210
0.0
220
0.0
230
1.0
 70
     8
 71
     3
 72
    12
 73
     8
 74
     0
 42
0.000000001
 43
0.00000001
 40
0.0
 40
0.0
 40
0.0
 40
0.0
 40
0.0817308874109422
 40
0.3406621036669703
 40
0.5987464227591275
 40
0.8603797745825383
 40
1.0
 40
1.0
 40
1.0
 40
1.0
 10
203.825657045476
 20
57.38423193262665
 30
0.0
 10
203.8121527553685
 20
57.3376849172125
 30
0.0
 10
203.7558655912095
 20
57.14367253471288
 30
0.0
 10
203.8340169547327
 20
56.71030452838653
 30
0.0
 10
204.0574545769775
 20
56.16234789969189
 30
0.0
 10
204.359541355622
 20
55.70590744498772
 30
0.0
 10
204.585406603274
 20
55.49202604118609
 30
0.0
 10
204.6639986921172
 20
55.41760385156545
 30
0.0
  0
LINE
  5
257
330
1F
100
AcDbEntity
  8
0
  6
Continuous
 62
     7
370
    25
100
AcDbLine
 10
231.5789109553
 20
67.3841226959
 30
0.0
 11
232.9782995955
 21
66.5762728295
 31
0.0
  0
SPLINE
  5
258
330
1F
100
AcDbEntity
  8
0
  6
Continuous
 62
     7
370
    25
100
AcDbSpline
210
0.0
220
0.0
230
1.0
 70
     8
 71
     3
 72
    12
 73
     8
 74
     0
 42
0.000000001
 43
0.00000001
 40
0.0
 40
0.0
 40
0.0
 40
0.0
 40
0.25
 40
0.25
 40
0.5
 40
0.5
 40
1.0
 40
1.0
 40
1.0
 40
1.0
 10
232.9782993614119
 20
66.57627268213326
 30
0.0
 10
233.0105433322846
 20
66.55765863395965
 30
0.0
 10
233.0325963348182
 20
66.53340831116223
 30
0.0
 10
233.0534452789831
 20
66.4828204532747
 30
0.0
 10
233.0530641097558
 20
66.45598188484063
 30
0.0
 10
233.0273111768586
 20
66.3787477685718
 30
0.0
 10
232.9793597497499
 20
66.33196239774398
 30
0.0
 10
232.9154597006146
 20
66.29507368457652
 30
0.0
  0
SPLINE
  5
259
330
1F
100
AcDbEntity
  8
0
  6
Continuous
 62
     7
370
    25
100
AcDbSpline
210
0.0
220
0.0
230
1.0
 70
     8
 71
     3
 72
    12
 73
     8
 74
     0
 42
0.000000001
 43
0.00000001
 40
0.0
 40
0.0
 40
0.0
 40
0.0
 40
0.1910425578485617
 40
0.367255035908939
 40
0.6744144960137269
 40
0.9492415369560815
 40
1.0
 40
1.0
 40
1.0
 40
1.0
 10
203.0979805106788
 20
55.24786856544398
 30
0.0
 10
203.1775377154054
 20
55.13345854672247
 30
0.0
 10
203.3304763297526
 20
54.91351982727119
 30
0.0
 10
203.6552747943793
 20
54.55974453491952
 30
0.0
 10
204.0401739552698
 20
54.2551903523166
 30
0.0
 10
204.3397516896072
 20
54.08808345866444
 30
0.0
 10
204.4689540003482
 20
54.07164475836371
 30
0.0
 10
204.4890965147865
 20
54.06908198099344
 30
0.0
  0
SPLINE
  5
25A
330
1F
100
AcDbEntity
  8
0
  6
Continuous
 62
     7
370
    25
100
AcDbSpline
210
0.0
220
0.0
230
1.0
 70
     8
 71
     3
 72
    17
 73
    13
 74
     0
 42
0.000000001
 43
0.00000001
 40
0.0
 40
0.0
 40
0.0
 40
0.0
 40
0.0289247273778863
 40
0.1765378687056918
 40
0.2609438908819718
 40
0.3522932221219808
 40
0.4561021485160733
 40
0.5447536963575632
 40
0.6761053340688963
 40
0.8084234455496387
 40
0.8968642689071734
 40
1.0
 40
1.0
 40
1.0
 40
1.0
 10
204.1412842572619
 20
57.24623071679648
 30
0.0
 10
204.1140233518098
 20
57.27227551344212
 30
0.0
 10
203.9476403783546
 20
57.43123614358483
 30
0.0
 10
203.6598649481946
 20
57.50972056774165
 30
0.0
 10
203.3395915319225
 20
57.513366191015
 30
0.0
 10
203.0856464577483
 20
57.42231492698551
 30
0.0
 10
202.8771667768738
 20
57.2415146783801
 30
0.0
 10
202.7140723402534
 20
56.94938904384686
 30
0.0
 10
202.6370683113306
 20
56.53960142448787
 30
0.0
 10
202.7124599942906
 20
56.07500490614929
 30
0.0
 10
202.8712048955639
 20
55.63306578432141
 30
0.0
 10
203.0186194863639
 20
55.3826698571873
 30
0.0
 10
203.0979805106788
 20
55.24786856544398
 30
0.0
  0
SPLINE
  5
25B
330
1F
100
AcDbEntity
  8
0
  6
Continuous
 62
     7
370
    25
100
AcDbSpline
210
0.0
220
0.0
230
1.0
 70
     8
 71
     3
 72
    10
 73
     6
 74
     0
 42
0.000000001
 43
0.00000001
 40
0.0
 40
0.0
 40
0.0
 40
0.0
 40
0.5
 40
0.5
 40
1.0
 40
1.0
 40
1.0
 40
1.0
 10
235.0952889097758
 20
62.71545799104733
 30
0.0
 10
235.1322047437134
 20
62.73676904836093
 30
0.0
 10
235.1597571969058
 20
62.76320336689153
 30
0.0
 10
235.1899698817166
 20
62.82029952145179
 30
0.0
 10
235.1927285060946
 20
62.85107357421667
 30
0.0
 10
235.1816279435996
 20
62.88070058009275
 30
0.0
  0
LINE
  5
25C
330
1F
100
AcDbEntity
  8
0
  6
Continuous
 62
     7
370
    25
100
AcDbLine
 10
229.1804526738
 20
68.7687231897
 30
0.0
 11
229.0379097272
 21
68.5543004727
 31
0.0
  0
LINE
  5
25D
330
1F
100
AcDbEntity
  8
0
  6
Continuous
 62
     7
370
    25
100
AcDbLine
 10
198.9576196513
 20
59.1176009961
 30
0.0
 11
199.4580028419
 21
58.8287359288
 31
0.0
  0
SPLINE
  5
25E
330
1F
100
AcDbEntity
  8
0
  6
Continuous
 62
     7
370
    25
100
AcDbSpline
210
0.0
220
0.0
230
1.0
 70
     8
 71
     3
 72
     9
 73
     5
 74
     0
 42
0.000000001
 43
0.00000001
 40
0.0
 40
0.0
 40
0.0
 40
0.0
 40
0.7009339503679092
 40
0.9999999999999999
 40
0.9999999999999999
 40
0.9999999999999999
 40
0.9999999999999999
 10
197.1318089541898
 20
64.87497958941377
 30
0.0
 10
197.1287370656709
 20
64.92898357376778
 30
0.0
 10
197.124354500784
 20
65.00602932725947
 30
0.0
 10
197.1487648248605
 20
65.09566206767374
 30
0.0
 10
197.1560651240523
 20
65.12246817726714
 30
0.0
  0
SPLINE
  5
25F
330
1F
100
AcDbEntity
  8
0
  6
Continuous
 62
     7
370
    25
100
AcDbSpline
210
0.0
220
0.0
230
1.0
 70
     8
 71
     3
 72
    10
 73
     6
 74
     0
 42
0.000000001
 43
0.00000001
 40
0.0
 40
0.0
 40
0.0
 40
0.0
 40
0.5
 40
0.5
 40
1.0
 40
1.0
 40
1.0
 40
1.0
 10
197.1723015813034
 20
64.92732973449137
 30
0.0
 10
197.1523755308072
 20
64.84336926047565
 30
0.0
 10
197.1390812666665
 20
64.75792339796426
 30
0.0
 10
197.1218127405258
 20
64.58550992703177
 30
0.0
 10
197.1178892859035
 20
64.49839832076788
 30
0.0
 10
197.1178426440853
 20
64.411387555384
 30
0.0
  0
SPLINE
  5
260
330
1F
100
AcDbEntity
  8
0
  6
Continuous
 62
     7
370
    25
100
AcDbSpline
210
0.0
220
0.0
230
1.0
 70
     8
 71
     3
 72
    24
 73
    20
 74
     0
 42
0.000000001
 43
0.00000001
 40
0.0
 40
0.0
 40
0.0
 40
0.0
 40
0.25
 40
0.25
 40
0.374999999999999
 40
0.374999999999999
 40
0.4374999999999993
 40
0.4374999999999993
 40
0.4687499999999994
 40
0.4687499999999994
 40
0.4999999999999995
 40
0.4999999999999995
 40
0.5624999999999971
 40
0.5624999999999971
 40
0.6249999999999947
 40
0.6249999999999947
 40
0.7499999999999947
 40
0.7499999999999947
 40
1.0
 40
1.0
 40
1.0
 40
1.0
 10
197.1560651783351
 20
65.1224680852076
 30
0.0
 10
197.1859062076202
 20
65.22974714176385
 30
0.0
 10
197.2157357476613
 20
65.33563171513454
 30
0.0
 10
197.2604069045326
 20
65.48557975838483
 30
0.0
 10
197.2753596966243
 20
65.53458002114776
 30
0.0
 10
197.2969428349137
 20
65.59773030305051
 30
0.0
 10
197.3040725464434
 20
65.61737048727903
 30
0.0
 10
197.3129241717448
 20
65.63508041676702
 30
0.0
 10
197.3155622690146
 20
65.6387967832527
 30
0.0
 10
197.3187148070596
 20
65.6366484348705
 30
0.0
 10
197.3190947681964
 20
65.63048602580392
 30
0.0
 10
197.3170848429356
 20
65.60184094245116
 30
0.0
 10
197.3125082013372
 20
65.57353993746298
 30
0.0
 10
197.3025768152308
 20
65.51716092731368
 30
0.0
 10
197.2968866294958
 20
65.48769117935764
 30
0.0
 10
197.2793050288772
 20
65.39983675879131
 30
0.0
 10
197.266624155949
 20
65.340611765742
 30
0.0
 10
197.2273830923286
 20
65.1621184586122
 30
0.0
 10
197.2000796322921
 20
65.04437542443848
 30
0.0
 10
197.1723015813034
 20
64.9273297344914
 30
0.0
  0
ARC
  5
261
330
1F
100
AcDbEntity
  8
0
  6
Continuous
 62
     7
370
    25
100
AcDbCircle
 10
197.8349796087
 20
64.3327209035
 30
0.0
 40
0.7201273031245121
100
AcDbArc
 50
174.7584203609
 51
234.4349513408
  0
ARC
  5
262
330
1F
100
AcDbEntity
  8
0
  6
Continuous
 62
     7
370
    25
100
AcDbCircle
 10
199.3303143761
 20
56.8328231672
 30
0.0
 40
2.215173511102297
100
AcDbArc
 50
122.6235856257
 51
177.1589283586
  0
LINE
  5
263
330
1F
100
AcDbEntity
  8
0
  6
Continuous
 62
     7
370
    25
100
AcDbLine
 10
198.1360754994
 20
58.6985099549
 30
0.0
 11
198.8801623048
 21
59.1280621244
 31
0.0
  0
SPLINE
  5
264
330
1F
100
AcDbEntity
  8
0
  6
Continuous
 62
     7
370
    25
100
AcDbSpline
210
0.0
220
0.0
230
1.0
 70
     8
 71
     3
 72
     8
 73
     4
 74
     0
 42
0.000000001
 43
0.00000001
 40
0.0
 40
0.0
 40
0.0
 40
0.0
 40
0.000159097695343
 40
0.000159097695343
 40
0.000159097695343
 40
0.000159097695343
 10
198.9576200774032
 20
59.11760097847871
 30
0.0
 10
198.9317999478375
 20
59.12108552794061
 30
0.0
 10
198.905980803285
 20
59.12457251067814
 30
0.0
 10
198.8801626236288
 20
59.12806187179755
 30
0.0
  0
ARC
  5
265
330
1F
100
AcDbEntity
  8
0
  6
Continuous
 62
     7
370
    25
100
AcDbCircle
 10
198.4649343261
 20
57.3274819242
 30
0.0
 40
1.353479563765474
100
AcDbArc
 50
122.9135810547
 51
170.975405912
  0
LINE
  5
266
330
1F
100
AcDbEntity
  8
0
  6
Continuous
 62
     7
370
    25
100
AcDbLine
 10
198.1360754994
 20
58.6985099549
 30
0.0
 11
197.7294894617
 21
58.4637159586
 31
0.0
  0
SPLINE
  5
267
330
1F
100
AcDbEntity
  8
0
  6
Continuous
 62
     7
370
    25
100
AcDbSpline
210
0.0
220
0.0
230
1.0
 70
     8
 71
     3
 72
    10
 73
     6
 74
     0
 42
0.000000001
 43
0.00000001
 40
0.0
 40
0.0
 40
0.0
 40
0.0
 40
0.5
 40
0.5
 40
1.0
 40
1.0
 40
1.0
 40
1.0
 10
197.1723015813034
 20
56.74267411878739
 30
0.0
 10
197.1523755308072
 20
56.78119568030301
 30
0.0
 10
197.1390812666665
 20
56.81315900749611
 30
0.0
 10
197.1218127405258
 20
56.87560243099295
 30
0.0
 10
197.1178892859035
 20
56.90602580820515
 30
0.0
 10
197.1178426440853
 20
56.9379165035047
 30
0.0
  0
LINE
  5
268
330
1F
100
AcDbEntity
  8
0
  6
Continuous
 62
     7
370
    25
100
AcDbLine
 10
197.1282093499
 20
57.5397865815
 30
0.0
 11
197.1318089542
 21
57.4041503208
 31
0.0
  0
LINE
  5
269
330
1F
100
AcDbEntity
  8
0
  6
Continuous
 62
     7
370
    25
100
AcDbLine
 10
197.2268876346
 20
56.6479451339
 30
0.0
 11
197.1723015389
 21
56.7426742965
 31
0.0
  0
LWPOLYLINE
  5
26A
330
1F
100
AcDbEntity
  8
0
  6
Continuous
 62
     7
370
    18
100
AcDbPolyline
 90
       16
 70
   128
 43
0.0
 10
277.44457512
 20
27.4368110761
 10
277.4774549302
 20
27.5967904667
 10
277.6532201301
 20
28.0966025155
 10
277.9269803748
 20
28.570769167
 10
278.2719385004
 20
28.9728761344
 10
278.6543276373
 20
29.2635623652
 10
279.036716445
 20
29.4143730443
 10
279.3816748999
 20
29.4105464412
 10
279.6554351446
 20
29.2524566403
 10
279.8312000152
 20
28.9555785816
 10
279.891764378
 20
28.5489729252
 10
279.8312000152
 20
28.0724411439
 10
279.6554351446
 20
27.5726292851
 10
279.3816748999
 20
27.0984626336
 10
279.036716445
 20
26.6963554761
 10
278.9148116247
 20
26.5880617899
  0
LWPOLYLINE
  5
26B
330
1F
100
AcDbEntity
  8
0
  6
Continuous
 62
     7
370
    18
100
AcDbPolyline
 90
        9
 70
   128
 43
0.0
 10
277.1226798816
 20
27.6226375262
 10
277.1261639113
 20
27.6378905164
 10
277.3090697093
 20
28.1820681559
 10
277.5957999881
 20
28.7044410441
 10
277.9608776362
 20
29.1585940099
 10
278.3718634099
 20
29.5041733773
 10
278.7922400282
 20
29.7104733702
 10
279.1846548467
 20
29.7591629233
 10
279.4798000072
 20
29.6674124725
  0
LWPOLYLINE
  5
26C
330
1F
100
AcDbEntity
  8
0
  6
Continuous
 62
     7
370
    18
100
AcDbPolyline
 90
       21
 70
   128
 43
0.0
 10
267.5173956545
 20
21.4054019163
 10
267.5779600173
 20
21.8819336976
 10
267.7537248879
 20
22.3817455564
 10
268.0274851326
 20
22.8559122079
 10
268.3724435875
 20
23.2580193653
 10
268.7548323952
 20
23.5487054061
 10
269.1372215321
 20
23.6995162752
 10
269.4821796577
 20
23.6956894821
 10
269.7559399024
 20
23.5375996812
 10
269.9317051023
 20
23.2407218126
 10
269.9922694651
 20
22.8341161561
 10
269.9317051023
 20
22.3575843748
 10
269.7559399024
 20
21.8577723259
 10
269.4821796577
 20
21.3836056744
 10
269.1372215321
 20
20.9814987071
 10
268.7548323952
 20
20.6908124762
 10
268.3724435875
 20
20.5400017972
 10
268.0274851326
 20
20.5438284002
 10
267.7537248879
 20
20.7019182011
 10
267.5779600173
 20
20.9987962598
 10
267.5173956545
 20
21.4054019163
  0
LWPOLYLINE
  5
26D
330
1F
100
AcDbEntity
  8
0
  6
Continuous
 62
     7
370
    18
100
AcDbPolyline
 90
        9
 70
   128
 43
0.0
 10
267.1638395718
 20
21.4054038171
 10
267.2266686691
 20
21.9230335573
 10
267.4095747964
 20
22.4672113868
 10
267.6963050752
 20
22.989584275
 10
268.0613827233
 20
23.4437372408
 10
268.472368497
 20
23.7893166082
 10
268.8927451153
 20
23.9956166011
 10
269.2851596045
 20
24.0443059641
 10
269.5803054236
 20
23.9525558936
  0
ARC
  5
26E
330
1F
100
AcDbEntity
  8
0
  6
Continuous
 62
     7
370
    18
100
AcDbCircle
 10
268.1430702143
 20
21.2956658836
 30
0.0
 40
0.9853603733072613
100
AcDbArc
 50
173.6058005289
 51
234.1963470431
  0
LWPOLYLINE
  5
26F
330
1F
100
AcDbEntity
  8
0
  6
Continuous
 62
     7
370
    18
100
AcDbPolyline
 90
       27
 70
   128
 43
0.0
 10
284.7000872611
 20
21.1196608932
 10
284.63741819
 20
21.6794863789
 10
284.4530530574
 20
22.1344206599
 10
284.1577065469
 20
22.458024668
 10
283.768543045
 20
22.6314916384
 10
283.3081793572
 20
22.6447403214
 10
282.8033701507
 20
22.4970006974
 10
282.2834530894
 20
22.1968589667
 10
281.7786438829
 20
21.761758287
 10
281.3182801951
 20
21.2169850039
 10
280.9291166932
 20
20.5941994181
 10
280.6337701827
 20
19.9295955874
 10
280.4494050501
 20
19.2617978551
 10
280.3867359791
 20
18.6296162002
 10
280.4494050501
 20
18.0697907144
 10
280.6337701827
 20
17.6148564334
 10
280.9291166932
 20
17.2912524253
 10
281.3182801951
 20
17.1177854549
 10
281.7786438829
 20
17.1045367719
 10
282.2834530894
 20
17.2522763959
 10
282.8033701507
 20
17.5524181266
 10
283.3081793572
 20
17.9875188064
 10
283.768543045
 20
18.5322920895
 10
284.1577065469
 20
19.1550776753
 10
284.4530530574
 20
19.819681506
 10
284.63741819
 20
20.4874792382
 10
284.7000872611
 20
21.1196608932
  0
LWPOLYLINE
  5
270
330
1F
100
AcDbEntity
  8
0
  6
Continuous
 62
     7
370
    18
100
AcDbPolyline
 90
       24
 70
   128
 43
0.0
 10
265.5021375075
 20
22.2830425672
 10
265.5620703261
 20
23.3294302696
 10
265.7407525489
 20
24.4255228513
 10
266.034855892
 20
25.5509021961
 10
266.4389012651
 20
26.6846043771
 10
266.9453618336
 20
27.805510525
 10
267.5448039477
 20
28.8927409252
 10
268.2260609972
 20
29.9260422667
 10
268.9764418417
 20
30.8861655728
 10
269.7819690387
 20
31.7552265432
 10
270.6276368284
 20
32.5170354754
 10
271.4976919617
 20
33.1574015901
 10
272.3759269999
 20
33.6643958859
 10
273.2459821332
 20
34.0285740459
 10
274.0916499229
 20
34.2431523607
 10
274.8971771199
 20
34.3041332954
 10
275.6475579644
 20
34.2103812712
 10
276.3288150139
 20
33.9636425766
 10
276.9282571279
 20
33.5685133095
 10
277.4347176965
 20
33.0323540873
 10
277.8387630696
 20
32.3651527643
 10
278.1328664127
 20
31.5793379117
 10
278.3115486355
 20
30.6895474331
 10
278.3489796468
 20
30.3202275417
  0
LWPOLYLINE
  5
271
330
1F
100
AcDbEntity
  8
0
  6
Continuous
 62
     7
370
    18
100
AcDbPolyline
 90
       15
 70
   128
 43
0.0
 10
274.0241733123
 20
20.1740129755
 10
273.2459821332
 20
19.4783637819
 10
272.3759269999
 20
18.8379976672
 10
271.4976919617
 20
18.3310033713
 10
270.6276368284
 20
17.9668252114
 10
269.7819690387
 20
17.7522468966
 10
268.9764418417
 20
17.6912659618
 10
268.2260609972
 20
17.7850179861
 10
267.5448039477
 20
18.0317566807
 10
266.9453618336
 20
18.4268859478
 10
266.4389012651
 20
18.96304517
 10
266.034855892
 20
19.6302464929
 10
265.7407525489
 20
20.4160613456
 10
265.5620703261
 20
21.3058518242
 10
265.5021375075
 20
22.2830425672
  0
LWPOLYLINE
  5
272
330
1F
100
AcDbEntity
  8
0
  6
Continuous
 62
     7
370
    18
100
AcDbPolyline
 90
       19
 70
   128
 43
0.0
 10
264.9364530435
 20
22.2830425672
 10
264.9963898134
 20
23.3515685797
 10
265.1751319637
 20
24.4702291279
 10
265.4694881879
 20
25.6190605542
 10
265.874207252
 20
26.7775628877
 10
266.3820659106
 20
27.9250622918
 10
266.9840019326
 20
29.0410816819
 10
267.6692737988
 20
30.1057055428
 10
268.4256523374
 20
31.0999356172
 10
269.2396403496
 20
32.0060302414
 10
270.0967119898
 20
32.8078197252
 10
270.9815730147
 20
33.4909957547
 10
271.878432844
 20
34.0433680704
 10
272.7712871175
 20
34.4550785351
 10
273.6442026801
 20
34.7187808613
 10
274.4816026081
 20
34.8297694117
 10
275.2685432095
 20
34.7860630616
 10
275.9909816813
 20
34.5884414626
 10
276.422394847
 20
34.3774980058
  0
LWPOLYLINE
  5
273
330
1F
100
AcDbEntity
  8
0
  6
Continuous
 62
     7
370
    18
100
AcDbPolyline
 90
        7
 70
   128
 43
0.0
 10
266.7976443736
 20
17.9979502208
 10
266.3820659106
 20
18.3100919317
 10
265.874207252
 20
18.8712302096
 10
265.4694881879
 20
19.5624538581
 10
265.1751319637
 20
20.371428822
 10
264.9963898134
 20
21.2837180761
 10
264.9364530435
 20
22.2830425672
  0
LWPOLYLINE
  5
274
330
1F
100
AcDbEntity
  8
0
  6
Continuous
 62
     7
370
    18
100
AcDbPolyline
 90
       19
 70
   128
 43
0.0
 10
227.3714055564
 20
43.9688828854
 10
227.4313423263
 20
45.0374088979
 10
227.6100844766
 20
46.1560694461
 10
227.9044407008
 20
47.3049008724
 10
228.3091597649
 20
48.463403206
 10
228.8170184235
 20
49.61090261
 10
229.4189544455
 20
50.7269220001
 10
230.1042263116
 20
51.791545861
 10
230.8606048503
 20
52.7857759354
 10
231.6745928625
 20
53.6918705596
 10
232.5316645027
 20
54.4936600434
 10
233.4165255276
 20
55.1768360729
 10
234.3133853569
 20
55.7292083886
 10
235.2062396304
 20
56.1409188534
 10
236.079155193
 20
56.4046211795
 10
236.916555121
 20
56.5156097299
 10
237.7034957224
 20
56.4719033798
 10
238.4259341942
 20
56.2742817808
 10
238.8385337312
 20
56.0742856219
  0
LWPOLYLINE
  5
275
330
1F
100
AcDbEntity
  8
0
  6
Continuous
 62
     7
370
    18
100
AcDbPolyline
 90
        7
 70
   128
 43
0.0
 10
229.3393057922
 20
39.6193569618
 10
228.8170184235
 20
39.9959322499
 10
228.3091597649
 20
40.5570705278
 10
227.9044407008
 20
41.2482941763
 10
227.6100844766
 20
42.0572691402
 10
227.4313423263
 20
42.9695583943
 10
227.3714055564
 20
43.9688828854
  0
LWPOLYLINE
  5
276
330
1F
100
AcDbEntity
  8
0
  6
Continuous
 62
     7
370
    18
100
AcDbPolyline
 90
       11
 70
   128
 43
0.0
 10
276.3282183726
 20
23.8617431246
 10
276.8115713553
 20
24.5031779244
 10
277.3531299589
 20
25.0433770091
 10
277.9251374688
 20
25.4546533588
 10
278.4982767081
 20
25.7159273584
 10
279.0431724861
 20
25.8138084026
 10
279.5318971339
 20
25.7432792311
 10
279.9394020059
 20
25.507955201
 10
280.244801363
 20
25.1198973123
 10
280.432442096
 20
24.5989944693
 10
280.4601442646
 20
24.4480035789
  0
LWPOLYLINE
  5
277
330
1F
100
AcDbEntity
  8
0
  6
Continuous
 62
     7
370
    18
100
AcDbPolyline
 90
       11
 70
   128
 43
0.0
 10
277.5411729391
 20
19.391648896
 10
277.3961608211
 20
19.3400010505
 10
276.8512650432
 20
19.2421200063
 10
276.3625403953
 20
19.3126491778
 10
275.9550355233
 20
19.547973208
 10
275.6496361662
 20
19.9360310966
 10
275.4619954332
 20
20.4569339396
 10
275.4017300497
 20
21.0839835134
 10
275.4719292478
 20
21.7850418079
 10
275.6689947406
 20
22.5241771821
 10
275.9828262661
 20
23.2635064494
  0
LWPOLYLINE
  5
278
330
1F
100
AcDbEntity
  8
0
  6
Continuous
 62
     7
370
    18
100
AcDbPolyline
 90
       13
 70
   128
 43
0.0
 10
274.8359492735
 20
21.0584292483
 10
274.8977572976
 20
21.7731838034
 10
275.0804798556
 20
22.5280620577
 10
275.3761309429
 20
23.2900721257
 10
275.7717894224
 20
24.0259106049
 10
276.2501629031
 20
24.7034177162
 10
276.7903444901
 20
25.2929835194
 10
277.3687253835
 20
25.7688406256
 10
277.9600276817
 20
26.1101921764
 10
278.5384085751
 20
26.3021194355
 10
279.0785901621
 20
26.3362340174
 10
279.5569636428
 20
26.2110451704
 10
279.6901289156
 20
26.1400879513
  0
ARC
  5
279
330
1F
100
AcDbEntity
  8
0
  6
Continuous
 62
     7
370
    18
100
AcDbCircle
 10
276.8493044872
 20
20.8574391246
 30
0.0
 40
2.023362608724533
100
AcDbArc
 50
174.2991389883
 51
231.5983614874
  0
LWPOLYLINE
  5
27A
330
1F
100
AcDbEntity
  8
0
  6
Continuous
 62
     7
370
    18
100
AcDbPolyline
 90
        9
 70
   128
 43
0.0
 10
277.417734698
 20
20.2532814744
 10
277.2712285483
 20
20.2294447763
 10
276.862389177
 20
20.2641563732
 10
276.5291365153
 20
20.4566015801
 10
276.2946905546
 20
20.7933714237
 10
276.1753863266
 20
21.2510010016
 10
276.1795366388
 20
21.7976045369
 10
276.3068522253
 20
22.3950967205
 10
276.5484624918
 20
23.0018467249
  0
LWPOLYLINE
  5
27B
330
1F
100
AcDbEntity
  8
0
  6
Continuous
 62
     7
370
    18
100
AcDbPolyline
 90
        9
 70
   128
 43
0.0
 10
276.837582217
 20
23.502616777
 10
277.2422291704
 20
24.0152171089
 10
277.6959971028
 20
24.4241911006
 10
278.1672691894
 20
24.7010433125
 10
278.6232089809
 20
24.8264836326
 10
279.0320483522
 20
24.7917720357
 10
279.3653010139
 20
24.5993268289
 10
279.5997469746
 20
24.2625569853
 10
279.6522599722
 20
24.1240122116
  0
LWPOLYLINE
  5
27C
330
1F
100
AcDbEntity
  8
0
  6
Continuous
 62
     7
370
    18
100
AcDbPolyline
 90
        3
 70
   128
 43
0.0
 10
278.7441866117
 20
24.5212222724
 10
278.9284457186
 20
24.3590696365
 10
279.0233595983
 20
24.2160598188
  0
LWPOLYLINE
  5
27D
330
1F
100
AcDbEntity
  8
0
  6
Continuous
 62
     7
370
    18
100
AcDbPolyline
 90
        3
 70
   128
 43
0.0
 10
277.0235221353
 20
20.7518643527
 10
276.6803815514
 20
20.8118590258
 10
276.5896714082
 20
20.858153444
  0
LWPOLYLINE
  5
27E
330
1F
100
AcDbEntity
  8
0
  6
Continuous
 62
     7
370
    18
100
AcDbPolyline
 90
       15
 70
   128
 43
0.0
 10
268.9218247944
 20
24.2956226896
 10
268.9828603458
 20
25.0239587566
 10
269.1634678234
 20
25.7929466003
 10
269.456253419
 20
26.5711039408
 10
269.8492303052
 20
27.3265728804
 10
270.3263099106
 20
28.0284241463
 10
270.8679607927
 20
28.6479243401
 10
271.4520074533
 20
29.1597108733
 10
272.0545390568
 20
29.5428308226
 10
272.6508878947
 20
29.7815997037
 10
273.2166392833
 20
29.8662420788
 10
273.7286313788
 20
29.7932924996
 10
274.1659031211
 20
29.5657377972
 10
274.5105527186
 20
29.1928940386
 10
274.5730798733
 20
29.0917037359
  0
LWPOLYLINE
  5
27F
330
1F
100
AcDbEntity
  8
0
  6
Continuous
 62
     7
370
    18
100
AcDbPolyline
 90
        3
 70
   128
 43
0.0
 10
270.5758179367
 20
22.1674926992
 10
270.3263099106
 20
22.1844052316
 10
269.9465185671
 20
22.2894240065
  0
LWPOLYLINE
  5
280
330
1F
100
AcDbEntity
  8
0
  6
Continuous
 62
     7
370
    18
100
AcDbPolyline
 90
       13
 70
   128
 43
0.0
 10
269.6022556998
 20
23.9339512746
 10
269.5938846113
 20
24.2090227373
 10
269.6586539454
 20
24.9013246715
 10
269.8392273434
 20
25.6308854642
 10
270.1278091201
 20
26.3662083207
 10
270.5119406011
 20
27.0755477459
 10
270.9750376602
 20
27.7282795542
 10
271.4971075446
 20
28.2962241976
 10
272.0556112805
 20
28.7548621184
 10
272.6264369191
 20
29.0843927454
 10
273.184940655
 20
29.2705895122
 10
273.7070105394
 20
29.3054139271
 10
273.8289603053
 20
29.2901771616
  0
LWPOLYLINE
  5
281
330
1F
100
AcDbEntity
  8
0
  6
Continuous
 62
     7
370
    18
100
AcDbPolyline
 90
       14
 70
   128
 43
0.0
 10
269.3822534311
 20
24.0668952697
 10
269.3735504362
 20
24.3138561964
 10
269.4334267846
 20
25.0062745691
 10
269.6104392678
 20
25.7375628023
 10
269.8968513049
 20
26.4757601269
 10
270.280145282
 20
27.1886035586
 10
270.7435698024
 20
27.8449386945
 10
271.2668705888
 20
28.416080446
 10
271.8271771314
 20
28.8770671012
 10
272.4000012057
 20
29.2077514005
 10
272.9603077483
 20
29.3936809093
 10
273.4836085347
 20
29.4267293853
 10
273.947033055
 20
29.3054528115
 10
274.0509317867
 20
29.2515862249
  0
LWPOLYLINE
  5
282
330
1F
100
AcDbEntity
  8
0
  6
Continuous
 62
     7
370
    18
100
AcDbPolyline
 90
        3
 70
   128
 43
0.0
 10
270.1363222896
 20
22.5931958505
 10
270.1036224266
 20
22.6230711369
 10
270.008942001
 20
22.7217174764
  0
LWPOLYLINE
  5
283
330
1F
100
AcDbEntity
  8
0
  6
Continuous
 62
     7
370
    18
100
AcDbPolyline
 90
       13
 70
   128
 43
0.0
 10
269.5547868239
 20
23.9672938621
 10
269.5463907107
 20
24.1670680376
 10
269.5987950484
 20
24.8623293416
 10
269.770889192
 20
25.59917702
 10
270.0550085064
 20
26.3447929703
 10
270.4384985651
 20
27.0659684903
 10
270.9042795224
 20
27.7305832299
 10
271.4316058267
 20
28.3090363594
 10
271.9969911263
 20
28.7755642569
 10
272.5752539962
 20
29.109388306
 10
273.1406392958
 20
29.2956403806
 10
273.6679656001
 20
29.3260252427
 10
273.9846466478
 20
29.259411393
  0
LWPOLYLINE
  5
284
330
1F
100
AcDbEntity
  8
0
  6
Continuous
 62
     7
370
    18
100
AcDbPolyline
 90
       22
 70
   128
 43
0.0
 10
217.5244121166
 20
48.3842279719
 10
217.5836593903
 20
49.5276875909
 10
217.7605036154
 20
50.7222193196
 10
218.0522631986
 20
51.9497147919
 10
218.454515355
 20
53.1915661811
 10
218.9611632795
 20
54.4289491806
 10
219.5645263675
 20
55.6431061729
 10
220.2554574358
 20
56.815631012
 10
221.0234836512
 20
57.9287496212
 10
221.8569622759
 20
58.9655889915
 10
222.7432583104
 20
59.9104314456
 10
223.6689366236
 20
60.7489536899
 10
224.6199647845
 20
61.4684442878
 10
225.5819263482
 20
62.0579975104
 10
226.5402388345
 20
62.508675675
 10
227.4803752454
 20
62.8136469102
 10
228.3880840193
 20
62.9682893193
 10
229.2496054448
 20
62.9702565967
 10
230.0518792672
 20
62.81952031
 10
230.7827441453
 20
62.5183656506
 10
231.4311210553
 20
62.0713570057
 10
231.6986126149
 20
61.8188586065
  0
LWPOLYLINE
  5
285
330
1F
100
AcDbEntity
  8
0
  6
Continuous
 62
     7
370
    18
100
AcDbPolyline
 90
        9
 70
   128
 43
0.0
 10
220.8365584268
 20
42.919311836
 10
220.2554574358
 20
43.1060227396
 10
219.5645263675
 20
43.4808155475
 10
218.9611632795
 20
43.9983443465
 10
218.454515355
 20
44.6507641036
 10
218.0522631986
 20
45.4281850387
 10
217.7605036154
 20
46.3188220665
 10
217.5836593903
 20
47.309173799
 10
217.5244121166
 20
48.3842279719
  0
LINE
  5
286
330
1F
100
AcDbEntity
  8
0
  6
Continuous
 62
     7
370
    18
100
AcDbLine
 10
214.091842382
 20
50.9986967734
 30
0.0
 11
214.1809296245
 21
51.3724384345
 31
0.0
  0
LWPOLYLINE
  5
287
330
1F
100
AcDbEntity
  8
0
  6
Continuous
 62
     7
370
    18
100
AcDbPolyline
 90
        9
 70
   128
 43
0.0
 10
223.3880277137
 20
65.2356965733
 10
224.223718554
 20
65.7834384191
 10
225.3572963226
 20
66.4081322133
 10
226.4821021137
 20
66.8922445235
 10
227.5860196139
 20
67.2305602342
 10
228.6571574027
 20
67.4194358951
 10
229.6839767924
 20
67.4568354991
 10
230.6554168696
 20
67.3423570387
 10
231.5610136912
 20
67.0772328753
  0
LWPOLYLINE
  5
288
330
1F
100
AcDbEntity
  8
0
  6
Continuous
 62
     7
370
    18
100
AcDbPolyline
 90
       20
 70
   128
 43
0.0
 10
213.6581598719
 20
50.9932592069
 10
214.0431897723
 20
52.4668590956
 10
214.5379127729
 20
53.9512624738
 10
215.137052615
 20
55.4306408015
 10
215.8342207584
 20
56.8892207766
 10
216.6219848697
 20
58.3114504897
 10
217.4919452138
 20
59.6821651977
 10
218.4348248742
 20
60.9867492942
 10
219.4405711689
 20
62.2112937154
 10
220.4984603593
 20
63.3427407988
 10
221.5972120717
 20
64.3690256234
 10
222.7251112933
 20
65.279207273
 10
223.8701316843
 20
66.0635795674
 10
225.020064447
 20
66.7137804376
 10
226.1626484291
 20
67.2228761592
 10
227.2857009278
 20
67.5854391447
 10
228.3772470108
 20
67.7976020668
 10
229.4256485505
 20
67.8571042106
 10
230.4197264243
 20
67.7633103079
 10
231.3488820172
 20
67.5172213619
  0
LWPOLYLINE
  5
289
330
1F
100
AcDbEntity
  8
0
  6
Continuous
 62
     7
370
    18
100
AcDbPolyline
 90
       14
 70
   128
 43
0.0
 10
225.5978611497
 20
41.4099399235
 10
224.7268509621
 20
40.849954731
 10
223.5519126883
 20
40.2219073979
 10
222.388453298
 20
39.7460035389
 10
221.2499485464
 20
39.4277533205
 10
220.1495848816
 20
39.2708443683
 10
219.100106951
 20
39.2770925173
 10
218.1136704983
 20
39.4464268546
 10
217.2017009415
 20
39.7768856446
 10
216.3747613345
 20
40.2646404865
 10
215.6424282315
 20
40.9040432841
 10
215.0131856614
 20
41.6876878537
 10
214.4943204192
 20
42.6064970069
 10
214.091842382
 20
43.6498297828
  0
ARC
  5
28A
330
1F
100
AcDbEntity
  8
0
  6
Continuous
 62
     7
370
    18
100
AcDbCircle
 10
228.5688325435
 20
61.1946493784
 30
0.0
 40
6.701305418784925
100
AcDbArc
 50
13.117112618
 51
49.5620710787
  0
LWPOLYLINE
  5
28B
330
1F
100
AcDbEntity
  8
0
  6
Continuous
 62
     7
370
    18
100
AcDbPolyline
 90
       27
 70
   128
 43
0.0
 10
215.6985013207
 20
48.2517677409
 10
215.7583050646
 20
49.4719806372
 10
215.9369056278
 20
50.7447391176
 10
216.2318887864
 20
52.0528317569
 10
216.6392650776
 20
53.3785689465
 10
217.1535257766
 20
54.70402196
 10
217.7677159949
 20
56.0112673396
 10
218.4735301691
 20
57.2826254826
 10
219.2614230259
 20
58.5009041692
 10
220.1207399736
 20
59.6496278302
 10
221.039860336
 20
60.7132628198
 10
222.0063540853
 20
61.6774242477
 10
223.0071512535
 20
62.5290749188
 10
224.0287180099
 20
63.2566961835
 10
225.0572392433
 20
63.8504488532
 10
226.0788059997
 20
64.3023034596
 10
227.0796031678
 20
64.6061486034
 10
228.0460969172
 20
64.7578771061
 10
228.9652172795
 20
64.7554358987
 10
229.8245342273
 20
64.5988584672
 10
230.6124270841
 20
64.2902615099
 10
231.3182412583
 20
63.8338190664
 10
231.9324314766
 20
63.2357026187
 10
232.4466921756
 20
62.5040023699
 10
232.8540684668
 20
61.6486118344
 10
233.1490516253
 20
60.6810995006
 10
233.2197957691
 20
60.3458013516
  0
LWPOLYLINE
  5
28C
330
1F
100
AcDbEntity
  8
0
  6
Continuous
 62
     7
370
    18
100
AcDbPolyline
 90
       13
 70
   128
 43
0.0
 10
222.7881893205
 20
42.3343205882
 10
222.0063540853
 20
42.1090030155
 10
221.039860336
 20
41.9572745128
 10
220.1207399736
 20
41.9597157202
 10
219.2614230259
 20
42.1162931516
 10
218.4735301691
 20
42.424890109
 10
217.7677159949
 20
42.8813325524
 10
217.1535257766
 20
43.4794490002
 10
216.6392650776
 20
44.211149249
 10
216.2318887864
 20
45.0665397844
 10
215.9369056278
 20
46.0340521183
 10
215.7583050646
 20
47.1006027775
 10
215.6985013207
 20
48.2517677409
  0
LWPOLYLINE
  5
28D
330
1F
100
AcDbEntity
  8
0
  6
Continuous
 62
     7
370
    18
100
AcDbPolyline
 90
       24
 70
   128
 43
0.0
 10
204.3374022897
 20
52.1635787763
 10
204.396428951
 20
53.5199854212
 10
204.5728852934
 20
54.9301657358
 10
204.8648990747
 20
56.3791705263
 10
205.2693751359
 20
57.8516396832
 10
205.7820270107
 20
59.3319660584
 10
206.3974190727
 20
60.8044568696
 10
207.1090290971
 20
62.2535030872
 10
207.9093134567
 20
63.6637452094
 10
208.7897887809
 20
65.0202333317
 10
209.7411221772
 20
66.308590258
 10
210.7532286948
 20
67.5151567397
 10
211.8153803144
 20
68.6271441283
 10
212.9163175715
 20
69.6327649748
 10
214.0443705632
 20
70.5213591598
 10
215.1875815209
 20
71.2835087595
 10
216.3338321554
 20
71.9111320934
 10
217.4709719089
 20
72.3975782952
 10
218.5869468651
 20
72.7376903235
 10
219.6699272597
 20
72.9278626032
 10
220.7084331803
 20
72.9660801291
 10
221.6914567261
 20
72.8519372768
 10
222.6085767595
 20
72.5866432093
 10
223.3486945171
 20
72.2330623205
  0
LWPOLYLINE
  5
28E
330
1F
100
AcDbEntity
  8
0
  6
Continuous
 62
     7
370
    18
100
AcDbPolyline
 90
        9
 70
   128
 43
0.0
 10
207.5999740278
 20
44.9525232001
 10
207.1090290971
 20
45.2737066623
 10
206.3974190727
 20
45.9011454341
 10
205.7820270107
 20
46.6631196942
 10
205.2693751359
 20
47.5515508137
 10
204.8648990747
 20
48.5570218507
 10
204.5728852934
 20
49.6688747057
 10
204.396428951
 20
50.875322864
 10
204.3374022897
 20
52.1635787763
  0
LWPOLYLINE
  5
28F
330
1F
100
AcDbEntity
  8
0
  6
Continuous
 62
     7
370
    18
100
AcDbPolyline
 90
       15
 70
   128
 43
0.0
 10
212.0059757514
 20
52.9254788581
 10
212.3658676909
 20
54.3203522836
 10
212.8385847681
 20
55.7263699724
 10
213.418182302
 20
57.1258543815
 10
214.0973748145
 20
58.5012109845
 10
214.8676223004
 20
59.8351476565
 10
215.7192415214
 20
61.1108932971
 10
216.6415245438
 20
62.3124092278
 10
217.6228763743
 20
63.424589561
 10
218.6509593463
 20
64.4334510171
 10
219.7128475482
 20
65.326308767
 10
220.7951903483
 20
66.0919392747
 10
221.8843800768
 20
66.720715121
 10
222.9667228769
 20
67.2047310109
 10
223.1520387831
 20
67.2732192562
  0
LWPOLYLINE
  5
290
330
1F
100
AcDbEntity
  8
0
  6
Continuous
 62
     7
370
    18
100
AcDbPolyline
 90
       17
 70
   128
 43
0.0
 10
211.5801575799
 20
53.5736238456
 10
211.9973079886
 20
55.0198162993
 10
212.5290102389
 20
56.470436446
 10
213.168542567
 20
57.9071433119
 10
213.9078173876
 20
59.3117694369
 10
214.7374873202
 20
60.6665550872
 10
215.6470620799
 20
61.9543704898
 10
216.6250405162
 20
63.1589319814
 10
217.6590574681
 20
64.2650084605
 10
218.7360376991
 20
65.2586144352
 10
219.8423641551
 20
66.1271862451
 10
220.9640480749
 20
66.8597426214
 10
222.0869065087
 20
67.4470191062
 10
223.1967419368
 20
67.881592276
 10
224.2795209815
 20
68.1579654197
 10
225.3215530786
 20
68.2726443068
 10
225.4714348452
 20
68.2757654413
  0
LINE
  5
291
330
1F
100
AcDbEntity
  8
0
  6
Continuous
 62
     7
370
    18
100
AcDbLine
 10
205.9870389748
 20
51.6260153462
 30
0.0
 11
207.7845480631
 21
52.6636952552
 31
0.0
  0
LINE
  5
292
330
1F
100
AcDbEntity
  8
0
  6
Continuous
 62
     7
370
    18
100
AcDbLine
 10
213.735062724
 20
43.4031060946
 30
0.0
 11
213.6581598719
 21
43.6443922163
 31
0.0
  0
LWPOLYLINE
  5
293
330
1F
100
AcDbEntity
  8
0
  6
Continuous
 62
     7
370
    18
100
AcDbPolyline
 90
       17
 70
   128
 43
0.0
 10
197.1178432008
 20
64.4113876241
 10
197.5657410527
 20
65.6772068019
 10
198.1163191642
 20
66.9319835493
 10
198.7614161933
 20
68.1571180899
 10
199.4914697445
 20
69.3344516574
 10
200.2956586144
 20
70.4465315031
 10
201.1620624889
 20
71.4768745715
 10
202.0778390915
 20
72.4102085509
 10
203.029414009
 20
73.2326978075
 10
204.0026825349
 20
73.9321519236
 10
204.9832180996
 20
74.4982030563
 10
205.9564866255
 20
74.9224608614
 10
206.908061543
 20
75.1986366188
 10
207.8238381456
 20
75.3226357988
 10
208.6902420201
 20
75.2926213512
 10
209.49443089
 20
75.1090382112
 10
209.9820182315
 20
74.9066041963
  0
ARC
  5
294
330
1F
100
AcDbEntity
  8
0
  6
Continuous
 62
     7
370
    18
100
AcDbCircle
 10
201.0200387888
 20
58.746495867
 30
0.0
 40
4.30094056071004
100
AcDbArc
 50
204.8666556743
 51
235.7640548478
  0
LINE
  5
295
330
1F
100
AcDbEntity
  8
0
  6
Continuous
 62
     7
370
    18
100
AcDbLine
 10
205.9870389748
 20
50.8094744955
 30
0.0
 11
207.7845480631
 21
51.8471544045
 31
0.0
  0
LINE
  5
296
330
1F
100
AcDbEntity
  8
0
  6
Continuous
 62
     7
370
    18
100
AcDbLine
 10
209.2740977027
 20
46.1752574356
 30
0.0
 11
210.6129753222
 21
46.9481750334
 31
0.0
  0
LINE
  5
297
330
1F
100
AcDbEntity
  8
0
  6
Continuous
 62
     7
370
    18
100
AcDbLine
 10
212.9768738465
 20
45.6994162785
 30
0.0
 11
212.7908639989
 21
46.2583077972
 31
0.0
  0
LWPOLYLINE
  5
298
330
1F
100
AcDbEntity
  8
0
  6
Continuous
 62
     7
370
    18
100
AcDbPolyline
 90
        3
 70
   128
 43
0.0
 10
212.5811478662
 20
45.2996935109
 10
212.3658676909
 20
45.7320631009
 10
212.0059757514
 20
46.7114141378
  0
LWPOLYLINE
  5
299
330
1F
100
AcDbEntity
  8
0
  6
Continuous
 62
     7
370
    18
100
AcDbPolyline
 90
        3
 70
   128
 43
0.0
 10
212.3550142188
 20
44.6645424347
 10
211.9868931072
 20
45.2800507735
 10
211.5801575799
 20
46.2247568549
  0
LINE
  5
29A
330
1F
100
AcDbEntity
  8
0
  6
Continuous
 62
     7
370
    18
100
AcDbLine
 10
228.327523937
 20
69.2611084688
 30
0.0
 11
227.7865348921
 21
68.9488021407
 31
0.0
  0
ARC
  5
29B
330
1F
100
AcDbEntity
  8
0
  6
Continuous
 62
     7
370
    18
100
AcDbCircle
 10
200.8802822738
 20
62.9152966555
 30
0.0
 40
1.10209741065035
100
AcDbArc
 50
159.4112025223
 51
213.191486534
  0
ARC
  5
29C
330
1F
100
AcDbEntity
  8
0
  6
Continuous
 62
     7
370
    18
100
AcDbCircle
 10
199.5484576166
 20
62.7437988705
 30
0.0
 40
0.6345234148762225
100
AcDbArc
 50
41.9991509505
 51
61.7717641965
  0
LINE
  5
29D
330
1F
100
AcDbEntity
  8
0
  6
Continuous
 62
     7
370
    18
100
AcDbLine
 10
199.848577687
 20
63.3028587128
 30
0.0
 11
199.9581245903
 21
63.7136565712
 31
0.0
  0
LINE
  5
29E
330
1F
100
AcDbEntity
  8
0
  6
Continuous
 62
     7
370
    18
100
AcDbLine
 10
199.848577687
 20
63.3028587128
 30
0.0
 11
199.0465330381
 21
63.7658692332
 31
0.0
  0
LINE
  5
29F
330
1F
100
AcDbEntity
  8
0
  6
Continuous
 62
     7
370
    18
100
AcDbLine
 10
197.1723015389
 20
64.9273295486
 30
0.0
 11
197.1560651241
 21
65.1224681773
 31
0.0
  0
ARC
  5
2A0
330
1F
100
AcDbEntity
  8
0
  6
Continuous
 62
     7
370
    18
100
AcDbCircle
 10
199.6386140359
 20
54.6502369042
 30
0.0
 40
0.4314949854775346
100
AcDbArc
 50
27.885175929
 51
60.8829215863
  0
ARC
  5
2A1
330
1F
100
AcDbEntity
  8
0
  6
Continuous
 62
     7
370
    18
100
AcDbCircle
 10
201.0883127262
 20
55.4222976369
 30
0.0
 40
1.301169858631526
100
AcDbArc
 50
165.9701496118
 51
197.6767200264
  0
LINE
  5
2A2
330
1F
100
AcDbEntity
  8
0
  6
Continuous
 62
     7
370
    18
100
AcDbLine
 10
199.4568062665
 20
57.9360683121
 30
0.0
 11
198.1360754994
 21
58.6985099549
 31
0.0
  0
LINE
  5
2A3
330
1F
100
AcDbEntity
  8
0
  6
Continuous
 62
     7
370
    18
100
AcDbLine
 10
199.848577687
 20
55.0272026688
 30
0.0
 11
199.0465330381
 21
55.4902131892
 31
0.0
  0
LINE
  5
2A4
330
1F
100
AcDbEntity
  8
0
  6
Continuous
 62
     7
370
    18
100
AcDbLine
 10
199.848577687
 20
55.0272026688
 30
0.0
 11
199.9581245903
 21
54.7428849727
 31
0.0
  0
OLE2FRAME
  5
2A5
330
1F
100
AcDbEntity
  8
0
100
AcDbOle2Frame
 70
     2
  3
Paintbrush-Bild
 10
13.8511154363
 20
38.264191557
 30
0.0
 11
51.6290888628
 21
31.9806341108
 31
0.0
 71
     2
 72
     0
 73
     1
 90
    12928
310
80552BED0767C5B32B40DDAF6807D121434000000000000000006FFBDDFB85D0
310
4940DDAF6807D121434000000000000000006FFBDDFB85D04940416F4BD60AFB
310
3F4000000000000000002BED0767C5B32B40416F4BD60AFB3F40000000000000
310
0000000000000100000000010000010000000100000000000100000000320000
310
D0CF11E0A1B11AE1000000000000000000000000000000003E000300FEFF0900
310
0600000000000000000000000100000001000000000000000010000002000000
310
01000000FEFFFFFF0000000000000000FFFFFFFFFFFFFFFFFFFFFFFFFFFFFFFF
310
FFFFFFFFFFFFFFFFFFFFFFFFFFFFFFFFFFFFFFFFFFFFFFFFFFFFFFFFFFFFFFFF
310
FFFFFFFFFFFFFFFFFFFFFFFFFFFFFFFFFFFFFFFFFFFFFFFFFFFFFFFFFFFFFFFF
310
FFFFFFFFFFFFFFFFFFFFFFFFFFFFFFFFFFFFFFFFFFFFFFFFFFFFFFFFFFFFFFFF
310
FFFFFFFFFFFFFFFFFFFFFFFFFFFFFFFFFFFFFFFFFFFFFFFFFFFFFFFFFFFFFFFF
310
FFFFFFFFFFFFFFFFFFFFFFFFFFFFFFFFFFFFFFFFFFFFFFFFFFFFFFFFFFFFFFFF
310
FFFFFFFFFFFFFFFFFFFFFFFFFFFFFFFFFFFFFFFFFFFFFFFFFFFFFFFFFFFFFFFF
310
FFFFFFFFFFFFFFFFFFFFFFFFFFFFFFFFFFFFFFFFFFFFFFFFFFFFFFFFFFFFFFFF
310
FFFFFFFFFFFFFFFFFFFFFFFFFFFFFFFFFFFFFFFFFFFFFFFFFFFFFFFFFFFFFFFF
310
FFFFFFFFFFFFFFFFFFFFFFFFFFFFFFFFFFFFFFFFFFFFFFFFFFFFFFFFFFFFFFFF
310
FFFFFFFFFFFFFFFFFFFFFFFFFFFFFFFFFFFFFFFFFFFFFFFFFFFFFFFFFFFFFFFF
310
FFFFFFFFFFFFFFFFFFFFFFFFFFFFFFFFFFFFFFFFFFFFFFFFFFFFFFFFFFFFFFFF
310
FFFFFFFFFFFFFFFFFFFFFFFFFFFFFFFFFFFFFFFFFFFFFFFFFFFFFFFFFFFFFFFF
310
FFFFFFFFFFFFFFFFFFFFFFFFFFFFFFFFFFFFFFFFFFFFFFFFFFFFFFFFFFFFFFFF
310
FDFFFFFFFEFFFFFFFEFFFFFFFEFFFFFF05000000060000000700000008000000
310
090000000A0000000B0000000C0000000D0000000E0000000F00000010000000
310
11000000120000001300000014000000150000001600000017000000FEFFFFFF
310
FFFFFFFFFFFFFFFFFFFFFFFFFFFFFFFFFFFFFFFFFFFFFFFFFFFFFFFFFFFFFFFF
310
FFFFFFFFFFFFFFFFFFFFFFFFFFFFFFFFFFFFFFFFFFFFFFFFFFFFFFFFFFFFFFFF
310
FFFFFFFFFFFFFFFFFFFFFFFFFFFFFFFFFFFFFFFFFFFFFFFFFFFFFFFFFFFFFFFF
310
FFFFFFFFFFFFFFFFFFFFFFFFFFFFFFFFFFFFFFFFFFFFFFFFFFFFFFFFFFFFFFFF
310
FFFFFFFFFFFFFFFFFFFFFFFFFFFFFFFFFFFFFFFFFFFFFFFFFFFFFFFFFFFFFFFF
310
FFFFFFFFFFFFFFFFFFFFFFFFFFFFFFFFFFFFFFFFFFFFFFFFFFFFFFFFFFFFFFFF
310
FFFFFFFFFFFFFFFFFFFFFFFFFFFFFFFFFFFFFFFFFFFFFFFFFFFFFFFFFFFFFFFF
310
FFFFFFFFFFFFFFFFFFFFFFFFFFFFFFFFFFFFFFFFFFFFFFFFFFFFFFFFFFFFFFFF
310
FFFFFFFFFFFFFFFFFFFFFFFFFFFFFFFFFFFFFFFFFFFFFFFFFFFFFFFFFFFFFFFF
310
FFFFFFFFFFFFFFFFFFFFFFFFFFFFFFFFFFFFFFFFFFFFFFFFFFFFFFFFFFFFFFFF
310
FFFFFFFFFFFFFFFFFFFFFFFFFFFFFFFFFFFFFFFFFFFFFFFFFFFFFFFFFFFFFFFF
310
FFFFFFFFFFFFFFFFFFFFFFFFFFFFFFFFFFFFFFFFFFFFFFFFFFFFFFFFFFFFFFFF
310
FFFFFFFFFFFFFFFFFFFFFFFFFFFFFFFFFFFFFFFFFFFFFFFFFFFFFFFFFFFFFFFF
310
52006F006F007400200045006E00740072007900000000000000000000000000
310
0000000000000000000000000000000000000000000000000000000000000000
310
16000500FFFFFFFFFFFFFFFF020000000A00030000000000C000000000000046
310
0000000000000000000000002013FD8D33A7D30103000000C000000000000000
310
01004F006C006500000000000000000000000000000000000000000000000000
310
0000000000000000000000000000000000000000000000000000000000000000
310
0A000200FFFFFFFFFFFFFFFFFFFFFFFF00000000000000000000000000000000
310
0000000000000000000000000000000000000000000000001400000000000000
310
010043006F006D0070004F0062006A0000000000000000000000000000000000
310
0000000000000000000000000000000000000000000000000000000000000000
310
120002010100000003000000FFFFFFFF00000000000000000000000000000000
310
0000000000000000000000000000000000000000010000004D00000000000000
310
01004F006C006500310030004E00610074006900760065000000000000000000
310
0000000000000000000000000000000000000000000000000000000000000000
310
1A000200FFFFFFFFFFFFFFFFFFFFFFFF00000000000000000000000000000000
310
0000000000000000000000000000000000000000040000002426000000000000
310
FEFFFFFF02000000FEFFFFFFFFFFFFFFFFFFFFFFFFFFFFFFFFFFFFFFFFFFFFFF
310
FFFFFFFFFFFFFFFFFFFFFFFFFFFFFFFFFFFFFFFFFFFFFFFFFFFFFFFFFFFFFFFF
310
FFFFFFFFFFFFFFFFFFFFFFFFFFFFFFFFFFFFFFFFFFFFFFFFFFFFFFFFFFFFFFFF
310
FFFFFFFFFFFFFFFFFFFFFFFFFFFFFFFFFFFFFFFFFFFFFFFFFFFFFFFFFFFFFFFF
310
FFFFFFFFFFFFFFFFFFFFFFFFFFFFFFFFFFFFFFFFFFFFFFFFFFFFFFFFFFFFFFFF
310
FFFFFFFFFFFFFFFFFFFFFFFFFFFFFFFFFFFFFFFFFFFFFFFFFFFFFFFFFFFFFFFF
310
FFFFFFFFFFFFFFFFFFFFFFFFFFFFFFFFFFFFFFFFFFFFFFFFFFFFFFFFFFFFFFFF
310
FFFFFFFFFFFFFFFFFFFFFFFFFFFFFFFFFFFFFFFFFFFFFFFFFFFFFFFFFFFFFFFF
310
FFFFFFFFFFFFFFFFFFFFFFFFFFFFFFFFFFFFFFFFFFFFFFFFFFFFFFFFFFFFFFFF
310
FFFFFFFFFFFFFFFFFFFFFFFFFFFFFFFFFFFFFFFFFFFFFFFFFFFFFFFFFFFFFFFF
310
FFFFFFFFFFFFFFFFFFFFFFFFFFFFFFFFFFFFFFFFFFFFFFFFFFFFFFFFFFFFFFFF
310
FFFFFFFFFFFFFFFFFFFFFFFFFFFFFFFFFFFFFFFFFFFFFFFFFFFFFFFFFFFFFFFF
310
FFFFFFFFFFFFFFFFFFFFFFFFFFFFFFFFFFFFFFFFFFFFFFFFFFFFFFFFFFFFFFFF
310
FFFFFFFFFFFFFFFFFFFFFFFFFFFFFFFFFFFFFFFFFFFFFFFFFFFFFFFFFFFFFFFF
310
FFFFFFFFFFFFFFFFFFFFFFFFFFFFFFFFFFFFFFFFFFFFFFFFFFFFFFFFFFFFFFFF
310
FFFFFFFFFFFFFFFFFFFFFFFFFFFFFFFFFFFFFFFFFFFFFFFFFFFFFFFFFFFFFFFF
310
0100000200000000000000000000000000000000000000000000000000000000
310
0000000000000000000000000000000000000000000000000000000000000000
310
0100FEFF030A0000FFFFFFFF0A00030000000000C00000000000004607000000
310
5042727573680007000000504272757368000700000050427275736800F439B2
310
7100000000000000000000000000000000000000000000000000000000000000
310
0000000000000000000000000000000000000000000000000000000000000000
310
0000000000000000000000000000000000000000000000000000000000000000
310
0000000000000000000000000000000000000000000000000000000000000000
310
0000000000000000000000000000000000000000000000000000000000000000
310
0000000000000000000000000000000000000000000000000000000000000000
310
0000000000000000000000000000000000000000000000000000000000000000
310
0000000000000000000000000000000000000000000000000000000000000000
310
0000000000000000000000000000000000000000000000000000000000000000
310
0000000000000000000000000000000000000000000000000000000000000000
310
0000000000000000000000000000000000000000000000000000000000000000
310
0000000000000000000000000000000000000000000000000000000000000000
310
20260000424D0E260000000000003E00000028000000B40200006E0000000100
310
01000000000000000000130B0000130B00000200000002000000000000FFFFFF
310
FFFFFFFFFFFFFFFFFFFFFFFFFFFFFFFFFFFFFFFFFFFFFFFFFFFFFFFFFFFFFFFF
310
FFFFFFFFFFFFFFFFFFFFFFFFFFFFFFFFFFFFFFFFFFFFFFFFFFFFFFFFFFFFFFFF
310
FFFFFFFFFFFFFFFFFFFFFFFFFFFFFFFFFFFFFFFFFFFFFFFFF000FFFFFFFFFFFF
310
FFFFFFFFFFFFFFFFFFFFFFFFFFFFFFFFFFFFFFFFFFFFFFFFFFFFFFFFFFFFFFFF
310
FFFFFFFFFFFFFFFFFFFFFFFFFFFFFFFFFFFFFFFFFFFFFFFFFFFFFFFFFFFFFFFF
310
FFFFFFFFFFFFFFFFFFFFFFFFFFFFFFFFF000FFFFFFFFFFFFFFFFFFFFFFFFFFFF
310
FFFFFFFFFFFFFFFFFFFFFFFFFFFFFFFFFFFFFFFFFFFFFFFFFFFFFFFFFFFFFFFF
310
FFFFFFFFFFFFFFFFFFFFFFFFFFFFFFFFFFFFFFFFFFFFFFFFFFFFFFFFFFFFFFFF
310
FFFFFFFFFFFFFFFFF000FFFFFFFFFFFFFFFFFFFFFFFFFFFFFFFFFFFFFFFFFFFF
310
FFFFFFFFFFFFFFFFFFFFFFFFFFFFFFFFFFFFFFFFFFFFFFFFFFFFFFFFFFFFFFFF
310
FFFFFFFFFFFFFFFFFFFFFFFFFFFFFFFFFFFFFFFFFFFFFFFFFFFFFFFFFFFFFFFF
310
F000FFFFFFFFFFFFFFFFFFFFFFFFFFFFFFFFFFFFFFFFFFFFFFFFFFFFFFFFFFFF
310
FFFFFFFFFFFFFFFFFFFFFFFFFFFFFFFFFFFFFFFFFFFFFFFFFFFFFFFFFFFFFFFF
310
FFFFFFFFFFFFFFFFFFFFFFFFFFFFFFFFFFFFFFFFFFFFFFFFF000FFFFFFFFFFFF
310
FFFFFFFFFFFFFFFFFFFFFFFFFFFFFFFFFFFFFFFFFFFFFFFFFFFFFFFFFFFFFFFF
310
FFFFFFFFFFFFFFFFFFFFFFFFFFFFFFFFFFFFFFFFFFFFFFFFFFFFFFFFFFFFFFFF
310
FFFFFFFFFFFFFFFFFFFFFFFFFFFFFFFFF000FFFFFFFFFFFFFFFFFFFFFFFFFFFF
310
FFFFFFFFFFFFFFFFFFFFFFFFFFFFFFFFFFFFFFFFFFFFFFFFFFFFFFFFFFFFFFFF
310
FFFFFFFFFFFFFFFFFFFFFFFFFFFFFFFFFFFFFFFFFFFFFFFFFFFFFFFFFFFFFFFF
310
FFFFFFFFFFFFFFFFF000FFFFFFFFFFFFFFFFFFFFFFFFFFFFFFFFFFFFFFFFFFFF
310
FFFFFFFFFFFFFFFFFFFFFFFFFFFFFFFFFFFFFFFFFFFFFFFFFFFFFFFFFFFFFFFF
310
FFFFFFFFFFFFFFFFFFFFFFFFFFFFFFFFFFFFFFFFFFFFFFFFFFFFFFFFFFFFFFFF
310
F000FFFFFFFFFFFFFFFFFFFFFFFFFFFFFFFFFFFFFFFFFFFFFFFFFFFFFFFFFFFF
310
FFFFFFFFFFFFFFFFFFFFFFFFFFFFFFFFFFFFFFFFFFFFFFFFFFFFFFFFFFFFFFFF
310
FFFFFFFFFFFFFFFFFFFFFFFFFFFFFFFFFFFFFFFFFFFFFFFFF000FFFFFFFFFFFF
310
FFFFFFFFFFFFFFFFFFFFFFFFFFFFFFFFFFFFFFFFFFFFFFFFFFFFFFFFFFFFFFFF
310
FFFFFFFFFFFFFFFFFFFFFFFFFFFFFFFFFFFFFFFFFFFFFFFFFFFFFFFFFFFFFFFF
310
FFFFFFFFFFFFFFFFFFFFFFFFFFFFFFFFF000FFFFFFFFFFFFFFFFFFFFFFFFFFFF
310
FFFFFFFFFFFFFFFFFFFFFFFFFFFFFFFFFFFFFFFFFFFFFFFFFFFFFFFFFFFFFFFF
310
FFFFFFFFFFFFFFFFFFFFFFFFFFFFFFFFFFFFFFFFFFFFFFFFFFFFFFFFFFFFFFFF
310
FFFFFFFFFFFFFFFFF000FFFFFFFFFFFFFFFFFFFFFFFFFFFFFFFFFFFFFFFFFFFF
310
FFFFFFFFFFFFFFFFFFFFFFFFFFFFFFFFFFFFFFFFFFFFFFFFFFFFFFFFFFFFFFFF
310
FFFFFFFFFFFFFFFFFFFFFFFFFFFFFFFFFFFFFFFFFFFFFFFFFFFFFFFFFFFFFFFF
310
F000FFFFFFFFFFFFFFFFFFFFFFFFFFFFFFFFFFFFFFFFFFFFFFFFFFFFFFFFFFFF
310
FFFFFFFFFFFFFFFFFFFFFFFFFFFFFFFFFFFFFFFFFFFFFFFFFFFFFFFFFFFFFFFF
310
FFFFFFFFFFFFFFFFFFFFFFFFFFFFFFFFFFFFFFFFFFFFFFFFF000FFFFFFFFFFFF
310
FFFFFFFFFFFFFFFFFFFFFFFFFFFFFFFFFFFFFFFFFFFFFFFFFFFFFFFFFFFFFFFF
310
FFFFFFFFFFFFFFFFFFFFFFFFFFFFFFFFFFFFFFFFFFFFFFFFFFFFFFFFFFFFFFFF
310
FFFFFFFFFFFFFFFFFFFFFFFFFFFFFFFFF000FFFFFFFFFFFFFFFFFFFFFFFFFFFF
310
FFFFFFFFFFFFFFFFFFFFFFFFFFFFFFFFFFFFFFFFFFFFFFFFFFFFFFFFFFFFFFFF
310
FFFFFFFFFFFFFFFFFFFFFFFFFFFFFFFFFFFFFFFFFFFFFFFFFFFFFFFFFFFFFFFF
310
FFFFFFFFFFFFFFFFF000FFFFFFFFFFFFFFFFFFFFFFFFFFFFFFFFFFFFFFFFFFFF
310
FFFFFFFFFFFFFFFFFFFFFFFFFFFFFFFFFFFFFFFFFFFFFFFFFFFFFFFFFFFFFFFF
310
FFFFFFFFFFFFFFFFFFFFFFFFFFFFFFFFFFFFFFFFFFFFFFFFFFFFFFFFFFFFFFFF
310
F000FFFFFFFFFFFFFFFFFFFFFFFFFFFFFFFFFFFFFFFFFFFFFFFFFFFFFFFFFFFF
310
FFFFFFFFFFFFFFFFFFFFFFFFFFFFFFFFFFFFFFFFFFFFFFFFFFFFFFFFFFFFFFFF
310
FFFFFFFFFFFFFFFFFFFFFFFFFFFFFFFFFFFFFFFFFFFFFFFFF000FFFFFFFFFFFF
310
FFFFFFFFFFFFFFFFFFFFFFFFFFFFFFFFFFFFFFFFFFFFFFFFFFFFFFFFFFFFFFFF
310
FFFFFFFFFFFFFFFFFFFFFFFFFFFFFFFFFFFFFFFFFFFFFFFFFFFFFFFFFFFFFFFF
310
FFFFFFFFFFFFFFFFFFFFFFFFFFFFFFFFF000FFFFFFFFFFFFFFFFFFFFFFFFFFFF
310
FFFFFFFFFFFFFFFFFFFFFFFFFFFFFFFFFFFFFFFFFFFFFFFFFFFFFFFFFFFFFFFF
310
FFFFFFFFFFFFFFFFFFFFFFFFFFFFFFFFFFFFFFFFFFFFFFFFFFFFFFFFFFFFFFFF
310
FFFFFFFFFFFFFFFFF000FFFFF80003FFFFFFFFFFFFFFFFFFFFFFFFFFFFFFFFFF
310
FFFFF00007FFFFFFFFFF00007FFFFFF800000000000000007FFFFFFFFFFFFFFF
310
FFFFFFFC001FFFFFFFFFFFFFFC001FFFFFFFFFFFFFFFFFFFFFFFFFFE0007FFFF
310
F000FFFF8000007FFFFFFFF8000FFFFFC0007FFFFF80007FFFFF0000007FFFFF
310
FFF8000007FFFFF800000000000000007FFFFFF0001FFFFFFFFFFFC00001FFFF
310
FFFFFFFFC00001FFFFFFFF000000000003FFFFE000007FFFF000FFFE0000000F
310
FFFFFFF0000FFFFF80007FFFFF80007FFFFC0000001FFFFFFFC0000001FFFFF8
310
00000000000000007FFFFFF0001FFFFFFFFFFE0000003FFFFFFFFFFE0000003F
310
FFFFFF000000000003FFFF0000000FFFF000FFF800000003FFFFFFF00007FFFF
310
80007FFFFF80007FFFF000000007FFFFFF000000003FFFF80000000000000000
310
7FFFFFF0001FFFFFFFFFF80000000FFFFFFFFFF80000000FFFFFFF0000000000
310
03FFFC00000003FFF000FFE000000000FFFFFFF00007FFFF80003FFFFF80007F
310
FFC000000001FFFFFC000000001FFFF800000000000000007FFFFFF0001FFFFF
310
FFFFE000000003FFFFFFFFE000000003FFFFFF000000000003FFF000000000FF
310
F000FF80000000007FFFFFF00007FFFF80003FFFFF80007FFF8000000000FFFF
310
F80000000007FFF800000000000000007FFFFFF0001FFFFFFFFFC000000001FF
310
FFFFFFC000000001FFFFFF000000000003FFC0000000007FF000FF0000000000
310
3FFFFFE00007FFFF00003FFFFF80007FFE00000000003FFFF00000000003FFF8
310
00000000000000007FFFFFF0001FFFFFFFFF8000000000FFFFFFFF8000000000
310
FFFFFF000000000003FF80000000003FF000FE00000000001FFFFFE00003FFFF
310
00003FFFFF80007FFC00000000001FFFE00000000001FFF8000001FFFE000000
310
7FFFFFF0001FFFFFFFFE00000000003FFFFFFE00000000003FFFFF0000000000
310
03FF00000000001FF000FC00000000000FFFFFE00003FFFF00001FFFFF80007F
310
F800000000001FFFC00000000000FFF8000001FFFE0000007FFFFFF0001FFFFF
310
FFFC00000000001FFFFFFC00000000001FFFFF000000000003FE00000000000F
310
F000F8000000000007FFFFE00003FFFF00001FFFFF80007FF800000000000FFF
310
800000000000FFF8000001FFFE0000007FFFFFF0001FFFFFFFF800000000000F
310
FFFFF800000000000FFFFF000000000003FC000000000007F000F80000000000
310
03FFFFC00003FFFE00001FFFFF80007FF0000000000007FF0000000000007FF8
310
000001FFFE0000007FFFFFF0001FFFFFFFF0000000000007FFFFF00000000000
310
07FFFF000000000003F8000000000003F000F0000000000003FFFFC00001FFFE
310
00001FFFFF80007FE0000000000007FE0000000000003FF8000001FFFE000000
310
7FFFFFF0001FFFFFFFF0000000000007FFFFF0000000000007FFFF0000000000
310
03F800001F800003F000E00001FFF00001FFFFC00001FFFE00000FFFFF80007F
310
E00001FFE00003FE00001FFF00003FF8000001FFFE0000007FFFFFF0001FFFFF
310
FFE000003E000003FFFFE000003E000003FFFF000000000003F00001FFF80001
310
F000E00007FFFC0001FFFFC00001FFFE00000FFFFF80007FC0000FFFFC0003FC
310
0000FFFFC0001FF8000001FFFE0000007FFFFFF0001FFFFFFFC00003FFE00001
310
FFFFC00003FFE00001FFFF0001FFFFFFFFF00007FFFE0001F000E0000FFFFF00
310
00FFFF800001FFFC00000FFFFF80007FC0001FFFFE0001FC0001FFFFE0001FF8
310
000001FFFE0000007FFFFFF0001FFFFFFF80000FFFF80000FFFF80000FFFF800
310
00FFFF0003FFFFFFFFE0000FFFFF8000F000C0003FFFFF8000FFFF800000FFFC
310
000007FFFF80007F80003FFFFF0001FC0003FFFFF0001FF8000001FFFE000000
310
7FFFFFF0001FFFFFFF80003FFFFE0000FFFF80003FFFFE0000FFFF0003FFFFFF
310
FFE0003FFFFF8000F000C0003FFFFF8000FFFF800000FFFC000007FFFF80007F
310
80007FFFFF8001F80007FFFFF8000FF8000001FFFE0000007FFFFFF0001FFFFF
310
FF00007FFFFF00007FFF00007FFFFF00007FFF0003FFFFFFFFE0003FFFFFC000
310
F000C0007FFFFFC000FFFF000000FFFC000007FFFF80007F8000FFFFFF8000F8
310
000FFFFFF8000FF8000001FFFE0000007FFFFFF0001FFFFFFF0000FFFFFF8000
310
7FFF0000FFFFFF80007FFF0003FFFFFFFFC0007FFFFFC00070008000FFFFFFC0
310
00FFFF000000FFF8000007FFFF80007F8000FFFFFF8000F8000FFFFFF8000FF8
310
000001FFFE0000007FFFFFF0001FFFFFFE0001FFFFFFC0003FFE0001FFFFFFC0
310
003FFF0003FFFFFFFFC0007FFFFFE00070008000FFFFFFC0007FFF0000007FF8
310
000003FFFF80007F0001FFFFFF8000F8000FFFFFF8000FF8000001FFFE000000
310
7FFFFFF0001FFFFFFE0001FFFFFFC0003FFE0001FFFFFFC0003FFF0003FFFFFF
310
FFC000FFFFFFE00070008000FFFFFFC0007FFF0000007FF8000003FFFF80007F
310
0001FFFFFF8000F8001FFFFFF8000FF8000001FFFE0000007FFFFFF0001FFFFF
310
FE0003FFFFFFE0003FFE0003FFFFFFE0003FFF0003FFFFFFFFC000FFFFFFE000
310
70008000FFFFFFC0007FFE0000007FF8000003FFFF80007F0001FFFFFF8000F0
310
001FFFFFF8000FF8000001FFFE0000007FFFFFF0001FFFFFFC0003FFFFFFE000
310
1FFC0003FFFFFFE0001FFF0003FFFFFFFFC000FFFFFFC00070008000FFFFFF80
310
007FFE0000007FF0000003FFFF80007F0001FFFFFF0000F0001FFFFFF8000FF8
310
000001FFFE0000007FFFFFF0001FFFFFFC0007FFFFFFF0001FFC0007FFFFFFF0
310
001FFF0003FFFFFFFFC000FFFFFFC00070008001FFFFFF0000FFFE0000003FF0
310
000001FFFF80007F0001FFFFFF0000F8001FFFFFF0000FF8000001FFFE000000
310
7FFFFFF0001FFFFFFC0007FFFFFFF0001FFC0007FFFFFFF0001FFF0003FFFFFF
310
FFC001FFFFFF80007000FFFFFFFFFE0000FFFE0008003FF0008001FFFF80007F
310
FFFFFFFFFC0000FFFFFFFFFFE0000FF8000001FFFE0000007FFFFFF0001FFFFF
310
F8000FFFFFFFF8000FF8000FFFFFFFF8000FFF0003FFFFFFFFFFFFFFFFFF0000
310
7000FFFFFFFFFC0000FFFC0008003FF0008001FFFF80007FFFFFFFFFF80001FF
310
FFFFFFFF80000FF8000001FFFE0000007FFFFFF0001FFFFFF8000FFFFFFFF800
310
0FF8000FFFFFFFF8000FFF0003FFFFFFFFFFFFFFFFFE0000F000FFFFFFFFE000
310
00FFFC000C003FE000C001FFFF80007FFFFFFFFFC00001FFFFFFFFFE00001FF8
310
000001FFFE0000007FFFFFF0001FFFFFF8000FFFFFFFF8000FF8000FFFFFFFF8
310
000FFF0003FFFFFFFFFFFFFFFFF00000F000FFFFFFFE000001FFFC000C001FE0
310
00C000FFFF80007FFFFFFFFE000001FFFFFFFFE000001FF80FFFFFFFFFFFFFC0
310
7FFFFFF0001FFFFFF8000FFFFFFFF8000FF8000FFFFFFFF8000FFF0003FFFFFF
310
FFFFFFFFFF800000F000FFFFFFC0000001FFFC001C001FE001C000FFFF80007F
310
FFFFFF80000003FFFFFFF80000001FF80FFFFFFFFFFFFFC07FFFFFF0001FFFFF
310
F8001FFFFFFFFC000FF8001FFFFFFFFC000FFF0003FFFFFFFFFFFFFFF0000001
310
F000FFFFF800000001FFF8001C001FE001C000FFFF80007FFFFFF800000003FF
310
FFFF800000003FF80FFFFFFFFFFFFFC07FFFFFF0001FFFFFF8001FFFFFFFFC00
310
0FF8001FFFFFFFFC000FFF0003FFFFFFFFFFFFFE00000001F000FFFFC0000000
310
03FFF8001E001FC001E000FFFF80007FFFFF8000000007FFFFFC000000003FF8
310
0FFFFFFFFFFFFFC07FFFFFF0001FFFFFF8001FFFFFFFFC000FF8001FFFFFFFFC
310
000FFF0003FFFFFFFFFFFFE000000003F000FFFE0000000007FFF8001E000FC0
310
01E0007FFF80007FFFFE0000000007FFFFE0000000007FF80FFFFFFFFFFFFFC0
310
7FFFFFF0001FFFFFF0001FFFFFFFFC0007F0001FFFFFFFFC0007FF0003FFFFFF
310
FFFFFF0000000003F000FFF80000000007FFF8001E000FC003E0007FFF80007F
310
FFF0000000000FFFFF8000000000FFF80FFFFFFFFFFFFFC07FFFFFF0001FFFFF
310
F0001FFFFFFFFC0007F0001FFFFFFFFC0007FF0003FFFFFFFFFFFC0000000007
310
F000FFE0000000000FFFF0003E000FC003E0007FFF80007FFFC0000000001FFF
310
FE0000000001FFF80FFFFFFFFFFFFFC07FFFFFF0001FFFFFF0001FFFFFFFFC00
310
07F0001FFFFFFFFC0007FF0003FFFFFFFFFFF0000000000FF000FFC000000000
310
1FFFF0003F000F8003F0003FFF80007FFF80000000003FFFF80000000003FFF8
310
0FFFFFFFFFFFFFC07FFFFFF0001FFFFFF0001FFFFFFFFC0007F0001FFFFFFFFC
310
0007FF0003FFFFFFFFFFE0000000001FF000FF00000000007FFFF0003F000780
310
03F0003FFF80007FFF00000000007FFFF00000000007FFF80FFFFFFFFFFFFFC0
310
7FFFFFF0001FFFFFF0001FFFFFFFFC0007F0001FFFFFFFFC0007FF0003FFFFFF
310
FFFF80000000007FF000FE0000000000FFFFE0003F00078007F0003FFF80007F
310
FE0000000001FFFFE0000000001FFFF80FFFFFFFFFFFFFC07FFFFFF0001FFFFF
310
F0001FFFFFFFFC0007F0001FFFFFFFFC0007FF0003FFFFFFFFFF0000000000FF
310
F000FC0000000003FFFFE0007F00078007F0003FFF80007FFC0000000007FFFF
310
C0000000007FFFF80FFFFFFFFFFFFFC07FFFFFF0001FFFFFF8001FFFFFFFFC00
310
0FF8001FFFFFFFFC000FFF0003FFFFFFFFFE0000000003FFF000FC000000000F
310
FFFFE0007F80070007F8001FFF80007FF8000000001FFFFF8000000001FFFFF8
310
0FFFFFFFFFFFFFC07FFFFFF0001FFFFFF8001FFFFFFFFC000FF8001FFFFFFFFC
310
000FFF0003FFFFFFFFFC000000000FFFF000F8000000007FFFFFE0007F800700
310
07F8001FFF80007FF000000000FFFFFF800000000FFFFFF80FFFFFFFFFFFFFC0
310
7FFFFFF0001FFFFFF8000FFFFFFFF8000FF8000FFFFFFFF8000FFF0003FFFFFF
310
FFFC000000007FFFF000F800000007FFFFFFC0007F8003000FF8001FFF80007F
310
F000000007FFFFFF000000007FFFFFF80FFFFFFFFFFFFFC07FFFFFF0001FFFFF
310
F8000FFFFFFFF8000FF8000FFFFFFFF8000FFF0003FFFFFFFFF80000000FFFFF
310
F000F0000000FFFFFFFFC000FF8003000FF8001FFF80007FE0000000FFFFFFFF
310
0000000FFFFFFFF8000001FFFE0000007FFFFFF0001FFFFFF8000FFFFFFFF800
310
0FF8000FFFFFFFF8000FFF0003FFFFFFFFF8000000FFFFFFF000F000000FFFFF
310
FFFFC000FFC002000FF8000FFF80007FE000001FFFFFFFFE000001FFFFFFFFF8
310
000001FFFE0000007FFFFFF0001FFFFFF8000FFFFFFFF8000FF8000FFFFFFFF8
310
000FFF0003FFFFFFFFF000001FFFFFFFF000E00000FFFFFFFFFFC000FFC00200
310
0FFC000FFF80007FE00001FFFFFFFFFE00001FFFFFFFFFF8000001FFFE000000
310
7FFFFFF0001FFFFFFC000FFFFFFFF8001FFC000FFFFFFFF8001FFF0003FFFFFF
310
FFF00001FFFFFFFFF000E00007FFFFFFFFFF8000FFC000001FFC000FFF80007F
310
C0000FFFFFFFFFFE0000FFFFFFFFFFF8000001FFFE0000007FFFFFF0001FFFFF
310
FC0007FFFFFFF0001FFC0007FFFFFFF0001FFF0003FFFFFFFFF00007FFFFFFFF
310
F000E0001FFFFFFFFFFF8000FFC000001FFC000FFF80007FC0003FFFFFFFFFFE
310
0001FFFFFFFFFFF8000001FFFE0000007FFFFFF0001FFFFFFC0007FFFFFFF000
310
1FFC0007FFFFFFF0001FFF0003FFFFFFFFF0001FFFFFFFFFF000E0003FFFFF00
310
03FF8001FFE000001FFC0007FF80007FC0007FFFFF0007FC0003FFFFF0003FF8
310
000001FFFE0000007FFFFFF0001FFFFFFC0003FFFFFFE0001FFC0003FFFFFFE0
310
001FFF0003FFFFFFFFF0003FFFFFFFFFF000E0003FFFFF0001FF8001FFE00000
310
1FFE0007FF80007FC0007FFFFE0003FC0007FFFFE0003FF8000001FFFE000000
310
7FFFFFF0001FFFFFFE0003FFFFFFE0003FFE0003FFFFFFE0003FFF0003FFFFFF
310
FFF0003FFFFF8001F000E0003FFFFF0001FF0001FFE000001FFE0007FF80007F
310
C0007FFFFE0003FC0007FFFFE0003FF8000001FFFE0000007FFFFFF0001FFFFF
310
FE0001FFFFFFC0003FFE0001FFFFFFC0003FFF0003FFFFFFFFF0003FFFFF0001
310
F000E0003FFFFF0003FF0001FFE000003FFE0007FF80007FC0007FFFFE0003FC
310
0007FFFFE0003FF8000001FFFE0000007FFFFFF0001FFFFFFF0001FFFFFFC000
310
7FFF0001FFFFFFC0007FFF0003FFFFFFFFF0003FFFFF0001F000E0003FFFFE00
310
03FF0003FFF000003FFE0003FF80007FC0007FFFFC0003FE0007FFFFE0003FF8
310
000001FFFE0000007FFFFFF0001FFFFFFF0000FFFFFF80007FFF0000FFFFFF80
310
007FFF0003FFFFFFFFF0003FFFFF0001F000E0003FFFFE0003FF0003FFF00000
310
3FFF0003FF80007FC0007FFFFC0007FE0007FFFFC0003FF8000001FFFE000000
310
7FFFFFF0001FFFFFFF80007FFFFF0000FFFF80007FFFFF0000FFFF0003FFFFFF
310
FFF0003FFFFF0003F000E0003FFFFC0003FE0003FFF000003FFF0003FF80007F
310
E0003FFFF80007FE0003FFFFC0007FF8000001FFFE0000007FFFFFF0001FFFFF
310
FF80003FFFFE0000FFFF80003FFFFE0000FFFF0003FFFFFFFFF0001FFFFE0003
310
F000F0001FFFF80003FE0003FFF000007FFF0001FF80007FE0003FFFF00007FE
310
0001FFFF80007FF8000001FFFE0000007FFFFFF0001FFFFFFFC0000FFFF80001
310
FFFFC0000FFFF80001FFFF0003FFFFFFFFF0001FFFFC0003F000F0000FFFF000
310
07FE0007FFF800007FFF0001FF80007FE0001FFFE00007FF0000FFFE00007FF8
310
000001FFFE0000007FFFFFF0001FFFFFFFC00003FFE00001FFFFC00003FFE000
310
01FFFF0003FFFFFFFFF8000FFFF80003F000F00003FFC00007FC0007FFF80000
310
7FFF8001FF80007FF00007FF80000FFF00007FF80000FFF8000001FFFE000000
310
7F80000000000001FFE000003E000003FFFFE000003E000003FFFF0003FFFFFF
310
FFF80003FFE00007F000F800000000000FFC0007FFF800007FFF8001FF80007F
310
F000000000000FFF000000000000FFF8000001FFFE0000007F80000000000001
310
FFF0000000000007FFFFF0000000000007FFFF0003FFFFFFFFFC00007E000007
310
F000F800000000000FFC0007FFF80000FFFF8000FF80007FF800000000001FFF
310
800000000001FFF8000001FFFE0000007F80000000000001FFF800000000000F
310
FFFFF800000000000FFFFF0003FFFFFFFFFC00000000000FF000FC0000000000
310
1FFC0007FFFC0000FFFF8000FF80007FF800000000003FFFC00000000001FFF8
310
000001FFFE0000007F80000000000001FFF800000000000FFFFFF80000000000
310
0FFFFF0003FFFFFFFFFE00000000001FF000FE00000000003FF8000FFFFC0000
310
FFFF8000FF80007FFC00000000003FFFC00000000003FFF8000001FFFE000000
310
7F80000000000001FFFC00000000001FFFFFFC00000000001FFFFF0003FFFFFF
310
FFFF00000000001FF000FF00000000003FF8000FFFFC0000FFFFC000FF80007F
310
FE00000000007FFFE00000000007FFF8000001FFFE0000007F80000000000001
310
FFFE00000000003FFFFFFE00000000003FFFFF0003FFFFFFFFFF80000000003F
310
F000FF80000000007FF8000FFFFC0001FFFFC0007F80007FFF0000000000FFFF
310
F0000000000FFFF800000000000000007F80000000000001FFFF8000000000FF
310
FFFFFF8000000000FFFFFF0003FFFFFFFFFFC0000000007FF000FFC000000000
310
FFF8000FFFFE0001FFFFC0007F80007FFF8000000001FFFFF8000000001FFFF8
310
00000000000000007F80000000000001FFFFC000000001FFFFFFFFC000000001
310
FFFFFF0003FFFFFFFFFFE000000000FFF000FFE000000003FFF0001FFFFE0001
310
FFFFC0007F80007FFFC000000007FFFFFE000000003FFFF80000000000000000
310
7F80000000000001FFFFE000000003FFFFFFFFE000000003FFFFFF0003FFFFFF
310
FFFFF000000003FFF000FFF80000000FFFF0001FFFFE0001FFFFE0007F80007F
310
FFF00000000FFFFFFF00000000FFFFF800000000000000007F80000000000001
310
FFFFF80000000FFFFFFFFFF80000000FFFFFFF0003FFFFFFFFFFFC0000000FFF
310
F000FFFE0000003FFFF0001FFFFE0003FFFFE0003F80007FFFFC0000003FFFFF
310
FFC0000003FFFFF800000000000000007F80000000000001FFFFFE0000003FFF
310
FFFFFFFE0000003FFFFFFF0003FFFFFFFFFFFF0000003FFFF000FFFF800000FF
310
FFF0001FFFFF0003FFFFE0003F80007FFFFF000001FFFFFFFFF800001FFFFFF8
310
00000000000000007F80000000000001FFFFFFC00001FFFFFFFFFFFFC00001FF
310
FFFFFF0003FFFFFFFFFFFFC00000FFFFF000FFFFF8000FFFFFFFFFFFFFFFFFFF
310
FFFFFFFFFFFFFFFFFFFFF0001FFFFFFFFFFF0000FFFFFFF80000000000000000
310
7FFFFFFFFFFFFFFFFFFFFFFC001FFFFFFFFFFFFFFC001FFFFFFFFFFFFFFFFFFF
310
FFFFFFFC001FFFFFF000FFFFFFFFFFFFFFFFFFFFFFFFFFFFFFFFFFFFFFFFFFFF
310
FFFFFFFFFFFFFFFFFFFFFFFFFFFFFFFFFFFFFFFFFFFFFFFFFFFFFFFFFFFFFFFF
310
FFFFFFFFFFFFFFFFFFFFFFFFFFFFFFFFFFFFFFFFFFFFFFFFFFFFFFFFFFFFFFFF
310
F000FFFFFFFFFFFFFFFFFFFFFFFFFFFFFFFFFFFFFFFFFFFFFFFFFFFFFFFFFFFF
310
FFFFFFFFFFFFFFFFFFFFFFFFFFFFFFFFFFFFFFFFFFFFFFFFFFFFFFFFFFFFFFFF
310
FFFFFFFFFFFFFFFFFFFFFFFFFFFFFFFFFFFFFFFFFFFFFFFFF000FFFFFFFFFFFF
310
FFFFFFFFFFFFFFFFFFFFFFFFFFFFFFFFFFFFFFFFFFFFFFFFFFFFFFFFFFFFFFFF
310
FFFFFFFFFFFFFFFFFFFFFFFFFFFFFFFFFFFFFFFFFFFFFFFFFFFFFFFFFFFFFFFF
310
FFFFFFFFFFFFFFFFFFFFFFFFFFFFFFFFF000FFFFFFFFFFFFFFFFFFFFFFFFFFFF
310
FFFFFFFFFFFFFFFFFFFFFFFFFFFFFFFFFFFFFFFFFFFFFFFFFFFFFFFFFFFFFFFF
310
FFFFFFFFFFFFFFFFFFFFFFFFFFFFFFFFFFFFFFFFFFFFFFFFFFFFFFFFFFFFFFFF
310
FFFFFFFFFFFFFFFFF000FFFFFFFFFFFFFFFFFFFFFFFFFFFFFFFFFFFFFFFFFFFF
310
FFFFFFFFFFFFFFFFFFFFFFFFFFFFFFFFFFFFFFFFFFFFFFFFFFFFFFFFFFFFFFFF
310
FFFFFFFFFFFFFFFFFFFFFFFFFFFFFFFFFFFFFFFFFFFFFFFFFFFFFFFFFFFFFFFF
310
F000FFFFFFFFFFFFFFFFFFFFFFFFFFFFFFFFFFFFFFFFFFFFFFFFFFFFFFFFFFFF
310
FFFFFFFFFFFFFFFFFFFFFFFFFFFFFFFFFFFFFFFFFFFFFFFFFFFFFFFFFFFFFFFF
310
FFFFFFFFFFFFFFFFFFFFFFFFFFFFFFFFFFFFFFFFFFFFFFFFF000FFFFFFFFFFFF
310
FFFFFFFFFFFFFFFFFFFFFFFFFFFFFFFFFFFFFFFFFFFFFFFFFFFFFFFFFFFFFFFF
310
FFFFFFFFFFFFFFFFFFFFFFFFFFFFFFFFFFFFFFFFFFFFFFFFFFFFFFFFFFFFFFFF
310
FFFFFFFFFFFFFFFFFFFFFFFFFFFFFFFFF000FFFFFFFFFFFFFFFFFFFFFFFFFFFF
310
FFFFFFFFFFFFFFFFFFFFFFFFFFFFFFFFFFFFFFFFFFFFFFFFFFFFFFFFFFFFFFFF
310
FFFFFFFFFFFFFFFFFFFFFFFFFFFFFFFFFFFFFFFFFFFFFFFFFFFFFFFFFFFFFFFF
310
FFFFFFFFFFFFFFFFF000FFFFFFFFFFFFFFFFFFFFFFFFFFFFFFFFFFFFFFFFFFFF
310
FFFFFFFFFFFFFFFFFFFFFFFFFFFFFFFFFFFFFFFFFFFFFFFFFFFFFFFFFFFFFFFF
310
FFFFFFFFFFFFFFFFFFFFFFFFFFFFFFFFFFFFFFFFFFFFFFFFFFFFFFFFFFFFFFFF
310
F000FFFFFFFFFFFFFFFFFFFFFFFFFFFFFFFFFFFFFFFFFFFFFFFFFFFFFFFFFFFF
310
FFFFFFFFFFFFFFFFFFFFFFFFFFFFFFFFFFFFFFFFFFFFFFFFFFFFFFFFFFFFFFFF
310
FFFFFFFFFFFFFFFFFFFFFFFFFFFFFFFFFFFFFFFFFFFFFFFFF000FFFFFFFFFFFF
310
FFFFFFFFFFFFFFFFFFFFFFFFFFFFFFFFFFFFFFFFFFFFFFFFFFFFFFFFFFFFFFFF
310
FFFFFFFFFFFFFFFFFFFFFFFFFFFFFFFFFFFFFFFFFFFFFFFFFFFFFFFFFFFFFFFF
310
FFFFFFFFFFFFFFFFFFFFFFFFFFFFFFFFF000FFFFFFFFFFFFFFFFFFFFFFFFFFFF
310
FFFFFFFFFFFFFFFFFFFFFFFFFFFFFFFFFFFFFFFFFFFFFFFFFFFFFFFFFFFFFFFF
310
FFFFFFFFFFFFFFFFFFFFFFFFFFFFFFFFFFFFFFFFFFFFFFFFFFFFFFFFFFFFFFFF
310
FFFFFFFFFFFFFFFFF000FFFFFFFFFFFFFFFFFFFFFFFFFFFFFFFFFFFFFFFFFFFF
310
FFFFFFFFFFFFFFFFFFFFFFFFFFFFFFFFFFFFFFFFFFFFFFFFFFFFFFFFFFFFFFFF
310
FFFFFFFFFFFFFFFFFFFFFFFFFFFFFFFFFFFFFFFFFFFFFFFFFFFFFFFFFFFFFFFF
310
F000FFFFFFFFFFFFFFFFFFFFFFFFFFFFFFFFFFFFFFFFFFFFFFFFFFFFFFFFFFFF
310
FFFFFFFFFFFFFFFFFFFFFFFFFFFFFFFFFFFFFFFFFFFFFFFFFFFFFFFFFFFFFFFF
310
FFFFFFFFFFFFFFFFFFFFFFFFFFFFFFFFFFFFFFFFFFFFFFFFF000FFFFFFFFFFFF
310
FFFFFFFFFFFFFFFFFFFFFFFFFFFFFFFFFFFFFFFFFFFFFFFFFFFFFFFFFFFFFFFF
310
FFFFFFFFFFFFFFFFFFFFFFFFFFFFFFFFFFFFFFFFFFFFFFFFFFFFFFFFFFFFFFFF
310
FFFFFFFFFFFFFFFFFFFFFFFFFFFFFFFFF000FFFFFFFFFFFFFFFFFFFFFFFFFFFF
310
FFFFFFFFFFFFFFFFFFFFFFFFFFFFFFFFFFFFFFFFFFFFFFFFFFFFFFFFFFFFFFFF
310
FFFFFFFFFFFFFFFFFFFFFFFFFFFFFFFFFFFFFFFFFFFFFFFFFFFFFFFFFFFFFFFF
310
FFFFFFFFFFFFFFFFF000FFFFFFFFFFFFFFFFFFFFFFFFFFFFFFFFFFFFFFFFFFFF
310
FFFFFFFFFFFFFFFFFFFFFFFFFFFFFFFFFFFFFFFFFFFFFFFFFFFFFFFFFFFFFFFF
310
FFFFFFFFFFFFFFFFFFFFFFFFFFFFFFFFFFFFFFFFFFFFFFFFFFFFFFFFFFFFFFFF
310
F000FFFFFFFFFFFFFFFFFFFFFFFFFFFFFFFFFFFFFFFFFFFFFFFFFFFFFFFFFFFF
310
FFFFFFFFFFFFFFFFFFFFFFFFFFFFFFFFFFFFFFFFFFFFFFFFFFFFFFFFFFFFFFFF
310
FFFFFFFFFFFFFFFFFFFFFFFFFFFFFFFFFFFFFFFFFFFFFFFFF000FFFFFFFFFFFF
310
FFFFFFFFFFFFFFFFFFFFFFFFFFFFFFFFFFFFFFFFFFFFFFFFFFFFFFFFFFFFFFFF
310
FFFFFFFFFFFFFFFFFFFFFFFFFFFFFFFFFFFFFFFFFFFFFFFFFFFFFFFFFFFFFFFF
310
FFFFFFFFFFFFFFFFFFFFFFFFFFFFFFFFF000FFFFFFFFFFFFFFFFFFFFFFFFFFFF
310
FFFFFFFFFFFFFFFFFFFFFFFFFFFFFFFFFFFFFFFFFFFFFFFFFFFFFFFFFFFFFFFF
310
FFFFFFFFFFFFFFFFFFFFFFFFFFFFFFFFFFFFFFFFFFFFFFFFFFFFFFFFFFFFFFFF
310
FFFFFFFFFFFFFFFFF000FFFFFFFFFFFFFFFFFFFFFFFFFFFFFFFFFFFFFFFFFFFF
310
FFFFFFFFFFFFFFFFFFFFFFFFFFFFFFFFFFFFFFFFFFFFFFFFFFFFFFFFFFFFFFFF
310
FFFFFFFFFFFFFFFFFFFFFFFFFFFFFFFFFFFFFFFFFFFFFFFFFFFFFFFFFFFFFFFF
310
F000FFFFFFFFFFFFFFFFFFFFFFFFFFFFFFFFFFFFFFFFFFFFFFFFFFFFFFFFFFFF
310
FFFFFFFFFFFFFFFFFFFFFFFFFFFFFFFFFFFFFFFFFFFFFFFFFFFFFFFFFFFFFFFF
310
FFFFFFFFFFFFFFFFFFFFFFFFFFFFFFFFFFFFFFFFFFFFFFFFF000FFFFFFFFFFFF
310
FFFFFFFFFFFFFFFFFFFFFFFFFFFFFFFFFFFFFFFFFFFFFFFFFFFFFFFFFFFFFFFF
310
FFFFFFFFFFFFFFFFFFFFFFFFFFFFFFFFFFFFFFFFFFFFFFFFFFFFFFFFFFFFFFFF
310
FFFFFFFFFFFFFFFFFFFFFFFFFFFFFFFFF0000000000000000000000000000000
310
0000000000000000000000000000000000000000000000000000000000000000
310
0000000000000000000000000000000000000000000000000000000000000000
310
0000000000000000000000000000000000000000000000000000000000000000
310
0000000000000000000000000000000000000000000000000000000000000000
310
0000000000000000000000000000000000000000000000000000000000000000
310
0000000000000000000000000000000000000000000000000000000000000000
310
0000000000000000000000000000000000000000000000000000000000000000
310
0000000000000000000000000000000000000000000000000000000000000000
310
0000000000000000000000000000000000000000000000000000000000000000
310
0000000000000000000000000000000000000000000000000000000000000000
310
0000000000000000000000000000000000000000000000000000000000000000
310
0000000000000000000000000000000000000000000000000000000000000000
310
0000000000000000000000000000000000000000000000000000000000000000
310
0000000000000000000000000000000000000000000000000000000000000000
310
0000000000000000000000000000000000000000000000000000000000000000
  1
OLE
  0
ENDSEC
  0
SECTION
  2
OBJECTS
  0
DICTIONARY
  5
C
330
0
100
AcDbDictionary
281
     1
  3
ACAD_GROUP
350
D
  3
ACAD_LAYOUT
350
1A
  3
ACAD_MLINESTYLE
350
17
  3
ACAD_PLOTSETTINGS
350
19
  3
ACAD_PLOTSTYLENAME
350
E
  3
ACAD_SCALELIST
350
47
  0
DICTIONARY
  5
D
102
{ACAD_REACTORS
330
C
102
}
330
C
100
AcDbDictionary
281
     1
  0
DICTIONARY
  5
1A
102
{ACAD_REACTORS
330
C
102
}
330
C
100
AcDbDictionary
281
     1
  3
Layout1
350
1E
  3
Layout2
350
26
  3
Model
350
22
  0
DICTIONARY
  5
17
102
{ACAD_REACTORS
330
C
102
}
330
C
100
AcDbDictionary
281
     1
  3
Standard
350
18
  0
DICTIONARY
  5
19
102
{ACAD_REACTORS
330
C
102
}
330
C
100
AcDbDictionary
281
     1
  0
ACDBDICTIONARYWDFLT
  5
E
102
{ACAD_REACTORS
330
C
102
}
330
C
100
AcDbDictionary
281
     1
  3
Normal
350
F
100
AcDbDictionaryWithDefault
340
F
  0
DICTIONARY
  5
47
102
{ACAD_REACTORS
330
C
102
}
330
C
100
AcDbDictionary
281
     1
  3
A0
350
48
  3
A1
350
49
  3
A2
350
4A
  3
A3
350
4B
  3
A4
350
4C
  3
A5
350
4D
  3
A6
350
4E
  3
A7
350
4F
  3
A8
350
50
  3
A9
350
51
  3
B0
350
52
  3
B1
350
53
  3
B2
350
54
  3
B3
350
55
  3
B4
350
56
  3
B5
350
57
  3
B6
350
58
  3
B7
350
59
  3
B8
350
5A
  3
B9
350
5B
  3
C0
350
5C
  3
C1
350
5D
  3
C2
350
5E
  3
C3
350
5F
  3
C4
350
60
  3
C5
350
61
  3
C6
350
62
  3
C7
350
63
  3
C8
350
64
  3
C9
350
65
  3
D0
350
66
  3
D1
350
67
  3
D2
350
68
  0
LAYOUT
  5
1E
102
{ACAD_REACTORS
330
1A
102
}
330
1A
100
AcDbPlotSettings
  1

  2
none_device
  4

  6

 40
0.0
 41
0.0
 42
0.0
 43
0.0
 44
0.0
 45
0.0
 46
0.0
 47
0.0
 48
0.0
 49
0.0
140
0.0
141
0.0
142
1.0
143
1.0
 70
   688
 72
     1
 73
     0
 74
     5
  7

 75
    16
147
1.0
148
0.0
149
0.0
100
AcDbLayout
  1
Layout1
 70
     1
 71
     1
 10
0.0
 20
0.0
 11
420.0
 21
297.0
 12
0.0
 22
0.0
 32
0.0
 14
1.0000000000E+20
 24
1.0000000000E+20
 34
1.0000000000E+20
 15
-1.0000000000E+20
 25
-1.0000000000E+20
 35
-1.0000000000E+20
146
0.0
 13
0.0
 23
0.0
 33
0.0
 16
1.0
 26
0.0
 36
0.0
 17
0.0
 27
1.0
 37
0.0
 76
     0
330
1B
  0
LAYOUT
  5
26
102
{ACAD_REACTORS
330
1A
102
}
330
1A
100
AcDbPlotSettings
  1

  2
none_device
  4

  6

 40
0.0
 41
0.0
 42
0.0
 43
0.0
 44
0.0
 45
0.0
 46
0.0
 47
0.0
 48
0.0
 49
0.0
140
0.0
141
0.0
142
1.0
143
1.0
 70
   688
 72
     1
 73
     0
 74
     5
  7

 75
    16
147
1.0
148
0.0
149
0.0
100
AcDbLayout
  1
Layout2
 70
     1
 71
     2
 10
0.0
 20
0.0
 11
0.0
 21
0.0
 12
0.0
 22
0.0
 32
0.0
 14
0.0
 24
0.0
 34
0.0
 15
0.0
 25
0.0
 35
0.0
146
0.0
 13
0.0
 23
0.0
 33
0.0
 16
1.0
 26
0.0
 36
0.0
 17
0.0
 27
1.0
 37
0.0
 76
     0
330
23
  0
LAYOUT
  5
22
102
{ACAD_REACTORS
330
1A
102
}
330
1A
100
AcDbPlotSettings
  1

  2
none_device
  4
Letter_(8.50_x_11.00_Inches)
  6

 40
6.35
 41
6.35
 42
6.35000508
 43
6.35000508
 44
215.9
 45
279.4
 46
0.0
 47
0.0
 48
0.0
 49
0.0
140
0.0
141
0.0
142
1.0
143
1.0
 70
  1712
 72
     1
 73
     0
 74
     0
  7

 75
     0
147
1.0
148
0.0
149
0.0
100
AcDbLayout
  1
Model
 70
     1
 71
     0
 10
0.0
 20
0.0
 11
297.0
 21
210.0
 12
0.0
 22
0.0
 32
0.0
 14
0.0
 24
0.0
 34
0.0
 15
297.0
 25
210.0
 35
0.0
146
0.0
 13
0.0
 23
0.0
 33
0.0
 16
1.0
 26
0.0
 36
0.0
 17
0.0
 27
1.0
 37
0.0
 76
     0
330
1F
331
29
  0
MLINESTYLE
  5
18
102
{ACAD_REACTORS
330
17
102
}
330
17
100
AcDbMlineStyle
  2
Standard
 70
     0
  3

 62
   256
 51
90.0
 52
90.0
 71
     2
 49
0.5
 62
   256
  6
BYLAYER
 49
-0.5
 62
   256
  6
BYLAYER
  0
ACDBPLACEHOLDER
  5
F
102
{ACAD_REACTORS
330
E
102
}
330
E
  0
SCALE
  5
48
102
{ACAD_REACTORS
330
47
102
}
330
47
100
AcDbScale
 70
     0
300
1:1
140
1.0
141
1.0
290
     1
  0
SCALE
  5
49
102
{ACAD_REACTORS
330
47
102
}
330
47
100
AcDbScale
 70
     0
300
1:2
140
1.0
141
2.0
290
     0
  0
SCALE
  5
4A
102
{ACAD_REACTORS
330
47
102
}
330
47
100
AcDbScale
 70
     0
300
1:4
140
1.0
141
4.0
290
     0
  0
SCALE
  5
4B
102
{ACAD_REACTORS
330
47
102
}
330
47
100
AcDbScale
 70
     0
300
1:5
140
1.0
141
5.0
290
     0
  0
SCALE
  5
4C
102
{ACAD_REACTORS
330
47
102
}
330
47
100
AcDbScale
 70
     0
300
1:8
140
1.0
141
8.0
290
     0
  0
SCALE
  5
4D
102
{ACAD_REACTORS
330
47
102
}
330
47
100
AcDbScale
 70
     0
300
1:10
140
1.0
141
10.0
290
     0
  0
SCALE
  5
4E
102
{ACAD_REACTORS
330
47
102
}
330
47
100
AcDbScale
 70
     0
300
1:16
140
1.0
141
16.0
290
     0
  0
SCALE
  5
4F
102
{ACAD_REACTORS
330
47
102
}
330
47
100
AcDbScale
 70
     0
300
1:20
140
1.0
141
20.0
290
     0
  0
SCALE
  5
50
102
{ACAD_REACTORS
330
47
102
}
330
47
100
AcDbScale
 70
     0
300
1:30
140
1.0
141
30.0
290
     0
  0
SCALE
  5
51
102
{ACAD_REACTORS
330
47
102
}
330
47
100
AcDbScale
 70
     0
300
1:40
140
1.0
141
40.0
290
     0
  0
SCALE
  5
52
102
{ACAD_REACTORS
330
47
102
}
330
47
100
AcDbScale
 70
     0
300
1:50
140
1.0
141
50.0
290
     0
  0
SCALE
  5
53
102
{ACAD_REACTORS
330
47
102
}
330
47
100
AcDbScale
 70
     0
300
1:100
140
1.0
141
100.0
290
     0
  0
SCALE
  5
54
102
{ACAD_REACTORS
330
47
102
}
330
47
100
AcDbScale
 70
     0
300
2:1
140
2.0
141
1.0
290
     0
  0
SCALE
  5
55
102
{ACAD_REACTORS
330
47
102
}
330
47
100
AcDbScale
 70
     0
300
4:1
140
4.0
141
1.0
290
     0
  0
SCALE
  5
56
102
{ACAD_REACTORS
330
47
102
}
330
47
100
AcDbScale
 70
     0
300
8:1
140
8.0
141
1.0
290
     0
  0
SCALE
  5
57
102
{ACAD_REACTORS
330
47
102
}
330
47
100
AcDbScale
 70
     0
300
10:1
140
10.0
141
1.0
290
     0
  0
SCALE
  5
58
102
{ACAD_REACTORS
330
47
102
}
330
47
100
AcDbScale
 70
     0
300
100:1
140
100.0
141
1.0
290
     0
  0
SCALE
  5
59
102
{ACAD_REACTORS
330
47
102
}
330
47
100
AcDbScale
 70
     0
300
1/128" = 1'-0"
140
0.0078125
141
12.0
290
     0
  0
SCALE
  5
5A
102
{ACAD_REACTORS
330
47
102
}
330
47
100
AcDbScale
 70
     0
300
1/64" = 1'-0"
140
0.015625
141
12.0
290
     0
  0
SCALE
  5
5B
102
{ACAD_REACTORS
330
47
102
}
330
47
100
AcDbScale
 70
     0
300
1/32" = 1'-0"
140
0.03125
141
12.0
290
     0
  0
SCALE
  5
5C
102
{ACAD_REACTORS
330
47
102
}
330
47
100
AcDbScale
 70
     0
300
1/16" = 1'-0"
140
0.0625
141
12.0
290
     0
  0
SCALE
  5
5D
102
{ACAD_REACTORS
330
47
102
}
330
47
100
AcDbScale
 70
     0
300
3/32" = 1'-0"
140
0.09375
141
12.0
290
     0
  0
SCALE
  5
5E
102
{ACAD_REACTORS
330
47
102
}
330
47
100
AcDbScale
 70
     0
300
1/8" = 1'-0"
140
0.125
141
12.0
290
     0
  0
SCALE
  5
5F
102
{ACAD_REACTORS
330
47
102
}
330
47
100
AcDbScale
 70
     0
300
3/16" = 1'-0"
140
0.1875
141
12.0
290
     0
  0
SCALE
  5
60
102
{ACAD_REACTORS
330
47
102
}
330
47
100
AcDbScale
 70
     0
300
1/4" = 1'-0"
140
0.25
141
12.0
290
     0
  0
SCALE
  5
61
102
{ACAD_REACTORS
330
47
102
}
330
47
100
AcDbScale
 70
     0
300
3/8" = 1'-0"
140
0.375
141
12.0
290
     0
  0
SCALE
  5
62
102
{ACAD_REACTORS
330
47
102
}
330
47
100
AcDbScale
 70
     0
300
1/2" = 1'-0"
140
0.5
141
12.0
290
     0
  0
SCALE
  5
63
102
{ACAD_REACTORS
330
47
102
}
330
47
100
AcDbScale
 70
     0
300
3/4" = 1'-0"
140
0.75
141
12.0
290
     0
  0
SCALE
  5
64
102
{ACAD_REACTORS
330
47
102
}
330
47
100
AcDbScale
 70
     0
300
1" = 1'-0"
140
1.0
141
12.0
290
     0
  0
SCALE
  5
65
102
{ACAD_REACTORS
330
47
102
}
330
47
100
AcDbScale
 70
     0
300
1-1/2" = 1'-0"
140
1.5
141
12.0
290
     0
  0
SCALE
  5
66
102
{ACAD_REACTORS
330
47
102
}
330
47
100
AcDbScale
 70
     0
300
3" = 1'-0"
140
3.0
141
12.0
290
     0
  0
SCALE
  5
67
102
{ACAD_REACTORS
330
47
102
}
330
47
100
AcDbScale
 70
     0
300
6" = 1'-0"
140
6.0
141
12.0
290
     0
  0
SCALE
  5
68
102
{ACAD_REACTORS
330
47
102
}
330
47
100
AcDbScale
 70
     0
300
1'-0" = 1'-0"
140
12.0
141
12.0
290
     0
  0
ENDSEC
  0
EOF
