  0
SECTION
  2
HEADER
  9
$ACADVER
  1
AC1015
  9
$ACADMAINTVER
 70
     6
  9
$DWGCODEPAGE
  3
ANSI_1252
  9
$INSBASE
 10
0.0
 20
0.0
 30
0.0
  9
$EXTMIN
 10
0.0
 20
0.0
 30
0.0
  9
$EXTMAX
 10
297.0
 20
210.0
 30
0.0
  9
$LIMMIN
 10
0.0
 20
0.0
  9
$LIMMAX
 10
297.0
 20
210.0
  9
$ORTHOMODE
 70
     0
  9
$REGENMODE
 70
     1
  9
$FILLMODE
 70
     1
  9
$QTEXTMODE
 70
     0
  9
$MIRRTEXT
 70
     1
  9
$LTSCALE
 40
1.0
  9
$ATTMODE
 70
     1
  9
$TEXTSIZE
 40
2.0
  9
$TRACEWID
 40
1.0
  9
$TEXTSTYLE
  7
STANDARD
  9
$CLAYER
  8
0
  9
$CELTYPE
  6
ByLayer
  9
$CECOLOR
 62
   256
  9
$CELTSCALE
 40
1.0
  9
$DISPSILH
 70
     0
  9
$DIMSCALE
 40
1.0
  9
$DIMASZ
 40
3.0
  9
$DIMEXO
 40
0.0
  9
$DIMDLI
 40
3.75
  9
$DIMRND
 40
0.0
  9
$DIMDLE
 40
0.0
  9
$DIMEXE
 40
1.0
  9
$DIMTP
 40
0.0
  9
$DIMTM
 40
0.0
  9
$DIMTXT
 40
2.0
  9
$DIMCEN
 40
2.5
  9
$DIMTSZ
 40
0.0
  9
$DIMTOL
 70
     0
  9
$DIMLIM
 70
     0
  9
$DIMTIH
 70
     1
  9
$DIMTOH
 70
     1
  9
$DIMSE1
 70
     0
  9
$DIMSE2
 70
     0
  9
$DIMTAD
 70
     1
  9
$DIMZIN
 70
     0
  9
$DIMBLK
  1

  9
$DIMASO
 70
     1
  9
$DIMSHO
 70
     1
  9
$DIMPOST
  1

  9
$DIMAPOST
  1

  9
$DIMALT
 70
     0
  9
$DIMALTD
 70
     3
  9
$DIMALTF
 40
0.0393700787
  9
$DIMLFAC
 40
1.0
  9
$DIMTOFL
 70
     1
  9
$DIMTVP
 40
0.0
  9
$DIMTIX
 70
     0
  9
$DIMSOXD
 70
     0
  9
$DIMSAH
 70
     0
  9
$DIMBLK1
  1

  9
$DIMBLK2
  1

  9
$DIMSTYLE
  2
ISO-25
  9
$DIMCLRD
 70
     0
  9
$DIMCLRE
 70
     0
  9
$DIMCLRT
 70
     0
  9
$DIMTFAC
 40
1.0
  9
$DIMGAP
 40
1.524
  9
$DIMJUST
 70
     0
  9
$DIMSD1
 70
     0
  9
$DIMSD2
 70
     0
  9
$DIMTOLJ
 70
     0
  9
$DIMTZIN
 70
     0
  9
$DIMALTZ
 70
     0
  9
$DIMALTTZ
 70
     0
  9
$DIMUPT
 70
     0
  9
$DIMDEC
 70
     2
  9
$DIMTDEC
 70
     3
  9
$DIMALTU
 70
     2
  9
$DIMALTTD
 70
     3
  9
$DIMTXSTY
  7
STANDARD
  9
$DIMAUNIT
 70
     0
  9
$DIMADEC
 70
     2
  9
$DIMALTRND
 40
0.0
  9
$DIMAZIN
 70
     0
  9
$DIMDSEP
 70
    44
  9
$DIMATFIT
 70
     3
  9
$DIMFRAC
 70
     0
  9
$DIMLDRBLK
  1

  9
$DIMLUNIT
 70
     2
  9
$DIMLWD
 70
    -2
  9
$DIMLWE
 70
    -2
  9
$DIMTMOVE
 70
     0
  9
$LUNITS
 70
     2
  9
$LUPREC
 70
     2
  9
$SKETCHINC
 40
1.0
  9
$FILLETRAD
 40
10.0
  9
$AUNITS
 70
     0
  9
$AUPREC
 70
     2
  9
$MENU
  1
.
  9
$ELEVATION
 40
0.0
  9
$PELEVATION
 40
0.0
  9
$THICKNESS
 40
0.0
  9
$LIMCHECK
 70
     0
  9
$CHAMFERA
 40
10.0
  9
$CHAMFERB
 40
10.0
  9
$CHAMFERC
 40
20.0
  9
$CHAMFERD
 40
0.0
  9
$SKPOLY
 70
     0
  9
$TDCREATE
 40
2457070.606273877
  9
$TDUCREATE
 40
2457070.56460721
  9
$TDUPDATE
 40
2457070.606274421
  9
$TDUUPDATE
 40
2457070.564607755
  9
$TDINDWG
 40
0.0000000116
  9
$TDUSRTIMER
 40
0.0000000116
  9
$USRTIMER
 70
     1
  9
$ANGBASE
 50
0.0
  9
$ANGDIR
 70
     0
  9
$PDMODE
 70
     0
  9
$PDSIZE
 40
-1.0
  9
$PLINEWID
 40
0.0
  9
$SPLFRAME
 70
     0
  9
$SPLINETYPE
 70
     6
  9
$SPLINESEGS
 70
     8
  9
$HANDSEED
  5
27B
  9
$SURFTAB1
 70
     6
  9
$SURFTAB2
 70
     6
  9
$SURFTYPE
 70
     6
  9
$SURFU
 70
     6
  9
$SURFV
 70
     6
  9
$UCSBASE
  2

  9
$UCSNAME
  2

  9
$UCSORG
 10
0.0
 20
0.0
 30
0.0
  9
$UCSXDIR
 10
1.0
 20
0.0
 30
0.0
  9
$UCSYDIR
 10
0.0
 20
1.0
 30
0.0
  9
$UCSORTHOREF
  2

  9
$UCSORTHOVIEW
 70
     0
  9
$UCSORGTOP
 10
0.0
 20
0.0
 30
0.0
  9
$UCSORGBOTTOM
 10
0.0
 20
0.0
 30
0.0
  9
$UCSORGLEFT
 10
0.0
 20
0.0
 30
0.0
  9
$UCSORGRIGHT
 10
0.0
 20
0.0
 30
0.0
  9
$UCSORGFRONT
 10
0.0
 20
0.0
 30
0.0
  9
$UCSORGBACK
 10
0.0
 20
0.0
 30
0.0
  9
$PUCSBASE
  2

  9
$PUCSNAME
  2

  9
$PUCSORG
 10
0.0
 20
0.0
 30
0.0
  9
$PUCSXDIR
 10
1.0
 20
0.0
 30
0.0
  9
$PUCSYDIR
 10
0.0
 20
1.0
 30
0.0
  9
$PUCSORTHOREF
  2

  9
$PUCSORTHOVIEW
 70
     0
  9
$PUCSORGTOP
 10
0.0
 20
0.0
 30
0.0
  9
$PUCSORGBOTTOM
 10
0.0
 20
0.0
 30
0.0
  9
$PUCSORGLEFT
 10
0.0
 20
0.0
 30
0.0
  9
$PUCSORGRIGHT
 10
0.0
 20
0.0
 30
0.0
  9
$PUCSORGFRONT
 10
0.0
 20
0.0
 30
0.0
  9
$PUCSORGBACK
 10
0.0
 20
0.0
 30
0.0
  9
$USERI1
 70
     0
  9
$USERI2
 70
     0
  9
$USERI3
 70
     0
  9
$USERI4
 70
     0
  9
$USERI5
 70
     0
  9
$USERR1
 40
0.0
  9
$USERR2
 40
0.0
  9
$USERR3
 40
0.0
  9
$USERR4
 40
0.0
  9
$USERR5
 40
0.0
  9
$WORLDVIEW
 70
     1
  9
$SHADEDGE
 70
     3
  9
$SHADEDIF
 70
    70
  9
$TILEMODE
 70
     1
  9
$MAXACTVP
 70
    64
  9
$PINSBASE
 10
0.0
 20
0.0
 30
0.0
  9
$PLIMCHECK
 70
     0
  9
$PEXTMIN
 10
1.0000000000E+20
 20
1.0000000000E+20
 30
1.0000000000E+20
  9
$PEXTMAX
 10
-1.0000000000E+20
 20
-1.0000000000E+20
 30
-1.0000000000E+20
  9
$PLIMMIN
 10
0.0
 20
0.0
  9
$PLIMMAX
 10
420.0
 20
297.0
  9
$UNITMODE
 70
     0
  9
$VISRETAIN
 70
     1
  9
$PLINEGEN
 70
     0
  9
$PSLTSCALE
 70
     1
  9
$TREEDEPTH
 70
  3020
  9
$CMLSTYLE
  2
Standard
  9
$CMLJUST
 70
     0
  9
$CMLSCALE
 40
20.0
  9
$PROXYGRAPHICS
 70
     1
  9
$MEASUREMENT
 70
     1
  9
$CELWEIGHT
370
    -1
  9
$ENDCAPS
280
     0
  9
$JOINSTYLE
280
     0
  9
$LWDISPLAY
290
     1
  9
$INSUNITS
 70
     4
  9
$HYPERLINKBASE
  1

  9
$STYLESHEET
  1

  9
$XEDIT
290
     1
  9
$CEPSNTYPE
380
     0
  9
$PSTYLEMODE
290
     1
  9
$FINGERPRINTGUID
  2
{3D303AC6-8FA1-40EB-B225-5237934510D2}
  9
$VERSIONGUID
  2
{FAEB1C32-E019-11D5-929B-00C0DF256EC4}
  9
$EXTNAMES
290
     1
  9
$PSVPSCALE
 40
0.0
  9
$OLESTARTUP
290
     0
  0
ENDSEC
  0
SECTION
  2
CLASSES
  0
CLASS
  1
ACDBDICTIONARYWDFLT
  2
AcDbDictionaryWithDefault
  3
ObjectDBX Classes
 90
        0
280
     0
281
     0
  0
CLASS
  1
VISUALSTYLE
  2
AcDbVisualStyle
  3
ObjectDBX Classes
 90
     4095
280
     0
281
     0
  0
CLASS
  1
MATERIAL
  2
AcDbMaterial
  3
ObjectDBX Classes
 90
     1153
280
     0
281
     0
  0
CLASS
  1
ACDBPLACEHOLDER
  2
AcDbPlaceHolder
  3
ObjectDBX Classes
 90
        0
280
     0
281
     0
  0
CLASS
  1
LAYOUT
  2
AcDbLayout
  3
ObjectDBX Classes
 90
        0
280
     0
281
     0
  0
ENDSEC
  0
SECTION
  2
TABLES
  0
TABLE
  2
VPORT
  5
8
330
0
100
AcDbSymbolTable
 70
     1
  0
VPORT
  5
29
330
8
100
AcDbSymbolTableRecord
100
AcDbViewportTableRecord
  2
*Active
 70
     0
 10
0.0
 20
0.0
 11
1.0
 21
1.0
 12
148.5
 22
105.0
 13
0.0
 23
0.0
 14
10.0
 24
10.0
 15
10.0
 25
10.0
 16
0.0
 26
0.0
 36
1.0
 17
0.0
 27
0.0
 37
0.0
 40
210.0
 41
1.4142857143
 42
50.0
 43
0.0
 44
0.0
 50
0.0
 51
0.0
 71
     0
 72
  2000
 73
     1
 74
     3
 75
     0
 76
     0
 77
     0
 78
     0
281
     0
 65
     1
110
0.0
120
0.0
130
0.0
111
1.0
121
0.0
131
0.0
112
0.0
122
1.0
132
0.0
 79
     0
146
0.0
  0
ENDTAB
  0
TABLE
  2
LTYPE
  5
5
330
0
100
AcDbSymbolTable
 70
     8
  0
LTYPE
  5
14
330
5
100
AcDbSymbolTableRecord
100
AcDbLinetypeTableRecord
  2
ByBlock
 70
     0
  3

 72
    65
 73
     0
 40
0.0
  0
LTYPE
  5
15
330
5
100
AcDbSymbolTableRecord
100
AcDbLinetypeTableRecord
  2
ByLayer
 70
     0
  3

 72
    65
 73
     0
 40
0.0
  0
LTYPE
  5
16
330
5
100
AcDbSymbolTableRecord
100
AcDbLinetypeTableRecord
  2
Continuous
 70
     0
  3
Solid line
 72
    65
 73
     0
 40
0.0
  0
LTYPE
  5
3F
330
5
100
AcDbSymbolTableRecord
100
AcDbLinetypeTableRecord
  2
SLD-Durchgehend
 70
     0
  3
SolidWorks Line Style
 72
    65
 73
     0
 40
0.0
  0
LTYPE
  5
40
330
5
100
AcDbSymbolTableRecord
100
AcDbLinetypeTableRecord
  2
SLD-Gestrichelt
 70
     0
  3
SolidWorks Line Style
 72
    65
 73
     2
 40
1.905
 49
1.27
 74
     0
 49
-0.635
 74
     0
  0
LTYPE
  5
41
330
5
100
AcDbSymbolTableRecord
100
AcDbLinetypeTableRecord
  2
SLD-Phantom
 70
     0
  3
SolidWorks Line Style
 72
    65
 73
     6
 40
12.7
 49
6.35
 74
     0
 49
-1.27
 74
     0
 49
1.27
 74
     0
 49
-1.27
 74
     0
 49
1.27
 74
     0
 49
-1.27
 74
     0
  0
LTYPE
  5
42
330
5
100
AcDbSymbolTableRecord
100
AcDbLinetypeTableRecord
  2
SLD-Kette
 70
     0
  3
SolidWorks Line Style
 72
    65
 73
     4
 40
10.16
 49
6.35
 74
     0
 49
-1.27
 74
     0
 49
1.27
 74
     0
 49
-1.27
 74
     0
  0
LTYPE
  5
43
330
5
100
AcDbSymbolTableRecord
100
AcDbLinetypeTableRecord
  2
SLD-Punktstrich
 70
     0
  3
SolidWorks Line Style
 72
    65
 73
     4
 40
19.05
 49
15.24
 74
     0
 49
-1.27
 74
     0
 49
1.27
 74
     0
 49
-1.27
 74
     0
  0
LTYPE
  5
44
330
5
100
AcDbSymbolTableRecord
100
AcDbLinetypeTableRecord
  2
SLD-Naht
 70
     0
  3
SolidWorks Line Style
 72
    65
 73
     2
 40
0.635
 49
0.0
 74
     0
 49
-0.635
 74
     0
  0
LTYPE
  5
45
330
5
100
AcDbSymbolTableRecord
100
AcDbLinetypeTableRecord
  2
SLD-Dicke-Dünne-Kette
 70
     0
  3
SolidWorks Line Style
 72
    65
 73
     4
 40
10.16
 49
6.35
 74
     0
 49
-1.27
 74
     0
 49
1.27
 74
     0
 49
-1.27
 74
     0
  0
ENDTAB
  0
TABLE
  2
LAYER
  5
2
330
0
100
AcDbSymbolTable
 70
     5
  0
LAYER
  5
10
330
2
100
AcDbSymbolTableRecord
100
AcDbLayerTableRecord
  2
0
 70
     0
 62
     7
  6
Continuous
370
    -3
390
F
  0
LAYER
  5
46
330
2
100
AcDbSymbolTableRecord
100
AcDbLayerTableRecord
  2
FORMAT
 70
     0
 62
     7
  6
SLD-Durchgehend
370
    -3
390
F
  0
LAYER
  5
47
330
2
100
AcDbSymbolTableRecord
100
AcDbLayerTableRecord
  2
VERMASSUNG
 70
     0
 62
     7
  6
SLD-Durchgehend
370
    -3
390
F
  0
LAYER
  5
48
330
2
100
AcDbSymbolTableRecord
100
AcDbLayerTableRecord
  2
KOPF_DÜNN
 70
     0
 62
     7
  6
SLD-Durchgehend
370
    -3
390
F
  0
LAYER
  5
49
330
2
100
AcDbSymbolTableRecord
100
AcDbLayerTableRecord
  2
KOPF_DICK
 70
     0
 62
     7
  6
SLD-Durchgehend
370
    15
390
F
  0
ENDTAB
  0
TABLE
  2
STYLE
  5
3
330
0
100
AcDbSymbolTable
 70
     2
  0
STYLE
  5
11
330
3
100
AcDbSymbolTableRecord
100
AcDbTextStyleTableRecord
  2
STANDARD
 70
     0
 40
0.0
 41
1.0
 50
0.0
 71
     0
 42
2.0
  3
ISOCPEUR.TTF
  4

1001
ACAD
1000
ISOCPEUR
1071
       34
  0
STYLE
  5
4A
330
3
100
AcDbSymbolTableRecord
100
AcDbTextStyleTableRecord
  2
SLDTEXTSTYLE0
 70
     0
 40
0.0
 41
1.0
 50
0.0
 71
     0
 42
0.2
  3
ISOCPEUR.TTF
  4

1001
ACAD
1000
ISOCPEUR
1071
      290
  0
ENDTAB
  0
TABLE
  2
VIEW
  5
6
330
0
100
AcDbSymbolTable
 70
     0
  0
ENDTAB
  0
TABLE
  2
UCS
  5
7
330
0
100
AcDbSymbolTable
 70
     0
  0
ENDTAB
  0
TABLE
  2
APPID
  5
9
330
0
100
AcDbSymbolTable
 70
     1
  0
APPID
  5
12
330
9
100
AcDbSymbolTableRecord
100
AcDbRegAppTableRecord
  2
ACAD
 70
     0
  0
ENDTAB
  0
TABLE
  2
DIMSTYLE
  5
A
330
0
100
AcDbSymbolTable
 70
     3
100
AcDbDimStyleTable
  0
DIMSTYLE
105
27
330
A
100
AcDbSymbolTableRecord
100
AcDbDimStyleTableRecord
  2
ISO-25
 70
     0
 41
2.5
 42
0.625
 43
3.75
 44
1.25
 73
     0
 74
     0
 77
     1
 78
     8
140
2.5
141
2.5
143
0.0393700787
147
0.625
171
     3
172
     1
178
     0
271
     2
272
     2
274
     3
278
    44
283
     0
284
     8
340
11
  0
DIMSTYLE
105
1FD
102
{ACAD_REACTORS
330
1FC
330
207
330
213
330
21D
330
263
102
}
330
A
100
AcDbSymbolTableRecord
100
AcDbDimStyleTableRecord
  2
SLDDIMSTYLE0
 70
     0
 41
3.0
 44
0.0
 45
0.000000001
 73
     0
 74
     0
 77
     1
 78
    12
 79
     3
140
2.0
147
0.5
173
     1
178
     0
271
     2
272
     3
276
     2
284
    12
340
4A
  0
DIMSTYLE
105
228
102
{ACAD_REACTORS
330
227
102
}
330
A
100
AcDbSymbolTableRecord
100
AcDbDimStyleTableRecord
  2
SLDDIMSTYLE1
 70
     0
 41
3.0
 44
0.0
 73
     0
 74
     0
 77
     1
 78
    12
 79
     3
140
2.0
147
0.5
173
     1
178
     0
179
     1
272
     3
276
     2
284
    12
340
4A
  0
ENDTAB
  0
TABLE
  2
BLOCK_RECORD
  5
1
330
0
100
AcDbSymbolTable
 70
     8
  0
BLOCK_RECORD
  5
1F
330
1
100
AcDbSymbolTableRecord
100
AcDbBlockTableRecord
  2
*Model_Space
340
22
  0
BLOCK_RECORD
  5
1B
330
1
100
AcDbSymbolTableRecord
100
AcDbBlockTableRecord
  2
*Paper_Space
340
1E
  0
BLOCK_RECORD
  5
23
330
1
100
AcDbSymbolTableRecord
100
AcDbBlockTableRecord
  2
*Paper_Space0
340
26
  0
BLOCK_RECORD
  5
1FE
330
1
100
AcDbSymbolTableRecord
100
AcDbBlockTableRecord
  2
_D
340
0
  0
BLOCK_RECORD
  5
208
330
1
100
AcDbSymbolTableRecord
100
AcDbBlockTableRecord
  2
_D_1
340
0
  0
BLOCK_RECORD
  5
214
330
1
100
AcDbSymbolTableRecord
100
AcDbBlockTableRecord
  2
_D_2
340
0
  0
BLOCK_RECORD
  5
21E
330
1
100
AcDbSymbolTableRecord
100
AcDbBlockTableRecord
  2
_D_3
340
0
  0
BLOCK_RECORD
  5
229
330
1
100
AcDbSymbolTableRecord
100
AcDbBlockTableRecord
  2
_D_4
340
0
  0
BLOCK_RECORD
  5
264
330
1
100
AcDbSymbolTableRecord
100
AcDbBlockTableRecord
  2
_D_5
340
0
  0
BLOCK_RECORD
  5
26E
330
1
100
AcDbSymbolTableRecord
100
AcDbBlockTableRecord
  2
SW_CENTERMARKSYMBOL_0
340
0
102
{BLKREFS
331
279
102
}
  0
ENDTAB
  0
ENDSEC
  0
SECTION
  2
BLOCKS
  0
BLOCK
  5
20
330
1F
100
AcDbEntity
  8
0
100
AcDbBlockBegin
  2
*Model_Space
 70
     0
 10
0.0
 20
0.0
 30
0.0
  3
*Model_Space
  1

  0
ENDBLK
  5
21
330
1F
100
AcDbEntity
  8
0
100
AcDbBlockEnd
  0
BLOCK
  5
1C
330
1B
100
AcDbEntity
 67
     1
  8
0
100
AcDbBlockBegin
  2
*Paper_Space
 70
     0
 10
0.0
 20
0.0
 30
0.0
  3
*Paper_Space
  1

  0
ENDBLK
  5
1D
330
1B
100
AcDbEntity
 67
     1
  8
0
100
AcDbBlockEnd
  0
BLOCK
  5
24
330
23
100
AcDbEntity
  8
0
100
AcDbBlockBegin
  2
*Paper_Space0
 70
     0
 10
0.0
 20
0.0
 30
0.0
  3
*Paper_Space0
  1

  0
ENDBLK
  5
25
330
23
100
AcDbEntity
  8
0
100
AcDbBlockEnd
  0
BLOCK
  5
1FF
330
1FE
100
AcDbEntity
  8
0
100
AcDbBlockBegin
  2
_D
 70
     0
 10
0.0
 20
0.0
 30
0.0
  3
_D
  1

  0
SOLID
  5
201
330
1FE
100
AcDbEntity
  8
VERMASSUNG
100
AcDbTrace
 10
285.4403136511
 20
134.3440239606
 30
0.0
 11
284.9903136511
 21
131.3440239606
 31
0.0
 12
285.8903136511
 22
131.3440239606
 32
0.0
 13
285.8903136511
 23
131.3440239606
 33
0.0
  0
SOLID
  5
202
330
1FE
100
AcDbEntity
  8
VERMASSUNG
100
AcDbTrace
 10
285.4403136511
 20
112.3440239606
 30
0.0
 11
285.8903136511
 21
115.3440239606
 31
0.0
 12
284.9903136511
 22
115.3440239606
 32
0.0
 13
284.9903136511
 23
115.3440239606
 33
0.0
  0
LINE
  5
203
330
1FE
100
AcDbEntity
  8
VERMASSUNG
100
AcDbLine
 10
280.9132318098
 20
134.3440239606
 30
0.0
 11
286.4403136511
 21
134.3440239606
 31
0.0
  0
LINE
  5
204
330
1FE
100
AcDbEntity
  8
VERMASSUNG
100
AcDbLine
 10
276.1414422973
 20
112.3440239606
 30
0.0
 11
286.4403136511
 21
112.3440239606
 31
0.0
  0
LINE
  5
205
330
1FE
100
AcDbEntity
  8
VERMASSUNG
100
AcDbLine
 10
285.4403136511
 20
134.3440239606
 30
0.0
 11
285.4403136511
 21
112.3440239606
 31
0.0
  0
MTEXT
  5
206
330
1FE
100
AcDbEntity
  8
VERMASSUNG
100
AcDbMText
 10
282.8403137675
 20
121.9449596288
 30
0.0
 40
2.0
 41
0.0
 71
     1
 72
     1
  1
22
  7
SLDTEXTSTYLE0
 11
-7.044195017643634E-15
 21
1.0
 31
0.0
 73
     1
 44
1.0
  0
ENDBLK
  5
200
330
1FE
100
AcDbEntity
  8
0
100
AcDbBlockEnd
  0
BLOCK
  5
209
330
208
100
AcDbEntity
  8
0
100
AcDbBlockBegin
  2
_D_1
 70
     0
 10
0.0
 20
0.0
 30
0.0
  3
_D_1
  1

  0
SOLID
  5
20B
330
208
100
AcDbEntity
  8
VERMASSUNG
100
AcDbTrace
 10
117.7531327007
 20
143.8440239606
 30
0.0
 11
117.3031327007
 21
140.8440239606
 31
0.0
 12
118.2031327007
 22
140.8440239606
 32
0.0
 13
118.2031327007
 23
140.8440239606
 33
0.0
  0
SOLID
  5
20C
330
208
100
AcDbEntity
  8
VERMASSUNG
100
AcDbTrace
 10
117.7531327007
 20
80.8440239606
 30
0.0
 11
118.2031327007
 21
83.8440239606
 31
0.0
 12
117.3031327007
 22
83.8440239606
 32
0.0
 13
117.3031327007
 23
83.8440239606
 33
0.0
  0
LINE
  5
20D
330
208
100
AcDbEntity
  8
VERMASSUNG
100
AcDbLine
 10
156.2132318098
 20
143.8440239606
 30
0.0
 11
116.7531327007
 21
143.8440239606
 31
0.0
  0
LINE
  5
20E
330
208
100
AcDbEntity
  8
VERMASSUNG
100
AcDbLine
 10
156.2132318098
 20
80.8440239606
 30
0.0
 11
116.7531327007
 21
80.8440239606
 31
0.0
  0
LINE
  5
20F
330
208
100
AcDbEntity
  8
VERMASSUNG
100
AcDbLine
 10
117.7531327007
 20
143.8440239606
 30
0.0
 11
117.7531327007
 21
80.8440239606
 31
0.0
  0
MTEXT
  5
210
330
208
100
AcDbEntity
  8
VERMASSUNG
100
AcDbMText
 10
114.9531326912
 20
106.1411793008
 30
0.0
 40
2.0
 41
0.0
 71
     1
 72
     1
  1
HSK 
  7
SLDTEXTSTYLE0
 11
-7.044195017643634E-15
 21
1.0
 31
0.0
 73
     1
 44
1.0
  0
MTEXT
  5
211
330
208
100
AcDbEntity
  8
VERMASSUNG
100
AcDbMText
 10
115.1531327007
 20
112.141179353
 30
0.0
 40
2.0
 41
0.0
 71
     1
 72
     1
  1
%%c
  7
SLDTEXTSTYLE0
 11
-7.044195017643634E-15
 21
1.0
 31
0.0
 73
     1
 44
1.0
  0
MTEXT
  5
212
330
208
100
AcDbEntity
  8
VERMASSUNG
100
AcDbMText
 10
115.1531328171
 20
115.7487399568
 30
0.0
 40
2.0
 41
0.0
 71
     1
 72
     1
  1
63
  7
SLDTEXTSTYLE0
 11
-7.044195017643634E-15
 21
1.0
 31
0.0
 73
     1
 44
1.0
  0
ENDBLK
  5
20A
330
208
100
AcDbEntity
  8
0
100
AcDbBlockEnd
  0
BLOCK
  5
215
330
214
100
AcDbEntity
  8
0
100
AcDbBlockBegin
  2
_D_2
 70
     0
 10
0.0
 20
0.0
 30
0.0
  3
_D_2
  1

  0
SOLID
  5
217
330
214
100
AcDbEntity
  8
VERMASSUNG
100
AcDbTrace
 10
124.0132318098
 20
155.6484512517
 30
0.0
 11
127.0132318098
 21
155.1984512517
 31
0.0
 12
127.0132318098
 22
156.0984512517
 32
0.0
 13
127.0132318098
 23
156.0984512517
 33
0.0
  0
SOLID
  5
218
330
214
100
AcDbEntity
  8
VERMASSUNG
100
AcDbTrace
 10
280.9132318098
 20
155.6484512517
 30
0.0
 11
277.9132318098
 21
156.0984512517
 31
0.0
 12
277.9132318098
 22
155.1984512517
 32
0.0
 13
277.9132318098
 23
155.1984512517
 33
0.0
  0
LINE
  5
219
330
214
100
AcDbEntity
  8
VERMASSUNG
100
AcDbLine
 10
124.0132318098
 20
132.034701707
 30
0.0
 11
124.0132318098
 21
156.6484512517
 31
0.0
  0
LINE
  5
21A
330
214
100
AcDbEntity
  8
VERMASSUNG
100
AcDbLine
 10
280.9132318098
 20
134.3440239606
 30
0.0
 11
280.9132318098
 21
156.6484512517
 31
0.0
  0
LINE
  5
21B
330
214
100
AcDbEntity
  8
VERMASSUNG
100
AcDbLine
 10
124.0132318098
 20
155.6484512517
 30
0.0
 11
280.9132318098
 21
155.6484512517
 31
0.0
  0
MTEXT
  5
21C
330
214
100
AcDbEntity
  8
VERMASSUNG
100
AcDbMText
 10
199.5635976047
 20
158.2484511352
 30
0.0
 40
2.0
 41
0.0
 71
     1
 72
     1
  1
156.9
  7
SLDTEXTSTYLE0
 73
     1
 44
1.0
  0
ENDBLK
  5
216
330
214
100
AcDbEntity
  8
0
100
AcDbBlockEnd
  0
BLOCK
  5
21F
330
21E
100
AcDbEntity
  8
0
100
AcDbBlockBegin
  2
_D_3
 70
     0
 10
0.0
 20
0.0
 30
0.0
  3
_D_3
  1

  0
SOLID
  5
221
330
21E
100
AcDbEntity
  8
VERMASSUNG
100
AcDbTrace
 10
155.9132318098
 20
149.6484512517
 30
0.0
 11
158.9132318098
 21
149.1984512517
 31
0.0
 12
158.9132318098
 22
150.0984512517
 32
0.0
 13
158.9132318098
 23
150.0984512517
 33
0.0
  0
SOLID
  5
222
330
21E
100
AcDbEntity
  8
VERMASSUNG
100
AcDbTrace
 10
280.9132318098
 20
149.6484512517
 30
0.0
 11
277.9132318098
 21
150.0984512517
 31
0.0
 12
277.9132318098
 22
149.1984512517
 32
0.0
 13
277.9132318098
 23
149.1984512517
 33
0.0
  0
LINE
  5
223
330
21E
100
AcDbEntity
  8
VERMASSUNG
100
AcDbLine
 10
155.9132318098
 20
143.5440239606
 30
0.0
 11
155.9132318098
 21
150.6484512517
 31
0.0
  0
LINE
  5
224
330
21E
100
AcDbEntity
  8
VERMASSUNG
100
AcDbLine
 10
280.9132318098
 20
134.3440239606
 30
0.0
 11
280.9132318098
 21
150.6484512517
 31
0.0
  0
LINE
  5
225
330
21E
100
AcDbEntity
  8
VERMASSUNG
100
AcDbLine
 10
155.9132318098
 20
149.6484512517
 30
0.0
 11
280.9132318098
 21
149.6484512517
 31
0.0
  0
MTEXT
  5
226
330
21E
100
AcDbEntity
  8
VERMASSUNG
100
AcDbMText
 10
216.5139775203
 20
152.2484511352
 30
0.0
 40
2.0
 41
0.0
 71
     1
 72
     1
  1
125
  7
SLDTEXTSTYLE0
 73
     1
 44
1.0
  0
ENDBLK
  5
220
330
21E
100
AcDbEntity
  8
0
100
AcDbBlockEnd
  0
BLOCK
  5
22A
330
229
100
AcDbEntity
  8
0
100
AcDbBlockBegin
  2
_D_4
 70
     0
 10
0.0
 20
0.0
 30
0.0
  3
_D_4
  1

  0
ARC
  5
22C
330
229
100
AcDbEntity
  8
VERMASSUNG
100
AcDbCircle
 10
280.9132318098
 20
139.6467939463
 30
0.0
 40
32.7358607454896
100
AcDbArc
 50
252.0730140561
 51
270.0
  0
SOLID
  5
22D
330
229
100
AcDbEntity
  8
VERMASSUNG
100
AcDbTrace
 10
270.8369774428
 20
108.5002744508
 30
0.0
 11
273.6117157381
 21
107.2741719297
 31
0.0
 12
273.8493367973
 22
108.1422365772
 32
0.0
 13
273.8493367973
 23
108.1422365772
 33
0.0
  0
SOLID
  5
22E
330
229
100
AcDbEntity
  8
VERMASSUNG
100
AcDbTrace
 10
280.9132318098
 20
106.9109332008
 30
0.0
 11
277.9369181332
 21
107.4974968362
 31
0.0
 12
277.8958081331
 22
106.5984362332
 32
0.0
 13
277.8958081331
 23
106.5984362332
 33
0.0
  0
LINE
  5
22F
330
229
100
AcDbEntity
  8
VERMASSUNG
100
AcDbLine
 10
272.0804742575
 20
112.3440239606
 30
0.0
 11
270.5291726642
 21
107.5488249155
 31
0.0
  0
LINE
  5
230
330
229
100
AcDbEntity
  8
VERMASSUNG
100
AcDbLine
 10
280.9132318098
 20
112.3440239606
 30
0.0
 11
280.9132318098
 21
105.9109332008
 31
0.0
  0
MTEXT
  5
231
330
229
100
AcDbEntity
  8
VERMASSUNG
100
AcDbMText
 10
273.4527452686
 20
110.3151110767
 30
0.0
 40
2.0
 41
0.0
 71
     1
 72
     1
  1
17.9°
  7
SLDTEXTSTYLE0
 11
0.9877878151062822
 21
-0.1558051100816566
 31
0.0
 73
     1
 44
1.0
  0
ENDBLK
  5
22B
330
229
100
AcDbEntity
  8
0
100
AcDbBlockEnd
  0
BLOCK
  5
265
330
264
100
AcDbEntity
  8
0
100
AcDbBlockBegin
  2
_D_5
 70
     0
 10
0.0
 20
0.0
 30
0.0
  3
_D_5
  1

  0
SOLID
  5
267
330
264
100
AcDbEntity
  8
VERMASSUNG
100
AcDbTrace
 10
29.7227337065
 20
94.3281629584
 30
0.0
 11
30.1727337065
 21
97.3281629584
 31
0.0
 12
29.2727337065
 22
97.3281629584
 32
0.0
 13
29.2727337065
 23
97.3281629584
 33
0.0
  0
SOLID
  5
268
330
264
100
AcDbEntity
  8
VERMASSUNG
100
AcDbTrace
 10
29.7227337065
 20
134.3281629584
 30
0.0
 11
29.2727337065
 21
131.3281629584
 31
0.0
 12
30.1727337065
 22
131.3281629584
 32
0.0
 13
30.1727337065
 23
131.3281629584
 33
0.0
  0
LINE
  5
269
330
264
100
AcDbEntity
  8
VERMASSUNG
100
AcDbLine
 10
66.0853194621
 20
94.3281629584
 30
0.0
 11
28.7227337065
 21
94.3281629584
 31
0.0
  0
LINE
  5
26A
330
264
100
AcDbEntity
  8
VERMASSUNG
100
AcDbLine
 10
66.0853194621
 20
134.3281629584
 30
0.0
 11
28.7227337065
 21
134.3281629584
 31
0.0
  0
LINE
  5
26B
330
264
100
AcDbEntity
  8
VERMASSUNG
100
AcDbLine
 10
29.7227337065
 20
94.3281629584
 30
0.0
 11
29.7227337065
 21
134.3281629584
 31
0.0
  0
MTEXT
  5
26C
330
264
100
AcDbEntity
  8
VERMASSUNG
100
AcDbMText
 10
27.1227337065
 20
111.0249525037
 30
0.0
 40
2.0
 41
0.0
 71
     1
 72
     1
  1
%%c
  7
SLDTEXTSTYLE0
 11
6.123233995736766E-17
 21
1.0
 31
0.0
 73
     1
 44
1.0
  0
MTEXT
  5
26D
330
264
100
AcDbEntity
  8
VERMASSUNG
100
AcDbMText
 10
27.1227338229
 20
114.632679583
 30
0.0
 40
2.0
 41
0.0
 71
     1
 72
     1
  1
40
  7
SLDTEXTSTYLE0
 11
6.123233995736766E-17
 21
1.0
 31
0.0
 73
     1
 44
1.0
  0
ENDBLK
  5
266
330
264
100
AcDbEntity
  8
0
100
AcDbBlockEnd
  0
BLOCK
  5
26F
330
26E
100
AcDbEntity
  8
0
100
AcDbBlockBegin
  2
SW_CENTERMARKSYMBOL_0
 70
     0
 10
0.0
 20
0.0
 30
0.0
  3
SW_CENTERMARKSYMBOL_0
  1

  0
LINE
  5
271
330
26E
100
AcDbEntity
  8
VERMASSUNG
 62
     0
100
AcDbLine
 10
0.0
 20
0.0
 30
0.0
 11
0.0
 21
2.5
 31
0.0
  0
LINE
  5
272
330
26E
100
AcDbEntity
  8
VERMASSUNG
 62
     0
100
AcDbLine
 10
0.0
 20
0.0
 30
0.0
 11
-2.5
 21
0.0
 31
0.0
  0
LINE
  5
273
330
26E
100
AcDbEntity
  8
VERMASSUNG
 62
     0
100
AcDbLine
 10
0.0
 20
0.0
 30
0.0
 11
0.0
 21
-2.5
 31
0.0
  0
LINE
  5
274
330
26E
100
AcDbEntity
  8
VERMASSUNG
 62
     0
100
AcDbLine
 10
0.0
 20
0.0
 30
0.0
 11
2.5
 21
0.0
 31
0.0
  0
LINE
  5
275
330
26E
100
AcDbEntity
  8
VERMASSUNG
 62
     0
100
AcDbLine
 10
0.0
 20
5.0
 30
0.0
 11
0.0
 21
34.0
 31
0.0
  0
LINE
  5
276
330
26E
100
AcDbEntity
  8
VERMASSUNG
 62
     0
100
AcDbLine
 10
-5.0
 20
0.0
 30
0.0
 11
-34.0
 21
0.0
 31
0.0
  0
LINE
  5
277
330
26E
100
AcDbEntity
  8
VERMASSUNG
 62
     0
100
AcDbLine
 10
0.0
 20
-5.0
 30
0.0
 11
0.0
 21
-34.0
 31
0.0
  0
LINE
  5
278
330
26E
100
AcDbEntity
  8
VERMASSUNG
 62
     0
100
AcDbLine
 10
5.0
 20
0.0
 30
0.0
 11
34.0
 21
0.0
 31
0.0
  0
ENDBLK
  5
270
330
26E
100
AcDbEntity
  8
0
100
AcDbBlockEnd
  0
ENDSEC
  0
SECTION
  2
ENTITIES
  0
MTEXT
  5
4B
330
1F
100
AcDbEntity
  8
KOPF_DÜNN
100
AcDbMText
 10
13.8892156294
 20
23.8770940835
 30
0.0
 40
3.0
 41
0.0
 71
     1
 72
     1
  1
HA6.BDB.RQB.125
  7
SLDTEXTSTYLE0
 73
     1
 44
1.0
  0
MTEXT
  5
4C
330
1F
100
AcDbEntity
  8
VERMASSUNG
100
AcDbMText
 10
13.9329988022
 20
28.9162328764
 30
0.0
 40
3.0
 41
0.0
 71
     1
 72
     1
  1
Bohrstange_Boring bar
  7
SLDTEXTSTYLE0
 73
     1
 44
1.0
  0
MTEXT
  5
4D
330
1F
100
AcDbEntity
  8
VERMASSUNG
100
AcDbMText
 10
98.8601118557
 20
13.8584013384
 30
0.0
 40
2.0
 41
0.0
 71
     1
 72
     1
  1
Datum: 06.02.2009
  7
SLDTEXTSTYLE0
 73
     1
 44
1.0
  0
MTEXT
  5
4E
330
1F
100
AcDbEntity
  8
VERMASSUNG
100
AcDbMText
 10
13.933048693
 20
18.0701447943
 30
0.0
 40
2.0
 41
0.0
 71
     1
 72
     1
  1
DIN 69893 HSK 63 A ICTM / DC.. 11 T3..
  7
SLDTEXTSTYLE0
 73
     1
 44
1.0
  0
MTEXT
  5
4F
330
1F
100
AcDbEntity
  8
VERMASSUNG
100
AcDbMText
 10
13.9808475933
 20
13.9309618897
 30
0.0
 40
2.0
 41
0.0
 71
     1
 72
     1
  1
Gewicht: 1129g
  7
SLDTEXTSTYLE0
 73
     1
 44
1.0
  0
LINE
  5
50
330
1F
100
AcDbEntity
  8
0
  6
SLD-Durchgehend
 62
     7
370
    15
100
AcDbLine
 10
156.2132318241
 20
80.8440234539
 30
0.0
 11
160.863231783
 21
80.8440234539
 31
0.0
  0
LINE
  5
51
330
1F
100
AcDbEntity
  8
0
  6
SLD-Durchgehend
 62
     7
370
    15
100
AcDbLine
 10
160.8912203547
 20
143.8440244672
 30
0.0
 11
156.2132318241
 21
143.8440244672
 31
0.0
  0
ARC
  5
52
330
1F
100
AcDbEntity
  8
0
  6
SLD-Durchgehend
 62
     7
370
    15
100
AcDbCircle
 10
156.2132318098
 20
81.1440239606
 30
0.0
 40
0.3000000000000114
100
AcDbArc
 50
180.0
 51
270.0
  0
ARC
  5
53
330
1F
100
AcDbEntity
  8
0
  6
SLD-Durchgehend
 62
     7
370
    15
100
AcDbCircle
 10
156.2132318098
 20
143.5440239606
 30
0.0
 40
0.3000000000000114
100
AcDbArc
 50
90.0
 51
180.0
  0
ARC
  5
54
330
1F
100
AcDbEntity
  8
0
  6
SLD-Durchgehend
 62
     7
370
    15
100
AcDbCircle
 10
155.4132318098
 20
87.7735930988
 30
0.0
 40
0.599999999999994
100
AcDbArc
 50
33.5573097619
 51
90.0
  0
ARC
  5
55
330
1F
100
AcDbEntity
  8
0
  6
SLD-Durchgehend
 62
     7
370
    15
100
AcDbCircle
 10
155.4132318098
 20
136.9144548223
 30
0.0
 40
0.6000000000000019
100
AcDbArc
 50
270.0
 51
326.4426902381
  0
LINE
  5
56
330
1F
100
AcDbEntity
  8
0
  6
SLD-Durchgehend
 62
     7
370
    15
100
AcDbLine
 10
153.9132317148
 20
88.123592737
 30
0.0
 11
154.769944641
 21
88.3531488505
 31
0.0
  0
LINE
  5
57
330
1F
100
AcDbEntity
  8
0
  6
SLD-Durchgehend
 62
     7
370
    15
100
AcDbLine
 10
154.769944641
 20
136.3348990706
 30
0.0
 11
153.9132317148
 21
136.5644551841
 31
0.0
  0
LINE
  5
58
330
1F
100
AcDbEntity
  8
0
  6
SLD-Durchgehend
 62
     7
370
    15
100
AcDbLine
 10
142.6828092981
 20
136.0018078265
 30
0.0
 11
130.1132309337
 21
135.3720698533
 31
0.0
  0
LINE
  5
59
330
1F
100
AcDbEntity
  8
0
  6
SLD-Durchgehend
 62
     7
370
    15
100
AcDbLine
 10
153.9132317148
 20
136.5644551841
 30
0.0
 11
151.0946223598
 21
136.4232424674
 31
0.0
  0
LINE
  5
5A
330
1F
100
AcDbEntity
  8
0
  6
SLD-Durchgehend
 62
     7
370
    15
100
AcDbLine
 10
151.0948440146
 20
88.2647942779
 30
0.0
 11
153.9132317148
 21
88.123592737
 31
0.0
  0
LINE
  5
5B
330
1F
100
AcDbEntity
  8
0
  6
SLD-Durchgehend
 62
     7
370
    15
100
AcDbLine
 10
134.1132315893
 20
89.1155779389
 30
0.0
 11
142.6835087214
 21
88.6862047044
 31
0.0
  0
ARC
  5
5C
330
1F
100
AcDbEntity
  8
0
  6
SLD-Durchgehend
 62
     7
370
    15
100
AcDbCircle
 10
154.9252360103
 20
87.7735930988
 30
0.0
 40
0.5999999999999944
100
AcDbArc
 50
90.0
 51
105.0
  0
ARC
  5
5D
330
1F
100
AcDbEntity
  8
0
  6
SLD-Durchgehend
 62
     7
370
    15
100
AcDbCircle
 10
154.9252360103
 20
136.9144548223
 30
0.0
 40
0.6000000000000081
100
AcDbArc
 50
255.0
 51
270.0
  0
LINE
  5
5E
330
1F
100
AcDbEntity
  8
0
  6
SLD-Durchgehend
 62
     7
370
    15
100
AcDbLine
 10
154.9252360447
 20
88.3735932437
 30
0.0
 11
155.4132317861
 21
88.3735932437
 31
0.0
  0
LINE
  5
5F
330
1F
100
AcDbEntity
  8
0
  6
SLD-Durchgehend
 62
     7
370
    15
100
AcDbLine
 10
155.4132317861
 20
136.3144546774
 30
0.0
 11
154.9252360447
 21
136.3144546774
 31
0.0
  0
ARC
  5
60
330
1F
100
AcDbEntity
  8
0
  6
SLD-Durchgehend
 62
     7
370
    15
100
AcDbCircle
 10
184.8632318098
 20
93.3440239606
 30
0.0
 40
3.0
100
AcDbArc
 50
90.0
 51
180.0
  0
ARC
  5
61
330
1F
100
AcDbEntity
  8
0
  6
SLD-Durchgehend
 62
     7
370
    15
100
AcDbCircle
 10
184.8632318098
 20
131.3440239606
 30
0.0
 40
3.0
100
AcDbArc
 50
180.0
 51
270.0
  0
LINE
  5
62
330
1F
100
AcDbEntity
  8
0
  6
SLD-Durchgehend
 62
     7
370
    15
100
AcDbLine
 10
184.8632319916
 20
96.3440232006
 30
0.0
 11
254.9132312734
 21
96.3440232006
 31
0.0
  0
LINE
  5
63
330
1F
100
AcDbEntity
  8
0
  6
SLD-Durchgehend
 62
     7
370
    15
100
AcDbLine
 10
254.9132312734
 20
128.3440247205
 30
0.0
 11
184.8632319916
 21
128.3440247205
 31
0.0
  0
LINE
  5
64
330
1F
100
AcDbEntity
  8
0
  6
SLD-Durchgehend
 62
     7
370
    15
100
AcDbLine
 10
125.1632309605
 20
91.5315236923
 30
0.0
 11
132.7132321049
 21
91.5315236923
 31
0.0
  0
ARC
  5
65
330
1F
100
AcDbEntity
  8
0
  6
SLD-Durchgehend
 62
     7
370
    15
100
AcDbCircle
 10
132.7132318098
 20
90.1315239606
 30
0.0
 40
1.400000000000036
100
AcDbArc
 50
37.6443616934
 51
90.0
  0
LINE
  5
66
330
1F
100
AcDbEntity
  8
0
  6
SLD-Durchgehend
 62
     7
370
    15
100
AcDbLine
 10
125.1543945719
 20
133.2051876959
 30
0.0
 11
124.0231338043
 21
132.0739250657
 31
0.0
  0
LINE
  5
67
330
1F
100
AcDbEntity
  8
0
  6
SLD-Durchgehend
 62
     7
370
    15
100
AcDbLine
 10
124.0106503565
 20
92.6841042963
 30
0.0
 11
125.1632309605
 21
91.5315236923
 31
0.0
  0
ARC
  5
68
330
1F
100
AcDbEntity
  8
0
  6
SLD-Durchgehend
 62
     7
370
    15
100
AcDbCircle
 10
128.7132318098
 20
134.6140239606
 30
0.0
 40
1.400000000000015
100
AcDbArc
 50
270.0
 51
301.7485287426
  0
LINE
  5
69
330
1F
100
AcDbEntity
  8
0
  6
SLD-Durchgehend
 62
     7
370
    15
100
AcDbLine
 10
128.7132314492
 20
133.2140240845
 30
0.0
 11
125.2874973316
 21
133.2140240845
 31
0.0
  0
LINE
  5
6A
330
1F
100
AcDbEntity
  8
0
  6
SLD-Durchgehend
 62
     7
370
    15
100
AcDbLine
 10
255.7241599162
 20
129.1549533633
 30
0.0
 11
254.9132312734
 21
128.3440247205
 31
0.0
  0
LINE
  5
6B
330
1F
100
AcDbEntity
  8
0
  6
SLD-Durchgehend
 62
     7
370
    15
100
AcDbLine
 10
254.9132312734
 20
96.3440232006
 30
0.0
 11
255.4132322867
 21
95.84402405
 31
0.0
  0
LINE
  5
6C
330
1F
100
AcDbEntity
  8
0
  6
SLD-Durchgehend
 62
     7
370
    15
100
AcDbLine
 10
255.4132322867
 20
95.84402405
 30
0.0
 11
268.498724242
 21
95.84402405
 31
0.0
  0
LINE
  5
6D
330
1F
100
AcDbEntity
  8
0
  6
SLD-Durchgehend
 62
     7
370
    15
100
AcDbLine
 10
274.5677064259
 20
126.0855227736
 30
0.0
 11
274.5677064259
 21
125.9914340478
 31
0.0
  0
LINE
  5
6E
330
1F
100
AcDbEntity
  8
0
  6
SLD-Durchgehend
 62
     7
370
    15
100
AcDbLine
 10
272.6636062462
 20
126.4198508141
 30
0.0
 11
272.6636062462
 21
126.5126608339
 31
0.0
  0
LINE
  5
6F
330
1F
100
AcDbEntity
  8
0
  6
SLD-Durchgehend
 62
     7
370
    15
100
AcDbLine
 10
274.8156617482
 20
127.8561327633
 30
0.0
 11
274.8156617482
 21
127.7633823481
 31
0.0
  0
LINE
  5
70
330
1F
100
AcDbEntity
  8
0
  6
SLD-Durchgehend
 62
     7
370
    15
100
AcDbLine
 10
272.9115615685
 20
128.1918000457
 30
0.0
 11
272.9115615685
 21
128.2859046039
 31
0.0
  0
LINE
  5
71
330
1F
100
AcDbEntity
  8
0
  6
SLD-Durchgehend
 62
     7
370
    15
100
AcDbLine
 10
271.1169476707
 20
127.1709978608
 30
0.0
 11
271.1169476707
 21
127.1204549846
 31
0.0
  0
LINE
  5
72
330
1F
100
AcDbEntity
  8
0
  6
SLD-Durchgehend
 62
     7
370
    15
100
AcDbLine
 10
276.3669471342
 20
127.1204549846
 30
0.0
 11
276.3669471342
 21
127.1709978608
 31
0.0
  0
LINE
  5
73
330
1F
100
AcDbEntity
  8
0
  6
SLD-Durchgehend
 62
     7
370
    15
100
AcDbLine
 10
267.2663162548
 20
120.2548353029
 30
0.0
 11
277.4246017535
 21
123.4499283162
 31
0.0
  0
LINE
  5
74
330
1F
100
AcDbEntity
  8
0
  6
SLD-Durchgehend
 62
     7
370
    15
100
AcDbLine
 10
268.5715387661
 20
121.9797583324
 30
0.0
 11
267.1520541508
 21
120.6010609892
 31
0.0
  0
LINE
  5
75
330
1F
100
AcDbEntity
  8
0
  6
SLD-Durchgehend
 62
     7
370
    15
100
AcDbLine
 10
277.1345730026
 20
123.9626064924
 30
0.0
 11
277.3103396494
 21
123.7961540026
 31
0.0
  0
ARC
  5
76
330
1F
100
AcDbEntity
  8
0
  6
SLD-Durchgehend
 62
     7
370
    15
100
AcDbCircle
 10
277.3136060158
 20
123.8094055954
 30
0.0
 40
0.3961754967682191
100
AcDbArc
 50
287.4039159715
 51
342.456569252
  0
LINE
  5
77
330
1F
100
AcDbEntity
  8
0
  6
SLD-Durchgehend
 62
     7
370
    15
100
AcDbLine
 10
267.2640438278
 20
120.2331997481
 30
0.0
 11
277.4321044881
 21
123.4313670573
 31
0.0
  0
ARC
  5
78
330
1F
100
AcDbEntity
  8
0
  6
SLD-Durchgehend
 62
     7
370
    15
100
AcDbCircle
 10
267.1423998755
 20
120.6073507243
 30
0.0
 40
0.3934287788862568
100
AcDbArc
 50
162.1288696338
 51
288.0103782151
  0
LINE
  5
79
330
1F
100
AcDbEntity
  8
0
  6
SLD-Durchgehend
 62
     7
370
    15
100
AcDbLine
 10
269.973924299
 20
130.8713752803
 30
0.0
 11
266.7679543693
 21
120.7280850065
 31
0.0
  0
ARC
  5
7A
330
1F
100
AcDbEntity
  8
0
  6
SLD-Durchgehend
 62
     7
370
    15
100
AcDbCircle
 10
270.3517010922
 20
130.7519265998
 30
0.0
 40
0.3962111719642762
100
AcDbArc
 50
107.4054007109
 51
162.4536442497
  0
LINE
  5
7B
330
1F
100
AcDbEntity
  8
0
  6
SLD-Durchgehend
 62
     7
370
    15
100
AcDbLine
 10
280.4012353618
 20
134.3281634179
 30
0.0
 11
270.233182152
 21
131.1299961087
 31
0.0
  0
ARC
  5
7C
330
1F
100
AcDbEntity
  8
0
  6
SLD-Durchgehend
 62
     7
370
    15
100
AcDbCircle
 10
280.5228806083
 20
133.9540078746
 30
0.0
 40
0.3934335224239961
100
AcDbArc
 50
342.1296486998
 51
108.0103518195
  0
LINE
  5
7D
330
1F
100
AcDbEntity
  8
0
  6
SLD-Durchgehend
 62
     7
370
    15
100
AcDbLine
 10
277.6913548906
 20
123.6899869544
 30
0.0
 11
280.8973322709
 21
133.8332772282
 31
0.0
  0
ARC
  5
7E
330
1F
100
AcDbEntity
  8
0
  6
SLD-Durchgehend
 62
     7
370
    15
100
AcDbCircle
 10
267.1517467206
 20
120.61666807
 30
0.0
 40
0.3795380476023998
100
AcDbArc
 50
162.570064134
 51
287.5696984122
  0
ARC
  5
7F
330
1F
100
AcDbEntity
  8
0
  6
SLD-Durchgehend
 62
     7
370
    15
100
AcDbCircle
 10
277.3109051116
 20
123.8120545013
 30
0.0
 40
0.3795553982096369
100
AcDbArc
 50
287.4307072055
 51
342.4284868418
  0
LINE
  5
80
330
1F
100
AcDbEntity
  8
0
  6
SLD-Durchgehend
 62
     7
370
    15
100
AcDbLine
 10
277.6727507908
 20
123.6974682686
 30
0.0
 11
280.8756436307
 21
133.8310085264
 31
0.0
  0
ARC
  5
81
330
1F
100
AcDbEntity
  8
0
  6
SLD-Durchgehend
 62
     7
370
    15
100
AcDbCircle
 10
280.5135329935
 20
133.9446963304
 30
0.0
 40
0.3795379169632757
100
AcDbArc
 50
342.5698626227
 51
107.569787708
  0
LINE
  5
82
330
1F
100
AcDbEntity
  8
0
  6
SLD-Durchgehend
 62
     7
370
    15
100
AcDbLine
 10
280.3989629347
 20
134.3065287945
 30
0.0
 11
270.2406774361
 21
131.1114348498
 31
0.0
  0
ARC
  5
83
330
1F
100
AcDbEntity
  8
0
  6
SLD-Durchgehend
 62
     7
370
    15
100
AcDbCircle
 10
270.354364626
 20
130.7493290306
 30
0.0
 40
0.3795331361455493
100
AcDbArc
 50
107.4302667923
 51
162.4306475597
  0
LINE
  5
84
330
1F
100
AcDbEntity
  8
0
  6
SLD-Durchgehend
 62
     7
370
    15
100
AcDbLine
 10
269.9925358493
 20
130.8638948974
 30
0.0
 11
266.7896355588
 21
120.7303546396
 31
0.0
  0
LINE
  5
85
330
1F
100
AcDbEntity
  8
0
  6
SLD-Durchgehend
 62
     7
370
    15
100
AcDbLine
 10
270.530706187
 20
130.5503893671
 30
0.0
 11
270.3549469907
 21
130.734601247
 31
0.0
  0
ARC
  5
86
330
1F
100
AcDbEntity
  8
0
  6
SLD-Durchgehend
 62
     7
370
    15
100
AcDbCircle
 10
256.1086145348
 20
134.7611561641
 30
0.0
 40
17.85185175069216
100
AcDbArc
 50
314.2772146866
 51
316.4991664847
  0
LINE
  5
87
330
1F
100
AcDbEntity
  8
0
  6
SLD-Durchgehend
 62
     7
370
    15
100
AcDbLine
 10
270.8523924549
 20
123.0563253191
 30
0.0
 11
275.8413012226
 21
124.6254911673
 31
0.0
  0
LINE
  5
88
330
1F
100
AcDbEntity
  8
0
  6
SLD-Durchgehend
 62
     7
370
    15
100
AcDbLine
 10
276.8128867347
 20
131.5050378469
 30
0.0
 11
271.823977967
 21
129.9358710674
 31
0.0
  0
ARC
  5
89
330
1F
100
AcDbEntity
  8
0
  6
SLD-Durchgehend
 62
     7
370
    15
100
AcDbCircle
 10
277.1143904684
 20
130.5528498501
 30
0.0
 40
0.9987825001730326
100
AcDbArc
 50
342.5697501519
 51
107.5700301739
  0
LINE
  5
8A
330
1F
100
AcDbEntity
  8
0
  6
SLD-Durchgehend
 62
     7
370
    15
100
AcDbLine
 10
276.4943148096
 20
125.2769121927
 30
0.0
 11
278.0673111875
 21
130.2536699948
 31
0.0
  0
ARC
  5
8B
330
1F
100
AcDbEntity
  8
0
  6
SLD-Durchgehend
 62
     7
370
    15
100
AcDbCircle
 10
275.542139713
 20
125.5783995857
 30
0.0
 40
0.9987652690543366
100
AcDbArc
 50
287.4294571132
 51
342.4306401086
  0
ARC
  5
8C
330
1F
100
AcDbEntity
  8
0
  6
SLD-Durchgehend
 62
     7
370
    15
100
AcDbCircle
 10
270.5508949855
 20
124.0085193729
 30
0.0
 40
0.9987863835817364
100
AcDbArc
 50
162.5702402726
 51
287.5695826951
  0
LINE
  5
8D
330
1F
100
AcDbEntity
  8
0
  6
SLD-Durchgehend
 62
     7
370
    15
100
AcDbLine
 10
271.17096438
 20
129.2844519046
 30
0.0
 11
269.5979680021
 21
124.3076922399
 31
0.0
  0
ARC
  5
8E
330
1F
100
AcDbEntity
  8
0
  6
SLD-Durchgehend
 62
     7
370
    15
100
AcDbCircle
 10
272.123174411
 20
128.982926767
 30
0.0
 40
0.998809967755142
100
AcDbArc
 50
107.4307525459
 51
162.4291808471
  0
CIRCLE
  5
8F
330
1F
100
AcDbEntity
  8
0
  6
SLD-Durchgehend
 62
     7
370
    15
100
AcDbCircle
 10
273.8275860911
 20
127.2768449417
 30
0.0
 40
3.045660489412996
  0
ARC
  5
90
330
1F
100
AcDbEntity
  8
0
  6
SLD-Durchgehend
 62
     7
370
    15
100
AcDbCircle
 10
286.5398021366
 20
133.8503646099
 30
0.0
 40
13.64646824839101
100
AcDbArc
 50
223.5067587534
 51
226.432702536
  0
LWPOLYLINE
  5
91
330
1F
100
AcDbEntity
  8
0
  6
SLD-Durchgehend
 62
     7
370
    15
100
AcDbPolyline
 90
        3
 70
   128
 43
0.0
 10
270.9238062699
 20
128.1259462264
 10
270.7871030171
 20
127.3755665896
 10
270.7826401193
 20
127.2110279677
  0
ARC
  5
92
330
1F
100
AcDbEntity
  8
0
  6
SLD-Durchgehend
 62
     7
370
    15
100
AcDbCircle
 10
273.8319593646
 20
127.204351511
 30
0.0
 40
3.050687011432556
100
AcDbArc
 50
0.1253924412
 51
162.4165735576
  0
LINE
  5
93
330
1F
100
AcDbEntity
  8
0
  6
SLD-Durchgehend
 62
     7
370
    15
100
AcDbLine
 10
279.093747874
 20
132.4763327864
 30
0.0
 11
280.5132324893
 21
133.9296933291
 31
0.0
  0
ARC
  5
94
330
1F
100
AcDbEntity
  8
0
  6
SLD-Durchgehend
 62
     7
370
    15
100
AcDbCircle
 10
280.157289303
 20
139.7418986863
 30
0.0
 40
13.30995665116905
100
AcDbArc
 50
223.6755590532
 51
226.665035368
  0
ARC
  5
95
330
1F
100
AcDbEntity
  8
0
  6
SLD-Durchgehend
 62
     7
370
    15
100
AcDbCircle
 10
267.2941803412
 20
144.0123437329
 30
0.0
 40
16.50179816015551
100
AcDbArc
 50
313.2816768015
 51
315.6470822247
  0
LINE
  5
96
330
1F
100
AcDbEntity
  8
0
  6
SLD-Durchgehend
 62
     7
370
    15
100
AcDbLine
 10
181.2632325191
 20
82.1571063277
 30
0.0
 11
177.3051637311
 21
82.1571063277
 31
0.0
  0
LINE
  5
97
330
1F
100
AcDbEntity
  8
0
  6
SLD-Durchgehend
 62
     7
370
    15
100
AcDbLine
 10
177.3051637311
 20
82.1571063277
 30
0.0
 11
177.3051637311
 21
132.1940246997
 31
0.0
  0
LINE
  5
98
330
1F
100
AcDbEntity
  8
0
  6
SLD-Durchgehend
 62
     7
370
    15
100
AcDbLine
 10
177.3051637311
 20
132.1940246997
 30
0.0
 11
181.2632325191
 21
132.1940246997
 31
0.0
  0
LINE
  5
99
330
1F
100
AcDbEntity
  8
0
  6
SLD-Durchgehend
 62
     7
370
    15
100
AcDbLine
 10
177.3051637311
 20
82.1571063277
 30
0.0
 11
175.8232320745
 21
84.8461866406
 31
0.0
  0
LINE
  5
9A
330
1F
100
AcDbEntity
  8
0
  6
SLD-Durchgehend
 62
     7
370
    15
100
AcDbLine
 10
175.8232320745
 20
84.8461866406
 30
0.0
 11
175.8232320745
 21
132.1940246997
 31
0.0
  0
LINE
  5
9B
330
1F
100
AcDbEntity
  8
0
  6
SLD-Durchgehend
 62
     7
370
    15
100
AcDbLine
 10
175.8232320745
 20
132.1940246997
 30
0.0
 11
177.3051637311
 21
132.1940246997
 31
0.0
  0
LINE
  5
9C
330
1F
100
AcDbEntity
  8
0
  6
SLD-Durchgehend
 62
     7
370
    15
100
AcDbLine
 10
160.863231783
 20
132.1940246997
 30
0.0
 11
170.5212992702
 21
132.1940246997
 31
0.0
  0
LINE
  5
9D
330
1F
100
AcDbEntity
  8
0
  6
SLD-Durchgehend
 62
     7
370
    15
100
AcDbLine
 10
170.5212992702
 20
82.1571063277
 30
0.0
 11
170.5212992702
 21
132.1940246997
 31
0.0
  0
LINE
  5
9E
330
1F
100
AcDbEntity
  8
0
  6
SLD-Durchgehend
 62
     7
370
    15
100
AcDbLine
 10
170.5212992702
 20
82.1571063277
 30
0.0
 11
168.863232163
 21
82.1571063277
 31
0.0
  0
ARC
  5
9F
330
1F
100
AcDbEntity
  8
0
  6
SLD-Durchgehend
 62
     7
370
    15
100
AcDbCircle
 10
168.2034893872
 20
60.9087937706
 30
0.0
 40
21.25855232734715
100
AcDbArc
 50
88.2215841219
 51
110.1991894934
  0
LINE
  5
A0
330
1F
100
AcDbEntity
  8
0
  6
SLD-Durchgehend
 62
     7
370
    15
100
AcDbLine
 10
160.863231783
 20
80.8599006412
 30
0.0
 11
160.863231783
 21
80.8440234539
 31
0.0
  0
LWPOLYLINE
  5
A1
330
1F
100
AcDbEntity
  8
0
  6
SLD-Durchgehend
 62
     7
370
    15
100
AcDbPolyline
 90
       11
 70
   128
 43
0.0
 10
168.863232163
 20
142.8112193969
 10
167.5636236642
 20
142.8389243809
 10
166.2640160967
 20
142.9218903211
 10
165.0745942343
 20
143.0458772955
 10
163.958717053
 20
143.2034514871
 10
162.9862989385
 20
143.3728553382
 10
162.1530795556
 20
143.5413986472
 10
161.5197825332
 20
143.6837140498
 10
161.0823691909
 20
143.7890838859
 10
160.8825613831
 20
143.8391219852
 10
160.8912203547
 20
143.8369277892
  0
LINE
  5
A2
330
1F
100
AcDbEntity
  8
0
  6
SLD-Durchgehend
 62
     7
370
    15
100
AcDbLine
 10
170.5212992702
 20
142.8112193969
 30
0.0
 11
168.863232163
 21
142.8112193969
 31
0.0
  0
LINE
  5
A3
330
1F
100
AcDbEntity
  8
0
  6
SLD-Durchgehend
 62
     7
370
    15
100
AcDbLine
 10
170.5212992702
 20
136.8027135757
 30
0.0
 11
170.5212992702
 21
142.8112193969
 31
0.0
  0
LINE
  5
A4
330
1F
100
AcDbEntity
  8
0
  6
SLD-Durchgehend
 62
     7
370
    15
100
AcDbLine
 10
168.1088524957
 20
136.8027135757
 30
0.0
 11
170.5212992702
 21
136.8027135757
 31
0.0
  0
ARC
  5
A5
330
1F
100
AcDbEntity
  8
0
  6
SLD-Durchgehend
 62
     7
370
    15
100
AcDbCircle
 10
167.7390391126
 20
129.3841201872
 30
0.0
 40
7.427805180680926
100
AcDbArc
 50
87.1461947163
 51
157.7718644507
  0
LINE
  5
A6
330
1F
100
AcDbEntity
  8
0
  6
SLD-Durchgehend
 62
     7
370
    15
100
AcDbLine
 10
172.0032318581
 20
84.8461866406
 30
0.0
 11
172.0032318581
 21
132.1940246997
 31
0.0
  0
LINE
  5
A7
330
1F
100
AcDbEntity
  8
0
  6
SLD-Durchgehend
 62
     7
370
    15
100
AcDbLine
 10
172.0032318581
 20
84.8461866406
 30
0.0
 11
170.5212992702
 21
82.1571063277
 31
0.0
  0
LINE
  5
A8
330
1F
100
AcDbEntity
  8
0
  6
SLD-Durchgehend
 62
     7
370
    15
100
AcDbLine
 10
170.5212992702
 20
132.1940246997
 30
0.0
 11
172.0032318581
 21
132.1940246997
 31
0.0
  0
LINE
  5
A9
330
1F
100
AcDbEntity
  8
0
  6
SLD-Durchgehend
 62
     7
370
    15
100
AcDbLine
 10
181.8632314999
 20
82.7837467221
 30
0.0
 11
181.8632314999
 21
132.1940246997
 31
0.0
  0
ARC
  5
AA
330
1F
100
AcDbEntity
  8
0
  6
SLD-Durchgehend
 62
     7
370
    15
100
AcDbCircle
 10
181.2508135832
 20
82.769562583
 30
0.0
 40
0.6125821533107684
100
AcDbArc
 50
271.1616423437
 51
1.3267835803
  0
LINE
  5
AB
330
1F
100
AcDbEntity
  8
0
  6
SLD-Durchgehend
 62
     7
370
    15
100
AcDbLine
 10
181.2632325191
 20
132.1940246997
 30
0.0
 11
181.8632314999
 21
132.1940246997
 31
0.0
  0
LINE
  5
AC
330
1F
100
AcDbEntity
  8
0
  6
SLD-Durchgehend
 62
     7
370
    15
100
AcDbLine
 10
155.9132318098
 20
81.1440248069
 30
0.0
 11
155.9132318098
 21
143.5440231142
 31
0.0
  0
ARC
  5
AD
330
1F
100
AcDbEntity
  8
0
  6
SLD-Durchgehend
 62
     7
370
    15
100
AcDbCircle
 10
172.8431628648
 20
139.4560305457
 30
0.0
 40
0.8399658136910985
100
AcDbArc
 50
179.4783948307
 51
237.9582309184
  0
LINE
  5
AE
330
1F
100
AcDbEntity
  8
0
  6
SLD-Durchgehend
 62
     7
370
    15
100
AcDbLine
 10
172.8032323618
 20
138.7440238175
 30
0.0
 11
172.3975296218
 21
138.7440238175
 31
0.0
  0
LINE
  5
AF
330
1F
100
AcDbEntity
  8
0
  6
SLD-Durchgehend
 62
     7
370
    15
100
AcDbLine
 10
172.8032323618
 20
85.9440241036
 30
0.0
 11
172.1009071071
 21
85.9440241036
 31
0.0
  0
LINE
  5
B0
330
1F
100
AcDbEntity
  8
0
  6
SLD-Durchgehend
 62
     7
370
    15
100
AcDbLine
 10
172.0032318581
 20
132.4798904386
 30
0.0
 11
172.0293796707
 21
132.1940246997
 31
0.0
  0
LINE
  5
B1
330
1F
100
AcDbEntity
  8
0
  6
SLD-Durchgehend
 62
     7
370
    15
100
AcDbLine
 10
175.7255568255
 20
85.9440241036
 30
0.0
 11
175.0232315708
 21
85.9440241036
 31
0.0
  0
LINE
  5
B2
330
1F
100
AcDbEntity
  8
0
  6
SLD-Durchgehend
 62
     7
370
    15
100
AcDbLine
 10
175.4289343108
 20
138.7440238175
 30
0.0
 11
175.0232315708
 21
138.7440238175
 31
0.0
  0
ARC
  5
B3
330
1F
100
AcDbEntity
  8
0
  6
SLD-Durchgehend
 62
     7
370
    15
100
AcDbCircle
 10
174.9847885537
 20
139.4552155529
 30
0.0
 40
0.838486218132929
100
AcDbArc
 50
301.9851556421
 51
0.5782186088
  0
LWPOLYLINE
  5
B4
330
1F
100
AcDbEntity
  8
0
  6
SLD-Durchgehend
 62
     7
370
    15
100
AcDbPolyline
 90
        3
 70
   128
 43
0.0
 10
175.7970842619
 20
132.1940246997
 10
175.8171803404
 20
132.3417380479
 10
175.8232320745
 20
132.4798904386
  0
LINE
  5
B5
330
1F
100
AcDbEntity
  8
0
  6
SLD-Durchgehend
 62
     7
370
    15
100
AcDbLine
 10
175.0232315708
 20
138.7440238175
 30
0.0
 11
172.8032323618
 21
138.7440238175
 31
0.0
  0
LINE
  5
B6
330
1F
100
AcDbEntity
  8
0
  6
SLD-Durchgehend
 62
     7
370
    15
100
AcDbLine
 10
175.0232315708
 20
85.9440241036
 30
0.0
 11
172.8032323618
 21
85.9440241036
 31
0.0
  0
LINE
  5
B7
330
1F
100
AcDbEntity
  8
0
  6
SLD-Durchgehend
 62
     7
370
    15
100
AcDbLine
 10
153.9132317148
 20
88.123592737
 30
0.0
 11
153.9132317148
 21
136.5644551841
 31
0.0
  0
LINE
  5
B8
330
1F
100
AcDbEntity
  8
0
  6
SLD-Durchgehend
 62
     7
370
    15
100
AcDbLine
 10
134.1132315893
 20
89.1155779389
 30
0.0
 11
134.1132315893
 21
90.3988752541
 31
0.0
  0
LWPOLYLINE
  5
B9
330
1F
100
AcDbEntity
  8
0
  6
SLD-Durchgehend
 62
     7
370
    15
100
AcDbPolyline
 90
        5
 70
   128
 43
0.0
 10
133.4916277875
 20
91.4796527502
 10
133.5464715112
 20
91.3655117181
 10
133.8369603355
 20
90.9667771337
 10
134.0673900295
 20
90.599973875
 10
134.1132315893
 20
90.3988752541
  0
LWPOLYLINE
  5
BA
330
1F
100
AcDbEntity
  8
0
  6
SLD-Durchgehend
 62
     7
370
    15
100
AcDbPolyline
 90
        7
 70
   128
 43
0.0
 10
132.7132321049
 20
92.1979352859
 10
132.7929887075
 20
92.1994086382
 10
132.8717879106
 20
92.1875324127
 10
132.9666077245
 20
92.1551931676
 10
133.0951917071
 20
92.0774966505
 10
133.3309280772
 20
91.8094061342
 10
133.4916277875
 20
91.4796527502
  0
LWPOLYLINE
  5
BB
330
1F
100
AcDbEntity
  8
0
  6
SLD-Durchgehend
 62
     7
370
    15
100
AcDbPolyline
 90
        3
 70
   128
 43
0.0
 10
128.7996302445
 20
91.7017415193
 10
129.5081487943
 20
91.8111030039
 10
132.7132321049
 20
92.1979352859
  0
ARC
  5
BC
330
1F
100
AcDbEntity
  8
0
  6
SLD-Durchgehend
 62
     7
370
    15
100
AcDbCircle
 10
125.6495361
 20
121.0892388003
 30
0.0
 40
29.55584696060096
100
AcDbArc
 50
269.0572258187
 51
276.1182671045
  0
LINE
  5
BD
330
1F
100
AcDbEntity
  8
0
  6
SLD-Durchgehend
 62
     7
370
    15
100
AcDbLine
 10
125.1531875778
 20
91.5492076454
 30
0.0
 11
125.1632309605
 21
91.5373928872
 31
0.0
  0
LINE
  5
BE
330
1F
100
AcDbEntity
  8
0
  6
SLD-Durchgehend
 62
     7
370
    15
100
AcDbLine
 10
125.1632309605
 20
133.2139626172
 30
0.0
 11
125.1531875778
 21
133.2039769766
 31
0.0
  0
LINE
  5
BF
330
1F
100
AcDbEntity
  8
0
  6
SLD-Durchgehend
 62
     7
370
    15
100
AcDbLine
 10
128.7132314492
 20
133.1671115038
 30
0.0
 11
125.1632309605
 21
133.2139626172
 31
0.0
  0
ARC
  5
C0
330
1F
100
AcDbEntity
  8
0
  6
SLD-Durchgehend
 62
     7
370
    15
100
AcDbCircle
 10
128.6553070516
 20
134.7168698481
 30
0.0
 40
1.550840469419303
100
AcDbArc
 50
272.1405139456
 51
340.0660547734
  0
LINE
  5
C1
330
1F
100
AcDbEntity
  8
0
  6
SLD-Durchgehend
 62
     7
370
    15
100
AcDbLine
 10
130.1132309337
 20
134.1881316182
 30
0.0
 11
130.1132309337
 21
135.3720698533
 31
0.0
  0
LWPOLYLINE
  5
C2
330
1F
100
AcDbEntity
  8
0
  6
SLD-Durchgehend
 62
     7
370
    15
100
AcDbPolyline
 90
       12
 70
   128
 43
0.0
 10
142.6835329358
 20
88.6866852668
 10
142.6808181305
 20
88.6863425401
 10
143.0114162241
 20
88.7279707965
 10
143.9270702277
 20
88.8209410039
 10
145.2994792808
 20
88.8892088112
 10
146.0951854561
 20
88.8913378147
 10
146.9125346367
 20
88.8638395843
 10
147.7261473511
 20
88.8065539327
 10
148.5199894842
 20
88.7223437456
 10
149.879097854
 20
88.5165736106
 10
150.7798767735
 20
88.3358001736
 10
151.094868229
 20
88.2652785656
  0
LWPOLYLINE
  5
C3
330
1F
100
AcDbEntity
  8
0
  6
SLD-Durchgehend
 62
     7
370
    15
100
AcDbPolyline
 90
       12
 70
   128
 43
0.0
 10
151.0946493682
 20
136.4227041629
 10
150.7770981726
 20
136.3519907025
 10
149.8736240056
 20
136.1704628942
 10
148.5182758507
 20
135.9651062665
 10
147.727570412
 20
135.881380367
 10
146.914002401
 20
135.8242623535
 10
146.0963076998
 20
135.7968218652
 10
145.2993414451
 20
135.798969495
 10
143.9248201523
 20
135.8672671047
 10
143.0097780276
 20
135.9602410373
 10
142.6806979899
 20
136.0016997931
 10
142.6828288559
 20
136.0014297095
  0
LWPOLYLINE
  5
C4
330
1F
100
AcDbEntity
  8
0
  6
SLD-Durchgehend
 62
     7
370
    15
100
AcDbPolyline
 90
        3
 70
   128
 43
0.0
 10
124.0132319827
 20
92.6908638355
 10
124.0325550635
 20
92.6978040514
 10
124.0435111422
 20
92.7539367256
  0
LINE
  5
C5
330
1F
100
AcDbEntity
  8
0
  6
SLD-Durchgehend
 62
     7
370
    15
100
AcDbLine
 10
124.0132319827
 20
92.6908638355
 30
0.0
 11
124.0132319827
 21
132.0347014842
 31
0.0
  0
LWPOLYLINE
  5
C6
330
1F
100
AcDbEntity
  8
0
  6
SLD-Durchgehend
 62
     7
370
    15
100
AcDbPolyline
 90
        3
 70
   128
 43
0.0
 10
124.0758950908
 20
132.0185765651
 10
124.0343879063
 20
132.0811018375
 10
124.0132319827
 20
132.0347014842
  0
LWPOLYLINE
  5
C7
330
1F
100
AcDbEntity
  8
0
  6
SLD-Durchgehend
 62
     7
370
    15
100
AcDbPolyline
 90
       12
 70
   128
 43
0.0
 10
124.837385406
 20
132.7341433642
 10
124.7715259988
 20
132.549339163
 10
124.6570925314
 20
132.2858437923
 10
124.5277579029
 20
132.0526666966
 10
124.4532111187
 20
131.9460805533
 10
124.4144643743
 20
131.8990804282
 10
124.3704128165
 20
131.8533413139
 10
124.3314611812
 20
131.8205624846
 10
124.2948415775
 20
131.7973818657
 10
124.2485622961
 20
131.7810297039
 10
124.1681221027
 20
131.8030908731
 10
124.0758950908
 20
132.0185765651
  0
LINE
  5
C8
330
1F
100
AcDbEntity
  8
0
  6
SLD-Durchgehend
 62
     7
370
    15
100
AcDbLine
 10
125.1531875778
 20
133.2039769766
 30
0.0
 11
124.837385406
 21
132.7341433642
 31
0.0
  0
LINE
  5
C9
330
1F
100
AcDbEntity
  8
0
  6
SLD-Durchgehend
 62
     7
370
    15
100
AcDbLine
 10
124.952141111
 20
91.9001020518
 30
0.0
 11
125.1531875778
 21
91.5492076454
 31
0.0
  0
LWPOLYLINE
  5
CA
330
1F
100
AcDbEntity
  8
0
  6
SLD-Durchgehend
 62
     7
370
    15
100
AcDbPolyline
 90
       12
 70
   128
 43
0.0
 10
124.0435111422
 20
92.7539367256
 10
124.128254046
 20
93.0794861195
 10
124.1792979736
 20
93.1255362955
 10
124.2463457484
 20
93.1311931488
 10
124.280834486
 20
93.1189257679
 10
124.3256162007
 20
93.0919062373
 10
124.3629734118
 20
93.0614706156
 10
124.4014333088
 20
93.0237595019
 10
124.4513894517
 20
92.966270822
 10
124.5257052679
 20
92.8649224368
 10
124.6860305865
 20
92.5868425545
 10
124.952141111
 20
91.9001020518
  0
LWPOLYLINE
  5
CB
330
1F
100
AcDbEntity
  8
0
  6
SLD-Durchgehend
 62
     7
370
    15
100
AcDbPolyline
 90
        3
 70
   128
 43
0.0
 10
172.0032318581
 20
140.1492573348
 10
170.5293030564
 20
142.7968863425
 10
170.5212992702
 20
142.8112193969
  0
LINE
  5
CC
330
1F
100
AcDbEntity
  8
0
  6
SLD-Durchgehend
 62
     7
370
    15
100
AcDbLine
 10
172.0032318581
 20
133.3941679475
 30
0.0
 11
172.0032318581
 21
140.1492573348
 31
0.0
  0
LWPOLYLINE
  5
CD
330
1F
100
AcDbEntity
  8
0
  6
SLD-Durchgehend
 62
     7
370
    15
100
AcDbPolyline
 90
        3
 70
   128
 43
0.0
 10
170.5212992702
 20
136.8027135757
 10
170.8767832343
 20
136.0044639585
 10
172.0032318581
 20
133.3941679475
  0
LINE
  5
CE
330
1F
100
AcDbEntity
  8
0
  6
SLD-Durchgehend
 62
     7
370
    15
100
AcDbLine
 10
172.0032318581
 20
133.3941679475
 30
0.0
 11
172.0032318581
 21
132.4798904386
 31
0.0
  0
LWPOLYLINE
  5
CF
330
1F
100
AcDbEntity
  8
0
  6
SLD-Durchgehend
 62
     7
370
    15
100
AcDbPolyline
 90
        3
 70
   128
 43
0.0
 10
175.8232320745
 20
133.3941679475
 10
176.949679767
 20
136.0044639585
 10
177.3051637311
 20
136.8027135757
  0
LINE
  5
D0
330
1F
100
AcDbEntity
  8
0
  6
SLD-Durchgehend
 62
     7
370
    15
100
AcDbLine
 10
177.3051637311
 20
136.8027135757
 30
0.0
 11
181.2632325191
 21
136.8027135757
 31
0.0
  0
ARC
  5
D1
330
1F
100
AcDbEntity
  8
0
  6
SLD-Durchgehend
 62
     7
370
    15
100
AcDbCircle
 10
181.1802033373
 20
136.1183506835
 30
0.0
 40
0.6893811813573112
100
AcDbArc
 50
352.2154757984
 51
83.0824936921
  0
LINE
  5
D2
330
1F
100
AcDbEntity
  8
0
  6
SLD-Durchgehend
 62
     7
370
    15
100
AcDbLine
 10
175.8232320745
 20
132.4798904386
 30
0.0
 11
175.8232320745
 21
133.3941679475
 31
0.0
  0
LINE
  5
D3
330
1F
100
AcDbEntity
  8
0
  6
SLD-Durchgehend
 62
     7
370
    15
100
AcDbLine
 10
181.8632314999
 20
136.0249754068
 30
0.0
 11
181.8632314999
 21
132.1940246997
 31
0.0
  0
LWPOLYLINE
  5
D4
330
1F
100
AcDbEntity
  8
0
  6
SLD-Durchgehend
 62
     7
370
    15
100
AcDbPolyline
 90
        3
 70
   128
 43
0.0
 10
177.3051637311
 20
142.8112193969
 10
177.2971599449
 20
142.7968863425
 10
175.8232320745
 20
140.1492573348
  0
LINE
  5
D5
330
1F
100
AcDbEntity
  8
0
  6
SLD-Durchgehend
 62
     7
370
    15
100
AcDbLine
 10
177.3051637311
 20
136.8027135757
 30
0.0
 11
177.3051637311
 21
142.8112193969
 31
0.0
  0
LINE
  5
D6
330
1F
100
AcDbEntity
  8
0
  6
SLD-Durchgehend
 62
     7
370
    15
100
AcDbLine
 10
175.8232320745
 20
133.3941679475
 30
0.0
 11
175.8232320745
 21
140.1492573348
 31
0.0
  0
LINE
  5
D7
330
1F
100
AcDbEntity
  8
0
  6
SLD-Durchgehend
 62
     7
370
    15
100
AcDbLine
 10
181.2632325191
 20
142.8112193969
 30
0.0
 11
177.3051637311
 21
142.8112193969
 31
0.0
  0
ARC
  5
D8
330
1F
100
AcDbEntity
  8
0
  6
SLD-Durchgehend
 62
     7
370
    15
100
AcDbCircle
 10
181.2551250206
 20
142.2030370105
 30
0.0
 40
0.6082364232875819
100
AcDbArc
 50
358.8156305045
 51
89.2362522385
  0
LINE
  5
D9
330
1F
100
AcDbEntity
  8
0
  6
SLD-Durchgehend
 62
     7
370
    15
100
AcDbLine
 10
181.8632314999
 20
136.0249754068
 30
0.0
 11
181.8632314999
 21
142.1904649613
 31
0.0
  0
ELLIPSE
  5
DA
330
1F
100
AcDbEntity
  8
0
  6
SLD-Durchgehend
 62
     7
370
    15
100
AcDbEllipse
 10
253.2440532499
 20
112.3440239606
 30
0.0
 11
-0.3220561513869881
 21
15.99976859320066
 31
0.0
210
0.0
220
0.0
230
1.0
 40
0.2671959542
 41
0.1426643238695691
 42
2.848545425119131
  0
ARC
  5
DB
330
1F
100
AcDbEntity
  8
0
  6
SLD-Durchgehend
 62
     7
370
    15
100
AcDbCircle
 10
254.4927410683
 20
101.480221313
 30
0.0
 40
4.979047720189777
100
AcDbArc
 50
244.0942429911
 51
274.844509631
  0
LINE
  5
DC
330
1F
100
AcDbEntity
  8
0
  6
SLD-Durchgehend
 62
     7
370
    15
100
AcDbLine
 10
254.9132312734
 20
96.5189609704
 30
0.0
 11
254.9132312734
 21
96.3440232006
 31
0.0
  0
LINE
  5
DD
330
1F
100
AcDbEntity
  8
0
  6
SLD-Durchgehend
 62
     7
370
    15
100
AcDbLine
 10
254.9132312734
 20
128.3440247205
 30
0.0
 11
254.9132312734
 21
128.3434622017
 31
0.0
  0
ARC
  5
DE
330
1F
100
AcDbEntity
  8
0
  6
SLD-Durchgehend
 62
     7
370
    15
100
AcDbCircle
 10
254.1815134436
 20
119.8316059538
 30
0.0
 40
8.543249251118295
100
AcDbArc
 50
85.0866737577
 51
102.6029362242
  0
ELLIPSE
  5
DF
330
1F
100
AcDbEntity
  8
0
  6
SLD-Durchgehend
 62
     7
370
    15
100
AcDbEllipse
 10
251.1818482712
 20
120.968342207
 30
0.0
 11
0.09033694274967274
 21
2.324516216905366
 31
0.0
210
0.0
220
0.0
230
1.0
 40
0.2588465783
 41
0.0
 42
6.283185307179586
  0
LINE
  5
E0
330
1F
100
AcDbEntity
  8
0
  6
SLD-Durchgehend
 62
     7
370
    15
100
AcDbLine
 10
125.1632309605
 20
91.5315236923
 30
0.0
 11
125.1632309605
 21
91.5373928872
 31
0.0
  0
LINE
  5
E1
330
1F
100
AcDbEntity
  8
0
  6
SLD-Durchgehend
 62
     7
370
    15
100
AcDbLine
 10
254.9132312734
 20
128.3434622017
 30
0.0
 11
255.2152107556
 21
128.6457117674
 31
0.0
  0
LINE
  5
E2
330
1F
100
AcDbEntity
  8
0
  6
SLD-Durchgehend
 62
     7
370
    15
100
AcDbLine
 10
255.2152107556
 20
96.2145842639
 30
0.0
 11
254.9132312734
 21
96.5189609704
 31
0.0
  0
LINE
  5
E3
330
1F
100
AcDbEntity
  8
0
  6
SLD-Durchgehend
 62
     7
370
    15
100
AcDbLine
 10
255.2152107556
 20
128.6457117674
 30
0.0
 11
255.7341138918
 21
129.1647918549
 31
0.0
  0
LINE
  5
E4
330
1F
100
AcDbEntity
  8
0
  6
SLD-Durchgehend
 62
     7
370
    15
100
AcDbLine
 10
255.4132322867
 20
96.0164863643
 30
0.0
 11
255.2152107556
 21
96.2145842639
 31
0.0
  0
LINE
  5
E5
330
1F
100
AcDbEntity
  8
0
  6
SLD-Durchgehend
 62
     7
370
    15
100
AcDbLine
 10
255.4132322867
 20
96.0164863643
 30
0.0
 11
255.4132322867
 21
95.84402405
 31
0.0
  0
LINE
  5
E6
330
1F
100
AcDbEntity
  8
0
  6
SLD-Durchgehend
 62
     7
370
    15
100
AcDbLine
 10
268.8077668745
 20
96.0164863643
 30
0.0
 11
255.4132322867
 21
96.0164863643
 31
0.0
  0
ELLIPSE
  5
E7
330
1F
100
AcDbEntity
  8
0
  6
SLD-Durchgehend
 62
     7
370
    15
100
AcDbEllipse
 10
273.8366590934
 20
112.3440239606
 30
0.0
 11
5.390524936199314
 21
16.49183944377623
 31
0.0
210
0.0
220
0.0
230
1.0
 40
0.0962569477
 41
3.173044837569663
 42
3.317754824184889
  0
LINE
  5
E8
330
1F
100
AcDbEntity
  8
0
  6
SLD-Durchgehend
 62
     7
370
    15
100
AcDbLine
 10
267.6590363581
 20
123.54736049
 30
0.0
 11
265.4589767654
 21
122.8553738472
 31
0.0
  0
ARC
  5
E9
330
1F
100
AcDbEntity
  8
0
  6
SLD-Durchgehend
 62
     7
370
    15
100
AcDbCircle
 10
265.9129132733
 20
121.411987216
 30
0.0
 40
1.513084042725733
100
AcDbArc
 50
107.4580514862
 51
287.6220755332
  0
LINE
  5
EA
330
1F
100
AcDbEntity
  8
0
  6
SLD-Durchgehend
 62
     7
370
    15
100
AcDbLine
 10
266.3709799845
 20
119.9699060087
 30
0.0
 11
267.1645189721
 21
120.2194990617
 31
0.0
  0
LINE
  5
EB
330
1F
100
AcDbEntity
  8
0
  6
SLD-Durchgehend
 62
     7
370
    15
100
AcDbLine
 10
277.4834166367
 20
123.4651088742
 30
0.0
 11
268.8077668745
 21
96.0164863643
 31
0.0
  0
LINE
  5
EC
330
1F
100
AcDbEntity
  8
0
  6
SLD-Durchgehend
 62
     7
370
    15
100
AcDbLine
 10
255.7341138918
 20
129.1647918549
 30
0.0
 11
260.5299930174
 21
129.1647918549
 31
0.0
  0
ELLIPSE
  5
ED
330
1F
100
AcDbEntity
  8
0
  6
SLD-Durchgehend
 62
     7
370
    15
100
AcDbEllipse
 10
260.5299901447
 20
155.296236254
 30
0.0
 11
0.0
 21
26.13144513619369
 31
0.0
210
0.0
220
0.0
230
1.0
 40
0.9949698482
 41
3.141592653589793
 42
3.444886158282744
  0
LINE
  5
EE
330
1F
100
AcDbEntity
  8
0
  6
SLD-Durchgehend
 62
     7
370
    15
100
AcDbLine
 10
268.2952786882
 20
130.3574826595
 30
0.0
 11
269.9819113214
 21
130.8879807618
 31
0.0
  0
ARC
  5
EF
330
1F
100
AcDbEntity
  8
0
  6
SLD-Durchgehend
 62
     7
370
    15
100
AcDbCircle
 10
265.9130676243
 20
121.2606648766
 30
0.0
 40
1.247233460115683
100
AcDbArc
 50
107.4481997518
 51
287.632313368
  0
LINE
  5
F0
330
1F
100
AcDbEntity
  8
0
  6
SLD-Durchgehend
 62
     7
370
    15
100
AcDbLine
 10
266.2908638914
 20
120.0720264603
 30
0.0
 11
266.9354434211
 21
120.2747674686
 31
0.0
  0
LINE
  5
F1
330
1F
100
AcDbEntity
  8
0
  6
SLD-Durchgehend
 62
     7
370
    15
100
AcDbLine
 10
265.5390928585
 20
122.4505111602
 30
0.0
 11
267.5081024964
 21
123.0698229772
 31
0.0
  0
ARC
  5
F2
330
1F
100
AcDbEntity
  8
0
  6
SLD-Durchgehend
 62
     7
370
    15
100
AcDbCircle
 10
265.9120635063
 20
121.155837256
 30
0.0
 40
1.247116531775236
100
AcDbArc
 50
107.4015374
 51
177.5590750256
  0
LINE
  5
F3
330
1F
100
AcDbEntity
  8
0
  6
SLD-Durchgehend
 62
     7
370
    15
100
AcDbLine
 10
267.4713785846
 20
122.9536386234
 30
0.0
 11
265.5390928585
 21
122.3458761376
 31
0.0
  0
CIRCLE
  5
F4
330
1F
100
AcDbEntity
  8
0
  6
SLD-Durchgehend
 62
     7
370
    15
100
AcDbCircle
 10
273.7397392781
 20
127.1753975295
 30
0.0
 40
2.622779489963133
  0
CIRCLE
  5
F5
330
1F
100
AcDbEntity
  8
0
  6
SLD-Durchgehend
 62
     7
370
    15
100
AcDbCircle
 10
273.7402961412
 20
127.1932206642
 30
0.0
 40
1.798449961434839
  0
ARC
  5
F6
330
1F
100
AcDbEntity
  8
0
  6
SLD-Durchgehend
 62
     7
370
    15
100
AcDbCircle
 10
273.7456090519
 20
127.191737017
 30
0.0
 40
1.671512962209397
100
AcDbArc
 50
293.3152179578
 51
351.9500507607
  0
ARC
  5
F7
330
1F
100
AcDbEntity
  8
0
  6
SLD-Durchgehend
 62
     7
370
    15
100
AcDbCircle
 10
273.747876223
 20
127.1899596501
 30
0.0
 40
1.669019858287625
100
AcDbArc
 50
351.9995657792
 51
52.2047971757
  0
ARC
  5
F8
330
1F
100
AcDbEntity
  8
0
  6
SLD-Durchgehend
 62
     7
370
    15
100
AcDbCircle
 10
273.7419138188
 20
127.1829246993
 30
0.0
 40
1.678232973781229
100
AcDbArc
 50
52.1911333159
 51
110.6636411403
  0
LINE
  5
F9
330
1F
100
AcDbEntity
  8
0
  6
SLD-Durchgehend
 62
     7
370
    15
100
AcDbLine
 10
273.0710039933
 20
128.7212234017
 30
0.0
 11
273.1496970255
 21
128.7531938431
 31
0.0
  0
ARC
  5
FA
330
1F
100
AcDbEntity
  8
0
  6
SLD-Durchgehend
 62
     7
370
    15
100
AcDbCircle
 10
273.7383703908
 20
127.1885863936
 30
0.0
 40
1.671632168667483
100
AcDbArc
 50
113.5300765606
 51
170.0048586702
  0
LINE
  5
FB
330
1F
100
AcDbEntity
  8
0
  6
SLD-Durchgehend
 62
     7
370
    15
100
AcDbLine
 10
272.0756585796
 20
127.3603385341
 30
0.0
 11
272.0921094615
 21
127.4787226719
 31
0.0
  0
ARC
  5
FC
330
1F
100
AcDbEntity
  8
0
  6
SLD-Durchgehend
 62
     7
370
    15
100
AcDbCircle
 10
273.7359630097
 20
127.1904850962
 30
0.0
 40
1.66897003895839
100
AcDbArc
 50
174.1588145817
 51
230.0449228011
  0
LINE
  5
FD
330
1F
100
AcDbEntity
  8
0
  6
SLD-Durchgehend
 62
     7
370
    15
100
AcDbLine
 10
272.7585862477
 20
125.8375572068
 30
0.0
 11
272.6641724903
 21
125.9111391407
 31
0.0
  0
ARC
  5
FE
330
1F
100
AcDbEntity
  8
0
  6
SLD-Durchgehend
 62
     7
370
    15
100
AcDbCircle
 10
273.7419868837
 20
127.197607581
 30
0.0
 40
1.67833662632322
100
AcDbArc
 50
234.1307409351
 51
290.4496634927
  0
LINE
  5
FF
330
1F
100
AcDbEntity
  8
0
  6
SLD-Durchgehend
 62
     7
370
    15
100
AcDbLine
 10
274.4071762164
 20
125.6567176458
 30
0.0
 11
274.3283714254
 21
125.6250405711
 31
0.0
  0
ARC
  5
100
330
1F
100
AcDbEntity
  8
0
  6
SLD-Durchgehend
 62
     7
370
    15
100
AcDbCircle
 10
272.9161273699
 20
126.1359040328
 30
0.0
 40
0.3373870682647594
100
AcDbArc
 50
242.1638439058
 51
308.0899547887
  0
ARC
  5
101
330
1F
100
AcDbEntity
  8
0
  6
SLD-Durchgehend
 62
     7
370
    15
100
AcDbCircle
 10
273.4904535264
 20
125.4039186123
 30
0.0
 40
0.5930178488611496
100
AcDbArc
 50
36.0086505998
 51
128.1343236223
  0
ARC
  5
102
330
1F
100
AcDbEntity
  8
0
  6
SLD-Durchgehend
 62
     7
370
    15
100
AcDbCircle
 10
274.2423036379
 20
125.9501482982
 30
0.0
 40
0.3363074460001417
100
AcDbArc
 50
215.981797366
 51
284.8281038196
  0
ARC
  5
103
330
1F
100
AcDbEntity
  8
0
  6
SLD-Durchgehend
 62
     7
370
    15
100
AcDbCircle
 10
275.157642987
 20
126.0822948795
 30
0.0
 40
0.5892469381245619
100
AcDbArc
 50
95.6301143947
 51
188.3403643401
  0
ARC
  5
104
330
1F
100
AcDbEntity
  8
0
  6
SLD-Durchgehend
 62
     7
370
    15
100
AcDbCircle
 10
275.0651527466
 20
127.0058635978
 30
0.0
 40
0.3389433490560988
100
AcDbArc
 50
275.872937202
 51
351.8245903673
  0
ARC
  5
105
330
1F
100
AcDbEntity
  8
0
  6
SLD-Durchgehend
 62
     7
370
    15
100
AcDbCircle
 10
274.2473870016
 20
125.9466656065
 30
0.0
 40
0.3310625515805352
100
AcDbArc
 50
298.8589915553
 51
8.714055859
  0
LINE
  5
106
330
1F
100
AcDbEntity
  8
0
  6
SLD-Durchgehend
 62
     7
370
    15
100
AcDbLine
 10
272.5848759611
 20
126.0965030667
 30
0.0
 11
272.6099620659
 21
126.1754456935
 31
0.0
  0
ARC
  5
107
330
1F
100
AcDbEntity
  8
0
  6
SLD-Durchgehend
 62
     7
370
    15
100
AcDbCircle
 10
272.9092721644
 20
126.1318590406
 30
0.0
 40
0.3298349957736916
100
AcDbArc
 50
155.1558557603
 51
222.0040227785
  0
ARC
  5
108
330
1F
100
AcDbEntity
  8
0
  6
SLD-Durchgehend
 62
     7
370
    15
100
AcDbCircle
 10
272.4145975297
 20
127.3753993922
 30
0.0
 40
0.3392734020516623
100
AcDbArc
 50
182.5442821792
 51
248.3207982069
  0
ARC
  5
109
330
1F
100
AcDbEntity
  8
0
  6
SLD-Durchgehend
 62
     7
370
    15
100
AcDbCircle
 10
272.0767856681
 20
126.513873883
 30
0.0
 40
0.5861205420259086
100
AcDbArc
 50
335.4598170072
 51
68.7448943156
  0
ARC
  5
10A
330
1F
100
AcDbEntity
  8
0
  6
SLD-Durchgehend
 62
     7
370
    15
100
AcDbCircle
 10
272.0799580668
 20
126.4198653295
 30
0.0
 40
0.5836481796380547
100
AcDbArc
 50
335.2424715856
 51
359.9985750468
  0
ARC
  5
10B
330
1F
100
AcDbEntity
  8
0
  6
SLD-Durchgehend
 62
     7
370
    15
100
AcDbCircle
 10
272.4099851281
 20
127.2761885945
 30
0.0
 40
0.3346835367085509
100
AcDbArc
 50
95.2375175533
 51
172.4842508975
  0
ARC
  5
10C
330
1F
100
AcDbEntity
  8
0
  6
SLD-Durchgehend
 62
     7
370
    15
100
AcDbCircle
 10
272.405784786
 20
127.3751974364
 30
0.0
 40
0.3303175496209454
100
AcDbArc
 50
94.5756418731
 51
161.7350710974
  0
ARC
  5
10D
330
1F
100
AcDbEntity
  8
0
  6
SLD-Durchgehend
 62
     7
370
    15
100
AcDbCircle
 10
275.0696619166
 20
126.9062283306
 30
0.0
 40
0.3342865681990176
100
AcDbArc
 50
9.368986309
 51
68.9005043129
  0
ARC
  5
10E
330
1F
100
AcDbEntity
  8
0
  6
SLD-Durchgehend
 62
     7
370
    15
100
AcDbCircle
 10
275.073932905
 20
127.0041182601
 30
0.0
 40
0.3300045737797338
100
AcDbArc
 50
351.907759399
 51
69.4076025135
  0
ARC
  5
10F
330
1F
100
AcDbEntity
  8
0
  6
SLD-Durchgehend
 62
     7
370
    15
100
AcDbCircle
 10
273.2374528037
 20
128.4283650775
 30
0.0
 40
0.3368548717460392
100
AcDbArc
 50
119.6121460507
 51
188.8848915311
  0
ARC
  5
110
330
1F
100
AcDbEntity
  8
0
  6
SLD-Durchgehend
 62
     7
370
    15
100
AcDbCircle
 10
272.3308497698
 20
128.28365549
 30
0.0
 40
0.5812273490227728
100
AcDbArc
 50
274.794859007
 51
9.1755426563
  0
ARC
  5
111
330
1F
100
AcDbEntity
  8
0
  6
SLD-Durchgehend
 62
     7
370
    15
100
AcDbCircle
 10
275.3976521457
 20
127.8573263423
 30
0.0
 40
0.5825539720458891
100
AcDbArc
 50
155.0869506953
 51
249.1177135144
  0
ARC
  5
112
330
1F
100
AcDbEntity
  8
0
  6
SLD-Durchgehend
 62
     7
370
    15
100
AcDbCircle
 10
274.5632105633
 20
128.2434351778
 30
0.0
 40
0.3368892327997951
100
AcDbArc
 50
335.3117007549
 51
51.9785091087
  0
ARC
  5
113
330
1F
100
AcDbEntity
  8
0
  6
SLD-Durchgehend
 62
     7
370
    15
100
AcDbCircle
 10
275.400527819
 20
127.7637652444
 30
0.0
 40
0.5848661961323598
100
AcDbArc
 50
180.037510021
 51
248.9024585363
  0
ARC
  5
114
330
1F
100
AcDbEntity
  8
0
  6
SLD-Durchgehend
 62
     7
370
    15
100
AcDbCircle
 10
272.326255947
 20
128.1923599386
 30
0.0
 40
0.5853058893236959
100
AcDbArc
 50
275.2127707713
 51
359.9451918951
  0
ARC
  5
115
330
1F
100
AcDbEntity
  8
0
  6
SLD-Durchgehend
 62
     7
370
    15
100
AcDbCircle
 10
274.5666459406
 20
128.2451865936
 30
0.0
 40
0.3333974306127724
100
AcDbArc
 50
52.2582071856
 51
129.4047077418
  0
ARC
  5
116
330
1F
100
AcDbEntity
  8
0
  6
SLD-Durchgehend
 62
     7
370
    15
100
AcDbCircle
 10
273.9864676889
 20
128.9523957165
 30
0.0
 40
0.5813439435204822
100
AcDbArc
 50
214.8013838433
 51
309.3417141416
  0
ARC
  5
117
330
1F
100
AcDbEntity
  8
0
  6
SLD-Durchgehend
 62
     7
370
    15
100
AcDbCircle
 10
273.2344365298
 20
128.4294808563
 30
0.0
 40
0.3346205035163645
100
AcDbArc
 50
34.8312825134
 51
104.6693586814
  0
ARC
  5
118
330
1F
100
AcDbEntity
  8
0
  6
SLD-Durchgehend
 62
     7
370
    15
100
AcDbCircle
 10
273.2357386187
 20
128.3315151032
 30
0.0
 40
0.3352852079463204
100
AcDbArc
 50
35.3803272145
 51
162.4614347441
  0
ARC
  5
119
330
1F
100
AcDbEntity
  8
0
  6
SLD-Durchgehend
 62
     7
370
    15
100
AcDbCircle
 10
274.5649842036
 20
128.1467534633
 30
0.0
 40
0.3350578005491616
100
AcDbArc
 50
7.0221441193
 51
128.8062444922
  0
ARC
  5
11A
330
1F
100
AcDbEntity
  8
0
  6
SLD-Durchgehend
 62
     7
370
    15
100
AcDbCircle
 10
273.7450991071
 20
127.1231603502
 30
0.0
 40
2.621849422904221
100
AcDbArc
 50
261.9207940514
 51
359.9408791147
  0
ARC
  5
11B
330
1F
100
AcDbEntity
  8
0
  6
SLD-Durchgehend
 62
     7
370
    15
100
AcDbCircle
 10
273.7372598096
 20
127.1227100084
 30
0.0
 40
2.620313109211626
100
AcDbArc
 50
180.0493083679
 51
262.0891231401
  0
ARC
  5
11C
330
1F
100
AcDbEntity
  8
0
  6
SLD-Durchgehend
 62
     7
370
    15
100
AcDbCircle
 10
273.9876273428
 20
128.8658227969
 30
0.0
 40
0.5871146040958217
100
AcDbArc
 50
215.4087042179
 51
308.7363739768
  0
ARC
  5
11D
330
1F
100
AcDbEntity
  8
0
  6
SLD-Gestrichelt
 62
     7
370
     0
100
AcDbCircle
 10
273.8326395948
 20
127.2166448785
 30
0.0
 40
3.050004647555506
100
AcDbArc
 50
180.1055163855
 51
359.8944836145
  0
CIRCLE
  5
11E
330
1F
100
AcDbEntity
  8
0
  6
SLD-Gestrichelt
 62
     7
370
     0
100
AcDbCircle
 10
273.8290296164
 20
127.14884804
 30
0.0
 40
2.196937608712174
  0
CIRCLE
  5
11F
330
1F
100
AcDbEntity
  8
0
  6
SLD-Gestrichelt
 62
     7
370
     0
100
AcDbCircle
 10
273.8290289607
 20
127.000860154
 30
0.0
 40
2.19693748437875
  0
ARC
  5
120
330
1F
100
AcDbEntity
  8
0
  6
SLD-Gestrichelt
 62
     7
370
     0
100
AcDbCircle
 10
280.228293321
 20
133.383670946
 30
0.0
 40
0.0985478410315504
100
AcDbArc
 50
341.9075631139
 51
108.2314646669
  0
ARC
  5
121
330
1F
100
AcDbEntity
  8
0
  6
SLD-Gestrichelt
 62
     7
370
     0
100
AcDbCircle
 10
270.503544333
 20
130.3244353235
 30
0.0
 40
0.0990176235324907
100
AcDbArc
 50
107.3962470928
 51
162.4652697646
  0
LINE
  5
122
330
1F
100
AcDbEntity
  8
0
  6
SLD-Gestrichelt
 62
     7
370
     0
100
AcDbLine
 10
280.1974619825
 20
133.4772717235
 30
0.0
 11
270.4739402134
 21
130.4189238724
 31
0.0
  0
LINE
  5
123
330
1F
100
AcDbEntity
  8
0
  6
SLD-Gestrichelt
 62
     7
370
     0
100
AcDbLine
 10
277.2561590273
 20
123.653229515
 30
0.0
 11
280.3219686348
 21
133.3530668196
 31
0.0
  0
ARC
  5
124
330
1F
100
AcDbEntity
  8
0
  6
SLD-Gestrichelt
 62
     7
370
     0
100
AcDbCircle
 10
277.1617111789
 20
123.683095182
 30
0.0
 40
0.099057327537762
100
AcDbArc
 50
287.4034038636
 51
342.4523522073
  0
LINE
  5
125
330
1F
100
AcDbEntity
  8
0
  6
SLD-Gestrichelt
 62
     7
370
     0
100
AcDbLine
 10
270.4091276128
 20
130.354267734
 30
0.0
 11
267.3433105547
 21
120.654429498
 31
0.0
  0
ARC
  5
126
330
1F
100
AcDbEntity
  8
0
  6
SLD-Gestrichelt
 62
     7
370
     0
100
AcDbCircle
 10
267.4369977947
 20
120.6238380286
 30
0.0
 40
0.0985552480762852
100
AcDbArc
 50
161.9167106891
 51
288.2227467115
  0
LINE
  5
127
330
1F
100
AcDbEntity
  8
0
  6
SLD-Gestrichelt
 62
     7
370
     0
100
AcDbLine
 10
267.4678172071
 20
120.5302255255
 30
0.0
 11
277.1913389761
 21
123.5885724452
 31
0.0
  0
LINE
  5
128
330
1F
100
AcDbEntity
  8
0
  6
SLD-Gestrichelt
 62
     7
370
     0
100
AcDbLine
 10
170.5212992702
 20
136.8027135757
 30
0.0
 11
170.5212992702
 21
132.1940246997
 31
0.0
  0
LINE
  5
129
330
1F
100
AcDbEntity
  8
0
  6
SLD-Gestrichelt
 62
     7
370
     0
100
AcDbLine
 10
143.9083823089
 20
88.8194248107
 30
0.0
 11
143.3742362161
 21
88.7648101923
 31
0.0
  0
LINE
  5
12A
330
1F
100
AcDbEntity
  8
0
  6
SLD-Gestrichelt
 62
     7
370
     0
100
AcDbLine
 10
143.1365831841
 20
135.9473571208
 30
0.0
 11
143.9082891766
 21
135.8686063466
 31
0.0
  0
LWPOLYLINE
  5
12B
330
1F
100
AcDbEntity
  8
0
  6
SLD-Gestrichelt
 62
     7
370
     0
100
AcDbPolyline
 90
        4
 70
   128
 43
0.0
 10
149.6682338503
 20
132.1815524277
 10
150.3496746619
 20
132.2584517327
 10
150.6519777786
 20
132.2811964926
 10
150.6255072628
 20
132.2793953148
  0
ARC
  5
12C
330
1F
100
AcDbEntity
  8
0
  6
SLD-Gestrichelt
 62
     7
370
     0
100
AcDbCircle
 10
151.4747946033
 20
105.4495170545
 30
0.0
 40
13.06849145408523
100
AcDbArc
 50
262.0541063506
 51
266.2739068812
  0
LWPOLYLINE
  5
12D
330
1F
100
AcDbEntity
  8
0
  6
SLD-Gestrichelt
 62
     7
370
     0
100
AcDbPolyline
 90
        9
 70
   128
 43
0.0
 10
149.6682338503
 20
92.5064954934
 10
148.6717359249
 20
92.6201839027
 10
147.4736397241
 20
92.690740901
 10
146.2241103027
 20
92.6866486696
 10
145.0636171822
 20
92.611852291
 10
144.0972740848
 20
92.4979385016
 10
143.4344601903
 20
92.3930995193
 10
143.166921017
 20
92.3447154489
 10
143.1873393331
 20
92.3484649536
  0
ARC
  5
12E
330
1F
100
AcDbEntity
  8
0
  6
SLD-Gestrichelt
 62
     7
370
     0
100
AcDbCircle
 10
146.9100508274
 20
152.0384134607
 30
0.0
 40
20.04750617089302
100
AcDbArc
 50
259.2983744626
 51
277.9079713491
  0
LINE
  5
12F
330
1F
100
AcDbEntity
  8
0
  6
SLD-Gestrichelt
 62
     7
370
     0
100
AcDbLine
 10
136.9172073055
 20
95.3440230367
 30
0.0
 11
136.9172073055
 21
129.3440248844
 31
0.0
  0
ARC
  5
130
330
1F
100
AcDbEntity
  8
0
  6
SLD-Gestrichelt
 62
     7
370
     0
100
AcDbCircle
 10
162.9133712956
 20
112.3443737229
 30
0.0
 40
4.999635099271073
100
AcDbArc
 50
53.8419178005
 51
82.4178878331
  0
LINE
  5
131
330
1F
100
AcDbEntity
  8
0
  6
SLD-Gestrichelt
 62
     7
370
     0
100
AcDbLine
 10
163.5730577719
 20
95.3440230367
 30
0.0
 11
163.5730577719
 21
129.3440248844
 31
0.0
  0
ARC
  5
132
330
1F
100
AcDbEntity
  8
0
  6
SLD-Gestrichelt
 62
     7
370
     0
100
AcDbCircle
 10
162.9132427942
 20
112.3439943381
 30
0.0
 40
4.999969396264199
100
AcDbArc
 50
277.5830877641
 51
306.1571066022
  0
LINE
  5
133
330
1F
100
AcDbEntity
  8
0
  6
SLD-Gestrichelt
 62
     7
370
     0
100
AcDbLine
 10
165.8632316713
 20
96.6190241304
 30
0.0
 11
165.8632316713
 21
128.0690237907
 31
0.0
  0
LWPOLYLINE
  5
134
330
1F
100
AcDbEntity
  8
0
  6
SLD-Gestrichelt
 62
     7
370
     0
100
AcDbPolyline
 90
        6
 70
   128
 43
0.0
 10
130.1132309337
 20
128.6315370378
 10
130.0271059472
 20
128.4790925709
 10
129.7782658685
 20
128.3317331252
 10
129.3946038086
 20
128.2146044103
 10
128.9421710272
 20
128.1529787955
 10
128.7132314492
 20
128.1455151764
  0
LINE
  5
135
330
1F
100
AcDbEntity
  8
0
  6
SLD-Gestrichelt
 62
     7
370
     0
100
AcDbLine
 10
128.7132314492
 20
128.1455151764
 30
0.0
 11
125.1632309605
 21
128.1455151764
 31
0.0
  0
LINE
  5
136
330
1F
100
AcDbEntity
  8
0
  6
SLD-Gestrichelt
 62
     7
370
     0
100
AcDbLine
 10
125.1632309605
 20
96.5425327447
 30
0.0
 11
132.7132321049
 21
96.5425327447
 31
0.0
  0
LWPOLYLINE
  5
137
330
1F
100
AcDbEntity
  8
0
  6
SLD-Gestrichelt
 62
     7
370
     0
100
AcDbPolyline
 90
        6
 70
   128
 43
0.0
 10
132.7132321049
 20
96.5425327447
 10
133.1538259138
 20
96.514490622
 10
133.5443629969
 20
96.4367661652
 10
133.8569632817
 20
96.3200658587
 10
134.0596991677
 20
96.1761113283
 10
134.1132315893
 20
96.0565108833
  0
LINE
  5
138
330
1F
100
AcDbEntity
  8
0
  6
SLD-Gestrichelt
 62
     7
370
     0
100
AcDbLine
 10
125.1632309605
 20
96.5425327447
 30
0.0
 11
125.1632309605
 21
128.1455151764
 31
0.0
  0
ARC
  5
139
330
1F
100
AcDbEntity
  8
0
  6
SLD-Gestrichelt
 62
     7
370
     0
100
AcDbCircle
 10
162.9132321237
 20
112.3440239606
 30
0.0
 40
5.000000167754241
100
AcDbArc
 50
82.4168358253
 51
277.5831641747
  0
LWPOLYLINE
  5
13A
330
1F
100
AcDbEntity
  8
0
  6
SLD-Gestrichelt
 62
     7
370
     0
100
AcDbPolyline
 90
        8
 70
   128
 43
0.0
 10
240.9132327039
 20
103.8678504554
 10
240.0914560158
 20
103.9873857078
 10
239.3624167044
 20
104.3344700736
 10
238.8018871744
 20
104.8819350106
 10
238.4769748051
 20
105.5798080777
 10
238.428389569
 20
106.3462674645
 10
238.6550436814
 20
107.0937781622
 10
238.8307954271
 20
107.3337068808
  0
ARC
  5
13B
330
1F
100
AcDbEntity
  8
0
  6
SLD-Gestrichelt
 62
     7
370
     0
100
AcDbCircle
 10
241.1096514266
 20
106.10724574
 30
0.0
 40
2.247992783666063
100
AcDbArc
 50
264.9873803393
 51
30.523952992
  0
LINE
  5
13C
330
1F
100
AcDbEntity
  8
0
  6
SLD-Gestrichelt
 62
     7
370
     0
100
AcDbLine
 10
254.9132312734
 20
96.5189609704
 30
0.0
 11
254.9132312734
 21
128.3434622017
 31
0.0
  0
LWPOLYLINE
  5
13D
330
1F
100
AcDbEntity
  8
0
  6
SLD-Gestrichelt
 62
     7
370
     0
100
AcDbPolyline
 90
        9
 70
   128
 43
0.0
 10
241.9132347305
 20
112.1181448687
 10
242.4928451974
 20
112.2129538415
 10
242.764120837
 20
112.4471497094
 10
242.9579551418
 20
112.846764401
 10
243.0127690632
 20
113.3103809696
 10
242.9311628539
 20
113.8315515853
 10
242.7333499391
 20
114.3376016551
 10
242.4175645311
 20
114.8745237877
 10
241.9132347305
 20
115.5177875915
  0
LWPOLYLINE
  5
13E
330
1F
100
AcDbEntity
  8
0
  6
SLD-Gestrichelt
 62
     7
370
     0
100
AcDbPolyline
 90
       14
 70
   128
 43
0.0
 10
241.9132347305
 20
112.1181448687
 10
241.3105647166
 20
111.8755427158
 10
240.6590114434
 20
111.8498564026
 10
240.0712649424
 20
112.0319256004
 10
239.5374829967
 20
112.4030174649
 10
239.0881459315
 20
112.9779082983
 10
238.8418893416
 20
113.6612478438
 10
238.8391028244
 20
114.2825510613
 10
239.0284742315
 20
114.7971939788
 10
239.3984030087
 20
115.2223471579
 10
239.9667481978
 20
115.5381493297
 10
240.6734506686
 20
115.6887355753
 10
241.3339818914
 20
115.6685731401
 10
241.9132347305
 20
115.5177875915
  0
LINE
  5
13F
330
1F
100
AcDbEntity
  8
0
  6
SLD-Gestrichelt
 62
     7
370
     0
100
AcDbLine
 10
241.8931479652
 20
114.5135992699
 30
0.0
 11
241.9240604241
 21
114.8752385777
 31
0.0
  0
LWPOLYLINE
  5
140
330
1F
100
AcDbEntity
  8
0
  6
SLD-Gestrichelt
 62
     7
370
     0
100
AcDbPolyline
 90
       26
 70
   128
 43
0.0
 10
241.9240604241
 20
114.8752385777
 10
242.1294058759
 20
115.0255004902
 10
242.5529192288
 20
115.5524693457
 10
242.9378758271
 20
116.4826822494
 10
243.0126945574
 20
117.159858535
 10
242.9296578367
 20
117.714616659
 10
242.6987494428
 20
118.1981230182
 10
242.3857505519
 20
118.5159596642
 10
241.9937904079
 20
118.7101609101
 10
241.3562516768
 20
118.7600197298
 10
240.5848409135
 20
118.4827012037
 10
240.4386456211
 20
118.3676647049
 10
240.3823490341
 20
118.2884193984
 10
240.3891961176
 20
118.2190838297
 10
240.4774035413
 20
118.1546619189
 10
240.9813384612
 20
117.9528941427
 10
241.7809794743
 20
117.5054374178
 10
242.2659526665
 20
117.0971893732
 10
242.6204140384
 20
116.6813482557
 10
242.878844877
 20
116.2265631863
 10
242.995737036
 20
115.8346109585
 10
242.9895232518
 20
115.399438844
 10
242.7592854102
 20
114.9646353004
 10
242.1715761621
 20
114.6216205814
 10
241.9875319202
 20
114.5526866456
 10
241.8931479652
 20
114.5135992699
  0
LWPOLYLINE
  5
141
330
1F
100
AcDbEntity
  8
0
  6
SLD-Gestrichelt
 62
     7
370
     0
100
AcDbPolyline
 90
       22
 70
   128
 43
0.0
 10
240.9132327039
 20
115.4904684079
 10
241.5322194893
 20
115.5763489221
 10
242.0962060888
 20
115.8263594405
 10
242.5550798972
 20
116.2182853584
 10
242.8680638869
 20
116.7173024294
 10
243.0073599417
 20
117.2790710841
 10
242.9605777461
 20
117.8536747609
 10
242.7318821747
 20
118.3900588219
 10
242.3415909607
 20
118.840561903
 10
241.8243865569
 20
119.1651557599
 10
241.2262241442
 20
119.3349982639
 10
240.6002412636
 20
119.3349982639
 10
240.002078851
 20
119.1651557599
 10
239.4848669965
 20
118.840561903
 10
239.0945757825
 20
118.3900588219
 10
238.8658802111
 20
117.8536747609
 10
238.8191054661
 20
117.2790710841
 10
238.9583940704
 20
116.7173024294
 10
239.2713855107
 20
116.2182853584
 10
239.7302593191
 20
115.8263594405
 10
240.2942459185
 20
115.5763489221
 10
240.9132327039
 20
115.4904684079
  0
ARC
  5
142
330
1F
100
AcDbEntity
  8
0
  6
SLD-Gestrichelt
 62
     7
370
     0
100
AcDbCircle
 10
241.2780844337
 20
114.7483149351
 30
0.0
 40
0.6583271156508383
100
AcDbArc
 50
339.11254216
 51
11.1160723977
  0
LINE
  5
143
330
1F
100
AcDbEntity
  8
0
  6
SLD-Gestrichelt
 62
     7
370
     0
100
AcDbLine
 10
125.1632309605
 20
94.3540234146
 30
0.0
 11
125.1632309605
 21
91.5373928872
 31
0.0
  0
LINE
  5
144
330
1F
100
AcDbEntity
  8
0
  6
SLD-Gestrichelt
 62
     7
370
     0
100
AcDbLine
 10
134.1132315893
 20
94.3540234146
 30
0.0
 11
134.1132315893
 21
90.3988752541
 31
0.0
  0
LINE
  5
145
330
1F
100
AcDbEntity
  8
0
  6
SLD-Gestrichelt
 62
     7
370
     0
100
AcDbLine
 10
125.1632309605
 20
130.3340245065
 30
0.0
 11
125.1632309605
 21
133.2139626172
 31
0.0
  0
LINE
  5
146
330
1F
100
AcDbEntity
  8
0
  6
SLD-Gestrichelt
 62
     7
370
     0
100
AcDbLine
 10
130.1132309337
 20
130.3340245065
 30
0.0
 11
130.1132309337
 21
134.1881316182
 31
0.0
  0
LINE
  5
147
330
1F
100
AcDbEntity
  8
0
  6
SLD-Gestrichelt
 62
     7
370
     0
100
AcDbLine
 10
175.2132325519
 20
102.844024266
 30
0.0
 11
175.2132325519
 21
121.8440236551
 31
0.0
  0
LINE
  5
148
330
1F
100
AcDbEntity
  8
0
  6
SLD-Gestrichelt
 62
     7
370
     0
100
AcDbLine
 10
177.7132320304
 20
102.844024266
 30
0.0
 11
177.7132320304
 21
121.8440236551
 31
0.0
  0
LINE
  5
149
330
1F
100
AcDbEntity
  8
0
  6
SLD-Gestrichelt
 62
     7
370
     0
100
AcDbLine
 10
166.3632317532
 20
103.8440234986
 30
0.0
 11
166.3632317532
 21
120.8440244225
 31
0.0
  0
LINE
  5
14A
330
1F
100
AcDbEntity
  8
0
  6
SLD-Gestrichelt
 62
     7
370
     0
100
AcDbLine
 10
181.8632314999
 20
85.9440241036
 30
0.0
 11
175.7255568255
 21
85.9440241036
 31
0.0
  0
LINE
  5
14B
330
1F
100
AcDbEntity
  8
0
  6
SLD-Gestrichelt
 62
     7
370
     0
100
AcDbLine
 10
172.1009071071
 20
85.9440241036
 30
0.0
 11
168.863232163
 21
85.9440241036
 31
0.0
  0
LINE
  5
14C
330
1F
100
AcDbEntity
  8
0
  6
SLD-Gestrichelt
 62
     7
370
     0
100
AcDbLine
 10
160.863231783
 20
80.8599006412
 30
0.0
 11
160.863231783
 21
85.9440241036
 31
0.0
  0
LINE
  5
14D
330
1F
100
AcDbEntity
  8
0
  6
SLD-Gestrichelt
 62
     7
370
     0
100
AcDbLine
 10
168.863232163
 20
85.9440241036
 30
0.0
 11
160.863231783
 21
85.9440241036
 31
0.0
  0
LINE
  5
14E
330
1F
100
AcDbEntity
  8
0
  6
SLD-Gestrichelt
 62
     7
370
     0
100
AcDbLine
 10
181.8632314999
 20
138.7440238175
 30
0.0
 11
175.4289343108
 21
138.7440238175
 31
0.0
  0
LINE
  5
14F
330
1F
100
AcDbEntity
  8
0
  6
SLD-Gestrichelt
 62
     7
370
     0
100
AcDbLine
 10
172.3975296218
 20
138.7440238175
 30
0.0
 11
168.863232163
 21
138.7440238175
 31
0.0
  0
LINE
  5
150
330
1F
100
AcDbEntity
  8
0
  6
SLD-Gestrichelt
 62
     7
370
     0
100
AcDbLine
 10
168.863232163
 20
138.7440238175
 30
0.0
 11
160.863231783
 21
138.7440238175
 31
0.0
  0
ELLIPSE
  5
151
330
1F
100
AcDbEntity
  8
0
  6
SLD-Gestrichelt
 62
     7
370
     0
100
AcDbEllipse
 10
119.8457999455
 20
112.3440239606
 30
0.0
 11
20.07002071827051
 21
-1.421085471520200E-14
 31
0.0
210
0.0
220
0.0
230
1.0
 40
0.8164965809
 41
4.921555463185703
 42
4.980534842098402
  0
ELLIPSE
  5
152
330
1F
100
AcDbEntity
  8
0
  6
SLD-Gestrichelt
 62
     7
370
     0
100
AcDbEllipse
 10
119.8457999455
 20
112.3440239606
 30
0.0
 11
20.07002071827051
 21
-1.421085471520200E-14
 31
0.0
210
0.0
220
0.0
230
1.0
 40
0.8164965809
 41
1.302650465081197
 42
1.361629843993897
  0
LINE
  5
153
330
1F
100
AcDbEntity
  8
0
  6
SLD-Gestrichelt
 62
     7
370
     0
100
AcDbLine
 10
134.1132315893
 20
94.3540234146
 30
0.0
 11
134.1132315893
 21
96.0565108833
 31
0.0
  0
LINE
  5
154
330
1F
100
AcDbEntity
  8
0
  6
SLD-Gestrichelt
 62
     7
370
     0
100
AcDbLine
 10
125.1632309605
 20
94.3540234146
 30
0.0
 11
125.1632309605
 21
96.5425327447
 31
0.0
  0
LINE
  5
155
330
1F
100
AcDbEntity
  8
0
  6
SLD-Gestrichelt
 62
     7
370
     0
100
AcDbLine
 10
130.1132309337
 20
130.3340245065
 30
0.0
 11
130.1132309337
 21
128.6315370378
 31
0.0
  0
LINE
  5
156
330
1F
100
AcDbEntity
  8
0
  6
SLD-Gestrichelt
 62
     7
370
     0
100
AcDbLine
 10
125.1632309605
 20
130.3340245065
 30
0.0
 11
125.1632309605
 21
128.1455151764
 31
0.0
  0
LWPOLYLINE
  5
157
330
1F
100
AcDbEntity
  8
0
  6
SLD-Gestrichelt
 62
     7
370
     0
100
AcDbPolyline
 90
       14
 70
   128
 43
0.0
 10
150.662072384
 20
88.744030523
 10
150.4332054492
 20
88.8051383224
 10
150.0960941512
 20
88.8828236637
 10
149.5774028909
 20
88.9918237952
 10
148.8356263463
 20
89.1219295588
 10
148.1054172937
 20
89.2225086716
 10
146.9339969654
 20
89.3350869444
 10
145.6124167044
 20
89.3611695644
 10
144.9238740925
 20
89.3400061903
 10
144.2737476055
 20
89.2960365889
 10
143.6931015078
 20
89.2390601364
 10
143.3571240951
 20
89.19829801
 10
143.163251606
 20
89.1654092846
 10
143.164117736
 20
89.1655564335
  0
LINE
  5
158
330
1F
100
AcDbEntity
  8
0
  6
SLD-Gestrichelt
 62
     7
370
     0
100
AcDbLine
 10
144.0732440997
 20
89.2763614682
 30
0.0
 11
144.2570890386
 21
89.2945520607
 31
0.0
  0
LINE
  5
159
330
1F
100
AcDbEntity
  8
0
  6
SLD-Gestrichelt
 62
     7
370
     0
100
AcDbLine
 10
144.2570862446
 20
135.3934269425
 30
0.0
 11
144.0830127422
 21
135.4106359211
 31
0.0
  0
LWPOLYLINE
  5
15A
330
1F
100
AcDbEntity
  8
0
  6
SLD-Gestrichelt
 62
     7
370
     0
100
AcDbPolyline
 90
       14
 70
   128
 43
0.0
 10
143.1641512636
 20
135.522426295
 10
143.1632441555
 20
135.5225790319
 10
143.3562113989
 20
135.4897573617
 10
143.6916393314
 20
135.4490362135
 10
144.2718141798
 20
135.3921119151
 10
144.9224920098
 20
135.3481255499
 10
145.6118597735
 20
135.3269379613
 10
146.9353064049
 20
135.3529609767
 10
148.1036678043
 20
135.4651499567
 10
148.8320379604
 20
135.5654310462
 10
149.572461759
 20
135.6951735941
 10
150.0937393021
 20
135.804564881
 10
150.4324031148
 20
135.8825445202
 10
150.6621580657
 20
135.9439931837
  0
LWPOLYLINE
  5
15B
330
1F
100
AcDbEntity
  8
0
  6
SLD-Gestrichelt
 62
     7
370
     0
100
AcDbPolyline
 90
        9
 70
   128
 43
0.0
 10
241.9132347305
 20
112.5699030524
 10
242.4928451974
 20
112.4750940796
 10
242.764120837
 20
112.2408982117
 10
242.9579551418
 20
111.8412835201
 10
243.0127690632
 20
111.3776669515
 10
242.9311628539
 20
110.8564963358
 10
242.7333499391
 20
110.350446266
 10
242.4175645311
 20
109.8135241334
 10
241.9132347305
 20
109.1702603296
  0
LINE
  5
15C
330
1F
100
AcDbEntity
  8
0
  6
SLD-Gestrichelt
 62
     7
370
     0
100
AcDbLine
 10
241.9132347305
 20
112.5699030524
 30
0.0
 11
241.9132347305
 21
115.5177875915
 31
0.0
  0
LINE
  5
15D
330
1F
100
AcDbEntity
  8
0
  6
SLD-Gestrichelt
 62
     7
370
     0
100
AcDbLine
 10
241.9132347305
 20
116.5440238108
 30
0.0
 11
241.9132347305
 21
115.5177875915
 31
0.0
  0
LINE
  5
15E
330
1F
100
AcDbEntity
  8
0
  6
SLD-Gestrichelt
 62
     7
370
     0
100
AcDbLine
 10
241.9132347305
 20
112.1181448687
 30
0.0
 11
241.9132347305
 21
108.1440241103
 31
0.0
  0
LWPOLYLINE
  5
15F
330
1F
100
AcDbEntity
  8
0
  6
SLD-Gestrichelt
 62
     7
370
     0
100
AcDbPolyline
 90
       14
 70
   128
 43
0.0
 10
241.9132347305
 20
112.5699030524
 10
241.3105647166
 20
112.8125052053
 10
240.6590114434
 20
112.8381915185
 10
240.0712649424
 20
112.6561223207
 10
239.5374829967
 20
112.2850304562
 10
239.0881459315
 20
111.7101396228
 10
238.8418893416
 20
111.0268000773
 10
238.8391028244
 20
110.4054968598
 10
239.0284742315
 20
109.8908539423
 10
239.3984030087
 20
109.4657007632
 10
239.9667481978
 20
109.1498985914
 10
240.6734506686
 20
108.9993123458
 10
241.3339818914
 20
109.019474781
 10
241.9132347305
 20
109.1702603296
  0
LWPOLYLINE
  5
160
330
1F
100
AcDbEntity
  8
0
  6
SLD-Gestrichelt
 62
     7
370
     0
100
AcDbPolyline
 90
        6
 70
   128
 43
0.0
 10
257.9988892276
 20
126.7105752629
 10
256.9970469077
 20
127.1287009147
 10
256.1873029072
 20
127.5652499897
 10
255.5547635157
 20
128.1276226071
 10
255.4396818478
 20
128.7192210582
 10
255.7341138918
 20
129.1647918549
  0
LINE
  5
161
330
1F
100
AcDbEntity
  8
0
  6
SLD-Gestrichelt
 62
     7
370
     0
100
AcDbLine
 10
255.4132322867
 20
96.0164863643
 30
0.0
 11
255.4132322867
 21
112.3440239606
 31
0.0
  0
LINE
  5
162
330
1F
100
AcDbEntity
  8
0
  6
SLD-Gestrichelt
 62
     7
370
     0
100
AcDbLine
 10
255.4812709887
 20
113.8440239736
 30
0.0
 11
255.4132322867
 21
112.3440239606
 31
0.0
  0
ARC
  5
163
330
1F
100
AcDbEntity
  8
0
  6
SLD-Gestrichelt
 62
     7
370
     0
100
AcDbCircle
 10
319.1638881476
 20
108.0627353478
 30
0.0
 40
63.94449957875541
100
AcDbArc
 50
163.044708897
 51
174.8127457209
  0
ELLIPSE
  5
164
330
1F
100
AcDbEntity
  8
0
  6
SLD-Gestrichelt
 62
     7
370
     0
100
AcDbEllipse
 10
273.8366590934
 20
112.3440239606
 30
0.0
 11
5.390524936199314
 21
16.49183944377623
 31
0.0
210
0.0
220
0.0
230
1.0
 40
0.0962569477
 41
1.602248510774582
 42
3.173044837569663
  0
LINE
  5
165
330
1F
100
AcDbEntity
  8
0
  6
SLD-Gestrichelt
 62
     7
370
     0
100
AcDbLine
 10
270.0291032989
 20
130.9028223184
 30
0.0
 11
267.7092681725
 21
123.5631594461
 31
0.0
  0
LINE
  5
166
330
1F
100
AcDbEntity
  8
0
  6
SLD-Gestrichelt
 62
     7
370
     0
100
AcDbLine
 10
267.7092681725
 20
123.5631594461
 30
0.0
 11
267.6590363581
 21
123.54736049
 31
0.0
  0
LINE
  5
167
330
1F
100
AcDbEntity
  8
0
  6
SLD-Gestrichelt
 62
     7
370
     0
100
AcDbLine
 10
267.1645189721
 20
120.2194990617
 30
0.0
 11
277.4834166367
 21
123.4651088742
 31
0.0
  0
LINE
  5
168
330
1F
100
AcDbEntity
  8
0
  6
SLD-Gestrichelt
 62
     7
370
     0
100
AcDbLine
 10
269.9819113214
 20
130.8879807618
 30
0.0
 11
270.0291032989
 21
130.9028223184
 31
0.0
  0
LINE
  5
169
330
1F
100
AcDbEntity
  8
0
  6
SLD-Gestrichelt
 62
     7
370
     0
100
AcDbLine
 10
266.9354434211
 20
120.2747674686
 30
0.0
 11
277.271015485
 21
123.5256224898
 31
0.0
  0
LINE
  5
16A
330
1F
100
AcDbEntity
  8
0
  6
SLD-Gestrichelt
 62
     7
370
     0
100
AcDbLine
 10
277.4834166367
 20
123.4651088742
 30
0.0
 11
277.271015485
 21
123.5256224898
 31
0.0
  0
LINE
  5
16B
330
1F
100
AcDbEntity
  8
0
  6
SLD-Gestrichelt
 62
     7
370
     0
100
AcDbLine
 10
267.7092681725
 20
123.5631594461
 30
0.0
 11
267.9216693241
 21
123.1999035952
 31
0.0
  0
LINE
  5
16C
330
1F
100
AcDbEntity
  8
0
  6
SLD-Gestrichelt
 62
     7
370
     0
100
AcDbLine
 10
267.5081024964
 20
123.0698229772
 30
0.0
 11
267.9216693241
 21
123.1999035952
 31
0.0
  0
LINE
  5
16D
330
1F
100
AcDbEntity
  8
0
  6
SLD-Gestrichelt
 62
     7
370
     0
100
AcDbLine
 10
270.2460344036
 20
130.5538892773
 30
0.0
 11
270.0291032989
 21
130.9028223184
 31
0.0
  0
LINE
  5
16E
330
1F
100
AcDbEntity
  8
0
  6
SLD-Gestrichelt
 62
     7
370
     0
100
AcDbLine
 10
270.2460344036
 20
130.5538892773
 30
0.0
 11
267.9216693241
 21
123.1999035952
 31
0.0
  0
ARC
  5
16F
330
1F
100
AcDbEntity
  8
0
  6
SLD-Gestrichelt
 62
     7
370
     0
100
AcDbCircle
 10
265.9144218107
 20
121.1586844516
 30
0.0
 40
1.249354907482044
100
AcDbArc
 50
177.6941360325
 51
287.536251421
  0
LINE
  5
170
330
1F
100
AcDbEntity
  8
0
  6
SLD-Gestrichelt
 62
     7
370
     0
100
AcDbLine
 10
277.271015485
 20
123.5256224898
 30
0.0
 11
277.0565803249
 21
123.3535420177
 31
0.0
  0
LINE
  5
171
330
1F
100
AcDbEntity
  8
0
  6
SLD-Gestrichelt
 62
     7
370
     0
100
AcDbLine
 10
267.9216693241
 20
123.1999035952
 30
0.0
 11
267.9216693241
 21
123.0952685726
 31
0.0
  0
LINE
  5
172
330
1F
100
AcDbEntity
  8
0
  6
SLD-Gestrichelt
 62
     7
370
     0
100
AcDbLine
 10
267.9216693241
 20
123.0952685726
 30
0.0
 11
267.4713785846
 21
122.9536386234
 31
0.0
  0
LINE
  5
173
330
1F
100
AcDbEntity
  8
0
  6
SLD-Gestrichelt
 62
     7
370
     0
100
AcDbLine
 10
270.1815496285
 20
130.2452452508
 30
0.0
 11
267.9216693241
 21
123.0952685726
 31
0.0
  0
LINE
  5
174
330
1F
100
AcDbEntity
  8
0
  6
SLD-Gestrichelt
 62
     7
370
     0
100
AcDbLine
 10
270.1815496285
 20
130.2452452508
 30
0.0
 11
270.2460344036
 21
130.5538892773
 31
0.0
  0
LWPOLYLINE
  5
175
330
1F
100
AcDbEntity
  8
0
  6
SLD-Gestrichelt
 62
     7
370
     0
100
AcDbPolyline
 90
       22
 70
   128
 43
0.0
 10
240.9132327039
 20
106.5975625095
 10
241.5322194893
 20
106.6834430237
 10
242.0962060888
 20
106.9334533093
 10
242.5550798972
 20
107.32537946
 10
242.8680638869
 20
107.824396531
 10
243.0073599417
 20
108.3861647201
 10
242.9605777461
 20
108.9607690954
 10
242.7318821747
 20
109.4971526907
 10
242.3415909607
 20
109.9476560046
 10
241.8243865569
 20
110.2722496287
 10
241.2262241442
 20
110.4420921327
 10
240.6002412636
 20
110.4420921327
 10
240.002078851
 20
110.2722496287
 10
239.4848669965
 20
109.9476560046
 10
239.0945757825
 20
109.4971526907
 10
238.8658802111
 20
108.9607690954
 10
238.8191054661
 20
108.3861647201
 10
238.9583940704
 20
107.824396531
 10
239.2713855107
 20
107.32537946
 10
239.7302593191
 20
106.9334533093
 10
240.2942459185
 20
106.6834430237
 10
240.9132327039
 20
106.5975625095
  0
CIRCLE
  5
176
330
1F
100
AcDbEntity
  8
0
  6
SLD-Gestrichelt
 62
     7
370
     0
100
AcDbCircle
 10
273.7409339638
 20
126.9176470482
 30
0.0
 40
2.398522447836045
  0
LINE
  5
177
330
1F
100
AcDbEntity
  8
0
  6
SLD-Gestrichelt
 62
     7
370
     0
100
AcDbLine
 10
280.0800184805
 20
132.9192884293
 30
0.0
 11
279.744861563
 21
133.2531992373
 31
0.0
  0
LINE
  5
178
330
1F
100
AcDbEntity
  8
0
  6
SLD-Gestrichelt
 62
     7
370
     0
100
AcDbLine
 10
266.2908638914
 20
119.9673914378
 30
0.0
 11
277.0565803249
 21
123.3535420177
 31
0.0
  0
LINE
  5
179
330
1F
100
AcDbEntity
  8
0
  6
SLD-Gestrichelt
 62
     7
370
     0
100
AcDbLine
 10
270.1815496285
 20
130.2452452508
 30
0.0
 11
279.744861563
 21
133.2531992373
 31
0.0
  0
LINE
  5
17A
330
1F
100
AcDbEntity
  8
0
  6
SLD-Gestrichelt
 62
     7
370
     0
100
AcDbLine
 10
280.0800184805
 20
132.9192884293
 30
0.0
 11
277.0565803249
 21
123.3535420177
 31
0.0
  0
ARC
  5
17B
330
1F
100
AcDbEntity
  8
0
  6
SLD-Gestrichelt
 62
     7
370
     0
100
AcDbCircle
 10
273.7455353694
 20
126.8606028809
 30
0.0
 40
1.645626611380775
100
AcDbArc
 50
269.8752073666
 51
73.2734670289
  0
ARC
  5
17C
330
1F
100
AcDbEntity
  8
0
  6
SLD-Gestrichelt
 62
     7
370
     0
100
AcDbCircle
 10
273.7387825471
 20
126.8608574426
 30
0.0
 40
1.645880319768739
100
AcDbArc
 50
94.0143195329
 51
270.1103035302
  0
LINE
  5
17D
330
1F
100
AcDbEntity
  8
0
  6
SLD-Gestrichelt
 62
     7
370
     0
100
AcDbLine
 10
279.744861563
 20
133.2531992373
 30
0.0
 11
279.160117646
 21
132.4647229192
 31
0.0
  0
LINE
  5
17E
330
1F
100
AcDbEntity
  8
0
  6
SLD-Gestrichelt
 62
     7
370
     0
100
AcDbLine
 10
279.3623189528
 20
131.9515399662
 30
0.0
 11
280.0800184805
 21
132.9192884293
 31
0.0
  0
ARC
  5
17F
330
1F
100
AcDbEntity
  8
0
  6
SLD-Gestrichelt
 62
     7
370
     0
100
AcDbCircle
 10
273.7397455511
 20
126.3406248309
 30
0.0
 40
1.637567954973243
100
AcDbArc
 50
356.9437077048
 51
183.0122402076
  0
ARC
  5
180
330
1F
100
AcDbEntity
  8
0
  6
SLD-Gestrichelt
 62
     7
370
     0
100
AcDbCircle
 10
273.7419511278
 20
126.2539491963
 30
0.0
 40
1.65019245688793
100
AcDbArc
 50
183.5586969061
 51
356.4413030939
  0
ELLIPSE
  5
181
330
1F
100
AcDbEntity
  8
0
  6
SLD-Gestrichelt
 62
     7
370
     0
100
AcDbEllipse
 10
303.1755802557
 20
113.8440239606
 30
0.0
 11
24.06101560154013
 21
-22.4188799991058
 31
0.0
210
0.0
220
0.0
230
1.0
 40
0.2135193148
 41
3.543656488796605
 42
3.580728829908128
  0
ELLIPSE
  5
182
330
1F
100
AcDbEntity
  8
0
  6
SLD-Gestrichelt
 62
     7
370
     0
100
AcDbEllipse
 10
212.5209153681
 20
113.8440239606
 30
0.0
 11
73.48411303275222
 21
22.64800636057872
 31
0.0
210
0.0
220
0.0
230
1.0
 40
0.054548757
 41
5.557188037262491
 42
5.831027554960631
  0
LINE
  5
183
330
1F
100
AcDbEntity
  8
0
  6
SLD-Gestrichelt
 62
     7
370
     0
100
AcDbLine
 10
257.9988892276
 20
126.7105752629
 30
0.0
 11
260.5299930174
 21
126.7105752629
 31
0.0
  0
ARC
  5
184
330
1F
100
AcDbEntity
  8
0
  6
SLD-Gestrichelt
 62
     7
370
     0
100
AcDbCircle
 10
260.5426115947
 20
148.7386767538
 30
0.0
 40
22.02810510512094
100
AcDbArc
 50
269.9671786904
 51
290.6062863382
  0
ELLIPSE
  5
185
330
1F
100
AcDbEntity
  8
0
  6
SLD-Gestrichelt
 62
     7
370
     0
100
AcDbEllipse
 10
275.0137565949
 20
113.8440239606
 30
0.0
 11
7.51406506258081
 21
22.98862467920319
 31
0.0
210
0.0
220
0.0
230
1.0
 40
0.0962569477
 41
0.6958580013233041
 42
1.602248510774581
  0
LINE
  5
186
330
1F
100
AcDbEntity
  8
0
  6
SLD-Gestrichelt
 62
     7
370
     0
100
AcDbLine
 10
172.0032318581
 20
132.4798904386
 30
0.0
 11
172.0032318581
 21
132.1940246997
 31
0.0
  0
LINE
  5
187
330
1F
100
AcDbEntity
  8
0
  6
SLD-Gestrichelt
 62
     7
370
     0
100
AcDbLine
 10
175.8232320745
 20
132.4798904386
 30
0.0
 11
175.8232320745
 21
132.1940246997
 31
0.0
  0
LINE
  5
188
330
1F
100
AcDbEntity
  8
0
  6
SLD-Gestrichelt
 62
     7
370
     0
100
AcDbLine
 10
177.3051637311
 20
136.8027135757
 30
0.0
 11
177.3051637311
 21
132.1940246997
 31
0.0
  0
LWPOLYLINE
  5
189
330
1F
100
AcDbEntity
  8
0
  6
SLD-Gestrichelt
 62
     7
370
     0
100
AcDbPolyline
 90
       24
 70
   128
 43
0.0
 10
240.9132327039
 20
106.1354504925
 10
241.5877263148
 20
106.22078758
 10
242.2121892769
 20
106.4704695744
 10
242.7403236825
 20
106.8659789887
 10
243.1329469283
 20
107.3779824217
 10
243.3609421451
 20
107.9685070579
 10
243.4074039657
 20
108.5937562891
 10
243.2688827712
 20
109.2073584002
 10
242.9556529124
 20
109.763805245
 10
242.49095275
 20
110.2218275917
 10
241.9092337687
 20
110.5474562644
 10
241.2536497314
 20
110.7165406718
 10
240.5728156764
 20
110.7165406718
 10
239.9172316391
 20
110.5474562644
 10
239.3355126579
 20
110.2218275917
 10
238.8708050449
 20
109.763805245
 10
238.5575826366
 20
109.2073584002
 10
238.4190614421
 20
108.5937562891
 10
238.4655232627
 20
107.9685070579
 10
238.6935184796
 20
107.3779824217
 10
239.0861417253
 20
106.8659789887
 10
239.6142686803
 20
106.4704695744
 10
240.2387390931
 20
106.22078758
 10
240.9132327039
 20
106.1354504925
  0
LWPOLYLINE
  5
18A
330
1F
100
AcDbEntity
  8
0
  6
SLD-Gestrichelt
 62
     7
370
     0
100
AcDbPolyline
 90
       12
 70
   128
 43
0.0
 10
124.0435111422
 20
92.7539367256
 10
124.128254046
 20
93.0794861195
 10
124.1792979736
 20
93.1255362955
 10
124.2463457484
 20
93.1311931488
 10
124.280834486
 20
93.1189257679
 10
124.3256162007
 20
93.0919062373
 10
124.3629734118
 20
93.0614706156
 10
124.4014333088
 20
93.0237595019
 10
124.4513894517
 20
92.966270822
 10
124.5257052679
 20
92.8649224368
 10
124.6860305865
 20
92.5868425545
 10
124.952141111
 20
91.9001020518
  0
ARC
  5
18B
330
1F
100
AcDbEntity
  8
0
  6
SLD-Gestrichelt
 62
     7
370
     0
100
AcDbCircle
 10
162.9132318098
 20
112.3440239606
 30
0.0
 40
5.000000000000016
100
AcDbArc
 50
306.157008201
 51
53.842991799
  0
ARC
  5
18C
330
1F
100
AcDbEntity
  8
0
  6
SLD-Gestrichelt
 62
     7
370
     0
100
AcDbCircle
 10
273.7419511278
 20
127.7827847098
 30
0.0
 40
2.318117319602679
100
AcDbArc
 50
224.7248070472
 51
315.2751929528
  0
LINE
  5
18D
330
1F
100
AcDbEntity
  8
0
  6
SLD-Gestrichelt
 62
     7
370
     0
100
AcDbLine
 10
272.5657428701
 20
113.8440239736
 30
0.0
 11
272.0804716546
 21
112.3440239606
 31
0.0
  0
ARC
  5
18E
330
1F
100
AcDbEntity
  8
0
  6
SLD-Gestrichelt
 62
     7
370
     0
100
AcDbCircle
 10
272.9142892701
 20
126.0362531573
 30
0.0
 40
0.3348778579565624
100
AcDbArc
 50
169.635128604
 51
308.8298044275
  0
ARC
  5
18F
330
1F
100
AcDbEntity
  8
0
  6
SLD-Gestrichelt
 62
     7
370
     0
100
AcDbCircle
 10
274.2434613387
 20
125.8513234329
 30
0.0
 40
0.335001365510896
100
AcDbArc
 50
215.3320354913
 51
8.677498726
  0
ARC
  5
190
330
1F
100
AcDbEntity
  8
0
  6
SLD-Gestrichelt
 62
     7
370
     0
100
AcDbCircle
 10
275.1529279199
 20
125.9910376632
 30
0.0
 40
0.5851344904947783
100
AcDbArc
 50
95.2060300727
 51
188.7657588562
  0
ARC
  5
191
330
1F
100
AcDbEntity
  8
0
  6
SLD-Gestrichelt
 62
     7
370
     0
100
AcDbCircle
 10
272.0787629572
 20
126.4194835577
 30
0.0
 40
0.5848434042905614
100
AcDbArc
 50
0.0359792728
 51
68.9039892845
  0
ARC
  5
192
330
1F
100
AcDbEntity
  8
0
  6
SLD-Gestrichelt
 62
     7
370
     0
100
AcDbCircle
 10
272.4094882442
 20
127.2768549246
 30
0.0
 40
0.3341042973449217
100
AcDbArc
 50
172.5863931728
 51
248.91010244
  0
ARC
  5
193
330
1F
100
AcDbEntity
  8
0
  6
SLD-Gestrichelt
 62
     7
370
     0
100
AcDbCircle
 10
275.0694706189
 20
126.9067653304
 30
0.0
 40
0.3343883653827845
100
AcDbArc
 50
275.2098489861
 51
9.2728654437
  0
ARC
  5
194
330
1F
100
AcDbEntity
  8
0
  6
SLD-Gestrichelt
 62
     7
370
     0
100
AcDbCircle
 10
275.3993054979
 20
127.763368805
 30
0.0
 40
0.5836437498744719
100
AcDbArc
 50
155.2423761487
 51
179.9986704836
  0
LWPOLYLINE
  5
195
330
1F
100
AcDbEntity
  8
0
  6
SLD-Gestrichelt
 62
     7
370
     0
100
AcDbPolyline
 90
        3
 70
   128
 43
0.0
 10
272.9046399791
 20
128.2813672003
 10
272.9061747987
 20
128.3927571056
 10
272.9160393674
 20
128.4325525192
  0
LWPOLYLINE
  5
196
330
1F
100
AcDbEntity
  8
0
  6
SLD-Gestrichelt
 62
     7
370
     0
100
AcDbPolyline
 90
        3
 70
   128
 43
0.0
 10
274.8975287278
 20
128.1877152649
 10
274.8984153469
 20
128.1153365997
 10
274.8693059285
 20
128.0077874688
  0
ARC
  5
197
330
1F
100
AcDbEntity
  8
0
  6
SLD-Gestrichelt
 62
     7
370
     0
100
AcDbCircle
 10
273.7419474025
 20
127.1154084453
 30
0.0
 40
2.625004582738701
100
AcDbArc
 50
0.1101505051
 51
179.8898494949
  0
ARC
  5
198
330
1F
100
AcDbEntity
  8
0
  6
SLD-Gestrichelt
 62
     7
370
     0
100
AcDbCircle
 10
273.4916403022
 20
125.3174078557
 30
0.0
 40
0.5871163430074432
100
AcDbArc
 50
35.4088840688
 51
128.7361941258
  0
CIRCLE
  5
199
330
1F
100
AcDbEntity
  8
0
  6
SLD-Gestrichelt
 62
     7
370
     0
100
AcDbCircle
 10
273.7401187483
 20
126.9283350511
 30
0.0
 40
1.998134715580688
  0
CIRCLE
  5
19A
330
1F
100
AcDbEntity
  8
0
  6
SLD-Gestrichelt
 62
     7
370
     0
100
AcDbCircle
 10
273.7401214736
 20
126.5725761155
 30
0.0
 40
1.998134863579117
  0
CIRCLE
  5
19B
330
1F
100
AcDbEntity
  8
0
  6
SLD-Gestrichelt
 62
     7
370
     0
100
AcDbCircle
 10
273.7402028049
 20
126.5654423584
 30
0.0
 40
1.898227645290825
  0
LWPOLYLINE
  5
19C
330
1F
100
AcDbEntity
  8
0
  6
SLD-Gestrichelt
 62
     7
370
     0
100
AcDbPolyline
 90
       21
 70
   128
 43
0.0
 10
240.3012569148
 20
106.8201998276
 10
240.9132327039
 20
106.7309781936
 10
241.5252010424
 20
106.8201998276
 10
242.0772741635
 20
107.079131252
 10
242.5153981049
 20
107.4824265231
 10
242.7966873248
 20
107.9906082739
 10
242.8936193783
 20
108.5539320045
 10
242.7966873248
 20
109.1172557351
 10
242.5153981049
 20
109.6254372531
 10
242.0772741635
 20
110.0287325242
 10
241.5252010424
 20
110.2876641815
 10
240.9132327039
 20
110.3768858154
 10
240.3012569148
 20
110.2876641815
 10
239.7491912444
 20
110.0287325242
 10
239.3110673029
 20
109.6254372531
 10
239.0297706325
 20
109.1172557351
 10
238.9328460295
 20
108.5539320045
 10
239.0297706325
 20
107.9906082739
 10
239.3110673029
 20
107.4824265231
 10
239.7491912444
 20
107.079131252
 10
240.3012569148
 20
106.8201998276
  0
LWPOLYLINE
  5
19D
330
1F
100
AcDbEntity
  8
0
  6
SLD-Gestrichelt
 62
     7
370
     0
100
AcDbPolyline
 90
       24
 70
   128
 43
0.0
 10
240.1406894524
 20
106.2480823164
 10
240.810817023
 20
106.1373825212
 10
241.4885441859
 20
106.1972130117
 10
242.123594423
 20
106.4231374328
 10
242.6688875158
 20
106.7983994287
 10
243.0839668114
 20
107.2951673557
 10
243.3380539615
 20
107.8765985583
 10
243.4122989972
 20
108.4995711715
 10
243.3012033899
 20
109.1178815839
 10
243.0130000312
 20
109.6856728689
 10
242.5690720875
 20
110.1608345778
 10
242.0023362238
 20
110.50812593
 10
241.3548211653
 20
110.7017900356
 10
240.6745608051
 20
110.727463805
 10
240.0120030243
 20
110.5832429164
 10
239.4162769515
 20
110.2798238424
 10
238.9315794308
 20
109.8397094318
 10
238.5938520629
 20
109.2955413767
 10
238.4281436999
 20
108.6876778425
 10
238.446740349
 20
108.0612015937
 10
238.648263653
 20
107.4625749168
 10
239.0177751977
 20
106.9361955886
 10
239.5278568466
 20
106.5211027888
 10
240.1406894524
 20
106.2480823164
  0
LWPOLYLINE
  5
19E
330
1F
100
AcDbEntity
  8
0
  6
SLD-Gestrichelt
 62
     7
370
     0
100
AcDbPolyline
 90
       24
 70
   128
 43
0.0
 10
240.1406894524
 20
105.5643029538
 10
240.810817023
 20
105.453602693
 10
241.4885441859
 20
105.5134336491
 10
242.123594423
 20
105.7393580702
 10
242.6688875158
 20
106.1146200662
 10
243.0839668114
 20
106.6113879931
 10
243.3380539615
 20
107.1928191957
 10
243.4122989972
 20
107.8157915761
 10
243.3012033899
 20
108.4341022213
 10
243.0130000312
 20
109.0018935063
 10
242.5690720875
 20
109.4770549824
 10
242.0023362238
 20
109.8243465674
 10
241.3548211653
 20
110.018010673
 10
240.6745608051
 20
110.0436842096
 10
240.0120030243
 20
109.8994635538
 10
239.4162769515
 20
109.5960442469
 10
238.9315794308
 20
109.1559300692
 10
238.5938520629
 20
108.6117620141
 10
238.4281436999
 20
108.0038982471
 10
238.446740349
 20
107.3774217655
 10
238.648263653
 20
106.7787955542
 10
239.0177751977
 20
106.252416226
 10
239.5278568466
 20
105.8373234262
 10
240.1406894524
 20
105.5643029538
  0
LWPOLYLINE
  5
19F
330
1F
100
AcDbEntity
  8
0
  6
SLD-Gestrichelt
 62
     7
370
     0
100
AcDbPolyline
 90
       21
 70
   128
 43
0.0
 10
240.2951995928
 20
104.6540063833
 10
240.9132327039
 20
104.5639009242
 10
241.531265815
 20
104.6540063833
 10
242.0888002117
 20
104.9155026701
 10
242.5312678416
 20
105.3227923838
 10
242.8153435786
 20
105.8360074674
 10
242.9132293064
 20
106.4049109844
 10
242.8153435786
 20
106.9738140357
 10
242.5312678416
 20
107.4870291193
 10
242.0888002117
 20
107.8943188329
 10
241.531265815
 20
108.1558151198
 10
240.9132327039
 20
108.2459205789
 10
240.2951995928
 20
108.1558151198
 10
239.7376577456
 20
107.8943188329
 10
239.2951975663
 20
107.4870291193
 10
239.0111218293
 20
106.9738140357
 10
238.9132286508
 20
106.4049109844
 10
239.0111218293
 20
105.8360074674
 10
239.2951975663
 20
105.3227923838
 10
239.7376577456
 20
104.9155026701
 10
240.2951995928
 20
104.6540063833
  0
LWPOLYLINE
  5
1A0
330
1F
100
AcDbEntity
  8
0
  6
SLD-Gestrichelt
 62
     7
370
     0
100
AcDbPolyline
 90
       21
 70
   128
 43
0.0
 10
240.2951995928
 20
106.2737039317
 10
240.9132327039
 20
106.1835984726
 10
241.531265815
 20
106.2737039317
 10
242.0888002117
 20
106.5352002186
 10
242.5312678416
 20
106.9424899322
 10
242.8153435786
 20
107.4557050158
 10
242.9132293064
 20
108.0246085328
 10
242.8153435786
 20
108.5935115841
 10
242.5312678416
 20
109.1067266678
 10
242.0888002117
 20
109.5140163814
 10
241.531265815
 20
109.7755126682
 10
240.9132327039
 20
109.8656181273
 10
240.2951995928
 20
109.7755126682
 10
239.7376577456
 20
109.5140163814
 10
239.2951975663
 20
109.1067266678
 10
239.0111218293
 20
108.5935115841
 10
238.9132286508
 20
108.0246085328
 10
239.0111218293
 20
107.4557050158
 10
239.2951975663
 20
106.9424899322
 10
239.7376577456
 20
106.5352002186
 10
240.2951995928
 20
106.2737039317
  0
LWPOLYLINE
  5
1A1
330
1F
100
AcDbEntity
  8
0
  6
SLD-Gestrichelt
 62
     7
370
     0
100
AcDbPolyline
 90
       24
 70
   128
 43
0.0
 10
240.1406894524
 20
105.2946985726
 10
240.810817023
 20
105.1839983118
 10
241.4885441859
 20
105.2438292679
 10
242.123594423
 20
105.469753689
 10
242.6688875158
 20
105.8450152193
 10
243.0839668114
 20
106.3417836119
 10
243.3380539615
 20
106.9232148145
 10
243.4122989972
 20
107.5461871949
 10
243.3012033899
 20
108.1644978401
 10
243.0130000312
 20
108.7322888923
 10
242.5690720875
 20
109.2074506012
 10
242.0023362238
 20
109.5547419534
 10
241.3548211653
 20
109.748406059
 10
240.6745608051
 20
109.7740798284
 10
240.0120030243
 20
109.6298589398
 10
239.4162769515
 20
109.3264398658
 10
238.9315794308
 20
108.886325688
 10
238.5938520629
 20
108.3421574001
 10
238.4281436999
 20
107.7342938659
 10
238.446740349
 20
107.1078173843
 10
238.648263653
 20
106.5091907074
 10
239.0177751977
 20
105.9828118448
 10
239.5278568466
 20
105.567719045
 10
240.1406894524
 20
105.2946985726
  0
LWPOLYLINE
  5
1A2
330
1F
100
AcDbEntity
  8
0
  6
SLD-Gestrichelt
 62
     7
370
     0
100
AcDbPolyline
 90
       23
 70
   128
 43
0.0
 10
240.2024920185
 20
105.6691642878
 10
240.847555836
 20
105.5664063458
 10
241.4979319174
 20
105.6350983706
 10
242.100944658
 20
105.8696752441
 10
242.6077331502
 20
106.2511328635
 10
242.9772446949
 20
106.7485676174
 10
243.1795428593
 20
107.3216811781
 10
243.198236366
 20
107.9240419929
 10
243.0318127472
 20
108.5068515529
 10
242.6937575538
 20
109.0228934334
 10
242.2114516694
 20
109.4303610296
 10
241.6239733894
 20
109.6962438458
 10
240.9789095719
 20
109.7990017877
 10
240.3285260398
 20
109.7303097629
 10
239.7255207498
 20
109.4957328894
 10
239.218724807
 20
109.1142752701
 10
238.8492132623
 20
108.6168400505
 10
238.6469150979
 20
108.0437267226
 10
238.6282215912
 20
107.4413659078
 10
238.79464521
 20
106.8585563478
 10
239.132707854
 20
106.3425147002
 10
239.6150137384
 20
105.9350471039
 10
240.2024920185
 20
105.6691642878
  0
LWPOLYLINE
  5
1A3
330
1F
100
AcDbEntity
  8
0
  6
SLD-Gestrichelt
 62
     7
370
     0
100
AcDbPolyline
 90
       24
 70
   128
 43
0.0
 10
240.1406894524
 20
105.0250937258
 10
240.810817023
 20
104.9143939306
 10
241.4885441859
 20
104.9742248868
 10
242.123594423
 20
105.2001488422
 10
242.6688875158
 20
105.5754108381
 10
243.0839668114
 20
106.0721792308
 10
243.3380539615
 20
106.6536104334
 10
243.4122989972
 20
107.2765828137
 10
243.3012033899
 20
107.894893459
 10
243.0130000312
 20
108.4626845111
 10
242.5690720875
 20
108.93784622
 10
242.0023362238
 20
109.2851375722
 10
241.3548211653
 20
109.4788016778
 10
240.6745608051
 20
109.5044754473
 10
240.0120030243
 20
109.3602545586
 10
239.4162769515
 20
109.0568354846
 10
238.9315794308
 20
108.616721074
 10
238.5938520629
 20
108.072553019
 10
238.4281436999
 20
107.4646894847
 10
238.446740349
 20
106.8382130032
 10
238.648263653
 20
106.2395863262
 10
239.0177751977
 20
105.7132074636
 10
239.5278568466
 20
105.2981146638
 10
240.1406894524
 20
105.0250937258
  0
LWPOLYLINE
  5
1A4
330
1F
100
AcDbEntity
  8
0
  6
SLD-Gestrichelt
 62
     7
370
     0
100
AcDbPolyline
 90
       23
 70
   128
 43
0.0
 10
240.2024920185
 20
105.3995594409
 10
240.847555836
 20
105.296801499
 10
241.4979319174
 20
105.3654935238
 10
242.100944658
 20
105.6000703973
 10
242.6077331502
 20
105.9815284823
 10
242.9772446949
 20
106.4789632362
 10
243.1795428593
 20
107.0520763313
 10
243.198236366
 20
107.6544376117
 10
243.0318127472
 20
108.2372471717
 10
242.6937575538
 20
108.7532888194
 10
242.2114516694
 20
109.1607566484
 10
241.6239733894
 20
109.4266394646
 10
240.9789095719
 20
109.5293971737
 10
240.3285260398
 20
109.4607051489
 10
239.7255207498
 20
109.2261285082
 10
239.218724807
 20
108.844670656
 10
238.8492132623
 20
108.3472359021
 10
238.6469150979
 20
107.7741223414
 10
238.6282215912
 20
107.1717615266
 10
238.79464521
 20
106.5889519666
 10
239.132707854
 20
106.072910319
 10
239.6150137384
 20
105.6654422571
 10
240.2024920185
 20
105.3995594409
  0
LWPOLYLINE
  5
1A5
330
1F
100
AcDbEntity
  8
0
  6
SLD-Gestrichelt
 62
     7
370
     0
100
AcDbPolyline
 90
       24
 70
   128
 43
0.0
 10
240.1406894524
 20
104.7554893446
 10
240.810817023
 20
104.6447895494
 10
241.4885441859
 20
104.7046200399
 10
242.123594423
 20
104.930544461
 10
242.6688875158
 20
105.305806457
 10
243.0839668114
 20
105.8025743839
 10
243.3380539615
 20
106.3840060522
 10
243.4122989972
 20
107.0069784326
 10
243.3012033899
 20
107.6252886121
 10
243.0130000312
 20
108.1930801299
 10
242.5690720875
 20
108.668241606
 10
242.0023362238
 20
109.0155329582
 10
241.3548211653
 20
109.2091970638
 10
240.6745608051
 20
109.2348708333
 10
240.0120030243
 20
109.0906499446
 10
239.4162769515
 20
108.7872308706
 10
238.9315794308
 20
108.3471166928
 10
238.5938520629
 20
107.8029486378
 10
238.4281436999
 20
107.1950851035
 10
238.446740349
 20
106.568608622
 10
238.648263653
 20
105.969981945
 10
239.0177751977
 20
105.4436026168
 10
239.5278568466
 20
105.0285102827
 10
240.1406894524
 20
104.7554893446
  0
LWPOLYLINE
  5
1A6
330
1F
100
AcDbEntity
  8
0
  6
SLD-Gestrichelt
 62
     7
370
     0
100
AcDbPolyline
 90
       23
 70
   128
 43
0.0
 10
240.2024920185
 20
105.1299550598
 10
240.847555836
 20
105.0271971178
 10
241.4979319174
 20
105.0958891426
 10
242.100944658
 20
105.3304660161
 10
242.6077331502
 20
105.7119236355
 10
242.9772446949
 20
106.2093588551
 10
243.1795428593
 20
106.7824719501
 10
243.198236366
 20
107.3848332305
 10
243.0318127472
 20
107.9676427905
 10
242.6937575538
 20
108.4836844382
 10
242.2114516694
 20
108.8911520344
 10
241.6239733894
 20
109.1570348506
 10
240.9789095719
 20
109.2597927925
 10
240.3285260398
 20
109.1911007677
 10
239.7255207498
 20
108.9565238942
 10
239.218724807
 20
108.5750662749
 10
238.8492132623
 20
108.0776310553
 10
238.6469150979
 20
107.5045179603
 10
238.6282215912
 20
106.9021566798
 10
238.79464521
 20
106.3193475855
 10
239.132707854
 20
105.8033054722
 10
239.6150137384
 20
105.3958378759
 10
240.2024920185
 20
105.1299550598
  0
LWPOLYLINE
  5
1A7
330
1F
100
AcDbEntity
  8
0
  6
SLD-Gestrichelt
 62
     7
370
     0
100
AcDbPolyline
 90
       24
 70
   128
 43
0.0
 10
240.1406894524
 20
104.4858844978
 10
240.810817023
 20
104.3751847026
 10
241.4885441859
 20
104.4350156588
 10
242.123594423
 20
104.6609400799
 10
242.6688875158
 20
105.0362020758
 10
243.0839668114
 20
105.5329700028
 10
243.3380539615
 20
106.1144012054
 10
243.4122989972
 20
106.7373735857
 10
243.3012033899
 20
107.3556842309
 10
243.0130000312
 20
107.9234757488
 10
242.5690720875
 20
108.398636992
 10
242.0023362238
 20
108.7459285771
 10
241.3548211653
 20
108.9395926827
 10
240.6745608051
 20
108.9652664521
 10
240.0120030243
 20
108.8210455635
 10
239.4162769515
 20
108.5176264894
 10
238.9315794308
 20
108.0775123117
 10
238.5938520629
 20
107.5333437909
 10
238.4281436999
 20
106.9254802567
 10
238.446740349
 20
106.2990037751
 10
238.648263653
 20
105.7003775639
 10
239.0177751977
 20
105.1739982356
 10
239.5278568466
 20
104.7589054358
 10
240.1406894524
 20
104.4858844978
  0
LWPOLYLINE
  5
1A8
330
1F
100
AcDbEntity
  8
0
  6
SLD-Gestrichelt
 62
     7
370
     0
100
AcDbPolyline
 90
       23
 70
   128
 43
0.0
 10
240.2024920185
 20
104.8603506786
 10
240.847555836
 20
104.7575927367
 10
241.4979319174
 20
104.8262847615
 10
242.100944658
 20
105.0608616349
 10
242.6077331502
 20
105.4423192543
 10
242.9772446949
 20
105.9397544739
 10
243.1795428593
 20
106.5128675689
 10
243.198236366
 20
107.1152288494
 10
243.0318127472
 20
107.6980379437
 10
242.6937575538
 20
108.214080057
 10
242.2114516694
 20
108.6215476533
 10
241.6239733894
 20
108.8874304694
 10
240.9789095719
 20
108.9901884113
 10
240.3285260398
 20
108.9214963866
 10
239.7255207498
 20
108.6869195131
 10
239.218724807
 20
108.3054618937
 10
238.8492132623
 20
107.8080266741
 10
238.6469150979
 20
107.2349135791
 10
238.6282215912
 20
106.6325522986
 10
238.79464521
 20
106.0497432043
 10
239.132707854
 20
105.533701091
 10
239.6150137384
 20
105.1262334948
 10
240.2024920185
 20
104.8603506786
  0
LWPOLYLINE
  5
1A9
330
1F
100
AcDbEntity
  8
0
  6
SLD-Gestrichelt
 62
     7
370
     0
100
AcDbPolyline
 90
       24
 70
   128
 43
0.0
 10
240.1406894524
 20
104.270982745
 10
240.810817023
 20
104.1602829498
 10
241.4885441859
 20
104.220113906
 10
242.123594423
 20
104.4460378614
 10
242.6688875158
 20
104.8212998574
 10
243.0839668114
 20
105.3180677843
 10
243.3380539615
 20
105.8994994526
 10
243.4122989972
 20
106.522471833
 10
243.3012033899
 20
107.1407820125
 10
243.0130000312
 20
107.7085735303
 10
242.5690720875
 20
108.1837352392
 10
242.0023362238
 20
108.5310263586
 10
241.3548211653
 20
108.7246904642
 10
240.6745608051
 20
108.7503642337
 10
240.0120030243
 20
108.606143345
 10
239.4162769515
 20
108.302724271
 10
238.9315794308
 20
107.8626100932
 10
238.5938520629
 20
107.3184420382
 10
238.4281436999
 20
106.7105785039
 10
238.446740349
 20
106.0841020224
 10
238.648263653
 20
105.4854753454
 10
239.0177751977
 20
104.9590960172
 10
239.5278568466
 20
104.5440036831
 10
240.1406894524
 20
104.270982745
  0
LWPOLYLINE
  5
1AA
330
1F
100
AcDbEntity
  8
0
  6
SLD-Gestrichelt
 62
     7
370
     0
100
AcDbPolyline
 90
       23
 70
   128
 43
0.0
 10
240.1839549739
 20
104.3388435644
 10
240.8458422024
 20
104.2334048105
 10
241.5131907065
 20
104.3038891655
 10
242.1319316227
 20
104.544585294
 10
242.6519374449
 20
104.9359940951
 10
243.0310900409
 20
105.4464058978
 10
243.2386632163
 20
106.0344699797
 10
243.2578484614
 20
106.6525450003
 10
243.0870811541
 20
107.2505579357
 10
242.7402044732
 20
107.7800618512
 10
242.2453145583
 20
108.1981590976
 10
241.6425104339
 20
108.4709779386
 10
240.9806232054
 20
108.5764164598
 10
240.3132747013
 20
108.5059323375
 10
239.6945337851
 20
108.2652362091
 10
239.1745205123
 20
107.873827408
 10
238.7953679163
 20
107.3634156053
 10
238.5877947409
 20
106.775351989
 10
238.5686169464
 20
106.1572769684
 10
238.7393768031
 20
105.5592635674
 10
239.0862609346
 20
105.0297601176
 10
239.581143399
 20
104.6116628711
 10
240.1839549739
 20
104.3388435644
  0
LINE
  5
1AB
330
1F
100
AcDbEntity
  8
0
  6
SLD-Gestrichelt
 62
     7
370
     0
100
AcDbLine
 10
270.7826401193
 20
127.280681583
 30
0.0
 11
270.7826401193
 21
127.2110279677
 31
0.0
  0
LINE
  5
1AC
330
1F
100
AcDbEntity
  8
0
  6
SLD-Gestrichelt
 62
     7
370
     0
100
AcDbLine
 10
276.8826390703
 20
127.2110279677
 30
0.0
 11
276.8826390703
 21
127.280681583
 31
0.0
  0
LINE
  5
1AD
330
1F
100
AcDbEntity
  8
0
  6
SLD-Gestrichelt
 62
     7
370
     0
100
AcDbLine
 10
271.6326396067
 20
127.1517343846
 30
0.0
 11
271.6326396067
 21
127.0037481588
 31
0.0
  0
LINE
  5
1AE
330
1F
100
AcDbEntity
  8
0
  6
SLD-Gestrichelt
 62
     7
370
     0
100
AcDbLine
 10
276.0326395829
 20
127.0037481588
 30
0.0
 11
276.0326395829
 21
127.1517343846
 31
0.0
  0
LINE
  5
1AF
330
1F
100
AcDbEntity
  8
0
  6
SLD-Gestrichelt
 62
     7
370
     0
100
AcDbLine
 10
155.9132318098
 20
87.0201002833
 30
0.0
 11
156.0073926476
 21
87.6900900182
 31
0.0
  0
LINE
  5
1B0
330
1F
100
AcDbEntity
  8
0
  6
SLD-Gestrichelt
 62
     7
370
     0
100
AcDbLine
 10
156.0073926476
 20
136.9979579029
 30
0.0
 11
155.9132318098
 21
137.6679476378
 31
0.0
  0
ARC
  5
1B1
330
1F
100
AcDbEntity
  8
0
  6
SLD-Gestrichelt
 62
     7
370
     0
100
AcDbCircle
 10
155.4132318098
 20
87.7735930988
 30
0.0
 40
0.5999999999999943
100
AcDbArc
 50
352.0
 51
0.0
  0
ARC
  5
1B2
330
1F
100
AcDbEntity
  8
0
  6
SLD-Gestrichelt
 62
     7
370
     0
100
AcDbCircle
 10
155.4132318098
 20
87.7735930988
 30
0.0
 40
0.5999999999999943
100
AcDbArc
 50
0.0
 51
33.5573097619
  0
ARC
  5
1B3
330
1F
100
AcDbEntity
  8
0
  6
SLD-Gestrichelt
 62
     7
370
     0
100
AcDbCircle
 10
155.4132318098
 20
136.9144548223
 30
0.0
 40
0.599999999999998
100
AcDbArc
 50
348.75
 51
8.0
  0
LWPOLYLINE
  5
1B4
330
1F
100
AcDbEntity
  8
0
  6
SLD-Gestrichelt
 62
     7
370
     0
100
AcDbPolyline
 90
        3
 70
   128
 43
0.0
 10
156.0017029797
 20
136.7974013117
 10
155.96755953
 20
136.6848453906
 10
155.9132318098
 20
136.5827929256
  0
LINE
  5
1B5
330
1F
100
AcDbEntity
  8
0
  6
SLD-Gestrichelt
 62
     7
370
     0
100
AcDbLine
 10
156.0132318073
 20
87.7735924003
 30
0.0
 11
156.0132318073
 21
136.9144555208
 31
0.0
  0
ARC
  5
1B6
330
1F
100
AcDbEntity
  8
0
  6
SLD-Gestrichelt
 62
     7
370
     0
100
AcDbCircle
 10
149.6682338114
 20
100.3440239606
 30
0.0
 40
7.999999999999996
100
AcDbArc
 50
276.8841533816
 51
321.3178125465
  0
ARC
  5
1B7
330
1F
100
AcDbEntity
  8
0
  6
SLD-Gestrichelt
 62
     7
370
     0
100
AcDbCircle
 10
149.6682338114
 20
124.3440239606
 30
0.0
 40
8.000000000000002
100
AcDbArc
 50
38.6821874535
 51
83.128785134
  0
LINE
  5
1B8
330
1F
100
AcDbEntity
  8
0
  6
SLD-Gestrichelt
 62
     7
370
     0
100
AcDbLine
 10
138.995667835
 20
92.3440244076
 30
0.0
 11
143.1873393331
 21
92.3440244076
 31
0.0
  0
LINE
  5
1B9
330
1F
100
AcDbEntity
  8
0
  6
SLD-Gestrichelt
 62
     7
370
     0
100
AcDbLine
 10
143.1873393331
 20
132.3440235135
 30
0.0
 11
138.995667835
 21
132.3440235135
 31
0.0
  0
ARC
  5
1BA
330
1F
100
AcDbEntity
  8
0
  6
SLD-Gestrichelt
 62
     7
370
     0
100
AcDbCircle
 10
138.9956673751
 20
92.9440239606
 30
0.0
 40
0.6000000000000085
100
AcDbArc
 50
210.0
 51
270.0
  0
ARC
  5
1BB
330
1F
100
AcDbEntity
  8
0
  6
SLD-Gestrichelt
 62
     7
370
     0
100
AcDbCircle
 10
138.9956673751
 20
131.7440239606
 30
0.0
 40
0.6000000000000227
100
AcDbArc
 50
90.0
 51
150.0
  0
LINE
  5
1BC
330
1F
100
AcDbEntity
  8
0
  6
SLD-Gestrichelt
 62
     7
370
     0
100
AcDbLine
 10
138.4760513056
 20
132.0440240231
 30
0.0
 11
136.9172073055
 21
129.3440248844
 31
0.0
  0
LINE
  5
1BD
330
1F
100
AcDbEntity
  8
0
  6
SLD-Gestrichelt
 62
     7
370
     0
100
AcDbLine
 10
136.9172073055
 20
95.3440230367
 30
0.0
 11
138.4760513056
 21
92.644023898
 31
0.0
  0
ARC
  5
1BE
330
1F
100
AcDbEntity
  8
0
  6
SLD-Gestrichelt
 62
     7
370
     0
100
AcDbCircle
 10
164.3632318098
 20
96.6190239606
 30
0.0
 40
1.500000000000016
100
AcDbArc
 50
238.2116693829
 51
0.0
  0
ARC
  5
1BF
330
1F
100
AcDbEntity
  8
0
  6
SLD-Gestrichelt
 62
     7
370
     0
100
AcDbCircle
 10
164.3632318098
 20
128.0690239606
 30
0.0
 40
1.500000000000016
100
AcDbArc
 50
0.0
 51
121.7883306171
  0
LINE
  5
1C0
330
1F
100
AcDbEntity
  8
0
  6
SLD-Gestrichelt
 62
     7
370
     0
100
AcDbLine
 10
134.1132315893
 20
95.3440230367
 30
0.0
 11
136.9172073055
 21
95.3440230367
 31
0.0
  0
LINE
  5
1C1
330
1F
100
AcDbEntity
  8
0
  6
SLD-Gestrichelt
 62
     7
370
     0
100
AcDbLine
 10
136.9172073055
 20
129.3440248844
 30
0.0
 11
130.1132309337
 21
129.3440248844
 31
0.0
  0
LINE
  5
1C2
330
1F
100
AcDbEntity
  8
0
  6
SLD-Gestrichelt
 62
     7
370
     0
100
AcDbLine
 10
155.9132318098
 20
95.3440230367
 30
0.0
 11
163.5730577719
 21
95.3440230367
 31
0.0
  0
LINE
  5
1C3
330
1F
100
AcDbEntity
  8
0
  6
SLD-Gestrichelt
 62
     7
370
     0
100
AcDbLine
 10
163.5730577719
 20
129.3440248844
 30
0.0
 11
155.9132318098
 21
129.3440248844
 31
0.0
  0
LINE
  5
1C4
330
1F
100
AcDbEntity
  8
0
  6
SLD-Gestrichelt
 62
     7
370
     0
100
AcDbLine
 10
238.8132344086
 20
117.4235285287
 30
0.0
 11
238.8132344086
 21
113.9798010261
 31
0.0
  0
LINE
  5
1C5
330
1F
100
AcDbEntity
  8
0
  6
SLD-Gestrichelt
 62
     7
370
     0
100
AcDbLine
 10
243.0132309992
 20
117.1068425317
 30
0.0
 11
243.0132309992
 21
117.4235285287
 31
0.0
  0
LINE
  5
1C6
330
1F
100
AcDbEntity
  8
0
  6
SLD-Gestrichelt
 62
     7
370
     0
100
AcDbLine
 10
243.0132309992
 20
113.2713699042
 30
0.0
 11
243.0132309992
 21
115.6333977849
 31
0.0
  0
LINE
  5
1C7
330
1F
100
AcDbEntity
  8
0
  6
SLD-Gestrichelt
 62
     7
370
     0
100
AcDbLine
 10
251.194601794
 20
123.2768112821
 30
0.0
 11
240.818260153
 21
118.6086574596
 31
0.0
  0
LINE
  5
1C8
330
1F
100
AcDbEntity
  8
0
  6
SLD-Gestrichelt
 62
     7
370
     0
100
AcDbLine
 10
242.3267196019
 20
114.6818280247
 30
0.0
 11
251.169091006
 21
118.6598732163
 31
0.0
  0
LINE
  5
1C9
330
1F
100
AcDbEntity
  8
0
  6
SLD-Gestrichelt
 62
     7
370
     0
100
AcDbLine
 10
175.2132325519
 20
102.844024266
 30
0.0
 11
177.7132320304
 21
102.844024266
 31
0.0
  0
LINE
  5
1CA
330
1F
100
AcDbEntity
  8
0
  6
SLD-Gestrichelt
 62
     7
370
     0
100
AcDbLine
 10
177.7132320304
 20
121.8440236551
 30
0.0
 11
175.2132325519
 21
121.8440236551
 31
0.0
  0
LINE
  5
1CB
330
1F
100
AcDbEntity
  8
0
  6
SLD-Gestrichelt
 62
     7
370
     0
100
AcDbLine
 10
165.8632316713
 20
103.344024348
 30
0.0
 11
166.3632317532
 21
103.8440234986
 31
0.0
  0
LINE
  5
1CC
330
1F
100
AcDbEntity
  8
0
  6
SLD-Gestrichelt
 62
     7
370
     0
100
AcDbLine
 10
166.3632317532
 20
120.8440244225
 30
0.0
 11
165.8632316713
 21
121.3440235731
 31
0.0
  0
LINE
  5
1CD
330
1F
100
AcDbEntity
  8
0
  6
SLD-Gestrichelt
 62
     7
370
     0
100
AcDbLine
 10
166.3632317532
 20
103.8440234986
 30
0.0
 11
175.2132325519
 21
103.8440234986
 31
0.0
  0
LINE
  5
1CE
330
1F
100
AcDbEntity
  8
0
  6
SLD-Gestrichelt
 62
     7
370
     0
100
AcDbLine
 10
175.2132325519
 20
120.8440244225
 30
0.0
 11
166.3632317532
 21
120.8440244225
 31
0.0
  0
LINE
  5
1CF
330
1F
100
AcDbEntity
  8
0
  6
SLD-Gestrichelt
 62
     7
370
     0
100
AcDbLine
 10
160.863231783
 20
143.8440244672
 30
0.0
 11
160.863231783
 21
138.7440238175
 31
0.0
  0
LINE
  5
1D0
330
1F
100
AcDbEntity
  8
0
  6
SLD-Gestrichelt
 62
     7
370
     0
100
AcDbLine
 10
151.0976696473
 20
88.2646527168
 30
0.0
 11
150.6632374686
 21
88.7437194613
 31
0.0
  0
LINE
  5
1D1
330
1F
100
AcDbEntity
  8
0
  6
SLD-Gestrichelt
 62
     7
370
     0
100
AcDbLine
 10
143.1632339109
 20
89.1654074219
 30
0.0
 11
142.6808004354
 21
88.6863406775
 31
0.0
  0
LINE
  5
1D2
330
1F
100
AcDbEntity
  8
0
  6
SLD-Gestrichelt
 62
     7
370
     0
100
AcDbLine
 10
142.6806784321
 20
136.0017016557
 30
0.0
 11
143.1632292543
 21
135.5225808946
 31
0.0
  0
LINE
  5
1D3
330
1F
100
AcDbEntity
  8
0
  6
SLD-Gestrichelt
 62
     7
370
     0
100
AcDbLine
 10
150.6632318806
 20
135.944280031
 30
0.0
 11
151.0977739554
 21
136.4233989296
 31
0.0
  0
LINE
  5
1D4
330
1F
100
AcDbEntity
  8
0
  6
SLD-Gestrichelt
 62
     7
370
     0
100
AcDbLine
 10
241.9132347305
 20
108.1440241103
 30
0.0
 11
244.4368432362
 21
112.3440239606
 31
0.0
  0
LINE
  5
1D5
330
1F
100
AcDbEntity
  8
0
  6
SLD-Gestrichelt
 62
     7
370
     0
100
AcDbLine
 10
244.4368432362
 20
112.3440239606
 30
0.0
 11
241.9132347305
 21
116.5440238108
 31
0.0
  0
LINE
  5
1D6
330
1F
100
AcDbEntity
  8
0
  6
SLD-Gestrichelt
 62
     7
370
     0
100
AcDbLine
 10
177.7132320304
 20
108.1440241103
 30
0.0
 11
241.9132347305
 21
108.1440241103
 31
0.0
  0
LINE
  5
1D7
330
1F
100
AcDbEntity
  8
0
  6
SLD-Gestrichelt
 62
     7
370
     0
100
AcDbLine
 10
241.9132347305
 20
116.5440238108
 30
0.0
 11
177.7132320304
 21
116.5440238108
 31
0.0
  0
LINE
  5
1D8
330
1F
100
AcDbEntity
  8
0
  6
SLD-Gestrichelt
 62
     7
370
     0
100
AcDbLine
 10
150.6632318806
 20
132.2794251171
 30
0.0
 11
150.6632318806
 21
135.9437268254
 31
0.0
  0
LINE
  5
1D9
330
1F
100
AcDbEntity
  8
0
  6
SLD-Gestrichelt
 62
     7
370
     0
100
AcDbLine
 10
143.1632320483
 20
135.5223257122
 30
0.0
 11
143.1632320483
 21
132.3396462974
 31
0.0
  0
LINE
  5
1DA
330
1F
100
AcDbEntity
  8
0
  6
SLD-Gestrichelt
 62
     7
370
     0
100
AcDbLine
 10
150.6632318806
 20
88.7442018864
 30
0.0
 11
150.6632318806
 21
92.408622804
 31
0.0
  0
LINE
  5
1DB
330
1F
100
AcDbEntity
  8
0
  6
SLD-Gestrichelt
 62
     7
370
     0
100
AcDbLine
 10
143.1632320483
 20
92.3484016237
 30
0.0
 11
143.1632320483
 21
89.1657296595
 31
0.0
  0
LINE
  5
1DC
330
1F
100
AcDbEntity
  8
0
  6
SLD-Gestrichelt
 62
     7
370
     0
100
AcDbLine
 10
264.6649758418
 20
121.2612681118
 30
0.0
 11
264.6649758418
 21
121.1566340205
 31
0.0
  0
LINE
  5
1DD
330
1F
100
AcDbEntity
  8
0
  6
SLD-Gestrichelt
 62
     7
370
     0
100
AcDbLine
 10
238.8132344086
 20
110.708246895
 30
0.0
 11
238.8132344086
 21
108.5306226303
 31
0.0
  0
LINE
  5
1DE
330
1F
100
AcDbEntity
  8
0
  6
SLD-Gestrichelt
 62
     7
370
     0
100
AcDbLine
 10
243.0132309992
 20
108.5306226303
 30
0.0
 11
243.0132309992
 21
111.4166780169
 31
0.0
  0
LINE
  5
1DF
330
1F
100
AcDbEntity
  8
0
  6
SLD-Gestrichelt
 62
     7
370
     0
100
AcDbLine
 10
272.0919529993
 20
126.860961507
 30
0.0
 11
272.0919529993
 21
126.2557778535
 31
0.0
  0
LINE
  5
1E0
330
1F
100
AcDbEntity
  8
0
  6
SLD-Gestrichelt
 62
     7
370
     0
100
AcDbLine
 10
275.3919492562
 20
126.2557555017
 30
0.0
 11
275.3919492562
 21
126.860961507
 31
0.0
  0
LINE
  5
1E1
330
1F
100
AcDbEntity
  8
0
  6
SLD-Gestrichelt
 62
     7
370
     0
100
AcDbLine
 10
238.4132350881
 20
108.4367127185
 30
0.0
 11
238.4132350881
 21
106.0942026814
 31
0.0
  0
LINE
  5
1E2
330
1F
100
AcDbEntity
  8
0
  6
SLD-Gestrichelt
 62
     7
370
     0
100
AcDbLine
 10
243.4132303197
 20
106.0925258351
 30
0.0
 11
243.4132303197
 21
108.4367127185
 31
0.0
  0
LINE
  5
1E3
330
1F
100
AcDbEntity
  8
0
  6
SLD-Gestrichelt
 62
     7
370
     0
100
AcDbLine
 10
272.5793029268
 20
126.1321578202
 30
0.0
 11
272.5793029268
 21
126.0357854915
 31
0.0
  0
LINE
  5
1E4
330
1F
100
AcDbEntity
  8
0
  6
SLD-Gestrichelt
 62
     7
370
     0
100
AcDbLine
 10
274.578576823
 20
125.8506841985
 30
0.0
 11
274.578576823
 21
125.946175496
 31
0.0
  0
LINE
  5
1E5
330
1F
100
AcDbEntity
  8
0
  6
SLD-Gestrichelt
 62
     7
370
     0
100
AcDbLine
 10
272.0753605564
 20
127.3744229254
 30
0.0
 11
272.0753605564
 21
127.2767188055
 31
0.0
  0
LINE
  5
1E6
330
1F
100
AcDbEntity
  8
0
  6
SLD-Gestrichelt
 62
     7
370
     0
100
AcDbLine
 10
275.403907438
 20
126.9065152881
 30
0.0
 11
275.403907438
 21
127.0041737733
 31
0.0
  0
LINE
  5
1E7
330
1F
100
AcDbEntity
  8
0
  6
SLD-Gestrichelt
 62
     7
370
     0
100
AcDbLine
 10
272.9006911714
 20
128.4280542311
 30
0.0
 11
272.9006911714
 21
128.3325489637
 31
0.0
  0
LINE
  5
1E8
330
1F
100
AcDbEntity
  8
0
  6
SLD-Gestrichelt
 62
     7
370
     0
100
AcDbLine
 10
274.8999650676
 20
128.1474467394
 30
0.0
 11
274.8999650676
 21
128.2437622574
 31
0.0
  0
CIRCLE
  5
1E9
330
1F
100
AcDbEntity
  8
0
  6
SLD-Gestrichelt
 62
     7
370
     0
100
AcDbCircle
 10
273.7412973888
 20
126.9921765447
 30
0.0
 40
1.807930150310273
  0
LINE
  5
1EA
330
1F
100
AcDbEntity
  8
0
  6
SLD-Gestrichelt
 62
     7
370
     0
100
AcDbLine
 10
271.7419470746
 20
126.925137083
 30
0.0
 11
271.7419470746
 21
126.56937931
 31
0.0
  0
LINE
  5
1EB
330
1F
100
AcDbEntity
  8
0
  6
SLD-Gestrichelt
 62
     7
370
     0
100
AcDbLine
 10
275.7419477303
 20
126.56937931
 30
0.0
 11
275.7419477303
 21
126.925137083
 31
0.0
  0
LINE
  5
1EC
330
1F
100
AcDbEntity
  8
0
  6
SLD-Gestrichelt
 62
     7
370
     0
100
AcDbLine
 10
238.4132350881
 20
108.4367127185
 30
0.0
 11
238.4132350881
 21
107.7529333559
 31
0.0
  0
LINE
  5
1ED
330
1F
100
AcDbEntity
  8
0
  6
SLD-Gestrichelt
 62
     7
370
     0
100
AcDbLine
 10
243.4132303197
 20
107.7529333559
 30
0.0
 11
243.4132303197
 21
108.4367127185
 31
0.0
  0
LINE
  5
1EE
330
1F
100
AcDbEntity
  8
0
  6
SLD-Gestrichelt
 62
     7
370
     0
100
AcDbLine
 10
238.9132286508
 20
108.0246085328
 30
0.0
 11
238.9132286508
 21
106.4049109844
 31
0.0
  0
LINE
  5
1EF
330
1F
100
AcDbEntity
  8
0
  6
SLD-Gestrichelt
 62
     7
370
     0
100
AcDbLine
 10
242.9132293064
 20
106.4049109844
 30
0.0
 11
242.9132293064
 21
108.0246085328
 31
0.0
  0
LINE
  5
1F0
330
1F
100
AcDbEntity
  8
0
  6
SLD-Gestrichelt
 62
     7
370
     0
100
AcDbLine
 10
241.8728972871
 20
109.608289509
 30
0.0
 11
241.7961190541
 21
109.6376678468
 31
0.0
  0
LINE
  5
1F1
330
1F
100
AcDbEntity
  8
0
  6
SLD-Gestrichelt
 62
     7
370
     0
100
AcDbLine
 10
240.0303389032
 20
109.6376678468
 30
0.0
 11
239.9535681207
 21
109.608289509
 31
0.0
  0
LINE
  5
1F2
330
1F
100
AcDbEntity
  8
0
  6
SLD-Gestrichelt
 62
     7
370
     0
100
AcDbLine
 10
241.8728972871
 20
109.338684895
 30
0.0
 11
241.7961190541
 21
109.3680634656
 31
0.0
  0
LINE
  5
1F3
330
1F
100
AcDbEntity
  8
0
  6
SLD-Gestrichelt
 62
     7
370
     0
100
AcDbLine
 10
240.0303389032
 20
109.3680634656
 30
0.0
 11
239.9535681207
 21
109.338684895
 31
0.0
  0
LINE
  5
1F4
330
1F
100
AcDbEntity
  8
0
  6
SLD-Gestrichelt
 62
     7
370
     0
100
AcDbLine
 10
241.8728972871
 20
109.0690805138
 30
0.0
 11
241.7961190541
 21
109.0984588516
 31
0.0
  0
LINE
  5
1F5
330
1F
100
AcDbEntity
  8
0
  6
SLD-Gestrichelt
 62
     7
370
     0
100
AcDbLine
 10
240.0303389032
 20
109.0984588516
 30
0.0
 11
239.9535681207
 21
109.0690805138
 31
0.0
  0
LINE
  5
1F6
330
1F
100
AcDbEntity
  8
0
  6
SLD-Gestrichelt
 62
     7
370
     0
100
AcDbLine
 10
241.8728972871
 20
108.7994761326
 30
0.0
 11
241.7961190541
 21
108.8288544704
 31
0.0
  0
LINE
  5
1F7
330
1F
100
AcDbEntity
  8
0
  6
SLD-Gestrichelt
 62
     7
370
     0
100
AcDbLine
 10
240.0303389032
 20
108.8288544704
 30
0.0
 11
239.9535681207
 21
108.7994761326
 31
0.0
  0
LINE
  5
1F8
330
1F
100
AcDbEntity
  8
0
  6
SLD-Gestrichelt
 62
     7
370
     0
100
AcDbLine
 10
238.4132350881
 20
106.6745153655
 30
0.0
 11
238.4132350881
 21
106.4596131471
 31
0.0
  0
LINE
  5
1F9
330
1F
100
AcDbEntity
  8
0
  6
SLD-Gestrichelt
 62
     7
370
     0
100
AcDbLine
 10
243.4132303197
 20
106.4596131471
 30
0.0
 11
243.4132303197
 21
106.6745153655
 31
0.0
  0
CIRCLE
  5
1FA
330
1F
100
AcDbEntity
  8
0
  6
SLD-Gestrichelt
 62
     7
370
     0
100
AcDbCircle
 10
240.9132318098
 20
107.3426655159
 30
0.0
 40
2.000000000000003
  0
LINE
  5
1FB
330
1F
100
AcDbEntity
  8
VERMASSUNG
100
AcDbLine
 10
280.9132318098
 20
112.3440239606
 30
0.0
 11
280.9132318098
 21
134.3440239606
 31
0.0
  0
DIMENSION
  5
1FC
330
1F
100
AcDbEntity
  8
VERMASSUNG
100
AcDbDimension
  2
_D
 10
285.4403136511
 20
112.3440239606
 30
0.0
 11
285.4403136511
 21
123.3440239606
 31
0.0
 70
   160
  1
<>
 71
     2
 42
-1.0
  3
SLDDIMSTYLE0
100
AcDbAlignedDimension
 13
280.9132318098
 23
134.3440239606
 33
0.0
 14
276.1414422973
 24
112.3440239606
 34
0.0
 50
90.0
100
AcDbRotatedDimension
  0
DIMENSION
  5
207
330
1F
100
AcDbEntity
  8
VERMASSUNG
100
AcDbDimension
  2
_D_1
 10
117.7531327007
 20
80.8440239606
 30
0.0
 11
117.7531327007
 21
112.3440239606
 31
0.0
 70
   160
  1
HSK %%c<>
 71
     2
 42
-1.0
  3
SLDDIMSTYLE0
100
AcDbAlignedDimension
 13
156.2132318098
 23
143.8440239606
 33
0.0
 14
156.2132318098
 24
80.8440239606
 34
0.0
 50
90.0
100
AcDbRotatedDimension
  0
DIMENSION
  5
213
330
1F
100
AcDbEntity
  8
VERMASSUNG
100
AcDbDimension
  2
_D_2
 10
280.9132318098
 20
155.6484512517
 30
0.0
 11
202.4632318098
 21
155.6484512517
 31
0.0
 70
   160
  1
<>
 71
     2
 42
-1.0
  3
SLDDIMSTYLE0
100
AcDbAlignedDimension
 13
124.0132318098
 23
132.034701707
 33
0.0
 14
280.9132318098
 24
134.3440239606
 34
0.0
 50
0.0
100
AcDbRotatedDimension
  0
DIMENSION
  5
21D
330
1F
100
AcDbEntity
  8
VERMASSUNG
100
AcDbDimension
  2
_D_3
 10
280.9132318098
 20
149.6484512517
 30
0.0
 11
218.4132318098
 21
149.6484512517
 31
0.0
 70
   160
  1
<>
 71
     2
 42
-1.0
  3
SLDDIMSTYLE0
100
AcDbAlignedDimension
 13
155.9132318098
 23
143.5440239606
 33
0.0
 14
280.9132318098
 24
134.3440239606
 34
0.0
100
AcDbRotatedDimension
  0
DIMENSION
  5
227
330
1F
100
AcDbEntity
  8
VERMASSUNG
100
AcDbDimension
  2
_D_4
 10
272.0804742575
 20
112.3440239606
 30
0.0
 11
275.8128174228
 21
107.3107095848
 31
0.0
 70
   162
  1
<>
 71
     1
 42
-1.0
  3
SLDDIMSTYLE1
100
AcDb2LineAngularDimension
 13
280.9132318098
 23
112.3440239606
 33
0.0
 14
280.9132318098
 24
134.3440239606
 34
0.0
 15
272.5657413691
 25
113.8440239606
 35
0.0
 16
275.8128174228
 26
107.3107095848
 36
0.0
  0
LINE
  5
232
330
1F
100
AcDbEntity
  8
VERMASSUNG
  6
SLD-Punktstrich
370
     0
100
AcDbLine
 10
121.7989876362
 20
112.3440239606
 30
0.0
 11
276.1414422973
 21
112.3440239606
 31
0.0
  0
LWPOLYLINE
  5
233
330
1F
100
AcDbEntity
  8
0
  6
SLD-Durchgehend
 62
     7
370
    15
100
AcDbPolyline
 90
        8
 70
   128
 43
0.0
 10
66.0507137186
 20
133.8332772282
 10
66.060178508
 20
133.9686300633
 10
66.0695104111
 20
134.1020830003
 10
66.0774383464
 20
134.2154584852
 10
66.0831591005
 20
134.2972677228
 10
66.0862058957
 20
134.3408387181
 10
66.0863073989
 20
134.3422915814
 10
66.0853194621
 20
134.3281634179
  0
LWPOLYLINE
  5
234
330
1F
100
AcDbEntity
  8
0
  6
SLD-Durchgehend
 62
     7
370
    15
100
AcDbPolyline
 90
        4
 70
   128
 43
0.0
 10
66.0853194621
 20
134.3281634179
 10
67.1760699301
 20
134.0828511891
 10
68.2892295122
 20
133.8604625342
 10
70.0055135935
 20
133.4772717235
  0
LWPOLYLINE
  5
235
330
1F
100
AcDbEntity
  8
0
  6
SLD-Durchgehend
 62
     7
370
    15
100
AcDbPolyline
 90
        8
 70
   128
 43
0.0
 10
70.0055135935
 20
133.4772717235
 10
70.00584561
 20
133.4820177433
 10
70.0053669102
 20
133.4751706597
 10
70.0041496716
 20
133.4577661035
 10
70.0023778304
 20
133.4324248162
 10
70.000243239
 20
133.4019016502
 10
69.997939147
 20
133.3689495948
 10
69.9968285448
 20
133.3530668196
  0
LINE
  5
236
330
1F
100
AcDbEntity
  8
0
  6
SLD-Durchgehend
 62
     7
370
    15
100
AcDbLine
 10
69.3185498062
 20
123.653229515
 30
0.0
 11
69.9968285448
 21
133.3530668196
 31
0.0
  0
LINE
  5
237
330
1F
100
AcDbEntity
  8
0
  6
SLD-Durchgehend
 62
     7
370
    15
100
AcDbLine
 10
65.3414257508
 20
123.6899869544
 30
0.0
 11
66.0507137186
 21
133.8332772282
 31
0.0
  0
LWPOLYLINE
  5
238
330
1F
100
AcDbEntity
  8
0
  6
SLD-Durchgehend
 62
     7
370
    15
100
AcDbPolyline
 90
        4
 70
   128
 43
0.0
 10
69.3185498062
 20
123.653229515
 10
69.3169535193
 20
123.6304018674
 10
69.3152212593
 20
123.6056305495
 10
69.3140284679
 20
123.5885724452
  0
LINE
  5
239
330
1F
100
AcDbEntity
  8
0
  6
SLD-Durchgehend
 62
     7
370
    15
100
AcDbLine
 10
65.3233412708
 20
123.4313670573
 30
0.0
 11
65.3414257508
 21
123.6899869544
 31
0.0
  0
LINE
  5
23A
330
1F
100
AcDbEntity
  8
0
  6
SLD-Durchgehend
 62
     7
370
    15
100
AcDbLine
 10
65.0997035959
 20
120.2331997481
 30
0.0
 11
65.4021657942
 21
120.2579347444
 31
0.0
  0
LINE
  5
23B
330
1F
100
AcDbEntity
  8
0
  6
SLD-Durchgehend
 62
     7
370
    15
100
AcDbLine
 10
69.3125516231
 20
123.5674519119
 30
0.0
 11
69.3140284679
 21
123.5885724452
 31
0.0
  0
LINE
  5
23C
330
1F
100
AcDbEntity
  8
0
  6
SLD-Durchgehend
 62
     7
370
    15
100
AcDbLine
 10
65.0997035959
 20
120.2331997481
 30
0.0
 11
65.3233412708
 21
123.4313670573
 31
0.0
  0
LINE
  5
23D
330
1F
100
AcDbEntity
  8
0
  6
SLD-Durchgehend
 62
     7
370
    15
100
AcDbLine
 10
82.586428482
 20
113.8440239736
 30
0.0
 11
82.586428482
 21
112.3440239606
 31
0.0
  0
ARC
  5
23E
330
1F
100
AcDbEntity
  8
0
  6
SLD-Durchgehend
 62
     7
370
    15
100
AcDbCircle
 10
66.0864285714
 20
112.3440239606
 30
0.0
 40
16.50000000000001
100
AcDbArc
 50
261.7087285136
 51
0.0
  0
LINE
  5
23F
330
1F
100
AcDbEntity
  8
0
  6
SLD-Durchgehend
 62
     7
370
    15
100
AcDbLine
 10
65.626433276
 20
123.4651088742
 30
0.0
 11
63.707038626
 21
96.0164863643
 31
0.0
  0
LINE
  5
240
330
1F
100
AcDbEntity
  8
0
  6
SLD-Durchgehend
 62
     7
370
    15
100
AcDbLine
 10
65.626433276
 20
123.4651088742
 30
0.0
 11
67.805963667
 21
123.5256224898
 31
0.0
  0
LINE
  5
241
330
1F
100
AcDbEntity
  8
0
  6
SLD-Durchgehend
 62
     7
370
    15
100
AcDbLine
 10
67.805963667
 20
123.5256224898
 30
0.0
 11
69.2975936513
 21
123.3535420177
 31
0.0
  0
LINE
  5
242
330
1F
100
AcDbEntity
  8
0
  6
SLD-Durchgehend
 62
     7
370
    15
100
AcDbLine
 10
69.3125516231
 20
123.5674519119
 30
0.0
 11
69.2975936513
 21
123.3535420177
 31
0.0
  0
LINE
  5
243
330
1F
100
AcDbEntity
  8
0
  6
SLD-Durchgehend
 62
     7
370
    15
100
AcDbLine
 10
73.7680321149
 20
131.9515399662
 30
0.0
 11
69.9664958342
 21
132.9192884293
 31
0.0
  0
ARC
  5
244
330
1F
100
AcDbEntity
  8
0
  6
SLD-Durchgehend
 62
     7
370
    15
100
AcDbCircle
 10
59.5864285714
 20
113.8440239606
 30
0.0
 40
23.00000000000001
100
AcDbArc
 50
0.0
 51
51.9323507823
  0
LINE
  5
245
330
1F
100
AcDbEntity
  8
0
  6
SLD-Durchgehend
 62
     7
370
    15
100
AcDbLine
 10
69.9898450225
 20
133.2531992373
 30
0.0
 11
73.0871533565
 21
132.4647229192
 31
0.0
  0
ARC
  5
246
330
1F
100
AcDbEntity
  8
0
  6
SLD-Durchgehend
 62
     7
370
    15
100
AcDbCircle
 10
59.5864285714
 20
113.8440239606
 30
0.0
 40
23.00000000000001
100
AcDbArc
 50
51.9323507823
 51
54.0564394646
  0
ARC
  5
247
330
1F
100
AcDbEntity
  8
0
  6
SLD-Durchgehend
 62
     7
370
    15
100
AcDbCircle
 10
66.0743850901
 20
112.4513596919
 30
0.0
 40
15.89206192145352
100
AcDbArc
 50
91.4708591471
 51
98.4963514946
  0
ARC
  5
248
330
1F
100
AcDbEntity
  8
0
  6
SLD-Durchgehend
 62
     7
370
    15
100
AcDbCircle
 10
66.0862547341
 20
112.3432390676
 30
0.0
 40
15.9991977863958
100
AcDbArc
 50
253.5175827783
 51
261.5198340703
  0
ELLIPSE
  5
249
330
1F
100
AcDbEntity
  8
0
  6
SLD-Durchgehend
 62
     7
370
    15
100
AcDbEllipse
 10
58.9744524282
 20
120.968342207
 30
0.0
 11
1.760196824718157
 21
1.835933670849755
 31
0.0
210
0.0
220
0.0
230
1.0
 40
0.8100956337
 41
0.0
 42
6.283185307179586
  0
ARC
  5
24A
330
1F
100
AcDbEntity
  8
0
  6
SLD-Durchgehend
 62
     7
370
    15
100
AcDbCircle
 10
66.0864285714
 20
112.3440239606
 30
0.0
 40
16.00000000000003
100
AcDbArc
 50
98.4822165171
 51
253.5177834829
  0
LINE
  5
24B
330
1F
100
AcDbEntity
  8
0
  6
SLD-Durchgehend
 62
     7
370
    15
100
AcDbLine
 10
57.0864289589
 20
82.7837467221
 30
0.0
 11
57.0864289589
 21
82.1571063277
 31
0.0
  0
ARC
  5
24C
330
1F
100
AcDbEntity
  8
0
  6
SLD-Durchgehend
 62
     7
370
    15
100
AcDbCircle
 10
66.0864285714
 20
112.3440239606
 30
0.0
 40
31.50000000000002
100
AcDbArc
 50
140.9381656697
 51
253.398450401
  0
LINE
  5
24D
330
1F
100
AcDbEntity
  8
0
  6
SLD-Durchgehend
 62
     7
370
    15
100
AcDbLine
 10
41.6277389563
 20
132.1940246997
 30
0.0
 11
42.4054771251
 21
132.1940246997
 31
0.0
  0
LINE
  5
24E
330
1F
100
AcDbEntity
  8
0
  6
SLD-Durchgehend
 62
     7
370
    15
100
AcDbLine
 10
58.0864281914
 20
142.1904649613
 30
0.0
 11
58.0864281914
 21
142.8112193969
 31
0.0
  0
LINE
  5
24F
330
1F
100
AcDbEntity
  8
0
  6
SLD-Durchgehend
 62
     7
370
    15
100
AcDbLine
 10
46.2364278323
 20
136.8027135757
 30
0.0
 11
46.2364278323
 21
136.0249754068
 31
0.0
  0
ARC
  5
250
330
1F
100
AcDbEntity
  8
0
  6
SLD-Durchgehend
 62
     7
370
    15
100
AcDbCircle
 10
66.0864285714
 20
112.3440239606
 30
0.0
 40
31.50000000000002
100
AcDbArc
 50
104.7124579609
 51
129.0618343303
  0
LINE
  5
251
330
1F
100
AcDbEntity
  8
0
  6
SLD-Durchgehend
 62
     7
370
    15
100
AcDbLine
 10
74.0864289514
 20
142.8112193969
 30
0.0
 11
74.0864289514
 21
142.1904649613
 31
0.0
  0
ARC
  5
252
330
1F
100
AcDbEntity
  8
0
  6
SLD-Durchgehend
 62
     7
370
    15
100
AcDbCircle
 10
66.0864285714
 20
112.3440239606
 30
0.0
 40
31.50000000000003
100
AcDbArc
 50
286.601549599
 51
75.2875420391
  0
LINE
  5
253
330
1F
100
AcDbEntity
  8
0
  6
SLD-Durchgehend
 62
     7
370
    15
100
AcDbLine
 10
75.086428184
 20
82.1571063277
 30
0.0
 11
75.086428184
 21
82.7837467221
 31
0.0
  0
LINE
  5
254
330
1F
100
AcDbEntity
  8
0
  6
SLD-Durchgehend
 62
     7
370
    15
100
AcDbLine
 10
74.0864289514
 20
138.7440238175
 30
0.0
 11
58.0864281914
 21
138.7440238175
 31
0.0
  0
LINE
  5
255
330
1F
100
AcDbEntity
  8
0
  6
SLD-Durchgehend
 62
     7
370
    15
100
AcDbLine
 10
75.086428184
 20
85.9440241036
 30
0.0
 11
57.0864289589
 21
85.9440241036
 31
0.0
  0
LINE
  5
256
330
1F
100
AcDbEntity
  8
0
  6
SLD-Durchgehend
 62
     7
370
    15
100
AcDbLine
 10
74.0864289514
 20
142.1904649613
 30
0.0
 11
74.0864289514
 21
138.7440238175
 31
0.0
  0
LINE
  5
257
330
1F
100
AcDbEntity
  8
0
  6
SLD-Durchgehend
 62
     7
370
    15
100
AcDbLine
 10
75.086428184
 20
82.7837467221
 30
0.0
 11
75.086428184
 21
85.9440241036
 31
0.0
  0
LINE
  5
258
330
1F
100
AcDbEntity
  8
0
  6
SLD-Durchgehend
 62
     7
370
    15
100
AcDbLine
 10
58.0864281914
 20
138.7440238175
 30
0.0
 11
58.0864281914
 21
142.1904649613
 31
0.0
  0
LINE
  5
259
330
1F
100
AcDbEntity
  8
0
  6
SLD-Durchgehend
 62
     7
370
    15
100
AcDbLine
 10
57.0864289589
 20
85.9440241036
 30
0.0
 11
57.0864289589
 21
82.7837467221
 31
0.0
  0
LINE
  5
25A
330
1F
100
AcDbEntity
  8
0
  6
SLD-Durchgehend
 62
     7
370
    15
100
AcDbLine
 10
46.2364278323
 20
136.0249754068
 30
0.0
 11
46.2364278323
 21
132.1940246997
 31
0.0
  0
LINE
  5
25B
330
1F
100
AcDbEntity
  8
0
  6
SLD-Durchgehend
 62
     7
370
    15
100
AcDbLine
 10
42.4054771251
 20
132.1940246997
 30
0.0
 11
46.2364278323
 21
132.1940246997
 31
0.0
  0
ARC
  5
25C
330
1F
100
AcDbEntity
  8
0
  6
SLD-Durchgehend
 62
     7
370
    15
100
AcDbCircle
 10
66.0878339401
 20
112.3353445405
 30
0.0
 40
31.49128069790736
100
AcDbArc
 50
271.8171650148
 51
286.6036104447
  0
ARC
  5
25D
330
1F
100
AcDbEntity
  8
0
  6
SLD-Durchgehend
 62
     7
370
    15
100
AcDbCircle
 10
66.0895754143
 20
112.3634184924
 30
0.0
 40
31.5194850954944
100
AcDbArc
 50
253.4030421033
 51
268.1761824372
  0
ARC
  5
25E
330
1F
100
AcDbEntity
  8
0
  6
SLD-Durchgehend
 62
     7
370
    15
100
AcDbCircle
 10
66.0864285714
 20
112.3405972272
 30
0.0
 40
31.5033144524266
100
AcDbArc
 50
75.289124154
 51
104.710875846
  0
ARC
  5
25F
330
1F
100
AcDbEntity
  8
0
  6
SLD-Durchgehend
 62
     7
370
    15
100
AcDbCircle
 10
66.0860777009
 20
112.344374831
 30
0.0
 40
31.49950688590017
100
AcDbArc
 50
129.0617420529
 51
140.9382579471
  0
ARC
  5
260
330
1F
100
AcDbEntity
  8
0
  6
SLD-Durchgehend
 62
     7
370
    15
100
AcDbCircle
 10
66.0864285714
 20
112.3440239606
 30
0.0
 40
31.50000000000001
100
AcDbArc
 50
268.180780706
 51
271.819219294
  0
CIRCLE
  5
261
330
1F
100
AcDbEntity
  8
VERMASSUNG
  6
SLD-Punktstrich
100
AcDbCircle
 10
66.0853194621
 20
114.3281629584
 30
0.0
 40
20.0
  0
POINT
  5
262
330
1F
100
AcDbEntity
  8
VERMASSUNG
100
AcDbPoint
 10
66.0853194621
 20
134.3281629584
 30
0.0
  0
DIMENSION
  5
263
330
1F
100
AcDbEntity
  8
VERMASSUNG
100
AcDbDimension
  2
_D_5
 10
29.7227337065
 20
134.3281629584
 30
0.0
 11
29.7227337065
 21
114.3281629584
 31
0.0
 70
   160
  1
%%c<>
 71
     2
 42
-1.0
  3
SLDDIMSTYLE0
100
AcDbAlignedDimension
 13
66.0853194621
 23
94.3281629584
 33
0.0
 14
66.0853194621
 24
134.3281629584
 34
0.0
 50
90.0
100
AcDbRotatedDimension
  0
INSERT
  5
279
330
1F
100
AcDbEntity
  8
VERMASSUNG
100
AcDbBlockReference
  2
SW_CENTERMARKSYMBOL_0
 10
66.0864285714
 20
112.3440239606
 30
0.0
  0
OLE2FRAME
  5
27A
330
1F
100
AcDbEntity
  8
0
100
AcDbOle2Frame
 70
     2
  3
Paintbrush-Bild
 10
13.8511154363
 20
38.264191557
 30
0.0
 11
51.6290888628
 21
31.9806341108
 31
0.0
 71
     2
 72
     0
 73
     1
 90
    12928
310
80552BED0767C5B32B40DDAF6807D121434000000000000000006FFBDDFB85D0
310
4940DDAF6807D121434000000000000000006FFBDDFB85D04940416F4BD60AFB
310
3F4000000000000000002BED0767C5B32B40416F4BD60AFB3F40000000000000
310
0000000000000100000000010000010000000100000000000100000000320000
310
D0CF11E0A1B11AE1000000000000000000000000000000003E000300FEFF0900
310
0600000000000000000000000100000001000000000000000010000002000000
310
01000000FEFFFFFF0000000000000000FFFFFFFFFFFFFFFFFFFFFFFFFFFFFFFF
310
FFFFFFFFFFFFFFFFFFFFFFFFFFFFFFFFFFFFFFFFFFFFFFFFFFFFFFFFFFFFFFFF
310
FFFFFFFFFFFFFFFFFFFFFFFFFFFFFFFFFFFFFFFFFFFFFFFFFFFFFFFFFFFFFFFF
310
FFFFFFFFFFFFFFFFFFFFFFFFFFFFFFFFFFFFFFFFFFFFFFFFFFFFFFFFFFFFFFFF
310
FFFFFFFFFFFFFFFFFFFFFFFFFFFFFFFFFFFFFFFFFFFFFFFFFFFFFFFFFFFFFFFF
310
FFFFFFFFFFFFFFFFFFFFFFFFFFFFFFFFFFFFFFFFFFFFFFFFFFFFFFFFFFFFFFFF
310
FFFFFFFFFFFFFFFFFFFFFFFFFFFFFFFFFFFFFFFFFFFFFFFFFFFFFFFFFFFFFFFF
310
FFFFFFFFFFFFFFFFFFFFFFFFFFFFFFFFFFFFFFFFFFFFFFFFFFFFFFFFFFFFFFFF
310
FFFFFFFFFFFFFFFFFFFFFFFFFFFFFFFFFFFFFFFFFFFFFFFFFFFFFFFFFFFFFFFF
310
FFFFFFFFFFFFFFFFFFFFFFFFFFFFFFFFFFFFFFFFFFFFFFFFFFFFFFFFFFFFFFFF
310
FFFFFFFFFFFFFFFFFFFFFFFFFFFFFFFFFFFFFFFFFFFFFFFFFFFFFFFFFFFFFFFF
310
FFFFFFFFFFFFFFFFFFFFFFFFFFFFFFFFFFFFFFFFFFFFFFFFFFFFFFFFFFFFFFFF
310
FFFFFFFFFFFFFFFFFFFFFFFFFFFFFFFFFFFFFFFFFFFFFFFFFFFFFFFFFFFFFFFF
310
FFFFFFFFFFFFFFFFFFFFFFFFFFFFFFFFFFFFFFFFFFFFFFFFFFFFFFFFFFFFFFFF
310
FDFFFFFFFEFFFFFFFEFFFFFFFEFFFFFF05000000060000000700000008000000
310
090000000A0000000B0000000C0000000D0000000E0000000F00000010000000
310
11000000120000001300000014000000150000001600000017000000FEFFFFFF
310
FFFFFFFFFFFFFFFFFFFFFFFFFFFFFFFFFFFFFFFFFFFFFFFFFFFFFFFFFFFFFFFF
310
FFFFFFFFFFFFFFFFFFFFFFFFFFFFFFFFFFFFFFFFFFFFFFFFFFFFFFFFFFFFFFFF
310
FFFFFFFFFFFFFFFFFFFFFFFFFFFFFFFFFFFFFFFFFFFFFFFFFFFFFFFFFFFFFFFF
310
FFFFFFFFFFFFFFFFFFFFFFFFFFFFFFFFFFFFFFFFFFFFFFFFFFFFFFFFFFFFFFFF
310
FFFFFFFFFFFFFFFFFFFFFFFFFFFFFFFFFFFFFFFFFFFFFFFFFFFFFFFFFFFFFFFF
310
FFFFFFFFFFFFFFFFFFFFFFFFFFFFFFFFFFFFFFFFFFFFFFFFFFFFFFFFFFFFFFFF
310
FFFFFFFFFFFFFFFFFFFFFFFFFFFFFFFFFFFFFFFFFFFFFFFFFFFFFFFFFFFFFFFF
310
FFFFFFFFFFFFFFFFFFFFFFFFFFFFFFFFFFFFFFFFFFFFFFFFFFFFFFFFFFFFFFFF
310
FFFFFFFFFFFFFFFFFFFFFFFFFFFFFFFFFFFFFFFFFFFFFFFFFFFFFFFFFFFFFFFF
310
FFFFFFFFFFFFFFFFFFFFFFFFFFFFFFFFFFFFFFFFFFFFFFFFFFFFFFFFFFFFFFFF
310
FFFFFFFFFFFFFFFFFFFFFFFFFFFFFFFFFFFFFFFFFFFFFFFFFFFFFFFFFFFFFFFF
310
FFFFFFFFFFFFFFFFFFFFFFFFFFFFFFFFFFFFFFFFFFFFFFFFFFFFFFFFFFFFFFFF
310
FFFFFFFFFFFFFFFFFFFFFFFFFFFFFFFFFFFFFFFFFFFFFFFFFFFFFFFFFFFFFFFF
310
52006F006F007400200045006E00740072007900000000000000000000000000
310
0000000000000000000000000000000000000000000000000000000000000000
310
16000500FFFFFFFFFFFFFFFF020000000A00030000000000C000000000000046
310
000000000000000000000000E0432116ED49D00103000000C000000000000000
310
01004F006C006500000000000000000000000000000000000000000000000000
310
0000000000000000000000000000000000000000000000000000000000000000
310
0A000200FFFFFFFFFFFFFFFFFFFFFFFF00000000000000000000000000000000
310
0000000000000000000000000000000000000000000000001400000000000000
310
010043006F006D0070004F0062006A0000000000000000000000000000000000
310
0000000000000000000000000000000000000000000000000000000000000000
310
120002010100000003000000FFFFFFFF00000000000000000000000000000000
310
0000000000000000000000000000000000000000010000004D00000000000000
310
01004F006C006500310030004E00610074006900760065000000000000000000
310
0000000000000000000000000000000000000000000000000000000000000000
310
1A000200FFFFFFFFFFFFFFFFFFFFFFFF00000000000000000000000000000000
310
0000000000000000000000000000000000000000040000002426000000000000
310
FEFFFFFF02000000FEFFFFFFFFFFFFFFFFFFFFFFFFFFFFFFFFFFFFFFFFFFFFFF
310
FFFFFFFFFFFFFFFFFFFFFFFFFFFFFFFFFFFFFFFFFFFFFFFFFFFFFFFFFFFFFFFF
310
FFFFFFFFFFFFFFFFFFFFFFFFFFFFFFFFFFFFFFFFFFFFFFFFFFFFFFFFFFFFFFFF
310
FFFFFFFFFFFFFFFFFFFFFFFFFFFFFFFFFFFFFFFFFFFFFFFFFFFFFFFFFFFFFFFF
310
FFFFFFFFFFFFFFFFFFFFFFFFFFFFFFFFFFFFFFFFFFFFFFFFFFFFFFFFFFFFFFFF
310
FFFFFFFFFFFFFFFFFFFFFFFFFFFFFFFFFFFFFFFFFFFFFFFFFFFFFFFFFFFFFFFF
310
FFFFFFFFFFFFFFFFFFFFFFFFFFFFFFFFFFFFFFFFFFFFFFFFFFFFFFFFFFFFFFFF
310
FFFFFFFFFFFFFFFFFFFFFFFFFFFFFFFFFFFFFFFFFFFFFFFFFFFFFFFFFFFFFFFF
310
FFFFFFFFFFFFFFFFFFFFFFFFFFFFFFFFFFFFFFFFFFFFFFFFFFFFFFFFFFFFFFFF
310
FFFFFFFFFFFFFFFFFFFFFFFFFFFFFFFFFFFFFFFFFFFFFFFFFFFFFFFFFFFFFFFF
310
FFFFFFFFFFFFFFFFFFFFFFFFFFFFFFFFFFFFFFFFFFFFFFFFFFFFFFFFFFFFFFFF
310
FFFFFFFFFFFFFFFFFFFFFFFFFFFFFFFFFFFFFFFFFFFFFFFFFFFFFFFFFFFFFFFF
310
FFFFFFFFFFFFFFFFFFFFFFFFFFFFFFFFFFFFFFFFFFFFFFFFFFFFFFFFFFFFFFFF
310
FFFFFFFFFFFFFFFFFFFFFFFFFFFFFFFFFFFFFFFFFFFFFFFFFFFFFFFFFFFFFFFF
310
FFFFFFFFFFFFFFFFFFFFFFFFFFFFFFFFFFFFFFFFFFFFFFFFFFFFFFFFFFFFFFFF
310
FFFFFFFFFFFFFFFFFFFFFFFFFFFFFFFFFFFFFFFFFFFFFFFFFFFFFFFFFFFFFFFF
310
0100000200000000000000000000000000000000000000000000000000000000
310
0000000000000000000000000000000000000000000000000000000000000000
310
0100FEFF030A0000FFFFFFFF0A00030000000000C00000000000004607000000
310
5042727573680007000000504272757368000700000050427275736800F439B2
310
7100000000000000000000000000000000000000000000000000000000000000
310
0000000000000000000000000000000000000000000000000000000000000000
310
0000000000000000000000000000000000000000000000000000000000000000
310
0000000000000000000000000000000000000000000000000000000000000000
310
0000000000000000000000000000000000000000000000000000000000000000
310
0000000000000000000000000000000000000000000000000000000000000000
310
0000000000000000000000000000000000000000000000000000000000000000
310
0000000000000000000000000000000000000000000000000000000000000000
310
0000000000000000000000000000000000000000000000000000000000000000
310
0000000000000000000000000000000000000000000000000000000000000000
310
0000000000000000000000000000000000000000000000000000000000000000
310
0000000000000000000000000000000000000000000000000000000000000000
310
20260000424D0E260000000000003E00000028000000B40200006E0000000100
310
01000000000000000000130B0000130B00000200000002000000000000FFFFFF
310
FFFFFFFFFFFFFFFFFFFFFFFFFFFFFFFFFFFFFFFFFFFFFFFFFFFFFFFFFFFFFFFF
310
FFFFFFFFFFFFFFFFFFFFFFFFFFFFFFFFFFFFFFFFFFFFFFFFFFFFFFFFFFFFFFFF
310
FFFFFFFFFFFFFFFFFFFFFFFFFFFFFFFFFFFFFFFFFFFFFFFFF000FFFFFFFFFFFF
310
FFFFFFFFFFFFFFFFFFFFFFFFFFFFFFFFFFFFFFFFFFFFFFFFFFFFFFFFFFFFFFFF
310
FFFFFFFFFFFFFFFFFFFFFFFFFFFFFFFFFFFFFFFFFFFFFFFFFFFFFFFFFFFFFFFF
310
FFFFFFFFFFFFFFFFFFFFFFFFFFFFFFFFF000FFFFFFFFFFFFFFFFFFFFFFFFFFFF
310
FFFFFFFFFFFFFFFFFFFFFFFFFFFFFFFFFFFFFFFFFFFFFFFFFFFFFFFFFFFFFFFF
310
FFFFFFFFFFFFFFFFFFFFFFFFFFFFFFFFFFFFFFFFFFFFFFFFFFFFFFFFFFFFFFFF
310
FFFFFFFFFFFFFFFFF000FFFFFFFFFFFFFFFFFFFFFFFFFFFFFFFFFFFFFFFFFFFF
310
FFFFFFFFFFFFFFFFFFFFFFFFFFFFFFFFFFFFFFFFFFFFFFFFFFFFFFFFFFFFFFFF
310
FFFFFFFFFFFFFFFFFFFFFFFFFFFFFFFFFFFFFFFFFFFFFFFFFFFFFFFFFFFFFFFF
310
F000FFFFFFFFFFFFFFFFFFFFFFFFFFFFFFFFFFFFFFFFFFFFFFFFFFFFFFFFFFFF
310
FFFFFFFFFFFFFFFFFFFFFFFFFFFFFFFFFFFFFFFFFFFFFFFFFFFFFFFFFFFFFFFF
310
FFFFFFFFFFFFFFFFFFFFFFFFFFFFFFFFFFFFFFFFFFFFFFFFF000FFFFFFFFFFFF
310
FFFFFFFFFFFFFFFFFFFFFFFFFFFFFFFFFFFFFFFFFFFFFFFFFFFFFFFFFFFFFFFF
310
FFFFFFFFFFFFFFFFFFFFFFFFFFFFFFFFFFFFFFFFFFFFFFFFFFFFFFFFFFFFFFFF
310
FFFFFFFFFFFFFFFFFFFFFFFFFFFFFFFFF000FFFFFFFFFFFFFFFFFFFFFFFFFFFF
310
FFFFFFFFFFFFFFFFFFFFFFFFFFFFFFFFFFFFFFFFFFFFFFFFFFFFFFFFFFFFFFFF
310
FFFFFFFFFFFFFFFFFFFFFFFFFFFFFFFFFFFFFFFFFFFFFFFFFFFFFFFFFFFFFFFF
310
FFFFFFFFFFFFFFFFF000FFFFFFFFFFFFFFFFFFFFFFFFFFFFFFFFFFFFFFFFFFFF
310
FFFFFFFFFFFFFFFFFFFFFFFFFFFFFFFFFFFFFFFFFFFFFFFFFFFFFFFFFFFFFFFF
310
FFFFFFFFFFFFFFFFFFFFFFFFFFFFFFFFFFFFFFFFFFFFFFFFFFFFFFFFFFFFFFFF
310
F000FFFFFFFFFFFFFFFFFFFFFFFFFFFFFFFFFFFFFFFFFFFFFFFFFFFFFFFFFFFF
310
FFFFFFFFFFFFFFFFFFFFFFFFFFFFFFFFFFFFFFFFFFFFFFFFFFFFFFFFFFFFFFFF
310
FFFFFFFFFFFFFFFFFFFFFFFFFFFFFFFFFFFFFFFFFFFFFFFFF000FFFFFFFFFFFF
310
FFFFFFFFFFFFFFFFFFFFFFFFFFFFFFFFFFFFFFFFFFFFFFFFFFFFFFFFFFFFFFFF
310
FFFFFFFFFFFFFFFFFFFFFFFFFFFFFFFFFFFFFFFFFFFFFFFFFFFFFFFFFFFFFFFF
310
FFFFFFFFFFFFFFFFFFFFFFFFFFFFFFFFF000FFFFFFFFFFFFFFFFFFFFFFFFFFFF
310
FFFFFFFFFFFFFFFFFFFFFFFFFFFFFFFFFFFFFFFFFFFFFFFFFFFFFFFFFFFFFFFF
310
FFFFFFFFFFFFFFFFFFFFFFFFFFFFFFFFFFFFFFFFFFFFFFFFFFFFFFFFFFFFFFFF
310
FFFFFFFFFFFFFFFFF000FFFFFFFFFFFFFFFFFFFFFFFFFFFFFFFFFFFFFFFFFFFF
310
FFFFFFFFFFFFFFFFFFFFFFFFFFFFFFFFFFFFFFFFFFFFFFFFFFFFFFFFFFFFFFFF
310
FFFFFFFFFFFFFFFFFFFFFFFFFFFFFFFFFFFFFFFFFFFFFFFFFFFFFFFFFFFFFFFF
310
F000FFFFFFFFFFFFFFFFFFFFFFFFFFFFFFFFFFFFFFFFFFFFFFFFFFFFFFFFFFFF
310
FFFFFFFFFFFFFFFFFFFFFFFFFFFFFFFFFFFFFFFFFFFFFFFFFFFFFFFFFFFFFFFF
310
FFFFFFFFFFFFFFFFFFFFFFFFFFFFFFFFFFFFFFFFFFFFFFFFF000FFFFFFFFFFFF
310
FFFFFFFFFFFFFFFFFFFFFFFFFFFFFFFFFFFFFFFFFFFFFFFFFFFFFFFFFFFFFFFF
310
FFFFFFFFFFFFFFFFFFFFFFFFFFFFFFFFFFFFFFFFFFFFFFFFFFFFFFFFFFFFFFFF
310
FFFFFFFFFFFFFFFFFFFFFFFFFFFFFFFFF000FFFFFFFFFFFFFFFFFFFFFFFFFFFF
310
FFFFFFFFFFFFFFFFFFFFFFFFFFFFFFFFFFFFFFFFFFFFFFFFFFFFFFFFFFFFFFFF
310
FFFFFFFFFFFFFFFFFFFFFFFFFFFFFFFFFFFFFFFFFFFFFFFFFFFFFFFFFFFFFFFF
310
FFFFFFFFFFFFFFFFF000FFFFFFFFFFFFFFFFFFFFFFFFFFFFFFFFFFFFFFFFFFFF
310
FFFFFFFFFFFFFFFFFFFFFFFFFFFFFFFFFFFFFFFFFFFFFFFFFFFFFFFFFFFFFFFF
310
FFFFFFFFFFFFFFFFFFFFFFFFFFFFFFFFFFFFFFFFFFFFFFFFFFFFFFFFFFFFFFFF
310
F000FFFFFFFFFFFFFFFFFFFFFFFFFFFFFFFFFFFFFFFFFFFFFFFFFFFFFFFFFFFF
310
FFFFFFFFFFFFFFFFFFFFFFFFFFFFFFFFFFFFFFFFFFFFFFFFFFFFFFFFFFFFFFFF
310
FFFFFFFFFFFFFFFFFFFFFFFFFFFFFFFFFFFFFFFFFFFFFFFFF000FFFFFFFFFFFF
310
FFFFFFFFFFFFFFFFFFFFFFFFFFFFFFFFFFFFFFFFFFFFFFFFFFFFFFFFFFFFFFFF
310
FFFFFFFFFFFFFFFFFFFFFFFFFFFFFFFFFFFFFFFFFFFFFFFFFFFFFFFFFFFFFFFF
310
FFFFFFFFFFFFFFFFFFFFFFFFFFFFFFFFF000FFFFFFFFFFFFFFFFFFFFFFFFFFFF
310
FFFFFFFFFFFFFFFFFFFFFFFFFFFFFFFFFFFFFFFFFFFFFFFFFFFFFFFFFFFFFFFF
310
FFFFFFFFFFFFFFFFFFFFFFFFFFFFFFFFFFFFFFFFFFFFFFFFFFFFFFFFFFFFFFFF
310
FFFFFFFFFFFFFFFFF000FFFFF80003FFFFFFFFFFFFFFFFFFFFFFFFFFFFFFFFFF
310
FFFFF00007FFFFFFFFFF00007FFFFFF800000000000000007FFFFFFFFFFFFFFF
310
FFFFFFFC001FFFFFFFFFFFFFFC001FFFFFFFFFFFFFFFFFFFFFFFFFFE0007FFFF
310
F000FFFF8000007FFFFFFFF8000FFFFFC0007FFFFF80007FFFFF0000007FFFFF
310
FFF8000007FFFFF800000000000000007FFFFFF0001FFFFFFFFFFFC00001FFFF
310
FFFFFFFFC00001FFFFFFFF000000000003FFFFE000007FFFF000FFFE0000000F
310
FFFFFFF0000FFFFF80007FFFFF80007FFFFC0000001FFFFFFFC0000001FFFFF8
310
00000000000000007FFFFFF0001FFFFFFFFFFE0000003FFFFFFFFFFE0000003F
310
FFFFFF000000000003FFFF0000000FFFF000FFF800000003FFFFFFF00007FFFF
310
80007FFFFF80007FFFF000000007FFFFFF000000003FFFF80000000000000000
310
7FFFFFF0001FFFFFFFFFF80000000FFFFFFFFFF80000000FFFFFFF0000000000
310
03FFFC00000003FFF000FFE000000000FFFFFFF00007FFFF80003FFFFF80007F
310
FFC000000001FFFFFC000000001FFFF800000000000000007FFFFFF0001FFFFF
310
FFFFE000000003FFFFFFFFE000000003FFFFFF000000000003FFF000000000FF
310
F000FF80000000007FFFFFF00007FFFF80003FFFFF80007FFF8000000000FFFF
310
F80000000007FFF800000000000000007FFFFFF0001FFFFFFFFFC000000001FF
310
FFFFFFC000000001FFFFFF000000000003FFC0000000007FF000FF0000000000
310
3FFFFFE00007FFFF00003FFFFF80007FFE00000000003FFFF00000000003FFF8
310
00000000000000007FFFFFF0001FFFFFFFFF8000000000FFFFFFFF8000000000
310
FFFFFF000000000003FF80000000003FF000FE00000000001FFFFFE00003FFFF
310
00003FFFFF80007FFC00000000001FFFE00000000001FFF8000001FFFE000000
310
7FFFFFF0001FFFFFFFFE00000000003FFFFFFE00000000003FFFFF0000000000
310
03FF00000000001FF000FC00000000000FFFFFE00003FFFF00001FFFFF80007F
310
F800000000001FFFC00000000000FFF8000001FFFE0000007FFFFFF0001FFFFF
310
FFFC00000000001FFFFFFC00000000001FFFFF000000000003FE00000000000F
310
F000F8000000000007FFFFE00003FFFF00001FFFFF80007FF800000000000FFF
310
800000000000FFF8000001FFFE0000007FFFFFF0001FFFFFFFF800000000000F
310
FFFFF800000000000FFFFF000000000003FC000000000007F000F80000000000
310
03FFFFC00003FFFE00001FFFFF80007FF0000000000007FF0000000000007FF8
310
000001FFFE0000007FFFFFF0001FFFFFFFF0000000000007FFFFF00000000000
310
07FFFF000000000003F8000000000003F000F0000000000003FFFFC00001FFFE
310
00001FFFFF80007FE0000000000007FE0000000000003FF8000001FFFE000000
310
7FFFFFF0001FFFFFFFF0000000000007FFFFF0000000000007FFFF0000000000
310
03F800001F800003F000E00001FFF00001FFFFC00001FFFE00000FFFFF80007F
310
E00001FFE00003FE00001FFF00003FF8000001FFFE0000007FFFFFF0001FFFFF
310
FFE000003E000003FFFFE000003E000003FFFF000000000003F00001FFF80001
310
F000E00007FFFC0001FFFFC00001FFFE00000FFFFF80007FC0000FFFFC0003FC
310
0000FFFFC0001FF8000001FFFE0000007FFFFFF0001FFFFFFFC00003FFE00001
310
FFFFC00003FFE00001FFFF0001FFFFFFFFF00007FFFE0001F000E0000FFFFF00
310
00FFFF800001FFFC00000FFFFF80007FC0001FFFFE0001FC0001FFFFE0001FF8
310
000001FFFE0000007FFFFFF0001FFFFFFF80000FFFF80000FFFF80000FFFF800
310
00FFFF0003FFFFFFFFE0000FFFFF8000F000C0003FFFFF8000FFFF800000FFFC
310
000007FFFF80007F80003FFFFF0001FC0003FFFFF0001FF8000001FFFE000000
310
7FFFFFF0001FFFFFFF80003FFFFE0000FFFF80003FFFFE0000FFFF0003FFFFFF
310
FFE0003FFFFF8000F000C0003FFFFF8000FFFF800000FFFC000007FFFF80007F
310
80007FFFFF8001F80007FFFFF8000FF8000001FFFE0000007FFFFFF0001FFFFF
310
FF00007FFFFF00007FFF00007FFFFF00007FFF0003FFFFFFFFE0003FFFFFC000
310
F000C0007FFFFFC000FFFF000000FFFC000007FFFF80007F8000FFFFFF8000F8
310
000FFFFFF8000FF8000001FFFE0000007FFFFFF0001FFFFFFF0000FFFFFF8000
310
7FFF0000FFFFFF80007FFF0003FFFFFFFFC0007FFFFFC00070008000FFFFFFC0
310
00FFFF000000FFF8000007FFFF80007F8000FFFFFF8000F8000FFFFFF8000FF8
310
000001FFFE0000007FFFFFF0001FFFFFFE0001FFFFFFC0003FFE0001FFFFFFC0
310
003FFF0003FFFFFFFFC0007FFFFFE00070008000FFFFFFC0007FFF0000007FF8
310
000003FFFF80007F0001FFFFFF8000F8000FFFFFF8000FF8000001FFFE000000
310
7FFFFFF0001FFFFFFE0001FFFFFFC0003FFE0001FFFFFFC0003FFF0003FFFFFF
310
FFC000FFFFFFE00070008000FFFFFFC0007FFF0000007FF8000003FFFF80007F
310
0001FFFFFF8000F8001FFFFFF8000FF8000001FFFE0000007FFFFFF0001FFFFF
310
FE0003FFFFFFE0003FFE0003FFFFFFE0003FFF0003FFFFFFFFC000FFFFFFE000
310
70008000FFFFFFC0007FFE0000007FF8000003FFFF80007F0001FFFFFF8000F0
310
001FFFFFF8000FF8000001FFFE0000007FFFFFF0001FFFFFFC0003FFFFFFE000
310
1FFC0003FFFFFFE0001FFF0003FFFFFFFFC000FFFFFFC00070008000FFFFFF80
310
007FFE0000007FF0000003FFFF80007F0001FFFFFF0000F0001FFFFFF8000FF8
310
000001FFFE0000007FFFFFF0001FFFFFFC0007FFFFFFF0001FFC0007FFFFFFF0
310
001FFF0003FFFFFFFFC000FFFFFFC00070008001FFFFFF0000FFFE0000003FF0
310
000001FFFF80007F0001FFFFFF0000F8001FFFFFF0000FF8000001FFFE000000
310
7FFFFFF0001FFFFFFC0007FFFFFFF0001FFC0007FFFFFFF0001FFF0003FFFFFF
310
FFC001FFFFFF80007000FFFFFFFFFE0000FFFE0008003FF0008001FFFF80007F
310
FFFFFFFFFC0000FFFFFFFFFFE0000FF8000001FFFE0000007FFFFFF0001FFFFF
310
F8000FFFFFFFF8000FF8000FFFFFFFF8000FFF0003FFFFFFFFFFFFFFFFFF0000
310
7000FFFFFFFFFC0000FFFC0008003FF0008001FFFF80007FFFFFFFFFF80001FF
310
FFFFFFFF80000FF8000001FFFE0000007FFFFFF0001FFFFFF8000FFFFFFFF800
310
0FF8000FFFFFFFF8000FFF0003FFFFFFFFFFFFFFFFFE0000F000FFFFFFFFE000
310
00FFFC000C003FE000C001FFFF80007FFFFFFFFFC00001FFFFFFFFFE00001FF8
310
000001FFFE0000007FFFFFF0001FFFFFF8000FFFFFFFF8000FF8000FFFFFFFF8
310
000FFF0003FFFFFFFFFFFFFFFFF00000F000FFFFFFFE000001FFFC000C001FE0
310
00C000FFFF80007FFFFFFFFE000001FFFFFFFFE000001FF80FFFFFFFFFFFFFC0
310
7FFFFFF0001FFFFFF8000FFFFFFFF8000FF8000FFFFFFFF8000FFF0003FFFFFF
310
FFFFFFFFFF800000F000FFFFFFC0000001FFFC001C001FE001C000FFFF80007F
310
FFFFFF80000003FFFFFFF80000001FF80FFFFFFFFFFFFFC07FFFFFF0001FFFFF
310
F8001FFFFFFFFC000FF8001FFFFFFFFC000FFF0003FFFFFFFFFFFFFFF0000001
310
F000FFFFF800000001FFF8001C001FE001C000FFFF80007FFFFFF800000003FF
310
FFFF800000003FF80FFFFFFFFFFFFFC07FFFFFF0001FFFFFF8001FFFFFFFFC00
310
0FF8001FFFFFFFFC000FFF0003FFFFFFFFFFFFFE00000001F000FFFFC0000000
310
03FFF8001E001FC001E000FFFF80007FFFFF8000000007FFFFFC000000003FF8
310
0FFFFFFFFFFFFFC07FFFFFF0001FFFFFF8001FFFFFFFFC000FF8001FFFFFFFFC
310
000FFF0003FFFFFFFFFFFFE000000003F000FFFE0000000007FFF8001E000FC0
310
01E0007FFF80007FFFFE0000000007FFFFE0000000007FF80FFFFFFFFFFFFFC0
310
7FFFFFF0001FFFFFF0001FFFFFFFFC0007F0001FFFFFFFFC0007FF0003FFFFFF
310
FFFFFF0000000003F000FFF80000000007FFF8001E000FC003E0007FFF80007F
310
FFF0000000000FFFFF8000000000FFF80FFFFFFFFFFFFFC07FFFFFF0001FFFFF
310
F0001FFFFFFFFC0007F0001FFFFFFFFC0007FF0003FFFFFFFFFFFC0000000007
310
F000FFE0000000000FFFF0003E000FC003E0007FFF80007FFFC0000000001FFF
310
FE0000000001FFF80FFFFFFFFFFFFFC07FFFFFF0001FFFFFF0001FFFFFFFFC00
310
07F0001FFFFFFFFC0007FF0003FFFFFFFFFFF0000000000FF000FFC000000000
310
1FFFF0003F000F8003F0003FFF80007FFF80000000003FFFF80000000003FFF8
310
0FFFFFFFFFFFFFC07FFFFFF0001FFFFFF0001FFFFFFFFC0007F0001FFFFFFFFC
310
0007FF0003FFFFFFFFFFE0000000001FF000FF00000000007FFFF0003F000780
310
03F0003FFF80007FFF00000000007FFFF00000000007FFF80FFFFFFFFFFFFFC0
310
7FFFFFF0001FFFFFF0001FFFFFFFFC0007F0001FFFFFFFFC0007FF0003FFFFFF
310
FFFF80000000007FF000FE0000000000FFFFE0003F00078007F0003FFF80007F
310
FE0000000001FFFFE0000000001FFFF80FFFFFFFFFFFFFC07FFFFFF0001FFFFF
310
F0001FFFFFFFFC0007F0001FFFFFFFFC0007FF0003FFFFFFFFFF0000000000FF
310
F000FC0000000003FFFFE0007F00078007F0003FFF80007FFC0000000007FFFF
310
C0000000007FFFF80FFFFFFFFFFFFFC07FFFFFF0001FFFFFF8001FFFFFFFFC00
310
0FF8001FFFFFFFFC000FFF0003FFFFFFFFFE0000000003FFF000FC000000000F
310
FFFFE0007F80070007F8001FFF80007FF8000000001FFFFF8000000001FFFFF8
310
0FFFFFFFFFFFFFC07FFFFFF0001FFFFFF8001FFFFFFFFC000FF8001FFFFFFFFC
310
000FFF0003FFFFFFFFFC000000000FFFF000F8000000007FFFFFE0007F800700
310
07F8001FFF80007FF000000000FFFFFF800000000FFFFFF80FFFFFFFFFFFFFC0
310
7FFFFFF0001FFFFFF8000FFFFFFFF8000FF8000FFFFFFFF8000FFF0003FFFFFF
310
FFFC000000007FFFF000F800000007FFFFFFC0007F8003000FF8001FFF80007F
310
F000000007FFFFFF000000007FFFFFF80FFFFFFFFFFFFFC07FFFFFF0001FFFFF
310
F8000FFFFFFFF8000FF8000FFFFFFFF8000FFF0003FFFFFFFFF80000000FFFFF
310
F000F0000000FFFFFFFFC000FF8003000FF8001FFF80007FE0000000FFFFFFFF
310
0000000FFFFFFFF8000001FFFE0000007FFFFFF0001FFFFFF8000FFFFFFFF800
310
0FF8000FFFFFFFF8000FFF0003FFFFFFFFF8000000FFFFFFF000F000000FFFFF
310
FFFFC000FFC002000FF8000FFF80007FE000001FFFFFFFFE000001FFFFFFFFF8
310
000001FFFE0000007FFFFFF0001FFFFFF8000FFFFFFFF8000FF8000FFFFFFFF8
310
000FFF0003FFFFFFFFF000001FFFFFFFF000E00000FFFFFFFFFFC000FFC00200
310
0FFC000FFF80007FE00001FFFFFFFFFE00001FFFFFFFFFF8000001FFFE000000
310
7FFFFFF0001FFFFFFC000FFFFFFFF8001FFC000FFFFFFFF8001FFF0003FFFFFF
310
FFF00001FFFFFFFFF000E00007FFFFFFFFFF8000FFC000001FFC000FFF80007F
310
C0000FFFFFFFFFFE0000FFFFFFFFFFF8000001FFFE0000007FFFFFF0001FFFFF
310
FC0007FFFFFFF0001FFC0007FFFFFFF0001FFF0003FFFFFFFFF00007FFFFFFFF
310
F000E0001FFFFFFFFFFF8000FFC000001FFC000FFF80007FC0003FFFFFFFFFFE
310
0001FFFFFFFFFFF8000001FFFE0000007FFFFFF0001FFFFFFC0007FFFFFFF000
310
1FFC0007FFFFFFF0001FFF0003FFFFFFFFF0001FFFFFFFFFF000E0003FFFFF00
310
03FF8001FFE000001FFC0007FF80007FC0007FFFFF0007FC0003FFFFF0003FF8
310
000001FFFE0000007FFFFFF0001FFFFFFC0003FFFFFFE0001FFC0003FFFFFFE0
310
001FFF0003FFFFFFFFF0003FFFFFFFFFF000E0003FFFFF0001FF8001FFE00000
310
1FFE0007FF80007FC0007FFFFE0003FC0007FFFFE0003FF8000001FFFE000000
310
7FFFFFF0001FFFFFFE0003FFFFFFE0003FFE0003FFFFFFE0003FFF0003FFFFFF
310
FFF0003FFFFF8001F000E0003FFFFF0001FF0001FFE000001FFE0007FF80007F
310
C0007FFFFE0003FC0007FFFFE0003FF8000001FFFE0000007FFFFFF0001FFFFF
310
FE0001FFFFFFC0003FFE0001FFFFFFC0003FFF0003FFFFFFFFF0003FFFFF0001
310
F000E0003FFFFF0003FF0001FFE000003FFE0007FF80007FC0007FFFFE0003FC
310
0007FFFFE0003FF8000001FFFE0000007FFFFFF0001FFFFFFF0001FFFFFFC000
310
7FFF0001FFFFFFC0007FFF0003FFFFFFFFF0003FFFFF0001F000E0003FFFFE00
310
03FF0003FFF000003FFE0003FF80007FC0007FFFFC0003FE0007FFFFE0003FF8
310
000001FFFE0000007FFFFFF0001FFFFFFF0000FFFFFF80007FFF0000FFFFFF80
310
007FFF0003FFFFFFFFF0003FFFFF0001F000E0003FFFFE0003FF0003FFF00000
310
3FFF0003FF80007FC0007FFFFC0007FE0007FFFFC0003FF8000001FFFE000000
310
7FFFFFF0001FFFFFFF80007FFFFF0000FFFF80007FFFFF0000FFFF0003FFFFFF
310
FFF0003FFFFF0003F000E0003FFFFC0003FE0003FFF000003FFF0003FF80007F
310
E0003FFFF80007FE0003FFFFC0007FF8000001FFFE0000007FFFFFF0001FFFFF
310
FF80003FFFFE0000FFFF80003FFFFE0000FFFF0003FFFFFFFFF0001FFFFE0003
310
F000F0001FFFF80003FE0003FFF000007FFF0001FF80007FE0003FFFF00007FE
310
0001FFFF80007FF8000001FFFE0000007FFFFFF0001FFFFFFFC0000FFFF80001
310
FFFFC0000FFFF80001FFFF0003FFFFFFFFF0001FFFFC0003F000F0000FFFF000
310
07FE0007FFF800007FFF0001FF80007FE0001FFFE00007FF0000FFFE00007FF8
310
000001FFFE0000007FFFFFF0001FFFFFFFC00003FFE00001FFFFC00003FFE000
310
01FFFF0003FFFFFFFFF8000FFFF80003F000F00003FFC00007FC0007FFF80000
310
7FFF8001FF80007FF00007FF80000FFF00007FF80000FFF8000001FFFE000000
310
7F80000000000001FFE000003E000003FFFFE000003E000003FFFF0003FFFFFF
310
FFF80003FFE00007F000F800000000000FFC0007FFF800007FFF8001FF80007F
310
F000000000000FFF000000000000FFF8000001FFFE0000007F80000000000001
310
FFF0000000000007FFFFF0000000000007FFFF0003FFFFFFFFFC00007E000007
310
F000F800000000000FFC0007FFF80000FFFF8000FF80007FF800000000001FFF
310
800000000001FFF8000001FFFE0000007F80000000000001FFF800000000000F
310
FFFFF800000000000FFFFF0003FFFFFFFFFC00000000000FF000FC0000000000
310
1FFC0007FFFC0000FFFF8000FF80007FF800000000003FFFC00000000001FFF8
310
000001FFFE0000007F80000000000001FFF800000000000FFFFFF80000000000
310
0FFFFF0003FFFFFFFFFE00000000001FF000FE00000000003FF8000FFFFC0000
310
FFFF8000FF80007FFC00000000003FFFC00000000003FFF8000001FFFE000000
310
7F80000000000001FFFC00000000001FFFFFFC00000000001FFFFF0003FFFFFF
310
FFFF00000000001FF000FF00000000003FF8000FFFFC0000FFFFC000FF80007F
310
FE00000000007FFFE00000000007FFF8000001FFFE0000007F80000000000001
310
FFFE00000000003FFFFFFE00000000003FFFFF0003FFFFFFFFFF80000000003F
310
F000FF80000000007FF8000FFFFC0001FFFFC0007F80007FFF0000000000FFFF
310
F0000000000FFFF800000000000000007F80000000000001FFFF8000000000FF
310
FFFFFF8000000000FFFFFF0003FFFFFFFFFFC0000000007FF000FFC000000000
310
FFF8000FFFFE0001FFFFC0007F80007FFF8000000001FFFFF8000000001FFFF8
310
00000000000000007F80000000000001FFFFC000000001FFFFFFFFC000000001
310
FFFFFF0003FFFFFFFFFFE000000000FFF000FFE000000003FFF0001FFFFE0001
310
FFFFC0007F80007FFFC000000007FFFFFE000000003FFFF80000000000000000
310
7F80000000000001FFFFE000000003FFFFFFFFE000000003FFFFFF0003FFFFFF
310
FFFFF000000003FFF000FFF80000000FFFF0001FFFFE0001FFFFE0007F80007F
310
FFF00000000FFFFFFF00000000FFFFF800000000000000007F80000000000001
310
FFFFF80000000FFFFFFFFFF80000000FFFFFFF0003FFFFFFFFFFFC0000000FFF
310
F000FFFE0000003FFFF0001FFFFE0003FFFFE0003F80007FFFFC0000003FFFFF
310
FFC0000003FFFFF800000000000000007F80000000000001FFFFFE0000003FFF
310
FFFFFFFE0000003FFFFFFF0003FFFFFFFFFFFF0000003FFFF000FFFF800000FF
310
FFF0001FFFFF0003FFFFE0003F80007FFFFF000001FFFFFFFFF800001FFFFFF8
310
00000000000000007F80000000000001FFFFFFC00001FFFFFFFFFFFFC00001FF
310
FFFFFF0003FFFFFFFFFFFFC00000FFFFF000FFFFF8000FFFFFFFFFFFFFFFFFFF
310
FFFFFFFFFFFFFFFFFFFFF0001FFFFFFFFFFF0000FFFFFFF80000000000000000
310
7FFFFFFFFFFFFFFFFFFFFFFC001FFFFFFFFFFFFFFC001FFFFFFFFFFFFFFFFFFF
310
FFFFFFFC001FFFFFF000FFFFFFFFFFFFFFFFFFFFFFFFFFFFFFFFFFFFFFFFFFFF
310
FFFFFFFFFFFFFFFFFFFFFFFFFFFFFFFFFFFFFFFFFFFFFFFFFFFFFFFFFFFFFFFF
310
FFFFFFFFFFFFFFFFFFFFFFFFFFFFFFFFFFFFFFFFFFFFFFFFFFFFFFFFFFFFFFFF
310
F000FFFFFFFFFFFFFFFFFFFFFFFFFFFFFFFFFFFFFFFFFFFFFFFFFFFFFFFFFFFF
310
FFFFFFFFFFFFFFFFFFFFFFFFFFFFFFFFFFFFFFFFFFFFFFFFFFFFFFFFFFFFFFFF
310
FFFFFFFFFFFFFFFFFFFFFFFFFFFFFFFFFFFFFFFFFFFFFFFFF000FFFFFFFFFFFF
310
FFFFFFFFFFFFFFFFFFFFFFFFFFFFFFFFFFFFFFFFFFFFFFFFFFFFFFFFFFFFFFFF
310
FFFFFFFFFFFFFFFFFFFFFFFFFFFFFFFFFFFFFFFFFFFFFFFFFFFFFFFFFFFFFFFF
310
FFFFFFFFFFFFFFFFFFFFFFFFFFFFFFFFF000FFFFFFFFFFFFFFFFFFFFFFFFFFFF
310
FFFFFFFFFFFFFFFFFFFFFFFFFFFFFFFFFFFFFFFFFFFFFFFFFFFFFFFFFFFFFFFF
310
FFFFFFFFFFFFFFFFFFFFFFFFFFFFFFFFFFFFFFFFFFFFFFFFFFFFFFFFFFFFFFFF
310
FFFFFFFFFFFFFFFFF000FFFFFFFFFFFFFFFFFFFFFFFFFFFFFFFFFFFFFFFFFFFF
310
FFFFFFFFFFFFFFFFFFFFFFFFFFFFFFFFFFFFFFFFFFFFFFFFFFFFFFFFFFFFFFFF
310
FFFFFFFFFFFFFFFFFFFFFFFFFFFFFFFFFFFFFFFFFFFFFFFFFFFFFFFFFFFFFFFF
310
F000FFFFFFFFFFFFFFFFFFFFFFFFFFFFFFFFFFFFFFFFFFFFFFFFFFFFFFFFFFFF
310
FFFFFFFFFFFFFFFFFFFFFFFFFFFFFFFFFFFFFFFFFFFFFFFFFFFFFFFFFFFFFFFF
310
FFFFFFFFFFFFFFFFFFFFFFFFFFFFFFFFFFFFFFFFFFFFFFFFF000FFFFFFFFFFFF
310
FFFFFFFFFFFFFFFFFFFFFFFFFFFFFFFFFFFFFFFFFFFFFFFFFFFFFFFFFFFFFFFF
310
FFFFFFFFFFFFFFFFFFFFFFFFFFFFFFFFFFFFFFFFFFFFFFFFFFFFFFFFFFFFFFFF
310
FFFFFFFFFFFFFFFFFFFFFFFFFFFFFFFFF000FFFFFFFFFFFFFFFFFFFFFFFFFFFF
310
FFFFFFFFFFFFFFFFFFFFFFFFFFFFFFFFFFFFFFFFFFFFFFFFFFFFFFFFFFFFFFFF
310
FFFFFFFFFFFFFFFFFFFFFFFFFFFFFFFFFFFFFFFFFFFFFFFFFFFFFFFFFFFFFFFF
310
FFFFFFFFFFFFFFFFF000FFFFFFFFFFFFFFFFFFFFFFFFFFFFFFFFFFFFFFFFFFFF
310
FFFFFFFFFFFFFFFFFFFFFFFFFFFFFFFFFFFFFFFFFFFFFFFFFFFFFFFFFFFFFFFF
310
FFFFFFFFFFFFFFFFFFFFFFFFFFFFFFFFFFFFFFFFFFFFFFFFFFFFFFFFFFFFFFFF
310
F000FFFFFFFFFFFFFFFFFFFFFFFFFFFFFFFFFFFFFFFFFFFFFFFFFFFFFFFFFFFF
310
FFFFFFFFFFFFFFFFFFFFFFFFFFFFFFFFFFFFFFFFFFFFFFFFFFFFFFFFFFFFFFFF
310
FFFFFFFFFFFFFFFFFFFFFFFFFFFFFFFFFFFFFFFFFFFFFFFFF000FFFFFFFFFFFF
310
FFFFFFFFFFFFFFFFFFFFFFFFFFFFFFFFFFFFFFFFFFFFFFFFFFFFFFFFFFFFFFFF
310
FFFFFFFFFFFFFFFFFFFFFFFFFFFFFFFFFFFFFFFFFFFFFFFFFFFFFFFFFFFFFFFF
310
FFFFFFFFFFFFFFFFFFFFFFFFFFFFFFFFF000FFFFFFFFFFFFFFFFFFFFFFFFFFFF
310
FFFFFFFFFFFFFFFFFFFFFFFFFFFFFFFFFFFFFFFFFFFFFFFFFFFFFFFFFFFFFFFF
310
FFFFFFFFFFFFFFFFFFFFFFFFFFFFFFFFFFFFFFFFFFFFFFFFFFFFFFFFFFFFFFFF
310
FFFFFFFFFFFFFFFFF000FFFFFFFFFFFFFFFFFFFFFFFFFFFFFFFFFFFFFFFFFFFF
310
FFFFFFFFFFFFFFFFFFFFFFFFFFFFFFFFFFFFFFFFFFFFFFFFFFFFFFFFFFFFFFFF
310
FFFFFFFFFFFFFFFFFFFFFFFFFFFFFFFFFFFFFFFFFFFFFFFFFFFFFFFFFFFFFFFF
310
F000FFFFFFFFFFFFFFFFFFFFFFFFFFFFFFFFFFFFFFFFFFFFFFFFFFFFFFFFFFFF
310
FFFFFFFFFFFFFFFFFFFFFFFFFFFFFFFFFFFFFFFFFFFFFFFFFFFFFFFFFFFFFFFF
310
FFFFFFFFFFFFFFFFFFFFFFFFFFFFFFFFFFFFFFFFFFFFFFFFF000FFFFFFFFFFFF
310
FFFFFFFFFFFFFFFFFFFFFFFFFFFFFFFFFFFFFFFFFFFFFFFFFFFFFFFFFFFFFFFF
310
FFFFFFFFFFFFFFFFFFFFFFFFFFFFFFFFFFFFFFFFFFFFFFFFFFFFFFFFFFFFFFFF
310
FFFFFFFFFFFFFFFFFFFFFFFFFFFFFFFFF000FFFFFFFFFFFFFFFFFFFFFFFFFFFF
310
FFFFFFFFFFFFFFFFFFFFFFFFFFFFFFFFFFFFFFFFFFFFFFFFFFFFFFFFFFFFFFFF
310
FFFFFFFFFFFFFFFFFFFFFFFFFFFFFFFFFFFFFFFFFFFFFFFFFFFFFFFFFFFFFFFF
310
FFFFFFFFFFFFFFFFF000FFFFFFFFFFFFFFFFFFFFFFFFFFFFFFFFFFFFFFFFFFFF
310
FFFFFFFFFFFFFFFFFFFFFFFFFFFFFFFFFFFFFFFFFFFFFFFFFFFFFFFFFFFFFFFF
310
FFFFFFFFFFFFFFFFFFFFFFFFFFFFFFFFFFFFFFFFFFFFFFFFFFFFFFFFFFFFFFFF
310
F000FFFFFFFFFFFFFFFFFFFFFFFFFFFFFFFFFFFFFFFFFFFFFFFFFFFFFFFFFFFF
310
FFFFFFFFFFFFFFFFFFFFFFFFFFFFFFFFFFFFFFFFFFFFFFFFFFFFFFFFFFFFFFFF
310
FFFFFFFFFFFFFFFFFFFFFFFFFFFFFFFFFFFFFFFFFFFFFFFFF000FFFFFFFFFFFF
310
FFFFFFFFFFFFFFFFFFFFFFFFFFFFFFFFFFFFFFFFFFFFFFFFFFFFFFFFFFFFFFFF
310
FFFFFFFFFFFFFFFFFFFFFFFFFFFFFFFFFFFFFFFFFFFFFFFFFFFFFFFFFFFFFFFF
310
FFFFFFFFFFFFFFFFFFFFFFFFFFFFFFFFF000FFFFFFFFFFFFFFFFFFFFFFFFFFFF
310
FFFFFFFFFFFFFFFFFFFFFFFFFFFFFFFFFFFFFFFFFFFFFFFFFFFFFFFFFFFFFFFF
310
FFFFFFFFFFFFFFFFFFFFFFFFFFFFFFFFFFFFFFFFFFFFFFFFFFFFFFFFFFFFFFFF
310
FFFFFFFFFFFFFFFFF000FFFFFFFFFFFFFFFFFFFFFFFFFFFFFFFFFFFFFFFFFFFF
310
FFFFFFFFFFFFFFFFFFFFFFFFFFFFFFFFFFFFFFFFFFFFFFFFFFFFFFFFFFFFFFFF
310
FFFFFFFFFFFFFFFFFFFFFFFFFFFFFFFFFFFFFFFFFFFFFFFFFFFFFFFFFFFFFFFF
310
F000FFFFFFFFFFFFFFFFFFFFFFFFFFFFFFFFFFFFFFFFFFFFFFFFFFFFFFFFFFFF
310
FFFFFFFFFFFFFFFFFFFFFFFFFFFFFFFFFFFFFFFFFFFFFFFFFFFFFFFFFFFFFFFF
310
FFFFFFFFFFFFFFFFFFFFFFFFFFFFFFFFFFFFFFFFFFFFFFFFF000FFFFFFFFFFFF
310
FFFFFFFFFFFFFFFFFFFFFFFFFFFFFFFFFFFFFFFFFFFFFFFFFFFFFFFFFFFFFFFF
310
FFFFFFFFFFFFFFFFFFFFFFFFFFFFFFFFFFFFFFFFFFFFFFFFFFFFFFFFFFFFFFFF
310
FFFFFFFFFFFFFFFFFFFFFFFFFFFFFFFFF0000000000000000000000000000000
310
0000000000000000000000000000000000000000000000000000000000000000
310
0000000000000000000000000000000000000000000000000000000000000000
310
0000000000000000000000000000000000000000000000000000000000000000
310
0000000000000000000000000000000000000000000000000000000000000000
310
0000000000000000000000000000000000000000000000000000000000000000
310
0000000000000000000000000000000000000000000000000000000000000000
310
0000000000000000000000000000000000000000000000000000000000000000
310
0000000000000000000000000000000000000000000000000000000000000000
310
0000000000000000000000000000000000000000000000000000000000000000
310
0000000000000000000000000000000000000000000000000000000000000000
310
0000000000000000000000000000000000000000000000000000000000000000
310
0000000000000000000000000000000000000000000000000000000000000000
310
0000000000000000000000000000000000000000000000000000000000000000
310
0000000000000000000000000000000000000000000000000000000000000000
310
0000000000000000000000000000000000000000000000000000000000000000
  1
OLE
  0
ENDSEC
  0
SECTION
  2
OBJECTS
  0
DICTIONARY
  5
C
330
0
100
AcDbDictionary
281
     1
  3
ACAD_GROUP
350
D
  3
ACAD_LAYOUT
350
1A
  3
ACAD_MLINESTYLE
350
17
  3
ACAD_PLOTSETTINGS
350
19
  3
ACAD_PLOTSTYLENAME
350
E
  0
DICTIONARY
  5
D
102
{ACAD_REACTORS
330
C
102
}
330
C
100
AcDbDictionary
281
     1
  0
DICTIONARY
  5
1A
102
{ACAD_REACTORS
330
C
102
}
330
C
100
AcDbDictionary
281
     1
  3
Layout1
350
1E
  3
Layout2
350
26
  3
Model
350
22
  0
DICTIONARY
  5
17
102
{ACAD_REACTORS
330
C
102
}
330
C
100
AcDbDictionary
281
     1
  3
Standard
350
18
  0
DICTIONARY
  5
19
102
{ACAD_REACTORS
330
C
102
}
330
C
100
AcDbDictionary
281
     1
  0
ACDBDICTIONARYWDFLT
  5
E
102
{ACAD_REACTORS
330
C
102
}
330
C
100
AcDbDictionary
281
     1
  3
Normal
350
F
100
AcDbDictionaryWithDefault
340
F
  0
LAYOUT
  5
1E
102
{ACAD_REACTORS
330
1A
102
}
330
1A
100
AcDbPlotSettings
  1

  2
none_device
  4

  6

 40
0.0
 41
0.0
 42
0.0
 43
0.0
 44
0.0
 45
0.0
 46
0.0
 47
0.0
 48
0.0
 49
0.0
140
0.0
141
0.0
142
1.0
143
1.0
 70
   688
 72
     0
 73
     0
 74
     5
  7

 75
    16
147
1.0
148
0.0
149
0.0
100
AcDbLayout
  1
Layout1
 70
     1
 71
     1
 10
0.0
 20
0.0
 11
420.0
 21
297.0
 12
0.0
 22
0.0
 32
0.0
 14
1.0000000000E+20
 24
1.0000000000E+20
 34
1.0000000000E+20
 15
-1.0000000000E+20
 25
-1.0000000000E+20
 35
-1.0000000000E+20
146
0.0
 13
0.0
 23
0.0
 33
0.0
 16
1.0
 26
0.0
 36
0.0
 17
0.0
 27
1.0
 37
0.0
 76
     0
330
1B
  0
LAYOUT
  5
26
102
{ACAD_REACTORS
330
1A
102
}
330
1A
100
AcDbPlotSettings
  1

  2
none_device
  4

  6

 40
0.0
 41
0.0
 42
0.0
 43
0.0
 44
0.0
 45
0.0
 46
0.0
 47
0.0
 48
0.0
 49
0.0
140
0.0
141
0.0
142
1.0
143
1.0
 70
   688
 72
     0
 73
     0
 74
     5
  7

 75
    16
147
1.0
148
0.0
149
0.0
100
AcDbLayout
  1
Layout2
 70
     1
 71
     2
 10
0.0
 20
0.0
 11
0.0
 21
0.0
 12
0.0
 22
0.0
 32
0.0
 14
0.0
 24
0.0
 34
0.0
 15
0.0
 25
0.0
 35
0.0
146
0.0
 13
0.0
 23
0.0
 33
0.0
 16
1.0
 26
0.0
 36
0.0
 17
0.0
 27
1.0
 37
0.0
 76
     0
330
23
  0
LAYOUT
  5
22
102
{ACAD_REACTORS
330
1A
102
}
330
1A
100
AcDbPlotSettings
  1

  2
none_device
  4

  6

 40
0.0
 41
0.0
 42
0.0
 43
0.0
 44
0.0
 45
0.0
 46
0.0
 47
0.0
 48
0.0
 49
0.0
140
0.0
141
0.0
142
1.0
143
1.0
 70
  1712
 72
     0
 73
     0
 74
     0
  7

 75
     0
147
1.0
148
0.0
149
0.0
100
AcDbLayout
  1
Model
 70
     1
 71
     0
 10
0.0
 20
0.0
 11
297.0
 21
210.0
 12
0.0
 22
0.0
 32
0.0
 14
0.0
 24
0.0
 34
0.0
 15
297.0
 25
210.0
 35
0.0
146
0.0
 13
0.0
 23
0.0
 33
0.0
 16
1.0
 26
0.0
 36
0.0
 17
0.0
 27
1.0
 37
0.0
 76
     0
330
1F
331
29
  0
MLINESTYLE
  5
18
102
{ACAD_REACTORS
330
17
102
}
330
17
100
AcDbMlineStyle
  2
Standard
 70
     0
  3

 62
   256
 51
90.0
 52
90.0
 71
     2
 49
0.5
 62
   256
  6
BYLAYER
 49
-0.5
 62
   256
  6
BYLAYER
  0
ACDBPLACEHOLDER
  5
F
102
{ACAD_REACTORS
330
E
102
}
330
E
  0
ENDSEC
  0
EOF
