  0
SECTION
  2
HEADER
  9
$ACADVER
  1
AC1015
  9
$ACADMAINTVER
 70
     6
  9
$DWGCODEPAGE
  3
ANSI_1252
  9
$INSBASE
 10
0.0
 20
0.0
 30
0.0
  9
$EXTMIN
 10
0.0
 20
0.0
 30
0.0
  9
$EXTMAX
 10
297.0
 20
210.0
 30
0.0
  9
$LIMMIN
 10
0.0
 20
0.0
  9
$LIMMAX
 10
297.0
 20
210.0
  9
$ORTHOMODE
 70
     0
  9
$REGENMODE
 70
     1
  9
$FILLMODE
 70
     1
  9
$QTEXTMODE
 70
     0
  9
$MIRRTEXT
 70
     1
  9
$LTSCALE
 40
1.0
  9
$ATTMODE
 70
     1
  9
$TEXTSIZE
 40
2.0
  9
$TRACEWID
 40
1.0
  9
$TEXTSTYLE
  7
STANDARD
  9
$CLAYER
  8
0
  9
$CELTYPE
  6
ByLayer
  9
$CECOLOR
 62
   256
  9
$CELTSCALE
 40
1.0
  9
$DISPSILH
 70
     0
  9
$DIMSCALE
 40
1.0
  9
$DIMASZ
 40
3.0
  9
$DIMEXO
 40
0.0
  9
$DIMDLI
 40
3.75
  9
$DIMRND
 40
0.0
  9
$DIMDLE
 40
0.0
  9
$DIMEXE
 40
1.0
  9
$DIMTP
 40
0.0
  9
$DIMTM
 40
0.0
  9
$DIMTXT
 40
2.0
  9
$DIMCEN
 40
2.5
  9
$DIMTSZ
 40
0.0
  9
$DIMTOL
 70
     0
  9
$DIMLIM
 70
     0
  9
$DIMTIH
 70
     1
  9
$DIMTOH
 70
     1
  9
$DIMSE1
 70
     0
  9
$DIMSE2
 70
     0
  9
$DIMTAD
 70
     1
  9
$DIMZIN
 70
     0
  9
$DIMBLK
  1

  9
$DIMASO
 70
     1
  9
$DIMSHO
 70
     1
  9
$DIMPOST
  1

  9
$DIMAPOST
  1

  9
$DIMALT
 70
     0
  9
$DIMALTD
 70
     3
  9
$DIMALTF
 40
0.0393700787
  9
$DIMLFAC
 40
1.0
  9
$DIMTOFL
 70
     1
  9
$DIMTVP
 40
0.0
  9
$DIMTIX
 70
     0
  9
$DIMSOXD
 70
     0
  9
$DIMSAH
 70
     0
  9
$DIMBLK1
  1

  9
$DIMBLK2
  1

  9
$DIMSTYLE
  2
ISO-25
  9
$DIMCLRD
 70
     0
  9
$DIMCLRE
 70
     0
  9
$DIMCLRT
 70
     0
  9
$DIMTFAC
 40
1.0
  9
$DIMGAP
 40
1.524
  9
$DIMJUST
 70
     0
  9
$DIMSD1
 70
     0
  9
$DIMSD2
 70
     0
  9
$DIMTOLJ
 70
     0
  9
$DIMTZIN
 70
     0
  9
$DIMALTZ
 70
     0
  9
$DIMALTTZ
 70
     0
  9
$DIMUPT
 70
     0
  9
$DIMDEC
 70
     2
  9
$DIMTDEC
 70
     3
  9
$DIMALTU
 70
     2
  9
$DIMALTTD
 70
     3
  9
$DIMTXSTY
  7
STANDARD
  9
$DIMAUNIT
 70
     0
  9
$DIMADEC
 70
     2
  9
$DIMALTRND
 40
0.0
  9
$DIMAZIN
 70
     0
  9
$DIMDSEP
 70
    44
  9
$DIMATFIT
 70
     3
  9
$DIMFRAC
 70
     0
  9
$DIMLDRBLK
  1

  9
$DIMLUNIT
 70
     2
  9
$DIMLWD
 70
    -2
  9
$DIMLWE
 70
    -2
  9
$DIMTMOVE
 70
     0
  9
$LUNITS
 70
     2
  9
$LUPREC
 70
     2
  9
$SKETCHINC
 40
1.0
  9
$FILLETRAD
 40
10.0
  9
$AUNITS
 70
     0
  9
$AUPREC
 70
     2
  9
$MENU
  1
.
  9
$ELEVATION
 40
0.0
  9
$PELEVATION
 40
0.0
  9
$THICKNESS
 40
0.0
  9
$LIMCHECK
 70
     0
  9
$CHAMFERA
 40
10.0
  9
$CHAMFERB
 40
10.0
  9
$CHAMFERC
 40
20.0
  9
$CHAMFERD
 40
0.0
  9
$SKPOLY
 70
     0
  9
$TDCREATE
 40
2457070.588254595
  9
$TDUCREATE
 40
2457070.546587928
  9
$TDUPDATE
 40
2457070.588255312
  9
$TDUUPDATE
 40
2457070.546588646
  9
$TDINDWG
 40
0.0000000116
  9
$TDUSRTIMER
 40
0.0000000116
  9
$USRTIMER
 70
     1
  9
$ANGBASE
 50
0.0
  9
$ANGDIR
 70
     0
  9
$PDMODE
 70
     0
  9
$PDSIZE
 40
-1.0
  9
$PLINEWID
 40
0.0
  9
$SPLFRAME
 70
     0
  9
$SPLINETYPE
 70
     6
  9
$SPLINESEGS
 70
     8
  9
$HANDSEED
  5
24A
  9
$SURFTAB1
 70
     6
  9
$SURFTAB2
 70
     6
  9
$SURFTYPE
 70
     6
  9
$SURFU
 70
     6
  9
$SURFV
 70
     6
  9
$UCSBASE
  2

  9
$UCSNAME
  2

  9
$UCSORG
 10
0.0
 20
0.0
 30
0.0
  9
$UCSXDIR
 10
1.0
 20
0.0
 30
0.0
  9
$UCSYDIR
 10
0.0
 20
1.0
 30
0.0
  9
$UCSORTHOREF
  2

  9
$UCSORTHOVIEW
 70
     0
  9
$UCSORGTOP
 10
0.0
 20
0.0
 30
0.0
  9
$UCSORGBOTTOM
 10
0.0
 20
0.0
 30
0.0
  9
$UCSORGLEFT
 10
0.0
 20
0.0
 30
0.0
  9
$UCSORGRIGHT
 10
0.0
 20
0.0
 30
0.0
  9
$UCSORGFRONT
 10
0.0
 20
0.0
 30
0.0
  9
$UCSORGBACK
 10
0.0
 20
0.0
 30
0.0
  9
$PUCSBASE
  2

  9
$PUCSNAME
  2

  9
$PUCSORG
 10
0.0
 20
0.0
 30
0.0
  9
$PUCSXDIR
 10
1.0
 20
0.0
 30
0.0
  9
$PUCSYDIR
 10
0.0
 20
1.0
 30
0.0
  9
$PUCSORTHOREF
  2

  9
$PUCSORTHOVIEW
 70
     0
  9
$PUCSORGTOP
 10
0.0
 20
0.0
 30
0.0
  9
$PUCSORGBOTTOM
 10
0.0
 20
0.0
 30
0.0
  9
$PUCSORGLEFT
 10
0.0
 20
0.0
 30
0.0
  9
$PUCSORGRIGHT
 10
0.0
 20
0.0
 30
0.0
  9
$PUCSORGFRONT
 10
0.0
 20
0.0
 30
0.0
  9
$PUCSORGBACK
 10
0.0
 20
0.0
 30
0.0
  9
$USERI1
 70
     0
  9
$USERI2
 70
     0
  9
$USERI3
 70
     0
  9
$USERI4
 70
     0
  9
$USERI5
 70
     0
  9
$USERR1
 40
0.0
  9
$USERR2
 40
0.0
  9
$USERR3
 40
0.0
  9
$USERR4
 40
0.0
  9
$USERR5
 40
0.0
  9
$WORLDVIEW
 70
     1
  9
$SHADEDGE
 70
     3
  9
$SHADEDIF
 70
    70
  9
$TILEMODE
 70
     1
  9
$MAXACTVP
 70
    64
  9
$PINSBASE
 10
0.0
 20
0.0
 30
0.0
  9
$PLIMCHECK
 70
     0
  9
$PEXTMIN
 10
1.0000000000E+20
 20
1.0000000000E+20
 30
1.0000000000E+20
  9
$PEXTMAX
 10
-1.0000000000E+20
 20
-1.0000000000E+20
 30
-1.0000000000E+20
  9
$PLIMMIN
 10
0.0
 20
0.0
  9
$PLIMMAX
 10
420.0
 20
297.0
  9
$UNITMODE
 70
     0
  9
$VISRETAIN
 70
     1
  9
$PLINEGEN
 70
     0
  9
$PSLTSCALE
 70
     1
  9
$TREEDEPTH
 70
  3020
  9
$CMLSTYLE
  2
Standard
  9
$CMLJUST
 70
     0
  9
$CMLSCALE
 40
20.0
  9
$PROXYGRAPHICS
 70
     1
  9
$MEASUREMENT
 70
     1
  9
$CELWEIGHT
370
    -1
  9
$ENDCAPS
280
     0
  9
$JOINSTYLE
280
     0
  9
$LWDISPLAY
290
     1
  9
$INSUNITS
 70
     4
  9
$HYPERLINKBASE
  1

  9
$STYLESHEET
  1

  9
$XEDIT
290
     1
  9
$CEPSNTYPE
380
     0
  9
$PSTYLEMODE
290
     1
  9
$FINGERPRINTGUID
  2
{6BDA53D7-8C1B-44B2-877B-A6AEE80763C9}
  9
$VERSIONGUID
  2
{FAEB1C32-E019-11D5-929B-00C0DF256EC4}
  9
$EXTNAMES
290
     1
  9
$PSVPSCALE
 40
0.0
  9
$OLESTARTUP
290
     0
  0
ENDSEC
  0
SECTION
  2
CLASSES
  0
CLASS
  1
ACDBDICTIONARYWDFLT
  2
AcDbDictionaryWithDefault
  3
ObjectDBX Classes
 90
        0
280
     0
281
     0
  0
CLASS
  1
VISUALSTYLE
  2
AcDbVisualStyle
  3
ObjectDBX Classes
 90
     4095
280
     0
281
     0
  0
CLASS
  1
MATERIAL
  2
AcDbMaterial
  3
ObjectDBX Classes
 90
     1153
280
     0
281
     0
  0
CLASS
  1
ACDBPLACEHOLDER
  2
AcDbPlaceHolder
  3
ObjectDBX Classes
 90
        0
280
     0
281
     0
  0
CLASS
  1
LAYOUT
  2
AcDbLayout
  3
ObjectDBX Classes
 90
        0
280
     0
281
     0
  0
ENDSEC
  0
SECTION
  2
TABLES
  0
TABLE
  2
VPORT
  5
8
330
0
100
AcDbSymbolTable
 70
     1
  0
VPORT
  5
29
330
8
100
AcDbSymbolTableRecord
100
AcDbViewportTableRecord
  2
*Active
 70
     0
 10
0.0
 20
0.0
 11
1.0
 21
1.0
 12
148.5
 22
105.0
 13
0.0
 23
0.0
 14
10.0
 24
10.0
 15
10.0
 25
10.0
 16
0.0
 26
0.0
 36
1.0
 17
0.0
 27
0.0
 37
0.0
 40
210.0
 41
1.4142857143
 42
50.0
 43
0.0
 44
0.0
 50
0.0
 51
0.0
 71
     0
 72
  2000
 73
     1
 74
     3
 75
     0
 76
     0
 77
     0
 78
     0
281
     0
 65
     1
110
0.0
120
0.0
130
0.0
111
1.0
121
0.0
131
0.0
112
0.0
122
1.0
132
0.0
 79
     0
146
0.0
  0
ENDTAB
  0
TABLE
  2
LTYPE
  5
5
330
0
100
AcDbSymbolTable
 70
     8
  0
LTYPE
  5
14
330
5
100
AcDbSymbolTableRecord
100
AcDbLinetypeTableRecord
  2
ByBlock
 70
     0
  3

 72
    65
 73
     0
 40
0.0
  0
LTYPE
  5
15
330
5
100
AcDbSymbolTableRecord
100
AcDbLinetypeTableRecord
  2
ByLayer
 70
     0
  3

 72
    65
 73
     0
 40
0.0
  0
LTYPE
  5
16
330
5
100
AcDbSymbolTableRecord
100
AcDbLinetypeTableRecord
  2
Continuous
 70
     0
  3
Solid line
 72
    65
 73
     0
 40
0.0
  0
LTYPE
  5
3F
330
5
100
AcDbSymbolTableRecord
100
AcDbLinetypeTableRecord
  2
SLD-Durchgehend
 70
     0
  3
SolidWorks Line Style
 72
    65
 73
     0
 40
0.0
  0
LTYPE
  5
40
330
5
100
AcDbSymbolTableRecord
100
AcDbLinetypeTableRecord
  2
SLD-Gestrichelt
 70
     0
  3
SolidWorks Line Style
 72
    65
 73
     2
 40
1.905
 49
1.27
 74
     0
 49
-0.635
 74
     0
  0
LTYPE
  5
41
330
5
100
AcDbSymbolTableRecord
100
AcDbLinetypeTableRecord
  2
SLD-Phantom
 70
     0
  3
SolidWorks Line Style
 72
    65
 73
     6
 40
12.7
 49
6.35
 74
     0
 49
-1.27
 74
     0
 49
1.27
 74
     0
 49
-1.27
 74
     0
 49
1.27
 74
     0
 49
-1.27
 74
     0
  0
LTYPE
  5
42
330
5
100
AcDbSymbolTableRecord
100
AcDbLinetypeTableRecord
  2
SLD-Kette
 70
     0
  3
SolidWorks Line Style
 72
    65
 73
     4
 40
10.16
 49
6.35
 74
     0
 49
-1.27
 74
     0
 49
1.27
 74
     0
 49
-1.27
 74
     0
  0
LTYPE
  5
43
330
5
100
AcDbSymbolTableRecord
100
AcDbLinetypeTableRecord
  2
SLD-Punktstrich
 70
     0
  3
SolidWorks Line Style
 72
    65
 73
     4
 40
19.05
 49
15.24
 74
     0
 49
-1.27
 74
     0
 49
1.27
 74
     0
 49
-1.27
 74
     0
  0
LTYPE
  5
44
330
5
100
AcDbSymbolTableRecord
100
AcDbLinetypeTableRecord
  2
SLD-Naht
 70
     0
  3
SolidWorks Line Style
 72
    65
 73
     2
 40
0.635
 49
0.0
 74
     0
 49
-0.635
 74
     0
  0
LTYPE
  5
45
330
5
100
AcDbSymbolTableRecord
100
AcDbLinetypeTableRecord
  2
SLD-Dicke-Dünne-Kette
 70
     0
  3
SolidWorks Line Style
 72
    65
 73
     4
 40
10.16
 49
6.35
 74
     0
 49
-1.27
 74
     0
 49
1.27
 74
     0
 49
-1.27
 74
     0
  0
ENDTAB
  0
TABLE
  2
LAYER
  5
2
330
0
100
AcDbSymbolTable
 70
     5
  0
LAYER
  5
10
330
2
100
AcDbSymbolTableRecord
100
AcDbLayerTableRecord
  2
0
 70
     0
 62
     7
  6
Continuous
370
    -3
390
F
  0
LAYER
  5
46
330
2
100
AcDbSymbolTableRecord
100
AcDbLayerTableRecord
  2
FORMAT
 70
     0
 62
     7
  6
SLD-Durchgehend
370
    -3
390
F
  0
LAYER
  5
47
330
2
100
AcDbSymbolTableRecord
100
AcDbLayerTableRecord
  2
VERMASSUNG
 70
     0
 62
     7
  6
SLD-Durchgehend
370
    -3
390
F
  0
LAYER
  5
48
330
2
100
AcDbSymbolTableRecord
100
AcDbLayerTableRecord
  2
KOPF_DÜNN
 70
     0
 62
     7
  6
SLD-Durchgehend
370
    -3
390
F
  0
LAYER
  5
49
330
2
100
AcDbSymbolTableRecord
100
AcDbLayerTableRecord
  2
KOPF_DICK
 70
     0
 62
     7
  6
SLD-Durchgehend
370
    15
390
F
  0
ENDTAB
  0
TABLE
  2
STYLE
  5
3
330
0
100
AcDbSymbolTable
 70
     2
  0
STYLE
  5
11
330
3
100
AcDbSymbolTableRecord
100
AcDbTextStyleTableRecord
  2
STANDARD
 70
     0
 40
0.0
 41
1.0
 50
0.0
 71
     0
 42
2.0
  3
ISOCPEUR.TTF
  4

1001
ACAD
1000
ISOCPEUR
1071
       34
  0
STYLE
  5
4A
330
3
100
AcDbSymbolTableRecord
100
AcDbTextStyleTableRecord
  2
SLDTEXTSTYLE0
 70
     0
 40
0.0
 41
1.0
 50
0.0
 71
     0
 42
0.2
  3
ISOCPEUR.TTF
  4

1001
ACAD
1000
ISOCPEUR
1071
      290
  0
ENDTAB
  0
TABLE
  2
VIEW
  5
6
330
0
100
AcDbSymbolTable
 70
     0
  0
ENDTAB
  0
TABLE
  2
UCS
  5
7
330
0
100
AcDbSymbolTable
 70
     0
  0
ENDTAB
  0
TABLE
  2
APPID
  5
9
330
0
100
AcDbSymbolTable
 70
     1
  0
APPID
  5
12
330
9
100
AcDbSymbolTableRecord
100
AcDbRegAppTableRecord
  2
ACAD
 70
     0
  0
ENDTAB
  0
TABLE
  2
DIMSTYLE
  5
A
330
0
100
AcDbSymbolTable
 70
     3
100
AcDbDimStyleTable
  0
DIMSTYLE
105
27
330
A
100
AcDbSymbolTableRecord
100
AcDbDimStyleTableRecord
  2
ISO-25
 70
     0
 41
2.5
 42
0.625
 43
3.75
 44
1.25
 73
     0
 74
     0
 77
     1
 78
     8
140
2.5
141
2.5
143
0.0393700787
147
0.625
171
     3
172
     1
178
     0
271
     2
272
     2
274
     3
278
    44
283
     0
284
     8
340
11
  0
DIMSTYLE
105
1C5
102
{ACAD_REACTORS
330
1C4
330
1D1
330
1DB
330
1E5
330
232
102
}
330
A
100
AcDbSymbolTableRecord
100
AcDbDimStyleTableRecord
  2
SLDDIMSTYLE0
 70
     0
 41
3.0
 44
0.0
 45
0.000000001
 73
     0
 74
     0
 77
     1
 78
    12
 79
     3
140
2.0
147
0.5
173
     1
178
     0
271
     2
272
     3
276
     2
284
    12
340
4A
  0
DIMSTYLE
105
1F0
102
{ACAD_REACTORS
330
1EF
102
}
330
A
100
AcDbSymbolTableRecord
100
AcDbDimStyleTableRecord
  2
SLDDIMSTYLE1
 70
     0
 41
3.0
 44
0.0
 73
     0
 74
     0
 77
     1
 78
    12
 79
     3
140
2.0
147
0.5
173
     1
178
     0
272
     3
276
     2
284
    12
340
4A
  0
ENDTAB
  0
TABLE
  2
BLOCK_RECORD
  5
1
330
0
100
AcDbSymbolTable
 70
     8
  0
BLOCK_RECORD
  5
1F
330
1
100
AcDbSymbolTableRecord
100
AcDbBlockTableRecord
  2
*Model_Space
340
22
  0
BLOCK_RECORD
  5
1B
330
1
100
AcDbSymbolTableRecord
100
AcDbBlockTableRecord
  2
*Paper_Space
340
1E
  0
BLOCK_RECORD
  5
23
330
1
100
AcDbSymbolTableRecord
100
AcDbBlockTableRecord
  2
*Paper_Space0
340
26
  0
BLOCK_RECORD
  5
1C6
330
1
100
AcDbSymbolTableRecord
100
AcDbBlockTableRecord
  2
_D
340
0
  0
BLOCK_RECORD
  5
1D2
330
1
100
AcDbSymbolTableRecord
100
AcDbBlockTableRecord
  2
_D_1
340
0
  0
BLOCK_RECORD
  5
1DC
330
1
100
AcDbSymbolTableRecord
100
AcDbBlockTableRecord
  2
_D_2
340
0
  0
BLOCK_RECORD
  5
1E6
330
1
100
AcDbSymbolTableRecord
100
AcDbBlockTableRecord
  2
_D_3
340
0
  0
BLOCK_RECORD
  5
1F1
330
1
100
AcDbSymbolTableRecord
100
AcDbBlockTableRecord
  2
_D_4
340
0
  0
BLOCK_RECORD
  5
233
330
1
100
AcDbSymbolTableRecord
100
AcDbBlockTableRecord
  2
_D_5
340
0
  0
BLOCK_RECORD
  5
23D
330
1
100
AcDbSymbolTableRecord
100
AcDbBlockTableRecord
  2
SW_CENTERMARKSYMBOL_0
340
0
102
{BLKREFS
331
248
102
}
  0
ENDTAB
  0
ENDSEC
  0
SECTION
  2
BLOCKS
  0
BLOCK
  5
20
330
1F
100
AcDbEntity
  8
0
100
AcDbBlockBegin
  2
*Model_Space
 70
     0
 10
0.0
 20
0.0
 30
0.0
  3
*Model_Space
  1

  0
ENDBLK
  5
21
330
1F
100
AcDbEntity
  8
0
100
AcDbBlockEnd
  0
BLOCK
  5
1C
330
1B
100
AcDbEntity
 67
     1
  8
0
100
AcDbBlockBegin
  2
*Paper_Space
 70
     0
 10
0.0
 20
0.0
 30
0.0
  3
*Paper_Space
  1

  0
ENDBLK
  5
1D
330
1B
100
AcDbEntity
 67
     1
  8
0
100
AcDbBlockEnd
  0
BLOCK
  5
24
330
23
100
AcDbEntity
  8
0
100
AcDbBlockBegin
  2
*Paper_Space0
 70
     0
 10
0.0
 20
0.0
 30
0.0
  3
*Paper_Space0
  1

  0
ENDBLK
  5
25
330
23
100
AcDbEntity
  8
0
100
AcDbBlockEnd
  0
BLOCK
  5
1C7
330
1C6
100
AcDbEntity
  8
0
100
AcDbBlockBegin
  2
_D
 70
     0
 10
0.0
 20
0.0
 30
0.0
  3
_D
  1

  0
SOLID
  5
1C9
330
1C6
100
AcDbEntity
  8
VERMASSUNG
100
AcDbTrace
 10
105.4808174325
 20
139.8392857143
 30
0.0
 11
105.0308174325
 21
136.8392857143
 31
0.0
 12
105.9308174325
 22
136.8392857143
 32
0.0
 13
105.9308174325
 23
136.8392857143
 33
0.0
  0
SOLID
  5
1CA
330
1C6
100
AcDbEntity
  8
VERMASSUNG
100
AcDbTrace
 10
105.4808174325
 20
76.8392857143
 30
0.0
 11
105.9308174325
 21
79.8392857143
 31
0.0
 12
105.0308174325
 22
79.8392857143
 32
0.0
 13
105.0308174325
 23
79.8392857143
 33
0.0
  0
LINE
  5
1CB
330
1C6
100
AcDbEntity
  8
VERMASSUNG
100
AcDbLine
 10
142.2518544536
 20
139.8392857143
 30
0.0
 11
104.4808174325
 21
139.8392857143
 31
0.0
  0
LINE
  5
1CC
330
1C6
100
AcDbEntity
  8
VERMASSUNG
100
AcDbLine
 10
142.2518544536
 20
76.8392857143
 30
0.0
 11
104.4808174325
 21
76.8392857143
 31
0.0
  0
LINE
  5
1CD
330
1C6
100
AcDbEntity
  8
VERMASSUNG
100
AcDbLine
 10
105.4808174325
 20
139.8392857143
 30
0.0
 11
105.4808174325
 21
76.8392857143
 31
0.0
  0
MTEXT
  5
1CE
330
1C6
100
AcDbEntity
  8
VERMASSUNG
100
AcDbMText
 10
102.680817423
 20
102.1364410545
 30
0.0
 40
2.0
 41
0.0
 71
     1
 72
     1
  1
HSK 
  7
SLDTEXTSTYLE0
 11
-7.044195017643634E-15
 21
1.0
 31
0.0
 73
     1
 44
1.0
  0
MTEXT
  5
1CF
330
1C6
100
AcDbEntity
  8
VERMASSUNG
100
AcDbMText
 10
102.8808174325
 20
108.1364411067
 30
0.0
 40
2.0
 41
0.0
 71
     1
 72
     1
  1
%%c
  7
SLDTEXTSTYLE0
 11
-7.044195017643634E-15
 21
1.0
 31
0.0
 73
     1
 44
1.0
  0
MTEXT
  5
1D0
330
1C6
100
AcDbEntity
  8
VERMASSUNG
100
AcDbMText
 10
102.8808175489
 20
111.7440017105
 30
0.0
 40
2.0
 41
0.0
 71
     1
 72
     1
  1
63
  7
SLDTEXTSTYLE0
 11
-7.044195017643634E-15
 21
1.0
 31
0.0
 73
     1
 44
1.0
  0
ENDBLK
  5
1C8
330
1C6
100
AcDbEntity
  8
0
100
AcDbBlockEnd
  0
BLOCK
  5
1D3
330
1D2
100
AcDbEntity
  8
0
100
AcDbBlockBegin
  2
_D_1
 70
     0
 10
0.0
 20
0.0
 30
0.0
  3
_D_1
  1

  0
SOLID
  5
1D5
330
1D2
100
AcDbEntity
  8
VERMASSUNG
100
AcDbTrace
 10
110.0518544536
 20
152.3399668492
 30
0.0
 11
113.0518544536
 21
151.8899668492
 31
0.0
 12
113.0518544536
 22
152.7899668492
 32
0.0
 13
113.0518544536
 23
152.7899668492
 33
0.0
  0
SOLID
  5
1D6
330
1D2
100
AcDbEntity
  8
VERMASSUNG
100
AcDbTrace
 10
281.9518544536
 20
152.3399668492
 30
0.0
 11
278.9518544536
 21
152.7899668492
 31
0.0
 12
278.9518544536
 22
151.8899668492
 32
0.0
 13
278.9518544536
 23
151.8899668492
 33
0.0
  0
LINE
  5
1D7
330
1D2
100
AcDbEntity
  8
VERMASSUNG
100
AcDbLine
 10
110.0518544536
 20
128.0299634608
 30
0.0
 11
110.0518544536
 21
153.3399668492
 31
0.0
  0
LINE
  5
1D8
330
1D2
100
AcDbEntity
  8
VERMASSUNG
100
AcDbLine
 10
281.9518544536
 20
135.3392857143
 30
0.0
 11
281.9518544536
 21
153.3399668492
 31
0.0
  0
LINE
  5
1D9
330
1D2
100
AcDbEntity
  8
VERMASSUNG
100
AcDbLine
 10
110.0518544536
 20
152.3399668492
 30
0.0
 11
281.9518544536
 21
152.3399668492
 31
0.0
  0
MTEXT
  5
1DA
330
1D2
100
AcDbEntity
  8
VERMASSUNG
100
AcDbMText
 10
193.3027854149
 20
154.9399667327
 30
0.0
 40
2.0
 41
0.0
 71
     1
 72
     1
  1
171.9
  7
SLDTEXTSTYLE0
 73
     1
 44
1.0
  0
ENDBLK
  5
1D4
330
1D2
100
AcDbEntity
  8
0
100
AcDbBlockEnd
  0
BLOCK
  5
1DD
330
1DC
100
AcDbEntity
  8
0
100
AcDbBlockBegin
  2
_D_2
 70
     0
 10
0.0
 20
0.0
 30
0.0
  3
_D_2
  1

  0
SOLID
  5
1DF
330
1DC
100
AcDbEntity
  8
VERMASSUNG
100
AcDbTrace
 10
141.9518544536
 20
146.3399668492
 30
0.0
 11
144.9518544536
 21
145.8899668492
 31
0.0
 12
144.9518544536
 22
146.7899668492
 32
0.0
 13
144.9518544536
 23
146.7899668492
 33
0.0
  0
SOLID
  5
1E0
330
1DC
100
AcDbEntity
  8
VERMASSUNG
100
AcDbTrace
 10
281.9518544536
 20
146.3399668492
 30
0.0
 11
278.9518544536
 21
146.7899668492
 31
0.0
 12
278.9518544536
 22
145.8899668492
 32
0.0
 13
278.9518544536
 23
145.8899668492
 33
0.0
  0
LINE
  5
1E1
330
1DC
100
AcDbEntity
  8
VERMASSUNG
100
AcDbLine
 10
141.9518544536
 20
139.5392857143
 30
0.0
 11
141.9518544536
 21
147.3399668492
 31
0.0
  0
LINE
  5
1E2
330
1DC
100
AcDbEntity
  8
VERMASSUNG
100
AcDbLine
 10
281.9518544536
 20
135.3392857143
 30
0.0
 11
281.9518544536
 21
147.3399668492
 31
0.0
  0
LINE
  5
1E3
330
1DC
100
AcDbEntity
  8
VERMASSUNG
100
AcDbLine
 10
141.9518544536
 20
146.3399668492
 30
0.0
 11
281.9518544536
 21
146.3399668492
 31
0.0
  0
MTEXT
  5
1E4
330
1DC
100
AcDbEntity
  8
VERMASSUNG
100
AcDbMText
 10
209.9523175808
 20
148.9399667327
 30
0.0
 40
2.0
 41
0.0
 71
     1
 72
     1
  1
140
  7
SLDTEXTSTYLE0
 73
     1
 44
1.0
  0
ENDBLK
  5
1DE
330
1DC
100
AcDbEntity
  8
0
100
AcDbBlockEnd
  0
BLOCK
  5
1E7
330
1E6
100
AcDbEntity
  8
0
100
AcDbBlockBegin
  2
_D_3
 70
     0
 10
0.0
 20
0.0
 30
0.0
  3
_D_3
  1

  0
SOLID
  5
1E9
330
1E6
100
AcDbEntity
  8
VERMASSUNG
100
AcDbTrace
 10
288.9604296464
 20
135.3392857143
 30
0.0
 11
288.5104296464
 21
132.3392857143
 31
0.0
 12
289.4104296464
 22
132.3392857143
 32
0.0
 13
289.4104296464
 23
132.3392857143
 33
0.0
  0
SOLID
  5
1EA
330
1E6
100
AcDbEntity
  8
VERMASSUNG
100
AcDbTrace
 10
288.9604296464
 20
108.3392857143
 30
0.0
 11
289.4104296464
 21
111.3392857143
 31
0.0
 12
288.5104296464
 22
111.3392857143
 32
0.0
 13
288.5104296464
 23
111.3392857143
 33
0.0
  0
LINE
  5
1EB
330
1E6
100
AcDbEntity
  8
VERMASSUNG
100
AcDbLine
 10
281.9518544536
 20
135.3392857143
 30
0.0
 11
289.9604296464
 21
135.3392857143
 31
0.0
  0
LINE
  5
1EC
330
1E6
100
AcDbEntity
  8
VERMASSUNG
100
AcDbLine
 10
281.450161263
 20
108.3392857143
 30
0.0
 11
289.9604296464
 21
108.3392857143
 31
0.0
  0
LINE
  5
1ED
330
1E6
100
AcDbEntity
  8
VERMASSUNG
100
AcDbLine
 10
288.9604296464
 20
135.3392857143
 30
0.0
 11
288.9604296464
 21
108.3392857143
 31
0.0
  0
MTEXT
  5
1EE
330
1E6
100
AcDbEntity
  8
VERMASSUNG
100
AcDbMText
 10
286.3604297629
 20
120.4402213825
 30
0.0
 40
2.0
 41
0.0
 71
     1
 72
     1
  1
27
  7
SLDTEXTSTYLE0
 11
-7.044195017643634E-15
 21
1.0
 31
0.0
 73
     1
 44
1.0
  0
ENDBLK
  5
1E8
330
1E6
100
AcDbEntity
  8
0
100
AcDbBlockEnd
  0
BLOCK
  5
1F2
330
1F1
100
AcDbEntity
  8
0
100
AcDbBlockBegin
  2
_D_4
 70
     0
 10
0.0
 20
0.0
 30
0.0
  3
_D_4
  1

  0
ARC
  5
1F4
330
1F1
100
AcDbEntity
  8
VERMASSUNG
100
AcDbCircle
 10
281.9518544536
 20
144.4749698577
 30
0.0
 40
41.24157855902354
100
AcDbArc
 50
264.9878526278
 51
270.0
  0
ARC
  5
1F5
330
1F1
100
AcDbEntity
  8
VERMASSUNG
100
AcDbCircle
 10
281.9518544536
 20
144.4749698577
 30
0.0
 40
41.24157855902353
100
AcDbArc
 50
256.6723685506
 51
264.9878526278
  0
ARC
  5
1F6
330
1F1
100
AcDbEntity
  8
VERMASSUNG
100
AcDbCircle
 10
281.9518544536
 20
144.4749698577
 30
0.0
 40
41.24157855902354
100
AcDbArc
 50
270.0
 51
282.2000278878
  0
SOLID
  5
1F7
330
1F1
100
AcDbEntity
  8
VERMASSUNG
100
AcDbTrace
 10
278.3487037007
 20
103.3910909428
 30
0.0
 11
275.4272200414
 21
104.2080568099
 31
0.0
 12
275.3160973074
 22
103.314943302
 32
0.0
 13
275.3160973074
 23
103.314943302
 33
0.0
  0
SOLID
  5
1F8
330
1F1
100
AcDbEntity
  8
VERMASSUNG
100
AcDbTrace
 10
281.9518544536
 20
103.2333912986
 30
0.0
 11
284.9662119727
 21
102.8925852734
 31
0.0
 12
284.9335427494
 22
103.7919921457
 32
0.0
 13
284.9335427494
 23
103.7919921457
 33
0.0
  0
LINE
  5
1F9
330
1F1
100
AcDbEntity
  8
VERMASSUNG
100
AcDbLine
 10
279.883093085
 20
120.8865198036
 30
0.0
 11
278.2613367551
 21
102.3949147451
 31
0.0
  0
MTEXT
  5
1FA
330
1F1
100
AcDbEntity
  8
VERMASSUNG
100
AcDbMText
 10
286.1755610242
 20
106.0429683568
 30
0.0
 40
2.0
 41
0.0
 71
     1
 72
     1
  1
5°
  7
SLDTEXTSTYLE0
 11
0.9897843838985948
 21
0.1425723444097032
 31
0.0
 73
     1
 44
1.0
  0
ENDBLK
  5
1F3
330
1F1
100
AcDbEntity
  8
0
100
AcDbBlockEnd
  0
BLOCK
  5
234
330
233
100
AcDbEntity
  8
0
100
AcDbBlockBegin
  2
_D_5
 70
     0
 10
0.0
 20
0.0
 30
0.0
  3
_D_5
  1

  0
SOLID
  5
236
330
233
100
AcDbEntity
  8
VERMASSUNG
100
AcDbTrace
 10
22.2848392853
 20
85.2992814614
 30
0.0
 11
22.7348392853
 21
88.2992814614
 31
0.0
 12
21.8348392853
 22
88.2992814614
 32
0.0
 13
21.8348392853
 23
88.2992814614
 33
0.0
  0
SOLID
  5
237
330
233
100
AcDbEntity
  8
VERMASSUNG
100
AcDbTrace
 10
22.2848392853
 20
135.2992814614
 30
0.0
 11
21.8348392853
 21
132.2992814614
 31
0.0
 12
22.7348392853
 22
132.2992814614
 32
0.0
 13
22.7348392853
 23
132.2992814614
 33
0.0
  0
LINE
  5
238
330
233
100
AcDbEntity
  8
VERMASSUNG
100
AcDbLine
 10
57.7436948549
 20
85.2992814614
 30
0.0
 11
21.2848392853
 21
85.2992814614
 31
0.0
  0
LINE
  5
239
330
233
100
AcDbEntity
  8
VERMASSUNG
100
AcDbLine
 10
57.7436948549
 20
135.2992814614
 30
0.0
 11
21.2848392853
 21
135.2992814614
 31
0.0
  0
LINE
  5
23A
330
233
100
AcDbEntity
  8
VERMASSUNG
100
AcDbLine
 10
22.2848392853
 20
85.2992814614
 30
0.0
 11
22.2848392853
 21
135.2992814614
 31
0.0
  0
MTEXT
  5
23B
330
233
100
AcDbEntity
  8
VERMASSUNG
100
AcDbMText
 10
19.6848392853
 20
107.0963535899
 30
0.0
 40
2.0
 41
0.0
 71
     1
 72
     1
  1
%%c
  7
SLDTEXTSTYLE0
 11
6.123233995736766E-17
 21
1.0
 31
0.0
 73
     1
 44
1.0
  0
MTEXT
  5
23C
330
233
100
AcDbEntity
  8
VERMASSUNG
100
AcDbMText
 10
19.6848394017
 20
110.7040806693
 30
0.0
 40
2.0
 41
0.0
 71
     1
 72
     1
  1
50
  7
SLDTEXTSTYLE0
 11
6.123233995736766E-17
 21
1.0
 31
0.0
 73
     1
 44
1.0
  0
ENDBLK
  5
235
330
233
100
AcDbEntity
  8
0
100
AcDbBlockEnd
  0
BLOCK
  5
23E
330
23D
100
AcDbEntity
  8
0
100
AcDbBlockBegin
  2
SW_CENTERMARKSYMBOL_0
 70
     0
 10
0.0
 20
0.0
 30
0.0
  3
SW_CENTERMARKSYMBOL_0
  1

  0
LINE
  5
240
330
23D
100
AcDbEntity
  8
VERMASSUNG
 62
     0
100
AcDbLine
 10
0.0
 20
0.0
 30
0.0
 11
0.0
 21
2.5
 31
0.0
  0
LINE
  5
241
330
23D
100
AcDbEntity
  8
VERMASSUNG
 62
     0
100
AcDbLine
 10
0.0
 20
0.0
 30
0.0
 11
-2.5
 21
0.0
 31
0.0
  0
LINE
  5
242
330
23D
100
AcDbEntity
  8
VERMASSUNG
 62
     0
100
AcDbLine
 10
0.0
 20
0.0
 30
0.0
 11
0.0
 21
-2.5
 31
0.0
  0
LINE
  5
243
330
23D
100
AcDbEntity
  8
VERMASSUNG
 62
     0
100
AcDbLine
 10
0.0
 20
0.0
 30
0.0
 11
2.5
 21
0.0
 31
0.0
  0
LINE
  5
244
330
23D
100
AcDbEntity
  8
VERMASSUNG
 62
     0
100
AcDbLine
 10
0.0
 20
5.0
 30
0.0
 11
0.0
 21
34.0
 31
0.0
  0
LINE
  5
245
330
23D
100
AcDbEntity
  8
VERMASSUNG
 62
     0
100
AcDbLine
 10
-5.0
 20
0.0
 30
0.0
 11
-34.0
 21
0.0
 31
0.0
  0
LINE
  5
246
330
23D
100
AcDbEntity
  8
VERMASSUNG
 62
     0
100
AcDbLine
 10
0.0
 20
-5.0
 30
0.0
 11
0.0
 21
-34.0
 31
0.0
  0
LINE
  5
247
330
23D
100
AcDbEntity
  8
VERMASSUNG
 62
     0
100
AcDbLine
 10
5.0
 20
0.0
 30
0.0
 11
34.0
 21
0.0
 31
0.0
  0
ENDBLK
  5
23F
330
23D
100
AcDbEntity
  8
0
100
AcDbBlockEnd
  0
ENDSEC
  0
SECTION
  2
ENTITIES
  0
MTEXT
  5
4B
330
1F
100
AcDbEntity
  8
KOPF_DÜNN
100
AcDbMText
 10
13.8892156294
 20
23.8770940835
 30
0.0
 40
3.0
 41
0.0
 71
     1
 72
     1
  1
HA6.BCC.RLC.140
  7
SLDTEXTSTYLE0
 73
     1
 44
1.0
  0
MTEXT
  5
4C
330
1F
100
AcDbEntity
  8
VERMASSUNG
100
AcDbMText
 10
13.9329988022
 20
28.9162328764
 30
0.0
 40
3.0
 41
0.0
 71
     1
 72
     1
  1
Bohrstange_Boring bar
  7
SLDTEXTSTYLE0
 73
     1
 44
1.0
  0
MTEXT
  5
4D
330
1F
100
AcDbEntity
  8
VERMASSUNG
100
AcDbMText
 10
98.8601118557
 20
13.8584013384
 30
0.0
 40
2.0
 41
0.0
 71
     1
 72
     1
  1
Datum: 06.02.2009
  7
SLDTEXTSTYLE0
 73
     1
 44
1.0
  0
MTEXT
  5
4E
330
1F
100
AcDbEntity
  8
VERMASSUNG
100
AcDbMText
 10
13.933048693
 20
18.0701447943
 30
0.0
 40
2.0
 41
0.0
 71
     1
 72
     1
  1
DIN 69893 HSK 63 A ICTM / CC.. 12 04..
  7
SLDTEXTSTYLE0
 73
     1
 44
1.0
  0
MTEXT
  5
4F
330
1F
100
AcDbEntity
  8
VERMASSUNG
100
AcDbMText
 10
13.9808475933
 20
13.9309618897
 30
0.0
 40
2.0
 41
0.0
 71
     1
 72
     1
  1
Gewicht: 1550g
  7
SLDTEXTSTYLE0
 73
     1
 44
1.0
  0
LINE
  5
50
330
1F
100
AcDbEntity
  8
0
  6
SLD-Durchgehend
 62
     7
370
    15
100
AcDbLine
 10
142.2518544678
 20
76.8392852076
 30
0.0
 11
146.9018544268
 21
76.8392852076
 31
0.0
  0
LINE
  5
51
330
1F
100
AcDbEntity
  8
0
  6
SLD-Durchgehend
 62
     7
370
    15
100
AcDbLine
 10
146.9298429984
 20
139.8392862209
 30
0.0
 11
142.2518544678
 21
139.8392862209
 31
0.0
  0
ARC
  5
52
330
1F
100
AcDbEntity
  8
0
  6
SLD-Durchgehend
 62
     7
370
    15
100
AcDbCircle
 10
142.2518544536
 20
77.1392857143
 30
0.0
 40
0.3000000000000114
100
AcDbArc
 50
180.0
 51
270.0
  0
ARC
  5
53
330
1F
100
AcDbEntity
  8
0
  6
SLD-Durchgehend
 62
     7
370
    15
100
AcDbCircle
 10
142.2518544536
 20
139.5392857143
 30
0.0
 40
0.3000000000000114
100
AcDbArc
 50
90.0
 51
180.0
  0
ARC
  5
54
330
1F
100
AcDbEntity
  8
0
  6
SLD-Durchgehend
 62
     7
370
    15
100
AcDbCircle
 10
141.4518544536
 20
83.7688548526
 30
0.0
 40
0.6000000000000085
100
AcDbArc
 50
33.5573097619
 51
90.0
  0
ARC
  5
55
330
1F
100
AcDbEntity
  8
0
  6
SLD-Durchgehend
 62
     7
370
    15
100
AcDbCircle
 10
141.4518544536
 20
132.909716576
 30
0.0
 40
0.6000000000000227
100
AcDbArc
 50
270.0
 51
326.4426902381
  0
LINE
  5
56
330
1F
100
AcDbEntity
  8
0
  6
SLD-Durchgehend
 62
     7
370
    15
100
AcDbLine
 10
139.9518543586
 20
84.1188544908
 30
0.0
 11
140.8085672848
 21
84.3484106043
 31
0.0
  0
LINE
  5
57
330
1F
100
AcDbEntity
  8
0
  6
SLD-Durchgehend
 62
     7
370
    15
100
AcDbLine
 10
140.8085672848
 20
132.3301608243
 30
0.0
 11
139.9518543586
 21
132.5597169378
 31
0.0
  0
LINE
  5
58
330
1F
100
AcDbEntity
  8
0
  6
SLD-Durchgehend
 62
     7
370
    15
100
AcDbLine
 10
128.7214319419
 20
131.9970695802
 30
0.0
 11
116.1518535774
 21
131.367331607
 31
0.0
  0
LINE
  5
59
330
1F
100
AcDbEntity
  8
0
  6
SLD-Durchgehend
 62
     7
370
    15
100
AcDbLine
 10
139.9518543586
 20
132.5597169378
 30
0.0
 11
137.1332450036
 21
132.4185042211
 31
0.0
  0
LINE
  5
5A
330
1F
100
AcDbEntity
  8
0
  6
SLD-Durchgehend
 62
     7
370
    15
100
AcDbLine
 10
137.1334666583
 20
84.2600560316
 30
0.0
 11
139.9518543586
 21
84.1188544908
 31
0.0
  0
LINE
  5
5B
330
1F
100
AcDbEntity
  8
0
  6
SLD-Durchgehend
 62
     7
370
    15
100
AcDbLine
 10
120.1518542331
 20
85.1108396926
 30
0.0
 11
128.7221313651
 21
84.6814664581
 31
0.0
  0
ARC
  5
5C
330
1F
100
AcDbEntity
  8
0
  6
SLD-Durchgehend
 62
     7
370
    15
100
AcDbCircle
 10
140.963858654
 20
83.7688548526
 30
0.0
 40
0.6000000000000085
100
AcDbArc
 50
90.0
 51
105.0
  0
ARC
  5
5D
330
1F
100
AcDbEntity
  8
0
  6
SLD-Durchgehend
 62
     7
370
    15
100
AcDbCircle
 10
140.963858654
 20
132.909716576
 30
0.0
 40
0.6000000000000227
100
AcDbArc
 50
255.0
 51
270.0
  0
LINE
  5
5E
330
1F
100
AcDbEntity
  8
0
  6
SLD-Durchgehend
 62
     7
370
    15
100
AcDbLine
 10
140.9638586884
 20
84.3688549974
 30
0.0
 11
141.4518544298
 21
84.3688549974
 31
0.0
  0
LINE
  5
5F
330
1F
100
AcDbEntity
  8
0
  6
SLD-Durchgehend
 62
     7
370
    15
100
AcDbLine
 10
141.4518544298
 20
132.3097164312
 30
0.0
 11
140.9638586884
 21
132.3097164312
 31
0.0
  0
ARC
  5
60
330
1F
100
AcDbEntity
  8
0
  6
SLD-Durchgehend
 62
     7
370
    15
100
AcDbCircle
 10
170.9018544536
 20
85.3392857143
 30
0.0
 40
3.000000000000014
100
AcDbArc
 50
90.0
 51
180.0
  0
ARC
  5
61
330
1F
100
AcDbEntity
  8
0
  6
SLD-Durchgehend
 62
     7
370
    15
100
AcDbCircle
 10
170.9018544536
 20
131.3392857143
 30
0.0
 40
3.0
100
AcDbArc
 50
180.0
 51
270.0
  0
LINE
  5
62
330
1F
100
AcDbEntity
  8
0
  6
SLD-Durchgehend
 62
     7
370
    15
100
AcDbLine
 10
170.9018546354
 20
88.3392861613
 30
0.0
 11
254.6104817848
 21
88.3392861613
 31
0.0
  0
LINE
  5
63
330
1F
100
AcDbEntity
  8
0
  6
SLD-Durchgehend
 62
     7
370
    15
100
AcDbLine
 10
255.9518545132
 20
128.3392852673
 30
0.0
 11
170.9018546354
 21
128.3392852673
 31
0.0
  0
LINE
  5
64
330
1F
100
AcDbEntity
  8
0
  6
SLD-Durchgehend
 62
     7
370
    15
100
AcDbLine
 10
111.2018536042
 20
87.5267854461
 30
0.0
 11
118.7518547486
 21
87.5267854461
 31
0.0
  0
ARC
  5
65
330
1F
100
AcDbEntity
  8
0
  6
SLD-Durchgehend
 62
     7
370
    15
100
AcDbCircle
 10
118.7518544536
 20
86.1267857143
 30
0.0
 40
1.399999999999996
100
AcDbArc
 50
37.6443616934
 51
90.0
  0
LINE
  5
66
330
1F
100
AcDbEntity
  8
0
  6
SLD-Durchgehend
 62
     7
370
    15
100
AcDbLine
 10
111.1930172156
 20
129.2004494497
 30
0.0
 11
110.0617564481
 21
128.0691868195
 31
0.0
  0
LINE
  5
67
330
1F
100
AcDbEntity
  8
0
  6
SLD-Durchgehend
 62
     7
370
    15
100
AcDbLine
 10
110.0492730003
 20
88.67936605
 30
0.0
 11
111.2018536042
 21
87.5267854461
 31
0.0
  0
ARC
  5
68
330
1F
100
AcDbEntity
  8
0
  6
SLD-Durchgehend
 62
     7
370
    15
100
AcDbCircle
 10
114.7518544536
 20
130.6092857143
 30
0.0
 40
1.400000000000015
100
AcDbArc
 50
270.0
 51
301.7485287426
  0
LINE
  5
69
330
1F
100
AcDbEntity
  8
0
  6
SLD-Durchgehend
 62
     7
370
    15
100
AcDbLine
 10
114.751854093
 20
129.2092858383
 30
0.0
 11
111.3261199754
 21
129.2092858383
 31
0.0
  0
LINE
  5
6A
330
1F
100
AcDbEntity
  8
0
  6
SLD-Durchgehend
 62
     7
370
    15
100
AcDbLine
 10
257.2643115382
 20
129.6517422923
 30
0.0
 11
255.9518545132
 21
128.3392852673
 31
0.0
  0
LINE
  5
6B
330
1F
100
AcDbEntity
  8
0
  6
SLD-Durchgehend
 62
     7
370
    15
100
AcDbLine
 10
273.4086915117
 20
128.0517915764
 30
0.0
 11
273.4086915117
 21
128.1633994111
 31
0.0
  0
LINE
  5
6C
330
1F
100
AcDbEntity
  8
0
  6
SLD-Durchgehend
 62
     7
370
    15
100
AcDbLine
 10
276.2469454866
 20
128.2748526462
 30
0.0
 11
276.2469454866
 21
128.1632075586
 31
0.0
  0
LINE
  5
6D
330
1F
100
AcDbEntity
  8
0
  6
SLD-Durchgehend
 62
     7
370
    15
100
AcDbLine
 10
271.3262840371
 20
128.1937065103
 30
0.0
 11
271.3262840371
 21
128.1797552982
 31
0.0
  0
LINE
  5
6E
330
1F
100
AcDbEntity
  8
0
  6
SLD-Durchgehend
 62
     7
370
    15
100
AcDbLine
 10
278.3262833219
 20
128.1797552982
 30
0.0
 11
278.3262833219
 21
128.1937065103
 31
0.0
  0
LINE
  5
6F
330
1F
100
AcDbEntity
  8
0
  6
SLD-Durchgehend
 62
     7
370
    15
100
AcDbLine
 10
281.4769699435
 20
135.2977568784
 30
0.0
 11
269.4395586114
 21
134.2450736591
 31
0.0
  0
ARC
  5
70
330
1F
100
AcDbEntity
  8
0
  6
SLD-Durchgehend
 62
     7
370
    15
100
AcDbCircle
 10
281.5123528705
 20
134.8998217567
 30
0.0
 40
0.399505084600741
100
AcDbArc
 50
355.0786149723
 51
95.0811672705
  0
LINE
  5
71
330
1F
100
AcDbEntity
  8
0
  6
SLD-Durchgehend
 62
     7
370
    15
100
AcDbLine
 10
280.8593317132
 20
122.8570921847
 30
0.0
 11
281.910385118
 21
134.865548698
 31
0.0
  0
ARC
  5
72
330
1F
100
AcDbEntity
  8
0
  6
SLD-Durchgehend
 62
     7
370
    15
100
AcDbCircle
 10
280.4613809328
 20
122.892321949
 30
0.0
 40
0.3995071462531999
100
AcDbArc
 50
274.9406619736
 51
354.9409113044
  0
LINE
  5
73
330
1F
100
AcDbEntity
  8
0
  6
SLD-Durchgehend
 62
     7
370
    15
100
AcDbLine
 10
268.4583767514
 20
121.4416159817
 30
0.0
 11
280.4957880836
 21
122.494299201
 31
0.0
  0
ARC
  5
74
330
1F
100
AcDbEntity
  8
0
  6
SLD-Durchgehend
 62
     7
370
    15
100
AcDbCircle
 10
268.4230066668
 20
121.8395640554
 30
0.0
 40
0.3995168485448208
100
AcDbArc
 50
175.0804905363
 51
275.0791682461
  0
LINE
  5
75
330
1F
100
AcDbEntity
  8
0
  6
SLD-Durchgehend
 62
     7
370
    15
100
AcDbLine
 10
269.0760149818
 20
133.8822806754
 30
0.0
 11
268.024961577
 21
121.8738250935
 31
0.0
  0
ARC
  5
76
330
1F
100
AcDbEntity
  8
0
  6
SLD-Durchgehend
 62
     7
370
    15
100
AcDbCircle
 10
269.4739657109
 20
133.8470509625
 30
0.0
 40
0.3995070906712328
100
AcDbArc
 50
94.9406552848
 51
174.9409179932
  0
ARC
  5
77
330
1F
100
AcDbEntity
  8
0
  6
SLD-Durchgehend
 62
     7
370
    15
100
AcDbCircle
 10
268.4230294633
 20
121.8395438493
 30
0.0
 40
0.3795430425301471
100
AcDbArc
 50
175.0807891149
 51
275.0794852296
  0
LINE
  5
78
330
1F
100
AcDbEntity
  8
0
  6
SLD-Durchgehend
 62
     7
370
    15
100
AcDbLine
 10
268.4566333156
 20
121.4614913368
 30
0.0
 11
280.4940446477
 21
122.5141745561
 31
0.0
  0
ARC
  5
79
330
1F
100
AcDbEntity
  8
0
  6
SLD-Durchgehend
 62
     7
370
    15
100
AcDbCircle
 10
280.4613688412
 20
122.8922826784
 30
0.0
 40
0.379517404741208
100
AcDbArc
 50
274.9391848537
 51
354.942805684
  0
LINE
  5
7A
330
1F
100
AcDbEntity
  8
0
  6
SLD-Durchgehend
 62
     7
370
    15
100
AcDbLine
 10
280.8394088607
 20
122.85882817
 30
0.0
 11
281.8904622655
 21
134.8672828206
 31
0.0
  0
ARC
  5
7B
330
1F
100
AcDbEntity
  8
0
  6
SLD-Durchgehend
 62
     7
370
    15
100
AcDbCircle
 10
281.5123246749
 20
134.8998361129
 30
0.0
 40
0.379536235741518
100
AcDbArc
 50
355.0796245568
 51
95.0784462702
  0
LINE
  5
7C
330
1F
100
AcDbEntity
  8
0
  6
SLD-Durchgehend
 62
     7
370
    15
100
AcDbLine
 10
281.4787282806
 20
135.2778824547
 30
0.0
 11
269.4413169484
 21
134.2251992353
 31
0.0
  0
ARC
  5
7D
330
1F
100
AcDbEntity
  8
0
  6
SLD-Durchgehend
 62
     7
370
    15
100
AcDbCircle
 10
269.4739959004
 20
133.8470717065
 30
0.0
 40
0.3795370100233738
100
AcDbArc
 50
94.9394056903
 51
174.9402676337
  0
LINE
  5
7E
330
1F
100
AcDbEntity
  8
0
  6
SLD-Durchgehend
 62
     7
370
    15
100
AcDbLine
 10
269.0959378343
 20
133.8805446901
 30
0.0
 11
268.0448844295
 21
121.8720900395
 31
0.0
  0
LINE
  5
7F
330
1F
100
AcDbEntity
  8
0
  6
SLD-Durchgehend
 62
     7
370
    15
100
AcDbLine
 10
269.3422838311
 20
122.7070896455
 30
0.0
 11
268.4234484296
 21
121.8238130712
 31
0.0
  0
LINE
  5
80
330
1F
100
AcDbEntity
  8
0
  6
SLD-Durchgehend
 62
     7
370
    15
100
AcDbLine
 10
279.8870607476
 20
123.4236632043
 30
0.0
 11
280.4608597617
 21
122.8764962905
 31
0.0
  0
LINE
  5
81
330
1F
100
AcDbEntity
  8
0
  6
SLD-Durchgehend
 62
     7
370
    15
100
AcDbLine
 10
270.0482859473
 20
133.2350412884
 30
0.0
 11
269.4745018344
 21
133.8322686532
 31
0.0
  0
LINE
  5
82
330
1F
100
AcDbEntity
  8
0
  6
SLD-Durchgehend
 62
     7
370
    15
100
AcDbLine
 10
271.3924302917
 20
123.721010288
 30
0.0
 11
278.1293346744
 21
124.3101584294
 31
0.0
  0
LINE
  5
83
330
1F
100
AcDbEntity
  8
0
  6
SLD-Durchgehend
 62
     7
370
    15
100
AcDbLine
 10
280.5930628639
 20
133.9343844482
 30
0.0
 11
281.5119131665
 21
134.8849518725
 31
0.0
  0
ARC
  5
84
330
1F
100
AcDbEntity
  8
0
  6
SLD-Durchgehend
 62
     7
370
    15
100
AcDbCircle
 10
271.3040011444
 20
124.7158765625
 30
0.0
 40
0.99878857542583
100
AcDbArc
 50
175.0802211042
 51
275.0794129861
  0
LINE
  5
85
330
1F
100
AcDbEntity
  8
0
  6
SLD-Durchgehend
 62
     7
370
    15
100
AcDbLine
 10
278.5429164033
 20
133.0183635035
 30
0.0
 11
271.8060120206
 21
132.4292144307
 31
0.0
  0
ARC
  5
86
330
1F
100
AcDbEntity
  8
0
  6
SLD-Durchgehend
 62
     7
370
    15
100
AcDbCircle
 10
278.631343206
 20
132.0234948039
 30
0.0
 40
0.9987907832813999
100
AcDbArc
 50
355.0803180057
 51
95.0792667006
  0
LINE
  5
87
330
1F
100
AcDbEntity
  8
0
  6
SLD-Durchgehend
 62
     7
370
    15
100
AcDbLine
 10
279.0382161002
 20
125.2171418199
 30
0.0
 11
279.6264543395
 21
131.9378393271
 31
0.0
  0
ARC
  5
88
330
1F
100
AcDbEntity
  8
0
  6
SLD-Durchgehend
 62
     7
370
    15
100
AcDbCircle
 10
278.0433338
 20
125.3052226889
 30
0.0
 40
0.9987737635865255
100
AcDbArc
 50
274.9396537225
 51
354.9405693231
  0
LINE
  5
89
330
1F
100
AcDbEntity
  8
0
  6
SLD-Durchgehend
 62
     7
370
    15
100
AcDbLine
 10
270.8971305948
 20
131.5222310403
 30
0.0
 11
270.3088923555
 21
124.801533533
 31
0.0
  0
ARC
  5
8A
330
1F
100
AcDbEntity
  8
0
  6
SLD-Durchgehend
 62
     7
370
    15
100
AcDbCircle
 10
271.892012895
 20
131.4341501713
 30
0.0
 40
0.9987737635864794
100
AcDbArc
 50
94.9396537225
 51
174.9405693231
  0
CIRCLE
  5
8B
330
1F
100
AcDbEntity
  8
0
  6
SLD-Durchgehend
 62
     7
370
    15
100
AcDbCircle
 10
274.961307136
 20
128.3672384165
 30
0.0
 40
3.79380661433813
  0
LINE
  5
8C
330
1F
100
AcDbEntity
  8
0
  6
SLD-Durchgehend
 62
     7
370
    15
100
AcDbLine
 10
271.1820705991
 20
128.6191924044
 30
0.0
 11
271.1676760774
 21
128.2894669601
 31
0.0
  0
ARC
  5
8D
330
1F
100
AcDbEntity
  8
0
  6
SLD-Durchgehend
 62
     7
370
    15
100
AcDbCircle
 10
274.9673978841
 20
128.2824136289
 30
0.0
 40
3.800279278993958
100
AcDbArc
 50
0.1063412222
 51
174.9158082066
  0
ARC
  5
8E
330
1F
100
AcDbEntity
  8
0
  6
SLD-Durchgehend
 62
     7
370
    15
100
AcDbCircle
 10
258.3482081941
 20
134.0956931763
 30
0.0
 40
15.82940268906546
100
AcDbArc
 50
313.9901815404
 51
316.5035763552
  0
ARC
  5
8F
330
1F
100
AcDbEntity
  8
0
  6
SLD-Durchgehend
 62
     7
370
    15
100
AcDbCircle
 10
289.893706137
 20
133.8779977
 30
0.0
 40
14.47156044442178
100
AcDbArc
 50
223.4995037655
 51
226.2534396842
  0
ARC
  5
90
330
1F
100
AcDbEntity
  8
0
  6
SLD-Durchgehend
 62
     7
370
    15
100
AcDbCircle
 10
280.273229935
 20
143.071290259
 30
0.0
 40
14.18806799257667
100
AcDbArc
 50
223.8900063017
 51
226.6790959451
  0
ARC
  5
91
330
1F
100
AcDbEntity
  8
0
  6
SLD-Durchgehend
 62
     7
370
    15
100
AcDbCircle
 10
269.6336186341
 20
144.5473023062
 30
0.0
 40
15.2559314133061
100
AcDbArc
 50
313.3403365835
 51
315.9202882402
  0
LINE
  5
92
330
1F
100
AcDbEntity
  8
0
  6
SLD-Durchgehend
 62
     7
370
    15
100
AcDbLine
 10
167.9018541436
 20
78.7790084758
 30
0.0
 11
167.9018541436
 21
128.1892864534
 31
0.0
  0
ARC
  5
93
330
1F
100
AcDbEntity
  8
0
  6
SLD-Durchgehend
 62
     7
370
    15
100
AcDbCircle
 10
167.2894362269
 20
78.7648243367
 30
0.0
 40
0.6125821533107654
100
AcDbArc
 50
271.1616423437
 51
1.3267835803
  0
LINE
  5
94
330
1F
100
AcDbEntity
  8
0
  6
SLD-Durchgehend
 62
     7
370
    15
100
AcDbLine
 10
167.3018551629
 20
128.1892864534
 30
0.0
 11
167.9018541436
 21
128.1892864534
 31
0.0
  0
LINE
  5
95
330
1F
100
AcDbEntity
  8
0
  6
SLD-Durchgehend
 62
     7
370
    15
100
AcDbLine
 10
167.3018551629
 20
78.1523680815
 30
0.0
 11
163.3437863748
 21
78.1523680815
 31
0.0
  0
LINE
  5
96
330
1F
100
AcDbEntity
  8
0
  6
SLD-Durchgehend
 62
     7
370
    15
100
AcDbLine
 10
163.3437863748
 20
78.1523680815
 30
0.0
 11
163.3437863748
 21
128.1892864534
 31
0.0
  0
LINE
  5
97
330
1F
100
AcDbEntity
  8
0
  6
SLD-Durchgehend
 62
     7
370
    15
100
AcDbLine
 10
163.3437863748
 20
128.1892864534
 30
0.0
 11
167.3018551629
 21
128.1892864534
 31
0.0
  0
LINE
  5
98
330
1F
100
AcDbEntity
  8
0
  6
SLD-Durchgehend
 62
     7
370
    15
100
AcDbLine
 10
163.3437863748
 20
78.1523680815
 30
0.0
 11
161.8618547182
 21
80.8414483943
 31
0.0
  0
LINE
  5
99
330
1F
100
AcDbEntity
  8
0
  6
SLD-Durchgehend
 62
     7
370
    15
100
AcDbLine
 10
161.8618547182
 20
80.8414483943
 30
0.0
 11
161.8618547182
 21
128.1892864534
 31
0.0
  0
LINE
  5
9A
330
1F
100
AcDbEntity
  8
0
  6
SLD-Durchgehend
 62
     7
370
    15
100
AcDbLine
 10
161.8618547182
 20
128.1892864534
 30
0.0
 11
163.3437863748
 21
128.1892864534
 31
0.0
  0
LINE
  5
9B
330
1F
100
AcDbEntity
  8
0
  6
SLD-Durchgehend
 62
     7
370
    15
100
AcDbLine
 10
146.9018544268
 20
128.1892864534
 30
0.0
 11
156.5599219139
 21
128.1892864534
 31
0.0
  0
LINE
  5
9C
330
1F
100
AcDbEntity
  8
0
  6
SLD-Durchgehend
 62
     7
370
    15
100
AcDbLine
 10
156.5599219139
 20
78.1523680815
 30
0.0
 11
156.5599219139
 21
128.1892864534
 31
0.0
  0
LINE
  5
9D
330
1F
100
AcDbEntity
  8
0
  6
SLD-Durchgehend
 62
     7
370
    15
100
AcDbLine
 10
156.5599219139
 20
78.1523680815
 30
0.0
 11
154.9018548067
 21
78.1523680815
 31
0.0
  0
ARC
  5
9E
330
1F
100
AcDbEntity
  8
0
  6
SLD-Durchgehend
 62
     7
370
    15
100
AcDbCircle
 10
154.2421120309
 20
56.9040555244
 30
0.0
 40
21.25855232734716
100
AcDbArc
 50
88.2215841219
 51
110.1991894934
  0
LINE
  5
9F
330
1F
100
AcDbEntity
  8
0
  6
SLD-Durchgehend
 62
     7
370
    15
100
AcDbLine
 10
146.9018544268
 20
76.8551623949
 30
0.0
 11
146.9018544268
 21
76.8392852076
 31
0.0
  0
LWPOLYLINE
  5
A0
330
1F
100
AcDbEntity
  8
0
  6
SLD-Durchgehend
 62
     7
370
    15
100
AcDbPolyline
 90
       11
 70
   128
 43
0.0
 10
154.9018548067
 20
138.8064811506
 10
153.6022463079
 20
138.8341861346
 10
152.3026387404
 20
138.9171520748
 10
151.1132168781
 20
139.0411390492
 10
149.9973396968
 20
139.1987132409
 10
149.0249215822
 20
139.3681170919
 10
148.1917021993
 20
139.5366604009
 10
147.5584051769
 20
139.6789758035
 10
147.1209918346
 20
139.7843456396
 10
146.9211840268
 20
139.8343837389
 10
146.9298429984
 20
139.8321895429
  0
LINE
  5
A1
330
1F
100
AcDbEntity
  8
0
  6
SLD-Durchgehend
 62
     7
370
    15
100
AcDbLine
 10
156.5599219139
 20
138.8064811506
 30
0.0
 11
154.9018548067
 21
138.8064811506
 31
0.0
  0
LINE
  5
A2
330
1F
100
AcDbEntity
  8
0
  6
SLD-Durchgehend
 62
     7
370
    15
100
AcDbLine
 10
156.5599219139
 20
132.7979753294
 30
0.0
 11
156.5599219139
 21
138.8064811506
 31
0.0
  0
LINE
  5
A3
330
1F
100
AcDbEntity
  8
0
  6
SLD-Durchgehend
 62
     7
370
    15
100
AcDbLine
 10
154.1474751394
 20
132.7979753294
 30
0.0
 11
156.5599219139
 21
132.7979753294
 31
0.0
  0
ARC
  5
A4
330
1F
100
AcDbEntity
  8
0
  6
SLD-Durchgehend
 62
     7
370
    15
100
AcDbCircle
 10
153.7776617563
 20
125.3793819409
 30
0.0
 40
7.427805180680897
100
AcDbArc
 50
87.1461947163
 51
157.7718644507
  0
LINE
  5
A5
330
1F
100
AcDbEntity
  8
0
  6
SLD-Durchgehend
 62
     7
370
    15
100
AcDbLine
 10
158.0418545019
 20
80.8414483943
 30
0.0
 11
158.0418545019
 21
128.1892864534
 31
0.0
  0
LINE
  5
A6
330
1F
100
AcDbEntity
  8
0
  6
SLD-Durchgehend
 62
     7
370
    15
100
AcDbLine
 10
158.0418545019
 20
80.8414483943
 30
0.0
 11
156.5599219139
 21
78.1523680815
 31
0.0
  0
LINE
  5
A7
330
1F
100
AcDbEntity
  8
0
  6
SLD-Durchgehend
 62
     7
370
    15
100
AcDbLine
 10
156.5599219139
 20
128.1892864534
 30
0.0
 11
158.0418545019
 21
128.1892864534
 31
0.0
  0
LINE
  5
A8
330
1F
100
AcDbEntity
  8
0
  6
SLD-Durchgehend
 62
     7
370
    15
100
AcDbLine
 10
141.9518544536
 20
77.1392865607
 30
0.0
 11
141.9518544536
 21
139.5392848679
 31
0.0
  0
LINE
  5
A9
330
1F
100
AcDbEntity
  8
0
  6
SLD-Durchgehend
 62
     7
370
    15
100
AcDbLine
 10
161.7641794693
 20
81.9392858573
 30
0.0
 11
161.0618542146
 21
81.9392858573
 31
0.0
  0
LINE
  5
AA
330
1F
100
AcDbEntity
  8
0
  6
SLD-Durchgehend
 62
     7
370
    15
100
AcDbLine
 10
161.4675569545
 20
134.7392855712
 30
0.0
 11
161.0618542146
 21
134.7392855712
 31
0.0
  0
ARC
  5
AB
330
1F
100
AcDbEntity
  8
0
  6
SLD-Durchgehend
 62
     7
370
    15
100
AcDbCircle
 10
161.0234111975
 20
135.4504773066
 30
0.0
 40
0.838486218132929
100
AcDbArc
 50
301.9851556421
 51
0.5782186088
  0
LWPOLYLINE
  5
AC
330
1F
100
AcDbEntity
  8
0
  6
SLD-Durchgehend
 62
     7
370
    15
100
AcDbPolyline
 90
        3
 70
   128
 43
0.0
 10
161.8357069056
 20
128.1892864534
 10
161.8558029841
 20
128.3369998017
 10
161.8618547182
 20
128.4751521924
  0
ARC
  5
AD
330
1F
100
AcDbEntity
  8
0
  6
SLD-Durchgehend
 62
     7
370
    15
100
AcDbCircle
 10
158.8817855085
 20
135.4512922994
 30
0.0
 40
0.8399658136910396
100
AcDbArc
 50
179.4783948307
 51
237.9582309184
  0
LINE
  5
AE
330
1F
100
AcDbEntity
  8
0
  6
SLD-Durchgehend
 62
     7
370
    15
100
AcDbLine
 10
158.8418550055
 20
134.7392855712
 30
0.0
 11
158.4361522656
 21
134.7392855712
 31
0.0
  0
LINE
  5
AF
330
1F
100
AcDbEntity
  8
0
  6
SLD-Durchgehend
 62
     7
370
    15
100
AcDbLine
 10
158.8418550055
 20
81.9392858573
 30
0.0
 11
158.1395297508
 21
81.9392858573
 31
0.0
  0
LINE
  5
B0
330
1F
100
AcDbEntity
  8
0
  6
SLD-Durchgehend
 62
     7
370
    15
100
AcDbLine
 10
158.0418545019
 20
128.4751521924
 30
0.0
 11
158.0680023145
 21
128.1892864534
 31
0.0
  0
LINE
  5
B1
330
1F
100
AcDbEntity
  8
0
  6
SLD-Durchgehend
 62
     7
370
    15
100
AcDbLine
 10
161.0618542146
 20
134.7392855712
 30
0.0
 11
158.8418550055
 21
134.7392855712
 31
0.0
  0
LINE
  5
B2
330
1F
100
AcDbEntity
  8
0
  6
SLD-Durchgehend
 62
     7
370
    15
100
AcDbLine
 10
161.0618542146
 20
81.9392858573
 30
0.0
 11
158.8418550055
 21
81.9392858573
 31
0.0
  0
LINE
  5
B3
330
1F
100
AcDbEntity
  8
0
  6
SLD-Durchgehend
 62
     7
370
    15
100
AcDbLine
 10
139.9518543586
 20
84.1188544908
 30
0.0
 11
139.9518543586
 21
132.5597169378
 31
0.0
  0
LINE
  5
B4
330
1F
100
AcDbEntity
  8
0
  6
SLD-Durchgehend
 62
     7
370
    15
100
AcDbLine
 10
120.1518542331
 20
85.1108396926
 30
0.0
 11
120.1518542331
 21
86.3941370078
 31
0.0
  0
LWPOLYLINE
  5
B5
330
1F
100
AcDbEntity
  8
0
  6
SLD-Durchgehend
 62
     7
370
    15
100
AcDbPolyline
 90
        5
 70
   128
 43
0.0
 10
119.5302504312
 20
87.4749145039
 10
119.585094155
 20
87.3607734718
 10
119.8755829792
 20
86.9620388874
 10
120.1060126733
 20
86.5952356287
 10
120.1518542331
 20
86.3941370078
  0
LWPOLYLINE
  5
B6
330
1F
100
AcDbEntity
  8
0
  6
SLD-Durchgehend
 62
     7
370
    15
100
AcDbPolyline
 90
        7
 70
   128
 43
0.0
 10
118.7518547486
 20
88.1931970396
 10
118.8316113513
 20
88.1946703919
 10
118.9104105543
 20
88.1827941665
 10
119.0052303683
 20
88.1504549214
 10
119.1338143509
 20
88.0727584043
 10
119.369550721
 20
87.8046678879
 10
119.5302504312
 20
87.4749145039
  0
LWPOLYLINE
  5
B7
330
1F
100
AcDbEntity
  8
0
  6
SLD-Durchgehend
 62
     7
370
    15
100
AcDbPolyline
 90
        3
 70
   128
 43
0.0
 10
114.8382528882
 20
87.697003273
 10
115.546771438
 20
87.8063647577
 10
118.7518547486
 20
88.1931970396
  0
ARC
  5
B8
330
1F
100
AcDbEntity
  8
0
  6
SLD-Durchgehend
 62
     7
370
    15
100
AcDbCircle
 10
111.6881587437
 20
117.084500554
 30
0.0
 40
29.5558469606003
100
AcDbArc
 50
269.0572258187
 51
276.1182671045
  0
LINE
  5
B9
330
1F
100
AcDbEntity
  8
0
  6
SLD-Durchgehend
 62
     7
370
    15
100
AcDbLine
 10
111.1918102216
 20
87.5444693991
 30
0.0
 11
111.2018536042
 21
87.5326546409
 31
0.0
  0
LINE
  5
BA
330
1F
100
AcDbEntity
  8
0
  6
SLD-Durchgehend
 62
     7
370
    15
100
AcDbLine
 10
111.2018536042
 20
129.209224371
 30
0.0
 11
111.1918102216
 21
129.1992387303
 31
0.0
  0
LINE
  5
BB
330
1F
100
AcDbEntity
  8
0
  6
SLD-Durchgehend
 62
     7
370
    15
100
AcDbLine
 10
114.751854093
 20
129.1623732575
 30
0.0
 11
111.2018536042
 21
129.209224371
 31
0.0
  0
ARC
  5
BC
330
1F
100
AcDbEntity
  8
0
  6
SLD-Durchgehend
 62
     7
370
    15
100
AcDbCircle
 10
114.6939296954
 20
130.7121316018
 30
0.0
 40
1.550840469419331
100
AcDbArc
 50
272.1405139456
 51
340.0660547734
  0
LINE
  5
BD
330
1F
100
AcDbEntity
  8
0
  6
SLD-Durchgehend
 62
     7
370
    15
100
AcDbLine
 10
116.1518535774
 20
130.183393372
 30
0.0
 11
116.1518535774
 21
131.367331607
 31
0.0
  0
LWPOLYLINE
  5
BE
330
1F
100
AcDbEntity
  8
0
  6
SLD-Durchgehend
 62
     7
370
    15
100
AcDbPolyline
 90
       12
 70
   128
 43
0.0
 10
128.7221555795
 20
84.6819470205
 10
128.7194407742
 20
84.6816042938
 10
129.0500388678
 20
84.7232325503
 10
129.9656928714
 20
84.8162027576
 10
131.3381019246
 20
84.884470565
 10
132.1338080998
 20
84.8865995684
 10
132.9511572804
 20
84.859101338
 10
133.7647699948
 20
84.8018156865
 10
134.558612128
 20
84.7176054993
 10
135.9177204978
 20
84.5118353644
 10
136.8184994172
 20
84.3310619273
 10
137.1334908727
 20
84.2605403193
  0
LWPOLYLINE
  5
BF
330
1F
100
AcDbEntity
  8
0
  6
SLD-Durchgehend
 62
     7
370
    15
100
AcDbPolyline
 90
       12
 70
   128
 43
0.0
 10
137.1332720119
 20
132.4179659167
 10
136.8157208163
 20
132.3472524562
 10
135.9122466493
 20
132.1657246479
 10
134.5568984944
 20
131.9603680202
 10
133.7661930557
 20
131.8766421207
 10
132.9526250448
 20
131.8195241072
 10
132.1349303435
 20
131.7920836189
 10
131.3379640888
 20
131.7942312488
 10
129.9634427961
 20
131.8625288584
 10
129.0484006714
 20
131.9555027911
 10
128.7193206336
 20
131.9969615468
 10
128.7214514997
 20
131.9966914632
  0
LWPOLYLINE
  5
C0
330
1F
100
AcDbEntity
  8
0
  6
SLD-Durchgehend
 62
     7
370
    15
100
AcDbPolyline
 90
        3
 70
   128
 43
0.0
 10
110.0518546264
 20
88.6861255893
 10
110.0711777072
 20
88.6930658051
 10
110.082133786
 20
88.7491984793
  0
LINE
  5
C1
330
1F
100
AcDbEntity
  8
0
  6
SLD-Durchgehend
 62
     7
370
    15
100
AcDbLine
 10
110.0518546264
 20
88.6861255893
 30
0.0
 11
110.0518546264
 21
128.0299632379
 31
0.0
  0
LWPOLYLINE
  5
C2
330
1F
100
AcDbEntity
  8
0
  6
SLD-Durchgehend
 62
     7
370
    15
100
AcDbPolyline
 90
        3
 70
   128
 43
0.0
 10
110.1145177346
 20
128.0138383188
 10
110.07301055
 20
128.0763635912
 10
110.0518546264
 20
128.0299632379
  0
LWPOLYLINE
  5
C3
330
1F
100
AcDbEntity
  8
0
  6
SLD-Durchgehend
 62
     7
370
    15
100
AcDbPolyline
 90
       12
 70
   128
 43
0.0
 10
110.8760080498
 20
128.7294051179
 10
110.8101486426
 20
128.5446009168
 10
110.6957151752
 20
128.281105546
 10
110.5663805466
 20
128.0479284504
 10
110.4918337624
 20
127.941342307
 10
110.453087018
 20
127.8943421819
 10
110.4090354603
 20
127.8486030677
 10
110.3700838249
 20
127.8158242383
 10
110.3334642213
 20
127.7926436194
 10
110.2871849399
 20
127.7762914577
 10
110.2067447465
 20
127.7983526268
 10
110.1145177346
 20
128.0138383188
  0
LINE
  5
C4
330
1F
100
AcDbEntity
  8
0
  6
SLD-Durchgehend
 62
     7
370
    15
100
AcDbLine
 10
111.1918102216
 20
129.1992387303
 30
0.0
 11
110.8760080498
 21
128.7294051179
 31
0.0
  0
LINE
  5
C5
330
1F
100
AcDbEntity
  8
0
  6
SLD-Durchgehend
 62
     7
370
    15
100
AcDbLine
 10
110.9907637548
 20
87.8953638055
 30
0.0
 11
111.1918102216
 21
87.5444693991
 31
0.0
  0
LWPOLYLINE
  5
C6
330
1F
100
AcDbEntity
  8
0
  6
SLD-Durchgehend
 62
     7
370
    15
100
AcDbPolyline
 90
       12
 70
   128
 43
0.0
 10
110.082133786
 20
88.7491984793
 10
110.1668766897
 20
89.0747478732
 10
110.2179206174
 20
89.1207980492
 10
110.2849683922
 20
89.1264549025
 10
110.3194571297
 20
89.1141875216
 10
110.3642388444
 20
89.0871679911
 10
110.4015960555
 20
89.0567323693
 10
110.4400559526
 20
89.0190212556
 10
110.4900120955
 20
88.9615325757
 10
110.5643279116
 20
88.8601841905
 10
110.7246532302
 20
88.5821043083
 10
110.9907637548
 20
87.8953638055
  0
ELLIPSE
  5
C7
330
1F
100
AcDbEntity
  8
0
  6
SLD-Durchgehend
 62
     7
370
    15
100
AcDbEllipse
 10
253.3761318476
 20
108.3392857143
 30
0.0
 11
-0.4025701892336144
 21
19.99971074150081
 31
0.0
210
0.0
220
0.0
230
1.0
 40
0.2671959542
 41
0.1163255530663849
 42
2.874884195922364
  0
LINE
  5
C8
330
1F
100
AcDbEntity
  8
0
  6
SLD-Durchgehend
 62
     7
370
    15
100
AcDbLine
 10
255.9518545132
 20
128.3383949229
 30
0.0
 11
255.2538319688
 21
128.3383949229
 31
0.0
  0
ARC
  5
C9
330
1F
100
AcDbEntity
  8
0
  6
SLD-Durchgehend
 62
     7
370
    15
100
AcDbCircle
 10
254.4662667277
 20
115.232324277
 30
0.0
 40
13.12971236485759
100
AcDbArc
 50
86.5611380807
 51
99.2487079648
  0
ARC
  5
CA
330
1F
100
AcDbEntity
  8
0
  6
SLD-Durchgehend
 62
     7
370
    15
100
AcDbCircle
 10
254.5784938355
 20
93.9986685069
 30
0.0
 40
5.453702655661247
100
AcDbArc
 50
245.9514855705
 51
274.5956852474
  0
ELLIPSE
  5
CB
330
1F
100
AcDbEntity
  8
0
  6
SLD-Durchgehend
 62
     7
370
    15
100
AcDbEllipse
 10
271.6548747445
 20
108.3392857143
 30
0.0
 11
17.08492152437327
 21
19.98730817770881
 31
0.0
210
0.0
220
0.0
230
1.0
 40
0.0416975068
 41
3.177220121745223
 42
3.326763222316482
  0
LINE
  5
CC
330
1F
100
AcDbEntity
  8
0
  6
SLD-Durchgehend
 62
     7
370
    15
100
AcDbLine
 10
255.9518545132
 20
128.3392852673
 30
0.0
 11
255.9518545132
 21
128.3383949229
 31
0.0
  0
LWPOLYLINE
  5
CD
330
1F
100
AcDbEntity
  8
0
  6
SLD-Durchgehend
 62
     7
370
    15
100
AcDbPolyline
 90
        3
 70
   128
 43
0.0
 10
156.5599219139
 20
132.7979753294
 10
156.915405878
 20
131.9997257122
 10
158.0418545019
 20
129.3894297012
  0
LINE
  5
CE
330
1F
100
AcDbEntity
  8
0
  6
SLD-Durchgehend
 62
     7
370
    15
100
AcDbLine
 10
158.0418545019
 20
129.3894297012
 30
0.0
 11
158.0418545019
 21
128.4751521924
 31
0.0
  0
LWPOLYLINE
  5
CF
330
1F
100
AcDbEntity
  8
0
  6
SLD-Durchgehend
 62
     7
370
    15
100
AcDbPolyline
 90
        3
 70
   128
 43
0.0
 10
163.3437863748
 20
138.8064811506
 10
163.3357825886
 20
138.7921480962
 10
161.8618547182
 20
136.1445190885
  0
LINE
  5
D0
330
1F
100
AcDbEntity
  8
0
  6
SLD-Durchgehend
 62
     7
370
    15
100
AcDbLine
 10
163.3437863748
 20
132.7979753294
 30
0.0
 11
163.3437863748
 21
138.8064811506
 31
0.0
  0
LWPOLYLINE
  5
D1
330
1F
100
AcDbEntity
  8
0
  6
SLD-Durchgehend
 62
     7
370
    15
100
AcDbPolyline
 90
        3
 70
   128
 43
0.0
 10
161.8618547182
 20
129.3894297012
 10
162.9883024107
 20
131.9997257122
 10
163.3437863748
 20
132.7979753294
  0
LINE
  5
D2
330
1F
100
AcDbEntity
  8
0
  6
SLD-Durchgehend
 62
     7
370
    15
100
AcDbLine
 10
161.8618547182
 20
129.3894297012
 30
0.0
 11
161.8618547182
 21
136.1445190885
 31
0.0
  0
LINE
  5
D3
330
1F
100
AcDbEntity
  8
0
  6
SLD-Durchgehend
 62
     7
370
    15
100
AcDbLine
 10
167.3018551629
 20
138.8064811506
 30
0.0
 11
163.3437863748
 21
138.8064811506
 31
0.0
  0
LINE
  5
D4
330
1F
100
AcDbEntity
  8
0
  6
SLD-Durchgehend
 62
     7
370
    15
100
AcDbLine
 10
163.3437863748
 20
132.7979753294
 30
0.0
 11
167.3018551629
 21
132.7979753294
 31
0.0
  0
ARC
  5
D5
330
1F
100
AcDbEntity
  8
0
  6
SLD-Durchgehend
 62
     7
370
    15
100
AcDbCircle
 10
167.218825981
 20
132.1136124373
 30
0.0
 40
0.6893811813573154
100
AcDbArc
 50
352.2154757984
 51
83.0824936921
  0
LINE
  5
D6
330
1F
100
AcDbEntity
  8
0
  6
SLD-Durchgehend
 62
     7
370
    15
100
AcDbLine
 10
161.8618547182
 20
128.4751521924
 30
0.0
 11
161.8618547182
 21
129.3894297012
 31
0.0
  0
LINE
  5
D7
330
1F
100
AcDbEntity
  8
0
  6
SLD-Durchgehend
 62
     7
370
    15
100
AcDbLine
 10
167.9018541436
 20
132.0202371606
 30
0.0
 11
167.9018541436
 21
128.1892864534
 31
0.0
  0
LWPOLYLINE
  5
D8
330
1F
100
AcDbEntity
  8
0
  6
SLD-Durchgehend
 62
     7
370
    15
100
AcDbPolyline
 90
        3
 70
   128
 43
0.0
 10
158.0418545019
 20
136.1445190885
 10
156.5679257002
 20
138.7921480962
 10
156.5599219139
 20
138.8064811506
  0
LINE
  5
D9
330
1F
100
AcDbEntity
  8
0
  6
SLD-Durchgehend
 62
     7
370
    15
100
AcDbLine
 10
158.0418545019
 20
129.3894297012
 30
0.0
 11
158.0418545019
 21
136.1445190885
 31
0.0
  0
ARC
  5
DA
330
1F
100
AcDbEntity
  8
0
  6
SLD-Durchgehend
 62
     7
370
    15
100
AcDbCircle
 10
167.2937476643
 20
138.1982987643
 30
0.0
 40
0.6082364232875822
100
AcDbArc
 50
358.8156305045
 51
89.2362522385
  0
LINE
  5
DB
330
1F
100
AcDbEntity
  8
0
  6
SLD-Durchgehend
 62
     7
370
    15
100
AcDbLine
 10
167.9018541436
 20
132.0202371606
 30
0.0
 11
167.9018541436
 21
138.185726715
 31
0.0
  0
LINE
  5
DC
330
1F
100
AcDbEntity
  8
0
  6
SLD-Durchgehend
 62
     7
370
    15
100
AcDbLine
 10
111.2018536042
 20
87.5267854461
 30
0.0
 11
111.2018536042
 21
87.5326546409
 31
0.0
  0
ELLIPSE
  5
DD
330
1F
100
AcDbEntity
  8
0
  6
SLD-Durchgehend
 62
     7
370
    15
100
AcDbEllipse
 10
255.2538354175
 20
88.5888320118
 30
0.0
 11
2.997343100265397
 21
3.548789783164225
 31
0.0
210
0.0
220
0.0
230
1.0
 40
0.0355702368
 41
1.528706803154624
 42
1.608246802857571
  0
ARC
  5
DE
330
1F
100
AcDbEntity
  8
0
  6
SLD-Durchgehend
 62
     7
370
    15
100
AcDbCircle
 10
269.2499685583
 20
122.6408532989
 30
0.0
 40
2.09725990133389
100
AcDbArc
 50
118.3640134233
 51
333.0481929709
  0
LINE
  5
DF
330
1F
100
AcDbEntity
  8
0
  6
SLD-Durchgehend
 62
     7
370
    15
100
AcDbLine
 10
280.5919750791
 20
122.5148199626
 30
0.0
 11
280.2248253684
 21
118.3201011771
 31
0.0
  0
LINE
  5
E0
330
1F
100
AcDbEntity
  8
0
  6
SLD-Durchgehend
 62
     7
370
    15
100
AcDbLine
 10
255.9518545132
 20
128.3383949229
 30
0.0
 11
260.3931083541
 21
132.7802392223
 31
0.0
  0
LINE
  5
E1
330
1F
100
AcDbEntity
  8
0
  6
SLD-Durchgehend
 62
     7
370
    15
100
AcDbLine
 10
260.3931083541
 20
132.7802392223
 30
0.0
 11
269.0457805257
 21
133.536923913
 31
0.0
  0
LINE
  5
E2
330
1F
100
AcDbEntity
  8
0
  6
SLD-Durchgehend
 62
     7
370
    15
100
AcDbLine
 10
280.2248253684
 20
118.3201011771
 30
0.0
 11
255.2538319688
 21
88.844675807
 31
0.0
  0
ARC
  5
E3
330
1F
100
AcDbEntity
  8
0
  6
SLD-Durchgehend
 62
     7
370
    15
100
AcDbCircle
 10
269.2430521563
 20
122.3050670862
 30
0.0
 40
2.094809745409754
100
AcDbArc
 50
119.1450218438
 51
175.3756656194
  0
CIRCLE
  5
E4
330
1F
100
AcDbEntity
  8
0
  6
SLD-Durchgehend
 62
     7
370
    15
100
AcDbCircle
 10
274.832554584
 20
128.1947047134
 30
0.0
 40
3.493694432090635
  0
CIRCLE
  5
E5
330
1F
100
AcDbEntity
  8
0
  6
SLD-Durchgehend
 62
     7
370
    15
100
AcDbCircle
 10
274.8307507805
 20
128.2295181328
 30
0.0
 40
2.629475577056239
  0
CIRCLE
  5
E6
330
1F
100
AcDbEntity
  8
0
  6
SLD-Durchgehend
 62
     7
370
    15
100
AcDbCircle
 10
274.8294467451
 20
128.229449676
 30
0.0
 40
1.996813813007916
  0
ARC
  5
E7
330
1F
100
AcDbEntity
  8
0
  6
SLD-Durchgehend
 62
     7
370
    15
100
AcDbCircle
 10
274.7859412363
 20
129.7992011237
 30
0.0
 40
0.3933743761554781
100
AcDbArc
 50
14.3668142479
 51
168.6613949704
  0
ARC
  5
E8
330
1F
100
AcDbEntity
  8
0
  6
SLD-Durchgehend
 62
     7
370
    15
100
AcDbCircle
 10
273.7300228644
 20
130.0103129107
 30
0.0
 40
0.683441303805113
100
AcDbArc
 50
254.1973296572
 51
348.7124804399
  0
ARC
  5
E9
330
1F
100
AcDbEntity
  8
0
  6
SLD-Durchgehend
 62
     7
370
    15
100
AcDbCircle
 10
273.4382741682
 20
128.9743972702
 30
0.0
 40
0.3927751462335001
100
AcDbArc
 50
74.3991733223
 51
228.5160782977
  0
ARC
  5
EA
330
1F
100
AcDbEntity
  8
0
  6
SLD-Durchgehend
 62
     7
370
    15
100
AcDbCircle
 10
272.7224180494
 20
128.1668442796
 30
0.0
 40
0.6863878873314756
100
AcDbArc
 50
314.6383736983
 51
48.4036743913
  0
ARC
  5
EB
330
1F
100
AcDbEntity
  8
0
  6
SLD-Durchgehend
 62
     7
370
    15
100
AcDbCircle
 10
273.4832484829
 20
127.4002886962
 30
0.0
 40
0.3936508964395606
100
AcDbArc
 50
135.0413163185
 51
288.1189005053
  0
ARC
  5
EC
330
1F
100
AcDbEntity
  8
0
  6
SLD-Durchgehend
 62
     7
370
    15
100
AcDbCircle
 10
273.8179364206
 20
126.3637355486
 30
0.0
 40
0.6956005628369705
100
AcDbArc
 50
15.3854960009
 51
107.7675299184
  0
ARC
  5
ED
330
1F
100
AcDbEntity
  8
0
  6
SLD-Durchgehend
 62
     7
370
    15
100
AcDbCircle
 10
274.8694907857
 20
126.6530930861
 30
0.0
 40
0.395038867556135
100
AcDbArc
 50
195.3851573106
 51
347.6427737347
  0
ARC
  5
EE
330
1F
100
AcDbEntity
  8
0
  6
SLD-Durchgehend
 62
     7
370
    15
100
AcDbCircle
 10
275.9351187015
 20
126.4192262192
 30
0.0
 40
0.6959499757508365
100
AcDbArc
 50
75.299079663
 51
167.6100241999
  0
ARC
  5
EF
330
1F
100
AcDbEntity
  8
0
  6
SLD-Durchgehend
 62
     7
370
    15
100
AcDbCircle
 10
276.2144225844
 20
127.4722915557
 30
0.0
 40
0.3935326287258336
100
AcDbArc
 50
254.8738782239
 51
48.0433326954
  0
ARC
  5
F0
330
1F
100
AcDbEntity
  8
0
  6
SLD-Durchgehend
 62
     7
370
    15
100
AcDbCircle
 10
276.9342545646
 20
128.2782781224
 30
0.0
 40
0.6871059130596576
100
AcDbArc
 50
134.7023959535
 51
228.33965779
  0
ARC
  5
F1
330
1F
100
AcDbEntity
  8
0
  6
SLD-Durchgehend
 62
     7
370
    15
100
AcDbCircle
 10
276.1756360987
 20
129.0468103897
 30
0.0
 40
0.3927770697502547
100
AcDbArc
 50
314.4980154746
 51
108.6622013492
  0
ARC
  5
F2
330
1F
100
AcDbEntity
  8
0
  6
SLD-Durchgehend
 62
     7
370
    15
100
AcDbCircle
 10
275.8295235005
 20
130.0662764946
 30
0.0
 40
0.6838411193012663
100
AcDbArc
 50
194.3484045644
 51
288.8044343824
  0
LWPOLYLINE
  5
F3
330
1F
100
AcDbEntity
  8
0
  6
SLD-Durchgehend
 62
     7
370
    15
100
AcDbPolyline
 90
        3
 70
   128
 43
0.0
 10
273.0932041269
 20
127.3471957573
 10
273.128162251
 20
127.456929771
 10
273.2046946149
 20
127.563402293
  0
ARC
  5
F4
330
1F
100
AcDbEntity
  8
0
  6
SLD-Durchgehend
 62
     7
370
    15
100
AcDbCircle
 10
276.2165974098
 20
127.3563843608
 30
0.0
 40
0.3927040724024256
100
AcDbArc
 50
7.1911594894
 51
48.3605533838
  0
ARC
  5
F5
330
1F
100
AcDbEntity
  8
0
  6
SLD-Durchgehend
 62
     7
370
    15
100
AcDbCircle
 10
272.7216409778
 20
128.0519692293
 30
0.0
 40
0.6870505568209104
100
AcDbArc
 50
314.6748881234
 51
359.9851848401
  0
ARC
  5
F6
330
1F
100
AcDbEntity
  8
0
  6
SLD-Durchgehend
 62
     7
370
    15
100
AcDbCircle
 10
276.9338759638
 20
128.1633058231
 30
0.0
 40
0.6869304842804433
100
AcDbArc
 50
180.008196079
 51
228.3689006352
  0
ARC
  5
F7
330
1F
100
AcDbEntity
  8
0
  6
SLD-Durchgehend
 62
     7
370
    15
100
AcDbCircle
 10
273.4401034192
 20
128.857787305
 30
0.0
 40
0.3938276675036616
100
AcDbArc
 50
74.7179900538
 51
174.1145918503
  0
ARC
  5
F8
330
1F
100
AcDbEntity
  8
0
  6
SLD-Durchgehend
 62
     7
370
    15
100
AcDbCircle
 10
276.1736692021
 20
128.9299201877
 30
0.0
 40
0.3939093748661559
100
AcDbArc
 50
6.9335508841
 51
108.3049782953
  0
ARC
  5
F9
330
1F
100
AcDbEntity
  8
0
  6
SLD-Durchgehend
 62
     7
370
    15
100
AcDbCircle
 10
273.7253639798
 20
129.9029162178
 30
0.0
 40
0.689531958904424
100
AcDbArc
 50
254.7421707086
 51
348.1676393886
  0
ARC
  5
FA
330
1F
100
AcDbEntity
  8
0
  6
SLD-Durchgehend
 62
     7
370
    15
100
AcDbCircle
 10
275.8336307197
 20
129.9588201332
 30
0.0
 40
0.6897240160237458
100
AcDbArc
 50
194.8727419461
 51
288.2784142631
  0
ARC
  5
FB
330
1F
100
AcDbEntity
  8
0
  6
SLD-Durchgehend
 62
     7
370
    15
100
AcDbCircle
 10
274.7860346058
 20
129.6806094731
 30
0.0
 40
0.3941850157098004
100
AcDbArc
 50
14.8728108332
 51
168.15400752
  0
ARC
  5
FC
330
1F
100
AcDbEntity
  8
0
  6
SLD-Durchgehend
 62
     7
370
    15
100
AcDbCircle
 10
274.8262836795
 20
128.1858041826
 30
0.0
 40
3.50000486936917
100
AcDbArc
 50
180.0990214969
 51
359.9009785032
  0
LINE
  5
FD
330
1F
100
AcDbEntity
  8
0
  6
SLD-Gestrichelt
 62
     7
370
     0
100
AcDbLine
 10
268.6263128381
 20
121.7095286154
 30
0.0
 11
268.4234484296
 21
121.6118691989
 31
0.0
  0
LINE
  5
FE
330
1F
100
AcDbEntity
  8
0
  6
SLD-Gestrichelt
 62
     7
370
     0
100
AcDbLine
 10
280.2905543905
 20
122.7295782917
 30
0.0
 11
280.4608597617
 21
122.6645524182
 31
0.0
  0
ARC
  5
FF
330
1F
100
AcDbEntity
  8
0
  6
SLD-Gestrichelt
 62
     7
370
     0
100
AcDbCircle
 10
274.9676733475
 20
128.2962374646
 30
0.0
 40
3.800003301650495
100
AcDbArc
 50
180.1020845275
 51
359.8979154725
  0
LINE
  5
100
330
1F
100
AcDbEntity
  8
0
  6
SLD-Gestrichelt
 62
     7
370
     0
100
AcDbLine
 10
281.3090338569
 20
134.3657618889
 30
0.0
 11
281.5119131665
 21
134.6730070689
 31
0.0
  0
LINE
  5
101
330
1F
100
AcDbEntity
  8
0
  6
SLD-Gestrichelt
 62
     7
370
     0
100
AcDbLine
 10
269.6447923045
 20
133.3457122126
 30
0.0
 11
269.4745018344
 21
133.6203238496
 31
0.0
  0
CIRCLE
  5
102
330
1F
100
AcDbEntity
  8
0
  6
SLD-Gestrichelt
 62
     7
370
     0
100
AcDbCircle
 10
274.9630611124
 20
128.1827908017
 30
0.0
 40
2.745511355849133
  0
CIRCLE
  5
103
330
1F
100
AcDbEntity
  8
0
  6
SLD-Gestrichelt
 62
     7
370
     0
100
AcDbCircle
 10
274.9630611741
 20
128.0357802715
 30
0.0
 40
2.745511201449636
  0
LINE
  5
104
330
1F
100
AcDbEntity
  8
0
  6
SLD-Gestrichelt
 62
     7
370
     0
100
AcDbLine
 10
281.3090338569
 20
134.3657618889
 30
0.0
 11
269.6447923045
 21
133.3457122126
 31
0.0
  0
LINE
  5
105
330
1F
100
AcDbEntity
  8
0
  6
SLD-Gestrichelt
 62
     7
370
     0
100
AcDbLine
 10
280.2905543905
 20
122.7295782917
 30
0.0
 11
281.3090338569
 21
134.3657618889
 31
0.0
  0
LINE
  5
106
330
1F
100
AcDbEntity
  8
0
  6
SLD-Gestrichelt
 62
     7
370
     0
100
AcDbLine
 10
269.6447923045
 20
133.3457122126
 30
0.0
 11
268.6263128381
 21
121.7095286154
 31
0.0
  0
LINE
  5
107
330
1F
100
AcDbEntity
  8
0
  6
SLD-Gestrichelt
 62
     7
370
     0
100
AcDbLine
 10
268.6263128381
 20
121.7095286154
 30
0.0
 11
280.2905543905
 21
122.7295782917
 31
0.0
  0
LINE
  5
108
330
1F
100
AcDbEntity
  8
0
  6
SLD-Gestrichelt
 62
     7
370
     0
100
AcDbLine
 10
156.5599219139
 20
132.7979753294
 30
0.0
 11
156.5599219139
 21
128.1892864534
 31
0.0
  0
LINE
  5
109
330
1F
100
AcDbEntity
  8
0
  6
SLD-Gestrichelt
 62
     7
370
     0
100
AcDbLine
 10
129.9470049526
 20
84.8146865645
 30
0.0
 11
129.4128588598
 21
84.760071946
 31
0.0
  0
LINE
  5
10A
330
1F
100
AcDbEntity
  8
0
  6
SLD-Gestrichelt
 62
     7
370
     0
100
AcDbLine
 10
129.1752058279
 20
131.9426188746
 30
0.0
 11
129.9469118204
 21
131.8638681003
 31
0.0
  0
LWPOLYLINE
  5
10B
330
1F
100
AcDbEntity
  8
0
  6
SLD-Gestrichelt
 62
     7
370
     0
100
AcDbPolyline
 90
       20
 70
   128
 43
0.0
 10
239.9518518906
 20
99.8297783115
 10
239.1280113917
 20
99.957305243
 10
238.3971019845
 20
100.3267078229
 10
237.8374143701
 20
100.9041427204
 10
237.514595614
 20
101.6320136876
 10
237.4675973516
 20
102.4259470903
 10
237.6974924665
 20
103.1957615667
 10
238.1785839062
 20
103.8589824491
 10
238.862316237
 20
104.3381455855
 10
239.6703019004
 20
104.5693175436
 10
240.5049904447
 20
104.5237528195
 10
241.274784432
 20
104.2112705798
 10
241.9002308707
 20
103.6677307018
 10
242.3095136147
 20
102.9551199206
 10
242.4518495064
 20
102.1625634783
 10
242.313931809
 20
101.3853123912
 10
241.9137834769
 20
100.7038925343
 10
241.2914737325
 20
100.1859849819
 10
240.5150785308
 20
99.8884330073
 10
239.9518518906
 20
99.8297783115
  0
ELLIPSE
  5
10C
330
1F
100
AcDbEntity
  8
0
  6
SLD-Gestrichelt
 62
     7
370
     0
100
AcDbEllipse
 10
271.6548747445
 20
108.3392857143
 30
0.0
 11
17.08492152437327
 21
19.98730817770881
 31
0.0
210
0.0
220
0.0
230
1.0
 40
0.0416975068
 41
2.68512229127299
 42
3.177220121745223
  0
LINE
  5
10D
330
1F
100
AcDbEntity
  8
0
  6
SLD-Gestrichelt
 62
     7
370
     0
100
AcDbLine
 10
255.9518545132
 20
90.7124134281
 30
0.0
 11
255.9518545132
 21
128.3383949229
 31
0.0
  0
LWPOLYLINE
  5
10E
330
1F
100
AcDbEntity
  8
0
  6
SLD-Gestrichelt
 62
     7
370
     0
100
AcDbPolyline
 90
        4
 70
   128
 43
0.0
 10
135.706856494
 20
128.1768141815
 10
136.3882973056
 20
128.2537134865
 10
136.6906004224
 20
128.2764582464
 10
136.6640805464
 20
128.2746552059
  0
ARC
  5
10F
330
1F
100
AcDbEntity
  8
0
  6
SLD-Gestrichelt
 62
     7
370
     0
100
AcDbCircle
 10
137.5133614391
 20
101.4442604508
 30
0.0
 40
13.06797035865803
100
AcDbArc
 50
262.0540345137
 51
266.2737659607
  0
LWPOLYLINE
  5
110
330
1F
100
AcDbEntity
  8
0
  6
SLD-Gestrichelt
 62
     7
370
     0
100
AcDbPolyline
 90
        9
 70
   128
 43
0.0
 10
135.706856494
 20
88.5017572471
 10
134.7103585686
 20
88.6154456564
 10
133.5122623678
 20
88.6860026547
 10
132.2627329465
 20
88.6819104233
 10
131.1022398259
 20
88.6071140447
 10
130.1358967285
 20
88.4932002553
 10
129.4730828341
 20
88.3883612731
 10
129.2055436607
 20
88.3399772027
 10
129.2259619769
 20
88.3437267074
  0
ARC
  5
111
330
1F
100
AcDbEntity
  8
0
  6
SLD-Gestrichelt
 62
     7
370
     0
100
AcDbCircle
 10
132.9486734711
 20
148.0336752145
 30
0.0
 40
20.04750617089302
100
AcDbArc
 50
259.2983744626
 51
277.9079713491
  0
LINE
  5
112
330
1F
100
AcDbEntity
  8
0
  6
SLD-Gestrichelt
 62
     7
370
     0
100
AcDbLine
 10
122.9558299493
 20
91.3392847904
 30
0.0
 11
122.9558299493
 21
125.3392866382
 31
0.0
  0
LINE
  5
113
330
1F
100
AcDbEntity
  8
0
  6
SLD-Gestrichelt
 62
     7
370
     0
100
AcDbLine
 10
149.6116804156
 20
91.3392847904
 30
0.0
 11
149.6116804156
 21
125.3392866382
 31
0.0
  0
LINE
  5
114
330
1F
100
AcDbEntity
  8
0
  6
SLD-Gestrichelt
 62
     7
370
     0
100
AcDbLine
 10
151.901854315
 20
92.6142858842
 30
0.0
 11
151.901854315
 21
124.0642855444
 31
0.0
  0
LWPOLYLINE
  5
115
330
1F
100
AcDbEntity
  8
0
  6
SLD-Gestrichelt
 62
     7
370
     0
100
AcDbPolyline
 90
        6
 70
   128
 43
0.0
 10
116.1518535774
 20
124.6267987915
 10
116.065728591
 20
124.4743543246
 10
115.8168885123
 20
124.3269948789
 10
115.4332264524
 20
124.209866164
 10
114.9807936709
 20
124.1482405492
 10
114.751854093
 20
124.1407769301
  0
LINE
  5
116
330
1F
100
AcDbEntity
  8
0
  6
SLD-Gestrichelt
 62
     7
370
     0
100
AcDbLine
 10
114.751854093
 20
124.1407769301
 30
0.0
 11
111.2018536042
 21
124.1407769301
 31
0.0
  0
LINE
  5
117
330
1F
100
AcDbEntity
  8
0
  6
SLD-Gestrichelt
 62
     7
370
     0
100
AcDbLine
 10
111.2018536042
 20
92.5377944985
 30
0.0
 11
118.7518547486
 21
92.5377944985
 31
0.0
  0
LWPOLYLINE
  5
118
330
1F
100
AcDbEntity
  8
0
  6
SLD-Gestrichelt
 62
     7
370
     0
100
AcDbPolyline
 90
        6
 70
   128
 43
0.0
 10
118.7518547486
 20
92.5377944985
 10
119.1924485575
 20
92.5097523757
 10
119.5829856407
 20
92.432027919
 10
119.8955859255
 20
92.3153276124
 10
120.0983218115
 20
92.1713730821
 10
120.1518542331
 20
92.051772637
  0
LINE
  5
119
330
1F
100
AcDbEntity
  8
0
  6
SLD-Gestrichelt
 62
     7
370
     0
100
AcDbLine
 10
111.2018536042
 20
92.5377944985
 30
0.0
 11
111.2018536042
 21
124.1407769301
 31
0.0
  0
LWPOLYLINE
  5
11A
330
1F
100
AcDbEntity
  8
0
  6
SLD-Gestrichelt
 62
     7
370
     0
100
AcDbPolyline
 90
       21
 70
   128
 43
0.0
 10
239.9518518906
 20
107.4660565972
 10
239.3078833084
 20
107.5797599076
 10
238.7383609276
 20
107.8941689373
 10
238.2527395349
 20
108.4061631444
 10
237.9306062322
 20
109.0833575034
 10
237.8555192809
 20
109.7545136034
 10
237.9884301882
 20
110.3250696358
 10
238.2994025212
 20
110.8063228929
 10
238.8048424583
 20
111.1908208148
 10
239.4849910598
 20
111.41973385
 10
240.1761218171
 20
111.4512064994
 10
240.768524931
 20
111.3312635605
 10
241.3044302922
 20
111.0662561876
 10
241.759973691
 20
110.6102534139
 10
242.017562614
 20
109.9913535907
 10
242.030370162
 20
109.3488966615
 10
241.8490379315
 20
108.7506607035
 10
241.4877667289
 20
108.1973444996
 10
240.928317533
 20
107.7348965371
 10
240.2241184573
 20
107.4860575644
 10
239.9518518906
 20
107.4660565972
  0
LWPOLYLINE
  5
11B
330
1F
100
AcDbEntity
  8
0
  6
SLD-Gestrichelt
 62
     7
370
     0
100
AcDbPolyline
 90
       21
 70
   128
 43
0.0
 10
239.9518518906
 20
110.0502709194
 10
240.60079001
 20
110.1480218384
 10
241.1862044792
 20
110.4317058378
 10
241.6507928829
 20
110.8735539054
 10
241.9490694266
 20
111.4303150715
 10
242.0518576365
 20
112.047489736
 10
241.9490694266
 20
112.6646639348
 10
241.6507928829
 20
113.2214253337
 10
241.1862044792
 20
113.6632736341
 10
240.60079001
 20
113.9469572843
 10
239.9518518906
 20
114.0447084361
 10
239.3029212218
 20
113.9469572843
 10
238.7175067525
 20
113.6632736341
 10
238.2529183488
 20
113.2214253337
 10
237.9546343546
 20
112.6646639348
 10
237.8518535953
 20
112.047489736
 10
237.9546343546
 20
111.4303150715
 10
238.2529183488
 20
110.8735539054
 10
238.7175067525
 20
110.4317058378
 10
239.3029212218
 20
110.1480218384
 10
239.9518518906
 20
110.0502709194
  0
LINE
  5
11C
330
1F
100
AcDbEntity
  8
0
  6
SLD-Gestrichelt
 62
     7
370
     0
100
AcDbLine
 10
111.2018536042
 20
90.3492851683
 30
0.0
 11
111.2018536042
 21
87.5326546409
 31
0.0
  0
LINE
  5
11D
330
1F
100
AcDbEntity
  8
0
  6
SLD-Gestrichelt
 62
     7
370
     0
100
AcDbLine
 10
120.1518542331
 20
90.3492851683
 30
0.0
 11
120.1518542331
 21
86.3941370078
 31
0.0
  0
LINE
  5
11E
330
1F
100
AcDbEntity
  8
0
  6
SLD-Gestrichelt
 62
     7
370
     0
100
AcDbLine
 10
111.2018536042
 20
126.3292862603
 30
0.0
 11
111.2018536042
 21
129.209224371
 31
0.0
  0
LINE
  5
11F
330
1F
100
AcDbEntity
  8
0
  6
SLD-Gestrichelt
 62
     7
370
     0
100
AcDbLine
 10
116.1518535774
 20
126.3292862603
 30
0.0
 11
116.1518535774
 21
130.183393372
 31
0.0
  0
LINE
  5
120
330
1F
100
AcDbEntity
  8
0
  6
SLD-Gestrichelt
 62
     7
370
     0
100
AcDbLine
 10
161.2518551957
 20
98.8392860198
 30
0.0
 11
161.2518551957
 21
117.8392854088
 31
0.0
  0
LINE
  5
121
330
1F
100
AcDbEntity
  8
0
  6
SLD-Gestrichelt
 62
     7
370
     0
100
AcDbLine
 10
163.7518546741
 20
98.8392860198
 30
0.0
 11
163.7518546741
 21
117.8392854088
 31
0.0
  0
LINE
  5
122
330
1F
100
AcDbEntity
  8
0
  6
SLD-Gestrichelt
 62
     7
370
     0
100
AcDbLine
 10
152.401854397
 20
99.8392852523
 30
0.0
 11
152.401854397
 21
116.8392861762
 31
0.0
  0
LINE
  5
123
330
1F
100
AcDbEntity
  8
0
  6
SLD-Gestrichelt
 62
     7
370
     0
100
AcDbLine
 10
167.9018541436
 20
81.9392858573
 30
0.0
 11
161.7641794693
 21
81.9392858573
 31
0.0
  0
LINE
  5
124
330
1F
100
AcDbEntity
  8
0
  6
SLD-Gestrichelt
 62
     7
370
     0
100
AcDbLine
 10
146.9018544268
 20
76.8551623949
 30
0.0
 11
146.9018544268
 21
81.9392858573
 31
0.0
  0
LINE
  5
125
330
1F
100
AcDbEntity
  8
0
  6
SLD-Gestrichelt
 62
     7
370
     0
100
AcDbLine
 10
154.9018548067
 20
81.9392858573
 30
0.0
 11
146.9018544268
 21
81.9392858573
 31
0.0
  0
LINE
  5
126
330
1F
100
AcDbEntity
  8
0
  6
SLD-Gestrichelt
 62
     7
370
     0
100
AcDbLine
 10
158.1395297508
 20
81.9392858573
 30
0.0
 11
154.9018548067
 21
81.9392858573
 31
0.0
  0
LINE
  5
127
330
1F
100
AcDbEntity
  8
0
  6
SLD-Gestrichelt
 62
     7
370
     0
100
AcDbLine
 10
167.9018541436
 20
134.7392855712
 30
0.0
 11
161.4675569545
 21
134.7392855712
 31
0.0
  0
LINE
  5
128
330
1F
100
AcDbEntity
  8
0
  6
SLD-Gestrichelt
 62
     7
370
     0
100
AcDbLine
 10
158.4361522656
 20
134.7392855712
 30
0.0
 11
154.9018548067
 21
134.7392855712
 31
0.0
  0
LINE
  5
129
330
1F
100
AcDbEntity
  8
0
  6
SLD-Gestrichelt
 62
     7
370
     0
100
AcDbLine
 10
154.9018548067
 20
134.7392855712
 30
0.0
 11
146.9018544268
 21
134.7392855712
 31
0.0
  0
ELLIPSE
  5
12A
330
1F
100
AcDbEntity
  8
0
  6
SLD-Gestrichelt
 62
     7
370
     0
100
AcDbEllipse
 10
105.8844225893
 20
108.3392857143
 30
0.0
 11
20.07002071827054
 21
-2.842170943040401E-14
 31
0.0
210
0.0
220
0.0
230
1.0
 40
0.8164965809
 41
4.921555463185702
 42
4.980534842098403
  0
ELLIPSE
  5
12B
330
1F
100
AcDbEntity
  8
0
  6
SLD-Gestrichelt
 62
     7
370
     0
100
AcDbEllipse
 10
105.8844225893
 20
108.3392857143
 30
0.0
 11
20.0700207182705
 21
-1.421085471520200E-14
 31
0.0
210
0.0
220
0.0
230
1.0
 40
0.8164965809
 41
1.302650465081197
 42
1.361629843993898
  0
LINE
  5
12C
330
1F
100
AcDbEntity
  8
0
  6
SLD-Gestrichelt
 62
     7
370
     0
100
AcDbLine
 10
120.1518542331
 20
90.3492851683
 30
0.0
 11
120.1518542331
 21
92.051772637
 31
0.0
  0
LINE
  5
12D
330
1F
100
AcDbEntity
  8
0
  6
SLD-Gestrichelt
 62
     7
370
     0
100
AcDbLine
 10
111.2018536042
 20
90.3492851683
 30
0.0
 11
111.2018536042
 21
92.5377944985
 31
0.0
  0
LINE
  5
12E
330
1F
100
AcDbEntity
  8
0
  6
SLD-Gestrichelt
 62
     7
370
     0
100
AcDbLine
 10
116.1518535774
 20
126.3292862603
 30
0.0
 11
116.1518535774
 21
124.6267987915
 31
0.0
  0
LINE
  5
12F
330
1F
100
AcDbEntity
  8
0
  6
SLD-Gestrichelt
 62
     7
370
     0
100
AcDbLine
 10
111.2018536042
 20
126.3292862603
 30
0.0
 11
111.2018536042
 21
124.1407769301
 31
0.0
  0
LWPOLYLINE
  5
130
330
1F
100
AcDbEntity
  8
0
  6
SLD-Gestrichelt
 62
     7
370
     0
100
AcDbPolyline
 90
       14
 70
   128
 43
0.0
 10
136.7006950278
 20
84.7392922768
 10
136.471828093
 20
84.8004000762
 10
136.134716795
 20
84.8780854174
 10
135.6160255346
 20
84.9870855489
 10
134.87424899
 20
85.1171913126
 10
134.1440399375
 20
85.2177704253
 10
132.9726196091
 20
85.3303486982
 10
131.6510393482
 20
85.3564313182
 10
130.9624967363
 20
85.335267944
 10
130.3123702492
 20
85.2912983426
 10
129.7317241516
 20
85.2343218901
 10
129.3957467388
 20
85.1935597637
 10
129.2018742498
 20
85.1606710383
 10
129.2027403798
 20
85.1608181873
  0
LINE
  5
131
330
1F
100
AcDbEntity
  8
0
  6
SLD-Gestrichelt
 62
     7
370
     0
100
AcDbLine
 10
130.1118667435
 20
85.2716232219
 30
0.0
 11
130.2957116823
 21
85.2898138144
 31
0.0
  0
LINE
  5
132
330
1F
100
AcDbEntity
  8
0
  6
SLD-Gestrichelt
 62
     7
370
     0
100
AcDbLine
 10
130.2957088884
 20
131.3886886963
 30
0.0
 11
130.121635386
 21
131.4058976748
 31
0.0
  0
LWPOLYLINE
  5
133
330
1F
100
AcDbEntity
  8
0
  6
SLD-Gestrichelt
 62
     7
370
     0
100
AcDbPolyline
 90
       14
 70
   128
 43
0.0
 10
129.2027739074
 20
131.5176880487
 10
129.2018667992
 20
131.5178407856
 10
129.3948340427
 20
131.4850191155
 10
129.7302619751
 20
131.4442979672
 10
130.3104368236
 20
131.3873736688
 10
130.9611146536
 20
131.3433873036
 10
131.6504824173
 20
131.322199715
 10
132.9739290487
 20
131.3482227304
 10
134.142290448
 20
131.4604117104
 10
134.8706606041
 20
131.5606927999
 10
135.6110844027
 20
131.6904353478
 10
136.1323619459
 20
131.7998266348
 10
136.4710257586
 20
131.877806274
 10
136.7007807094
 20
131.9392549374
  0
LWPOLYLINE
  5
134
330
1F
100
AcDbEntity
  8
0
  6
SLD-Gestrichelt
 62
     7
370
     0
100
AcDbPolyline
 90
       21
 70
   128
 43
0.0
 10
239.9518518906
 20
105.2180775476
 10
240.5958279233
 20
105.2968206384
 10
241.1653503042
 20
105.5243837216
 10
241.6509716969
 20
105.9250056313
 10
241.9731049996
 20
106.5116040443
 10
242.0481919508
 20
107.1599022287
 10
241.9152810436
 20
107.7704840607
 10
241.6043087106
 20
108.3372331535
 10
241.0988687735
 20
108.8337164872
 10
240.418720172
 20
109.1533128672
 10
239.727581964
 20
109.1989583836
 10
239.1351863008
 20
109.0273183107
 10
238.5992809396
 20
108.6678815516
 10
238.1437300902
 20
108.0998405994
 10
237.8861486178
 20
107.4061427533
 10
237.8733410697
 20
106.7597672844
 10
238.0546733003
 20
106.2152672128
 10
238.4159445029
 20
105.7571650052
 10
238.9753936987
 20
105.4073208978
 10
239.6795927744
 20
105.2317896427
 10
239.9518518906
 20
105.2180775476
  0
LINE
  5
135
330
1F
100
AcDbEntity
  8
0
  6
SLD-Gestrichelt
 62
     7
370
     0
100
AcDbLine
 10
242.9518579703
 20
108.3392857143
 30
0.0
 11
242.9518579703
 21
104.139285864
 31
0.0
  0
LINE
  5
136
330
1F
100
AcDbEntity
  8
0
  6
SLD-Gestrichelt
 62
     7
370
     0
100
AcDbLine
 10
242.9518579703
 20
112.5392855645
 30
0.0
 11
242.9518579703
 21
108.3392857143
 31
0.0
  0
LINE
  5
137
330
1F
100
AcDbEntity
  8
0
  6
SLD-Gestrichelt
 62
     7
370
     0
100
AcDbLine
 10
269.0848960738
 20
133.5403437295
 30
0.0
 11
268.2942851644
 21
124.5075820514
 31
0.0
  0
LINE
  5
138
330
1F
100
AcDbEntity
  8
0
  6
SLD-Gestrichelt
 62
     7
370
     0
100
AcDbLine
 10
268.2942851644
 20
124.5075820514
 30
0.0
 11
268.2536198955
 21
124.4863311329
 31
0.0
  0
LINE
  5
139
330
1F
100
AcDbEntity
  8
0
  6
SLD-Gestrichelt
 62
     7
370
     0
100
AcDbLine
 10
271.1194410186
 20
121.6902893537
 30
0.0
 11
280.5923029046
 21
122.5186998525
 31
0.0
  0
LINE
  5
13A
330
1F
100
AcDbEntity
  8
0
  6
SLD-Gestrichelt
 62
     7
370
     0
100
AcDbLine
 10
280.5923029046
 20
122.5186998525
 30
0.0
 11
280.5919750791
 21
122.5148199626
 31
0.0
  0
LINE
  5
13B
330
1F
100
AcDbEntity
  8
0
  6
SLD-Gestrichelt
 62
     7
370
     0
100
AcDbLine
 10
269.0457805257
 20
133.536923913
 30
0.0
 11
269.0848960738
 21
133.5403437295
 31
0.0
  0
LINE
  5
13C
330
1F
100
AcDbEntity
  8
0
  6
SLD-Gestrichelt
 62
     7
370
     0
100
AcDbLine
 10
277.6040538411
 20
117.0537958422
 30
0.0
 11
280.2248253684
 21
118.3201011771
 31
0.0
  0
ELLIPSE
  5
13D
330
1F
100
AcDbEntity
  8
0
  6
SLD-Gestrichelt
 62
     7
370
     0
100
AcDbEllipse
 10
269.2483460936
 20
122.0089591099
 30
0.0
 11
2.099278559309937
 21
0.1279096578076633
 31
0.0
210
0.0
220
0.0
230
1.0
 40
0.4303128566
 41
5.785720203335871
 42
5.923643437441592
  0
ELLIPSE
  5
13E
330
1F
100
AcDbEntity
  8
0
  6
SLD-Gestrichelt
 62
     7
370
     0
100
AcDbEllipse
 10
269.2483460936
 20
122.0089591099
 30
0.0
 11
-1.617030275730429
 21
2.317989223889199
 31
0.0
210
0.0
220
0.0
230
1.0
 40
0.5780249572
 41
5.737999412232263
 42
5.875922646338023
  0
LINE
  5
13F
330
1F
100
AcDbEntity
  8
0
  6
SLD-Gestrichelt
 62
     7
370
     0
100
AcDbLine
 10
268.5605540138
 20
124.475617198
 30
0.0
 11
268.5605540138
 21
124.3095959106
 31
0.0
  0
ARC
  5
140
330
1F
100
AcDbEntity
  8
0
  6
SLD-Gestrichelt
 62
     7
370
     0
100
AcDbCircle
 10
269.2499202992
 20
122.3286676949
 30
0.0
 40
2.097451422785479
100
AcDbArc
 50
340.9718923722
 51
109.1879808752
  0
LINE
  5
141
330
1F
100
AcDbEntity
  8
0
  6
SLD-Gestrichelt
 62
     7
370
     0
100
AcDbLine
 10
271.2327643495
 20
121.6448314988
 30
0.0
 11
271.2327643495
 21
121.8108518549
 31
0.0
  0
ARC
  5
142
330
1F
100
AcDbEntity
  8
0
  6
SLD-Gestrichelt
 62
     7
370
     0
100
AcDbCircle
 10
269.2501174536
 20
122.3076568045
 30
0.0
 40
2.096002042025291
100
AcDbArc
 50
269.9516008918
 51
119.3481817502
  0
ARC
  5
143
330
1F
100
AcDbEntity
  8
0
  6
SLD-Gestrichelt
 62
     7
370
     0
100
AcDbCircle
 10
269.2451419106
 20
122.3082887442
 30
0.0
 40
2.096635683528751
100
AcDbArc
 50
175.4680230299
 51
270.0875846324
  0
LINE
  5
144
330
1F
100
AcDbEntity
  8
0
  6
SLD-Gestrichelt
 62
     7
370
     0
100
AcDbLine
 10
271.2327643495
 20
121.8108518549
 30
0.0
 11
280.3565218311
 21
122.6087335997
 31
0.0
  0
LINE
  5
145
330
1F
100
AcDbEntity
  8
0
  6
SLD-Gestrichelt
 62
     7
370
     0
100
AcDbLine
 10
280.5923029046
 20
122.5186998525
 30
0.0
 11
280.3565218311
 21
122.6087335997
 31
0.0
  0
ELLIPSE
  5
146
330
1F
100
AcDbEntity
  8
0
  6
SLD-Gestrichelt
 62
     7
370
     0
100
AcDbEllipse
 10
267.0667493883
 20
108.2696012437
 30
0.0
 11
2.056670776927036
 21
25.26942821487766
 31
0.0
210
0.0
220
0.0
230
1.0
 40
0.126926582
 41
6.211914743099513
 42
6.295152727359627
  0
LINE
  5
147
330
1F
100
AcDbEntity
  8
0
  6
SLD-Gestrichelt
 62
     7
370
     0
100
AcDbLine
 10
269.3465902667
 20
133.4562900045
 30
0.0
 11
268.5605540138
 21
124.475617198
 31
0.0
  0
LINE
  5
148
330
1F
100
AcDbEntity
  8
0
  6
SLD-Gestrichelt
 62
     7
370
     0
100
AcDbLine
 10
256.4518555265
 20
108.3392857143
 30
0.0
 11
256.4518555265
 21
91.4871452876
 31
0.0
  0
ARC
  5
149
330
1F
100
AcDbEntity
  8
0
  6
SLD-Gestrichelt
 62
     7
370
     0
100
AcDbCircle
 10
284.1129765609
 20
107.4102745299
 30
0.0
 40
27.67671726669642
100
AcDbArc
 50
148.4737723512
 51
178.076418527
  0
ARC
  5
14A
330
1F
100
AcDbEntity
  8
0
  6
SLD-Gestrichelt
 62
     7
370
     0
100
AcDbCircle
 10
629.8437093581
 20
131.6767822201
 30
0.0
 40
369.4522488759972
100
AcDbArc
 50
179.8288722743
 51
181.5191639691
  0
ELLIPSE
  5
14B
330
1F
100
AcDbEntity
  8
0
  6
SLD-Gestrichelt
 62
     7
370
     0
100
AcDbEllipse
 10
368.9105451117
 20
221.6492957874
 30
0.0
 11
113.6782748676984
 21
132.5900856564669
 31
0.0
210
0.0
220
0.0
230
1.0
 40
0.0216450223
 41
2.967598045499745
 42
3.000992697718457
  0
ELLIPSE
  5
14C
330
1F
100
AcDbEntity
  8
0
  6
SLD-Gestrichelt
 62
     7
370
     0
100
AcDbEllipse
 10
279.2630730001
 20
109.3361818016
 30
0.0
 11
2.480902405635049
 21
25.30663850824871
 31
0.0
210
0.0
220
0.0
230
1.0
 40
0.1142682436
 41
0.2097032425106818
 42
0.9838210170089909
  0
LINE
  5
14D
330
1F
100
AcDbEntity
  8
0
  6
SLD-Gestrichelt
 62
     7
370
     0
100
AcDbLine
 10
280.3565218311
 20
122.6087335997
 30
0.0
 11
280.0609274965
 21
122.4168625229
 31
0.0
  0
LINE
  5
14E
330
1F
100
AcDbEntity
  8
0
  6
SLD-Gestrichelt
 62
     7
370
     0
100
AcDbLine
 10
269.3316444021
 20
133.1193598488
 30
0.0
 11
268.5605540138
 21
124.3095959106
 31
0.0
  0
ELLIPSE
  5
14F
330
1F
100
AcDbEntity
  8
0
  6
SLD-Gestrichelt
 62
     7
370
     0
100
AcDbEllipse
 10
267.139102835
 20
108.2759286242
 30
0.0
 11
2.202914864607237
 21
25.28804708280374
 31
0.0
210
0.0
220
0.0
230
1.0
 40
0.0059762393
 41
6.095908336432476
 42
6.191385341632324
  0
LWPOLYLINE
  5
150
330
1F
100
AcDbEntity
  8
0
  6
SLD-Gestrichelt
 62
     7
370
     0
100
AcDbPolyline
 90
       21
 70
   128
 43
0.0
 10
239.9518518906
 20
102.0158289501
 10
240.60079001
 20
102.1135801018
 10
241.1862044792
 20
102.397263752
 10
241.6507928829
 20
102.8391120524
 10
241.9490694266
 20
103.3958734513
 10
242.0518576365
 20
104.013047883
 10
241.9490694266
 20
104.6302223147
 10
241.6507928829
 20
105.1869834808
 10
241.1862044792
 20
105.6288315484
 10
240.60079001
 20
105.9125156642
 10
239.9518518906
 20
106.0102665831
 10
239.3029212218
 20
105.9125156642
 10
238.7175067525
 20
105.6288315484
 10
238.2529183488
 20
105.1869834808
 10
237.9546343546
 20
104.6302223147
 10
237.8518535953
 20
104.013047883
 10
237.9546343546
 20
103.3958734513
 10
238.2529183488
 20
102.8391120524
 10
238.7175067525
 20
102.397263752
 10
239.3029212218
 20
102.1135801018
 10
239.9518518906
 20
102.0158289501
  0
CIRCLE
  5
151
330
1F
100
AcDbEntity
  8
0
  6
SLD-Gestrichelt
 62
     7
370
     0
100
AcDbCircle
 10
274.8250072476
 20
127.901337566
 30
0.0
 40
2.997485481415287
  0
LINE
  5
152
330
1F
100
AcDbEntity
  8
0
  6
SLD-Gestrichelt
 62
     7
370
     0
100
AcDbLine
 10
271.2327643495
 20
121.6448314988
 30
0.0
 11
280.0609274965
 21
122.4168625229
 31
0.0
  0
LINE
  5
153
330
1F
100
AcDbEntity
  8
0
  6
SLD-Gestrichelt
 62
     7
370
     0
100
AcDbLine
 10
269.3316444021
 20
133.1193598488
 30
0.0
 11
281.087647305
 21
134.1474338004
 31
0.0
  0
LINE
  5
154
330
1F
100
AcDbEntity
  8
0
  6
SLD-Gestrichelt
 62
     7
370
     0
100
AcDbLine
 10
281.087647305
 20
134.1474338004
 30
0.0
 11
280.0609274965
 21
122.4168625229
 31
0.0
  0
ARC
  5
155
330
1F
100
AcDbEntity
  8
0
  6
SLD-Gestrichelt
 62
     7
370
     0
100
AcDbCircle
 10
274.8251324105
 20
127.8376160081
 30
0.0
 40
2.098667771642626
100
AcDbArc
 50
253.3211882232
 51
265.576460034
  0
ARC
  5
156
330
1F
100
AcDbEntity
  8
0
  6
SLD-Gestrichelt
 62
     7
370
     0
100
AcDbCircle
 10
274.8258098798
 20
127.0604587095
 30
0.0
 40
2.098600735884559
100
AcDbArc
 50
159.7115963774
 51
30.2840843599
  0
ARC
  5
157
330
1F
100
AcDbEntity
  8
0
  6
SLD-Gestrichelt
 62
     7
370
     0
100
AcDbCircle
 10
274.8101841618
 20
127.2391390528
 30
0.0
 40
2.028481181152732
100
AcDbArc
 50
25.6984028994
 51
164.2972778379
  0
LINE
  5
158
330
1F
100
AcDbEntity
  8
0
  6
SLD-Gestrichelt
 62
     7
370
     0
100
AcDbLine
 10
158.0418545019
 20
128.4851490089
 30
0.0
 11
158.0418545019
 21
128.1892864534
 31
0.0
  0
LINE
  5
159
330
1F
100
AcDbEntity
  8
0
  6
SLD-Gestrichelt
 62
     7
370
     0
100
AcDbLine
 10
161.8618547182
 20
128.4851490089
 30
0.0
 11
161.8618547182
 21
128.1892864534
 31
0.0
  0
LINE
  5
15A
330
1F
100
AcDbEntity
  8
0
  6
SLD-Gestrichelt
 62
     7
370
     0
100
AcDbLine
 10
163.3437863748
 20
132.7979753294
 30
0.0
 11
163.3437863748
 21
128.1892864534
 31
0.0
  0
LWPOLYLINE
  5
15B
330
1F
100
AcDbEntity
  8
0
  6
SLD-Gestrichelt
 62
     7
370
     0
100
AcDbPolyline
 90
       12
 70
   128
 43
0.0
 10
110.082133786
 20
88.7491984793
 10
110.1668766897
 20
89.0747478732
 10
110.2179206174
 20
89.1207980492
 10
110.2849683922
 20
89.1264549025
 10
110.3194571297
 20
89.1141875216
 10
110.3642388444
 20
89.0871679911
 10
110.4015960555
 20
89.0567323693
 10
110.4400559526
 20
89.0190212556
 10
110.4900120955
 20
88.9615325757
 10
110.5643279116
 20
88.8601841905
 10
110.7246532302
 20
88.5821043083
 10
110.9907637548
 20
87.8953638055
  0
ELLIPSE
  5
15C
330
1F
100
AcDbEntity
  8
0
  6
SLD-Gestrichelt
 62
     7
370
     0
100
AcDbEllipse
 10
271.6548747445
 20
108.3392857143
 30
0.0
 11
17.51204456248257
 21
20.48699088215153
 31
0.0
210
0.0
220
0.0
230
1.0
 40
0.0416975068
 41
1.606423794949951
 42
2.571435616478535
  0
LWPOLYLINE
  5
15D
330
1F
100
AcDbEntity
  8
0
  6
SLD-Gestrichelt
 62
     7
370
     0
100
AcDbPolyline
 90
       23
 70
   128
 43
0.0
 10
239.9518518906
 20
101.5611358487
 10
240.6561850767
 20
101.6574471758
 10
241.3034542661
 20
101.9385780708
 10
241.841229723
 20
102.3817535059
 10
242.2259330015
 20
102.9510695988
 10
242.4264057737
 20
103.6004035303
 10
242.4264057737
 20
104.2771509417
 10
242.2259330015
 20
104.9264853389
 10
241.841229723
 20
105.495801199
 10
241.3034542661
 20
105.9389764012
 10
240.6561850767
 20
106.220107529
 10
239.9518518906
 20
106.3164186233
 10
239.247526155
 20
106.220107529
 10
238.6002495151
 20
105.9389764012
 10
238.0624815088
 20
105.495801199
 10
237.6777707796
 20
104.9264853389
 10
237.4772980075
 20
104.2771509417
 10
237.4772980075
 20
103.6004035303
 10
237.6777707796
 20
102.9510695988
 10
238.0624815088
 20
102.3817535059
 10
238.6002495151
 20
101.9385780708
 10
239.247526155
 20
101.6574471758
 10
239.9518518906
 20
101.5611358487
  0
LWPOLYLINE
  5
15E
330
1F
100
AcDbEntity
  8
0
  6
SLD-Gestrichelt
 62
     7
370
     0
100
AcDbPolyline
 90
       12
 70
   128
 43
0.0
 10
276.6380264621
 20
128.1187573948
 10
275.954316483
 20
127.6520660647
 10
275.3675087552
 20
127.2328777739
 10
275.097648726
 20
127.0394942292
 10
274.964715467
 20
126.9529538729
 10
274.901758061
 20
126.9212013611
 10
274.847771154
 20
126.905255256
 10
274.7898801427
 20
126.9040743389
 10
274.6962859493
 20
126.928534595
 10
274.3341877322
 20
127.0950848737
 10
272.9218109708
 20
127.759644998
 10
272.8574081521
 20
127.7881397435
  0
ELLIPSE
  5
15F
330
1F
100
AcDbEntity
  8
0
  6
SLD-Gestrichelt
 62
     7
370
     0
100
AcDbEllipse
 10
3634.2758785015
 20
402.7353686045
 30
0.0
 11
4088.270422390797
 21
357.5232903412671
 31
0.0
210
0.0
220
0.0
230
1.0
 40
0.0060918057
 41
2.533242315656208
 42
2.540868862974035
  0
LINE
  5
160
330
1F
100
AcDbEntity
  8
0
  6
SLD-Gestrichelt
 62
     7
370
     0
100
AcDbLine
 10
277.6040538411
 20
117.0537958422
 30
0.0
 11
278.2293810706
 21
123.5881785431
 31
0.0
  0
LINE
  5
161
330
1F
100
AcDbEntity
  8
0
  6
SLD-Gestrichelt
 62
     7
370
     0
100
AcDbLine
 10
270.1773896079
 20
108.3392857143
 30
0.0
 11
277.6040538411
 21
117.0537958422
 31
0.0
  0
CIRCLE
  5
162
330
1F
100
AcDbEntity
  8
0
  6
SLD-Gestrichelt
 62
     7
370
     0
100
AcDbCircle
 10
148.9518544536
 20
108.3392857143
 30
0.0
 40
5.0
  0
ARC
  5
163
330
1F
100
AcDbEntity
  8
0
  6
SLD-Gestrichelt
 62
     7
370
     0
100
AcDbCircle
 10
273.4817399744
 20
127.2846217957
 30
0.0
 40
0.3935423807779414
100
AcDbArc
 50
170.8510359533
 51
288.3553125528
  0
ARC
  5
164
330
1F
100
AcDbEntity
  8
0
  6
SLD-Gestrichelt
 62
     7
370
     0
100
AcDbCircle
 10
276.2155712603
 20
127.3570114979
 30
0.0
 40
0.3936443608546645
100
AcDbArc
 50
254.7050140112
 51
7.0818996044
  0
ARC
  5
165
330
1F
100
AcDbEntity
  8
0
  6
SLD-Gestrichelt
 62
     7
370
     0
100
AcDbCircle
 10
272.7212944432
 20
128.0514704694
 30
0.0
 40
0.6873971434910341
100
AcDbArc
 50
0.0267648394
 51
48.3530997435
  0
ARC
  5
166
330
1F
100
AcDbEntity
  8
0
  6
SLD-Gestrichelt
 62
     7
370
     0
100
AcDbCircle
 10
276.9339461671
 20
128.1630673294
 30
0.0
 40
0.6870006948019459
100
AcDbArc
 50
134.6749004311
 51
179.9883048946
  0
ARC
  5
167
330
1F
100
AcDbEntity
  8
0
  6
SLD-Gestrichelt
 62
     7
370
     0
100
AcDbCircle
 10
273.4388897627
 20
128.858522531
 30
0.0
 40
0.3925454879361525
100
AcDbArc
 50
174.2031752324
 51
228.3663252729
  0
ARC
  5
168
330
1F
100
AcDbEntity
  8
0
  6
SLD-Gestrichelt
 62
     7
370
     0
100
AcDbCircle
 10
276.1750957398
 20
128.9306950258
 30
0.0
 40
0.3924001866784041
100
AcDbArc
 50
314.6629393268
 51
6.8463861703
  0
ARC
  5
169
330
1F
100
AcDbEntity
  8
0
  6
SLD-Gestrichelt
 62
     7
370
     0
100
AcDbCircle
 10
274.8262836795
 20
128.1736970126
 30
0.0
 40
3.50000488562937
100
AcDbArc
 50
0.0991753956
 51
179.9008246044
  0
ARC
  5
16A
330
1F
100
AcDbEntity
  8
0
  6
SLD-Gestrichelt
 62
     7
370
     0
100
AcDbCircle
 10
275.9302687377
 20
126.3120707174
 30
0.0
 40
0.6895448552624619
100
AcDbArc
 50
74.7420943192
 51
168.1668281664
  0
ARC
  5
16B
330
1F
100
AcDbEntity
  8
0
  6
SLD-Gestrichelt
 62
     7
370
     0
100
AcDbCircle
 10
273.8220002813
 20
126.2561954525
 30
0.0
 40
0.689711188139046
100
AcDbArc
 50
14.8716109927
 51
108.2795452166
  0
ARC
  5
16C
330
1F
100
AcDbEntity
  8
0
  6
SLD-Gestrichelt
 62
     7
370
     0
100
AcDbCircle
 10
274.8695874912
 20
126.5343896619
 30
0.0
 40
0.3941850157097708
100
AcDbArc
 50
194.8728108332
 51
348.15400752
  0
CIRCLE
  5
16D
330
1F
100
AcDbEntity
  8
0
  6
SLD-Gestrichelt
 62
     7
370
     0
100
AcDbCircle
 10
274.8308246196
 20
127.950412325
 30
0.0
 40
2.495428626288944
  0
CIRCLE
  5
16E
330
1F
100
AcDbEntity
  8
0
  6
SLD-Gestrichelt
 62
     7
370
     0
100
AcDbCircle
 10
274.8308252367
 20
127.5807032671
 30
0.0
 40
2.495428011267765
  0
CIRCLE
  5
16F
330
1F
100
AcDbEntity
  8
0
  6
SLD-Gestrichelt
 62
     7
370
     0
100
AcDbCircle
 10
274.8290099259
 20
127.5178604649
 30
0.0
 40
1.597249839577076
  0
LWPOLYLINE
  5
170
330
1F
100
AcDbEntity
  8
0
  6
SLD-Gestrichelt
 62
     7
370
     0
100
AcDbPolyline
 90
       21
 70
   128
 43
0.0
 10
239.3398835521
 20
102.2402073757
 10
239.9518518906
 20
102.1480246016
 10
240.5638276797
 20
102.2402073757
 10
241.1158933501
 20
102.5077330449
 10
241.5540172916
 20
102.9244137497
 10
241.835313962
 20
103.4494617523
 10
241.932238565
 20
104.0314824821
 10
241.835313962
 20
104.613502979
 10
241.5540172916
 20
105.1385512144
 10
241.1158933501
 20
105.5552319192
 10
240.5638276797
 20
105.8227573556
 10
239.9518518906
 20
105.9149403625
 10
239.3398835521
 20
105.8227573556
 10
238.787810431
 20
105.5552319192
 10
238.3496864896
 20
105.1385512144
 10
238.0683972698
 20
104.613502979
 10
237.9714726668
 20
104.0314824821
 10
238.0683972698
 20
103.4494617523
 10
238.3496864896
 20
102.9244137497
 10
238.787810431
 20
102.5077330449
 10
239.3398835521
 20
102.2402073757
  0
LWPOLYLINE
  5
171
330
1F
100
AcDbEntity
  8
0
  6
SLD-Gestrichelt
 62
     7
370
     0
100
AcDbPolyline
 90
       23
 70
   128
 43
0.0
 10
239.1793086391
 20
101.6775060014
 10
239.8804678779
 20
101.5621058212
 10
240.5874013167
 20
101.6392491327
 10
241.2428512435
 20
101.9026862958
 10
241.79370992
 20
102.3310760536
 10
242.1953483682
 20
102.8897117392
 10
242.4152373533
 20
103.5333366634
 10
242.4355550866
 20
104.2098079377
 10
242.2546624403
 20
104.8643221182
 10
241.8872072559
 20
105.4438538884
 10
241.3629620533
 20
105.9014534147
 10
240.7243951421
 20
106.2000484706
 10
240.0232433539
 20
106.3154491165
 10
239.3163099151
 20
106.2383055722
 10
238.6608599882
 20
105.9748681762
 10
238.1100013118
 20
105.5464786512
 10
237.708355413
 20
104.9878427328
 10
237.4884664278
 20
104.3442178087
 10
237.4681486945
 20
103.6677465343
 10
237.6490487914
 20
103.0132325866
 10
238.0165039759
 20
102.4337008164
 10
238.5407491784
 20
101.9761010573
 10
239.1793086391
 20
101.6775060014
  0
LWPOLYLINE
  5
172
330
1F
100
AcDbEntity
  8
0
  6
SLD-Gestrichelt
 62
     7
370
     0
100
AcDbPolyline
 90
       23
 70
   128
 43
0.0
 10
239.1793086391
 20
101.1367265635
 10
239.8804678779
 20
101.0213259176
 10
240.5874013167
 20
101.0984692291
 10
241.2428512435
 20
101.3619068579
 10
241.79370992
 20
101.7902961501
 10
242.1953483682
 20
102.3489323014
 10
242.4152373533
 20
102.9925567598
 10
242.4355550866
 20
103.6690284998
 10
242.2546624403
 20
104.3235424475
 10
241.8872072559
 20
104.9030742177
 10
241.3629620533
 20
105.360673744
 10
240.7243951421
 20
105.6592687999
 10
240.0232433539
 20
105.774669213
 10
239.3163099151
 20
105.6975259015
 10
238.6608599882
 20
105.4340885055
 10
238.1100013118
 20
105.0056989805
 10
237.708355413
 20
104.4470630621
 10
237.4884664278
 20
103.8034383708
 10
237.4681486945
 20
103.1269670964
 10
237.6490487914
 20
102.4724531488
 10
238.0165039759
 20
101.8929209129
 10
238.5407491784
 20
101.4353216195
 10
239.1793086391
 20
101.1367265635
  0
LWPOLYLINE
  5
173
330
1F
100
AcDbEntity
  8
0
  6
SLD-Gestrichelt
 62
     7
370
     0
100
AcDbPolyline
 90
       21
 70
   128
 43
0.0
 10
239.3338187795
 20
100.5228722968
 10
239.9518518906
 20
100.4297763609
 10
240.5698850017
 20
100.5228722968
 10
241.1274268489
 20
100.7930471131
 10
241.5698870282
 20
101.2138549739
 10
241.8539702158
 20
101.7441034817
 10
241.9518559437
 20
102.3318890982
 10
241.8539702158
 20
102.9196742491
 10
241.5698870282
 20
103.449922757
 10
241.1274268489
 20
103.8707306177
 10
240.5698850017
 20
104.1409058997
 10
239.9518518906
 20
104.2340018355
 10
239.3338187795
 20
104.1409058997
 10
238.7762843828
 20
103.8707306177
 10
238.3338167529
 20
103.449922757
 10
238.0497410159
 20
102.9196742491
 10
237.9518552881
 20
102.3318890982
 10
238.0497410159
 20
101.7441034817
 10
238.3338167529
 20
101.2138549739
 10
238.7762843828
 20
100.7930471131
 10
239.3338187795
 20
100.5228722968
  0
LWPOLYLINE
  5
174
330
1F
100
AcDbEntity
  8
0
  6
SLD-Gestrichelt
 62
     7
370
     0
100
AcDbPolyline
 90
       21
 70
   128
 43
0.0
 10
239.3338187795
 20
101.8038399086
 10
239.9518518906
 20
101.7107439728
 10
240.5698850017
 20
101.8038399086
 10
241.1274268489
 20
102.0740151906
 10
241.5698870282
 20
102.4948230514
 10
241.8539702158
 20
103.0250715592
 10
241.9518559437
 20
103.6128571757
 10
241.8539702158
 20
104.2006423266
 10
241.5698870282
 20
104.7308908344
 10
241.1274268489
 20
105.1516986952
 10
240.5698850017
 20
105.4218739771
 10
239.9518518906
 20
105.514969913
 10
239.3338187795
 20
105.4218739771
 10
238.7762843828
 20
105.1516986952
 10
238.3338167529
 20
104.7308908344
 10
238.0497410159
 20
104.2006423266
 10
237.9518552881
 20
103.6128571757
 10
238.0497410159
 20
103.0250715592
 10
238.3338167529
 20
102.4948230514
 10
238.7762843828
 20
102.0740151906
 10
239.3338187795
 20
101.8038399086
  0
LWPOLYLINE
  5
175
330
1F
100
AcDbEntity
  8
0
  6
SLD-Gestrichelt
 62
     7
370
     0
100
AcDbPolyline
 90
       23
 70
   128
 43
0.0
 10
239.1793086391
 20
100.923504451
 10
239.8804678779
 20
100.8081042708
 10
240.5874013167
 20
100.8852475823
 10
241.2428512435
 20
101.148685211
 10
241.79370992
 20
101.5770745033
 10
242.1953483682
 20
102.1357101889
 10
242.4152373533
 20
102.779335113
 10
242.4355550866
 20
103.4558063873
 10
242.2546624403
 20
104.110320335
 10
241.8872072559
 20
104.689852338
 10
241.3629620533
 20
105.1474518643
 10
240.7243951421
 20
105.4460471531
 10
240.0232433539
 20
105.5614475661
 10
239.3163099151
 20
105.4843042546
 10
238.6608599882
 20
105.2208666259
 10
238.1100013118
 20
104.7924773337
 10
237.708355413
 20
104.2338411824
 10
237.4884664278
 20
103.5902162583
 10
237.4681486945
 20
102.9137449839
 10
237.6490487914
 20
102.2592310363
 10
238.0165039759
 20
101.6796992661
 10
238.5407491784
 20
101.2220999726
 10
239.1793086391
 20
100.923504451
  0
LWPOLYLINE
  5
176
330
1F
100
AcDbEntity
  8
0
  6
SLD-Gestrichelt
 62
     7
370
     0
100
AcDbPolyline
 90
       22
 70
   128
 43
0.0
 10
239.2411186557
 20
101.2620858417
 10
239.9174451094
 20
101.1552701273
 10
240.5968337517
 20
101.2427958229
 10
241.2189199786
 20
101.5168849879
 10
241.7284130316
 20
101.9531840027
 10
242.0800506335
 20
102.5129265652
 10
242.2425924998
 20
103.1463758589
 10
242.2015919547
 20
103.7972478696
 10
241.9606923323
 20
104.4077093282
 10
241.5412991505
 20
104.9235186109
 10
240.9806727629
 20
105.2988434711
 10
240.328635202
 20
105.5003346444
 10
239.6431147318
 20
105.5100886186
 10
238.98503475
 20
105.3272390307
 10
238.4128525119
 20
104.9680328031
 10
237.9774256807
 20
104.4643868261
 10
237.7174302202
 20
103.8610523136
 10
237.6559703808
 20
103.2116382883
 10
237.7985148888
 20
102.5738476345
 10
238.1323903065
 20
102.0043513307
 10
238.6279358726
 20
101.553751392
 10
239.2411186557
 20
101.2620858417
  0
LWPOLYLINE
  5
177
330
1F
100
AcDbEntity
  8
0
  6
SLD-Gestrichelt
 62
     7
370
     0
100
AcDbPolyline
 90
       23
 70
   128
 43
0.0
 10
239.1793086391
 20
100.7102828042
 10
239.8804678779
 20
100.594882624
 10
240.5874013167
 20
100.6720259355
 10
241.2428512435
 20
100.9354630985
 10
241.79370992
 20
101.3638528564
 10
242.1953483682
 20
101.922488542
 10
242.4152373533
 20
102.5661134661
 10
242.4355550866
 20
103.2425847405
 10
242.2546624403
 20
103.8970986881
 10
241.8872072559
 20
104.4766306912
 10
241.3629620533
 20
104.9342302174
 10
240.7243951421
 20
105.2328252734
 10
240.0232433539
 20
105.3482259193
 10
239.3163099151
 20
105.2710823749
 10
238.6608599882
 20
105.007644979
 10
238.1100013118
 20
104.579255454
 10
237.708355413
 20
104.0206195356
 10
237.4884664278
 20
103.3769946114
 10
237.4681486945
 20
102.7005233371
 10
237.6490487914
 20
102.0460093894
 10
238.0165039759
 20
101.4664776192
 10
238.5407491784
 20
101.0088778601
 10
239.1793086391
 20
100.7102828042
  0
LWPOLYLINE
  5
178
330
1F
100
AcDbEntity
  8
0
  6
SLD-Gestrichelt
 62
     7
370
     0
100
AcDbPolyline
 90
       22
 70
   128
 43
0.0
 10
239.2411186557
 20
101.0488641949
 10
239.9174451094
 20
100.9420484805
 10
240.5968337517
 20
101.0295737104
 10
241.2189199786
 20
101.3036633411
 10
241.7284130316
 20
101.7399623559
 10
242.0800506335
 20
102.2997044527
 10
242.2425924998
 20
102.933154212
 10
242.2015919547
 20
103.5840262228
 10
241.9606923323
 20
104.1944876813
 10
241.5412991505
 20
104.710296964
 10
240.9806727629
 20
105.0856218242
 10
240.328635202
 20
105.2871129976
 10
239.6431147318
 20
105.2968669717
 10
238.98503475
 20
105.1140173839
 10
238.4128525119
 20
104.7548111563
 10
237.9774256807
 20
104.2511651793
 10
237.7174302202
 20
103.6478306667
 10
237.6559703808
 20
102.9984161758
 10
237.7985148888
 20
102.3606259876
 10
238.1323903065
 20
101.7911296838
 10
238.6279358726
 20
101.3405297452
 10
239.2411186557
 20
101.0488641949
  0
LWPOLYLINE
  5
179
330
1F
100
AcDbEntity
  8
0
  6
SLD-Gestrichelt
 62
     7
370
     0
100
AcDbPolyline
 90
       23
 70
   128
 43
0.0
 10
239.1793086391
 20
100.497061623
 10
239.8804678779
 20
100.3816605115
 10
240.5874013167
 20
100.458803823
 10
241.2428512435
 20
100.7222414517
 10
241.79370992
 20
101.1506312096
 10
242.1953483682
 20
101.7092668952
 10
242.4152373533
 20
102.3528918193
 10
242.4355550866
 20
103.0293630936
 10
242.2546624403
 20
103.6838770413
 10
241.8872072559
 20
104.2634088115
 10
241.3629620533
 20
104.7210085706
 10
240.7243951421
 20
105.0196036265
 10
240.0232433539
 20
105.1350040396
 10
239.3163099151
 20
105.0578607281
 10
238.6608599882
 20
104.7944233322
 10
238.1100013118
 20
104.3660335743
 10
237.708355413
 20
103.8073978887
 10
237.4884664278
 20
103.1637729646
 10
237.4681486945
 20
102.4873016902
 10
237.6490487914
 20
101.8327877426
 10
238.0165039759
 20
101.2532559724
 10
238.5407491784
 20
100.7956562133
 10
239.1793086391
 20
100.497061623
  0
LWPOLYLINE
  5
17A
330
1F
100
AcDbEntity
  8
0
  6
SLD-Gestrichelt
 62
     7
370
     0
100
AcDbPolyline
 90
       22
 70
   128
 43
0.0
 10
239.2411186557
 20
100.835642548
 10
239.9174451094
 20
100.7288268336
 10
240.5968337517
 20
100.8163520635
 10
241.2189199786
 20
101.0904416942
 10
241.7284130316
 20
101.5267407091
 10
242.0800506335
 20
102.0864828059
 10
242.2425924998
 20
102.7199325652
 10
242.2015919547
 20
103.3708041103
 10
241.9606923323
 20
103.9812660345
 10
241.5412991505
 20
104.4970753172
 10
240.9806727629
 20
104.8723999445
 10
240.328635202
 20
105.0738911179
 10
239.6431147318
 20
105.0836453249
 10
238.98503475
 20
104.900795737
 10
238.4128525119
 20
104.5415892766
 10
237.9774256807
 20
104.0379435324
 10
237.7174302202
 20
103.4346085542
 10
237.6559703808
 20
102.785194529
 10
237.7985148888
 20
102.1474043408
 10
238.1323903065
 20
101.577908037
 10
238.6279358726
 20
101.1273080983
 10
239.2411186557
 20
100.835642548
  0
LWPOLYLINE
  5
17B
330
1F
100
AcDbEntity
  8
0
  6
SLD-Gestrichelt
 62
     7
370
     0
100
AcDbPolyline
 90
       23
 70
   128
 43
0.0
 10
239.1793086391
 20
100.2838390448
 10
239.8804678779
 20
100.1684388646
 10
240.5874013167
 20
100.2455821761
 10
241.2428512435
 20
100.5090198049
 10
241.79370992
 20
100.9374090971
 10
242.1953483682
 20
101.4960452483
 10
242.4152373533
 20
102.1396701724
 10
242.4355550866
 20
102.8161414468
 10
242.2546624403
 20
103.4706553945
 10
241.8872072559
 20
104.0501871647
 10
241.3629620533
 20
104.5077866909
 10
240.7243951421
 20
104.8063819797
 10
240.0232433539
 20
104.9217823927
 10
239.3163099151
 20
104.8446390812
 10
238.6608599882
 20
104.5812014525
 10
238.1100013118
 20
104.1528119275
 10
237.708355413
 20
103.5941762419
 10
237.4884664278
 20
102.9505513177
 10
237.4681486945
 20
102.2740800434
 10
237.6490487914
 20
101.6195660957
 10
238.0165039759
 20
101.0400343255
 10
238.5407491784
 20
100.5824345664
 10
239.1793086391
 20
100.2838390448
  0
LWPOLYLINE
  5
17C
330
1F
100
AcDbEntity
  8
0
  6
SLD-Gestrichelt
 62
     7
370
     0
100
AcDbPolyline
 90
       22
 70
   128
 43
0.0
 10
239.2411186557
 20
100.6224209012
 10
239.9174451094
 20
100.5156051868
 10
240.5968337517
 20
100.6031304167
 10
241.2189199786
 20
100.8772195817
 10
241.7284130316
 20
101.3135190622
 10
242.0800506335
 20
101.873261159
 10
242.2425924998
 20
102.5067104527
 10
242.2015919547
 20
103.1575824634
 10
241.9606923323
 20
103.7680443877
 10
241.5412991505
 20
104.2838536703
 10
240.9806727629
 20
104.6591782977
 10
240.328635202
 20
104.8606694711
 10
239.6431147318
 20
104.8704234452
 10
238.98503475
 20
104.6875738573
 10
238.4128525119
 20
104.3283676298
 10
237.9774256807
 20
103.8247214199
 10
237.7174302202
 20
103.2213869074
 10
237.6559703808
 20
102.5719728821
 10
237.7985148888
 20
101.9341826939
 10
238.1323903065
 20
101.3646863901
 10
238.6279358726
 20
100.9140864515
 10
239.2411186557
 20
100.6224209012
  0
LWPOLYLINE
  5
17D
330
1F
100
AcDbEntity
  8
0
  6
SLD-Gestrichelt
 62
     7
370
     0
100
AcDbPolyline
 90
       23
 70
   128
 43
0.0
 10
239.1793086391
 20
100.1138801255
 10
239.8804678779
 20
99.9984799453
 10
240.5874013167
 20
100.0756232568
 10
241.2428512435
 20
100.3390608856
 10
241.79370992
 20
100.7674501778
 10
242.1953483682
 20
101.3260858634
 10
242.4152373533
 20
101.9697107875
 10
242.4355550866
 20
102.6461820618
 10
242.2546624403
 20
103.3006960095
 10
241.8872072559
 20
103.8802277797
 10
241.3629620533
 20
104.3378275388
 10
240.7243951421
 20
104.6364225947
 10
240.0232433539
 20
104.7518230078
 10
239.3163099151
 20
104.6746796963
 10
238.6608599882
 20
104.4112423004
 10
238.1100013118
 20
103.9828525425
 10
237.708355413
 20
103.4242168569
 10
237.4884664278
 20
102.7805919328
 10
237.4681486945
 20
102.1041206584
 10
237.6490487914
 20
101.4496067108
 10
238.0165039759
 20
100.8700749406
 10
238.5407491784
 20
100.4124751815
 10
239.1793086391
 20
100.1138801255
  0
LWPOLYLINE
  5
17E
330
1F
100
AcDbEntity
  8
0
  6
SLD-Gestrichelt
 62
     7
370
     0
100
AcDbPolyline
 90
       22
 70
   128
 43
0.0
 10
239.2225741606
 20
100.1972493285
 10
239.9165510397
 20
100.0876466313
 10
240.6136646133
 20
100.1774549985
 10
241.2519707542
 20
100.4586948582
 10
241.7747556429
 20
100.9063760319
 10
242.1355723601
 20
101.4807198697
 10
242.3023536067
 20
102.1306940855
 10
242.2602801781
 20
102.7985455037
 10
242.0130997162
 20
103.4249321127
 10
241.5827616315
 20
103.9541971439
 10
241.0075172048
 20
104.3393129983
 10
240.3384625178
 20
104.5460605563
 10
239.6350606542
 20
104.5560692472
 10
238.9598145347
 20
104.3684494251
 10
238.3727087837
 20
103.9998724626
 10
237.9259123664
 20
103.4830880852
 10
237.6591368776
 20
102.8640142211
 10
237.5960751634
 20
102.1976589725
 10
237.7423375111
 20
101.5432307066
 10
238.0849301081
 20
100.9588779451
 10
238.5933949809
 20
100.4965233185
 10
239.2225741606
 20
100.1972493285
  0
LINE
  5
17F
330
1F
100
AcDbEntity
  8
0
  6
SLD-Gestrichelt
 62
     7
370
     0
100
AcDbLine
 10
271.1676760774
 20
128.3696873614
 30
0.0
 11
271.1676760774
 21
128.2894669601
 31
0.0
  0
LINE
  5
180
330
1F
100
AcDbEntity
  8
0
  6
SLD-Gestrichelt
 62
     7
370
     0
100
AcDbLine
 10
278.7676706176
 20
128.2894669601
 30
0.0
 11
278.7676706176
 21
128.3696873614
 31
0.0
  0
LINE
  5
181
330
1F
100
AcDbEntity
  8
0
  6
SLD-Gestrichelt
 62
     7
370
     0
100
AcDbLine
 10
272.2176714998
 20
128.1846577802
 30
0.0
 11
272.2176714998
 21
128.0376447865
 31
0.0
  0
LINE
  5
182
330
1F
100
AcDbEntity
  8
0
  6
SLD-Gestrichelt
 62
     7
370
     0
100
AcDbLine
 10
277.7176751952
 20
128.0376447865
 30
0.0
 11
277.7176751952
 21
128.1846577802
 31
0.0
  0
LINE
  5
183
330
1F
100
AcDbEntity
  8
0
  6
SLD-Gestrichelt
 62
     7
370
     0
100
AcDbLine
 10
141.9518544536
 20
83.0153620371
 30
0.0
 11
142.0460152914
 21
83.685351772
 31
0.0
  0
LINE
  5
184
330
1F
100
AcDbEntity
  8
0
  6
SLD-Gestrichelt
 62
     7
370
     0
100
AcDbLine
 10
142.0460152914
 20
132.9932196566
 30
0.0
 11
141.9518544536
 21
133.6632093915
 31
0.0
  0
ARC
  5
185
330
1F
100
AcDbEntity
  8
0
  6
SLD-Gestrichelt
 62
     7
370
     0
100
AcDbCircle
 10
141.4518544536
 20
83.7688548526
 30
0.0
 40
0.6000000000000152
100
AcDbArc
 50
352.0
 51
0.0
  0
ARC
  5
186
330
1F
100
AcDbEntity
  8
0
  6
SLD-Gestrichelt
 62
     7
370
     0
100
AcDbCircle
 10
141.4518544536
 20
83.7688548526
 30
0.0
 40
0.5999999999999943
100
AcDbArc
 50
0.0
 51
33.5573097619
  0
ARC
  5
187
330
1F
100
AcDbEntity
  8
0
  6
SLD-Gestrichelt
 62
     7
370
     0
100
AcDbCircle
 10
141.4518544536
 20
132.909716576
 30
0.0
 40
0.6000000000000133
100
AcDbArc
 50
348.75
 51
8.0
  0
LWPOLYLINE
  5
188
330
1F
100
AcDbEntity
  8
0
  6
SLD-Gestrichelt
 62
     7
370
     0
100
AcDbPolyline
 90
        3
 70
   128
 43
0.0
 10
142.0403256235
 20
132.7926630655
 10
142.0061821737
 20
132.6801071444
 10
141.9518544536
 20
132.5780546793
  0
LINE
  5
189
330
1F
100
AcDbEntity
  8
0
  6
SLD-Gestrichelt
 62
     7
370
     0
100
AcDbLine
 10
142.0518544511
 20
83.768854154
 30
0.0
 11
142.0518544511
 21
132.9097172746
 31
0.0
  0
ARC
  5
18A
330
1F
100
AcDbEntity
  8
0
  6
SLD-Gestrichelt
 62
     7
370
     0
100
AcDbCircle
 10
135.7068564552
 20
96.3392857143
 30
0.0
 40
7.999999999999993
100
AcDbArc
 50
276.8742288953
 51
321.3178125465
  0
ARC
  5
18B
330
1F
100
AcDbEntity
  8
0
  6
SLD-Gestrichelt
 62
     7
370
     0
100
AcDbCircle
 10
135.7068564552
 20
120.3392857143
 30
0.0
 40
8.000000000000018
100
AcDbArc
 50
38.6821874535
 51
83.1295074528
  0
LINE
  5
18C
330
1F
100
AcDbEntity
  8
0
  6
SLD-Gestrichelt
 62
     7
370
     0
100
AcDbLine
 10
125.0342904787
 20
88.3392861613
 30
0.0
 11
129.2259619769
 21
88.3392861613
 31
0.0
  0
LINE
  5
18D
330
1F
100
AcDbEntity
  8
0
  6
SLD-Gestrichelt
 62
     7
370
     0
100
AcDbLine
 10
129.2259619769
 20
128.3392852673
 30
0.0
 11
125.0342904787
 21
128.3392852673
 31
0.0
  0
ARC
  5
18E
330
1F
100
AcDbEntity
  8
0
  6
SLD-Gestrichelt
 62
     7
370
     0
100
AcDbCircle
 10
125.0342900189
 20
88.9392857143
 30
0.0
 40
0.6000000000000084
100
AcDbArc
 50
210.0
 51
270.0
  0
ARC
  5
18F
330
1F
100
AcDbEntity
  8
0
  6
SLD-Gestrichelt
 62
     7
370
     0
100
AcDbCircle
 10
125.0342900189
 20
127.7392857143
 30
0.0
 40
0.6000000000000227
100
AcDbArc
 50
90.0
 51
150.0
  0
LINE
  5
190
330
1F
100
AcDbEntity
  8
0
  6
SLD-Gestrichelt
 62
     7
370
     0
100
AcDbLine
 10
124.5146739494
 20
128.0392857769
 30
0.0
 11
122.9558299493
 21
125.3392866382
 31
0.0
  0
LINE
  5
191
330
1F
100
AcDbEntity
  8
0
  6
SLD-Gestrichelt
 62
     7
370
     0
100
AcDbLine
 10
122.9558299493
 20
91.3392847904
 30
0.0
 11
124.5146739494
 21
88.6392856517
 31
0.0
  0
ARC
  5
192
330
1F
100
AcDbEntity
  8
0
  6
SLD-Gestrichelt
 62
     7
370
     0
100
AcDbCircle
 10
150.4018544536
 20
92.6142857143
 30
0.0
 40
1.5
100
AcDbArc
 50
238.2116693829
 51
0.0
  0
ARC
  5
193
330
1F
100
AcDbEntity
  8
0
  6
SLD-Gestrichelt
 62
     7
370
     0
100
AcDbCircle
 10
150.4018544536
 20
124.0642857143
 30
0.0
 40
1.5
100
AcDbArc
 50
0.0
 51
121.7883306171
  0
LINE
  5
194
330
1F
100
AcDbEntity
  8
0
  6
SLD-Gestrichelt
 62
     7
370
     0
100
AcDbLine
 10
141.9518544536
 20
91.3392847904
 30
0.0
 11
149.6116804156
 21
91.3392847904
 31
0.0
  0
LINE
  5
195
330
1F
100
AcDbEntity
  8
0
  6
SLD-Gestrichelt
 62
     7
370
     0
100
AcDbLine
 10
149.6116804156
 20
125.3392866382
 30
0.0
 11
141.9518544536
 21
125.3392866382
 31
0.0
  0
LINE
  5
196
330
1F
100
AcDbEntity
  8
0
  6
SLD-Gestrichelt
 62
     7
370
     0
100
AcDbLine
 10
120.1518542331
 20
91.3392847904
 30
0.0
 11
122.9558299493
 21
91.3392847904
 31
0.0
  0
LINE
  5
197
330
1F
100
AcDbEntity
  8
0
  6
SLD-Gestrichelt
 62
     7
370
     0
100
AcDbLine
 10
122.9558299493
 20
125.3392866382
 30
0.0
 11
116.1518535774
 21
125.3392866382
 31
0.0
  0
LINE
  5
198
330
1F
100
AcDbEntity
  8
0
  6
SLD-Gestrichelt
 62
     7
370
     0
100
AcDbLine
 10
237.8518535953
 20
112.047489736
 30
0.0
 11
237.8518535953
 21
109.6345786971
 31
0.0
  0
LINE
  5
199
330
1F
100
AcDbEntity
  8
0
  6
SLD-Gestrichelt
 62
     7
370
     0
100
AcDbLine
 10
242.0518576365
 20
109.6329855534
 30
0.0
 11
242.0518576365
 21
112.047489736
 31
0.0
  0
LINE
  5
19A
330
1F
100
AcDbEntity
  8
0
  6
SLD-Gestrichelt
 62
     7
370
     0
100
AcDbLine
 10
161.2518551957
 20
98.8392860198
 30
0.0
 11
163.7518546741
 21
98.8392860198
 31
0.0
  0
LINE
  5
19B
330
1F
100
AcDbEntity
  8
0
  6
SLD-Gestrichelt
 62
     7
370
     0
100
AcDbLine
 10
163.7518546741
 20
117.8392854088
 30
0.0
 11
161.2518551957
 21
117.8392854088
 31
0.0
  0
LINE
  5
19C
330
1F
100
AcDbEntity
  8
0
  6
SLD-Gestrichelt
 62
     7
370
     0
100
AcDbLine
 10
151.901854315
 20
99.3392861017
 30
0.0
 11
152.401854397
 21
99.8392852523
 31
0.0
  0
LINE
  5
19D
330
1F
100
AcDbEntity
  8
0
  6
SLD-Gestrichelt
 62
     7
370
     0
100
AcDbLine
 10
152.401854397
 20
116.8392861762
 30
0.0
 11
151.901854315
 21
117.3392853269
 31
0.0
  0
LINE
  5
19E
330
1F
100
AcDbEntity
  8
0
  6
SLD-Gestrichelt
 62
     7
370
     0
100
AcDbLine
 10
152.401854397
 20
99.8392852523
 30
0.0
 11
161.2518551957
 21
99.8392852523
 31
0.0
  0
LINE
  5
19F
330
1F
100
AcDbEntity
  8
0
  6
SLD-Gestrichelt
 62
     7
370
     0
100
AcDbLine
 10
161.2518551957
 20
116.8392861762
 30
0.0
 11
152.401854397
 21
116.8392861762
 31
0.0
  0
LINE
  5
1A0
330
1F
100
AcDbEntity
  8
0
  6
SLD-Gestrichelt
 62
     7
370
     0
100
AcDbLine
 10
146.9018544268
 20
139.8392862209
 30
0.0
 11
146.9018544268
 21
134.7392855712
 31
0.0
  0
LINE
  5
1A1
330
1F
100
AcDbEntity
  8
0
  6
SLD-Gestrichelt
 62
     7
370
     0
100
AcDbLine
 10
137.136292291
 20
84.2599144706
 30
0.0
 11
136.7018601123
 21
84.738981215
 31
0.0
  0
LINE
  5
1A2
330
1F
100
AcDbEntity
  8
0
  6
SLD-Gestrichelt
 62
     7
370
     0
100
AcDbLine
 10
129.2018565547
 20
85.1606691756
 30
0.0
 11
128.7194230791
 21
84.6816024312
 31
0.0
  0
LINE
  5
1A3
330
1F
100
AcDbEntity
  8
0
  6
SLD-Gestrichelt
 62
     7
370
     0
100
AcDbLine
 10
128.7193010758
 20
131.9969634094
 30
0.0
 11
129.201851898
 21
131.5178426483
 31
0.0
  0
LINE
  5
1A4
330
1F
100
AcDbEntity
  8
0
  6
SLD-Gestrichelt
 62
     7
370
     0
100
AcDbLine
 10
136.7018545244
 20
131.9395417848
 30
0.0
 11
137.1363965992
 21
132.4186606833
 31
0.0
  0
LINE
  5
1A5
330
1F
100
AcDbEntity
  8
0
  6
SLD-Gestrichelt
 62
     7
370
     0
100
AcDbLine
 10
163.7518546741
 20
104.139285864
 30
0.0
 11
242.9518579703
 21
104.139285864
 31
0.0
  0
LINE
  5
1A6
330
1F
100
AcDbEntity
  8
0
  6
SLD-Gestrichelt
 62
     7
370
     0
100
AcDbLine
 10
242.9518579703
 20
112.5392855645
 30
0.0
 11
163.7518546741
 21
112.5392855645
 31
0.0
  0
LINE
  5
1A7
330
1F
100
AcDbEntity
  8
0
  6
SLD-Gestrichelt
 62
     7
370
     0
100
AcDbLine
 10
242.9518579703
 20
104.139285864
 30
0.0
 11
245.475466476
 21
108.3392857143
 31
0.0
  0
LINE
  5
1A8
330
1F
100
AcDbEntity
  8
0
  6
SLD-Gestrichelt
 62
     7
370
     0
100
AcDbLine
 10
245.475466476
 20
108.3392857143
 30
0.0
 11
242.9518579703
 21
112.5392855645
 31
0.0
  0
LINE
  5
1A9
330
1F
100
AcDbEntity
  8
0
  6
SLD-Gestrichelt
 62
     7
370
     0
100
AcDbLine
 10
136.7018545244
 20
84.7394636401
 30
0.0
 11
136.7018545244
 21
88.4038845577
 31
0.0
  0
LINE
  5
1AA
330
1F
100
AcDbEntity
  8
0
  6
SLD-Gestrichelt
 62
     7
370
     0
100
AcDbLine
 10
129.201854692
 20
88.3436633774
 30
0.0
 11
129.201854692
 21
85.1609914133
 31
0.0
  0
LINE
  5
1AB
330
1F
100
AcDbEntity
  8
0
  6
SLD-Gestrichelt
 62
     7
370
     0
100
AcDbLine
 10
136.7018545244
 20
128.2746868708
 30
0.0
 11
136.7018545244
 21
131.9389885792
 31
0.0
  0
LINE
  5
1AC
330
1F
100
AcDbEntity
  8
0
  6
SLD-Gestrichelt
 62
     7
370
     0
100
AcDbLine
 10
129.201854692
 20
131.5175874659
 30
0.0
 11
129.201854692
 21
128.3349080512
 31
0.0
  0
LINE
  5
1AD
330
1F
100
AcDbEntity
  8
0
  6
SLD-Gestrichelt
 62
     7
370
     0
100
AcDbLine
 10
267.1483411651
 20
122.641370868
 30
0.0
 11
267.1483411651
 21
122.3065399134
 31
0.0
  0
LINE
  5
1AE
330
1F
100
AcDbEntity
  8
0
  6
SLD-Gestrichelt
 62
     7
370
     0
100
AcDbLine
 10
271.3483526569
 20
122.3065399134
 30
0.0
 11
271.3483526569
 21
122.3302569741
 31
0.0
  0
LINE
  5
1AF
330
1F
100
AcDbEntity
  8
0
  6
SLD-Gestrichelt
 62
     7
370
     0
100
AcDbLine
 10
237.8518535953
 20
107.0455858751
 30
0.0
 11
237.8518535953
 21
104.013047883
 31
0.0
  0
LINE
  5
1B0
330
1F
100
AcDbEntity
  8
0
  6
SLD-Gestrichelt
 62
     7
370
     0
100
AcDbLine
 10
242.0518576365
 20
104.013047883
 30
0.0
 11
242.0518576365
 21
107.0439927315
 31
0.0
  0
LINE
  5
1B1
330
1F
100
AcDbEntity
  8
0
  6
SLD-Gestrichelt
 62
     7
370
     0
100
AcDbLine
 10
272.7262779336
 20
127.8337633737
 30
0.0
 11
272.7262779336
 21
127.0594673731
 31
0.0
  0
LINE
  5
1B2
330
1F
100
AcDbEntity
  8
0
  6
SLD-Gestrichelt
 62
     7
370
     0
100
AcDbLine
 10
276.9262745242
 20
127.0594673731
 30
0.0
 11
276.9262745242
 21
127.8337633737
 31
0.0
  0
LINE
  5
1B3
330
1F
100
AcDbEntity
  8
0
  6
SLD-Gestrichelt
 62
     7
370
     0
100
AcDbLine
 10
237.4518542748
 20
103.938777236
 30
0.0
 11
237.4518542748
 21
102.1601466962
 31
0.0
  0
LINE
  5
1B4
330
1F
100
AcDbEntity
  8
0
  6
SLD-Gestrichelt
 62
     7
370
     0
100
AcDbLine
 10
242.451856957
 20
102.1589690388
 30
0.0
 11
242.451856957
 21
103.938777236
 31
0.0
  0
LINE
  5
1B5
330
1F
100
AcDbEntity
  8
0
  6
SLD-Gestrichelt
 62
     7
370
     0
100
AcDbLine
 10
273.0881228309
 20
127.4025703349
 30
0.0
 11
273.0881228309
 21
127.2843221703
 31
0.0
  0
LINE
  5
1B6
330
1F
100
AcDbEntity
  8
0
  6
SLD-Gestrichelt
 62
     7
370
     0
100
AcDbLine
 10
276.6092970233
 20
127.3565294721
 30
0.0
 11
276.6092970233
 21
127.4748093018
 31
0.0
  0
LINE
  5
1B7
330
1F
100
AcDbEntity
  8
0
  6
SLD-Gestrichelt
 62
     7
370
     0
100
AcDbLine
 10
273.0463399749
 20
128.9766861626
 30
0.0
 11
273.0463399749
 21
128.8584696629
 31
0.0
  0
LINE
  5
1B8
330
1F
100
AcDbEntity
  8
0
  6
SLD-Gestrichelt
 62
     7
370
     0
100
AcDbLine
 10
276.5674992662
 20
128.9306769648
 30
0.0
 11
276.5674992662
 21
129.0489251294
 31
0.0
  0
CIRCLE
  5
1B9
330
1F
100
AcDbEntity
  8
0
  6
SLD-Gestrichelt
 62
     7
370
     0
100
AcDbCircle
 10
274.8329688002
 20
128.0033289042
 30
0.0
 40
2.272462468385254
  0
LINE
  5
1BA
330
1F
100
AcDbEntity
  8
0
  6
SLD-Gestrichelt
 62
     7
370
     0
100
AcDbLine
 10
272.3262711625
 20
127.9495584347
 30
0.0
 11
272.3262711625
 21
127.5798494497
 31
0.0
  0
LINE
  5
1BB
330
1F
100
AcDbEntity
  8
0
  6
SLD-Gestrichelt
 62
     7
370
     0
100
AcDbLine
 10
277.3262812953
 20
127.5798494497
 30
0.0
 11
277.3262812953
 21
127.9495584347
 31
0.0
  0
LINE
  5
1BC
330
1F
100
AcDbEntity
  8
0
  6
SLD-Gestrichelt
 62
     7
370
     0
100
AcDbLine
 10
237.4518542748
 20
103.938777236
 30
0.0
 11
237.4518542748
 21
103.3979977981
 31
0.0
  0
LINE
  5
1BD
330
1F
100
AcDbEntity
  8
0
  6
SLD-Gestrichelt
 62
     7
370
     0
100
AcDbLine
 10
242.451856957
 20
103.3979977981
 30
0.0
 11
242.451856957
 21
103.938777236
 31
0.0
  0
LINE
  5
1BE
330
1F
100
AcDbEntity
  8
0
  6
SLD-Gestrichelt
 62
     7
370
     0
100
AcDbLine
 10
237.9518552881
 20
103.6128571757
 30
0.0
 11
237.9518552881
 21
102.3318890982
 31
0.0
  0
LINE
  5
1BF
330
1F
100
AcDbEntity
  8
0
  6
SLD-Gestrichelt
 62
     7
370
     0
100
AcDbLine
 10
241.9518559437
 20
102.3318890982
 30
0.0
 11
241.9518559437
 21
103.6128571757
 31
0.0
  0
LINE
  5
1C0
330
1F
100
AcDbEntity
  8
0
  6
SLD-Gestrichelt
 62
     7
370
     0
100
AcDbLine
 10
237.4518542748
 20
102.5451107451
 30
0.0
 11
237.4518542748
 21
102.3751513601
 31
0.0
  0
LINE
  5
1C1
330
1F
100
AcDbEntity
  8
0
  6
SLD-Gestrichelt
 62
     7
370
     0
100
AcDbLine
 10
242.451856957
 20
102.3751513601
 30
0.0
 11
242.451856957
 21
102.5451107451
 31
0.0
  0
CIRCLE
  5
1C2
330
1F
100
AcDbEntity
  8
0
  6
SLD-Gestrichelt
 62
     7
370
     0
100
AcDbCircle
 10
239.9518544536
 20
103.0735297518
 30
0.0
 40
1.999999999999996
  0
LINE
  5
1C3
330
1F
100
AcDbEntity
  8
VERMASSUNG
100
AcDbLine
 10
281.9518544536
 20
135.3392857143
 30
0.0
 11
281.9518544536
 21
102.1180651611
 31
0.0
  0
DIMENSION
  5
1C4
330
1F
100
AcDbEntity
  8
VERMASSUNG
100
AcDbDimension
  2
_D
 10
105.4808174325
 20
76.8392857143
 30
0.0
 11
105.4808174325
 21
108.3392857143
 31
0.0
 70
   160
  1
HSK %%c<>
 71
     2
 42
-1.0
  3
SLDDIMSTYLE0
100
AcDbAlignedDimension
 13
142.2518544536
 23
139.8392857143
 33
0.0
 14
142.2518544536
 24
76.8392857143
 34
0.0
 50
90.0
100
AcDbRotatedDimension
  0
DIMENSION
  5
1D1
330
1F
100
AcDbEntity
  8
VERMASSUNG
100
AcDbDimension
  2
_D_1
 10
281.9518544536
 20
152.3399668492
 30
0.0
 11
196.0018544536
 21
152.3399668492
 31
0.0
 70
   160
  1
<>
 71
     2
 42
-1.0
  3
SLDDIMSTYLE0
100
AcDbAlignedDimension
 13
110.0518544536
 23
128.0299634608
 33
0.0
 14
281.9518544536
 24
135.3392857143
 34
0.0
100
AcDbRotatedDimension
  0
DIMENSION
  5
1DB
330
1F
100
AcDbEntity
  8
VERMASSUNG
100
AcDbDimension
  2
_D_2
 10
281.9518544536
 20
146.3399668492
 30
0.0
 11
211.9518544536
 21
146.3399668492
 31
0.0
 70
   160
  1
<>
 71
     2
 42
-1.0
  3
SLDDIMSTYLE0
100
AcDbAlignedDimension
 13
141.9518544536
 23
139.5392857143
 33
0.0
 14
281.9518544536
 24
135.3392857143
 34
0.0
100
AcDbRotatedDimension
  0
DIMENSION
  5
1E5
330
1F
100
AcDbEntity
  8
VERMASSUNG
100
AcDbDimension
  2
_D_3
 10
288.9604296464
 20
108.3392857143
 30
0.0
 11
288.9604296464
 21
121.8392857143
 31
0.0
 70
   160
  1
<>
 71
     2
 42
-1.0
  3
SLDDIMSTYLE0
100
AcDbAlignedDimension
 13
281.9518544536
 23
135.3392857143
 33
0.0
 14
281.450161263
 24
108.3392857143
 34
0.0
 50
90.0
100
AcDbRotatedDimension
  0
DIMENSION
  5
1EF
330
1F
100
AcDbEntity
  8
VERMASSUNG
100
AcDbDimension
  2
_D_4
 10
281.9518544536
 20
135.3392857143
 30
0.0
 11
287.8317629959
 21
103.6546994326
 31
0.0
 70
   162
  1
<>
 71
     1
 42
-1.0
  3
SLDDIMSTYLE1
100
AcDb2LineAngularDimension
 13
279.883093085
 23
120.8865198036
 33
0.0
 14
280.0219109985
 24
122.4693507033
 34
0.0
 15
281.9518544536
 25
94.3575190571
 35
0.0
 16
280.1485543867
 26
103.2728350718
 36
0.0
  0
LINE
  5
1FB
330
1F
100
AcDbEntity
  8
VERMASSUNG
  6
SLD-Punktstrich
370
     0
100
AcDbLine
 10
107.8905448028
 20
108.3392857143
 30
0.0
 11
281.450161263
 21
108.3392857143
 31
0.0
  0
LINE
  5
1FC
330
1F
100
AcDbEntity
  8
0
  6
SLD-Durchgehend
 62
     7
370
    15
100
AcDbLine
 10
60.9655951998
 20
134.6730070689
 30
0.0
 11
57.7436948549
 21
135.2992823848
 31
0.0
  0
LINE
  5
1FD
330
1F
100
AcDbEntity
  8
0
  6
SLD-Durchgehend
 62
     7
370
    15
100
AcDbLine
 10
56.7745659068
 20
121.4400914067
 30
0.0
 11
57.0764045846
 21
121.4559099206
 31
0.0
  0
LWPOLYLINE
  5
1FE
330
1F
100
AcDbEntity
  8
0
  6
SLD-Durchgehend
 62
     7
370
    15
100
AcDbPolyline
 90
        9
 70
   128
 43
0.0
 10
57.7133652445
 20
134.865548698
 10
57.7194391121
 20
134.9524075666
 10
57.7253400883
 20
135.0367965677
 10
57.7307884236
 20
135.1147110143
 10
57.7355258187
 20
135.1824591437
 10
57.7393276871
 20
135.2368278929
 10
57.7420137883
 20
135.2752412238
 10
57.7434567796
 20
135.2958774694
 10
57.7436948549
 20
135.2992823848
  0
LINE
  5
1FF
330
1F
100
AcDbEntity
  8
0
  6
SLD-Durchgehend
 62
     7
370
    15
100
AcDbLine
 10
62.450040496
 20
134.3657618889
 30
0.0
 11
60.9655951998
 21
134.6730070689
 31
0.0
  0
LINE
  5
200
330
1F
100
AcDbEntity
  8
0
  6
SLD-Durchgehend
 62
     7
370
    15
100
AcDbLine
 10
61.6363590965
 20
122.7295782917
 30
0.0
 11
62.450040496
 21
134.3657618889
 31
0.0
  0
LINE
  5
201
330
1F
100
AcDbEntity
  8
0
  6
SLD-Durchgehend
 62
     7
370
    15
100
AcDbLine
 10
61.6363590965
 20
122.7295782917
 30
0.0
 11
60.1258821702
 21
122.6645524182
 31
0.0
  0
LINE
  5
202
330
1F
100
AcDbEntity
  8
0
  6
SLD-Durchgehend
 62
     7
370
    15
100
AcDbLine
 10
56.8736522841
 20
122.8570921847
 30
0.0
 11
57.7133652445
 21
134.865548698
 31
0.0
  0
LWPOLYLINE
  5
203
330
1F
100
AcDbEntity
  8
0
  6
SLD-Durchgehend
 62
     7
370
    15
100
AcDbPolyline
 90
        9
 70
   128
 43
0.0
 10
56.84828329
 20
122.494299201
 10
56.849128698
 20
122.5063896307
 10
56.8507929715
 20
122.5301895791
 10
56.853225586
 20
122.5649782025
 10
56.856352618
 20
122.6096965873
 10
56.8600790142
 20
122.6629859337
 10
56.8642915609
 20
122.7232285344
 10
56.8688622592
 20
122.788592478
 10
56.8736522841
 20
122.8570921847
  0
LINE
  5
204
330
1F
100
AcDbEntity
  8
0
  6
SLD-Durchgehend
 62
     7
370
    15
100
AcDbLine
 10
61.6351125213
 20
122.711753709
 30
0.0
 11
61.6363590965
 21
122.7295782917
 31
0.0
  0
LINE
  5
205
330
1F
100
AcDbEntity
  8
0
  6
SLD-Durchgehend
 62
     7
370
    15
100
AcDbLine
 10
56.774672485
 20
121.4416159817
 30
0.0
 11
56.84828329
 21
122.494299201
 31
0.0
  0
LINE
  5
206
330
1F
100
AcDbEntity
  8
0
  6
SLD-Durchgehend
 62
     7
370
    15
100
AcDbLine
 10
56.7745659068
 20
121.4400914067
 30
0.0
 11
56.774672485
 21
121.4416159817
 31
0.0
  0
LINE
  5
207
330
1F
100
AcDbEntity
  8
0
  6
SLD-Durchgehend
 62
     7
370
    15
100
AcDbLine
 10
78.246492791
 20
117.0537958422
 30
0.0
 11
56.8571274784
 21
118.3201011771
 31
0.0
  0
LINE
  5
208
330
1F
100
AcDbEntity
  8
0
  6
SLD-Durchgehend
 62
     7
370
    15
100
AcDbLine
 10
57.1507220888
 20
122.5186998525
 30
0.0
 11
56.8571274784
 21
118.3201011771
 31
0.0
  0
LINE
  5
209
330
1F
100
AcDbEntity
  8
0
  6
SLD-Durchgehend
 62
     7
370
    15
100
AcDbLine
 10
57.1507220888
 20
122.5186998525
 30
0.0
 11
59.2420970938
 21
122.6087335997
 31
0.0
  0
LINE
  5
20A
330
1F
100
AcDbEntity
  8
0
  6
SLD-Durchgehend
 62
     7
370
    15
100
AcDbLine
 10
59.2420970938
 20
122.6087335997
 30
0.0
 11
61.6144918753
 21
122.4168625229
 31
0.0
  0
LINE
  5
20B
330
1F
100
AcDbEntity
  8
0
  6
SLD-Durchgehend
 62
     7
370
    15
100
AcDbLine
 10
61.6351125213
 20
122.711753709
 30
0.0
 11
61.6144918753
 21
122.4168625229
 31
0.0
  0
ELLIPSE
  5
20C
330
1F
100
AcDbEntity
  8
0
  6
SLD-Durchgehend
 62
     7
370
    15
100
AcDbEllipse
 10
57.7300224648
 20
109.3361818016
 30
0.0
 11
-7.60645693765401
 21
24.1753614105865
 31
0.0
210
0.0
220
0.0
230
1.0
 40
0.9843221014
 41
5.01023044931965
 42
5.784348223817959
  0
LINE
  5
20D
330
1F
100
AcDbEntity
  8
0
  6
SLD-Durchgehend
 62
     7
370
    15
100
AcDbLine
 10
78.246492791
 20
117.0537958422
 30
0.0
 11
78.246492791
 21
123.5881785431
 31
0.0
  0
LINE
  5
20E
330
1F
100
AcDbEntity
  8
0
  6
SLD-Durchgehend
 62
     7
370
    15
100
AcDbLine
 10
78.246492791
 20
108.3392857143
 30
0.0
 11
78.246492791
 21
117.0537958422
 31
0.0
  0
ARC
  5
20F
330
1F
100
AcDbEntity
  8
0
  6
SLD-Durchgehend
 62
     7
370
    15
100
AcDbCircle
 10
57.7464922248
 20
108.3392857143
 30
0.0
 40
20.50000000000001
100
AcDbArc
 50
304.7088954462
 51
0.0
  0
ELLIPSE
  5
210
330
1F
100
AcDbEntity
  8
0
  6
SLD-Durchgehend
 62
     7
370
    15
100
AcDbEllipse
 10
48.1637886228
 20
221.6492957874
 30
0.0
 11
-11.20440901703173
 21
132.4857525928864
 31
0.0
210
0.0
220
0.0
230
1.0
 40
0.5181960683
 41
3.256952026941111
 42
3.290346679159806
  0
ARC
  5
211
330
1F
100
AcDbEntity
  8
0
  6
SLD-Durchgehend
 62
     7
370
    15
100
AcDbCircle
 10
57.7464922248
 20
108.3392857143
 30
0.0
 40
20.0
100
AcDbArc
 50
261.431811482
 51
298.1951287936
  0
ELLIPSE
  5
212
330
1F
100
AcDbEntity
  8
0
  6
SLD-Durchgehend
 62
     7
370
    15
100
AcDbEllipse
 10
51.7707889156
 20
88.5888320118
 30
0.0
 11
1.37161797122446
 21
3.375608862573273
 31
0.0
210
0.0
220
0.0
230
1.0
 40
0.8021517578
 41
5.02005425781532
 42
5.099594257518273
  0
LINE
  5
213
330
1F
100
AcDbEntity
  8
0
  6
SLD-Durchgehend
 62
     7
370
    15
100
AcDbLine
 10
56.8571274784
 20
118.3201011771
 30
0.0
 11
54.7960050321
 21
88.844675807
 31
0.0
  0
ARC
  5
214
330
1F
100
AcDbEntity
  8
0
  6
SLD-Durchgehend
 62
     7
370
    15
100
AcDbCircle
 10
57.6725189515
 20
109.1910417429
 30
0.0
 40
19.14558711553564
100
AcDbArc
 50
91.2450835238
 51
97.0628357322
  0
ARC
  5
215
330
1F
100
AcDbEntity
  8
0
  6
SLD-Durchgehend
 62
     7
370
    15
100
AcDbCircle
 10
57.7467746083
 20
108.3405771043
 30
0.0
 40
20.00131973423886
100
AcDbArc
 50
255.0270580163
 51
261.4315629298
  0
ARC
  5
216
330
1F
100
AcDbEntity
  8
0
  6
SLD-Durchgehend
 62
     7
370
    15
100
AcDbCircle
 10
57.7464922248
 20
108.3392857143
 30
0.0
 40
20.00000000000001
100
AcDbArc
 50
96.9731161125
 51
255.0268838875
  0
LINE
  5
217
330
1F
100
AcDbEntity
  8
0
  6
SLD-Durchgehend
 62
     7
370
    15
100
AcDbLine
 10
48.7464926122
 20
78.7790084758
 30
0.0
 11
48.7464926122
 21
78.1523680815
 31
0.0
  0
ARC
  5
218
330
1F
100
AcDbEntity
  8
0
  6
SLD-Durchgehend
 62
     7
370
    15
100
AcDbCircle
 10
57.7464922248
 20
108.3392857143
 30
0.0
 40
31.49999999999999
100
AcDbArc
 50
140.9381656697
 51
253.398450401
  0
LINE
  5
219
330
1F
100
AcDbEntity
  8
0
  6
SLD-Durchgehend
 62
     7
370
    15
100
AcDbLine
 10
33.2878026096
 20
128.1892864534
 30
0.0
 11
34.0655407785
 21
128.1892864534
 31
0.0
  0
LINE
  5
21A
330
1F
100
AcDbEntity
  8
0
  6
SLD-Durchgehend
 62
     7
370
    15
100
AcDbLine
 10
49.7464918448
 20
138.185726715
 30
0.0
 11
49.7464918448
 21
138.8064811506
 31
0.0
  0
LINE
  5
21B
330
1F
100
AcDbEntity
  8
0
  6
SLD-Durchgehend
 62
     7
370
    15
100
AcDbLine
 10
37.8964914857
 20
132.7979753294
 30
0.0
 11
37.8964914857
 21
132.0202371606
 31
0.0
  0
ARC
  5
21C
330
1F
100
AcDbEntity
  8
0
  6
SLD-Durchgehend
 62
     7
370
    15
100
AcDbCircle
 10
57.7464922248
 20
108.3392857143
 30
0.0
 40
31.49999999999999
100
AcDbArc
 50
104.7124579609
 51
129.0618343303
  0
LINE
  5
21D
330
1F
100
AcDbEntity
  8
0
  6
SLD-Durchgehend
 62
     7
370
    15
100
AcDbLine
 10
65.7464926048
 20
138.8064811506
 30
0.0
 11
65.7464926048
 21
138.185726715
 31
0.0
  0
ARC
  5
21E
330
1F
100
AcDbEntity
  8
0
  6
SLD-Durchgehend
 62
     7
370
    15
100
AcDbCircle
 10
57.7464922248
 20
108.3392857143
 30
0.0
 40
31.49999999999999
100
AcDbArc
 50
286.601549599
 51
75.2875420391
  0
LINE
  5
21F
330
1F
100
AcDbEntity
  8
0
  6
SLD-Durchgehend
 62
     7
370
    15
100
AcDbLine
 10
66.7464918373
 20
78.1523680815
 30
0.0
 11
66.7464918373
 21
78.7790084758
 31
0.0
  0
LINE
  5
220
330
1F
100
AcDbEntity
  8
0
  6
SLD-Durchgehend
 62
     7
370
    15
100
AcDbLine
 10
65.7464926048
 20
134.7392855712
 30
0.0
 11
60.6246233369
 21
134.7392855712
 31
0.0
  0
LINE
  5
221
330
1F
100
AcDbEntity
  8
0
  6
SLD-Durchgehend
 62
     7
370
    15
100
AcDbLine
 10
57.7045361392
 20
134.7392855712
 30
0.0
 11
49.7464918448
 21
134.7392855712
 31
0.0
  0
LINE
  5
222
330
1F
100
AcDbEntity
  8
0
  6
SLD-Durchgehend
 62
     7
370
    15
100
AcDbLine
 10
66.7464918373
 20
81.9392858573
 30
0.0
 11
48.7464926122
 21
81.9392858573
 31
0.0
  0
LINE
  5
223
330
1F
100
AcDbEntity
  8
0
  6
SLD-Durchgehend
 62
     7
370
    15
100
AcDbLine
 10
65.7464926048
 20
138.185726715
 30
0.0
 11
65.7464926048
 21
134.7392855712
 31
0.0
  0
LINE
  5
224
330
1F
100
AcDbEntity
  8
0
  6
SLD-Durchgehend
 62
     7
370
    15
100
AcDbLine
 10
66.7464918373
 20
78.7790084758
 30
0.0
 11
66.7464918373
 21
81.9392858573
 31
0.0
  0
LINE
  5
225
330
1F
100
AcDbEntity
  8
0
  6
SLD-Durchgehend
 62
     7
370
    15
100
AcDbLine
 10
49.7464918448
 20
134.7392855712
 30
0.0
 11
49.7464918448
 21
138.185726715
 31
0.0
  0
LINE
  5
226
330
1F
100
AcDbEntity
  8
0
  6
SLD-Durchgehend
 62
     7
370
    15
100
AcDbLine
 10
48.7464926122
 20
81.9392858573
 30
0.0
 11
48.7464926122
 21
78.7790084758
 31
0.0
  0
LINE
  5
227
330
1F
100
AcDbEntity
  8
0
  6
SLD-Durchgehend
 62
     7
370
    15
100
AcDbLine
 10
37.8964914857
 20
132.0202371606
 30
0.0
 11
37.8964914857
 21
128.1892864534
 31
0.0
  0
LINE
  5
228
330
1F
100
AcDbEntity
  8
0
  6
SLD-Durchgehend
 62
     7
370
    15
100
AcDbLine
 10
34.0655407785
 20
128.1892864534
 30
0.0
 11
37.8964914857
 21
128.1892864534
 31
0.0
  0
ARC
  5
229
330
1F
100
AcDbEntity
  8
0
  6
SLD-Durchgehend
 62
     7
370
    15
100
AcDbCircle
 10
57.7478975934
 20
108.3306062943
 30
0.0
 40
31.49128069790736
100
AcDbArc
 50
271.8171650148
 51
286.6036104447
  0
ARC
  5
22A
330
1F
100
AcDbEntity
  8
0
  6
SLD-Durchgehend
 62
     7
370
    15
100
AcDbCircle
 10
57.7496390676
 20
108.3586802461
 30
0.0
 40
31.51948509549451
100
AcDbArc
 50
253.4030421033
 51
268.1761824372
  0
ARC
  5
22B
330
1F
100
AcDbEntity
  8
0
  6
SLD-Durchgehend
 62
     7
370
    15
100
AcDbCircle
 10
57.7464922248
 20
108.3358589809
 30
0.0
 40
31.50331445242666
100
AcDbArc
 50
75.289124154
 51
104.710875846
  0
ARC
  5
22C
330
1F
100
AcDbEntity
  8
0
  6
SLD-Durchgehend
 62
     7
370
    15
100
AcDbCircle
 10
57.7461413543
 20
108.3396365848
 30
0.0
 40
31.4995068859002
100
AcDbArc
 50
129.0617420529
 51
140.9382579471
  0
ARC
  5
22D
330
1F
100
AcDbEntity
  8
0
  6
SLD-Durchgehend
 62
     7
370
    15
100
AcDbCircle
 10
57.7464922248
 20
108.3392857143
 30
0.0
 40
31.49999999999997
100
AcDbArc
 50
268.180780706
 51
271.819219294
  0
ARC
  5
22E
330
1F
100
AcDbEntity
  8
0
  6
SLD-Durchgehend
 62
     7
370
    15
100
AcDbCircle
 10
56.7351728141
 20
102.7339940153
 30
0.0
 40
14.30442644354456
100
AcDbArc
 50
259.1737066648
 51
262.3437879608
  0
LINE
  5
22F
330
1F
100
AcDbEntity
  8
0
  6
SLD-Durchgehend
 62
     7
370
    15
100
AcDbLine
 10
57.2559198048
 20
128.3237731584
 30
0.0
 11
56.7551253047
 21
128.3124724903
 31
0.0
  0
CIRCLE
  5
230
330
1F
100
AcDbEntity
  8
VERMASSUNG
  6
SLD-Punktstrich
100
AcDbCircle
 10
57.7436948549
 20
110.2992814614
 30
0.0
 40
25.0
  0
POINT
  5
231
330
1F
100
AcDbEntity
  8
VERMASSUNG
100
AcDbPoint
 10
57.7436948549
 20
135.2992814614
 30
0.0
  0
DIMENSION
  5
232
330
1F
100
AcDbEntity
  8
VERMASSUNG
100
AcDbDimension
  2
_D_5
 10
22.2848392853
 20
135.2992814614
 30
0.0
 11
22.2848392853
 21
110.2992814614
 31
0.0
 70
   160
  1
%%c<>
 71
     2
 42
-1.0
  3
SLDDIMSTYLE0
100
AcDbAlignedDimension
 13
57.7436948549
 23
85.2992814614
 33
0.0
 14
57.7436948549
 24
135.2992814614
 34
0.0
 50
90.0
100
AcDbRotatedDimension
  0
INSERT
  5
248
330
1F
100
AcDbEntity
  8
VERMASSUNG
100
AcDbBlockReference
  2
SW_CENTERMARKSYMBOL_0
 10
57.7464922248
 20
108.3392857143
 30
0.0
  0
OLE2FRAME
  5
249
330
1F
100
AcDbEntity
  8
0
100
AcDbOle2Frame
 70
     2
  3
Paintbrush-Bild
 10
13.8511154363
 20
38.264191557
 30
0.0
 11
51.6290888628
 21
31.9806341108
 31
0.0
 71
     2
 72
     0
 73
     1
 90
    12928
310
80552BED0767C5B32B40DDAF6807D121434000000000000000006FFBDDFB85D0
310
4940DDAF6807D121434000000000000000006FFBDDFB85D04940416F4BD60AFB
310
3F4000000000000000002BED0767C5B32B40416F4BD60AFB3F40000000000000
310
0000000000000100000000010000010000000100000000000100000000320000
310
D0CF11E0A1B11AE1000000000000000000000000000000003E000300FEFF0900
310
0600000000000000000000000100000001000000000000000010000002000000
310
01000000FEFFFFFF0000000000000000FFFFFFFFFFFFFFFFFFFFFFFFFFFFFFFF
310
FFFFFFFFFFFFFFFFFFFFFFFFFFFFFFFFFFFFFFFFFFFFFFFFFFFFFFFFFFFFFFFF
310
FFFFFFFFFFFFFFFFFFFFFFFFFFFFFFFFFFFFFFFFFFFFFFFFFFFFFFFFFFFFFFFF
310
FFFFFFFFFFFFFFFFFFFFFFFFFFFFFFFFFFFFFFFFFFFFFFFFFFFFFFFFFFFFFFFF
310
FFFFFFFFFFFFFFFFFFFFFFFFFFFFFFFFFFFFFFFFFFFFFFFFFFFFFFFFFFFFFFFF
310
FFFFFFFFFFFFFFFFFFFFFFFFFFFFFFFFFFFFFFFFFFFFFFFFFFFFFFFFFFFFFFFF
310
FFFFFFFFFFFFFFFFFFFFFFFFFFFFFFFFFFFFFFFFFFFFFFFFFFFFFFFFFFFFFFFF
310
FFFFFFFFFFFFFFFFFFFFFFFFFFFFFFFFFFFFFFFFFFFFFFFFFFFFFFFFFFFFFFFF
310
FFFFFFFFFFFFFFFFFFFFFFFFFFFFFFFFFFFFFFFFFFFFFFFFFFFFFFFFFFFFFFFF
310
FFFFFFFFFFFFFFFFFFFFFFFFFFFFFFFFFFFFFFFFFFFFFFFFFFFFFFFFFFFFFFFF
310
FFFFFFFFFFFFFFFFFFFFFFFFFFFFFFFFFFFFFFFFFFFFFFFFFFFFFFFFFFFFFFFF
310
FFFFFFFFFFFFFFFFFFFFFFFFFFFFFFFFFFFFFFFFFFFFFFFFFFFFFFFFFFFFFFFF
310
FFFFFFFFFFFFFFFFFFFFFFFFFFFFFFFFFFFFFFFFFFFFFFFFFFFFFFFFFFFFFFFF
310
FFFFFFFFFFFFFFFFFFFFFFFFFFFFFFFFFFFFFFFFFFFFFFFFFFFFFFFFFFFFFFFF
310
FDFFFFFFFEFFFFFFFEFFFFFFFEFFFFFF05000000060000000700000008000000
310
090000000A0000000B0000000C0000000D0000000E0000000F00000010000000
310
11000000120000001300000014000000150000001600000017000000FEFFFFFF
310
FFFFFFFFFFFFFFFFFFFFFFFFFFFFFFFFFFFFFFFFFFFFFFFFFFFFFFFFFFFFFFFF
310
FFFFFFFFFFFFFFFFFFFFFFFFFFFFFFFFFFFFFFFFFFFFFFFFFFFFFFFFFFFFFFFF
310
FFFFFFFFFFFFFFFFFFFFFFFFFFFFFFFFFFFFFFFFFFFFFFFFFFFFFFFFFFFFFFFF
310
FFFFFFFFFFFFFFFFFFFFFFFFFFFFFFFFFFFFFFFFFFFFFFFFFFFFFFFFFFFFFFFF
310
FFFFFFFFFFFFFFFFFFFFFFFFFFFFFFFFFFFFFFFFFFFFFFFFFFFFFFFFFFFFFFFF
310
FFFFFFFFFFFFFFFFFFFFFFFFFFFFFFFFFFFFFFFFFFFFFFFFFFFFFFFFFFFFFFFF
310
FFFFFFFFFFFFFFFFFFFFFFFFFFFFFFFFFFFFFFFFFFFFFFFFFFFFFFFFFFFFFFFF
310
FFFFFFFFFFFFFFFFFFFFFFFFFFFFFFFFFFFFFFFFFFFFFFFFFFFFFFFFFFFFFFFF
310
FFFFFFFFFFFFFFFFFFFFFFFFFFFFFFFFFFFFFFFFFFFFFFFFFFFFFFFFFFFFFFFF
310
FFFFFFFFFFFFFFFFFFFFFFFFFFFFFFFFFFFFFFFFFFFFFFFFFFFFFFFFFFFFFFFF
310
FFFFFFFFFFFFFFFFFFFFFFFFFFFFFFFFFFFFFFFFFFFFFFFFFFFFFFFFFFFFFFFF
310
FFFFFFFFFFFFFFFFFFFFFFFFFFFFFFFFFFFFFFFFFFFFFFFFFFFFFFFFFFFFFFFF
310
FFFFFFFFFFFFFFFFFFFFFFFFFFFFFFFFFFFFFFFFFFFFFFFFFFFFFFFFFFFFFFFF
310
52006F006F007400200045006E00740072007900000000000000000000000000
310
0000000000000000000000000000000000000000000000000000000000000000
310
16000500FFFFFFFFFFFFFFFF020000000A00030000000000C000000000000046
310
000000000000000000000000B0A72C76E949D00103000000C000000000000000
310
01004F006C006500000000000000000000000000000000000000000000000000
310
0000000000000000000000000000000000000000000000000000000000000000
310
0A000200FFFFFFFFFFFFFFFFFFFFFFFF00000000000000000000000000000000
310
0000000000000000000000000000000000000000000000001400000000000000
310
010043006F006D0070004F0062006A0000000000000000000000000000000000
310
0000000000000000000000000000000000000000000000000000000000000000
310
120002010100000003000000FFFFFFFF00000000000000000000000000000000
310
0000000000000000000000000000000000000000010000004D00000000000000
310
01004F006C006500310030004E00610074006900760065000000000000000000
310
0000000000000000000000000000000000000000000000000000000000000000
310
1A000200FFFFFFFFFFFFFFFFFFFFFFFF00000000000000000000000000000000
310
0000000000000000000000000000000000000000040000002426000000000000
310
FEFFFFFF02000000FEFFFFFFFFFFFFFFFFFFFFFFFFFFFFFFFFFFFFFFFFFFFFFF
310
FFFFFFFFFFFFFFFFFFFFFFFFFFFFFFFFFFFFFFFFFFFFFFFFFFFFFFFFFFFFFFFF
310
FFFFFFFFFFFFFFFFFFFFFFFFFFFFFFFFFFFFFFFFFFFFFFFFFFFFFFFFFFFFFFFF
310
FFFFFFFFFFFFFFFFFFFFFFFFFFFFFFFFFFFFFFFFFFFFFFFFFFFFFFFFFFFFFFFF
310
FFFFFFFFFFFFFFFFFFFFFFFFFFFFFFFFFFFFFFFFFFFFFFFFFFFFFFFFFFFFFFFF
310
FFFFFFFFFFFFFFFFFFFFFFFFFFFFFFFFFFFFFFFFFFFFFFFFFFFFFFFFFFFFFFFF
310
FFFFFFFFFFFFFFFFFFFFFFFFFFFFFFFFFFFFFFFFFFFFFFFFFFFFFFFFFFFFFFFF
310
FFFFFFFFFFFFFFFFFFFFFFFFFFFFFFFFFFFFFFFFFFFFFFFFFFFFFFFFFFFFFFFF
310
FFFFFFFFFFFFFFFFFFFFFFFFFFFFFFFFFFFFFFFFFFFFFFFFFFFFFFFFFFFFFFFF
310
FFFFFFFFFFFFFFFFFFFFFFFFFFFFFFFFFFFFFFFFFFFFFFFFFFFFFFFFFFFFFFFF
310
FFFFFFFFFFFFFFFFFFFFFFFFFFFFFFFFFFFFFFFFFFFFFFFFFFFFFFFFFFFFFFFF
310
FFFFFFFFFFFFFFFFFFFFFFFFFFFFFFFFFFFFFFFFFFFFFFFFFFFFFFFFFFFFFFFF
310
FFFFFFFFFFFFFFFFFFFFFFFFFFFFFFFFFFFFFFFFFFFFFFFFFFFFFFFFFFFFFFFF
310
FFFFFFFFFFFFFFFFFFFFFFFFFFFFFFFFFFFFFFFFFFFFFFFFFFFFFFFFFFFFFFFF
310
FFFFFFFFFFFFFFFFFFFFFFFFFFFFFFFFFFFFFFFFFFFFFFFFFFFFFFFFFFFFFFFF
310
FFFFFFFFFFFFFFFFFFFFFFFFFFFFFFFFFFFFFFFFFFFFFFFFFFFFFFFFFFFFFFFF
310
0100000200000000000000000000000000000000000000000000000000000000
310
0000000000000000000000000000000000000000000000000000000000000000
310
0100FEFF030A0000FFFFFFFF0A00030000000000C00000000000004607000000
310
5042727573680007000000504272757368000700000050427275736800F439B2
310
7100000000000000000000000000000000000000000000000000000000000000
310
0000000000000000000000000000000000000000000000000000000000000000
310
0000000000000000000000000000000000000000000000000000000000000000
310
0000000000000000000000000000000000000000000000000000000000000000
310
0000000000000000000000000000000000000000000000000000000000000000
310
0000000000000000000000000000000000000000000000000000000000000000
310
0000000000000000000000000000000000000000000000000000000000000000
310
0000000000000000000000000000000000000000000000000000000000000000
310
0000000000000000000000000000000000000000000000000000000000000000
310
0000000000000000000000000000000000000000000000000000000000000000
310
0000000000000000000000000000000000000000000000000000000000000000
310
0000000000000000000000000000000000000000000000000000000000000000
310
20260000424D0E260000000000003E00000028000000B40200006E0000000100
310
01000000000000000000130B0000130B00000200000002000000000000FFFFFF
310
FFFFFFFFFFFFFFFFFFFFFFFFFFFFFFFFFFFFFFFFFFFFFFFFFFFFFFFFFFFFFFFF
310
FFFFFFFFFFFFFFFFFFFFFFFFFFFFFFFFFFFFFFFFFFFFFFFFFFFFFFFFFFFFFFFF
310
FFFFFFFFFFFFFFFFFFFFFFFFFFFFFFFFFFFFFFFFFFFFFFFFF000FFFFFFFFFFFF
310
FFFFFFFFFFFFFFFFFFFFFFFFFFFFFFFFFFFFFFFFFFFFFFFFFFFFFFFFFFFFFFFF
310
FFFFFFFFFFFFFFFFFFFFFFFFFFFFFFFFFFFFFFFFFFFFFFFFFFFFFFFFFFFFFFFF
310
FFFFFFFFFFFFFFFFFFFFFFFFFFFFFFFFF000FFFFFFFFFFFFFFFFFFFFFFFFFFFF
310
FFFFFFFFFFFFFFFFFFFFFFFFFFFFFFFFFFFFFFFFFFFFFFFFFFFFFFFFFFFFFFFF
310
FFFFFFFFFFFFFFFFFFFFFFFFFFFFFFFFFFFFFFFFFFFFFFFFFFFFFFFFFFFFFFFF
310
FFFFFFFFFFFFFFFFF000FFFFFFFFFFFFFFFFFFFFFFFFFFFFFFFFFFFFFFFFFFFF
310
FFFFFFFFFFFFFFFFFFFFFFFFFFFFFFFFFFFFFFFFFFFFFFFFFFFFFFFFFFFFFFFF
310
FFFFFFFFFFFFFFFFFFFFFFFFFFFFFFFFFFFFFFFFFFFFFFFFFFFFFFFFFFFFFFFF
310
F000FFFFFFFFFFFFFFFFFFFFFFFFFFFFFFFFFFFFFFFFFFFFFFFFFFFFFFFFFFFF
310
FFFFFFFFFFFFFFFFFFFFFFFFFFFFFFFFFFFFFFFFFFFFFFFFFFFFFFFFFFFFFFFF
310
FFFFFFFFFFFFFFFFFFFFFFFFFFFFFFFFFFFFFFFFFFFFFFFFF000FFFFFFFFFFFF
310
FFFFFFFFFFFFFFFFFFFFFFFFFFFFFFFFFFFFFFFFFFFFFFFFFFFFFFFFFFFFFFFF
310
FFFFFFFFFFFFFFFFFFFFFFFFFFFFFFFFFFFFFFFFFFFFFFFFFFFFFFFFFFFFFFFF
310
FFFFFFFFFFFFFFFFFFFFFFFFFFFFFFFFF000FFFFFFFFFFFFFFFFFFFFFFFFFFFF
310
FFFFFFFFFFFFFFFFFFFFFFFFFFFFFFFFFFFFFFFFFFFFFFFFFFFFFFFFFFFFFFFF
310
FFFFFFFFFFFFFFFFFFFFFFFFFFFFFFFFFFFFFFFFFFFFFFFFFFFFFFFFFFFFFFFF
310
FFFFFFFFFFFFFFFFF000FFFFFFFFFFFFFFFFFFFFFFFFFFFFFFFFFFFFFFFFFFFF
310
FFFFFFFFFFFFFFFFFFFFFFFFFFFFFFFFFFFFFFFFFFFFFFFFFFFFFFFFFFFFFFFF
310
FFFFFFFFFFFFFFFFFFFFFFFFFFFFFFFFFFFFFFFFFFFFFFFFFFFFFFFFFFFFFFFF
310
F000FFFFFFFFFFFFFFFFFFFFFFFFFFFFFFFFFFFFFFFFFFFFFFFFFFFFFFFFFFFF
310
FFFFFFFFFFFFFFFFFFFFFFFFFFFFFFFFFFFFFFFFFFFFFFFFFFFFFFFFFFFFFFFF
310
FFFFFFFFFFFFFFFFFFFFFFFFFFFFFFFFFFFFFFFFFFFFFFFFF000FFFFFFFFFFFF
310
FFFFFFFFFFFFFFFFFFFFFFFFFFFFFFFFFFFFFFFFFFFFFFFFFFFFFFFFFFFFFFFF
310
FFFFFFFFFFFFFFFFFFFFFFFFFFFFFFFFFFFFFFFFFFFFFFFFFFFFFFFFFFFFFFFF
310
FFFFFFFFFFFFFFFFFFFFFFFFFFFFFFFFF000FFFFFFFFFFFFFFFFFFFFFFFFFFFF
310
FFFFFFFFFFFFFFFFFFFFFFFFFFFFFFFFFFFFFFFFFFFFFFFFFFFFFFFFFFFFFFFF
310
FFFFFFFFFFFFFFFFFFFFFFFFFFFFFFFFFFFFFFFFFFFFFFFFFFFFFFFFFFFFFFFF
310
FFFFFFFFFFFFFFFFF000FFFFFFFFFFFFFFFFFFFFFFFFFFFFFFFFFFFFFFFFFFFF
310
FFFFFFFFFFFFFFFFFFFFFFFFFFFFFFFFFFFFFFFFFFFFFFFFFFFFFFFFFFFFFFFF
310
FFFFFFFFFFFFFFFFFFFFFFFFFFFFFFFFFFFFFFFFFFFFFFFFFFFFFFFFFFFFFFFF
310
F000FFFFFFFFFFFFFFFFFFFFFFFFFFFFFFFFFFFFFFFFFFFFFFFFFFFFFFFFFFFF
310
FFFFFFFFFFFFFFFFFFFFFFFFFFFFFFFFFFFFFFFFFFFFFFFFFFFFFFFFFFFFFFFF
310
FFFFFFFFFFFFFFFFFFFFFFFFFFFFFFFFFFFFFFFFFFFFFFFFF000FFFFFFFFFFFF
310
FFFFFFFFFFFFFFFFFFFFFFFFFFFFFFFFFFFFFFFFFFFFFFFFFFFFFFFFFFFFFFFF
310
FFFFFFFFFFFFFFFFFFFFFFFFFFFFFFFFFFFFFFFFFFFFFFFFFFFFFFFFFFFFFFFF
310
FFFFFFFFFFFFFFFFFFFFFFFFFFFFFFFFF000FFFFFFFFFFFFFFFFFFFFFFFFFFFF
310
FFFFFFFFFFFFFFFFFFFFFFFFFFFFFFFFFFFFFFFFFFFFFFFFFFFFFFFFFFFFFFFF
310
FFFFFFFFFFFFFFFFFFFFFFFFFFFFFFFFFFFFFFFFFFFFFFFFFFFFFFFFFFFFFFFF
310
FFFFFFFFFFFFFFFFF000FFFFFFFFFFFFFFFFFFFFFFFFFFFFFFFFFFFFFFFFFFFF
310
FFFFFFFFFFFFFFFFFFFFFFFFFFFFFFFFFFFFFFFFFFFFFFFFFFFFFFFFFFFFFFFF
310
FFFFFFFFFFFFFFFFFFFFFFFFFFFFFFFFFFFFFFFFFFFFFFFFFFFFFFFFFFFFFFFF
310
F000FFFFFFFFFFFFFFFFFFFFFFFFFFFFFFFFFFFFFFFFFFFFFFFFFFFFFFFFFFFF
310
FFFFFFFFFFFFFFFFFFFFFFFFFFFFFFFFFFFFFFFFFFFFFFFFFFFFFFFFFFFFFFFF
310
FFFFFFFFFFFFFFFFFFFFFFFFFFFFFFFFFFFFFFFFFFFFFFFFF000FFFFFFFFFFFF
310
FFFFFFFFFFFFFFFFFFFFFFFFFFFFFFFFFFFFFFFFFFFFFFFFFFFFFFFFFFFFFFFF
310
FFFFFFFFFFFFFFFFFFFFFFFFFFFFFFFFFFFFFFFFFFFFFFFFFFFFFFFFFFFFFFFF
310
FFFFFFFFFFFFFFFFFFFFFFFFFFFFFFFFF000FFFFFFFFFFFFFFFFFFFFFFFFFFFF
310
FFFFFFFFFFFFFFFFFFFFFFFFFFFFFFFFFFFFFFFFFFFFFFFFFFFFFFFFFFFFFFFF
310
FFFFFFFFFFFFFFFFFFFFFFFFFFFFFFFFFFFFFFFFFFFFFFFFFFFFFFFFFFFFFFFF
310
FFFFFFFFFFFFFFFFF000FFFFF80003FFFFFFFFFFFFFFFFFFFFFFFFFFFFFFFFFF
310
FFFFF00007FFFFFFFFFF00007FFFFFF800000000000000007FFFFFFFFFFFFFFF
310
FFFFFFFC001FFFFFFFFFFFFFFC001FFFFFFFFFFFFFFFFFFFFFFFFFFE0007FFFF
310
F000FFFF8000007FFFFFFFF8000FFFFFC0007FFFFF80007FFFFF0000007FFFFF
310
FFF8000007FFFFF800000000000000007FFFFFF0001FFFFFFFFFFFC00001FFFF
310
FFFFFFFFC00001FFFFFFFF000000000003FFFFE000007FFFF000FFFE0000000F
310
FFFFFFF0000FFFFF80007FFFFF80007FFFFC0000001FFFFFFFC0000001FFFFF8
310
00000000000000007FFFFFF0001FFFFFFFFFFE0000003FFFFFFFFFFE0000003F
310
FFFFFF000000000003FFFF0000000FFFF000FFF800000003FFFFFFF00007FFFF
310
80007FFFFF80007FFFF000000007FFFFFF000000003FFFF80000000000000000
310
7FFFFFF0001FFFFFFFFFF80000000FFFFFFFFFF80000000FFFFFFF0000000000
310
03FFFC00000003FFF000FFE000000000FFFFFFF00007FFFF80003FFFFF80007F
310
FFC000000001FFFFFC000000001FFFF800000000000000007FFFFFF0001FFFFF
310
FFFFE000000003FFFFFFFFE000000003FFFFFF000000000003FFF000000000FF
310
F000FF80000000007FFFFFF00007FFFF80003FFFFF80007FFF8000000000FFFF
310
F80000000007FFF800000000000000007FFFFFF0001FFFFFFFFFC000000001FF
310
FFFFFFC000000001FFFFFF000000000003FFC0000000007FF000FF0000000000
310
3FFFFFE00007FFFF00003FFFFF80007FFE00000000003FFFF00000000003FFF8
310
00000000000000007FFFFFF0001FFFFFFFFF8000000000FFFFFFFF8000000000
310
FFFFFF000000000003FF80000000003FF000FE00000000001FFFFFE00003FFFF
310
00003FFFFF80007FFC00000000001FFFE00000000001FFF8000001FFFE000000
310
7FFFFFF0001FFFFFFFFE00000000003FFFFFFE00000000003FFFFF0000000000
310
03FF00000000001FF000FC00000000000FFFFFE00003FFFF00001FFFFF80007F
310
F800000000001FFFC00000000000FFF8000001FFFE0000007FFFFFF0001FFFFF
310
FFFC00000000001FFFFFFC00000000001FFFFF000000000003FE00000000000F
310
F000F8000000000007FFFFE00003FFFF00001FFFFF80007FF800000000000FFF
310
800000000000FFF8000001FFFE0000007FFFFFF0001FFFFFFFF800000000000F
310
FFFFF800000000000FFFFF000000000003FC000000000007F000F80000000000
310
03FFFFC00003FFFE00001FFFFF80007FF0000000000007FF0000000000007FF8
310
000001FFFE0000007FFFFFF0001FFFFFFFF0000000000007FFFFF00000000000
310
07FFFF000000000003F8000000000003F000F0000000000003FFFFC00001FFFE
310
00001FFFFF80007FE0000000000007FE0000000000003FF8000001FFFE000000
310
7FFFFFF0001FFFFFFFF0000000000007FFFFF0000000000007FFFF0000000000
310
03F800001F800003F000E00001FFF00001FFFFC00001FFFE00000FFFFF80007F
310
E00001FFE00003FE00001FFF00003FF8000001FFFE0000007FFFFFF0001FFFFF
310
FFE000003E000003FFFFE000003E000003FFFF000000000003F00001FFF80001
310
F000E00007FFFC0001FFFFC00001FFFE00000FFFFF80007FC0000FFFFC0003FC
310
0000FFFFC0001FF8000001FFFE0000007FFFFFF0001FFFFFFFC00003FFE00001
310
FFFFC00003FFE00001FFFF0001FFFFFFFFF00007FFFE0001F000E0000FFFFF00
310
00FFFF800001FFFC00000FFFFF80007FC0001FFFFE0001FC0001FFFFE0001FF8
310
000001FFFE0000007FFFFFF0001FFFFFFF80000FFFF80000FFFF80000FFFF800
310
00FFFF0003FFFFFFFFE0000FFFFF8000F000C0003FFFFF8000FFFF800000FFFC
310
000007FFFF80007F80003FFFFF0001FC0003FFFFF0001FF8000001FFFE000000
310
7FFFFFF0001FFFFFFF80003FFFFE0000FFFF80003FFFFE0000FFFF0003FFFFFF
310
FFE0003FFFFF8000F000C0003FFFFF8000FFFF800000FFFC000007FFFF80007F
310
80007FFFFF8001F80007FFFFF8000FF8000001FFFE0000007FFFFFF0001FFFFF
310
FF00007FFFFF00007FFF00007FFFFF00007FFF0003FFFFFFFFE0003FFFFFC000
310
F000C0007FFFFFC000FFFF000000FFFC000007FFFF80007F8000FFFFFF8000F8
310
000FFFFFF8000FF8000001FFFE0000007FFFFFF0001FFFFFFF0000FFFFFF8000
310
7FFF0000FFFFFF80007FFF0003FFFFFFFFC0007FFFFFC00070008000FFFFFFC0
310
00FFFF000000FFF8000007FFFF80007F8000FFFFFF8000F8000FFFFFF8000FF8
310
000001FFFE0000007FFFFFF0001FFFFFFE0001FFFFFFC0003FFE0001FFFFFFC0
310
003FFF0003FFFFFFFFC0007FFFFFE00070008000FFFFFFC0007FFF0000007FF8
310
000003FFFF80007F0001FFFFFF8000F8000FFFFFF8000FF8000001FFFE000000
310
7FFFFFF0001FFFFFFE0001FFFFFFC0003FFE0001FFFFFFC0003FFF0003FFFFFF
310
FFC000FFFFFFE00070008000FFFFFFC0007FFF0000007FF8000003FFFF80007F
310
0001FFFFFF8000F8001FFFFFF8000FF8000001FFFE0000007FFFFFF0001FFFFF
310
FE0003FFFFFFE0003FFE0003FFFFFFE0003FFF0003FFFFFFFFC000FFFFFFE000
310
70008000FFFFFFC0007FFE0000007FF8000003FFFF80007F0001FFFFFF8000F0
310
001FFFFFF8000FF8000001FFFE0000007FFFFFF0001FFFFFFC0003FFFFFFE000
310
1FFC0003FFFFFFE0001FFF0003FFFFFFFFC000FFFFFFC00070008000FFFFFF80
310
007FFE0000007FF0000003FFFF80007F0001FFFFFF0000F0001FFFFFF8000FF8
310
000001FFFE0000007FFFFFF0001FFFFFFC0007FFFFFFF0001FFC0007FFFFFFF0
310
001FFF0003FFFFFFFFC000FFFFFFC00070008001FFFFFF0000FFFE0000003FF0
310
000001FFFF80007F0001FFFFFF0000F8001FFFFFF0000FF8000001FFFE000000
310
7FFFFFF0001FFFFFFC0007FFFFFFF0001FFC0007FFFFFFF0001FFF0003FFFFFF
310
FFC001FFFFFF80007000FFFFFFFFFE0000FFFE0008003FF0008001FFFF80007F
310
FFFFFFFFFC0000FFFFFFFFFFE0000FF8000001FFFE0000007FFFFFF0001FFFFF
310
F8000FFFFFFFF8000FF8000FFFFFFFF8000FFF0003FFFFFFFFFFFFFFFFFF0000
310
7000FFFFFFFFFC0000FFFC0008003FF0008001FFFF80007FFFFFFFFFF80001FF
310
FFFFFFFF80000FF8000001FFFE0000007FFFFFF0001FFFFFF8000FFFFFFFF800
310
0FF8000FFFFFFFF8000FFF0003FFFFFFFFFFFFFFFFFE0000F000FFFFFFFFE000
310
00FFFC000C003FE000C001FFFF80007FFFFFFFFFC00001FFFFFFFFFE00001FF8
310
000001FFFE0000007FFFFFF0001FFFFFF8000FFFFFFFF8000FF8000FFFFFFFF8
310
000FFF0003FFFFFFFFFFFFFFFFF00000F000FFFFFFFE000001FFFC000C001FE0
310
00C000FFFF80007FFFFFFFFE000001FFFFFFFFE000001FF80FFFFFFFFFFFFFC0
310
7FFFFFF0001FFFFFF8000FFFFFFFF8000FF8000FFFFFFFF8000FFF0003FFFFFF
310
FFFFFFFFFF800000F000FFFFFFC0000001FFFC001C001FE001C000FFFF80007F
310
FFFFFF80000003FFFFFFF80000001FF80FFFFFFFFFFFFFC07FFFFFF0001FFFFF
310
F8001FFFFFFFFC000FF8001FFFFFFFFC000FFF0003FFFFFFFFFFFFFFF0000001
310
F000FFFFF800000001FFF8001C001FE001C000FFFF80007FFFFFF800000003FF
310
FFFF800000003FF80FFFFFFFFFFFFFC07FFFFFF0001FFFFFF8001FFFFFFFFC00
310
0FF8001FFFFFFFFC000FFF0003FFFFFFFFFFFFFE00000001F000FFFFC0000000
310
03FFF8001E001FC001E000FFFF80007FFFFF8000000007FFFFFC000000003FF8
310
0FFFFFFFFFFFFFC07FFFFFF0001FFFFFF8001FFFFFFFFC000FF8001FFFFFFFFC
310
000FFF0003FFFFFFFFFFFFE000000003F000FFFE0000000007FFF8001E000FC0
310
01E0007FFF80007FFFFE0000000007FFFFE0000000007FF80FFFFFFFFFFFFFC0
310
7FFFFFF0001FFFFFF0001FFFFFFFFC0007F0001FFFFFFFFC0007FF0003FFFFFF
310
FFFFFF0000000003F000FFF80000000007FFF8001E000FC003E0007FFF80007F
310
FFF0000000000FFFFF8000000000FFF80FFFFFFFFFFFFFC07FFFFFF0001FFFFF
310
F0001FFFFFFFFC0007F0001FFFFFFFFC0007FF0003FFFFFFFFFFFC0000000007
310
F000FFE0000000000FFFF0003E000FC003E0007FFF80007FFFC0000000001FFF
310
FE0000000001FFF80FFFFFFFFFFFFFC07FFFFFF0001FFFFFF0001FFFFFFFFC00
310
07F0001FFFFFFFFC0007FF0003FFFFFFFFFFF0000000000FF000FFC000000000
310
1FFFF0003F000F8003F0003FFF80007FFF80000000003FFFF80000000003FFF8
310
0FFFFFFFFFFFFFC07FFFFFF0001FFFFFF0001FFFFFFFFC0007F0001FFFFFFFFC
310
0007FF0003FFFFFFFFFFE0000000001FF000FF00000000007FFFF0003F000780
310
03F0003FFF80007FFF00000000007FFFF00000000007FFF80FFFFFFFFFFFFFC0
310
7FFFFFF0001FFFFFF0001FFFFFFFFC0007F0001FFFFFFFFC0007FF0003FFFFFF
310
FFFF80000000007FF000FE0000000000FFFFE0003F00078007F0003FFF80007F
310
FE0000000001FFFFE0000000001FFFF80FFFFFFFFFFFFFC07FFFFFF0001FFFFF
310
F0001FFFFFFFFC0007F0001FFFFFFFFC0007FF0003FFFFFFFFFF0000000000FF
310
F000FC0000000003FFFFE0007F00078007F0003FFF80007FFC0000000007FFFF
310
C0000000007FFFF80FFFFFFFFFFFFFC07FFFFFF0001FFFFFF8001FFFFFFFFC00
310
0FF8001FFFFFFFFC000FFF0003FFFFFFFFFE0000000003FFF000FC000000000F
310
FFFFE0007F80070007F8001FFF80007FF8000000001FFFFF8000000001FFFFF8
310
0FFFFFFFFFFFFFC07FFFFFF0001FFFFFF8001FFFFFFFFC000FF8001FFFFFFFFC
310
000FFF0003FFFFFFFFFC000000000FFFF000F8000000007FFFFFE0007F800700
310
07F8001FFF80007FF000000000FFFFFF800000000FFFFFF80FFFFFFFFFFFFFC0
310
7FFFFFF0001FFFFFF8000FFFFFFFF8000FF8000FFFFFFFF8000FFF0003FFFFFF
310
FFFC000000007FFFF000F800000007FFFFFFC0007F8003000FF8001FFF80007F
310
F000000007FFFFFF000000007FFFFFF80FFFFFFFFFFFFFC07FFFFFF0001FFFFF
310
F8000FFFFFFFF8000FF8000FFFFFFFF8000FFF0003FFFFFFFFF80000000FFFFF
310
F000F0000000FFFFFFFFC000FF8003000FF8001FFF80007FE0000000FFFFFFFF
310
0000000FFFFFFFF8000001FFFE0000007FFFFFF0001FFFFFF8000FFFFFFFF800
310
0FF8000FFFFFFFF8000FFF0003FFFFFFFFF8000000FFFFFFF000F000000FFFFF
310
FFFFC000FFC002000FF8000FFF80007FE000001FFFFFFFFE000001FFFFFFFFF8
310
000001FFFE0000007FFFFFF0001FFFFFF8000FFFFFFFF8000FF8000FFFFFFFF8
310
000FFF0003FFFFFFFFF000001FFFFFFFF000E00000FFFFFFFFFFC000FFC00200
310
0FFC000FFF80007FE00001FFFFFFFFFE00001FFFFFFFFFF8000001FFFE000000
310
7FFFFFF0001FFFFFFC000FFFFFFFF8001FFC000FFFFFFFF8001FFF0003FFFFFF
310
FFF00001FFFFFFFFF000E00007FFFFFFFFFF8000FFC000001FFC000FFF80007F
310
C0000FFFFFFFFFFE0000FFFFFFFFFFF8000001FFFE0000007FFFFFF0001FFFFF
310
FC0007FFFFFFF0001FFC0007FFFFFFF0001FFF0003FFFFFFFFF00007FFFFFFFF
310
F000E0001FFFFFFFFFFF8000FFC000001FFC000FFF80007FC0003FFFFFFFFFFE
310
0001FFFFFFFFFFF8000001FFFE0000007FFFFFF0001FFFFFFC0007FFFFFFF000
310
1FFC0007FFFFFFF0001FFF0003FFFFFFFFF0001FFFFFFFFFF000E0003FFFFF00
310
03FF8001FFE000001FFC0007FF80007FC0007FFFFF0007FC0003FFFFF0003FF8
310
000001FFFE0000007FFFFFF0001FFFFFFC0003FFFFFFE0001FFC0003FFFFFFE0
310
001FFF0003FFFFFFFFF0003FFFFFFFFFF000E0003FFFFF0001FF8001FFE00000
310
1FFE0007FF80007FC0007FFFFE0003FC0007FFFFE0003FF8000001FFFE000000
310
7FFFFFF0001FFFFFFE0003FFFFFFE0003FFE0003FFFFFFE0003FFF0003FFFFFF
310
FFF0003FFFFF8001F000E0003FFFFF0001FF0001FFE000001FFE0007FF80007F
310
C0007FFFFE0003FC0007FFFFE0003FF8000001FFFE0000007FFFFFF0001FFFFF
310
FE0001FFFFFFC0003FFE0001FFFFFFC0003FFF0003FFFFFFFFF0003FFFFF0001
310
F000E0003FFFFF0003FF0001FFE000003FFE0007FF80007FC0007FFFFE0003FC
310
0007FFFFE0003FF8000001FFFE0000007FFFFFF0001FFFFFFF0001FFFFFFC000
310
7FFF0001FFFFFFC0007FFF0003FFFFFFFFF0003FFFFF0001F000E0003FFFFE00
310
03FF0003FFF000003FFE0003FF80007FC0007FFFFC0003FE0007FFFFE0003FF8
310
000001FFFE0000007FFFFFF0001FFFFFFF0000FFFFFF80007FFF0000FFFFFF80
310
007FFF0003FFFFFFFFF0003FFFFF0001F000E0003FFFFE0003FF0003FFF00000
310
3FFF0003FF80007FC0007FFFFC0007FE0007FFFFC0003FF8000001FFFE000000
310
7FFFFFF0001FFFFFFF80007FFFFF0000FFFF80007FFFFF0000FFFF0003FFFFFF
310
FFF0003FFFFF0003F000E0003FFFFC0003FE0003FFF000003FFF0003FF80007F
310
E0003FFFF80007FE0003FFFFC0007FF8000001FFFE0000007FFFFFF0001FFFFF
310
FF80003FFFFE0000FFFF80003FFFFE0000FFFF0003FFFFFFFFF0001FFFFE0003
310
F000F0001FFFF80003FE0003FFF000007FFF0001FF80007FE0003FFFF00007FE
310
0001FFFF80007FF8000001FFFE0000007FFFFFF0001FFFFFFFC0000FFFF80001
310
FFFFC0000FFFF80001FFFF0003FFFFFFFFF0001FFFFC0003F000F0000FFFF000
310
07FE0007FFF800007FFF0001FF80007FE0001FFFE00007FF0000FFFE00007FF8
310
000001FFFE0000007FFFFFF0001FFFFFFFC00003FFE00001FFFFC00003FFE000
310
01FFFF0003FFFFFFFFF8000FFFF80003F000F00003FFC00007FC0007FFF80000
310
7FFF8001FF80007FF00007FF80000FFF00007FF80000FFF8000001FFFE000000
310
7F80000000000001FFE000003E000003FFFFE000003E000003FFFF0003FFFFFF
310
FFF80003FFE00007F000F800000000000FFC0007FFF800007FFF8001FF80007F
310
F000000000000FFF000000000000FFF8000001FFFE0000007F80000000000001
310
FFF0000000000007FFFFF0000000000007FFFF0003FFFFFFFFFC00007E000007
310
F000F800000000000FFC0007FFF80000FFFF8000FF80007FF800000000001FFF
310
800000000001FFF8000001FFFE0000007F80000000000001FFF800000000000F
310
FFFFF800000000000FFFFF0003FFFFFFFFFC00000000000FF000FC0000000000
310
1FFC0007FFFC0000FFFF8000FF80007FF800000000003FFFC00000000001FFF8
310
000001FFFE0000007F80000000000001FFF800000000000FFFFFF80000000000
310
0FFFFF0003FFFFFFFFFE00000000001FF000FE00000000003FF8000FFFFC0000
310
FFFF8000FF80007FFC00000000003FFFC00000000003FFF8000001FFFE000000
310
7F80000000000001FFFC00000000001FFFFFFC00000000001FFFFF0003FFFFFF
310
FFFF00000000001FF000FF00000000003FF8000FFFFC0000FFFFC000FF80007F
310
FE00000000007FFFE00000000007FFF8000001FFFE0000007F80000000000001
310
FFFE00000000003FFFFFFE00000000003FFFFF0003FFFFFFFFFF80000000003F
310
F000FF80000000007FF8000FFFFC0001FFFFC0007F80007FFF0000000000FFFF
310
F0000000000FFFF800000000000000007F80000000000001FFFF8000000000FF
310
FFFFFF8000000000FFFFFF0003FFFFFFFFFFC0000000007FF000FFC000000000
310
FFF8000FFFFE0001FFFFC0007F80007FFF8000000001FFFFF8000000001FFFF8
310
00000000000000007F80000000000001FFFFC000000001FFFFFFFFC000000001
310
FFFFFF0003FFFFFFFFFFE000000000FFF000FFE000000003FFF0001FFFFE0001
310
FFFFC0007F80007FFFC000000007FFFFFE000000003FFFF80000000000000000
310
7F80000000000001FFFFE000000003FFFFFFFFE000000003FFFFFF0003FFFFFF
310
FFFFF000000003FFF000FFF80000000FFFF0001FFFFE0001FFFFE0007F80007F
310
FFF00000000FFFFFFF00000000FFFFF800000000000000007F80000000000001
310
FFFFF80000000FFFFFFFFFF80000000FFFFFFF0003FFFFFFFFFFFC0000000FFF
310
F000FFFE0000003FFFF0001FFFFE0003FFFFE0003F80007FFFFC0000003FFFFF
310
FFC0000003FFFFF800000000000000007F80000000000001FFFFFE0000003FFF
310
FFFFFFFE0000003FFFFFFF0003FFFFFFFFFFFF0000003FFFF000FFFF800000FF
310
FFF0001FFFFF0003FFFFE0003F80007FFFFF000001FFFFFFFFF800001FFFFFF8
310
00000000000000007F80000000000001FFFFFFC00001FFFFFFFFFFFFC00001FF
310
FFFFFF0003FFFFFFFFFFFFC00000FFFFF000FFFFF8000FFFFFFFFFFFFFFFFFFF
310
FFFFFFFFFFFFFFFFFFFFF0001FFFFFFFFFFF0000FFFFFFF80000000000000000
310
7FFFFFFFFFFFFFFFFFFFFFFC001FFFFFFFFFFFFFFC001FFFFFFFFFFFFFFFFFFF
310
FFFFFFFC001FFFFFF000FFFFFFFFFFFFFFFFFFFFFFFFFFFFFFFFFFFFFFFFFFFF
310
FFFFFFFFFFFFFFFFFFFFFFFFFFFFFFFFFFFFFFFFFFFFFFFFFFFFFFFFFFFFFFFF
310
FFFFFFFFFFFFFFFFFFFFFFFFFFFFFFFFFFFFFFFFFFFFFFFFFFFFFFFFFFFFFFFF
310
F000FFFFFFFFFFFFFFFFFFFFFFFFFFFFFFFFFFFFFFFFFFFFFFFFFFFFFFFFFFFF
310
FFFFFFFFFFFFFFFFFFFFFFFFFFFFFFFFFFFFFFFFFFFFFFFFFFFFFFFFFFFFFFFF
310
FFFFFFFFFFFFFFFFFFFFFFFFFFFFFFFFFFFFFFFFFFFFFFFFF000FFFFFFFFFFFF
310
FFFFFFFFFFFFFFFFFFFFFFFFFFFFFFFFFFFFFFFFFFFFFFFFFFFFFFFFFFFFFFFF
310
FFFFFFFFFFFFFFFFFFFFFFFFFFFFFFFFFFFFFFFFFFFFFFFFFFFFFFFFFFFFFFFF
310
FFFFFFFFFFFFFFFFFFFFFFFFFFFFFFFFF000FFFFFFFFFFFFFFFFFFFFFFFFFFFF
310
FFFFFFFFFFFFFFFFFFFFFFFFFFFFFFFFFFFFFFFFFFFFFFFFFFFFFFFFFFFFFFFF
310
FFFFFFFFFFFFFFFFFFFFFFFFFFFFFFFFFFFFFFFFFFFFFFFFFFFFFFFFFFFFFFFF
310
FFFFFFFFFFFFFFFFF000FFFFFFFFFFFFFFFFFFFFFFFFFFFFFFFFFFFFFFFFFFFF
310
FFFFFFFFFFFFFFFFFFFFFFFFFFFFFFFFFFFFFFFFFFFFFFFFFFFFFFFFFFFFFFFF
310
FFFFFFFFFFFFFFFFFFFFFFFFFFFFFFFFFFFFFFFFFFFFFFFFFFFFFFFFFFFFFFFF
310
F000FFFFFFFFFFFFFFFFFFFFFFFFFFFFFFFFFFFFFFFFFFFFFFFFFFFFFFFFFFFF
310
FFFFFFFFFFFFFFFFFFFFFFFFFFFFFFFFFFFFFFFFFFFFFFFFFFFFFFFFFFFFFFFF
310
FFFFFFFFFFFFFFFFFFFFFFFFFFFFFFFFFFFFFFFFFFFFFFFFF000FFFFFFFFFFFF
310
FFFFFFFFFFFFFFFFFFFFFFFFFFFFFFFFFFFFFFFFFFFFFFFFFFFFFFFFFFFFFFFF
310
FFFFFFFFFFFFFFFFFFFFFFFFFFFFFFFFFFFFFFFFFFFFFFFFFFFFFFFFFFFFFFFF
310
FFFFFFFFFFFFFFFFFFFFFFFFFFFFFFFFF000FFFFFFFFFFFFFFFFFFFFFFFFFFFF
310
FFFFFFFFFFFFFFFFFFFFFFFFFFFFFFFFFFFFFFFFFFFFFFFFFFFFFFFFFFFFFFFF
310
FFFFFFFFFFFFFFFFFFFFFFFFFFFFFFFFFFFFFFFFFFFFFFFFFFFFFFFFFFFFFFFF
310
FFFFFFFFFFFFFFFFF000FFFFFFFFFFFFFFFFFFFFFFFFFFFFFFFFFFFFFFFFFFFF
310
FFFFFFFFFFFFFFFFFFFFFFFFFFFFFFFFFFFFFFFFFFFFFFFFFFFFFFFFFFFFFFFF
310
FFFFFFFFFFFFFFFFFFFFFFFFFFFFFFFFFFFFFFFFFFFFFFFFFFFFFFFFFFFFFFFF
310
F000FFFFFFFFFFFFFFFFFFFFFFFFFFFFFFFFFFFFFFFFFFFFFFFFFFFFFFFFFFFF
310
FFFFFFFFFFFFFFFFFFFFFFFFFFFFFFFFFFFFFFFFFFFFFFFFFFFFFFFFFFFFFFFF
310
FFFFFFFFFFFFFFFFFFFFFFFFFFFFFFFFFFFFFFFFFFFFFFFFF000FFFFFFFFFFFF
310
FFFFFFFFFFFFFFFFFFFFFFFFFFFFFFFFFFFFFFFFFFFFFFFFFFFFFFFFFFFFFFFF
310
FFFFFFFFFFFFFFFFFFFFFFFFFFFFFFFFFFFFFFFFFFFFFFFFFFFFFFFFFFFFFFFF
310
FFFFFFFFFFFFFFFFFFFFFFFFFFFFFFFFF000FFFFFFFFFFFFFFFFFFFFFFFFFFFF
310
FFFFFFFFFFFFFFFFFFFFFFFFFFFFFFFFFFFFFFFFFFFFFFFFFFFFFFFFFFFFFFFF
310
FFFFFFFFFFFFFFFFFFFFFFFFFFFFFFFFFFFFFFFFFFFFFFFFFFFFFFFFFFFFFFFF
310
FFFFFFFFFFFFFFFFF000FFFFFFFFFFFFFFFFFFFFFFFFFFFFFFFFFFFFFFFFFFFF
310
FFFFFFFFFFFFFFFFFFFFFFFFFFFFFFFFFFFFFFFFFFFFFFFFFFFFFFFFFFFFFFFF
310
FFFFFFFFFFFFFFFFFFFFFFFFFFFFFFFFFFFFFFFFFFFFFFFFFFFFFFFFFFFFFFFF
310
F000FFFFFFFFFFFFFFFFFFFFFFFFFFFFFFFFFFFFFFFFFFFFFFFFFFFFFFFFFFFF
310
FFFFFFFFFFFFFFFFFFFFFFFFFFFFFFFFFFFFFFFFFFFFFFFFFFFFFFFFFFFFFFFF
310
FFFFFFFFFFFFFFFFFFFFFFFFFFFFFFFFFFFFFFFFFFFFFFFFF000FFFFFFFFFFFF
310
FFFFFFFFFFFFFFFFFFFFFFFFFFFFFFFFFFFFFFFFFFFFFFFFFFFFFFFFFFFFFFFF
310
FFFFFFFFFFFFFFFFFFFFFFFFFFFFFFFFFFFFFFFFFFFFFFFFFFFFFFFFFFFFFFFF
310
FFFFFFFFFFFFFFFFFFFFFFFFFFFFFFFFF000FFFFFFFFFFFFFFFFFFFFFFFFFFFF
310
FFFFFFFFFFFFFFFFFFFFFFFFFFFFFFFFFFFFFFFFFFFFFFFFFFFFFFFFFFFFFFFF
310
FFFFFFFFFFFFFFFFFFFFFFFFFFFFFFFFFFFFFFFFFFFFFFFFFFFFFFFFFFFFFFFF
310
FFFFFFFFFFFFFFFFF000FFFFFFFFFFFFFFFFFFFFFFFFFFFFFFFFFFFFFFFFFFFF
310
FFFFFFFFFFFFFFFFFFFFFFFFFFFFFFFFFFFFFFFFFFFFFFFFFFFFFFFFFFFFFFFF
310
FFFFFFFFFFFFFFFFFFFFFFFFFFFFFFFFFFFFFFFFFFFFFFFFFFFFFFFFFFFFFFFF
310
F000FFFFFFFFFFFFFFFFFFFFFFFFFFFFFFFFFFFFFFFFFFFFFFFFFFFFFFFFFFFF
310
FFFFFFFFFFFFFFFFFFFFFFFFFFFFFFFFFFFFFFFFFFFFFFFFFFFFFFFFFFFFFFFF
310
FFFFFFFFFFFFFFFFFFFFFFFFFFFFFFFFFFFFFFFFFFFFFFFFF000FFFFFFFFFFFF
310
FFFFFFFFFFFFFFFFFFFFFFFFFFFFFFFFFFFFFFFFFFFFFFFFFFFFFFFFFFFFFFFF
310
FFFFFFFFFFFFFFFFFFFFFFFFFFFFFFFFFFFFFFFFFFFFFFFFFFFFFFFFFFFFFFFF
310
FFFFFFFFFFFFFFFFFFFFFFFFFFFFFFFFF000FFFFFFFFFFFFFFFFFFFFFFFFFFFF
310
FFFFFFFFFFFFFFFFFFFFFFFFFFFFFFFFFFFFFFFFFFFFFFFFFFFFFFFFFFFFFFFF
310
FFFFFFFFFFFFFFFFFFFFFFFFFFFFFFFFFFFFFFFFFFFFFFFFFFFFFFFFFFFFFFFF
310
FFFFFFFFFFFFFFFFF000FFFFFFFFFFFFFFFFFFFFFFFFFFFFFFFFFFFFFFFFFFFF
310
FFFFFFFFFFFFFFFFFFFFFFFFFFFFFFFFFFFFFFFFFFFFFFFFFFFFFFFFFFFFFFFF
310
FFFFFFFFFFFFFFFFFFFFFFFFFFFFFFFFFFFFFFFFFFFFFFFFFFFFFFFFFFFFFFFF
310
F000FFFFFFFFFFFFFFFFFFFFFFFFFFFFFFFFFFFFFFFFFFFFFFFFFFFFFFFFFFFF
310
FFFFFFFFFFFFFFFFFFFFFFFFFFFFFFFFFFFFFFFFFFFFFFFFFFFFFFFFFFFFFFFF
310
FFFFFFFFFFFFFFFFFFFFFFFFFFFFFFFFFFFFFFFFFFFFFFFFF000FFFFFFFFFFFF
310
FFFFFFFFFFFFFFFFFFFFFFFFFFFFFFFFFFFFFFFFFFFFFFFFFFFFFFFFFFFFFFFF
310
FFFFFFFFFFFFFFFFFFFFFFFFFFFFFFFFFFFFFFFFFFFFFFFFFFFFFFFFFFFFFFFF
310
FFFFFFFFFFFFFFFFFFFFFFFFFFFFFFFFF0000000000000000000000000000000
310
0000000000000000000000000000000000000000000000000000000000000000
310
0000000000000000000000000000000000000000000000000000000000000000
310
0000000000000000000000000000000000000000000000000000000000000000
310
0000000000000000000000000000000000000000000000000000000000000000
310
0000000000000000000000000000000000000000000000000000000000000000
310
0000000000000000000000000000000000000000000000000000000000000000
310
0000000000000000000000000000000000000000000000000000000000000000
310
0000000000000000000000000000000000000000000000000000000000000000
310
0000000000000000000000000000000000000000000000000000000000000000
310
0000000000000000000000000000000000000000000000000000000000000000
310
0000000000000000000000000000000000000000000000000000000000000000
310
0000000000000000000000000000000000000000000000000000000000000000
310
0000000000000000000000000000000000000000000000000000000000000000
310
0000000000000000000000000000000000000000000000000000000000000000
310
0000000000000000000000000000000000000000000000000000000000000000
  1
OLE
  0
ENDSEC
  0
SECTION
  2
OBJECTS
  0
DICTIONARY
  5
C
330
0
100
AcDbDictionary
281
     1
  3
ACAD_GROUP
350
D
  3
ACAD_LAYOUT
350
1A
  3
ACAD_MLINESTYLE
350
17
  3
ACAD_PLOTSETTINGS
350
19
  3
ACAD_PLOTSTYLENAME
350
E
  0
DICTIONARY
  5
D
102
{ACAD_REACTORS
330
C
102
}
330
C
100
AcDbDictionary
281
     1
  0
DICTIONARY
  5
1A
102
{ACAD_REACTORS
330
C
102
}
330
C
100
AcDbDictionary
281
     1
  3
Layout1
350
1E
  3
Layout2
350
26
  3
Model
350
22
  0
DICTIONARY
  5
17
102
{ACAD_REACTORS
330
C
102
}
330
C
100
AcDbDictionary
281
     1
  3
Standard
350
18
  0
DICTIONARY
  5
19
102
{ACAD_REACTORS
330
C
102
}
330
C
100
AcDbDictionary
281
     1
  0
ACDBDICTIONARYWDFLT
  5
E
102
{ACAD_REACTORS
330
C
102
}
330
C
100
AcDbDictionary
281
     1
  3
Normal
350
F
100
AcDbDictionaryWithDefault
340
F
  0
LAYOUT
  5
1E
102
{ACAD_REACTORS
330
1A
102
}
330
1A
100
AcDbPlotSettings
  1

  2
none_device
  4

  6

 40
0.0
 41
0.0
 42
0.0
 43
0.0
 44
0.0
 45
0.0
 46
0.0
 47
0.0
 48
0.0
 49
0.0
140
0.0
141
0.0
142
1.0
143
1.0
 70
   688
 72
     0
 73
     0
 74
     5
  7

 75
    16
147
1.0
148
0.0
149
0.0
100
AcDbLayout
  1
Layout1
 70
     1
 71
     1
 10
0.0
 20
0.0
 11
420.0
 21
297.0
 12
0.0
 22
0.0
 32
0.0
 14
1.0000000000E+20
 24
1.0000000000E+20
 34
1.0000000000E+20
 15
-1.0000000000E+20
 25
-1.0000000000E+20
 35
-1.0000000000E+20
146
0.0
 13
0.0
 23
0.0
 33
0.0
 16
1.0
 26
0.0
 36
0.0
 17
0.0
 27
1.0
 37
0.0
 76
     0
330
1B
  0
LAYOUT
  5
26
102
{ACAD_REACTORS
330
1A
102
}
330
1A
100
AcDbPlotSettings
  1

  2
none_device
  4

  6

 40
0.0
 41
0.0
 42
0.0
 43
0.0
 44
0.0
 45
0.0
 46
0.0
 47
0.0
 48
0.0
 49
0.0
140
0.0
141
0.0
142
1.0
143
1.0
 70
   688
 72
     0
 73
     0
 74
     5
  7

 75
    16
147
1.0
148
0.0
149
0.0
100
AcDbLayout
  1
Layout2
 70
     1
 71
     2
 10
0.0
 20
0.0
 11
0.0
 21
0.0
 12
0.0
 22
0.0
 32
0.0
 14
0.0
 24
0.0
 34
0.0
 15
0.0
 25
0.0
 35
0.0
146
0.0
 13
0.0
 23
0.0
 33
0.0
 16
1.0
 26
0.0
 36
0.0
 17
0.0
 27
1.0
 37
0.0
 76
     0
330
23
  0
LAYOUT
  5
22
102
{ACAD_REACTORS
330
1A
102
}
330
1A
100
AcDbPlotSettings
  1

  2
none_device
  4

  6

 40
0.0
 41
0.0
 42
0.0
 43
0.0
 44
0.0
 45
0.0
 46
0.0
 47
0.0
 48
0.0
 49
0.0
140
0.0
141
0.0
142
1.0
143
1.0
 70
  1712
 72
     0
 73
     0
 74
     0
  7

 75
     0
147
1.0
148
0.0
149
0.0
100
AcDbLayout
  1
Model
 70
     1
 71
     0
 10
0.0
 20
0.0
 11
297.0
 21
210.0
 12
0.0
 22
0.0
 32
0.0
 14
0.0
 24
0.0
 34
0.0
 15
297.0
 25
210.0
 35
0.0
146
0.0
 13
0.0
 23
0.0
 33
0.0
 16
1.0
 26
0.0
 36
0.0
 17
0.0
 27
1.0
 37
0.0
 76
     0
330
1F
331
29
  0
MLINESTYLE
  5
18
102
{ACAD_REACTORS
330
17
102
}
330
17
100
AcDbMlineStyle
  2
Standard
 70
     0
  3

 62
   256
 51
90.0
 52
90.0
 71
     2
 49
0.5
 62
   256
  6
BYLAYER
 49
-0.5
 62
   256
  6
BYLAYER
  0
ACDBPLACEHOLDER
  5
F
102
{ACAD_REACTORS
330
E
102
}
330
E
  0
ENDSEC
  0
EOF
