  0
SECTION
  2
HEADER
  9
$ACADVER
  1
AC1015
  9
$ACADMAINTVER
 70
     6
  9
$DWGCODEPAGE
  3
ANSI_1252
  9
$INSBASE
 10
0.0
 20
0.0
 30
0.0
  9
$EXTMIN
 10
0.0
 20
0.0
 30
0.0
  9
$EXTMAX
 10
297.0
 20
210.0
 30
0.0
  9
$LIMMIN
 10
0.0
 20
0.0
  9
$LIMMAX
 10
297.0
 20
210.0
  9
$ORTHOMODE
 70
     0
  9
$REGENMODE
 70
     1
  9
$FILLMODE
 70
     1
  9
$QTEXTMODE
 70
     0
  9
$MIRRTEXT
 70
     1
  9
$LTSCALE
 40
1.0
  9
$ATTMODE
 70
     1
  9
$TEXTSIZE
 40
2.0
  9
$TRACEWID
 40
1.0
  9
$TEXTSTYLE
  7
Standard
  9
$CLAYER
  8
0
  9
$CELTYPE
  6
ByLayer
  9
$CECOLOR
 62
   256
  9
$CELTSCALE
 40
1.0
  9
$DISPSILH
 70
     0
  9
$DIMSCALE
 40
1.0
  9
$DIMASZ
 40
3.0
  9
$DIMEXO
 40
0.0
  9
$DIMDLI
 40
3.75
  9
$DIMRND
 40
0.0
  9
$DIMDLE
 40
0.0
  9
$DIMEXE
 40
1.0
  9
$DIMTP
 40
0.0
  9
$DIMTM
 40
0.0
  9
$DIMTXT
 40
2.0
  9
$DIMCEN
 40
2.5
  9
$DIMTSZ
 40
0.0
  9
$DIMTOL
 70
     0
  9
$DIMLIM
 70
     0
  9
$DIMTIH
 70
     1
  9
$DIMTOH
 70
     1
  9
$DIMSE1
 70
     0
  9
$DIMSE2
 70
     0
  9
$DIMTAD
 70
     1
  9
$DIMZIN
 70
     0
  9
$DIMBLK
  1

  9
$DIMASO
 70
     1
  9
$DIMSHO
 70
     1
  9
$DIMPOST
  1

  9
$DIMAPOST
  1

  9
$DIMALT
 70
     0
  9
$DIMALTD
 70
     3
  9
$DIMALTF
 40
0.0393700787
  9
$DIMLFAC
 40
1.0
  9
$DIMTOFL
 70
     1
  9
$DIMTVP
 40
0.0
  9
$DIMTIX
 70
     0
  9
$DIMSOXD
 70
     0
  9
$DIMSAH
 70
     0
  9
$DIMBLK1
  1

  9
$DIMBLK2
  1

  9
$DIMSTYLE
  2
ISO-25
  9
$DIMCLRD
 70
     0
  9
$DIMCLRE
 70
     0
  9
$DIMCLRT
 70
     0
  9
$DIMTFAC
 40
1.0
  9
$DIMGAP
 40
1.524
  9
$DIMJUST
 70
     0
  9
$DIMSD1
 70
     0
  9
$DIMSD2
 70
     0
  9
$DIMTOLJ
 70
     0
  9
$DIMTZIN
 70
     0
  9
$DIMALTZ
 70
     0
  9
$DIMALTTZ
 70
     0
  9
$DIMUPT
 70
     0
  9
$DIMDEC
 70
     2
  9
$DIMTDEC
 70
     3
  9
$DIMALTU
 70
     2
  9
$DIMALTTD
 70
     3
  9
$DIMTXSTY
  7
Standard
  9
$DIMAUNIT
 70
     0
  9
$DIMADEC
 70
     2
  9
$DIMALTRND
 40
0.0
  9
$DIMAZIN
 70
     0
  9
$DIMDSEP
 70
    44
  9
$DIMATFIT
 70
     3
  9
$DIMFRAC
 70
     0
  9
$DIMLDRBLK
  1

  9
$DIMLUNIT
 70
     2
  9
$DIMLWD
 70
    -2
  9
$DIMLWE
 70
    -2
  9
$DIMTMOVE
 70
     0
  9
$LUNITS
 70
     2
  9
$LUPREC
 70
     2
  9
$SKETCHINC
 40
1.0
  9
$FILLETRAD
 40
10.0
  9
$AUNITS
 70
     0
  9
$AUPREC
 70
     2
  9
$MENU
  1
.
  9
$ELEVATION
 40
0.0
  9
$PELEVATION
 40
0.0
  9
$THICKNESS
 40
0.0
  9
$LIMCHECK
 70
     0
  9
$CHAMFERA
 40
10.0
  9
$CHAMFERB
 40
10.0
  9
$CHAMFERC
 40
20.0
  9
$CHAMFERD
 40
0.0
  9
$SKPOLY
 70
     0
  9
$TDCREATE
 40
2456043.709167026
  9
$TDUCREATE
 40
2456043.625833692
  9
$TDUPDATE
 40
2456043.709168657
  9
$TDUUPDATE
 40
2456043.625835324
  9
$TDINDWG
 40
0.0000000116
  9
$TDUSRTIMER
 40
0.0000000116
  9
$USRTIMER
 70
     1
  9
$ANGBASE
 50
0.0
  9
$ANGDIR
 70
     0
  9
$PDMODE
 70
     0
  9
$PDSIZE
 40
-1.0
  9
$PLINEWID
 40
0.0
  9
$SPLFRAME
 70
     0
  9
$SPLINETYPE
 70
     6
  9
$SPLINESEGS
 70
     8
  9
$HANDSEED
  5
2F6
  9
$SURFTAB1
 70
     6
  9
$SURFTAB2
 70
     6
  9
$SURFTYPE
 70
     6
  9
$SURFU
 70
     6
  9
$SURFV
 70
     6
  9
$UCSBASE
  2

  9
$UCSNAME
  2

  9
$UCSORG
 10
0.0
 20
0.0
 30
0.0
  9
$UCSXDIR
 10
1.0
 20
0.0
 30
0.0
  9
$UCSYDIR
 10
0.0
 20
1.0
 30
0.0
  9
$UCSORTHOREF
  2

  9
$UCSORTHOVIEW
 70
     0
  9
$UCSORGTOP
 10
0.0
 20
0.0
 30
0.0
  9
$UCSORGBOTTOM
 10
0.0
 20
0.0
 30
0.0
  9
$UCSORGLEFT
 10
0.0
 20
0.0
 30
0.0
  9
$UCSORGRIGHT
 10
0.0
 20
0.0
 30
0.0
  9
$UCSORGFRONT
 10
0.0
 20
0.0
 30
0.0
  9
$UCSORGBACK
 10
0.0
 20
0.0
 30
0.0
  9
$PUCSBASE
  2

  9
$PUCSNAME
  2

  9
$PUCSORG
 10
0.0
 20
0.0
 30
0.0
  9
$PUCSXDIR
 10
1.0
 20
0.0
 30
0.0
  9
$PUCSYDIR
 10
0.0
 20
1.0
 30
0.0
  9
$PUCSORTHOREF
  2

  9
$PUCSORTHOVIEW
 70
     0
  9
$PUCSORGTOP
 10
0.0
 20
0.0
 30
0.0
  9
$PUCSORGBOTTOM
 10
0.0
 20
0.0
 30
0.0
  9
$PUCSORGLEFT
 10
0.0
 20
0.0
 30
0.0
  9
$PUCSORGRIGHT
 10
0.0
 20
0.0
 30
0.0
  9
$PUCSORGFRONT
 10
0.0
 20
0.0
 30
0.0
  9
$PUCSORGBACK
 10
0.0
 20
0.0
 30
0.0
  9
$USERI1
 70
     0
  9
$USERI2
 70
     0
  9
$USERI3
 70
     0
  9
$USERI4
 70
     0
  9
$USERI5
 70
     0
  9
$USERR1
 40
0.0
  9
$USERR2
 40
0.0
  9
$USERR3
 40
0.0
  9
$USERR4
 40
0.0
  9
$USERR5
 40
0.0
  9
$WORLDVIEW
 70
     1
  9
$SHADEDGE
 70
     3
  9
$SHADEDIF
 70
    70
  9
$TILEMODE
 70
     1
  9
$MAXACTVP
 70
    64
  9
$PINSBASE
 10
0.0
 20
0.0
 30
0.0
  9
$PLIMCHECK
 70
     0
  9
$PEXTMIN
 10
1.0000000000E+20
 20
1.0000000000E+20
 30
1.0000000000E+20
  9
$PEXTMAX
 10
-1.0000000000E+20
 20
-1.0000000000E+20
 30
-1.0000000000E+20
  9
$PLIMMIN
 10
0.0
 20
0.0
  9
$PLIMMAX
 10
420.0
 20
297.0
  9
$UNITMODE
 70
     0
  9
$VISRETAIN
 70
     1
  9
$PLINEGEN
 70
     0
  9
$PSLTSCALE
 70
     1
  9
$TREEDEPTH
 70
  3020
  9
$CMLSTYLE
  2
Standard
  9
$CMLJUST
 70
     0
  9
$CMLSCALE
 40
20.0
  9
$PROXYGRAPHICS
 70
     1
  9
$MEASUREMENT
 70
     1
  9
$CELWEIGHT
370
    -1
  9
$ENDCAPS
280
     0
  9
$JOINSTYLE
280
     0
  9
$LWDISPLAY
290
     1
  9
$INSUNITS
 70
     4
  9
$HYPERLINKBASE
  1

  9
$STYLESHEET
  1

  9
$XEDIT
290
     1
  9
$CEPSNTYPE
380
     0
  9
$PSTYLEMODE
290
     1
  9
$FINGERPRINTGUID
  2
{19507685-6D67-4AFF-9B47-D18D38F31500}
  9
$VERSIONGUID
  2
{FAEB1C32-E019-11D5-929B-00C0DF256EC4}
  9
$EXTNAMES
290
     1
  9
$PSVPSCALE
 40
0.0
  9
$OLESTARTUP
290
     0
  0
ENDSEC
  0
SECTION
  2
CLASSES
  0
CLASS
  1
ACDBDICTIONARYWDFLT
  2
AcDbDictionaryWithDefault
  3
ObjectDBX Classes
 90
        0
280
     0
281
     0
  0
CLASS
  1
VISUALSTYLE
  2
AcDbVisualStyle
  3
ObjectDBX Classes
 90
     4095
280
     0
281
     0
  0
CLASS
  1
MATERIAL
  2
AcDbMaterial
  3
ObjectDBX Classes
 90
     1153
280
     0
281
     0
  0
CLASS
  1
ACDBPLACEHOLDER
  2
AcDbPlaceHolder
  3
ObjectDBX Classes
 90
        0
280
     0
281
     0
  0
CLASS
  1
LAYOUT
  2
AcDbLayout
  3
ObjectDBX Classes
 90
        0
280
     0
281
     0
  0
ENDSEC
  0
SECTION
  2
TABLES
  0
TABLE
  2
VPORT
  5
8
330
0
100
AcDbSymbolTable
 70
     1
  0
VPORT
  5
29
330
8
100
AcDbSymbolTableRecord
100
AcDbViewportTableRecord
  2
*Active
 70
     0
 10
0.0
 20
0.0
 11
1.0
 21
1.0
 12
148.5
 22
105.0
 13
0.0
 23
0.0
 14
10.0
 24
10.0
 15
10.0
 25
10.0
 16
0.0
 26
0.0
 36
1.0
 17
0.0
 27
0.0
 37
0.0
 40
210.0
 41
1.4142857143
 42
50.0
 43
0.0
 44
0.0
 50
0.0
 51
0.0
 71
     0
 72
  2000
 73
     1
 74
     3
 75
     0
 76
     0
 77
     0
 78
     0
281
     0
 65
     1
110
0.0
120
0.0
130
0.0
111
1.0
121
0.0
131
0.0
112
0.0
122
1.0
132
0.0
 79
     0
146
0.0
  0
ENDTAB
  0
TABLE
  2
LTYPE
  5
5
330
0
100
AcDbSymbolTable
 70
     6
  0
LTYPE
  5
14
330
5
100
AcDbSymbolTableRecord
100
AcDbLinetypeTableRecord
  2
ByBlock
 70
     0
  3

 72
    65
 73
     0
 40
0.0
  0
LTYPE
  5
15
330
5
100
AcDbSymbolTableRecord
100
AcDbLinetypeTableRecord
  2
ByLayer
 70
     0
  3

 72
    65
 73
     0
 40
0.0
  0
LTYPE
  5
16
330
5
100
AcDbSymbolTableRecord
100
AcDbLinetypeTableRecord
  2
Continuous
 70
     0
  3
Solid line
 72
    65
 73
     0
 40
0.0
  0
LTYPE
  5
3F
330
5
100
AcDbSymbolTableRecord
100
AcDbLinetypeTableRecord
  2
HIDDEN
 70
     0
  3
Hidden __ __ __ __ __ __ __ __ __ __ __ __ __ __
 72
    65
 73
     2
 40
1.905
 49
1.27
 74
     0
 49
-0.635
 74
     0
  0
LTYPE
  5
40
330
5
100
AcDbSymbolTableRecord
100
AcDbLinetypeTableRecord
  2
PHANTOM
 70
     0
  3
Phantom ______  __  __  ______  __  __  ______
 72
    65
 73
     6
 40
12.7
 49
6.35
 74
     0
 49
-1.27
 74
     0
 49
1.27
 74
     0
 49
-1.27
 74
     0
 49
1.27
 74
     0
 49
-1.27
 74
     0
  0
LTYPE
  5
41
330
5
100
AcDbSymbolTableRecord
100
AcDbLinetypeTableRecord
  2
CENTER
 70
     0
  3
Center ____ _ ____ _ ____ _ ____ _ ____ _ ____
 72
    65
 73
     4
 40
10.16
 49
6.35
 74
     0
 49
-1.27
 74
     0
 49
1.27
 74
     0
 49
-1.27
 74
     0
  0
LTYPE
  5
42
330
5
100
AcDbSymbolTableRecord
100
AcDbLinetypeTableRecord
  2
CENTERX2
 70
     0
  3
Center (2x) ________  __  ________  __  _____
 72
    65
 73
     4
 40
20.32
 49
12.7
 74
     0
 49
-2.54
 74
     0
 49
2.54
 74
     0
 49
-2.54
 74
     0
  0
LTYPE
  5
43
330
5
100
AcDbSymbolTableRecord
100
AcDbLinetypeTableRecord
  2
DOT2
 70
     0
  3
Dot (.5x) ........................................
 72
    65
 73
     2
 40
0.635
 49
0.0
 74
     0
 49
-0.635
 74
     0
  0
ENDTAB
  0
TABLE
  2
LAYER
  5
2
330
0
100
AcDbSymbolTable
 70
     5
  0
LAYER
  5
10
330
2
100
AcDbSymbolTableRecord
100
AcDbLayerTableRecord
  2
0
 70
     0
 62
     7
  6
Continuous
370
    -3
390
F
  0
LAYER
  5
44
330
2
100
AcDbSymbolTableRecord
100
AcDbLayerTableRecord
  2
FORMAT
 70
     0
 62
     7
  6
Continuous
370
    -3
390
F
  0
LAYER
  5
45
330
2
100
AcDbSymbolTableRecord
100
AcDbLayerTableRecord
  2
VERMASSUNG
 70
     0
 62
     7
  6
Continuous
370
    -3
390
F
  0
LAYER
  5
46
330
2
100
AcDbSymbolTableRecord
100
AcDbLayerTableRecord
  2
KOPF_DÜNN
 70
     0
 62
     7
  6
Continuous
370
    -3
390
F
  0
LAYER
  5
47
330
2
100
AcDbSymbolTableRecord
100
AcDbLayerTableRecord
  2
KOPF_DICK
 70
     0
 62
     7
  6
Continuous
370
    15
390
F
  0
ENDTAB
  0
TABLE
  2
STYLE
  5
3
330
0
100
AcDbSymbolTable
 70
     3
  0
STYLE
  5
11
330
3
100
AcDbSymbolTableRecord
100
AcDbTextStyleTableRecord
  2
Standard
 70
     0
 40
0.0
 41
1.0
 50
0.0
 71
     0
 42
2.0
  3
txt
  4

  0
STYLE
  5
48
330
3
100
AcDbSymbolTableRecord
100
AcDbTextStyleTableRecord
  2
SLDTEXTSTYLE0
 70
     0
 40
0.0
 41
0.7
 50
0.0
 71
     0
 42
0.2
  3
TXT
  4

  0
STYLE
  5
4C
330
3
100
AcDbSymbolTableRecord
100
AcDbTextStyleTableRecord
  2
SLDTEXTSTYLE1
 70
     0
 40
0.0
 41
0.6470588235
 50
0.0
 71
     0
 42
0.2
  3
TXT
  4

  0
ENDTAB
  0
TABLE
  2
VIEW
  5
6
330
0
100
AcDbSymbolTable
 70
     0
  0
ENDTAB
  0
TABLE
  2
UCS
  5
7
330
0
100
AcDbSymbolTable
 70
     0
  0
ENDTAB
  0
TABLE
  2
APPID
  5
9
330
0
100
AcDbSymbolTable
 70
     1
  0
APPID
  5
12
330
9
100
AcDbSymbolTableRecord
100
AcDbRegAppTableRecord
  2
ACAD
 70
     0
  0
ENDTAB
  0
TABLE
  2
DIMSTYLE
  5
A
330
0
100
AcDbSymbolTable
 70
     4
100
AcDbDimStyleTable
  0
DIMSTYLE
105
27
330
A
100
AcDbSymbolTableRecord
100
AcDbDimStyleTableRecord
  2
ISO-25
 70
     0
 41
2.5
 42
0.625
 43
3.75
 44
1.25
 73
     0
 74
     0
 77
     1
 78
     8
140
2.5
141
2.5
143
0.0393700787
147
0.625
171
     3
172
     1
178
     0
271
     2
272
     2
274
     3
278
    44
283
     0
284
     8
340
11
  0
DIMSTYLE
105
23E
102
{ACAD_REACTORS
330
23D
330
24A
102
}
330
A
100
AcDbSymbolTableRecord
100
AcDbDimStyleTableRecord
  2
SLDDIMSTYLE0
 70
     0
 41
3.0
 44
0.0
 45
0.000000001
 47
0.1
 48
0.1
 71
     1
 73
     0
 74
     0
 77
     1
 78
    12
 79
     3
140
2.0
147
0.5
173
     1
178
     0
271
     2
272
     1
276
     2
284
     8
340
48
  0
DIMSTYLE
105
257
102
{ACAD_REACTORS
330
256
330
26B
102
}
330
A
100
AcDbSymbolTableRecord
100
AcDbDimStyleTableRecord
  2
SLDDIMSTYLE1
 70
     0
 41
3.0
 44
0.0
 45
0.000000001
 73
     0
 74
     0
 77
     1
 78
    12
 79
     3
140
2.0
147
0.5
173
     1
178
     0
271
     2
272
     3
276
     2
284
    12
340
48
  0
DIMSTYLE
105
262
102
{ACAD_REACTORS
330
261
102
}
330
A
100
AcDbSymbolTableRecord
100
AcDbDimStyleTableRecord
  2
SLDDIMSTYLE2
 70
     0
 41
3.0
 44
0.0
 73
     0
 74
     0
 77
     1
 78
    12
 79
     3
140
2.0
147
0.5
173
     1
178
     0
179
     1
272
     3
276
     2
284
    12
340
48
  0
ENDTAB
  0
TABLE
  2
BLOCK_RECORD
  5
1
330
0
100
AcDbSymbolTable
 70
     7
  0
BLOCK_RECORD
  5
1F
330
1
100
AcDbSymbolTableRecord
100
AcDbBlockTableRecord
  2
*Model_Space
340
22
  0
BLOCK_RECORD
  5
1B
330
1
100
AcDbSymbolTableRecord
100
AcDbBlockTableRecord
  2
*Paper_Space
340
1E
  0
BLOCK_RECORD
  5
23
330
1
100
AcDbSymbolTableRecord
100
AcDbBlockTableRecord
  2
*Paper_Space0
340
26
  0
BLOCK_RECORD
  5
23F
330
1
100
AcDbSymbolTableRecord
100
AcDbBlockTableRecord
  2
_D
340
0
  0
BLOCK_RECORD
  5
24B
330
1
100
AcDbSymbolTableRecord
100
AcDbBlockTableRecord
  2
_D_1
340
0
  0
BLOCK_RECORD
  5
258
330
1
100
AcDbSymbolTableRecord
100
AcDbBlockTableRecord
  2
_D_2
340
0
  0
BLOCK_RECORD
  5
263
330
1
100
AcDbSymbolTableRecord
100
AcDbBlockTableRecord
  2
_D_3
340
0
  0
BLOCK_RECORD
  5
26C
330
1
100
AcDbSymbolTableRecord
100
AcDbBlockTableRecord
  2
_D_4
340
0
  0
BLOCK_RECORD
  5
2E9
330
1
100
AcDbSymbolTableRecord
100
AcDbBlockTableRecord
  2
SW_CENTERMARKSYMBOL_0
340
0
102
{BLKREFS
331
2F4
102
}
  0
ENDTAB
  0
ENDSEC
  0
SECTION
  2
BLOCKS
  0
BLOCK
  5
20
330
1F
100
AcDbEntity
  8
0
100
AcDbBlockBegin
  2
*Model_Space
 70
     0
 10
0.0
 20
0.0
 30
0.0
  3
*Model_Space
  1

  0
ENDBLK
  5
21
330
1F
100
AcDbEntity
  8
0
100
AcDbBlockEnd
  0
BLOCK
  5
1C
330
1B
100
AcDbEntity
 67
     1
  8
0
100
AcDbBlockBegin
  2
*Paper_Space
 70
     0
 10
0.0
 20
0.0
 30
0.0
  3
*Paper_Space
  1

  0
ENDBLK
  5
1D
330
1B
100
AcDbEntity
 67
     1
  8
0
100
AcDbBlockEnd
  0
BLOCK
  5
24
330
23
100
AcDbEntity
  8
0
100
AcDbBlockBegin
  2
*Paper_Space0
 70
     0
 10
0.0
 20
0.0
 30
0.0
  3
*Paper_Space0
  1

  0
ENDBLK
  5
25
330
23
100
AcDbEntity
  8
0
100
AcDbBlockEnd
  0
BLOCK
  5
240
330
23F
100
AcDbEntity
  8
0
100
AcDbBlockBegin
  2
_D
 70
     0
 10
0.0
 20
0.0
 30
0.0
  3
_D
  1

  0
SOLID
  5
242
330
23F
100
AcDbEntity
  8
VERMASSUNG
100
AcDbTrace
 10
229.2147781585
 20
136.0345146661
 30
0.0
 11
228.7647781585
 21
133.0345146661
 31
0.0
 12
229.6647781585
 22
133.0345146661
 32
0.0
 13
229.6647781585
 23
133.0345146661
 33
0.0
  0
SOLID
  5
243
330
23F
100
AcDbEntity
  8
VERMASSUNG
100
AcDbTrace
 10
229.2147781585
 20
109.0345146661
 30
0.0
 11
229.6647781585
 21
112.0345146661
 31
0.0
 12
228.7647781585
 22
112.0345146661
 32
0.0
 13
228.7647781585
 23
112.0345146661
 33
0.0
  0
LINE
  5
244
330
23F
100
AcDbEntity
  8
VERMASSUNG
100
AcDbLine
 10
219.0651620002
 20
136.0345146661
 30
0.0
 11
230.2147781585
 21
136.0345146661
 31
0.0
  0
LINE
  5
245
330
23F
100
AcDbEntity
  8
VERMASSUNG
100
AcDbLine
 10
219.0651620002
 20
109.0345146661
 30
0.0
 11
230.2147781585
 21
109.0345146661
 31
0.0
  0
LINE
  5
246
330
23F
100
AcDbEntity
  8
VERMASSUNG
100
AcDbLine
 10
229.2147781585
 20
136.0345146661
 30
0.0
 11
229.2147781585
 21
109.0345146661
 31
0.0
  0
MTEXT
  5
247
330
23F
100
AcDbEntity
  8
VERMASSUNG
100
AcDbMText
 10
226.6366427954
 20
117.9845144791
 30
0.1
 40
2.0
 41
0.0
 71
     1
 72
     1
  1
27
  7
SLDTEXTSTYLE0
 11
-7.044195017643634E-15
 21
1.0
 31
0.0
 73
     1
 44
1.0
  0
MTEXT
  5
248
330
23F
100
AcDbEntity
  8
VERMASSUNG
100
AcDbMText
 10
226.6366427954
 20
123.7720145812
 30
0.1
 40
2.0
 41
0.0
 71
     1
 72
     1
  1

  7
SLDTEXTSTYLE0
 11
-7.044195017643634E-15
 21
1.0
 31
0.0
 73
     1
 44
1.0
  0
MTEXT
  5
249
330
23F
100
AcDbEntity
  8
VERMASSUNG
100
AcDbMText
 10
227.1311766582
 20
123.784514871
 30
0.1
 40
1.5
 41
0.0
 71
     1
 72
     1
  1
±0.1
  7
SLDTEXTSTYLE0
 11
-7.044195017643634E-15
 21
1.0
 31
0.0
 73
     1
 44
1.0
  0
ENDBLK
  5
241
330
23F
100
AcDbEntity
  8
0
100
AcDbBlockEnd
  0
BLOCK
  5
24C
330
24B
100
AcDbEntity
  8
0
100
AcDbBlockBegin
  2
_D_1
 70
     0
 10
0.0
 20
0.0
 30
0.0
  3
_D_1
  1

  0
SOLID
  5
24E
330
24B
100
AcDbEntity
  8
VERMASSUNG
100
AcDbTrace
 10
162.0651620002
 20
152.4579317826
 30
0.0
 11
165.0651620002
 21
152.0079317826
 31
0.0
 12
165.0651620002
 22
152.9079317826
 32
0.0
 13
165.0651620002
 23
152.9079317826
 33
0.0
  0
SOLID
  5
24F
330
24B
100
AcDbEntity
  8
VERMASSUNG
100
AcDbTrace
 10
219.0651620002
 20
152.4579317826
 30
0.0
 11
216.0651620002
 21
152.9079317826
 31
0.0
 12
216.0651620002
 22
152.0079317826
 32
0.0
 13
216.0651620002
 23
152.0079317826
 33
0.0
  0
LINE
  5
250
330
24B
100
AcDbEntity
  8
VERMASSUNG
100
AcDbLine
 10
162.0651620002
 20
128.7345146661
 30
0.0
 11
162.0651620002
 21
153.4579317826
 31
0.0
  0
LINE
  5
251
330
24B
100
AcDbEntity
  8
VERMASSUNG
100
AcDbLine
 10
219.0651620002
 20
136.0345146661
 30
0.0
 11
219.0651620002
 21
153.4579317826
 31
0.0
  0
LINE
  5
252
330
24B
100
AcDbEntity
  8
VERMASSUNG
100
AcDbLine
 10
162.0651620002
 20
152.4579317826
 30
0.0
 11
219.0651620002
 21
152.4579317826
 31
0.0
  0
MTEXT
  5
253
330
24B
100
AcDbEntity
  8
VERMASSUNG
100
AcDbMText
 10
186.0151618132
 20
155.0360671457
 30
0.1
 40
2.0
 41
0.0
 71
     1
 72
     1
  1
57
  7
SLDTEXTSTYLE0
 73
     1
 44
1.0
  0
MTEXT
  5
254
330
24B
100
AcDbEntity
  8
VERMASSUNG
100
AcDbMText
 10
191.8026619153
 20
155.0360671457
 30
0.1
 40
2.0
 41
0.0
 71
     1
 72
     1
  1

  7
SLDTEXTSTYLE0
 73
     1
 44
1.0
  0
MTEXT
  5
255
330
24B
100
AcDbEntity
  8
VERMASSUNG
100
AcDbMText
 10
191.8151622051
 20
154.5415332829
 30
0.1
 40
1.5
 41
0.0
 71
     1
 72
     1
  1
±0.1
  7
SLDTEXTSTYLE0
 73
     1
 44
1.0
  0
ENDBLK
  5
24D
330
24B
100
AcDbEntity
  8
0
100
AcDbBlockEnd
  0
BLOCK
  5
259
330
258
100
AcDbEntity
  8
0
100
AcDbBlockBegin
  2
_D_2
 70
     0
 10
0.0
 20
0.0
 30
0.0
  3
_D_2
  1

  0
SOLID
  5
25B
330
258
100
AcDbEntity
  8
VERMASSUNG
100
AcDbTrace
 10
142.1651620002
 20
158.4579317826
 30
0.0
 11
145.1651620002
 21
158.0079317826
 31
0.0
 12
145.1651620002
 22
158.9079317826
 32
0.0
 13
145.1651620002
 23
158.9079317826
 33
0.0
  0
SOLID
  5
25C
330
258
100
AcDbEntity
  8
VERMASSUNG
100
AcDbTrace
 10
219.0651620002
 20
158.4579317826
 30
0.0
 11
216.0651620002
 21
158.9079317826
 31
0.0
 12
216.0651620002
 22
158.0079317826
 32
0.0
 13
216.0651620002
 23
158.0079317826
 33
0.0
  0
LINE
  5
25D
330
258
100
AcDbEntity
  8
VERMASSUNG
100
AcDbLine
 10
142.1651620002
 20
120.9645146661
 30
0.0
 11
142.1651620002
 21
159.4579317826
 31
0.0
  0
LINE
  5
25E
330
258
100
AcDbEntity
  8
VERMASSUNG
100
AcDbLine
 10
219.0651620002
 20
136.0345146661
 30
0.0
 11
219.0651620002
 21
159.4579317826
 31
0.0
  0
LINE
  5
25F
330
258
100
AcDbEntity
  8
VERMASSUNG
100
AcDbLine
 10
142.1651620002
 20
158.4579317826
 30
0.0
 11
219.0651620002
 21
158.4579317826
 31
0.0
  0
MTEXT
  5
260
330
258
100
AcDbEntity
  8
VERMASSUNG
100
AcDbMText
 10
177.3151617853
 20
161.0360671457
 30
0.1
 40
2.0
 41
0.0
 71
     1
 72
     1
  1
76.9
  7
SLDTEXTSTYLE0
 73
     1
 44
1.0
  0
ENDBLK
  5
25A
330
258
100
AcDbEntity
  8
0
100
AcDbBlockEnd
  0
BLOCK
  5
264
330
263
100
AcDbEntity
  8
0
100
AcDbBlockBegin
  2
_D_3
 70
     0
 10
0.0
 20
0.0
 30
0.0
  3
_D_3
  1

  0
ARC
  5
266
330
263
100
AcDbEntity
  8
VERMASSUNG
100
AcDbCircle
 10
219.0651620002
 20
136.0571674001
 30
0.0
 40
11.7625492966945
100
AcDbArc
 50
90.0
 51
183.0084689361
  0
SOLID
  5
267
330
263
100
AcDbEntity
  8
VERMASSUNG
100
AcDbTrace
 10
219.0651620002
 20
147.8197166968
 30
0.0
 11
216.0324754384
 21
147.8926016588
 31
0.0
 12
216.1445589657
 22
146.9996082193
 32
0.0
 13
216.1445589657
 23
146.9996082193
 33
0.0
  0
SOLID
  5
268
330
263
100
AcDbEntity
  8
VERMASSUNG
100
AcDbTrace
 10
207.3188239898
 20
135.4398268923
 30
0.0
 11
207.984518528
 21
138.3994469324
 31
0.0
 12
207.0868732798
 22
138.4645085066
 32
0.0
 13
207.0868732798
 23
138.4645085066
 33
0.0
  0
LINE
  5
269
330
263
100
AcDbEntity
  8
VERMASSUNG
100
AcDbLine
 10
219.0651620002
 20
146.8851961375
 30
0.0
 11
219.0651620002
 21
148.8197166968
 31
0.0
  0
MTEXT
  5
26A
330
263
100
AcDbEntity
  8
VERMASSUNG
100
AcDbMText
 10
206.6659944256
 20
143.8241411419
 30
0.1
 40
2.0
 41
0.0
 71
     1
 72
     1
  1
93°
  7
SLDTEXTSTYLE0
 11
0.6883009647236763
 21
0.7254252421583195
 31
0.0
 73
     1
 44
1.0
  0
ENDBLK
  5
265
330
263
100
AcDbEntity
  8
0
100
AcDbBlockEnd
  0
BLOCK
  5
26D
330
26C
100
AcDbEntity
  8
0
100
AcDbBlockBegin
  2
_D_4
 70
     0
 10
0.0
 20
0.0
 30
0.0
  3
_D_4
  1

  0
SOLID
  5
26F
330
26C
100
AcDbEntity
  8
VERMASSUNG
100
AcDbTrace
 10
136.4257812879
 20
129.0345146661
 30
0.0
 11
135.9757812879
 21
126.0345146661
 31
0.0
 12
136.8757812879
 22
126.0345146661
 32
0.0
 13
136.8757812879
 23
126.0345146661
 33
0.0
  0
SOLID
  5
270
330
26C
100
AcDbEntity
  8
VERMASSUNG
100
AcDbTrace
 10
136.4257812879
 20
89.0345146661
 30
0.0
 11
136.8757812879
 21
92.0345146661
 31
0.0
 12
135.9757812879
 22
92.0345146661
 32
0.0
 13
135.9757812879
 23
92.0345146661
 33
0.0
  0
LINE
  5
271
330
26C
100
AcDbEntity
  8
VERMASSUNG
100
AcDbLine
 10
162.3651620002
 20
129.0345146661
 30
0.0
 11
135.4257812879
 21
129.0345146661
 31
0.0
  0
LINE
  5
272
330
26C
100
AcDbEntity
  8
VERMASSUNG
100
AcDbLine
 10
162.3651620002
 20
89.0345146661
 30
0.0
 11
135.4257812879
 21
89.0345146661
 31
0.0
  0
LINE
  5
273
330
26C
100
AcDbEntity
  8
VERMASSUNG
100
AcDbLine
 10
136.4257812879
 20
129.0345146661
 30
0.0
 11
136.4257812879
 21
89.0345146661
 31
0.0
  0
MTEXT
  5
274
330
26C
100
AcDbEntity
  8
VERMASSUNG
100
AcDbMText
 10
133.6476457988
 20
101.0295140153
 30
0.1
 40
2.0
 41
0.0
 71
     1
 72
     1
  1
HSK T
  7
SLDTEXTSTYLE0
 11
-7.044195017643634E-15
 21
1.0
 31
0.0
 73
     1
 44
1.0
  0
MTEXT
  5
275
330
26C
100
AcDbEntity
  8
VERMASSUNG
100
AcDbMText
 10
133.8476458083
 20
108.6295141434
 30
0.1
 40
2.0
 41
0.0
 71
     1
 72
     1
  1
%%c
  7
SLDTEXTSTYLE0
 11
-7.044195017643634E-15
 21
1.0
 31
0.0
 73
     1
 44
1.0
  0
MTEXT
  5
276
330
26C
100
AcDbEntity
  8
VERMASSUNG
100
AcDbMText
 10
133.6476457988
 20
112.2395141577
 30
0.1
 40
2.0
 41
0.0
 71
     1
 72
     1
  1
40
  7
SLDTEXTSTYLE0
 11
-7.044195017643634E-15
 21
1.0
 31
0.0
 73
     1
 44
1.0
  0
ENDBLK
  5
26E
330
26C
100
AcDbEntity
  8
0
100
AcDbBlockEnd
  0
BLOCK
  5
2EA
330
2E9
100
AcDbEntity
  8
0
100
AcDbBlockBegin
  2
SW_CENTERMARKSYMBOL_0
 70
     0
 10
0.0
 20
0.0
 30
0.0
  3
SW_CENTERMARKSYMBOL_0
  1

  0
LINE
  5
2EC
330
2E9
100
AcDbEntity
  8
VERMASSUNG
 62
     0
100
AcDbLine
 10
0.0
 20
0.0
 30
0.0
 11
0.0
 21
2.5
 31
0.0
  0
LINE
  5
2ED
330
2E9
100
AcDbEntity
  8
VERMASSUNG
 62
     0
100
AcDbLine
 10
0.0
 20
0.0
 30
0.0
 11
-2.5
 21
0.0
 31
0.0
  0
LINE
  5
2EE
330
2E9
100
AcDbEntity
  8
VERMASSUNG
 62
     0
100
AcDbLine
 10
0.0
 20
0.0
 30
0.0
 11
0.0
 21
-2.5
 31
0.0
  0
LINE
  5
2EF
330
2E9
100
AcDbEntity
  8
VERMASSUNG
 62
     0
100
AcDbLine
 10
0.0
 20
0.0
 30
0.0
 11
2.5
 21
0.0
 31
0.0
  0
LINE
  5
2F0
330
2E9
100
AcDbEntity
  8
VERMASSUNG
 62
     0
100
AcDbLine
 10
0.0
 20
5.0
 30
0.0
 11
0.0
 21
29.0199137236
 31
0.0
  0
LINE
  5
2F1
330
2E9
100
AcDbEntity
  8
VERMASSUNG
 62
     0
100
AcDbLine
 10
-5.0
 20
0.0
 30
0.0
 11
-22.5
 21
0.0
 31
0.0
  0
LINE
  5
2F2
330
2E9
100
AcDbEntity
  8
VERMASSUNG
 62
     0
100
AcDbLine
 10
0.0
 20
-5.0
 30
0.0
 11
0.0
 21
-22.5
 31
0.0
  0
LINE
  5
2F3
330
2E9
100
AcDbEntity
  8
VERMASSUNG
 62
     0
100
AcDbLine
 10
5.0
 20
0.0
 30
0.0
 11
22.5
 21
0.0
 31
0.0
  0
ENDBLK
  5
2EB
330
2E9
100
AcDbEntity
  8
0
100
AcDbBlockEnd
  0
ENDSEC
  0
SECTION
  2
ENTITIES
  0
MTEXT
  5
49
330
1F
100
AcDbEntity
  8
KOPF_DÜNN
100
AcDbMText
 10
13.8892156294
 20
23.8442973028
 30
0.0
 40
3.0
 41
0.0
 71
     1
 72
     1
  1
HA4.PDF.RJA.055
  7
SLDTEXTSTYLE0
 73
     1
 44
1.0
  0
MTEXT
  5
4A
330
1F
100
AcDbEntity
  8
VERMASSUNG
100
AcDbMText
 10
13.9329988022
 20
28.8834360957
 30
0.0
 40
3.0
 41
0.0
 71
     1
 72
     1
  1
Klemmhalter rechts_Turning tool right 55° /93°
  7
SLDTEXTSTYLE0
 73
     1
 44
1.0
  0
MTEXT
  5
4B
330
1F
100
AcDbEntity
  8
VERMASSUNG
100
AcDbMText
 10
98.8601118557
 20
13.8365368179
 30
0.0
 40
2.0
 41
0.0
 71
     1
 72
     1
  1
Datum: 25.04.2012
  7
SLDTEXTSTYLE0
 73
     1
 44
1.0
  0
MTEXT
  5
4D
330
1F
100
AcDbEntity
  8
VERMASSUNG
100
AcDbMText
 10
13.933048693
 20
18.0482802738
 30
0.0
 40
2.0
 41
0.0
 71
     1
 72
     1
  1
DIN 69893 HSK T 40  / DN.. 15 06..
  7
SLDTEXTSTYLE1
 73
     1
 44
1.0
  0
MTEXT
  5
4E
330
1F
100
AcDbEntity
  8
VERMASSUNG
100
AcDbMText
 10
13.9808475933
 20
13.9090973692
 30
0.0
 40
2.0
 41
0.0
 71
     1
 72
     1
  1
Gewicht: 321g
  7
SLDTEXTSTYLE0
 73
     1
 44
1.0
  0
LINE
  5
4F
330
1F
100
AcDbEntity
  8
0
  6
Continuous
 62
     7
370
    15
100
AcDbLine
 10
206.1344265679
 20
130.3532288534
 30
0.0
 11
205.4900342075
 21
129.9962470939
 31
0.0
  0
LINE
  5
50
330
1F
100
AcDbEntity
  8
0
  6
Continuous
 62
     7
370
    15
100
AcDbLine
 10
210.8522358415
 20
122.5751868592
 30
0.0
 11
211.4450248743
 21
123.0798376572
 31
0.0
  0
LINE
  5
51
330
1F
100
AcDbEntity
  8
0
  6
Continuous
 62
     7
370
    15
100
AcDbLine
 10
204.0217432825
 20
135.1860957382
 30
0.0
 11
203.5855898275
 21
134.8147913163
 31
0.0
  0
LINE
  5
52
330
1F
100
AcDbEntity
  8
0
  6
Continuous
 62
     7
370
    15
100
AcDbLine
 10
162.3651620002
 20
89.0345146661
 30
0.0
 11
170.0151620002
 21
89.0345146661
 31
0.0
  0
LINE
  5
53
330
1F
100
AcDbEntity
  8
0
  6
Continuous
 62
     7
370
    15
100
AcDbLine
 10
170.0178921358
 20
129.0345146661
 30
0.0
 11
162.3651620002
 21
129.0345146661
 31
0.0
  0
ARC
  5
54
330
1F
100
AcDbEntity
  8
0
  6
Continuous
 62
     7
370
    15
100
AcDbCircle
 10
162.3651620002
 20
89.3345146661
 30
0.0
 40
0.2999999999999972
100
AcDbArc
 50
180.0
 51
270.0
  0
ARC
  5
55
330
1F
100
AcDbEntity
  8
0
  6
Continuous
 62
     7
370
    15
100
AcDbCircle
 10
162.3651620002
 20
128.7345146661
 30
0.0
 40
0.3000000000000398
100
AcDbArc
 50
90.0
 51
180.0
  0
ARC
  5
56
330
1F
100
AcDbEntity
  8
0
  6
Continuous
 62
     7
370
    15
100
AcDbCircle
 10
183.0151620002
 20
91.5345146661
 30
0.0
 40
1.000000000000002
100
AcDbArc
 50
90.0
 51
143.1142427467
  0
ARC
  5
57
330
1F
100
AcDbEntity
  8
0
  6
Continuous
 62
     7
370
    15
100
AcDbCircle
 10
183.0151620002
 20
126.5345146661
 30
0.0
 40
1.0
100
AcDbArc
 50
216.8994515981
 51
270.0
  0
LINE
  5
58
330
1F
100
AcDbEntity
  8
0
  6
Continuous
 62
     7
370
    15
100
AcDbLine
 10
183.0151620002
 20
92.5345146661
 30
0.0
 11
195.0546599183
 21
92.5345146661
 31
0.0
  0
LINE
  5
59
330
1F
100
AcDbEntity
  8
0
  6
Continuous
 62
     7
370
    15
100
AcDbLine
 10
196.2978350123
 20
125.5345146661
 30
0.0
 11
183.0151620002
 21
125.5345146661
 31
0.0
  0
ARC
  5
5A
330
1F
100
AcDbEntity
  8
0
  6
Continuous
 62
     7
370
    15
100
AcDbCircle
 10
161.5651552476
 20
93.5808075127
 30
0.0
 40
0.6000067526676958
100
AcDbArc
 50
33.5571153394
 51
90.0
  0
ARC
  5
5B
330
1F
100
AcDbEntity
  8
0
  6
Continuous
 62
     7
370
    15
100
AcDbCircle
 10
161.5651552476
 20
124.4882218196
 30
0.0
 40
0.60000675266771
100
AcDbArc
 50
270.0
 51
326.4428846606
  0
LINE
  5
5C
330
1F
100
AcDbEntity
  8
0
  6
Continuous
 62
     7
370
    15
100
AcDbLine
 10
160.0651620002
 20
93.9308142653
 30
0.0
 11
160.9218739149
 21
94.160369531
 31
0.0
  0
LINE
  5
5D
330
1F
100
AcDbEntity
  8
0
  6
Continuous
 62
     7
370
    15
100
AcDbLine
 10
160.9218739149
 20
123.9086598013
 30
0.0
 11
160.0651620002
 21
124.1382150669
 31
0.0
  0
LINE
  5
5E
330
1F
100
AcDbEntity
  8
0
  6
Continuous
 62
     7
370
    15
100
AcDbLine
 10
153.2492292791
 20
123.7967354717
 30
0.0
 11
145.7651620002
 21
123.4217822012
 31
0.0
  0
LINE
  5
5F
330
1F
100
AcDbEntity
  8
0
  6
Continuous
 62
     7
370
    15
100
AcDbLine
 10
160.0651620002
 20
124.1382150669
 30
0.0
 11
158.8304292576
 21
124.0763547091
 31
0.0
  0
LINE
  5
60
330
1F
100
AcDbEntity
  8
0
  6
Continuous
 62
     7
370
    15
100
AcDbLine
 10
158.8314254589
 20
93.9926247133
 30
0.0
 11
160.0651620002
 21
93.9308142653
 31
0.0
  0
LINE
  5
61
330
1F
100
AcDbEntity
  8
0
  6
Continuous
 62
     7
370
    15
100
AcDbLine
 10
148.2651620002
 20
94.5219966301
 30
0.0
 11
153.2496914397
 21
94.2722707063
 31
0.0
  0
ARC
  5
62
330
1F
100
AcDbEntity
  8
0
  6
Continuous
 62
     7
370
    15
100
AcDbCircle
 10
161.0771670897
 20
93.5808075127
 30
0.0
 40
0.60000675266771
100
AcDbArc
 50
90.0
 51
105.0
  0
ARC
  5
63
330
1F
100
AcDbEntity
  8
0
  6
Continuous
 62
     7
370
    15
100
AcDbCircle
 10
161.0771670897
 20
124.4882218196
 30
0.0
 40
0.6000067526677242
100
AcDbArc
 50
255.0
 51
270.0
  0
LINE
  5
64
330
1F
100
AcDbEntity
  8
0
  6
Continuous
 62
     7
370
    15
100
AcDbLine
 10
161.0771670897
 20
94.1808142653
 30
0.0
 11
161.5651552476
 21
94.1808142653
 31
0.0
  0
LINE
  5
65
330
1F
100
AcDbEntity
  8
0
  6
Continuous
 62
     7
370
    15
100
AcDbLine
 10
161.5651552476
 20
123.8882150669
 30
0.0
 11
161.0771670897
 21
123.8882150669
 31
0.0
  0
ARC
  5
66
330
1F
100
AcDbEntity
  8
0
  6
Continuous
 62
     7
370
    15
100
AcDbCircle
 10
144.8651620002
 20
122.8145146661
 30
0.0
 40
0.8999999999999915
100
AcDbArc
 50
270.0
 51
311.1792132368
  0
ARC
  5
67
330
1F
100
AcDbEntity
  8
0
  6
Continuous
 62
     7
370
    15
100
AcDbCircle
 10
147.3651620002
 20
95.3135146661
 30
0.0
 40
0.899999999999999
100
AcDbArc
 50
29.8499024808
 51
90.0
  0
LINE
  5
68
330
1F
100
AcDbEntity
  8
0
  6
Continuous
 62
     7
370
    15
100
AcDbLine
 10
143.1151620002
 20
121.9145146661
 30
0.0
 11
142.1651620002
 21
120.9645146661
 31
0.0
  0
LINE
  5
69
330
1F
100
AcDbEntity
  8
0
  6
Continuous
 62
     7
370
    15
100
AcDbLine
 10
144.8651620002
 20
121.9145146661
 30
0.0
 11
143.1151620002
 21
121.9145146661
 31
0.0
  0
LINE
  5
6A
330
1F
100
AcDbEntity
  8
0
  6
Continuous
 62
     7
370
    15
100
AcDbLine
 10
143.1151620002
 20
96.2135146661
 30
0.0
 11
147.3651620002
 21
96.2135146661
 31
0.0
  0
LINE
  5
6B
330
1F
100
AcDbEntity
  8
0
  6
Continuous
 62
     7
370
    15
100
AcDbLine
 10
142.1651620002
 20
97.1635146661
 30
0.0
 11
143.1151620002
 21
96.2135146661
 31
0.0
  0
ARC
  5
6C
330
1F
100
AcDbEntity
  8
0
  6
Continuous
 62
     7
370
    15
100
AcDbCircle
 10
196.2978350123
 20
126.5345146661
 30
0.0
 40
1.000000000000047
100
AcDbArc
 50
270.0
 51
345.0
  0
LINE
  5
6D
330
1F
100
AcDbEntity
  8
0
  6
Continuous
 62
     7
370
    15
100
AcDbLine
 10
199.4349468031
 20
134.3786719535
 30
0.0
 11
197.2637608385
 21
126.275695621
 31
0.0
  0
LINE
  5
6E
330
1F
100
AcDbEntity
  8
0
  6
Continuous
 62
     7
370
    15
100
AcDbLine
 10
197.1909599405
 20
121.6321145904
 30
0.0
 11
200.3665768278
 21
121.7990123027
 31
0.0
  0
LINE
  5
6F
330
1F
100
AcDbEntity
  8
0
  6
Continuous
 62
     7
370
    15
100
AcDbLine
 10
205.371221255
 20
122.0620363813
 30
0.0
 11
206.0559096973
 21
122.0980208652
 31
0.0
  0
ARC
  5
70
330
1F
100
AcDbEntity
  8
0
  6
Continuous
 62
     7
370
    15
100
AcDbCircle
 10
196.7892075031
 20
122.3345720139
 30
0.0
 40
1.002541766231863
100
AcDbArc
 50
229.1243045043
 51
272.9027005616
  0
LINE
  5
71
330
1F
100
AcDbEntity
  8
0
  6
Continuous
 62
     7
370
    15
100
AcDbLine
 10
196.8399762315
 20
121.3333165374
 30
0.0
 11
200.0155931188
 21
121.5002142497
 31
0.0
  0
ELLIPSE
  5
72
330
1F
100
AcDbEntity
  8
0
  6
Continuous
 62
     7
370
    15
100
AcDbEllipse
 10
207.2807621424
 20
128.3017685945
 30
0.0
 11
-1.442865798194959
 21
1.855749468010629
 31
0.0
210
0.0
220
0.0
230
1.0
 40
0.9878968605
 41
5.209830316983773
 42
6.738584362344706
  0
ELLIPSE
  5
73
330
1F
100
AcDbEntity
  8
0
  6
Continuous
 62
     7
370
    15
100
AcDbEllipse
 10
207.2807621424
 20
128.3017685945
 30
0.0
 11
-1.442865798194959
 21
1.855749468010629
 31
0.0
210
0.0
220
0.0
230
1.0
 40
0.9878968605
 41
3.500411338402492
 42
5.209830316983795
  0
LWPOLYLINE
  5
74
330
1F
100
AcDbEntity
  8
0
  6
Continuous
 62
     7
370
    15
100
AcDbPolyline
 90
        3
 70
   128
 43
0.0
 10
205.397947011
 20
129.9424277802
 10
205.4448724443
 20
129.9705628371
 10
205.4900342075
 20
129.9962470939
  0
SPLINE
  5
75
330
1F
100
AcDbEntity
  8
0
  6
Continuous
 62
     7
370
    15
100
AcDbSpline
210
0.0
220
0.0
230
1.0
 70
     8
 71
     3
 72
    16
 73
    12
 74
     0
 42
0.00000001
 43
0.00000001
 12
1.0
 22
0.0
 32
0.0
 13
1.0
 23
0.0
 33
0.0
 40
0.0
 40
0.0
 40
0.0
 40
0.0
 40
0.0277713056879407
 40
0.1556916765038057
 40
0.2845244282071333
 40
0.4152309279410004
 40
0.5414860768551361
 40
0.6686161300346026
 40
0.7985014493897339
 40
0.9293401997093986
 40
1.0
 40
1.0
 40
1.0
 40
1.0
 10
206.8393389055283
 20
130.5377218015629
 30
0.0
 10
206.8255409276151
 20
130.5395107423024
 30
0.0
 10
206.7481866131365
 20
130.5495399136363
 30
0.0
 10
206.6060858321664
 20
130.5525894231455
 30
0.0
 10
206.4138348032863
 20
130.5458025986712
 30
0.0
 10
206.2246952819219
 20
130.5219291601791
 30
0.0
 10
206.0402319171178
 20
130.4831957486438
 30
0.0
 10
205.8610938914529
 20
130.4299895823988
 30
0.0
 10
205.6868391007006
 20
130.3611857044508
 30
0.0
 10
205.5433231497676
 20
130.2923850940221
 30
0.0
 10
205.4624364593823
 20
130.2421785317779
 30
0.0
 10
205.4340718018128
 20
130.2245725209619
 30
0.0
  0
LINE
  5
76
330
1F
100
AcDbEntity
  8
0
  6
Continuous
 62
     7
370
    15
100
AcDbLine
 10
206.6244328198
 20
130.6028058873
 30
0.0
 11
206.7169930053
 21
130.5789285632
 31
0.0
  0
ARC
  5
77
330
1F
100
AcDbEntity
  8
0
  6
Continuous
 62
     7
370
    15
100
AcDbCircle
 10
201.4213050172
 20
114.7980821352
 30
0.0
 40
3.506074459009693
100
AcDbArc
 50
312.4286938787
 51
104.9187692273
  0
ARC
  5
78
330
1F
100
AcDbEntity
  8
0
  6
Continuous
 62
     7
370
    15
100
AcDbCircle
 10
201.4035552439
 20
114.8851472824
 30
0.0
 40
3.417378507456545
100
AcDbArc
 50
105.0070155319
 51
129.0553807754
  0
CIRCLE
  5
79
330
1F
100
AcDbEntity
  8
0
  6
Continuous
 62
     7
370
    15
100
AcDbCircle
 10
201.4375668216
 20
114.8312588392
 30
0.0
 40
1.981778241480208
  0
SPLINE
  5
7A
330
1F
100
AcDbEntity
  8
0
  6
Continuous
 62
     7
370
    15
100
AcDbSpline
210
0.0
220
0.0
230
1.0
 70
     8
 71
     3
 72
    11
 73
     7
 74
     0
 42
0.00000001
 43
0.00000001
 12
1.0
 22
0.0
 32
0.0
 13
1.0
 23
0.0
 33
0.0
 40
0.0
 40
0.0
 40
0.0
 40
0.0
 40
0.1081100880371193
 40
0.4711580666043566
 40
0.8135808430835939
 40
1.0
 40
1.0
 40
1.0
 40
1.0
 10
200.9998033073111
 20
113.1312587833283
 30
0.0
 10
201.052346826817
 20
113.1433779335399
 30
0.0
 10
201.2813384363187
 20
113.1961947935225
 30
0.0
 10
201.7300258865113
 20
113.3075899836247
 30
0.0
 10
202.2603816956535
 20
113.4568234356601
 30
0.0
 10
202.5521180802227
 20
113.5446458159542
 30
0.0
 10
202.6549564661729
 20
113.5756035994789
 30
0.0
  0
SPLINE
  5
7B
330
1F
100
AcDbEntity
  8
0
  6
Continuous
 62
     7
370
    15
100
AcDbSpline
210
0.0
220
0.0
230
1.0
 70
     8
 71
     3
 72
    11
 73
     7
 74
     0
 42
0.00000001
 43
0.00000001
 12
1.0
 22
0.0
 32
0.0
 13
1.0
 23
0.0
 33
0.0
 40
0.0
 40
0.0
 40
0.0
 40
0.0
 40
0.21644999535119
 40
0.4402998152333211
 40
0.751891476001033
 40
1.0
 40
1.0
 40
1.0
 40
1.0
 10
202.6549564661729
 20
113.5756035994789
 30
0.0
 10
202.6774591644185
 20
113.6839221147779
 30
0.0
 10
202.7232338657009
 20
113.9042622547495
 30
0.0
 10
202.8219476778844
 20
114.324879665287
 30
0.0
 10
202.9466487456662
 20
114.7920916790213
 30
0.0
 10
203.0391281401347
 20
115.1018752839527
 30
0.0
 10
203.0801231704855
 20
115.2391987208043
 30
0.0
  0
SPLINE
  5
7C
330
1F
100
AcDbEntity
  8
0
  6
Continuous
 62
     7
370
    15
100
AcDbSpline
210
0.0
220
0.0
230
1.0
 70
     8
 71
     3
 72
    11
 73
     7
 74
     0
 42
0.00000001
 43
0.00000001
 12
1.0
 22
0.0
 32
0.0
 13
1.0
 23
0.0
 33
0.0
 40
0.0
 40
0.0
 40
0.0
 40
0.0
 40
0.216449995351178
 40
0.4402998152332901
 40
0.7518914760010286
 40
1.0
 40
1.0
 40
1.0
 40
1.0
 10
203.0801231704855
 20
115.2391987208043
 30
0.0
 10
202.9892491476976
 20
115.3170799572366
 30
0.0
 10
202.8043943715256
 20
115.4755049733964
 30
0.0
 10
202.4751165404715
 20
115.7812231270222
 30
0.0
 10
202.1407086646925
 20
116.1251820882958
 30
0.0
 10
201.9393823214109
 20
116.3560901790033
 30
0.0
 10
201.8501367159363
 20
116.4584490259792
 30
0.0
  0
SPLINE
  5
7D
330
1F
100
AcDbEntity
  8
0
  6
Continuous
 62
     7
370
    15
100
AcDbSpline
210
0.0
220
0.0
230
1.0
 70
     8
 71
     3
 72
    13
 73
     9
 74
     0
 42
0.00000001
 43
0.00000001
 12
1.0
 22
0.0
 32
0.0
 13
1.0
 23
0.0
 33
0.0
 40
0.0
 40
0.0
 40
0.0
 40
0.0
 40
0.1858585508580134
 40
0.35450880359736
 40
0.5287517039503445
 40
0.7072103787972911
 40
0.8922150243135938
 40
1.0
 40
1.0
 40
1.0
 40
1.0
 10
201.8501367159363
 20
116.4584490259792
 30
0.0
 10
201.747154018468
 20
116.4274505082496
 30
0.0
 10
201.55072360027
 20
116.3683235679885
 30
0.0
 10
201.2447656497201
 20
116.2803502280801
 30
0.0
 10
200.9403860526777
 20
116.1969693519574
 30
0.0
 10
200.6376676481016
 20
116.1190688098235
 30
0.0
 10
200.3904743819072
 20
116.0591945460066
 30
0.0
 10
200.2475854293978
 20
116.0262369332374
 30
0.0
 10
200.1949835570745
 20
116.0141042098286
 30
0.0
  0
SPLINE
  5
7E
330
1F
100
AcDbEntity
  8
0
  6
Continuous
 62
     7
370
    15
100
AcDbSpline
210
0.0
220
0.0
230
1.0
 70
     8
 71
     3
 72
    13
 73
     9
 74
     0
 42
0.00000001
 43
0.00000001
 12
1.0
 22
0.0
 32
0.0
 13
1.0
 23
0.0
 33
0.0
 40
0.0
 40
0.0
 40
0.0
 40
0.0
 40
0.2161241182544782
 40
0.4396369202065184
 40
0.5932538221761661
 40
0.7520048557756916
 40
0.8754343578245686
 40
1.0
 40
1.0
 40
1.0
 40
1.0
 10
200.1949835570745
 20
116.0141042098286
 30
0.0
 10
200.159246847597
 20
115.8945544057742
 30
0.0
 10
200.0865516897411
 20
115.6513677217045
 30
0.0
 10
199.9906963820525
 20
115.3033060484793
 30
0.0
 10
199.9118052187007
 20
114.9922679987148
 30
0.0
 10
199.8549882339781
 20
114.7497933374495
 30
0.0
 10
199.807866571358
 20
114.5353573379361
 30
0.0
 10
199.7825387703778
 20
114.4123130725406
 30
0.0
 10
199.7698168527618
 20
114.3505090885032
 30
0.0
  0
SPLINE
  5
7F
330
1F
100
AcDbEntity
  8
0
  6
Continuous
 62
     7
370
    15
100
AcDbSpline
210
0.0
220
0.0
230
1.0
 70
     8
 71
     3
 72
    11
 73
     7
 74
     0
 42
0.00000001
 43
0.00000001
 12
1.0
 22
0.0
 32
0.0
 13
1.0
 23
0.0
 33
0.0
 40
0.0
 40
0.0
 40
0.0
 40
0.0
 40
0.2164499953512024
 40
0.4402998152333417
 40
0.7518914760010823
 40
1.0
 40
1.0
 40
1.0
 40
1.0
 10
199.7698168527618
 20
114.3505090885032
 30
0.0
 10
199.8474490861905
 20
114.261354904703
 30
0.0
 10
200.0053675836214
 20
114.0799986030277
 30
0.0
 10
200.3121927271156
 20
113.7551661168703
 30
0.0
 10
200.6601359421933
 20
113.4227300067295
 30
0.0
 10
200.895478647654
 20
113.2207805899659
 30
0.0
 10
200.9998033073111
 20
113.1312587833283
 30
0.0
  0
LINE
  5
80
330
1F
100
AcDbEntity
  8
0
  6
Continuous
 62
     7
370
    15
100
AcDbLine
 10
202.270064167
 20
113.4620295269
 30
0.0
 11
202.4127172369
 21
114.0202034119
 31
0.0
  0
LINE
  5
81
330
1F
100
AcDbEntity
  8
0
  6
Continuous
 62
     7
370
    15
100
AcDbLine
 10
202.4127172369
 20
114.0202034119
 30
0.0
 11
202.625300589
 21
114.8520009726
 31
0.0
  0
LINE
  5
82
330
1F
100
AcDbEntity
  8
0
  6
Continuous
 62
     7
370
    15
100
AcDbLine
 10
202.625300589
 20
114.8520009726
 30
0.0
 11
203.0801231705
 21
115.2391987208
 31
0.0
  0
LINE
  5
83
330
1F
100
AcDbEntity
  8
0
  6
Continuous
 62
     7
370
    15
100
AcDbLine
 10
201.3953141345
 20
116.0712512777
 30
0.0
 11
201.8501367159
 21
116.458449026
 31
0.0
  0
LINE
  5
84
330
1F
100
AcDbEntity
  8
0
  6
Continuous
 62
     7
370
    15
100
AcDbLine
 10
201.3953141345
 20
116.0712512777
 30
0.0
 11
200.567737555
 21
115.8490788697
 31
0.0
  0
LINE
  5
85
330
1F
100
AcDbEntity
  8
0
  6
Continuous
 62
     7
370
    15
100
AcDbLine
 10
200.567737555
 20
115.8490788697
 30
0.0
 11
200.110092472
 21
115.7262188073
 31
0.0
  0
LINE
  5
86
330
1F
100
AcDbEntity
  8
0
  6
Continuous
 62
     7
370
    15
100
AcDbLine
 10
202.625300589
 20
114.8520009726
 30
0.0
 11
202.0103073617
 21
115.4616261251
 31
0.0
  0
LINE
  5
87
330
1F
100
AcDbEntity
  8
0
  6
Continuous
 62
     7
370
    15
100
AcDbLine
 10
202.0103073617
 20
115.4616261251
 30
0.0
 11
201.3953141345
 21
116.0712512777
 31
0.0
  0
ARC
  5
88
330
1F
100
AcDbEntity
  8
0
  6
Continuous
 62
     7
370
    15
100
AcDbCircle
 10
200.9513957445
 20
114.3891211269
 30
0.0
 40
1.507169792878711
100
AcDbArc
 50
345.8314537023
 51
45.3654061791
  0
ARC
  5
89
330
1F
100
AcDbEntity
  8
0
  6
Continuous
 62
     7
370
    15
100
AcDbCircle
 10
200.9890690918
 20
114.3831199592
 30
0.0
 40
1.469177477787476
100
AcDbArc
 50
317.256429769
 51
345.6987459139
  0
ARC
  5
8A
330
1F
100
AcDbEntity
  8
0
  6
Continuous
 62
     7
370
    15
100
AcDbCircle
 10
200.9470381156
 20
114.4342910455
 30
0.0
 40
1.464750320953357
100
AcDbArc
 50
105.0079083094
 51
127.8977853443
  0
ARC
  5
8B
330
1F
100
AcDbEntity
  8
0
  6
Continuous
 62
     7
370
    15
100
AcDbCircle
 10
200.9517547401
 20
114.3996323249
 30
0.0
 40
1.499454729039129
100
AcDbArc
 50
45.0929783164
 51
104.8390450347
  0
ARC
  5
8C
330
1F
100
AcDbEntity
  8
0
  6
Continuous
 62
     7
370
    15
100
AcDbCircle
 10
206.1934378462
 20
127.8660917157
 30
0.0
 40
2.770500061569937
100
AcDbArc
 50
78.7271293357
 51
102.4888291394
  0
LINE
  5
8D
330
1F
100
AcDbEntity
  8
0
  6
Continuous
 62
     7
370
    15
100
AcDbLine
 10
196.8232605776
 20
122.2309264639
 30
0.0
 11
211.2115875334
 21
122.9871193354
 31
0.0
  0
ARC
  5
8E
330
1F
100
AcDbEntity
  8
0
  6
Continuous
 62
     7
370
    15
100
AcDbCircle
 10
196.8027481165
 20
122.6323334443
 30
0.0
 40
0.4019307464911752
100
AcDbArc
 50
149.0493196613
 51
272.9253502898
  0
LINE
  5
8F
330
1F
100
AcDbEntity
  8
0
  6
Continuous
 62
     7
370
    15
100
AcDbLine
 10
203.9416775125
 20
135.092341714
 30
0.0
 11
196.4580481592
 21
122.8390464444
 31
0.0
  0
ARC
  5
90
330
1F
100
AcDbEntity
  8
0
  6
Continuous
 62
     7
370
    15
100
AcDbCircle
 10
204.2751204867
 20
134.8885187753
 30
0.0
 40
0.3908043083394301
100
AcDbArc
 50
92.9246511983
 51
148.5639001606
  0
LINE
  5
91
330
1F
100
AcDbEntity
  8
0
  6
Continuous
 62
     7
370
    15
100
AcDbLine
 10
218.6435075793
 20
136.0350069316
 30
0.0
 11
204.2551806235
 21
135.27881406
 31
0.0
  0
ARC
  5
92
330
1F
100
AcDbEntity
  8
0
  6
Continuous
 62
     7
370
    15
100
AcDbCircle
 10
218.6640200404
 20
135.6335999512
 30
0.0
 40
0.4019307464911127
100
AcDbArc
 50
329.0493196613
 51
92.9253502898
  0
LINE
  5
93
330
1F
100
AcDbEntity
  8
0
  6
Continuous
 62
     7
370
    15
100
AcDbLine
 10
211.5250906444
 20
123.1735916815
 30
0.0
 11
219.0087199977
 21
135.4268869511
 31
0.0
  0
ARC
  5
94
330
1F
100
AcDbEntity
  8
0
  6
Continuous
 62
     7
370
    15
100
AcDbCircle
 10
211.1916476701
 20
123.3774146201
 30
0.0
 40
0.3908043083391219
100
AcDbArc
 50
272.9246511983
 51
328.5639001606
  0
ARC
  5
95
330
1F
100
AcDbEntity
  8
0
  6
Continuous
 62
     7
370
    15
100
AcDbCircle
 10
218.6642871501
 20
135.633805492
 30
0.0
 40
0.3818342091665343
100
AcDbArc
 50
329.0493196613
 51
92.9253502898
  0
LINE
  5
96
330
1F
100
AcDbEntity
  8
0
  6
Continuous
 62
     7
370
    15
100
AcDbLine
 10
218.644800312
 20
136.0151421234
 30
0.0
 11
204.2564733562
 21
135.2589492515
 31
0.0
  0
ARC
  5
97
330
1F
100
AcDbEntity
  8
0
  6
Continuous
 62
     7
370
    15
100
AcDbCircle
 10
204.2754162268
 20
134.8881687299
 30
0.0
 40
0.3712640941209919
100
AcDbArc
 50
92.9246512659
 51
148.563900005
  0
LINE
  5
98
330
1F
100
AcDbEntity
  8
0
  6
Continuous
 62
     7
370
    15
100
AcDbLine
 10
203.9586454007
 20
135.0818005231
 30
0.0
 11
196.4750160474
 21
122.8285052535
 31
0.0
  0
ARC
  5
99
330
1F
100
AcDbEntity
  8
0
  6
Continuous
 62
     7
370
    15
100
AcDbCircle
 10
196.8024810068
 20
122.6321279034
 30
0.0
 40
0.3818342091665754
100
AcDbArc
 50
149.0493196613
 51
272.9253502898
  0
LINE
  5
9A
330
1F
100
AcDbEntity
  8
0
  6
Continuous
 62
     7
370
    15
100
AcDbLine
 10
196.8219678449
 20
122.250791272
 30
0.0
 11
211.2102948007
 21
123.0069841436
 31
0.0
  0
ARC
  5
9B
330
1F
100
AcDbEntity
  8
0
  6
Continuous
 62
     7
370
    15
100
AcDbCircle
 10
211.1913519306
 20
123.3777646641
 30
0.0
 40
0.3712640929223012
100
AcDbArc
 50
272.9246511983
 51
328.5639001606
  0
LINE
  5
9C
330
1F
100
AcDbEntity
  8
0
  6
Continuous
 62
     7
370
    15
100
AcDbLine
 10
211.5081227562
 20
123.1841328723
 30
0.0
 11
218.9917521095
 21
135.437428142
 31
0.0
  0
ARC
  5
9D
330
1F
100
AcDbEntity
  8
0
  6
Continuous
 62
     7
370
    15
100
AcDbCircle
 10
196.0290897642
 20
121.9726673711
 30
0.0
 40
0.4010632152007944
100
AcDbArc
 50
228.4371248809
 51
272.9013611309
  0
LINE
  5
9E
330
1F
100
AcDbEntity
  8
0
  6
Continuous
 62
     7
370
    15
100
AcDbLine
 10
196.7706686306
 20
122.6054607411
 30
0.0
 11
196.8219678449
 21
122.250791272
 31
0.0
  0
LINE
  5
9F
330
1F
100
AcDbEntity
  8
0
  6
Continuous
 62
     7
370
    15
100
AcDbLine
 10
196.7706686306
 20
122.6054607411
 30
0.0
 11
196.4750160474
 21
122.8285052535
 31
0.0
  0
LINE
  5
A0
330
1F
100
AcDbEntity
  8
0
  6
Continuous
 62
     7
370
    15
100
AcDbLine
 10
211.1589955864
 20
123.3616536127
 30
0.0
 11
211.2102948007
 21
123.0069841436
 31
0.0
  0
LINE
  5
A1
330
1F
100
AcDbEntity
  8
0
  6
Continuous
 62
     7
370
    15
100
AcDbLine
 10
198.5482573629
 20
123.6446240133
 30
0.0
 11
196.7706686306
 21
122.6054607411
 31
0.0
  0
LINE
  5
A2
330
1F
100
AcDbEntity
  8
0
  6
Continuous
 62
     7
370
    15
100
AcDbLine
 10
198.5482573629
 20
123.6446240133
 30
0.0
 11
199.2170294727
 21
123.6797719984
 31
0.0
  0
LINE
  5
A3
330
1F
100
AcDbEntity
  8
0
  6
Continuous
 62
     7
370
    15
100
AcDbLine
 10
210.8778479015
 20
123.753281228
 30
0.0
 11
211.1589955864
 21
123.3616536127
 31
0.0
  0
LINE
  5
A4
330
1F
100
AcDbEntity
  8
0
  6
Continuous
 62
     7
370
    15
100
AcDbLine
 10
196.0493902469
 20
121.5721182567
 30
0.0
 11
200.3665768278
 21
121.7990123027
 31
0.0
  0
LINE
  5
A5
330
1F
100
AcDbEntity
  8
0
  6
Continuous
 62
     7
370
    15
100
AcDbLine
 10
204.2542979839
 20
134.8587560107
 30
0.0
 11
203.9586454007
 21
135.0818005231
 31
0.0
  0
LINE
  5
A6
330
1F
100
AcDbEntity
  8
0
  6
Continuous
 62
     7
370
    15
100
AcDbLine
 10
204.4746332453
 20
134.4153578052
 30
0.0
 11
204.2542979839
 21
134.8587560107
 31
0.0
  0
LINE
  5
A7
330
1F
100
AcDbEntity
  8
0
  6
Continuous
 62
     7
370
    15
100
AcDbLine
 10
198.8960978455
 20
124.2141594537
 30
0.0
 11
198.5482573629
 21
123.6446240133
 31
0.0
  0
ARC
  5
A8
330
1F
100
AcDbEntity
  8
0
  6
Continuous
 62
     7
370
    15
100
AcDbCircle
 10
201.6262677524
 20
125.5027735296
 30
0.0
 40
1.004826866227803
100
AcDbArc
 50
149.0493196613
 51
272.9253502898
  0
LINE
  5
A9
330
1F
100
AcDbEntity
  8
0
  6
Continuous
 62
     7
370
    15
100
AcDbLine
 10
199.4901631159
 20
124.2062223794
 30
0.0
 11
199.4913585008
 21
124.2042319283
 31
0.0
  0
SPLINE
  5
AA
330
1F
100
AcDbEntity
  8
0
  6
Continuous
 62
     7
370
    15
100
AcDbSpline
210
0.0
220
0.0
230
1.0
 70
     8
 71
     3
 72
    14
 73
    10
 74
     0
 42
0.00000001
 43
0.00000001
 12
1.0
 22
0.0
 32
0.0
 13
1.0
 23
0.0
 33
0.0
 40
0.0
 40
0.0
 40
0.0
 40
0.0
 40
0.223496825397364
 40
0.3567622963774645
 40
0.4531212562341357
 40
0.5344619041500349
 40
0.6157317558035377
 40
0.7396161778922123
 40
0.9999999999999999
 40
0.9999999999999999
 40
0.9999999999999999
 40
0.9999999999999999
 10
199.2170294727466
 20
123.6797719984295
 30
0.0
 10
199.2760606412823
 20
123.6854394545339
 30
0.0
 10
199.3702905937982
 20
123.6944862705272
 30
0.0
 10
199.4821412492526
 20
123.7403829548403
 30
0.0
 10
199.5465468360173
 20
123.7928706855766
 30
0.0
 10
199.5817588774463
 20
123.85292917706
 30
0.0
 10
199.5953024408721
 20
123.928680526124
 30
0.0
 10
199.5754877102693
 20
124.0530215161728
 30
0.0
 10
199.5253394438006
 20
124.1431559663808
 30
0.0
 10
199.4913585008202
 20
124.2042319282985
 30
0.0
  0
SPLINE
  5
AB
330
1F
100
AcDbEntity
  8
0
  6
Continuous
 62
     7
370
    15
100
AcDbSpline
210
0.0
220
0.0
230
1.0
 70
     8
 71
     3
 72
    14
 73
    10
 74
     0
 42
0.00000001
 43
0.00000001
 12
1.0
 22
0.0
 32
0.0
 13
1.0
 23
0.0
 33
0.0
 40
0.0
 40
0.0
 40
0.0
 40
0.0
 40
0.2210591904779567
 40
0.3460797326519252
 40
0.4396016244131496
 40
0.5338897453199789
 40
0.6146561933587622
 40
0.7517253237593895
 40
1.0
 40
1.0
 40
1.0
 40
1.0
 10
199.4901631159056
 20
124.2062223793739
 30
0.0
 10
199.4581466093618
 20
124.2559174635195
 30
0.0
 10
199.4080230926641
 20
124.3337177187275
 30
0.0
 10
199.3197215610215
 20
124.412709841918
 30
0.0
 10
199.2432464668957
 20
124.4487561224573
 30
0.0
 10
199.1702144817492
 20
124.4526160302686
 30
0.0
 10
199.0910051750204
 20
124.4269805663875
 30
0.0
 10
198.9901150192221
 20
124.3532504784373
 30
0.0
 10
198.9329371801928
 20
124.2686603561878
 30
0.0
 10
198.8960978454781
 20
124.21415945374
 30
0.0
  0
LINE
  5
AC
330
1F
100
AcDbEntity
  8
0
  6
Continuous
 62
     7
370
    15
100
AcDbLine
 10
201.6775489051
 20
124.4992560786
 30
0.0
 11
209.730175588
 21
124.9224699042
 31
0.0
  0
LINE
  5
AD
330
1F
100
AcDbEntity
  8
0
  6
Continuous
 62
     7
370
    15
100
AcDbLine
 10
204.9528347913
 20
132.8772826262
 30
0.0
 11
200.7645178591
 21
126.0195560299
 31
0.0
  0
ARC
  5
AE
330
1F
100
AcDbEntity
  8
0
  6
Continuous
 62
     7
370
    15
100
AcDbCircle
 10
205.786442227
 20
132.3677252794
 30
0.0
 40
0.9770107708479363
100
AcDbArc
 50
92.9246511983
 51
148.5639001606
  0
LINE
  5
AF
330
1F
100
AcDbEntity
  8
0
  6
Continuous
 62
     7
370
    15
100
AcDbLine
 10
213.7892192518
 20
133.7666773168
 30
0.0
 11
205.7365925689
 21
133.3434634912
 31
0.0
  0
ARC
  5
B0
330
1F
100
AcDbEntity
  8
0
  6
Continuous
 62
     7
370
    15
100
AcDbCircle
 10
213.8405004049
 20
132.7631598659
 30
0.0
 40
1.004826866216042
100
AcDbArc
 50
329.0493196474
 51
92.9253503107
  0
LINE
  5
B1
330
1F
100
AcDbEntity
  8
0
  6
Continuous
 62
     7
370
    15
100
AcDbLine
 10
210.5139333656
 20
125.3886507693
 30
0.0
 11
214.702250298
 21
132.2463773654
 31
0.0
  0
ARC
  5
B2
330
1F
100
AcDbEntity
  8
0
  6
Continuous
 62
     7
370
    15
100
AcDbCircle
 10
209.6803259299
 20
125.898208116
 30
0.0
 40
0.9770107708477453
100
AcDbArc
 50
272.9246511983
 51
328.5639001606
  0
CIRCLE
  5
B3
330
1F
100
AcDbEntity
  8
0
  6
Continuous
 62
     7
370
    15
100
AcDbCircle
 10
207.7424967716
 20
129.1088099246
 30
0.0
 40
2.556416827916643
  0
ARC
  5
B4
330
1F
100
AcDbEntity
  8
0
  6
Continuous
 62
     7
370
    15
100
AcDbCircle
 10
206.9324659951
 20
128.4546095392
 30
0.0
 40
2.582856572018658
100
AcDbArc
 50
20.1056709658
 51
118.3080059938
  0
SPLINE
  5
B5
330
1F
100
AcDbEntity
  8
0
  6
Continuous
 62
     7
370
    15
100
AcDbSpline
210
0.0
220
0.0
230
1.0
 70
     8
 71
     3
 72
    11
 73
     7
 74
     0
 42
0.00000001
 43
0.00000001
 12
1.0
 22
0.0
 32
0.0
 13
1.0
 23
0.0
 33
0.0
 40
0.0
 40
0.0
 40
0.0
 40
0.0
 40
0.3280455501579997
 40
0.6557028173711988
 40
0.9906967996087703
 40
1.0
 40
1.0
 40
1.0
 40
1.0
 10
210.8778479015465
 20
123.7532812280482
 30
0.0
 10
210.8359984233911
 20
123.8140481020002
 30
0.0
 10
210.7523490011728
 20
123.9355099247074
 30
0.0
 10
210.6277458803029
 20
124.1468415940981
 30
0.0
 10
210.5551203956921
 20
124.2851502693252
 30
0.0
 10
210.5230787639451
 20
124.3511749841658
 30
0.0
 10
210.5222129720186
 20
124.3529590276722
 30
0.0
  0
LINE
  5
B6
330
1F
100
AcDbEntity
  8
0
  6
Continuous
 62
     7
370
    15
100
AcDbLine
 10
216.7235198446
 20
134.4553104639
 30
0.0
 11
218.6426249397
 21
135.6149488823
 31
0.0
  0
LINE
  5
B7
330
1F
100
AcDbEntity
  8
0
  6
Continuous
 62
     7
370
    15
100
AcDbLine
 10
218.6426249397
 20
135.6149488823
 30
0.0
 11
218.9917521095
 21
135.437428142
 31
0.0
  0
LINE
  5
B8
330
1F
100
AcDbEntity
  8
0
  6
Continuous
 62
     7
370
    15
100
AcDbLine
 10
211.1589955864
 20
123.3616536127
 30
0.0
 11
211.5081227562
 21
123.1841328723
 31
0.0
  0
LINE
  5
B9
330
1F
100
AcDbEntity
  8
0
  6
Continuous
 62
     7
370
    15
100
AcDbLine
 10
216.375679362
 20
133.8857750234
 30
0.0
 11
216.7235198446
 21
134.4553104639
 31
0.0
  0
SPLINE
  5
BA
330
1F
100
AcDbEntity
  8
0
  6
Continuous
 62
     7
370
    15
100
AcDbSpline
210
0.0
220
0.0
230
1.0
 70
     8
 71
     3
 72
    11
 73
     7
 74
     0
 42
0.00000001
 43
0.00000001
 12
1.0
 22
0.0
 32
0.0
 13
1.0
 23
0.0
 33
0.0
 40
0.0
 40
0.0
 40
0.0
 40
0.0
 40
0.3280455501580012
 40
0.655702817371197
 40
0.9906967996087753
 40
0.9999999999999999
 40
0.9999999999999999
 40
0.9999999999999999
 40
0.9999999999999999
 10
204.474633245262
 20
134.4153578052379
 30
0.0
 10
204.5093955059628
 20
134.3485574695549
 30
0.0
 10
204.5788788818805
 20
134.2150358647425
 30
0.0
 10
204.7065445814474
 20
134.006311417648
 30
0.0
 10
204.7929825193131
 20
133.8797615051035
 30
0.0
 10
204.8350953858574
 20
133.8223105937508
 30
0.0
 10
204.8362333110462
 20
133.8207582216492
 30
0.0
  0
LINE
  5
BB
330
1F
100
AcDbEntity
  8
0
  6
Continuous
 62
     7
370
    15
100
AcDbLine
 10
204.2542979839
 20
134.8587560107
 30
0.0
 11
204.2564733562
 21
135.2589492515
 31
0.0
  0
LINE
  5
BC
330
1F
100
AcDbEntity
  8
0
  6
Continuous
 62
     7
370
    15
100
AcDbLine
 10
218.6426249397
 20
135.6149488823
 30
0.0
 11
218.644800312
 21
136.0151421234
 31
0.0
  0
LINE
  5
BD
330
1F
100
AcDbEntity
  8
0
  6
Continuous
 62
     7
370
    15
100
AcDbLine
 10
216.7235198446
 20
134.4553104639
 30
0.0
 11
216.0547477347
 21
134.4201624787
 31
0.0
  0
LINE
  5
BE
330
1F
100
AcDbEntity
  8
0
  6
Continuous
 62
     7
370
    15
100
AcDbLine
 10
215.7816140916
 20
133.8937120978
 30
0.0
 11
215.7804187066
 21
133.8957025488
 31
0.0
  0
SPLINE
  5
BF
330
1F
100
AcDbEntity
  8
0
  6
Continuous
 62
     7
370
    15
100
AcDbSpline
210
0.0
220
0.0
230
1.0
 70
     8
 71
     3
 72
    14
 73
    10
 74
     0
 42
0.00000001
 43
0.00000001
 12
1.0
 22
0.0
 32
0.0
 13
1.0
 23
0.0
 33
0.0
 40
0.0
 40
0.0
 40
0.0
 40
0.0
 40
0.2210591904779539
 40
0.3460797326519247
 40
0.4396016244131487
 40
0.5338897453199776
 40
0.614656193358752
 40
0.7517253237593711
 40
1.0
 40
1.0
 40
1.0
 40
1.0
 10
215.7816140915599
 20
133.8937120977602
 30
0.0
 10
215.8136305981036
 20
133.8440170136145
 30
0.0
 10
215.8637541148014
 20
133.7662167584066
 30
0.0
 10
215.952055646444
 20
133.687224635216
 30
0.0
 10
216.0285307405698
 20
133.6511783546767
 30
0.0
 10
216.1015627257163
 20
133.6473184468654
 30
0.0
 10
216.1807720324451
 20
133.6729539107465
 30
0.0
 10
216.2816621882434
 20
133.7466839986967
 30
0.0
 10
216.3388400272727
 20
133.8312741209462
 30
0.0
 10
216.3756793619874
 20
133.885775023394
 30
0.0
  0
SPLINE
  5
C0
330
1F
100
AcDbEntity
  8
0
  6
Continuous
 62
     7
370
    15
100
AcDbSpline
210
0.0
220
0.0
230
1.0
 70
     8
 71
     3
 72
    14
 73
    10
 74
     0
 42
0.00000001
 43
0.00000001
 12
1.0
 22
0.0
 32
0.0
 13
1.0
 23
0.0
 33
0.0
 40
0.0
 40
0.0
 40
0.0
 40
0.0
 40
0.2234968253973781
 40
0.3567622963774674
 40
0.453121256234139
 40
0.5344619041500359
 40
0.6157317558035361
 40
0.7396161778921976
 40
1.0
 40
1.0
 40
1.0
 40
1.0
 10
216.0547477347189
 20
134.4201624787045
 30
0.0
 10
215.9957165661832
 20
134.4144950226001
 30
0.0
 10
215.9014866136673
 20
134.4054482066069
 30
0.0
 10
215.7896359582128
 20
134.3595515222938
 30
0.0
 10
215.7252303714482
 20
134.3070637915574
 30
0.0
 10
215.6900183300192
 20
134.2470053000741
 30
0.0
 10
215.6764747665934
 20
134.1712539510101
 30
0.0
 10
215.6962894971961
 20
134.0469129609613
 30
0.0
 10
215.7464377636649
 20
133.9567785107533
 30
0.0
 10
215.7804187066453
 20
133.8957025488355
 30
0.0
  0
LINE
  5
C1
330
1F
100
AcDbEntity
  8
0
  6
Continuous
 62
     7
370
    15
100
AcDbLine
 10
170.0151620002
 20
120.8845146661
 30
0.0
 11
176.0300023013
 21
120.8845146661
 31
0.0
  0
LINE
  5
C2
330
1F
100
AcDbEntity
  8
0
  6
Continuous
 62
     7
370
    15
100
AcDbLine
 10
176.0300023013
 20
89.8056301431
 30
0.0
 11
176.0300023013
 21
120.8845146661
 31
0.0
  0
LINE
  5
C3
330
1F
100
AcDbEntity
  8
0
  6
Continuous
 62
     7
370
    15
100
AcDbLine
 10
176.0300023013
 20
89.8056301431
 30
0.0
 11
174.5151620002
 21
89.8056301431
 31
0.0
  0
SPLINE
  5
C4
330
1F
100
AcDbEntity
  8
0
  6
Continuous
 62
     7
370
    15
100
AcDbSpline
210
0.0
220
0.0
230
1.0
 70
     8
 71
     3
 72
    22
 73
    18
 74
     0
 42
0.00000001
 43
0.00000001
 12
1.0
 22
0.0
 32
0.0
 13
1.0
 23
0.0
 33
0.0
 40
0.0
 40
0.0
 40
0.0
 40
0.0
 40
0.125
 40
0.125
 40
0.25
 40
0.25
 40
0.375
 40
0.375
 40
0.5
 40
0.5
 40
0.625
 40
0.625
 40
0.75
 40
0.75
 40
0.875
 40
0.875
 40
1.0
 40
1.0
 40
1.0
 40
1.0
 10
174.5151620002394
 20
89.80563014311493
 30
0.0
 10
174.2160375711988
 20
89.80563014311494
 30
0.0
 10
173.92221512295
 20
89.79711604204856
 30
0.0
 10
173.3446508467036
 20
89.76467227316664
 30
0.0
 10
173.0578331688897
 20
89.74033838446462
 30
0.0
 10
172.5133706399904
 20
89.6798783597078
 30
0.0
 10
172.2554153693691
 20
89.64396493892929
 30
0.0
 10
171.7673574260091
 20
89.56425491286015
 30
0.0
 10
171.5376591273454
 20
89.52037661167081
 30
0.0
 10
171.1252401443928
 20
89.43213298930064
 30
0.0
 10
170.9397132015327
 20
89.38732464783968
 30
0.0
 10
170.6111931566319
 20
89.30000363992049
 30
0.0
 10
170.4727792697324
 20
89.25871285134482
 30
0.0
 10
170.2481871231165
 20
89.18437462805102
 30
0.0
 10
170.1611083109923
 20
89.15096450231633
 30
0.0
 10
170.0446065030372
 20
89.09594510079019
 30
0.0
 10
170.0151620002394
 20
89.07448333432393
 30
0.0
 10
170.0151620002394
 20
89.05953031070614
 30
0.0
  0
LINE
  5
C5
330
1F
100
AcDbEntity
  8
0
  6
Continuous
 62
     7
370
    15
100
AcDbLine
 10
170.0151620002
 20
89.0595303107
 30
0.0
 11
170.0151620002
 21
89.0345146661
 31
0.0
  0
SPLINE
  5
C6
330
1F
100
AcDbEntity
  8
0
  6
Continuous
 62
     7
370
    15
100
AcDbSpline
210
0.0
220
0.0
230
1.0
 70
     8
 71
     3
 72
    23
 73
    19
 74
     0
 42
0.00000001
 43
0.00000001
 12
1.0
 22
0.0
 32
0.0
 13
1.0
 23
0.0
 33
0.0
 40
0.0
 40
0.0
 40
0.0
 40
0.0
 40
0.1044449113247826
 40
0.1572802536911193
 40
0.2110249464527093
 40
0.3154029194809768
 40
0.3682230034049771
 40
0.4218788273940332
 40
0.4747215893853325
 40
0.5279256635982682
 40
0.5816888547949844
 40
0.6362190405808438
 40
0.6896131864111554
 40
0.7433884791470616
 40
0.7977612390588021
 40
0.8529580214367736
 40
0.9582419747700323
 40
0.9999999999999999
 40
0.9999999999999999
 40
0.9999999999999999
 40
0.9999999999999999
 10
174.5151620002394
 20
128.5216899360494
 30
0.0
 10
174.268056566704
 20
128.524309567901
 30
0.0
 10
173.8959483923378
 20
128.5282543877774
 30
0.0
 10
173.4079901578098
 20
128.552092641383
 30
0.0
 10
172.9308995567658
 20
128.5834336166991
 30
0.0
 10
172.4739516968023
 20
128.6262586417973
 30
0.0
 10
172.0479448404482
 20
128.676426896654
 30
0.0
 10
171.7432675663973
 20
128.7171161338379
 30
0.0
 10
171.4573041009905
 20
128.7595237563511
 30
0.0
 10
171.1923193254205
 20
128.8024250387254
 30
0.0
 10
170.9479025042188
 20
128.8450621442435
 30
0.0
 10
170.7285715568767
 20
128.885828308052
 30
0.0
 10
170.5360787360624
 20
128.9235329993864
 30
0.0
 10
170.371880896969
 20
128.9571047228432
 30
0.0
 10
170.2354930320845
 20
128.9859791805338
 30
0.0
 10
170.0986041348962
 20
129.0157565188542
 30
0.0
 10
170.0220867719672
 20
129.0329586060232
 30
0.0
 10
170.0188198885735
 20
129.0336924789311
 30
0.0
 10
170.0178921358289
 20
129.0339008893708
 30
0.0
  0
LINE
  5
C7
330
1F
100
AcDbEntity
  8
0
  6
Continuous
 62
     7
370
    15
100
AcDbLine
 10
176.0300023013
 20
128.521689936
 30
0.0
 11
174.5151620002
 21
128.521689936
 31
0.0
  0
LINE
  5
C8
330
1F
100
AcDbEntity
  8
0
  6
Continuous
 62
     7
370
    15
100
AcDbLine
 10
176.0300023013
 20
125.1459236672
 30
0.0
 11
176.0300023013
 21
128.521689936
 31
0.0
  0
LINE
  5
C9
330
1F
100
AcDbEntity
  8
0
  6
Continuous
 62
     7
370
    15
100
AcDbLine
 10
174.5088324749
 20
125.1459236672
 30
0.0
 11
176.0300023013
 21
125.1459236672
 31
0.0
  0
SPLINE
  5
CA
330
1F
100
AcDbEntity
  8
0
  6
Continuous
 62
     7
370
    15
100
AcDbSpline
210
0.0
220
0.0
230
1.0
 70
     8
 71
     3
 72
    22
 73
    18
 74
     0
 42
0.00000001
 43
0.00000001
 12
1.0
 22
0.0
 32
0.0
 13
1.0
 23
0.0
 33
0.0
 40
0.0
 40
0.0
 40
0.0
 40
0.0
 40
0.2500000000000003
 40
0.2500000000000003
 40
0.3750000000000003
 40
0.3750000000000003
 40
0.5000000000000003
 40
0.5000000000000003
 40
0.6250000000000003
 40
0.6250000000000003
 40
0.7500000000000004
 40
0.7500000000000004
 40
0.8750000000000004
 40
0.8750000000000004
 40
0.9375000000000002
 40
0.9375000000000002
 40
1.0
 40
1.0
 40
1.0
 40
1.0
 10
170.0151620002395
 20
120.8845146661443
 30
0.0
 10
170.0371430182261
 20
121.4473873080424
 30
0.0
 10
170.1161199015808
 20
121.9780121917719
 30
0.0
 10
170.3625177946132
 20
122.7237231826935
 30
0.0
 10
170.4670424097041
 20
122.9653434090922
 30
0.0
 10
170.7288890050106
 20
123.4242021844181
 30
0.0
 10
170.8841056271765
 20
123.6383808568879
 30
0.0
 10
171.2526973802404
 20
124.0356094160335
 30
0.0
 10
171.4688310727053
 20
124.2200542510533
 30
0.0
 10
171.9527255676922
 20
124.5411340989369
 30
0.0
 10
172.2231911126999
 20
124.6804849290429
 30
0.0
 10
172.8194176782101
 20
124.9097904634685
 30
0.0
 10
173.1349109449301
 20
124.9963264729448
 30
0.0
 10
173.6356275929486
 20
125.085216077276
 30
0.0
 10
173.8084240275637
 20
125.1080245831377
 30
0.0
 10
174.1567928003457
 20
125.1383157458339
 30
0.0
 10
174.3321938292562
 20
125.1459236672218
 30
0.0
 10
174.5088324749442
 20
125.1459236672218
 30
0.0
  0
LINE
  5
CB
330
1F
100
AcDbEntity
  8
0
  6
Continuous
 62
     7
370
    15
100
AcDbLine
 10
177.0251620002
 20
91.6053912782
 30
0.0
 11
177.0251620002
 21
120.8845146661
 31
0.0
  0
SPLINE
  5
CC
330
1F
100
AcDbEntity
  8
0
  6
Continuous
 62
     7
370
    15
100
AcDbSpline
210
0.0
220
0.0
230
1.0
 70
     8
 71
     3
 72
     8
 73
     4
 74
     0
 42
0.00000001
 43
0.00000001
 12
1.0
 22
0.0
 32
0.0
 13
1.0
 23
0.0
 33
0.0
 40
0.0
 40
0.0
 40
0.0
 40
0.0
 40
1.0
 40
1.0
 40
1.0
 40
1.0
 10
177.0251620002394
 20
91.6053912781546
 30
0.0
 10
176.6945233736248
 20
91.00487092704363
 30
0.0
 10
176.3627075730513
 20
90.4050018163386
 30
0.0
 10
176.030002301346
 20
89.80563014311494
 30
0.0
  0
SPLINE
  5
CD
330
1F
100
AcDbEntity
  8
0
  6
Continuous
 62
     7
370
    15
100
AcDbSpline
210
0.0
220
0.0
230
1.0
 70
    24
 71
     3
 72
     8
 73
     4
 74
     0
 42
0.00000001
 43
0.00000001
 12
1.0
 22
0.0
 32
0.0
 13
1.0
 23
0.0
 33
0.0
 40
0.0
 40
0.0
 40
0.0
 40
0.0
 40
1.0
 40
1.0
 40
1.0
 40
1.0
 10
176.030002301346
 20
120.8845146661443
 30
0.0
 10
176.3690351231006
 20
120.8845146661443
 30
0.0
 10
176.7015253446172
 20
120.8845146661443
 30
0.0
 10
177.0251620002394
 20
120.8845146661443
 30
0.0
  0
LINE
  5
CE
330
1F
100
AcDbEntity
  8
0
  6
Continuous
 62
     7
370
    15
100
AcDbLine
 10
181.4151620002
 20
89.8056301431
 30
0.0
 11
180.1003216991
 21
89.8056301431
 31
0.0
  0
LINE
  5
CF
330
1F
100
AcDbEntity
  8
0
  6
Continuous
 62
     7
370
    15
100
AcDbLine
 10
180.1003216991
 20
89.8056301431
 30
0.0
 11
180.1003216991
 21
120.8845146661
 31
0.0
  0
LINE
  5
D0
330
1F
100
AcDbEntity
  8
0
  6
Continuous
 62
     7
370
    15
100
AcDbLine
 10
180.1003216991
 20
120.8845146661
 30
0.0
 11
181.4151620002
 21
120.8845146661
 31
0.0
  0
SPLINE
  5
D1
330
1F
100
AcDbEntity
  8
0
  6
Continuous
 62
     7
370
    15
100
AcDbSpline
210
0.0
220
0.0
230
1.0
 70
     8
 71
     3
 72
     8
 73
     4
 74
     0
 42
0.00000001
 43
0.00000001
 12
1.0
 22
0.0
 32
0.0
 13
1.0
 23
0.0
 33
0.0
 40
0.0
 40
0.0
 40
0.0
 40
0.0
 40
1.0
 40
1.0
 40
1.0
 40
1.0
 10
180.1003216991329
 20
89.80563014311491
 30
0.0
 10
179.7676164274276
 20
90.40500181633857
 30
0.0
 10
179.435800626854
 20
91.0048709270436
 30
0.0
 10
179.1051620002394
 20
91.60539127815458
 30
0.0
  0
LINE
  5
D2
330
1F
100
AcDbEntity
  8
0
  6
Continuous
 62
     7
370
    15
100
AcDbLine
 10
179.1051620002
 20
91.6053912782
 30
0.0
 11
179.1051620002
 21
120.8845146661
 31
0.0
  0
SPLINE
  5
D3
330
1F
100
AcDbEntity
  8
0
  6
Continuous
 62
     7
370
    15
100
AcDbSpline
210
0.0
220
0.0
230
1.0
 70
    24
 71
     3
 72
     8
 73
     4
 74
     0
 42
0.00000001
 43
0.00000001
 12
1.0
 22
0.0
 32
0.0
 13
1.0
 23
0.0
 33
0.0
 40
0.0
 40
0.0
 40
0.0
 40
0.0
 40
1.0
 40
1.0
 40
1.0
 40
1.0
 10
179.1051620002394
 20
120.8845146661443
 30
0.0
 10
179.4287986558616
 20
120.8845146661443
 30
0.0
 10
179.7612888773783
 20
120.8845146661443
 30
0.0
 10
180.1003216991329
 20
120.8845146661443
 30
0.0
  0
LINE
  5
D4
330
1F
100
AcDbEntity
  8
0
  6
Continuous
 62
     7
370
    15
100
AcDbLine
 10
182.0151620002
 20
90.4304828451
 30
0.0
 11
182.0151620002
 21
120.8845146661
 31
0.0
  0
SPLINE
  5
D5
330
1F
100
AcDbEntity
  8
0
  6
Continuous
 62
     7
370
    15
100
AcDbSpline
210
0.0
220
0.0
230
1.0
 70
     8
 71
     3
 72
    10
 73
     6
 74
     0
 42
0.00000001
 43
0.00000001
 12
1.0
 22
0.0
 32
0.0
 13
1.0
 23
0.0
 33
0.0
 40
0.0
 40
0.0
 40
0.0
 40
0.0
 40
0.5
 40
0.5
 40
1.0
 40
1.0
 40
1.0
 40
1.0
 10
182.0151620002394
 20
90.4304828450578
 30
0.0
 10
182.0151620002394
 20
90.27085067615457
 30
0.0
 10
181.9535254865341
 20
90.10980104239053
 30
0.0
 10
181.7344991202912
 20
89.87681015871392
 30
0.0
 10
181.5768822322438
 20
89.80563014311494
 30
0.0
 10
181.4151620002394
 20
89.80563014311493
 30
0.0
  0
SPLINE
  5
D6
330
1F
100
AcDbEntity
  8
0
  6
Continuous
 62
     7
370
    15
100
AcDbSpline
210
0.0
220
0.0
230
1.0
 70
    24
 71
     3
 72
    12
 73
     8
 74
     0
 42
0.00000001
 43
0.00000001
 12
1.0
 22
0.0
 32
0.0
 13
1.0
 23
0.0
 33
0.0
 40
0.0
 40
0.0
 40
0.0
 40
0.0
 40
0.2500000000000014
 40
0.2500000000000014
 40
0.5000000000000029
 40
0.5000000000000029
 40
1.0
 40
1.0
 40
1.0
 40
1.0
 10
181.4151620002394
 20
120.8845146661443
 30
0.0
 10
181.5033488656083
 20
120.8845146661443
 30
0.0
 10
181.5920362589096
 20
120.8845146661443
 30
0.0
 10
181.7462887520284
 20
120.8845146661443
 30
0.0
 10
181.8116347331044
 20
120.8845146661443
 30
0.0
 10
181.9660446030555
 20
120.8845146661443
 30
0.0
 10
182.0151620002394
 20
120.8845146661443
 30
0.0
 10
182.0151620002394
 20
120.8845146661443
 30
0.0
  0
LINE
  5
D7
330
1F
100
AcDbEntity
  8
0
  6
Continuous
 62
     7
370
    15
100
AcDbLine
 10
162.0651620002
 20
89.3345146661
 30
0.0
 11
162.0651620002
 21
128.7345146607
 31
0.0
  0
SPLINE
  5
D8
330
1F
100
AcDbEntity
  8
0
  6
Continuous
 62
     7
370
    15
100
AcDbSpline
210
0.0
220
0.0
230
1.0
 70
    24
 71
     3
 72
    16
 73
    12
 74
     0
 42
0.00000001
 43
0.00000001
 12
1.0
 22
0.0
 32
0.0
 13
1.0
 23
0.0
 33
0.0
 40
0.0
 40
0.0
 40
0.0
 40
0.0
 40
0.5000000000000012
 40
0.5000000000000012
 40
0.7500000000000027
 40
0.7500000000000027
 40
0.8750000000000032
 40
0.8750000000000032
 40
0.9375000000000017
 40
0.9375000000000017
 40
1.0
 40
1.0
 40
1.0
 40
1.0
 10
179.0699395996582
 20
92.13451466614433
 30
0.0
 10
179.0399031801315
 20
92.13451466614431
 30
0.0
 10
178.9932690829268
 20
92.13451466614433
 30
0.0
 10
178.8828846713481
 20
92.13451466614433
 30
0.0
 10
178.8395470228274
 20
92.13451466614433
 30
0.0
 10
178.7510653884428
 20
92.13451466614433
 30
0.0
 10
178.7176898838262
 20
92.13451466614433
 30
0.0
 10
178.6531976743757
 20
92.13451466614431
 30
0.0
 10
178.6289933371891
 20
92.13451466614433
 30
0.0
 10
178.5732395273787
 20
92.13451466614433
 30
0.0
 10
178.5396555013104
 20
92.13451466614433
 30
0.0
 10
178.5051620002394
 20
92.13451466614433
 30
0.0
  0
SPLINE
  5
D9
330
1F
100
AcDbEntity
  8
0
  6
Continuous
 62
     7
370
    15
100
AcDbSpline
210
0.0
220
0.0
230
1.0
 70
    24
 71
     3
 72
    12
 73
     8
 74
     0
 42
0.00000001
 43
0.00000001
 12
1.0
 22
0.0
 32
0.0
 13
1.0
 23
0.0
 33
0.0
 40
0.0
 40
0.0
 40
0.0
 40
0.0
 40
0.249999999999999
 40
0.249999999999999
 40
0.499999999999998
 40
0.499999999999998
 40
1.0
 40
1.0
 40
1.0
 40
1.0
 10
178.5051620002394
 20
120.8845146661443
 30
0.0
 10
178.5978200897457
 20
120.8845146661443
 30
0.0
 10
178.6898834993034
 20
120.8845146661443
 30
0.0
 10
178.8440410497942
 20
120.8845146661443
 30
0.0
 10
178.9085299831588
 20
120.8845146661443
 30
0.0
 10
179.0585815321084
 20
120.8845146661443
 30
0.0
 10
179.1051620002394
 20
120.8845146661443
 30
0.0
 10
179.1051620002394
 20
120.8845146661443
 30
0.0
  0
SPLINE
  5
DA
330
1F
100
AcDbEntity
  8
0
  6
Continuous
 62
     7
370
    15
100
AcDbSpline
210
0.0
220
0.0
230
1.0
 70
    24
 71
     3
 72
    16
 73
    12
 74
     0
 42
0.00000001
 43
0.00000001
 12
1.0
 22
0.0
 32
0.0
 13
1.0
 23
0.0
 33
0.0
 40
0.0
 40
0.0
 40
0.0
 40
0.0
 40
0.0625000000000006
 40
0.0625000000000006
 40
0.1250000000000012
 40
0.1250000000000012
 40
0.2500000000000012
 40
0.2500000000000012
 40
0.500000000000001
 40
0.500000000000001
 40
1.0
 40
1.0
 40
1.0
 40
1.0
 10
177.6251620002128
 20
92.13451466614433
 30
0.0
 10
177.5906833330276
 20
92.13451466614433
 30
0.0
 10
177.5568631561908
 20
92.13451466614433
 30
0.0
 10
177.5003410890071
 20
92.13451466614433
 30
0.0
 10
177.4760150094808
 20
92.13451466614433
 30
0.0
 10
177.4115621099295
 20
92.13451466614431
 30
0.0
 10
177.377933834571
 20
92.13451466614433
 30
0.0
 10
177.2898565190461
 20
92.13451466614431
 30
0.0
 10
177.2470370657785
 20
92.13451466614433
 30
0.0
 10
177.1363804315815
 20
92.13451466614433
 30
0.0
 10
177.0901478456375
 20
92.13451466614433
 30
0.0
 10
177.0603844008208
 20
92.13451466614433
 30
0.0
  0
SPLINE
  5
DB
330
1F
100
AcDbEntity
  8
0
  6
Continuous
 62
     7
370
    15
100
AcDbSpline
210
0.0
220
0.0
230
1.0
 70
    24
 71
     3
 72
    12
 73
     8
 74
     0
 42
0.00000001
 43
0.00000001
 12
1.0
 22
0.0
 32
0.0
 13
1.0
 23
0.0
 33
0.0
 40
0.0
 40
0.0
 40
0.0
 40
0.0
 40
0.499999999999998
 40
0.499999999999998
 40
0.749999999999999
 40
0.749999999999999
 40
1.0
 40
1.0
 40
1.0
 40
1.0
 10
177.0251620002394
 20
120.8845146661443
 30
0.0
 10
177.0251620002394
 20
120.8845146661443
 30
0.0
 10
177.0721580977478
 20
120.8845146661443
 30
0.0
 10
177.221664035748
 20
120.8845146661443
 30
0.0
 10
177.2861826583064
 20
120.8845146661443
 30
0.0
 10
177.4406223510354
 20
120.8845146661443
 30
0.0
 10
177.5315607390384
 20
120.8845146661443
 30
0.0
 10
177.6251620002394
 20
120.8845146661443
 30
0.0
  0
SPLINE
  5
DC
330
1F
100
AcDbEntity
  8
0
  6
Continuous
 62
     7
370
    15
100
AcDbSpline
210
0.0
220
0.0
230
1.0
 70
    24
 71
     3
 72
    10
 73
     6
 74
     0
 42
0.00000001
 43
0.00000001
 12
1.0
 22
0.0
 32
0.0
 13
1.0
 23
0.0
 33
0.0
 40
0.0
 40
0.0
 40
0.0
 40
0.0
 40
0.5
 40
0.5
 40
1.0
 40
1.0
 40
1.0
 40
1.0
 10
182.2151620002394
 20
125.9345146661443
 30
0.0
 10
182.2151620002394
 20
125.9345146661443
 30
0.0
 10
182.1725165354211
 20
125.9345146661443
 30
0.0
 10
182.0726047472815
 20
125.9345146661443
 30
0.0
 10
182.0173788759001
 20
125.9345146661443
 30
0.0
 10
182.0152241233628
 20
125.9345146661443
 30
0.0
  0
SPLINE
  5
DD
330
1F
100
AcDbEntity
  8
0
  6
Continuous
 62
     7
370
    15
100
AcDbSpline
210
0.0
220
0.0
230
1.0
 70
    24
 71
     3
 72
    10
 73
     6
 74
     0
 42
0.00000001
 43
0.00000001
 12
1.0
 22
0.0
 32
0.0
 13
1.0
 23
0.0
 33
0.0
 40
0.0
 40
0.0
 40
0.0
 40
0.0
 40
0.5
 40
0.5
 40
1.0
 40
1.0
 40
1.0
 40
1.0
 10
182.2151620002394
 20
92.13451466614433
 30
0.0
 10
182.2151620002394
 20
92.13451466614433
 30
0.0
 10
182.1716297558414
 20
92.13451466614433
 30
0.0
 10
182.0706218538113
 20
92.13451466614433
 30
0.0
 10
182.0151620002394
 20
92.13451466614433
 30
0.0
 10
182.0151620002394
 20
92.13451466614433
 30
0.0
  0
SPLINE
  5
DE
330
1F
100
AcDbEntity
  8
0
  6
Continuous
 62
     7
370
    15
100
AcDbSpline
210
0.0
220
0.0
230
1.0
 70
    24
 71
     3
 72
    12
 73
     8
 74
     0
 42
0.00000001
 43
0.00000001
 12
1.0
 22
0.0
 32
0.0
 13
1.0
 23
0.0
 33
0.0
 40
0.0
 40
0.0
 40
0.0
 40
0.0
 40
0.4999999999999978
 40
0.4999999999999978
 40
0.7499999999999989
 40
0.7499999999999989
 40
1.0
 40
1.0
 40
1.0
 40
1.0
 10
182.0151620002394
 20
120.8845146661443
 30
0.0
 10
182.0151620002394
 20
120.8845146661443
 30
0.0
 10
182.0423827483671
 20
120.8845146661443
 30
0.0
 10
182.12282919414
 20
120.8845146661443
 30
0.0
 10
182.156276422618
 20
120.8845146661443
 30
0.0
 10
182.2386859923923
 20
120.8845146661443
 30
0.0
 10
182.2879690892759
 20
120.8845146661443
 30
0.0
 10
182.3442857119125
 20
120.8845146661443
 30
0.0
  0
SPLINE
  5
DF
330
1F
100
AcDbEntity
  8
0
  6
Continuous
 62
     7
370
    15
100
AcDbSpline
210
0.0
220
0.0
230
1.0
 70
     8
 71
     3
 72
    10
 73
     6
 74
     0
 42
0.00000001
 43
0.00000001
 12
1.0
 22
0.0
 32
0.0
 13
1.0
 23
0.0
 33
0.0
 40
0.0
 40
0.0
 40
0.0
 40
0.0
 40
0.5
 40
0.5
 40
1.0
 40
1.0
 40
1.0
 40
1.0
 10
182.0151620002394
 20
121.911917354575
 30
0.0
 10
182.0151620002394
 20
121.72920864244
 30
0.0
 10
182.0421353339475
 20
121.5457003526792
 30
0.0
 10
182.1497257017333
 20
121.1973963743585
 30
0.0
 10
182.2311902460765
 20
121.0292087918156
 30
0.0
 10
182.3442857119122
 20
120.8845146661429
 30
0.0
  0
LINE
  5
E0
330
1F
100
AcDbEntity
  8
0
  6
Continuous
 62
     7
370
    15
100
AcDbLine
 10
178.5051620002
 20
92.1345146661
 30
0.0
 11
177.6251620002
 21
92.1345146661
 31
0.0
  0
LINE
  5
E1
330
1F
100
AcDbEntity
  8
0
  6
Continuous
 62
     7
370
    15
100
AcDbLine
 10
177.6251620002
 20
120.8845146661
 30
0.0
 11
178.5051620002
 21
120.8845146661
 31
0.0
  0
ELLIPSE
  5
E2
330
1F
100
AcDbEntity
  8
0
  6
Continuous
 62
     7
370
    15
100
AcDbEllipse
 10
239.5890417296
 20
109.0345146661
 30
0.0
 11
134.3815460477956
 21
-1.750820144348594
 31
0.0
210
0.0
220
0.0
230
1.0
 40
0.1220915185
 41
1.900387784626856
 42
1.920539976435143
  0
SPLINE
  5
E3
330
1F
100
AcDbEntity
  8
0
  6
Continuous
 62
     7
370
    15
100
AcDbSpline
210
0.0
220
0.0
230
1.0
 70
     8
 71
     3
 72
    16
 73
    12
 74
     0
 42
0.00000001
 43
0.00000001
 12
1.0
 22
0.0
 32
0.0
 13
1.0
 23
0.0
 33
0.0
 40
0.0
 40
0.0
 40
0.0
 40
0.0
 40
0.2500000000000001
 40
0.2500000000000001
 40
0.5000000000000001
 40
0.5000000000000001
 40
0.7500000000000002
 40
0.7500000000000002
 40
0.8750000000000001
 40
0.8750000000000001
 40
1.0
 40
1.0
 40
1.0
 40
1.0
 10
193.7430853308044
 20
125.0480314960075
 30
0.0
 10
193.3260393205306
 20
125.0349010415168
 30
0.0
 10
192.9295947204611
 20
125.0058410948769
 30
0.0
 10
192.1771501978602
 20
124.9080803704473
 30
0.0
 10
191.8396461117773
 20
124.8414255736304
 30
0.0
 10
191.2443344329248
 20
124.6617533463016
 30
0.0
 10
190.9977458796783
 20
124.5517005275109
 30
0.0
 10
190.7023009855228
 20
124.3515809420516
 30
0.0
 10
190.6167667754222
 20
124.2791976366574
 30
0.0
 10
190.4727675113375
 20
124.1251976645839
 30
0.0
 10
190.4137200804018
 20
124.0432002263649
 30
0.0
 10
190.3668593992687
 20
123.9558655062145
 30
0.0
  0
ELLIPSE
  5
E4
330
1F
100
AcDbEntity
  8
0
  6
Continuous
 62
     7
370
    15
100
AcDbEllipse
 10
192.6615988048
 20
109.0345146661
 30
0.0
 11
-0.4974151432768963
 21
16.49946846537878
 31
0.0
210
0.0
220
0.0
230
1.0
 40
0.266256518
 41
0.4329755371766859
 42
2.483124097540745
  0
SPLINE
  5
E5
330
1F
100
AcDbEntity
  8
0
  6
Continuous
 62
     7
370
    15
100
AcDbSpline
210
0.0
220
0.0
230
1.0
 70
     8
 71
     3
 72
    18
 73
    14
 74
     0
 42
0.00000001
 43
0.00000001
 12
1.0
 22
0.0
 32
0.0
 13
1.0
 23
0.0
 33
0.0
 40
0.0
 40
0.0
 40
0.0
 40
0.0
 40
0.2499999999999994
 40
0.2499999999999994
 40
0.3749999999999996
 40
0.3749999999999996
 40
0.4999999999999997
 40
0.4999999999999997
 40
0.6249999999999997
 40
0.6249999999999997
 40
0.7499999999999999
 40
0.7499999999999999
 40
1.0
 40
1.0
 40
1.0
 40
1.0
 10
190.3668593992687
 20
95.90354491652313
 30
0.0
 10
190.4606453764221
 20
95.6555821950836
 30
0.0
 10
190.6021368048435
 20
95.43170839279935
 30
0.0
 10
190.8962039278215
 20
95.12903301039844
 30
0.0
 10
191.0086291595626
 20
95.03357513480273
 30
0.0
 10
191.2551745987643
 20
94.85956675707642
 30
0.0
 10
191.3900296308235
 20
94.7800972185712
 30
0.0
 10
191.6837983050966
 20
94.63508768608465
 30
0.0
 10
191.844203978489
 20
94.56905604000617
 30
0.0
 10
192.1841022571125
 20
94.45297768692383
 30
0.0
 10
192.3619051757771
 20
94.40327657129366
 30
0.0
 10
192.9185972610923
 20
94.27660607509455
 30
0.0
 10
193.3254282656864
 20
94.22168650841893
 30
0.0
 10
193.7430853308044
 20
94.1978159914956
 30
0.0
  0
ELLIPSE
  5
E6
330
1F
100
AcDbEntity
  8
0
  6
Continuous
 62
     7
370
    15
100
AcDbEllipse
 10
239.5890417296
 20
109.0345146661
 30
0.0
 11
134.3815460477956
 21
-1.750820144348594
 31
0.0
210
0.0
220
0.0
230
1.0
 40
0.1220915185
 41
4.3658267215823
 42
4.385978913390586
  0
ELLIPSE
  5
E7
330
1F
100
AcDbEntity
  8
0
  6
Continuous
 62
     7
370
    15
100
AcDbEllipse
 10
207.3959743692
 20
109.0345146661
 30
0.0
 11
12.35438222969168
 21
16.49617782666435
 31
0.0
210
0.0
220
0.0
230
1.0
 40
0.0287452423
 41
3.163117328393589
 42
3.559606398931359
  0
ELLIPSE
  5
E8
330
1F
100
AcDbEntity
  8
0
  6
Continuous
 62
     7
370
    15
100
AcDbEllipse
 10
189.6153884703
 20
114.7858299379
 30
0.0
 11
0.1685164062339481
 21
2.666144295730064
 31
0.0
210
0.0
220
0.0
230
1.0
 40
0.2297521224
 41
0.0
 42
6.283185307179586
  0
LINE
  5
E9
330
1F
100
AcDbEntity
  8
0
  6
Continuous
 62
     7
370
    15
100
AcDbLine
 10
160.0651620002
 20
93.9308142653
 30
0.0
 11
160.0651620002
 21
124.1382150669
 31
0.0
  0
LINE
  5
EA
330
1F
100
AcDbEntity
  8
0
  6
Continuous
 62
     7
370
    15
100
AcDbLine
 10
148.2651620002
 20
94.5219966301
 30
0.0
 11
148.2651620002
 21
95.4309384804
 31
0.0
  0
SPLINE
  5
EB
330
1F
100
AcDbEntity
  8
0
  6
Continuous
 62
     7
370
    15
100
AcDbSpline
210
0.0
220
0.0
230
1.0
 70
     8
 71
     3
 72
    10
 73
     6
 74
     0
 42
0.00000001
 43
0.00000001
 12
1.0
 22
0.0
 32
0.0
 13
1.0
 23
0.0
 33
0.0
 40
0.0
 40
0.0
 40
0.0
 40
0.0
 40
0.5
 40
0.5
 40
1.0
 40
1.0
 40
1.0
 40
1.0
 10
147.9739267977542
 20
96.1005113189364
 30
0.0
 10
148.0118012006989
 20
95.97434921088376
 30
0.0
 10
148.0925922480247
 20
95.85639016990186
 30
0.0
 10
148.217722190616
 20
95.63334418731287
 30
0.0
 10
148.2651620002394
 20
95.52854911381752
 30
0.0
 10
148.2651620002394
 20
95.43093848042011
 30
0.0
  0
SPLINE
  5
EC
330
1F
100
AcDbEntity
  8
0
  6
Continuous
 62
     7
370
    15
100
AcDbSpline
210
0.0
220
0.0
230
1.0
 70
     8
 71
     3
 72
    16
 73
    12
 74
     0
 42
0.00000001
 43
0.00000001
 12
1.0
 22
0.0
 32
0.0
 13
1.0
 23
0.0
 33
0.0
 40
0.0
 40
0.0
 40
0.0
 40
0.0
 40
0.0624999999999992
 40
0.0624999999999992
 40
0.1249999999999984
 40
0.1249999999999984
 40
0.2499999999999977
 40
0.2499999999999977
 40
0.4999999999999981
 40
0.4999999999999981
 40
1.0
 40
1.0
 40
1.0
 40
1.0
 10
147.3651620002396
 20
96.75064136759147
 30
0.0
 10
147.3964777995669
 20
96.75324598948353
 30
0.0
 10
147.4291921379925
 20
96.75147708902355
 30
0.0
 10
147.4904986914694
 20
96.73994219457354
 30
0.0
 10
147.5190095816874
 20
96.73041521722733
 30
0.0
 10
147.5949035550436
 20
96.69690161710241
 30
0.0
 10
147.6342431400766
 20
96.66851410278251
 30
0.0
 10
147.7356789210579
 20
96.58049315257466
 30
0.0
 10
147.7805042806639
 20
96.51886050036748
 30
0.0
 10
147.8947866356291
 20
96.33547230669235
 30
0.0
 10
147.9396005434719
 20
96.21485431222749
 30
0.0
 10
147.9739267977542
 20
96.1005113189364
 30
0.0
  0
SPLINE
  5
ED
330
1F
100
AcDbEntity
  8
0
  6
Continuous
 62
     7
370
    15
100
AcDbSpline
210
0.0
220
0.0
230
1.0
 70
     8
 71
     3
 72
    10
 73
     6
 74
     0
 42
0.00000001
 43
0.00000001
 12
1.0
 22
0.0
 32
0.0
 13
1.0
 23
0.0
 33
0.0
 40
0.0
 40
0.0
 40
0.0
 40
0.0
 40
0.5
 40
0.5
 40
1.0
 40
1.0
 40
1.0
 40
1.0
 10
143.2753705655239
 20
96.32333440369314
 30
0.0
 10
143.9336285764263
 20
96.41625910901017
 30
0.0
 10
144.6109708849635
 20
96.49219422613274
 30
0.0
 10
145.9803168986446
 20
96.63101231167042
 30
0.0
 10
146.6716369795171
 20
96.6929589679569
 30
0.0
 10
147.3651620002401
 20
96.75064136759146
 30
0.0
  0
SPLINE
  5
EE
330
1F
100
AcDbEntity
  8
0
  6
Continuous
 62
     7
370
    15
100
AcDbSpline
210
0.0
220
0.0
230
1.0
 70
     8
 71
     3
 72
     8
 73
     4
 74
     0
 42
0.00000001
 43
0.00000001
 12
1.0
 22
0.0
 32
0.0
 13
1.0
 23
0.0
 33
0.0
 40
0.0000002108190109
 40
0.0000002108190109
 40
0.0000002108190109
 40
0.0000002108190109
 40
0.0001710235456397
 40
0.0001710235456397
 40
0.0001710235456397
 40
0.0001710235456397
 10
143.1151620002395
 20
96.30397911518497
 30
0.0
 10
143.1691501863293
 20
96.30960925778854
 30
0.0
 10
143.2227398464051
 20
96.31590465125007
 30
0.0
 10
143.2753705655238
 20
96.32333440369321
 30
0.0
  0
SPLINE
  5
EF
330
1F
100
AcDbEntity
  8
0
  6
Continuous
 62
     7
370
    15
100
AcDbSpline
210
0.0
220
0.0
230
1.0
 70
     8
 71
     3
 72
     8
 73
     4
 74
     0
 42
0.00000001
 43
0.00000001
 12
1.0
 22
0.0
 32
0.0
 13
1.0
 23
0.0
 33
0.0
 40
0.000003532078448
 40
0.000003532078448
 40
0.000003532078448
 40
0.000003532078448
 40
0.0000638548434643
 40
0.0000638548434643
 40
0.0000638548434643
 40
0.0000638548434643
 10
143.1066458506703
 20
96.33133696660076
 30
0.0
 10
143.1091950217925
 20
96.32217576326204
 30
0.0
 10
143.1120369445743
 20
96.31305475995332
 30
0.0
 10
143.1151620002395
 20
96.30397911518497
 30
0.0
  0
ELLIPSE
  5
F0
330
1F
100
AcDbEntity
  8
0
  6
Continuous
 62
     7
370
    15
100
AcDbEllipse
 10
129.6384197924
 20
108.3952169884
 30
0.0
 11
13.37355272666625
 21
-13.37146352987013
 31
0.0
210
0.0
220
0.0
230
1.0
 40
0.1761188775
 41
0.3023035477142387
 42
0.3822730435340245
  0
ELLIPSE
  5
F1
330
1F
100
AcDbEntity
  8
0
  6
Continuous
 62
     7
370
    15
100
AcDbEllipse
 10
129.5590413617
 20
109.6736251175
 30
0.0
 11
13.36963611134306
 21
13.36754752639483
 31
0.0
210
0.0
220
0.0
230
1.0
 40
0.1761188775
 41
5.933076931846593
 42
5.976720052691191
  0
SPLINE
  5
F2
330
1F
100
AcDbEntity
  8
0
  6
Continuous
 62
     7
370
    15
100
AcDbSpline
210
0.0
220
0.0
230
1.0
 70
     8
 71
     3
 72
     8
 73
     4
 74
     0
 42
0.00000001
 43
0.00000001
 12
1.0
 22
0.0
 32
0.0
 13
1.0
 23
0.0
 33
0.0
 40
0.0
 40
0.0
 40
0.0
 40
0.0
 40
1.0
 40
1.0
 40
1.0
 40
1.0
 10
143.1151620002395
 20
121.9000952131227
 30
0.0
 10
143.0693970925502
 20
121.8385748339639
 30
0.0
 10
143.0350099709201
 20
121.7746799742144
 30
0.0
 10
143.0159947172473
 20
121.7079500291707
 30
0.0
  0
SPLINE
  5
F3
330
1F
100
AcDbEntity
  8
0
  6
Continuous
 62
     7
370
    15
100
AcDbSpline
210
0.0
220
0.0
230
1.0
 70
     8
 71
     3
 72
    12
 73
     8
 74
     0
 42
0.00000001
 43
0.00000001
 12
1.0
 22
0.0
 32
0.0
 13
1.0
 23
0.0
 33
0.0
 40
0.0
 40
0.0
 40
0.0
 40
0.0
 40
0.2499999999999986
 40
0.2499999999999986
 40
0.4999999999999972
 40
0.4999999999999972
 40
1.0
 40
1.0
 40
1.0
 40
1.0
 10
144.8651620002395
 20
121.8153085248035
 30
0.0
 10
144.7231195970502
 20
121.8311342529797
 30
0.0
 10
144.5790014905461
 20
121.8421553867551
 30
0.0
 10
144.2892469768736
 20
121.8606917486222
 30
0.0
 10
144.1435050735148
 20
121.867962454358
 30
0.0
 10
143.704824834335
 20
121.886423304686
 30
0.0
 10
143.4104492182638
 20
121.8943021715096
 30
0.0
 10
143.1151620002395
 20
121.9000952131227
 30
0.0
  0
SPLINE
  5
F4
330
1F
100
AcDbEntity
  8
0
  6
Continuous
 62
     7
370
    15
100
AcDbSpline
210
0.0
220
0.0
230
1.0
 70
     8
 71
     3
 72
    20
 73
    16
 74
     0
 42
0.00000001
 43
0.00000001
 12
1.0
 22
0.0
 32
0.0
 13
1.0
 23
0.0
 33
0.0
 40
0.0
 40
0.0
 40
0.0
 40
0.0
 40
0.2499999999999999
 40
0.2499999999999999
 40
0.4999999999999998
 40
0.4999999999999998
 40
0.7499999999999997
 40
0.7499999999999997
 40
0.8749999999999979
 40
0.8749999999999979
 40
0.9374999999999989
 40
0.9374999999999989
 40
0.9687499999999994
 40
0.9687499999999994
 40
1.0
 40
1.0
 40
1.0
 40
1.0
 10
145.7651620002404
 20
122.5920387878922
 30
0.0
 10
145.7651620002404
 20
122.5314293881948
 30
0.0
 10
145.7397669806635
 20
122.4656034227913
 30
0.0
 10
145.6534737948815
 20
122.3315556534446
 30
0.0
 10
145.5928378161983
 20
122.2628602953029
 30
0.0
 10
145.444736021977
 20
122.1224617436484
 30
0.0
 10
145.3579664151983
 20
122.0507582390671
 30
0.0
 10
145.2093286198691
 20
121.9445948373182
 30
0.0
 10
145.157039402983
 20
121.9090664886867
 30
0.0
 10
145.066275574673
 20
121.8593625581712
 30
0.0
 10
145.033909582221
 20
121.8431015601561
 30
0.0
 10
144.9762204265548
 20
121.8239889918101
 30
0.0
 10
144.9552333986673
 20
121.8185978497286
 30
0.0
 10
144.9099444196769
 20
121.8128604813361
 30
0.0
 10
144.8869301508384
 20
121.8128832149895
 30
0.0
 10
144.8651620002388
 20
121.8153085248024
 30
0.0
  0
LINE
  5
F5
330
1F
100
AcDbEntity
  8
0
  6
Continuous
 62
     7
370
    15
100
AcDbLine
 10
145.7651620002
 20
122.5920387879
 30
0.0
 11
145.7651620002
 21
123.4217822012
 31
0.0
  0
SPLINE
  5
F6
330
1F
100
AcDbEntity
  8
0
  6
Continuous
 62
     7
370
    15
100
AcDbSpline
210
0.0
220
0.0
230
1.0
 70
     8
 71
     3
 72
    24
 73
    20
 74
     0
 42
0.00000001
 43
0.00000001
 12
1.0
 22
0.0
 32
0.0
 13
1.0
 23
0.0
 33
0.0
 40
0.0
 40
0.0
 40
0.0
 40
0.0
 40
0.0016643206054315
 40
0.0648792882012609
 40
0.1278826362657649
 40
0.1913652208697575
 40
0.2543782209288115
 40
0.3163193242325593
 40
0.377746982651855
 40
0.439708223145212
 40
0.5014188941659748
 40
0.5625360836783342
 40
0.623713337738904
 40
0.686302026840084
 40
0.7490598688491025
 40
0.8115924779750846
 40
0.8743360193378733
 40
0.9379727055969199
 40
1.0
 40
1.0
 40
1.0
 40
1.0
 10
153.2497053211642
 20
94.27254778004021
 30
0.0
 10
153.2492278897184
 20
94.27247936314542
 30
0.0
 10
153.2306164441453
 20
94.26981230523546
 30
0.0
 10
153.2937585773942
 20
94.27952745765533
 30
0.0
 10
153.4458011977439
 20
94.30173252111757
 30
0.0
 10
153.7137264249899
 20
94.33616706866135
 30
0.0
 10
154.063040499291
 20
94.37463112313984
 30
0.0
 10
154.4900911912289
 20
94.40885973708002
 30
0.0
 10
154.9775311497113
 20
94.43131031272162
 30
0.0
 10
155.5091813027691
 20
94.43490620050238
 30
0.0
 10
156.0603019443152
 20
94.4178918707683
 30
0.0
 10
156.6077598272349
 20
94.37794623388781
 30
0.0
 10
157.1323940952998
 20
94.31883889377107
 30
0.0
 10
157.6141825305691
 20
94.24647393329712
 30
0.0
 10
158.0391309641857
 20
94.17015405219651
 30
0.0
 10
158.3853474205549
 20
94.09816865046979
 30
0.0
 10
158.6404257196591
 20
94.03978231703215
 30
0.0
 10
158.8006211065548
 20
94.00012241555606
 30
0.0
 10
158.8212551856897
 20
93.99529809501396
 30
0.0
 10
158.8314400938431
 20
93.99291682753395
 30
0.0
  0
SPLINE
  5
F7
330
1F
100
AcDbEntity
  8
0
  6
Continuous
 62
     7
370
    15
100
AcDbSpline
210
0.0
220
0.0
230
1.0
 70
     8
 71
     3
 72
    24
 73
    20
 74
     0
 42
0.00000001
 43
0.00000001
 12
1.0
 22
0.0
 32
0.0
 13
1.0
 23
0.0
 33
0.0
 40
0.0
 40
0.0
 40
0.0
 40
0.0
 40
0.0629034705483226
 40
0.1256338607442091
 40
0.1890239770438745
 40
0.2513957724609187
 40
0.3139907012378541
 40
0.3762905031717956
 40
0.437445869251289
 40
0.4985431897944718
 40
0.5603281700727016
 40
0.6223344218846381
 40
0.6838864714806576
 40
0.7458035625966988
 40
0.8089499562205668
 40
0.8723245987316539
 40
0.9353799512545002
 40
0.998863534782078
 40
1.0
 40
1.0
 40
1.0
 40
1.0
 10
158.8304413089139
 20
124.0761141657982
 30
0.0
 10
158.8209706203446
 20
124.0736909957013
 30
0.0
 10
158.8020553020244
 20
124.0688513229158
 30
0.0
 10
158.6400041930818
 20
124.0288805113057
 30
0.0
 10
158.3834789632305
 20
123.9705361021093
 30
0.0
 10
158.0374226294629
 20
123.8983013082889
 30
0.0
 10
157.6135233490873
 20
123.8221513031599
 30
0.0
 10
157.132540184928
 20
123.7500335019504
 30
0.0
 10
156.6085568438297
 20
123.6911450835839
 30
0.0
 10
156.0609588879152
 20
123.6512342742044
 30
0.0
 10
155.5094826459459
 20
123.6341973948853
 30
0.0
 10
154.97704140146
 20
123.6377611359128
 30
0.0
 10
154.4890592795643
 20
123.6601948085838
 30
0.0
 10
154.0615465422662
 20
123.6944841692107
 30
0.0
 10
153.712645002056
 20
123.7329881681511
 30
0.0
 10
153.4453909565628
 20
123.7674444114262
 30
0.0
 10
153.2924542081387
 20
123.7895267714059
 30
0.0
 10
153.2313512488826
 20
123.7993558044256
 30
0.0
 10
153.2489297536774
 20
123.7965919511853
 30
0.0
 10
153.2492389047794
 20
123.7965433436225
 30
0.0
  0
SPLINE
  5
F8
330
1F
100
AcDbEntity
  8
0
  6
Continuous
 62
     7
370
    15
100
AcDbSpline
210
0.0
220
0.0
230
1.0
 70
     8
 71
     3
 72
    26
 73
    22
 74
     0
 42
0.00000001
 43
0.00000001
 12
1.0
 22
0.0
 32
0.0
 13
1.0
 23
0.0
 33
0.0
 40
0.0
 40
0.0
 40
0.0
 40
0.0
 40
0.2500000000000002
 40
0.2500000000000002
 40
0.3750000000000001
 40
0.3750000000000001
 40
0.4375000000000012
 40
0.4375000000000012
 40
0.4687500000000012
 40
0.4687500000000012
 40
0.5000000000000011
 40
0.5000000000000011
 40
0.531250000000001
 40
0.531250000000001
 40
0.562500000000001
 40
0.562500000000001
 40
0.625000000000001
 40
0.625000000000001
 40
0.7500000000000009
 40
0.7500000000000009
 40
1.0
 40
1.0
 40
1.0
 40
1.0
 10
142.9251320466273
 20
121.4225952457572
 30
0.0
 10
142.8777439371988
 20
121.2869395037341
 30
0.0
 10
142.8201026352944
 20
121.1429781054049
 30
0.0
 10
142.6980548227511
 20
120.9002055321505
 30
0.0
 10
142.6520058149746
 20
120.8151658917011
 30
0.0
 10
142.561352530809
 20
120.6747899186608
 30
0.0
 10
142.5270000305233
 20
120.6248785413219
 30
0.0
 10
142.4645648581328
 20
120.5483432764677
 30
0.0
 10
142.4412708393348
 20
120.5219387974808
 30
0.0
 10
142.3922183022082
 20
120.4743440322197
 30
0.0
 10
142.3677868525514
 20
120.4549014183679
 30
0.0
 10
142.3271572569316
 20
120.4299936406998
 30
0.0
 10
142.3109949750804
 20
120.4239238093889
 30
0.0
 10
142.2840129309773
 20
120.4182349377951
 30
0.0
 10
142.2732634081545
 20
120.4186254458758
 30
0.0
 10
142.2452274339974
 20
120.4247677926643
 30
0.0
 10
142.2323662019647
 20
120.4354317990823
 30
0.0
 10
142.2013633408044
 20
120.4744445894425
 30
0.0
 10
142.1905038587353
 20
120.5104965798468
 30
0.0
 10
142.1672266027973
 20
120.6281759773459
 30
0.0
 10
142.1651620002393
 20
120.7195058776789
 30
0.0
 10
142.1651620002393
 20
120.8127461305851
 30
0.0
  0
SPLINE
  5
F9
330
1F
100
AcDbEntity
  8
0
  6
Continuous
 62
     7
370
    15
100
AcDbSpline
210
0.0
220
0.0
230
1.0
 70
     8
 71
     3
 72
    24
 73
    20
 74
     0
 42
0.00000001
 43
0.00000001
 12
1.0
 22
0.0
 32
0.0
 13
1.0
 23
0.0
 33
0.0
 40
0.0
 40
0.0
 40
0.0
 40
0.0
 40
0.250000000000002
 40
0.250000000000002
 40
0.3750000000000026
 40
0.3750000000000026
 40
0.4375000000000027
 40
0.4375000000000027
 40
0.5000000000000029
 40
0.5000000000000029
 40
0.5312500000000036
 40
0.5312500000000036
 40
0.5625000000000042
 40
0.5625000000000042
 40
0.6250000000000022
 40
0.6250000000000022
 40
0.750000000000001
 40
0.750000000000001
 40
1.0
 40
1.0
 40
1.0
 40
1.0
 10
142.1651620002394
 20
97.487001464923
 30
0.0
 10
142.1651620002394
 20
97.57191041859258
 30
0.0
 10
142.1678866286718
 20
97.65424011463945
 30
0.0
 10
142.1942439497898
 20
97.75665250205846
 30
0.0
 10
142.2064576680619
 20
97.78746959844287
 30
0.0
 10
142.2410683181943
 20
97.8165671145198
 30
0.0
 10
142.2554550285617
 20
97.82352475515843
 30
0.0
 10
142.2967035116641
 20
97.82241501388158
 30
0.0
 10
142.325243061595
 20
97.81412160827284
 30
0.0
 10
142.3861657271062
 20
97.76953817441161
 30
0.0
 10
142.4092316972462
 20
97.74907646115429
 30
0.0
 10
142.4531275772524
 20
97.70446384287395
 30
0.0
 10
142.4740076128126
 20
97.68058776466756
 30
0.0
 10
142.5312178761057
 20
97.61069066750555
 30
0.0
 10
142.5635644998821
 20
97.56511307872105
 30
0.0
 10
142.6497304433739
 20
97.43622959110218
 30
0.0
 10
142.6953944634139
 20
97.35639641397012
 30
0.0
 10
142.8159420268651
 20
97.13061560485781
 30
0.0
 10
142.8750021155663
 20
96.99578421988647
 30
0.0
 10
142.9251320466273
 20
96.86752908121895
 30
0.0
  0
LINE
  5
FA
330
1F
100
AcDbEntity
  8
0
  6
Continuous
 62
     7
370
    15
100
AcDbLine
 10
142.1651620002
 20
97.4870014649
 30
0.0
 11
142.1651620002
 21
120.8127461306
 31
0.0
  0
SPLINE
  5
FB
330
1F
100
AcDbEntity
  8
0
  6
Continuous
 62
     7
370
    15
100
AcDbSpline
210
0.0
220
0.0
230
1.0
 70
     8
 71
     3
 72
     8
 73
     4
 74
     0
 42
0.00000001
 43
0.00000001
 12
1.0
 22
0.0
 32
0.0
 13
1.0
 23
0.0
 33
0.0
 40
0.0
 40
0.0
 40
0.0
 40
0.0
 40
1.0
 40
1.0
 40
1.0
 40
1.0
 10
176.030002301346
 20
125.1459236672218
 30
0.0
 10
176.3694253426276
 20
124.4161328057024
 30
0.0
 10
176.7019360861227
 20
123.6839644502808
 30
0.0
 10
177.0251620002394
 20
122.9486025655998
 30
0.0
  0
LINE
  5
FC
330
1F
100
AcDbEntity
  8
0
  6
Continuous
 62
     7
370
    15
100
AcDbLine
 10
177.0251620002
 20
122.9486025656
 30
0.0
 11
177.0251620002
 21
122.5503618464
 31
0.0
  0
SPLINE
  5
FD
330
1F
100
AcDbEntity
  8
0
  6
Continuous
 62
     7
370
    15
100
AcDbSpline
210
0.0
220
0.0
230
1.0
 70
     8
 71
     3
 72
    12
 73
     8
 74
     0
 42
0.00000001
 43
0.00000001
 12
1.0
 22
0.0
 32
0.0
 13
1.0
 23
0.0
 33
0.0
 40
0.0
 40
0.0
 40
0.0
 40
0.0
 40
0.5
 40
0.5
 40
0.75
 40
0.75
 40
1.0
 40
1.0
 40
1.0
 40
1.0
 10
177.0251620002394
 20
122.5503618463991
 30
0.0
 10
177.0251620002394
 20
122.364595769821
 30
0.0
 10
177.071707745496
 20
122.1794224578307
 30
0.0
 10
177.2218086938857
 20
121.9450118544872
 30
0.0
 10
177.2857455101798
 20
121.8749159570751
 30
0.0
 10
177.4411132419094
 20
121.772235439271
 30
0.0
 10
177.5323565248273
 20
121.7415255262955
 30
0.0
 10
177.6251620002394
 20
121.7415255262955
 30
0.0
  0
LINE
  5
FE
330
1F
100
AcDbEntity
  8
0
  6
Continuous
 62
     7
370
    15
100
AcDbLine
 10
177.6251620002
 20
121.7415255263
 30
0.0
 11
178.5051620002
 21
121.7415255263
 31
0.0
  0
SPLINE
  5
FF
330
1F
100
AcDbEntity
  8
0
  6
Continuous
 62
     7
370
    15
100
AcDbSpline
210
0.0
220
0.0
230
1.0
 70
     8
 71
     3
 72
    12
 73
     8
 74
     0
 42
0.00000001
 43
0.00000001
 12
1.0
 22
0.0
 32
0.0
 13
1.0
 23
0.0
 33
0.0
 40
0.0
 40
0.0
 40
0.0
 40
0.0
 40
0.250000000000001
 40
0.250000000000001
 40
0.500000000000002
 40
0.500000000000002
 40
1.0
 40
1.0
 40
1.0
 40
1.0
 10
178.5051620002394
 20
121.7415255262956
 30
0.0
 10
178.5977039669612
 20
121.7415255262956
 30
0.0
 10
178.6899133441057
 20
121.7725588732118
 30
0.0
 10
178.8450503044825
 20
121.8753697390367
 30
0.0
 10
178.9088602019435
 20
121.9455425533823
 30
0.0
 10
179.0579866377446
 20
122.1784550369103
 30
0.0
 10
179.1051620002394
 20
122.3652503989802
 30
0.0
 10
179.1051620002394
 20
122.5503618463991
 30
0.0
  0
LINE
  5
100
330
1F
100
AcDbEntity
  8
0
  6
Continuous
 62
     7
370
    15
100
AcDbLine
 10
179.1051620002
 20
122.5503618464
 30
0.0
 11
179.1051620002
 21
122.9486025656
 31
0.0
  0
SPLINE
  5
101
330
1F
100
AcDbEntity
  8
0
  6
Continuous
 62
     7
370
    15
100
AcDbSpline
210
0.0
220
0.0
230
1.0
 70
     8
 71
     3
 72
     8
 73
     4
 74
     0
 42
0.00000001
 43
0.00000001
 12
1.0
 22
0.0
 32
0.0
 13
1.0
 23
0.0
 33
0.0
 40
0.0
 40
0.0
 40
0.0
 40
0.0
 40
1.0
 40
1.0
 40
1.0
 40
1.0
 10
179.1051620002394
 20
122.9486025655997
 30
0.0
 10
179.4287195584943
 20
123.6847189642223
 30
0.0
 10
179.7612138787113
 20
124.4168105596409
 30
0.0
 10
180.1003216991329
 20
125.1459236672218
 30
0.0
  0
LINE
  5
102
330
1F
100
AcDbEntity
  8
0
  6
Continuous
 62
     7
370
    15
100
AcDbLine
 10
180.1003216991
 20
125.1459236672
 30
0.0
 11
181.4151620002
 21
125.1459236672
 31
0.0
  0
SPLINE
  5
103
330
1F
100
AcDbEntity
  8
0
  6
Continuous
 62
     7
370
    15
100
AcDbSpline
210
0.0
220
0.0
230
1.0
 70
     8
 71
     3
 72
    12
 73
     8
 74
     0
 42
0.00000001
 43
0.00000001
 12
1.0
 22
0.0
 32
0.0
 13
1.0
 23
0.0
 33
0.0
 40
0.0
 40
0.0
 40
0.0
 40
0.0
 40
0.25
 40
0.25
 40
0.5
 40
0.5
 40
1.0
 40
1.0
 40
1.0
 40
1.0
 10
181.4151620002394
 20
125.1459236672218
 30
0.0
 10
181.5044503592832
 20
125.1459236672218
 30
0.0
 10
181.5925091901854
 20
125.120299034617
 30
0.0
 10
181.7451629034346
 20
125.0317556616852
 30
0.0
 10
181.8109563967766
 20
124.9688731785706
 30
0.0
 10
181.9663970434926
 20
124.751511990637
 30
0.0
 10
182.0151620002394
 20
124.5728649806257
 30
0.0
 10
182.0151620002394
 20
124.39477182545
 30
0.0
  0
LINE
  5
104
330
1F
100
AcDbEntity
  8
0
  6
Continuous
 62
     7
370
    15
100
AcDbLine
 10
182.0151620002
 20
124.3947718254
 30
0.0
 11
182.0151620002
 21
121.9119173546
 31
0.0
  0
SPLINE
  5
105
330
1F
100
AcDbEntity
  8
0
  6
Continuous
 62
     7
370
    15
100
AcDbSpline
210
0.0
220
0.0
230
1.0
 70
     8
 71
     3
 72
     8
 73
     4
 74
     0
 42
0.00000001
 43
0.00000001
 12
1.0
 22
0.0
 32
0.0
 13
1.0
 23
0.0
 33
0.0
 40
0.0
 40
0.0
 40
0.0
 40
0.0
 40
1.0
 40
1.0
 40
1.0
 40
1.0
 10
177.0251620002394
 20
126.7481913616746
 30
0.0
 10
176.6941416692198
 20
127.3397470581322
 30
0.0
 10
176.3623603977357
 20
127.9308797223775
 30
0.0
 10
176.030002301346
 20
128.5216899360494
 30
0.0
  0
LINE
  5
106
330
1F
100
AcDbEntity
  8
0
  6
Continuous
 62
     7
370
    15
100
AcDbLine
 10
177.0251620002
 20
122.9486025656
 30
0.0
 11
177.0251620002
 21
126.7481913617
 31
0.0
  0
LINE
  5
107
330
1F
100
AcDbEntity
  8
0
  6
Continuous
 62
     7
370
    15
100
AcDbLine
 10
181.4151620002
 20
128.521689936
 30
0.0
 11
180.1003216991
 21
128.521689936
 31
0.0
  0
LINE
  5
108
330
1F
100
AcDbEntity
  8
0
  6
Continuous
 62
     7
370
    15
100
AcDbLine
 10
180.1003216991
 20
125.1459236672
 30
0.0
 11
180.1003216991
 21
128.521689936
 31
0.0
  0
SPLINE
  5
109
330
1F
100
AcDbEntity
  8
0
  6
Continuous
 62
     7
370
    15
100
AcDbSpline
210
0.0
220
0.0
230
1.0
 70
     8
 71
     3
 72
    10
 73
     6
 74
     0
 42
0.00000001
 43
0.00000001
 12
1.0
 22
0.0
 32
0.0
 13
1.0
 23
0.0
 33
0.0
 40
0.0
 40
0.0
 40
0.0
 40
0.0
 40
0.5
 40
0.5
 40
1.0
 40
1.0
 40
1.0
 40
1.0
 10
182.0151620002395
 20
127.9053916992872
 30
0.0
 10
182.0151620002395
 20
128.0638261421751
 30
0.0
 10
181.9530007837565
 20
128.2228468369771
 30
0.0
 10
181.7324914430849
 20
128.4528546612327
 30
0.0
 10
181.5735763401397
 20
128.5216899360495
 30
0.0
 10
181.4151620002394
 20
128.5216899360495
 30
0.0
  0
LINE
  5
10A
330
1F
100
AcDbEntity
  8
0
  6
Continuous
 62
     7
370
    15
100
AcDbLine
 10
182.0151620002
 20
124.3947718254
 30
0.0
 11
182.0151620002
 21
127.9053916993
 31
0.0
  0
SPLINE
  5
10B
330
1F
100
AcDbEntity
  8
0
  6
Continuous
 62
     7
370
    15
100
AcDbSpline
210
0.0
220
0.0
230
1.0
 70
     8
 71
     3
 72
     8
 73
     4
 74
     0
 42
0.00000001
 43
0.00000001
 12
1.0
 22
0.0
 32
0.0
 13
1.0
 23
0.0
 33
0.0
 40
0.0
 40
0.0
 40
0.0
 40
0.0
 40
1.0
 40
1.0
 40
1.0
 40
1.0
 10
180.1003216991329
 20
128.5216899360494
 30
0.0
 10
179.7679636027432
 20
127.9308797223774
 30
0.0
 10
179.4361823312591
 20
127.3397470581322
 30
0.0
 10
179.1051620002394
 20
126.7481913616746
 30
0.0
  0
LINE
  5
10C
330
1F
100
AcDbEntity
  8
0
  6
Continuous
 62
     7
370
    15
100
AcDbLine
 10
179.1051620002
 20
122.9486025656
 30
0.0
 11
179.1051620002
 21
126.7481913617
 31
0.0
  0
SPLINE
  5
10D
330
1F
100
AcDbEntity
  8
0
  6
Continuous
 62
     7
370
    15
100
AcDbSpline
210
0.0
220
0.0
230
1.0
 70
     8
 71
     3
 72
    10
 73
     6
 74
     0
 42
0.00000001
 43
0.00000001
 12
1.0
 22
0.0
 32
0.0
 13
1.0
 23
0.0
 33
0.0
 40
0.0
 40
0.0
 40
0.0
 40
0.0
 40
0.5
 40
0.5
 40
1.0
 40
1.0
 40
1.0
 40
1.0
 10
177.2735063859894
 20
125.9345146661444
 30
0.0
 10
177.1961816541152
 20
125.992396667006
 30
0.0
 10
177.1328018285787
 20
126.0694700116399
 30
0.0
 10
177.0472313798056
 20
126.2439730698337
 30
0.0
 10
177.0251620002394
 20
126.3407782733142
 30
0.0
 10
177.0251620002394
 20
126.4371186379642
 30
0.0
  0
SPLINE
  5
10E
330
1F
100
AcDbEntity
  8
0
  6
Continuous
 62
     7
370
    15
100
AcDbSpline
210
0.0
220
0.0
230
1.0
 70
    24
 71
     3
 72
    12
 73
     8
 74
     0
 42
0.00000001
 43
0.00000001
 12
1.0
 22
0.0
 32
0.0
 13
1.0
 23
0.0
 33
0.0
 40
0.0
 40
0.0
 40
0.0
 40
0.0
 40
0.2499999999999991
 40
0.2499999999999991
 40
0.4999999999999982
 40
0.4999999999999982
 40
1.0
 40
1.0
 40
1.0
 40
1.0
 10
177.6251620002394
 20
125.9345146661443
 30
0.0
 10
177.5735697999649
 20
125.9345146661443
 30
0.0
 10
177.5266647911703
 20
125.9345146661443
 30
0.0
 10
177.4533310652938
 20
125.9345146661443
 30
0.0
 10
177.4241012358448
 20
125.9345146661443
 30
0.0
 10
177.3458684557818
 20
125.9345146661443
 30
0.0
 10
177.3074342978742
 20
125.9345146661443
 30
0.0
 10
177.2735063859894
 20
125.9345146661443
 30
0.0
  0
SPLINE
  5
10F
330
1F
100
AcDbEntity
  8
0
  6
Continuous
 62
     7
370
    15
100
AcDbSpline
210
0.0
220
0.0
230
1.0
 70
    24
 71
     3
 72
    12
 73
     8
 74
     0
 42
0.00000001
 43
0.00000001
 12
1.0
 22
0.0
 32
0.0
 13
1.0
 23
0.0
 33
0.0
 40
0.0
 40
0.0
 40
0.0
 40
0.0
 40
0.4999999999999982
 40
0.4999999999999982
 40
0.7499999999999991
 40
0.7499999999999991
 40
1.0
 40
1.0
 40
1.0
 40
1.0
 10
178.8568176144895
 20
125.9345146661443
 30
0.0
 10
178.8226718661985
 20
125.9345146661443
 30
0.0
 10
178.7834787077934
 20
125.9345146661443
 30
0.0
 10
178.7056310491397
 20
125.9345146661443
 30
0.0
 10
178.6762265903544
 20
125.9345146661443
 30
0.0
 10
178.6032190690485
 20
125.9345146661443
 30
0.0
 10
178.5563137512407
 20
125.9345146661443
 30
0.0
 10
178.5051620002394
 20
125.9345146661443
 30
0.0
  0
SPLINE
  5
110
330
1F
100
AcDbEntity
  8
0
  6
Continuous
 62
     7
370
    15
100
AcDbSpline
210
0.0
220
0.0
230
1.0
 70
     8
 71
     3
 72
    10
 73
     6
 74
     0
 42
0.00000001
 43
0.00000001
 12
1.0
 22
0.0
 32
0.0
 13
1.0
 23
0.0
 33
0.0
 40
0.0
 40
0.0
 40
0.0
 40
0.0
 40
0.5
 40
0.5
 40
1.0
 40
1.0
 40
1.0
 40
1.0
 10
179.1051620002394
 20
126.4371186379631
 30
0.0
 10
179.1051620002393
 20
126.3405760904866
 30
0.0
 10
179.0832213776578
 20
126.2441148902164
 30
0.0
 10
178.9970911922659
 20
126.0687122959721
 30
0.0
 10
178.9340088851223
 20
125.9922967636051
 30
0.0
 10
178.8568176144895
 20
125.9345146661444
 30
0.0
  0
LINE
  5
111
330
1F
100
AcDbEntity
  8
0
  6
Continuous
 62
     7
370
    15
100
AcDbLine
 10
178.5051620002
 20
125.9345146661
 30
0.0
 11
177.6251620002
 21
125.9345146661
 31
0.0
  0
LINE
  5
112
330
1F
100
AcDbEntity
  8
0
  6
Continuous
 62
     7
370
    15
100
AcDbLine
 10
142.1651620002
 20
97.2160423934
 30
0.0
 11
142.1651620002
 21
97.4870014649
 31
0.0
  0
LINE
  5
113
330
1F
100
AcDbEntity
  8
0
  6
Continuous
 62
     7
370
    15
100
AcDbLine
 10
142.1651620002
 20
120.9084288035
 30
0.0
 11
142.1651620002
 21
120.8127461306
 31
0.0
  0
CIRCLE
  5
114
330
1F
100
AcDbEntity
  8
0
  6
Continuous
 62
     7
370
    15
100
AcDbCircle
 10
201.5820650853
 20
114.9712824762
 30
0.0
 40
3.476487220717078
  0
LINE
  5
115
330
1F
100
AcDbEntity
  8
0
  6
Continuous
 62
     7
370
    15
100
AcDbLine
 10
203.7596145385
 20
134.8239373585
 30
0.0
 11
195.9204970826
 21
121.9885848437
 31
0.0
  0
ARC
  5
116
330
1F
100
AcDbEntity
  8
0
  6
Continuous
 62
     7
370
    15
100
AcDbCircle
 10
197.7108368026
 20
120.8957824122
 30
0.0
 40
2.097506487969409
100
AcDbArc
 50
148.6005969029
 51
327.6987031269
  0
LINE
  5
117
330
1F
100
AcDbEntity
  8
0
  6
Continuous
 62
     7
370
    15
100
AcDbLine
 10
199.4837536122
 20
119.7749347627
 30
0.0
 11
201.1026676619
 21
122.4256582194
 31
0.0
  0
LINE
  5
118
330
1F
100
AcDbEntity
  8
0
  6
Continuous
 62
     7
370
    15
100
AcDbLine
 10
201.1026676619
 20
122.4256582194
 30
0.0
 11
204.1808095766
 21
122.5874330373
 31
0.0
  0
ELLIPSE
  5
119
330
1F
100
AcDbEntity
  8
0
  6
Continuous
 62
     7
370
    15
100
AcDbEllipse
 10
205.9138023752
 20
124.9713858208
 30
0.0
 11
1.117369468718522
 21
2.767460135615096
 31
0.0
210
0.0
220
0.0
230
1.0
 40
0.8354536075
 41
2.850994067038176
 42
4.175017130553403
  0
LINE
  5
11A
330
1F
100
AcDbEntity
  8
0
  6
Continuous
 62
     7
370
    15
100
AcDbLine
 10
207.3280555481
 20
122.7528396879
 30
0.0
 11
211.0306063953
 21
122.9474309399
 31
0.0
  0
ARC
  5
11B
330
1F
100
AcDbEntity
  8
0
  6
Continuous
 62
     7
370
    15
100
AcDbCircle
 10
234.117549689
 20
111.6725680645
 30
0.0
 40
25.69298510305704
100
AcDbArc
 50
153.9707202892
 51
180.7715218175
  0
LINE
  5
11C
330
1F
100
AcDbEntity
  8
0
  6
Continuous
 62
     7
370
    15
100
AcDbLine
 10
208.426893906
 20
111.3266071633
 30
0.0
 11
208.441181716
 21
110.208751154
 31
0.0
  0
LINE
  5
11D
330
1F
100
AcDbEntity
  8
0
  6
Continuous
 62
     7
370
    15
100
AcDbLine
 10
208.441181716
 20
110.208751154
 30
0.0
 11
196.480897362
 21
94.027666658
 31
0.0
  0
SPLINE
  5
11E
330
1F
100
AcDbEntity
  8
0
  6
Continuous
 62
     7
370
    15
100
AcDbSpline
210
0.0
220
0.0
230
1.0
 70
     8
 71
     3
 72
     8
 73
     4
 74
     0
 42
0.00000001
 43
0.00000001
 12
1.0
 22
0.0
 32
0.0
 13
1.0
 23
0.0
 33
0.0
 40
0.0
 40
0.0
 40
0.0
 40
0.0
 40
1.0
 40
1.0
 40
1.0
 40
1.0
 10
196.2978350122605
 20
94.0553479962603
 30
0.0
 10
196.3601276902363
 20
94.05196000534197
 30
0.0
 10
196.4211174318889
 20
94.04259038417831
 30
0.0
 10
196.480897362027
 20
94.027666658015
 30
0.0
  0
SPLINE
  5
11F
330
1F
100
AcDbEntity
  8
0
  6
Continuous
 62
     7
370
    15
100
AcDbSpline
210
0.0
220
0.0
230
1.0
 70
     8
 71
     3
 72
    12
 73
     8
 74
     0
 42
0.00000001
 43
0.00000001
 12
1.0
 22
0.0
 32
0.0
 13
1.0
 23
0.0
 33
0.0
 40
0.0
 40
0.0
 40
0.0
 40
0.0
 40
0.2500000000000001
 40
0.2500000000000001
 40
0.5000000000000001
 40
0.5000000000000001
 40
1.0
 40
1.0
 40
1.0
 40
1.0
 10
197.2637608385496
 20
125.9269833043714
 30
0.0
 10
197.2357002719894
 20
125.8170302220085
 30
0.0
 10
197.1918442222108
 20
125.7142933923956
 30
0.0
 10
197.0730600032289
 20
125.5230152005797
 30
0.0
 10
196.99969930067
 20
125.4376273874923
 30
0.0
 10
196.7434072974867
 20
125.2204454805149
 30
0.0
 10
196.5251903204738
 20
125.1314512030277
 30
0.0
 10
196.2978350122613
 20
125.1249217163736
 30
0.0
  0
SPLINE
  5
120
330
1F
100
AcDbEntity
  8
0
  6
Continuous
 62
     7
370
    15
100
AcDbSpline
210
0.0
220
0.0
230
1.0
 70
     8
 71
     3
 72
     8
 73
     4
 74
     0
 42
0.00000001
 43
0.00000001
 12
1.0
 22
0.0
 32
0.0
 13
1.0
 23
0.0
 33
0.0
 40
0.0
 40
0.0
 40
0.0
 40
0.0
 40
1.0
 40
1.0
 40
1.0
 40
1.0
 10
197.2637608385496
 20
125.9269833043714
 30
0.0
 10
198.0026143602093
 20
128.8221216454678
 30
0.0
 10
198.7595856209329
 20
131.7123000435117
 30
0.0
 10
199.5212737862929
 20
134.601187133722
 30
0.0
  0
LINE
  5
121
330
1F
100
AcDbEntity
  8
0
  6
Continuous
 62
     7
370
    15
100
AcDbLine
 10
199.5212737863
 20
134.6011871337
 30
0.0
 11
203.7596145385
 21
134.8239373585
 31
0.0
  0
SPLINE
  5
122
330
1F
100
AcDbEntity
  8
0
  6
Continuous
 62
     7
370
    15
100
AcDbSpline
210
0.0
220
0.0
230
1.0
 70
     8
 71
     3
 72
     8
 73
     4
 74
     0
 42
0.00000001
 43
0.00000001
 12
1.0
 22
0.0
 32
0.0
 13
1.0
 23
0.0
 33
0.0
 40
0.0
 40
0.0
 40
0.0
 40
0.0
 40
1.0
 40
1.0
 40
1.0
 40
1.0
 10
196.2978350122605
 20
93.8145428428702
 30
0.0
 10
196.3603053478148
 20
93.88760078884111
 30
0.0
 10
196.4212259270048
 20
93.9585026527131
 30
0.0
 10
196.4808973620271
 20
94.02766665801515
 30
0.0
  0
LINE
  5
123
330
1F
100
AcDbEntity
  8
0
  6
Continuous
 62
     7
370
    15
100
AcDbLine
 10
143.1151620002
 20
121.9145146661
 30
0.0
 11
143.1151620002
 21
121.9000952131
 31
0.0
  0
LINE
  5
124
330
1F
100
AcDbEntity
  8
0
  6
Continuous
 62
     7
370
    15
100
AcDbLine
 10
142.1651620002
 20
120.9645146661
 30
0.0
 11
142.1651620002
 21
120.9084288035
 31
0.0
  0
LINE
  5
125
330
1F
100
AcDbEntity
  8
0
  6
Continuous
 62
     7
370
    15
100
AcDbLine
 10
143.1151620002
 20
96.2135146661
 30
0.0
 11
143.1151620002
 21
96.3039791152
 31
0.0
  0
LINE
  5
126
330
1F
100
AcDbEntity
  8
0
  6
Continuous
 62
     7
370
    15
100
AcDbLine
 10
142.1651620002
 20
97.1635146661
 30
0.0
 11
142.1651620002
 21
97.2160423934
 31
0.0
  0
LINE
  5
127
330
1F
100
AcDbEntity
  8
0
  6
Continuous
 62
     7
370
    15
100
AcDbLine
 10
198.416427653
 20
118.9105639808
 30
0.0
 11
199.9790323157
 21
121.4690894525
 31
0.0
  0
LINE
  5
128
330
1F
100
AcDbEntity
  8
0
  6
Continuous
 62
     7
370
    15
100
AcDbLine
 10
199.9790323157
 20
121.4690894525
 30
0.0
 11
201.1026676619
 21
122.4256582194
 31
0.0
  0
SPLINE
  5
129
330
1F
100
AcDbEntity
  8
0
  6
Continuous
 62
     7
370
    15
100
AcDbSpline
210
0.0
220
0.0
230
1.0
 70
     8
 71
     3
 72
     9
 73
     5
 74
     0
 42
0.00000001
 43
0.00000001
 12
1.0
 22
0.0
 32
0.0
 13
1.0
 23
0.0
 33
0.0
 40
0.0
 40
0.0
 40
0.0
 40
0.0
 40
0.2108072862326786
 40
1.0
 40
1.0
 40
1.0
 40
1.0
 10
199.4422596210103
 20
134.3767124898538
 30
0.0
 10
199.4437331030744
 20
134.3922336634487
 30
0.0
 10
199.450722814343
 20
134.4658609743081
 30
0.0
 10
199.4901545487823
 20
134.5414962920537
 30
0.0
 10
199.5212737862929
 20
134.601187133722
 30
0.0
  0
LINE
  5
12A
330
1F
100
AcDbEntity
  8
0
  6
HIDDEN
 62
     7
370
     0
100
AcDbLine
 10
170.0151620002
 20
89.0345146661
 30
0.0
 11
170.0151620002
 21
89.0595303107
 31
0.0
  0
SPLINE
  5
12B
330
1F
100
AcDbEntity
  8
0
  6
HIDDEN
 62
     7
370
     0
100
AcDbSpline
210
0.0
220
0.0
230
1.0
 70
     8
 71
     3
 72
    22
 73
    18
 74
     0
 42
0.00000001
 43
0.00000001
 12
1.0
 22
0.0
 32
0.0
 13
1.0
 23
0.0
 33
0.0
 40
0.0
 40
0.0
 40
0.0
 40
0.0
 40
0.125
 40
0.125
 40
0.25
 40
0.25
 40
0.375
 40
0.375
 40
0.5
 40
0.5
 40
0.625
 40
0.625
 40
0.75
 40
0.75
 40
0.875
 40
0.875
 40
1.0
 40
1.0
 40
1.0
 40
1.0
 10
170.0151620002395
 20
89.05953031070614
 30
0.0
 10
170.0151620002395
 20
89.07448590331546
 30
0.0
 10
170.0446104213696
 20
89.09587409996186
 30
0.0
 10
170.1594482875935
 20
89.15025234657718
 30
0.0
 10
170.2462611261312
 20
89.18369851018555
 30
0.0
 10
170.4719084984272
 20
89.25846278558329
 30
0.0
 10
170.6097456400913
 20
89.29956127454422
 30
0.0
 10
170.9349465999957
 20
89.38611420350799
 30
0.0
 10
171.1236488799037
 20
89.43176510260588
 30
0.0
 10
171.535980600136
 20
89.52004465777073
 30
0.0
 10
171.7611275264878
 20
89.56314600777799
 30
0.0
 10
172.2511033778451
 20
89.64335018763325
 30
0.0
 10
172.511811019967
 20
89.6796450350228
 30
0.0
 10
173.0526684006826
 20
89.73982425417252
 30
0.0
 10
173.3363590267367
 20
89.76411159160362
 30
0.0
 10
173.9204413976661
 20
89.79710968591498
 30
0.0
 10
174.216008952658
 20
89.80563014311491
 30
0.0
 10
174.5151620002394
 20
89.80563014311491
 30
0.0
  0
LINE
  5
12C
330
1F
100
AcDbEntity
  8
0
  6
HIDDEN
 62
     7
370
     0
100
AcDbLine
 10
174.5151620002
 20
89.8056301431
 30
0.0
 11
176.0300023013
 21
89.8056301431
 31
0.0
  0
LINE
  5
12D
330
1F
100
AcDbEntity
  8
0
  6
HIDDEN
 62
     7
370
     0
100
AcDbLine
 10
176.0300023013
 20
128.521689936
 30
0.0
 11
176.0300023013
 21
89.8056301431
 31
0.0
  0
LINE
  5
12E
330
1F
100
AcDbEntity
  8
0
  6
HIDDEN
 62
     7
370
     0
100
AcDbLine
 10
174.5151620002
 20
128.521689936
 30
0.0
 11
176.0300023013
 21
128.521689936
 31
0.0
  0
SPLINE
  5
12F
330
1F
100
AcDbEntity
  8
0
  6
HIDDEN
 62
     7
370
     0
100
AcDbSpline
210
0.0
220
0.0
230
1.0
 70
     8
 71
     3
 72
    24
 73
    20
 74
     0
 42
0.00000001
 43
0.00000001
 12
1.0
 22
0.0
 32
0.0
 13
1.0
 23
0.0
 33
0.0
 40
0.0
 40
0.0
 40
0.0
 40
0.0
 40
0.0117102218236205
 40
0.0659851369986855
 40
0.1695414257225515
 40
0.2219100373958482
 40
0.2751524219645933
 40
0.3795103741131887
 40
0.4323121669452931
 40
0.4859401179842243
 40
0.5388780442886594
 40
0.5921792519945865
 40
0.646630085825484
 40
0.701481452614634
 40
0.7545454031779252
 40
0.8079888667925093
 40
0.8626445879582346
 40
0.9177258756784342
 40
1.0
 40
1.0
 40
1.0
 40
1.0
 10
170.0178921358289
 20
129.0339008893708
 30
0.0
 10
170.0170562095936
 20
129.0340887858381
 30
0.0
 10
170.0123459053834
 20
129.0351475509347
 30
0.0
 10
170.0445239325123
 20
129.0279105780131
 30
0.0
 10
170.1326281175243
 20
129.0082323666937
 30
0.0
 10
170.2831043607338
 20
128.9758046323769
 30
0.0
 10
170.4716829655171
 20
128.9363429143026
 30
0.0
 10
170.7167804948625
 20
128.8875833200427
 30
0.0
 10
171.0120039979423
 20
128.8336101089405
 30
0.0
 10
171.2594447828154
 20
128.7912305949245
 30
0.0
 10
171.5302372889674
 20
128.7483213362218
 30
0.0
 10
171.8233010356828
 20
128.7059605300621
 30
0.0
 10
172.1393180018088
 20
128.6650871903274
 30
0.0
 10
172.4724195860081
 20
128.6274871387968
 30
0.0
 10
172.818356059502
 20
128.594401311831
 30
0.0
 10
173.1762334997458
 20
128.5664701571218
 30
0.0
 10
173.5487461964274
 20
128.5445198962772
 30
0.0
 10
173.9958129982441
 20
128.5260855412654
 30
0.0
 10
174.320611735899
 20
128.5233365477757
 30
0.0
 10
174.5151620002394
 20
128.5216899360494
 30
0.0
  0
SPLINE
  5
130
330
1F
100
AcDbEntity
  8
0
  6
HIDDEN
 62
     7
370
     0
100
AcDbSpline
210
0.0
220
0.0
230
1.0
 70
     8
 71
     3
 72
    76
 73
    72
 74
     0
 42
0.00000001
 43
0.00000001
 12
1.0
 22
0.0
 32
0.0
 13
1.0
 23
0.0
 33
0.0
 40
-0.0312499999999999
 40
-0.0312499999999999
 40
0.0
 40
0.0
 40
0.0312500000000001
 40
0.0312500000000001
 40
0.0625000000000002
 40
0.0625000000000002
 40
0.0937500000000004
 40
0.0937500000000004
 40
0.1250000000000005
 40
0.1250000000000005
 40
0.1562500000000006
 40
0.1562500000000006
 40
0.1875000000000007
 40
0.1875000000000007
 40
0.2031250000000007
 40
0.2031250000000007
 40
0.2187500000000008
 40
0.2187500000000008
 40
0.2500000000000008
 40
0.2500000000000008
 40
0.2812500000000009
 40
0.2812500000000009
 40
0.312500000000001
 40
0.312500000000001
 40
0.3437500000000011
 40
0.3437500000000011
 40
0.3750000000000011
 40
0.3750000000000011
 40
0.4062500000000012
 40
0.4062500000000012
 40
0.4375000000000013
 40
0.4375000000000013
 40
0.4687500000000013
 40
0.4687500000000013
 40
0.4843750000000013
 40
0.4843750000000013
 40
0.5000000000000013
 40
0.5000000000000013
 40
0.5312500000000013
 40
0.5312500000000013
 40
0.5625000000000013
 40
0.5625000000000013
 40
0.5937500000000013
 40
0.5937500000000013
 40
0.6250000000000013
 40
0.6250000000000013
 40
0.6562500000000013
 40
0.6562500000000013
 40
0.6875000000000013
 40
0.6875000000000013
 40
0.7187500000000013
 40
0.7187500000000013
 40
0.7343750000000013
 40
0.7343750000000013
 40
0.7500000000000012
 40
0.7500000000000012
 40
0.7812500000000011
 40
0.7812500000000011
 40
0.8125000000000009
 40
0.8125000000000009
 40
0.8437500000000007
 40
0.8437500000000007
 40
0.8750000000000004
 40
0.8750000000000004
 40
0.9062500000000003
 40
0.9062500000000003
 40
0.9375000000000002
 40
0.9375000000000002
 40
0.9687500000000001
 40
0.9687500000000001
 40
1.0
 40
1.0
 40
1.03125
 40
1.03125
 10
164.0651620002394
 20
109.3662493101901
 30
0.0
 10
164.0651620002394
 20
108.7027800220986
 30
0.0
 10
164.0978469359574
 20
108.3768455595859
 30
0.0
 10
164.2256711779682
 20
107.736024703643
 30
0.0
 10
164.3224494512238
 20
107.4177392616007
 30
0.0
 10
164.5739021252083
 20
106.8128329233507
 30
0.0
 10
164.7275823059032
 20
106.5261496066268
 30
0.0
 10
165.0904148292173
 20
105.9836331864769
 30
0.0
 10
165.3006777863743
 20
105.7278400978828
 30
0.0
 10
165.7599814667966
 20
105.2687186363283
 30
0.0
 10
166.0108223261722
 20
105.0622425786993
 30
0.0
 10
166.5568537186381
 20
104.696735747651
 30
0.0
 10
166.8457248313375
 20
104.5422995430325
 30
0.0
 10
167.296474287487
 20
104.3549614514119
 30
0.0
 10
167.4499606031599
 20
104.2997494310511
 30
0.0
 10
167.7635895067245
 20
104.2041123610872
 30
0.0
 10
167.9246936908576
 20
104.1635338960987
 30
0.0
 10
168.4091905588598
 20
104.0668001035382
 30
0.0
 10
168.7344716284756
 20
104.0347223812997
 30
0.0
 10
169.3895410014019
 20
104.0343089426591
 30
0.0
 10
169.722362334036
 20
104.0670873689367
 30
0.0
 10
170.3646709307617
 20
104.1952458400427
 30
0.0
 10
170.676992412208
 20
104.2900496343878
 30
0.0
 10
171.2839717267612
 20
104.5417617114405
 30
0.0
 10
171.5745317452635
 20
104.697621836549
 30
0.0
 10
172.1147212794703
 20
105.0588682866113
 30
0.0
 10
172.3687260294178
 20
105.2670578006283
 30
0.0
 10
172.8319500412943
 20
105.7301880506036
 30
0.0
 10
173.0379167221613
 20
105.9811582677728
 30
0.0
 10
173.399970628857
 20
106.5215085918796
 30
0.0
 10
173.5571165553178
 20
106.8143551298197
 30
0.0
 10
173.8078522692384
 20
107.4178350120492
 30
0.0
 10
173.9030221601494
 20
107.7295558960196
 30
0.0
 10
173.9998526428208
 20
108.2124560662489
 30
0.0
 10
174.0244778900111
 20
108.3769701340751
 30
0.0
 10
174.0570205941982
 20
108.7050807818575
 30
0.0
 10
174.0650923620762
 20
108.8688699407803
 30
0.0
 10
174.0652999339091
 20
109.3594574877461
 30
0.0
 10
174.03366461512
 20
109.6854832058811
 30
0.0
 10
173.9043242208855
 20
110.3353940902546
 30
0.0
 10
173.8088243671924
 20
110.6481991011344
 30
0.0
 10
173.5590842092769
 20
111.250586254901
 30
0.0
 10
173.4026237128499
 20
111.5431096554964
 30
0.0
 10
173.0395202088742
 20
112.0859241369335
 30
0.0
 10
172.8335941586447
 20
112.3368170292147
 30
0.0
 10
172.3728794748907
 20
112.7981946389275
 30
0.0
 10
172.1170959963025
 20
113.008338347626
 30
0.0
 10
171.5771228268452
 20
113.3699072173936
 30
0.0
 10
171.2905421142387
 20
113.5240757473947
 30
0.0
 10
170.682403429516
 20
113.7771938154747
 30
0.0
 10
170.3676633947779
 20
113.8729019790951
 30
0.0
 10
169.8876885874444
 20
113.9690942259007
 30
0.0
 10
169.7259639389311
 20
113.9933794412667
 30
0.0
 10
169.3989656235555
 20
114.026064946487
 30
0.0
 10
169.232713822624
 20
114.0344272989584
 30
0.0
 10
168.7379416801134
 20
114.0346873289559
 30
0.0
 10
168.4125020395597
 20
114.0025358761452
 30
0.0
 10
167.770213971775
 20
113.8750011469506
 30
0.0
 10
167.45104741183
 20
113.7780617164151
 30
0.0
 10
166.8478713684593
 20
113.5278682886482
 30
0.0
 10
166.5607388572309
 20
113.374489694226
 30
0.0
 10
166.0153945666333
 20
113.0102456837718
 30
0.0
 10
165.7616111232254
 20
112.8017203331862
 30
0.0
 10
165.3024182844476
 20
112.3431468101099
 30
0.0
 10
165.0935583570154
 20
112.089658380604
 30
0.0
 10
164.7285462345015
 20
111.5447541597439
 30
0.0
 10
164.5749192057482
 20
111.2580215574537
 30
0.0
 10
164.3242286918807
 20
110.6561849824773
 30
0.0
 10
164.2267827812271
 20
110.3376122086582
 30
0.0
 10
164.0978560716283
 20
109.6931864234408
 30
0.0
 10
164.0651620002394
 20
109.3662493101901
 30
0.0
 10
164.0651620002394
 20
108.7027800220986
 30
0.0
  0
LINE
  5
131
330
1F
100
AcDbEntity
  8
0
  6
HIDDEN
 62
     7
370
     0
100
AcDbLine
 10
162.0651620002
 20
128.7345146607
 30
0.0
 11
162.0651620002
 21
89.3345146661
 31
0.0
  0
SPLINE
  5
132
330
1F
100
AcDbEntity
  8
0
  6
HIDDEN
 62
     7
370
     0
100
AcDbSpline
210
0.0
220
0.0
230
1.0
 70
     8
 71
     3
 72
    10
 73
     6
 74
     0
 42
0.00000001
 43
0.00000001
 12
1.0
 22
0.0
 32
0.0
 13
1.0
 23
0.0
 33
0.0
 40
0.0
 40
0.0
 40
0.0
 40
0.0
 40
0.5
 40
0.5
 40
1.0
 40
1.0
 40
1.0
 40
1.0
 10
179.1051620002394
 20
91.92163574411605
 30
0.0
 10
179.1051620002394
 20
91.95785823355668
 30
0.0
 10
179.102192270942
 20
91.99405143081513
 30
0.0
 10
179.0903132885942
 20
92.06568992222977
 30
0.0
 10
179.0815180607535
 20
92.10056324687137
 30
0.0
 10
179.0699395996583
 20
92.1345146661437
 30
0.0
  0
LINE
  5
133
330
1F
100
AcDbEntity
  8
0
  6
HIDDEN
 62
     7
370
     0
100
AcDbLine
 10
179.1051620002
 20
91.9216357441
 30
0.0
 11
179.1051620002
 21
120.8845146661
 31
0.0
  0
SPLINE
  5
134
330
1F
100
AcDbEntity
  8
0
  6
HIDDEN
 62
     7
370
     0
100
AcDbSpline
210
0.0
220
0.0
230
1.0
 70
     8
 71
     3
 72
    10
 73
     6
 74
     0
 42
0.00000001
 43
0.00000001
 12
1.0
 22
0.0
 32
0.0
 13
1.0
 23
0.0
 33
0.0
 40
0.0
 40
0.0
 40
0.0
 40
0.0
 40
0.5
 40
0.5
 40
1.0
 40
1.0
 40
1.0
 40
1.0
 10
177.0603844008208
 20
92.13451466614434
 30
0.0
 10
177.0486722838577
 20
92.10017132895037
 30
0.0
 10
177.0398742139856
 20
92.06507879121214
 30
0.0
 10
177.0280606562135
 20
91.99340701582142
 30
0.0
 10
177.0251620002394
 20
91.95746336145613
 30
0.0
 10
177.0251620002394
 20
91.92163574411603
 30
0.0
  0
LINE
  5
135
330
1F
100
AcDbEntity
  8
0
  6
HIDDEN
 62
     7
370
     0
100
AcDbLine
 10
177.0251620002
 20
91.9216357441
 30
0.0
 11
177.0251620002
 21
120.8845146661
 31
0.0
  0
SPLINE
  5
136
330
1F
100
AcDbEntity
  8
0
  6
HIDDEN
 62
     7
370
     0
100
AcDbSpline
210
0.0
220
0.0
230
1.0
 70
     8
 71
     3
 72
     9
 73
     5
 74
     0
 42
0.00000001
 43
0.00000001
 12
1.0
 22
0.0
 32
0.0
 13
1.0
 23
0.0
 33
0.0
 40
0.0
 40
0.0
 40
0.0
 40
0.0
 40
0.5
 40
1.0
 40
1.0
 40
1.0
 40
1.0
 10
182.0152241233627
 20
125.9345146661444
 30
0.0
 10
182.0152034106594
 20
125.9364375344782
 30
0.0
 10
182.015172349341
 20
125.9402828234671
 30
0.0
 10
182.0151620002395
 20
125.9441272177876
 30
0.0
 10
182.0151620002394
 20
125.9460491914321
 30
0.0
  0
SPLINE
  5
137
330
1F
100
AcDbEntity
  8
0
  6
HIDDEN
 62
     7
370
     0
100
AcDbSpline
210
0.0
220
0.0
230
1.0
 70
    24
 71
     3
 72
    14
 73
    10
 74
     0
 42
0.00000001
 43
0.00000001
 12
1.0
 22
0.0
 32
0.0
 13
1.0
 23
0.0
 33
0.0
 40
0.0
 40
0.0
 40
0.0
 40
0.0
 40
0.5
 40
0.5
 40
0.75
 40
0.75
 40
0.875
 40
0.875
 40
1.0
 40
1.0
 40
1.0
 40
1.0
 10
182.0152241233628
 20
125.9345146661443
 30
0.0
 10
182.0173774561834
 20
125.9345146661443
 30
0.0
 10
182.0725949189125
 20
125.9345146661443
 30
0.0
 10
182.147554049246
 20
125.9345146661443
 30
0.0
 10
182.1714516254992
 20
125.9345146661443
 30
0.0
 10
182.1968857025599
 20
125.9345146661443
 30
0.0
 10
182.2036480575733
 20
125.9345146661443
 30
0.0
 10
182.2127889135403
 20
125.9345146661443
 30
0.0
 10
182.2151620002394
 20
125.9345146661443
 30
0.0
 10
182.2151620002394
 20
125.9345146661443
 30
0.0
  0
SPLINE
  5
138
330
1F
100
AcDbEntity
  8
0
  6
HIDDEN
 62
     7
370
     0
100
AcDbSpline
210
0.0
220
0.0
230
1.0
 70
     8
 71
     3
 72
     9
 73
     5
 74
     0
 42
0.00000001
 43
0.00000001
 12
1.0
 22
0.0
 32
0.0
 13
1.0
 23
0.0
 33
0.0
 40
0.0
 40
0.0
 40
0.0
 40
0.0
 40
0.5
 40
1.0
 40
1.0
 40
1.0
 40
1.0
 10
182.0151620002394
 20
125.9460491914321
 30
0.0
 10
182.0151620002394
 20
125.9441260669491
 30
0.0
 10
182.0151723617371
 20
125.9402805221042
 30
0.0
 10
182.015203423053
 20
125.9364363839266
 30
0.0
 10
182.0152241233628
 20
125.9345146661443
 30
0.0
  0
LINE
  5
139
330
1F
100
AcDbEntity
  8
0
  6
HIDDEN
 62
     7
370
     0
100
AcDbLine
 10
182.0151620002
 20
125.9460491914
 30
0.0
 11
182.0151620002
 21
92.1345146661
 31
0.0
  0
SPLINE
  5
13A
330
1F
100
AcDbEntity
  8
0
  6
HIDDEN
 62
     7
370
     0
100
AcDbSpline
210
0.0
220
0.0
230
1.0
 70
    24
 71
     3
 72
    14
 73
    10
 74
     0
 42
0.00000001
 43
0.00000001
 12
1.0
 22
0.0
 32
0.0
 13
1.0
 23
0.0
 33
0.0
 40
0.0
 40
0.0
 40
0.0
 40
0.0
 40
0.5000000000000001
 40
0.5000000000000001
 40
0.7500000000000002
 40
0.7500000000000002
 40
0.8750000000000001
 40
0.8750000000000001
 40
1.0
 40
1.0
 40
1.0
 40
1.0
 10
182.0151620002395
 20
92.13451466614433
 30
0.0
 10
182.0151620002394
 20
92.13451466614433
 30
0.0
 10
182.0706098600708
 20
92.13451466614433
 30
0.0
 10
182.1463921254141
 20
92.13451466614433
 30
0.0
 10
182.1706697874969
 20
92.13451466614433
 30
0.0
 10
182.1965433328355
 20
92.13451466614433
 30
0.0
 10
182.2034305255193
 20
92.13451466614433
 30
0.0
 10
182.2127427163148
 20
92.13451466614433
 30
0.0
 10
182.2151620002394
 20
92.13451466614433
 30
0.0
 10
182.2151620002394
 20
92.13451466614433
 30
0.0
  0
LINE
  5
13B
330
1F
100
AcDbEntity
  8
0
  6
HIDDEN
 62
     7
370
     0
100
AcDbLine
 10
182.0151620002
 20
121.9119173546
 30
0.0
 11
182.0151620002
 21
125.9460491914
 31
0.0
  0
LINE
  5
13C
330
1F
100
AcDbEntity
  8
0
  6
HIDDEN
 62
     7
370
     0
100
AcDbLine
 10
182.0151620002
 20
92.1345146661
 30
0.0
 11
182.0151620002
 21
120.8845146661
 31
0.0
  0
LINE
  5
13D
330
1F
100
AcDbEntity
  8
0
  6
HIDDEN
 62
     7
370
     0
100
AcDbLine
 10
170.0151620002
 20
120.8845146661
 30
0.0
 11
174.5088324749
 21
120.8845146661
 31
0.0
  0
SPLINE
  5
13E
330
1F
100
AcDbEntity
  8
0
  6
HIDDEN
 62
     7
370
     0
100
AcDbSpline
210
0.0
220
0.0
230
1.0
 70
     8
 71
     3
 72
    22
 73
    18
 74
     0
 42
0.00000001
 43
0.00000001
 12
1.0
 22
0.0
 32
0.0
 13
1.0
 23
0.0
 33
0.0
 40
0.0
 40
0.0
 40
0.0
 40
0.0
 40
0.125
 40
0.125
 40
0.25
 40
0.25
 40
0.375
 40
0.375
 40
0.5
 40
0.5
 40
0.625
 40
0.625
 40
0.75
 40
0.75
 40
0.875
 40
0.875
 40
1.0
 40
1.0
 40
1.0
 40
1.0
 10
196.2978350122605
 20
109.5136847108929
 30
0.0
 10
196.0585149442063
 20
109.7150500658932
 30
0.0
 10
195.8468758455653
 20
109.9397432863688
 30
0.0
 10
195.4775896563692
 20
110.4342814313681
 30
0.0
 10
195.3197718053082
 20
110.7067271891926
 30
0.0
 10
195.0749772326888
 20
111.2693958340841
 30
0.0
 10
194.9848889427109
 20
111.5647211368285
 30
0.0
 10
194.8724414823007
 20
112.1684803831819
 30
0.0
 10
194.850718010714
 20
112.4704106467322
 30
0.0
 10
194.8704430426058
 20
113.0739534532983
 30
0.0
 10
194.9127387532352
 20
113.3751099960588
 30
0.0
 10
195.05322011058
 20
113.9526405886053
 30
0.0
 10
195.1522175807913
 20
114.2341070525196
 30
0.0
 10
195.401118289635
 20
114.772054245785
 30
0.0
 10
195.5490317737353
 20
115.0252331563605
 30
0.0
 10
195.889666530593
 20
115.502642359416
 30
0.0
 10
196.0836279163739
 20
115.7278756792544
 30
0.0
 10
196.2978350122604
 20
115.934103005861
 30
0.0
  0
ELLIPSE
  5
13F
330
1F
100
AcDbEntity
  8
0
  6
HIDDEN
 62
     7
370
     0
100
AcDbEllipse
 10
207.3959743692
 20
109.0345146661
 30
0.0
 11
12.35438222969168
 21
16.49617782666435
 31
0.0
210
0.0
220
0.0
230
1.0
 40
0.0287452423
 41
2.646852452761916
 42
3.163117328393589
  0
SPLINE
  5
140
330
1F
100
AcDbEntity
  8
0
  6
HIDDEN
 62
     7
370
     0
100
AcDbSpline
210
0.0
220
0.0
230
1.0
 70
     8
 71
     3
 72
    66
 73
    62
 74
     0
 42
0.00000001
 43
0.00000001
 12
1.0
 22
0.0
 32
0.0
 13
1.0
 23
0.0
 33
0.0
 40
-0.0312499999999992
 40
-0.0312499999999992
 40
0.0
 40
0.0
 40
0.03125
 40
0.03125
 40
0.0625000000000001
 40
0.0625000000000001
 40
0.0937500000000001
 40
0.0937500000000001
 40
0.1250000000000001
 40
0.1250000000000001
 40
0.1562500000000002
 40
0.1562500000000002
 40
0.1875000000000002
 40
0.1875000000000002
 40
0.2187500000000004
 40
0.2187500000000004
 40
0.2500000000000007
 40
0.2500000000000007
 40
0.2812500000000009
 40
0.2812500000000009
 40
0.3125000000000012
 40
0.3125000000000012
 40
0.3437500000000015
 40
0.3437500000000015
 40
0.3750000000000018
 40
0.3750000000000018
 40
0.4062500000000021
 40
0.4062500000000021
 40
0.4375000000000024
 40
0.4375000000000024
 40
0.4687500000000027
 40
0.4687500000000027
 40
0.500000000000003
 40
0.500000000000003
 40
0.5625000000000029
 40
0.5625000000000029
 40
0.5937500000000028
 40
0.5937500000000028
 40
0.6250000000000027
 40
0.6250000000000027
 40
0.6562500000000027
 40
0.6562500000000027
 40
0.6875000000000026
 40
0.6875000000000026
 40
0.7187500000000024
 40
0.7187500000000024
 40
0.7500000000000024
 40
0.7500000000000024
 40
0.7812500000000023
 40
0.7812500000000023
 40
0.8125000000000022
 40
0.8125000000000022
 40
0.8437500000000021
 40
0.8437500000000021
 40
0.8750000000000021
 40
0.8750000000000021
 40
0.9375000000000013
 40
0.9375000000000013
 40
0.9687500000000008
 40
0.9687500000000008
 40
1.0
 40
1.0
 40
1.03125
 40
1.03125
 10
185.8997446405635
 20
102.398489220038
 30
0.0
 10
186.2305793599154
 20
102.398489220038
 30
0.0
 10
186.3931841414216
 20
102.4135398177538
 30
0.0
 10
186.713013634349
 20
102.4725423870446
 30
0.0
 10
186.8719135768449
 20
102.5172277542045
 30
0.0
 10
187.174544788158
 20
102.6339186778269
 30
0.0
 10
187.3180411411743
 20
102.7053849165293
 30
0.0
 10
187.5896130815019
 20
102.8746498339352
 30
0.0
 10
187.7180085689144
 20
102.9732250844549
 30
0.0
 10
187.9482404160822
 20
103.1892393731793
 30
0.0
 10
188.0516404643149
 20
103.3074626328377
 30
0.0
 10
188.2344095267014
 20
103.5653635821026
 30
0.0
 10
188.3119275026658
 20
103.7028395669641
 30
0.0
 10
188.4366896122751
 20
103.9887780012959
 30
0.0
 10
188.4848161863489
 20
104.1393622017015
 30
0.0
 10
188.5491314589503
 20
104.4486995255869
 30
0.0
 10
188.5650690796897
 20
104.6048997625869
 30
0.0
 10
188.5652541183175
 20
104.9203648449568
 30
0.0
 10
188.5489700767578
 20
105.0812630624254
 30
0.0
 10
188.4850934883978
 20
105.3935978545992
 30
0.0
 10
188.4378342341088
 20
105.546037542805
 30
0.0
 10
188.3124433616363
 20
105.843234586009
 30
0.0
 10
188.234269564021
 20
105.9870602622541
 30
0.0
 10
188.0534548899361
 20
106.2543751962292
 30
0.0
 10
187.9499447436212
 20
106.3797458449423
 30
0.0
 10
187.7170617153153
 20
106.6113369295652
 30
0.0
 10
187.5910717457013
 20
106.7142861867673
 30
0.0
 10
187.3206025317039
 20
106.8951157054356
 30
0.0
 10
187.1743513603907
 20
106.9736311567481
 30
0.0
 10
186.871879118672
 20
107.0994249521527
 30
0.0
 10
186.7160592951323
 20
107.1470277772663
 30
0.0
 10
186.3952451869642
 20
107.2115265750142
 30
0.0
 10
186.2293928763731
 20
107.2280548691053
 30
0.0
 10
185.7395916671809
 20
107.2282447557651
 30
0.0
 10
185.4101824259919
 20
107.1622240492101
 30
0.0
 10
184.9587303392217
 20
106.9749296850485
 30
0.0
 10
184.8130419113615
 20
106.8971357393908
 30
0.0
 10
184.5401570415325
 20
106.7150879713489
 30
0.0
 10
184.4143980922724
 20
106.6121771003061
 30
0.0
 10
184.1837305294287
 20
106.3833622837692
 30
0.0
 10
184.0781503892708
 20
106.2560663283349
 30
0.0
 10
183.8967394285786
 20
105.9882738582445
 30
0.0
 10
183.8197987721032
 20
105.8470588300265
 30
0.0
 10
183.6938612745804
 20
105.5499916359348
 30
0.0
 10
183.6456403654475
 20
105.3949509927142
 30
0.0
 10
183.5817289138715
 20
105.0837395818583
 30
0.0
 10
183.5653020891554
 20
104.9256491865787
 30
0.0
 10
183.5650236855234
 20
104.6064203270429
 30
0.0
 10
183.5811081590909
 20
104.4500320927847
 30
0.0
 10
183.6444818877739
 20
104.1433859386671
 30
0.0
 10
183.6925901472094
 20
103.9915257584771
 30
0.0
 10
183.8178033688579
 20
103.7038490482552
 30
0.0
 10
183.8944651592955
 20
103.5678551041384
 30
0.0
 10
184.0757876166714
 20
103.311113123389
 30
0.0
 10
184.1810480477461
 20
103.190354665603
 30
0.0
 10
184.5260443077301
 20
102.8662340750334
 30
0.0
 10
184.8044611456973
 20
102.6925545249117
 30
0.0
 10
185.2553800439584
 20
102.5182529679541
 30
0.0
 10
185.4132626182387
 20
102.4734459718568
 30
0.0
 10
185.7362929042366
 20
102.4135415727567
 30
0.0
 10
185.8997446405635
 20
102.398489220038
 30
0.0
 10
186.2305793599154
 20
102.398489220038
 30
0.0
  0
LINE
  5
141
330
1F
100
AcDbEntity
  8
0
  6
HIDDEN
 62
     7
370
     0
100
AcDbLine
 10
162.0651620002
 20
92.8273139811
 30
0.0
 11
162.0651620002
 21
125.2289018934
 31
0.0
  0
LINE
  5
142
330
1F
100
AcDbEntity
  8
0
  6
HIDDEN
 62
     7
370
     0
100
AcDbLine
 10
160.0651620002
 20
124.1382150669
 30
0.0
 11
160.0651620002
 21
93.9308142653
 31
0.0
  0
SPLINE
  5
143
330
1F
100
AcDbEntity
  8
0
  6
HIDDEN
 62
     7
370
     0
100
AcDbSpline
210
0.0
220
0.0
230
1.0
 70
     8
 71
     3
 72
     8
 73
     4
 74
     0
 42
0.00000001
 43
0.00000001
 12
1.0
 22
0.0
 32
0.0
 13
1.0
 23
0.0
 33
0.0
 40
0.000003532078448
 40
0.000003532078448
 40
0.000003532078448
 40
0.000003532078448
 40
0.0000638548434643
 40
0.0000638548434643
 40
0.0000638548434643
 40
0.0000638548434643
 10
143.1066458506703
 20
96.33133696660076
 30
0.0
 10
143.1091950217925
 20
96.32217576326204
 30
0.0
 10
143.1120369445743
 20
96.3130547599533
 30
0.0
 10
143.1151620002395
 20
96.30397911518496
 30
0.0
  0
SPLINE
  5
144
330
1F
100
AcDbEntity
  8
0
  6
HIDDEN
 62
     7
370
     0
100
AcDbSpline
210
0.0
220
0.0
230
1.0
 70
     8
 71
     3
 72
     8
 73
     4
 74
     0
 42
0.00000001
 43
0.00000001
 12
1.0
 22
0.0
 32
0.0
 13
1.0
 23
0.0
 33
0.0
 40
0.0000002108190109
 40
0.0000002108190109
 40
0.0000002108190109
 40
0.0000002108190109
 40
0.0001710235456397
 40
0.0001710235456397
 40
0.0001710235456397
 40
0.0001710235456397
 10
143.1151620002395
 20
96.30397911518496
 30
0.0
 10
143.1691501863293
 20
96.30960925778852
 30
0.0
 10
143.2227398464051
 20
96.31590465125005
 30
0.0
 10
143.2753705655238
 20
96.3233344036932
 30
0.0
  0
SPLINE
  5
145
330
1F
100
AcDbEntity
  8
0
  6
HIDDEN
 62
     7
370
     0
100
AcDbSpline
210
0.0
220
0.0
230
1.0
 70
     8
 71
     3
 72
    10
 73
     6
 74
     0
 42
0.00000001
 43
0.00000001
 12
1.0
 22
0.0
 32
0.0
 13
1.0
 23
0.0
 33
0.0
 40
0.0
 40
0.0
 40
0.0
 40
0.0
 40
0.5
 40
0.5
 40
1.0
 40
1.0
 40
1.0
 40
1.0
 10
143.2753705655238
 20
96.3233344036932
 30
0.0
 10
143.9336285764262
 20
96.4162591090102
 30
0.0
 10
144.6109708849632
 20
96.49219422613275
 30
0.0
 10
145.9803168986441
 20
96.6310123116704
 30
0.0
 10
146.6716369795165
 20
96.69295896795688
 30
0.0
 10
147.3651620002394
 20
96.75064136759143
 30
0.0
  0
SPLINE
  5
146
330
1F
100
AcDbEntity
  8
0
  6
HIDDEN
 62
     7
370
     0
100
AcDbSpline
210
0.0
220
0.0
230
1.0
 70
     8
 71
     3
 72
    16
 73
    12
 74
     0
 42
0.00000001
 43
0.00000001
 12
1.0
 22
0.0
 32
0.0
 13
1.0
 23
0.0
 33
0.0
 40
0.0
 40
0.0
 40
0.0
 40
0.0
 40
0.0625000000000003
 40
0.0625000000000003
 40
0.1250000000000007
 40
0.1250000000000007
 40
0.2500000000000014
 40
0.2500000000000014
 40
0.5000000000000018
 40
0.5000000000000018
 40
1.0
 40
1.0
 40
1.0
 40
1.0
 10
147.3651620002394
 20
96.75064136759146
 30
0.0
 10
147.3964777995667
 20
96.75324598948352
 30
0.0
 10
147.4291921379923
 20
96.75147708902358
 30
0.0
 10
147.4904986914692
 20
96.7399421945736
 30
0.0
 10
147.5190095816871
 20
96.73041521722739
 30
0.0
 10
147.5949035550434
 20
96.69690161710248
 30
0.0
 10
147.6342431400765
 20
96.6685141027826
 30
0.0
 10
147.7356789210579
 20
96.58049315257469
 30
0.0
 10
147.7805042806638
 20
96.51886050036757
 30
0.0
 10
147.8947866356291
 20
96.33547230669235
 30
0.0
 10
147.9396005434719
 20
96.2148543122275
 30
0.0
 10
147.9739267977542
 20
96.10051131893638
 30
0.0
  0
SPLINE
  5
147
330
1F
100
AcDbEntity
  8
0
  6
HIDDEN
 62
     7
370
     0
100
AcDbSpline
210
0.0
220
0.0
230
1.0
 70
     8
 71
     3
 72
    10
 73
     6
 74
     0
 42
0.00000001
 43
0.00000001
 12
1.0
 22
0.0
 32
0.0
 13
1.0
 23
0.0
 33
0.0
 40
0.0
 40
0.0
 40
0.0
 40
0.0
 40
0.5
 40
0.5
 40
1.0
 40
1.0
 40
1.0
 40
1.0
 10
147.9739267977542
 20
96.10051131893638
 30
0.0
 10
148.0118012006989
 20
95.97434921088374
 30
0.0
 10
148.0925922480247
 20
95.85639016990186
 30
0.0
 10
148.217722190616
 20
95.63334418731287
 30
0.0
 10
148.2651620002394
 20
95.52854911381752
 30
0.0
 10
148.2651620002394
 20
95.43093848042011
 30
0.0
  0
LINE
  5
148
330
1F
100
AcDbEntity
  8
0
  6
HIDDEN
 62
     7
370
     0
100
AcDbLine
 10
148.2651620002
 20
95.4309384804
 30
0.0
 11
148.2651620002
 21
94.5219966301
 31
0.0
  0
LINE
  5
149
330
1F
100
AcDbEntity
  8
0
  6
HIDDEN
 62
     7
370
     0
100
AcDbLine
 10
145.7651620002
 20
123.4217822012
 30
0.0
 11
145.7651620002
 21
122.5920387879
 31
0.0
  0
SPLINE
  5
14A
330
1F
100
AcDbEntity
  8
0
  6
HIDDEN
 62
     7
370
     0
100
AcDbSpline
210
0.0
220
0.0
230
1.0
 70
     8
 71
     3
 72
    20
 73
    16
 74
     0
 42
0.00000001
 43
0.00000001
 12
1.0
 22
0.0
 32
0.0
 13
1.0
 23
0.0
 33
0.0
 40
0.0
 40
0.0
 40
0.0
 40
0.0
 40
0.2500000000000006
 40
0.2500000000000006
 40
0.5000000000000011
 40
0.5000000000000011
 40
0.7500000000000017
 40
0.7500000000000017
 40
0.8750000000000024
 40
0.8750000000000024
 40
0.9375000000000012
 40
0.9375000000000012
 40
0.9687500000000006
 40
0.9687500000000006
 40
1.0
 40
1.0
 40
1.0
 40
1.0
 10
145.7651620002404
 20
122.5920387878922
 30
0.0
 10
145.7651620002404
 20
122.5314293881948
 30
0.0
 10
145.7397669806635
 20
122.4656034227913
 30
0.0
 10
145.6534737948815
 20
122.3315556534446
 30
0.0
 10
145.5928378161983
 20
122.2628602953029
 30
0.0
 10
145.444736021977
 20
122.1224617436484
 30
0.0
 10
145.3579664151983
 20
122.0507582390671
 30
0.0
 10
145.2093286198692
 20
121.9445948373182
 30
0.0
 10
145.157039402983
 20
121.9090664886867
 30
0.0
 10
145.0662755746731
 20
121.8593625581712
 30
0.0
 10
145.0339095822211
 20
121.8431015601561
 30
0.0
 10
144.9762204265548
 20
121.8239889918101
 30
0.0
 10
144.9552333986674
 20
121.8185978497286
 30
0.0
 10
144.9099444196769
 20
121.8128604813361
 30
0.0
 10
144.8869301508384
 20
121.8128832149895
 30
0.0
 10
144.8651620002388
 20
121.8153085248024
 30
0.0
  0
SPLINE
  5
14B
330
1F
100
AcDbEntity
  8
0
  6
HIDDEN
 62
     7
370
     0
100
AcDbSpline
210
0.0
220
0.0
230
1.0
 70
     8
 71
     3
 72
    12
 73
     8
 74
     0
 42
0.00000001
 43
0.00000001
 12
1.0
 22
0.0
 32
0.0
 13
1.0
 23
0.0
 33
0.0
 40
0.0
 40
0.0
 40
0.0
 40
0.0
 40
0.2500000000000015
 40
0.2500000000000015
 40
0.500000000000003
 40
0.500000000000003
 40
1.0
 40
1.0
 40
1.0
 40
1.0
 10
144.8651620002395
 20
121.8153085248035
 30
0.0
 10
144.7231195970502
 20
121.8311342529798
 30
0.0
 10
144.5790014905461
 20
121.8421553867551
 30
0.0
 10
144.2892469768736
 20
121.8606917486222
 30
0.0
 10
144.1435050735148
 20
121.867962454358
 30
0.0
 10
143.704824834335
 20
121.886423304686
 30
0.0
 10
143.4104492182638
 20
121.8943021715096
 30
0.0
 10
143.1151620002395
 20
121.9000952131227
 30
0.0
  0
SPLINE
  5
14C
330
1F
100
AcDbEntity
  8
0
  6
HIDDEN
 62
     7
370
     0
100
AcDbSpline
210
0.0
220
0.0
230
1.0
 70
     8
 71
     3
 72
     8
 73
     4
 74
     0
 42
0.00000001
 43
0.00000001
 12
1.0
 22
0.0
 32
0.0
 13
1.0
 23
0.0
 33
0.0
 40
0.0
 40
0.0
 40
0.0
 40
0.0
 40
1.0
 40
1.0
 40
1.0
 40
1.0
 10
143.1151620002395
 20
121.9000952131227
 30
0.0
 10
143.0693970925501
 20
121.8385748339638
 30
0.0
 10
143.0350099709201
 20
121.7746799742144
 30
0.0
 10
143.0159947172472
 20
121.7079500291707
 30
0.0
  0
ELLIPSE
  5
14D
330
1F
100
AcDbEntity
  8
0
  6
HIDDEN
 62
     7
370
     0
100
AcDbEllipse
 10
129.5590413617
 20
109.6736251175
 30
0.0
 11
13.36963611134303
 21
13.36754752639483
 31
0.0
210
0.0
220
0.0
230
1.0
 40
0.1761188775
 41
5.933076931846598
 42
5.9767200526912
  0
ELLIPSE
  5
14E
330
1F
100
AcDbEntity
  8
0
  6
HIDDEN
 62
     7
370
     0
100
AcDbEllipse
 10
129.6384197924
 20
108.3952169884
 30
0.0
 11
13.37355272666625
 21
-13.37146352987014
 31
0.0
210
0.0
220
0.0
230
1.0
 40
0.1761188775
 41
0.3023035477142447
 42
0.3822730435340272
  0
SPLINE
  5
14F
330
1F
100
AcDbEntity
  8
0
  6
HIDDEN
 62
     7
370
     0
100
AcDbSpline
210
0.0
220
0.0
230
1.0
 70
     8
 71
     3
 72
    11
 73
     7
 74
     0
 42
0.00000001
 43
0.00000001
 12
1.0
 22
0.0
 32
0.0
 13
1.0
 23
0.0
 33
0.0
 40
0.0
 40
0.0
 40
0.0
 40
0.0
 40
0.259469699297979
 40
0.3326083851003843
 40
0.6701731213681
 40
0.9999999999999999
 40
0.9999999999999999
 40
0.9999999999999999
 40
0.9999999999999999
 10
153.7141531458295
 20
94.33575996142774
 30
0.0
 10
153.6485927080621
 20
94.3272683821128
 30
0.0
 10
153.5645522540465
 20
94.3163832171377
 30
0.0
 10
153.387680155571
 20
94.29377487176052
 30
0.0
 10
153.2857956702894
 20
94.27717973767489
 30
0.0
 10
153.2616420905662
 20
94.27407978545178
 30
0.0
 10
153.2497053211642
 20
94.27254778004021
 30
0.0
  0
SPLINE
  5
150
330
1F
100
AcDbEntity
  8
0
  6
HIDDEN
 62
     7
370
     0
100
AcDbSpline
210
0.0
220
0.0
230
1.0
 70
     8
 71
     3
 72
    22
 73
    18
 74
     0
 42
0.00000001
 43
0.00000001
 12
1.0
 22
0.0
 32
0.0
 13
1.0
 23
0.0
 33
0.0
 40
0.0
 40
0.0
 40
0.0
 40
0.0
 40
0.0022119892138378
 40
0.0799684066544791
 40
0.1575272210106969
 40
0.2358577707004987
 40
0.3136121986758698
 40
0.3900719849068484
 40
0.4660893368556269
 40
0.5423590138346417
 40
0.6186534253635566
 40
0.6937723136933622
 40
0.7691592386672352
 40
0.8459429412200491
 40
0.9207580945205053
 40
0.9231032099379777
 40
0.9999999999999999
 40
0.9999999999999999
 40
0.9999999999999999
 40
0.9999999999999999
 10
158.8314400938431
 20
93.99291682753395
 30
0.0
 10
158.8319502264017
 20
93.99279394722565
 30
0.0
 10
158.8503926707144
 20
93.98835154651162
 30
0.0
 10
158.7867449238944
 20
94.00415923195531
 30
0.0
 10
158.6343130700074
 20
94.04100050681014
 30
0.0
 10
158.3677286826887
 20
94.10129119816682
 30
0.0
 10
158.0209000519267
 20
94.17375773718229
 30
0.0
 10
157.5971029434289
 20
94.25013275926607
 30
0.0
 10
157.1137899129474
 20
94.32142543694738
 30
0.0
 10
156.5850405027345
 20
94.37930512820597
 30
0.0
 10
156.0358486637201
 20
94.41905518069734
 30
0.0
 10
155.4863653984356
 20
94.43588914003627
 30
0.0
 10
154.9608414995463
 20
94.43063515503967
 30
0.0
 10
154.4726093508131
 20
94.40790754637564
 30
0.0
 10
154.2054344485691
 20
94.38375540516208
 30
0.0
 10
153.921085694142
 20
94.36179851334198
 30
0.0
 10
153.8160654147222
 20
94.34858369518012
 30
0.0
 10
153.7141531458295
 20
94.33575996142774
 30
0.0
  0
SPLINE
  5
151
330
1F
100
AcDbEntity
  8
0
  6
HIDDEN
 62
     7
370
     0
100
AcDbSpline
210
0.0
220
0.0
230
1.0
 70
     8
 71
     3
 72
    22
 73
    18
 74
     0
 42
0.00000001
 43
0.00000001
 12
1.0
 22
0.0
 32
0.0
 13
1.0
 23
0.0
 33
0.0
 40
0.0
 40
0.0
 40
0.0
 40
0.0
 40
0.0769496724548644
 40
0.0780938842343632
 40
0.1541393950159345
 40
0.230948525563285
 40
0.3064555070166327
 40
0.3815281357809729
 40
0.4579812249394196
 40
0.5341646046839988
 40
0.6102700341699615
 40
0.6865845548045686
 40
0.7642917127865787
 40
0.8424373766485023
 40
0.9199456367429114
 40
0.9982050411745779
 40
1.0
 40
1.0
 40
1.0
 40
1.0
 10
153.7140357155424
 20
123.7332548869249
 30
0.0
 10
153.8161392666436
 20
123.7204583248837
 30
0.0
 10
153.9197610579423
 20
123.7074714829289
 30
0.0
 10
154.2038330398676
 20
123.6854889345542
 30
0.0
 10
154.4712308207733
 20
123.6613310703589
 30
0.0
 10
154.9621343401206
 20
123.6384357951323
 30
0.0
 10
155.4878601271687
 20
123.6331182238621
 30
0.0
 10
156.0379269931971
 20
123.6499788024493
 30
0.0
 10
156.5871439928329
 20
123.6898707950193
 30
0.0
 10
157.116009665233
 20
123.7478962965447
 30
0.0
 10
157.5988386035109
 20
123.8191664470895
 30
0.0
 10
158.0223619896385
 20
123.8954790456833
 30
0.0
 10
158.3686214286576
 20
123.9678141069928
 30
0.0
 10
158.6344692026323
 20
124.028020088732
 30
0.0
 10
158.7878837985875
 20
124.0649387841147
 30
0.0
 10
158.8486397305807
 20
124.0806831009459
 30
0.0
 10
158.8308404010108
 20
124.0762143627242
 30
0.0
 10
158.8304413089139
 20
124.0761141657982
 30
0.0
  0
SPLINE
  5
152
330
1F
100
AcDbEntity
  8
0
  6
HIDDEN
 62
     7
370
     0
100
AcDbSpline
210
0.0
220
0.0
230
1.0
 70
     8
 71
     3
 72
    10
 73
     6
 74
     0
 42
0.00000001
 43
0.00000001
 12
1.0
 22
0.0
 32
0.0
 13
1.0
 23
0.0
 33
0.0
 40
0.0
 40
0.0
 40
0.0
 40
0.0
 40
0.3343825155164287
 40
0.6655473205398371
 40
1.0
 40
1.0
 40
1.0
 40
1.0
 10
153.2492389047794
 20
123.7965433436225
 30
0.0
 10
153.2589456221014
 20
123.7949695647155
 30
0.0
 10
153.2782656505271
 20
123.7918371511289
 30
0.0
 10
153.4358375167655
 20
123.7677814036803
 30
0.0
 10
153.6209981104258
 20
123.7448015628058
 30
0.0
 10
153.7140357155424
 20
123.7332548869249
 30
0.0
  0
LWPOLYLINE
  5
153
330
1F
100
AcDbEntity
  8
0
  6
HIDDEN
 62
     7
370
     0
100
AcDbPolyline
 90
       29
 70
   128
 43
0.0
 10
185.2137958874
 20
109.0204195141
 10
185.2912570787
 20
109.1412352291
 10
185.303219522
 20
109.341387845
 10
185.2490833707
 20
109.6108408739
 10
185.1315632372
 20
109.9360828156
 10
184.9565520718
 20
110.3008046813
 10
184.7328256652
 20
110.6867177936
 10
184.4716025936
 20
111.0744708575
 10
184.1859816725
 20
111.4446203155
 10
183.8902851276
 20
111.7786053279
 10
183.5993404183
 20
112.0596784918
 10
183.3277367273
 20
112.273745625
 10
183.0890933978
 20
112.4100725076
 10
182.8953770028
 20
112.4618231404
 10
182.7563012911
 20
112.4264025307
 10
182.6788400998
 20
112.3055868156
 10
182.6668776564
 20
112.1054341997
 10
182.7210138078
 20
111.8359811709
 10
182.8385339413
 20
111.5107392291
 10
183.0135451067
 20
111.1460173634
 10
183.2372715133
 20
110.7601042512
 10
183.4984945849
 20
110.3723511872
 10
183.784115506
 20
110.0022017293
 10
184.0798120509
 20
109.6682167168
 10
184.3707567602
 20
109.3871435529
 10
184.6423604512
 20
109.1730764197
 10
184.8810037807
 20
109.0367495371
 10
185.0747201757
 20
108.9849989043
 10
185.2137958874
 20
109.0204195141
  0
SPLINE
  5
154
330
1F
100
AcDbEntity
  8
0
  6
HIDDEN
 62
     7
370
     0
100
AcDbSpline
210
0.0
220
0.0
230
1.0
 70
     8
 71
     3
 72
     8
 73
     4
 74
     0
 42
0.00000001
 43
0.00000001
 12
1.0
 22
0.0
 32
0.0
 13
1.0
 23
0.0
 33
0.0
 40
0.0
 40
0.0
 40
0.0
 40
0.0
 40
1.0
 40
1.0
 40
1.0
 40
1.0
 10
185.1336199497465
 20
114.0877035078101
 30
0.0
 10
184.9022314870543
 20
113.9202689662558
 30
0.0
 10
184.6696983681438
 20
113.7436332192412
 30
0.0
 10
184.4397640000102
 20
113.5541367647724
 30
0.0
  0
SPLINE
  5
155
330
1F
100
AcDbEntity
  8
0
  6
HIDDEN
 62
     7
370
     0
100
AcDbSpline
210
0.0
220
0.0
230
1.0
 70
     8
 71
     3
 72
    68
 73
    64
 74
     0
 42
0.00000001
 43
0.00000001
 12
1.0
 22
0.0
 32
0.0
 13
1.0
 23
0.0
 33
0.0
 40
0.0
 40
0.0
 40
0.0
 40
0.0
 40
0.0156250000000003
 40
0.0156250000000003
 40
0.0312500000000007
 40
0.0312500000000007
 40
0.0625000000000013
 40
0.0625000000000013
 40
0.1250000000000022
 40
0.1250000000000022
 40
0.1562500000000027
 40
0.1562500000000027
 40
0.1875000000000031
 40
0.1875000000000031
 40
0.2187500000000036
 40
0.2187500000000036
 40
0.250000000000004
 40
0.250000000000004
 40
0.3125000000000049
 40
0.3125000000000049
 40
0.3437500000000051
 40
0.3437500000000051
 40
0.3750000000000052
 40
0.3750000000000052
 40
0.4062500000000054
 40
0.4062500000000054
 40
0.4375000000000056
 40
0.4375000000000056
 40
0.4531250000000053
 40
0.4531250000000053
 40
0.468750000000005
 40
0.468750000000005
 40
0.4843750000000047
 40
0.4843750000000047
 40
0.5000000000000044
 40
0.5000000000000044
 40
0.5312500000000042
 40
0.5312500000000042
 40
0.562500000000004
 40
0.562500000000004
 40
0.6250000000000036
 40
0.6250000000000036
 40
0.6875000000000031
 40
0.6875000000000031
 40
0.718750000000003
 40
0.718750000000003
 40
0.7500000000000028
 40
0.7500000000000028
 40
0.7812500000000026
 40
0.7812500000000026
 40
0.8125000000000023
 40
0.8125000000000023
 40
0.8437500000000021
 40
0.8437500000000021
 40
0.8750000000000019
 40
0.8750000000000019
 40
0.9375000000000008
 40
0.9375000000000008
 40
0.9687500000000003
 40
0.9687500000000003
 40
0.9843750000000002
 40
0.9843750000000002
 40
1.0
 40
1.0
 40
1.0
 40
1.0
 10
184.4397640000183
 20
113.5541367647912
 30
0.0
 10
184.4287634786925
 20
113.5209143756999
 30
0.0
 10
184.4064270868334
 20
113.4761729616933
 30
0.0
 10
184.3553625271654
 20
113.3756659273076
 30
0.0
 10
184.3269175875711
 20
113.320595970465
 30
0.0
 10
184.2433245684786
 20
113.1495367932349
 30
0.0
 10
184.1890216684097
 20
113.0261416271542
 30
0.0
 10
184.0480041714819
 20
112.6345753201586
 30
0.0
 10
183.9837649283172
 20
112.3502339741502
 30
0.0
 10
183.9609926936736
 20
111.9009084275907
 30
0.0
 10
183.9657229573329
 20
111.7500009053729
 30
0.0
 10
184.0044372004552
 20
111.445763731748
 30
0.0
 10
184.0390658950972
 20
111.291672614926
 30
0.0
 10
184.1400900363707
 20
110.9975008063883
 30
0.0
 10
184.208136765548
 20
110.8532113288789
 30
0.0
 10
184.3737885249498
 20
110.5913329598994
 30
0.0
 10
184.4716758131126
 20
110.4723146919355
 30
0.0
 10
184.8051868109208
 20
110.1610639764298
 30
0.0
 10
185.0695169438065
 20
110.0267177539231
 30
0.0
 10
185.4752360546375
 20
109.9303209639169
 30
0.0
 10
185.6123253309833
 20
109.9153058278486
 30
0.0
 10
185.8806841819556
 20
109.914650369879
 30
0.0
 10
186.0134252021442
 20
109.9286887361996
 30
0.0
 10
186.27715434899
 20
109.9827017397122
 30
0.0
 10
186.4049414027527
 20
110.0220134944646
 30
0.0
 10
186.6552933280001
 20
110.1226187973055
 30
0.0
 10
186.7781860604816
 20
110.1842130378514
 30
0.0
 10
186.9619194718108
 20
110.2932056865417
 30
0.0
 10
187.0230776592085
 20
110.3323097060528
 30
0.0
 10
187.1475630309772
 20
110.4164272549601
 30
0.0
 10
187.2110163477601
 20
110.4615875462455
 30
0.0
 10
187.338392429462
 20
110.5532824249886
 30
0.0
 10
187.4010158893407
 20
110.5984828121513
 30
0.0
 10
187.5110664700442
 20
110.6780535716466
 30
0.0
 10
187.5590968476348
 20
110.7132246855093
 30
0.0
 10
187.6890484883953
 20
110.813346374213
 30
0.0
 10
187.7604434895327
 20
110.8758283662472
 30
0.0
 10
187.8857482285265
 20
111.006986135623
 30
0.0
 10
187.9394459532743
 20
111.0752352772073
 30
0.0
 10
188.0774347542537
 20
111.2952517054993
 30
0.0
 10
188.1395448840805
 20
111.464437427613
 30
0.0
 10
188.1781895643414
 20
111.850347675688
 30
0.0
 10
188.1548082530889
 20
112.0709712528921
 30
0.0
 10
188.0216779206481
 20
112.4316302731538
 30
0.0
 10
187.9609583215993
 20
112.555853127253
 30
0.0
 10
187.8065233468815
 20
112.802703978319
 30
0.0
 10
187.712508638849
 20
112.9252948858077
 30
0.0
 10
187.5026101896975
 20
113.1534479534322
 30
0.0
 10
187.3852873501822
 20
113.2606050868295
 30
0.0
 10
187.1438688059606
 20
113.449801627347
 30
0.0
 10
187.0180858089597
 20
113.5334216225909
 30
0.0
 10
186.7706742482822
 20
113.6759364126137
 30
0.0
 10
186.6461073015123
 20
113.7366575922069
 30
0.0
 10
186.4034045106003
 20
113.8378750586191
 30
0.0
 10
186.2858869576583
 20
113.8782972146776
 30
0.0
 10
185.9432772399385
 20
113.9760036430713
 30
0.0
 10
185.7261896545084
 20
114.0087170830627
 30
0.0
 10
185.4400359164334
 20
114.0294882123473
 30
0.0
 10
185.3501048971549
 20
114.0313285047498
 30
0.0
 10
185.2347012442179
 20
114.0374982901455
 30
0.0
 10
185.1998141960072
 20
114.0401477753245
 30
0.0
 10
185.1474012768326
 20
114.0540794120069
 30
0.0
 10
185.1306498422894
 20
114.065796130596
 30
0.0
 10
185.1336199497731
 20
114.0877035078337
 30
0.0
  0
SPLINE
  5
156
330
1F
100
AcDbEntity
  8
0
  6
HIDDEN
 62
     7
370
     0
100
AcDbSpline
210
0.0
220
0.0
230
1.0
 70
    11
 71
     3
 72
    50
 73
    46
 74
     0
 42
0.00000001
 43
0.00000001
 12
1.0
 22
0.0
 32
0.0
 13
1.0
 23
0.0
 33
0.0
 40
0.0
 40
0.0
 40
0.0
 40
0.0
 40
0.0624999999999998
 40
0.0624999999999998
 40
0.1249999999999997
 40
0.1249999999999997
 40
0.1562499999999997
 40
0.1562499999999997
 40
0.1874999999999996
 40
0.1874999999999996
 40
0.2187499999999996
 40
0.2187499999999996
 40
0.2499999999999995
 40
0.2499999999999995
 40
0.2812499999999994
 40
0.2812499999999994
 40
0.3124999999999994
 40
0.3124999999999994
 40
0.3749999999999993
 40
0.3749999999999993
 40
0.4374999999999993
 40
0.4374999999999993
 40
0.4999999999999992
 40
0.4999999999999992
 40
0.5312499999999991
 40
0.5312499999999991
 40
0.562499999999999
 40
0.562499999999999
 40
0.593749999999999
 40
0.593749999999999
 40
0.6249999999999989
 40
0.6249999999999989
 40
0.656249999999999
 40
0.656249999999999
 40
0.6874999999999991
 40
0.6874999999999991
 40
0.7499999999999993
 40
0.7499999999999993
 40
0.8124999999999994
 40
0.8124999999999994
 40
0.8749999999999997
 40
0.8749999999999997
 40
0.9374999999999998
 40
0.9374999999999998
 40
1.0
 40
1.0
 40
1.0
 40
1.0
 10
157.8893387281169
 20
96.36170437266445
 30
0.0
 10
157.7430838933153
 20
96.3827568984899
 30
0.0
 10
157.5716152563569
 20
96.40503812317195
 30
0.0
 10
157.1784706508469
 20
96.44587961352086
 30
0.0
 10
156.9632264652817
 20
96.4636372484418
 30
0.0
 10
156.6204866787321
 20
96.4819105412854
 30
0.0
 10
156.5022402956766
 20
96.48662048029944
 30
0.0
 10
156.2664612934982
 20
96.49261957535823
 30
0.0
 10
156.1478949837923
 20
96.49397540775406
 30
0.0
 10
155.9093999029917
 20
96.49328099574336
 30
0.0
 10
155.7886075094699
 20
96.49118249275202
 30
0.0
 10
155.5535415440047
 20
96.48379934322621
 30
0.0
 10
155.4384860315047
 20
96.47853657995527
 30
0.0
 10
155.2132662767618
 20
96.46528281790675
 30
0.0
 10
155.1021841071595
 20
96.4572037432293
 30
0.0
 10
154.8909326602239
 20
96.43926801623427
 30
0.0
 10
154.7905744257232
 20
96.42943178102081
 30
0.0
 10
154.5049304686997
 20
96.39841611259938
 30
0.0
 10
154.3346517251039
 20
96.37558441838071
 30
0.0
 10
154.0585005951835
 20
96.33488714405
 30
0.0
 10
153.9488014087988
 20
96.31656109447782
 30
0.0
 10
153.8032583276349
 20
96.29153349523287
 30
0.0
 10
153.7652516921776
 20
96.28453084586542
 30
0.0
 10
153.7651173988197
 20
96.2845066203986
 30
0.0
 10
153.774235154062
 20
96.28616120765473
 30
0.0
 10
153.8111536995756
 20
96.29274385092762
 30
0.0
 10
153.8391273546004
 20
96.29770009245028
 30
0.0
 10
153.9118989340526
 20
96.31021676514862
 30
0.0
 10
153.9568241722143
 20
96.31780130446208
 30
0.0
 10
154.0638674871698
 20
96.33510955983525
 30
0.0
 10
154.1264355281363
 20
96.34489385162797
 30
0.0
 10
154.2648264308757
 20
96.36529905329405
 30
0.0
 10
154.3410098866502
 20
96.37598400821713
 30
0.0
 10
154.5073656204613
 20
96.39756774579453
 30
0.0
 10
154.598393922906
 20
96.40855385479566
 30
0.0
 10
154.8850477395789
 20
96.43971093856177
 30
0.0
 10
155.0970997976965
 20
96.45840712559794
 30
0.0
 10
155.550277073651
 20
96.4851544063134
 30
0.0
 10
155.784906722391
 20
96.49286001301522
 30
0.0
 10
156.2663302718496
 20
96.49437802051341
 30
0.0
 10
156.501635642118
 20
96.48818933228105
 30
0.0
 10
156.9615432937936
 20
96.46378399658822
 30
0.0
 10
157.1759718057527
 20
96.44610084266291
 30
0.0
 10
157.5691709905181
 20
96.4053299256303
 30
0.0
 10
157.7430800621833
 20
96.38275744995889
 30
0.0
 10
157.8893387281169
 20
96.36170437266445
 30
0.0
  0
SPLINE
  5
157
330
1F
100
AcDbEntity
  8
0
  6
HIDDEN
 62
     7
370
     0
100
AcDbSpline
210
0.0
220
0.0
230
1.0
 70
    11
 71
     3
 72
    50
 73
    46
 74
     0
 42
0.00000001
 43
0.00000001
 12
1.0
 22
0.0
 32
0.0
 13
1.0
 23
0.0
 33
0.0
 40
0.0
 40
0.0
 40
0.0
 40
0.0
 40
0.0625
 40
0.0625
 40
0.125
 40
0.125
 40
0.15625
 40
0.15625
 40
0.1875
 40
0.1875
 40
0.21875
 40
0.21875
 40
0.25
 40
0.25
 40
0.28125
 40
0.28125
 40
0.3124999999999999
 40
0.3124999999999999
 40
0.375
 40
0.375
 40
0.4375
 40
0.4375
 40
0.5000000000000001
 40
0.5000000000000001
 40
0.5312500000000001
 40
0.5312500000000001
 40
0.5625000000000001
 40
0.5625000000000001
 40
0.5937500000000001
 40
0.5937500000000001
 40
0.625
 40
0.625
 40
0.6562500000000001
 40
0.6562500000000001
 40
0.6875000000000002
 40
0.6875000000000002
 40
0.7500000000000002
 40
0.7500000000000002
 40
0.8125000000000002
 40
0.8125000000000002
 40
0.8750000000000001
 40
0.8750000000000001
 40
0.9375000000000001
 40
0.9375000000000001
 40
1.0
 40
1.0
 40
1.0
 40
1.0
 10
157.8893387281169
 20
121.7073249596242
 30
0.0
 10
157.7430838933153
 20
121.6862724337988
 30
0.0
 10
157.5716152563569
 20
121.6639912091167
 30
0.0
 10
157.178470650847
 20
121.6231497187678
 30
0.0
 10
156.9632264652817
 20
121.6053920838469
 30
0.0
 10
156.6204866787321
 20
121.5871187910033
 30
0.0
 10
156.5022402956766
 20
121.5824088519893
 30
0.0
 10
156.2664612934982
 20
121.5764097569305
 30
0.0
 10
156.1478949837923
 20
121.5750539245346
 30
0.0
 10
155.9093999029917
 20
121.5757483365453
 30
0.0
 10
155.7886075094699
 20
121.5778468395367
 30
0.0
 10
155.5535415440047
 20
121.5852299890625
 30
0.0
 10
155.4384860315047
 20
121.5904927523334
 30
0.0
 10
155.2132662767618
 20
121.6037465143819
 30
0.0
 10
155.1021841071596
 20
121.6118255890594
 30
0.0
 10
154.8909326602239
 20
121.6297613160544
 30
0.0
 10
154.7905744257232
 20
121.6395975512679
 30
0.0
 10
154.5049304686998
 20
121.6706132196893
 30
0.0
 10
154.3346517251039
 20
121.693444913908
 30
0.0
 10
154.0585005951836
 20
121.7341421882387
 30
0.0
 10
153.9488014087988
 20
121.7524682378109
 30
0.0
 10
153.8032583276349
 20
121.7774958370558
 30
0.0
 10
153.7652516921776
 20
121.7844984864233
 30
0.0
 10
153.7651173988197
 20
121.7845227118901
 30
0.0
 10
153.774235154062
 20
121.7828681246339
 30
0.0
 10
153.8111536995756
 20
121.7762854813611
 30
0.0
 10
153.8391273546004
 20
121.7713292398384
 30
0.0
 10
153.9118989340526
 20
121.7588125671401
 30
0.0
 10
153.9568241722143
 20
121.7512280278266
 30
0.0
 10
154.0638674871698
 20
121.7339197724534
 30
0.0
 10
154.1264355281363
 20
121.7241354806607
 30
0.0
 10
154.2648264308757
 20
121.7037302789946
 30
0.0
 10
154.3410098866501
 20
121.6930453240716
 30
0.0
 10
154.5073656204613
 20
121.6714615864942
 30
0.0
 10
154.598393922906
 20
121.660475477493
 30
0.0
 10
154.8850477395789
 20
121.6293183937269
 30
0.0
 10
155.0970997976965
 20
121.6106222066908
 30
0.0
 10
155.550277073651
 20
121.5838749259753
 30
0.0
 10
155.784906722391
 20
121.5761693192735
 30
0.0
 10
156.2663302718496
 20
121.5746513117753
 30
0.0
 10
156.501635642118
 20
121.5808400000076
 30
0.0
 10
156.9615432937936
 20
121.6052453357005
 30
0.0
 10
157.1759718057527
 20
121.6229284896258
 30
0.0
 10
157.5691709905181
 20
121.6636994066584
 30
0.0
 10
157.7430800621833
 20
121.6862718823298
 30
0.0
 10
157.8893387281169
 20
121.7073249596242
 30
0.0
  0
SPLINE
  5
158
330
1F
100
AcDbEntity
  8
0
  6
HIDDEN
 62
     7
370
     0
100
AcDbSpline
210
0.0
220
0.0
230
1.0
 70
    11
 71
     3
 72
    14
 73
    10
 74
     0
 42
0.00000001
 43
0.00000001
 12
1.0
 22
0.0
 32
0.0
 13
1.0
 23
0.0
 33
0.0
 40
0.0
 40
0.0
 40
0.0
 40
0.0
 40
0.25
 40
0.25
 40
0.5
 40
0.5
 40
0.75
 40
0.75
 40
1.0
 40
1.0
 40
1.0
 40
1.0
 10
157.8893387281169
 20
121.7073249596242
 30
0.0
 10
158.0432146238197
 20
121.7294744924762
 30
0.0
 10
158.1610951914488
 20
121.7422865595499
 30
0.0
 10
158.3241589813614
 20
121.7586392683803
 30
0.0
 10
158.3650754999851
 20
121.7618150310982
 30
0.0
 10
158.3652482325013
 20
121.7618297332749
 30
0.0
 10
158.3243204742675
 20
121.7586501822815
 30
0.0
 10
158.161983108802
 20
121.742380850804
 30
0.0
 10
158.0432128406958
 20
121.729474235806
 30
0.0
 10
157.8893387281169
 20
121.7073249596242
 30
0.0
  0
SPLINE
  5
159
330
1F
100
AcDbEntity
  8
0
  6
HIDDEN
 62
     7
370
     0
100
AcDbSpline
210
0.0
220
0.0
230
1.0
 70
    11
 71
     3
 72
    14
 73
    10
 74
     0
 42
0.00000001
 43
0.00000001
 12
1.0
 22
0.0
 32
0.0
 13
1.0
 23
0.0
 33
0.0
 40
0.0
 40
0.0
 40
0.0
 40
0.0
 40
0.25
 40
0.25
 40
0.5
 40
0.5
 40
0.75
 40
0.75
 40
1.0
 40
1.0
 40
1.0
 40
1.0
 10
157.8893387281169
 20
96.36170437266445
 30
0.0
 10
158.0432146238197
 20
96.33955483981246
 30
0.0
 10
158.1610951914488
 20
96.32674277273883
 30
0.0
 10
158.3241589813615
 20
96.31039006390837
 30
0.0
 10
158.3650754999851
 20
96.30721430119051
 30
0.0
 10
158.3652482325013
 20
96.3071995990138
 30
0.0
 10
158.3243204742675
 20
96.31037915000722
 30
0.0
 10
158.161983108802
 20
96.3266484814847
 30
0.0
 10
158.0432128406958
 20
96.33955509648268
 30
0.0
 10
157.8893387281169
 20
96.36170437266445
 30
0.0
  0
LINE
  5
15A
330
1F
100
AcDbEntity
  8
0
  6
HIDDEN
 62
     7
370
     0
100
AcDbLine
 10
162.0651620002
 20
98.5345146661
 30
0.0
 11
162.0651620002
 21
119.5214623389
 31
0.0
  0
LINE
  5
15B
330
1F
100
AcDbEntity
  8
0
  6
HIDDEN
 62
     7
370
     0
100
AcDbLine
 10
150.067811731
 20
119.5345146661
 30
0.0
 11
150.067811731
 21
98.5345146661
 31
0.0
  0
SPLINE
  5
15C
330
1F
100
AcDbEntity
  8
0
  6
HIDDEN
 62
     7
370
     0
100
AcDbSpline
210
0.0
220
0.0
230
1.0
 70
     8
 71
     3
 72
    66
 73
    62
 74
     0
 42
0.00000001
 43
0.00000001
 12
1.0
 22
0.0
 32
0.0
 13
1.0
 23
0.0
 33
0.0
 40
-0.03125
 40
-0.03125
 40
0.0
 40
0.0
 40
0.03125
 40
0.03125
 40
0.0625
 40
0.0625
 40
0.09375
 40
0.09375
 40
0.1249999999999999
 40
0.1249999999999999
 40
0.1562499999999999
 40
0.1562499999999999
 40
0.1874999999999999
 40
0.1874999999999999
 40
0.2187499999999999
 40
0.2187499999999999
 40
0.2499999999999999
 40
0.2499999999999999
 40
0.2812499999999999
 40
0.2812499999999999
 40
0.3124999999999999
 40
0.3124999999999999
 40
0.3437499999999998
 40
0.3437499999999998
 40
0.3749999999999998
 40
0.3749999999999998
 40
0.4062499999999998
 40
0.4062499999999998
 40
0.4374999999999998
 40
0.4374999999999998
 40
0.4687499999999998
 40
0.4687499999999998
 40
0.4999999999999998
 40
0.4999999999999998
 40
0.5312499999999998
 40
0.5312499999999998
 40
0.5624999999999998
 40
0.5624999999999998
 40
0.5937499999999998
 40
0.5937499999999998
 40
0.6249999999999998
 40
0.6249999999999998
 40
0.6562499999999997
 40
0.6562499999999997
 40
0.6874999999999997
 40
0.6874999999999997
 40
0.7187499999999997
 40
0.7187499999999997
 40
0.7499999999999997
 40
0.7499999999999997
 40
0.7812499999999997
 40
0.7812499999999997
 40
0.8124999999999998
 40
0.8124999999999998
 40
0.8749999999999998
 40
0.8749999999999998
 40
0.9374999999999999
 40
0.9374999999999999
 40
0.96875
 40
0.96875
 40
1.0
 40
1.0
 40
1.03125
 40
1.03125
 10
185.9160266251122
 20
107.3571496648978
 30
0.0
 10
186.2142973753667
 20
107.3571496648978
 30
0.0
 10
186.3580256832849
 20
107.3786987001485
 30
0.0
 10
186.6369639509794
 20
107.4573052426769
 30
0.0
 10
186.7655210940604
 20
107.5121062738778
 30
0.0
 10
187.009538744788
 20
107.645161969916
 30
0.0
 10
187.1249952386218
 20
107.7239879677295
 30
0.0
 10
187.3388318920939
 20
107.898100254776
 30
0.0
 10
187.4383239973256
 20
107.9939986121653
 30
0.0
 10
187.6241276092615
 20
108.2042949680427
 30
0.0
 10
187.710771062849
 20
108.3196019640345
 30
0.0
 10
187.8637323621782
 20
108.5624094781195
 30
0.0
 10
187.9309400111411
 20
108.6906775045413
 30
0.0
 10
188.0442048980823
 20
108.9634776278053
 30
0.0
 10
188.0884492426796
 20
109.1040262122504
 30
0.0
 10
188.1489710222876
 20
109.3904023850495
 30
0.0
 10
188.1649587741421
 20
109.5374690519308
 30
0.0
 10
188.1653612498374
 20
109.8200720764685
 30
0.0
 10
188.1498868835955
 20
109.9598226688118
 30
0.0
 10
188.0899607794443
 20
110.2212229702961
 30
0.0
 10
188.0459783224205
 20
110.3430589721244
 30
0.0
 10
187.9332159051702
 20
110.5685719429586
 30
0.0
 10
187.8660359656732
 20
110.6693738189796
 30
0.0
 10
187.7124539038415
 20
110.8514543832989
 30
0.0
 10
187.6261502649618
 20
110.9321432734191
 30
0.0
 10
187.4410210047295
 20
111.0718588919253
 30
0.0
 10
187.3415083832965
 20
111.1317455772494
 30
0.0
 10
187.1265977501608
 20
111.2345190103037
 30
0.0
 10
187.0113831191637
 20
111.2770951903672
 30
0.0
 10
186.7679251543383
 20
111.3447561021954
 30
0.0
 10
186.6370737443078
 20
111.3705347210014
 30
0.0
 10
186.3604981136121
 20
111.4051167253684
 30
0.0
 10
186.2129326790298
 20
111.4140071713154
 30
0.0
 10
185.918952438431
 20
111.4140689353164
 30
0.0
 10
185.7717575648956
 20
111.4052599659982
 30
0.0
 10
185.4956543418147
 20
111.3709320765031
 30
0.0
 10
185.3659604129445
 20
111.3455987417365
 30
0.0
 10
185.1204119238565
 20
111.2776482072836
 30
0.0
 10
185.0069520162468
 20
111.2357660726323
 30
0.0
 10
184.7931642737617
 20
111.1341104176013
 30
0.0
 10
184.6923375962183
 20
111.0739000164318
 30
0.0
 10
184.5055442686854
 20
110.9334208594855
 30
0.0
 10
184.4208067793855
 20
110.8542586338727
 30
0.0
 10
184.2685636108862
 20
110.6750887115767
 30
0.0
 10
184.2005338313739
 20
110.5741419579281
 30
0.0
 10
184.0871625393979
 20
110.3499045608545
 30
0.0
 10
184.042861866548
 20
110.2291672532151
 30
0.0
 10
183.9816324384998
 20
109.9678169205665
 30
0.0
 10
183.9655994450091
 20
109.8287822901115
 30
0.0
 10
183.9647425499638
 20
109.5462138793691
 30
0.0
 10
183.9801406506965
 20
109.3988803117837
 30
0.0
 10
184.0396231883898
 20
109.1120924207446
 30
0.0
 10
184.0839132672494
 20
108.9699149816538
 30
0.0
 10
184.2522413423584
 20
108.5612004729878
 30
0.0
 10
184.4104996908611
 20
108.3134885233009
 30
0.0
 10
184.7805275788157
 20
107.8929361272861
 30
0.0
 10
184.9964066686163
 20
107.7135102699305
 30
0.0
 10
185.3614308220859
 20
107.5136857426112
 30
0.0
 10
185.4927793384311
 20
107.457642624874
 30
0.0
 10
185.7690705508063
 20
107.3794369489956
 30
0.0
 10
185.9160266251122
 20
107.3571496648978
 30
0.0
 10
186.2142973753667
 20
107.3571496648978
 30
0.0
  0
ARC
  5
15D
330
1F
100
AcDbEntity
  8
0
  6
HIDDEN
 62
     7
370
     0
100
AcDbCircle
 10
186.0321236442
 20
112.2013473555
 30
0.0
 40
2.089413415858957
100
AcDbArc
 50
115.469258804
 51
139.6504294527
  0
LINE
  5
15E
330
1F
100
AcDbEntity
  8
0
  6
HIDDEN
 62
     7
370
     0
100
AcDbLine
 10
174.5088324749
 20
120.8845146661
 30
0.0
 11
182.3442857119
 21
120.8845146661
 31
0.0
  0
LINE
  5
15F
330
1F
100
AcDbEntity
  8
0
  6
HIDDEN
 62
     7
370
     0
100
AcDbLine
 10
177.0251620002
 20
122.5503618464
 30
0.0
 11
177.0251620002
 21
126.437118638
 31
0.0
  0
LINE
  5
160
330
1F
100
AcDbEntity
  8
0
  6
HIDDEN
 62
     7
370
     0
100
AcDbLine
 10
179.1051620002
 20
122.5503618464
 30
0.0
 11
179.1051620002
 21
126.437118638
 31
0.0
  0
LINE
  5
161
330
1F
100
AcDbEntity
  8
0
  6
HIDDEN
 62
     7
370
     0
100
AcDbLine
 10
142.1651620002
 20
99.169508523
 30
0.0
 11
142.1651620002
 21
118.8995208093
 31
0.0
  0
LINE
  5
162
330
1F
100
AcDbEntity
  8
0
  6
HIDDEN
 62
     7
370
     0
100
AcDbLine
 10
168.2345372504
 20
119.5345146661
 30
0.0
 11
168.2345372504
 21
98.5345146661
 31
0.0
  0
LINE
  5
163
330
1F
100
AcDbEntity
  8
0
  6
HIDDEN
 62
     7
370
     0
100
AcDbLine
 10
170.0151620002
 20
118.9095146644
 30
0.0
 11
170.0151620002
 21
99.1595146661
 31
0.0
  0
LINE
  5
164
330
1F
100
AcDbEntity
  8
0
  6
HIDDEN
 62
     7
370
     0
100
AcDbLine
 10
143.1151620002
 20
99.3366089644
 30
0.0
 11
147.3651620002
 21
99.3366089644
 31
0.0
  0
LINE
  5
165
330
1F
100
AcDbEntity
  8
0
  6
HIDDEN
 62
     7
370
     0
100
AcDbLine
 10
143.1151620002
 20
118.7324203679
 30
0.0
 11
143.1151620002
 21
99.3366089644
 31
0.0
  0
LINE
  5
166
330
1F
100
AcDbEntity
  8
0
  6
HIDDEN
 62
     7
370
     0
100
AcDbLine
 10
144.8651620002
 20
118.7324203679
 30
0.0
 11
143.1151620002
 21
118.7324203679
 31
0.0
  0
SPLINE
  5
167
330
1F
100
AcDbEntity
  8
0
  6
HIDDEN
 62
     7
370
     0
100
AcDbSpline
210
0.0
220
0.0
230
1.0
 70
     8
 71
     3
 72
    14
 73
    10
 74
     0
 42
0.00000001
 43
0.00000001
 12
1.0
 22
0.0
 32
0.0
 13
1.0
 23
0.0
 33
0.0
 40
0.0
 40
0.0
 40
0.0
 40
0.0
 40
0.2500000000000001
 40
0.2500000000000001
 40
0.5000000000000002
 40
0.5000000000000002
 40
0.7500000000000003
 40
0.7500000000000003
 40
1.0
 40
1.0
 40
1.0
 40
1.0
 10
145.7651620002394
 20
119.0587041595648
 30
0.0
 10
145.7651620002394
 20
119.0222322950309
 30
0.0
 10
145.7427913684354
 20
118.9844965425184
 30
0.0
 10
145.6555758371871
 20
118.909360820819
 30
0.0
 10
145.5915546311105
 20
118.8729885345969
 30
0.0
 10
145.4280693333692
 20
118.8087649954348
 30
0.0
 10
145.328754459196
 20
118.7812420328123
 30
0.0
 10
145.1089281884909
 20
118.7430698659252
 30
0.0
 10
144.9879246261818
 20
118.7324203678925
 30
0.0
 10
144.8651620002395
 20
118.7324203678925
 30
0.0
  0
LINE
  5
168
330
1F
100
AcDbEntity
  8
0
  6
HIDDEN
 62
     7
370
     0
100
AcDbLine
 10
145.7651620002
 20
119.0587041596
 30
0.0
 11
145.7651620002
 21
119.5345146661
 31
0.0
  0
SPLINE
  5
169
330
1F
100
AcDbEntity
  8
0
  6
HIDDEN
 62
     7
370
     0
100
AcDbSpline
210
0.0
220
0.0
230
1.0
 70
     8
 71
     3
 72
    14
 73
    10
 74
     0
 42
0.00000001
 43
0.00000001
 12
1.0
 22
0.0
 32
0.0
 13
1.0
 23
0.0
 33
0.0
 40
0.0
 40
0.0
 40
0.0
 40
0.0
 40
0.2499999999999998
 40
0.2499999999999998
 40
0.4999999999999996
 40
0.4999999999999996
 40
0.75
 40
0.75
 40
1.0
 40
1.0
 40
1.0
 40
1.0
 10
145.7651620002394
 20
119.0587041595648
 30
0.0
 10
145.7651620002394
 20
119.0222322950309
 30
0.0
 10
145.7427913684354
 20
118.9844965425185
 30
0.0
 10
145.6555758371871
 20
118.909360820819
 30
0.0
 10
145.5915546311105
 20
118.8729885345969
 30
0.0
 10
145.4280693333692
 20
118.8087649954348
 30
0.0
 10
145.328754459196
 20
118.7812420328123
 30
0.0
 10
145.1089281884909
 20
118.7430698659252
 30
0.0
 10
144.9879246261818
 20
118.7324203678925
 30
0.0
 10
144.8651620002395
 20
118.7324203678925
 30
0.0
  0
SPLINE
  5
16A
330
1F
100
AcDbEntity
  8
0
  6
HIDDEN
 62
     7
370
     0
100
AcDbSpline
210
0.0
220
0.0
230
1.0
 70
     8
 71
     3
 72
    14
 73
    10
 74
     0
 42
0.00000001
 43
0.00000001
 12
1.0
 22
0.0
 32
0.0
 13
1.0
 23
0.0
 33
0.0
 40
0.0
 40
0.0
 40
0.0
 40
0.0
 40
0.2499999999999998
 40
0.2499999999999998
 40
0.4999999999999999
 40
0.4999999999999999
 40
0.75
 40
0.75
 40
1.0
 40
1.0
 40
1.0
 40
1.0
 10
147.3651620002395
 20
99.33660896439615
 30
0.0
 10
147.4877674236259
 20
99.33660896439613
 30
0.0
 10
147.6081105257187
 20
99.32606562248617
 30
0.0
 10
147.8284105298976
 20
99.28788266186153
 30
0.0
 10
147.9280542761851
 20
99.26024139372075
 30
0.0
 10
148.0909423612461
 20
99.19631006893337
 30
0.0
 10
148.1555870180488
 20
99.1595913299695
 30
0.0
 10
148.2423099829447
 20
99.08501468452387
 30
0.0
 10
148.2651620002394
 20
99.04675895065017
 30
0.0
 10
148.2651620002394
 20
99.01032517272392
 30
0.0
  0
LINE
  5
16B
330
1F
100
AcDbEntity
  8
0
  6
HIDDEN
 62
     7
370
     0
100
AcDbLine
 10
148.2651620002
 20
99.0103251727
 30
0.0
 11
148.2651620002
 21
98.5345146661
 31
0.0
  0
SPLINE
  5
16C
330
1F
100
AcDbEntity
  8
0
  6
HIDDEN
 62
     7
370
     0
100
AcDbSpline
210
0.0
220
0.0
230
1.0
 70
     8
 71
     3
 72
    14
 73
    10
 74
     0
 42
0.00000001
 43
0.00000001
 12
1.0
 22
0.0
 32
0.0
 13
1.0
 23
0.0
 33
0.0
 40
0.0
 40
0.0
 40
0.0
 40
0.0
 40
0.2500000000000003
 40
0.2500000000000003
 40
0.5000000000000002
 40
0.5000000000000002
 40
0.7500000000000001
 40
0.7500000000000001
 40
1.0
 40
1.0
 40
1.0
 40
1.0
 10
147.3651620002395
 20
99.33660896439613
 30
0.0
 10
147.4877674236259
 20
99.33660896439613
 30
0.0
 10
147.6081105257187
 20
99.32606562248617
 30
0.0
 10
147.8284105298976
 20
99.28788266186153
 30
0.0
 10
147.9280542761851
 20
99.26024139372075
 30
0.0
 10
148.0909423612461
 20
99.19631006893339
 30
0.0
 10
148.1555870180488
 20
99.15959132996949
 30
0.0
 10
148.2423099829447
 20
99.08501468452388
 30
0.0
 10
148.2651620002394
 20
99.04675895065019
 30
0.0
 10
148.2651620002394
 20
99.01032517272392
 30
0.0
  0
LINE
  5
16D
330
1F
100
AcDbEntity
  8
0
  6
HIDDEN
 62
     7
370
     0
100
AcDbLine
 10
143.1151620002
 20
99.3366089644
 30
0.0
 11
143.1151620002
 21
118.7324203679
 31
0.0
  0
LINE
  5
16E
330
1F
100
AcDbEntity
  8
0
  6
HIDDEN
 62
     7
370
     0
100
AcDbLine
 10
145.7651620002
 20
120.0345146661
 30
0.0
 11
145.7651620002
 21
122.5920387879
 31
0.0
  0
LINE
  5
16F
330
1F
100
AcDbEntity
  8
0
  6
HIDDEN
 62
     7
370
     0
100
AcDbLine
 10
148.2651620002
 20
98.0345146661
 30
0.0
 11
148.2651620002
 21
95.4309384804
 31
0.0
  0
LINE
  5
170
330
1F
100
AcDbEntity
  8
0
  6
HIDDEN
 62
     7
370
     0
100
AcDbLine
 10
143.1151620002
 20
120.0345146661
 30
0.0
 11
143.1151620002
 21
121.9145146661
 31
0.0
  0
LINE
  5
171
330
1F
100
AcDbEntity
  8
0
  6
HIDDEN
 62
     7
370
     0
100
AcDbLine
 10
142.1651620002
 20
120.0345146661
 30
0.0
 11
142.1651620002
 21
120.9645146661
 31
0.0
  0
LINE
  5
172
330
1F
100
AcDbEntity
  8
0
  6
HIDDEN
 62
     7
370
     0
100
AcDbLine
 10
143.1151620002
 20
98.0345146661
 30
0.0
 11
143.1151620002
 21
96.2135146661
 31
0.0
  0
LINE
  5
173
330
1F
100
AcDbEntity
  8
0
  6
HIDDEN
 62
     7
370
     0
100
AcDbLine
 10
142.1651620002
 20
98.0345146661
 30
0.0
 11
142.1651620002
 21
97.1635146661
 31
0.0
  0
LINE
  5
174
330
1F
100
AcDbEntity
  8
0
  6
HIDDEN
 62
     7
370
     0
100
AcDbLine
 10
175.3651620002
 20
115.2845146661
 30
0.0
 11
175.3651620002
 21
102.7845146661
 31
0.0
  0
LINE
  5
175
330
1F
100
AcDbEntity
  8
0
  6
HIDDEN
 62
     7
370
     0
100
AcDbLine
 10
177.8651620002
 20
115.2845146661
 30
0.0
 11
177.8651620002
 21
102.7845146661
 31
0.0
  0
LINE
  5
176
330
1F
100
AcDbEntity
  8
0
  6
HIDDEN
 62
     7
370
     0
100
AcDbLine
 10
170.5151620002
 20
114.5345146661
 30
0.0
 11
170.5151620002
 21
103.5345146661
 31
0.0
  0
LINE
  5
177
330
1F
100
AcDbEntity
  8
0
  6
HIDDEN
 62
     7
370
     0
100
AcDbLine
 10
170.0151620002
 20
103.0345146661
 30
0.0
 11
170.0151620002
 21
115.0345146661
 31
0.0
  0
LINE
  5
178
330
1F
100
AcDbEntity
  8
0
  6
HIDDEN
 62
     7
370
     0
100
AcDbLine
 10
182.0151620002
 20
92.1345146661
 30
0.0
 11
179.0699395997
 21
92.1345146661
 31
0.0
  0
LINE
  5
179
330
1F
100
AcDbEntity
  8
0
  6
HIDDEN
 62
     7
370
     0
100
AcDbLine
 10
179.1051620002
 20
91.6053912782
 30
0.0
 11
179.1051620002
 21
91.9216357441
 31
0.0
  0
LINE
  5
17A
330
1F
100
AcDbEntity
  8
0
  6
HIDDEN
 62
     7
370
     0
100
AcDbLine
 10
182.0151620002
 20
92.1345146661
 30
0.0
 11
182.0151620002
 21
90.4304828451
 31
0.0
  0
LINE
  5
17B
330
1F
100
AcDbEntity
  8
0
  6
HIDDEN
 62
     7
370
     0
100
AcDbLine
 10
175.3651620002
 20
103.5345146661
 30
0.0
 11
175.3651620002
 21
114.5345146661
 31
0.0
  0
LINE
  5
17C
330
1F
100
AcDbEntity
  8
0
  6
HIDDEN
 62
     7
370
     0
100
AcDbLine
 10
177.0603844008
 20
92.1345146661
 30
0.0
 11
174.5151620002
 21
92.1345146661
 31
0.0
  0
LINE
  5
17D
330
1F
100
AcDbEntity
  8
0
  6
HIDDEN
 62
     7
370
     0
100
AcDbLine
 10
177.0251620002
 20
91.9216357441
 30
0.0
 11
177.0251620002
 21
91.6053912782
 31
0.0
  0
LINE
  5
17E
330
1F
100
AcDbEntity
  8
0
  6
HIDDEN
 62
     7
370
     0
100
AcDbLine
 10
170.0151620002
 20
89.0595303107
 30
0.0
 11
170.0151620002
 21
92.1345146661
 31
0.0
  0
LINE
  5
17F
330
1F
100
AcDbEntity
  8
0
  6
HIDDEN
 62
     7
370
     0
100
AcDbLine
 10
174.5151620002
 20
92.1345146661
 30
0.0
 11
170.0151620002
 21
92.1345146661
 31
0.0
  0
ELLIPSE
  5
180
330
1F
100
AcDbEntity
  8
0
  6
HIDDEN
 62
     7
370
     0
100
AcDbEllipse
 10
140.0593952605
 20
109.0345146661
 30
0.0
 11
12.26424774976738
 21
0.0
 31
0.0
210
0.0
220
0.0
230
1.0
 40
0.8164965809
 41
4.884943637108986
 42
4.964202354313278
  0
LINE
  5
181
330
1F
100
AcDbEntity
  8
0
  6
HIDDEN
 62
     7
370
     0
100
AcDbLine
 10
142.1651620002
 20
98.0345146661
 30
0.0
 11
142.1651620002
 21
99.169508523
 31
0.0
  0
ELLIPSE
  5
182
330
1F
100
AcDbEntity
  8
0
  6
HIDDEN
 62
     7
370
     0
100
AcDbEllipse
 10
140.0593952605
 20
109.0345146661
 30
0.0
 11
12.26424774976738
 21
0.0
 31
0.0
210
0.0
220
0.0
230
1.0
 40
0.8164965809
 41
1.31898295286632
 42
1.398241670070612
  0
LINE
  5
183
330
1F
100
AcDbEntity
  8
0
  6
HIDDEN
 62
     7
370
     0
100
AcDbLine
 10
142.1651620002
 20
120.0345146661
 30
0.0
 11
142.1651620002
 21
118.8995208093
 31
0.0
  0
CIRCLE
  5
184
330
1F
100
AcDbEntity
  8
0
  6
HIDDEN
 62
     7
370
     0
100
AcDbCircle
 10
201.0239769107
 20
114.4961730746
 30
0.0
 40
3.476487220717105
  0
LINE
  5
185
330
1F
100
AcDbEntity
  8
0
  6
HIDDEN
 62
     7
370
     0
100
AcDbLine
 10
182.0152241234
 20
125.9345146661
 30
0.0
 11
178.8568176145
 21
125.9345146661
 31
0.0
  0
LINE
  5
186
330
1F
100
AcDbEntity
  8
0
  6
HIDDEN
 62
     7
370
     0
100
AcDbLine
 10
179.1051620002
 20
126.7481913617
 30
0.0
 11
179.1051620002
 21
126.437118638
 31
0.0
  0
LINE
  5
187
330
1F
100
AcDbEntity
  8
0
  6
HIDDEN
 62
     7
370
     0
100
AcDbLine
 10
182.0151620002
 20
125.9460491914
 30
0.0
 11
182.0151620002
 21
127.9053916993
 31
0.0
  0
LINE
  5
188
330
1F
100
AcDbEntity
  8
0
  6
HIDDEN
 62
     7
370
     0
100
AcDbLine
 10
177.273506386
 20
125.9345146661
 30
0.0
 11
174.5151620002
 21
125.9345146661
 31
0.0
  0
LINE
  5
189
330
1F
100
AcDbEntity
  8
0
  6
HIDDEN
 62
     7
370
     0
100
AcDbLine
 10
177.0251620002
 20
126.437118638
 30
0.0
 11
177.0251620002
 21
126.7481913617
 31
0.0
  0
LINE
  5
18A
330
1F
100
AcDbEntity
  8
0
  6
HIDDEN
 62
     7
370
     0
100
AcDbLine
 10
174.5151620002
 20
125.9345146661
 30
0.0
 11
170.0151620002
 21
125.9345146661
 31
0.0
  0
ARC
  5
18B
330
1F
100
AcDbEntity
  8
0
  6
HIDDEN
 62
     7
370
     0
100
AcDbCircle
 10
196.5872014563
 20
119.9392136453
 30
0.0
 40
2.097506487969441
100
AcDbArc
 50
148.6005969029
 51
327.6987031269
  0
LINE
  5
18C
330
1F
100
AcDbEntity
  8
0
  6
HIDDEN
 62
     7
370
     0
100
AcDbLine
 10
143.1151620002
 20
98.0345146661
 30
0.0
 11
143.1151620002
 21
99.3366089644
 31
0.0
  0
LINE
  5
18D
330
1F
100
AcDbEntity
  8
0
  6
HIDDEN
 62
     7
370
     0
100
AcDbLine
 10
148.2651620002
 20
98.0345146661
 30
0.0
 11
148.2651620002
 21
99.0103251727
 31
0.0
  0
LINE
  5
18E
330
1F
100
AcDbEntity
  8
0
  6
HIDDEN
 62
     7
370
     0
100
AcDbLine
 10
143.1151620002
 20
120.0345146661
 30
0.0
 11
143.1151620002
 21
118.7324203679
 31
0.0
  0
LINE
  5
18F
330
1F
100
AcDbEntity
  8
0
  6
HIDDEN
 62
     7
370
     0
100
AcDbLine
 10
145.7651620002
 20
120.0345146661
 30
0.0
 11
145.7651620002
 21
119.0587041596
 31
0.0
  0
LINE
  5
190
330
1F
100
AcDbEntity
  8
0
  6
HIDDEN
 62
     7
370
     0
100
AcDbLine
 10
198.360118266
 20
118.8183659959
 30
0.0
 11
198.416427653
 21
118.9105639808
 31
0.0
  0
LINE
  5
191
330
1F
100
AcDbEntity
  8
0
  6
HIDDEN
 62
     7
370
     0
100
AcDbLine
 10
205.7635422819
 20
107.9292338175
 30
0.0
 11
208.441181716
 21
110.208751154
 31
0.0
  0
SPLINE
  5
192
330
1F
100
AcDbEntity
  8
0
  6
HIDDEN
 62
     7
370
     0
100
AcDbSpline
210
0.0
220
0.0
230
1.0
 70
     8
 71
     3
 72
    14
 73
    10
 74
     0
 42
0.00000001
 43
0.00000001
 12
1.0
 22
0.0
 32
0.0
 13
1.0
 23
0.0
 33
0.0
 40
0.0
 40
0.0
 40
0.0
 40
0.0
 40
0.25
 40
0.25
 40
0.5
 40
0.5
 40
0.75
 40
0.75
 40
1.0
 40
1.0
 40
1.0
 40
1.0
 10
196.2978350122605
 20
115.9341030058608
 30
0.0
 10
196.3819916396418
 20
116.0151245808429
 30
0.0
 10
196.4699982590533
 20
116.0941816939764
 30
0.0
 10
196.656385358677
 20
116.2480317443516
 30
0.0
 10
196.7563444355255
 20
116.3236254018398
 30
0.0
 10
196.9491246005192
 20
116.4551368330738
 30
0.0
 10
197.0401821130169
 20
116.5097573173785
 30
0.0
 10
197.1825061801605
 20
116.5862772417029
 30
0.0
 10
197.2337436677324
 20
116.6087685814649
 30
0.0
 10
197.2637608385496
 20
116.6192418161653
 30
0.0
  0
SPLINE
  5
193
330
1F
100
AcDbEntity
  8
0
  6
HIDDEN
 62
     7
370
     0
100
AcDbSpline
210
0.0
220
0.0
230
1.0
 70
     8
 71
     3
 72
     8
 73
     4
 74
     0
 42
0.00000001
 43
0.00000001
 12
1.0
 22
0.0
 32
0.0
 13
1.0
 23
0.0
 33
0.0
 40
0.0
 40
0.0
 40
0.0
 40
0.0
 40
1.0
 40
1.0
 40
1.0
 40
1.0
 10
197.8867452083576
 20
116.7049645806477
 30
0.0
 10
197.6807607431875
 20
116.7167679611537
 30
0.0
 10
197.4737749605869
 20
116.6925174490988
 30
0.0
 10
197.2637608385496
 20
116.6192418161653
 30
0.0
  0
SPLINE
  5
194
330
1F
100
AcDbEntity
  8
0
  6
HIDDEN
 62
     7
370
     0
100
AcDbSpline
210
0.0
220
0.0
230
1.0
 70
     8
 71
     3
 72
    10
 73
     6
 74
     0
 42
0.00000001
 43
0.00000001
 12
1.0
 22
0.0
 32
0.0
 13
1.0
 23
0.0
 33
0.0
 40
0.0
 40
0.0
 40
0.0
 40
0.0
 40
0.5
 40
0.5
 40
1.0
 40
1.0
 40
1.0
 40
1.0
 10
199.8786285207661
 20
129.1591264636425
 30
0.0
 10
199.4662577136552
 20
127.0943563146371
 30
0.0
 10
199.0805433026099
 20
125.025964071222
 30
0.0
 10
198.4005134646793
 20
120.8767602104913
 30
0.0
 10
198.1063857135429
 20
118.7959230916308
 30
0.0
 10
197.8867452083576
 20
116.7049645806477
 30
0.0
  0
LINE
  5
195
330
1F
100
AcDbEntity
  8
0
  6
HIDDEN
 62
     7
370
     0
100
AcDbLine
 10
199.8786285208
 20
129.1591264636
 30
0.0
 11
199.8786285208
 21
133.2448915371
 31
0.0
  0
SPLINE
  5
196
330
1F
100
AcDbEntity
  8
0
  6
HIDDEN
 62
     7
370
     0
100
AcDbSpline
210
0.0
220
0.0
230
1.0
 70
     8
 71
     3
 72
    11
 73
     7
 74
     0
 42
0.00000001
 43
0.00000001
 12
1.0
 22
0.0
 32
0.0
 13
1.0
 23
0.0
 33
0.0
 40
0.0
 40
0.0
 40
0.0
 40
0.0
 40
0.1481243280894012
 40
0.444573432967773
 40
0.7417980968680773
 40
1.0
 40
1.0
 40
1.0
 40
1.0
 10
199.8786285207661
 20
133.2448915371303
 30
0.0
 10
199.8243631154713
 20
133.2984997767517
 30
0.0
 10
199.6614934651275
 20
133.4593970407682
 30
0.0
 10
199.4788732542864
 20
133.7343203605803
 30
0.0
 10
199.3772421540056
 20
134.0575487158255
 30
0.0
 10
199.4216265749296
 20
134.2754270790222
 30
0.0
 10
199.4422596210103
 20
134.3767124898538
 30
0.0
  0
SPLINE
  5
197
330
1F
100
AcDbEntity
  8
0
  6
HIDDEN
 62
     7
370
     0
100
AcDbSpline
210
0.0
220
0.0
230
1.0
 70
     8
 71
     3
 72
    35
 73
    31
 74
     0
 42
0.00000001
 43
0.00000001
 12
1.0
 22
0.0
 32
0.0
 13
1.0
 23
0.0
 33
0.0
 40
-0.0968759714501042
 40
-0.0666637413391852
 40
-0.0343786692036262
 40
0.0
 40
0.0402501655240217
 40
0.074486822297714
 40
0.1027071321014836
 40
0.1249179508766664
 40
0.1620537620812453
 40
0.2036866237636825
 40
0.249906444777623
 40
0.2843401084296021
 40
0.310626505835345
 40
0.3287516660583151
 40
0.3698185614146569
 40
0.407158350767496
 40
0.4519490945113326
 40
0.5000414664481504
 40
0.5203026887113164
 40
0.5628788326114006
 40
0.5977565701835948
 40
0.6256573753262672
 40
0.6860513535191404
 40
0.7499481360754702
 40
0.7710338114890214
 40
0.812432459666722
 40
0.847205437420259
 40
0.8749589221790659
 40
0.9031240285498958
 40
0.9333362586608148
 40
0.9656213307963738
 40
1.0
 40
1.040250165524022
 40
1.074486822297714
 40
1.102707132101484
 10
153.9089357811775
 20
94.7936687541967
 30
0.0
 10
154.1475985711878
 20
94.83023621368883
 30
0.0
 10
154.4940328896184
 20
94.87064701624217
 30
0.0
 10
154.8987929761892
 20
94.90002079718813
 30
0.0
 10
155.2723913957032
 20
94.91722797772337
 30
0.0
 10
155.6810221806228
 20
94.92242077577927
 30
0.0
 10
156.1710889230697
 20
94.89749246022946
 30
0.0
 10
156.769479229809
 20
94.83667555787267
 30
0.0
 10
157.3046054326626
 20
94.74916278265647
 30
0.0
 10
157.6988617390403
 20
94.66540595845878
 30
0.0
 10
157.9387907646646
 20
94.6075233904769
 30
0.0
 10
158.152572513225
 20
94.54951053044796
 30
0.0
 10
158.3203403295241
 20
94.5029763351915
 30
0.0
 10
158.3908039505399
 20
94.48091539847839
 30
0.0
 10
158.3012787582007
 20
94.50969213439852
 30
0.0
 10
158.0684422639087
 20
94.57125432371114
 30
0.0
 10
157.7490081114291
 20
94.6551949934429
 30
0.0
 10
157.3969165668327
 20
94.73018764302721
 30
0.0
 10
156.9492160086243
 20
94.80796233684738
 30
0.0
 10
156.3823424734514
 20
94.88484672722285
 30
0.0
 10
155.6294922614806
 20
94.9301359379822
 30
0.0
 10
154.9583208141576
 20
94.91266243382555
 30
0.0
 10
154.4735277242463
 20
94.86789332234753
 30
0.0
 10
154.1591710193444
 20
94.83234408835476
 30
0.0
 10
153.9243370662759
 20
94.79665834031623
 30
0.0
 10
153.7993987401993
 20
94.77387628994887
 30
0.0
 10
153.7525744336808
 20
94.76689783903507
 30
0.0
 10
153.7840880658715
 20
94.77385640508507
 30
0.0
 10
153.9089357811775
 20
94.7936687541967
 30
0.0
 10
154.1475985711878
 20
94.83023621368883
 30
0.0
 10
154.4940328896184
 20
94.87064701624217
 30
0.0
  0
SPLINE
  5
198
330
1F
100
AcDbEntity
  8
0
  6
HIDDEN
 62
     7
370
     0
100
AcDbSpline
210
0.0
220
0.0
230
1.0
 70
     8
 71
     3
 72
    35
 73
    31
 74
     0
 42
0.00000001
 43
0.00000001
 12
1.0
 22
0.0
 32
0.0
 13
1.0
 23
0.0
 33
0.0
 40
-0.1243198177523707
 40
-0.101487746967076
 40
-0.0608367564040955
 40
0.0
 40
0.0343712166282127
 40
0.0666387492029915
 40
0.0968233043279691
 40
0.1249505753809247
 40
0.1526662634906047
 40
0.1874715367338393
 40
0.2288808094619508
 40
0.2500284990771244
 40
0.3139875781746266
 40
0.3744836764365846
 40
0.4023317405684081
 40
0.4371113310320257
 40
0.479588513280134
 40
0.4997903583980601
 40
0.5479907218493125
 40
0.5929884342252284
 40
0.6398023656121503
 40
0.6945155365639104
 40
0.7285101556289677
 40
0.7625224506971947
 40
0.7965528224366394
 40
0.8145532956149975
 40
0.8337228321515963
 40
0.8540904280743421
 40
0.8756801822476293
 40
0.898512253032924
 40
0.9391632435959045
 40
1.0
 40
1.034371216628213
 40
1.066638749202991
 40
1.096823304327969
 10
154.664476686176
 20
123.1806938491777
 30
0.0
 10
154.1930506296774
 20
123.231584524814
 30
0.0
 10
153.9091569261312
 20
123.2753021128023
 30
0.0
 10
153.7842056901939
 20
123.295107733053
 30
0.0
 10
153.7525937307366
 20
123.3020929065968
 30
0.0
 10
153.7990805682242
 20
123.2951498816378
 30
0.0
 10
153.9235411910278
 20
123.2723668254182
 30
0.0
 10
154.1578909100693
 20
123.2366952618816
 30
0.0
 10
154.4721841257047
 20
123.2011452411944
 30
0.0
 10
154.957109807562
 20
123.1563742595902
 30
0.0
 10
155.629064291555
 20
123.1388888253986
 30
0.0
 10
156.3823416343414
 20
123.1841265407918
 30
0.0
 10
156.9488256813576
 20
123.2608582020123
 30
0.0
 10
157.3954191684077
 20
123.3384701229382
 30
0.0
 10
157.7468069911724
 20
123.4132942893199
 30
0.0
 10
158.0666989185985
 20
123.4972516715204
 30
0.0
 10
158.3007683810259
 20
123.5588395711977
 30
0.0
 10
158.3975328625212
 20
123.5902415476346
 30
0.0
 10
158.2920668396337
 20
123.5562201849927
 30
0.0
 10
157.9926333027068
 20
123.4734650010572
 30
0.0
 10
157.5931874801963
 20
123.3836745365308
 30
0.0
 10
157.1924221163082
 20
123.3105213186254
 30
0.0
 10
156.8124734468808
 20
123.2432857395112
 30
0.0
 10
156.4814877640305
 20
123.1955469011523
 30
0.0
 10
156.2064038051923
 20
123.1707737429133
 30
0.0
 10
155.9111691457772
 20
123.1544638088622
 30
0.0
 10
155.6004345248806
 20
123.1477020702767
 30
0.0
 10
155.2038520011861
 20
123.1497264298525
 30
0.0
 10
154.664476686176
 20
123.1806938491777
 30
0.0
 10
154.1930506296774
 20
123.231584524814
 30
0.0
 10
153.9091569261312
 20
123.2753021128023
 30
0.0
  0
SPLINE
  5
199
330
1F
100
AcDbEntity
  8
0
  6
HIDDEN
 62
     7
370
     0
100
AcDbSpline
210
0.0
220
0.0
230
1.0
 70
     8
 71
     3
 72
    34
 73
    30
 74
     0
 42
0.00000001
 43
0.00000001
 12
1.0
 22
0.0
 32
0.0
 13
1.0
 23
0.0
 33
0.0
 40
0.0
 40
0.0
 40
0.0
 40
0.0
 40
0.1250000000000004
 40
0.1250000000000004
 40
0.2500000000000008
 40
0.2500000000000008
 40
0.3125000000000007
 40
0.3125000000000007
 40
0.3750000000000004
 40
0.3750000000000004
 40
0.4375000000000003
 40
0.4375000000000003
 40
0.4687500000000002
 40
0.4687500000000002
 40
0.5000000000000001
 40
0.5000000000000001
 40
0.5312500000000001
 40
0.5312500000000001
 40
0.5625
 40
0.5625
 40
0.625
 40
0.625
 40
0.6875
 40
0.6875
 40
0.7499999999999999
 40
0.7499999999999999
 40
0.875
 40
0.875
 40
1.0
 40
1.0
 40
1.0
 40
1.0
 10
199.2353972394479
 20
117.8228985674878
 30
0.0
 10
199.3039296383644
 20
117.8812412963301
 30
0.0
 10
199.4379963773749
 20
117.9542878296954
 30
0.0
 10
199.7849591638066
 20
118.1057166263623
 30
0.0
 10
200.0006239310384
 20
118.1848805025005
 30
0.0
 10
200.3837029700724
 20
118.285708887893
 30
0.0
 10
200.521706187472
 20
118.3164098743015
 30
0.0
 10
200.8251755086006
 20
118.3660833478515
 30
0.0
 10
200.9909168376392
 20
118.3853047603083
 30
0.0
 10
201.3596837435939
 20
118.399024470928
 30
0.0
 10
201.5616272641294
 20
118.3946312135487
 30
0.0
 10
201.9116631325617
 20
118.3439418393484
 30
0.0
 10
202.0347698979885
 20
118.3195712572522
 30
0.0
 10
202.2949717350498
 20
118.2471566236766
 30
0.0
 10
202.4269098998631
 20
118.2001253683352
 30
0.0
 10
202.6825199261676
 20
118.083768240827
 30
0.0
 10
202.8010385899549
 20
118.0165255273146
 30
0.0
 10
203.0069513502461
 20
117.8784337083522
 30
0.0
 10
203.0959809261568
 20
117.8070408192711
 30
0.0
 10
203.3263427871529
 20
117.5978137034616
 30
0.0
 10
203.435621853548
 20
117.4629327450777
 30
0.0
 10
203.6092441026098
 20
117.2090984860788
 30
0.0
 10
203.6728906972159
 20
117.0898290573772
 30
0.0
 10
203.7742352715064
 20
116.862502538695
 30
0.0
 10
203.8114471174412
 20
116.7545304559545
 30
0.0
 10
203.8946199878476
 20
116.4473694401973
 30
0.0
 10
203.9120168283011
 20
116.2688128142516
 30
0.0
 10
203.8958636907172
 20
115.9748942407459
 30
0.0
 10
203.8628097611258
 20
115.8582934474082
 30
0.0
 10
203.7945586331317
 20
115.8001901690071
 30
0.0
  0
ELLIPSE
  5
19A
330
1F
100
AcDbEntity
  8
0
  6
HIDDEN
 62
     7
370
     0
100
AcDbEllipse
 10
204.4349754763
 20
122.2281544875
 30
0.0
 11
3.057590872828542
 21
0.4260790707185294
 31
0.0
210
0.0
220
0.0
230
1.0
 40
0.126900916
 41
6.086380730656847
 42
6.595485802869746
  0
ELLIPSE
  5
19B
330
1F
100
AcDbEntity
  8
0
  6
HIDDEN
 62
     7
370
     0
100
AcDbEllipse
 10
204.4349754763
 20
122.2281544875
 30
0.0
 11
3.057590872828542
 21
0.4260790707185294
 31
0.0
210
0.0
220
0.0
230
1.0
 40
0.126900916
 41
1.636323559205407
 42
2.94478807706689
  0
LINE
  5
19C
330
1F
100
AcDbEntity
  8
0
  6
HIDDEN
 62
     7
370
     0
100
AcDbLine
 10
211.0306063953
 20
122.9474309399
 30
0.0
 11
209.9069710491
 21
121.9908621731
 31
0.0
  0
LINE
  5
19D
330
1F
100
AcDbEntity
  8
0
  6
HIDDEN
 62
     7
370
     0
100
AcDbLine
 10
189.1651620002
 20
111.5345146661
 30
0.0
 11
189.1651620002
 21
106.5345146661
 31
0.0
  0
SPLINE
  5
19E
330
1F
100
AcDbEntity
  8
0
  6
HIDDEN
 62
     7
370
     0
100
AcDbSpline
210
0.0
220
0.0
230
1.0
 70
     8
 71
     3
 72
    66
 73
    62
 74
     0
 42
0.00000001
 43
0.00000001
 12
1.0
 22
0.0
 32
0.0
 13
1.0
 23
0.0
 33
0.0
 40
-0.03125
 40
-0.03125
 40
0.0
 40
0.0
 40
0.0312499999999999
 40
0.0312499999999999
 40
0.0624999999999999
 40
0.0624999999999999
 40
0.0937499999999998
 40
0.0937499999999998
 40
0.1249999999999998
 40
0.1249999999999998
 40
0.1562499999999997
 40
0.1562499999999997
 40
0.1874999999999997
 40
0.1874999999999997
 40
0.2187499999999997
 40
0.2187499999999997
 40
0.2499999999999997
 40
0.2499999999999997
 40
0.2812499999999997
 40
0.2812499999999997
 40
0.3124999999999997
 40
0.3124999999999997
 40
0.3437499999999997
 40
0.3437499999999997
 40
0.3749999999999997
 40
0.3749999999999997
 40
0.4062499999999997
 40
0.4062499999999997
 40
0.4374999999999997
 40
0.4374999999999997
 40
0.4687499999999997
 40
0.4687499999999997
 40
0.4999999999999997
 40
0.4999999999999997
 40
0.5312499999999997
 40
0.5312499999999997
 40
0.5624999999999998
 40
0.5624999999999998
 40
0.5937499999999998
 40
0.5937499999999998
 40
0.6249999999999999
 40
0.6249999999999999
 40
0.6562499999999999
 40
0.6562499999999999
 40
0.6875
 40
0.6875
 40
0.71875
 40
0.71875
 40
0.7500000000000001
 40
0.7500000000000001
 40
0.7812500000000001
 40
0.7812500000000001
 40
0.8125000000000002
 40
0.8125000000000002
 40
0.8750000000000002
 40
0.8750000000000002
 40
0.9375000000000001
 40
0.9375000000000001
 40
0.96875
 40
0.96875
 40
1.0
 40
1.0
 40
1.03125
 40
1.03125
 10
186.2142973753667
 20
106.6549911969768
 30
0.0
 10
185.9160266251122
 20
106.6549911969768
 30
0.0
 10
185.772298317194
 20
106.6636624330356
 30
0.0
 10
185.4933600494995
 20
106.6984224568581
 30
0.0
 10
185.3648029064184
 20
106.7237284100968
 30
0.0
 10
185.1207852556909
 20
106.7913003822154
 30
0.0
 10
185.0053287618571
 20
106.8339099034444
 30
0.0
 10
184.791492108385
 20
106.935841180414
 30
0.0
 10
184.6920000031533
 20
106.9954006592814
 30
0.0
 10
184.5061963912173
 20
107.1351006149379
 30
0.0
 10
184.4195529376298
 20
107.2159531775432
 30
0.0
 10
184.2665916383007
 20
107.396560736635
 30
0.0
 10
184.1993839893377
 20
107.4967318644895
 30
0.0
 10
184.0861191023966
 20
107.7216267653263
 30
0.0
 10
184.0418747577992
 20
107.8431323841566
 30
0.0
 10
183.9813529781913
 20
108.1033681787301
 30
0.0
 10
183.9653652263368
 20
108.2434621923515
 30
0.0
 10
183.9649627506415
 20
108.5258902140678
 30
0.0
 10
183.9804371168833
 20
108.6723905173974
 30
0.0
 10
184.0403632210346
 20
108.9596785590156
 30
0.0
 10
184.0843456780584
 20
109.1004495534892
 30
0.0
 10
184.1971080953087
 20
109.3736719060703
 30
0.0
 10
184.2642880348057
 20
109.502574340419
 30
0.0
 10
184.4178700966373
 20
109.7471349330911
 30
0.0
 10
184.5041737355171
 20
109.8621539995413
 30
0.0
 10
184.6893029957494
 20
110.0722619506583
 30
0.0
 10
184.7888156171824
 20
110.1685444830636
 30
0.0
 10
185.0037262503181
 20
110.3439378189383
 30
0.0
 10
185.1189408813152
 20
110.4226764774851
 30
0.0
 10
185.3623988461405
 20
110.5557941925515
 30
0.0
 10
185.493250256171
 20
110.6115754955909
 30
0.0
 10
185.7698258868667
 20
110.6897504460973
 30
0.0
 10
185.9173913214491
 20
110.7118048036061
 30
0.0
 10
186.2113715620478
 20
110.7119541346808
 30
0.0
 10
186.3585664355833
 20
110.6900986093286
 30
0.0
 10
186.6346696586641
 20
110.6124497667592
 30
0.0
 10
186.7643635875344
 20
110.5575199951597
 30
0.0
 10
187.0099120766224
 20
110.4236979040701
 30
0.0
 10
187.1233719842321
 20
110.3462064012456
 30
0.0
 10
187.3371597267172
 20
110.1724448744567
 30
0.0
 10
187.4379864042606
 20
110.0754320866979
 30
0.0
 10
187.6247797317934
 20
109.8639769742655
 30
0.0
 10
187.7095172210934
 20
109.7511084799718
 30
0.0
 10
187.8617603895927
 20
109.5100528425034
 30
0.0
 10
187.929790169105
 20
109.3806780493666
 30
0.0
 10
188.043161461081
 20
109.1084995231469
 30
0.0
 10
188.0874621339309
 20
108.9686985220979
 30
0.0
 10
188.1486915619791
 20
108.6809046441964
 30
0.0
 10
188.1647245554698
 20
108.5348772723445
 30
0.0
 10
188.1655814505151
 20
108.2519362703997
 30
0.0
 10
188.1501833497824
 20
108.1113190967455
 30
0.0
 10
188.0907008120891
 20
107.8502292942829
 30
0.0
 10
188.0464107332295
 20
107.7271197108409
 30
0.0
 10
187.8780826581205
 20
107.3896328659198
 30
0.0
 10
187.7198243096177
 20
107.2078541603387
 30
0.0
 10
187.3497964216632
 20
106.928052729184
 30
0.0
 10
187.1339173318626
 20
106.8260936339504
 30
0.0
 10
186.768893178393
 20
106.7244899306693
 30
0.0
 10
186.6375446620478
 20
106.6985811853077
 30
0.0
 10
186.3612534496726
 20
106.6639794818094
 30
0.0
 10
186.2142973753667
 20
106.6549911969768
 30
0.0
 10
185.9160266251122
 20
106.6549911969768
 30
0.0
  0
LINE
  5
19F
330
1F
100
AcDbEntity
  8
0
  6
HIDDEN
 62
     7
370
     0
100
AcDbLine
 10
177.8651620002
 20
106.5345146661
 30
0.0
 11
177.8651620002
 21
111.5216879746
 31
0.0
  0
LINE
  5
1A0
330
1F
100
AcDbEntity
  8
0
  6
HIDDEN
 62
     7
370
     0
100
AcDbLine
 10
202.6359791923
 20
133.8673685917
 30
0.0
 11
203.7596145385
 21
134.8239373585
 31
0.0
  0
LINE
  5
1A1
330
1F
100
AcDbEntity
  8
0
  6
HIDDEN
 62
     7
370
     0
100
AcDbLine
 10
203.7945586331
 20
115.800190169
 30
0.0
 11
203.2837024881
 21
115.3652901507
 31
0.0
  0
LINE
  5
1A2
330
1F
100
AcDbEntity
  8
0
  6
HIDDEN
 62
     7
370
     0
100
AcDbLine
 10
203.2837024881
 20
115.3652901507
 30
0.0
 11
204.9935019792
 21
119.9929132477
 31
0.0
  0
LINE
  5
1A3
330
1F
100
AcDbEntity
  8
0
  6
HIDDEN
 62
     7
370
     0
100
AcDbLine
 10
208.0074792978
 20
125.2660487611
 30
0.0
 11
207.6908398169
 21
124.9964884996
 31
0.0
  0
SPLINE
  5
1A4
330
1F
100
AcDbEntity
  8
0
  6
HIDDEN
 62
     7
370
     0
100
AcDbSpline
210
0.0
220
0.0
230
1.0
 70
     8
 71
     3
 72
     8
 73
     4
 74
     0
 42
0.00000001
 43
0.00000001
 12
1.0
 22
0.0
 32
0.0
 13
1.0
 23
0.0
 33
0.0
 40
0.0
 40
0.0
 40
0.0
 40
0.0
 40
1.0
 40
1.0
 40
1.0
 40
1.0
 10
208.007479297773
 20
125.266048761083
 30
0.0
 10
207.928436557816
 20
125.0549614855383
 30
0.0
 10
207.85402883211
 20
124.852402020756
 30
0.0
 10
207.7821572994362
 20
124.6545088143851
 30
0.0
  0
LINE
  5
1A5
330
1F
100
AcDbEntity
  8
0
  6
HIDDEN
 62
     7
370
     0
100
AcDbLine
 10
206.5568488167
 20
121.8147931583
 30
0.0
 11
207.7821572994
 21
124.6545088144
 31
0.0
  0
LINE
  5
1A6
330
1F
100
AcDbEntity
  8
0
  6
HIDDEN
 62
     7
370
     0
100
AcDbLine
 10
207.4441164851
 20
122.5701383352
 30
0.0
 11
206.5568488167
 21
121.8147931583
 31
0.0
  0
LINE
  5
1A7
330
1F
100
AcDbEntity
  8
0
  6
HIDDEN
 62
     7
370
     0
100
AcDbLine
 10
198.7245410944
 20
117.3879985492
 30
0.0
 11
199.2353972394
 21
117.8228985675
 31
0.0
  0
ELLIPSE
  5
1A8
330
1F
100
AcDbEntity
  8
0
  6
HIDDEN
 62
     7
370
     0
100
AcDbEllipse
 10
199.9583849595
 20
113.5463265603
 30
0.0
 11
3.360552843564903
 21
-2.555210415169739
 31
0.0
210
0.0
220
0.0
230
1.0
 40
0.8809351658
 41
1.195844005133195
 42
2.470967846371602
  0
ELLIPSE
  5
1A9
330
1F
100
AcDbEntity
  8
0
  6
HIDDEN
 62
     7
370
     0
100
AcDbEllipse
 10
198.8542887426
 20
112.6063917672
 30
0.0
 11
3.239832403550396
 21
2.758121215709651
 31
0.0
210
0.0
220
0.0
230
1.0
 40
0.98710888
 41
4.563476351772666
 42
7.38579341063255
  0
SPLINE
  5
1AA
330
1F
100
AcDbEntity
  8
0
  6
HIDDEN
 62
     7
370
     0
100
AcDbSpline
210
0.0
220
0.0
230
1.0
 70
     8
 71
     3
 72
    10
 73
     6
 74
     0
 42
0.00000001
 43
0.00000001
 12
1.0
 22
0.0
 32
0.0
 13
1.0
 23
0.0
 33
0.0
 40
0.0
 40
0.0
 40
0.0
 40
0.0
 40
0.5
 40
0.5
 40
1.0
 40
1.0
 40
1.0
 40
1.0
 10
197.2637608385496
 20
108.7909315690895
 30
0.0
 10
197.199981481015
 20
108.8549565947085
 30
0.0
 10
197.0514981944803
 20
108.9522724519246
 30
0.0
 10
196.6934378776264
 20
109.2020743820057
 30
0.0
 10
196.4912095561004
 20
109.3509781982911
 30
0.0
 10
196.2978350122602
 20
109.5136847108914
 30
0.0
  0
SPLINE
  5
1AB
330
1F
100
AcDbEntity
  8
0
  6
HIDDEN
 62
     7
370
     0
100
AcDbSpline
210
0.0
220
0.0
230
1.0
 70
     8
 71
     3
 72
     8
 73
     4
 74
     0
 42
0.00000001
 43
0.00000001
 12
1.0
 22
0.0
 32
0.0
 13
1.0
 23
0.0
 33
0.0
 40
0.0
 40
0.0
 40
0.0
 40
0.0
 40
1.0
 40
1.0
 40
1.0
 40
1.0
 10
197.2637608385496
 20
108.7909315690895
 30
0.0
 10
197.3313614212068
 20
108.723070599588
 30
0.0
 10
197.3991522215994
 20
108.6595125900348
 30
0.0
 10
197.4670857888861
 20
108.5999580337362
 30
0.0
  0
SPLINE
  5
1AC
330
1F
100
AcDbEntity
  8
0
  6
HIDDEN
 62
     7
370
     0
100
AcDbSpline
210
0.0
220
0.0
230
1.0
 70
     8
 71
     3
 72
    14
 73
    10
 74
     0
 42
0.00000001
 43
0.00000001
 12
1.0
 22
0.0
 32
0.0
 13
1.0
 23
0.0
 33
0.0
 40
0.0
 40
0.0
 40
0.0
 40
0.0
 40
0.25
 40
0.25
 40
0.5
 40
0.5
 40
0.75
 40
0.75
 40
1.0
 40
1.0
 40
1.0
 40
1.0
 10
197.4670857888861
 20
108.5999580337362
 30
0.0
 10
197.7621388279918
 20
108.5018684077945
 30
0.0
 10
198.0724881925349
 20
108.4359864594593
 30
0.0
 10
198.6903092861666
 20
108.3746097551173
 30
0.0
 10
199.0025636734373
 20
108.3776959153724
 30
0.0
 10
199.6256278002401
 20
108.4531833616928
 30
0.0
 10
199.9277835068514
 20
108.5242474447241
 30
0.0
 10
200.5139450709251
 20
108.7309295313859
 30
0.0
 10
200.7992870977899
 20
108.8679203091458
 30
0.0
 10
201.0660531412689
 20
109.0345146661443
 30
0.0
  0
CIRCLE
  5
1AD
330
1F
100
AcDbEntity
  8
0
  6
HIDDEN
 62
     7
370
     0
100
AcDbCircle
 10
200.9735478789
 20
114.4615112518
 30
0.0
 40
4.172099954555236
  0
LWPOLYLINE
  5
1AE
330
1F
100
AcDbEntity
  8
0
  6
HIDDEN
 62
     7
370
     0
100
AcDbPolyline
 90
       29
 70
   128
 43
0.0
 10
186.0651620002
 20
104.350676126
 10
186.5324559615
 20
104.401533458
 10
186.9763178524
 20
104.551555255
 10
187.3744905841
 20
104.7932187977
 10
187.7070081134
 20
105.1144060669
 10
187.9571966228
 20
105.4990113919
 10
188.1125106158
 20
105.9277490555
 10
188.1651620002
 20
106.3791203612
 10
188.1125106158
 20
106.8304916669
 10
187.9571966228
 20
107.2592293306
 10
187.7070081134
 20
107.6438346555
 10
187.3744905841
 20
107.9650219247
 10
186.9763178524
 20
108.2066854674
 10
186.5324559615
 20
108.3567072644
 10
186.0651620002
 20
108.4075645964
 10
185.5978680389
 20
108.3567072644
 10
185.1540061481
 20
108.2066854674
 10
184.7558334163
 20
107.9650219247
 10
184.4233158871
 20
107.6438346555
 10
184.1731273776
 20
107.2592293306
 10
184.0178133847
 20
106.8304916669
 10
183.9651620002
 20
106.3791203612
 10
184.0178133847
 20
105.9277490555
 10
184.1731273776
 20
105.4990113919
 10
184.4233158871
 20
105.1144060669
 10
184.7558334163
 20
104.7932187977
 10
185.1540061481
 20
104.551555255
 10
185.5978680389
 20
104.401533458
 10
186.0651620002
 20
104.350676126
  0
LINE
  5
1AF
330
1F
100
AcDbEntity
  8
0
  6
HIDDEN
 62
     7
370
     0
100
AcDbLine
 10
170.0151620002
 20
92.1345146661
 30
0.0
 11
174.5151620002
 21
92.1345146661
 31
0.0
  0
LINE
  5
1B0
330
1F
100
AcDbEntity
  8
0
  6
HIDDEN
 62
     7
370
     0
100
AcDbLine
 10
200.9988688594
 20
121.5226879791
 30
0.0
 11
201.4258344676
 21
121.8861706398
 31
0.0
  0
LINE
  5
1B1
330
1F
100
AcDbEntity
  8
0
  6
HIDDEN
 62
     7
370
     0
100
AcDbLine
 10
148.2651620002
 20
98.0345146661
 30
0.0
 11
148.2651620002
 21
95.4309384804
 31
0.0
  0
LINE
  5
1B2
330
1F
100
AcDbEntity
  8
0
  6
HIDDEN
 62
     7
370
     0
100
AcDbLine
 10
145.7651620002
 20
120.0345146661
 30
0.0
 11
145.7651620002
 21
122.5920387879
 31
0.0
  0
LINE
  5
1B3
330
1F
100
AcDbEntity
  8
0
  6
HIDDEN
 62
     7
370
     0
100
AcDbLine
 10
179.1051620002
 20
126.437118638
 30
0.0
 11
179.1051620002
 21
91.9216357441
 31
0.0
  0
SPLINE
  5
1B4
330
1F
100
AcDbEntity
  8
0
  6
HIDDEN
 62
     7
370
     0
100
AcDbSpline
210
0.0
220
0.0
230
1.0
 70
     8
 71
     3
 72
    10
 73
     6
 74
     0
 42
0.00000001
 43
0.00000001
 12
1.0
 22
0.0
 32
0.0
 13
1.0
 23
0.0
 33
0.0
 40
0.0
 40
0.0
 40
0.0
 40
0.0
 40
0.5
 40
0.5
 40
1.0
 40
1.0
 40
1.0
 40
1.0
 10
178.8568176144895
 20
125.9345146661443
 30
0.0
 10
178.934245619038
 20
125.9924739725314
 30
0.0
 10
178.9974252359246
 20
126.0694586276495
 30
0.0
 10
179.0827204151857
 20
126.2430287605219
 30
0.0
 10
179.1051620002394
 20
126.3399300230036
 30
0.0
 10
179.1051620002394
 20
126.4371186379642
 30
0.0
  0
SPLINE
  5
1B5
330
1F
100
AcDbEntity
  8
0
  6
HIDDEN
 62
     7
370
     0
100
AcDbSpline
210
0.0
220
0.0
230
1.0
 70
     8
 71
     3
 72
    10
 73
     6
 74
     0
 42
0.00000001
 43
0.00000001
 12
1.0
 22
0.0
 32
0.0
 13
1.0
 23
0.0
 33
0.0
 40
0.0
 40
0.0
 40
0.0
 40
0.0
 40
0.5
 40
0.5
 40
1.0
 40
1.0
 40
1.0
 40
1.0
 10
179.0699395996581
 20
92.13451466614434
 30
0.0
 10
179.0816517166212
 20
92.10017132895037
 30
0.0
 10
179.0904497864933
 20
92.06507879121214
 30
0.0
 10
179.1022633442653
 20
91.9934070158214
 30
0.0
 10
179.1051620002394
 20
91.95746336145613
 30
0.0
 10
179.1051620002394
 20
91.92163574411603
 30
0.0
  0
SPLINE
  5
1B6
330
1F
100
AcDbEntity
  8
0
  6
HIDDEN
 62
     7
370
     0
100
AcDbSpline
210
0.0
220
0.0
230
1.0
 70
    24
 71
     3
 72
    14
 73
    10
 74
     0
 42
0.00000001
 43
0.00000001
 12
1.0
 22
0.0
 32
0.0
 13
1.0
 23
0.0
 33
0.0
 40
0.0
 40
0.0
 40
0.0
 40
0.0
 40
0.1250000000000056
 40
0.1250000000000056
 40
0.2500000000000113
 40
0.2500000000000113
 40
0.5000000000000075
 40
0.5000000000000075
 40
1.0
 40
1.0
 40
1.0
 40
1.0
 10
178.5051620002394
 20
125.9345146661443
 30
0.0
 10
178.5306032313239
 20
125.9345146661443
 30
0.0
 10
178.5562175339513
 20
125.9345146661443
 30
0.0
 10
178.6016939744785
 20
125.9345146661443
 30
0.0
 10
178.6216971762179
 20
125.9345146661443
 30
0.0
 10
178.6768423681907
 20
125.9345146661443
 30
0.0
 10
178.7062765867128
 20
125.9345146661443
 30
0.0
 10
178.7841895992916
 20
125.9345146661443
 30
0.0
 10
178.8227656998122
 20
125.9345146661443
 30
0.0
 10
178.8568176144902
 20
125.9345146661443
 30
0.0
  0
SPLINE
  5
1B7
330
1F
100
AcDbEntity
  8
0
  6
HIDDEN
 62
     7
370
     0
100
AcDbSpline
210
0.0
220
0.0
230
1.0
 70
    24
 71
     3
 72
    16
 73
    12
 74
     0
 42
0.00000001
 43
0.00000001
 12
1.0
 22
0.0
 32
0.0
 13
1.0
 23
0.0
 33
0.0
 40
0.0
 40
0.0
 40
0.0
 40
0.0
 40
0.0624999999999987
 40
0.0624999999999987
 40
0.1249999999999973
 40
0.1249999999999973
 40
0.2499999999999974
 40
0.2499999999999974
 40
0.4999999999999989
 40
0.4999999999999989
 40
1.0
 40
1.0
 40
1.0
 40
1.0
 10
178.5051620002394
 20
92.13451466614433
 30
0.0
 10
178.5394498236995
 20
92.13451466614433
 30
0.0
 10
178.5733337330211
 20
92.13451466614433
 30
0.0
 10
178.6296699258379
 20
92.13451466614433
 30
0.0
 10
178.6539317820049
 20
92.13451466614433
 30
0.0
 10
178.718224900052
 20
92.13451466614433
 30
0.0
 10
178.7517886894787
 20
92.13451466614434
 30
0.0
 10
178.8397050617013
 20
92.13451466614433
 30
0.0
 10
178.8824616044179
 20
92.13451466614433
 30
0.0
 10
178.9930063460681
 20
92.13451466614433
 30
0.0
 10
179.0399857598303
 20
92.13451466614433
 30
0.0
 10
179.0699395996581
 20
92.13451466614433
 30
0.0
  0
SPLINE
  5
1B8
330
1F
100
AcDbEntity
  8
0
  6
HIDDEN
 62
     7
370
     0
100
AcDbSpline
210
0.0
220
0.0
230
1.0
 70
     8
 71
     3
 72
    10
 73
     6
 74
     0
 42
0.00000001
 43
0.00000001
 12
1.0
 22
0.0
 32
0.0
 13
1.0
 23
0.0
 33
0.0
 40
0.0
 40
0.0
 40
0.0
 40
0.0
 40
0.5
 40
0.5
 40
1.0
 40
1.0
 40
1.0
 40
1.0
 10
177.0251620002394
 20
126.4371186379642
 30
0.0
 10
177.0251620002394
 20
126.3401835727325
 30
0.0
 10
177.0476116360849
 20
126.2431242939933
 30
0.0
 10
177.132607294353
 20
126.0699402065863
 30
0.0
 10
177.1954633782834
 20
125.9929343377008
 30
0.0
 10
177.2735063859894
 20
125.9345146661444
 30
0.0
  0
LINE
  5
1B9
330
1F
100
AcDbEntity
  8
0
  6
HIDDEN
 62
     7
370
     0
100
AcDbLine
 10
177.0251620002
 20
126.437118638
 30
0.0
 11
177.0251620002
 21
91.9216357441
 31
0.0
  0
SPLINE
  5
1BA
330
1F
100
AcDbEntity
  8
0
  6
HIDDEN
 62
     7
370
     0
100
AcDbSpline
210
0.0
220
0.0
230
1.0
 70
     8
 71
     3
 72
    10
 73
     6
 74
     0
 42
0.00000001
 43
0.00000001
 12
1.0
 22
0.0
 32
0.0
 13
1.0
 23
0.0
 33
0.0
 40
0.0
 40
0.0
 40
0.0
 40
0.0
 40
0.5
 40
0.5
 40
1.0
 40
1.0
 40
1.0
 40
1.0
 10
177.0251620002394
 20
91.92163574411605
 30
0.0
 10
177.0251620002394
 20
91.95785823355679
 30
0.0
 10
177.0281317295369
 20
91.99405143081535
 30
0.0
 10
177.0400107118848
 20
92.06568992223022
 30
0.0
 10
177.0488059397255
 20
92.10056324687191
 30
0.0
 10
177.0603844008208
 20
92.13451466614433
 30
0.0
  0
SPLINE
  5
1BB
330
1F
100
AcDbEntity
  8
0
  6
HIDDEN
 62
     7
370
     0
100
AcDbSpline
210
0.0
220
0.0
230
1.0
 70
    24
 71
     3
 72
    12
 73
     8
 74
     0
 42
0.00000001
 43
0.00000001
 12
1.0
 22
0.0
 32
0.0
 13
1.0
 23
0.0
 33
0.0
 40
0.0
 40
0.0
 40
0.0
 40
0.0
 40
0.4999999999999982
 40
0.4999999999999982
 40
0.7499999999999991
 40
0.7499999999999991
 40
1.0
 40
1.0
 40
1.0
 40
1.0
 10
177.2735063859894
 20
125.9345146661443
 30
0.0
 10
177.3074577114652
 20
125.9345146661443
 30
0.0
 10
177.3462035696674
 20
125.9345146661443
 30
0.0
 10
177.4243989166751
 20
125.9345146661443
 30
0.0
 10
177.4539076083599
 20
125.9345146661443
 30
0.0
 10
177.5267827697656
 20
125.9345146661443
 30
0.0
 10
177.5735794038999
 20
125.9345146661443
 30
0.0
 10
177.6251620002394
 20
125.9345146661443
 30
0.0
  0
SPLINE
  5
1BC
330
1F
100
AcDbEntity
  8
0
  6
HIDDEN
 62
     7
370
     0
100
AcDbSpline
210
0.0
220
0.0
230
1.0
 70
    24
 71
     3
 72
    16
 73
    12
 74
     0
 42
0.00000001
 43
0.00000001
 12
1.0
 22
0.0
 32
0.0
 13
1.0
 23
0.0
 33
0.0
 40
0.0
 40
0.0
 40
0.0
 40
0.0
 40
0.5000000000000002
 40
0.5000000000000002
 40
0.7499999999999996
 40
0.7499999999999996
 40
0.8749999999999991
 40
0.8749999999999991
 40
0.9374999999999996
 40
0.9374999999999996
 40
1.0
 40
1.0
 40
1.0
 40
1.0
 10
177.0603844008208
 20
92.13451466614433
 30
0.0
 10
177.090161806511
 20
92.13451466614431
 30
0.0
 10
177.1371350523748
 20
92.13451466614433
 30
0.0
 10
177.24745251173
 20
92.13451466614433
 30
0.0
 10
177.2905969821914
 20
92.13451466614433
 30
0.0
 10
177.3792587818614
 20
92.13451466614431
 30
0.0
 10
177.4123099889909
 20
92.13451466614433
 30
0.0
 10
177.4766555734766
 20
92.13451466614433
 30
0.0
 10
177.5008006869102
 20
92.13451466614433
 30
0.0
 10
177.5574196075356
 20
92.13451466614431
 30
0.0
 10
177.5910221544139
 20
92.13451466614431
 30
0.0
 10
177.6251620002396
 20
92.13451466614433
 30
0.0
  0
LINE
  5
1BD
330
1F
100
AcDbEntity
  8
0
  6
HIDDEN
 62
     7
370
     0
100
AcDbLine
 10
143.1151620002
 20
98.0345146661
 30
0.0
 11
143.1151620002
 21
96.2194283571
 31
0.0
  0
LINE
  5
1BE
330
1F
100
AcDbEntity
  8
0
  6
HIDDEN
 62
     7
370
     0
100
AcDbLine
 10
142.1651620002
 20
98.0345146661
 30
0.0
 11
142.1651620002
 21
97.1686915956
 31
0.0
  0
LINE
  5
1BF
330
1F
100
AcDbEntity
  8
0
  6
HIDDEN
 62
     7
370
     0
100
AcDbLine
 10
142.1651620002
 20
118.8995208093
 30
0.0
 11
142.1651620002
 21
99.169508523
 31
0.0
  0
LINE
  5
1C0
330
1F
100
AcDbEntity
  8
0
  6
HIDDEN
 62
     7
370
     0
100
AcDbLine
 10
143.1151620002
 20
120.0345146661
 30
0.0
 11
143.1151620002
 21
121.907255229
 31
0.0
  0
LINE
  5
1C1
330
1F
100
AcDbEntity
  8
0
  6
HIDDEN
 62
     7
370
     0
100
AcDbLine
 10
142.1651620002
 20
120.0345146661
 30
0.0
 11
142.1651620002
 21
120.9589870607
 31
0.0
  0
LINE
  5
1C2
330
1F
100
AcDbEntity
  8
0
  6
HIDDEN
 62
     7
370
     0
100
AcDbLine
 10
177.6251620002
 20
125.9345146661
 30
0.0
 11
178.5051620002
 21
125.9345146661
 31
0.0
  0
LINE
  5
1C3
330
1F
100
AcDbEntity
  8
0
  6
HIDDEN
 62
     7
370
     0
100
AcDbLine
 10
177.6251620002
 20
92.1345146661
 30
0.0
 11
178.5051620002
 21
92.1345146661
 31
0.0
  0
LINE
  5
1C4
330
1F
100
AcDbEntity
  8
0
  6
HIDDEN
 62
     7
370
     0
100
AcDbLine
 10
182.0151620002
 20
127.9053916993
 30
0.0
 11
182.0151620002
 21
90.4304828451
 31
0.0
  0
SPLINE
  5
1C5
330
1F
100
AcDbEntity
  8
0
  6
HIDDEN
 62
     7
370
     0
100
AcDbSpline
210
0.0
220
0.0
230
1.0
 70
     8
 71
     3
 72
    10
 73
     6
 74
     0
 42
0.00000001
 43
0.00000001
 12
1.0
 22
0.0
 32
0.0
 13
1.0
 23
0.0
 33
0.0
 40
0.0
 40
0.0
 40
0.0
 40
0.0
 40
0.5
 40
0.5
 40
1.0
 40
1.0
 40
1.0
 40
1.0
 10
181.4151620002394
 20
128.5216899360494
 30
0.0
 10
181.5755842248388
 20
128.5216899360494
 30
0.0
 10
181.7320670255061
 20
128.4531045335436
 30
0.0
 10
181.9527206360735
 20
128.223331264224
 30
0.0
 10
182.0151620002395
 20
128.0648330625563
 30
0.0
 10
182.0151620002394
 20
127.9053916992872
 30
0.0
  0
SPLINE
  5
1C6
330
1F
100
AcDbEntity
  8
0
  6
HIDDEN
 62
     7
370
     0
100
AcDbSpline
210
0.0
220
0.0
230
1.0
 70
     8
 71
     3
 72
    12
 73
     8
 74
     0
 42
0.00000001
 43
0.00000001
 12
1.0
 22
0.0
 32
0.0
 13
1.0
 23
0.0
 33
0.0
 40
0.0
 40
0.0
 40
0.0
 40
0.0
 40
0.2499999999999981
 40
0.2499999999999981
 40
0.4999999999999961
 40
0.4999999999999961
 40
1.0
 40
1.0
 40
1.0
 40
1.0
 10
181.4151620002394
 20
89.80563014311493
 30
0.0
 10
181.4949274807097
 20
89.80563014311493
 30
0.0
 10
181.5753487643668
 20
89.82260573947302
 30
0.0
 10
181.7220306810293
 20
89.88708123693223
 30
0.0
 10
181.7883844905932
 20
89.93419486872682
 30
0.0
 10
181.9545885713198
 20
90.1108047827143
 30
0.0
 10
182.0151620002394
 20
90.27065365852246
 30
0.0
 10
182.0151620002395
 20
90.43048284505748
 30
0.0
  0
SPLINE
  5
1C7
330
1F
100
AcDbEntity
  8
0
  6
HIDDEN
 62
     7
370
     0
100
AcDbSpline
210
0.0
220
0.0
230
1.0
 70
     8
 71
     3
 72
     8
 73
     4
 74
     0
 42
0.00000001
 43
0.00000001
 12
1.0
 22
0.0
 32
0.0
 13
1.0
 23
0.0
 33
0.0
 40
0.0
 40
0.0
 40
0.0
 40
0.0
 40
1.0
 40
1.0
 40
1.0
 40
1.0
 10
176.030002301346
 20
128.5216899360494
 30
0.0
 10
176.3623603977357
 20
127.9308797223775
 30
0.0
 10
176.6941416692198
 20
127.3397470581322
 30
0.0
 10
177.0251620002394
 20
126.7481913616746
 30
0.0
  0
SPLINE
  5
1C8
330
1F
100
AcDbEntity
  8
0
  6
HIDDEN
 62
     7
370
     0
100
AcDbSpline
210
0.0
220
0.0
230
1.0
 70
     8
 71
     3
 72
     8
 73
     4
 74
     0
 42
0.00000001
 43
0.00000001
 12
1.0
 22
0.0
 32
0.0
 13
1.0
 23
0.0
 33
0.0
 40
0.0
 40
0.0
 40
0.0
 40
0.0
 40
1.0
 40
1.0
 40
1.0
 40
1.0
 10
179.1051620002394
 20
126.7481913616746
 30
0.0
 10
179.4361823312591
 20
127.3397470581322
 30
0.0
 10
179.7679636027432
 20
127.9308797223774
 30
0.0
 10
180.1003216991329
 20
128.5216899360494
 30
0.0
  0
LINE
  5
1C9
330
1F
100
AcDbEntity
  8
0
  6
HIDDEN
 62
     7
370
     0
100
AcDbLine
 10
180.1003216991
 20
128.521689936
 30
0.0
 11
181.4151620002
 21
128.521689936
 31
0.0
  0
LINE
  5
1CA
330
1F
100
AcDbEntity
  8
0
  6
HIDDEN
 62
     7
370
     0
100
AcDbLine
 10
180.1003216991
 20
128.521689936
 30
0.0
 11
180.1003216991
 21
89.8056301431
 31
0.0
  0
LINE
  5
1CB
330
1F
100
AcDbEntity
  8
0
  6
HIDDEN
 62
     7
370
     0
100
AcDbLine
 10
179.1051620002
 20
126.7481913617
 30
0.0
 11
179.1051620002
 21
91.6053912782
 31
0.0
  0
LINE
  5
1CC
330
1F
100
AcDbEntity
  8
0
  6
HIDDEN
 62
     7
370
     0
100
AcDbLine
 10
177.0251620002
 20
126.7481913617
 30
0.0
 11
177.0251620002
 21
91.6053912782
 31
0.0
  0
ARC
  5
1CD
330
1F
100
AcDbEntity
  8
0
  6
HIDDEN
 62
     7
370
     0
100
AcDbCircle
 10
206.5992240165
 20
128.1376936322
 30
0.0
 40
3.678574129589196
100
AcDbArc
 50
288.7581320122
 51
203.3921673265
  0
ELLIPSE
  5
1CE
330
1F
100
AcDbEntity
  8
0
  6
HIDDEN
 62
     7
370
     0
100
AcDbEllipse
 10
163.9342483049
 20
109.0345146661
 30
0.0
 11
219.897075350938
 21
-2.864978418024947
 31
0.0
210
0.0
220
0.0
230
1.0
 40
0.1220915185
 41
1.329525312632258
 42
1.339014125046722
  0
LINE
  5
1CF
330
1F
100
AcDbEntity
  8
0
  6
HIDDEN
 62
     7
370
     0
100
AcDbLine
 10
217.0651620002
 20
133.9273690537
 30
0.0
 11
216.8156349521
 21
134.4201672501
 31
0.0
  0
LINE
  5
1D0
330
1F
100
AcDbEntity
  8
0
  6
HIDDEN
 62
     7
370
     0
100
AcDbLine
 10
211.0490870437
 20
124.0735865167
 30
0.0
 11
217.0655859142
 21
133.9246806407
 31
0.0
  0
LINE
  5
1D1
330
1F
100
AcDbEntity
  8
0
  6
HIDDEN
 62
     7
370
     0
100
AcDbLine
 10
203.2229959058
 20
126.6772172129
 30
0.0
 11
200.9988688594
 21
121.5226879791
 31
0.0
  0
LINE
  5
1D2
330
1F
100
AcDbEntity
  8
0
  6
HIDDEN
 62
     7
370
     0
100
AcDbLine
 10
214.7877756304
 20
134.5060183716
 30
0.0
 11
202.6359791923
 21
133.8673685917
 31
0.0
  0
LINE
  5
1D3
330
1F
100
AcDbEntity
  8
0
  6
HIDDEN
 62
     7
370
     0
100
AcDbLine
 10
206.5568488167
 20
121.8147931583
 30
0.0
 11
209.9069710491
 21
121.9908621731
 31
0.0
  0
LINE
  5
1D4
330
1F
100
AcDbEntity
  8
0
  6
HIDDEN
 62
     7
370
     0
100
AcDbLine
 10
199.9790323157
 20
121.4690894525
 30
0.0
 11
200.9988688594
 21
121.5226879791
 31
0.0
  0
ARC
  5
1D5
330
1F
100
AcDbEntity
  8
0
  6
HIDDEN
 62
     7
370
     0
100
AcDbCircle
 10
232.7758413787
 20
110.8046397448
 30
0.0
 40
25.45813823448652
100
AcDbArc
 50
148.5867849548
 51
153.9346041856
  0
LINE
  5
1D6
330
1F
100
AcDbEntity
  8
0
  6
HIDDEN
 62
     7
370
     0
100
AcDbLine
 10
202.6359791923
 20
133.8673685917
 30
0.0
 11
194.7968617364
 21
121.0320160768
 31
0.0
  0
SPLINE
  5
1D7
330
1F
100
AcDbEntity
  8
0
  6
HIDDEN
 62
     7
370
     0
100
AcDbSpline
210
0.0
220
0.0
230
1.0
 70
     8
 71
     3
 72
     8
 73
     4
 74
     0
 42
0.00000001
 43
0.00000001
 12
1.0
 22
0.0
 32
0.0
 13
1.0
 23
0.0
 33
0.0
 40
0.0
 40
0.0
 40
0.0
 40
0.0
 40
1.0
 40
1.0
 40
1.0
 40
1.0
 10
179.1051620002394
 20
91.6053912781546
 30
0.0
 10
179.435800626854
 20
91.00487092704363
 30
0.0
 10
179.7676164274275
 20
90.4050018163386
 30
0.0
 10
180.1003216991329
 20
89.80563014311494
 30
0.0
  0
LINE
  5
1D8
330
1F
100
AcDbEntity
  8
0
  6
HIDDEN
 62
     7
370
     0
100
AcDbLine
 10
180.1003216991
 20
89.8056301431
 30
0.0
 11
181.4151620002
 21
89.8056301431
 31
0.0
  0
SPLINE
  5
1D9
330
1F
100
AcDbEntity
  8
0
  6
HIDDEN
 62
     7
370
     0
100
AcDbSpline
210
0.0
220
0.0
230
1.0
 70
     8
 71
     3
 72
     8
 73
     4
 74
     0
 42
0.00000001
 43
0.00000001
 12
1.0
 22
0.0
 32
0.0
 13
1.0
 23
0.0
 33
0.0
 40
0.0
 40
0.0
 40
0.0
 40
0.0
 40
1.0
 40
1.0
 40
1.0
 40
1.0
 10
176.030002301346
 20
89.80563014311493
 30
0.0
 10
176.3627075730513
 20
90.40500181633858
 30
0.0
 10
176.6945233736248
 20
91.00487092704361
 30
0.0
 10
177.0251620002394
 20
91.6053912781546
 30
0.0
  0
LINE
  5
1DA
330
1F
100
AcDbEntity
  8
0
  6
HIDDEN
 62
     7
370
     0
100
AcDbLine
 10
142.1651620002
 20
97.2160423934
 30
0.0
 11
142.1651620002
 21
97.4870014649
 31
0.0
  0
LINE
  5
1DB
330
1F
100
AcDbEntity
  8
0
  6
HIDDEN
 62
     7
370
     0
100
AcDbLine
 10
142.1651620002
 20
120.9084288035
 30
0.0
 11
142.1651620002
 21
120.8127461306
 31
0.0
  0
SPLINE
  5
1DC
330
1F
100
AcDbEntity
  8
0
  6
HIDDEN
 62
     7
370
     0
100
AcDbSpline
210
0.0
220
0.0
230
1.0
 70
     8
 71
     3
 72
    26
 73
    22
 74
     0
 42
0.00000001
 43
0.00000001
 12
1.0
 22
0.0
 32
0.0
 13
1.0
 23
0.0
 33
0.0
 40
0.0
 40
0.0
 40
0.0
 40
0.0
 40
0.2500000000000034
 40
0.2500000000000034
 40
0.3750000000000055
 40
0.3750000000000055
 40
0.4375000000000061
 40
0.4375000000000061
 40
0.468750000000006
 40
0.468750000000006
 40
0.5000000000000059
 40
0.5000000000000059
 40
0.5312500000000059
 40
0.5312500000000059
 40
0.5625000000000058
 40
0.5625000000000058
 40
0.6250000000000048
 40
0.6250000000000048
 40
0.7500000000000032
 40
0.7500000000000032
 40
1.0
 40
1.0
 40
1.0
 40
1.0
 10
142.9251320466273
 20
121.4225952457572
 30
0.0
 10
142.8777439371988
 20
121.2869395037342
 30
0.0
 10
142.8201026352944
 20
121.1429781054049
 30
0.0
 10
142.6980548227511
 20
120.9002055321505
 30
0.0
 10
142.6520058149746
 20
120.8151658917011
 30
0.0
 10
142.5613525308089
 20
120.6747899186608
 30
0.0
 10
142.5270000305233
 20
120.624878541322
 30
0.0
 10
142.4645648581328
 20
120.5483432764677
 30
0.0
 10
142.4412708393348
 20
120.5219387974808
 30
0.0
 10
142.3922183022082
 20
120.4743440322198
 30
0.0
 10
142.3677868525514
 20
120.454901418368
 30
0.0
 10
142.3271572569316
 20
120.4299936406999
 30
0.0
 10
142.3109949750805
 20
120.4239238093889
 30
0.0
 10
142.2840129309773
 20
120.4182349377951
 30
0.0
 10
142.2732634081545
 20
120.4186254458759
 30
0.0
 10
142.2452274339974
 20
120.4247677926643
 30
0.0
 10
142.2323662019647
 20
120.4354317990823
 30
0.0
 10
142.2013633408044
 20
120.4744445894425
 30
0.0
 10
142.1905038587353
 20
120.5104965798468
 30
0.0
 10
142.1672266027973
 20
120.6281759773459
 30
0.0
 10
142.1651620002393
 20
120.7195058776789
 30
0.0
 10
142.1651620002393
 20
120.8127461305852
 30
0.0
  0
SPLINE
  5
1DD
330
1F
100
AcDbEntity
  8
0
  6
HIDDEN
 62
     7
370
     0
100
AcDbSpline
210
0.0
220
0.0
230
1.0
 70
     8
 71
     3
 72
    24
 73
    20
 74
     0
 42
0.00000001
 43
0.00000001
 12
1.0
 22
0.0
 32
0.0
 13
1.0
 23
0.0
 33
0.0
 40
0.0
 40
0.0
 40
0.0
 40
0.0
 40
0.2499999999999957
 40
0.2499999999999957
 40
0.3749999999999936
 40
0.3749999999999936
 40
0.4374999999999927
 40
0.4374999999999927
 40
0.4999999999999919
 40
0.4999999999999919
 40
0.5312499999999921
 40
0.5312499999999921
 40
0.5624999999999923
 40
0.5624999999999923
 40
0.6249999999999947
 40
0.6249999999999947
 40
0.7499999999999977
 40
0.7499999999999977
 40
1.0
 40
1.0
 40
1.0
 40
1.0
 10
142.1651620002394
 20
97.487001464923
 30
0.0
 10
142.1651620002394
 20
97.57191041859258
 30
0.0
 10
142.1678866286718
 20
97.65424011463946
 30
0.0
 10
142.1942439497898
 20
97.75665250205849
 30
0.0
 10
142.2064576680619
 20
97.7874695984429
 30
0.0
 10
142.2410683181943
 20
97.81656711451983
 30
0.0
 10
142.2554550285617
 20
97.82352475515846
 30
0.0
 10
142.2967035116641
 20
97.8224150138816
 30
0.0
 10
142.325243061595
 20
97.81412160827283
 30
0.0
 10
142.3861657271063
 20
97.76953817441155
 30
0.0
 10
142.4092316972463
 20
97.7490764611542
 30
0.0
 10
142.4531275772525
 20
97.70446384287388
 30
0.0
 10
142.4740076128127
 20
97.68058776466745
 30
0.0
 10
142.5312178761058
 20
97.61069066750547
 30
0.0
 10
142.5635644998821
 20
97.56511307872097
 30
0.0
 10
142.649730443374
 20
97.43622959110212
 30
0.0
 10
142.695394463414
 20
97.35639641397006
 30
0.0
 10
142.8159420268652
 20
97.13061560485777
 30
0.0
 10
142.8750021155663
 20
96.99578421988645
 30
0.0
 10
142.9251320466273
 20
96.86752908121893
 30
0.0
  0
LINE
  5
1DE
330
1F
100
AcDbEntity
  8
0
  6
HIDDEN
 62
     7
370
     0
100
AcDbLine
 10
142.1651620002
 20
120.8127461306
 30
0.0
 11
142.1651620002
 21
97.4870014649
 31
0.0
  0
ARC
  5
1DF
330
1F
100
AcDbEntity
  8
0
  6
HIDDEN
 62
     7
370
     0
100
AcDbCircle
 10
206.5302820647
 20
128.0859660303
 30
0.0
 40
3.183401493816549
100
AcDbArc
 50
297.647533216
 51
194.5027661227
  0
SPLINE
  5
1E0
330
1F
100
AcDbEntity
  8
0
  6
HIDDEN
 62
     7
370
     0
100
AcDbSpline
210
0.0
220
0.0
230
1.0
 70
     8
 71
     3
 72
     8
 73
     4
 74
     0
 42
0.00000001
 43
0.00000001
 12
1.0
 22
0.0
 32
0.0
 13
1.0
 23
0.0
 33
0.0
 40
0.0
 40
0.0
 40
0.0
 40
0.0
 40
1.0
 40
1.0
 40
1.0
 40
1.0
 10
203.2229959057525
 20
126.6772172128657
 30
0.0
 10
203.2949603316002
 20
126.8753661940527
 30
0.0
 10
203.369399059379
 20
127.0780007519786
 30
0.0
 10
203.4483179040892
 20
127.2887571595637
 30
0.0
  0
SPLINE
  5
1E1
330
1F
100
AcDbEntity
  8
0
  6
HIDDEN
 62
     7
370
     0
100
AcDbSpline
210
0.0
220
0.0
230
1.0
 70
     8
 71
     3
 72
    12
 73
     8
 74
     0
 42
0.00000001
 43
0.00000001
 12
1.0
 22
0.0
 32
0.0
 13
1.0
 23
0.0
 33
0.0
 40
0.0
 40
0.0
 40
0.0
 40
0.0
 40
0.2500000000000002
 40
0.2500000000000002
 40
0.5000000000000003
 40
0.5000000000000003
 40
1.0
 40
1.0
 40
1.0
 40
1.0
 10
207.6908398169303
 20
124.9964884996058
 30
0.0
 10
207.6570633176872
 20
124.967734024821
 30
0.0
 10
207.6044097597286
 20
124.9291684179368
 30
0.0
 10
207.4772694952392
 20
124.8424661443337
 30
0.0
 10
207.4024344759727
 20
124.7942176928434
 30
0.0
 10
207.1527278586614
 20
124.6433927045214
 30
0.0
 10
206.9536363131292
 20
124.5348335547292
 30
0.0
 10
206.7226000668363
 20
124.4323080121363
 30
0.0
  0
ARC
  5
1E2
330
1F
100
AcDbEntity
  8
0
  6
HIDDEN
 62
     7
370
     0
100
AcDbCircle
 10
205.8283486832
 20
127.4840403201
 30
0.0
 40
3.180055914094176
100
AcDbArc
 50
286.3322066355
 51
205.8180927032
  0
SPLINE
  5
1E3
330
1F
100
AcDbEntity
  8
0
  6
HIDDEN
 62
     7
370
     0
100
AcDbSpline
210
0.0
220
0.0
230
1.0
 70
     8
 71
     3
 72
    12
 73
     8
 74
     0
 42
0.00000001
 43
0.00000001
 12
1.0
 22
0.0
 32
0.0
 13
1.0
 23
0.0
 33
0.0
 40
0.0
 40
0.0
 40
0.0
 40
0.0
 40
0.4999999999999996
 40
0.4999999999999996
 40
0.7499999999999998
 40
0.7499999999999998
 40
1.0
 40
1.0
 40
1.0
 40
1.0
 10
202.9657218467977
 20
126.099077067136
 30
0.0
 10
202.9504593121169
 20
126.3108750328332
 30
0.0
 10
202.9619709040272
 20
126.5026555285736
 30
0.0
 10
203.0050676794461
 20
126.745144624901
 30
0.0
 10
203.0238934222308
 20
126.8182420396434
 30
0.0
 10
203.0703930979777
 20
126.9407211550873
 30
0.0
 10
203.0979019240035
 20
126.9904424233017
 30
0.0
 10
203.1316784232466
 20
127.0191968980865
 30
0.0
  0
LINE
  5
1E4
330
1F
100
AcDbEntity
  8
0
  6
HIDDEN
 62
     7
370
     0
100
AcDbLine
 10
203.1316784232
 20
127.0191968981
 30
0.0
 11
203.4483179041
 21
127.2887571596
 31
0.0
  0
SPLINE
  5
1E5
330
1F
100
AcDbEntity
  8
0
  6
HIDDEN
 62
     7
370
     0
100
AcDbSpline
210
0.0
220
0.0
230
1.0
 70
     8
 71
     3
 72
    12
 73
     8
 74
     0
 42
0.00000001
 43
0.00000001
 12
1.0
 22
0.0
 32
0.0
 13
1.0
 23
0.0
 33
0.0
 40
0.0
 40
0.0
 40
0.0
 40
0.0
 40
0.2499999999999998
 40
0.2499999999999998
 40
0.4999999999999996
 40
0.4999999999999996
 40
1.0
 40
1.0
 40
1.0
 40
1.0
 10
197.2637608385496
 20
96.17673832324141
 30
0.0
 10
197.2232149806289
 20
96.10403080791077
 30
0.0
 10
197.1593741336847
 20
96.00119255153406
 30
0.0
 10
197.0166651069611
 20
95.77607903995613
 30
0.0
 10
196.9364418254034
 20
95.65204760414312
 30
0.0
 10
196.681998346382
 20
95.26215885373547
 30
0.0
 10
196.4965709476048
 20
94.9820628857099
 30
0.0
 10
196.2978350122605
 20
94.68497565561732
 30
0.0
  0
ELLIPSE
  5
1E6
330
1F
100
AcDbEntity
  8
0
  6
HIDDEN
 62
     7
370
     0
100
AcDbEllipse
 10
-189.9790863534
 20
109.0345146661
 30
0.0
 11
416.8462288874639
 21
26.8747334510046
 31
0.0
210
0.0
220
0.0
230
1.0
 40
0.0062320976
 41
5.920967066816026
 42
6.041457521479462
  0
SPLINE
  5
1E7
330
1F
100
AcDbEntity
  8
0
  6
HIDDEN
 62
     7
370
     0
100
AcDbSpline
210
0.0
220
0.0
230
1.0
 70
     8
 71
     3
 72
    27
 73
    23
 74
     0
 42
0.00000001
 43
0.00000001
 12
1.0
 22
0.0
 32
0.0
 13
1.0
 23
0.0
 33
0.0
 40
0.0
 40
0.0
 40
0.0
 40
0.0
 40
0.0464380887092007
 40
0.0932280028862562
 40
0.1403739747643414
 40
0.187880141413509
 40
0.2357505465156322
 40
0.2839891421522444
 40
0.3325997906007874
 40
0.3815862661349562
 40
0.4309522568253383
 40
0.4807013663366506
 40
0.530837115718387
 40
0.5813629451858373
 40
0.6322822158887229
 40
0.6835982116650721
 40
0.7353141407780153
 40
0.7874331376335956
 40
0.839958264477763
 40
0.8928925130710137
 40
0.9462388063393042
 40
1.0
 40
1.0
 40
1.0
 40
1.0
 10
216.8156060252713
 20
134.4198818551336
 30
0.0
 10
216.7718955926005
 20
134.3630850883601
 30
0.0
 10
216.6841435671304
 20
134.2490612496564
 30
0.0
 10
216.545962596919
 20
134.0671948454018
 30
0.0
 10
216.4023794414925
 20
133.8765386760834
 30
0.0
 10
216.2529487568722
 20
133.6762894270981
 30
0.0
 10
216.0977912604359
 20
133.4665934148375
 30
0.0
 10
215.9368742554833
 20
133.2473451232479
 30
0.0
 10
215.77020662361
 20
133.0185130062993
 30
0.0
 10
215.5977859754915
 20
132.7800513670489
 30
0.0
 10
215.4196129761289
 20
132.531924426043
 30
0.0
 10
215.2356874587714
 20
132.2740999742954
 30
0.0
 10
215.046009490668
 20
132.006551298251
 30
0.0
 10
214.8505790376256
 20
131.7292567570911
 30
0.0
 10
214.6493962309752
 20
131.4422003933329
 30
0.0
 10
214.4424606307813
 20
131.1453707625144
 30
0.0
 10
214.2297739345398
 20
130.838765909354
 30
0.0
 10
214.0113297698027
 20
130.5223752887717
 30
0.0
 10
213.7871522299053
 20
130.1962486920159
 30
0.0
 10
213.557150373113
 20
129.8602366669122
 30
0.0
 10
213.3216675988676
 20
129.5149712905183
 30
0.0
 10
213.1607867622945
 20
129.2780215408458
 30
0.0
 10
213.0800347433713
 20
129.1590877319661
 30
0.0
  0
SPLINE
  5
1E8
330
1F
100
AcDbEntity
  8
0
  6
HIDDEN
 62
     7
370
     0
100
AcDbSpline
210
0.0
220
0.0
230
1.0
 70
     8
 71
     3
 72
    27
 73
    23
 74
     0
 42
0.00000001
 43
0.00000001
 12
1.0
 22
0.0
 32
0.0
 13
1.0
 23
0.0
 33
0.0
 40
0.0
 40
0.0
 40
0.0
 40
0.0
 40
0.0520764669918354
 40
0.1038169806035443
 40
0.1552398708960692
 40
0.2063638095750564
 40
0.257207797703945
 40
0.3077911518279099
 40
0.3581334885117815
 40
0.4082547073111708
 40
0.4581749722129335
 40
0.5079146915986534
 40
0.5574944968025893
 40
0.6069352193532587
 40
0.6562578670050877
 40
0.7054835986829674
 40
0.7546336984777876
 40
0.8037295488446067
 40
0.8527926031668093
 40
0.9018443578590501
 40
0.9509063241887251
 40
0.9999999999999999
 40
0.9999999999999999
 40
0.9999999999999999
 40
0.9999999999999999
 10
213.2289457385191
 20
128.5751360051786
 30
0.0
 10
213.3092774559425
 20
128.6922974939892
 30
0.0
 10
213.4694226583984
 20
128.9258646446418
 30
0.0
 10
213.7044292662784
 20
129.267013375798
 30
0.0
 10
213.9345810754783
 20
129.5999047503936
 30
0.0
 10
214.1595696610037
 20
129.9239761559902
 30
0.0
 10
214.379476742929
 20
130.2393766973403
 30
0.0
 10
214.594280430877
 20
130.5460664727494
 30
0.0
 10
214.8039863583188
 20
130.8440557930616
 30
0.0
 10
215.0085928389182
 20
131.1333416187242
 30
0.0
 10
215.2081001327854
 20
131.4139244631788
 30
0.0
 10
215.4025079780109
 20
131.6858038903057
 30
0.0
 10
215.5918162685723
 20
131.9489797481101
 30
0.0
 10
215.7760248038097
 20
132.20345172143
 30
0.0
 10
215.9551336233266
 20
132.449219905249
 30
0.0
 10
216.1291419284365
 20
132.6862829754654
 30
0.0
 10
216.2980520596121
 20
132.914644928213
 30
0.0
 10
216.4618547017629
 20
133.1342900123559
 30
0.0
 10
216.6205840193465
 20
133.3452761463507
 30
0.0
 10
216.7741120677029
 20
133.5473865828309
 30
0.0
 10
216.9229159266934
 20
133.7414296861781
 30
0.0
 10
217.0177364303871
 20
133.8633432700763
 30
0.0
 10
217.0651619982614
 20
133.9243197543042
 30
0.0
  0
LWPOLYLINE
  5
1E9
330
1F
100
AcDbEntity
  8
0
  6
HIDDEN
 62
     7
370
     0
100
AcDbPolyline
 90
       32
 70
   128
 43
0.0
 10
186.0651620002
 20
103.9021001268
 10
186.5684083005
 20
103.9515315229
 10
187.051051638
 20
104.0978019838
 10
187.493332538
 20
104.3349231797
 10
187.8771439683
 20
104.6531873411
 10
188.186772644
 20
105.0395646957
 10
188.4095423306
 20
105.4782369092
 10
188.5363328111
 20
105.9512446898
 10
188.5619532682
 20
106.4392230432
 10
188.4853547974
 20
106.9221940784
 10
188.3096733492
 20
107.3803849044
 10
188.0421013426
 20
107.795037135
 10
187.693593207
 20
108.1491748591
 10
187.2784169066
 20
108.4282996367
 10
186.8135698077
 20
108.6209840667
 10
186.3180828052
 20
108.7193396257
 10
185.8122411953
 20
108.7193396257
 10
185.3167541928
 20
108.6209840667
 10
184.8519070939
 20
108.4282996367
 10
184.4367307934
 20
108.1491748591
 10
184.0882226579
 20
107.795037135
 10
183.8206506513
 20
107.3803849044
 10
183.6449692031
 20
106.9221940784
 10
183.5683707323
 20
106.4392230432
 10
183.5939911894
 20
105.9512446898
 10
183.7207816699
 20
105.4782369092
 10
183.9435513565
 20
105.0395646957
 10
184.2531800322
 20
104.6531873411
 10
184.6369914625
 20
104.3349231797
 10
185.0792723625
 20
104.0978019838
 10
185.5619157
 20
103.9515315229
 10
186.0651620002
 20
103.9021001268
  0
ELLIPSE
  5
1EA
330
1F
100
AcDbEntity
  8
0
  6
HIDDEN
 62
     7
370
     0
100
AcDbEllipse
 10
204.1743478129
 20
123.7133660045
 30
0.0
 11
1.11736946871855
 21
2.767460135615082
 31
0.0
210
0.0
220
0.0
230
1.0
 40
0.8354536075
 41
5.286433516750231
 42
7.223403542372493
  0
LWPOLYLINE
  5
1EB
330
1F
100
AcDbEntity
  8
0
  6
HIDDEN
 62
     7
370
     0
100
AcDbPolyline
 90
       16
 70
   128
 43
0.0
 10
204.9935019792
 20
119.9929132477
 10
205.0772099317
 20
120.3763957255
 10
205.05763083
 20
120.7873192104
 10
204.9356203747
 20
121.2077243743
 10
204.7165110081
 20
121.6192374942
 10
204.409878861
 20
122.0038734721
 10
204.0291252297
 20
122.34482187
 10
203.5908908747
 20
122.6271816069
 10
203.1143287405
 20
122.8386122074
 10
202.6202668789
 20
122.9698731398
 10
202.1302981642
 20
123.0152276713
 10
201.6658365803
 20
122.9726935914
 10
201.2471813271
 20
122.8441298434
 10
200.8926296481
 20
122.63515528
 10
200.6176771531
 20
122.3549030925
 10
200.4343405855
 20
122.0156216461
  0
SPLINE
  5
1EC
330
1F
100
AcDbEntity
  8
0
  6
HIDDEN
 62
     7
370
     0
100
AcDbSpline
210
0.0
220
0.0
230
1.0
 70
     8
 71
     3
 72
     8
 73
     4
 74
     0
 42
0.00000001
 43
0.00000001
 12
1.0
 22
0.0
 32
0.0
 13
1.0
 23
0.0
 33
0.0
 40
0.0
 40
0.0
 40
0.0
 40
0.0
 40
1.0
 40
1.0
 40
1.0
 40
1.0
 10
197.2637608385496
 20
96.1767383232414
 30
0.0
 10
197.3282953351905
 20
96.29246266956198
 30
0.0
 10
197.3961850194603
 20
96.4125551216038
 30
0.0
 10
197.4670857888861
 20
96.53656769369584
 30
0.0
  0
LINE
  5
1ED
330
1F
100
AcDbEntity
  8
0
  6
HIDDEN
 62
     7
370
     0
100
AcDbLine
 10
200.4343405855
 20
122.0156216461
 30
0.0
 11
198.7245410944
 21
117.3879985492
 31
0.0
  0
LINE
  5
1EE
330
1F
100
AcDbEntity
  8
0
  6
HIDDEN
 62
     7
370
     0
100
AcDbLine
 10
197.4670857889
 20
96.5365676937
 30
0.0
 11
197.4670857889
 21
108.5999580337
 31
0.0
  0
ELLIPSE
  5
1EF
330
1F
100
AcDbEntity
  8
0
  6
HIDDEN
 62
     7
370
     0
100
AcDbEllipse
 10
207.9816447953
 20
109.0345146661
 30
0.0
 11
3.694822225952521E-13
 21
18.00000000000001
 31
0.0
210
0.0
220
0.0
230
1.0
 40
0.1234608926
 41
1.570796326794899
 42
1.632239471732126
  0
ELLIPSE
  5
1F0
330
1F
100
AcDbEntity
  8
0
  6
HIDDEN
 62
     7
370
     0
100
AcDbEllipse
 10
207.3959743692
 20
109.0345146661
 30
0.0
 11
13.47750788693702
 21
17.99583035636195
 31
0.0
210
0.0
220
0.0
230
1.0
 40
0.0287452423
 41
1.653764146535442
 42
2.359810022629476
  0
CIRCLE
  5
1F1
330
1F
100
AcDbEntity
  8
0
  6
HIDDEN
 62
     7
370
     0
100
AcDbCircle
 10
169.0651620002
 20
109.0345146661
 30
0.0
 40
5.0
  0
LINE
  5
1F2
330
1F
100
AcDbEntity
  8
0
  6
HIDDEN
 62
     7
370
     0
100
AcDbLine
 10
213.0802619789
 20
129.1594214701
 30
0.0
 11
213.228985276
 21
128.574977366
 31
0.0
  0
LINE
  5
1F3
330
1F
100
AcDbEntity
  8
0
  6
HIDDEN
 62
     7
370
     0
100
AcDbLine
 10
213.0799064714
 20
129.1591264636
 30
0.0
 11
199.8786285208
 21
129.1591264636
 31
0.0
  0
LINE
  5
1F4
330
1F
100
AcDbEntity
  8
0
  6
HIDDEN
 62
     7
370
     0
100
AcDbLine
 10
213.2289457385
 20
128.5751360052
 30
0.0
 11
209.7400941882
 21
122.9592199334
 31
0.0
  0
ELLIPSE
  5
1F5
330
1F
100
AcDbEntity
  8
0
  6
HIDDEN
 62
     7
370
     0
100
AcDbEllipse
 10
231.9567530312
 20
109.3905237915
 30
0.0
 11
20.05610535531213
 21
17.07408371629775
 31
7.105427357601002E-15
210
6.031858778422967E-17
220
-4.870061226856966E-16
230
1.0
 40
0.98710888
 41
1.88422722079774
 42
2.442732581435922
  0
LINE
  5
1F6
330
1F
100
AcDbEntity
  8
0
  6
HIDDEN
 62
     7
370
     0
100
AcDbLine
 10
205.7593487287
 20
109.0556832292
 30
0.0
 11
205.7593487287
 21
109.0345146661
 31
0.0
  0
LINE
  5
1F7
330
1F
100
AcDbEntity
  8
0
  6
HIDDEN
 62
     7
370
     0
100
AcDbLine
 10
162.0651620002
 20
92.8273139811
 30
0.0
 11
162.1593227758
 21
93.4973027123
 31
0.0
  0
LINE
  5
1F8
330
1F
100
AcDbEntity
  8
0
  6
HIDDEN
 62
     7
370
     0
100
AcDbLine
 10
162.1593227758
 20
124.57172662
 30
0.0
 11
162.0651620002
 21
125.2417153512
 31
0.0
  0
ARC
  5
1F9
330
1F
100
AcDbEntity
  8
0
  6
HIDDEN
 62
     7
370
     0
100
AcDbCircle
 10
161.5651552476
 20
93.5808075127
 30
0.0
 40
0.6000067526677242
100
AcDbArc
 50
352.0
 51
0.0
  0
ARC
  5
1FA
330
1F
100
AcDbEntity
  8
0
  6
HIDDEN
 62
     7
370
     0
100
AcDbCircle
 10
161.5651552476
 20
93.5808075127
 30
0.0
 40
0.6000067526677242
100
AcDbArc
 50
0.0
 51
33.5571153394
  0
ARC
  5
1FB
330
1F
100
AcDbEntity
  8
0
  6
HIDDEN
 62
     7
370
     0
100
AcDbCircle
 10
161.5651552476
 20
124.4882218196
 30
0.0
 40
0.6000067526677101
100
AcDbArc
 50
348.75
 51
8.0
  0
LWPOLYLINE
  5
1FC
330
1F
100
AcDbEntity
  8
0
  6
HIDDEN
 62
     7
370
     0
100
AcDbPolyline
 90
        3
 70
   128
 43
0.0
 10
162.1536330387
 20
124.371166309
 10
162.1194892057
 20
124.2586091761
 10
162.0651620002
 20
124.1565573046
  0
LINE
  5
1FD
330
1F
100
AcDbEntity
  8
0
  6
HIDDEN
 62
     7
370
     0
100
AcDbLine
 10
162.1651620002
 20
93.5808075127
 30
0.0
 11
162.1651620002
 21
124.4882218196
 31
0.0
  0
LINE
  5
1FE
330
1F
100
AcDbEntity
  8
0
  6
HIDDEN
 62
     7
370
     0
100
AcDbLine
 10
162.1651620002
 20
93.5808075127
 30
0.0
 11
162.1651620002
 21
124.4882218196
 31
0.0
  0
LINE
  5
1FF
330
1F
100
AcDbEntity
  8
0
  6
HIDDEN
 62
     7
370
     0
100
AcDbLine
 10
187.4268233945
 20
110.6171694431
 30
0.0
 11
189.5635058598
 21
112.1588346795
 31
0.0
  0
LINE
  5
200
330
1F
100
AcDbEntity
  8
0
  6
HIDDEN
 62
     7
370
     0
100
AcDbLine
 10
185.2137958874
 20
109.0204195141
 30
0.0
 11
187.4268233945
 21
110.6171694431
 31
0.0
  0
LINE
  5
201
330
1F
100
AcDbEntity
  8
0
  6
HIDDEN
 62
     7
370
     0
100
AcDbLine
 10
189.6672710808
 20
117.4128251963
 30
0.0
 11
182.7563012911
 21
112.4264025307
 31
0.0
  0
LINE
  5
202
330
1F
100
AcDbEntity
  8
0
  6
HIDDEN
 62
     7
370
     0
100
AcDbLine
 10
182.6768066965
 20
112.0277986911
 30
0.0
 11
183.0044401419
 21
110.0158796141
 31
0.0
  0
LINE
  5
203
330
1F
100
AcDbEntity
  8
0
  6
HIDDEN
 62
     7
370
     0
100
AcDbLine
 10
183.0044401419
 20
110.0158796141
 30
0.0
 11
184.8104580125
 21
109.0706486909
 31
0.0
  0
LINE
  5
204
330
1F
100
AcDbEntity
  8
0
  6
HIDDEN
 62
     7
370
     0
100
AcDbLine
 10
151.5977899444
 20
96.2845146661
 30
0.0
 11
153.7700928251
 21
96.2845146661
 31
0.0
  0
LINE
  5
205
330
1F
100
AcDbEntity
  8
0
  6
HIDDEN
 62
     7
370
     0
100
AcDbLine
 10
153.7701861681
 20
121.7845146661
 30
0.0
 11
151.5977899444
 21
121.7845146661
 31
0.0
  0
ARC
  5
206
330
1F
100
AcDbEntity
  8
0
  6
HIDDEN
 62
     7
370
     0
100
AcDbCircle
 10
151.5977899444
 20
96.6845146661
 30
0.0
 40
0.4000000000000057
100
AcDbArc
 50
210.0
 51
270.0
  0
ARC
  5
207
330
1F
100
AcDbEntity
  8
0
  6
HIDDEN
 62
     7
370
     0
100
AcDbCircle
 10
151.5977899444
 20
121.3845146661
 30
0.0
 40
0.4000000000000057
100
AcDbArc
 50
90.0
 51
150.0
  0
ARC
  5
208
330
1F
100
AcDbEntity
  8
0
  6
HIDDEN
 62
     7
370
     0
100
AcDbCircle
 10
157.8893387281
 20
101.2845146661
 30
0.0
 40
5.000000000000012
100
AcDbArc
 50
275.4431125574
 51
326.6329870308
  0
ARC
  5
209
330
1F
100
AcDbEntity
  8
0
  6
HIDDEN
 62
     7
370
     0
100
AcDbCircle
 10
157.8893387281
 20
116.7845146661
 30
0.0
 40
4.999999999999992
100
AcDbArc
 50
33.3670129692
 51
84.5418401957
  0
LINE
  5
20A
330
1F
100
AcDbEntity
  8
0
  6
HIDDEN
 62
     7
370
     0
100
AcDbLine
 10
151.2513797829
 20
121.5845146661
 30
0.0
 11
150.067811731
 21
119.5345146661
 31
0.0
  0
LINE
  5
20B
330
1F
100
AcDbEntity
  8
0
  6
HIDDEN
 62
     7
370
     0
100
AcDbLine
 10
150.067811731
 20
98.5345146661
 30
0.0
 11
151.2513797829
 21
96.4845146661
 31
0.0
  0
LINE
  5
20C
330
1F
100
AcDbEntity
  8
0
  6
HIDDEN
 62
     7
370
     0
100
AcDbLine
 10
183.9651620002
 20
111.9163769056
 30
0.0
 11
183.9651620002
 21
109.6807744679
 31
0.0
  0
LINE
  5
20D
330
1F
100
AcDbEntity
  8
0
  6
HIDDEN
 62
     7
370
     0
100
AcDbLine
 10
188.1651620002
 20
109.6813944919
 30
0.0
 11
188.1651620002
 21
111.7846806634
 31
0.0
  0
ARC
  5
20E
330
1F
100
AcDbEntity
  8
0
  6
HIDDEN
 62
     7
370
     0
100
AcDbCircle
 10
169.0151620002
 20
99.1595146661
 30
0.0
 40
1.000000000000019
100
AcDbArc
 50
218.6821874535
 51
0.0
  0
ARC
  5
20F
330
1F
100
AcDbEntity
  8
0
  6
HIDDEN
 62
     7
370
     0
100
AcDbCircle
 10
169.0151620002
 20
118.9095146661
 30
0.0
 40
1.00000000000001
100
AcDbArc
 50
0.0
 51
141.3178125465
  0
LINE
  5
210
330
1F
100
AcDbEntity
  8
0
  6
HIDDEN
 62
     7
370
     0
100
AcDbLine
 10
162.0651620002
 20
98.5345146661
 30
0.0
 11
168.2345372504
 21
98.5345146661
 31
0.0
  0
LINE
  5
211
330
1F
100
AcDbEntity
  8
0
  6
HIDDEN
 62
     7
370
     0
100
AcDbLine
 10
168.2345372504
 20
119.5345146661
 30
0.0
 11
162.0651620002
 21
119.5345146661
 31
0.0
  0
LINE
  5
212
330
1F
100
AcDbEntity
  8
0
  6
HIDDEN
 62
     7
370
     0
100
AcDbLine
 10
148.2651620002
 20
98.5345146661
 30
0.0
 11
150.067811731
 21
98.5345146661
 31
0.0
  0
LINE
  5
213
330
1F
100
AcDbEntity
  8
0
  6
HIDDEN
 62
     7
370
     0
100
AcDbLine
 10
150.067811731
 20
119.5345146661
 30
0.0
 11
145.7651620002
 21
119.5345146661
 31
0.0
  0
LINE
  5
214
330
1F
100
AcDbEntity
  8
0
  6
HIDDEN
 62
     7
370
     0
100
AcDbLine
 10
175.3651620002
 20
102.7845146661
 30
0.0
 11
177.8651620002
 21
102.7845146661
 31
0.0
  0
LINE
  5
215
330
1F
100
AcDbEntity
  8
0
  6
HIDDEN
 62
     7
370
     0
100
AcDbLine
 10
177.8651620002
 20
115.2845146661
 30
0.0
 11
175.3651620002
 21
115.2845146661
 31
0.0
  0
LINE
  5
216
330
1F
100
AcDbEntity
  8
0
  6
HIDDEN
 62
     7
370
     0
100
AcDbLine
 10
170.0151620002
 20
103.0345146661
 30
0.0
 11
170.5151620002
 21
103.5345146661
 31
0.0
  0
LINE
  5
217
330
1F
100
AcDbEntity
  8
0
  6
HIDDEN
 62
     7
370
     0
100
AcDbLine
 10
170.5151620002
 20
114.5345146661
 30
0.0
 11
170.0151620002
 21
115.0345146661
 31
0.0
  0
LINE
  5
218
330
1F
100
AcDbEntity
  8
0
  6
HIDDEN
 62
     7
370
     0
100
AcDbLine
 10
170.5151620002
 20
103.5345146661
 30
0.0
 11
175.3651620002
 21
103.5345146661
 31
0.0
  0
LINE
  5
219
330
1F
100
AcDbEntity
  8
0
  6
HIDDEN
 62
     7
370
     0
100
AcDbLine
 10
175.3651620002
 20
114.5345146661
 30
0.0
 11
170.5151620002
 21
114.5345146661
 31
0.0
  0
LINE
  5
21A
330
1F
100
AcDbEntity
  8
0
  6
HIDDEN
 62
     7
370
     0
100
AcDbLine
 10
199.3106891938
 20
117.5914588888
 30
0.0
 11
198.7526010191
 21
117.1163494871
 31
0.0
  0
LINE
  5
21B
330
1F
100
AcDbEntity
  8
0
  6
HIDDEN
 62
     7
370
     0
100
AcDbLine
 10
203.2902109259
 20
111.7862372619
 30
0.0
 11
203.8482991005
 21
112.2613466635
 31
0.0
  0
LINE
  5
21C
330
1F
100
AcDbEntity
  8
0
  6
HIDDEN
 62
     7
370
     0
100
AcDbLine
 10
170.0151620002
 20
129.0345146661
 30
0.0
 11
170.0151620002
 21
125.9345146661
 31
0.0
  0
LINE
  5
21D
330
1F
100
AcDbEntity
  8
0
  6
HIDDEN
 62
     7
370
     0
100
AcDbLine
 10
197.9397729732
 20
118.3261573688
 30
0.0
 11
199.0634083194
 21
119.2827261356
 31
0.0
  0
LINE
  5
21E
330
1F
100
AcDbEntity
  8
0
  6
HIDDEN
 62
     7
370
     0
100
AcDbLine
 10
158.8323412447
 20
93.9932100527
 30
0.0
 11
158.3644126565
 21
94.4890465336
 31
0.0
  0
LINE
  5
21F
330
1F
100
AcDbEntity
  8
0
  6
HIDDEN
 62
     7
370
     0
100
AcDbLine
 10
153.7665076413
 20
94.7689002473
 30
0.0
 11
153.2490339254
 21
94.2730749345
 31
0.0
  0
LINE
  5
220
330
1F
100
AcDbEntity
  8
0
  6
HIDDEN
 62
     7
370
     0
100
AcDbLine
 10
153.2483996936
 20
123.7960043391
 30
0.0
 11
153.7660859416
 21
123.3001172925
 31
0.0
  0
LINE
  5
221
330
1F
100
AcDbEntity
  8
0
  6
HIDDEN
 62
     7
370
     0
100
AcDbLine
 10
158.3637267766
 20
123.5797648256
 30
0.0
 11
158.8316306728
 21
124.0756586983
 31
0.0
  0
LINE
  5
222
330
1F
100
AcDbEntity
  8
0
  6
HIDDEN
 62
     7
370
     0
100
AcDbLine
 10
203.8448813491
 20
115.8650809534
 30
0.0
 11
207.4844161354
 21
122.6164362826
 31
0.0
  0
LINE
  5
223
330
1F
100
AcDbEntity
  8
0
  6
HIDDEN
 62
     7
370
     0
100
AcDbLine
 10
177.8651620002
 20
106.5345146661
 30
0.0
 11
189.1651620002
 21
106.5345146661
 31
0.0
  0
LINE
  5
224
330
1F
100
AcDbEntity
  8
0
  6
HIDDEN
 62
     7
370
     0
100
AcDbLine
 10
189.1651620002
 20
111.5345146661
 30
0.0
 11
177.8651620002
 21
111.5345146661
 31
0.0
  0
LINE
  5
225
330
1F
100
AcDbEntity
  8
0
  6
HIDDEN
 62
     7
370
     0
100
AcDbLine
 10
189.1651620002
 20
106.5345146661
 30
0.0
 11
190.6673135478
 21
109.0345146661
 31
0.0
  0
LINE
  5
226
330
1F
100
AcDbEntity
  8
0
  6
HIDDEN
 62
     7
370
     0
100
AcDbLine
 10
190.6673135478
 20
109.0345146661
 30
0.0
 11
189.1651620002
 21
111.5345146661
 31
0.0
  0
LINE
  5
227
330
1F
100
AcDbEntity
  8
0
  6
HIDDEN
 62
     7
370
     0
100
AcDbLine
 10
158.3651620002
 20
94.5011020161
 30
0.0
 11
158.3651620002
 21
96.3074171418
 31
0.0
  0
LINE
  5
228
330
1F
100
AcDbEntity
  8
0
  6
HIDDEN
 62
     7
370
     0
100
AcDbLine
 10
153.7651620002
 20
96.2853989078
 30
0.0
 11
153.7651620002
 21
94.775908122
 31
0.0
  0
LINE
  5
229
330
1F
100
AcDbEntity
  8
0
  6
HIDDEN
 62
     7
370
     0
100
AcDbLine
 10
158.3651620002
 20
121.7617271515
 30
0.0
 11
158.3651620002
 21
123.5795542716
 31
0.0
  0
LINE
  5
22A
330
1F
100
AcDbEntity
  8
0
  6
HIDDEN
 62
     7
370
     0
100
AcDbLine
 10
153.7651620002
 20
123.299014968
 30
0.0
 11
153.7651620002
 21
121.7836136496
 31
0.0
  0
LINE
  5
22B
330
1F
100
AcDbEntity
  8
0
  6
HIDDEN
 62
     7
370
     0
100
AcDbLine
 10
198.2475814861
 20
117.6057234916
 30
0.0
 11
196.5111047624
 21
116.1274330445
 31
0.0
  0
LINE
  5
22C
330
1F
100
AcDbEntity
  8
0
  6
HIDDEN
 62
     7
370
     0
100
AcDbLine
 10
201.5768546867
 20
109.408324432
 30
0.0
 11
203.6927133742
 21
111.2095888212
 31
0.0
  0
LINE
  5
22D
330
1F
100
AcDbEntity
  8
0
  6
HIDDEN
 62
     7
370
     0
100
AcDbLine
 10
183.9651620002
 20
108.3875480938
 30
0.0
 11
183.9651620002
 21
106.3791203612
 31
0.0
  0
LINE
  5
22E
330
1F
100
AcDbEntity
  8
0
  6
HIDDEN
 62
     7
370
     0
100
AcDbLine
 10
188.1651620002
 20
106.3791203612
 30
0.0
 11
188.1651620002
 21
108.3877541213
 31
0.0
  0
ARC
  5
22F
330
1F
100
AcDbEntity
  8
0
  6
HIDDEN
 62
     7
370
     0
100
AcDbCircle
 10
147.3651620002
 20
95.3135146661
 30
0.0
 40
0.9000000000000061
100
AcDbArc
 50
29.8499024808
 51
90.0
  0
ARC
  5
230
330
1F
100
AcDbEntity
  8
0
  6
HIDDEN
 62
     7
370
     0
100
AcDbCircle
 10
144.8651620002
 20
122.8145146661
 30
0.0
 40
0.9000000000000057
100
AcDbArc
 50
270.0
 51
311.221922679
  0
LINE
  5
231
330
1F
100
AcDbEntity
  8
0
  6
HIDDEN
 62
     7
370
     0
100
AcDbLine
 10
143.1151620002
 20
96.2135146661
 30
0.0
 11
147.3651620002
 21
96.2135146661
 31
0.0
  0
LINE
  5
232
330
1F
100
AcDbEntity
  8
0
  6
HIDDEN
 62
     7
370
     0
100
AcDbLine
 10
142.1651620002
 20
97.1635146661
 30
0.0
 11
143.1151620002
 21
96.2135146661
 31
0.0
  0
LINE
  5
233
330
1F
100
AcDbEntity
  8
0
  6
HIDDEN
 62
     7
370
     0
100
AcDbLine
 10
144.8651620002
 20
121.9145146661
 30
0.0
 11
143.1151620002
 21
121.9145146661
 31
0.0
  0
LINE
  5
234
330
1F
100
AcDbEntity
  8
0
  6
HIDDEN
 62
     7
370
     0
100
AcDbLine
 10
143.1151620002
 20
121.9145146661
 30
0.0
 11
142.1651620002
 21
120.9645146661
 31
0.0
  0
LINE
  5
235
330
1F
100
AcDbEntity
  8
0
  6
HIDDEN
 62
     7
370
     0
100
AcDbLine
 10
204.4366986067
 20
130.52898371
 30
0.0
 11
203.729856415
 21
129.9272376311
 31
0.0
  0
LINE
  5
236
330
1F
100
AcDbEntity
  8
0
  6
HIDDEN
 62
     7
370
     0
100
AcDbLine
 10
207.8785283297
 20
125.053992168
 30
0.0
 11
208.5853705215
 21
125.6557382469
 31
0.0
  0
LINE
  5
237
330
1F
100
AcDbEntity
  8
0
  6
HIDDEN
 62
     7
370
     0
100
AcDbLine
 10
183.5651620002
 20
106.3169146926
 30
0.0
 11
183.5651620002
 21
104.7640271134
 31
0.0
  0
LINE
  5
238
330
1F
100
AcDbEntity
  8
0
  6
HIDDEN
 62
     7
370
     0
100
AcDbLine
 10
188.5651620002
 20
104.7641734465
 30
0.0
 11
188.5651620002
 21
106.3169146926
 31
0.0
  0
LINE
  5
239
330
1F
100
AcDbEntity
  8
0
  6
HIDDEN
 62
     7
370
     0
100
AcDbLine
 10
203.076303743
 20
126.9449346946
 30
0.0
 11
200.5133138333
 21
122.1905755245
 31
0.0
  0
LINE
  5
23A
330
1F
100
AcDbEntity
  8
VERMASSUNG
  6
CENTERX2
100
AcDbLine
 10
219.0651620002
 20
136.0345146661
 30
0.0
 11
219.0651620002
 21
109.0345146661
 31
0.0
  0
LINE
  5
23B
330
1F
100
AcDbEntity
  8
VERMASSUNG
  6
CENTERX2
100
AcDbLine
 10
219.0651620002
 20
109.0345146661
 30
0.0
 11
139.7088727876
 21
109.0345146661
 31
0.0
  0
LINE
  5
23C
330
1F
100
AcDbEntity
  8
VERMASSUNG
100
AcDbLine
 10
219.0651620002
 20
136.0345146661
 30
0.0
 11
219.0651620002
 21
146.8851961375
 31
0.0
  0
DIMENSION
  5
23D
330
1F
100
AcDbEntity
  8
VERMASSUNG
100
AcDbDimension
  2
_D
 10
229.2147781585
 20
109.0345146661
 30
0.0
 11
229.2147781585
 21
122.5345146661
 31
0.0
 70
   160
  1
<>
 71
     2
 42
-1.0
  3
SLDDIMSTYLE0
100
AcDbAlignedDimension
 13
219.0651620002
 23
136.0345146661
 33
0.0
 14
219.0651620002
 24
109.0345146661
 34
0.0
 50
90.0
100
AcDbRotatedDimension
  0
DIMENSION
  5
24A
330
1F
100
AcDbEntity
  8
VERMASSUNG
100
AcDbDimension
  2
_D_1
 10
219.0651620002
 20
152.4579317826
 30
0.0
 11
190.5651620002
 21
152.4579317826
 31
0.0
 70
   160
  1
<>
 71
     2
 42
-1.0
  3
SLDDIMSTYLE0
100
AcDbAlignedDimension
 13
162.0651620002
 23
128.7345146661
 33
0.0
 14
219.0651620002
 24
136.0345146661
 34
0.0
100
AcDbRotatedDimension
  0
DIMENSION
  5
256
330
1F
100
AcDbEntity
  8
VERMASSUNG
100
AcDbDimension
  2
_D_2
 10
219.0651620002
 20
158.4579317826
 30
0.0
 11
180.6151620002
 21
158.4579317826
 31
0.0
 70
   160
  1
<>
 71
     2
 42
-1.0
  3
SLDDIMSTYLE1
100
AcDbAlignedDimension
 13
142.1651620002
 23
120.9645146661
 33
0.0
 14
219.0651620002
 24
136.0345146661
 34
0.0
100
AcDbRotatedDimension
  0
DIMENSION
  5
261
330
1F
100
AcDbEntity
  8
VERMASSUNG
100
AcDbDimension
  2
_D_3
 10
218.6435075793
 20
136.0350069316
 30
0.0
 11
210.5323118283
 21
144.1533414287
 31
0.0
 70
   162
  1
<>
 71
     1
 42
-1.0
  3
SLDDIMSTYLE2
100
AcDb2LineAngularDimension
 13
219.0651620002
 23
146.8851961375
 33
0.0
 14
219.0651620002
 24
136.0345146661
 34
0.0
 15
204.2551806235
 25
135.27881406
 35
0.0
 16
210.5323118283
 26
144.1533414287
 36
0.0
  0
DIMENSION
  5
26B
330
1F
100
AcDbEntity
  8
VERMASSUNG
100
AcDbDimension
  2
_D_4
 10
136.4257812879
 20
89.0345146661
 30
0.0
 11
136.4257812879
 21
109.0345146661
 31
0.0
 70
   160
  1
HSK T%%c<>
 71
     2
 42
-1.0
  3
SLDDIMSTYLE1
100
AcDbAlignedDimension
 13
162.3651620002
 23
129.0345146661
 33
0.0
 14
162.3651620002
 24
89.0345146661
 34
0.0
 50
90.0
100
AcDbRotatedDimension
  0
LINE
  5
277
330
1F
100
AcDbEntity
  8
0
  6
Continuous
 62
     7
370
    15
100
AcDbLine
 10
82.0654412842
 20
135.0186864441
 30
0.0
 11
79.3852872326
 21
135.3003817206
 31
0.0
  0
LINE
  5
278
330
1F
100
AcDbEntity
  8
0
  6
Continuous
 62
     7
370
    15
100
AcDbLine
 10
82.3400789982
 20
134.6828422105
 30
0.0
 11
82.0795321948
 21
135.0095967358
 31
0.0
  0
LINE
  5
279
330
1F
100
AcDbEntity
  8
0
  6
Continuous
 62
     7
370
    15
100
AcDbLine
 10
79.889229603
 20
122.0228203168
 30
0.0
 11
80.2060771844
 21
122.2833773648
 31
0.0
  0
LINE
  5
27A
330
1F
100
AcDbEntity
  8
0
  6
Continuous
 62
     7
370
    15
100
AcDbLine
 10
79.3649438879
 20
135.3767110562
 30
0.0
 11
73.0968025769
 21
136.0355193322
 31
0.0
  0
LINE
  5
27B
330
1F
100
AcDbEntity
  8
0
  6
Continuous
 62
     7
370
    15
100
AcDbLine
 10
71.6201481287
 20
133.9233710026
 30
0.0
 11
71.1971126607
 21
133.3247038131
 31
0.0
  0
SPLINE
  5
27C
330
1F
100
AcDbEntity
  8
0
  6
Continuous
 62
     7
370
    15
100
AcDbSpline
210
0.0
220
0.0
230
1.0
 70
     8
 71
     3
 72
    11
 73
     7
 74
     0
 42
0.00000001
 43
0.00000001
 12
1.0
 22
0.0
 32
0.0
 13
1.0
 23
0.0
 33
0.0
 40
0.0
 40
0.0
 40
0.0
 40
0.0
 40
0.0640934655453941
 40
0.4565668800590743
 40
0.8224437552041814
 40
1.0
 40
1.0
 40
1.0
 40
1.0
 10
71.7256844387003
 20
134.1248570537014
 30
0.0
 10
71.72569780971911
 20
134.126207005869
 30
0.0
 10
71.72579305756204
 20
134.1358233285965
 30
0.0
 10
71.72106360208723
 20
134.0969173703107
 30
0.0
 10
71.70205887262813
 20
134.0125336313332
 30
0.0
 10
71.64945268736494
 20
133.9429533998018
 30
0.0
 10
71.63226463539384
 20
133.9202194070263
 30
0.0
  0
LINE
  5
27D
330
1F
100
AcDbEntity
  8
0
  6
Continuous
 62
     7
370
    15
100
AcDbLine
 10
69.7549685015
 20
124.5234344682
 30
0.0
 11
70.0554024539
 21
123.8240242531
 31
0.0
  0
SPLINE
  5
27E
330
1F
100
AcDbEntity
  8
0
  6
Continuous
 62
     7
370
    15
100
AcDbSpline
210
0.0
220
0.0
230
1.0
 70
     8
 71
     3
 72
    12
 73
     8
 74
     0
 42
0.00000001
 43
0.00000001
 12
1.0
 22
0.0
 32
0.0
 13
1.0
 23
0.0
 33
0.0
 40
0.0
 40
0.0
 40
0.0
 40
0.0
 40
0.2090724409686684
 40
0.4291288014889632
 40
0.6461321851406538
 40
0.9017370581114342
 40
1.0
 40
1.0
 40
1.0
 40
1.0
 10
70.06572686308853
 20
123.830194265191
 30
0.0
 10
70.08389431245601
 20
123.7819056510885
 30
0.0
 10
70.12118366411354
 20
123.6827915115139
 30
0.0
 10
70.12460404245704
 20
123.5549398415243
 30
0.0
 10
70.11528410110269
 20
123.4745833014997
 30
0.0
 10
70.10612289591654
 20
123.4443357069398
 30
0.0
 10
70.10798096696789
 20
123.4496017361492
 30
0.0
 10
70.10849692100517
 20
123.451064020936
 30
0.0
  0
LINE
  5
27F
330
1F
100
AcDbEntity
  8
0
  6
Continuous
 62
     7
370
    15
100
AcDbLine
 10
68.9454964473
 20
122.2304139813
 30
0.0
 11
69.7608844953
 21
122.1447127467
 31
0.0
  0
LINE
  5
280
330
1F
100
AcDbEntity
  8
0
  6
Continuous
 62
     7
370
    15
100
AcDbLine
 10
77.1786175779
 20
122.7782337522
 30
0.0
 11
79.1673866211
 21
133.7959027445
 31
0.0
  0
LINE
  5
281
330
1F
100
AcDbEntity
  8
0
  6
Continuous
 62
     7
370
    15
100
AcDbLine
 10
80.0214909128
 20
122.4794356679
 30
0.0
 11
82.0102604217
 21
133.4971046602
 31
0.0
  0
LINE
  5
282
330
1F
100
AcDbEntity
  8
0
  6
Continuous
 62
     7
370
    15
100
AcDbLine
 10
82.2915887571
 20
133.6240979438
 30
0.0
 11
80.3028192482
 21
122.6064289516
 31
0.0
  0
ARC
  5
283
330
1F
100
AcDbEntity
  8
0
  6
Continuous
 62
     7
370
    15
100
AcDbCircle
 10
78.6908089048
 20
134.3792775663
 30
0.0
 40
3.434674279896023
100
AcDbArc
 50
345.1171661085
 51
10.7289387563
  0
ARC
  5
284
330
1F
100
AcDbEntity
  8
0
  6
Continuous
 62
     7
370
    15
100
AcDbCircle
 10
79.6392134414
 20
134.2760586706
 30
0.0
 40
2.73132707752389
100
AcDbArc
 50
346.1903262054
 51
8.565072052
  0
ARC
  5
285
330
1F
100
AcDbEntity
  8
0
  6
Continuous
 62
     7
370
    15
100
AcDbCircle
 10
78.7979125486
 20
122.5882430585
 30
0.0
 40
1.228406716603824
100
AcDbArc
 50
332.5982696925
 51
354.9183075484
  0
ARC
  5
286
330
1F
100
AcDbEntity
  8
0
  6
Continuous
 62
     7
370
    15
100
AcDbCircle
 10
77.7957115764
 20
123.04823589
 30
0.0
 40
2.545738055774459
100
AcDbArc
 50
346.3556408844
 51
350.005846755
  0
LINE
  5
287
330
1F
100
AcDbEntity
  8
0
  6
Continuous
 62
     7
370
    15
100
AcDbLine
 10
68.9487421064
 20
122.2309262087
 30
0.0
 11
70.8046170062
 21
122.9871191611
 31
0.0
  0
ARC
  5
288
330
1F
100
AcDbEntity
  8
0
  6
Continuous
 62
     7
370
    15
100
AcDbCircle
 10
70.1957050612
 20
122.4966731803
 30
0.0
 40
1.274965906802706
100
AcDbArc
 50
164.4228825615
 51
192.0306298546
  0
LINE
  5
289
330
1F
100
AcDbEntity
  8
0
  6
Continuous
 62
     7
370
    15
100
AcDbLine
 10
71.1793774849
 20
135.0923410212
 30
0.0
 11
68.9675687923
 21
122.8390463223
 31
0.0
  0
ARC
  5
28A
330
1F
100
AcDbEntity
  8
0
  6
Continuous
 62
     7
370
    15
100
AcDbCircle
 10
71.5842278201
 20
135.0681083572
 30
0.0
 40
0.4055749202294269
100
AcDbArc
 50
148.699690356
 51
176.5745988334
  0
LINE
  5
28B
330
1F
100
AcDbEntity
  8
0
  6
Continuous
 62
     7
370
    15
100
AcDbLine
 10
73.0935566631
 20
136.0350071048
 30
0.0
 11
71.237681887
 21
135.2788141524
 31
0.0
  0
ARC
  5
28C
330
1F
100
AcDbEntity
  8
0
  6
Continuous
 62
     7
370
    15
100
AcDbCircle
 10
71.8466004313
 20
135.7692596166
 30
0.0
 40
1.274959439148398
100
AcDbArc
 50
344.4228256414
 51
12.0307155392
  0
LINE
  5
28D
330
1F
100
AcDbEntity
  8
0
  6
Continuous
 62
     7
370
    15
100
AcDbLine
 10
70.8629212918
 20
123.173591361
 30
0.0
 11
73.07473013
 21
135.4268869912
 31
0.0
  0
ARC
  5
28E
330
1F
100
AcDbEntity
  8
0
  6
Continuous
 62
     7
370
    15
100
AcDbCircle
 10
70.4580722927
 20
123.1978244433
 30
0.0
 40
0.4055736114884821
100
AcDbArc
 50
328.6996627718
 51
356.574528576
  0
ARC
  5
28F
330
1F
100
AcDbEntity
  8
0
  6
Continuous
 62
     7
370
    15
100
AcDbCircle
 10
71.907022043
 20
135.7626817106
 30
0.0
 40
1.211209473720859
100
AcDbArc
 50
344.4227985454
 51
12.03074385
  0
LINE
  5
290
330
1F
100
AcDbEntity
  8
0
  6
Continuous
 62
     7
370
    15
100
AcDbLine
 10
73.0916283888
 20
136.0151419943
 30
0.0
 11
71.2357535836
 21
135.2589490419
 31
0.0
  0
ARC
  5
291
330
1F
100
AcDbEntity
  8
0
  6
Continuous
 62
     7
370
    15
100
AcDbCircle
 10
71.5649718532
 20
135.0587786681
 30
0.0
 40
0.3852957923893174
100
AcDbArc
 50
148.6996787382
 51
176.5745040488
  0
LINE
  5
292
330
1F
100
AcDbEntity
  8
0
  6
Continuous
 62
     7
370
    15
100
AcDbLine
 10
71.180364454
 20
135.0818003123
 30
0.0
 11
68.9685555285
 21
122.8285056135
 31
0.0
  0
ARC
  5
293
330
1F
100
AcDbEntity
  8
0
  6
Continuous
 62
     7
370
    15
100
AcDbCircle
 10
70.1352871137
 20
122.5032514586
 30
0.0
 40
1.211219574247738
100
AcDbArc
 50
164.4229246555
 51
192.0306350418
  0
LINE
  5
294
330
1F
100
AcDbEntity
  8
0
  6
Continuous
 62
     7
370
    15
100
AcDbLine
 10
68.9506704098
 20
122.2507913193
 30
0.0
 11
70.8065453096
 21
123.0069842716
 31
0.0
  0
ARC
  5
295
330
1F
100
AcDbEntity
  8
0
  6
Continuous
 62
     7
370
    15
100
AcDbCircle
 10
70.4773349861
 20
123.2071519082
 30
0.0
 40
0.3852875806952377
100
AcDbArc
 50
328.6994126475
 51
356.5748387382
  0
LINE
  5
296
330
1F
100
AcDbEntity
  8
0
  6
Continuous
 62
     7
370
    15
100
AcDbLine
 10
70.8619343227
 20
123.1841330012
 30
0.0
 11
73.0737431827
 21
135.4374277001
 31
0.0
  0
ARC
  5
297
330
1F
100
AcDbEntity
  8
0
  6
Continuous
 62
     7
370
    15
100
AcDbCircle
 10
78.0151057075
 20
135.1209471854
 30
0.0
 40
1.373855258358703
100
AcDbArc
 50
345.1170357862
 51
10.7290665382
  0
LINE
  5
298
330
1F
100
AcDbEntity
  8
0
  6
Continuous
 62
     7
370
    15
100
AcDbLine
 10
77.1310628502
 20
122.5147830849
 30
0.0
 11
79.3428715429
 21
134.7680787151
 31
0.0
  0
LINE
  5
299
330
1F
100
AcDbEntity
  8
0
  6
Continuous
 62
     7
370
    15
100
AcDbLine
 10
71.6490378714
 20
134.4153570538
 30
0.0
 11
71.4156812633
 21
134.8587560063
 31
0.0
  0
ARC
  5
29A
330
1F
100
AcDbEntity
  8
0
  6
Continuous
 62
     7
370
    15
100
AcDbCircle
 10
69.1384381994
 20
133.1023092517
 30
0.0
 40
3.187400596703275
100
AcDbArc
 50
344.4228332272
 51
12.0307054878
  0
LINE
  5
29B
330
1F
100
AcDbEntity
  8
0
  6
Continuous
 62
     7
370
    15
100
AcDbLine
 10
70.9708951058
 20
125.3886508351
 30
0.0
 11
72.208764485
 21
132.2463775581
 31
0.0
  0
LINE
  5
29C
330
1F
100
AcDbEntity
  8
0
  6
Continuous
 62
     7
370
    15
100
AcDbLine
 10
69.7864679264
 20
124.4992564028
 30
0.0
 11
70.8251340425
 21
124.9224698698
 31
0.0
  0
ARC
  5
29D
330
1F
100
AcDbEntity
  8
0
  6
Continuous
 62
     7
370
    15
100
AcDbCircle
 10
72.903858843
 20
125.1636248118
 30
0.0
 40
3.18739886267024
100
AcDbArc
 50
164.4228211522
 51
192.0307087965
  0
LINE
  5
29E
330
1F
100
AcDbEntity
  8
0
  6
Continuous
 62
     7
370
    15
100
AcDbLine
 10
71.0714036709
 20
132.8772834098
 30
0.0
 11
69.8335344082
 21
126.0195566868
 31
0.0
  0
ARC
  5
29F
330
1F
100
AcDbEntity
  8
0
  6
Continuous
 62
     7
370
    15
100
AcDbCircle
 10
72.0835289484
 20
132.8166994958
 30
0.0
 40
1.013936875726075
100
AcDbArc
 50
148.6996498793
 51
176.5744698006
  0
LINE
  5
2A0
330
1F
100
AcDbEntity
  8
0
  6
Continuous
 62
     7
370
    15
100
AcDbLine
 10
72.2558308503
 20
133.7666778421
 30
0.0
 11
71.2171648507
 21
133.3434643751
 31
0.0
  0
ARC
  5
2A1
330
1F
100
AcDbEntity
  8
0
  6
Continuous
 62
     7
370
    15
100
AcDbCircle
 10
69.9587690343
 20
125.4492347811
 30
0.0
 40
1.013937670288675
100
AcDbArc
 50
328.699675067
 51
356.5744706804
  0
LWPOLYLINE
  5
2A2
330
1F
100
AcDbEntity
  8
0
  6
Continuous
 62
     7
370
    15
100
AcDbPolyline
 90
       32
 70
   128
 43
0.0
 10
71.1484654917
 20
127.7731532758
 10
71.2249318481
 20
128.2390455311
 10
71.2930553005
 20
128.7415350383
 10
71.3500468869
 20
129.2600507444
 10
71.3935734116
 20
129.7733622199
 10
71.4218527888
 20
130.2604569649
 10
71.4337273844
 20
130.7013916379
 10
71.4287109318
 20
131.0781153446
 10
71.4070089039
 20
131.3752035206
 10
71.3695096661
 20
131.5804949557
 10
71.31774862
 20
131.6855835324
 10
71.2538447574
 20
131.686168403
 10
71.1804142798
 20
131.5822253531
 10
71.1004634964
 20
131.3780086642
 10
71.0172656568
 20
131.0818797504
 10
70.9342266078
 20
130.7059625691
 10
70.8547463751
 20
130.2656462943
 10
70.7820785342
 20
129.7789576059
 10
70.719198428
 20
129.265821219
 10
70.6686802319
 20
128.747247771
 10
70.6325921806
 20
128.2444639658
 10
70.6124115846
 20
127.7780576205
 10
70.6089649926
 20
127.3671208476
 10
70.6223930343
 20
127.0284770584
 10
70.6521462294
 20
126.7759917831
 10
70.6970066408
 20
126.6200008398
 10
70.7551372348
 20
126.5668912386
 10
70.824158715
 20
126.6188366866
 10
70.9012447501
 20
126.7737119054
 10
70.9832397866
 20
127.0251745885
 10
71.0667868721
 20
127.3629317587
 10
71.1484654917
 20
127.7731532758
  0
ARC
  5
2A3
330
1F
100
AcDbEntity
  8
0
  6
Continuous
 62
     7
370
    15
100
AcDbCircle
 10
76.7262083094
 20
122.5390183326
 30
0.0
 40
0.4055792727275029
100
AcDbArc
 50
328.6997910207
 51
356.5742699894
  0
LINE
  5
2A4
330
1F
100
AcDbEntity
  8
0
  6
Continuous
 62
     7
370
    15
100
AcDbLine
 10
70.120744977
 20
123.6446235856
 30
0.0
 11
69.2038723378
 21
122.6054603761
 31
0.0
  0
LINE
  5
2A5
330
1F
100
AcDbEntity
  8
0
  6
Continuous
 62
     7
370
    15
100
AcDbLine
 10
77.0542874111
 20
122.3207848674
 30
0.0
 11
77.0727583318
 21
122.3283108851
 31
0.0
  0
SPLINE
  5
2A6
330
1F
100
AcDbEntity
  8
0
  6
Continuous
 62
     7
370
    15
100
AcDbSpline
210
0.0
220
0.0
230
1.0
 70
     8
 71
     3
 72
     9
 73
     5
 74
     0
 42
0.00000001
 43
0.00000001
 12
1.0
 22
0.0
 32
0.0
 13
1.0
 23
0.0
 33
0.0
 40
0.0
 40
0.0
 40
0.0
 40
0.0
 40
0.6745782798567539
 40
1.0
 40
1.0
 40
1.0
 40
1.0
 10
71.64903787137798
 20
134.4153570538206
 30
0.0
 10
71.67896333753876
 20
134.3482833370166
 30
0.0
 10
71.72332507739071
 20
134.2488527463693
 30
0.0
 10
71.71033759142037
 20
134.148680392206
 30
0.0
 10
71.70611118139557
 20
134.1160821324033
 30
0.0
  0
SPLINE
  5
2A7
330
1F
100
AcDbEntity
  8
0
  6
Continuous
 62
     7
370
    15
100
AcDbSpline
210
0.0
220
0.0
230
1.0
 70
     8
 71
     3
 72
    27
 73
    23
 74
     0
 42
0.00000001
 43
0.00000001
 12
1.0
 22
0.0
 32
0.0
 13
1.0
 23
0.0
 33
0.0
 40
0.0
 40
0.0
 40
0.0
 40
0.0
 40
0.0520764669918354
 40
0.1038169806035443
 40
0.1552398708960692
 40
0.2063638095750564
 40
0.257207797703945
 40
0.3077911518279099
 40
0.3581334885117815
 40
0.4082547073111708
 40
0.4581749722129335
 40
0.5079146915986534
 40
0.5574944968025893
 40
0.6069352193532587
 40
0.6562578670050877
 40
0.7054835986829674
 40
0.7546336984777876
 40
0.8037295488446067
 40
0.8527926031668093
 40
0.9018443578590501
 40
0.9509063241887251
 40
0.9999999999999999
 40
0.9999999999999999
 40
0.9999999999999999
 40
0.9999999999999999
 10
91.15569334778391
 20
128.5751360051786
 30
0.0
 10
91.0259619530432
 20
128.6922974939892
 30
0.0
 10
90.76733608094668
 20
128.9258646446418
 30
0.0
 10
90.37070683927375
 20
129.267013375798
 30
0.0
 10
89.9693491867074
 20
129.5999047503936
 30
0.0
 10
89.56255661683352
 20
129.9239761559902
 30
0.0
 10
89.15051670264293
 20
130.2393766973403
 30
0.0
 10
88.73317961581303
 20
130.5460664727493
 30
0.0
 10
88.31055863007361
 20
130.8440557930616
 30
0.0
 10
87.88265027316464
 20
131.1333416187242
 30
0.0
 10
87.44945555705776
 20
131.4139244631788
 30
0.0
 10
87.01097432655656
 20
131.6858038903057
 30
0.0
 10
86.56720678103338
 20
131.9489797481101
 30
0.0
 10
86.11815300417378
 20
132.20345172143
 30
0.0
 10
85.66381332958673
 20
132.449219905249
 30
0.0
 10
85.20418734631738
 20
132.6862829754654
 30
0.0
 10
84.73927749738986
 20
132.9146449282129
 30
0.0
 10
84.26907569896646
 20
133.1342900123559
 30
0.0
 10
83.79361318961745
 20
133.3452761463507
 30
0.0
 10
83.312774639253
 20
133.5473865828309
 30
0.0
 10
82.82699176866359
 20
133.7414296861781
 30
0.0
 10
82.49892003754215
 20
133.8633432700763
 30
0.0
 10
82.33483117969136
 20
133.9243197543042
 30
0.0
  0
SPLINE
  5
2A8
330
1F
100
AcDbEntity
  8
0
  6
Continuous
 62
     7
370
    15
100
AcDbSpline
210
0.0
220
0.0
230
1.0
 70
     8
 71
     3
 72
    27
 73
    23
 74
     0
 42
0.00000001
 43
0.00000001
 12
1.0
 22
0.0
 32
0.0
 13
1.0
 23
0.0
 33
0.0
 40
0.0
 40
0.0
 40
0.0
 40
0.0
 40
0.0464380887092007
 40
0.0932280028862562
 40
0.1403739747643414
 40
0.187880141413509
 40
0.2357505465156322
 40
0.2839891421522444
 40
0.3325997906007874
 40
0.3815862661349562
 40
0.4309522568253383
 40
0.4807013663366506
 40
0.530837115718387
 40
0.5813629451858373
 40
0.6322822158887229
 40
0.6835982116650721
 40
0.7353141407780153
 40
0.7874331376335956
 40
0.839958264477763
 40
0.8928925130710137
 40
0.9462388063393042
 40
1.0
 40
1.0
 40
1.0
 40
1.0
 10
82.35260221385852
 20
134.4198818551336
 30
0.0
 10
82.5068243017977
 20
134.3630850883601
 30
0.0
 10
82.81643689911097
 20
134.2490612496564
 30
0.0
 10
83.2770128210038
 20
134.0671948454018
 30
0.0
 10
83.73673412457302
 20
133.8765386760833
 30
0.0
 10
84.19499899348682
 20
133.6762894270981
 30
0.0
 10
84.65170288350144
 20
133.4665934148375
 30
0.0
 10
85.10660194935775
 20
133.2473451232479
 30
0.0
 10
85.55948564971442
 20
133.0185130062993
 30
0.0
 10
86.01013005200818
 20
132.7800513670489
 30
0.0
 10
86.45831058346523
 20
132.5319244260429
 30
0.0
 10
86.90379866670304
 20
132.2740999742954
 30
0.0
 10
87.34636276413285
 20
132.006551298251
 30
0.0
 10
87.7857681037897
 20
131.7292567570911
 30
0.0
 10
88.22177725953054
 20
131.4422003933329
 30
0.0
 10
88.65414865427537
 20
131.1453707625144
 30
0.0
 10
89.08264262534469
 20
130.838765909354
 30
0.0
 10
89.50699904461813
 20
130.5223752887717
 30
0.0
 10
89.92702234478807
 20
130.1962486920159
 30
0.0
 10
90.34226103510528
 20
129.8602366669122
 30
0.0
 10
90.75321835397503
 20
129.5149712905183
 30
0.0
 10
91.02121783742784
 20
129.2780215408458
 30
0.0
 10
91.15573665160211
 20
129.1590877319661
 30
0.0
  0
LINE
  5
2A9
330
1F
100
AcDbEntity
  8
0
  6
Continuous
 62
     7
370
    15
100
AcDbLine
 10
91.1556925735
 20
129.1594213402
 30
0.0
 11
91.1556925735
 21
128.5749773091
 31
0.0
  0
LINE
  5
2AA
330
1F
100
AcDbEntity
  8
0
  6
Continuous
 62
     7
370
    15
100
AcDbLine
 10
91.1556925735
 20
128.5751356339
 30
0.0
 11
91.1556925735
 21
122.9592195308
 31
0.0
  0
LWPOLYLINE
  5
2AB
330
1F
100
AcDbEntity
  8
0
  6
Continuous
 62
     7
370
    15
100
AcDbPolyline
 90
        3
 70
   128
 43
0.0
 10
80.1932938507
 20
121.9908619826
 10
80.2375773078
 20
122.2570023095
 10
80.2696054912
 20
122.4477101644
  0
ARC
  5
2AC
330
1F
100
AcDbEntity
  8
0
  6
Continuous
 62
     7
370
    15
100
AcDbCircle
 10
263.823517932
 20
91.4463591052
 30
0.0
 40
195.2887548688566
100
AcDbArc
 50
170.7173431113
 51
174.1572115069
  0
LINE
  5
2AD
330
1F
100
AcDbEntity
  8
0
  6
Continuous
 62
     7
370
    15
100
AcDbLine
 10
71.0921498126
 20
122.9474308496
 30
0.0
 11
80.1932938507
 21
121.9908619826
 31
0.0
  0
LINE
  5
2AE
330
1F
100
AcDbEntity
  8
0
  6
Continuous
 62
     7
370
    15
100
AcDbLine
 10
91.1556925735
 20
122.9592195308
 30
0.0
 11
91.1556925735
 21
109.0556832299
 31
0.0
  0
LWPOLYLINE
  5
2AF
330
1F
100
AcDbEntity
  8
0
  6
Continuous
 62
     7
370
    15
100
AcDbPolyline
 90
       37
 70
   128
 43
0.0
 10
68.6534062138
 20
114.9264026029
 10
68.5973410605
 20
114.3219141817
 10
68.556009896
 20
113.7357923729
 10
68.5306686087
 20
113.1858468583
 10
68.5220874025
 20
112.6887869617
 10
68.5305270477
 20
112.2597161742
 10
68.5557309649
 20
111.9116711492
 10
68.5969326756
 20
111.6552272873
 10
68.6528814136
 20
111.4981764989
 10
68.7218765839
 20
111.445290648
 10
68.8018217793
 20
111.4981764989
 10
68.8902885764
 20
111.6552272873
 10
68.984587781
 20
111.9116711492
 10
69.0818551107
 20
112.2597161742
 10
69.1791345476
 20
112.6887869617
 10
69.2734710051
 20
113.1858468583
 10
69.3619974068
 20
113.7357923729
 10
69.4420243258
 20
114.3219141817
 10
69.511120079
 20
114.9264026029
 10
69.5671852323
 20
115.5308914898
 10
69.608516164
 20
116.1170132985
 10
69.6338574512
 20
116.6669588132
 10
69.6424386575
 20
117.1640182441
 10
69.6339990123
 20
117.5930897301
 10
69.6087953279
 20
117.9411342894
 10
69.5675931516
 20
118.197578617
 10
69.5116446464
 20
118.3546294054
 10
69.4426494761
 20
118.4075145578
 10
69.3627040478
 20
118.3546294054
 10
69.2742377164
 20
118.197578617
 10
69.179938279
 20
117.9411342894
 10
69.0826709493
 20
117.5930897301
 10
68.9853915124
 20
117.1640182441
 10
68.8910550548
 20
116.6669588132
 10
68.8025286532
 20
116.1170132985
 10
68.722501967
 20
115.5308914898
 10
68.6534062138
 20
114.9264026029
  0
LINE
  5
2B0
330
1F
100
AcDbEntity
  8
0
  6
Continuous
 62
     7
370
    15
100
AcDbLine
 10
69.1653444542
 20
122.2073069369
 30
0.0
 11
69.125863362
 21
121.988584899
 31
0.0
  0
LWPOLYLINE
  5
2B1
330
1F
100
AcDbEntity
  8
0
  6
Continuous
 62
     7
370
    15
100
AcDbPolyline
 90
       15
 70
   128
 43
0.0
 10
69.125863362
 20
121.988584899
 10
69.0573147609
 20
121.5666855281
 10
68.9973999857
 20
121.1104408433
 10
68.949123483
 20
120.6427287837
 10
68.9149052946
 20
120.187003777
 10
68.8964623137
 20
119.7661158224
 10
68.8947188778
 20
119.4011714836
 10
68.9097620657
 20
119.1104693865
 10
68.9408379717
 20
118.9085875233
 10
68.9863884932
 20
118.8056493705
 10
69.0441290958
 20
118.8068153864
 10
69.1111647634
 20
118.9120278289
 10
69.1841338872
 20
119.1160107558
 10
69.2593773006
 20
119.4085363826
 10
69.333122216
 20
119.7749345159
  0
LINE
  5
2B2
330
1F
100
AcDbEntity
  8
0
  6
Continuous
 62
     7
370
    15
100
AcDbLine
 10
69.333122216
 20
119.7749345159
 30
0.0
 11
69.811597105
 21
122.4256583085
 31
0.0
  0
LINE
  5
2B3
330
1F
100
AcDbEntity
  8
0
  6
Continuous
 62
     7
370
    15
100
AcDbLine
 10
69.811597105
 20
122.4256583085
 30
0.0
 11
70.2086306288
 21
122.587432765
 31
0.0
  0
ELLIPSE
  5
2B4
330
1F
100
AcDbEntity
  8
0
  6
Continuous
 62
     7
370
    15
100
AcDbEllipse
 10
70.6731508947
 20
124.9713858208
 30
0.0
 11
0.3504323720944598
 21
2.920426735972953
 31
0.0
210
0.0
220
0.0
230
1.0
 40
0.1061937766
 41
2.538404709727868
 42
3.862427773243146
  0
LINE
  5
2B5
330
1F
100
AcDbEntity
  8
0
  6
Continuous
 62
     7
370
    15
100
AcDbLine
 10
69.5492954569
 20
111.32660709
 30
0.0
 11
69.4335679168
 21
110.2087511975
 31
0.0
  0
LINE
  5
2B6
330
1F
100
AcDbEntity
  8
0
  6
Continuous
 62
     7
370
    15
100
AcDbLine
 10
69.4335679168
 20
110.2087511975
 30
0.0
 11
66.2562401144
 21
94.0276669865
 31
0.0
  0
SPLINE
  5
2B7
330
1F
100
AcDbEntity
  8
0
  6
Continuous
 62
     7
370
    15
100
AcDbSpline
210
0.0
220
0.0
230
1.0
 70
     8
 71
     3
 72
     8
 73
     4
 74
     0
 42
0.00000001
 43
0.00000001
 12
1.0
 22
0.0
 32
0.0
 13
1.0
 23
0.0
 33
0.0
 40
0.0
 40
0.0
 40
0.0
 40
0.0
 40
1.0
 40
1.0
 40
1.0
 40
1.0
 10
66.23654846797471
 20
94.05534799626028
 30
0.0
 10
66.2438830854049
 20
94.05196000534195
 30
0.0
 10
66.25042814648107
 20
94.04259038417828
 30
0.0
 10
66.2562400831892
 20
94.02766665801498
 30
0.0
  0
ARC
  5
2B8
330
1F
100
AcDbEntity
  8
0
  6
Continuous
 62
     7
370
    15
100
AcDbCircle
 10
73.1556933484
 20
109.0345146661
 30
0.0
 40
16.50000000000001
100
AcDbArc
 50
244.0523050981
 51
245.2069406367
  0
ARC
  5
2B9
330
1F
100
AcDbEntity
  8
0
  6
Continuous
 62
     7
370
    15
100
AcDbCircle
 10
73.1556933484
 20
109.0345146661
 30
0.0
 40
16.50000000000002
100
AcDbArc
 50
103.2464717801
 51
103.9476949019
  0
LINE
  5
2BA
330
1F
100
AcDbEntity
  8
0
  6
Continuous
 62
     7
370
    15
100
AcDbLine
 10
70.2786805219
 20
130.1025325959
 30
0.0
 11
70.8960565849
 21
134.6011875724
 31
0.0
  0
LINE
  5
2BB
330
1F
100
AcDbEntity
  8
0
  6
Continuous
 62
     7
370
    15
100
AcDbLine
 10
70.6145773752
 20
122.7528393796
 30
0.0
 11
71.0921498126
 21
122.9474308496
 31
0.0
  0
LINE
  5
2BC
330
1F
100
AcDbEntity
  8
0
  6
Continuous
 62
     7
370
    15
100
AcDbLine
 10
70.8960565849
 20
134.6011875724
 30
0.0
 11
71.1061745992
 21
134.6868021941
 31
0.0
  0
ARC
  5
2BD
330
1F
100
AcDbEntity
  8
0
  6
Continuous
 62
     7
370
    15
100
AcDbCircle
 10
73.1556933484
 20
109.0345146661
 30
0.0
 40
18.0
100
AcDbArc
 50
356.4795671151
 51
0.0
  0
LINE
  5
2BE
330
1F
100
AcDbEntity
  8
0
  6
Continuous
 62
     7
370
    15
100
AcDbLine
 10
91.1217272392
 20
107.9292338403
 30
0.0
 11
69.4335679168
 21
110.2087511975
 31
0.0
  0
LINE
  5
2BF
330
1F
100
AcDbEntity
  8
0
  6
Continuous
 62
     7
370
    15
100
AcDbLine
 10
91.1556925735
 20
109.0556832299
 30
0.0
 11
91.1556925735
 21
109.0345146661
 31
0.0
  0
SPLINE
  5
2C0
330
1F
100
AcDbEntity
  8
0
  6
Continuous
 62
     7
370
    15
100
AcDbSpline
210
0.0
220
0.0
230
1.0
 70
     8
 71
     3
 72
    12
 73
     8
 74
     0
 42
0.00000001
 43
0.00000001
 12
1.0
 22
0.0
 32
0.0
 13
1.0
 23
0.0
 33
0.0
 40
0.0
 40
0.0
 40
0.0
 40
0.0
 40
0.2499999999999998
 40
0.2499999999999998
 40
0.4999999999999996
 40
0.4999999999999996
 40
1.0
 40
1.0
 40
1.0
 40
1.0
 10
84.64202906674855
 20
96.1767383232414
 30
0.0
 10
84.3335078117918
 20
96.10403080791076
 30
0.0
 10
84.04189831628108
 20
96.00119255153405
 30
0.0
 10
83.46958890919485
 20
95.77607903995612
 30
0.0
 10
83.1898155117032
 20
95.6520476041431
 30
0.0
 10
82.36084444675186
 20
95.26215885373546
 30
0.0
 10
81.82407295090249
 20
94.98206288570988
 30
0.0
 10
81.30067525045465
 20
94.68497565561731
 30
0.0
  0
ARC
  5
2C1
330
1F
100
AcDbEntity
  8
0
  6
Continuous
 62
     7
370
    15
100
AcDbCircle
 10
73.1556933484
 20
109.0345146661
 30
0.0
 40
16.50000000000004
100
AcDbArc
 50
247.2828496351
 51
299.5797984845
  0
SPLINE
  5
2C2
330
1F
100
AcDbEntity
  8
0
  6
Continuous
 62
     7
370
    15
100
AcDbSpline
210
0.0
220
0.0
230
1.0
 70
     8
 71
     3
 72
     8
 73
     4
 74
     0
 42
0.00000001
 43
0.00000001
 12
1.0
 22
0.0
 32
0.0
 13
1.0
 23
0.0
 33
0.0
 40
0.0
 40
0.0
 40
0.0
 40
0.0
 40
1.0
 40
1.0
 40
1.0
 40
1.0
 10
66.78368756535308
 20
93.81454284287018
 30
0.0
 10
66.60918366234218
 20
93.8876007888411
 30
0.0
 10
66.43327714477591
 20
93.95850265271308
 30
0.0
 10
66.25624008318886
 20
94.02766665801514
 30
0.0
  0
ARC
  5
2C3
330
1F
100
AcDbEntity
  8
0
  6
Continuous
 62
     7
370
    15
100
AcDbCircle
 10
73.1556933484
 20
109.0345146661
 30
0.0
 40
18.0
100
AcDbArc
 50
316.0261182723
 51
356.4795671151
  0
SPLINE
  5
2C4
330
1F
100
AcDbEntity
  8
0
  6
Continuous
 62
     7
370
    15
100
AcDbSpline
210
0.0
220
0.0
230
1.0
 70
     8
 71
     3
 72
     8
 73
     4
 74
     0
 42
0.00000001
 43
0.00000001
 12
1.0
 22
0.0
 32
0.0
 13
1.0
 23
0.0
 33
0.0
 40
0.0
 40
0.0
 40
0.0
 40
0.0
 40
1.0
 40
1.0
 40
1.0
 40
1.0
 10
84.64202906674855
 20
96.17673832324138
 30
0.0
 10
85.13308450157561
 20
96.29246266956197
 30
0.0
 10
85.62217714145072
 20
96.41255512160379
 30
0.0
 10
86.10950828736557
 20
96.53656769369584
 30
0.0
  0
ELLIPSE
  5
2C5
330
1F
100
AcDbEntity
  8
0
  6
Continuous
 62
     7
370
    15
100
AcDbEllipse
 10
74.0802638161
 20
122.2281544875
 30
0.0
 11
4.66285163876114
 21
-0.5501674705389802
 31
0.0
210
0.0
220
0.0
230
1.0
 40
0.0367797422
 41
3.737070837472118
 42
3.859865086756334
  0
SPLINE
  5
2C6
330
1F
100
AcDbEntity
  8
0
  6
Continuous
 62
     7
370
    15
100
AcDbSpline
210
0.0
220
0.0
230
1.0
 70
     8
 71
     3
 72
    10
 73
     6
 74
     0
 42
0.00000001
 43
0.00000001
 12
1.0
 22
0.0
 32
0.0
 13
1.0
 23
0.0
 33
0.0
 40
0.0
 40
0.0
 40
0.0
 40
0.0
 40
0.0147493583078628
 40
0.7404276319269926
 40
1.0
 40
1.0
 40
1.0
 40
1.0
 10
91.14763477058939
 20
108.4963358301488
 30
0.0
 10
91.14759995369583
 20
108.4950398398143
 30
0.0
 10
91.14585212239953
 20
108.4299802599737
 30
0.0
 10
91.14397674105373
 20
108.3822969139255
 30
0.0
 10
91.14439231506442
 20
108.3948910387819
 30
0.0
 10
91.1445018014484
 20
108.3982090643426
 30
0.0
  0
SPLINE
  5
2C7
330
1F
100
AcDbEntity
  8
0
  6
Continuous
 62
     7
370
    15
100
AcDbSpline
210
0.0
220
0.0
230
1.0
 70
     8
 71
     3
 72
    16
 73
    12
 74
     0
 42
0.00000001
 43
0.00000001
 12
1.0
 22
0.0
 32
0.0
 13
1.0
 23
0.0
 33
0.0
 40
0.0
 40
0.0
 40
0.0
 40
0.0
 40
0.2500000000000001
 40
0.2500000000000001
 40
0.5000000000000001
 40
0.5000000000000001
 40
0.7500000000000002
 40
0.7500000000000002
 40
0.8750000000000001
 40
0.8750000000000001
 40
1.0
 40
1.0
 40
1.0
 40
1.0
 10
69.17859909002914
 20
125.0480314960075
 30
0.0
 10
69.12573015097152
 20
125.0349010415168
 30
0.0
 10
69.0082279062143
 20
125.0058410948769
 30
0.0
 10
68.64851581490299
 20
124.9080803704473
 30
0.0
 10
68.41452507025808
 20
124.8414255736304
 30
0.0
 10
67.85224915501989
 20
124.6617533463016
 30
0.0
 10
67.5340298348891
 20
124.5517005275109
 30
0.0
 10
67.01798040882503
 20
124.3515809420516
 30
0.0
 10
66.84000657670722
 20
124.2791976366573
 30
0.0
 10
66.48039972862433
 20
124.1251976645839
 30
0.0
 10
66.2977621118875
 20
124.0432002263649
 30
0.0
 10
66.112733096629
 20
123.9558655062145
 30
0.0
  0
SPLINE
  5
2C8
330
1F
100
AcDbEntity
  8
0
  6
Continuous
 62
     7
370
    15
100
AcDbSpline
210
0.0
220
0.0
230
1.0
 70
     8
 71
     3
 72
    18
 73
    14
 74
     0
 42
0.00000001
 43
0.00000001
 12
1.0
 22
0.0
 32
0.0
 13
1.0
 23
0.0
 33
0.0
 40
0.0
 40
0.0
 40
0.0
 40
0.0
 40
0.2499999999999994
 40
0.2499999999999994
 40
0.3749999999999996
 40
0.3749999999999996
 40
0.4999999999999997
 40
0.4999999999999997
 40
0.6249999999999997
 40
0.6249999999999997
 40
0.7499999999999999
 40
0.7499999999999999
 40
1.0
 40
1.0
 40
1.0
 40
1.0
 10
63.16431539362188
 20
95.90354491652312
 30
0.0
 10
63.49019546832274
 20
95.65558219508358
 30
0.0
 10
63.80960487478909
 20
95.43170839279932
 30
0.0
 10
64.27191560529727
 20
95.12903301039843
 30
0.0
 10
64.42347571572027
 20
95.03357513480273
 30
0.0
 10
64.70887238901192
 20
94.85956675707641
 30
0.0
 10
64.8440781100665
 20
94.7800972185712
 30
0.0
 10
65.0979103229217
 20
94.63508768608463
 30
0.0
 10
65.21746539928971
 20
94.56905604000617
 30
0.0
 10
65.43275766563268
 20
94.45297768692382
 30
0.0
 10
65.5277580978828
 20
94.40327657129363
 30
0.0
 10
65.77407892377803
 20
94.27660607509453
 30
0.0
 10
65.88705536001655
 20
94.22168650841891
 30
0.0
 10
65.93611078164611
 20
94.19781599149559
 30
0.0
  0
ELLIPSE
  5
2C9
330
1F
100
AcDbEntity
  8
0
  6
Continuous
 62
     7
370
    15
100
AcDbEllipse
 10
62.328947711
 20
114.7858299379
 30
0.0
 11
1.884568774819442
 21
2.334645845946112
 31
0.0
210
0.0
220
0.0
230
1.0
 40
0.6835091599
 41
0.0
 42
6.283185307179586
  0
ARC
  5
2CA
330
1F
100
AcDbEntity
  8
0
  6
Continuous
 62
     7
370
    15
100
AcDbCircle
 10
73.1556933484
 20
109.0345146661
 30
0.0
 40
16.5
100
AcDbArc
 50
115.2675700582
 51
232.7324299418
  0
LWPOLYLINE
  5
2CB
330
1F
100
AcDbEntity
  8
0
  6
Continuous
 62
     7
370
    15
100
AcDbPolyline
 90
        3
 70
   128
 43
0.0
 10
60.5992177612
 20
112.3425554545
 10
60.7068581617
 20
112.3055868378
 10
61.0105158872
 20
112.1721301755
  0
SPLINE
  5
2CC
330
1F
100
AcDbEntity
  8
0
  6
Continuous
 62
     7
370
    15
100
AcDbSpline
210
0.0
220
0.0
230
1.0
 70
     8
 71
     3
 72
     8
 73
     4
 74
     0
 42
0.00000001
 43
0.00000001
 12
1.0
 22
0.0
 32
0.0
 13
1.0
 23
0.0
 33
0.0
 40
0.0
 40
0.0
 40
0.0
 40
0.0
 40
1.0
 40
1.0
 40
1.0
 40
1.0
 10
61.56873896256135
 20
114.08770350781
 30
0.0
 10
61.48555650354069
 20
113.9202689662558
 30
0.0
 10
61.43931484734368
 20
113.7436332192412
 30
0.0
 10
61.42577018465638
 20
113.5541367647724
 30
0.0
  0
SPLINE
  5
2CD
330
1F
100
AcDbEntity
  8
0
  6
Continuous
 62
     7
370
    15
100
AcDbSpline
210
0.0
220
0.0
230
1.0
 70
     8
 71
     3
 72
    10
 73
     6
 74
     0
 42
0.00000001
 43
0.00000001
 12
1.0
 22
0.0
 32
0.0
 13
1.0
 23
0.0
 33
0.0
 40
0.0
 40
0.0
 40
0.0
 40
0.0
 40
0.1671754391442568
 40
0.6273331392210194
 40
1.0
 40
1.0
 40
1.0
 40
1.0
 10
61.42577027143768
 20
113.5541369734151
 30
0.0
 10
61.49819703346419
 20
113.5066585378884
 30
0.0
 10
61.76998162226676
 20
113.3284936342595
 30
0.0
 10
62.0284331155809
 20
112.8933717475053
 30
0.0
 10
62.18953506069129
 20
112.4863946539702
 30
0.0
 10
62.26162390025191
 20
112.304283218999
 30
0.0
  0
SPLINE
  5
2CE
330
1F
100
AcDbEntity
  8
0
  6
Continuous
 62
     7
370
    15
100
AcDbSpline
210
0.0
220
0.0
230
1.0
 70
     8
 71
     3
 72
    14
 73
    10
 74
     0
 42
0.00000001
 43
0.00000001
 12
1.0
 22
0.0
 32
0.0
 13
1.0
 23
0.0
 33
0.0
 40
0.0
 40
0.0
 40
0.0
 40
0.0
 40
0.0907327413560034
 40
0.2874148326477998
 40
0.5722743367611579
 40
0.7203908598195123
 40
0.8712734392402088
 40
0.9458440990490685
 40
0.9999999999999999
 40
0.9999999999999999
 40
0.9999999999999999
 40
0.9999999999999999
 10
63.70008980097107
 20
113.2450691951258
 30
0.0
 10
63.68991386927869
 20
113.3130972027999
 30
0.0
 10
63.65767948882581
 20
113.528590068427
 30
0.0
 10
63.36501659451428
 20
113.8122421884142
 30
0.0
 10
62.91179104855485
 20
113.9747310666403
 30
0.0
 10
62.41255992236711
 20
114.027034520665
 30
0.0
 10
62.06466875176643
 20
114.0336531398477
 30
0.0
 10
61.77341530991953
 20
114.0419368767599
 30
0.0
 10
61.62934825424424
 20
114.0741507725966
 30
0.0
 10
61.56873853118948
 20
114.0877033179445
 30
0.0
  0
LWPOLYLINE
  5
2CF
330
1F
100
AcDbEntity
  8
0
  6
Continuous
 62
     7
370
    15
100
AcDbPolyline
 90
        9
 70
   128
 43
0.0
 10
61.5687385312
 20
114.0877033179
 10
61.5552315599
 20
114.0372931553
 10
61.5403844154
 20
113.9818831874
 10
61.5242399386
 20
113.9216303421
 10
61.5068428329
 20
113.8567045858
 10
61.4882433897
 20
113.7872903203
 10
61.4684937632
 20
113.7135831235
 10
61.4476498327
 20
113.6357920771
 10
61.4257702714
 20
113.5541369734
  0
SPLINE
  5
2D0
330
1F
100
AcDbEntity
  8
0
  6
Continuous
 62
     7
370
    15
100
AcDbSpline
210
0.0
220
0.0
230
1.0
 70
    24
 71
     3
 72
     9
 73
     5
 74
     0
 42
0.00000001
 43
0.00000001
 12
1.0
 22
0.0
 32
0.0
 13
1.0
 23
0.0
 33
0.0
 40
0.0
 40
0.0
 40
0.0
 40
0.0
 40
0.5
 40
1.0
 40
1.0
 40
1.0
 40
1.0
 10
68.65569334836535
 20
125.9345146661443
 30
0.0
 10
68.65569334836535
 20
125.9364375344782
 30
0.0
 10
68.65569334836535
 20
125.9402828234671
 30
0.0
 10
68.65569334836535
 20
125.9441272177876
 30
0.0
 10
68.65569334836535
 20
125.9460491914321
 30
0.0
  0
LINE
  5
2D1
330
1F
100
AcDbEntity
  8
0
  6
Continuous
 62
     7
370
    15
100
AcDbLine
 10
69.5263232215
 20
125.9345138972
 30
0.0
 11
68.6556935421
 21
125.9345138972
 31
0.0
  0
SPLINE
  5
2D2
330
1F
100
AcDbEntity
  8
0
  6
Continuous
 62
     7
370
    15
100
AcDbSpline
210
0.0
220
0.0
230
1.0
 70
    24
 71
     3
 72
    18
 73
    14
 74
     0
 42
0.00000001
 43
0.00000001
 12
1.0
 22
0.0
 32
0.0
 13
1.0
 23
0.0
 33
0.0
 40
0.0
 40
0.0
 40
0.0
 40
0.0
 40
0.2500000000000001
 40
0.2500000000000001
 40
0.5000000000000001
 40
0.5000000000000001
 40
0.5625000000000001
 40
0.5625000000000001
 40
0.6250000000000001
 40
0.6250000000000001
 40
0.75
 40
0.75
 40
1.0
 40
1.0
 40
1.0
 40
1.0
 10
77.69882002500557
 20
92.13451466614431
 30
0.0
 10
76.94439309471862
 20
92.13451466614431
 30
0.0
 10
76.19127812813342
 20
92.13451466614431
 30
0.0
 10
74.68482726370515
 20
92.13451466614431
 30
0.0
 10
73.93140304277085
 20
92.13451466614431
 30
0.0
 10
72.98851682798781
 20
92.13451466614431
 30
0.0
 10
72.79636838944813
 20
92.13451466614431
 30
0.0
 10
72.4156888961659
 20
92.13451466614431
 30
0.0
 10
72.22543535137878
 20
92.13451466614431
 30
0.0
 10
71.65487686097107
 20
92.13451466614431
 30
0.0
 10
71.2747764243975
 20
92.13451466614431
 30
0.0
 10
70.1346016205643
 20
92.13451466614431
 30
0.0
 10
69.37469379019046
 20
92.13451466614431
 30
0.0
 10
68.6125666717251
 20
92.13451466614431
 30
0.0
  0
SPLINE
  5
2D3
330
1F
100
AcDbEntity
  8
0
  6
Continuous
 62
     7
370
    15
100
AcDbSpline
210
0.0
220
0.0
230
1.0
 70
    24
 71
     3
 72
    12
 73
     8
 74
     0
 42
0.00000001
 43
0.00000001
 12
1.0
 22
0.0
 32
0.0
 13
1.0
 23
0.0
 33
0.0
 40
0.0
 40
0.0
 40
0.0
 40
0.0
 40
0.4999999999999978
 40
0.4999999999999978
 40
0.7499999999999989
 40
0.7499999999999989
 40
1.0
 40
1.0
 40
1.0
 40
1.0
 10
60.27829065993473
 20
120.8845146661443
 30
0.0
 10
60.46081736348243
 20
120.8845146661443
 30
0.0
 10
60.6454080188176
 20
120.8845146661443
 30
0.0
 10
60.90568934099211
 20
120.8845146661443
 30
0.0
 10
60.99024379380319
 20
120.8845146661443
 30
0.0
 10
61.15419174354741
 20
120.8845146661443
 30
0.0
 10
61.23364196758878
 20
120.8845146661443
 30
0.0
 10
61.30569334836713
 20
120.8845146661443
 30
0.0
  0
SPLINE
  5
2D4
330
1F
100
AcDbEntity
  8
0
  6
Continuous
 62
     7
370
    15
100
AcDbSpline
210
0.0
220
0.0
230
1.0
 70
    24
 71
     3
 72
    10
 73
     6
 74
     0
 42
0.00000001
 43
0.00000001
 12
1.0
 22
0.0
 32
0.0
 13
1.0
 23
0.0
 33
0.0
 40
0.0
 40
0.0
 40
0.0
 40
0.0
 40
0.5
 40
0.5
 40
1.0
 40
1.0
 40
1.0
 40
1.0
 10
61.30569334836534
 20
121.9119173545749
 30
0.0
 10
61.30569334836534
 20
121.72920864244
 30
0.0
 10
61.30569334836533
 20
121.5457003526792
 30
0.0
 10
61.30569334836534
 20
121.1973963743585
 30
0.0
 10
61.30569334836534
 20
121.0292087918156
 30
0.0
 10
61.30569334836534
 20
120.8845146661429
 30
0.0
  0
SPLINE
  5
2D5
330
1F
100
AcDbEntity
  8
0
  6
Continuous
 62
     7
370
    15
100
AcDbSpline
210
0.0
220
0.0
230
1.0
 70
    24
 71
     3
 72
    10
 73
     6
 74
     0
 42
0.00000001
 43
0.00000001
 12
1.0
 22
0.0
 32
0.0
 13
1.0
 23
0.0
 33
0.0
 40
0.0
 40
0.0
 40
0.0
 40
0.0
 40
0.5
 40
0.5
 40
1.0
 40
1.0
 40
1.0
 40
1.0
 10
68.65569334836535
 20
127.9053916992872
 30
0.0
 10
68.65569334836535
 20
128.063826142175
 30
0.0
 10
68.65569334836535
 20
128.2228468369771
 30
0.0
 10
68.65569334836535
 20
128.4528546612327
 30
0.0
 10
68.65569334836535
 20
128.5216899360494
 30
0.0
 10
68.65569334836535
 20
128.5216899360494
 30
0.0
  0
ARC
  5
2D6
330
1F
100
AcDbEntity
  8
0
  6
Continuous
 62
     7
370
    15
100
AcDbCircle
 10
73.1556933484
 20
109.0345146661
 30
0.0
 40
20.00000000000002
100
AcDbArc
 50
103.0028781629
 51
126.3346172154
  0
SPLINE
  5
2D7
330
1F
100
AcDbEntity
  8
0
  6
Continuous
 62
     7
370
    15
100
AcDbSpline
210
0.0
220
0.0
230
1.0
 70
    24
 71
     3
 72
    12
 73
     8
 74
     0
 42
0.00000001
 43
0.00000001
 12
1.0
 22
0.0
 32
0.0
 13
1.0
 23
0.0
 33
0.0
 40
0.0
 40
0.0
 40
0.0
 40
0.0
 40
0.25
 40
0.25
 40
0.5
 40
0.5
 40
1.0
 40
1.0
 40
1.0
 40
1.0
 10
61.30569334836534
 20
125.1459236672218
 30
0.0
 10
61.30569334836534
 20
125.1459236672218
 30
0.0
 10
61.30569334836533
 20
125.120299034617
 30
0.0
 10
61.30569334836533
 20
125.0317556616852
 30
0.0
 10
61.30569334836534
 20
124.9688731785706
 30
0.0
 10
61.30569334836533
 20
124.751511990637
 30
0.0
 10
61.30569334836533
 20
124.5728649806257
 30
0.0
 10
61.30569334836534
 20
124.39477182545
 30
0.0
  0
ARC
  5
2D8
330
1F
100
AcDbEntity
  8
0
  6
Continuous
 62
     7
370
    15
100
AcDbCircle
 10
73.1556933484
 20
109.0345146661
 30
0.0
 40
20.0
100
AcDbArc
 50
143.6653827846
 51
254.0379858372
  0
SPLINE
  5
2D9
330
1F
100
AcDbEntity
  8
0
  6
Continuous
 62
     7
370
    15
100
AcDbSpline
210
0.0
220
0.0
230
1.0
 70
    24
 71
     3
 72
    10
 73
     6
 74
     0
 42
0.00000001
 43
0.00000001
 12
1.0
 22
0.0
 32
0.0
 13
1.0
 23
0.0
 33
0.0
 40
0.0
 40
0.0
 40
0.0
 40
0.0
 40
0.5
 40
0.5
 40
1.0
 40
1.0
 40
1.0
 40
1.0
 10
67.65569334836533
 20
90.43048284505778
 30
0.0
 10
67.65569334836533
 20
90.27085067615455
 30
0.0
 10
67.65569334836533
 20
90.1098010423905
 30
0.0
 10
67.65569334836533
 20
89.87681015871391
 30
0.0
 10
67.65569334836533
 20
89.80563014311491
 30
0.0
 10
67.65569334836533
 20
89.80563014311491
 30
0.0
  0
SPLINE
  5
2DA
330
1F
100
AcDbEntity
  8
0
  6
Continuous
 62
     7
370
    15
100
AcDbSpline
210
0.0
220
0.0
230
1.0
 70
    24
 71
     3
 72
    12
 73
     8
 74
     0
 42
0.00000001
 43
0.00000001
 12
1.0
 22
0.0
 32
0.0
 13
1.0
 23
0.0
 33
0.0
 40
0.0
 40
0.0
 40
0.0
 40
0.0
 40
0.2500000000000014
 40
0.2500000000000014
 40
0.5000000000000029
 40
0.5000000000000029
 40
1.0
 40
1.0
 40
1.0
 40
1.0
 10
57.04428434728788
 20
120.8845146661443
 30
0.0
 10
57.04428434728787
 20
120.8845146661443
 30
0.0
 10
57.06956449745235
 20
120.8845146661443
 30
0.0
 10
57.15917584295408
 20
120.8845146661443
 30
0.0
 10
57.22216147988009
 20
120.8845146661443
 30
0.0
 10
57.43844820163767
 20
120.8845146661443
 30
0.0
 10
57.61842795905802
 20
120.8845146661443
 30
0.0
 10
57.79543618905971
 20
120.8845146661443
 30
0.0
  0
ARC
  5
2DB
330
1F
100
AcDbEntity
  8
0
  6
Continuous
 62
     7
370
    15
100
AcDbCircle
 10
73.1556933484
 20
109.0345146661
 30
0.0
 40
19.99999999999999
100
AcDbArc
 50
285.9620141628
 51
25.8419327632
  0
SPLINE
  5
2DC
330
1F
100
AcDbEntity
  8
0
  6
Continuous
 62
     7
370
    15
100
AcDbSpline
210
0.0
220
0.0
230
1.0
 70
    24
 71
     3
 72
    12
 73
     8
 74
     0
 42
0.00000001
 43
0.00000001
 12
1.0
 22
0.0
 32
0.0
 13
1.0
 23
0.0
 33
0.0
 40
0.0
 40
0.0
 40
0.0
 40
0.0
 40
0.2499999999999981
 40
0.2499999999999981
 40
0.4999999999999961
 40
0.4999999999999961
 40
1.0
 40
1.0
 40
1.0
 40
1.0
 10
78.65569334836533
 20
89.80563014311491
 30
0.0
 10
78.65569334836533
 20
89.80563014311491
 30
0.0
 10
78.65569334836533
 20
89.822605739473
 30
0.0
 10
78.65569334836533
 20
89.8870812369322
 30
0.0
 10
78.65569334836533
 20
89.9341948687268
 30
0.0
 10
78.65569334836533
 20
90.11080478271427
 30
0.0
 10
78.65569334836533
 20
90.27065365852245
 30
0.0
 10
78.65569334836533
 20
90.43048284505747
 30
0.0
  0
LINE
  5
2DD
330
1F
100
AcDbEntity
  8
0
  6
Continuous
 62
     7
370
    15
100
AcDbLine
 10
78.6556933186
 20
90.4304819709
 30
0.0
 11
78.6556933186
 21
92.134515435
 31
0.0
  0
LINE
  5
2DE
330
1F
100
AcDbEntity
  8
0
  6
Continuous
 62
     7
370
    15
100
AcDbLine
 10
78.6556933186
 20
92.134515435
 30
0.0
 11
77.6988199091
 21
92.134515435
 31
0.0
  0
LINE
  5
2DF
330
1F
100
AcDbEntity
  8
0
  6
Continuous
 62
     7
370
    15
100
AcDbLine
 10
67.6556933782
 20
92.134515435
 30
0.0
 11
67.6556933782
 21
90.4304819709
 31
0.0
  0
LINE
  5
2E0
330
1F
100
AcDbEntity
  8
0
  6
Continuous
 62
     7
370
    15
100
AcDbLine
 10
68.6125667876
 20
92.134515435
 30
0.0
 11
67.6556933782
 21
92.134515435
 31
0.0
  0
LINE
  5
2E1
330
1F
100
AcDbEntity
  8
0
  6
Continuous
 62
     7
370
    15
100
AcDbLine
 10
57.79543576
 20
120.8845150253
 30
0.0
 11
60.2782905212
 21
120.8845150253
 31
0.0
  0
LINE
  5
2E2
330
1F
100
AcDbEntity
  8
0
  6
Continuous
 62
     7
370
    15
100
AcDbLine
 10
68.6556935421
 20
125.9460492587
 30
0.0
 11
68.6556935421
 21
127.9053917682
 31
0.0
  0
LINE
  5
2E3
330
1F
100
AcDbEntity
  8
0
  6
Continuous
 62
     7
370
    15
100
AcDbLine
 10
61.3056929892
 20
124.3947722545
 30
0.0
 11
61.3056929892
 21
121.9119174933
 31
0.0
  0
SPLINE
  5
2E4
330
1F
100
AcDbEntity
  8
0
  6
Continuous
 62
     7
370
    15
100
AcDbSpline
210
0.0
220
0.0
230
1.0
 70
     8
 71
     3
 72
    22
 73
    18
 74
     0
 42
0.00000001
 43
0.00000001
 12
1.0
 22
0.0
 32
0.0
 13
1.0
 23
0.0
 33
0.0
 40
0.0
 40
0.0
 40
0.0
 40
0.0
 40
0.2500000000000003
 40
0.2500000000000003
 40
0.3750000000000003
 40
0.3750000000000003
 40
0.5000000000000003
 40
0.5000000000000003
 40
0.6250000000000003
 40
0.6250000000000003
 40
0.7500000000000004
 40
0.7500000000000004
 40
0.8750000000000004
 40
0.8750000000000004
 40
0.9375000000000002
 40
0.9375000000000002
 40
1.0
 40
1.0
 40
1.0
 40
1.0
 10
57.04428434728788
 20
120.8845146661443
 30
0.0
 10
57.45827922545438
 20
121.4473873080424
 30
0.0
 10
57.89408902676329
 20
121.9780121917719
 30
0.0
 10
58.57082982974762
 20
122.7237231826934
 30
0.0
 10
58.80168495692231
 20
122.9653434090922
 30
0.0
 10
59.26172201208443
 20
123.4242021844181
 30
0.0
 10
59.48768968886294
 20
123.6383808568879
 30
0.0
 10
59.92488127736366
 20
124.0356094160334
 30
0.0
 10
60.13793400165622
 20
124.2200542510532
 30
0.0
 10
60.52211014088976
 20
124.5411340989369
 30
0.0
 10
60.69622714968123
 20
124.6804849290429
 30
0.0
 10
60.98974489448176
 20
124.9097904634685
 30
0.0
 10
61.10453719907917
 20
124.9963264729448
 30
0.0
 10
61.22349177517515
 20
125.085216077276
 30
0.0
 10
61.25430985816173
 20
125.1080245831377
 30
0.0
 10
61.29532906988035
 20
125.1383157458339
 30
0.0
 10
61.30569334836534
 20
125.1459236672218
 30
0.0
 10
61.30569334836535
 20
125.1459236672218
 30
0.0
  0
SPLINE
  5
2E5
330
1F
100
AcDbEntity
  8
0
  6
Continuous
 62
     7
370
    15
100
AcDbSpline
210
0.0
220
0.0
230
1.0
 70
     8
 71
     3
 72
    22
 73
    18
 74
     0
 42
0.00000001
 43
0.00000001
 12
1.0
 22
0.0
 32
0.0
 13
1.0
 23
0.0
 33
0.0
 40
0.0
 40
0.0
 40
0.0
 40
0.0
 40
0.125
 40
0.125
 40
0.25
 40
0.25
 40
0.375
 40
0.375
 40
0.5
 40
0.5
 40
0.625
 40
0.625
 40
0.75
 40
0.75
 40
0.875
 40
0.875
 40
1.0
 40
1.0
 40
1.0
 40
1.0
 10
74.15569334836533
 20
89.05953031070612
 30
0.0
 10
74.45443107676299
 20
89.07448590331546
 30
0.0
 10
74.74763640159743
 20
89.09587409996185
 30
0.0
 10
75.32359148222501
 20
89.15025234657716
 30
0.0
 10
75.6093337760404
 20
89.18369851018554
 30
0.0
 10
76.15286291703406
 20
89.25846278558328
 30
0.0
 10
76.41035610525569
 20
89.2995612745442
 30
0.0
 10
76.89756110252098
 20
89.38611420350797
 30
0.0
 10
77.12770072471012
 20
89.43176510260587
 30
0.0
 10
77.54090638091361
 20
89.52004465777073
 30
0.0
 10
77.72674212160949
 20
89.56314600777797
 30
0.0
 10
78.05583870179292
 20
89.64335018763323
 30
0.0
 10
78.19579855860697
 20
89.67964503502279
 30
0.0
 10
78.42148491983663
 20
89.7398242541725
 30
0.0
 10
78.50875632817537
 20
89.76411159160361
 30
0.0
 10
78.62615654152623
 20
89.79710968591496
 30
0.0
 10
78.65569334836533
 20
89.80563014311491
 30
0.0
 10
78.65569334836533
 20
89.80563014311491
 30
0.0
  0
SPLINE
  5
2E6
330
1F
100
AcDbEntity
  8
0
  6
Continuous
 62
     7
370
    15
100
AcDbSpline
210
0.0
220
0.0
230
1.0
 70
     8
 71
     3
 72
    22
 73
    18
 74
     0
 42
0.00000001
 43
0.00000001
 12
1.0
 22
0.0
 32
0.0
 13
1.0
 23
0.0
 33
0.0
 40
0.0
 40
0.0
 40
0.0
 40
0.0
 40
0.125
 40
0.125
 40
0.25
 40
0.25
 40
0.375
 40
0.375
 40
0.5
 40
0.5
 40
0.625
 40
0.625
 40
0.75
 40
0.75
 40
0.875
 40
0.875
 40
1.0
 40
1.0
 40
1.0
 40
1.0
 10
67.65569334836533
 20
89.80563014311491
 30
0.0
 10
67.65569334836533
 20
89.80563014311491
 30
0.0
 10
67.68521924678525
 20
89.79711604204854
 30
0.0
 10
67.80062408007191
 20
89.76467227316664
 30
0.0
 10
67.88800688513776
 20
89.74033838446461
 30
0.0
 10
68.11468030444536
 20
89.67987835970779
 30
0.0
 10
68.25315615077793
 20
89.64396493892929
 30
0.0
 10
68.5799666479417
 20
89.56425491286014
 30
0.0
 10
68.7690114839217
 20
89.5203766116708
 30
0.0
 10
69.18187976639742
 20
89.43213298930061
 30
0.0
 10
69.40735165764873
 20
89.38732464783966
 30
0.0
 10
69.89820726219642
 20
89.30000363992048
 30
0.0
 10
70.1570474201385
 20
89.25871285134482
 30
0.0
 10
70.69680024593431
 20
89.184374628051
 30
0.0
 10
70.98090333476338
 20
89.15096450231633
 30
0.0
 10
71.56235646990528
 20
89.09594510079017
 30
0.0
 10
71.85700693553358
 20
89.07448333432392
 30
0.0
 10
72.15569334836535
 20
89.05953031070612
 30
0.0
  0
SPLINE
  5
2E7
330
1F
100
AcDbEntity
  8
0
  6
Continuous
 62
     7
370
    15
100
AcDbSpline
210
0.0
220
0.0
230
1.0
 70
     8
 71
     3
 72
    12
 73
     8
 74
     0
 42
0.00000001
 43
0.00000001
 12
1.0
 22
0.0
 32
0.0
 13
1.0
 23
0.0
 33
0.0
 40
0.0
 40
0.0
 40
0.0
 40
0.0
 40
0.205980893488075
 40
0.4119771512457762
 40
0.6177947950245853
 40
0.8236333375706023
 40
0.9999999999999999
 40
0.9999999999999999
 40
0.9999999999999999
 40
0.9999999999999999
 10
68.65569354208044
 20
128.5216907566232
 30
0.0
 10
68.66799278765812
 20
128.5245916070845
 30
0.0
 10
68.69259219622344
 20
128.5303935243838
 30
0.0
 10
68.88308954771585
 20
128.5733841722461
 30
0.0
 10
69.18583590801273
 20
128.6373956076546
 30
0.0
 10
69.56841826977983
 20
128.7127755473696
 30
0.0
 10
69.89225960182158
 20
128.765372731917
 30
0.0
 10
70.04169454971186
 20
128.789643437211
 30
0.0
  0
ARC
  5
2E8
330
1F
100
AcDbEntity
  8
0
  6
Continuous
 62
     7
370
    15
100
AcDbCircle
 10
73.1556933484
 20
109.0345146661
 30
0.0
 40
20.00000000000002
100
AcDbArc
 50
267.1340160174
 51
272.8659839826
  0
INSERT
  5
2F4
330
1F
100
AcDbEntity
  8
VERMASSUNG
100
AcDbBlockReference
  2
SW_CENTERMARKSYMBOL_0
 10
73.1556933484
 20
109.0345146661
 30
0.0
  0
OLE2FRAME
  5
2F5
330
1F
100
AcDbEntity
  8
0
100
AcDbOle2Frame
 70
     2
  3
Paintbrush-Bild
 10
13.8511154363
 20
38.264191557
 30
0.0
 11
51.6290888628
 21
31.9806341108
 31
0.0
 71
     2
 72
     0
 73
     1
 90
    12928
310
80552BED0767C5B32B40DDAF6807D121434000000000000000006FFBDDFB85D0
310
4940DDAF6807D121434000000000000000006FFBDDFB85D04940416F4BD60AFB
310
3F4000000000000000002BED0767C5B32B40416F4BD60AFB3F40000000000000
310
0000000000000100000000010000010000000100000000000100000000320000
310
D0CF11E0A1B11AE1000000000000000000000000000000003E000300FEFF0900
310
0600000000000000000000000100000001000000000000000010000002000000
310
01000000FEFFFFFF0000000000000000FFFFFFFFFFFFFFFFFFFFFFFFFFFFFFFF
310
FFFFFFFFFFFFFFFFFFFFFFFFFFFFFFFFFFFFFFFFFFFFFFFFFFFFFFFFFFFFFFFF
310
FFFFFFFFFFFFFFFFFFFFFFFFFFFFFFFFFFFFFFFFFFFFFFFFFFFFFFFFFFFFFFFF
310
FFFFFFFFFFFFFFFFFFFFFFFFFFFFFFFFFFFFFFFFFFFFFFFFFFFFFFFFFFFFFFFF
310
FFFFFFFFFFFFFFFFFFFFFFFFFFFFFFFFFFFFFFFFFFFFFFFFFFFFFFFFFFFFFFFF
310
FFFFFFFFFFFFFFFFFFFFFFFFFFFFFFFFFFFFFFFFFFFFFFFFFFFFFFFFFFFFFFFF
310
FFFFFFFFFFFFFFFFFFFFFFFFFFFFFFFFFFFFFFFFFFFFFFFFFFFFFFFFFFFFFFFF
310
FFFFFFFFFFFFFFFFFFFFFFFFFFFFFFFFFFFFFFFFFFFFFFFFFFFFFFFFFFFFFFFF
310
FFFFFFFFFFFFFFFFFFFFFFFFFFFFFFFFFFFFFFFFFFFFFFFFFFFFFFFFFFFFFFFF
310
FFFFFFFFFFFFFFFFFFFFFFFFFFFFFFFFFFFFFFFFFFFFFFFFFFFFFFFFFFFFFFFF
310
FFFFFFFFFFFFFFFFFFFFFFFFFFFFFFFFFFFFFFFFFFFFFFFFFFFFFFFFFFFFFFFF
310
FFFFFFFFFFFFFFFFFFFFFFFFFFFFFFFFFFFFFFFFFFFFFFFFFFFFFFFFFFFFFFFF
310
FFFFFFFFFFFFFFFFFFFFFFFFFFFFFFFFFFFFFFFFFFFFFFFFFFFFFFFFFFFFFFFF
310
FFFFFFFFFFFFFFFFFFFFFFFFFFFFFFFFFFFFFFFFFFFFFFFFFFFFFFFFFFFFFFFF
310
FDFFFFFFFEFFFFFFFEFFFFFFFEFFFFFF05000000060000000700000008000000
310
090000000A0000000B0000000C0000000D0000000E0000000F00000010000000
310
11000000120000001300000014000000150000001600000017000000FEFFFFFF
310
FFFFFFFFFFFFFFFFFFFFFFFFFFFFFFFFFFFFFFFFFFFFFFFFFFFFFFFFFFFFFFFF
310
FFFFFFFFFFFFFFFFFFFFFFFFFFFFFFFFFFFFFFFFFFFFFFFFFFFFFFFFFFFFFFFF
310
FFFFFFFFFFFFFFFFFFFFFFFFFFFFFFFFFFFFFFFFFFFFFFFFFFFFFFFFFFFFFFFF
310
FFFFFFFFFFFFFFFFFFFFFFFFFFFFFFFFFFFFFFFFFFFFFFFFFFFFFFFFFFFFFFFF
310
FFFFFFFFFFFFFFFFFFFFFFFFFFFFFFFFFFFFFFFFFFFFFFFFFFFFFFFFFFFFFFFF
310
FFFFFFFFFFFFFFFFFFFFFFFFFFFFFFFFFFFFFFFFFFFFFFFFFFFFFFFFFFFFFFFF
310
FFFFFFFFFFFFFFFFFFFFFFFFFFFFFFFFFFFFFFFFFFFFFFFFFFFFFFFFFFFFFFFF
310
FFFFFFFFFFFFFFFFFFFFFFFFFFFFFFFFFFFFFFFFFFFFFFFFFFFFFFFFFFFFFFFF
310
FFFFFFFFFFFFFFFFFFFFFFFFFFFFFFFFFFFFFFFFFFFFFFFFFFFFFFFFFFFFFFFF
310
FFFFFFFFFFFFFFFFFFFFFFFFFFFFFFFFFFFFFFFFFFFFFFFFFFFFFFFFFFFFFFFF
310
FFFFFFFFFFFFFFFFFFFFFFFFFFFFFFFFFFFFFFFFFFFFFFFFFFFFFFFFFFFFFFFF
310
FFFFFFFFFFFFFFFFFFFFFFFFFFFFFFFFFFFFFFFFFFFFFFFFFFFFFFFFFFFFFFFF
310
FFFFFFFFFFFFFFFFFFFFFFFFFFFFFFFFFFFFFFFFFFFFFFFFFFFFFFFFFFFFFFFF
310
52006F006F007400200045006E00740072007900000000000000000000000000
310
0000000000000000000000000000000000000000000000000000000000000000
310
16000500FFFFFFFFFFFFFFFF020000000A00030000000000C000000000000046
310
000000000000000000000000C06A0341F422CD0103000000C000000000000000
310
01004F006C006500000000000000000000000000000000000000000000000000
310
0000000000000000000000000000000000000000000000000000000000000000
310
0A000200FFFFFFFFFFFFFFFFFFFFFFFF00000000000000000000000000000000
310
0000000000000000000000000000000000000000000000001400000000000000
310
010043006F006D0070004F0062006A0000000000000000000000000000000000
310
0000000000000000000000000000000000000000000000000000000000000000
310
120002010100000003000000FFFFFFFF00000000000000000000000000000000
310
0000000000000000000000000000000000000000010000004D00000000000000
310
01004F006C006500310030004E00610074006900760065000000000000000000
310
0000000000000000000000000000000000000000000000000000000000000000
310
1A000200FFFFFFFFFFFFFFFFFFFFFFFF00000000000000000000000000000000
310
0000000000000000000000000000000000000000040000002426000000000000
310
FEFFFFFF02000000FEFFFFFFFFFFFFFFFFFFFFFFFFFFFFFFFFFFFFFFFFFFFFFF
310
FFFFFFFFFFFFFFFFFFFFFFFFFFFFFFFFFFFFFFFFFFFFFFFFFFFFFFFFFFFFFFFF
310
FFFFFFFFFFFFFFFFFFFFFFFFFFFFFFFFFFFFFFFFFFFFFFFFFFFFFFFFFFFFFFFF
310
FFFFFFFFFFFFFFFFFFFFFFFFFFFFFFFFFFFFFFFFFFFFFFFFFFFFFFFFFFFFFFFF
310
FFFFFFFFFFFFFFFFFFFFFFFFFFFFFFFFFFFFFFFFFFFFFFFFFFFFFFFFFFFFFFFF
310
FFFFFFFFFFFFFFFFFFFFFFFFFFFFFFFFFFFFFFFFFFFFFFFFFFFFFFFFFFFFFFFF
310
FFFFFFFFFFFFFFFFFFFFFFFFFFFFFFFFFFFFFFFFFFFFFFFFFFFFFFFFFFFFFFFF
310
FFFFFFFFFFFFFFFFFFFFFFFFFFFFFFFFFFFFFFFFFFFFFFFFFFFFFFFFFFFFFFFF
310
FFFFFFFFFFFFFFFFFFFFFFFFFFFFFFFFFFFFFFFFFFFFFFFFFFFFFFFFFFFFFFFF
310
FFFFFFFFFFFFFFFFFFFFFFFFFFFFFFFFFFFFFFFFFFFFFFFFFFFFFFFFFFFFFFFF
310
FFFFFFFFFFFFFFFFFFFFFFFFFFFFFFFFFFFFFFFFFFFFFFFFFFFFFFFFFFFFFFFF
310
FFFFFFFFFFFFFFFFFFFFFFFFFFFFFFFFFFFFFFFFFFFFFFFFFFFFFFFFFFFFFFFF
310
FFFFFFFFFFFFFFFFFFFFFFFFFFFFFFFFFFFFFFFFFFFFFFFFFFFFFFFFFFFFFFFF
310
FFFFFFFFFFFFFFFFFFFFFFFFFFFFFFFFFFFFFFFFFFFFFFFFFFFFFFFFFFFFFFFF
310
FFFFFFFFFFFFFFFFFFFFFFFFFFFFFFFFFFFFFFFFFFFFFFFFFFFFFFFFFFFFFFFF
310
FFFFFFFFFFFFFFFFFFFFFFFFFFFFFFFFFFFFFFFFFFFFFFFFFFFFFFFFFFFFFFFF
310
0100000200000000000000000000000000000000000000000000000000000000
310
0000000000000000000000000000000000000000000000000000000000000000
310
0100FEFF030A0000FFFFFFFF0A00030000000000C00000000000004607000000
310
5042727573680007000000504272757368000700000050427275736800F439B2
310
7100000000000000000000000000000000000000000000000000000000000000
310
0000000000000000000000000000000000000000000000000000000000000000
310
0000000000000000000000000000000000000000000000000000000000000000
310
0000000000000000000000000000000000000000000000000000000000000000
310
0000000000000000000000000000000000000000000000000000000000000000
310
0000000000000000000000000000000000000000000000000000000000000000
310
0000000000000000000000000000000000000000000000000000000000000000
310
0000000000000000000000000000000000000000000000000000000000000000
310
0000000000000000000000000000000000000000000000000000000000000000
310
0000000000000000000000000000000000000000000000000000000000000000
310
0000000000000000000000000000000000000000000000000000000000000000
310
0000000000000000000000000000000000000000000000000000000000000000
310
20260000424D0E260000000000003E00000028000000B40200006E0000000100
310
01000000000000000000130B0000130B00000200000002000000000000FFFFFF
310
FFFFFFFFFFFFFFFFFFFFFFFFFFFFFFFFFFFFFFFFFFFFFFFFFFFFFFFFFFFFFFFF
310
FFFFFFFFFFFFFFFFFFFFFFFFFFFFFFFFFFFFFFFFFFFFFFFFFFFFFFFFFFFFFFFF
310
FFFFFFFFFFFFFFFFFFFFFFFFFFFFFFFFFFFFFFFFFFFFFFFFF000FFFFFFFFFFFF
310
FFFFFFFFFFFFFFFFFFFFFFFFFFFFFFFFFFFFFFFFFFFFFFFFFFFFFFFFFFFFFFFF
310
FFFFFFFFFFFFFFFFFFFFFFFFFFFFFFFFFFFFFFFFFFFFFFFFFFFFFFFFFFFFFFFF
310
FFFFFFFFFFFFFFFFFFFFFFFFFFFFFFFFF000FFFFFFFFFFFFFFFFFFFFFFFFFFFF
310
FFFFFFFFFFFFFFFFFFFFFFFFFFFFFFFFFFFFFFFFFFFFFFFFFFFFFFFFFFFFFFFF
310
FFFFFFFFFFFFFFFFFFFFFFFFFFFFFFFFFFFFFFFFFFFFFFFFFFFFFFFFFFFFFFFF
310
FFFFFFFFFFFFFFFFF000FFFFFFFFFFFFFFFFFFFFFFFFFFFFFFFFFFFFFFFFFFFF
310
FFFFFFFFFFFFFFFFFFFFFFFFFFFFFFFFFFFFFFFFFFFFFFFFFFFFFFFFFFFFFFFF
310
FFFFFFFFFFFFFFFFFFFFFFFFFFFFFFFFFFFFFFFFFFFFFFFFFFFFFFFFFFFFFFFF
310
F000FFFFFFFFFFFFFFFFFFFFFFFFFFFFFFFFFFFFFFFFFFFFFFFFFFFFFFFFFFFF
310
FFFFFFFFFFFFFFFFFFFFFFFFFFFFFFFFFFFFFFFFFFFFFFFFFFFFFFFFFFFFFFFF
310
FFFFFFFFFFFFFFFFFFFFFFFFFFFFFFFFFFFFFFFFFFFFFFFFF000FFFFFFFFFFFF
310
FFFFFFFFFFFFFFFFFFFFFFFFFFFFFFFFFFFFFFFFFFFFFFFFFFFFFFFFFFFFFFFF
310
FFFFFFFFFFFFFFFFFFFFFFFFFFFFFFFFFFFFFFFFFFFFFFFFFFFFFFFFFFFFFFFF
310
FFFFFFFFFFFFFFFFFFFFFFFFFFFFFFFFF000FFFFFFFFFFFFFFFFFFFFFFFFFFFF
310
FFFFFFFFFFFFFFFFFFFFFFFFFFFFFFFFFFFFFFFFFFFFFFFFFFFFFFFFFFFFFFFF
310
FFFFFFFFFFFFFFFFFFFFFFFFFFFFFFFFFFFFFFFFFFFFFFFFFFFFFFFFFFFFFFFF
310
FFFFFFFFFFFFFFFFF000FFFFFFFFFFFFFFFFFFFFFFFFFFFFFFFFFFFFFFFFFFFF
310
FFFFFFFFFFFFFFFFFFFFFFFFFFFFFFFFFFFFFFFFFFFFFFFFFFFFFFFFFFFFFFFF
310
FFFFFFFFFFFFFFFFFFFFFFFFFFFFFFFFFFFFFFFFFFFFFFFFFFFFFFFFFFFFFFFF
310
F000FFFFFFFFFFFFFFFFFFFFFFFFFFFFFFFFFFFFFFFFFFFFFFFFFFFFFFFFFFFF
310
FFFFFFFFFFFFFFFFFFFFFFFFFFFFFFFFFFFFFFFFFFFFFFFFFFFFFFFFFFFFFFFF
310
FFFFFFFFFFFFFFFFFFFFFFFFFFFFFFFFFFFFFFFFFFFFFFFFF000FFFFFFFFFFFF
310
FFFFFFFFFFFFFFFFFFFFFFFFFFFFFFFFFFFFFFFFFFFFFFFFFFFFFFFFFFFFFFFF
310
FFFFFFFFFFFFFFFFFFFFFFFFFFFFFFFFFFFFFFFFFFFFFFFFFFFFFFFFFFFFFFFF
310
FFFFFFFFFFFFFFFFFFFFFFFFFFFFFFFFF000FFFFFFFFFFFFFFFFFFFFFFFFFFFF
310
FFFFFFFFFFFFFFFFFFFFFFFFFFFFFFFFFFFFFFFFFFFFFFFFFFFFFFFFFFFFFFFF
310
FFFFFFFFFFFFFFFFFFFFFFFFFFFFFFFFFFFFFFFFFFFFFFFFFFFFFFFFFFFFFFFF
310
FFFFFFFFFFFFFFFFF000FFFFFFFFFFFFFFFFFFFFFFFFFFFFFFFFFFFFFFFFFFFF
310
FFFFFFFFFFFFFFFFFFFFFFFFFFFFFFFFFFFFFFFFFFFFFFFFFFFFFFFFFFFFFFFF
310
FFFFFFFFFFFFFFFFFFFFFFFFFFFFFFFFFFFFFFFFFFFFFFFFFFFFFFFFFFFFFFFF
310
F000FFFFFFFFFFFFFFFFFFFFFFFFFFFFFFFFFFFFFFFFFFFFFFFFFFFFFFFFFFFF
310
FFFFFFFFFFFFFFFFFFFFFFFFFFFFFFFFFFFFFFFFFFFFFFFFFFFFFFFFFFFFFFFF
310
FFFFFFFFFFFFFFFFFFFFFFFFFFFFFFFFFFFFFFFFFFFFFFFFF000FFFFFFFFFFFF
310
FFFFFFFFFFFFFFFFFFFFFFFFFFFFFFFFFFFFFFFFFFFFFFFFFFFFFFFFFFFFFFFF
310
FFFFFFFFFFFFFFFFFFFFFFFFFFFFFFFFFFFFFFFFFFFFFFFFFFFFFFFFFFFFFFFF
310
FFFFFFFFFFFFFFFFFFFFFFFFFFFFFFFFF000FFFFFFFFFFFFFFFFFFFFFFFFFFFF
310
FFFFFFFFFFFFFFFFFFFFFFFFFFFFFFFFFFFFFFFFFFFFFFFFFFFFFFFFFFFFFFFF
310
FFFFFFFFFFFFFFFFFFFFFFFFFFFFFFFFFFFFFFFFFFFFFFFFFFFFFFFFFFFFFFFF
310
FFFFFFFFFFFFFFFFF000FFFFFFFFFFFFFFFFFFFFFFFFFFFFFFFFFFFFFFFFFFFF
310
FFFFFFFFFFFFFFFFFFFFFFFFFFFFFFFFFFFFFFFFFFFFFFFFFFFFFFFFFFFFFFFF
310
FFFFFFFFFFFFFFFFFFFFFFFFFFFFFFFFFFFFFFFFFFFFFFFFFFFFFFFFFFFFFFFF
310
F000FFFFFFFFFFFFFFFFFFFFFFFFFFFFFFFFFFFFFFFFFFFFFFFFFFFFFFFFFFFF
310
FFFFFFFFFFFFFFFFFFFFFFFFFFFFFFFFFFFFFFFFFFFFFFFFFFFFFFFFFFFFFFFF
310
FFFFFFFFFFFFFFFFFFFFFFFFFFFFFFFFFFFFFFFFFFFFFFFFF000FFFFFFFFFFFF
310
FFFFFFFFFFFFFFFFFFFFFFFFFFFFFFFFFFFFFFFFFFFFFFFFFFFFFFFFFFFFFFFF
310
FFFFFFFFFFFFFFFFFFFFFFFFFFFFFFFFFFFFFFFFFFFFFFFFFFFFFFFFFFFFFFFF
310
FFFFFFFFFFFFFFFFFFFFFFFFFFFFFFFFF000FFFFFFFFFFFFFFFFFFFFFFFFFFFF
310
FFFFFFFFFFFFFFFFFFFFFFFFFFFFFFFFFFFFFFFFFFFFFFFFFFFFFFFFFFFFFFFF
310
FFFFFFFFFFFFFFFFFFFFFFFFFFFFFFFFFFFFFFFFFFFFFFFFFFFFFFFFFFFFFFFF
310
FFFFFFFFFFFFFFFFF000FFFFF80003FFFFFFFFFFFFFFFFFFFFFFFFFFFFFFFFFF
310
FFFFF00007FFFFFFFFFF00007FFFFFF800000000000000007FFFFFFFFFFFFFFF
310
FFFFFFFC001FFFFFFFFFFFFFFC001FFFFFFFFFFFFFFFFFFFFFFFFFFE0007FFFF
310
F000FFFF8000007FFFFFFFF8000FFFFFC0007FFFFF80007FFFFF0000007FFFFF
310
FFF8000007FFFFF800000000000000007FFFFFF0001FFFFFFFFFFFC00001FFFF
310
FFFFFFFFC00001FFFFFFFF000000000003FFFFE000007FFFF000FFFE0000000F
310
FFFFFFF0000FFFFF80007FFFFF80007FFFFC0000001FFFFFFFC0000001FFFFF8
310
00000000000000007FFFFFF0001FFFFFFFFFFE0000003FFFFFFFFFFE0000003F
310
FFFFFF000000000003FFFF0000000FFFF000FFF800000003FFFFFFF00007FFFF
310
80007FFFFF80007FFFF000000007FFFFFF000000003FFFF80000000000000000
310
7FFFFFF0001FFFFFFFFFF80000000FFFFFFFFFF80000000FFFFFFF0000000000
310
03FFFC00000003FFF000FFE000000000FFFFFFF00007FFFF80003FFFFF80007F
310
FFC000000001FFFFFC000000001FFFF800000000000000007FFFFFF0001FFFFF
310
FFFFE000000003FFFFFFFFE000000003FFFFFF000000000003FFF000000000FF
310
F000FF80000000007FFFFFF00007FFFF80003FFFFF80007FFF8000000000FFFF
310
F80000000007FFF800000000000000007FFFFFF0001FFFFFFFFFC000000001FF
310
FFFFFFC000000001FFFFFF000000000003FFC0000000007FF000FF0000000000
310
3FFFFFE00007FFFF00003FFFFF80007FFE00000000003FFFF00000000003FFF8
310
00000000000000007FFFFFF0001FFFFFFFFF8000000000FFFFFFFF8000000000
310
FFFFFF000000000003FF80000000003FF000FE00000000001FFFFFE00003FFFF
310
00003FFFFF80007FFC00000000001FFFE00000000001FFF8000001FFFE000000
310
7FFFFFF0001FFFFFFFFE00000000003FFFFFFE00000000003FFFFF0000000000
310
03FF00000000001FF000FC00000000000FFFFFE00003FFFF00001FFFFF80007F
310
F800000000001FFFC00000000000FFF8000001FFFE0000007FFFFFF0001FFFFF
310
FFFC00000000001FFFFFFC00000000001FFFFF000000000003FE00000000000F
310
F000F8000000000007FFFFE00003FFFF00001FFFFF80007FF800000000000FFF
310
800000000000FFF8000001FFFE0000007FFFFFF0001FFFFFFFF800000000000F
310
FFFFF800000000000FFFFF000000000003FC000000000007F000F80000000000
310
03FFFFC00003FFFE00001FFFFF80007FF0000000000007FF0000000000007FF8
310
000001FFFE0000007FFFFFF0001FFFFFFFF0000000000007FFFFF00000000000
310
07FFFF000000000003F8000000000003F000F0000000000003FFFFC00001FFFE
310
00001FFFFF80007FE0000000000007FE0000000000003FF8000001FFFE000000
310
7FFFFFF0001FFFFFFFF0000000000007FFFFF0000000000007FFFF0000000000
310
03F800001F800003F000E00001FFF00001FFFFC00001FFFE00000FFFFF80007F
310
E00001FFE00003FE00001FFF00003FF8000001FFFE0000007FFFFFF0001FFFFF
310
FFE000003E000003FFFFE000003E000003FFFF000000000003F00001FFF80001
310
F000E00007FFFC0001FFFFC00001FFFE00000FFFFF80007FC0000FFFFC0003FC
310
0000FFFFC0001FF8000001FFFE0000007FFFFFF0001FFFFFFFC00003FFE00001
310
FFFFC00003FFE00001FFFF0001FFFFFFFFF00007FFFE0001F000E0000FFFFF00
310
00FFFF800001FFFC00000FFFFF80007FC0001FFFFE0001FC0001FFFFE0001FF8
310
000001FFFE0000007FFFFFF0001FFFFFFF80000FFFF80000FFFF80000FFFF800
310
00FFFF0003FFFFFFFFE0000FFFFF8000F000C0003FFFFF8000FFFF800000FFFC
310
000007FFFF80007F80003FFFFF0001FC0003FFFFF0001FF8000001FFFE000000
310
7FFFFFF0001FFFFFFF80003FFFFE0000FFFF80003FFFFE0000FFFF0003FFFFFF
310
FFE0003FFFFF8000F000C0003FFFFF8000FFFF800000FFFC000007FFFF80007F
310
80007FFFFF8001F80007FFFFF8000FF8000001FFFE0000007FFFFFF0001FFFFF
310
FF00007FFFFF00007FFF00007FFFFF00007FFF0003FFFFFFFFE0003FFFFFC000
310
F000C0007FFFFFC000FFFF000000FFFC000007FFFF80007F8000FFFFFF8000F8
310
000FFFFFF8000FF8000001FFFE0000007FFFFFF0001FFFFFFF0000FFFFFF8000
310
7FFF0000FFFFFF80007FFF0003FFFFFFFFC0007FFFFFC00070008000FFFFFFC0
310
00FFFF000000FFF8000007FFFF80007F8000FFFFFF8000F8000FFFFFF8000FF8
310
000001FFFE0000007FFFFFF0001FFFFFFE0001FFFFFFC0003FFE0001FFFFFFC0
310
003FFF0003FFFFFFFFC0007FFFFFE00070008000FFFFFFC0007FFF0000007FF8
310
000003FFFF80007F0001FFFFFF8000F8000FFFFFF8000FF8000001FFFE000000
310
7FFFFFF0001FFFFFFE0001FFFFFFC0003FFE0001FFFFFFC0003FFF0003FFFFFF
310
FFC000FFFFFFE00070008000FFFFFFC0007FFF0000007FF8000003FFFF80007F
310
0001FFFFFF8000F8001FFFFFF8000FF8000001FFFE0000007FFFFFF0001FFFFF
310
FE0003FFFFFFE0003FFE0003FFFFFFE0003FFF0003FFFFFFFFC000FFFFFFE000
310
70008000FFFFFFC0007FFE0000007FF8000003FFFF80007F0001FFFFFF8000F0
310
001FFFFFF8000FF8000001FFFE0000007FFFFFF0001FFFFFFC0003FFFFFFE000
310
1FFC0003FFFFFFE0001FFF0003FFFFFFFFC000FFFFFFC00070008000FFFFFF80
310
007FFE0000007FF0000003FFFF80007F0001FFFFFF0000F0001FFFFFF8000FF8
310
000001FFFE0000007FFFFFF0001FFFFFFC0007FFFFFFF0001FFC0007FFFFFFF0
310
001FFF0003FFFFFFFFC000FFFFFFC00070008001FFFFFF0000FFFE0000003FF0
310
000001FFFF80007F0001FFFFFF0000F8001FFFFFF0000FF8000001FFFE000000
310
7FFFFFF0001FFFFFFC0007FFFFFFF0001FFC0007FFFFFFF0001FFF0003FFFFFF
310
FFC001FFFFFF80007000FFFFFFFFFE0000FFFE0008003FF0008001FFFF80007F
310
FFFFFFFFFC0000FFFFFFFFFFE0000FF8000001FFFE0000007FFFFFF0001FFFFF
310
F8000FFFFFFFF8000FF8000FFFFFFFF8000FFF0003FFFFFFFFFFFFFFFFFF0000
310
7000FFFFFFFFFC0000FFFC0008003FF0008001FFFF80007FFFFFFFFFF80001FF
310
FFFFFFFF80000FF8000001FFFE0000007FFFFFF0001FFFFFF8000FFFFFFFF800
310
0FF8000FFFFFFFF8000FFF0003FFFFFFFFFFFFFFFFFE0000F000FFFFFFFFE000
310
00FFFC000C003FE000C001FFFF80007FFFFFFFFFC00001FFFFFFFFFE00001FF8
310
000001FFFE0000007FFFFFF0001FFFFFF8000FFFFFFFF8000FF8000FFFFFFFF8
310
000FFF0003FFFFFFFFFFFFFFFFF00000F000FFFFFFFE000001FFFC000C001FE0
310
00C000FFFF80007FFFFFFFFE000001FFFFFFFFE000001FF80FFFFFFFFFFFFFC0
310
7FFFFFF0001FFFFFF8000FFFFFFFF8000FF8000FFFFFFFF8000FFF0003FFFFFF
310
FFFFFFFFFF800000F000FFFFFFC0000001FFFC001C001FE001C000FFFF80007F
310
FFFFFF80000003FFFFFFF80000001FF80FFFFFFFFFFFFFC07FFFFFF0001FFFFF
310
F8001FFFFFFFFC000FF8001FFFFFFFFC000FFF0003FFFFFFFFFFFFFFF0000001
310
F000FFFFF800000001FFF8001C001FE001C000FFFF80007FFFFFF800000003FF
310
FFFF800000003FF80FFFFFFFFFFFFFC07FFFFFF0001FFFFFF8001FFFFFFFFC00
310
0FF8001FFFFFFFFC000FFF0003FFFFFFFFFFFFFE00000001F000FFFFC0000000
310
03FFF8001E001FC001E000FFFF80007FFFFF8000000007FFFFFC000000003FF8
310
0FFFFFFFFFFFFFC07FFFFFF0001FFFFFF8001FFFFFFFFC000FF8001FFFFFFFFC
310
000FFF0003FFFFFFFFFFFFE000000003F000FFFE0000000007FFF8001E000FC0
310
01E0007FFF80007FFFFE0000000007FFFFE0000000007FF80FFFFFFFFFFFFFC0
310
7FFFFFF0001FFFFFF0001FFFFFFFFC0007F0001FFFFFFFFC0007FF0003FFFFFF
310
FFFFFF0000000003F000FFF80000000007FFF8001E000FC003E0007FFF80007F
310
FFF0000000000FFFFF8000000000FFF80FFFFFFFFFFFFFC07FFFFFF0001FFFFF
310
F0001FFFFFFFFC0007F0001FFFFFFFFC0007FF0003FFFFFFFFFFFC0000000007
310
F000FFE0000000000FFFF0003E000FC003E0007FFF80007FFFC0000000001FFF
310
FE0000000001FFF80FFFFFFFFFFFFFC07FFFFFF0001FFFFFF0001FFFFFFFFC00
310
07F0001FFFFFFFFC0007FF0003FFFFFFFFFFF0000000000FF000FFC000000000
310
1FFFF0003F000F8003F0003FFF80007FFF80000000003FFFF80000000003FFF8
310
0FFFFFFFFFFFFFC07FFFFFF0001FFFFFF0001FFFFFFFFC0007F0001FFFFFFFFC
310
0007FF0003FFFFFFFFFFE0000000001FF000FF00000000007FFFF0003F000780
310
03F0003FFF80007FFF00000000007FFFF00000000007FFF80FFFFFFFFFFFFFC0
310
7FFFFFF0001FFFFFF0001FFFFFFFFC0007F0001FFFFFFFFC0007FF0003FFFFFF
310
FFFF80000000007FF000FE0000000000FFFFE0003F00078007F0003FFF80007F
310
FE0000000001FFFFE0000000001FFFF80FFFFFFFFFFFFFC07FFFFFF0001FFFFF
310
F0001FFFFFFFFC0007F0001FFFFFFFFC0007FF0003FFFFFFFFFF0000000000FF
310
F000FC0000000003FFFFE0007F00078007F0003FFF80007FFC0000000007FFFF
310
C0000000007FFFF80FFFFFFFFFFFFFC07FFFFFF0001FFFFFF8001FFFFFFFFC00
310
0FF8001FFFFFFFFC000FFF0003FFFFFFFFFE0000000003FFF000FC000000000F
310
FFFFE0007F80070007F8001FFF80007FF8000000001FFFFF8000000001FFFFF8
310
0FFFFFFFFFFFFFC07FFFFFF0001FFFFFF8001FFFFFFFFC000FF8001FFFFFFFFC
310
000FFF0003FFFFFFFFFC000000000FFFF000F8000000007FFFFFE0007F800700
310
07F8001FFF80007FF000000000FFFFFF800000000FFFFFF80FFFFFFFFFFFFFC0
310
7FFFFFF0001FFFFFF8000FFFFFFFF8000FF8000FFFFFFFF8000FFF0003FFFFFF
310
FFFC000000007FFFF000F800000007FFFFFFC0007F8003000FF8001FFF80007F
310
F000000007FFFFFF000000007FFFFFF80FFFFFFFFFFFFFC07FFFFFF0001FFFFF
310
F8000FFFFFFFF8000FF8000FFFFFFFF8000FFF0003FFFFFFFFF80000000FFFFF
310
F000F0000000FFFFFFFFC000FF8003000FF8001FFF80007FE0000000FFFFFFFF
310
0000000FFFFFFFF8000001FFFE0000007FFFFFF0001FFFFFF8000FFFFFFFF800
310
0FF8000FFFFFFFF8000FFF0003FFFFFFFFF8000000FFFFFFF000F000000FFFFF
310
FFFFC000FFC002000FF8000FFF80007FE000001FFFFFFFFE000001FFFFFFFFF8
310
000001FFFE0000007FFFFFF0001FFFFFF8000FFFFFFFF8000FF8000FFFFFFFF8
310
000FFF0003FFFFFFFFF000001FFFFFFFF000E00000FFFFFFFFFFC000FFC00200
310
0FFC000FFF80007FE00001FFFFFFFFFE00001FFFFFFFFFF8000001FFFE000000
310
7FFFFFF0001FFFFFFC000FFFFFFFF8001FFC000FFFFFFFF8001FFF0003FFFFFF
310
FFF00001FFFFFFFFF000E00007FFFFFFFFFF8000FFC000001FFC000FFF80007F
310
C0000FFFFFFFFFFE0000FFFFFFFFFFF8000001FFFE0000007FFFFFF0001FFFFF
310
FC0007FFFFFFF0001FFC0007FFFFFFF0001FFF0003FFFFFFFFF00007FFFFFFFF
310
F000E0001FFFFFFFFFFF8000FFC000001FFC000FFF80007FC0003FFFFFFFFFFE
310
0001FFFFFFFFFFF8000001FFFE0000007FFFFFF0001FFFFFFC0007FFFFFFF000
310
1FFC0007FFFFFFF0001FFF0003FFFFFFFFF0001FFFFFFFFFF000E0003FFFFF00
310
03FF8001FFE000001FFC0007FF80007FC0007FFFFF0007FC0003FFFFF0003FF8
310
000001FFFE0000007FFFFFF0001FFFFFFC0003FFFFFFE0001FFC0003FFFFFFE0
310
001FFF0003FFFFFFFFF0003FFFFFFFFFF000E0003FFFFF0001FF8001FFE00000
310
1FFE0007FF80007FC0007FFFFE0003FC0007FFFFE0003FF8000001FFFE000000
310
7FFFFFF0001FFFFFFE0003FFFFFFE0003FFE0003FFFFFFE0003FFF0003FFFFFF
310
FFF0003FFFFF8001F000E0003FFFFF0001FF0001FFE000001FFE0007FF80007F
310
C0007FFFFE0003FC0007FFFFE0003FF8000001FFFE0000007FFFFFF0001FFFFF
310
FE0001FFFFFFC0003FFE0001FFFFFFC0003FFF0003FFFFFFFFF0003FFFFF0001
310
F000E0003FFFFF0003FF0001FFE000003FFE0007FF80007FC0007FFFFE0003FC
310
0007FFFFE0003FF8000001FFFE0000007FFFFFF0001FFFFFFF0001FFFFFFC000
310
7FFF0001FFFFFFC0007FFF0003FFFFFFFFF0003FFFFF0001F000E0003FFFFE00
310
03FF0003FFF000003FFE0003FF80007FC0007FFFFC0003FE0007FFFFE0003FF8
310
000001FFFE0000007FFFFFF0001FFFFFFF0000FFFFFF80007FFF0000FFFFFF80
310
007FFF0003FFFFFFFFF0003FFFFF0001F000E0003FFFFE0003FF0003FFF00000
310
3FFF0003FF80007FC0007FFFFC0007FE0007FFFFC0003FF8000001FFFE000000
310
7FFFFFF0001FFFFFFF80007FFFFF0000FFFF80007FFFFF0000FFFF0003FFFFFF
310
FFF0003FFFFF0003F000E0003FFFFC0003FE0003FFF000003FFF0003FF80007F
310
E0003FFFF80007FE0003FFFFC0007FF8000001FFFE0000007FFFFFF0001FFFFF
310
FF80003FFFFE0000FFFF80003FFFFE0000FFFF0003FFFFFFFFF0001FFFFE0003
310
F000F0001FFFF80003FE0003FFF000007FFF0001FF80007FE0003FFFF00007FE
310
0001FFFF80007FF8000001FFFE0000007FFFFFF0001FFFFFFFC0000FFFF80001
310
FFFFC0000FFFF80001FFFF0003FFFFFFFFF0001FFFFC0003F000F0000FFFF000
310
07FE0007FFF800007FFF0001FF80007FE0001FFFE00007FF0000FFFE00007FF8
310
000001FFFE0000007FFFFFF0001FFFFFFFC00003FFE00001FFFFC00003FFE000
310
01FFFF0003FFFFFFFFF8000FFFF80003F000F00003FFC00007FC0007FFF80000
310
7FFF8001FF80007FF00007FF80000FFF00007FF80000FFF8000001FFFE000000
310
7F80000000000001FFE000003E000003FFFFE000003E000003FFFF0003FFFFFF
310
FFF80003FFE00007F000F800000000000FFC0007FFF800007FFF8001FF80007F
310
F000000000000FFF000000000000FFF8000001FFFE0000007F80000000000001
310
FFF0000000000007FFFFF0000000000007FFFF0003FFFFFFFFFC00007E000007
310
F000F800000000000FFC0007FFF80000FFFF8000FF80007FF800000000001FFF
310
800000000001FFF8000001FFFE0000007F80000000000001FFF800000000000F
310
FFFFF800000000000FFFFF0003FFFFFFFFFC00000000000FF000FC0000000000
310
1FFC0007FFFC0000FFFF8000FF80007FF800000000003FFFC00000000001FFF8
310
000001FFFE0000007F80000000000001FFF800000000000FFFFFF80000000000
310
0FFFFF0003FFFFFFFFFE00000000001FF000FE00000000003FF8000FFFFC0000
310
FFFF8000FF80007FFC00000000003FFFC00000000003FFF8000001FFFE000000
310
7F80000000000001FFFC00000000001FFFFFFC00000000001FFFFF0003FFFFFF
310
FFFF00000000001FF000FF00000000003FF8000FFFFC0000FFFFC000FF80007F
310
FE00000000007FFFE00000000007FFF8000001FFFE0000007F80000000000001
310
FFFE00000000003FFFFFFE00000000003FFFFF0003FFFFFFFFFF80000000003F
310
F000FF80000000007FF8000FFFFC0001FFFFC0007F80007FFF0000000000FFFF
310
F0000000000FFFF800000000000000007F80000000000001FFFF8000000000FF
310
FFFFFF8000000000FFFFFF0003FFFFFFFFFFC0000000007FF000FFC000000000
310
FFF8000FFFFE0001FFFFC0007F80007FFF8000000001FFFFF8000000001FFFF8
310
00000000000000007F80000000000001FFFFC000000001FFFFFFFFC000000001
310
FFFFFF0003FFFFFFFFFFE000000000FFF000FFE000000003FFF0001FFFFE0001
310
FFFFC0007F80007FFFC000000007FFFFFE000000003FFFF80000000000000000
310
7F80000000000001FFFFE000000003FFFFFFFFE000000003FFFFFF0003FFFFFF
310
FFFFF000000003FFF000FFF80000000FFFF0001FFFFE0001FFFFE0007F80007F
310
FFF00000000FFFFFFF00000000FFFFF800000000000000007F80000000000001
310
FFFFF80000000FFFFFFFFFF80000000FFFFFFF0003FFFFFFFFFFFC0000000FFF
310
F000FFFE0000003FFFF0001FFFFE0003FFFFE0003F80007FFFFC0000003FFFFF
310
FFC0000003FFFFF800000000000000007F80000000000001FFFFFE0000003FFF
310
FFFFFFFE0000003FFFFFFF0003FFFFFFFFFFFF0000003FFFF000FFFF800000FF
310
FFF0001FFFFF0003FFFFE0003F80007FFFFF000001FFFFFFFFF800001FFFFFF8
310
00000000000000007F80000000000001FFFFFFC00001FFFFFFFFFFFFC00001FF
310
FFFFFF0003FFFFFFFFFFFFC00000FFFFF000FFFFF8000FFFFFFFFFFFFFFFFFFF
310
FFFFFFFFFFFFFFFFFFFFF0001FFFFFFFFFFF0000FFFFFFF80000000000000000
310
7FFFFFFFFFFFFFFFFFFFFFFC001FFFFFFFFFFFFFFC001FFFFFFFFFFFFFFFFFFF
310
FFFFFFFC001FFFFFF000FFFFFFFFFFFFFFFFFFFFFFFFFFFFFFFFFFFFFFFFFFFF
310
FFFFFFFFFFFFFFFFFFFFFFFFFFFFFFFFFFFFFFFFFFFFFFFFFFFFFFFFFFFFFFFF
310
FFFFFFFFFFFFFFFFFFFFFFFFFFFFFFFFFFFFFFFFFFFFFFFFFFFFFFFFFFFFFFFF
310
F000FFFFFFFFFFFFFFFFFFFFFFFFFFFFFFFFFFFFFFFFFFFFFFFFFFFFFFFFFFFF
310
FFFFFFFFFFFFFFFFFFFFFFFFFFFFFFFFFFFFFFFFFFFFFFFFFFFFFFFFFFFFFFFF
310
FFFFFFFFFFFFFFFFFFFFFFFFFFFFFFFFFFFFFFFFFFFFFFFFF000FFFFFFFFFFFF
310
FFFFFFFFFFFFFFFFFFFFFFFFFFFFFFFFFFFFFFFFFFFFFFFFFFFFFFFFFFFFFFFF
310
FFFFFFFFFFFFFFFFFFFFFFFFFFFFFFFFFFFFFFFFFFFFFFFFFFFFFFFFFFFFFFFF
310
FFFFFFFFFFFFFFFFFFFFFFFFFFFFFFFFF000FFFFFFFFFFFFFFFFFFFFFFFFFFFF
310
FFFFFFFFFFFFFFFFFFFFFFFFFFFFFFFFFFFFFFFFFFFFFFFFFFFFFFFFFFFFFFFF
310
FFFFFFFFFFFFFFFFFFFFFFFFFFFFFFFFFFFFFFFFFFFFFFFFFFFFFFFFFFFFFFFF
310
FFFFFFFFFFFFFFFFF000FFFFFFFFFFFFFFFFFFFFFFFFFFFFFFFFFFFFFFFFFFFF
310
FFFFFFFFFFFFFFFFFFFFFFFFFFFFFFFFFFFFFFFFFFFFFFFFFFFFFFFFFFFFFFFF
310
FFFFFFFFFFFFFFFFFFFFFFFFFFFFFFFFFFFFFFFFFFFFFFFFFFFFFFFFFFFFFFFF
310
F000FFFFFFFFFFFFFFFFFFFFFFFFFFFFFFFFFFFFFFFFFFFFFFFFFFFFFFFFFFFF
310
FFFFFFFFFFFFFFFFFFFFFFFFFFFFFFFFFFFFFFFFFFFFFFFFFFFFFFFFFFFFFFFF
310
FFFFFFFFFFFFFFFFFFFFFFFFFFFFFFFFFFFFFFFFFFFFFFFFF000FFFFFFFFFFFF
310
FFFFFFFFFFFFFFFFFFFFFFFFFFFFFFFFFFFFFFFFFFFFFFFFFFFFFFFFFFFFFFFF
310
FFFFFFFFFFFFFFFFFFFFFFFFFFFFFFFFFFFFFFFFFFFFFFFFFFFFFFFFFFFFFFFF
310
FFFFFFFFFFFFFFFFFFFFFFFFFFFFFFFFF000FFFFFFFFFFFFFFFFFFFFFFFFFFFF
310
FFFFFFFFFFFFFFFFFFFFFFFFFFFFFFFFFFFFFFFFFFFFFFFFFFFFFFFFFFFFFFFF
310
FFFFFFFFFFFFFFFFFFFFFFFFFFFFFFFFFFFFFFFFFFFFFFFFFFFFFFFFFFFFFFFF
310
FFFFFFFFFFFFFFFFF000FFFFFFFFFFFFFFFFFFFFFFFFFFFFFFFFFFFFFFFFFFFF
310
FFFFFFFFFFFFFFFFFFFFFFFFFFFFFFFFFFFFFFFFFFFFFFFFFFFFFFFFFFFFFFFF
310
FFFFFFFFFFFFFFFFFFFFFFFFFFFFFFFFFFFFFFFFFFFFFFFFFFFFFFFFFFFFFFFF
310
F000FFFFFFFFFFFFFFFFFFFFFFFFFFFFFFFFFFFFFFFFFFFFFFFFFFFFFFFFFFFF
310
FFFFFFFFFFFFFFFFFFFFFFFFFFFFFFFFFFFFFFFFFFFFFFFFFFFFFFFFFFFFFFFF
310
FFFFFFFFFFFFFFFFFFFFFFFFFFFFFFFFFFFFFFFFFFFFFFFFF000FFFFFFFFFFFF
310
FFFFFFFFFFFFFFFFFFFFFFFFFFFFFFFFFFFFFFFFFFFFFFFFFFFFFFFFFFFFFFFF
310
FFFFFFFFFFFFFFFFFFFFFFFFFFFFFFFFFFFFFFFFFFFFFFFFFFFFFFFFFFFFFFFF
310
FFFFFFFFFFFFFFFFFFFFFFFFFFFFFFFFF000FFFFFFFFFFFFFFFFFFFFFFFFFFFF
310
FFFFFFFFFFFFFFFFFFFFFFFFFFFFFFFFFFFFFFFFFFFFFFFFFFFFFFFFFFFFFFFF
310
FFFFFFFFFFFFFFFFFFFFFFFFFFFFFFFFFFFFFFFFFFFFFFFFFFFFFFFFFFFFFFFF
310
FFFFFFFFFFFFFFFFF000FFFFFFFFFFFFFFFFFFFFFFFFFFFFFFFFFFFFFFFFFFFF
310
FFFFFFFFFFFFFFFFFFFFFFFFFFFFFFFFFFFFFFFFFFFFFFFFFFFFFFFFFFFFFFFF
310
FFFFFFFFFFFFFFFFFFFFFFFFFFFFFFFFFFFFFFFFFFFFFFFFFFFFFFFFFFFFFFFF
310
F000FFFFFFFFFFFFFFFFFFFFFFFFFFFFFFFFFFFFFFFFFFFFFFFFFFFFFFFFFFFF
310
FFFFFFFFFFFFFFFFFFFFFFFFFFFFFFFFFFFFFFFFFFFFFFFFFFFFFFFFFFFFFFFF
310
FFFFFFFFFFFFFFFFFFFFFFFFFFFFFFFFFFFFFFFFFFFFFFFFF000FFFFFFFFFFFF
310
FFFFFFFFFFFFFFFFFFFFFFFFFFFFFFFFFFFFFFFFFFFFFFFFFFFFFFFFFFFFFFFF
310
FFFFFFFFFFFFFFFFFFFFFFFFFFFFFFFFFFFFFFFFFFFFFFFFFFFFFFFFFFFFFFFF
310
FFFFFFFFFFFFFFFFFFFFFFFFFFFFFFFFF000FFFFFFFFFFFFFFFFFFFFFFFFFFFF
310
FFFFFFFFFFFFFFFFFFFFFFFFFFFFFFFFFFFFFFFFFFFFFFFFFFFFFFFFFFFFFFFF
310
FFFFFFFFFFFFFFFFFFFFFFFFFFFFFFFFFFFFFFFFFFFFFFFFFFFFFFFFFFFFFFFF
310
FFFFFFFFFFFFFFFFF000FFFFFFFFFFFFFFFFFFFFFFFFFFFFFFFFFFFFFFFFFFFF
310
FFFFFFFFFFFFFFFFFFFFFFFFFFFFFFFFFFFFFFFFFFFFFFFFFFFFFFFFFFFFFFFF
310
FFFFFFFFFFFFFFFFFFFFFFFFFFFFFFFFFFFFFFFFFFFFFFFFFFFFFFFFFFFFFFFF
310
F000FFFFFFFFFFFFFFFFFFFFFFFFFFFFFFFFFFFFFFFFFFFFFFFFFFFFFFFFFFFF
310
FFFFFFFFFFFFFFFFFFFFFFFFFFFFFFFFFFFFFFFFFFFFFFFFFFFFFFFFFFFFFFFF
310
FFFFFFFFFFFFFFFFFFFFFFFFFFFFFFFFFFFFFFFFFFFFFFFFF000FFFFFFFFFFFF
310
FFFFFFFFFFFFFFFFFFFFFFFFFFFFFFFFFFFFFFFFFFFFFFFFFFFFFFFFFFFFFFFF
310
FFFFFFFFFFFFFFFFFFFFFFFFFFFFFFFFFFFFFFFFFFFFFFFFFFFFFFFFFFFFFFFF
310
FFFFFFFFFFFFFFFFFFFFFFFFFFFFFFFFF000FFFFFFFFFFFFFFFFFFFFFFFFFFFF
310
FFFFFFFFFFFFFFFFFFFFFFFFFFFFFFFFFFFFFFFFFFFFFFFFFFFFFFFFFFFFFFFF
310
FFFFFFFFFFFFFFFFFFFFFFFFFFFFFFFFFFFFFFFFFFFFFFFFFFFFFFFFFFFFFFFF
310
FFFFFFFFFFFFFFFFF000FFFFFFFFFFFFFFFFFFFFFFFFFFFFFFFFFFFFFFFFFFFF
310
FFFFFFFFFFFFFFFFFFFFFFFFFFFFFFFFFFFFFFFFFFFFFFFFFFFFFFFFFFFFFFFF
310
FFFFFFFFFFFFFFFFFFFFFFFFFFFFFFFFFFFFFFFFFFFFFFFFFFFFFFFFFFFFFFFF
310
F000FFFFFFFFFFFFFFFFFFFFFFFFFFFFFFFFFFFFFFFFFFFFFFFFFFFFFFFFFFFF
310
FFFFFFFFFFFFFFFFFFFFFFFFFFFFFFFFFFFFFFFFFFFFFFFFFFFFFFFFFFFFFFFF
310
FFFFFFFFFFFFFFFFFFFFFFFFFFFFFFFFFFFFFFFFFFFFFFFFF000FFFFFFFFFFFF
310
FFFFFFFFFFFFFFFFFFFFFFFFFFFFFFFFFFFFFFFFFFFFFFFFFFFFFFFFFFFFFFFF
310
FFFFFFFFFFFFFFFFFFFFFFFFFFFFFFFFFFFFFFFFFFFFFFFFFFFFFFFFFFFFFFFF
310
FFFFFFFFFFFFFFFFFFFFFFFFFFFFFFFFF0000000000000000000000000000000
310
0000000000000000000000000000000000000000000000000000000000000000
310
0000000000000000000000000000000000000000000000000000000000000000
310
0000000000000000000000000000000000000000000000000000000000000000
310
0000000000000000000000000000000000000000000000000000000000000000
310
0000000000000000000000000000000000000000000000000000000000000000
310
0000000000000000000000000000000000000000000000000000000000000000
310
0000000000000000000000000000000000000000000000000000000000000000
310
0000000000000000000000000000000000000000000000000000000000000000
310
0000000000000000000000000000000000000000000000000000000000000000
310
0000000000000000000000000000000000000000000000000000000000000000
310
0000000000000000000000000000000000000000000000000000000000000000
310
0000000000000000000000000000000000000000000000000000000000000000
310
0000000000000000000000000000000000000000000000000000000000000000
310
0000000000000000000000000000000000000000000000000000000000000000
310
0000000000000000000000000000000000000000000000000000000000000000
  1
OLE
  0
ENDSEC
  0
SECTION
  2
OBJECTS
  0
DICTIONARY
  5
C
330
0
100
AcDbDictionary
281
     1
  3
ACAD_GROUP
350
D
  3
ACAD_LAYOUT
350
1A
  3
ACAD_MLINESTYLE
350
17
  3
ACAD_PLOTSETTINGS
350
19
  3
ACAD_PLOTSTYLENAME
350
E
  0
DICTIONARY
  5
D
102
{ACAD_REACTORS
330
C
102
}
330
C
100
AcDbDictionary
281
     1
  0
DICTIONARY
  5
1A
102
{ACAD_REACTORS
330
C
102
}
330
C
100
AcDbDictionary
281
     1
  3
Layout1
350
1E
  3
Layout2
350
26
  3
Model
350
22
  0
DICTIONARY
  5
17
102
{ACAD_REACTORS
330
C
102
}
330
C
100
AcDbDictionary
281
     1
  3
Standard
350
18
  0
DICTIONARY
  5
19
102
{ACAD_REACTORS
330
C
102
}
330
C
100
AcDbDictionary
281
     1
  0
ACDBDICTIONARYWDFLT
  5
E
102
{ACAD_REACTORS
330
C
102
}
330
C
100
AcDbDictionary
281
     1
  3
Normal
350
F
100
AcDbDictionaryWithDefault
340
F
  0
LAYOUT
  5
1E
102
{ACAD_REACTORS
330
1A
102
}
330
1A
100
AcDbPlotSettings
  1

  2
none_device
  4

  6

 40
0.0
 41
0.0
 42
0.0
 43
0.0
 44
0.0
 45
0.0
 46
0.0
 47
0.0
 48
0.0
 49
0.0
140
0.0
141
0.0
142
1.0
143
1.0
 70
   688
 72
     0
 73
     0
 74
     5
  7

 75
    16
147
1.0
148
0.0
149
0.0
100
AcDbLayout
  1
Layout1
 70
     1
 71
     1
 10
0.0
 20
0.0
 11
420.0
 21
297.0
 12
0.0
 22
0.0
 32
0.0
 14
1.0000000000E+20
 24
1.0000000000E+20
 34
1.0000000000E+20
 15
-1.0000000000E+20
 25
-1.0000000000E+20
 35
-1.0000000000E+20
146
0.0
 13
0.0
 23
0.0
 33
0.0
 16
1.0
 26
0.0
 36
0.0
 17
0.0
 27
1.0
 37
0.0
 76
     0
330
1B
  0
LAYOUT
  5
26
102
{ACAD_REACTORS
330
1A
102
}
330
1A
100
AcDbPlotSettings
  1

  2
none_device
  4

  6

 40
0.0
 41
0.0
 42
0.0
 43
0.0
 44
0.0
 45
0.0
 46
0.0
 47
0.0
 48
0.0
 49
0.0
140
0.0
141
0.0
142
1.0
143
1.0
 70
   688
 72
     0
 73
     0
 74
     5
  7

 75
    16
147
1.0
148
0.0
149
0.0
100
AcDbLayout
  1
Layout2
 70
     1
 71
     2
 10
0.0
 20
0.0
 11
0.0
 21
0.0
 12
0.0
 22
0.0
 32
0.0
 14
0.0
 24
0.0
 34
0.0
 15
0.0
 25
0.0
 35
0.0
146
0.0
 13
0.0
 23
0.0
 33
0.0
 16
1.0
 26
0.0
 36
0.0
 17
0.0
 27
1.0
 37
0.0
 76
     0
330
23
  0
LAYOUT
  5
22
102
{ACAD_REACTORS
330
1A
102
}
330
1A
100
AcDbPlotSettings
  1

  2
none_device
  4

  6

 40
0.0
 41
0.0
 42
0.0
 43
0.0
 44
0.0
 45
0.0
 46
0.0
 47
0.0
 48
0.0
 49
0.0
140
0.0
141
0.0
142
1.0
143
1.0
 70
  1712
 72
     0
 73
     0
 74
     0
  7

 75
     0
147
1.0
148
0.0
149
0.0
100
AcDbLayout
  1
Model
 70
     1
 71
     0
 10
0.0
 20
0.0
 11
297.0
 21
210.0
 12
0.0
 22
0.0
 32
0.0
 14
0.0
 24
0.0
 34
0.0
 15
297.0
 25
210.0
 35
0.0
146
0.0
 13
0.0
 23
0.0
 33
0.0
 16
1.0
 26
0.0
 36
0.0
 17
0.0
 27
1.0
 37
0.0
 76
     0
330
1F
331
29
  0
MLINESTYLE
  5
18
102
{ACAD_REACTORS
330
17
102
}
330
17
100
AcDbMlineStyle
  2
Standard
 70
     0
  3

 62
   256
 51
90.0
 52
90.0
 71
     2
 49
0.5
 62
   256
  6
BYLAYER
 49
-0.5
 62
   256
  6
BYLAYER
  0
ACDBPLACEHOLDER
  5
F
102
{ACAD_REACTORS
330
E
102
}
330
E
  0
ENDSEC
  0
EOF
