  0
SECTION
  2
HEADER
  9
$ACADVER
  1
AC1015
  9
$ACADMAINTVER
 70
     6
  9
$DWGCODEPAGE
  3
ANSI_1252
  9
$INSBASE
 10
0.0
 20
0.0
 30
0.0
  9
$EXTMIN
 10
0.0
 20
0.0
 30
0.0
  9
$EXTMAX
 10
297.0
 20
210.0
 30
0.0
  9
$LIMMIN
 10
0.0
 20
0.0
  9
$LIMMAX
 10
297.0
 20
210.0
  9
$ORTHOMODE
 70
     0
  9
$REGENMODE
 70
     1
  9
$FILLMODE
 70
     1
  9
$QTEXTMODE
 70
     0
  9
$MIRRTEXT
 70
     1
  9
$LTSCALE
 40
1.0
  9
$ATTMODE
 70
     1
  9
$TEXTSIZE
 40
2.0
  9
$TRACEWID
 40
1.0
  9
$TEXTSTYLE
  7
Standard
  9
$CLAYER
  8
0
  9
$CELTYPE
  6
ByLayer
  9
$CECOLOR
 62
   256
  9
$CELTSCALE
 40
1.0
  9
$DISPSILH
 70
     0
  9
$DIMSCALE
 40
1.0
  9
$DIMASZ
 40
3.0
  9
$DIMEXO
 40
0.0
  9
$DIMDLI
 40
3.75
  9
$DIMRND
 40
0.0
  9
$DIMDLE
 40
0.0
  9
$DIMEXE
 40
1.0
  9
$DIMTP
 40
0.0
  9
$DIMTM
 40
0.0
  9
$DIMTXT
 40
2.0
  9
$DIMCEN
 40
2.5
  9
$DIMTSZ
 40
0.0
  9
$DIMTOL
 70
     0
  9
$DIMLIM
 70
     0
  9
$DIMTIH
 70
     1
  9
$DIMTOH
 70
     1
  9
$DIMSE1
 70
     0
  9
$DIMSE2
 70
     0
  9
$DIMTAD
 70
     1
  9
$DIMZIN
 70
     0
  9
$DIMBLK
  1

  9
$DIMASO
 70
     1
  9
$DIMSHO
 70
     1
  9
$DIMPOST
  1

  9
$DIMAPOST
  1

  9
$DIMALT
 70
     0
  9
$DIMALTD
 70
     3
  9
$DIMALTF
 40
0.0393700787
  9
$DIMLFAC
 40
1.0
  9
$DIMTOFL
 70
     1
  9
$DIMTVP
 40
0.0
  9
$DIMTIX
 70
     0
  9
$DIMSOXD
 70
     0
  9
$DIMSAH
 70
     0
  9
$DIMBLK1
  1

  9
$DIMBLK2
  1

  9
$DIMSTYLE
  2
ISO-25
  9
$DIMCLRD
 70
     0
  9
$DIMCLRE
 70
     0
  9
$DIMCLRT
 70
     0
  9
$DIMTFAC
 40
1.0
  9
$DIMGAP
 40
1.524
  9
$DIMJUST
 70
     0
  9
$DIMSD1
 70
     0
  9
$DIMSD2
 70
     0
  9
$DIMTOLJ
 70
     0
  9
$DIMTZIN
 70
     0
  9
$DIMALTZ
 70
     0
  9
$DIMALTTZ
 70
     0
  9
$DIMUPT
 70
     0
  9
$DIMDEC
 70
     2
  9
$DIMTDEC
 70
     3
  9
$DIMALTU
 70
     2
  9
$DIMALTTD
 70
     3
  9
$DIMTXSTY
  7
Standard
  9
$DIMAUNIT
 70
     0
  9
$DIMADEC
 70
     2
  9
$DIMALTRND
 40
0.0
  9
$DIMAZIN
 70
     0
  9
$DIMDSEP
 70
    44
  9
$DIMATFIT
 70
     3
  9
$DIMFRAC
 70
     0
  9
$DIMLDRBLK
  1

  9
$DIMLUNIT
 70
     2
  9
$DIMLWD
 70
    -2
  9
$DIMLWE
 70
    -2
  9
$DIMTMOVE
 70
     0
  9
$LUNITS
 70
     2
  9
$LUPREC
 70
     2
  9
$SKETCHINC
 40
1.0
  9
$FILLETRAD
 40
10.0
  9
$AUNITS
 70
     0
  9
$AUPREC
 70
     2
  9
$MENU
  1
.
  9
$ELEVATION
 40
0.0
  9
$PELEVATION
 40
0.0
  9
$THICKNESS
 40
0.0
  9
$LIMCHECK
 70
     0
  9
$CHAMFERA
 40
10.0
  9
$CHAMFERB
 40
10.0
  9
$CHAMFERC
 40
20.0
  9
$CHAMFERD
 40
0.0
  9
$SKPOLY
 70
     0
  9
$TDCREATE
 40
2456094.496023611
  9
$TDUCREATE
 40
2456094.412690278
  9
$TDUPDATE
 40
2456094.49602596
  9
$TDUUPDATE
 40
2456094.412692627
  9
$TDINDWG
 40
0.0000000116
  9
$TDUSRTIMER
 40
0.0000000116
  9
$USRTIMER
 70
     1
  9
$ANGBASE
 50
0.0
  9
$ANGDIR
 70
     0
  9
$PDMODE
 70
     0
  9
$PDSIZE
 40
-1.0
  9
$PLINEWID
 40
0.0
  9
$SPLFRAME
 70
     0
  9
$SPLINETYPE
 70
     6
  9
$SPLINESEGS
 70
     8
  9
$HANDSEED
  5
304
  9
$SURFTAB1
 70
     6
  9
$SURFTAB2
 70
     6
  9
$SURFTYPE
 70
     6
  9
$SURFU
 70
     6
  9
$SURFV
 70
     6
  9
$UCSBASE
  2

  9
$UCSNAME
  2

  9
$UCSORG
 10
0.0
 20
0.0
 30
0.0
  9
$UCSXDIR
 10
1.0
 20
0.0
 30
0.0
  9
$UCSYDIR
 10
0.0
 20
1.0
 30
0.0
  9
$UCSORTHOREF
  2

  9
$UCSORTHOVIEW
 70
     0
  9
$UCSORGTOP
 10
0.0
 20
0.0
 30
0.0
  9
$UCSORGBOTTOM
 10
0.0
 20
0.0
 30
0.0
  9
$UCSORGLEFT
 10
0.0
 20
0.0
 30
0.0
  9
$UCSORGRIGHT
 10
0.0
 20
0.0
 30
0.0
  9
$UCSORGFRONT
 10
0.0
 20
0.0
 30
0.0
  9
$UCSORGBACK
 10
0.0
 20
0.0
 30
0.0
  9
$PUCSBASE
  2

  9
$PUCSNAME
  2

  9
$PUCSORG
 10
0.0
 20
0.0
 30
0.0
  9
$PUCSXDIR
 10
1.0
 20
0.0
 30
0.0
  9
$PUCSYDIR
 10
0.0
 20
1.0
 30
0.0
  9
$PUCSORTHOREF
  2

  9
$PUCSORTHOVIEW
 70
     0
  9
$PUCSORGTOP
 10
0.0
 20
0.0
 30
0.0
  9
$PUCSORGBOTTOM
 10
0.0
 20
0.0
 30
0.0
  9
$PUCSORGLEFT
 10
0.0
 20
0.0
 30
0.0
  9
$PUCSORGRIGHT
 10
0.0
 20
0.0
 30
0.0
  9
$PUCSORGFRONT
 10
0.0
 20
0.0
 30
0.0
  9
$PUCSORGBACK
 10
0.0
 20
0.0
 30
0.0
  9
$USERI1
 70
     0
  9
$USERI2
 70
     0
  9
$USERI3
 70
     0
  9
$USERI4
 70
     0
  9
$USERI5
 70
     0
  9
$USERR1
 40
0.0
  9
$USERR2
 40
0.0
  9
$USERR3
 40
0.0
  9
$USERR4
 40
0.0
  9
$USERR5
 40
0.0
  9
$WORLDVIEW
 70
     1
  9
$SHADEDGE
 70
     3
  9
$SHADEDIF
 70
    70
  9
$TILEMODE
 70
     1
  9
$MAXACTVP
 70
    64
  9
$PINSBASE
 10
0.0
 20
0.0
 30
0.0
  9
$PLIMCHECK
 70
     0
  9
$PEXTMIN
 10
1.0000000000E+20
 20
1.0000000000E+20
 30
1.0000000000E+20
  9
$PEXTMAX
 10
-1.0000000000E+20
 20
-1.0000000000E+20
 30
-1.0000000000E+20
  9
$PLIMMIN
 10
0.0
 20
0.0
  9
$PLIMMAX
 10
420.0
 20
297.0
  9
$UNITMODE
 70
     0
  9
$VISRETAIN
 70
     1
  9
$PLINEGEN
 70
     0
  9
$PSLTSCALE
 70
     1
  9
$TREEDEPTH
 70
  3020
  9
$CMLSTYLE
  2
Standard
  9
$CMLJUST
 70
     0
  9
$CMLSCALE
 40
20.0
  9
$PROXYGRAPHICS
 70
     1
  9
$MEASUREMENT
 70
     1
  9
$CELWEIGHT
370
    -1
  9
$ENDCAPS
280
     0
  9
$JOINSTYLE
280
     0
  9
$LWDISPLAY
290
     1
  9
$INSUNITS
 70
     4
  9
$HYPERLINKBASE
  1

  9
$STYLESHEET
  1

  9
$XEDIT
290
     1
  9
$CEPSNTYPE
380
     0
  9
$PSTYLEMODE
290
     1
  9
$FINGERPRINTGUID
  2
{F5417782-B3F5-4F41-A84C-0BAB8539C0E6}
  9
$VERSIONGUID
  2
{FAEB1C32-E019-11D5-929B-00C0DF256EC4}
  9
$EXTNAMES
290
     1
  9
$PSVPSCALE
 40
0.0
  9
$OLESTARTUP
290
     0
  0
ENDSEC
  0
SECTION
  2
CLASSES
  0
CLASS
  1
ACDBDICTIONARYWDFLT
  2
AcDbDictionaryWithDefault
  3
ObjectDBX Classes
 90
        0
280
     0
281
     0
  0
CLASS
  1
VISUALSTYLE
  2
AcDbVisualStyle
  3
ObjectDBX Classes
 90
     4095
280
     0
281
     0
  0
CLASS
  1
MATERIAL
  2
AcDbMaterial
  3
ObjectDBX Classes
 90
     1153
280
     0
281
     0
  0
CLASS
  1
ACDBPLACEHOLDER
  2
AcDbPlaceHolder
  3
ObjectDBX Classes
 90
        0
280
     0
281
     0
  0
CLASS
  1
LAYOUT
  2
AcDbLayout
  3
ObjectDBX Classes
 90
        0
280
     0
281
     0
  0
ENDSEC
  0
SECTION
  2
TABLES
  0
TABLE
  2
VPORT
  5
8
330
0
100
AcDbSymbolTable
 70
     1
  0
VPORT
  5
29
330
8
100
AcDbSymbolTableRecord
100
AcDbViewportTableRecord
  2
*Active
 70
     0
 10
0.0
 20
0.0
 11
1.0
 21
1.0
 12
148.5
 22
105.0
 13
0.0
 23
0.0
 14
10.0
 24
10.0
 15
10.0
 25
10.0
 16
0.0
 26
0.0
 36
1.0
 17
0.0
 27
0.0
 37
0.0
 40
210.0
 41
1.4142857143
 42
50.0
 43
0.0
 44
0.0
 50
0.0
 51
0.0
 71
     0
 72
  2000
 73
     1
 74
     3
 75
     0
 76
     0
 77
     0
 78
     0
281
     0
 65
     1
110
0.0
120
0.0
130
0.0
111
1.0
121
0.0
131
0.0
112
0.0
122
1.0
132
0.0
 79
     0
146
0.0
  0
ENDTAB
  0
TABLE
  2
LTYPE
  5
5
330
0
100
AcDbSymbolTable
 70
     6
  0
LTYPE
  5
14
330
5
100
AcDbSymbolTableRecord
100
AcDbLinetypeTableRecord
  2
ByBlock
 70
     0
  3

 72
    65
 73
     0
 40
0.0
  0
LTYPE
  5
15
330
5
100
AcDbSymbolTableRecord
100
AcDbLinetypeTableRecord
  2
ByLayer
 70
     0
  3

 72
    65
 73
     0
 40
0.0
  0
LTYPE
  5
16
330
5
100
AcDbSymbolTableRecord
100
AcDbLinetypeTableRecord
  2
Continuous
 70
     0
  3
Solid line
 72
    65
 73
     0
 40
0.0
  0
LTYPE
  5
3F
330
5
100
AcDbSymbolTableRecord
100
AcDbLinetypeTableRecord
  2
HIDDEN
 70
     0
  3
Hidden __ __ __ __ __ __ __ __ __ __ __ __ __ __
 72
    65
 73
     2
 40
1.905
 49
1.27
 74
     0
 49
-0.635
 74
     0
  0
LTYPE
  5
40
330
5
100
AcDbSymbolTableRecord
100
AcDbLinetypeTableRecord
  2
PHANTOM
 70
     0
  3
Phantom ______  __  __  ______  __  __  ______
 72
    65
 73
     6
 40
12.7
 49
6.35
 74
     0
 49
-1.27
 74
     0
 49
1.27
 74
     0
 49
-1.27
 74
     0
 49
1.27
 74
     0
 49
-1.27
 74
     0
  0
LTYPE
  5
41
330
5
100
AcDbSymbolTableRecord
100
AcDbLinetypeTableRecord
  2
CENTER
 70
     0
  3
Center ____ _ ____ _ ____ _ ____ _ ____ _ ____
 72
    65
 73
     4
 40
10.16
 49
6.35
 74
     0
 49
-1.27
 74
     0
 49
1.27
 74
     0
 49
-1.27
 74
     0
  0
LTYPE
  5
42
330
5
100
AcDbSymbolTableRecord
100
AcDbLinetypeTableRecord
  2
CENTERX2
 70
     0
  3
Center (2x) ________  __  ________  __  _____
 72
    65
 73
     4
 40
20.32
 49
12.7
 74
     0
 49
-2.54
 74
     0
 49
2.54
 74
     0
 49
-2.54
 74
     0
  0
LTYPE
  5
43
330
5
100
AcDbSymbolTableRecord
100
AcDbLinetypeTableRecord
  2
DOT2
 70
     0
  3
Dot (.5x) ........................................
 72
    65
 73
     2
 40
0.635
 49
0.0
 74
     0
 49
-0.635
 74
     0
  0
ENDTAB
  0
TABLE
  2
LAYER
  5
2
330
0
100
AcDbSymbolTable
 70
     5
  0
LAYER
  5
10
330
2
100
AcDbSymbolTableRecord
100
AcDbLayerTableRecord
  2
0
 70
     0
 62
     7
  6
Continuous
370
    -3
390
F
  0
LAYER
  5
44
330
2
100
AcDbSymbolTableRecord
100
AcDbLayerTableRecord
  2
FORMAT
 70
     0
 62
     7
  6
Continuous
370
    -3
390
F
  0
LAYER
  5
45
330
2
100
AcDbSymbolTableRecord
100
AcDbLayerTableRecord
  2
VERMASSUNG
 70
     0
 62
     7
  6
Continuous
370
    -3
390
F
  0
LAYER
  5
46
330
2
100
AcDbSymbolTableRecord
100
AcDbLayerTableRecord
  2
KOPF_DÜNN
 70
     0
 62
     7
  6
Continuous
370
    -3
390
F
  0
LAYER
  5
47
330
2
100
AcDbSymbolTableRecord
100
AcDbLayerTableRecord
  2
KOPF_DICK
 70
     0
 62
     7
  6
Continuous
370
    15
390
F
  0
ENDTAB
  0
TABLE
  2
STYLE
  5
3
330
0
100
AcDbSymbolTable
 70
     2
  0
STYLE
  5
11
330
3
100
AcDbSymbolTableRecord
100
AcDbTextStyleTableRecord
  2
Standard
 70
     0
 40
0.0
 41
1.0
 50
0.0
 71
     0
 42
2.0
  3
txt
  4

  0
STYLE
  5
48
330
3
100
AcDbSymbolTableRecord
100
AcDbTextStyleTableRecord
  2
SLDTEXTSTYLE0
 70
     0
 40
0.0
 41
0.7
 50
0.0
 71
     0
 42
0.2
  3
TXT
  4

  0
ENDTAB
  0
TABLE
  2
VIEW
  5
6
330
0
100
AcDbSymbolTable
 70
     0
  0
ENDTAB
  0
TABLE
  2
UCS
  5
7
330
0
100
AcDbSymbolTable
 70
     0
  0
ENDTAB
  0
TABLE
  2
APPID
  5
9
330
0
100
AcDbSymbolTable
 70
     1
  0
APPID
  5
12
330
9
100
AcDbSymbolTableRecord
100
AcDbRegAppTableRecord
  2
ACAD
 70
     0
  0
ENDTAB
  0
TABLE
  2
DIMSTYLE
  5
A
330
0
100
AcDbSymbolTable
 70
     5
100
AcDbDimStyleTable
  0
DIMSTYLE
105
27
330
A
100
AcDbSymbolTableRecord
100
AcDbDimStyleTableRecord
  2
ISO-25
 70
     0
 41
2.5
 42
0.625
 43
3.75
 44
1.25
 73
     0
 74
     0
 77
     1
 78
     8
140
2.5
141
2.5
143
0.0393700787
147
0.625
171
     3
172
     1
178
     0
271
     2
272
     2
274
     3
278
    44
283
     0
284
     8
340
11
  0
DIMSTYLE
105
23B
102
{ACAD_REACTORS
330
23A
102
}
330
A
100
AcDbSymbolTableRecord
100
AcDbDimStyleTableRecord
  2
SLDDIMSTYLE0
 70
     0
 41
3.0
 44
0.0
 73
     0
 74
     0
 77
     1
 78
    12
 79
     3
140
2.0
147
0.5
173
     1
178
     0
179
     1
272
     3
276
     2
284
    12
340
48
  0
DIMSTYLE
105
244
102
{ACAD_REACTORS
330
243
330
24E
330
258
330
262
102
}
330
A
100
AcDbSymbolTableRecord
100
AcDbDimStyleTableRecord
  2
SLDDIMSTYLE1
 70
     0
 41
3.0
 44
0.0
 45
0.000000001
 73
     0
 74
     0
 77
     1
 78
    12
 79
     3
140
2.0
147
0.5
173
     1
178
     0
271
     2
272
     3
276
     2
284
    12
340
48
  0
DIMSTYLE
105
2DC
102
{ACAD_REACTORS
330
2DB
102
}
330
A
100
AcDbSymbolTableRecord
100
AcDbDimStyleTableRecord
  2
SLDDIMSTYLE2
 70
     0
 41
3.0
 44
0.0
 73
     0
 74
     0
 77
     1
 78
    12
 79
     3
140
2.0
147
0.5
173
     1
178
     0
179
     2
272
     3
276
     2
284
    12
340
48
  0
DIMSTYLE
105
2E9
102
{ACAD_REACTORS
330
2E8
102
}
330
A
100
AcDbSymbolTableRecord
100
AcDbDimStyleTableRecord
  2
SLDDIMSTYLE3
 70
     0
 41
3.0
 44
0.0
 45
0.000000001
 73
     0
 74
     0
 77
     1
 78
    12
 79
     3
140
2.0
147
0.5
172
     1
173
     1
178
     0
271
     2
272
     3
276
     2
284
    12
289
     0
340
48
  0
ENDTAB
  0
TABLE
  2
BLOCK_RECORD
  5
1
330
0
100
AcDbSymbolTable
 70
     9
  0
BLOCK_RECORD
  5
1F
330
1
100
AcDbSymbolTableRecord
100
AcDbBlockTableRecord
  2
*Model_Space
340
22
  0
BLOCK_RECORD
  5
1B
330
1
100
AcDbSymbolTableRecord
100
AcDbBlockTableRecord
  2
*Paper_Space
340
1E
  0
BLOCK_RECORD
  5
23
330
1
100
AcDbSymbolTableRecord
100
AcDbBlockTableRecord
  2
*Paper_Space0
340
26
  0
BLOCK_RECORD
  5
23C
330
1
100
AcDbSymbolTableRecord
100
AcDbBlockTableRecord
  2
_D
340
0
  0
BLOCK_RECORD
  5
245
330
1
100
AcDbSymbolTableRecord
100
AcDbBlockTableRecord
  2
_D_1
340
0
  0
BLOCK_RECORD
  5
24F
330
1
100
AcDbSymbolTableRecord
100
AcDbBlockTableRecord
  2
_D_2
340
0
  0
BLOCK_RECORD
  5
259
330
1
100
AcDbSymbolTableRecord
100
AcDbBlockTableRecord
  2
_D_3
340
0
  0
BLOCK_RECORD
  5
263
330
1
100
AcDbSymbolTableRecord
100
AcDbBlockTableRecord
  2
_D_4
340
0
  0
BLOCK_RECORD
  5
2DD
330
1
100
AcDbSymbolTableRecord
100
AcDbBlockTableRecord
  2
_D_5
340
0
  0
BLOCK_RECORD
  5
2EA
330
1
100
AcDbSymbolTableRecord
100
AcDbBlockTableRecord
  2
_D_6
340
0
  0
BLOCK_RECORD
  5
2F7
330
1
100
AcDbSymbolTableRecord
100
AcDbBlockTableRecord
  2
SW_CENTERMARKSYMBOL_0
340
0
102
{BLKREFS
331
302
102
}
  0
ENDTAB
  0
ENDSEC
  0
SECTION
  2
BLOCKS
  0
BLOCK
  5
20
330
1F
100
AcDbEntity
  8
0
100
AcDbBlockBegin
  2
*Model_Space
 70
     0
 10
0.0
 20
0.0
 30
0.0
  3
*Model_Space
  1

  0
ENDBLK
  5
21
330
1F
100
AcDbEntity
  8
0
100
AcDbBlockEnd
  0
BLOCK
  5
1C
330
1B
100
AcDbEntity
 67
     1
  8
0
100
AcDbBlockBegin
  2
*Paper_Space
 70
     0
 10
0.0
 20
0.0
 30
0.0
  3
*Paper_Space
  1

  0
ENDBLK
  5
1D
330
1B
100
AcDbEntity
 67
     1
  8
0
100
AcDbBlockEnd
  0
BLOCK
  5
24
330
23
100
AcDbEntity
  8
0
100
AcDbBlockBegin
  2
*Paper_Space0
 70
     0
 10
0.0
 20
0.0
 30
0.0
  3
*Paper_Space0
  1

  0
ENDBLK
  5
25
330
23
100
AcDbEntity
  8
0
100
AcDbBlockEnd
  0
BLOCK
  5
23D
330
23C
100
AcDbEntity
  8
0
100
AcDbBlockBegin
  2
_D
 70
     0
 10
0.0
 20
0.0
 30
0.0
  3
_D
  1

  0
ARC
  5
23F
330
23C
100
AcDbEntity
  8
VERMASSUNG
100
AcDbCircle
 10
226.6786433183
 20
93.0086466629
 30
0.0
 40
12.98270900919725
100
AcDbArc
 50
0.0
 51
93.0324608485
  0
SOLID
  5
240
330
23C
100
AcDbEntity
  8
VERMASSUNG
100
AcDbTrace
 10
239.6613523275
 20
93.0086466629
 30
0.0
 11
239.7685501369
 21
96.0403142947
 31
0.0
 12
238.8743455491
 22
95.9383429494
 32
0.0
 13
238.8743455491
 23
95.9383429494
 33
0.0
  0
SOLID
  5
241
330
23C
100
AcDbEntity
  8
VERMASSUNG
100
AcDbTrace
 10
225.9918356807
 20
105.9731762914
 30
0.0
 11
228.9590635949
 21
105.3422575128
 31
0.0
 12
229.0135871914
 22
106.2406044265
 32
0.0
 13
229.0135871914
 23
106.2406044265
 33
0.0
  0
MTEXT
  5
242
330
23C
100
AcDbEntity
  8
VERMASSUNG
100
AcDbMText
 10
235.2826726585
 20
106.2947506001
 30
0.1
 40
2.0
 41
0.0
 71
     1
 72
     1
  1
93°
  7
SLDTEXTSTYLE0
 11
0.7255693350955876
 21
-0.6881490681305519
 31
0.0
 73
     1
 44
1.0
  0
ENDBLK
  5
23E
330
23C
100
AcDbEntity
  8
0
100
AcDbBlockEnd
  0
BLOCK
  5
246
330
245
100
AcDbEntity
  8
0
100
AcDbBlockBegin
  2
_D_1
 70
     0
 10
0.0
 20
0.0
 30
0.0
  3
_D_1
  1

  0
SOLID
  5
248
330
245
100
AcDbEntity
  8
VERMASSUNG
100
AcDbTrace
 10
171.6558864569
 20
84.9737966028
 30
0.0
 11
174.6558864569
 21
84.5237966028
 31
0.0
 12
174.6558864569
 22
85.4237966028
 32
0.0
 13
174.6558864569
 23
85.4237966028
 33
0.0
  0
SOLID
  5
249
330
245
100
AcDbEntity
  8
VERMASSUNG
100
AcDbTrace
 10
226.6558864569
 20
84.9737966028
 30
0.0
 11
223.6558864569
 21
85.4237966028
 31
0.0
 12
223.6558864569
 22
84.5237966028
 32
0.0
 13
223.6558864569
 23
84.5237966028
 33
0.0
  0
LINE
  5
24A
330
245
100
AcDbEntity
  8
VERMASSUNG
100
AcDbLine
 10
171.6558864569
 20
100.3086466629
 30
0.0
 11
171.6558864569
 21
83.9737966028
 31
0.0
  0
LINE
  5
24B
330
245
100
AcDbEntity
  8
VERMASSUNG
100
AcDbLine
 10
226.6558864569
 20
93.0086466629
 30
0.0
 11
226.6558864569
 21
83.9737966028
 31
0.0
  0
LINE
  5
24C
330
245
100
AcDbEntity
  8
VERMASSUNG
100
AcDbLine
 10
171.6558864569
 20
84.9737966028
 30
0.0
 11
226.6558864569
 21
84.9737966028
 31
0.0
  0
MTEXT
  5
24D
330
245
100
AcDbEntity
  8
VERMASSUNG
100
AcDbMText
 10
196.8558864058
 20
87.5519319659
 30
0.1
 40
2.0
 41
0.0
 71
     1
 72
     1
  1
55
  7
SLDTEXTSTYLE0
 73
     1
 44
1.0
  0
ENDBLK
  5
247
330
245
100
AcDbEntity
  8
0
100
AcDbBlockEnd
  0
BLOCK
  5
250
330
24F
100
AcDbEntity
  8
0
100
AcDbBlockBegin
  2
_D_2
 70
     0
 10
0.0
 20
0.0
 30
0.0
  3
_D_2
  1

  0
SOLID
  5
252
330
24F
100
AcDbEntity
  8
VERMASSUNG
100
AcDbTrace
 10
226.6558864569
 20
76.6184935793
 30
0.0
 11
223.6558864569
 21
77.0684935793
 31
0.0
 12
223.6558864569
 22
76.1684935793
 32
0.0
 13
223.6558864569
 23
76.1684935793
 33
0.0
  0
SOLID
  5
253
330
24F
100
AcDbEntity
  8
VERMASSUNG
100
AcDbTrace
 10
151.7558864569
 20
76.6184935793
 30
0.0
 11
154.7558864569
 21
76.1684935793
 31
0.0
 12
154.7558864569
 22
77.0684935793
 32
0.0
 13
154.7558864569
 23
77.0684935793
 33
0.0
  0
LINE
  5
254
330
24F
100
AcDbEntity
  8
VERMASSUNG
100
AcDbLine
 10
226.6558864569
 20
93.0086466629
 30
0.0
 11
226.6558864569
 21
75.6184935793
 31
0.0
  0
LINE
  5
255
330
24F
100
AcDbEntity
  8
VERMASSUNG
100
AcDbLine
 10
151.7558864569
 20
108.1376466629
 30
0.0
 11
151.7558864569
 21
75.6184935793
 31
0.0
  0
LINE
  5
256
330
24F
100
AcDbEntity
  8
VERMASSUNG
100
AcDbLine
 10
226.6558864569
 20
76.6184935793
 30
0.0
 11
151.7558864569
 21
76.6184935793
 31
0.0
  0
MTEXT
  5
257
330
24F
100
AcDbEntity
  8
VERMASSUNG
100
AcDbMText
 10
185.8058864118
 20
79.1966289425
 30
0.1
 40
2.0
 41
0.0
 71
     1
 72
     1
  1
74.9
  7
SLDTEXTSTYLE0
 73
     1
 44
1.0
  0
ENDBLK
  5
251
330
24F
100
AcDbEntity
  8
0
100
AcDbBlockEnd
  0
BLOCK
  5
25A
330
259
100
AcDbEntity
  8
0
100
AcDbBlockBegin
  2
_D_3
 70
     0
 10
0.0
 20
0.0
 30
0.0
  3
_D_3
  1

  0
SOLID
  5
25C
330
259
100
AcDbEntity
  8
VERMASSUNG
100
AcDbTrace
 10
246.8526572254
 20
93.0086466629
 30
0.0
 11
247.3026572254
 21
96.0086466629
 31
0.0
 12
246.4026572254
 22
96.0086466629
 32
0.0
 13
246.4026572254
 23
96.0086466629
 33
0.0
  0
SOLID
  5
25D
330
259
100
AcDbEntity
  8
VERMASSUNG
100
AcDbTrace
 10
246.8526572254
 20
120.0086466629
 30
0.0
 11
246.4026572254
 21
117.0086466629
 31
0.0
 12
247.3026572254
 22
117.0086466629
 32
0.0
 13
247.3026572254
 23
117.0086466629
 33
0.0
  0
LINE
  5
25E
330
259
100
AcDbEntity
  8
VERMASSUNG
100
AcDbLine
 10
226.6558864569
 20
93.0086466629
 30
0.0
 11
247.8526572254
 21
93.0086466629
 31
0.0
  0
LINE
  5
25F
330
259
100
AcDbEntity
  8
VERMASSUNG
100
AcDbLine
 10
226.6558864569
 20
120.0086466629
 30
0.0
 11
247.8526572254
 21
120.0086466629
 31
0.0
  0
LINE
  5
260
330
259
100
AcDbEntity
  8
VERMASSUNG
100
AcDbLine
 10
246.8526572254
 20
93.0086466629
 30
0.0
 11
246.8526572254
 21
120.0086466629
 31
0.0
  0
MTEXT
  5
261
330
259
100
AcDbEntity
  8
VERMASSUNG
100
AcDbMText
 10
244.2745218623
 20
104.2086466119
 30
0.1
 40
2.0
 41
0.0
 71
     1
 72
     1
  1
27
  7
SLDTEXTSTYLE0
 11
6.123233995736766E-17
 21
1.0
 31
0.0
 73
     1
 44
1.0
  0
ENDBLK
  5
25B
330
259
100
AcDbEntity
  8
0
100
AcDbBlockEnd
  0
BLOCK
  5
264
330
263
100
AcDbEntity
  8
0
100
AcDbBlockBegin
  2
_D_4
 70
     0
 10
0.0
 20
0.0
 30
0.0
  3
_D_4
  1

  0
SOLID
  5
266
330
263
100
AcDbEntity
  8
VERMASSUNG
100
AcDbTrace
 10
143.369220894
 20
140.0086466629
 30
0.0
 11
142.919220894
 21
137.0086466629
 31
0.0
 12
143.819220894
 22
137.0086466629
 32
0.0
 13
143.819220894
 23
137.0086466629
 33
0.0
  0
SOLID
  5
267
330
263
100
AcDbEntity
  8
VERMASSUNG
100
AcDbTrace
 10
143.369220894
 20
100.0086466629
 30
0.0
 11
143.819220894
 21
103.0086466629
 31
0.0
 12
142.919220894
 22
103.0086466629
 32
0.0
 13
142.919220894
 23
103.0086466629
 33
0.0
  0
LINE
  5
268
330
263
100
AcDbEntity
  8
VERMASSUNG
100
AcDbLine
 10
171.9558864569
 20
140.0086466629
 30
0.0
 11
142.369220894
 21
140.0086466629
 31
0.0
  0
LINE
  5
269
330
263
100
AcDbEntity
  8
VERMASSUNG
100
AcDbLine
 10
171.9558864569
 20
100.0086466629
 30
0.0
 11
142.369220894
 21
100.0086466629
 31
0.0
  0
LINE
  5
26A
330
263
100
AcDbEntity
  8
VERMASSUNG
100
AcDbLine
 10
143.369220894
 20
140.0086466629
 30
0.0
 11
143.369220894
 21
100.0086466629
 31
0.0
  0
MTEXT
  5
26B
330
263
100
AcDbEntity
  8
VERMASSUNG
100
AcDbMText
 10
140.591085405
 20
112.0036460121
 30
0.1
 40
2.0
 41
0.0
 71
     1
 72
     1
  1
HSK T
  7
SLDTEXTSTYLE0
 11
-7.044195017643634E-15
 21
1.0
 31
0.0
 73
     1
 44
1.0
  0
MTEXT
  5
26C
330
263
100
AcDbEntity
  8
VERMASSUNG
100
AcDbMText
 10
140.7910854145
 20
119.6036461402
 30
0.1
 40
2.0
 41
0.0
 71
     1
 72
     1
  1
%%c
  7
SLDTEXTSTYLE0
 11
-7.044195017643634E-15
 21
1.0
 31
0.0
 73
     1
 44
1.0
  0
MTEXT
  5
26D
330
263
100
AcDbEntity
  8
VERMASSUNG
100
AcDbMText
 10
140.591085405
 20
123.2136461545
 30
0.1
 40
2.0
 41
0.0
 71
     1
 72
     1
  1
40
  7
SLDTEXTSTYLE0
 11
-7.044195017643634E-15
 21
1.0
 31
0.0
 73
     1
 44
1.0
  0
ENDBLK
  5
265
330
263
100
AcDbEntity
  8
0
100
AcDbBlockEnd
  0
BLOCK
  5
2DE
330
2DD
100
AcDbEntity
  8
0
100
AcDbBlockBegin
  2
_D_5
 70
     0
 10
0.0
 20
0.0
 30
0.0
  3
_D_5
  1

  0
ARC
  5
2E0
330
2DD
100
AcDbEntity
  8
VERMASSUNG
100
AcDbCircle
 10
80.6473662342
 20
92.3454705819
 30
0.0
 40
56.59391174414978
100
AcDbArc
 50
90.0
 51
100.0
  0
ARC
  5
2E1
330
2DD
100
AcDbEntity
  8
VERMASSUNG
100
AcDbCircle
 10
80.6473662342
 20
92.3454705819
 30
0.0
 40
56.59391174414978
100
AcDbArc
 50
83.9333986302
 51
90.0
  0
ARC
  5
2E2
330
2DD
100
AcDbEntity
  8
VERMASSUNG
100
AcDbCircle
 10
80.6473662342
 20
92.3454705819
 30
0.0
 40
56.59391174414979
100
AcDbArc
 50
100.0
 51
106.0666013698
  0
SOLID
  5
2E3
330
2DD
100
AcDbEntity
  8
VERMASSUNG
100
AcDbTrace
 10
80.6473662342
 20
148.939382326
 30
0.0
 11
83.6343999906
 21
148.4101098647
 31
0.0
 12
83.658229056
 22
149.3097943514
 32
0.0
 13
83.658229056
 23
149.3097943514
 33
0.0
  0
SOLID
  5
2E4
330
2DD
100
AcDbEntity
  8
VERMASSUNG
100
AcDbTrace
 10
70.8199365928
 20
148.0795936408
 30
0.0
 11
67.7904941695
 21
147.921547433
 31
0.0
 12
67.9701897894
 22
147.039669049
 32
0.0
 13
67.9701897894
 23
147.039669049
 33
0.0
  0
LINE
  5
2E5
330
2DD
100
AcDbEntity
  8
VERMASSUNG
100
AcDbLine
 10
80.6473662342
 20
142.5086466629
 30
0.0
 11
80.6473662342
 21
149.939382326
 31
0.0
  0
LINE
  5
2E6
330
2DD
100
AcDbEntity
  8
VERMASSUNG
100
AcDbLine
 10
71.1868927806
 20
145.9984816842
 30
0.0
 11
70.6462884151
 21
149.0644013938
 31
0.0
  0
MTEXT
  5
2E7
330
2DD
100
AcDbEntity
  8
VERMASSUNG
100
AcDbMText
 10
72.800456764
 20
151.0570296739
 30
0.1
 40
2.0
 41
0.0
 71
     1
 72
     1
  1
10°
  7
SLDTEXTSTYLE0
 11
0.9961946980917449
 21
0.08715574274766515
 31
0.0
 73
     1
 44
1.0
  0
ENDBLK
  5
2DF
330
2DD
100
AcDbEntity
  8
0
100
AcDbBlockEnd
  0
BLOCK
  5
2EB
330
2EA
100
AcDbEntity
  8
0
100
AcDbBlockBegin
  2
_D_6
 70
     0
 10
0.0
 20
0.0
 30
0.0
  3
_D_6
  1

  0
SOLID
  5
2ED
330
2EA
100
AcDbEntity
  8
VERMASSUNG
100
AcDbTrace
 10
95.5783725398
 20
138.3496513138
 30
0.0
 11
97.731021373
 21
140.4870803771
 31
0.0
 12
97.00916522
 22
141.0245966041
 32
0.0
 13
97.00916522
 23
141.0245966041
 33
0.0
  0
SOLID
  5
2EE
330
2EA
100
AcDbEntity
  8
VERMASSUNG
100
AcDbTrace
 10
65.7163599285
 20
98.2465316994
 30
0.0
 11
63.5637110953
 21
96.109102636
 31
0.0
 12
64.2855672484
 22
95.571586409
 32
0.0
 13
64.2855672484
 23
95.571586409
 33
0.0
  0
LINE
  5
2EF
330
2EA
100
AcDbEntity
  8
VERMASSUNG
100
AcDbLine
 10
95.5783725398
 20
138.3496513138
 30
0.0
 11
94.7763101475
 21
138.946891566
 31
0.0
  0
LINE
  5
2F0
330
2EA
100
AcDbEntity
  8
VERMASSUNG
100
AcDbLine
 10
65.7163599285
 20
98.2465316994
 30
0.0
 11
64.9142975363
 21
98.8437719516
 31
0.0
  0
LINE
  5
2F1
330
2EA
100
AcDbEntity
  8
VERMASSUNG
100
AcDbLine
 10
95.5783725398
 20
138.3496513138
 30
0.0
 11
99.1618140532
 21
143.1620256675
 31
0.0
  0
LINE
  5
2F2
330
2EA
100
AcDbEntity
  8
VERMASSUNG
100
AcDbLine
 10
95.5783725398
 20
138.3496513138
 30
0.0
 11
65.7163599285
 21
98.2465316994
 31
0.0
  0
LINE
  5
2F3
330
2EA
100
AcDbEntity
  8
VERMASSUNG
100
AcDbLine
 10
65.7163599285
 20
98.2465316994
 30
0.0
 11
55.3606161489
 21
84.3393099426
 31
0.0
  0
MTEXT
  5
2F4
330
2EA
100
AcDbEntity
  8
VERMASSUNG
100
AcDbMText
 10
53.2927906385
 20
85.8790762266
 30
0.1
 40
2.0
 41
0.0
 71
     1
 72
     1
  1
%%c
  7
SLDTEXTSTYLE0
 11
0.5972402522256448
 21
0.8020623922871887
 31
0.0
 73
     1
 44
1.0
  0
MTEXT
  5
2F5
330
2EA
100
AcDbEntity
  8
VERMASSUNG
100
AcDbMText
 10
55.2884154715
 20
88.8939695304
 30
0.1
 40
2.0
 41
0.0
 71
     1
 72
     1
  1
50
  7
SLDTEXTSTYLE0
 11
0.5972402522256448
 21
0.8020623922871887
 31
0.0
 73
     1
 44
1.0
  0
MTEXT
  5
2F6
330
2EA
100
AcDbEntity
  8
VERMASSUNG
100
AcDbMText
 10
58.7449437704
 20
93.5359060811
 30
0.1
 40
2.0
 41
0.0
 71
     1
 72
     1
  1
min.
  7
SLDTEXTSTYLE0
 11
0.5972402522256448
 21
0.8020623922871887
 31
0.0
 73
     1
 44
1.0
  0
ENDBLK
  5
2EC
330
2EA
100
AcDbEntity
  8
0
100
AcDbBlockEnd
  0
BLOCK
  5
2F8
330
2F7
100
AcDbEntity
  8
0
100
AcDbBlockBegin
  2
SW_CENTERMARKSYMBOL_0
 70
     0
 10
0.0
 20
0.0
 30
0.0
  3
SW_CENTERMARKSYMBOL_0
  1

  0
LINE
  5
2FA
330
2F7
100
AcDbEntity
  8
VERMASSUNG
 62
     0
100
AcDbLine
 10
0.0
 20
0.0
 30
0.0
 11
0.0
 21
2.5
 31
0.0
  0
LINE
  5
2FB
330
2F7
100
AcDbEntity
  8
VERMASSUNG
 62
     0
100
AcDbLine
 10
0.0
 20
0.0
 30
0.0
 11
-2.5
 21
0.0
 31
0.0
  0
LINE
  5
2FC
330
2F7
100
AcDbEntity
  8
VERMASSUNG
 62
     0
100
AcDbLine
 10
0.0
 20
0.0
 30
0.0
 11
0.0
 21
-2.5
 31
0.0
  0
LINE
  5
2FD
330
2F7
100
AcDbEntity
  8
VERMASSUNG
 62
     0
100
AcDbLine
 10
0.0
 20
0.0
 30
0.0
 11
2.5
 21
0.0
 31
0.0
  0
LINE
  5
2FE
330
2F7
100
AcDbEntity
  8
VERMASSUNG
 62
     0
100
AcDbLine
 10
0.0
 20
5.0
 30
0.0
 11
0.0
 21
22.5
 31
0.0
  0
LINE
  5
2FF
330
2F7
100
AcDbEntity
  8
VERMASSUNG
 62
     0
100
AcDbLine
 10
-5.0
 20
0.0
 30
0.0
 11
-22.5
 21
0.0
 31
0.0
  0
LINE
  5
300
330
2F7
100
AcDbEntity
  8
VERMASSUNG
 62
     0
100
AcDbLine
 10
0.0
 20
-5.0
 30
0.0
 11
0.0
 21
-29.9343555111
 31
0.0
  0
LINE
  5
301
330
2F7
100
AcDbEntity
  8
VERMASSUNG
 62
     0
100
AcDbLine
 10
5.0
 20
0.0
 30
0.0
 11
22.5
 21
0.0
 31
0.0
  0
ENDBLK
  5
2F9
330
2F7
100
AcDbEntity
  8
0
100
AcDbBlockEnd
  0
ENDSEC
  0
SECTION
  2
ENTITIES
  0
MTEXT
  5
49
330
1F
100
AcDbEntity
  8
KOPF_DÜNN
100
AcDbMText
 10
13.8892156294
 20
23.8442973028
 30
0.0
 40
3.0
 41
0.0
 71
     1
 72
     1
  1
HA4.PDF.LUA.055
  7
SLDTEXTSTYLE0
 73
     1
 44
1.0
  0
MTEXT
  5
4A
330
1F
100
AcDbEntity
  8
VERMASSUNG
100
AcDbMText
 10
13.9329988022
 20
28.8834360957
 30
0.0
 40
3.0
 41
0.0
 71
     1
 72
     1
  1
Klemmhalter links_Turning tool left 93° /55°
  7
SLDTEXTSTYLE0
 73
     1
 44
1.0
  0
MTEXT
  5
4B
330
1F
100
AcDbEntity
  8
VERMASSUNG
100
AcDbMText
 10
98.8601118557
 20
13.8365368179
 30
0.0
 40
2.0
 41
0.0
 71
     1
 72
     1
  1
Datum: 15.06.2012
  7
SLDTEXTSTYLE0
 73
     1
 44
1.0
  0
MTEXT
  5
4C
330
1F
100
AcDbEntity
  8
VERMASSUNG
100
AcDbMText
 10
13.933048693
 20
18.0482802738
 30
0.0
 40
2.0
 41
0.0
 71
     1
 72
     1
  1
HSK T ø40 / DN..15 06..
  7
SLDTEXTSTYLE0
 73
     1
 44
1.0
  0
MTEXT
  5
4D
330
1F
100
AcDbEntity
  8
VERMASSUNG
100
AcDbMText
 10
13.9808475933
 20
13.9090973692
 30
0.0
 40
2.0
 41
0.0
 71
     1
 72
     1
  1
Gewicht: 361g
  7
SLDTEXTSTYLE0
 73
     1
 44
1.0
  0
LINE
  5
4E
330
1F
100
AcDbEntity
  8
0
  6
Continuous
 62
     7
370
    15
100
AcDbLine
 10
171.9558864711
 20
100.00864711
 30
0.0
 11
179.6058869218
 21
100.00864711
 31
0.0
  0
LINE
  5
4F
330
1F
100
AcDbEntity
  8
0
  6
Continuous
 62
     7
370
    15
100
AcDbLine
 10
179.6086166282
 20
140.0086462159
 30
0.0
 11
171.9558864711
 21
140.0086462159
 31
0.0
  0
ARC
  5
50
330
1F
100
AcDbEntity
  8
0
  6
Continuous
 62
     7
370
    15
100
AcDbCircle
 10
171.9558864569
 20
100.3086466629
 30
0.0
 40
0.3000000000000256
100
AcDbArc
 50
180.0
 51
270.0
  0
ARC
  5
51
330
1F
100
AcDbEntity
  8
0
  6
Continuous
 62
     7
370
    15
100
AcDbCircle
 10
171.9558864569
 20
139.7086466629
 30
0.0
 40
0.3000000000000114
100
AcDbArc
 50
90.0
 51
180.0
  0
ARC
  5
52
330
1F
100
AcDbEntity
  8
0
  6
Continuous
 62
     7
370
    15
100
AcDbCircle
 10
192.6058864569
 20
102.5086466629
 30
0.0
 40
0.9999999999999939
100
AcDbArc
 50
90.0
 51
143.1142427467
  0
ARC
  5
53
330
1F
100
AcDbEntity
  8
0
  6
Continuous
 62
     7
370
    15
100
AcDbCircle
 10
192.6058864569
 20
137.5086466629
 30
0.0
 40
1.0
100
AcDbArc
 50
216.8994515981
 51
270.0
  0
LINE
  5
54
330
1F
100
AcDbEntity
  8
0
  6
Continuous
 62
     7
370
    15
100
AcDbLine
 10
205.8885587608
 20
136.5086465735
 30
0.0
 11
192.60588719
 21
136.5086465735
 31
0.0
  0
LINE
  5
55
330
1F
100
AcDbEntity
  8
0
  6
Continuous
 62
     7
370
    15
100
AcDbLine
 10
192.60588719
 20
103.5086467523
 30
0.0
 11
205.8885587608
 21
103.5086467523
 31
0.0
  0
ARC
  5
56
330
1F
100
AcDbEntity
  8
0
  6
Continuous
 62
     7
370
    15
100
AcDbCircle
 10
171.1558797042
 20
104.5549395095
 30
0.0
 40
0.60000675266771
100
AcDbArc
 50
33.5571153394
 51
90.0
  0
ARC
  5
57
330
1F
100
AcDbEntity
  8
0
  6
Continuous
 62
     7
370
    15
100
AcDbCircle
 10
171.1558797042
 20
135.4623538164
 30
0.0
 40
0.6000067526676888
100
AcDbArc
 50
270.0
 51
326.4428846606
  0
LINE
  5
58
330
1F
100
AcDbEntity
  8
0
  6
Continuous
 62
     7
370
    15
100
AcDbLine
 10
162.8399534379
 20
134.7708675672
 30
0.0
 11
155.3558862065
 21
134.3959143047
 31
0.0
  0
LINE
  5
59
330
1F
100
AcDbEntity
  8
0
  6
Continuous
 62
     7
370
    15
100
AcDbLine
 10
169.6558863619
 20
135.1123472337
 30
0.0
 11
168.4211537936
 21
135.0504869256
 31
0.0
  0
LINE
  5
5A
330
1F
100
AcDbEntity
  8
0
  6
Continuous
 62
     7
370
    15
100
AcDbLine
 10
168.4221498431
 20
104.9667570401
 30
0.0
 11
169.6558863619
 21
104.9049460922
 31
0.0
  0
LINE
  5
5B
330
1F
100
AcDbEntity
  8
0
  6
Continuous
 62
     7
370
    15
100
AcDbLine
 10
157.8558866163
 20
105.4961282421
 30
0.0
 11
162.8404163053
 21
105.2464024756
 31
0.0
  0
LINE
  5
5C
330
1F
100
AcDbEntity
  8
0
  6
Continuous
 62
     7
370
    15
100
AcDbLine
 10
169.6558863619
 20
104.9049460922
 30
0.0
 11
170.5125983567
 21
105.1345012743
 31
0.0
  0
LINE
  5
5D
330
1F
100
AcDbEntity
  8
0
  6
Continuous
 62
     7
370
    15
100
AcDbLine
 10
170.5125983567
 20
134.8827920515
 30
0.0
 11
169.6558863619
 21
135.1123472337
 31
0.0
  0
ARC
  5
5E
330
1F
100
AcDbEntity
  8
0
  6
Continuous
 62
     7
370
    15
100
AcDbCircle
 10
170.6678915463
 20
104.5549395095
 30
0.0
 40
0.6000067526677033
100
AcDbArc
 50
90.0
 51
105.0
  0
ARC
  5
5F
330
1F
100
AcDbEntity
  8
0
  6
Continuous
 62
     7
370
    15
100
AcDbCircle
 10
170.6678915463
 20
135.4623538164
 30
0.0
 40
0.600006752667717
100
AcDbArc
 50
255.0
 51
270.0
  0
LINE
  5
60
330
1F
100
AcDbEntity
  8
0
  6
Continuous
 62
     7
370
    15
100
AcDbLine
 10
170.6678915066
 20
105.1549465988
 30
0.0
 11
171.155879681
 21
105.1549465988
 31
0.0
  0
LINE
  5
61
330
1F
100
AcDbEntity
  8
0
  6
Continuous
 62
     7
370
    15
100
AcDbLine
 10
171.155879681
 20
134.8623467271
 30
0.0
 11
170.6678915066
 21
134.8623467271
 31
0.0
  0
LINE
  5
62
330
1F
100
AcDbEntity
  8
0
  6
Continuous
 62
     7
370
    15
100
AcDbLine
 10
207.0578119015
 20
138.0086458881
 30
0.0
 11
206.854485557
 21
137.2498284687
 31
0.0
  0
LINE
  5
63
330
1F
100
AcDbEntity
  8
0
  6
Continuous
 62
     7
370
    15
100
AcDbLine
 10
214.3468452846
 20
138.0086458881
 30
0.0
 11
207.0578119015
 21
138.0086458881
 31
0.0
  0
ARC
  5
64
330
1F
100
AcDbEntity
  8
0
  6
Continuous
 62
     7
370
    15
100
AcDbCircle
 10
205.8885594689
 20
137.5086466629
 30
0.0
 40
1.000000000000001
100
AcDbArc
 50
270.0
 51
345.0
  0
ARC
  5
65
330
1F
100
AcDbEntity
  8
0
  6
Continuous
 62
     7
370
    15
100
AcDbCircle
 10
205.8885594689
 20
102.5086466629
 30
0.0
 40
1.000000000000008
100
AcDbArc
 50
15.0
 51
90.0
  0
ARC
  5
66
330
1F
100
AcDbEntity
  8
0
  6
Continuous
 62
     7
370
    15
100
AcDbCircle
 10
154.4558864569
 20
133.7886466629
 30
0.0
 40
0.9000000000000057
100
AcDbArc
 50
270.0
 51
311.221922679
  0
ARC
  5
67
330
1F
100
AcDbEntity
  8
0
  6
Continuous
 62
     7
370
    15
100
AcDbCircle
 10
156.9558864569
 20
106.2286466629
 30
0.0
 40
0.9000000000000147
100
AcDbArc
 50
34.6391318474
 51
90.0
  0
LINE
  5
68
330
1F
100
AcDbEntity
  8
0
  6
Continuous
 62
     7
370
    15
100
AcDbLine
 10
152.7058860515
 20
132.8886469487
 30
0.0
 11
151.755886734
 21
131.9386466999
 31
0.0
  0
LINE
  5
69
330
1F
100
AcDbEntity
  8
0
  6
Continuous
 62
     7
370
    15
100
AcDbLine
 10
154.4558858727
 20
132.8886469487
 30
0.0
 11
152.7058860515
 21
132.8886469487
 31
0.0
  0
LINE
  5
6A
330
1F
100
AcDbEntity
  8
0
  6
Continuous
 62
     7
370
    15
100
AcDbLine
 10
152.7648871993
 20
107.1286463771
 30
0.0
 11
156.9558862825
 21
107.1286463771
 31
0.0
  0
LINE
  5
6B
330
1F
100
AcDbEntity
  8
0
  6
Continuous
 62
     7
370
    15
100
AcDbLine
 10
151.755886734
 20
108.1376468424
 30
0.0
 11
152.7648871993
 21
107.1286463771
 31
0.0
  0
LINE
  5
6C
330
1F
100
AcDbEntity
  8
0
  6
Continuous
 62
     7
370
    15
100
AcDbLine
 10
217.1894802009
 20
104.2162097652
 30
0.0
 11
217.7851354932
 21
103.4708648581
 31
0.0
  0
LINE
  5
6D
330
1F
100
AcDbEntity
  8
0
  6
Continuous
 62
     7
370
    15
100
AcDbLine
 10
213.4552417551
 20
100.8974138309
 30
0.0
 11
213.6646328722
 21
100.5514666099
 31
0.0
  0
LINE
  5
6E
330
1F
100
AcDbEntity
  8
0
  6
Continuous
 62
     7
370
    15
100
AcDbLine
 10
225.8451922094
 20
107.8811429102
 30
0.0
 11
225.4257394229
 21
108.574140038
 31
0.0
  0
LINE
  5
6F
330
1F
100
AcDbEntity
  8
0
  6
Continuous
 62
     7
370
    15
100
AcDbLine
 10
179.6058869218
 20
131.8586470221
 30
0.0
 11
185.6207266678
 21
131.8586470221
 31
0.0
  0
LINE
  5
70
330
1F
100
AcDbEntity
  8
0
  6
Continuous
 62
     7
370
    15
100
AcDbLine
 10
185.6207266678
 20
100.7797617127
 30
0.0
 11
185.6207266678
 21
131.8586470221
 31
0.0
  0
LINE
  5
71
330
1F
100
AcDbEntity
  8
0
  6
Continuous
 62
     7
370
    15
100
AcDbLine
 10
185.6207266678
 20
100.7797617127
 30
0.0
 11
184.1058867281
 21
100.7797617127
 31
0.0
  0
SPLINE
  5
72
330
1F
100
AcDbEntity
  8
0
  6
Continuous
 62
     7
370
    15
100
AcDbSpline
210
0.0
220
0.0
230
1.0
 70
     8
 71
     3
 72
    22
 73
    18
 74
     0
 42
0.00000001
 43
0.00000001
 12
1.0
 22
0.0
 32
0.0
 13
1.0
 23
0.0
 33
0.0
 40
0.0
 40
0.0
 40
0.0
 40
0.0
 40
0.125
 40
0.125
 40
0.25
 40
0.25
 40
0.375
 40
0.375
 40
0.5
 40
0.5
 40
0.625
 40
0.625
 40
0.75
 40
0.75
 40
0.875
 40
0.875
 40
1.0
 40
1.0
 40
1.0
 40
1.0
 10
184.1058864568542
 20
100.7797621399037
 30
0.0
 10
183.8067620278136
 20
100.7797621399037
 30
0.0
 10
183.5129395795647
 20
100.7712480388373
 30
0.0
 10
182.9353753033184
 20
100.7388042699554
 30
0.0
 10
182.6485576255045
 20
100.7144703812534
 30
0.0
 10
182.1040950966051
 20
100.6540103564966
 30
0.0
 10
181.8461398259838
 20
100.6180969357181
 30
0.0
 10
181.3580818826239
 20
100.5383869096489
 30
0.0
 10
181.1283835839602
 20
100.4945086084596
 30
0.0
 10
180.7159646010075
 20
100.4062649860894
 30
0.0
 10
180.5304376581474
 20
100.3614566446284
 30
0.0
 10
180.2019176132467
 20
100.2741356367093
 30
0.0
 10
180.0635037263472
 20
100.2328448481336
 30
0.0
 10
179.8389115797312
 20
100.1585066248398
 30
0.0
 10
179.751832767607
 20
100.1250964991051
 30
0.0
 10
179.635330959652
 20
100.070077097579
 30
0.0
 10
179.6058864568542
 20
100.0486153311127
 30
0.0
 10
179.6058864568542
 20
100.0336623074949
 30
0.0
  0
LINE
  5
73
330
1F
100
AcDbEntity
  8
0
  6
Continuous
 62
     7
370
    15
100
AcDbLine
 10
179.6058869218
 20
100.0336624343
 30
0.0
 11
179.6058869218
 21
100.00864711
 31
0.0
  0
SPLINE
  5
74
330
1F
100
AcDbEntity
  8
0
  6
Continuous
 62
     7
370
    15
100
AcDbSpline
210
0.0
220
0.0
230
1.0
 70
     8
 71
     3
 72
    24
 73
    20
 74
     0
 42
0.00000001
 43
0.00000001
 12
1.0
 22
0.0
 32
0.0
 13
1.0
 23
0.0
 33
0.0
 40
0.0
 40
0.0
 40
0.0
 40
0.0
 40
0.1044355203025396
 40
0.1572653354583596
 40
0.211004950198399
 40
0.3152810791117319
 40
0.3681883439605294
 40
0.42183903504904
 40
0.4746767660654659
 40
0.5278757981707282
 40
0.5816338834943556
 40
0.6361588648319481
 40
0.689349179147452
 40
0.7429162409948481
 40
0.7976857202489697
 40
0.8528772759434852
 40
0.9053721594663341
 40
0.9582459399847796
 40
0.9999999999999999
 40
0.9999999999999999
 40
0.9999999999999999
 40
0.9999999999999999
 10
184.1058867280553
 20
139.495822753412
 30
0.0
 10
183.8587800109206
 20
139.4984418057139
 30
0.0
 10
183.4866717411325
 20
139.5023857333895
 30
0.0
 10
182.9987134954599
 20
139.5262241227096
 30
0.0
 10
182.5218316261028
 20
139.5575509637353
 30
0.0
 10
182.0648736609427
 20
139.6003695412864
 30
0.0
 10
181.6388449739004
 20
139.6505345812864
 30
0.0
 10
181.3339922356167
 20
139.6912486557695
 30
0.0
 10
181.0480285746189
 20
139.7336552363218
 30
0.0
 10
180.7830434123585
 20
139.7765557439518
 30
0.0
 10
180.5386280958816
 20
139.8191953945669
 30
0.0
 10
180.3195622497886
 20
139.8599096256825
 30
0.0
 10
180.1275157451065
 20
139.897524563036
 30
0.0
 10
179.9630928015658
 20
139.9311339499395
 30
0.0
 10
179.8266760292834
 20
139.9600123056686
 30
0.0
 10
179.7222149416286
 20
139.9827352306116
 30
0.0
 10
179.6511696985522
 20
139.9984831069259
 30
0.0
 10
179.6111654974416
 20
140.0074562716816
 30
0.0
 10
179.6093969783954
 20
140.0078567129451
 30
0.0
 10
179.6086166282366
 20
140.0080334056442
 30
0.0
  0
LINE
  5
75
330
1F
100
AcDbEntity
  8
0
  6
Continuous
 62
     7
370
    15
100
AcDbLine
 10
185.6207266678
 20
139.4958227534
 30
0.0
 11
184.1058867281
 21
139.4958227534
 31
0.0
  0
LINE
  5
76
330
1F
100
AcDbEntity
  8
0
  6
Continuous
 62
     7
370
    15
100
AcDbLine
 10
185.6207266678
 20
136.1200559546
 30
0.0
 11
185.6207266678
 21
139.4958227534
 31
0.0
  0
LINE
  5
77
330
1F
100
AcDbEntity
  8
0
  6
Continuous
 62
     7
370
    15
100
AcDbLine
 10
184.0995565285
 20
136.1200559546
 30
0.0
 11
185.6207266678
 21
136.1200559546
 31
0.0
  0
SPLINE
  5
78
330
1F
100
AcDbEntity
  8
0
  6
Continuous
 62
     7
370
    15
100
AcDbSpline
210
0.0
220
0.0
230
1.0
 70
     8
 71
     3
 72
    22
 73
    18
 74
     0
 42
0.00000001
 43
0.00000001
 12
1.0
 22
0.0
 32
0.0
 13
1.0
 23
0.0
 33
0.0
 40
0.0
 40
0.0
 40
0.0
 40
0.0
 40
0.2500000000000006
 40
0.2500000000000006
 40
0.3750000000000004
 40
0.3750000000000004
 40
0.5000000000000003
 40
0.5000000000000003
 40
0.6250000000000002
 40
0.6250000000000002
 40
0.75
 40
0.75
 40
0.8749999999999999
 40
0.8749999999999999
 40
0.9375
 40
0.9375
 40
1.0
 40
1.0
 40
1.0
 40
1.0
 10
179.6058864568542
 20
131.8586466629331
 30
0.0
 10
179.6278674748408
 20
132.4215193048312
 30
0.0
 10
179.7068443581956
 20
132.9521441885607
 30
0.0
 10
179.9532422512279
 20
133.6978551794823
 30
0.0
 10
180.0577668663189
 20
133.939475405881
 30
0.0
 10
180.3196134616254
 20
134.3983341812069
 30
0.0
 10
180.4748300837912
 20
134.6125128536767
 30
0.0
 10
180.8434218368551
 20
135.0097414128223
 30
0.0
 10
181.0595555293201
 20
135.1941862478421
 30
0.0
 10
181.5434500243069
 20
135.5152660957257
 30
0.0
 10
181.8139155693147
 20
135.6546169258317
 30
0.0
 10
182.4101421348248
 20
135.8839224602573
 30
0.0
 10
182.7256354015448
 20
135.9704584697336
 30
0.0
 10
183.2263520495633
 20
136.0593480740648
 30
0.0
 10
183.3991484841785
 20
136.0821565799264
 30
0.0
 10
183.7475172569605
 20
136.1124477426227
 30
0.0
 10
183.9229182858709
 20
136.1200556640106
 30
0.0
 10
184.0995569315589
 20
136.1200556640106
 30
0.0
  0
LINE
  5
79
330
1F
100
AcDbEntity
  8
0
  6
Continuous
 62
     7
370
    15
100
AcDbLine
 10
171.6558864569
 20
100.3086466003
 30
0.0
 11
171.6558864569
 21
139.7086467255
 31
0.0
  0
LINE
  5
7A
330
1F
100
AcDbEntity
  8
0
  6
Continuous
 62
     7
370
    15
100
AcDbLine
 10
191.6058870261
 20
101.4046139676
 30
0.0
 11
191.6058870261
 21
131.8586470221
 31
0.0
  0
SPLINE
  5
7B
330
1F
100
AcDbEntity
  8
0
  6
Continuous
 62
     7
370
    15
100
AcDbSpline
210
0.0
220
0.0
230
1.0
 70
     8
 71
     3
 72
    10
 73
     6
 74
     0
 42
0.00000001
 43
0.00000001
 12
1.0
 22
0.0
 32
0.0
 13
1.0
 23
0.0
 33
0.0
 40
0.0
 40
0.0
 40
0.0
 40
0.0
 40
0.5
 40
0.5
 40
1.0
 40
1.0
 40
1.0
 40
1.0
 10
191.6058864568542
 20
101.4046148418466
 30
0.0
 10
191.6058864568542
 20
101.2449826729434
 30
0.0
 10
191.5442499431489
 20
101.0839330391793
 30
0.0
 10
191.325223576906
 20
100.8509421555027
 30
0.0
 10
191.1676066888585
 20
100.7797621399037
 30
0.0
 10
191.0058864568541
 20
100.7797621399037
 30
0.0
  0
SPLINE
  5
7C
330
1F
100
AcDbEntity
  8
0
  6
Continuous
 62
     7
370
    15
100
AcDbSpline
210
0.0
220
0.0
230
1.0
 70
    24
 71
     3
 72
    12
 73
     8
 74
     0
 42
0.00000001
 43
0.00000001
 12
1.0
 22
0.0
 32
0.0
 13
1.0
 23
0.0
 33
0.0
 40
0.0
 40
0.0
 40
0.0
 40
0.0
 40
0.250000000000002
 40
0.250000000000002
 40
0.500000000000004
 40
0.500000000000004
 40
1.0
 40
1.0
 40
1.0
 40
1.0
 10
191.0058864568542
 20
131.8586466629332
 30
0.0
 10
191.094073322223
 20
131.8586466629331
 30
0.0
 10
191.1827607155243
 20
131.8586466629332
 30
0.0
 10
191.3370132086432
 20
131.8586466629332
 30
0.0
 10
191.4023591897191
 20
131.8586466629331
 30
0.0
 10
191.5567690596702
 20
131.8586466629332
 30
0.0
 10
191.6058864568542
 20
131.8586466629332
 30
0.0
 10
191.6058864568542
 20
131.8586466629332
 30
0.0
  0
LINE
  5
7D
330
1F
100
AcDbEntity
  8
0
  6
Continuous
 62
     7
370
    15
100
AcDbLine
 10
186.6158867483
 20
102.5795239616
 30
0.0
 11
186.6158867483
 21
131.8586470221
 31
0.0
  0
SPLINE
  5
7E
330
1F
100
AcDbEntity
  8
0
  6
Continuous
 62
     7
370
    15
100
AcDbSpline
210
0.0
220
0.0
230
1.0
 70
     8
 71
     3
 72
     8
 73
     4
 74
     0
 42
0.00000001
 43
0.00000001
 12
1.0
 22
0.0
 32
0.0
 13
1.0
 23
0.0
 33
0.0
 40
0.0
 40
0.0
 40
0.0
 40
0.0
 40
1.0
 40
1.0
 40
1.0
 40
1.0
 10
186.6158864568542
 20
102.5795232749434
 30
0.0
 10
186.2852478302396
 20
101.9790029238324
 30
0.0
 10
185.9534320296661
 20
101.3791338131274
 30
0.0
 10
185.6207267579607
 20
100.7797621399037
 30
0.0
  0
SPLINE
  5
7F
330
1F
100
AcDbEntity
  8
0
  6
Continuous
 62
     7
370
    15
100
AcDbSpline
210
0.0
220
0.0
230
1.0
 70
    24
 71
     3
 72
     8
 73
     4
 74
     0
 42
0.00000001
 43
0.00000001
 12
1.0
 22
0.0
 32
0.0
 13
1.0
 23
0.0
 33
0.0
 40
0.0
 40
0.0
 40
0.0
 40
0.0
 40
1.0
 40
1.0
 40
1.0
 40
1.0
 10
185.6207267579607
 20
131.8586466629332
 30
0.0
 10
185.9597595797153
 20
131.8586466629332
 30
0.0
 10
186.2922498012319
 20
131.8586466629332
 30
0.0
 10
186.6158864568542
 20
131.8586466629332
 30
0.0
  0
LINE
  5
80
330
1F
100
AcDbEntity
  8
0
  6
Continuous
 62
     7
370
    15
100
AcDbLine
 10
189.6910468345
 20
100.7797617127
 30
0.0
 11
189.6910468345
 21
131.8586470221
 31
0.0
  0
SPLINE
  5
81
330
1F
100
AcDbEntity
  8
0
  6
Continuous
 62
     7
370
    15
100
AcDbSpline
210
0.0
220
0.0
230
1.0
 70
     8
 71
     3
 72
     8
 73
     4
 74
     0
 42
0.00000001
 43
0.00000001
 12
1.0
 22
0.0
 32
0.0
 13
1.0
 23
0.0
 33
0.0
 40
0.0
 40
0.0
 40
0.0
 40
0.0
 40
1.0
 40
1.0
 40
1.0
 40
1.0
 10
189.6910461557476
 20
100.7797621399037
 30
0.0
 10
189.3583408840423
 20
101.3791338131274
 30
0.0
 10
189.0265250834688
 20
101.9790029238324
 30
0.0
 10
188.6958864568542
 20
102.5795232749434
 30
0.0
  0
LINE
  5
82
330
1F
100
AcDbEntity
  8
0
  6
Continuous
 62
     7
370
    15
100
AcDbLine
 10
188.6958858227
 20
102.5795239616
 30
0.0
 11
188.6958858227
 21
131.8586470221
 31
0.0
  0
SPLINE
  5
83
330
1F
100
AcDbEntity
  8
0
  6
Continuous
 62
     7
370
    15
100
AcDbSpline
210
0.0
220
0.0
230
1.0
 70
    24
 71
     3
 72
     8
 73
     4
 74
     0
 42
0.00000001
 43
0.00000001
 12
1.0
 22
0.0
 32
0.0
 13
1.0
 23
0.0
 33
0.0
 40
0.0
 40
0.0
 40
0.0
 40
0.0
 40
1.0
 40
1.0
 40
1.0
 40
1.0
 10
188.6958864568542
 20
131.8586466629332
 30
0.0
 10
189.0195231124764
 20
131.8586466629332
 30
0.0
 10
189.352013333993
 20
131.8586466629332
 30
0.0
 10
189.6910461557476
 20
131.8586466629332
 30
0.0
  0
LINE
  5
84
330
1F
100
AcDbEntity
  8
0
  6
Continuous
 62
     7
370
    15
100
AcDbLine
 10
191.0058861827
 20
100.7797617127
 30
0.0
 11
189.6910468345
 21
100.7797617127
 31
0.0
  0
LINE
  5
85
330
1F
100
AcDbEntity
  8
0
  6
Continuous
 62
     7
370
    15
100
AcDbLine
 10
189.6910468345
 20
131.8586470221
 30
0.0
 11
191.0058861827
 21
131.8586470221
 31
0.0
  0
SPLINE
  5
86
330
1F
100
AcDbEntity
  8
0
  6
Continuous
 62
     7
370
    15
100
AcDbSpline
210
0.0
220
0.0
230
1.0
 70
    24
 71
     3
 72
    16
 73
    12
 74
     0
 42
0.00000001
 43
0.00000001
 12
1.0
 22
0.0
 32
0.0
 13
1.0
 23
0.0
 33
0.0
 40
0.0
 40
0.0
 40
0.0
 40
0.0
 40
0.0625
 40
0.0625
 40
0.125
 40
0.125
 40
0.2499999999999993
 40
0.2499999999999993
 40
0.4999999999999993
 40
0.4999999999999993
 40
1.0
 40
1.0
 40
1.0
 40
1.0
 10
187.2158864568542
 20
103.1086466629331
 30
0.0
 10
187.1807799682401
 20
103.1086466629331
 30
0.0
 10
187.147685283154
 20
103.1086466629331
 30
0.0
 10
187.0910855712282
 20
103.1086466629331
 30
0.0
 10
187.0667835170926
 20
103.1086466629331
 30
0.0
 10
187.0022555284517
 20
103.1086466629331
 30
0.0
 10
186.9686667029355
 20
103.1086466629331
 30
0.0
 10
186.8806272885865
 20
103.1086466629331
 30
0.0
 10
186.837519524714
 20
103.1086466629331
 30
0.0
 10
186.7270853105409
 20
103.1086466629331
 30
0.0
 10
186.6809052921635
 20
103.1086466629331
 30
0.0
 10
186.6511088574356
 20
103.1086466629331
 30
0.0
  0
SPLINE
  5
87
330
1F
100
AcDbEntity
  8
0
  6
Continuous
 62
     7
370
    15
100
AcDbSpline
210
0.0
220
0.0
230
1.0
 70
    24
 71
     3
 72
    14
 73
    10
 74
     0
 42
0.00000001
 43
0.00000001
 12
1.0
 22
0.0
 32
0.0
 13
1.0
 23
0.0
 33
0.0
 40
0.0
 40
0.0
 40
0.0
 40
0.0
 40
0.25
 40
0.25
 40
0.5
 40
0.5
 40
0.75
 40
0.75
 40
1.0
 40
1.0
 40
1.0
 40
1.0
 10
186.6158864568542
 20
131.8586466629332
 30
0.0
 10
186.6158864568542
 20
131.8586466629331
 30
0.0
 10
186.6277634681151
 20
131.8586466629332
 30
0.0
 10
186.676291957895
 20
131.8586466629332
 30
0.0
 10
186.7127104141193
 20
131.8586466629332
 30
0.0
 10
186.8128377486479
 20
131.8586466629332
 30
0.0
 10
186.8760145600839
 20
131.8586466629332
 30
0.0
 10
187.0315850627698
 20
131.8586466629332
 30
0.0
 10
187.1234614105246
 20
131.8586466629332
 30
0.0
 10
187.2158864568554
 20
131.8586466629332
 30
0.0
  0
SPLINE
  5
88
330
1F
100
AcDbEntity
  8
0
  6
Continuous
 62
     7
370
    15
100
AcDbSpline
210
0.0
220
0.0
230
1.0
 70
    24
 71
     3
 72
    16
 73
    12
 74
     0
 42
0.00000001
 43
0.00000001
 12
1.0
 22
0.0
 32
0.0
 13
1.0
 23
0.0
 33
0.0
 40
0.0
 40
0.0
 40
0.0
 40
0.0
 40
0.4999999999999977
 40
0.4999999999999977
 40
0.749999999999998
 40
0.749999999999998
 40
0.8749999999999997
 40
0.8749999999999997
 40
0.9374999999999999
 40
0.9374999999999999
 40
1.0
 40
1.0
 40
1.0
 40
1.0
 10
188.6606640562729
 20
103.1086466629331
 30
0.0
 10
188.6306897384187
 20
103.1086466629331
 30
0.0
 10
188.5841733438134
 20
103.1086466629331
 30
0.0
 10
188.4743120380792
 20
103.1086466629331
 30
0.0
 10
188.4311593875497
 20
103.1086466629331
 30
0.0
 10
188.3423753344357
 20
103.1086466629331
 30
0.0
 10
188.3091861665573
 20
103.1086466629331
 30
0.0
 10
188.2444398662076
 20
103.1086466629331
 30
0.0
 10
188.2201686552253
 20
103.1086466629331
 30
0.0
 10
188.1637073780062
 20
103.1086466629331
 30
0.0
 10
188.1309037719329
 20
103.1086466629331
 30
0.0
 10
188.0958864568541
 20
103.1086466629331
 30
0.0
  0
SPLINE
  5
89
330
1F
100
AcDbEntity
  8
0
  6
Continuous
 62
     7
370
    15
100
AcDbSpline
210
0.0
220
0.0
230
1.0
 70
    24
 71
     3
 72
    12
 73
     8
 74
     0
 42
0.00000001
 43
0.00000001
 12
1.0
 22
0.0
 32
0.0
 13
1.0
 23
0.0
 33
0.0
 40
0.0
 40
0.0
 40
0.0
 40
0.0
 40
0.2500000000000013
 40
0.2500000000000013
 40
0.5000000000000026
 40
0.5000000000000026
 40
1.0
 40
1.0
 40
1.0
 40
1.0
 10
188.0958864568542
 20
131.8586466629332
 30
0.0
 10
188.1881894560428
 20
131.8586466629332
 30
0.0
 10
188.2809331520018
 20
131.8586466629331
 30
0.0
 10
188.4359828822954
 20
131.8586466629332
 30
0.0
 10
188.4994328538978
 20
131.8586466629332
 30
0.0
 10
188.6486929449579
 20
131.8586466629332
 30
0.0
 10
188.6958864568542
 20
131.8586466629331
 30
0.0
 10
188.6958864568542
 20
131.8586466629332
 30
0.0
  0
SPLINE
  5
8A
330
1F
100
AcDbEntity
  8
0
  6
Continuous
 62
     7
370
    15
100
AcDbSpline
210
0.0
220
0.0
230
1.0
 70
    24
 71
     3
 72
    10
 73
     6
 74
     0
 42
0.00000001
 43
0.00000001
 12
1.0
 22
0.0
 32
0.0
 13
1.0
 23
0.0
 33
0.0
 40
0.0
 40
0.0
 40
0.0
 40
0.0
 40
0.4999999999999999
 40
0.4999999999999999
 40
1.0
 40
1.0
 40
1.0
 40
1.0
 10
191.8058864568542
 20
136.9086466629331
 30
0.0
 10
191.8058864568542
 20
136.9086466629331
 30
0.0
 10
191.7632409920358
 20
136.9086466629331
 30
0.0
 10
191.6633292038963
 20
136.9086466629331
 30
0.0
 10
191.6081033325148
 20
136.9086466629331
 30
0.0
 10
191.6059485799775
 20
136.9086466629331
 30
0.0
  0
SPLINE
  5
8B
330
1F
100
AcDbEntity
  8
0
  6
Continuous
 62
     7
370
    15
100
AcDbSpline
210
0.0
220
0.0
230
1.0
 70
    24
 71
     3
 72
    10
 73
     6
 74
     0
 42
0.00000001
 43
0.00000001
 12
1.0
 22
0.0
 32
0.0
 13
1.0
 23
0.0
 33
0.0
 40
0.0
 40
0.0
 40
0.0
 40
0.0
 40
0.5000000000000001
 40
0.5000000000000001
 40
1.0
 40
1.0
 40
1.0
 40
1.0
 10
191.8058864568542
 20
103.1086466629331
 30
0.0
 10
191.8058864568542
 20
103.1086466629331
 30
0.0
 10
191.7623542124561
 20
103.1086466629331
 30
0.0
 10
191.6613463104261
 20
103.1086466629331
 30
0.0
 10
191.6058864568542
 20
103.1086466629331
 30
0.0
 10
191.6058864568542
 20
103.1086466629331
 30
0.0
  0
SPLINE
  5
8C
330
1F
100
AcDbEntity
  8
0
  6
Continuous
 62
     7
370
    15
100
AcDbSpline
210
0.0
220
0.0
230
1.0
 70
    24
 71
     3
 72
    12
 73
     8
 74
     0
 42
0.00000001
 43
0.00000001
 12
1.0
 22
0.0
 32
0.0
 13
1.0
 23
0.0
 33
0.0
 40
0.0
 40
0.0
 40
0.0
 40
0.0
 40
0.5000000000000022
 40
0.5000000000000022
 40
0.7500000000000011
 40
0.7500000000000011
 40
1.0
 40
1.0
 40
1.0
 40
1.0
 10
191.6058864568542
 20
131.8586466629332
 30
0.0
 10
191.6058864568542
 20
131.8586466629332
 30
0.0
 10
191.6331072049818
 20
131.8586466629331
 30
0.0
 10
191.7135536507547
 20
131.8586466629332
 30
0.0
 10
191.7470008792328
 20
131.8586466629331
 30
0.0
 10
191.829410449007
 20
131.8586466629332
 30
0.0
 10
191.8786935458907
 20
131.8586466629331
 30
0.0
 10
191.9350101685272
 20
131.8586466629332
 30
0.0
  0
SPLINE
  5
8D
330
1F
100
AcDbEntity
  8
0
  6
Continuous
 62
     7
370
    15
100
AcDbSpline
210
0.0
220
0.0
230
1.0
 70
     8
 71
     3
 72
    10
 73
     6
 74
     0
 42
0.00000001
 43
0.00000001
 12
1.0
 22
0.0
 32
0.0
 13
1.0
 23
0.0
 33
0.0
 40
0.0
 40
0.0
 40
0.0
 40
0.0
 40
0.5
 40
0.5
 40
1.0
 40
1.0
 40
1.0
 40
1.0
 10
191.6058864568541
 20
132.8860493513637
 30
0.0
 10
191.6058864568541
 20
132.7033406392288
 30
0.0
 10
191.6328597905622
 20
132.5198323494679
 30
0.0
 10
191.740450158348
 20
132.1715283711473
 30
0.0
 10
191.8219147026912
 20
132.0033407886044
 30
0.0
 10
191.935010168527
 20
131.8586466629317
 30
0.0
  0
LINE
  5
8E
330
1F
100
AcDbEntity
  8
0
  6
Continuous
 62
     7
370
    15
100
AcDbLine
 10
188.0958868419
 20
103.1086474318
 30
0.0
 11
187.2158866604
 21
103.1086474318
 31
0.0
  0
LINE
  5
8F
330
1F
100
AcDbEntity
  8
0
  6
Continuous
 62
     7
370
    15
100
AcDbLine
 10
187.2158866604
 20
131.8586470221
 30
0.0
 11
188.0958868419
 21
131.8586470221
 31
0.0
  0
ELLIPSE
  5
90
330
1F
100
AcDbEntity
  8
0
  6
Continuous
 62
     7
370
    15
100
AcDbEllipse
 10
268.3939601134
 20
120.0086466629
 30
0.0
 11
156.986727460918
 21
2.896208653788079
 31
0.0
210
0.0
220
0.0
230
1.0
 40
0.1034726254
 41
1.978393697675621
 42
2.011171845226037
  0
SPLINE
  5
91
330
1F
100
AcDbEntity
  8
0
  6
Continuous
 62
     7
370
    15
100
AcDbSpline
210
0.0
220
0.0
230
1.0
 70
     8
 71
     3
 72
    12
 73
     8
 74
     0
 42
0.00000001
 43
0.00000001
 12
1.0
 22
0.0
 32
0.0
 13
1.0
 23
0.0
 33
0.0
 40
0.0
 40
0.0
 40
0.0
 40
0.0
 40
0.2500000000000018
 40
0.2500000000000018
 40
0.5000000000000037
 40
0.5000000000000037
 40
1.0
 40
1.0
 40
1.0
 40
1.0
 10
200.5135813357162
 20
133.0771115166314
 30
0.0
 10
200.5332746061973
 20
133.1277527045102
 30
0.0
 10
200.5630567229086
 20
133.1753231111475
 30
0.0
 10
200.6440062373661
 20
133.264314272833
 30
0.0
 10
200.6950754830868
 20
133.3051074303534
 30
0.0
 10
200.874148402679
 20
133.4095765048264
 30
0.0
 10
201.0327677776031
 20
133.4566539245019
 30
0.0
 10
201.2026992261333
 20
133.4680851510734
 30
0.0
  0
ELLIPSE
  5
92
330
1F
100
AcDbEntity
  8
0
  6
Continuous
 62
     7
370
    15
100
AcDbEllipse
 10
202.5635663887
 20
120.0086466629
 30
0.0
 11
0.8249710662703649
 21
16.49857054117957
 31
0.0
210
0.0
220
0.0
230
1.0
 40
0.263265937
 41
0.669835432945312
 42
2.847149501692193
  0
SPLINE
  5
93
330
1F
100
AcDbEntity
  8
0
  6
Continuous
 62
     7
370
    15
100
AcDbSpline
210
0.0
220
0.0
230
1.0
 70
     8
 71
     3
 72
    10
 73
     6
 74
     0
 42
0.00000001
 43
0.00000001
 12
1.0
 22
0.0
 32
0.0
 13
1.0
 23
0.0
 33
0.0
 40
0.0
 40
0.0
 40
0.0
 40
0.0
 40
0.5
 40
0.5
 40
1.0
 40
1.0
 40
1.0
 40
1.0
 10
201.2026992261334
 20
104.0965714139538
 30
0.0
 10
201.0331501687819
 20
104.1017879836296
 30
0.0
 10
200.8768355308509
 20
104.1226227307399
 30
0.0
 10
200.6342839054618
 20
104.1890405459929
 30
0.0
 10
200.5529131476609
 20
104.2329769220689
 30
0.0
 10
200.5135813357162
 20
104.2831395135908
 30
0.0
  0
ELLIPSE
  5
94
330
1F
100
AcDbEntity
  8
0
  6
Continuous
 62
     7
370
    15
100
AcDbEllipse
 10
268.3939601134
 20
120.0086466629
 30
0.0
 11
156.986727460918
 21
2.896208653788079
 31
0.0
210
0.0
220
0.0
230
1.0
 40
0.1034726254
 41
4.268195585704877
 42
4.300973733255288
  0
ELLIPSE
  5
95
330
1F
100
AcDbEntity
  8
0
  6
Continuous
 62
     7
370
    15
100
AcDbEllipse
 10
199.6084627554
 20
112.6034088132
 30
0.0
 11
-0.08862855635081245
 21
2.643999540241638
 31
0.0
210
0.0
220
0.0
230
1.0
 40
0.2249376801
 41
0.0
 42
6.283185307179586
  0
LINE
  5
96
330
1F
100
AcDbEntity
  8
0
  6
Continuous
 62
     7
370
    15
100
AcDbLine
 10
157.8558866163
 20
105.4961282421
 30
0.0
 11
157.8558866163
 21
106.3719002191
 31
0.0
  0
SPLINE
  5
97
330
1F
100
AcDbEntity
  8
0
  6
Continuous
 62
     7
370
    15
100
AcDbSpline
210
0.0
220
0.0
230
1.0
 70
     8
 71
     3
 72
    12
 73
     8
 74
     0
 42
0.00000001
 43
0.00000001
 12
1.0
 22
0.0
 32
0.0
 13
1.0
 23
0.0
 33
0.0
 40
0.0
 40
0.0
 40
0.0
 40
0.0
 40
0.2499999999999999
 40
0.2499999999999999
 40
0.4999999999999998
 40
0.4999999999999998
 40
1.0
 40
1.0
 40
1.0
 40
1.0
 10
157.4881513639973
 20
107.0782708000484
 30
0.0
 10
157.5135755808912
 20
107.0113852069746
 30
0.0
 10
157.5541874204605
 20
106.946936717291
 30
0.0
 10
157.6387885667327
 20
106.8219360572131
 30
0.0
 10
157.6828853630182
 20
106.761417312021
 30
0.0
 10
157.7989544715043
 20
106.5852112559126
 30
0.0
 10
157.8558864568542
 20
106.4748168409408
 30
0.0
 10
157.8558864568542
 20
106.3718999648476
 30
0.0
  0
SPLINE
  5
98
330
1F
100
AcDbEntity
  8
0
  6
Continuous
 62
     7
370
    15
100
AcDbSpline
210
0.0
220
0.0
230
1.0
 70
     8
 71
     3
 72
    14
 73
    10
 74
     0
 42
0.00000001
 43
0.00000001
 12
1.0
 22
0.0
 32
0.0
 13
1.0
 23
0.0
 33
0.0
 40
0.0
 40
0.0
 40
0.0
 40
0.0
 40
0.1250000000000004
 40
0.1250000000000004
 40
0.2500000000000008
 40
0.2500000000000008
 40
0.5000000000000017
 40
0.5000000000000017
 40
1.0
 40
1.0
 40
1.0
 40
1.0
 10
156.9558864568542
 20
107.5682766154221
 30
0.0
 10
157.0048987796655
 20
107.5728016745772
 30
0.0
 10
157.0577050046609
 20
107.5646822890227
 30
0.0
 10
157.1427720963904
 20
107.5343522138713
 30
0.0
 10
157.1773562817312
 20
107.5136972567948
 30
0.0
 10
157.2659119670685
 20
107.449161133468
 30
0.0
 10
157.3068476683897
 20
107.4019229534154
 30
0.0
 10
157.4107281952926
 20
107.2621268521317
 30
0.0
 10
157.4539519947247
 20
107.1682419132624
 30
0.0
 10
157.4881513639973
 20
107.0782708000484
 30
0.0
  0
SPLINE
  5
99
330
1F
100
AcDbEntity
  8
0
  6
Continuous
 62
     7
370
    15
100
AcDbSpline
210
0.0
220
0.0
230
1.0
 70
     8
 71
     3
 72
    10
 73
     6
 74
     0
 42
0.00000001
 43
0.00000001
 12
1.0
 22
0.0
 32
0.0
 13
1.0
 23
0.0
 33
0.0
 40
0.0
 40
0.0
 40
0.0
 40
0.0
 40
0.5
 40
0.5
 40
1.0
 40
1.0
 40
1.0
 40
1.0
 10
154.0350630651557
 20
107.2420245358556
 30
0.0
 10
154.5076331221539
 20
107.3090100524345
 30
0.0
 10
154.9931956041476
 20
107.3671878682345
 30
0.0
 10
155.9695734978129
 20
107.4740536115399
 30
0.0
 10
156.46157171692
 20
107.5226390428451
 30
0.0
 10
156.9558864568542
 20
107.5682766154221
 30
0.0
  0
SPLINE
  5
9A
330
1F
100
AcDbEntity
  8
0
  6
Continuous
 62
     7
370
    15
100
AcDbSpline
210
0.0
220
0.0
230
1.0
 70
     8
 71
     3
 72
    10
 73
     6
 74
     0
 42
0.00000001
 43
0.00000001
 12
1.0
 22
0.0
 32
0.0
 13
1.0
 23
0.0
 33
0.0
 40
0.0
 40
0.0
 40
0.0
 40
0.0
 40
0.5
 40
0.5
 40
1.0
 40
1.0
 40
1.0
 40
1.0
 10
152.7648864568542
 20
107.1575797853768
 30
0.0
 10
152.9802454874115
 20
107.1645926163473
 30
0.0
 10
153.1946868257355
 20
107.1733673400026
 30
0.0
 10
153.619678044356
 20
107.1984205175505
 30
0.0
 10
153.8310507760787
 20
107.2131063503508
 30
0.0
 10
154.0350630651557
 20
107.2420245358556
 30
0.0
  0
SPLINE
  5
9B
330
1F
100
AcDbEntity
  8
0
  6
Continuous
 62
     7
370
    15
100
AcDbSpline
210
0.0
220
0.0
230
1.0
 70
     8
 71
     3
 72
     8
 73
     4
 74
     0
 42
0.00000001
 43
0.00000001
 12
1.0
 22
0.0
 32
0.0
 13
1.0
 23
0.0
 33
0.0
 40
0.0
 40
0.0
 40
0.0
 40
0.0
 40
1.0
 40
1.0
 40
1.0
 40
1.0
 10
152.6973703072851
 20
107.3054689633895
 30
0.0
 10
152.7115047519133
 20
107.2546726397563
 30
0.0
 10
152.7345621270618
 20
107.2054338891961
 30
0.0
 10
152.7648864568542
 20
107.1575797853769
 30
0.0
  0
ELLIPSE
  5
9C
330
1F
100
AcDbEntity
  8
0
  6
Continuous
 62
     7
370
    15
100
AcDbEllipse
 10
139.229144249
 20
119.3693489852
 30
0.0
 11
13.37355272666625
 21
-13.37146352987014
 31
0.0
210
0.0
220
0.0
230
1.0
 40
0.1761188775
 41
0.3023035477142531
 42
0.3822730435340397
  0
ELLIPSE
  5
9D
330
1F
100
AcDbEntity
  8
0
  6
Continuous
 62
     7
370
    15
100
AcDbEllipse
 10
139.1497658183
 20
120.6477571142
 30
0.0
 11
13.369636111343
 21
13.36754752639482
 31
0.0
210
0.0
220
0.0
230
1.0
 40
0.1761188775
 41
5.933076931846601
 42
5.976720052691199
  0
SPLINE
  5
9E
330
1F
100
AcDbEntity
  8
0
  6
Continuous
 62
     7
370
    15
100
AcDbSpline
210
0.0
220
0.0
230
1.0
 70
     8
 71
     3
 72
     8
 73
     4
 74
     0
 42
0.00000001
 43
0.00000001
 12
1.0
 22
0.0
 32
0.0
 13
1.0
 23
0.0
 33
0.0
 40
0.0
 40
0.0
 40
0.0
 40
0.0
 40
1.0
 40
1.0
 40
1.0
 40
1.0
 10
152.7058864568542
 20
132.8742272099115
 30
0.0
 10
152.6601215491649
 20
132.8127068307526
 30
0.0
 10
152.6257344275349
 20
132.7488119710032
 30
0.0
 10
152.606719173862
 20
132.6820820259595
 30
0.0
  0
SPLINE
  5
9F
330
1F
100
AcDbEntity
  8
0
  6
Continuous
 62
     7
370
    15
100
AcDbSpline
210
0.0
220
0.0
230
1.0
 70
     8
 71
     3
 72
    12
 73
     8
 74
     0
 42
0.00000001
 43
0.00000001
 12
1.0
 22
0.0
 32
0.0
 13
1.0
 23
0.0
 33
0.0
 40
0.0
 40
0.0
 40
0.0
 40
0.0
 40
0.2500000000000001
 40
0.2500000000000001
 40
0.5000000000000001
 40
0.5000000000000001
 40
1.0
 40
1.0
 40
1.0
 40
1.0
 10
154.4558864568542
 20
132.7894405215923
 30
0.0
 10
154.313844053665
 20
132.8052662497685
 30
0.0
 10
154.1697259471608
 20
132.8162873835439
 30
0.0
 10
153.8799714334883
 20
132.834823745411
 30
0.0
 10
153.7342295301295
 20
132.8420944511468
 30
0.0
 10
153.2955492909497
 20
132.8605553014748
 30
0.0
 10
153.0011736748785
 20
132.8684341682984
 30
0.0
 10
152.7058864568542
 20
132.8742272099115
 30
0.0
  0
SPLINE
  5
A0
330
1F
100
AcDbEntity
  8
0
  6
Continuous
 62
     7
370
    15
100
AcDbSpline
210
0.0
220
0.0
230
1.0
 70
     8
 71
     3
 72
    20
 73
    16
 74
     0
 42
0.00000001
 43
0.00000001
 12
1.0
 22
0.0
 32
0.0
 13
1.0
 23
0.0
 33
0.0
 40
0.0
 40
0.0
 40
0.0
 40
0.0
 40
0.2500000000000013
 40
0.2500000000000013
 40
0.5000000000000027
 40
0.5000000000000027
 40
0.750000000000004
 40
0.750000000000004
 40
0.8750000000000029
 40
0.8750000000000029
 40
0.9375000000000034
 40
0.9375000000000034
 40
0.9687500000000017
 40
0.9687500000000017
 40
1.0
 40
1.0
 40
1.0
 40
1.0
 10
155.3558864568551
 20
133.566170784681
 30
0.0
 10
155.3558864568551
 20
133.5055613849836
 30
0.0
 10
155.3304914372782
 20
133.43973541958
 30
0.0
 10
155.2441982514962
 20
133.3056876502334
 30
0.0
 10
155.183562272813
 20
133.2369922920916
 30
0.0
 10
155.0354604785917
 20
133.0965937404372
 30
0.0
 10
154.9486908718131
 20
133.0248902358558
 30
0.0
 10
154.8000530764839
 20
132.918726834107
 30
0.0
 10
154.7477638595977
 20
132.8831984854755
 30
0.0
 10
154.6570000312877
 20
132.83349455496
 30
0.0
 10
154.6246340388358
 20
132.8172335569449
 30
0.0
 10
154.5669448831695
 20
132.7981209885989
 30
0.0
 10
154.5459578552821
 20
132.7927298465174
 30
0.0
 10
154.5006688762916
 20
132.7869924781249
 30
0.0
 10
154.4776546074531
 20
132.7870152117783
 30
0.0
 10
154.4558864568535
 20
132.7894405215912
 30
0.0
  0
LINE
  5
A1
330
1F
100
AcDbEntity
  8
0
  6
Continuous
 62
     7
370
    15
100
AcDbLine
 10
155.3558862065
 20
133.5661710833
 30
0.0
 11
155.3558862065
 21
134.3959143047
 31
0.0
  0
LINE
  5
A2
330
1F
100
AcDbEntity
  8
0
  6
Continuous
 62
     7
370
    15
100
AcDbLine
 10
169.6558863619
 20
104.9049460922
 30
0.0
 11
169.6558863619
 21
135.1123472337
 31
0.0
  0
SPLINE
  5
A3
330
1F
100
AcDbEntity
  8
0
  6
Continuous
 62
     7
370
    15
100
AcDbSpline
210
0.0
220
0.0
230
1.0
 70
     8
 71
     3
 72
    24
 73
    20
 74
     0
 42
0.00000001
 43
0.00000001
 12
1.0
 22
0.0
 32
0.0
 13
1.0
 23
0.0
 33
0.0
 40
0.0
 40
0.0
 40
0.0
 40
0.0
 40
0.0016643193296813
 40
0.0648792890554526
 40
0.127882629835479
 40
0.1913652263153964
 40
0.2543782098387403
 40
0.3163193264594876
 40
0.3777469775702122
 40
0.4397082275190884
 40
0.5014189034197821
 40
0.562536076452263
 40
0.6237133677268287
 40
0.6863020174790898
 40
0.7490598999921412
 40
0.811592469235191
 40
0.8743360189604256
 40
0.9379727054607176
 40
1.0
 40
1.0
 40
1.0
 40
1.0
 10
162.840429343767
 20
105.2466800097649
 30
0.0
 10
162.8399519529415
 20
105.2466115989299
 30
0.0
 10
162.8213420763335
 20
105.2439447751678
 30
0.0
 10
162.8844826131426
 20
105.2536593380059
 30
0.0
 10
163.0365253702251
 20
105.2758640442138
 30
0.0
 10
163.30445088549
 20
105.3102997957472
 30
0.0
 10
163.6537646626768
 20
105.3487628064165
 30
0.0
 10
164.0808157246009
 20
105.3829908593638
 30
0.0
 10
164.5682553530158
 20
105.405443419204
 30
0.0
 10
165.0999057179571
 20
105.409037406935
 30
0.0
 10
165.6510263204581
 20
105.3920237776818
 30
0.0
 10
166.1984843112448
 20
105.3520780122386
 30
0.0
 10
166.7231185410004
 20
105.2929703995819
 30
0.0
 10
167.2049069394004
 20
105.2206059621608
 30
0.0
 10
167.6298555314099
 20
105.1442852906827
 30
0.0
 10
167.9760718448708
 20
105.0723013446916
 30
0.0
 10
168.231150157002
 20
105.0139143185279
 30
0.0
 10
168.3913455491394
 20
104.9742546622213
 30
0.0
 10
168.4119796115361
 20
104.9694299867576
 30
0.0
 10
168.4221645114194
 20
104.9670485440915
 30
0.0
  0
SPLINE
  5
A4
330
1F
100
AcDbEntity
  8
0
  6
Continuous
 62
     7
370
    15
100
AcDbSpline
210
0.0
220
0.0
230
1.0
 70
     8
 71
     3
 72
    24
 73
    20
 74
     0
 42
0.00000001
 43
0.00000001
 12
1.0
 22
0.0
 32
0.0
 13
1.0
 23
0.0
 33
0.0
 40
0.0
 40
0.0
 40
0.0
 40
0.0
 40
0.0629034706215385
 40
0.1256338688179741
 40
0.1890239793713884
 40
0.2513957684939822
 40
0.3139906836130308
 40
0.3762905044722344
 40
0.4374458894592898
 40
0.498543195540241
 40
0.5603281747675228
 40
0.6223344559749604
 40
0.6838864964282686
 40
0.7458035579052691
 40
0.8089499376965126
 40
0.8723245876864573
 40
0.9353799443000518
 40
0.9988635323362688
 40
1.0
 40
1.0
 40
1.0
 40
1.0
 10
168.4211656679581
 20
135.0502457130974
 30
0.0
 10
168.4116950416832
 20
135.0478229238288
 30
0.0
 10
168.3927798465868
 20
135.0429840113468
 30
0.0
 10
168.2307285501826
 20
135.0030124201694
 30
0.0
 10
167.9742033094369
 20
134.944668424597
 30
0.0
 10
167.6281471731437
 20
134.8724333266088
 30
0.0
 10
167.2042477802503
 20
134.7962840750967
 30
0.0
 10
166.7232648194124
 20
134.7241647735841
 30
0.0
 10
166.1992812624323
 20
134.6652772602763
 30
0.0
 10
165.6516833772253
 20
134.6253657376721
 30
0.0
 10
165.1002070611692
 20
134.6083299900569
 30
0.0
 10
164.5677657813878
 20
134.6118934611486
 30
0.0
 10
164.0797835697018
 20
134.6343267261156
 30
0.0
 10
163.6522714160694
 20
134.6686167409925
 30
0.0
 10
163.303369861297
 20
134.7071205357793
 30
0.0
 10
163.0361152408063
 20
134.7415765637339
 30
0.0
 10
162.8831809362855
 20
134.763659351072
 30
0.0
 10
162.822071285122
 20
134.7734880628227
 30
0.0
 10
162.8396544488101
 20
134.7707243204266
 30
0.0
 10
162.8399636824797
 20
134.7706757147138
 30
0.0
  0
SPLINE
  5
A5
330
1F
100
AcDbEntity
  8
0
  6
Continuous
 62
     7
370
    15
100
AcDbSpline
210
0.0
220
0.0
230
1.0
 70
     8
 71
     3
 72
    26
 73
    22
 74
     0
 42
0.00000001
 43
0.00000001
 12
1.0
 22
0.0
 32
0.0
 13
1.0
 23
0.0
 33
0.0
 40
0.0
 40
0.0
 40
0.0
 40
0.0
 40
0.2499999999999934
 40
0.2499999999999934
 40
0.3749999999999898
 40
0.3749999999999898
 40
0.4374999999999882
 40
0.4374999999999882
 40
0.4687499999999892
 40
0.4687499999999892
 40
0.4999999999999902
 40
0.4999999999999902
 40
0.5312499999999912
 40
0.5312499999999912
 40
0.5624999999999921
 40
0.5624999999999921
 40
0.6249999999999927
 40
0.6249999999999927
 40
0.749999999999995
 40
0.749999999999995
 40
1.0
 40
1.0
 40
1.0
 40
1.0
 10
152.515856503242
 20
132.396727242546
 30
0.0
 10
152.4684683938135
 20
132.2610715005229
 30
0.0
 10
152.4108270919091
 20
132.1171101021937
 30
0.0
 10
152.2887792793659
 20
131.8743375289393
 30
0.0
 10
152.2427302715893
 20
131.7892978884899
 30
0.0
 10
152.1520769874237
 20
131.6489219154496
 30
0.0
 10
152.1177244871381
 20
131.5990105381108
 30
0.0
 10
152.0552893147476
 20
131.5224752732565
 30
0.0
 10
152.0319952959495
 20
131.4960707942696
 30
0.0
 10
151.982942758823
 20
131.4484760290086
 30
0.0
 10
151.9585113091662
 20
131.4290334151567
 30
0.0
 10
151.9178817135464
 20
131.4041256374886
 30
0.0
 10
151.9017194316952
 20
131.3980558061777
 30
0.0
 10
151.8747373875921
 20
131.3923669345839
 30
0.0
 10
151.8639878647693
 20
131.3927574426646
 30
0.0
 10
151.8359518906122
 20
131.3988997894531
 30
0.0
 10
151.8230906585795
 20
131.4095637958711
 30
0.0
 10
151.7920877974192
 20
131.4485765862313
 30
0.0
 10
151.78122831535
 20
131.4846285766356
 30
0.0
 10
151.757951059412
 20
131.6023079741347
 30
0.0
 10
151.7558864568541
 20
131.6936378744677
 30
0.0
 10
151.7558864568541
 20
131.7868781273739
 30
0.0
  0
SPLINE
  5
A6
330
1F
100
AcDbEntity
  8
0
  6
Continuous
 62
     7
370
    15
100
AcDbSpline
210
0.0
220
0.0
230
1.0
 70
     8
 71
     3
 72
    12
 73
     8
 74
     0
 42
0.00000001
 43
0.00000001
 12
1.0
 22
0.0
 32
0.0
 13
1.0
 23
0.0
 33
0.0
 40
0.0
 40
0.0
 40
0.0
 40
0.0
 40
0.2499999999999992
 40
0.2499999999999992
 40
0.4999999999999983
 40
0.4999999999999983
 40
1.0
 40
1.0
 40
1.0
 40
1.0
 10
152.1503550554243
 20
108.5437305045614
 30
0.0
 10
152.2005900644696
 20
108.4729149021814
 30
0.0
 10
152.2406349036125
 20
108.4075173498536
 30
0.0
 10
152.3130874210389
 20
108.28152654637
 30
0.0
 10
152.3443818187414
 20
108.2221630102736
 30
0.0
 10
152.4299905484719
 20
108.0501657892899
 30
0.0
 10
152.4759913447556
 20
107.9436542649414
 30
0.0
 10
152.515856503242
 20
107.8416610780077
 30
0.0
  0
SPLINE
  5
A7
330
1F
100
AcDbEntity
  8
0
  6
Continuous
 62
     7
370
    15
100
AcDbSpline
210
0.0
220
0.0
230
1.0
 70
     8
 71
     3
 72
     8
 73
     4
 74
     0
 42
0.00000001
 43
0.00000001
 12
1.0
 22
0.0
 32
0.0
 13
1.0
 23
0.0
 33
0.0
 40
0.0
 40
0.0
 40
0.0
 40
0.0
 40
1.0
 40
1.0
 40
1.0
 40
1.0
 10
151.8827313765427
 20
108.79521450075
 30
0.0
 10
151.9493330055537
 20
108.6937761019694
 30
0.0
 10
152.0412759587329
 20
108.6063748706824
 30
0.0
 10
152.1503550554244
 20
108.5437305045615
 30
0.0
  0
SPLINE
  5
A8
330
1F
100
AcDbEntity
  8
0
  6
Continuous
 62
     7
370
    15
100
AcDbSpline
210
0.0
220
0.0
230
1.0
 70
     8
 71
     3
 72
    14
 73
    10
 74
     0
 42
0.00000001
 43
0.00000001
 12
1.0
 22
0.0
 32
0.0
 13
1.0
 23
0.0
 33
0.0
 40
0.0
 40
0.0
 40
0.0
 40
0.0
 40
0.4999999999999998
 40
0.4999999999999998
 40
0.7499999999999991
 40
0.7499999999999991
 40
0.8749999999999996
 40
0.8749999999999996
 40
1.0
 40
1.0
 40
1.0
 40
1.0
 10
151.7558864568542
 20
108.4611334617117
 30
0.0
 10
151.7558864568542
 20
108.537945033719
 30
0.0
 10
151.7584157144539
 20
108.6123622950502
 30
0.0
 10
151.7781866609869
 20
108.7088635727518
 30
0.0
 10
151.7874482608605
 20
108.7386051694266
 30
0.0
 10
151.81090967477
 20
108.7731027956498
 30
0.0
 10
151.8203320894342
 20
108.7829334340785
 30
0.0
 10
151.8454014793865
 20
108.7961112625715
 30
0.0
 10
151.8607059337793
 20
108.7997094975512
 30
0.0
 10
151.882731376538
 20
108.7952145007603
 30
0.0
  0
LINE
  5
A9
330
1F
100
AcDbEntity
  8
0
  6
Continuous
 62
     7
370
    15
100
AcDbLine
 10
151.755886734
 20
108.4611333568
 30
0.0
 11
151.755886734
 21
131.7868783731
 31
0.0
  0
SPLINE
  5
AA
330
1F
100
AcDbEntity
  8
0
  6
Continuous
 62
     7
370
    15
100
AcDbSpline
210
0.0
220
0.0
230
1.0
 70
     8
 71
     3
 72
     8
 73
     4
 74
     0
 42
0.00000001
 43
0.00000001
 12
1.0
 22
0.0
 32
0.0
 13
1.0
 23
0.0
 33
0.0
 40
0.0
 40
0.0
 40
0.0
 40
0.0
 40
1.0
 40
1.0
 40
1.0
 40
1.0
 10
185.6207267579607
 20
136.1200556640106
 30
0.0
 10
185.9601497992424
 20
135.3902648024912
 30
0.0
 10
186.2926605427374
 20
134.6580964470695
 30
0.0
 10
186.6158864568541
 20
133.9227345623886
 30
0.0
  0
LINE
  5
AB
330
1F
100
AcDbEntity
  8
0
  6
Continuous
 62
     7
370
    15
100
AcDbLine
 10
186.6158867483
 20
133.9227344502
 30
0.0
 11
186.6158867483
 21
133.5244934667
 31
0.0
  0
SPLINE
  5
AC
330
1F
100
AcDbEntity
  8
0
  6
Continuous
 62
     7
370
    15
100
AcDbSpline
210
0.0
220
0.0
230
1.0
 70
     8
 71
     3
 72
    12
 73
     8
 74
     0
 42
0.00000001
 43
0.00000001
 12
1.0
 22
0.0
 32
0.0
 13
1.0
 23
0.0
 33
0.0
 40
0.0
 40
0.0
 40
0.0
 40
0.0
 40
0.5
 40
0.5
 40
0.75
 40
0.75
 40
1.0
 40
1.0
 40
1.0
 40
1.0
 10
186.6158864568542
 20
133.5244938431879
 30
0.0
 10
186.6158864568542
 20
133.3400546175614
 30
0.0
 10
186.6627291513067
 20
133.1531453980541
 30
0.0
 10
186.8122811740033
 20
132.9195100454332
 30
0.0
 10
186.8763861693075
 20
132.8492604136561
 30
0.0
 10
187.0306151246141
 20
132.7470196646949
 30
0.0
 10
187.1232916325471
 20
132.7156575230844
 30
0.0
 10
187.2158864568538
 20
132.7156575230844
 30
0.0
  0
LINE
  5
AD
330
1F
100
AcDbEntity
  8
0
  6
Continuous
 62
     7
370
    15
100
AcDbLine
 10
187.2158866604
 20
132.7156575058
 30
0.0
 11
188.0958868419
 21
132.7156575058
 31
0.0
  0
SPLINE
  5
AE
330
1F
100
AcDbEntity
  8
0
  6
Continuous
 62
     7
370
    15
100
AcDbSpline
210
0.0
220
0.0
230
1.0
 70
     8
 71
     3
 72
    12
 73
     8
 74
     0
 42
0.00000001
 43
0.00000001
 12
1.0
 22
0.0
 32
0.0
 13
1.0
 23
0.0
 33
0.0
 40
0.0
 40
0.0
 40
0.0
 40
0.0
 40
0.25
 40
0.25
 40
0.5
 40
0.5
 40
1.0
 40
1.0
 40
1.0
 40
1.0
 10
188.0958864568541
 20
132.7156575230843
 30
0.0
 10
188.1891374751873
 20
132.7156575230843
 30
0.0
 10
188.2806431840132
 20
132.7467188414837
 30
0.0
 10
188.4355667185483
 20
132.8493394918643
 30
0.0
 10
188.4991615364905
 20
132.918992019943
 30
0.0
 10
188.6497204931736
 20
133.1542069518448
 30
0.0
 10
188.6958864568542
 20
133.3390130412542
 30
0.0
 10
188.6958864568542
 20
133.5244938431879
 30
0.0
  0
LINE
  5
AF
330
1F
100
AcDbEntity
  8
0
  6
Continuous
 62
     7
370
    15
100
AcDbLine
 10
188.6958858227
 20
133.5244934667
 30
0.0
 11
188.6958858227
 21
133.9227344502
 31
0.0
  0
SPLINE
  5
B0
330
1F
100
AcDbEntity
  8
0
  6
Continuous
 62
     7
370
    15
100
AcDbSpline
210
0.0
220
0.0
230
1.0
 70
     8
 71
     3
 72
     8
 73
     4
 74
     0
 42
0.00000001
 43
0.00000001
 12
1.0
 22
0.0
 32
0.0
 13
1.0
 23
0.0
 33
0.0
 40
0.0
 40
0.0
 40
0.0
 40
0.0
 40
1.0
 40
1.0
 40
1.0
 40
1.0
 10
188.6958864568542
 20
133.9227345623885
 30
0.0
 10
189.0194440151091
 20
134.6588509610111
 30
0.0
 10
189.3519383353261
 20
135.3909425564297
 30
0.0
 10
189.6910461557476
 20
136.1200556640106
 30
0.0
  0
LINE
  5
B1
330
1F
100
AcDbEntity
  8
0
  6
Continuous
 62
     7
370
    15
100
AcDbLine
 10
189.6910468345
 20
136.1200559546
 30
0.0
 11
191.0058861827
 21
136.1200559546
 31
0.0
  0
SPLINE
  5
B2
330
1F
100
AcDbEntity
  8
0
  6
Continuous
 62
     7
370
    15
100
AcDbSpline
210
0.0
220
0.0
230
1.0
 70
     8
 71
     3
 72
    12
 73
     8
 74
     0
 42
0.00000001
 43
0.00000001
 12
1.0
 22
0.0
 32
0.0
 13
1.0
 23
0.0
 33
0.0
 40
0.0
 40
0.0
 40
0.0
 40
0.0
 40
0.25
 40
0.25
 40
0.5
 40
0.5
 40
1.0
 40
1.0
 40
1.0
 40
1.0
 10
191.0058864568542
 20
136.1200556640106
 30
0.0
 10
191.0951748158979
 20
136.1200556640106
 30
0.0
 10
191.1832336468001
 20
136.0944310314058
 30
0.0
 10
191.3358873600493
 20
136.005887658474
 30
0.0
 10
191.4016808533913
 20
135.9430051753593
 30
0.0
 10
191.5571215001073
 20
135.7256439874258
 30
0.0
 10
191.6058864568542
 20
135.5469969774145
 30
0.0
 10
191.6058864568542
 20
135.3689038222387
 30
0.0
  0
LINE
  5
B3
330
1F
100
AcDbEntity
  8
0
  6
Continuous
 62
     7
370
    15
100
AcDbLine
 10
191.6058870261
 20
135.3689042513
 30
0.0
 11
191.6058870261
 21
132.8860494901
 31
0.0
  0
SPLINE
  5
B4
330
1F
100
AcDbEntity
  8
0
  6
Continuous
 62
     7
370
    15
100
AcDbSpline
210
0.0
220
0.0
230
1.0
 70
    24
 71
     3
 72
    12
 73
     8
 74
     0
 42
0.00000001
 43
0.00000001
 12
1.0
 22
0.0
 32
0.0
 13
1.0
 23
0.0
 33
0.0
 40
0.0
 40
0.0
 40
0.0
 40
0.0
 40
0.5000000000000019
 40
0.5000000000000019
 40
0.7500000000000009
 40
0.7500000000000009
 40
1.0
 40
1.0
 40
1.0
 40
1.0
 10
188.447542071105
 20
136.9086466629331
 30
0.0
 10
188.4133721097545
 20
136.9086466629331
 30
0.0
 10
188.374121968703
 20
136.9086466629331
 30
0.0
 10
188.2961219581899
 20
136.9086466629331
 30
0.0
 10
188.2667190297891
 20
136.9086466629331
 30
0.0
 10
188.1935744356405
 20
136.9086466629331
 30
0.0
 10
188.1469444576726
 20
136.9086466629331
 30
0.0
 10
188.0958864568541
 20
136.9086466629331
 30
0.0
  0
SPLINE
  5
B5
330
1F
100
AcDbEntity
  8
0
  6
Continuous
 62
     7
370
    15
100
AcDbSpline
210
0.0
220
0.0
230
1.0
 70
     8
 71
     3
 72
    10
 73
     6
 74
     0
 42
0.00000001
 43
0.00000001
 12
1.0
 22
0.0
 32
0.0
 13
1.0
 23
0.0
 33
0.0
 40
0.0
 40
0.0
 40
0.0
 40
0.0
 40
0.5
 40
0.5
 40
1.0
 40
1.0
 40
1.0
 40
1.0
 10
188.6958864568542
 20
137.4112506347518
 30
0.0
 10
188.695886456854
 20
137.3147080872763
 30
0.0
 10
188.6739458342731
 20
137.2182468870073
 30
0.0
 10
188.5878156488828
 20
137.0428442927642
 30
0.0
 10
188.5247333417404
 20
136.9664287603976
 30
0.0
 10
188.4475420711089
 20
136.9086466629366
 30
0.0
  0
SPLINE
  5
B6
330
1F
100
AcDbEntity
  8
0
  6
Continuous
 62
     7
370
    15
100
AcDbSpline
210
0.0
220
0.0
230
1.0
 70
     8
 71
     3
 72
    10
 73
     6
 74
     0
 42
0.00000001
 43
0.00000001
 12
1.0
 22
0.0
 32
0.0
 13
1.0
 23
0.0
 33
0.0
 40
0.0
 40
0.0
 40
0.0
 40
0.0
 40
0.5
 40
0.5
 40
1.0
 40
1.0
 40
1.0
 40
1.0
 10
191.6058864568542
 20
138.879523696076
 30
0.0
 10
191.6058864568542
 20
139.0379581389639
 30
0.0
 10
191.5437252403712
 20
139.1969788337658
 30
0.0
 10
191.3232158996996
 20
139.4269866580215
 30
0.0
 10
191.1643007967544
 20
139.4958219328383
 30
0.0
 10
191.0058864568542
 20
139.4958219328383
 30
0.0
  0
LINE
  5
B7
330
1F
100
AcDbEntity
  8
0
  6
Continuous
 62
     7
370
    15
100
AcDbLine
 10
191.6058870261
 20
135.3689042513
 30
0.0
 11
191.6058870261
 21
138.879523765
 31
0.0
  0
SPLINE
  5
B8
330
1F
100
AcDbEntity
  8
0
  6
Continuous
 62
     7
370
    15
100
AcDbSpline
210
0.0
220
0.0
230
1.0
 70
     8
 71
     3
 72
     8
 73
     4
 74
     0
 42
0.00000001
 43
0.00000001
 12
1.0
 22
0.0
 32
0.0
 13
1.0
 23
0.0
 33
0.0
 40
0.0
 40
0.0
 40
0.0
 40
0.0
 40
1.0
 40
1.0
 40
1.0
 40
1.0
 10
186.6158864568542
 20
137.7223233584633
 30
0.0
 10
186.2848661258345
 20
138.313879054921
 30
0.0
 10
185.9530848543504
 20
138.9050117191663
 30
0.0
 10
185.6207267579607
 20
139.4958219328382
 30
0.0
  0
LINE
  5
B9
330
1F
100
AcDbEntity
  8
0
  6
Continuous
 62
     7
370
    15
100
AcDbLine
 10
186.6158867483
 20
133.9227344502
 30
0.0
 11
186.6158867483
 21
137.722323801
 31
0.0
  0
SPLINE
  5
BA
330
1F
100
AcDbEntity
  8
0
  6
Continuous
 62
     7
370
    15
100
AcDbSpline
210
0.0
220
0.0
230
1.0
 70
     8
 71
     3
 72
    10
 73
     6
 74
     0
 42
0.00000001
 43
0.00000001
 12
1.0
 22
0.0
 32
0.0
 13
1.0
 23
0.0
 33
0.0
 40
0.0
 40
0.0
 40
0.0
 40
0.0
 40
0.5
 40
0.5
 40
1.0
 40
1.0
 40
1.0
 40
1.0
 10
186.8642308426041
 20
136.9086466629331
 30
0.0
 10
186.7869061107299
 20
136.9665286637948
 30
0.0
 10
186.7235262851934
 20
137.0436020084286
 30
0.0
 10
186.6379558364203
 20
137.2181050666225
 30
0.0
 10
186.6158864568542
 20
137.314910270103
 30
0.0
 10
186.6158864568542
 20
137.411250634753
 30
0.0
  0
SPLINE
  5
BB
330
1F
100
AcDbEntity
  8
0
  6
Continuous
 62
     7
370
    15
100
AcDbSpline
210
0.0
220
0.0
230
1.0
 70
    24
 71
     3
 72
    12
 73
     8
 74
     0
 42
0.00000001
 43
0.00000001
 12
1.0
 22
0.0
 32
0.0
 13
1.0
 23
0.0
 33
0.0
 40
0.0
 40
0.0
 40
0.0
 40
0.0
 40
0.2500000000000011
 40
0.2500000000000011
 40
0.5000000000000022
 40
0.5000000000000022
 40
1.0
 40
1.0
 40
1.0
 40
1.0
 10
187.215886456854
 20
136.9086466629331
 30
0.0
 10
187.1645972118176
 20
136.9086466629331
 30
0.0
 10
187.1174091861459
 20
136.9086466629331
 30
0.0
 10
187.044392977451
 20
136.9086466629331
 30
0.0
 10
187.0149013699113
 20
136.9086466629331
 30
0.0
 10
186.9373193308168
 20
136.9086466629331
 30
0.0
 10
186.8981580181015
 20
136.9086466629331
 30
0.0
 10
186.8642308426033
 20
136.9086466629331
 30
0.0
  0
SPLINE
  5
BC
330
1F
100
AcDbEntity
  8
0
  6
Continuous
 62
     7
370
    15
100
AcDbSpline
210
0.0
220
0.0
230
1.0
 70
     8
 71
     3
 72
     8
 73
     4
 74
     0
 42
0.00000001
 43
0.00000001
 12
1.0
 22
0.0
 32
0.0
 13
1.0
 23
0.0
 33
0.0
 40
0.0
 40
0.0
 40
0.0
 40
0.0
 40
1.0
 40
1.0
 40
1.0
 40
1.0
 10
189.6910461557476
 20
139.4958219328382
 30
0.0
 10
189.3586880593579
 20
138.9050117191663
 30
0.0
 10
189.0269067878739
 20
138.313879054921
 30
0.0
 10
188.6958864568542
 20
137.7223233584633
 30
0.0
  0
LINE
  5
BD
330
1F
100
AcDbEntity
  8
0
  6
Continuous
 62
     7
370
    15
100
AcDbLine
 10
189.6910468345
 20
136.1200559546
 30
0.0
 11
189.6910468345
 21
139.4958227534
 31
0.0
  0
LINE
  5
BE
330
1F
100
AcDbEntity
  8
0
  6
Continuous
 62
     7
370
    15
100
AcDbLine
 10
188.6958858227
 20
133.9227344502
 30
0.0
 11
188.6958858227
 21
137.722323801
 31
0.0
  0
LINE
  5
BF
330
1F
100
AcDbEntity
  8
0
  6
Continuous
 62
     7
370
    15
100
AcDbLine
 10
188.0958868419
 20
136.908645894
 30
0.0
 11
187.2158866604
 21
136.908645894
 31
0.0
  0
LINE
  5
C0
330
1F
100
AcDbEntity
  8
0
  6
Continuous
 62
     7
370
    15
100
AcDbLine
 10
191.0058861827
 20
139.4958227534
 30
0.0
 11
189.6910468345
 21
139.4958227534
 31
0.0
  0
LWPOLYLINE
  5
C1
330
1F
100
AcDbEntity
  8
0
  6
Continuous
 62
     7
370
    15
100
AcDbPolyline
 90
       37
 70
   128
 43
0.0
 10
217.5633019065
 20
122.8907491673
 10
218.1677414333
 20
122.8494156745
 10
218.7538152789
 20
122.7046082855
 10
219.3037165557
 20
122.4607263353
 10
219.8007336115
 20
122.1251803577
 10
220.2297678446
 20
121.7081658902
 10
220.5777844642
 20
121.2223533435
 10
220.8342073714
 20
120.6825041223
 10
220.9912469839
 20
120.1050211599
 10
221.0441274797
 20
119.5074510538
 10
220.9912469839
 20
118.9079506217
 10
220.8342073714
 20
118.3247354707
 10
220.5777844642
 20
117.775526283
 10
220.2297678446
 20
117.2770102635
 10
219.8007336115
 20
116.844334792
 10
219.3037165557
 20
116.4906466507
 10
218.7538152789
 20
116.2266921379
 10
218.1677414333
 20
116.0604918037
 10
217.5633019065
 20
115.9970948134
 10
216.9588623797
 20
116.0384283062
 10
216.3727885341
 20
116.1832356952
 10
215.8228872572
 20
116.4271174126
 10
215.3258702015
 20
116.7626633901
 10
214.8968322431
 20
117.1796779741
 10
214.5488193487
 20
117.6654905208
 10
214.2923964416
 20
118.2053398002
 10
214.1353568291
 20
118.7828227772
 10
214.0824763333
 20
119.3803928105
 10
214.1353568291
 20
119.9798932226
 10
214.2923964416
 20
120.5631083936
 10
214.5488193487
 20
121.1123176977
 10
214.8968322431
 20
121.6108336007
 10
215.3258702015
 20
122.0435089559
 10
215.8228872572
 20
122.39719733
 10
216.3727885341
 20
122.6611518428
 10
216.9588623797
 20
122.8273524098
 10
217.5633019065
 20
122.8907491673
  0
SPLINE
  5
C2
330
1F
100
AcDbEntity
  8
0
  6
Continuous
 62
     7
370
    15
100
AcDbSpline
210
0.0
220
0.0
230
1.0
 70
     8
 71
     3
 72
     8
 73
     4
 74
     0
 42
0.00000001
 43
0.00000001
 12
1.0
 22
0.0
 32
0.0
 13
1.0
 23
0.0
 33
0.0
 40
0.0
 40
0.0
 40
0.0
 40
0.0
 40
1.0
 40
1.0
 40
1.0
 40
1.0
 10
207.1067751760152
 20
102.1449193483456
 30
0.0
 10
207.0223179701744
 20
102.4786277429047
 30
0.0
 10
206.9382016606372
 20
102.8124285447997
 30
0.0
 10
206.8544852951643
 20
103.1463377602069
 30
0.0
  0
SPLINE
  5
C3
330
1F
100
AcDbEntity
  8
0
  6
Continuous
 62
     7
370
    15
100
AcDbSpline
210
0.0
220
0.0
230
1.0
 70
     8
 71
     3
 72
    12
 73
     8
 74
     0
 42
0.00000001
 43
0.00000001
 12
1.0
 22
0.0
 32
0.0
 13
1.0
 23
0.0
 33
0.0
 40
0.0
 40
0.0
 40
0.0
 40
0.0
 40
0.2500000000000001
 40
0.2500000000000001
 40
0.5000000000000001
 40
0.5000000000000001
 40
1.0
 40
1.0
 40
1.0
 40
1.0
 10
206.8544852951643
 20
103.1463377602069
 30
0.0
 10
206.8268203422353
 20
103.2566815702208
 30
0.0
 10
206.7837364673545
 20
103.3601297353339
 30
0.0
 10
206.6668867963959
 20
103.5533045074569
 30
0.0
 10
206.5942091756317
 20
103.6404401621056
 30
0.0
 10
206.3398329389052
 20
103.8622943227649
 30
0.0
 10
206.1195022638056
 20
103.9558972247345
 30
0.0
 10
205.8885594688758
 20
103.9620577796282
 30
0.0
  0
SPLINE
  5
C4
330
1F
100
AcDbEntity
  8
0
  6
Continuous
 62
     7
370
    15
100
AcDbSpline
210
0.0
220
0.0
230
1.0
 70
     8
 71
     3
 72
    10
 73
     6
 74
     0
 42
0.00000001
 43
0.00000001
 12
1.0
 22
0.0
 32
0.0
 13
1.0
 23
0.0
 33
0.0
 40
0.0
 40
0.0
 40
0.0
 40
0.0
 40
0.5
 40
0.5
 40
1.0
 40
1.0
 40
1.0
 40
1.0
 10
205.8885594688752
 20
133.7736435453269
 30
0.0
 10
206.1192887362111
 20
133.7882205572786
 30
0.0
 10
206.3377206305261
 20
133.8882157569752
 30
0.0
 10
206.6797601146155
 20
134.1985004760036
 30
0.0
 10
206.7991930277693
 20
134.402066304246
 30
0.0
 10
206.8544852951643
 20
134.6246220962639
 30
0.0
  0
SPLINE
  5
C5
330
1F
100
AcDbEntity
  8
0
  6
Continuous
 62
     7
370
    15
100
AcDbSpline
210
0.0
220
0.0
230
1.0
 70
     8
 71
     3
 72
     8
 73
     4
 74
     0
 42
0.00000001
 43
0.00000001
 12
1.0
 22
0.0
 32
0.0
 13
1.0
 23
0.0
 33
0.0
 40
0.0
 40
0.0
 40
0.0
 40
0.0
 40
1.0
 40
1.0
 40
1.0
 40
1.0
 10
206.8544852951643
 20
134.6246220962639
 30
0.0
 10
206.9220103822939
 20
134.8964159646515
 30
0.0
 10
206.989795896536
 20
135.1681487448158
 30
0.0
 10
207.0578102455009
 20
135.4398278473635
 30
0.0
  0
ELLIPSE
  5
C6
330
1F
100
AcDbEntity
  8
0
  6
Continuous
 62
     7
370
    15
100
AcDbEllipse
 10
268.3939601134
 20
120.0086466629
 30
0.0
 11
171.2582481391834
 21
3.159500349586992
 31
0.0
210
0.0
220
0.0
230
1.0
 40
0.1034726254
 41
1.881768217752414
 42
1.935172439450654
  0
LINE
  5
C7
330
1F
100
AcDbEntity
  8
0
  6
Continuous
 62
     7
370
    15
100
AcDbLine
 10
215.6804247056
 20
135.912493955
 30
0.0
 11
224.6400421714
 21
123.4053393487
 31
0.0
  0
LINE
  5
C8
330
1F
100
AcDbEntity
  8
0
  6
Continuous
 62
     7
370
    15
100
AcDbLine
 10
224.6400421714
 20
123.4053393487
 30
0.0
 11
225.4451705371
 21
108.2073237408
 31
0.0
  0
LINE
  5
C9
330
1F
100
AcDbEntity
  8
0
  6
Continuous
 62
     7
370
    15
100
AcDbLine
 10
225.4451705371
 20
108.2073237408
 30
0.0
 11
212.6108711814
 21
115.9145093184
 31
0.0
  0
ARC
  5
CA
330
1F
100
AcDbEntity
  8
0
  6
Continuous
 62
     7
370
    15
100
AcDbCircle
 10
211.5201193684
 20
114.1304949649
 30
0.0
 40
2.091039629215955
100
AcDbArc
 50
58.5582573993
 51
237.525976557
  0
LINE
  5
CB
330
1F
100
AcDbEntity
  8
0
  6
Continuous
 62
     7
370
    15
100
AcDbLine
 10
210.3974042689
 20
112.3664208349
 30
0.0
 11
213.0479110633
 21
110.7747528363
 31
0.0
  0
LINE
  5
CC
330
1F
100
AcDbEntity
  8
0
  6
Continuous
 62
     7
370
    15
100
AcDbLine
 10
213.0479110633
 20
110.7747528363
 30
0.0
 11
213.5737655913
 21
100.8484691043
 31
0.0
  0
ARC
  5
CD
330
1F
100
AcDbEntity
  8
0
  6
Continuous
 62
     7
370
    15
100
AcDbCircle
 10
207.0895828536
 20
85.281510826
 30
0.0
 40
16.86341649292154
100
AcDbArc
 50
67.386564046
 51
89.941592769
  0
LINE
  5
CE
330
1F
100
AcDbEntity
  8
0
  6
Continuous
 62
     7
370
    15
100
AcDbLine
 10
207.0578119015
 20
135.4398281906
 30
0.0
 11
207.0578119015
 21
138.0086458881
 31
0.0
  0
ELLIPSE
  5
CF
330
1F
100
AcDbEntity
  8
0
  6
Continuous
 62
     7
370
    15
100
AcDbEllipse
 10
227.1559926769
 20
120.0086466629
 30
0.0
 11
-12.81163534476579
 21
17.99929358064354
 31
0.0
210
0.0
220
0.0
230
1.0
 40
0.0124472587
 41
5.116994311248763
 42
6.761739515578553
  0
LINE
  5
D0
330
1F
100
AcDbEntity
  8
0
  6
Continuous
 62
     7
370
    15
100
AcDbLine
 10
206.854485557
 20
102.7674648572
 30
0.0
 11
206.854485557
 21
102.7682192285
 31
0.0
  0
LINE
  5
D1
330
1F
100
AcDbEntity
  8
0
  6
Continuous
 62
     7
370
    15
100
AcDbLine
 10
222.3185679172
 20
127.2407701832
 30
0.0
 11
224.6400421714
 21
123.4053393487
 31
0.0
  0
LINE
  5
D2
330
1F
100
AcDbEntity
  8
0
  6
Continuous
 62
     7
370
    15
100
AcDbLine
 10
151.755886734
 20
108.1901743669
 30
0.0
 11
151.755886734
 21
108.4611333568
 31
0.0
  0
LINE
  5
D3
330
1F
100
AcDbEntity
  8
0
  6
Continuous
 62
     7
370
    15
100
AcDbLine
 10
151.755886734
 20
131.8825605918
 30
0.0
 11
151.755886734
 21
131.7868783731
 31
0.0
  0
LINE
  5
D4
330
1F
100
AcDbEntity
  8
0
  6
Continuous
 62
     7
370
    15
100
AcDbLine
 10
152.7058860515
 20
132.8886469487
 30
0.0
 11
152.7058860515
 21
132.8742272813
 31
0.0
  0
LINE
  5
D5
330
1F
100
AcDbEntity
  8
0
  6
Continuous
 62
     7
370
    15
100
AcDbLine
 10
151.755886734
 20
131.9386466999
 30
0.0
 11
151.755886734
 21
131.8825605918
 31
0.0
  0
LINE
  5
D6
330
1F
100
AcDbEntity
  8
0
  6
Continuous
 62
     7
370
    15
100
AcDbLine
 10
152.7648871993
 20
107.1286463771
 30
0.0
 11
152.7648871993
 21
107.1575797756
 31
0.0
  0
LINE
  5
D7
330
1F
100
AcDbEntity
  8
0
  6
Continuous
 62
     7
370
    15
100
AcDbLine
 10
151.755886734
 20
108.1376468424
 30
0.0
 11
151.755886734
 21
108.1901743669
 31
0.0
  0
LINE
  5
D8
330
1F
100
AcDbEntity
  8
0
  6
Continuous
 62
     7
370
    15
100
AcDbLine
 10
212.0841561114
 20
112.3670182783
 30
0.0
 11
209.4336530422
 21
113.9586862769
 31
0.0
  0
LINE
  5
D9
330
1F
100
AcDbEntity
  8
0
  6
Continuous
 62
     7
370
    15
100
AcDbLine
 10
212.0841561114
 20
112.3670182783
 30
0.0
 11
213.0479110633
 21
110.7747528363
 31
0.0
  0
SPLINE
  5
DA
330
1F
100
AcDbEntity
  8
0
  6
Continuous
 62
     7
370
    15
100
AcDbSpline
210
0.0
220
0.0
230
1.0
 70
     8
 71
     3
 72
     8
 73
     4
 74
     0
 42
0.00000001
 43
0.00000001
 12
1.0
 22
0.0
 32
0.0
 13
1.0
 23
0.0
 33
0.0
 40
0.0
 40
0.0
 40
0.0
 40
0.0
 40
1.0
 40
1.0
 40
1.0
 40
1.0
 10
207.1067751760152
 20
102.1449193483456
 30
0.0
 10
206.9929221916358
 20
102.3530615089429
 30
0.0
 10
206.9070140484175
 20
102.5610731466145
 30
0.0
 10
206.8544852951643
 20
102.7682198509287
 30
0.0
  0
ARC
  5
DB
330
1F
100
AcDbEntity
  8
0
  6
Continuous
 62
     7
370
    15
100
AcDbCircle
 10
212.94131421
 20
115.5151021746
 30
0.0
 40
0.9939240810140433
100
AcDbArc
 50
142.6198955424
 51
182.8665189504
  0
LINE
  5
DC
330
1F
100
AcDbEntity
  8
0
  6
Continuous
 62
     7
370
    15
100
AcDbLine
 10
212.2496744846
 20
114.9680299346
 30
0.0
 11
212.4165563141
 21
111.8178425018
 31
0.0
  0
LINE
  5
DD
330
1F
100
AcDbEntity
  8
0
  6
Continuous
 62
     7
370
    15
100
AcDbLine
 10
211.9486337756
 20
115.4653967019
 30
0.0
 11
212.1155156051
 21
112.3152092692
 31
0.0
  0
CIRCLE
  5
DE
330
1F
100
AcDbEntity
  8
0
  6
Continuous
 62
     7
370
    15
100
AcDbCircle
 10
217.4942237696
 20
119.4630093055
 30
0.0
 40
3.466176271823255
  0
CIRCLE
  5
DF
330
1F
100
AcDbEntity
  8
0
  6
Continuous
 62
     7
370
    15
100
AcDbCircle
 10
217.5243190246
 20
119.4567563076
 30
0.0
 40
1.98265144068559
  0
SPLINE
  5
E0
330
1F
100
AcDbEntity
  8
0
  6
Continuous
 62
     7
370
    15
100
AcDbSpline
210
0.0
220
0.0
230
1.0
 70
     8
 71
     3
 72
    11
 73
     7
 74
     0
 42
0.00000001
 43
0.00000001
 12
1.0
 22
0.0
 32
0.0
 13
1.0
 23
0.0
 33
0.0
 40
0.0
 40
0.0
 40
0.0
 40
0.0
 40
0.1081105541053331
 40
0.4711588579607655
 40
0.8135810547784983
 40
1.0
 40
1.0
 40
1.0
 40
1.0
 10
218.8783629094432
 20
120.5827778681454
 30
0.0
 10
218.8211607839769
 20
120.6075000006574
 30
0.0
 10
218.5718670093715
 20
120.7152420413588
 30
0.0
 10
218.1081914913831
 20
120.9023105487782
 30
0.0
 10
217.6151952665599
 20
121.0700175894374
 30
0.0
 10
217.3619865169657
 20
121.1448353450033
 30
0.0
 10
217.2727292631934
 20
121.1712089494144
 30
0.0
  0
SPLINE
  5
E1
330
1F
100
AcDbEntity
  8
0
  6
Continuous
 62
     7
370
    15
100
AcDbSpline
210
0.0
220
0.0
230
1.0
 70
     8
 71
     3
 72
    11
 73
     7
 74
     0
 42
0.00000001
 43
0.00000001
 12
1.0
 22
0.0
 32
0.0
 13
1.0
 23
0.0
 33
0.0
 40
0.0
 40
0.0
 40
0.0
 40
0.0
 40
0.2164503768793485
 40
0.4403003131589713
 40
0.7518912283253306
 40
1.0
 40
1.0
 40
1.0
 40
1.0
 10
217.2727292631934
 20
121.1712089494144
 30
0.0
 10
217.1750510242188
 20
121.1057501537537
 30
0.0
 10
216.9763553239413
 20
120.9725947920308
 30
0.0
 10
216.6194340148642
 20
120.7059824912022
 30
0.0
 10
216.2526978625555
 20
120.3933288862244
 30
0.0
 10
216.0288783004831
 20
120.1752839141438
 30
0.0
 10
215.9296615277599
 20
120.0786269542336
 30
0.0
  0
SPLINE
  5
E2
330
1F
100
AcDbEntity
  8
0
  6
Continuous
 62
     7
370
    15
100
AcDbSpline
210
0.0
220
0.0
230
1.0
 70
     8
 71
     3
 72
    11
 73
     7
 74
     0
 42
0.00000001
 43
0.00000001
 12
1.0
 22
0.0
 32
0.0
 13
1.0
 23
0.0
 33
0.0
 40
0.0
 40
0.0
 40
0.0
 40
0.0
 40
0.216450012920048
 40
0.4402998697561199
 40
0.7518917371286542
 40
1.0
 40
1.0
 40
1.0
 40
1.0
 10
215.9296615277599
 20
120.0786269542336
 30
0.0
 10
215.9419682939025
 20
119.9728611090969
 30
0.0
 10
215.9670025614298
 20
119.7577135689786
 30
0.0
 10
216.0252652756267
 20
119.338943350834
 30
0.0
 10
216.1039048255992
 20
118.8630718167545
 30
0.0
 10
216.1650976695489
 20
118.5405735735595
 30
0.0
 10
216.1922237132858
 20
118.397614023303
 30
0.0
  0
SPLINE
  5
E3
330
1F
100
AcDbEntity
  8
0
  6
Continuous
 62
     7
370
    15
100
AcDbSpline
210
0.0
220
0.0
230
1.0
 70
     8
 71
     3
 72
    11
 73
     7
 74
     0
 42
0.00000001
 43
0.00000001
 12
1.0
 22
0.0
 32
0.0
 13
1.0
 23
0.0
 33
0.0
 40
0.0
 40
0.0
 40
0.0
 40
0.0
 40
0.1864189507216445
 40
0.5288430042214401
 40
0.8918913546614715
 40
1.0
 40
1.0
 40
1.0
 40
1.0
 10
216.1922237132858
 20
118.397614023303
 30
0.0
 10
216.2814809473402
 20
118.3712403793775
 30
0.0
 10
216.5346905251387
 20
118.2964222504702
 30
0.0
 10
217.0276887293332
 20
118.1287161307158
 30
0.0
 10
217.4913647692718
 20
117.9416486786637
 30
0.0
 10
217.7406564893513
 20
117.8339050434317
 30
0.0
 10
217.7978573595355
 20
117.8091828838264
 30
0.0
  0
SPLINE
  5
E4
330
1F
100
AcDbEntity
  8
0
  6
Continuous
 62
     7
370
    15
100
AcDbSpline
210
0.0
220
0.0
230
1.0
 70
     8
 71
     3
 72
    13
 73
     9
 74
     0
 42
0.00000001
 43
0.00000001
 12
1.0
 22
0.0
 32
0.0
 13
1.0
 23
0.0
 33
0.0
 40
0.0
 40
0.0
 40
0.0
 40
0.0
 40
0.2161247202101967
 40
0.4396376869052994
 40
0.593254266595369
 40
0.7520058621637681
 40
0.8754357320371849
 40
1.0
 40
1.0
 40
1.0
 40
1.0
 10
217.7978573595355
 20
117.8091828838264
 30
0.0
 10
217.8841389018706
 20
117.8933819423856
 30
0.0
 10
218.0596515302175
 20
118.0646584132521
 30
0.0
 10
218.3270256290772
 20
118.300818010557
 30
0.0
 10
218.5793220352947
 20
118.5044370816276
 30
0.0
 10
218.7852538734401
 20
118.6580342375894
 30
0.0
 10
218.9735438887842
 20
118.7904425572894
 30
0.0
 10
219.0849614739781
 20
118.8645444601734
 30
0.0
 10
219.1409250949691
 20
118.9017648935591
 30
0.0
  0
SPLINE
  5
E5
330
1F
100
AcDbEntity
  8
0
  6
Continuous
 62
     7
370
    15
100
AcDbSpline
210
0.0
220
0.0
230
1.0
 70
     8
 71
     3
 72
    11
 73
     7
 74
     0
 42
0.00000001
 43
0.00000001
 12
1.0
 22
0.0
 32
0.0
 13
1.0
 23
0.0
 33
0.0
 40
0.0
 40
0.0
 40
0.0
 40
0.0
 40
0.2164500131295981
 40
0.4402997576897994
 40
0.7518914061413907
 40
1.0
 40
1.0
 40
1.0
 40
1.0
 10
219.1409250949691
 20
118.9017648935591
 30
0.0
 10
219.1172610076209
 20
119.0262952361594
 30
0.0
 10
219.0691238337085
 20
119.2796132141957
 30
0.0
 10
218.9916023394194
 20
119.7302003960271
 30
0.0
 10
218.9245767947892
 20
120.1868920982696
 30
0.0
 10
218.8925569385211
 20
120.4611864008394
 30
0.0
 10
218.8783629094432
 20
120.5827778681454
 30
0.0
  0
LINE
  5
E6
330
1F
100
AcDbEntity
  8
0
  6
Continuous
 62
     7
370
    15
100
AcDbLine
 10
218.7508201455
 20
119.5462785905
 30
0.0
 11
219.140925095
 21
118.9017648936
 31
0.0
  0
LINE
  5
E7
330
1F
100
AcDbEntity
  8
0
  6
Continuous
 62
     7
370
    15
100
AcDbLine
 10
218.7508201455
 20
119.5462785905
 30
0.0
 11
218.6195371901
 21
120.3867850778
 31
0.0
  0
LINE
  5
E8
330
1F
100
AcDbEntity
  8
0
  6
Continuous
 62
     7
370
    15
100
AcDbLine
 10
218.6195371901
 20
120.3867850778
 30
0.0
 11
218.5687875604
 21
120.7117155205
 31
0.0
  0
LINE
  5
E9
330
1F
100
AcDbEntity
  8
0
  6
Continuous
 62
     7
370
    15
100
AcDbLine
 10
216.0945056235
 20
118.9349742268
 30
0.0
 11
216.6049374496
 21
118.7479121505
 31
0.0
  0
LINE
  5
EA
330
1F
100
AcDbEntity
  8
0
  6
Continuous
 62
     7
370
    15
100
AcDbLine
 10
216.6049374496
 20
118.7479121505
 30
0.0
 11
217.4077524101
 21
118.4536966389
 31
0.0
  0
LINE
  5
EB
330
1F
100
AcDbEntity
  8
0
  6
Continuous
 62
     7
370
    15
100
AcDbLine
 10
217.4077524101
 20
118.4536966389
 30
0.0
 11
217.7978573595
 21
117.8091828838
 31
0.0
  0
LINE
  5
EC
330
1F
100
AcDbEntity
  8
0
  6
Continuous
 62
     7
370
    15
100
AcDbLine
 10
217.4077524101
 20
118.4536966389
 30
0.0
 11
218.0792881404
 21
118.9999876438
 31
0.0
  0
LINE
  5
ED
330
1F
100
AcDbEntity
  8
0
  6
Continuous
 62
     7
370
    15
100
AcDbLine
 10
218.0792881404
 20
118.9999876438
 30
0.0
 11
218.7508201455
 21
119.5462785905
 31
0.0
  0
LWPOLYLINE
  5
EE
330
1F
100
AcDbEntity
  8
0
  6
Continuous
 62
     7
370
    15
100
AcDbPolyline
 90
        3
 70
   128
 43
0.0
 10
218.5209064041
 20
120.7310846435
 10
218.5772439693
 20
120.574648528
 10
218.6195371901
 20
120.3867850778
  0
ARC
  5
EF
330
1F
100
AcDbEntity
  8
0
  6
Continuous
 62
     7
370
    15
100
AcDbCircle
 10
217.1414383387
 20
120.163972018
 30
0.0
 40
1.494798272004423
100
AcDbArc
 50
308.8592166014
 51
8.5723952378
  0
ARC
  5
F0
330
1F
100
AcDbEntity
  8
0
  6
Continuous
 62
     7
370
    15
100
AcDbCircle
 10
217.1200618214
 20
120.172691802
 30
0.0
 40
1.515041310904605
100
AcDbArc
 50
250.1227106797
 51
309.2818289544
  0
ARC
  5
F1
330
1F
100
AcDbEntity
  8
0
  6
Continuous
 62
     7
370
    15
100
AcDbCircle
 10
217.104370709
 20
120.1149242669
 30
0.0
 40
1.455388507262424
100
AcDbArc
 50
223.8508635205
 51
249.9303946106
  0
ELLIPSE
  5
F2
330
1F
100
AcDbEntity
  8
0
  6
Continuous
 62
     7
370
    15
100
AcDbEllipse
 10
219.626902942
 20
104.9304832455
 30
0.0
 11
1.980360473108362
 21
1.266117462755034
 31
0.0
210
0.0
220
0.0
230
1.0
 40
0.9803342941
 41
4.292337748685621
 42
6.06827446454456
  0
ELLIPSE
  5
F3
330
1F
100
AcDbEntity
  8
0
  6
Continuous
 62
     7
370
    15
100
AcDbEllipse
 10
219.626902942
 20
104.9304832455
 30
0.0
 11
1.980360473108362
 21
1.266117462755034
 31
0.0
210
0.0
220
0.0
230
1.0
 40
0.9803342941
 41
2.587145033625816
 42
4.292337748685633
  0
SPLINE
  5
F4
330
1F
100
AcDbEntity
  8
0
  6
Continuous
 62
     7
370
    15
100
AcDbSpline
210
0.0
220
0.0
230
1.0
 70
     8
 71
     3
 72
    11
 73
     7
 74
     0
 42
0.00000001
 43
0.00000001
 12
1.0
 22
0.0
 32
0.0
 13
1.0
 23
0.0
 33
0.0
 40
0.0
 40
0.0
 40
0.0
 40
0.0
 40
0.0016768610662691
 40
0.5650955515926437
 40
0.7789017499671118
 40
1.0
 40
1.0
 40
1.0
 40
1.0
 10
217.2544231866668
 20
103.8462903011863
 30
0.0
 10
217.2546503792018
 20
103.8460375682958
 30
0.0
 10
217.3312133655254
 20
103.7608675831116
 30
0.0
 10
217.4603058000514
 20
103.6594547156928
 30
0.0
 10
217.6321903341459
 20
103.5401664527853
 30
0.0
 10
217.7128636160483
 20
103.4953076160812
 30
0.0
 10
217.7538765822719
 20
103.4725021232193
 30
0.0
  0
LWPOLYLINE
  5
F5
330
1F
100
AcDbEntity
  8
0
  6
Continuous
 62
     7
370
    15
100
AcDbPolyline
 90
        3
 70
   128
 43
0.0
 10
217.562102363
 20
103.5351112146
 10
217.3463708018
 20
103.5939689387
 10
217.2485968326
 20
103.626343574
  0
LINE
  5
F6
330
1F
100
AcDbEntity
  8
0
  6
Continuous
 62
     7
370
    15
100
AcDbLine
 10
212.8534397339
 20
115.0038327683
 30
0.0
 11
213.6095693563
 21
100.7307238538
 31
0.0
  0
ARC
  5
F7
330
1F
100
AcDbEntity
  8
0
  6
Continuous
 62
     7
370
    15
100
AcDbCircle
 10
213.2565734859
 20
115.0219807745
 30
0.0
 40
0.4035420326808934
100
AcDbArc
 50
59.4800352847
 51
182.5775629093
  0
LINE
  5
F8
330
1F
100
AcDbEntity
  8
0
  6
Continuous
 62
     7
370
    15
100
AcDbLine
 10
225.7137974953
 20
108.0119322647
 30
0.0
 11
213.4615076934
 21
115.3696129691
 31
0.0
  0
ARC
  5
F9
330
1F
100
AcDbEntity
  8
0
  6
Continuous
 62
     7
370
    15
100
AcDbCircle
 10
225.5160215097
 20
107.6819019992
 30
0.0
 40
0.3847535790049844
100
AcDbArc
 50
2.9773566752
 51
59.0671676071
  0
LINE
  5
FA
330
1F
100
AcDbEntity
  8
0
  6
Continuous
 62
     7
370
    15
100
AcDbLine
 10
226.6563853477
 20
93.4287767519
 30
0.0
 11
225.9002557253
 21
107.7018865977
 31
0.0
  0
ARC
  5
FB
330
1F
100
AcDbEntity
  8
0
  6
Continuous
 62
     7
370
    15
100
AcDbCircle
 10
226.2532499818
 20
93.410630986
 30
0.0
 40
0.4035435441922791
100
AcDbArc
 50
239.4804277936
 51
2.5772348379
  0
LINE
  5
FC
330
1F
100
AcDbEntity
  8
0
  6
Continuous
 62
     7
370
    15
100
AcDbLine
 10
213.7960275863
 20
100.4206772555
 30
0.0
 11
226.0483173882
 21
93.0629960854
 31
0.0
  0
ARC
  5
FD
330
1F
100
AcDbEntity
  8
0
  6
Continuous
 62
     7
370
    15
100
AcDbCircle
 10
213.9938046407
 20
100.7507081037
 30
0.0
 40
0.3847546282658524
100
AcDbArc
 50
182.977296569
 51
239.0670756899
  0
ARC
  5
FE
330
1F
100
AcDbEntity
  8
0
  6
Continuous
 62
     7
370
    15
100
AcDbCircle
 10
226.2535434195
 20
93.4101446883
 30
0.0
 40
0.3833664643781902
100
AcDbArc
 50
239.4802245263
 51
2.5772831618
  0
LINE
  5
FF
330
1F
100
AcDbEntity
  8
0
  6
Continuous
 62
     7
370
    15
100
AcDbLine
 10
226.6365220999
 20
93.4273834933
 30
0.0
 11
225.8803924774
 21
107.7004933391
 31
0.0
  0
ARC
  5
100
330
1F
100
AcDbEntity
  8
0
  6
Continuous
 62
     7
370
    15
100
AcDbCircle
 10
225.5153699237
 20
107.6815093378
 30
0.0
 40
0.3655158779447771
100
AcDbArc
 50
2.9771422532
 51
59.06688427
  0
LINE
  5
101
330
1F
100
AcDbEntity
  8
0
  6
Continuous
 62
     7
370
    15
100
AcDbLine
 10
225.703258649
 20
107.9950371418
 30
0.0
 11
213.4509688472
 21
115.352716915
 31
0.0
  0
ARC
  5
102
330
1F
100
AcDbEntity
  8
0
  6
Continuous
 62
     7
370
    15
100
AcDbCircle
 10
213.2562814626
 20
115.022464721
 30
0.0
 40
0.3833662600631325
100
AcDbArc
 50
59.4801719081
 51
182.5772679509
  0
LINE
  5
103
330
1F
100
AcDbEntity
  8
0
  6
Continuous
 62
     7
370
    15
100
AcDbLine
 10
212.8733029817
 20
115.0052260269
 30
0.0
 11
213.6294326042
 21
100.7321171124
 31
0.0
  0
ARC
  5
104
330
1F
100
AcDbEntity
  8
0
  6
Continuous
 62
     7
370
    15
100
AcDbCircle
 10
213.9944610352
 20
100.7511026655
 30
0.0
 40
0.3655218279235485
100
AcDbArc
 50
182.977337323
 51
239.0663691538
  0
LINE
  5
105
330
1F
100
AcDbEntity
  8
0
  6
Continuous
 62
     7
370
    15
100
AcDbLine
 10
213.8065664326
 20
100.437571447
 30
0.0
 11
226.0588562344
 21
93.0798921395
 31
0.0
  0
LINE
  5
106
330
1F
100
AcDbEntity
  8
0
  6
Continuous
 62
     7
370
    15
100
AcDbLine
 10
213.2277680789
 20
115.069588333
 30
0.0
 11
212.8733029817
 21
115.0052260269
 31
0.0
  0
LINE
  5
107
330
1F
100
AcDbEntity
  8
0
  6
Continuous
 62
     7
370
    15
100
AcDbLine
 10
213.2277680789
 20
115.069588333
 30
0.0
 11
213.4509688472
 21
115.352716915
 31
0.0
  0
LINE
  5
108
330
1F
100
AcDbEntity
  8
0
  6
Continuous
 62
     7
370
    15
100
AcDbLine
 10
213.9839014267
 20
100.7964789529
 30
0.0
 11
213.6294326042
 21
100.7321171124
 31
0.0
  0
LINE
  5
109
330
1F
100
AcDbEntity
  8
0
  6
Continuous
 62
     7
370
    15
100
AcDbLine
 10
214.26639019
 20
113.3418904279
 30
0.0
 11
213.2277680789
 21
115.069588333
 31
0.0
  0
LINE
  5
10A
330
1F
100
AcDbEntity
  8
0
  6
Continuous
 62
     7
370
    15
100
AcDbLine
 10
214.26639019
 20
113.3418904279
 30
0.0
 11
214.3015345787
 21
112.6784739677
 31
0.0
  0
LINE
  5
10B
330
1F
100
AcDbEntity
  8
0
  6
Continuous
 62
     7
370
    15
100
AcDbLine
 10
214.3752990519
 20
101.0906967927
 30
0.0
 11
213.9839014267
 21
100.7964789529
 31
0.0
  0
LINE
  5
10C
330
1F
100
AcDbEntity
  8
0
  6
Continuous
 62
     7
370
    15
100
AcDbLine
 10
212.1896824097
 20
116.100458115
 30
0.0
 11
212.4165563141
 21
111.8178425018
 31
0.0
  0
LINE
  5
10D
330
1F
100
AcDbEntity
  8
0
  6
Continuous
 62
     7
370
    15
100
AcDbLine
 10
225.4800578808
 20
107.7119076286
 30
0.0
 11
225.703258649
 21
107.9950371418
 31
0.0
  0
LINE
  5
10E
330
1F
100
AcDbEntity
  8
0
  6
Continuous
 62
     7
370
    15
100
AcDbLine
 10
225.0365024661
 20
107.5038641352
 30
0.0
 11
225.4800578808
 21
107.7119076286
 31
0.0
  0
LINE
  5
10F
330
1F
100
AcDbEntity
  8
0
  6
Continuous
 62
     7
370
    15
100
AcDbLine
 10
214.8358790432
 20
112.9999041219
 30
0.0
 11
214.26639019
 21
113.3418904279
 31
0.0
  0
ARC
  5
110
330
1F
100
AcDbEntity
  8
0
  6
Continuous
 62
     7
370
    15
100
AcDbCircle
 10
216.1294242151
 20
110.2449845219
 30
0.0
 40
1.008861797225717
100
AcDbArc
 50
59.4803599992
 51
182.5770650246
  0
LWPOLYLINE
  5
111
330
1F
100
AcDbEntity
  8
0
  6
Continuous
 62
     7
370
    15
100
AcDbPolyline
 90
        9
 70
   128
 43
0.0
 10
214.8279404496
 20
112.4103783291
 10
214.8276945804
 20
112.4102283862
 10
214.827444986
 20
112.4100789089
 10
214.8271953915
 20
112.4099294316
 10
214.8269457971
 20
112.4097794887
 10
214.8266999279
 20
112.4096300114
 10
214.8264503335
 20
112.4094805341
 10
214.826200739
 20
112.4093305912
 10
214.8259511446
 20
112.4091806483
  0
SPLINE
  5
112
330
1F
100
AcDbEntity
  8
0
  6
Continuous
 62
     7
370
    15
100
AcDbSpline
210
0.0
220
0.0
230
1.0
 70
     8
 71
     3
 72
    14
 73
    10
 74
     0
 42
0.00000001
 43
0.00000001
 12
1.0
 22
0.0
 32
0.0
 13
1.0
 23
0.0
 33
0.0
 40
0.0
 40
0.0
 40
0.0
 40
0.0
 40
0.221060319105799
 40
0.3460805823993197
 40
0.4396022126432038
 40
0.5338901490667854
 40
0.6146562332822818
 40
0.7517243843274568
 40
1.0
 40
1.0
 40
1.0
 40
1.0
 10
214.8279404496024
 20
112.4103783291106
 30
0.0
 10
214.8776320010394
 20
112.4424242150401
 30
0.0
 10
214.9554265194369
 20
112.4925935937456
 30
0.0
 10
215.0344121684156
 20
112.5806538492237
 30
0.0
 10
215.0704546874249
 20
112.656739965659
 30
0.0
 10
215.074312853825
 20
112.7292294090072
 30
0.0
 10
215.0486840929119
 20
112.8076856676439
 30
0.0
 10
214.974958672034
 20
112.9073869508001
 30
0.0
 10
214.8903756091935
 20
112.9636524568318
 30
0.0
 10
214.8358790432285
 20
112.9999041218584
 30
0.0
  0
SPLINE
  5
113
330
1F
100
AcDbEntity
  8
0
  6
Continuous
 62
     7
370
    15
100
AcDbSpline
210
0.0
220
0.0
230
1.0
 70
     8
 71
     3
 72
    14
 73
    10
 74
     0
 42
0.00000001
 43
0.00000001
 12
1.0
 22
0.0
 32
0.0
 13
1.0
 23
0.0
 33
0.0
 40
0.0
 40
0.0
 40
0.0
 40
0.0
 40
0.2234972358604851
 40
0.3567641533715004
 40
0.4531217395226852
 40
0.5344620760819071
 40
0.6157309655945754
 40
0.7396177055023528
 40
1.0
 40
1.0
 40
1.0
 40
1.0
 10
214.301534578688
 20
112.6784739677136
 30
0.0
 10
214.3072004401497
 20
112.6199293539269
 30
0.0
 10
214.3162447411217
 20
112.5264757615741
 30
0.0
 10
214.3621432696513
 20
112.4157458658782
 30
0.0
 10
214.4146241050022
 20
112.3521278988499
 30
0.0
 10
214.4746775379673
 20
112.3175224680581
 30
0.0
 10
214.5504227083738
 20
112.3045050104393
 30
0.0
 10
214.6747536798217
 20
112.3248581933646
 30
0.0
 10
214.7648807007141
 20
112.3751218116589
 30
0.0
 10
214.8259511445831
 20
112.4091806482797
 30
0.0
  0
LINE
  5
114
330
1F
100
AcDbEntity
  8
0
  6
Continuous
 62
     7
370
    15
100
AcDbLine
 10
215.1215827321
 20
110.1996229623
 30
0.0
 11
215.5447608088
 21
102.2114801813
 31
0.0
  0
LINE
  5
115
330
1F
100
AcDbEntity
  8
0
  6
Continuous
 62
     7
370
    15
100
AcDbLine
 10
223.498922423
 20
106.9962458346
 30
0.0
 11
216.6417582189
 21
111.1140736971
 31
0.0
  0
ARC
  5
116
330
1F
100
AcDbEntity
  8
0
  6
Continuous
 62
     7
370
    15
100
AcDbCircle
 10
223.0044654808
 20
106.1711647272
 30
0.0
 40
0.9618973445630364
100
AcDbArc
 50
2.9775009956
 51
59.0664668032
  0
LINE
  5
117
330
1F
100
AcDbEntity
  8
0
  6
Continuous
 62
     7
370
    15
100
AcDbLine
 10
224.3882423495
 20
98.2329856266
 30
0.0
 11
223.9650642728
 21
106.2211293388
 31
0.0
  0
ARC
  5
118
330
1F
100
AcDbEntity
  8
0
  6
Continuous
 62
     7
370
    15
100
AcDbCircle
 10
223.3804017559
 20
98.1876243587
 30
0.0
 40
1.008860895640949
100
AcDbArc
 50
239.4802711819
 51
2.5770507419
  0
LINE
  5
119
330
1F
100
AcDbEntity
  8
0
  6
Continuous
 62
     7
370
    15
100
AcDbLine
 10
216.0109026586
 20
101.4363627542
 30
0.0
 11
222.8680668627
 21
97.3185367544
 31
0.0
  0
ARC
  5
11A
330
1F
100
AcDbEntity
  8
0
  6
Continuous
 62
     7
370
    15
100
AcDbCircle
 10
216.5053669269
 20
102.2614482074
 30
0.0
 40
0.9619048382056495
100
AcDbArc
 50
182.9776814364
 51
239.0662255535
  0
LWPOLYLINE
  5
11B
330
1F
100
AcDbEntity
  8
0
  6
Continuous
 62
     7
370
    15
100
AcDbPolyline
 90
       32
 70
   128
 43
0.0
 10
218.3952113842
 20
102.0367640663
 10
218.8610663866
 20
101.8183409829
 10
219.3635149156
 20
101.6980923374
 10
219.8819859182
 20
101.6809373755
 10
220.3952564155
 20
101.7675820399
 10
220.882312045
 20
101.9544779916
 10
221.3232076024
 20
102.2339716215
 10
221.6999015068
 20
102.5946225632
 10
221.9969673311
 20
103.0216674913
 10
222.2022382771
 20
103.4976180304
 10
222.3073212658
 20
104.0029946376
 10
222.3079061364
 20
104.5171023939
 10
222.2039705371
 20
105.0188952718
 10
221.9997687494
 20
105.4878310893
 10
221.70366405
 20
105.9047097001
 10
221.3277785336
 20
106.2524646182
 10
220.8874976491
 20
106.5168596465
 10
220.4008518015
 20
106.6870690916
 10
219.8877563928
 20
106.7561257292
 10
219.3692257856
 20
106.7212011326
 10
218.8664829587
 20
106.5837267448
 10
218.4001138662
 20
106.3493286852
 10
217.989210621
 20
106.0276051645
 10
217.650596634
 20
105.631726015
 10
217.3981299852
 20
105.177899975
 10
217.2421520804
 20
104.6847059984
 10
217.1890480672
 20
104.1723351587
 10
217.2409897899
 20
103.6617654968
 10
217.3958501076
 20
103.1738977541
 10
217.6472923015
 20
102.7287069369
 10
217.9850233947
 20
102.3444171656
 10
218.3952113842
 20
102.0367640663
  0
LWPOLYLINE
  5
11C
330
1F
100
AcDbEntity
  8
0
  6
Continuous
 62
     7
370
    15
100
AcDbPolyline
 90
        3
 70
   128
 43
0.0
 10
217.73145406
 20
103.13339081
 10
218.1973090624
 20
102.9149677266
 10
218.6707152282
 20
102.7987945486
  0
LWPOLYLINE
  5
11D
330
1F
100
AcDbEntity
  8
0
  6
Continuous
 62
     7
370
    15
100
AcDbPolyline
 90
        3
 70
   128
 43
0.0
 10
217.2880327557
 20
103.4723624248
 10
217.3212660705
 20
103.4410439093
 10
217.73145406
 20
103.13339081
  0
SPLINE
  5
11E
330
1F
100
AcDbEntity
  8
0
  6
Continuous
 62
     7
370
    15
100
AcDbSpline
210
0.0
220
0.0
230
1.0
 70
     8
 71
     3
 72
    11
 73
     7
 74
     0
 42
0.00000001
 43
0.00000001
 12
1.0
 22
0.0
 32
0.0
 13
1.0
 23
0.0
 33
0.0
 40
0.0
 40
0.0
 40
0.0
 40
0.0
 40
0.3280460084595441
 40
0.6557025398327251
 40
0.9906935297562585
 40
1.0
 40
1.0
 40
1.0
 40
1.0
 10
214.3752990518878
 20
101.0906967927043
 30
0.0
 10
214.4360377861036
 20
101.1340841474679
 30
0.0
 10
214.5574431416465
 20
101.2208073447677
 30
0.0
 10
214.7687733135041
 20
101.3449640349652
 30
0.0
 10
214.9070983238551
 20
101.4148433218281
 30
0.0
 10
214.9731621296042
 20
101.444835480023
 30
0.0
 10
214.9749478553603
 20
101.4456461776321
 30
0.0
  0
LINE
  5
11F
330
1F
100
AcDbEntity
  8
0
  6
Continuous
 62
     7
370
    15
100
AcDbLine
 10
225.0761879836
 20
95.3670341183
 30
0.0
 11
226.2361912285
 21
93.4387977828
 31
0.0
  0
LINE
  5
120
330
1F
100
AcDbEntity
  8
0
  6
Continuous
 62
     7
370
    15
100
AcDbLine
 10
226.2361912285
 20
93.4387977828
 30
0.0
 11
226.0588562344
 21
93.0798921395
 31
0.0
  0
LINE
  5
121
330
1F
100
AcDbEntity
  8
0
  6
Continuous
 62
     7
370
    15
100
AcDbLine
 10
213.9839014267
 20
100.7964789529
 30
0.0
 11
213.8065664326
 21
100.437571447
 31
0.0
  0
LINE
  5
122
330
1F
100
AcDbEntity
  8
0
  6
Continuous
 62
     7
370
    15
100
AcDbLine
 10
224.5066991304
 20
95.709019493
 30
0.0
 11
225.0761879836
 21
95.3670341183
 31
0.0
  0
SPLINE
  5
123
330
1F
100
AcDbEntity
  8
0
  6
Continuous
 62
     7
370
    15
100
AcDbSpline
210
0.0
220
0.0
230
1.0
 70
     8
 71
     3
 72
    11
 73
     7
 74
     0
 42
0.00000001
 43
0.00000001
 12
1.0
 22
0.0
 32
0.0
 13
1.0
 23
0.0
 33
0.0
 40
0.0
 40
0.0
 40
0.0
 40
0.0
 40
0.3280446084329411
 40
0.6557018192321866
 40
0.9906964271252734
 40
1.0
 40
1.0
 40
1.0
 40
1.0
 10
225.0365024660896
 20
107.503864135248
 30
0.0
 10
224.9696848591067
 20
107.4705202267278
 30
0.0
 10
224.83612855204
 20
107.4038717865008
 30
0.0
 10
224.6274273696794
 20
107.2753742205184
 30
0.0
 10
224.500942120609
 20
107.1859216319409
 30
0.0
 10
224.4435201343428
 20
107.1416590545636
 30
0.0
 10
224.4419684861968
 20
107.1404629979556
 30
0.0
  0
LINE
  5
124
330
1F
100
AcDbEntity
  8
0
  6
Continuous
 62
     7
370
    15
100
AcDbLine
 10
225.4800578808
 20
107.7119076286
 30
0.0
 11
225.8803924774
 21
107.7004933391
 31
0.0
  0
LINE
  5
125
330
1F
100
AcDbEntity
  8
0
  6
Continuous
 62
     7
370
    15
100
AcDbLine
 10
226.2361912285
 20
93.4387977828
 30
0.0
 11
226.6365220999
 21
93.4273834933
 31
0.0
  0
LINE
  5
126
330
1F
100
AcDbEntity
  8
0
  6
Continuous
 62
     7
370
    15
100
AcDbLine
 10
225.0761879836
 20
95.3670341183
 30
0.0
 11
225.041043595
 21
96.0304505784
 31
0.0
  0
ARC
  5
127
330
1F
100
AcDbEntity
  8
0
  6
Continuous
 62
     7
370
    15
100
AcDbCircle
 10
223.9394309342
 20
97.2561955082
 30
0.0
 40
1.117118670575552
100
AcDbArc
 50
300.9909138573
 51
301.1100076794
  0
SPLINE
  5
128
330
1F
100
AcDbEntity
  8
0
  6
Continuous
 62
     7
370
    15
100
AcDbSpline
210
0.0
220
0.0
230
1.0
 70
     8
 71
     3
 72
    14
 73
    10
 74
     0
 42
0.00000001
 43
0.00000001
 12
1.0
 22
0.0
 32
0.0
 13
1.0
 23
0.0
 33
0.0
 40
0.0
 40
0.0
 40
0.0
 40
0.0
 40
0.2234960782276486
 40
0.3567617770893208
 40
0.4531231805498052
 40
0.5344632760925231
 40
0.6157319899116985
 40
0.739614142114512
 40
1.0
 40
1.0
 40
1.0
 40
1.0
 10
225.0410435949634
 20
96.03045057843376
 30
0.0
 10
225.0353767371908
 20
96.08899443547
 30
0.0
 10
225.0263308592251
 20
96.18244668143126
 30
0.0
 10
224.9804396512168
 20
96.29318031358802
 30
0.0
 10
224.9279543159807
 20
96.35679611964942
 30
0.0
 10
224.867900795283
 20
96.39140233044286
 30
0.0
 10
224.7921564602082
 20
96.40441811984095
 30
0.0
 10
224.667826471669
 20
96.3840644411193
 30
0.0
 10
224.5776988670411
 20
96.3338025718654
 30
0.0
 10
224.5166270290683
 20
96.29974436352897
 30
0.0
  0
SPLINE
  5
129
330
1F
100
AcDbEntity
  8
0
  6
Continuous
 62
     7
370
    15
100
AcDbSpline
210
0.0
220
0.0
230
1.0
 70
     8
 71
     3
 72
    14
 73
    10
 74
     0
 42
0.00000001
 43
0.00000001
 12
1.0
 22
0.0
 32
0.0
 13
1.0
 23
0.0
 33
0.0
 40
0.0
 40
0.0
 40
0.0
 40
0.0
 40
0.2210606338095166
 40
0.3460808823588805
 40
0.4396030238716979
 40
0.5338903992175451
 40
0.6146569501072631
 40
0.7517273334051489
 40
1.0
 40
1.0
 40
1.0
 40
1.0
 10
224.5146377240489
 20
96.29854668269802
 30
0.0
 10
224.464946202852
 20
96.2665006015417
 30
0.0
 10
224.3871517751186
 20
96.21633094513743
 30
0.0
 10
224.3081658594836
 20
96.12827065149153
 30
0.0
 10
224.2721235744688
 20
96.05218430444148
 30
0.0
 10
224.2682655000777
 20
95.9796950245131
 30
0.0
 10
224.2938936636814
 20
95.90123751689086
 30
0.0
 10
224.3676244985737
 20
95.8015402788797
 30
0.0
 10
224.452204854466
 20
95.74527235355119
 30
0.0
 10
224.5066991304229
 20
95.70901949296642
 30
0.0
  0
LINE
  5
12A
330
1F
100
AcDbEntity
  8
0
  6
HIDDEN
 62
     7
370
     0
100
AcDbLine
 10
179.6058869218
 20
100.00864711
 30
0.0
 11
179.6058869218
 21
100.0336624343
 31
0.0
  0
SPLINE
  5
12B
330
1F
100
AcDbEntity
  8
0
  6
HIDDEN
 62
     7
370
     0
100
AcDbSpline
210
0.0
220
0.0
230
1.0
 70
     8
 71
     3
 72
    22
 73
    18
 74
     0
 42
0.00000001
 43
0.00000001
 12
1.0
 22
0.0
 32
0.0
 13
1.0
 23
0.0
 33
0.0
 40
0.0
 40
0.0
 40
0.0
 40
0.0
 40
0.125
 40
0.125
 40
0.25
 40
0.25
 40
0.375
 40
0.375
 40
0.5
 40
0.5
 40
0.625
 40
0.625
 40
0.75
 40
0.75
 40
0.875
 40
0.875
 40
1.0
 40
1.0
 40
1.0
 40
1.0
 10
179.6058864568542
 20
100.0336623074949
 30
0.0
 10
179.6058864568542
 20
100.0486179001042
 30
0.0
 10
179.6353348779844
 20
100.0700060967506
 30
0.0
 10
179.7501727442082
 20
100.124384343366
 30
0.0
 10
179.8369855827459
 20
100.1578305069743
 30
0.0
 10
180.0626329550419
 20
100.2325947823721
 30
0.0
 10
180.2004700967061
 20
100.273693271333
 30
0.0
 10
180.5256710566105
 20
100.3602462002968
 30
0.0
 10
180.7143733365185
 20
100.4058970993947
 30
0.0
 10
181.1267050567507
 20
100.4941766545595
 30
0.0
 10
181.3518519831026
 20
100.5372780045668
 30
0.0
 10
181.8418278344599
 20
100.617482184422
 30
0.0
 10
182.1025354765817
 20
100.6537770318116
 30
0.0
 10
182.6433928572974
 20
100.7139562509613
 30
0.0
 10
182.9270834833514
 20
100.7382435883924
 30
0.0
 10
183.5111658542809
 20
100.7712416827038
 30
0.0
 10
183.8067334092728
 20
100.7797621399037
 30
0.0
 10
184.1058864568542
 20
100.7797621399037
 30
0.0
  0
LINE
  5
12C
330
1F
100
AcDbEntity
  8
0
  6
HIDDEN
 62
     7
370
     0
100
AcDbLine
 10
184.1058867281
 20
100.7797617127
 30
0.0
 11
185.6207266678
 21
100.7797617127
 31
0.0
  0
LINE
  5
12D
330
1F
100
AcDbEntity
  8
0
  6
HIDDEN
 62
     7
370
     0
100
AcDbLine
 10
185.6207266678
 20
139.4958227534
 30
0.0
 11
185.6207266678
 21
100.7797617127
 31
0.0
  0
LINE
  5
12E
330
1F
100
AcDbEntity
  8
0
  6
HIDDEN
 62
     7
370
     0
100
AcDbLine
 10
184.1058867281
 20
139.4958227534
 30
0.0
 11
185.6207266678
 21
139.4958227534
 31
0.0
  0
SPLINE
  5
12F
330
1F
100
AcDbEntity
  8
0
  6
HIDDEN
 62
     7
370
     0
100
AcDbSpline
210
0.0
220
0.0
230
1.0
 70
     8
 71
     3
 72
    23
 73
    19
 74
     0
 42
0.00000001
 43
0.00000001
 12
1.0
 22
0.0
 32
0.0
 13
1.0
 23
0.0
 33
0.0
 40
0.0
 40
0.0
 40
0.0
 40
0.0
 40
0.0117110816512603
 40
0.065989982119655
 40
0.1695543528110195
 40
0.2219263411163396
 40
0.2751726166021446
 40
0.3794475240600095
 40
0.4323440852147078
 40
0.4859760312475538
 40
0.5714427342848744
 40
0.6578651155538541
 40
0.7014595271245219
 40
0.7545274023401649
 40
0.8079746899991028
 40
0.8626345020474545
 40
0.9177197538917452
 40
1.0
 40
1.0
 40
1.0
 40
1.0
 10
179.6086166282366
 20
140.0080334056442
 30
0.0
 10
179.6077806678524
 20
140.0082212331147
 30
0.0
 10
179.6030701712091
 20
140.0092796094279
 30
0.0
 10
179.6352488353521
 20
140.0020431278835
 30
0.0
 10
179.7233533731093
 20
139.9823665645817
 30
0.0
 10
179.8738294562919
 20
139.9499350409683
 30
0.0
 10
180.0623266631729
 20
139.9104915699868
 30
0.0
 10
180.3073873777013
 20
139.8617408322195
 30
0.0
 10
180.6025936474159
 20
139.8077638236941
 30
0.0
 10
180.9006326803226
 20
139.7567213645303
 30
0.0
 10
181.2925652991816
 20
139.6959817300228
 30
0.0
 10
181.7100197550429
 20
139.6411877690715
 30
0.0
 10
182.0872665814897
 20
139.5993133505893
 30
0.0
 10
182.4090858173513
 20
139.5685312037671
 30
0.0
 10
182.7669565323615
 20
139.5406029193534
 30
0.0
 10
183.139470909422
 20
139.5186523995136
 30
0.0
 10
183.58653728895
 20
139.5002165972577
 30
0.0
 10
183.9113361809983
 20
139.4974687063283
 30
0.0
 10
184.1058867280553
 20
139.495822753412
 30
0.0
  0
SPLINE
  5
130
330
1F
100
AcDbEntity
  8
0
  6
HIDDEN
 62
     7
370
     0
100
AcDbSpline
210
0.0
220
0.0
230
1.0
 70
     8
 71
     3
 72
    76
 73
    72
 74
     0
 42
0.00000001
 43
0.00000001
 12
1.0
 22
0.0
 32
0.0
 13
1.0
 23
0.0
 33
0.0
 40
-0.0312499999999999
 40
-0.0312499999999999
 40
0.0
 40
0.0
 40
0.03125
 40
0.03125
 40
0.0625
 40
0.0625
 40
0.09375
 40
0.09375
 40
0.125
 40
0.125
 40
0.15625
 40
0.15625
 40
0.1874999999999999
 40
0.1874999999999999
 40
0.203125
 40
0.203125
 40
0.21875
 40
0.21875
 40
0.2500000000000001
 40
0.2500000000000001
 40
0.2812500000000001
 40
0.2812500000000001
 40
0.3125000000000002
 40
0.3125000000000002
 40
0.3437500000000002
 40
0.3437500000000002
 40
0.3750000000000002
 40
0.3750000000000002
 40
0.4062500000000003
 40
0.4062500000000003
 40
0.4375000000000003
 40
0.4375000000000003
 40
0.4687500000000004
 40
0.4687500000000004
 40
0.4843750000000003
 40
0.4843750000000003
 40
0.5000000000000002
 40
0.5000000000000002
 40
0.5312500000000002
 40
0.5312500000000002
 40
0.5625000000000002
 40
0.5625000000000002
 40
0.5937500000000002
 40
0.5937500000000002
 40
0.6250000000000002
 40
0.6250000000000002
 40
0.6562500000000002
 40
0.6562500000000002
 40
0.6875000000000002
 40
0.6875000000000002
 40
0.7187500000000002
 40
0.7187500000000002
 40
0.7343750000000002
 40
0.7343750000000002
 40
0.7500000000000001
 40
0.7500000000000001
 40
0.7812500000000001
 40
0.7812500000000001
 40
0.8125000000000001
 40
0.8125000000000001
 40
0.8437500000000001
 40
0.8437500000000001
 40
0.8750000000000001
 40
0.8750000000000001
 40
0.9062500000000001
 40
0.9062500000000001
 40
0.9375000000000001
 40
0.9375000000000001
 40
0.9687500000000001
 40
0.9687500000000001
 40
1.0
 40
1.0
 40
1.03125
 40
1.03125
 10
178.3241448779389
 20
115.0086466629331
 30
0.0
 10
178.9876280357695
 20
115.0086466629331
 30
0.0
 10
179.3135512573044
 20
115.0413326315392
 30
0.0
 10
179.9543250362683
 20
115.16914369964
 30
0.0
 10
180.272572376788
 20
115.2659078186195
 30
0.0
 10
180.8773738839964
 20
115.5172951157791
 30
0.0
 10
181.1640137224649
 20
115.670932236041
 30
0.0
 10
181.7064913365735
 20
116.033690223222
 30
0.0
 10
181.9622598924853
 20
116.2438988786358
 30
0.0
 10
182.4214039404004
 20
116.7031498385017
 30
0.0
 10
182.6279230626558
 20
116.9539938536841
 30
0.0
 10
182.9935370560139
 20
117.5001080719423
 30
0.0
 10
183.1480119398315
 20
117.7890193710801
 30
0.0
 10
183.3353977634316
 20
118.2398453459384
 30
0.0
 10
183.3906226836793
 20
118.3933576354043
 30
0.0
 10
183.4862788722853
 20
118.7070342425059
 30
0.0
 10
183.5268624660681
 20
118.8681568217976
 30
0.0
 10
183.6236024650833
 20
119.3526778360297
 30
0.0
 10
183.6556815137756
 20
119.6779778950185
 30
0.0
 10
183.6560894610613
 20
120.3330882786478
 30
0.0
 10
183.6233064574946
 20
120.665906183611
 30
0.0
 10
183.4951361335733
 20
121.3082289445369
 30
0.0
 10
183.4003190374478
 20
121.6205826053998
 30
0.0
 10
183.1485500187788
 20
122.2276446606269
 30
0.0
 10
182.9926336143463
 20
122.518273751718
 30
0.0
 10
182.631302557444
 20
123.058510735306
 30
0.0
 10
182.423098002604
 20
123.3124924813714
 30
0.0
 10
181.9599021825745
 20
123.7757091931596
 30
0.0
 10
181.7089276145998
 20
123.9816397164872
 30
0.0
 10
181.1686320690409
 20
124.3436026722733
 30
0.0
 10
180.8758467159536
 20
124.5006953600139
 30
0.0
 10
180.2724691458475
 20
124.7513658680488
 30
0.0
 10
179.9608014062914
 20
124.8465159396447
 30
0.0
 10
179.477959721027
 20
124.9433342000813
 30
0.0
 10
179.3134563355689
 20
124.9679593402422
 30
0.0
 10
178.9853369488983
 20
125.0005043081393
 30
0.0
 10
178.8215471908634
 20
125.0085763933225
 30
0.0
 10
178.3309689149977
 20
125.0087858351453
 30
0.0
 10
178.0049641207755
 20
124.9771528634998
 30
0.0
 10
177.3551236783437
 20
124.8478377055266
 30
0.0
 10
177.0423143145993
 20
124.7523443625853
 30
0.0
 10
176.4399962427729
 20
124.5026552836509
 30
0.0
 10
176.1475216828708
 20
124.346236814741
 30
0.0
 10
175.6047873670696
 20
123.9832380266757
 30
0.0
 10
175.353898459874
 20
123.7773551906271
 30
0.0
 10
174.8924684202771
 20
123.3166631956731
 30
0.0
 10
174.6822874570932
 20
123.0608776013697
 30
0.0
 10
174.3206367782296
 20
122.5208594199337
 30
0.0
 10
174.1664221500933
 20
122.2342317028249
 30
0.0
 10
173.9132341455171
 20
121.6259801428437
 30
0.0
 10
173.817510431169
 20
121.3111998440775
 30
0.0
 10
173.7213052764165
 20
120.8311674301963
 30
0.0
 10
173.697018205367
 20
120.6694258732058
 30
0.0
 10
173.6643323980342
 20
120.3424004317732
 30
0.0
 10
173.6559723388649
 20
120.1761446790569
 30
0.0
 10
173.6557166953259
 20
119.6814014237102
 30
0.0
 10
173.6878675013646
 20
119.3559562990122
 30
0.0
 10
173.8154197912089
 20
118.7136178941267
 30
0.0
 10
173.9123785813364
 20
118.394407641889
 30
0.0
 10
174.1626285121077
 20
117.7911553722776
 30
0.0
 10
174.3160452700263
 20
117.5039872521364
 30
0.0
 10
174.6803593093674
 20
116.9586099106011
 30
0.0
 10
174.8889546848503
 20
116.7047830004189
 30
0.0
 10
175.3475735911025
 20
116.2456218081498
 30
0.0
 10
175.6010366066834
 20
116.0368206583395
 30
0.0
 10
176.1458904542897
 20
115.671893328356
 30
0.0
 10
176.4325767223904
 20
115.5183106015202
 30
0.0
 10
177.0343103917455
 20
115.2676852430465
 30
0.0
 10
177.3528338832209
 20
115.1702567313513
 30
0.0
 10
177.9972199447783
 20
115.0413414009672
 30
0.0
 10
178.3241448779389
 20
115.0086466629331
 30
0.0
 10
178.9876280357695
 20
115.0086466629331
 30
0.0
  0
LINE
  5
131
330
1F
100
AcDbEntity
  8
0
  6
HIDDEN
 62
     7
370
     0
100
AcDbLine
 10
171.6558864569
 20
139.7086467255
 30
0.0
 11
171.6558864569
 21
100.3086466003
 31
0.0
  0
SPLINE
  5
132
330
1F
100
AcDbEntity
  8
0
  6
HIDDEN
 62
     7
370
     0
100
AcDbSpline
210
0.0
220
0.0
230
1.0
 70
     8
 71
     3
 72
    10
 73
     6
 74
     0
 42
0.00000001
 43
0.00000001
 12
1.0
 22
0.0
 32
0.0
 13
1.0
 23
0.0
 33
0.0
 40
0.0
 40
0.0
 40
0.0
 40
0.0
 40
0.5
 40
0.5
 40
1.0
 40
1.0
 40
1.0
 40
1.0
 10
186.6511088574356
 20
103.1086466629331
 30
0.0
 10
186.6393967404724
 20
103.0743033257391
 30
0.0
 10
186.6305986706004
 20
103.0392107880009
 30
0.0
 10
186.6187851128282
 20
102.9675390126102
 30
0.0
 10
186.6158864568542
 20
102.9315953582449
 30
0.0
 10
186.6158864568542
 20
102.8957677409048
 30
0.0
  0
LINE
  5
133
330
1F
100
AcDbEntity
  8
0
  6
HIDDEN
 62
     7
370
     0
100
AcDbLine
 10
186.6158867483
 20
102.8957675804
 30
0.0
 11
186.6158867483
 21
131.8586470221
 31
0.0
  0
SPLINE
  5
134
330
1F
100
AcDbEntity
  8
0
  6
HIDDEN
 62
     7
370
     0
100
AcDbSpline
210
0.0
220
0.0
230
1.0
 70
     8
 71
     3
 72
    10
 73
     6
 74
     0
 42
0.00000001
 43
0.00000001
 12
1.0
 22
0.0
 32
0.0
 13
1.0
 23
0.0
 33
0.0
 40
0.0
 40
0.0
 40
0.0
 40
0.0
 40
0.5
 40
0.5
 40
1.0
 40
1.0
 40
1.0
 40
1.0
 10
188.6958864568542
 20
102.8957677409048
 30
0.0
 10
188.6958864568542
 20
102.9319902303454
 30
0.0
 10
188.6929167275568
 20
102.9681834276039
 30
0.0
 10
188.6810377452089
 20
103.0398219190186
 30
0.0
 10
188.6722425173683
 20
103.0746952436602
 30
0.0
 10
188.660664056273
 20
103.1086466629325
 30
0.0
  0
LINE
  5
135
330
1F
100
AcDbEntity
  8
0
  6
HIDDEN
 62
     7
370
     0
100
AcDbLine
 10
188.6958858227
 20
102.8957675804
 30
0.0
 11
188.6958858227
 21
131.8586470221
 31
0.0
  0
SPLINE
  5
136
330
1F
100
AcDbEntity
  8
0
  6
HIDDEN
 62
     7
370
     0
100
AcDbSpline
210
0.0
220
0.0
230
1.0
 70
     8
 71
     3
 72
    16
 73
    12
 74
     0
 42
0.00000001
 43
0.00000001
 12
1.0
 22
0.0
 32
0.0
 13
1.0
 23
0.0
 33
0.0
 40
0.0
 40
0.0
 40
0.0
 40
0.0
 40
0.2499999999999994
 40
0.2499999999999994
 40
0.4999999999999988
 40
0.4999999999999988
 40
0.6249999999999989
 40
0.6249999999999989
 40
0.7499999999999997
 40
0.7499999999999997
 40
1.0
 40
1.0
 40
1.0
 40
1.0
 10
192.6058864568537
 20
123.7273426449648
 30
0.0
 10
192.4584306367095
 20
123.9339393053888
 30
0.0
 10
192.3481027189866
 20
124.1623286322549
 30
0.0
 10
192.1949970058942
 20
124.647867771736
 30
0.0
 10
192.1561103679426
 20
124.8942261550566
 30
0.0
 10
192.1557759157945
 20
125.2605135574167
 30
0.0
 10
192.1656914321238
 20
125.3809316191149
 30
0.0
 10
192.2042726457719
 20
125.6120226606662
 30
0.0
 10
192.232911113577
 20
125.7238784801248
 30
0.0
 10
192.3472089111856
 20
126.0519213634366
 30
0.0
 10
192.4584199329815
 20
126.2538474606383
 30
0.0
 10
192.6058864568537
 20
126.4490929259338
 30
0.0
  0
SPLINE
  5
137
330
1F
100
AcDbEntity
  8
0
  6
HIDDEN
 62
     7
370
     0
100
AcDbSpline
210
0.0
220
0.0
230
1.0
 70
     8
 71
     3
 72
     9
 73
     5
 74
     0
 42
0.00000001
 43
0.00000001
 12
1.0
 22
0.0
 32
0.0
 13
1.0
 23
0.0
 33
0.0
 40
0.0
 40
0.0
 40
0.0
 40
0.0
 40
0.5
 40
1.0
 40
1.0
 40
1.0
 40
1.0
 10
191.6059485799775
 20
136.9086466629331
 30
0.0
 10
191.6059278672741
 20
136.910569531267
 30
0.0
 10
191.6058968059558
 20
136.914414820256
 30
0.0
 10
191.6058864568542
 20
136.9182592145765
 30
0.0
 10
191.6058864568542
 20
136.9201811882209
 30
0.0
  0
SPLINE
  5
138
330
1F
100
AcDbEntity
  8
0
  6
HIDDEN
 62
     7
370
     0
100
AcDbSpline
210
0.0
220
0.0
230
1.0
 70
    24
 71
     3
 72
    14
 73
    10
 74
     0
 42
0.00000001
 43
0.00000001
 12
1.0
 22
0.0
 32
0.0
 13
1.0
 23
0.0
 33
0.0
 40
0.0
 40
0.0
 40
0.0
 40
0.0
 40
0.5000000000000002
 40
0.5000000000000002
 40
0.7500000000000002
 40
0.7500000000000002
 40
0.8750000000000001
 40
0.8750000000000001
 40
1.0
 40
1.0
 40
1.0
 40
1.0
 10
191.6059485799775
 20
136.9086466629331
 30
0.0
 10
191.6081019127982
 20
136.9086466629331
 30
0.0
 10
191.6633193755273
 20
136.9086466629331
 30
0.0
 10
191.7382785058607
 20
136.9086466629331
 30
0.0
 10
191.7621760821139
 20
136.9086466629331
 30
0.0
 10
191.7876101591746
 20
136.9086466629331
 30
0.0
 10
191.7943725141881
 20
136.9086466629331
 30
0.0
 10
191.803513370155
 20
136.9086466629331
 30
0.0
 10
191.8058864568542
 20
136.9086466629331
 30
0.0
 10
191.8058864568542
 20
136.9086466629331
 30
0.0
  0
SPLINE
  5
139
330
1F
100
AcDbEntity
  8
0
  6
HIDDEN
 62
     7
370
     0
100
AcDbSpline
210
0.0
220
0.0
230
1.0
 70
     8
 71
     3
 72
     9
 73
     5
 74
     0
 42
0.00000001
 43
0.00000001
 12
1.0
 22
0.0
 32
0.0
 13
1.0
 23
0.0
 33
0.0
 40
0.0
 40
0.0
 40
0.0
 40
0.0
 40
0.5
 40
1.0
 40
1.0
 40
1.0
 40
1.0
 10
191.6058864568541
 20
136.9201811882209
 30
0.0
 10
191.6058864568541
 20
136.9182580637378
 30
0.0
 10
191.6058968183518
 20
136.9144125188929
 30
0.0
 10
191.6059278796677
 20
136.9105683807154
 30
0.0
 10
191.6059485799775
 20
136.9086466629331
 30
0.0
  0
LINE
  5
13A
330
1F
100
AcDbEntity
  8
0
  6
HIDDEN
 62
     7
370
     0
100
AcDbLine
 10
191.6058870261
 20
136.9201812554
 30
0.0
 11
191.6058870261
 21
103.1086474318
 31
0.0
  0
SPLINE
  5
13B
330
1F
100
AcDbEntity
  8
0
  6
HIDDEN
 62
     7
370
     0
100
AcDbSpline
210
0.0
220
0.0
230
1.0
 70
    24
 71
     3
 72
    14
 73
    10
 74
     0
 42
0.00000001
 43
0.00000001
 12
1.0
 22
0.0
 32
0.0
 13
1.0
 23
0.0
 33
0.0
 40
0.0
 40
0.0
 40
0.0
 40
0.0
 40
0.5000000000000001
 40
0.5000000000000001
 40
0.75
 40
0.75
 40
0.8750000000000001
 40
0.8750000000000001
 40
1.0
 40
1.0
 40
1.0
 40
1.0
 10
191.6058864568542
 20
103.1086466629331
 30
0.0
 10
191.6058864568542
 20
103.1086466629331
 30
0.0
 10
191.6613343166855
 20
103.1086466629331
 30
0.0
 10
191.7371165820288
 20
103.1086466629331
 30
0.0
 10
191.7613942441116
 20
103.1086466629331
 30
0.0
 10
191.7872677894502
 20
103.1086466629331
 30
0.0
 10
191.794154982134
 20
103.1086466629331
 30
0.0
 10
191.8034671729295
 20
103.1086466629331
 30
0.0
 10
191.8058864568542
 20
103.1086466629331
 30
0.0
 10
191.8058864568542
 20
103.1086466629331
 30
0.0
  0
LINE
  5
13C
330
1F
100
AcDbEntity
  8
0
  6
HIDDEN
 62
     7
370
     0
100
AcDbLine
 10
191.6058870261
 20
132.8860494901
 30
0.0
 11
191.6058870261
 21
136.9201812554
 31
0.0
  0
LINE
  5
13D
330
1F
100
AcDbEntity
  8
0
  6
HIDDEN
 62
     7
370
     0
100
AcDbLine
 10
191.6058870261
 20
103.1086474318
 30
0.0
 11
191.6058870261
 21
131.8586470221
 31
0.0
  0
LINE
  5
13E
330
1F
100
AcDbEntity
  8
0
  6
HIDDEN
 62
     7
370
     0
100
AcDbLine
 10
179.6058869218
 20
131.8586470221
 30
0.0
 11
184.0995565285
 21
131.8586470221
 31
0.0
  0
SPLINE
  5
13F
330
1F
100
AcDbEntity
  8
0
  6
HIDDEN
 62
     7
370
     0
100
AcDbSpline
210
0.0
220
0.0
230
1.0
 70
     8
 71
     3
 72
    56
 73
    52
 74
     0
 42
0.00000001
 43
0.00000001
 12
1.0
 22
0.0
 32
0.0
 13
1.0
 23
0.0
 33
0.0
 40
0.0
 40
0.0
 40
0.0
 40
0.0
 40
0.0624999999999995
 40
0.0624999999999995
 40
0.1249999999999989
 40
0.1249999999999989
 40
0.156249999999999
 40
0.156249999999999
 40
0.1874999999999991
 40
0.1874999999999991
 40
0.2187499999999992
 40
0.2187499999999992
 40
0.2499999999999993
 40
0.2499999999999993
 40
0.2812499999999993
 40
0.2812499999999993
 40
0.3124999999999994
 40
0.3124999999999994
 40
0.3437499999999994
 40
0.3437499999999994
 40
0.3749999999999995
 40
0.3749999999999995
 40
0.4062499999999996
 40
0.4062499999999996
 40
0.4374999999999997
 40
0.4374999999999997
 40
0.4999999999999996
 40
0.4999999999999996
 40
0.5624999999999994
 40
0.5624999999999994
 40
0.6249999999999993
 40
0.6249999999999993
 40
0.6874999999999992
 40
0.6874999999999992
 40
0.7187499999999993
 40
0.7187499999999993
 40
0.7499999999999993
 40
0.7499999999999993
 40
0.7812499999999994
 40
0.7812499999999994
 40
0.8124999999999996
 40
0.8124999999999996
 40
0.8437499999999996
 40
0.8437499999999996
 40
0.8749999999999997
 40
0.8749999999999997
 40
0.9062499999999997
 40
0.9062499999999997
 40
0.9374999999999998
 40
0.9374999999999998
 40
1.0
 40
1.0
 40
1.0
 40
1.0
 10
192.6058864568544
 20
123.7273426449651
 30
0.0
 10
192.7581606494593
 20
123.5139950834368
 30
0.0
 10
192.9402606531175
 20
123.3282563884435
 30
0.0
 10
193.3637773087321
 20
123.0129288720482
 30
0.0
 10
193.5972862801675
 20
122.8899497111171
 30
0.0
 10
193.9730339560778
 20
122.7621383654431
 30
0.0
 10
194.1026163914415
 20
122.7292406832934
 30
0.0
 10
194.3620065868151
 20
122.684749000822
 30
0.0
 10
194.4929313963732
 20
122.6727342616137
 30
0.0
 10
194.7572758115202
 20
122.6694842463928
 30
0.0
 10
194.8911546027807
 20
122.6785183235298
 30
0.0
 10
195.1519312070004
 20
122.716993972068
 30
0.0
 10
195.2800172148916
 20
122.7463334915295
 30
0.0
 10
195.5315895947601
 20
122.8251387301867
 30
0.0
 10
195.6558720825146
 20
122.8751431744732
 30
0.0
 10
195.8916300380384
 20
122.9922132351778
 30
0.0
 10
196.0039983950813
 20
123.0594131442046
 30
0.0
 10
196.2178295636133
 20
123.2108378907365
 30
0.0
 10
196.3200764750496
 20
123.2959288210693
 30
0.0
 10
196.5075933590409
 20
123.4785130752028
 30
0.0
 10
196.5932655455008
 20
123.5760419992668
 30
0.0
 10
196.7486820881008
 20
123.7832258454308
 30
0.0
 10
196.8189187439462
 20
123.8938744746873
 30
0.0
 10
196.9398881447157
 20
124.1227731862354
 30
0.0
 10
196.9904881738121
 20
124.2403341308327
 30
0.0
 10
197.1132858760286
 20
124.6019443978176
 30
0.0
 10
197.1559183298925
 20
124.8576569293357
 30
0.0
 10
197.1558545470362
 20
125.3577739920474
 30
0.0
 10
197.113147703759
 20
125.6094464111138
 30
0.0
 10
196.9492630426792
 20
126.0770068317386
 30
0.0
 10
196.8258498741745
 20
126.2995519520004
 30
0.0
 10
196.5150682513762
 20
126.6900085131324
 30
0.0
 10
196.3236898942152
 20
126.8631526830678
 30
0.0
 10
196.0033584367177
 20
127.0722318206831
 30
0.0
 10
195.8909727839339
 20
127.1338922109846
 30
0.0
 10
195.6547521407356
 20
127.2411014304155
 30
0.0
 10
195.5305692332266
 20
127.286538215403
 30
0.0
 10
195.2793925248179
 20
127.3580026293114
 30
0.0
 10
195.1513472413724
 20
127.3845810326557
 30
0.0
 10
194.8902978043861
 20
127.4194103519456
 30
0.0
 10
194.7563282732606
 20
127.4275282633295
 30
0.0
 10
194.4923390619628
 20
127.4245170652731
 30
0.0
 10
194.3614237635488
 20
127.4136366361618
 30
0.0
 10
194.1017373973116
 20
127.3731891268672
 30
0.0
 10
193.9718583250577
 20
127.3432047224421
 30
0.0
 10
193.7218544556998
 20
127.2657118747986
 30
0.0
 10
193.601331612624
 20
127.2183362640344
 30
0.0
 10
193.3690767296634
 20
127.1064109332211
 30
0.0
 10
193.25640909788
 20
127.0411720282271
 30
0.0
 10
192.9400045935429
 20
126.8233010783503
 30
0.0
 10
192.758162562164
 20
126.6507062701287
 30
0.0
 10
192.6058864568539
 20
126.449092925934
 30
0.0
  0
LINE
  5
140
330
1F
100
AcDbEntity
  8
0
  6
HIDDEN
 62
     7
370
     0
100
AcDbLine
 10
171.6558864569
 20
103.8014452566
 30
0.0
 11
171.6558864569
 21
136.2030330707
 31
0.0
  0
SPLINE
  5
141
330
1F
100
AcDbEntity
  8
0
  6
HIDDEN
 62
     7
370
     0
100
AcDbSpline
210
0.0
220
0.0
230
1.0
 70
     8
 71
     3
 72
     8
 73
     4
 74
     0
 42
0.00000001
 43
0.00000001
 12
1.0
 22
0.0
 32
0.0
 13
1.0
 23
0.0
 33
0.0
 40
0.0
 40
0.0
 40
0.0
 40
0.0
 40
1.0
 40
1.0
 40
1.0
 40
1.0
 10
152.6973703072851
 20
107.3054689633895
 30
0.0
 10
152.7115047519132
 20
107.2546726397563
 30
0.0
 10
152.7345621270618
 20
107.2054338891961
 30
0.0
 10
152.7648864568542
 20
107.1575797853769
 30
0.0
  0
SPLINE
  5
142
330
1F
100
AcDbEntity
  8
0
  6
HIDDEN
 62
     7
370
     0
100
AcDbSpline
210
0.0
220
0.0
230
1.0
 70
     8
 71
     3
 72
    10
 73
     6
 74
     0
 42
0.00000001
 43
0.00000001
 12
1.0
 22
0.0
 32
0.0
 13
1.0
 23
0.0
 33
0.0
 40
0.0
 40
0.0
 40
0.0
 40
0.0
 40
0.5
 40
0.5
 40
1.0
 40
1.0
 40
1.0
 40
1.0
 10
152.7648864568542
 20
107.1575797853768
 30
0.0
 10
152.9802454874115
 20
107.1645926163473
 30
0.0
 10
153.1946868257355
 20
107.1733673400026
 30
0.0
 10
153.619678044356
 20
107.1984205175505
 30
0.0
 10
153.8310507760787
 20
107.2131063503508
 30
0.0
 10
154.0350630651557
 20
107.2420245358555
 30
0.0
  0
SPLINE
  5
143
330
1F
100
AcDbEntity
  8
0
  6
HIDDEN
 62
     7
370
     0
100
AcDbSpline
210
0.0
220
0.0
230
1.0
 70
     8
 71
     3
 72
    10
 73
     6
 74
     0
 42
0.00000001
 43
0.00000001
 12
1.0
 22
0.0
 32
0.0
 13
1.0
 23
0.0
 33
0.0
 40
0.0
 40
0.0
 40
0.0
 40
0.0
 40
0.5
 40
0.5
 40
1.0
 40
1.0
 40
1.0
 40
1.0
 10
154.0350630651556
 20
107.2420245358556
 30
0.0
 10
154.5076331221538
 20
107.3090100524346
 30
0.0
 10
154.9931956041475
 20
107.3671878682345
 30
0.0
 10
155.9695734978128
 20
107.4740536115399
 30
0.0
 10
156.4615717169199
 20
107.5226390428451
 30
0.0
 10
156.9558864568541
 20
107.5682766154221
 30
0.0
  0
SPLINE
  5
144
330
1F
100
AcDbEntity
  8
0
  6
HIDDEN
 62
     7
370
     0
100
AcDbSpline
210
0.0
220
0.0
230
1.0
 70
     8
 71
     3
 72
    14
 73
    10
 74
     0
 42
0.00000001
 43
0.00000001
 12
1.0
 22
0.0
 32
0.0
 13
1.0
 23
0.0
 33
0.0
 40
0.0
 40
0.0
 40
0.0
 40
0.0
 40
0.125
 40
0.125
 40
0.2500000000000001
 40
0.2500000000000001
 40
0.5000000000000001
 40
0.5000000000000001
 40
1.0
 40
1.0
 40
1.0
 40
1.0
 10
156.9558864568541
 20
107.5682766154221
 30
0.0
 10
157.0048987796655
 20
107.5728016745772
 30
0.0
 10
157.0577050046609
 20
107.5646822890227
 30
0.0
 10
157.1427720963904
 20
107.5343522138713
 30
0.0
 10
157.1773562817312
 20
107.5136972567948
 30
0.0
 10
157.2659119670685
 20
107.449161133468
 30
0.0
 10
157.3068476683897
 20
107.4019229534154
 30
0.0
 10
157.4107281952926
 20
107.2621268521317
 30
0.0
 10
157.4539519947247
 20
107.1682419132624
 30
0.0
 10
157.4881513639973
 20
107.0782708000484
 30
0.0
  0
SPLINE
  5
145
330
1F
100
AcDbEntity
  8
0
  6
HIDDEN
 62
     7
370
     0
100
AcDbSpline
210
0.0
220
0.0
230
1.0
 70
     8
 71
     3
 72
    12
 73
     8
 74
     0
 42
0.00000001
 43
0.00000001
 12
1.0
 22
0.0
 32
0.0
 13
1.0
 23
0.0
 33
0.0
 40
0.0
 40
0.0
 40
0.0
 40
0.0
 40
0.2499999999999999
 40
0.2499999999999999
 40
0.4999999999999998
 40
0.4999999999999998
 40
1.0
 40
1.0
 40
1.0
 40
1.0
 10
157.4881513639973
 20
107.0782708000484
 30
0.0
 10
157.5135755808912
 20
107.0113852069746
 30
0.0
 10
157.5541874204605
 20
106.946936717291
 30
0.0
 10
157.6387885667327
 20
106.8219360572131
 30
0.0
 10
157.6828853630182
 20
106.761417312021
 30
0.0
 10
157.7989544715043
 20
106.5852112559126
 30
0.0
 10
157.8558864568542
 20
106.4748168409408
 30
0.0
 10
157.8558864568542
 20
106.3718999648476
 30
0.0
  0
LINE
  5
146
330
1F
100
AcDbEntity
  8
0
  6
HIDDEN
 62
     7
370
     0
100
AcDbLine
 10
157.8558866163
 20
106.3719002191
 30
0.0
 11
157.8558866163
 21
105.4961282421
 31
0.0
  0
LINE
  5
147
330
1F
100
AcDbEntity
  8
0
  6
HIDDEN
 62
     7
370
     0
100
AcDbLine
 10
155.3558862065
 20
134.3959143047
 30
0.0
 11
155.3558862065
 21
133.5661710833
 31
0.0
  0
SPLINE
  5
148
330
1F
100
AcDbEntity
  8
0
  6
HIDDEN
 62
     7
370
     0
100
AcDbSpline
210
0.0
220
0.0
230
1.0
 70
     8
 71
     3
 72
    20
 73
    16
 74
     0
 42
0.00000001
 43
0.00000001
 12
1.0
 22
0.0
 32
0.0
 13
1.0
 23
0.0
 33
0.0
 40
0.0
 40
0.0
 40
0.0
 40
0.0
 40
0.2500000000000001
 40
0.2500000000000001
 40
0.5000000000000001
 40
0.5000000000000001
 40
0.7500000000000002
 40
0.7500000000000002
 40
0.8749999999999998
 40
0.8749999999999998
 40
0.9374999999999984
 40
0.9374999999999984
 40
0.9687499999999992
 40
0.9687499999999992
 40
1.0
 40
1.0
 40
1.0
 40
1.0
 10
155.3558864568551
 20
133.566170784681
 30
0.0
 10
155.3558864568551
 20
133.5055613849836
 30
0.0
 10
155.3304914372782
 20
133.43973541958
 30
0.0
 10
155.2441982514962
 20
133.3056876502334
 30
0.0
 10
155.183562272813
 20
133.2369922920916
 30
0.0
 10
155.0354604785917
 20
133.0965937404372
 30
0.0
 10
154.9486908718131
 20
133.0248902358558
 30
0.0
 10
154.8000530764839
 20
132.918726834107
 30
0.0
 10
154.7477638595977
 20
132.8831984854755
 30
0.0
 10
154.6570000312877
 20
132.83349455496
 30
0.0
 10
154.6246340388358
 20
132.8172335569449
 30
0.0
 10
154.5669448831696
 20
132.7981209885989
 30
0.0
 10
154.5459578552821
 20
132.7927298465173
 30
0.0
 10
154.5006688762916
 20
132.7869924781248
 30
0.0
 10
154.4776546074531
 20
132.7870152117783
 30
0.0
 10
154.4558864568535
 20
132.7894405215911
 30
0.0
  0
SPLINE
  5
149
330
1F
100
AcDbEntity
  8
0
  6
HIDDEN
 62
     7
370
     0
100
AcDbSpline
210
0.0
220
0.0
230
1.0
 70
     8
 71
     3
 72
    12
 73
     8
 74
     0
 42
0.00000001
 43
0.00000001
 12
1.0
 22
0.0
 32
0.0
 13
1.0
 23
0.0
 33
0.0
 40
0.0
 40
0.0
 40
0.0
 40
0.0
 40
0.2500000000000001
 40
0.2500000000000001
 40
0.5000000000000001
 40
0.5000000000000001
 40
1.0
 40
1.0
 40
1.0
 40
1.0
 10
154.4558864568542
 20
132.7894405215923
 30
0.0
 10
154.313844053665
 20
132.8052662497686
 30
0.0
 10
154.1697259471608
 20
132.8162873835439
 30
0.0
 10
153.8799714334883
 20
132.834823745411
 30
0.0
 10
153.7342295301295
 20
132.8420944511468
 30
0.0
 10
153.2955492909497
 20
132.8605553014748
 30
0.0
 10
153.0011736748785
 20
132.8684341682984
 30
0.0
 10
152.7058864568542
 20
132.8742272099115
 30
0.0
  0
SPLINE
  5
14A
330
1F
100
AcDbEntity
  8
0
  6
HIDDEN
 62
     7
370
     0
100
AcDbSpline
210
0.0
220
0.0
230
1.0
 70
     8
 71
     3
 72
     8
 73
     4
 74
     0
 42
0.00000001
 43
0.00000001
 12
1.0
 22
0.0
 32
0.0
 13
1.0
 23
0.0
 33
0.0
 40
0.0
 40
0.0
 40
0.0
 40
0.0
 40
1.0
 40
1.0
 40
1.0
 40
1.0
 10
152.7058864568541
 20
132.8742272099115
 30
0.0
 10
152.6601215491648
 20
132.8127068307526
 30
0.0
 10
152.6257344275348
 20
132.7488119710032
 30
0.0
 10
152.6067191738619
 20
132.6820820259595
 30
0.0
  0
ELLIPSE
  5
14B
330
1F
100
AcDbEntity
  8
0
  6
HIDDEN
 62
     7
370
     0
100
AcDbEllipse
 10
139.1497658183
 20
120.6477571142
 30
0.0
 11
13.36963611134297
 21
13.36754752639483
 31
0.0
210
0.0
220
0.0
230
1.0
 40
0.1761188775
 41
5.933076931846609
 42
5.976720052691207
  0
ELLIPSE
  5
14C
330
1F
100
AcDbEntity
  8
0
  6
HIDDEN
 62
     7
370
     0
100
AcDbEllipse
 10
139.229144249
 20
119.3693489852
 30
0.0
 11
13.37355272666625
 21
-13.37146352987013
 31
0.0
210
0.0
220
0.0
230
1.0
 40
0.1761188775
 41
0.3023035477142471
 42
0.3822730435340236
  0
LINE
  5
14D
330
1F
100
AcDbEntity
  8
0
  6
HIDDEN
 62
     7
370
     0
100
AcDbLine
 10
169.6558863619
 20
135.1123472337
 30
0.0
 11
169.6558863619
 21
104.9049460922
 31
0.0
  0
SPLINE
  5
14E
330
1F
100
AcDbEntity
  8
0
  6
HIDDEN
 62
     7
370
     0
100
AcDbSpline
210
0.0
220
0.0
230
1.0
 70
     8
 71
     3
 72
    11
 73
     7
 74
     0
 42
0.00000001
 43
0.00000001
 12
1.0
 22
0.0
 32
0.0
 13
1.0
 23
0.0
 33
0.0
 40
0.0
 40
0.0
 40
0.0
 40
0.0
 40
0.25946967059813
 40
0.3326084702733429
 40
0.6701731790694504
 40
1.0
 40
1.0
 40
1.0
 40
1.0
 10
163.3048780490826
 20
105.3098916668718
 30
0.0
 10
163.2393177532965
 20
105.301400251016
 30
0.0
 10
163.1552774504672
 20
105.2905152915841
 30
0.0
 10
162.9784037770293
 20
105.2679071584919
 30
0.0
 10
162.8765201238952
 20
105.2513116784684
 30
0.0
 10
162.8523662553438
 20
105.2482119195649
 30
0.0
 10
162.840429343767
 20
105.2466800097649
 30
0.0
  0
SPLINE
  5
14F
330
1F
100
AcDbEntity
  8
0
  6
HIDDEN
 62
     7
370
     0
100
AcDbSpline
210
0.0
220
0.0
230
1.0
 70
     8
 71
     3
 72
    22
 73
    18
 74
     0
 42
0.00000001
 43
0.00000001
 12
1.0
 22
0.0
 32
0.0
 13
1.0
 23
0.0
 33
0.0
 40
0.0
 40
0.0
 40
0.0
 40
0.0
 40
0.0022119868471047
 40
0.0799684029100432
 40
0.1575272209552896
 40
0.2358577835459358
 40
0.3136122147965963
 40
0.3900719927085506
 40
0.4660893518218608
 40
0.5423589988219177
 40
0.6186534337227994
 40
0.6937723094550358
 40
0.7691592430128827
 40
0.8459429920566703
 40
0.9207581226786524
 40
0.9231032778326366
 40
1.0
 40
1.0
 40
1.0
 40
1.0
 10
168.4221645114194
 20
104.9670485440915
 30
0.0
 10
168.4226746262207
 20
104.9669258477809
 30
0.0
 10
168.4411164474357
 20
104.9624900944621
 30
0.0
 10
168.377469526021
 20
104.9782874685729
 30
0.0
 10
168.2250374280748
 20
105.0151340120311
 30
0.0
 10
167.9584530885082
 20
105.0754236235239
 30
0.0
 10
167.6116243625203
 20
105.1478892666794
 30
0.0
 10
167.1878273044971
 20
105.2242642497405
 30
0.0
 10
166.7045144999306
 20
105.2955579404322
 30
0.0
 10
166.1757650522487
 20
105.3534374462675
 30
0.0
 10
165.6265732281272
 20
105.393186460929
 30
0.0
 10
165.0770899516031
 20
105.410020905955
 30
0.0
 10
164.5515660085234
 20
105.4047676378067
 30
0.0
 10
164.0633336020688
 20
105.3820370046489
 30
0.0
 10
163.7961589603246
 20
105.357891884969
 30
0.0
 10
163.5118099086632
 20
105.3359260273226
 30
0.0
 10
163.406789951494
 20
105.3227133329361
 30
0.0
 10
163.3048780490826
 20
105.3098916668718
 30
0.0
  0
SPLINE
  5
150
330
1F
100
AcDbEntity
  8
0
  6
HIDDEN
 62
     7
370
     0
100
AcDbSpline
210
0.0
220
0.0
230
1.0
 70
     8
 71
     3
 72
    22
 73
    18
 74
     0
 42
0.00000001
 43
0.00000001
 12
1.0
 22
0.0
 32
0.0
 13
1.0
 23
0.0
 33
0.0
 40
0.0
 40
0.0
 40
0.0
 40
0.0
 40
0.0769496979898115
 40
0.0780938880527605
 40
0.1541394023339273
 40
0.230948519945297
 40
0.3064555519845071
 40
0.3815281636167389
 40
0.4579812553650078
 40
0.5341646018648127
 40
0.6102700516631084
 40
0.6865845638039152
 40
0.7642917144352694
 40
0.8424373723746879
 40
0.9199456372638479
 40
0.9982050360904
 40
0.9999999999999999
 40
0.9999999999999999
 40
0.9999999999999999
 40
0.9999999999999999
 10
163.3047597711156
 20
134.7073867578333
 30
0.0
 10
163.4068670659719
 20
134.694597477354
 30
0.0
 10
163.5104926273735
 20
134.6816180289076
 30
0.0
 10
163.7945502466061
 20
134.6596065899239
 30
0.0
 10
164.0619583195789
 20
134.6354698510885
 30
0.0
 10
164.5528579015971
 20
134.6125663730622
 30
0.0
 10
165.0785848372637
 20
134.6072501340828
 30
0.0
 10
165.628651503825
 20
134.6241112764176
 30
0.0
 10
166.1778685337564
 20
134.6640030413349
 30
0.0
 10
166.7067340589964
 20
134.7220286962515
 30
0.0
 10
167.1895632582771
 20
134.7932986986992
 30
0.0
 10
167.6130867086531
 20
134.8696106917833
 30
0.0
 10
167.9593458486151
 20
134.9419459025941
 30
0.0
 10
168.2251940310182
 20
135.0021536742066
 30
0.0
 10
168.3786070521078
 20
135.0390651233923
 30
0.0
 10
168.4393669919711
 20
135.05482859529
 30
0.0
 10
168.4215648248119
 20
135.0503462161616
 30
0.0
 10
168.4211656679581
 20
135.0502457130974
 30
0.0
  0
SPLINE
  5
151
330
1F
100
AcDbEntity
  8
0
  6
HIDDEN
 62
     7
370
     0
100
AcDbSpline
210
0.0
220
0.0
230
1.0
 70
     8
 71
     3
 72
    10
 73
     6
 74
     0
 42
0.00000001
 43
0.00000001
 12
1.0
 22
0.0
 32
0.0
 13
1.0
 23
0.0
 33
0.0
 40
0.0
 40
0.0
 40
0.0
 40
0.0
 40
0.3343825542418548
 40
0.6655473131622539
 40
0.9999999999999999
 40
0.9999999999999999
 40
0.9999999999999999
 40
0.9999999999999999
 10
162.8399636824797
 20
134.7706757147138
 30
0.0
 10
162.8496703599851
 20
134.7691018626313
 30
0.0
 10
162.8689903067092
 20
134.7659693037954
 30
0.0
 10
163.0265617509237
 20
134.7419139173388
 30
0.0
 10
163.2117222207544
 20
134.7189336492853
 30
0.0
 10
163.3047597711156
 20
134.7073867578333
 30
0.0
  0
SPLINE
  5
152
330
1F
100
AcDbEntity
  8
0
  6
HIDDEN
 62
     7
370
     0
100
AcDbSpline
210
0.0
220
0.0
230
1.0
 70
     8
 71
     3
 72
    10
 73
     6
 74
     0
 42
0.00000001
 43
0.00000001
 12
1.0
 22
0.0
 32
0.0
 13
1.0
 23
0.0
 33
0.0
 40
0.0
 40
0.0
 40
0.0
 40
0.0
 40
0.5
 40
0.5
 40
1.0
 40
1.0
 40
1.0
 40
1.0
 10
196.2903521761509
 20
117.3999309445277
 30
0.0
 10
196.1815110169581
 20
117.474261941006
 30
0.0
 10
196.0731277124026
 20
117.5534709340644
 30
0.0
 10
195.8575401780392
 20
117.7232427929688
 30
0.0
 10
195.7497110192987
 20
117.8143917140581
 30
0.0
 10
195.6441229200181
 20
117.9081854204654
 30
0.0
  0
SPLINE
  5
153
330
1F
100
AcDbEntity
  8
0
  6
HIDDEN
 62
     7
370
     0
100
AcDbSpline
210
0.0
220
0.0
230
1.0
 70
     8
 71
     3
 72
    18
 73
    14
 74
     0
 42
0.00000001
 43
0.00000001
 12
1.0
 22
0.0
 32
0.0
 13
1.0
 23
0.0
 33
0.0
 40
0.0
 40
0.0
 40
0.0
 40
0.0
 40
0.2500000000000033
 40
0.2500000000000033
 40
0.3750000000000032
 40
0.3750000000000032
 40
0.500000000000003
 40
0.500000000000003
 40
0.6250000000000028
 40
0.6250000000000028
 40
0.7500000000000026
 40
0.7500000000000026
 40
1.0
 40
1.0
 40
1.0
 40
1.0
 10
195.6441229200194
 20
117.9081854204637
 30
0.0
 10
195.6990598309058
 20
117.8985938093329
 30
0.0
 10
195.7530533120505
 20
117.8865556930218
 30
0.0
 10
195.8367337883615
 20
117.8592575939759
 30
0.0
 10
195.8649163405037
 20
117.8487599660969
 30
0.0
 10
195.9260806667913
 20
117.8189667748901
 30
0.0
 10
195.9596557878795
 20
117.7986312149916
 30
0.0
 10
196.0258186082007
 20
117.7446341373639
 30
0.0
 10
196.0561267527323
 20
117.7135445092154
 30
0.0
 10
196.1104680224975
 20
117.6524979452972
 30
0.0
 10
196.1351997506461
 20
117.621834855555
 30
0.0
 10
196.206361229822
 20
117.5287118759737
 30
0.0
 10
196.2495975863832
 20
117.4651083342246
 30
0.0
 10
196.2903521761489
 20
117.3999309445289
 30
0.0
  0
LWPOLYLINE
  5
154
330
1F
100
AcDbEntity
  8
0
  6
HIDDEN
 62
     7
370
     0
100
AcDbPolyline
 90
       29
 70
   128
 43
0.0
 10
193.9955881094
 20
119.4065303785
 10
194.056248874
 20
119.2956442024
 10
194.0509328847
 20
119.1058904292
 10
193.9799102252
 20
118.846784149
 10
193.8467385476
 20
118.5313180682
 10
193.6580991601
 20
118.1753109336
 10
193.4234487121
 20
117.7966144529
 10
193.1545535331
 20
117.4142180603
 10
192.8648991739
 20
117.0472965237
 10
192.5690086787
 20
116.7142490518
 10
192.2817180162
 20
116.4317758881
 10
192.0174366092
 20
116.2140415177
 10
191.7894134526
 20
116.0719638352
 10
191.6090851878
 20
116.0126679238
 10
191.4854912316
 20
116.0391258668
 10
191.424830467
 20
116.1500121594
 10
191.4301464562
 20
116.3397658743
 10
191.5011691158
 20
116.5988721546
 10
191.6343407934
 20
116.9143383518
 10
191.8229801809
 20
117.2703454864
 10
192.0576306288
 20
117.6490419671
 10
192.3265258079
 20
118.0314385925
 10
192.6161801671
 20
118.3983598963
 10
192.9120706623
 20
118.7314074846
 10
193.1993613248
 20
119.0138805319
 10
193.4636427318
 20
119.2316149023
 10
193.6916658883
 20
119.3736924102
 10
193.8719941531
 20
119.4329886708
 10
193.9955881094
 20
119.4065303785
  0
SPLINE
  5
155
330
1F
100
AcDbEntity
  8
0
  6
HIDDEN
 62
     7
370
     0
100
AcDbSpline
210
0.0
220
0.0
230
1.0
 70
     8
 71
     3
 72
    10
 73
     6
 74
     0
 42
0.00000001
 43
0.00000001
 12
1.0
 22
0.0
 32
0.0
 13
1.0
 23
0.0
 33
0.0
 40
0.0
 40
0.0
 40
0.0
 40
0.0
 40
0.5
 40
0.5
 40
1.0
 40
1.0
 40
1.0
 40
1.0
 10
193.0101064587398
 20
114.9053947650699
 30
0.0
 10
193.1386418443438
 20
114.8076099152716
 30
0.0
 10
193.2674081425788
 20
114.711259002749
 30
0.0
 10
193.5237029671949
 20
114.5198971854413
 30
0.0
 10
193.6515222743899
 20
114.4246174626287
 30
0.0
 10
193.7752858063269
 20
114.3327948096283
 30
0.0
  0
SPLINE
  5
156
330
1F
100
AcDbEntity
  8
0
  6
HIDDEN
 62
     7
370
     0
100
AcDbSpline
210
0.0
220
0.0
230
1.0
 70
     8
 71
     3
 72
    90
 73
    86
 74
     0
 42
0.00000001
 43
0.00000001
 12
1.0
 22
0.0
 32
0.0
 13
1.0
 23
0.0
 33
0.0
 40
0.0
 40
0.0
 40
0.0
 40
0.0
 40
0.0156250000000007
 40
0.0156250000000007
 40
0.0234375000000008
 40
0.0234375000000008
 40
0.031250000000001
 40
0.031250000000001
 40
0.0390625000000011
 40
0.0390625000000011
 40
0.0468750000000012
 40
0.0468750000000012
 40
0.0625000000000012
 40
0.0625000000000012
 40
0.0937500000000007
 40
0.0937500000000007
 40
0.1250000000000003
 40
0.1250000000000003
 40
0.1562499999999998
 40
0.1562499999999998
 40
0.1874999999999994
 40
0.1874999999999994
 40
0.2187499999999989
 40
0.2187499999999989
 40
0.2499999999999985
 40
0.2499999999999985
 40
0.2812499999999981
 40
0.2812499999999981
 40
0.3124999999999976
 40
0.3124999999999976
 40
0.3437499999999972
 40
0.3437499999999972
 40
0.3749999999999967
 40
0.3749999999999967
 40
0.4374999999999957
 40
0.4374999999999957
 40
0.4687499999999951
 40
0.4687499999999951
 40
0.4843749999999949
 40
0.4843749999999949
 40
0.4999999999999947
 40
0.4999999999999947
 40
0.5078124999999949
 40
0.5078124999999949
 40
0.5156249999999951
 40
0.5156249999999951
 40
0.5234374999999954
 40
0.5234374999999954
 40
0.5312499999999957
 40
0.5312499999999957
 40
0.5624999999999957
 40
0.5624999999999957
 40
0.5937499999999957
 40
0.5937499999999957
 40
0.6249999999999957
 40
0.6249999999999957
 40
0.6874999999999961
 40
0.6874999999999961
 40
0.7187499999999966
 40
0.7187499999999966
 40
0.7499999999999969
 40
0.7499999999999969
 40
0.7812499999999973
 40
0.7812499999999973
 40
0.8124999999999978
 40
0.8124999999999978
 40
0.8437499999999982
 40
0.8437499999999982
 40
0.8749999999999987
 40
0.8749999999999987
 40
0.9062499999999992
 40
0.9062499999999992
 40
0.9374999999999998
 40
0.9374999999999998
 40
0.9531249999999999
 40
0.9531249999999999
 40
0.9609374999999999
 40
0.9609374999999999
 40
0.9687499999999999
 40
0.9687499999999999
 40
0.9765624999999999
 40
0.9765624999999999
 40
0.984375
 40
0.984375
 40
1.0
 40
1.0
 40
1.0
 40
1.0
 10
193.7752858063255
 20
114.3327948096297
 30
0.0
 10
193.7192476809495
 20
114.376173931481
 30
0.0
 10
193.6651809744924
 20
114.4218379859523
 30
0.0
 10
193.5897324200496
 20
114.4926339132807
 30
0.0
 10
193.5656170706061
 20
114.516525508459
 30
0.0
 10
193.5219257950264
 20
114.5637481161267
 30
0.0
 10
193.5017280718802
 20
114.5874156245573
 30
0.0
 10
193.4769642561582
 20
114.6290012141103
 30
0.0
 10
193.4771004855621
 20
114.6431142405342
 30
0.0
 10
193.5003962038276
 20
114.6542887898627
 30
0.0
 10
193.519539292588
 20
114.6538553585334
 30
0.0
 10
193.582494362402
 20
114.6500120374407
 30
0.0
 10
193.631703827912
 20
114.6433601695815
 30
0.0
 10
193.7844996678273
 20
114.6282933887031
 30
0.0
 10
193.8962834861013
 20
114.6224335087652
 30
0.0
 10
194.1290922343292
 20
114.6278615240157
 30
0.0
 10
194.2503763136404
 20
114.6385164526104
 30
0.0
 10
194.5027549547314
 20
114.6784282410092
 30
0.0
 10
194.6338529349079
 20
114.7075850717597
 30
0.0
 10
194.907949096579
 20
114.7891237856117
 30
0.0
 10
195.0488994882158
 20
114.8410191487571
 30
0.0
 10
195.3337607391696
 20
114.9699407967222
 30
0.0
 10
195.4803207159458
 20
115.0484437319875
 30
0.0
 10
195.7646583438176
 20
115.2310994891475
 30
0.0
 10
195.9060651564973
 20
115.3377981516636
 30
0.0
 10
196.1647577449995
 20
115.5720804601565
 30
0.0
 10
196.284239333359
 20
115.7020102437184
 30
0.0
 10
196.4820442623346
 20
115.9660714915835
 30
0.0
 10
196.5625044723172
 20
116.1028003823139
 30
0.0
 10
196.6796433012498
 20
116.3649663850471
 30
0.0
 10
196.7177841366355
 20
116.4929465809885
 30
0.0
 10
196.7578226180594
 20
116.7297319801689
 30
0.0
 10
196.7605773187935
 20
116.8406393428196
 30
0.0
 10
196.7267980304422
 20
117.1508202619465
 30
0.0
 10
196.6512542362749
 20
117.3207145659945
 30
0.0
 10
196.4814197987719
 20
117.5359374225616
 30
0.0
 10
196.4160119650528
 20
117.5996094328488
 30
0.0
 10
196.304416121119
 20
117.6863556873659
 30
0.0
 10
196.2649899959859
 20
117.7137575357608
 30
0.0
 10
196.1799950535283
 20
117.7676343397805
 30
0.0
 10
196.1351525102899
 20
117.7931054867897
 30
0.0
 10
196.0546335443395
 20
117.8409438198122
 30
0.0
 10
196.0250131553628
 20
117.8589185903666
 30
0.0
 10
195.9579036450695
 20
117.9067292268694
 30
0.0
 10
195.9221704950829
 20
117.936154865173
 30
0.0
 10
195.857628461968
 20
117.9920667583824
 30
0.0
 10
195.8270137757171
 20
118.019532359568
 30
0.0
 10
195.7672929898322
 20
118.0720930847694
 30
0.0
 10
195.7379898151274
 20
118.0974830937148
 30
0.0
 10
195.5911745502964
 20
118.2209151440452
 30
0.0
 10
195.471425990856
 20
118.3089710257777
 30
0.0
 10
195.2222387395128
 20
118.4617775447612
 30
0.0
 10
195.0931973158166
 20
118.5267551812589
 30
0.0
 10
194.8239132705283
 20
118.6314350219212
 30
0.0
 10
194.6833243725179
 20
118.6709472810832
 30
0.0
 10
194.2560627197358
 20
118.7405966194875
 30
0.0
 10
193.9534207640321
 20
118.7238240363627
 30
0.0
 10
193.5189134074174
 20
118.5578190140117
 30
0.0
 10
193.3782260102417
 20
118.4788288045837
 30
0.0
 10
193.1213935565193
 20
118.2742006219232
 30
0.0
 10
193.0051170455192
 20
118.1479724787062
 30
0.0
 10
192.8124028700463
 20
117.8635585705642
 30
0.0
 10
192.734768164837
 20
117.7036793735376
 30
0.0
 10
192.622449994154
 20
117.3725881276958
 30
0.0
 10
192.5868205844763
 20
117.1996309256805
 30
0.0
 10
192.5518600912681
 20
116.8583416896403
 30
0.0
 10
192.552034922286
 20
116.6855939277726
 30
0.0
 10
192.581197026826
 20
116.3522312717031
 30
0.0
 10
192.609800685171
 20
116.1907190672703
 30
0.0
 10
192.6903911781234
 20
115.8764736993484
 30
0.0
 10
192.7427940857591
 20
115.7234393189642
 30
0.0
 10
192.8650215891484
 20
115.4342439132254
 30
0.0
 10
192.935455846233
 20
115.2967254642971
 30
0.0
 10
193.0503297438845
 20
115.1018443618804
 30
0.0
 10
193.0905753102464
 20
115.038521774057
 30
0.0
 10
193.14789102615
 20
114.949388769436
 30
0.0
 10
193.1666474296835
 20
114.920508100664
 30
0.0
 10
193.1966532817293
 20
114.868613300007
 30
0.0
 10
193.2068724967897
 20
114.8458871014615
 30
0.0
 10
193.2012180113192
 20
114.8242940341803
 30
0.0
 10
193.1874249833749
 20
114.8242144840543
 30
0.0
 10
193.155934137713
 20
114.8308056417731
 30
0.0
 10
193.1380657436742
 20
114.8374569165151
 30
0.0
 10
193.0837107153793
 20
114.8610920246035
 30
0.0
 10
193.0462295567241
 20
114.8820465037639
 30
0.0
 10
193.010106458742
 20
114.9053947650681
 30
0.0
  0
SPLINE
  5
157
330
1F
100
AcDbEntity
  8
0
  6
HIDDEN
 62
     7
370
     0
100
AcDbSpline
210
0.0
220
0.0
230
1.0
 70
    11
 71
     3
 72
    50
 73
    46
 74
     0
 42
0.00000001
 43
0.00000001
 12
1.0
 22
0.0
 32
0.0
 13
1.0
 23
0.0
 33
0.0
 40
0.0
 40
0.0
 40
0.0
 40
0.0
 40
0.0625000000000002
 40
0.0625000000000002
 40
0.1250000000000003
 40
0.1250000000000003
 40
0.1562500000000003
 40
0.1562500000000003
 40
0.1875000000000003
 40
0.1875000000000003
 40
0.2187500000000003
 40
0.2187500000000003
 40
0.2500000000000002
 40
0.2500000000000002
 40
0.2812500000000002
 40
0.2812500000000002
 40
0.3125000000000002
 40
0.3125000000000002
 40
0.3750000000000001
 40
0.3750000000000001
 40
0.4375
 40
0.4375
 40
0.4999999999999999
 40
0.4999999999999999
 40
0.5312499999999999
 40
0.5312499999999999
 40
0.5624999999999999
 40
0.5624999999999999
 40
0.5937499999999998
 40
0.5937499999999998
 40
0.6249999999999998
 40
0.6249999999999998
 40
0.6562499999999998
 40
0.6562499999999998
 40
0.6874999999999998
 40
0.6874999999999998
 40
0.7499999999999998
 40
0.7499999999999998
 40
0.8124999999999999
 40
0.8124999999999999
 40
0.875
 40
0.875
 40
0.9375
 40
0.9375
 40
1.0
 40
1.0
 40
1.0
 40
1.0
 10
167.4800631847316
 20
107.3358363694532
 30
0.0
 10
167.33380834993
 20
107.3568888952787
 30
0.0
 10
167.1623397129717
 20
107.3791701199607
 30
0.0
 10
166.7691951074617
 20
107.4200116103096
 30
0.0
 10
166.5539509218964
 20
107.4377692452306
 30
0.0
 10
166.2112111353468
 20
107.4560425380742
 30
0.0
 10
166.0929647522913
 20
107.4607524770882
 30
0.0
 10
165.857185750113
 20
107.466751572147
 30
0.0
 10
165.738619440407
 20
107.4681074045428
 30
0.0
 10
165.5001243596065
 20
107.4674129925321
 30
0.0
 10
165.3793319660846
 20
107.4653144895408
 30
0.0
 10
165.1442660006195
 20
107.457931340015
 30
0.0
 10
165.0292104881195
 20
107.4526685767441
 30
0.0
 10
164.8039907333766
 20
107.4394148146955
 30
0.0
 10
164.6929085637743
 20
107.4313357400181
 30
0.0
 10
164.4816571168386
 20
107.4134000130231
 30
0.0
 10
164.3812988823379
 20
107.4035637778096
 30
0.0
 10
164.0956549253145
 20
107.3725481093882
 30
0.0
 10
163.9253761817186
 20
107.3497164151695
 30
0.0
 10
163.6492250517983
 20
107.3090191408388
 30
0.0
 10
163.5395258654135
 20
107.2906930912666
 30
0.0
 10
163.3939827842496
 20
107.2656654920217
 30
0.0
 10
163.3559761487923
 20
107.2586628426542
 30
0.0
 10
163.3558418554345
 20
107.2586386171874
 30
0.0
 10
163.3649596106767
 20
107.2602932044435
 30
0.0
 10
163.4018781561903
 20
107.2668758477164
 30
0.0
 10
163.4298518112151
 20
107.2718320892391
 30
0.0
 10
163.5026233906673
 20
107.2843487619374
 30
0.0
 10
163.547548628829
 20
107.2919333012509
 30
0.0
 10
163.6545919437845
 20
107.309241556624
 30
0.0
 10
163.717159984751
 20
107.3190258484168
 30
0.0
 10
163.8555508874904
 20
107.3394310500828
 30
0.0
 10
163.9317343432649
 20
107.3501160050059
 30
0.0
 10
164.098090077076
 20
107.3716997425833
 30
0.0
 10
164.1891183795207
 20
107.3826858515844
 30
0.0
 10
164.4757721961936
 20
107.4138429353505
 30
0.0
 10
164.6878242543112
 20
107.4325391223867
 30
0.0
 10
165.1410015302658
 20
107.4592864031022
 30
0.0
 10
165.3756311790057
 20
107.466992009804
 30
0.0
 10
165.8570547284643
 20
107.4685100173022
 30
0.0
 10
166.0923600987328
 20
107.4623213290698
 30
0.0
 10
166.5522677504083
 20
107.437915993377
 30
0.0
 10
166.7666962623675
 20
107.4202328394517
 30
0.0
 10
167.1598954471329
 20
107.3794619224191
 30
0.0
 10
167.333804518798
 20
107.3568894467477
 30
0.0
 10
167.4800631847316
 20
107.3358363694532
 30
0.0
  0
SPLINE
  5
158
330
1F
100
AcDbEntity
  8
0
  6
HIDDEN
 62
     7
370
     0
100
AcDbSpline
210
0.0
220
0.0
230
1.0
 70
    11
 71
     3
 72
    50
 73
    46
 74
     0
 42
0.00000001
 43
0.00000001
 12
1.0
 22
0.0
 32
0.0
 13
1.0
 23
0.0
 33
0.0
 40
0.0
 40
0.0
 40
0.0
 40
0.0
 40
0.0624999999999998
 40
0.0624999999999998
 40
0.1249999999999996
 40
0.1249999999999996
 40
0.1562499999999996
 40
0.1562499999999996
 40
0.1874999999999996
 40
0.1874999999999996
 40
0.2187499999999996
 40
0.2187499999999996
 40
0.2499999999999996
 40
0.2499999999999996
 40
0.2812499999999996
 40
0.2812499999999996
 40
0.3124999999999996
 40
0.3124999999999996
 40
0.3749999999999996
 40
0.3749999999999996
 40
0.4374999999999997
 40
0.4374999999999997
 40
0.4999999999999999
 40
0.4999999999999999
 40
0.53125
 40
0.53125
 40
0.5625000000000001
 40
0.5625000000000001
 40
0.5937500000000002
 40
0.5937500000000002
 40
0.6250000000000003
 40
0.6250000000000003
 40
0.6562500000000004
 40
0.6562500000000004
 40
0.6875000000000006
 40
0.6875000000000006
 40
0.7500000000000004
 40
0.7500000000000004
 40
0.8125000000000003
 40
0.8125000000000003
 40
0.8750000000000002
 40
0.8750000000000002
 40
0.9375000000000001
 40
0.9375000000000001
 40
1.0
 40
1.0
 40
1.0
 40
1.0
 10
167.4800631847316
 20
132.681456956413
 30
0.0
 10
167.3338083499301
 20
132.6604044305875
 30
0.0
 10
167.1623397129717
 20
132.6381232059055
 30
0.0
 10
166.7691951074617
 20
132.5972817155566
 30
0.0
 10
166.5539509218964
 20
132.5795240806357
 30
0.0
 10
166.2112111353468
 20
132.5612507877921
 30
0.0
 10
166.0929647522913
 20
132.556540848778
 30
0.0
 10
165.857185750113
 20
132.5505417537192
 30
0.0
 10
165.738619440407
 20
132.5491859213234
 30
0.0
 10
165.5001243596065
 20
132.5498803333341
 30
0.0
 10
165.3793319660846
 20
132.5519788363254
 30
0.0
 10
165.1442660006195
 20
132.5593619858512
 30
0.0
 10
165.0292104881195
 20
132.5646247491222
 30
0.0
 10
164.8039907333766
 20
132.5778785111707
 30
0.0
 10
164.6929085637743
 20
132.5859575858482
 30
0.0
 10
164.4816571168386
 20
132.6038933128432
 30
0.0
 10
164.3812988823379
 20
132.6137295480567
 30
0.0
 10
164.0956549253145
 20
132.6447452164781
 30
0.0
 10
163.9253761817186
 20
132.6675769106967
 30
0.0
 10
163.6492250517983
 20
132.7082741850274
 30
0.0
 10
163.5395258654135
 20
132.7266002345997
 30
0.0
 10
163.3939827842496
 20
132.7516278338446
 30
0.0
 10
163.3559761487923
 20
132.758630483212
 30
0.0
 10
163.3558418554345
 20
132.7586547086789
 30
0.0
 10
163.3649596106767
 20
132.7570001214227
 30
0.0
 10
163.4018781561903
 20
132.7504174781499
 30
0.0
 10
163.4298518112151
 20
132.7454612366272
 30
0.0
 10
163.5026233906673
 20
132.7329445639288
 30
0.0
 10
163.547548628829
 20
132.7253600246154
 30
0.0
 10
163.6545919437845
 20
132.7080517692422
 30
0.0
 10
163.717159984751
 20
132.6982674774495
 30
0.0
 10
163.8555508874904
 20
132.6778622757834
 30
0.0
 10
163.9317343432649
 20
132.6671773208603
 30
0.0
 10
164.098090077076
 20
132.6455935832829
 30
0.0
 10
164.1891183795207
 20
132.6346074742818
 30
0.0
 10
164.4757721961936
 20
132.6034503905157
 30
0.0
 10
164.6878242543112
 20
132.5847542034795
 30
0.0
 10
165.1410015302658
 20
132.5580069227641
 30
0.0
 10
165.3756311790057
 20
132.5503013160622
 30
0.0
 10
165.8570547284643
 20
132.5487833085641
 30
0.0
 10
166.0923600987328
 20
132.5549719967964
 30
0.0
 10
166.5522677504083
 20
132.5793773324893
 30
0.0
 10
166.7666962623675
 20
132.5970604864145
 30
0.0
 10
167.1598954471329
 20
132.6378314034472
 30
0.0
 10
167.333804518798
 20
132.6604038791186
 30
0.0
 10
167.4800631847316
 20
132.681456956413
 30
0.0
  0
SPLINE
  5
159
330
1F
100
AcDbEntity
  8
0
  6
HIDDEN
 62
     7
370
     0
100
AcDbSpline
210
0.0
220
0.0
230
1.0
 70
    11
 71
     3
 72
    14
 73
    10
 74
     0
 42
0.00000001
 43
0.00000001
 12
1.0
 22
0.0
 32
0.0
 13
1.0
 23
0.0
 33
0.0
 40
0.0
 40
0.0
 40
0.0
 40
0.0
 40
0.2500000000000001
 40
0.2500000000000001
 40
0.5000000000000001
 40
0.5000000000000001
 40
0.75
 40
0.75
 40
1.0
 40
1.0
 40
1.0
 40
1.0
 10
167.4800631847316
 20
132.681456956413
 30
0.0
 10
167.6339390804345
 20
132.703606489265
 30
0.0
 10
167.7518196480635
 20
132.7164185563386
 30
0.0
 10
167.9148834379762
 20
132.7327712651691
 30
0.0
 10
167.9557999565998
 20
132.7359470278869
 30
0.0
 10
167.955972689116
 20
132.7359617300636
 30
0.0
 10
167.9150449308822
 20
132.7327821790703
 30
0.0
 10
167.7527075654167
 20
132.7165128475928
 30
0.0
 10
167.6339372973106
 20
132.7036062325948
 30
0.0
 10
167.4800631847316
 20
132.681456956413
 30
0.0
  0
SPLINE
  5
15A
330
1F
100
AcDbEntity
  8
0
  6
HIDDEN
 62
     7
370
     0
100
AcDbSpline
210
0.0
220
0.0
230
1.0
 70
    11
 71
     3
 72
    14
 73
    10
 74
     0
 42
0.00000001
 43
0.00000001
 12
1.0
 22
0.0
 32
0.0
 13
1.0
 23
0.0
 33
0.0
 40
0.0
 40
0.0
 40
0.0
 40
0.0
 40
0.2500000000000001
 40
0.2500000000000001
 40
0.5000000000000002
 40
0.5000000000000002
 40
0.7500000000000002
 40
0.7500000000000002
 40
1.0
 40
1.0
 40
1.0
 40
1.0
 10
167.4800631847316
 20
107.3358363694532
 30
0.0
 10
167.6339390804345
 20
107.3136868366012
 30
0.0
 10
167.7518196480635
 20
107.3008747695276
 30
0.0
 10
167.9148834379762
 20
107.2845220606972
 30
0.0
 10
167.9557999565998
 20
107.2813462979793
 30
0.0
 10
167.955972689116
 20
107.2813315958026
 30
0.0
 10
167.9150449308822
 20
107.284511146796
 30
0.0
 10
167.7527075654167
 20
107.3007804782735
 30
0.0
 10
167.6339372973106
 20
107.3136870932715
 30
0.0
 10
167.4800631847316
 20
107.3358363694532
 30
0.0
  0
LINE
  5
15B
330
1F
100
AcDbEntity
  8
0
  6
HIDDEN
 62
     7
370
     0
100
AcDbLine
 10
171.6558864569
 20
109.5086468045
 30
0.0
 11
171.6558864569
 21
130.4955940355
 31
0.0
  0
LINE
  5
15C
330
1F
100
AcDbEntity
  8
0
  6
HIDDEN
 62
     7
370
     0
100
AcDbLine
 10
159.6585359653
 20
130.5086465214
 30
0.0
 11
159.6585359653
 21
109.5086468045
 31
0.0
  0
ARC
  5
15D
330
1F
100
AcDbEntity
  8
0
  6
HIDDEN
 62
     7
370
     0
100
AcDbCircle
 10
194.7065640446
 20
116.0511518767
 30
0.0
 40
2.080285838904402
100
AcDbArc
 50
40.4182429149
 51
63.2122188739
  0
SPLINE
  5
15E
330
1F
100
AcDbEntity
  8
0
  6
HIDDEN
 62
     7
370
     0
100
AcDbSpline
210
0.0
220
0.0
230
1.0
 70
     8
 71
     3
 72
    12
 73
     8
 74
     0
 42
0.00000001
 43
0.00000001
 12
1.0
 22
0.0
 32
0.0
 13
1.0
 23
0.0
 33
0.0
 40
0.0
 40
0.0
 40
0.0
 40
0.0
 40
0.5000000000000002
 40
0.5000000000000002
 40
0.7500000000000002
 40
0.7500000000000002
 40
1.0
 40
1.0
 40
1.0
 40
1.0
 10
196.6558864568542
 20
119.870846656068
 30
0.0
 10
196.715605314145
 20
119.7306249156208
 30
0.0
 10
196.7557926484122
 20
119.5406565643842
 30
0.0
 10
196.755933100392
 20
119.212399221754
 30
0.0
 10
196.7464069531223
 20
119.0991974721042
 30
0.0
 10
196.7110864889502
 20
118.8719173142242
 30
0.0
 10
196.6857703092872
 20
118.7602778643313
 30
0.0
 10
196.6558864568542
 20
118.6529000499365
 30
0.0
  0
SPLINE
  5
15F
330
1F
100
AcDbEntity
  8
0
  6
HIDDEN
 62
     7
370
     0
100
AcDbSpline
210
0.0
220
0.0
230
1.0
 70
     8
 71
     3
 72
    64
 73
    60
 74
     0
 42
0.00000001
 43
0.00000001
 12
1.0
 22
0.0
 32
0.0
 13
1.0
 23
0.0
 33
0.0
 40
0.0
 40
0.0
 40
0.0
 40
0.0
 40
0.0625000000000004
 40
0.0625000000000004
 40
0.0937500000000003
 40
0.0937500000000003
 40
0.1250000000000003
 40
0.1250000000000003
 40
0.1562500000000003
 40
0.1562500000000003
 40
0.1875000000000002
 40
0.1875000000000002
 40
0.2187500000000002
 40
0.2187500000000002
 40
0.2500000000000002
 40
0.2500000000000002
 40
0.2812500000000001
 40
0.2812500000000001
 40
0.3125000000000001
 40
0.3125000000000001
 40
0.3437500000000001
 40
0.3437500000000001
 40
0.375
 40
0.375
 40
0.4062500000000001
 40
0.4062500000000001
 40
0.4375000000000001
 40
0.4375000000000001
 40
0.4687500000000001
 40
0.4687500000000001
 40
0.5000000000000001
 40
0.5000000000000001
 40
0.5312500000000002
 40
0.5312500000000002
 40
0.5625000000000002
 40
0.5625000000000002
 40
0.5937500000000003
 40
0.5937500000000003
 40
0.6250000000000003
 40
0.6250000000000003
 40
0.6562500000000002
 40
0.6562500000000002
 40
0.6875000000000002
 40
0.6875000000000002
 40
0.7187500000000002
 40
0.7187500000000002
 40
0.7500000000000001
 40
0.7500000000000001
 40
0.7812500000000001
 40
0.7812500000000001
 40
0.8125000000000001
 40
0.8125000000000001
 40
0.8437500000000001
 40
0.8437500000000001
 40
0.875
 40
0.875
 40
0.9375000000000001
 40
0.9375000000000001
 40
1.0
 40
1.0
 40
1.0
 40
1.0
 10
196.6558864568541
 20
118.6529000499338
 30
0.0
 10
196.5763238518228
 20
118.4368989392806
 30
0.0
 10
196.4570622475188
 20
118.2602886027326
 30
0.0
 10
196.2336654974252
 20
118.0428174129744
 30
0.0
 10
196.1529739836068
 20
117.9796293582788
 30
0.0
 10
195.9792507630566
 20
117.868581611891
 30
0.0
 10
195.8854619186759
 20
117.8204853135123
 30
0.0
 10
195.6882061017012
 20
117.7396136479
 30
0.0
 10
195.5847722931791
 20
117.7066413536389
 30
0.0
 10
195.3650305938797
 20
117.6532235819801
 30
0.0
 10
195.2473849081723
 20
117.6326001699281
 30
0.0
 10
194.9981142831543
 20
117.6036111435904
 30
0.0
 10
194.8671299130738
 20
117.5952648445302
 30
0.0
 10
194.599051422372
 20
117.5905925826276
 30
0.0
 10
194.4661859466838
 20
117.5942270203618
 30
0.0
 10
194.206402454949
 20
117.6138609293509
 30
0.0
 10
194.0848922664829
 20
117.6294550323706
 30
0.0
 10
193.8525655370894
 20
117.6735244386819
 30
0.0
 10
193.7424652606477
 20
117.7020751949624
 30
0.0
 10
193.5367318795624
 20
117.7721618034092
 30
0.0
 10
193.4400263158147
 20
117.8138850440307
 30
0.0
 10
193.2567630160799
 20
117.9132594270004
 30
0.0
 10
193.1700646086923
 20
117.9712671382731
 30
0.0
 10
193.0121060417916
 20
118.1022358363216
 30
0.0
 10
192.9400589423297
 20
118.175513538788
 30
0.0
 10
192.8105468866963
 20
118.3406711868401
 30
0.0
 10
192.7525599703335
 20
118.4338622115746
 30
0.0
 10
192.6579762025957
 20
118.6354384122359
 30
0.0
 10
192.620903827792
 20
118.7438712481246
 30
0.0
 10
192.5696890166016
 20
118.9785158766045
 30
0.0
 10
192.5564661017052
 20
119.1015036529645
 30
0.0
 10
192.5553442666092
 20
119.3538451016674
 30
0.0
 10
192.5677807056192
 20
119.4857723011569
 30
0.0
 10
192.6166396676079
 20
119.7449693824638
 30
0.0
 10
192.6528686180641
 20
119.8734968927661
 30
0.0
 10
192.7467298680828
 20
120.1258795609524
 30
0.0
 10
192.8030745280283
 20
120.2465540497405
 30
0.0
 10
192.9324887168486
 20
120.4782666322091
 30
0.0
 10
193.0058892029015
 20
120.5894022992311
 30
0.0
 10
193.163630931629
 20
120.7954547706263
 30
0.0
 10
193.2485209179544
 20
120.8914809649173
 30
0.0
 10
193.4309272980204
 20
121.0702646020032
 30
0.0
 10
193.5291408352658
 20
121.1534537228603
 30
0.0
 10
193.7353162556286
 20
121.3013009502553
 30
0.0
 10
193.8435888948792
 20
121.3665525641145
 30
0.0
 10
194.0751431784747
 20
121.476662210998
 30
0.0
 10
194.1990288593353
 20
121.5213364977427
 30
0.0
 10
194.4561108801211
 20
121.5787263120699
 30
0.0
 10
194.5922660001863
 20
121.5913134084758
 30
0.0
 10
194.8577502714394
 20
121.578823088441
 30
0.0
 10
194.9909289316851
 20
121.5537575155223
 30
0.0
 10
195.2392643080745
 20
121.4762233120561
 30
0.0
 10
195.3575958543831
 20
121.4235738869395
 30
0.0
 10
195.5807637429373
 20
121.2989551111487
 30
0.0
 10
195.6848199834422
 20
121.2276520194346
 30
0.0
 10
195.9806979892093
 20
120.9901080543059
 30
0.0
 10
196.1578409862891
 20
120.7981509532712
 30
0.0
 10
196.4534327475559
 20
120.3706605507172
 30
0.0
 10
196.5761329590146
 20
120.1281590158737
 30
0.0
 10
196.6558864568533
 20
119.8708466560708
 30
0.0
  0
ARC
  5
160
330
1F
100
AcDbEntity
  8
0
  6
HIDDEN
 62
     7
370
     0
100
AcDbCircle
 10
194.6100845739
 20
116.245918322
 30
0.0
 40
2.087326231003126
100
AcDbArc
 50
219.9575915663
 51
246.4257609146
  0
LINE
  5
161
330
1F
100
AcDbEntity
  8
0
  6
HIDDEN
 62
     7
370
     0
100
AcDbLine
 10
184.0995565285
 20
131.8586470221
 30
0.0
 11
191.935010836
 21
131.8586470221
 31
0.0
  0
LINE
  5
162
330
1F
100
AcDbEntity
  8
0
  6
HIDDEN
 62
     7
370
     0
100
AcDbLine
 10
188.6958858227
 20
133.5244934667
 30
0.0
 11
188.6958858227
 21
137.4112508852
 31
0.0
  0
LINE
  5
163
330
1F
100
AcDbEntity
  8
0
  6
HIDDEN
 62
     7
370
     0
100
AcDbLine
 10
186.6158867483
 20
133.5244934667
 30
0.0
 11
186.6158867483
 21
137.4112508852
 31
0.0
  0
LINE
  5
164
330
1F
100
AcDbEntity
  8
0
  6
HIDDEN
 62
     7
370
     0
100
AcDbLine
 10
151.755886734
 20
110.143640231
 30
0.0
 11
151.755886734
 21
129.8736530949
 31
0.0
  0
LINE
  5
165
330
1F
100
AcDbEntity
  8
0
  6
HIDDEN
 62
     7
370
     0
100
AcDbLine
 10
177.825261489
 20
130.5086465214
 30
0.0
 11
177.825261489
 21
109.5086468045
 31
0.0
  0
LINE
  5
166
330
1F
100
AcDbEntity
  8
0
  6
HIDDEN
 62
     7
370
     0
100
AcDbLine
 10
179.6058869218
 20
129.8836471174
 30
0.0
 11
179.6058869218
 21
110.1336462084
 31
0.0
  0
LINE
  5
167
330
1F
100
AcDbEntity
  8
0
  6
HIDDEN
 62
     7
370
     0
100
AcDbLine
 10
152.7648871993
 20
110.2864632044
 30
0.0
 11
156.9558862825
 21
110.2864632044
 31
0.0
  0
ARC
  5
168
330
1F
100
AcDbEntity
  8
0
  6
HIDDEN
 62
     7
370
     0
100
AcDbCircle
 10
156.7308864569
 20
120.0086466629
 30
0.0
 40
10.50000000000001
100
AcDbArc
 50
247.4596895365
 51
247.8078280674
  0
LINE
  5
169
330
1F
100
AcDbEntity
  8
0
  6
HIDDEN
 62
     7
370
     0
100
AcDbLine
 10
152.7058860515
 20
129.7065524046
 30
0.0
 11
152.7058860515
 21
110.3107409213
 31
0.0
  0
LINE
  5
16A
330
1F
100
AcDbEntity
  8
0
  6
HIDDEN
 62
     7
370
     0
100
AcDbLine
 10
154.4558858727
 20
129.7065524046
 30
0.0
 11
152.7058860515
 21
129.7065524046
 31
0.0
  0
SPLINE
  5
16B
330
1F
100
AcDbEntity
  8
0
  6
HIDDEN
 62
     7
370
     0
100
AcDbSpline
210
0.0
220
0.0
230
1.0
 70
     8
 71
     3
 72
    14
 73
    10
 74
     0
 42
0.00000001
 43
0.00000001
 12
1.0
 22
0.0
 32
0.0
 13
1.0
 23
0.0
 33
0.0
 40
0.0
 40
0.0
 40
0.0
 40
0.0
 40
0.2499999999999997
 40
0.2499999999999997
 40
0.4999999999999993
 40
0.4999999999999993
 40
0.7499999999999997
 40
0.7499999999999997
 40
1.0
 40
1.0
 40
1.0
 40
1.0
 10
155.3558864568542
 20
130.0328361563535
 30
0.0
 10
155.3558864568542
 20
129.9963642918197
 30
0.0
 10
155.3335158250501
 20
129.9586285393072
 30
0.0
 10
155.2463002938019
 20
129.8834928176078
 30
0.0
 10
155.1822790877252
 20
129.8471205313857
 30
0.0
 10
155.018793789984
 20
129.7828969922236
 30
0.0
 10
154.9194789158107
 20
129.7553740296011
 30
0.0
 10
154.6996526451057
 20
129.717201862714
 30
0.0
 10
154.5786490827965
 20
129.7065523646813
 30
0.0
 10
154.4558864568542
 20
129.7065523646813
 30
0.0
  0
LINE
  5
16C
330
1F
100
AcDbEntity
  8
0
  6
HIDDEN
 62
     7
370
     0
100
AcDbLine
 10
155.3558862065
 20
130.032836612
 30
0.0
 11
155.3558862065
 21
130.5086465214
 31
0.0
  0
SPLINE
  5
16D
330
1F
100
AcDbEntity
  8
0
  6
HIDDEN
 62
     7
370
     0
100
AcDbSpline
210
0.0
220
0.0
230
1.0
 70
     8
 71
     3
 72
    14
 73
    10
 74
     0
 42
0.00000001
 43
0.00000001
 12
1.0
 22
0.0
 32
0.0
 13
1.0
 23
0.0
 33
0.0
 40
0.0
 40
0.0
 40
0.0
 40
0.0
 40
0.2499999999999996
 40
0.2499999999999996
 40
0.4999999999999992
 40
0.4999999999999992
 40
0.7499999999999994
 40
0.7499999999999994
 40
1.0
 40
1.0
 40
1.0
 40
1.0
 10
155.3558864568542
 20
130.0328361563535
 30
0.0
 10
155.3558864568542
 20
129.9963642918197
 30
0.0
 10
155.3335158250501
 20
129.9586285393072
 30
0.0
 10
155.2463002938019
 20
129.8834928176078
 30
0.0
 10
155.1822790877252
 20
129.8471205313857
 30
0.0
 10
155.0187937899839
 20
129.7828969922236
 30
0.0
 10
154.9194789158107
 20
129.7553740296011
 30
0.0
 10
154.6996526451057
 20
129.717201862714
 30
0.0
 10
154.5786490827965
 20
129.7065523646813
 30
0.0
 10
154.4558864568542
 20
129.7065523646813
 30
0.0
  0
SPLINE
  5
16E
330
1F
100
AcDbEntity
  8
0
  6
HIDDEN
 62
     7
370
     0
100
AcDbSpline
210
0.0
220
0.0
230
1.0
 70
     8
 71
     3
 72
    14
 73
    10
 74
     0
 42
0.00000001
 43
0.00000001
 12
1.0
 22
0.0
 32
0.0
 13
1.0
 23
0.0
 33
0.0
 40
0.0
 40
0.0
 40
0.0
 40
0.0
 40
0.2500000000000003
 40
0.2500000000000003
 40
0.5000000000000002
 40
0.5000000000000002
 40
0.7500000000000001
 40
0.7500000000000001
 40
1.0
 40
1.0
 40
1.0
 40
1.0
 10
156.9558864568542
 20
110.2864635747579
 30
0.0
 10
157.0783545447731
 20
110.2864635747579
 30
0.0
 10
157.1985656236419
 20
110.276126555038
 30
0.0
 10
157.4187719428945
 20
110.23865932646
 30
0.0
 10
157.5184273955926
 20
110.2115281581708
 30
0.0
 10
157.6814147485483
 20
110.148761111964
 30
0.0
 10
157.7461521092948
 20
110.1126974180371
 30
0.0
 10
157.8329874594118
 20
110.039504748169
 30
0.0
 10
157.8558864568542
 20
110.001961962658
 30
0.0
 10
157.8558864568542
 20
109.9662543184765
 30
0.0
  0
LINE
  5
16F
330
1F
100
AcDbEntity
  8
0
  6
HIDDEN
 62
     7
370
     0
100
AcDbLine
 10
157.8558866163
 20
109.9662540142
 30
0.0
 11
157.8558866163
 21
109.5086468045
 31
0.0
  0
SPLINE
  5
170
330
1F
100
AcDbEntity
  8
0
  6
HIDDEN
 62
     7
370
     0
100
AcDbSpline
210
0.0
220
0.0
230
1.0
 70
     8
 71
     3
 72
    14
 73
    10
 74
     0
 42
0.00000001
 43
0.00000001
 12
1.0
 22
0.0
 32
0.0
 13
1.0
 23
0.0
 33
0.0
 40
0.0
 40
0.0
 40
0.0
 40
0.0
 40
0.25
 40
0.25
 40
0.5
 40
0.5
 40
0.75
 40
0.75
 40
1.0
 40
1.0
 40
1.0
 40
1.0
 10
156.9558864568542
 20
110.2864635747579
 30
0.0
 10
157.0783545447731
 20
110.2864635747579
 30
0.0
 10
157.1985656236419
 20
110.276126555038
 30
0.0
 10
157.4187719428946
 20
110.2386593264601
 30
0.0
 10
157.5184273955926
 20
110.2115281581708
 30
0.0
 10
157.6814147485483
 20
110.148761111964
 30
0.0
 10
157.7461521092948
 20
110.1126974180371
 30
0.0
 10
157.8329874594118
 20
110.039504748169
 30
0.0
 10
157.8558864568542
 20
110.001961962658
 30
0.0
 10
157.8558864568542
 20
109.9662543184765
 30
0.0
  0
LINE
  5
171
330
1F
100
AcDbEntity
  8
0
  6
HIDDEN
 62
     7
370
     0
100
AcDbLine
 10
152.7058860515
 20
110.3107409213
 30
0.0
 11
152.7058860515
 21
129.7065524046
 31
0.0
  0
SPLINE
  5
172
330
1F
100
AcDbEntity
  8
0
  6
HIDDEN
 62
     7
370
     0
100
AcDbSpline
210
0.0
220
0.0
230
1.0
 70
     8
 71
     3
 72
    12
 73
     8
 74
     0
 42
0.00000001
 43
0.00000001
 12
1.0
 22
0.0
 32
0.0
 13
1.0
 23
0.0
 33
0.0
 40
0.0
 40
0.0
 40
0.0
 40
0.0
 40
0.2499999999999999
 40
0.2499999999999999
 40
0.4999999999999998
 40
0.4999999999999998
 40
1.0
 40
1.0
 40
1.0
 40
1.0
 10
207.0578102455009
 20
120.0086466629331
 30
0.0
 10
207.0578102455009
 20
118.7901585784905
 30
0.0
 10
207.0913993380993
 20
117.5671770050459
 30
0.0
 10
207.2219038005798
 20
115.1246038051661
 30
0.0
 10
207.3184044237018
 20
113.9077521975327
 30
0.0
 10
207.6855195251655
 20
110.2682127922747
 30
0.0
 10
208.032496949146
 20
107.8563629628146
 30
0.0
 10
208.4374696105986
 20
105.4527442267488
 30
0.0
  0
LINE
  5
173
330
1F
100
AcDbEntity
  8
0
  6
HIDDEN
 62
     7
370
     0
100
AcDbLine
 10
207.0578119015
 20
138.0086458881
 30
0.0
 11
207.0578119015
 21
120.0086466629
 31
0.0
  0
SPLINE
  5
174
330
1F
100
AcDbEntity
  8
0
  6
HIDDEN
 62
     7
370
     0
100
AcDbSpline
210
0.0
220
0.0
230
1.0
 70
     8
 71
     3
 72
     8
 73
     4
 74
     0
 42
0.00000001
 43
0.00000001
 12
1.0
 22
0.0
 32
0.0
 13
1.0
 23
0.0
 33
0.0
 40
0.0
 40
0.0
 40
0.0
 40
0.0
 40
1.0
 40
1.0
 40
1.0
 40
1.0
 10
206.8544852951538
 20
103.6998606536551
 30
0.0
 10
207.0402542952914
 20
104.3948225467514
 30
0.0
 10
207.651415287397
 20
105.0185143022807
 30
0.0
 10
208.4374696105986
 20
105.4527442267487
 30
0.0
  0
ELLIPSE
  5
175
330
1F
100
AcDbEntity
  8
0
  6
HIDDEN
 62
     7
370
     0
100
AcDbEllipse
 10
224.3811838029
 20
120.0086466629
 30
0.0
 11
-1.273904606567442
 21
17.99960260609392
 31
0.0
210
0.0
220
0.0
230
1.0
 40
0.0938906935
 41
1.150686524095007
 42
1.564151400841476
  0
SPLINE
  5
176
330
1F
100
AcDbEntity
  8
0
  6
HIDDEN
 62
     7
370
     0
100
AcDbSpline
210
0.0
220
0.0
230
1.0
 70
     8
 71
     3
 72
    64
 73
    60
 74
     0
 42
0.00000001
 43
0.00000001
 12
1.0
 22
0.0
 32
0.0
 13
1.0
 23
0.0
 33
0.0
 40
0.0
 40
0.0
 40
0.0
 40
0.0
 40
0.0624999999999999
 40
0.0624999999999999
 40
0.1249999999999999
 40
0.1249999999999999
 40
0.1562499999999998
 40
0.1562499999999998
 40
0.1874999999999998
 40
0.1874999999999998
 40
0.2187499999999998
 40
0.2187499999999998
 40
0.2499999999999996
 40
0.2499999999999996
 40
0.2812499999999995
 40
0.2812499999999995
 40
0.3124999999999994
 40
0.3124999999999994
 40
0.3437499999999993
 40
0.3437499999999993
 40
0.3749999999999993
 40
0.3749999999999993
 40
0.4062499999999992
 40
0.4062499999999992
 40
0.4374999999999991
 40
0.4374999999999991
 40
0.468749999999999
 40
0.468749999999999
 40
0.4999999999999989
 40
0.4999999999999989
 40
0.5312499999999988
 40
0.5312499999999988
 40
0.5624999999999986
 40
0.5624999999999986
 40
0.5937499999999984
 40
0.5937499999999984
 40
0.6249999999999983
 40
0.6249999999999983
 40
0.6874999999999981
 40
0.6874999999999981
 40
0.7187499999999983
 40
0.7187499999999983
 40
0.7499999999999986
 40
0.7499999999999986
 40
0.7812499999999987
 40
0.7812499999999987
 40
0.8124999999999989
 40
0.8124999999999989
 40
0.8437499999999991
 40
0.8437499999999991
 40
0.8749999999999992
 40
0.8749999999999992
 40
0.9062499999999994
 40
0.9062499999999994
 40
0.9374999999999997
 40
0.9374999999999997
 40
0.9687499999999998
 40
0.9687499999999998
 40
1.0
 40
1.0
 40
1.0
 40
1.0
 10
217.4817485420085
 20
120.0086466629331
 30
0.0
 10
217.8567413898121
 20
120.264332916095
 30
0.0
 10
218.1809326853268
 20
120.5726249756268
 30
0.0
 10
218.7307090992039
 20
121.2908766078023
 30
0.0
 10
218.9438566017384
 20
121.6857629596979
 30
0.0
 10
219.1676942306177
 20
122.3207133547117
 30
0.0
 10
219.2254174141084
 20
122.5383243230206
 30
0.0
 10
219.3050316120406
 20
122.9737250592758
 30
0.0
 10
219.327538578271
 20
123.1931691372371
 30
0.0
 10
219.3373303496509
 20
123.6355408572993
 30
0.0
 10
219.3241963615445
 20
123.8580499051843
 30
0.0
 10
219.2633866175472
 20
124.2905634747084
 30
0.0
 10
219.215836104973
 20
124.5026309145869
 30
0.0
 10
219.0860172597097
 20
124.9184787514304
 30
0.0
 10
219.0031400394176
 20
125.1226734692857
 30
0.0
 10
218.8079343233966
 20
125.5085729131819
 30
0.0
 10
218.6951474996704
 20
125.6922034372428
 30
0.0
 10
218.438824925496
 20
126.0411359110026
 30
0.0
 10
218.2940898492899
 20
126.2072518457837
 30
0.0
 10
217.982775268716
 20
126.5099555578428
 30
0.0
 10
217.8154007493055
 20
126.6479894951439
 30
0.0
 10
217.4569262686266
 20
126.8978377313145
 30
0.0
 10
217.2639160685688
 20
127.010397580316
 30
0.0
 10
216.8653980585405
 20
127.2018262723102
 30
0.0
 10
216.6593690155144
 20
127.2814721827002
 30
0.0
 10
216.2337869049474
 20
127.4092602123272
 30
0.0
 10
216.0120567063939
 20
127.4576152129561
 30
0.0
 10
215.5666640417944
 20
127.5195162639227
 30
0.0
 10
215.3433095057429
 20
127.5334435588958
 30
0.0
 10
214.8953177051645
 20
127.5282394191389
 30
0.0
 10
214.6687336855442
 20
127.5087320950337
 30
0.0
 10
214.224631254542
 20
127.4368865533316
 30
0.0
 10
214.0079068990582
 20
127.3850374628298
 30
0.0
 10
213.5846846753431
 20
127.250369589277
 30
0.0
 10
213.3766953826856
 20
127.1667750958412
 30
0.0
 10
212.9787420859843
 20
126.9707304226164
 30
0.0
 10
212.7899964232967
 20
126.8592044623737
 30
0.0
 10
212.2533596679397
 20
126.4845753134012
 30
0.0
 10
211.9327730576908
 20
126.1772714791807
 30
0.0
 10
211.5438100741434
 20
125.6603776408034
 30
0.0
 10
211.4280933437006
 20
125.4778196281082
 30
0.0
 10
211.226073497647
 20
125.0905106004884
 30
0.0
 10
211.1417735233987
 20
124.8891805909477
 30
0.0
 10
211.008499146818
 20
124.477133465681
 30
0.0
 10
210.9590300317569
 20
124.2654901135696
 30
0.0
 10
210.8959023034995
 20
123.830286973465
 30
0.0
 10
210.8828349394246
 20
123.6078463889762
 30
0.0
 10
210.89402581819
 20
123.1681319130115
 30
0.0
 10
210.9179202933146
 20
122.9487879185214
 30
0.0
 10
211.0028944247675
 20
122.5112165233947
 30
0.0
 10
211.0642922420363
 20
122.2936051287447
 30
0.0
 10
211.2196498023754
 20
121.8757841830627
 30
0.0
 10
211.3139414269157
 20
121.6734587949814
 30
0.0
 10
211.5357730316666
 20
121.282139311136
 30
0.0
 10
211.6633259642851
 20
121.0938799957143
 30
0.0
 10
211.9427393445557
 20
120.7435572122487
 30
0.0
 10
212.0955191391356
 20
120.5797441361287
 30
0.0
 10
212.4273811452652
 20
120.2750340645114
 30
0.0
 10
212.6066469207509
 20
120.1343169091405
 30
0.0
 10
212.7955438247668
 20
120.0086466629331
 30
0.0
  0
SPLINE
  5
177
330
1F
100
AcDbEntity
  8
0
  6
HIDDEN
 62
     7
370
     0
100
AcDbSpline
210
0.0
220
0.0
230
1.0
 70
     8
 71
     3
 72
    14
 73
    10
 74
     0
 42
0.00000001
 43
0.00000001
 12
1.0
 22
0.0
 32
0.0
 13
1.0
 23
0.0
 33
0.0
 40
0.0
 40
0.0
 40
0.0
 40
0.0
 40
0.2499999999999999
 40
0.2499999999999999
 40
0.4999999999999999
 40
0.4999999999999999
 40
0.7499999999999999
 40
0.7499999999999999
 40
1.0
 40
1.0
 40
1.0
 40
1.0
 10
206.8544852951643
 20
102.7682198509287
 30
0.0
 10
206.8344525657947
 20
102.8472187536313
 30
0.0
 10
206.810136843957
 20
102.926251408476
 30
0.0
 10
206.7738412313596
 20
103.083888818129
 30
0.0
 10
206.7622352448459
 20
103.1625075994478
 30
0.0
 10
206.7619725964788
 20
103.3183663152445
 30
0.0
 10
206.7733437777657
 20
103.3956001366284
 30
0.0
 10
206.8096967932572
 20
103.5485727446675
 30
0.0
 10
206.8342871443176
 20
103.6242993644765
 30
0.0
 10
206.8544852951538
 20
103.6998606536551
 30
0.0
  0
LINE
  5
178
330
1F
100
AcDbEntity
  8
0
  6
HIDDEN
 62
     7
370
     0
100
AcDbLine
 10
152.1503558611
 20
108.5437304933
 30
0.0
 11
151.882731006
 21
108.7952145968
 31
0.0
  0
LINE
  5
179
330
1F
100
AcDbEntity
  8
0
  6
HIDDEN
 62
     7
370
     0
100
AcDbLine
 10
155.3558862065
 20
131.0086466033
 30
0.0
 11
155.3558862065
 21
133.5661710833
 31
0.0
  0
LINE
  5
17A
330
1F
100
AcDbEntity
  8
0
  6
HIDDEN
 62
     7
370
     0
100
AcDbLine
 10
157.8558866163
 20
109.0086467225
 30
0.0
 11
157.8558866163
 21
106.3719002191
 31
0.0
  0
LINE
  5
17B
330
1F
100
AcDbEntity
  8
0
  6
HIDDEN
 62
     7
370
     0
100
AcDbLine
 10
152.7058860515
 20
131.0086466033
 30
0.0
 11
152.7058860515
 21
132.8886469487
 31
0.0
  0
LINE
  5
17C
330
1F
100
AcDbEntity
  8
0
  6
HIDDEN
 62
     7
370
     0
100
AcDbLine
 10
151.755886734
 20
131.0086466033
 30
0.0
 11
151.755886734
 21
131.9386466999
 31
0.0
  0
LINE
  5
17D
330
1F
100
AcDbEntity
  8
0
  6
HIDDEN
 62
     7
370
     0
100
AcDbLine
 10
152.7648871993
 20
109.0086467225
 30
0.0
 11
152.7648871993
 21
107.1286463771
 31
0.0
  0
LINE
  5
17E
330
1F
100
AcDbEntity
  8
0
  6
HIDDEN
 62
     7
370
     0
100
AcDbLine
 10
151.755886734
 20
109.0086467225
 30
0.0
 11
151.755886734
 21
108.1376468424
 31
0.0
  0
LINE
  5
17F
330
1F
100
AcDbEntity
  8
0
  6
HIDDEN
 62
     7
370
     0
100
AcDbLine
 10
184.9558862155
 20
126.2586467561
 30
0.0
 11
184.9558862155
 21
113.7586465698
 31
0.0
  0
LINE
  5
180
330
1F
100
AcDbEntity
  8
0
  6
HIDDEN
 62
     7
370
     0
100
AcDbLine
 10
187.4558856939
 20
126.2586467561
 30
0.0
 11
187.4558856939
 21
113.7586465698
 31
0.0
  0
LWPOLYLINE
  5
181
330
1F
100
AcDbEntity
  8
0
  6
HIDDEN
 62
     7
370
     0
100
AcDbPolyline
 90
       37
 70
   128
 43
0.0
 10
217.0846244549
 20
123.6815968655
 10
217.6890639817
 20
123.6402636055
 10
218.2751378273
 20
123.4954559837
 10
218.8250391041
 20
123.2515742664
 10
219.3220561599
 20
122.9160282888
 10
219.7510941182
 20
122.4990137048
 10
220.0991070126
 20
122.0132011581
 10
220.3555299198
 20
121.4733518787
 10
220.5125695323
 20
120.8958690182
 10
220.5654500281
 20
120.2982988976
 10
220.5125695323
 20
119.6987984945
 10
220.3555299198
 20
119.1155832853
 10
220.0991070126
 20
118.5663739812
 10
219.7510941182
 20
118.0678580782
 10
219.3220561599
 20
117.6351827231
 10
218.8250391041
 20
117.2814945817
 10
218.2751378273
 20
117.017540069
 10
217.6890639817
 20
116.8513395019
 10
217.0846244549
 20
116.7879427444
 10
216.4801849281
 20
116.8292760045
 10
215.8941110824
 20
116.9740833935
 10
215.3442098056
 20
117.2179653436
 10
214.8471927499
 20
117.5535113212
 10
214.4181547915
 20
117.9705259051
 10
214.0701418971
 20
118.4563383354
 10
213.81371899
 20
118.9961876149
 10
213.6566793774
 20
119.5736705627
 10
213.6037988817
 20
120.1712406542
 10
213.6566793774
 20
120.7707410572
 10
213.81371899
 20
121.3539562082
 10
214.0701418971
 20
121.9031655124
 10
214.4181547915
 20
122.4016814154
 10
214.8471927499
 20
122.8343568869
 10
215.3442098056
 20
123.1880450283
 10
215.8941110824
 20
123.451999541
 10
216.4801849281
 20
123.6182001081
 10
217.0846244549
 20
123.6815968655
  0
LINE
  5
182
330
1F
100
AcDbEntity
  8
0
  6
HIDDEN
 62
     7
370
     0
100
AcDbLine
 10
180.1058860724
 20
125.5086466331
 30
0.0
 11
180.1058860724
 21
114.5086466927
 31
0.0
  0
LINE
  5
183
330
1F
100
AcDbEntity
  8
0
  6
HIDDEN
 62
     7
370
     0
100
AcDbLine
 10
179.6058869218
 20
114.0086466108
 30
0.0
 11
179.6058869218
 21
126.0086467151
 31
0.0
  0
LINE
  5
184
330
1F
100
AcDbEntity
  8
0
  6
HIDDEN
 62
     7
370
     0
100
AcDbLine
 10
184.9558862155
 20
114.5086466927
 30
0.0
 11
184.9558862155
 21
125.5086466331
 31
0.0
  0
LINE
  5
185
330
1F
100
AcDbEntity
  8
0
  6
HIDDEN
 62
     7
370
     0
100
AcDbLine
 10
186.6511084368
 20
103.1086474318
 30
0.0
 11
184.1058867281
 21
103.1086474318
 31
0.0
  0
LINE
  5
186
330
1F
100
AcDbEntity
  8
0
  6
HIDDEN
 62
     7
370
     0
100
AcDbLine
 10
186.6158867483
 20
102.8957675804
 30
0.0
 11
186.6158867483
 21
102.5795239616
 31
0.0
  0
LINE
  5
187
330
1F
100
AcDbEntity
  8
0
  6
HIDDEN
 62
     7
370
     0
100
AcDbLine
 10
191.6058870261
 20
103.1086474318
 30
0.0
 11
188.6606632029
 21
103.1086474318
 31
0.0
  0
LINE
  5
188
330
1F
100
AcDbEntity
  8
0
  6
HIDDEN
 62
     7
370
     0
100
AcDbLine
 10
188.6958858227
 20
102.5795239616
 30
0.0
 11
188.6958858227
 21
102.8957675804
 31
0.0
  0
LINE
  5
189
330
1F
100
AcDbEntity
  8
0
  6
HIDDEN
 62
     7
370
     0
100
AcDbLine
 10
191.6058870261
 20
103.1086474318
 30
0.0
 11
191.6058870261
 21
101.4046139676
 31
0.0
  0
LINE
  5
18A
330
1F
100
AcDbEntity
  8
0
  6
HIDDEN
 62
     7
370
     0
100
AcDbLine
 10
179.6058869218
 20
100.0336624343
 30
0.0
 11
179.6058869218
 21
103.1086474318
 31
0.0
  0
LINE
  5
18B
330
1F
100
AcDbEntity
  8
0
  6
HIDDEN
 62
     7
370
     0
100
AcDbLine
 10
184.1058867281
 20
103.1086474318
 30
0.0
 11
179.6058869218
 21
103.1086474318
 31
0.0
  0
ARC
  5
18C
330
1F
100
AcDbEntity
  8
0
  6
HIDDEN
 62
     7
370
     0
100
AcDbCircle
 10
210.5563668616
 20
115.7227612056
 30
0.0
 40
2.091039615623974
100
AcDbArc
 50
58.5582160562
 51
237.5260179001
  0
LINE
  5
18D
330
1F
100
AcDbEntity
  8
0
  6
HIDDEN
 62
     7
370
     0
100
AcDbLine
 10
224.4814193105
 20
109.7995891828
 30
0.0
 11
225.4451705371
 21
108.2073237408
 31
0.0
  0
ELLIPSE
  5
18E
330
1F
100
AcDbEntity
  8
0
  6
HIDDEN
 62
     7
370
     0
100
AcDbEllipse
 10
149.6501197171
 20
120.0086466629
 30
0.0
 11
12.26424774976732
 21
-2.842170943040401E-14
 31
0.0
210
0.0
220
0.0
230
1.0
 40
0.8164965809
 41
4.884943637108984
 42
4.964202354313275
  0
LINE
  5
18F
330
1F
100
AcDbEntity
  8
0
  6
HIDDEN
 62
     7
370
     0
100
AcDbLine
 10
151.755886734
 20
109.0086467225
 30
0.0
 11
151.755886734
 21
110.143640231
 31
0.0
  0
ELLIPSE
  5
190
330
1F
100
AcDbEntity
  8
0
  6
HIDDEN
 62
     7
370
     0
100
AcDbEllipse
 10
149.6501197171
 20
120.0086466629
 30
0.0
 11
12.26424774976729
 21
-1.421085471520200E-14
 31
0.0
210
0.0
220
0.0
230
1.0
 40
0.8164965809
 41
1.318982952866325
 42
1.398241670070614
  0
LINE
  5
191
330
1F
100
AcDbEntity
  8
0
  6
HIDDEN
 62
     7
370
     0
100
AcDbLine
 10
151.755886734
 20
131.0086466033
 30
0.0
 11
151.755886734
 21
129.8736530949
 31
0.0
  0
LINE
  5
192
330
1F
100
AcDbEntity
  8
0
  6
HIDDEN
 62
     7
370
     0
100
AcDbLine
 10
191.6059484934
 20
136.908645894
 30
0.0
 11
188.4475412076
 21
136.908645894
 31
0.0
  0
LINE
  5
193
330
1F
100
AcDbEntity
  8
0
  6
HIDDEN
 62
     7
370
     0
100
AcDbLine
 10
191.6058870261
 20
136.9201812554
 30
0.0
 11
191.6058870261
 21
138.879523765
 31
0.0
  0
LINE
  5
194
330
1F
100
AcDbEntity
  8
0
  6
HIDDEN
 62
     7
370
     0
100
AcDbLine
 10
188.6958858227
 20
137.722323801
 30
0.0
 11
188.6958858227
 21
137.4112508852
 31
0.0
  0
LINE
  5
195
330
1F
100
AcDbEntity
  8
0
  6
HIDDEN
 62
     7
370
     0
100
AcDbLine
 10
186.8642304321
 20
136.908645894
 30
0.0
 11
184.1058867281
 21
136.908645894
 31
0.0
  0
LINE
  5
196
330
1F
100
AcDbEntity
  8
0
  6
HIDDEN
 62
     7
370
     0
100
AcDbLine
 10
186.6158867483
 20
137.4112508852
 30
0.0
 11
186.6158867483
 21
137.722323801
 31
0.0
  0
LINE
  5
197
330
1F
100
AcDbEntity
  8
0
  6
HIDDEN
 62
     7
370
     0
100
AcDbLine
 10
184.1058867281
 20
136.908645894
 30
0.0
 11
179.6058869218
 21
136.908645894
 31
0.0
  0
LINE
  5
198
330
1F
100
AcDbEntity
  8
0
  6
HIDDEN
 62
     7
370
     0
100
AcDbLine
 10
152.7058860515
 20
131.0086466033
 30
0.0
 11
152.7058860515
 21
129.7065524046
 31
0.0
  0
LINE
  5
199
330
1F
100
AcDbEntity
  8
0
  6
HIDDEN
 62
     7
370
     0
100
AcDbLine
 10
155.3558862065
 20
131.0086466033
 30
0.0
 11
155.3558862065
 21
130.032836612
 31
0.0
  0
LINE
  5
19A
330
1F
100
AcDbEntity
  8
0
  6
HIDDEN
 62
     7
370
     0
100
AcDbLine
 10
152.7648871993
 20
109.0086467225
 30
0.0
 11
152.7648871993
 21
110.2864632044
 31
0.0
  0
LINE
  5
19B
330
1F
100
AcDbEntity
  8
0
  6
HIDDEN
 62
     7
370
     0
100
AcDbLine
 10
157.8558866163
 20
109.0086467225
 30
0.0
 11
157.8558866163
 21
109.9662540142
 31
0.0
  0
SPLINE
  5
19C
330
1F
100
AcDbEntity
  8
0
  6
HIDDEN
 62
     7
370
     0
100
AcDbSpline
210
0.0
220
0.0
230
1.0
 70
     8
 71
     3
 72
    36
 73
    32
 74
     0
 42
0.00000001
 43
0.00000001
 12
1.0
 22
0.0
 32
0.0
 13
1.0
 23
0.0
 33
0.0
 40
0.0
 40
0.0
 40
0.0
 40
0.0
 40
0.1250000000000011
 40
0.1250000000000011
 40
0.2500000000000023
 40
0.2500000000000023
 40
0.3125000000000028
 40
0.3125000000000028
 40
0.3750000000000033
 40
0.3750000000000033
 40
0.4375000000000038
 40
0.4375000000000038
 40
0.4687500000000034
 40
0.4687500000000034
 40
0.500000000000003
 40
0.500000000000003
 40
0.5312500000000028
 40
0.5312500000000028
 40
0.5625000000000023
 40
0.5625000000000023
 40
0.593750000000002
 40
0.593750000000002
 40
0.6250000000000016
 40
0.6250000000000016
 40
0.6875000000000013
 40
0.6875000000000013
 40
0.7500000000000011
 40
0.7500000000000011
 40
0.8750000000000007
 40
0.8750000000000007
 40
1.0
 40
1.0
 40
1.0
 40
1.0
 10
214.3780935767207
 20
117.7400045474745
 30
0.0
 10
214.4364377609767
 20
117.643611083901
 30
0.0
 10
214.5532331656878
 20
117.5169668076994
 30
0.0
 10
214.8611687743714
 20
117.2385173906834
 30
0.0
 10
215.054647185847
 20
117.0853275709065
 30
0.0
 10
215.4050906932382
 20
116.8588862002054
 30
0.0
 10
215.5323651508798
 20
116.7837160704224
 30
0.0
 10
215.81557957631
 20
116.6379276053293
 30
0.0
 10
215.9726972904563
 20
116.5665874043926
 30
0.0
 10
216.3252973769415
 20
116.4397140939787
 30
0.0
 10
216.5198398931357
 20
116.3828223433178
 30
0.0
 10
216.8716670998525
 20
116.3279767404268
 30
0.0
 10
216.9976444895259
 20
116.3155260955147
 30
0.0
 10
217.2654077039346
 20
116.3109975551067
 30
0.0
 10
217.4062496201692
 20
116.3193788274353
 30
0.0
 10
217.6849987403759
 20
116.3627600227273
 30
0.0
 10
217.8184179650542
 20
116.3972763258589
 30
0.0
 10
218.0549979915749
 20
116.4802984049657
 30
0.0
 10
218.1606365974356
 20
116.5291345494692
 30
0.0
 10
218.345356205698
 20
116.6304918829155
 30
0.0
 10
218.4270706686594
 20
116.6843266033014
 30
0.0
 10
218.5720554461354
 20
116.7925277193715
 30
0.0
 10
218.6357234277117
 20
116.8470933090212
 30
0.0
 10
218.8087383298593
 20
117.011213447669
 30
0.0
 10
218.9007849972847
 20
117.1217875322981
 30
0.0
 10
219.0536081616089
 20
117.3368790160098
 30
0.0
 10
219.1145023139861
 20
117.4417828550645
 30
0.0
 10
219.2647153469134
 20
117.7469008181876
 30
0.0
 10
219.3226621580295
 20
117.9387505661411
 30
0.0
 10
219.37021401982
 20
118.2752623752175
 30
0.0
 10
219.3605179156291
 20
118.4190025541804
 30
0.0
 10
219.3023099599585
 20
118.5151709474175
 30
0.0
  0
ELLIPSE
  5
19D
330
1F
100
AcDbEntity
  8
0
  6
HIDDEN
 62
     7
370
     0
100
AcDbEllipse
 10
217.994875984
 20
113.2916010942
 30
0.0
 11
3.105839292631317
 21
-2.305055007060091
 31
0.0
210
0.0
220
0.0
230
1.0
 40
0.0904236958
 41
3.359298271118558
 42
6.500890924708566
  0
LINE
  5
19E
330
1F
100
AcDbEntity
  8
0
  6
HIDDEN
 62
     7
370
     0
100
AcDbLine
 10
213.5737655913
 20
100.8484691043
 30
0.0
 11
212.6100106393
 21
102.4407345463
 31
0.0
  0
SPLINE
  5
19F
330
1F
100
AcDbEntity
  8
0
  6
HIDDEN
 62
     7
370
     0
100
AcDbSpline
210
0.0
220
0.0
230
1.0
 70
     8
 71
     3
 72
    35
 73
    31
 74
     0
 42
0.00000001
 43
0.00000001
 12
1.0
 22
0.0
 32
0.0
 13
1.0
 23
0.0
 33
0.0
 40
-0.0968759714474242
 40
-0.0666637413356057
 40
-0.0343786692009399
 40
0.0
 40
0.0402501655263726
 40
0.0744868223008524
 40
0.1027071321038401
 40
0.1249179508766711
 40
0.1620537620836051
 40
0.2036866237660472
 40
0.2499064447776348
 40
0.2843401084276526
 40
0.3106265058333986
 40
0.3287516660583436
 40
0.3698185614134537
 40
0.4071583507675398
 40
0.4519490945114163
 40
0.5000414664482049
 40
0.5203026887115041
 40
0.562878832611463
 40
0.5977565701836252
 40
0.6256573753263365
 40
0.6860513535191932
 40
0.7499481360755533
 40
0.7710338114755534
 40
0.8124324596667261
 40
0.8472054374283486
 40
0.8749589221790594
 40
0.9031240285525758
 40
0.9333362586643943
 40
0.9656213307990601
 40
1.0
 40
1.040250165526373
 40
1.074486822300852
 40
1.10270713210384
 10
163.4996602378052
 20
105.7678007509881
 30
0.0
 10
163.7383230278163
 20
105.8043682104792
 30
0.0
 10
164.0847573462517
 20
105.8447790130332
 30
0.0
 10
164.4895174328369
 20
105.87415279398
 30
0.0
 10
164.8631158523434
 20
105.8913599745153
 30
0.0
 10
165.2717466372599
 20
105.8965527725671
 30
0.0
 10
165.7618133797075
 20
105.8716244570123
 30
0.0
 10
166.3602036864454
 20
105.8108075546574
 30
0.0
 10
166.8953298892775
 20
105.7232947794449
 30
0.0
 10
167.2895861956409
 20
105.6395379552505
 30
0.0
 10
167.5295152212689
 20
105.5816553872691
 30
0.0
 10
167.7432969698332
 20
105.5236425272384
 30
0.0
 10
167.9110647861373
 20
105.4771083319786
 30
0.0
 10
167.9815284071556
 20
105.4550473952675
 30
0.0
 10
167.8920032148153
 20
105.483824131187
 30
0.0
 10
167.659166720523
 20
105.5453863205
 30
0.0
 10
167.3397325680434
 20
105.6293269902318
 30
0.0
 10
166.987641023447
 20
105.704319639816
 30
0.0
 10
166.5399404652393
 20
105.7820943336361
 30
0.0
 10
165.9730669300664
 20
105.8589787240117
 30
0.0
 10
165.2202167180957
 20
105.9042679347697
 30
0.0
 10
164.5490452708343
 20
105.8867944306194
 30
0.0
 10
164.0642521809093
 20
105.8420253191374
 30
0.0
 10
163.7498954759632
 20
105.806476085146
 30
0.0
 10
163.515061522875
 20
105.7707903371029
 30
0.0
 10
163.390123196806
 20
105.7480082867351
 30
0.0
 10
163.3432988902934
 20
105.741029835828
 30
0.0
 10
163.3748125224937
 20
105.7479884018776
 30
0.0
 10
163.4996602378052
 20
105.7678007509881
 30
0.0
 10
163.7383230278163
 20
105.8043682104792
 30
0.0
 10
164.0847573462517
 20
105.8447790130332
 30
0.0
  0
SPLINE
  5
1A0
330
1F
100
AcDbEntity
  8
0
  6
HIDDEN
 62
     7
370
     0
100
AcDbSpline
210
0.0
220
0.0
230
1.0
 70
     8
 71
     3
 72
    35
 73
    31
 74
     0
 42
0.00000001
 43
0.00000001
 12
1.0
 22
0.0
 32
0.0
 13
1.0
 23
0.0
 33
0.0
 40
-0.1243198177515347
 40
-0.1014877469671309
 40
-0.0608367563980153
 40
0.0
 40
0.0343712166263974
 40
0.0666387492005671
 40
0.0968233043261481
 40
0.1249505753809244
 40
0.1526662634914466
 40
0.1874715367338338
 40
0.2288808094622377
 40
0.2500284990771095
 40
0.3139875781773871
 40
0.3744836764365422
 40
0.4023317405704667
 40
0.4371113310319799
 40
0.4795885132761255
 40
0.4997903583980334
 40
0.547990721849227
 40
0.5929884342251965
 40
0.6398023656133757
 40
0.6945155365638734
 40
0.7285101556289394
 40
0.7625224506971624
 40
0.7965528224365899
 40
0.8145532956158393
 40
0.8337228321528827
 40
0.854090428075626
 40
0.8756801822484653
 40
0.8985122530328691
 40
0.9391632436019847
 40
1.0
 40
1.034371216626397
 40
1.066638749200567
 40
1.096823304326148
 10
164.2552011427649
 20
134.1548258459643
 30
0.0
 10
163.7837750862851
 20
134.2057165216033
 30
0.0
 10
163.4998813827547
 20
134.2494341095926
 30
0.0
 10
163.3749301468137
 20
134.2692397298433
 30
0.0
 10
163.3433181873499
 20
134.2762249033866
 30
0.0
 10
163.3898050248369
 20
134.2692818784266
 30
0.0
 10
163.5142656476442
 20
134.2464988222073
 30
0.0
 10
163.7486153666874
 20
134.2108272586701
 30
0.0
 10
164.0629085823205
 20
134.1752772379819
 30
0.0
 10
164.5478342641888
 20
134.1305062563786
 30
0.0
 10
165.219788748185
 20
134.1130208221894
 30
0.0
 10
165.9730660909792
 20
134.1582585375826
 30
0.0
 10
166.5395501379819
 20
134.2349901988028
 30
0.0
 10
166.9861436250132
 20
134.3126021197253
 30
0.0
 10
167.3375314477733
 20
134.3874262861066
 30
0.0
 10
167.657423375205
 20
134.4713836683061
 30
0.0
 10
167.8914928376404
 20
134.5329715679889
 30
0.0
 10
167.9882573191369
 20
134.5643735444229
 30
0.0
 10
167.8827912962463
 20
134.5303521817816
 30
0.0
 10
167.5833577593173
 20
134.4475969978455
 30
0.0
 10
167.1839119368111
 20
134.3578065333181
 30
0.0
 10
166.783146572923
 20
134.2846533154127
 30
0.0
 10
166.4031979034915
 20
134.2174177362991
 30
0.0
 10
166.0722122206347
 20
134.16967889794
 30
0.0
 10
165.7971282617898
 20
134.1449057397002
 30
0.0
 10
165.5018936023747
 20
134.1285958056491
 30
0.0
 10
165.1911589814848
 20
134.1218340670638
 30
0.0
 10
164.7945764577685
 20
134.1238584266429
 30
0.0
 10
164.2552011427649
 20
134.1548258459643
 30
0.0
 10
163.7837750862851
 20
134.2057165216033
 30
0.0
 10
163.4998813827547
 20
134.2494341095926
 30
0.0
  0
LINE
  5
1A1
330
1F
100
AcDbEntity
  8
0
  6
HIDDEN
 62
     7
370
     0
100
AcDbLine
 10
196.6558868294
 20
120.1464466645
 30
0.0
 11
196.6558868294
 21
117.5086467188
 31
0.0
  0
SPLINE
  5
1A2
330
1F
100
AcDbEntity
  8
0
  6
HIDDEN
 62
     7
370
     0
100
AcDbSpline
210
0.0
220
0.0
230
1.0
 70
     8
 71
     3
 72
    12
 73
     8
 74
     0
 42
0.00000001
 43
0.00000001
 12
1.0
 22
0.0
 32
0.0
 13
1.0
 23
0.0
 33
0.0
 40
0.0
 40
0.0
 40
0.0
 40
0.0
 40
0.5000000000000002
 40
0.5000000000000002
 40
0.7500000000000001
 40
0.7500000000000001
 40
1.0
 40
1.0
 40
1.0
 40
1.0
 10
196.6558864568542
 20
120.1464466697981
 30
0.0
 10
196.715605314145
 20
120.2866684102452
 30
0.0
 10
196.7557926484123
 20
120.4766367614818
 30
0.0
 10
196.7559331003921
 20
120.8048941041124
 30
0.0
 10
196.7464069531223
 20
120.9180958537621
 30
0.0
 10
196.7110864889502
 20
121.1453760116423
 30
0.0
 10
196.6857703092872
 20
121.2570154615351
 30
0.0
 10
196.6558864568542
 20
121.3643932759299
 30
0.0
  0
LINE
  5
1A3
330
1F
100
AcDbEntity
  8
0
  6
HIDDEN
 62
     7
370
     0
100
AcDbLine
 10
196.6558868294
 20
119.8708466614
 30
0.0
 11
196.6558868294
 21
122.5086466071
 31
0.0
  0
SPLINE
  5
1A4
330
1F
100
AcDbEntity
  8
0
  6
HIDDEN
 62
     7
370
     0
100
AcDbSpline
210
0.0
220
0.0
230
1.0
 70
     8
 71
     3
 72
    64
 73
    60
 74
     0
 42
0.00000001
 43
0.00000001
 12
1.0
 22
0.0
 32
0.0
 13
1.0
 23
0.0
 33
0.0
 40
0.0
 40
0.0
 40
0.0
 40
0.0
 40
0.0624999999999999
 40
0.0624999999999999
 40
0.0937499999999999
 40
0.0937499999999999
 40
0.1249999999999998
 40
0.1249999999999998
 40
0.1562499999999998
 40
0.1562499999999998
 40
0.1874999999999997
 40
0.1874999999999997
 40
0.2187499999999997
 40
0.2187499999999997
 40
0.2499999999999996
 40
0.2499999999999996
 40
0.2812499999999996
 40
0.2812499999999996
 40
0.3124999999999995
 40
0.3124999999999995
 40
0.3437499999999994
 40
0.3437499999999994
 40
0.3749999999999994
 40
0.3749999999999994
 40
0.4062499999999994
 40
0.4062499999999994
 40
0.4374999999999993
 40
0.4374999999999993
 40
0.4687499999999993
 40
0.4687499999999993
 40
0.4999999999999993
 40
0.4999999999999993
 40
0.5312499999999993
 40
0.5312499999999993
 40
0.5624999999999993
 40
0.5624999999999993
 40
0.5937499999999994
 40
0.5937499999999994
 40
0.6249999999999994
 40
0.6249999999999994
 40
0.6562499999999994
 40
0.6562499999999994
 40
0.6874999999999994
 40
0.6874999999999994
 40
0.7187499999999996
 40
0.7187499999999996
 40
0.7499999999999996
 40
0.7499999999999996
 40
0.7812499999999997
 40
0.7812499999999997
 40
0.8124999999999998
 40
0.8124999999999998
 40
0.8437499999999998
 40
0.8437499999999998
 40
0.8749999999999999
 40
0.8749999999999999
 40
0.9374999999999999
 40
0.9374999999999999
 40
1.0
 40
1.0
 40
1.0
 40
1.0
 10
196.6558864568542
 20
121.3643932759325
 30
0.0
 10
196.5763238518229
 20
121.5803943865856
 30
0.0
 10
196.457062247519
 20
121.7570047231335
 30
0.0
 10
196.2336654974255
 20
121.9744759128917
 30
0.0
 10
196.152973983607
 20
122.0376639675873
 30
0.0
 10
195.9792507630569
 20
122.1487117139751
 30
0.0
 10
195.8854619186761
 20
122.1968080123539
 30
0.0
 10
195.6882061017015
 20
122.2776796779662
 30
0.0
 10
195.5847722931793
 20
122.3106519722273
 30
0.0
 10
195.36503059388
 20
122.3640697438861
 30
0.0
 10
195.2473849081726
 20
122.3846931559381
 30
0.0
 10
194.9981142831546
 20
122.4136821822758
 30
0.0
 10
194.867129913074
 20
122.4220284813361
 30
0.0
 10
194.5990514223723
 20
122.4267007432386
 30
0.0
 10
194.4661859466841
 20
122.4230663055045
 30
0.0
 10
194.2064024549493
 20
122.4034323965154
 30
0.0
 10
194.0848922664831
 20
122.3878382934956
 30
0.0
 10
193.8525655370897
 20
122.3437688871844
 30
0.0
 10
193.742465260648
 20
122.3152181309039
 30
0.0
 10
193.5367318795626
 20
122.2451315224571
 30
0.0
 10
193.4400263158149
 20
122.2034082818356
 30
0.0
 10
193.2567630160802
 20
122.104033898866
 30
0.0
 10
193.1700646086925
 20
122.0460261875933
 30
0.0
 10
193.0121060417918
 20
121.9150574895448
 30
0.0
 10
192.9400589423299
 20
121.8417797870784
 30
0.0
 10
192.8105468866964
 20
121.6766221390263
 30
0.0
 10
192.7525599703337
 20
121.5834311142918
 30
0.0
 10
192.6579762025958
 20
121.3818549136305
 30
0.0
 10
192.6209038277921
 20
121.2734220777418
 30
0.0
 10
192.5696890166017
 20
121.038777449262
 30
0.0
 10
192.5564661017053
 20
120.915789672902
 30
0.0
 10
192.5553442666093
 20
120.6634482241991
 30
0.0
 10
192.5677807056193
 20
120.5315210247095
 30
0.0
 10
192.6166396676079
 20
120.2723239434027
 30
0.0
 10
192.6528686180641
 20
120.1437964331004
 30
0.0
 10
192.7467298680828
 20
119.891413764914
 30
0.0
 10
192.8030745280282
 20
119.770739276126
 30
0.0
 10
192.9324887168485
 20
119.5390266936573
 30
0.0
 10
193.0058892029014
 20
119.4278910266353
 30
0.0
 10
193.1636309316289
 20
119.2218385552401
 30
0.0
 10
193.2485209179543
 20
119.1258123609491
 30
0.0
 10
193.4309272980203
 20
118.9470287238632
 30
0.0
 10
193.5291408352657
 20
118.8638396030061
 30
0.0
 10
193.7353162556284
 20
118.7159923756111
 30
0.0
 10
193.843588894879
 20
118.6507407617519
 30
0.0
 10
194.0751431784745
 20
118.5406311148684
 30
0.0
 10
194.1990288593351
 20
118.4959568281236
 30
0.0
 10
194.4561108801209
 20
118.4385670137964
 30
0.0
 10
194.5922660001861
 20
118.4259799173905
 30
0.0
 10
194.8577502714392
 20
118.4384702374252
 30
0.0
 10
194.9909289316849
 20
118.4635358103439
 30
0.0
 10
195.2392643080743
 20
118.5410700138101
 30
0.0
 10
195.3575958543829
 20
118.5937194389266
 30
0.0
 10
195.5807637429371
 20
118.7183382147174
 30
0.0
 10
195.6848199834421
 20
118.7896413064315
 30
0.0
 10
195.9806979892092
 20
119.0271852715602
 30
0.0
 10
196.157840986289
 20
119.2191423725949
 30
0.0
 10
196.4534327475558
 20
119.6466327751488
 30
0.0
 10
196.5761329590146
 20
119.8891343099925
 30
0.0
 10
196.6558864568534
 20
120.1464466697954
 30
0.0
  0
LINE
  5
1A5
330
1F
100
AcDbEntity
  8
0
  6
HIDDEN
 62
     7
370
     0
100
AcDbLine
 10
187.4558856939
 20
117.5086467188
 30
0.0
 11
187.4558856939
 21
122.4958199669
 31
0.0
  0
ELLIPSE
  5
1A6
330
1F
100
AcDbEntity
  8
0
  6
HIDDEN
 62
     7
370
     0
100
AcDbEllipse
 10
215.0738880553
 20
123.5568119287
 30
0.0
 11
-2.220506159017958
 21
3.668613800738072
 31
0.0
210
0.0
220
0.0
230
1.0
 40
0.9794128731
 41
2.01832335126864
 42
3.194629479369728
  0
LINE
  5
1A7
330
1F
100
AcDbEntity
  8
0
  6
HIDDEN
 62
     7
370
     0
100
AcDbLine
 10
219.302308396
 20
118.5151709138
 30
0.0
 11
218.8641434764
 21
119.2390878928
 31
0.0
  0
ELLIPSE
  5
1A8
330
1F
100
AcDbEntity
  8
0
  6
HIDDEN
 62
     7
370
     0
100
AcDbEllipse
 10
216.1728614331
 20
121.7411408106
 30
0.0
 11
3.953222233227677
 21
1.478682026362605
 31
0.0
210
0.0
220
0.0
230
1.0
 40
0.8454008504
 41
3.837400258827516
 42
5.112524100065902
  0
LINE
  5
1A9
330
1F
100
AcDbEntity
  8
0
  6
HIDDEN
 62
     7
370
     0
100
AcDbLine
 10
213.9399281
 20
118.4639215131
 30
0.0
 11
214.3780930196
 21
117.7400044758
 31
0.0
  0
LWPOLYLINE
  5
1AA
330
1F
100
AcDbEntity
  8
0
  6
HIDDEN
 62
     7
370
     0
100
AcDbPolyline
 90
       41
 70
   128
 43
0.0
 10
217.0406585788
 20
124.4435991753
 10
217.694085673
 20
124.4046014395
 10
218.3314195131
 20
124.2647172544
 10
218.9369729017
 20
124.0273911167
 10
219.4958335017
 20
123.698466377
 10
219.9942400907
 20
123.2860425148
 10
220.4199178373
 20
122.8002749045
 10
220.7623874997
 20
122.2531245217
 10
221.0132150208
 20
121.6580639953
 10
221.1662238692
 20
121.0297459398
 10
221.2176515018
 20
120.3836414566
 10
221.1662238692
 20
119.7356598055
 10
221.0132150208
 20
119.1017564629
 10
220.7623874997
 20
118.4975401625
 10
220.4199178373
 20
117.9378888697
 10
219.9942400907
 20
117.4365828406
 10
219.4958335017
 20
117.0059662905
 10
218.9369729017
 20
116.6566418611
 10
218.3314195131
 20
116.3972114805
 10
217.694085673
 20
116.2340630904
 10
217.0406585788
 20
116.1712139506
 10
216.3872352098
 20
116.2102116864
 10
215.7498976444
 20
116.3500956387
 10
215.1443442558
 20
116.5874220092
 10
214.5854836558
 20
116.9163467489
 10
214.0870807921
 20
117.3287703783
 10
213.6614030455
 20
117.8145382215
 10
213.3189333831
 20
118.3616886042
 10
213.068105862
 20
118.9567490142
 10
212.9150932883
 20
119.5850670697
 10
212.8636656557
 20
120.2311715675
 10
212.9150932883
 20
120.8791532331
 10
213.068105862
 20
121.5130566048
 10
213.3189333831
 20
122.1172727306
 10
213.6614030455
 20
122.6769240234
 10
214.0870807921
 20
123.1782300525
 10
214.5854836558
 20
123.6088468354
 10
215.1443442558
 20
123.958171032
 10
215.7498976444
 20
124.2176016454
 10
216.3872352098
 20
124.3807498027
 10
217.0406585788
 20
124.4435991753
  0
LINE
  5
1AB
330
1F
100
AcDbEntity
  8
0
  6
HIDDEN
 62
     7
370
     0
100
AcDbLine
 10
220.3638820206
 20
112.2722310607
 30
0.0
 11
220.9443902825
 21
108.1926507537
 31
0.0
  0
LINE
  5
1AC
330
1F
100
AcDbEntity
  8
0
  6
HIDDEN
 62
     7
370
     0
100
AcDbLine
 10
220.620539621
 20
108.7276983667
 30
0.0
 11
220.9443902825
 21
108.1926507537
 31
0.0
  0
LINE
  5
1AD
330
1F
100
AcDbEntity
  8
0
  6
HIDDEN
 62
     7
370
     0
100
AcDbLine
 10
219.2388480758
 20
114.514478169
 30
0.0
 11
218.8641434764
 21
119.2390878928
 31
0.0
  0
LINE
  5
1AE
330
1F
100
AcDbEntity
  8
0
  6
HIDDEN
 62
     7
370
     0
100
AcDbLine
 10
220.3638820206
 20
112.2722310607
 30
0.0
 11
221.0724210595
 21
111.1016144637
 31
0.0
  0
LWPOLYLINE
  5
1AF
330
1F
100
AcDbEntity
  8
0
  6
HIDDEN
 62
     7
370
     0
100
AcDbPolyline
 90
       29
 70
   128
 43
0.0
 10
194.6558865016
 20
125.1762734387
 10
195.1231813287
 20
125.1261990179
 10
195.5670422171
 20
124.9784866009
 10
195.9652142828
 20
124.7405429963
 10
196.2977318322
 20
124.4243003089
 10
196.547920466
 20
124.0456152369
 10
196.7032352691
 20
123.6234776803
 10
196.7558866595
 20
123.1790547386
 10
196.7032352691
 20
122.7346315641
 10
196.547920466
 20
122.3124940075
 10
196.2977318322
 20
121.9338091683
 10
195.9652142828
 20
121.6175662481
 10
195.5670422171
 20
121.3796227599
 10
195.1231813287
 20
121.2319104594
 10
194.6558865016
 20
121.1818359221
 10
194.1885916745
 20
121.2319104594
 10
193.744730786
 20
121.3796227599
 10
193.3465587204
 20
121.6175662481
 10
193.014041171
 20
121.9338091683
 10
192.7638525372
 20
122.3124940075
 10
192.608537734
 20
122.7346315641
 10
192.5558863436
 20
123.1790547386
 10
192.608537734
 20
123.6234776803
 10
192.7638525372
 20
124.0456152369
 10
193.014041171
 20
124.4243003089
 10
193.3465587204
 20
124.7405429963
 10
193.744730786
 20
124.9784866009
 10
194.1885916745
 20
125.1261990179
 10
194.6558865016
 20
125.1762734387
  0
LINE
  5
1B0
330
1F
100
AcDbEntity
  8
0
  6
HIDDEN
 62
     7
370
     0
100
AcDbLine
 10
179.6058869218
 20
103.1086474318
 30
0.0
 11
184.1058867281
 21
103.1086474318
 31
0.0
  0
LINE
  5
1B1
330
1F
100
AcDbEntity
  8
0
  6
HIDDEN
 62
     7
370
     0
100
AcDbLine
 10
157.8558866163
 20
109.0086467225
 30
0.0
 11
157.8558866163
 21
106.3719002191
 31
0.0
  0
LINE
  5
1B2
330
1F
100
AcDbEntity
  8
0
  6
HIDDEN
 62
     7
370
     0
100
AcDbLine
 10
155.3558862065
 20
131.0086466033
 30
0.0
 11
155.3558862065
 21
133.5661710833
 31
0.0
  0
LINE
  5
1B3
330
1F
100
AcDbEntity
  8
0
  6
HIDDEN
 62
     7
370
     0
100
AcDbLine
 10
224.3375113462
 20
95.6024612893
 30
0.0
 11
214.7599129235
 21
101.3539481569
 31
0.0
  0
LINE
  5
1B4
330
1F
100
AcDbEntity
  8
0
  6
HIDDEN
 62
     7
370
     0
100
AcDbLine
 10
216.0201711809
 20
107.4174848978
 30
0.0
 11
214.8589646672
 21
115.5780150216
 31
0.0
  0
ARC
  5
1B5
330
1F
100
AcDbEntity
  8
0
  6
HIDDEN
 62
     7
370
     0
100
AcDbCircle
 10
218.7874980066
 20
105.8661837483
 30
0.0
 40
3.172480577831441
100
AcDbArc
 50
150.7259908995
 51
47.1660738089
  0
LINE
  5
1B6
330
1F
100
AcDbEntity
  8
0
  6
HIDDEN
 62
     7
370
     0
100
AcDbLine
 10
224.7211827194
 20
95.6191170622
 30
0.0
 11
225.2039617156
 21
96.1605246771
 31
0.0
  0
ELLIPSE
  5
1B7
330
1F
100
AcDbEntity
  8
0
  6
HIDDEN
 62
     7
370
     0
100
AcDbEllipse
 10
168.3402721662
 20
118.5086466629
 30
0.0
 11
237.8586779710879
 21
4.38819492998195
 31
0.0
210
0.0
220
0.0
230
1.0
 40
0.1034726254
 41
4.948132671435025
 42
4.949792677281123
  0
ARC
  5
1B8
330
1F
100
AcDbEntity
  8
0
  6
HIDDEN
 62
     7
370
     0
100
AcDbCircle
 10
206.219582279
 20
87.1291802839
 30
0.0
 40
16.59160235057849
100
AcDbArc
 50
59.0200460467
 51
67.3463009422
  0
LINE
  5
1B9
330
1F
100
AcDbEntity
  8
0
  6
HIDDEN
 62
     7
370
     0
100
AcDbLine
 10
212.0841561114
 20
112.3670182783
 30
0.0
 11
212.6100106393
 21
102.4407345463
 31
0.0
  0
LINE
  5
1BA
330
1F
100
AcDbEntity
  8
0
  6
HIDDEN
 62
     7
370
     0
100
AcDbLine
 10
214.8589646672
 20
115.5780150216
 30
0.0
 11
211.6471199547
 21
117.5067747604
 31
0.0
  0
LINE
  5
1BB
330
1F
100
AcDbEntity
  8
0
  6
HIDDEN
 62
     7
370
     0
100
AcDbLine
 10
224.4814193105
 20
109.7995891828
 30
0.0
 11
220.3638820206
 21
112.2722310607
 31
0.0
  0
LINE
  5
1BC
330
1F
100
AcDbEntity
  8
0
  6
HIDDEN
 62
     7
370
     0
100
AcDbLine
 10
224.4814193105
 20
109.7995891828
 30
0.0
 11
225.2039617156
 21
96.1605246771
 31
0.0
  0
LINE
  5
1BD
330
1F
100
AcDbEntity
  8
0
  6
HIDDEN
 62
     7
370
     0
100
AcDbLine
 10
188.6958858227
 20
137.4112508852
 30
0.0
 11
188.6958858227
 21
102.8957675804
 31
0.0
  0
SPLINE
  5
1BE
330
1F
100
AcDbEntity
  8
0
  6
HIDDEN
 62
     7
370
     0
100
AcDbSpline
210
0.0
220
0.0
230
1.0
 70
     8
 71
     3
 72
    10
 73
     6
 74
     0
 42
0.00000001
 43
0.00000001
 12
1.0
 22
0.0
 32
0.0
 13
1.0
 23
0.0
 33
0.0
 40
0.0
 40
0.0
 40
0.0
 40
0.0
 40
0.5
 40
0.5
 40
1.0
 40
1.0
 40
1.0
 40
1.0
 10
188.4475420711042
 20
136.9086466629331
 30
0.0
 10
188.5249700756528
 20
136.9666059693201
 30
0.0
 10
188.5881496925393
 20
137.0435906244383
 30
0.0
 10
188.6734448718005
 20
137.2171607573107
 30
0.0
 10
188.6958864568542
 20
137.3140620197924
 30
0.0
 10
188.6958864568542
 20
137.411250634753
 30
0.0
  0
SPLINE
  5
1BF
330
1F
100
AcDbEntity
  8
0
  6
HIDDEN
 62
     7
370
     0
100
AcDbSpline
210
0.0
220
0.0
230
1.0
 70
     8
 71
     3
 72
    10
 73
     6
 74
     0
 42
0.00000001
 43
0.00000001
 12
1.0
 22
0.0
 32
0.0
 13
1.0
 23
0.0
 33
0.0
 40
0.0
 40
0.0
 40
0.0
 40
0.0
 40
0.5
 40
0.5
 40
1.0
 40
1.0
 40
1.0
 40
1.0
 10
188.6606640562728
 20
103.1086466629331
 30
0.0
 10
188.6723761732359
 20
103.0743033257391
 30
0.0
 10
188.681174243108
 20
103.0392107880009
 30
0.0
 10
188.6929878008801
 20
102.9675390126102
 30
0.0
 10
188.6958864568542
 20
102.9315953582449
 30
0.0
 10
188.6958864568542
 20
102.8957677409048
 30
0.0
  0
SPLINE
  5
1C0
330
1F
100
AcDbEntity
  8
0
  6
HIDDEN
 62
     7
370
     0
100
AcDbSpline
210
0.0
220
0.0
230
1.0
 70
    24
 71
     3
 72
    12
 73
     8
 74
     0
 42
0.00000001
 43
0.00000001
 12
1.0
 22
0.0
 32
0.0
 13
1.0
 23
0.0
 33
0.0
 40
0.0
 40
0.0
 40
0.0
 40
0.0
 40
0.2499999999999979
 40
0.2499999999999979
 40
0.4999999999999958
 40
0.4999999999999958
 40
1.0
 40
1.0
 40
1.0
 40
1.0
 10
188.0958864568541
 20
136.9086466629331
 30
0.0
 10
188.1476033747636
 20
136.9086466629331
 30
0.0
 10
188.1946911629023
 20
136.9086466629331
 30
0.0
 10
188.2677551575775
 20
136.9086466629331
 30
0.0
 10
188.2973840648633
 20
136.9086466629331
 30
0.0
 10
188.3759574093883
 20
136.9086466629331
 30
0.0
 10
188.4139212776207
 20
136.9086466629331
 30
0.0
 10
188.4475420711042
 20
136.9086466629331
 30
0.0
  0
SPLINE
  5
1C1
330
1F
100
AcDbEntity
  8
0
  6
HIDDEN
 62
     7
370
     0
100
AcDbSpline
210
0.0
220
0.0
230
1.0
 70
    24
 71
     3
 72
    16
 73
    12
 74
     0
 42
0.00000001
 43
0.00000001
 12
1.0
 22
0.0
 32
0.0
 13
1.0
 23
0.0
 33
0.0
 40
0.0
 40
0.0
 40
0.0
 40
0.0
 40
0.0625000000000007
 40
0.0625000000000007
 40
0.1250000000000014
 40
0.1250000000000014
 40
0.2500000000000015
 40
0.2500000000000015
 40
0.5000000000000004
 40
0.5000000000000004
 40
1.0
 40
1.0
 40
1.0
 40
1.0
 10
188.0958864568541
 20
103.1086466629331
 30
0.0
 10
188.1302157944969
 20
103.1086466629331
 30
0.0
 10
188.1642310359577
 20
103.1086466629331
 30
0.0
 10
188.2207156105138
 20
103.1086466629331
 30
0.0
 10
188.2450179933559
 20
103.1086466629331
 30
0.0
 10
188.3092832701749
 20
103.1086466629331
 30
0.0
 10
188.342640639681
 20
103.1086466629331
 30
0.0
 10
188.4310643749986
 20
103.1086466629331
 30
0.0
 10
188.4736039186075
 20
103.1086466629331
 30
0.0
 10
188.5835880036776
 20
103.1086466629331
 30
0.0
 10
188.6308146707051
 20
103.1086466629331
 30
0.0
 10
188.6606640562728
 20
103.1086466629331
 30
0.0
  0
LINE
  5
1C2
330
1F
100
AcDbEntity
  8
0
  6
HIDDEN
 62
     7
370
     0
100
AcDbLine
 10
214.9173287903
 20
115.4815877449
 30
0.0
 11
214.8589646672
 21
115.5780150216
 31
0.0
  0
LINE
  5
1C3
330
1F
100
AcDbEntity
  8
0
  6
HIDDEN
 62
     7
370
     0
100
AcDbLine
 10
152.7648871993
 20
109.0086467225
 30
0.0
 11
152.7648871993
 21
107.1303553541
 31
0.0
  0
LINE
  5
1C4
330
1F
100
AcDbEntity
  8
0
  6
HIDDEN
 62
     7
370
     0
100
AcDbLine
 10
151.755886734
 20
109.0086467225
 30
0.0
 11
151.755886734
 21
108.1428231333
 31
0.0
  0
SPLINE
  5
1C5
330
1F
100
AcDbEntity
  8
0
  6
HIDDEN
 62
     7
370
     0
100
AcDbSpline
210
0.0
220
0.0
230
1.0
 70
     8
 71
     3
 72
    10
 73
     6
 74
     0
 42
0.00000001
 43
0.00000001
 12
1.0
 22
0.0
 32
0.0
 13
1.0
 23
0.0
 33
0.0
 40
0.0
 40
0.0
 40
0.0
 40
0.0
 40
0.5
 40
0.5
 40
1.0
 40
1.0
 40
1.0
 40
1.0
 10
186.6158864568542
 20
137.411250634753
 30
0.0
 10
186.6158864568542
 20
137.3143155695213
 30
0.0
 10
186.6383360926997
 20
137.217256290782
 30
0.0
 10
186.7233317509677
 20
137.0440722033751
 30
0.0
 10
186.7861878348982
 20
136.9670663344895
 30
0.0
 10
186.8642308426041
 20
136.9086466629331
 30
0.0
  0
LINE
  5
1C6
330
1F
100
AcDbEntity
  8
0
  6
HIDDEN
 62
     7
370
     0
100
AcDbLine
 10
186.6158867483
 20
137.4112508852
 30
0.0
 11
186.6158867483
 21
102.8957675804
 31
0.0
  0
SPLINE
  5
1C7
330
1F
100
AcDbEntity
  8
0
  6
HIDDEN
 62
     7
370
     0
100
AcDbSpline
210
0.0
220
0.0
230
1.0
 70
     8
 71
     3
 72
    10
 73
     6
 74
     0
 42
0.00000001
 43
0.00000001
 12
1.0
 22
0.0
 32
0.0
 13
1.0
 23
0.0
 33
0.0
 40
0.0
 40
0.0
 40
0.0
 40
0.0
 40
0.5
 40
0.5
 40
1.0
 40
1.0
 40
1.0
 40
1.0
 10
186.6158864568542
 20
102.8957677409048
 30
0.0
 10
186.6158864568542
 20
102.9319902303455
 30
0.0
 10
186.6188561861516
 20
102.9681834276041
 30
0.0
 10
186.6307351684995
 20
103.039821919019
 30
0.0
 10
186.6395303963402
 20
103.0746952436607
 30
0.0
 10
186.6511088574355
 20
103.1086466629331
 30
0.0
  0
SPLINE
  5
1C8
330
1F
100
AcDbEntity
  8
0
  6
HIDDEN
 62
     7
370
     0
100
AcDbSpline
210
0.0
220
0.0
230
1.0
 70
    24
 71
     3
 72
    12
 73
     8
 74
     0
 42
0.00000001
 43
0.00000001
 12
1.0
 22
0.0
 32
0.0
 13
1.0
 23
0.0
 33
0.0
 40
0.0
 40
0.0
 40
0.0
 40
0.0
 40
0.5
 40
0.5
 40
0.75
 40
0.75
 40
1.0
 40
1.0
 40
1.0
 40
1.0
 10
186.8642308426041
 20
136.9086466629331
 30
0.0
 10
186.8979270862632
 20
136.9086466629331
 30
0.0
 10
186.9359639610313
 20
136.9086466629331
 30
0.0
 10
187.0145242824355
 20
136.9086466629331
 30
0.0
 10
187.0441527878611
 20
136.9086466629331
 30
0.0
 10
187.1170965306068
 20
136.9086466629331
 30
0.0
 10
187.1642490108634
 20
136.9086466629331
 30
0.0
 10
187.2158864568542
 20
136.9086466629331
 30
0.0
  0
SPLINE
  5
1C9
330
1F
100
AcDbEntity
  8
0
  6
HIDDEN
 62
     7
370
     0
100
AcDbSpline
210
0.0
220
0.0
230
1.0
 70
    24
 71
     3
 72
    16
 73
    12
 74
     0
 42
0.00000001
 43
0.00000001
 12
1.0
 22
0.0
 32
0.0
 13
1.0
 23
0.0
 33
0.0
 40
0.0
 40
0.0
 40
0.0
 40
0.0
 40
0.5000000000000006
 40
0.5000000000000006
 40
0.7500000000000013
 40
0.7500000000000013
 40
0.875000000000001
 40
0.875000000000001
 40
0.9375000000000004
 40
0.9375000000000004
 40
1.0
 40
1.0
 40
1.0
 40
1.0
 10
186.6511088574355
 20
103.1086466629331
 30
0.0
 10
186.6809652965562
 20
103.1086466629331
 30
0.0
 10
186.727887170411
 20
103.1086466629331
 30
0.0
 10
186.8383545768311
 20
103.1086466629331
 30
0.0
 10
186.881580429042
 20
103.1086466629331
 30
0.0
 10
186.9699983295692
 20
103.1086466629331
 30
0.0
 10
187.0028716702097
 20
103.1086466629331
 30
0.0
 10
187.0671638012845
 20
103.1086466629331
 30
0.0
 10
187.0913179552918
 20
103.1086466629331
 30
0.0
 10
187.1480527259495
 20
103.1086466629331
 30
0.0
 10
187.1814237821351
 20
103.1086466629331
 30
0.0
 10
187.2158864568542
 20
103.1086466629331
 30
0.0
  0
LINE
  5
1CA
330
1F
100
AcDbEntity
  8
0
  6
HIDDEN
 62
     7
370
     0
100
AcDbLine
 10
152.7058860515
 20
131.0086466033
 30
0.0
 11
152.7058860515
 21
132.8813872893
 31
0.0
  0
LINE
  5
1CB
330
1F
100
AcDbEntity
  8
0
  6
HIDDEN
 62
     7
370
     0
100
AcDbLine
 10
151.755886734
 20
129.8736530949
 30
0.0
 11
151.755886734
 21
110.143640231
 31
0.0
  0
LINE
  5
1CC
330
1F
100
AcDbEntity
  8
0
  6
HIDDEN
 62
     7
370
     0
100
AcDbLine
 10
151.755886734
 20
131.0086466033
 30
0.0
 11
151.755886734
 21
131.9331193004
 31
0.0
  0
LINE
  5
1CD
330
1F
100
AcDbEntity
  8
0
  6
HIDDEN
 62
     7
370
     0
100
AcDbLine
 10
187.2158866604
 20
136.908645894
 30
0.0
 11
188.0958868419
 21
136.908645894
 31
0.0
  0
LINE
  5
1CE
330
1F
100
AcDbEntity
  8
0
  6
HIDDEN
 62
     7
370
     0
100
AcDbLine
 10
187.2158866604
 20
103.1086474318
 30
0.0
 11
188.0958868419
 21
103.1086474318
 31
0.0
  0
SPLINE
  5
1CF
330
1F
100
AcDbEntity
  8
0
  6
HIDDEN
 62
     7
370
     0
100
AcDbSpline
210
0.0
220
0.0
230
1.0
 70
     8
 71
     3
 72
     8
 73
     4
 74
     0
 42
0.00000001
 43
0.00000001
 12
1.0
 22
0.0
 32
0.0
 13
1.0
 23
0.0
 33
0.0
 40
0.0
 40
0.0
 40
0.0
 40
0.0
 40
1.0
 40
1.0
 40
1.0
 40
1.0
 10
185.6207267579607
 20
139.4958219328382
 30
0.0
 10
185.9530848543504
 20
138.9050117191662
 30
0.0
 10
186.2848661258345
 20
138.313879054921
 30
0.0
 10
186.6158864568542
 20
137.7223233584633
 30
0.0
  0
SPLINE
  5
1D0
330
1F
100
AcDbEntity
  8
0
  6
HIDDEN
 62
     7
370
     0
100
AcDbSpline
210
0.0
220
0.0
230
1.0
 70
     8
 71
     3
 72
     8
 73
     4
 74
     0
 42
0.00000001
 43
0.00000001
 12
1.0
 22
0.0
 32
0.0
 13
1.0
 23
0.0
 33
0.0
 40
0.0
 40
0.0
 40
0.0
 40
0.0
 40
1.0
 40
1.0
 40
1.0
 40
1.0
 10
188.6958864568542
 20
137.7223233584633
 30
0.0
 10
189.0269067878738
 20
138.313879054921
 30
0.0
 10
189.3586880593579
 20
138.9050117191662
 30
0.0
 10
189.6910461557476
 20
139.4958219328382
 30
0.0
  0
LINE
  5
1D1
330
1F
100
AcDbEntity
  8
0
  6
HIDDEN
 62
     7
370
     0
100
AcDbLine
 10
189.6910468345
 20
139.4958227534
 30
0.0
 11
191.0058861827
 21
139.4958227534
 31
0.0
  0
SPLINE
  5
1D2
330
1F
100
AcDbEntity
  8
0
  6
HIDDEN
 62
     7
370
     0
100
AcDbSpline
210
0.0
220
0.0
230
1.0
 70
     8
 71
     3
 72
    10
 73
     6
 74
     0
 42
0.00000001
 43
0.00000001
 12
1.0
 22
0.0
 32
0.0
 13
1.0
 23
0.0
 33
0.0
 40
0.0
 40
0.0
 40
0.0
 40
0.0
 40
0.5
 40
0.5
 40
1.0
 40
1.0
 40
1.0
 40
1.0
 10
191.0058864568542
 20
139.4958219328382
 30
0.0
 10
191.1663086814536
 20
139.4958219328382
 30
0.0
 10
191.3227914821209
 20
139.4272365303324
 30
0.0
 10
191.5434450926882
 20
139.1974632610127
 30
0.0
 10
191.6058864568542
 20
139.038965059345
 30
0.0
 10
191.6058864568542
 20
138.879523696076
 30
0.0
  0
LINE
  5
1D3
330
1F
100
AcDbEntity
  8
0
  6
HIDDEN
 62
     7
370
     0
100
AcDbLine
 10
191.6058870261
 20
138.879523765
 30
0.0
 11
191.6058870261
 21
101.4046139676
 31
0.0
  0
SPLINE
  5
1D4
330
1F
100
AcDbEntity
  8
0
  6
HIDDEN
 62
     7
370
     0
100
AcDbSpline
210
0.0
220
0.0
230
1.0
 70
     8
 71
     3
 72
    12
 73
     8
 74
     0
 42
0.00000001
 43
0.00000001
 12
1.0
 22
0.0
 32
0.0
 13
1.0
 23
0.0
 33
0.0
 40
0.0
 40
0.0
 40
0.0
 40
0.0
 40
0.25
 40
0.25
 40
0.5
 40
0.5
 40
1.0
 40
1.0
 40
1.0
 40
1.0
 10
191.0058864568541
 20
100.7797621399037
 30
0.0
 10
191.0856519373244
 20
100.7797621399037
 30
0.0
 10
191.1660732209814
 20
100.7967377362618
 30
0.0
 10
191.312755137644
 20
100.861213233721
 30
0.0
 10
191.3791089472079
 20
100.9083268655156
 30
0.0
 10
191.5453130279345
 20
101.0849367795031
 30
0.0
 10
191.6058864568541
 20
101.2447856553112
 30
0.0
 10
191.6058864568542
 20
101.4046148418463
 30
0.0
  0
LINE
  5
1D5
330
1F
100
AcDbEntity
  8
0
  6
HIDDEN
 62
     7
370
     0
100
AcDbLine
 10
189.6910468345
 20
139.4958227534
 30
0.0
 11
189.6910468345
 21
100.7797617127
 31
0.0
  0
LINE
  5
1D6
330
1F
100
AcDbEntity
  8
0
  6
HIDDEN
 62
     7
370
     0
100
AcDbLine
 10
186.6158867483
 20
137.722323801
 30
0.0
 11
186.6158867483
 21
102.5795239616
 31
0.0
  0
LINE
  5
1D7
330
1F
100
AcDbEntity
  8
0
  6
HIDDEN
 62
     7
370
     0
100
AcDbLine
 10
188.6958858227
 20
137.722323801
 30
0.0
 11
188.6958858227
 21
102.5795239616
 31
0.0
  0
SPLINE
  5
1D8
330
1F
100
AcDbEntity
  8
0
  6
HIDDEN
 62
     7
370
     0
100
AcDbSpline
210
0.0
220
0.0
230
1.0
 70
     8
 71
     3
 72
     8
 73
     4
 74
     0
 42
0.00000001
 43
0.00000001
 12
1.0
 22
0.0
 32
0.0
 13
1.0
 23
0.0
 33
0.0
 40
0.0
 40
0.0
 40
0.0
 40
0.0
 40
1.0
 40
1.0
 40
1.0
 40
1.0
 10
185.6207267579607
 20
100.7797621399037
 30
0.0
 10
185.9534320296661
 20
101.3791338131274
 30
0.0
 10
186.2852478302396
 20
101.9790029238324
 30
0.0
 10
186.6158864568542
 20
102.5795232749434
 30
0.0
  0
LINE
  5
1D9
330
1F
100
AcDbEntity
  8
0
  6
HIDDEN
 62
     7
370
     0
100
AcDbLine
 10
189.6910468345
 20
100.7797617127
 30
0.0
 11
191.0058861827
 21
100.7797617127
 31
0.0
  0
SPLINE
  5
1DA
330
1F
100
AcDbEntity
  8
0
  6
HIDDEN
 62
     7
370
     0
100
AcDbSpline
210
0.0
220
0.0
230
1.0
 70
     8
 71
     3
 72
     8
 73
     4
 74
     0
 42
0.00000001
 43
0.00000001
 12
1.0
 22
0.0
 32
0.0
 13
1.0
 23
0.0
 33
0.0
 40
0.0
 40
0.0
 40
0.0
 40
0.0
 40
1.0
 40
1.0
 40
1.0
 40
1.0
 10
188.6958864568542
 20
102.5795232749434
 30
0.0
 10
189.0265250834688
 20
101.9790029238324
 30
0.0
 10
189.3583408840423
 20
101.3791338131274
 30
0.0
 10
189.6910461557476
 20
100.7797621399037
 30
0.0
  0
SPLINE
  5
1DB
330
1F
100
AcDbEntity
  8
0
  6
HIDDEN
 62
     7
370
     0
100
AcDbSpline
210
0.0
220
0.0
230
1.0
 70
     8
 71
     3
 72
    10
 73
     6
 74
     0
 42
0.00000001
 43
0.00000001
 12
1.0
 22
0.0
 32
0.0
 13
1.0
 23
0.0
 33
0.0
 40
0.0
 40
0.0
 40
0.0
 40
0.0
 40
0.5
 40
0.5
 40
1.0
 40
1.0
 40
1.0
 40
1.0
 10
215.6664045434295
 20
108.7246891180315
 30
0.0
 10
215.6380652012665
 20
108.5627003198062
 30
0.0
 10
215.6259734940788
 20
108.4105763711453
 30
0.0
 10
215.6332524863513
 20
108.1432070734447
 30
0.0
 10
215.6516190638019
 20
108.0263917355548
 30
0.0
 10
215.6963240247917
 20
107.9525323426489
 30
0.0
  0
ARC
  5
1DC
330
1F
100
AcDbEntity
  8
0
  6
HIDDEN
 62
     7
370
     0
100
AcDbCircle
 10
218.2079381429
 20
106.8249766462
 30
0.0
 40
3.173060095532152
100
AcDbArc
 50
143.2231166956
 51
54.6689451459
  0
SPLINE
  5
1DD
330
1F
100
AcDbEntity
  8
0
  6
HIDDEN
 62
     7
370
     0
100
AcDbSpline
210
0.0
220
0.0
230
1.0
 70
     8
 71
     3
 72
    10
 73
     6
 74
     0
 42
0.00000001
 43
0.00000001
 12
1.0
 22
0.0
 32
0.0
 13
1.0
 23
0.0
 33
0.0
 40
0.0
 40
0.0
 40
0.0
 40
0.0
 40
0.5
 40
0.5
 40
1.0
 40
1.0
 40
1.0
 40
1.0
 10
220.62054040803
 20
108.7276987425926
 30
0.0
 10
220.5758879001551
 20
108.8014714749771
 30
0.0
 10
220.4950623810851
 20
108.9085733342488
 30
0.0
 10
220.2974194640878
 20
109.1459822012801
 30
0.0
 10
220.1790736371509
 20
109.2775635636816
 30
0.0
 10
220.0429173922647
 20
109.4136364439217
 30
0.0
  0
LINE
  5
1DE
330
1F
100
AcDbEntity
  8
0
  6
HIDDEN
 62
     7
370
     0
100
AcDbLine
 10
216.0201711809
 20
107.4174848978
 30
0.0
 11
215.6963242446
 21
107.9525325109
 31
0.0
  0
LINE
  5
1DF
330
1F
100
AcDbEntity
  8
0
  6
HIDDEN
 62
     7
370
     0
100
AcDbLine
 10
151.755886734
 20
108.1901743669
 30
0.0
 11
151.755886734
 21
108.4611333568
 31
0.0
  0
LINE
  5
1E0
330
1F
100
AcDbEntity
  8
0
  6
HIDDEN
 62
     7
370
     0
100
AcDbLine
 10
151.755886734
 20
131.8825605918
 30
0.0
 11
151.755886734
 21
131.7868783731
 31
0.0
  0
SPLINE
  5
1E1
330
1F
100
AcDbEntity
  8
0
  6
HIDDEN
 62
     7
370
     0
100
AcDbSpline
210
0.0
220
0.0
230
1.0
 70
     8
 71
     3
 72
     8
 73
     4
 74
     0
 42
0.00000001
 43
0.00000001
 12
1.0
 22
0.0
 32
0.0
 13
1.0
 23
0.0
 33
0.0
 40
0.0
 40
0.0
 40
0.0
 40
0.0
 40
1.0
 40
1.0
 40
1.0
 40
1.0
 10
152.1503550554141
 20
108.5437305045674
 30
0.0
 10
152.042150724168
 20
108.6058724909633
 30
0.0
 10
151.9499129761088
 20
108.6928927709523
 30
0.0
 10
151.8827313765355
 20
108.7952145007609
 30
0.0
  0
SPLINE
  5
1E2
330
1F
100
AcDbEntity
  8
0
  6
HIDDEN
 62
     7
370
     0
100
AcDbSpline
210
0.0
220
0.0
230
1.0
 70
     8
 71
     3
 72
    26
 73
    22
 74
     0
 42
0.00000001
 43
0.00000001
 12
1.0
 22
0.0
 32
0.0
 13
1.0
 23
0.0
 33
0.0
 40
0.0
 40
0.0
 40
0.0
 40
0.0
 40
0.2499999999999987
 40
0.2499999999999987
 40
0.3749999999999983
 40
0.3749999999999983
 40
0.4374999999999992
 40
0.4374999999999992
 40
0.4687499999999996
 40
0.4687499999999996
 40
0.5
 40
0.5
 40
0.5312500000000003
 40
0.5312500000000003
 40
0.5625000000000008
 40
0.5625000000000008
 40
0.6250000000000009
 40
0.6250000000000009
 40
0.7500000000000004
 40
0.7500000000000004
 40
1.0
 40
1.0
 40
1.0
 40
1.0
 10
152.515856503242
 20
132.396727242546
 30
0.0
 10
152.4684683938135
 20
132.2610715005229
 30
0.0
 10
152.4108270919091
 20
132.1171101021937
 30
0.0
 10
152.2887792793658
 20
131.8743375289393
 30
0.0
 10
152.2427302715893
 20
131.7892978884899
 30
0.0
 10
152.1520769874236
 20
131.6489219154496
 30
0.0
 10
152.117724487138
 20
131.5990105381108
 30
0.0
 10
152.0552893147475
 20
131.5224752732565
 30
0.0
 10
152.0319952959495
 20
131.4960707942697
 30
0.0
 10
151.982942758823
 20
131.4484760290086
 30
0.0
 10
151.9585113091662
 20
131.4290334151568
 30
0.0
 10
151.9178817135464
 20
131.4041256374887
 30
0.0
 10
151.9017194316953
 20
131.3980558061778
 30
0.0
 10
151.8747373875921
 20
131.3923669345839
 30
0.0
 10
151.8639878647693
 20
131.3927574426647
 30
0.0
 10
151.8359518906122
 20
131.3988997894531
 30
0.0
 10
151.8230906585795
 20
131.4095637958711
 30
0.0
 10
151.7920877974192
 20
131.4485765862313
 30
0.0
 10
151.78122831535
 20
131.4846285766356
 30
0.0
 10
151.757951059412
 20
131.6023079741347
 30
0.0
 10
151.7558864568541
 20
131.6936378744677
 30
0.0
 10
151.7558864568541
 20
131.7868781273739
 30
0.0
  0
SPLINE
  5
1E3
330
1F
100
AcDbEntity
  8
0
  6
HIDDEN
 62
     7
370
     0
100
AcDbSpline
210
0.0
220
0.0
230
1.0
 70
     8
 71
     3
 72
    12
 73
     8
 74
     0
 42
0.00000001
 43
0.00000001
 12
1.0
 22
0.0
 32
0.0
 13
1.0
 23
0.0
 33
0.0
 40
0.0
 40
0.0
 40
0.0
 40
0.0
 40
0.2500000000000002
 40
0.2500000000000002
 40
0.5000000000000004
 40
0.5000000000000004
 40
1.0
 40
1.0
 40
1.0
 40
1.0
 10
152.1503550554204
 20
108.543730504567
 30
0.0
 10
152.2005900644666
 20
108.4729149021862
 30
0.0
 10
152.24063490361
 20
108.4075173498579
 30
0.0
 10
152.3130874210372
 20
108.2815265463731
 30
0.0
 10
152.34438181874
 20
108.2221630102763
 30
0.0
 10
152.4299905484713
 20
108.0501657892913
 30
0.0
 10
152.4759913447553
 20
107.9436542649421
 30
0.0
 10
152.515856503242
 20
107.8416610780077
 30
0.0
  0
SPLINE
  5
1E4
330
1F
100
AcDbEntity
  8
0
  6
HIDDEN
 62
     7
370
     0
100
AcDbSpline
210
0.0
220
0.0
230
1.0
 70
     8
 71
     3
 72
    14
 73
    10
 74
     0
 42
0.00000001
 43
0.00000001
 12
1.0
 22
0.0
 32
0.0
 13
1.0
 23
0.0
 33
0.0
 40
0.0
 40
0.0
 40
0.0
 40
0.0
 40
0.4999999999999998
 40
0.4999999999999998
 40
0.7499999999999994
 40
0.7499999999999994
 40
0.8749999999999997
 40
0.8749999999999997
 40
1.0
 40
1.0
 40
1.0
 40
1.0
 10
151.7558864568542
 20
108.4611334617117
 30
0.0
 10
151.7558864568542
 20
108.5379450337187
 30
0.0
 10
151.7584157144539
 20
108.6123622950495
 30
0.0
 10
151.7781866609867
 20
108.7088635727508
 30
0.0
 10
151.7874482608601
 20
108.7386051694255
 30
0.0
 10
151.8109096747692
 20
108.7731027956489
 30
0.0
 10
151.8203320894332
 20
108.7829334340777
 30
0.0
 10
151.845401479385
 20
108.796111262571
 30
0.0
 10
151.8607059337775
 20
108.799709497551
 30
0.0
 10
151.8827313765355
 20
108.7952145007609
 30
0.0
  0
LINE
  5
1E5
330
1F
100
AcDbEntity
  8
0
  6
HIDDEN
 62
     7
370
     0
100
AcDbLine
 10
151.755886734
 20
131.7868783731
 30
0.0
 11
151.755886734
 21
108.4611333568
 31
0.0
  0
SPLINE
  5
1E6
330
1F
100
AcDbEntity
  8
0
  6
HIDDEN
 62
     7
370
     0
100
AcDbSpline
210
0.0
220
0.0
230
1.0
 70
     8
 71
     3
 72
    22
 73
    18
 74
     0
 42
0.00000001
 43
0.00000001
 12
1.0
 22
0.0
 32
0.0
 13
1.0
 23
0.0
 33
0.0
 40
0.0
 40
0.0
 40
0.0
 40
0.0
 40
0.0417017495141564
 40
0.0833686863467972
 40
0.1250162801856162
 40
0.1666600222747323
 40
0.208315408155558
 40
0.2499979203837117
 40
0.3124743254900396
 40
0.3750125216340555
 40
0.5000186291051258
 40
0.6250234998319097
 40
0.7500213871740969
 40
0.8124885835488631
 40
0.8750197978527853
 40
0.9374824015406735
 40
0.9999999999999999
 40
0.9999999999999999
 40
0.9999999999999999
 40
0.9999999999999999
 10
225.2039614697414
 20
96.16052461932195
 30
0.0
 10
225.1857388753881
 20
96.22584702063443
 30
0.0
 10
225.1493088989299
 20
96.35643729202317
 30
0.0
 10
225.0944038674843
 20
96.56284735763909
 30
0.0
 10
225.0393476218381
 20
96.77682594929672
 30
0.0
 10
224.9841190180418
 20
96.99913509938507
 30
0.0
 10
224.9287235583626
 20
97.22957341111668
 30
0.0
 10
224.863941099794
 20
97.507776214895
 30
0.0
 10
224.7896924495262
 20
97.83905168867643
 30
0.0
 10
224.6780950648616
 20
98.35926369883039
 30
0.0
 10
224.5382858007784
 20
99.05268646651498
 30
0.0
 10
224.3706696321544
 20
99.95072126845194
 30
0.0
 10
224.2315620838912
 20
100.7515788752608
 30
0.0
 10
224.1209022296523
 20
101.4220358118633
 30
0.0
 10
224.0383105170924
 20
101.9395906681021
 30
0.0
 10
223.9561029532867
 20
102.470428832388
 30
0.0
 10
223.901758523348
 20
102.8357087010232
 30
0.0
 10
223.8745743518468
 20
103.018429002001
 30
0.0
  0
SPLINE
  5
1E7
330
1F
100
AcDbEntity
  8
0
  6
HIDDEN
 62
     7
370
     0
100
AcDbSpline
210
0.0
220
0.0
230
1.0
 70
     8
 71
     3
 72
    21
 73
    17
 74
     0
 42
0.00000001
 43
0.00000001
 12
1.0
 22
0.0
 32
0.0
 13
1.0
 23
0.0
 33
0.0
 40
0.0
 40
0.0
 40
0.0
 40
0.0
 40
0.0455813682610271
 40
0.0933710397763534
 40
0.1433690131573022
 40
0.195575285185989
 40
0.2499898510254558
 40
0.3089997024459565
 40
0.3750010354455609
 40
0.5000051977558819
 40
0.6250092704153115
 40
0.6909578935388636
 40
0.7500202618585653
 40
0.8394321987120135
 40
0.9227588152236604
 40
1.0
 40
1.0
 40
1.0
 40
1.0
 10
223.4373293605774
 20
102.2605698659115
 30
0.0
 10
223.4565398150836
 20
102.1314557095229
 30
0.0
 10
223.4958914225551
 20
101.8669721388934
 30
0.0
 10
223.5566523366144
 20
101.47030756401
 30
0.0
 10
223.6204457162077
 20
101.0631938573347
 30
0.0
 10
223.6872992219249
 20
100.647674129264
 30
0.0
 10
223.7582284300171
 20
100.2188338325585
 30
0.0
 10
223.8352956346388
 20
99.76682568139724
 30
0.0
 10
223.942923505438
 20
99.15671017120431
 30
0.0
 10
224.0793084575228
 20
98.42450097785144
 30
0.0
 10
224.2156654731444
 20
97.74580466789268
 30
0.0
 10
224.3232825030368
 20
97.24241171553192
 30
0.0
 10
224.4153705846385
 20
96.82975720500272
 30
0.0
 10
224.5145188098574
 20
96.4092301022813
 30
0.0
 10
224.6208888895902
 20
95.98559605074541
 30
0.0
 10
224.6886080578118
 20
95.73815096211617
 30
0.0
 10
224.7211843822278
 20
95.61911743447556
 30
0.0
  0
ELLIPSE
  5
1E8
330
1F
100
AcDbEntity
  8
0
  6
HIDDEN
 62
     7
370
     0
100
AcDbEllipse
 10
185.8580657175
 20
118.5086466629
 30
0.0
 11
40.29597927889509
 21
-24.92197537396962
 31
0.0
210
0.0
220
0.0
230
1.0
 40
0.0489778835
 41
0.3331588523260895
 42
0.7842864129675404
  0
LWPOLYLINE
  5
1E9
330
1F
100
AcDbEntity
  8
0
  6
HIDDEN
 62
     7
370
     0
100
AcDbPolyline
 90
       16
 70
   128
 43
0.0
 10
219.2388480758
 20
114.514478169
 10
219.2143058633
 20
114.1370527108
 10
219.0832315241
 20
113.7591830116
 10
218.8513508295
 20
113.3973846805
 10
218.5288040196
 20
113.0674687807
 10
218.1296801423
 20
112.7838554453
 10
217.6714247321
 20
112.5589391809
 10
217.1740686749
 20
112.4025500972
 10
216.6593490397
 20
112.3215231706
 10
216.1497591292
 20
112.3193997551
 10
215.6675687288
 20
112.3962720517
 10
215.2338592564
 20
112.5487812456
 10
214.8675775384
 20
112.770261861
 10
214.5847348725
 20
113.0510332655
 10
214.3976954972
 20
113.3788252842
 10
214.3146326994
 20
113.7393118475
  0
ELLIPSE
  5
1EA
330
1F
100
AcDbEntity
  8
0
  6
HIDDEN
 62
     7
370
     0
100
AcDbEllipse
 10
217.6633545271
 20
110.41359139
 30
0.0
 11
-0.3124824774540969
 21
2.947022789647605
 31
0.0
210
0.0
220
0.0
230
1.0
 40
0.8407155321
 41
2.089396643204779
 42
4.278721013747935
  0
LWPOLYLINE
  5
1EB
330
1F
100
AcDbEntity
  8
0
  6
HIDDEN
 62
     7
370
     0
100
AcDbPolyline
 90
       32
 70
   128
 43
0.0
 10
194.6558865016
 20
125.6309665401
 10
195.1591322427
 20
125.582296088
 10
195.6417752658
 20
125.4382772964
 10
196.0840566312
 20
125.2048063685
 10
196.4678677027
 20
124.8914414678
 10
196.7774970685
 20
124.5110115629
 10
197.0002675657
 20
124.0790925581
 10
197.127057821
 20
123.6133660782
 10
197.1526785051
 20
123.132899556
 10
197.076079086
 20
122.6573632226
 10
196.9003981208
 20
122.206225678
 10
196.6328254198
 20
121.7979566787
 10
196.2843170618
 20
121.4492704381
 10
195.8691409086
 20
121.1744425014
 10
195.4042935972
 20
120.9847242349
 10
194.9088076358
 20
120.8878826943
 10
194.4029653673
 20
120.8878826943
 10
193.9074794059
 20
120.9847242349
 10
193.4426320945
 20
121.1744425014
 10
193.0274559413
 20
121.4492704381
 10
192.6789475833
 20
121.7979566787
 10
192.4113748823
 20
122.206225678
 10
192.2356939172
 20
122.6573632226
 10
192.159094498
 20
123.132899556
 10
192.1847151821
 20
123.6133660782
 10
192.3115054374
 20
124.0790925581
 10
192.5342759346
 20
124.5110115629
 10
192.8439053004
 20
124.8914414678
 10
193.2277163719
 20
125.2048063685
 10
193.6699977373
 20
125.4382772964
 10
194.1526407604
 20
125.582296088
 10
194.6558865016
 20
125.6309665401
  0
LINE
  5
1EC
330
1F
100
AcDbEntity
  8
0
  6
HIDDEN
 62
     7
370
     0
100
AcDbLine
 10
213.9399281
 20
118.4639215131
 30
0.0
 11
214.3146326994
 21
113.7393118475
 31
0.0
  0
CIRCLE
  5
1ED
330
1F
100
AcDbEntity
  8
0
  6
HIDDEN
 62
     7
370
     0
100
AcDbCircle
 10
178.6558864569
 20
120.0086466629
 30
0.0
 40
5.0
  0
LINE
  5
1EE
330
1F
100
AcDbEntity
  8
0
  6
HIDDEN
 62
     7
370
     0
100
AcDbLine
 10
223.4373284732
 20
102.2605701942
 30
0.0
 11
215.2454374586
 21
102.2605701942
 31
0.0
  0
SPLINE
  5
1EF
330
1F
100
AcDbEntity
  8
0
  6
HIDDEN
 62
     7
370
     0
100
AcDbSpline
210
0.0
220
0.0
230
1.0
 70
     8
 71
     3
 72
     9
 73
     5
 74
     0
 42
0.00000001
 43
0.00000001
 12
1.0
 22
0.0
 32
0.0
 13
1.0
 23
0.0
 33
0.0
 40
0.0
 40
0.0
 40
0.0
 40
0.0
 40
0.4965833428128228
 40
1.0
 40
1.0
 40
1.0
 40
1.0
 10
223.8745749373908
 20
103.0184286694742
 30
0.0
 10
223.8028251682387
 20
102.8926211391451
 30
0.0
 10
223.6583383057803
 20
102.6392748838791
 30
0.0
 10
223.5113320317923
 20
102.3873821425014
 30
0.0
 10
223.4373266247557
 20
102.2605751406674
 30
0.0
  0
LINE
  5
1F0
330
1F
100
AcDbEntity
  8
0
  6
HIDDEN
 62
     7
370
     0
100
AcDbLine
 10
215.2454374586
 20
102.2605701942
 30
0.0
 11
213.5836897646
 21
103.2972477038
 31
0.0
  0
ELLIPSE
  5
1F1
330
1F
100
AcDbEntity
  8
0
  6
HIDDEN
 62
     7
370
     0
100
AcDbEllipse
 10
204.7926245418
 20
88.6580275116
 30
0.0
 11
8.987763024596404
 21
-14.84915109822573
 31
0.0
210
0.0
220
0.0
230
1.0
 40
0.9794128731
 41
2.047971054681013
 42
2.373206481412129
  0
LINE
  5
1F2
330
1F
100
AcDbEntity
  8
0
  6
HIDDEN
 62
     7
370
     0
100
AcDbLine
 10
223.8745732461
 20
103.0184283514
 30
0.0
 11
222.6827597474
 21
120.0086466629
 31
0.0
  0
LINE
  5
1F3
330
1F
100
AcDbEntity
  8
0
  6
HIDDEN
 62
     7
370
     0
100
AcDbLine
 10
171.6558864569
 20
103.8014452566
 30
0.0
 11
171.7500472291
 21
104.4714349915
 31
0.0
  0
LINE
  5
1F4
330
1F
100
AcDbEntity
  8
0
  6
HIDDEN
 62
     7
370
     0
100
AcDbLine
 10
171.7500472291
 20
135.5458583344
 30
0.0
 11
171.6558864569
 21
136.2158480693
 31
0.0
  0
ARC
  5
1F5
330
1F
100
AcDbEntity
  8
0
  6
HIDDEN
 62
     7
370
     0
100
AcDbCircle
 10
171.1558797042
 20
104.5549395095
 30
0.0
 40
0.6000067526677242
100
AcDbArc
 50
352.0
 51
0.0
  0
ARC
  5
1F6
330
1F
100
AcDbEntity
  8
0
  6
HIDDEN
 62
     7
370
     0
100
AcDbCircle
 10
171.1558797042
 20
104.5549395095
 30
0.0
 40
0.6000067526677242
100
AcDbArc
 50
0.0
 51
33.5571153394
  0
ARC
  5
1F7
330
1F
100
AcDbEntity
  8
0
  6
HIDDEN
 62
     7
370
     0
100
AcDbCircle
 10
171.1558797042
 20
135.4623538164
 30
0.0
 40
0.6000067526677081
100
AcDbArc
 50
348.75
 51
8.0
  0
LWPOLYLINE
  5
1F8
330
1F
100
AcDbEntity
  8
0
  6
HIDDEN
 62
     7
370
     0
100
AcDbPolyline
 90
        3
 70
   128
 43
0.0
 10
171.7443574958
 20
135.345298018
 10
171.710213664
 20
135.2327411656
 10
171.6558864569
 20
135.1306896318
  0
LINE
  5
1F9
330
1F
100
AcDbEntity
  8
0
  6
HIDDEN
 62
     7
370
     0
100
AcDbLine
 10
171.7558864543
 20
104.5549392361
 30
0.0
 11
171.7558864543
 21
135.4623540897
 31
0.0
  0
LINE
  5
1FA
330
1F
100
AcDbEntity
  8
0
  6
HIDDEN
 62
     7
370
     0
100
AcDbLine
 10
171.7558864543
 20
104.5549392361
 30
0.0
 11
171.7558864543
 21
135.4623540897
 31
0.0
  0
LINE
  5
1FB
330
1F
100
AcDbEntity
  8
0
  6
HIDDEN
 62
     7
370
     0
100
AcDbLine
 10
195.5564009254
 20
118.2430844415
 30
0.0
 11
193.9955881094
 21
119.4065303785
 31
0.0
  0
LINE
  5
1FC
330
1F
100
AcDbEntity
  8
0
  6
HIDDEN
 62
     7
370
     0
100
AcDbLine
 10
199.6264202749
 20
115.2092508633
 30
0.0
 11
196.3188691293
 21
117.6747338973
 31
0.0
  0
LINE
  5
1FD
330
1F
100
AcDbEntity
  8
0
  6
HIDDEN
 62
     7
370
     0
100
AcDbLine
 10
193.7825070922
 20
114.3269065429
 30
0.0
 11
199.5905047511
 21
109.9975669418
 31
0.0
  0
LINE
  5
1FE
330
1F
100
AcDbEntity
  8
0
  6
HIDDEN
 62
     7
370
     0
100
AcDbLine
 10
191.4854912316
 20
116.0391258668
 30
0.0
 11
193.6730673765
 21
114.4084843468
 31
0.0
  0
LINE
  5
1FF
330
1F
100
AcDbEntity
  8
0
  6
HIDDEN
 62
     7
370
     0
100
AcDbLine
 10
193.7034471189
 20
119.3794034548
 30
0.0
 11
191.7599315052
 21
118.4537837176
 31
0.0
  0
LINE
  5
200
330
1F
100
AcDbEntity
  8
0
  6
HIDDEN
 62
     7
370
     0
100
AcDbLine
 10
191.7599315052
 20
118.4537837176
 30
0.0
 11
191.4280379419
 21
116.3268442393
 31
0.0
  0
LINE
  5
201
330
1F
100
AcDbEntity
  8
0
  6
HIDDEN
 62
     7
370
     0
100
AcDbLine
 10
161.1885145535
 20
107.2586469014
 30
0.0
 11
163.3608170082
 21
107.2586469014
 31
0.0
  0
LINE
  5
202
330
1F
100
AcDbEntity
  8
0
  6
HIDDEN
 62
     7
370
     0
100
AcDbLine
 10
163.3608170082
 20
132.7586464245
 30
0.0
 11
161.1885145535
 21
132.7586464245
 31
0.0
  0
ARC
  5
203
330
1F
100
AcDbEntity
  8
0
  6
HIDDEN
 62
     7
370
     0
100
AcDbCircle
 10
161.188514401
 20
107.6586466629
 30
0.0
 40
0.4000000000000057
100
AcDbArc
 50
210.0
 51
270.0
  0
ARC
  5
204
330
1F
100
AcDbEntity
  8
0
  6
HIDDEN
 62
     7
370
     0
100
AcDbCircle
 10
161.188514401
 20
132.3586466629
 30
0.0
 40
0.4000000000000057
100
AcDbArc
 50
90.0
 51
150.0
  0
ARC
  5
205
330
1F
100
AcDbEntity
  8
0
  6
HIDDEN
 62
     7
370
     0
100
AcDbCircle
 10
167.4800631847
 20
112.2586466629
 30
0.0
 40
5.000000000000026
100
AcDbArc
 50
275.4431772469
 51
326.6329870308
  0
ARC
  5
206
330
1F
100
AcDbEntity
  8
0
  6
HIDDEN
 62
     7
370
     0
100
AcDbCircle
 10
167.4800631847
 20
127.7586466629
 30
0.0
 40
5.000000000000034
100
AcDbArc
 50
33.3670129692
 51
84.5571883983
  0
LINE
  5
207
330
1F
100
AcDbEntity
  8
0
  6
HIDDEN
 62
     7
370
     0
100
AcDbLine
 10
160.8421044653
 20
132.5586467643
 30
0.0
 11
159.6585359653
 21
130.5086465214
 31
0.0
  0
LINE
  5
208
330
1F
100
AcDbEntity
  8
0
  6
HIDDEN
 62
     7
370
     0
100
AcDbLine
 10
159.6585359653
 20
109.5086468045
 30
0.0
 11
160.8421044653
 21
107.4586465616
 31
0.0
  0
LINE
  5
209
330
1F
100
AcDbEntity
  8
0
  6
HIDDEN
 62
     7
370
     0
100
AcDbLine
 10
192.5558863436
 20
119.2364573722
 30
0.0
 11
192.5558863436
 21
116.7620938864
 31
0.0
  0
LINE
  5
20A
330
1F
100
AcDbEntity
  8
0
  6
HIDDEN
 62
     7
370
     0
100
AcDbLine
 10
196.7558866595
 20
116.8213746637
 30
0.0
 11
196.7558866595
 21
119.3203440412
 31
0.0
  0
ARC
  5
20B
330
1F
100
AcDbEntity
  8
0
  6
HIDDEN
 62
     7
370
     0
100
AcDbCircle
 10
178.6058864569
 20
110.1336466629
 30
0.0
 40
1.0
100
AcDbArc
 50
218.6821874535
 51
0.0
  0
ARC
  5
20C
330
1F
100
AcDbEntity
  8
0
  6
HIDDEN
 62
     7
370
     0
100
AcDbCircle
 10
178.6058864569
 20
129.8836466629
 30
0.0
 40
1.000000000000006
100
AcDbArc
 50
0.0
 51
141.3178125465
  0
LINE
  5
20D
330
1F
100
AcDbEntity
  8
0
  6
HIDDEN
 62
     7
370
     0
100
AcDbLine
 10
171.6558864569
 20
109.5086468045
 30
0.0
 11
177.825261489
 21
109.5086468045
 31
0.0
  0
LINE
  5
20E
330
1F
100
AcDbEntity
  8
0
  6
HIDDEN
 62
     7
370
     0
100
AcDbLine
 10
177.825261489
 20
130.5086465214
 30
0.0
 11
171.6558864569
 21
130.5086465214
 31
0.0
  0
LINE
  5
20F
330
1F
100
AcDbEntity
  8
0
  6
HIDDEN
 62
     7
370
     0
100
AcDbLine
 10
157.8558866163
 20
109.5086468045
 30
0.0
 11
159.6585359653
 21
109.5086468045
 31
0.0
  0
LINE
  5
210
330
1F
100
AcDbEntity
  8
0
  6
HIDDEN
 62
     7
370
     0
100
AcDbLine
 10
159.6585359653
 20
130.5086465214
 30
0.0
 11
155.3558862065
 21
130.5086465214
 31
0.0
  0
LINE
  5
211
330
1F
100
AcDbEntity
  8
0
  6
HIDDEN
 62
     7
370
     0
100
AcDbLine
 10
184.9558862155
 20
113.7586465698
 30
0.0
 11
187.4558856939
 21
113.7586465698
 31
0.0
  0
LINE
  5
212
330
1F
100
AcDbEntity
  8
0
  6
HIDDEN
 62
     7
370
     0
100
AcDbLine
 10
187.4558856939
 20
126.2586467561
 30
0.0
 11
184.9558862155
 21
126.2586467561
 31
0.0
  0
LINE
  5
213
330
1F
100
AcDbEntity
  8
0
  6
HIDDEN
 62
     7
370
     0
100
AcDbLine
 10
214.0903851246
 20
118.4224428503
 30
0.0
 11
214.5690625762
 21
117.6315950357
 31
0.0
  0
LINE
  5
214
330
1F
100
AcDbEntity
  8
0
  6
HIDDEN
 62
     7
370
     0
100
AcDbLine
 10
220.5575412368
 20
121.2562488286
 30
0.0
 11
220.0788637852
 21
122.0470966433
 31
0.0
  0
LINE
  5
215
330
1F
100
AcDbEntity
  8
0
  6
HIDDEN
 62
     7
370
     0
100
AcDbLine
 10
179.6058869218
 20
114.0086466108
 30
0.0
 11
180.1058860724
 21
114.5086466927
 31
0.0
  0
LINE
  5
216
330
1F
100
AcDbEntity
  8
0
  6
HIDDEN
 62
     7
370
     0
100
AcDbLine
 10
180.1058860724
 20
125.5086466331
 30
0.0
 11
179.6058869218
 21
126.0086467151
 31
0.0
  0
LINE
  5
217
330
1F
100
AcDbEntity
  8
0
  6
HIDDEN
 62
     7
370
     0
100
AcDbLine
 10
180.1058860724
 20
114.5086466927
 30
0.0
 11
184.9558862155
 21
114.5086466927
 31
0.0
  0
LINE
  5
218
330
1F
100
AcDbEntity
  8
0
  6
HIDDEN
 62
     7
370
     0
100
AcDbLine
 10
184.9558862155
 20
125.5086466331
 30
0.0
 11
180.1058860724
 21
125.5086466331
 31
0.0
  0
LINE
  5
219
330
1F
100
AcDbEntity
  8
0
  6
HIDDEN
 62
     7
370
     0
100
AcDbLine
 10
208.7438410376
 20
114.6453345787
 30
0.0
 11
209.7075959896
 21
113.053068671
 31
0.0
  0
LINE
  5
21A
330
1F
100
AcDbEntity
  8
0
  6
HIDDEN
 62
     7
370
     0
100
AcDbLine
 10
179.6058869218
 20
140.0086462159
 30
0.0
 11
179.6058869218
 21
136.908645894
 31
0.0
  0
LINE
  5
21B
330
1F
100
AcDbEntity
  8
0
  6
HIDDEN
 62
     7
370
     0
100
AcDbLine
 10
221.1051626359
 20
111.0299259085
 30
0.0
 11
219.3422397827
 21
118.4133709535
 31
0.0
  0
LINE
  5
21C
330
1F
100
AcDbEntity
  8
0
  6
HIDDEN
 62
     7
370
     0
100
AcDbLine
 10
168.4230657988
 20
104.9673419107
 30
0.0
 11
167.9551372067
 21
105.4631789808
 31
0.0
  0
LINE
  5
21D
330
1F
100
AcDbEntity
  8
0
  6
HIDDEN
 62
     7
370
     0
100
AcDbLine
 10
163.3572323476
 20
105.7430321012
 30
0.0
 11
162.8397587915
 21
105.2472071383
 31
0.0
  0
LINE
  5
21E
330
1F
100
AcDbEntity
  8
0
  6
HIDDEN
 62
     7
370
     0
100
AcDbLine
 10
162.8391245608
 20
134.7701364789
 30
0.0
 11
163.3568104585
 21
134.2742491175
 31
0.0
  0
LINE
  5
21F
330
1F
100
AcDbEntity
  8
0
  6
HIDDEN
 62
     7
370
     0
100
AcDbLine
 10
167.9544512876
 20
134.5538964156
 30
0.0
 11
168.4223551997
 21
135.0497902964
 31
0.0
  0
LINE
  5
220
330
1F
100
AcDbEntity
  8
0
  6
HIDDEN
 62
     7
370
     0
100
AcDbLine
 10
196.6558868294
 20
117.5086467188
 30
0.0
 11
197.5658113365
 21
120.0086466629
 31
0.0
  0
LINE
  5
221
330
1F
100
AcDbEntity
  8
0
  6
HIDDEN
 62
     7
370
     0
100
AcDbLine
 10
197.5658113365
 20
120.0086466629
 30
0.0
 11
196.6558868294
 21
122.5086466071
 31
0.0
  0
LINE
  5
222
330
1F
100
AcDbEntity
  8
0
  6
HIDDEN
 62
     7
370
     0
100
AcDbLine
 10
187.4558856939
 20
117.5086467188
 30
0.0
 11
196.6558868294
 21
117.5086467188
 31
0.0
  0
LINE
  5
223
330
1F
100
AcDbEntity
  8
0
  6
HIDDEN
 62
     7
370
     0
100
AcDbLine
 10
196.6558868294
 20
122.5086466071
 30
0.0
 11
187.4558856939
 21
122.5086466071
 31
0.0
  0
LINE
  5
224
330
1F
100
AcDbEntity
  8
0
  6
HIDDEN
 62
     7
370
     0
100
AcDbLine
 10
167.9558864557
 20
132.7357442711
 30
0.0
 11
167.9558864557
 21
134.5536859367
 31
0.0
  0
LINE
  5
225
330
1F
100
AcDbEntity
  8
0
  6
HIDDEN
 62
     7
370
     0
100
AcDbLine
 10
163.3558865865
 20
134.2731473629
 30
0.0
 11
163.3558865865
 21
132.7577625994
 31
0.0
  0
LINE
  5
226
330
1F
100
AcDbEntity
  8
0
  6
HIDDEN
 62
     7
370
     0
100
AcDbLine
 10
167.9558864557
 20
105.4752340202
 30
0.0
 11
167.9558864557
 21
107.2815490548
 31
0.0
  0
LINE
  5
227
330
1F
100
AcDbEntity
  8
0
  6
HIDDEN
 62
     7
370
     0
100
AcDbLine
 10
163.3558865865
 20
107.2595307265
 30
0.0
 11
163.3558865865
 21
105.7500403036
 31
0.0
  0
LINE
  5
228
330
1F
100
AcDbEntity
  8
0
  6
HIDDEN
 62
     7
370
     0
100
AcDbLine
 10
211.4863774036
 20
121.3728041981
 30
0.0
 11
213.4475713824
 21
118.1326142174
 31
0.0
  0
LINE
  5
229
330
1F
100
AcDbEntity
  8
0
  6
HIDDEN
 62
     7
370
     0
100
AcDbLine
 10
220.6337457751
 20
122.4821989086
 30
0.0
 11
218.7611988043
 21
125.5759314295
 31
0.0
  0
LINE
  5
22A
330
1F
100
AcDbEntity
  8
0
  6
HIDDEN
 62
     7
370
     0
100
AcDbLine
 10
192.5558863436
 20
123.1790547386
 30
0.0
 11
192.5558863436
 21
120.780841658
 31
0.0
  0
LINE
  5
22B
330
1F
100
AcDbEntity
  8
0
  6
HIDDEN
 62
     7
370
     0
100
AcDbLine
 10
196.7558866595
 20
120.6969492846
 30
0.0
 11
196.7558866595
 21
123.1790547386
 31
0.0
  0
ARC
  5
22C
330
1F
100
AcDbEntity
  8
0
  6
HIDDEN
 62
     7
370
     0
100
AcDbCircle
 10
156.9558864569
 20
106.2286466629
 30
0.0
 40
0.9000000000000057
100
AcDbArc
 50
34.6391318474
 51
90.0
  0
ARC
  5
22D
330
1F
100
AcDbEntity
  8
0
  6
HIDDEN
 62
     7
370
     0
100
AcDbCircle
 10
154.4558864569
 20
133.7886466629
 30
0.0
 40
0.8999999999999773
100
AcDbArc
 50
270.0
 51
311.221922679
  0
LINE
  5
22E
330
1F
100
AcDbEntity
  8
0
  6
HIDDEN
 62
     7
370
     0
100
AcDbLine
 10
152.7648871993
 20
107.1286463771
 30
0.0
 11
156.9558862825
 21
107.1286463771
 31
0.0
  0
LINE
  5
22F
330
1F
100
AcDbEntity
  8
0
  6
HIDDEN
 62
     7
370
     0
100
AcDbLine
 10
151.755886734
 20
108.1376468424
 30
0.0
 11
152.7648871993
 21
107.1286463771
 31
0.0
  0
LINE
  5
230
330
1F
100
AcDbEntity
  8
0
  6
HIDDEN
 62
     7
370
     0
100
AcDbLine
 10
154.4558858727
 20
132.8886469487
 30
0.0
 11
152.7058860515
 21
132.8886469487
 31
0.0
  0
LINE
  5
231
330
1F
100
AcDbEntity
  8
0
  6
HIDDEN
 62
     7
370
     0
100
AcDbLine
 10
152.7058860515
 20
132.8886469487
 30
0.0
 11
151.755886734
 21
131.9386466999
 31
0.0
  0
LINE
  5
232
330
1F
100
AcDbEntity
  8
0
  6
HIDDEN
 62
     7
370
     0
100
AcDbLine
 10
221.4963479196
 20
107.5190912593
 30
0.0
 11
220.9109856044
 21
108.4861933846
 31
0.0
  0
LINE
  5
233
330
1F
100
AcDbEntity
  8
0
  6
HIDDEN
 62
     7
370
     0
100
AcDbLine
 10
215.4358072435
 20
105.1722244952
 30
0.0
 11
216.0211658334
 21
104.2051214386
 31
0.0
  0
LINE
  5
234
330
1F
100
AcDbEntity
  8
0
  6
HIDDEN
 62
     7
370
     0
100
AcDbLine
 10
214.3450943981
 20
113.5462975722
 30
0.0
 11
215.6538969134
 21
108.0647904087
 31
0.0
  0
LINE
  5
235
330
1F
100
AcDbEntity
  8
0
  6
HIDDEN
 62
     7
370
     0
100
AcDbLine
 10
192.1558870231
 20
125.1400729303
 30
0.0
 11
192.1558870231
 21
123.2533251528
 31
0.0
  0
LINE
  5
236
330
1F
100
AcDbEntity
  8
0
  6
HIDDEN
 62
     7
370
     0
100
AcDbLine
 10
197.15588598
 20
123.2533251528
 30
0.0
 11
197.15588598
 21
125.1073867675
 31
0.0
  0
LINE
  5
237
330
1F
100
AcDbEntity
  8
VERMASSUNG
  6
CENTERX2
100
AcDbLine
 10
148.3580621024
 20
120.0086466629
 30
0.0
 11
226.6558864569
 21
120.0086466629
 31
0.0
  0
LINE
  5
238
330
1F
100
AcDbEntity
  8
VERMASSUNG
  6
CENTERX2
100
AcDbLine
 10
226.6558864569
 20
93.0086466629
 30
0.0
 11
226.6558864569
 21
120.0086466629
 31
0.0
  0
LINE
  5
239
330
1F
100
AcDbEntity
  8
VERMASSUNG
  6
CENTERX2
100
AcDbLine
 10
226.6558864569
 20
93.0086466629
 30
0.0
 11
241.4199633783
 21
93.0086466629
 31
0.0
  0
DIMENSION
  5
23A
330
1F
100
AcDbEntity
  8
VERMASSUNG
100
AcDbDimension
  2
_D
 10
226.6563865584
 20
93.4287765617
 30
0.0
 11
235.6126824248
 21
102.4285022065
 31
0.0
 70
   162
  1
<>
 71
     1
 42
-1.0
  3
SLDDIMSTYLE0
100
AcDb2LineAngularDimension
 13
241.4199633783
 23
93.0086466629
 33
0.0
 14
226.6558864569
 24
93.0086466629
 34
0.0
 15
225.9002557135
 25
107.7018862422
 35
0.0
 16
235.6126824248
 26
102.4285022065
 36
0.0
  0
DIMENSION
  5
243
330
1F
100
AcDbEntity
  8
VERMASSUNG
100
AcDbDimension
  2
_D_1
 10
226.6558864569
 20
84.9737966028
 30
0.0
 11
199.1558864569
 21
84.9737966028
 31
0.0
 70
   160
  1
<>
 71
     2
 42
-1.0
  3
SLDDIMSTYLE1
100
AcDbAlignedDimension
 13
171.6558864569
 23
100.3086466629
 33
0.0
 14
226.6558864569
 24
93.0086466629
 34
0.0
100
AcDbRotatedDimension
  0
DIMENSION
  5
24E
330
1F
100
AcDbEntity
  8
VERMASSUNG
100
AcDbDimension
  2
_D_2
 10
151.7558864569
 20
76.6184935793
 30
0.0
 11
189.2058864569
 21
76.6184935793
 31
0.0
 70
   160
  1
<>
 71
     2
 42
-1.0
  3
SLDDIMSTYLE1
100
AcDbAlignedDimension
 13
226.6558864569
 23
93.0086466629
 33
0.0
 14
151.7558864569
 24
108.1376466629
 34
0.0
100
AcDbRotatedDimension
  0
DIMENSION
  5
258
330
1F
100
AcDbEntity
  8
VERMASSUNG
100
AcDbDimension
  2
_D_3
 10
246.8526572254
 20
120.0086466629
 30
0.0
 11
246.8526572254
 21
106.5086466629
 31
0.0
 70
   160
  1
<>
 71
     2
 42
-1.0
  3
SLDDIMSTYLE1
100
AcDbAlignedDimension
 13
226.6558864569
 23
93.0086466629
 33
0.0
 14
226.6558864569
 24
120.0086466629
 34
0.0
 50
90.0
100
AcDbRotatedDimension
  0
DIMENSION
  5
262
330
1F
100
AcDbEntity
  8
VERMASSUNG
100
AcDbDimension
  2
_D_4
 10
143.369220894
 20
100.0086466629
 30
0.0
 11
143.369220894
 21
120.0086466629
 31
0.0
 70
   160
  1
HSK T%%c<>
 71
     2
 42
-1.0
  3
SLDDIMSTYLE1
100
AcDbAlignedDimension
 13
171.9558864569
 23
140.0086466629
 33
0.0
 14
171.9558864569
 24
100.0086466629
 34
0.0
 50
90.0
100
AcDbRotatedDimension
  0
LINE
  5
26E
330
1F
100
AcDbEntity
  8
0
  6
Continuous
 62
     7
370
    15
100
AcDbLine
 10
86.7647338855
 20
94.6224826981
 30
0.0
 11
89.4769664119
 21
95.1007224281
 31
0.0
  0
LINE
  5
26F
330
1F
100
AcDbEntity
  8
0
  6
Continuous
 62
     7
370
    15
100
AcDbLine
 10
89.4868244613
 20
95.1080854643
 30
0.0
 11
89.7255960117
 21
95.4531274397
 31
0.0
  0
LINE
  5
270
330
1F
100
AcDbEntity
  8
0
  6
Continuous
 62
     7
370
    15
100
AcDbLine
 10
80.5951039147
 20
93.0069863458
 30
0.0
 11
86.814375707
 21
94.1036112268
 31
0.0
  0
LINE
  5
271
330
1F
100
AcDbEntity
  8
0
  6
Continuous
 62
     7
370
    15
100
AcDbLine
 10
79.532243657
 20
97.19166268
 30
0.0
 11
79.9739079048
 21
96.6549042274
 31
0.0
  0
LINE
  5
272
330
1F
100
AcDbEntity
  8
0
  6
Continuous
 62
     7
370
    15
100
AcDbLine
 10
76.5123135607
 20
111.8946700949
 30
0.0
 11
76.279142053
 21
111.2343372438
 31
0.0
  0
LINE
  5
273
330
1F
100
AcDbEntity
  8
0
  6
Continuous
 62
     7
370
    15
100
AcDbLine
 10
75.5691864724
 20
115.4812408272
 30
0.0
 11
75.2537614862
 21
115.4256227088
 31
0.0
  0
LINE
  5
274
330
1F
100
AcDbEntity
  8
0
  6
Continuous
 62
     7
370
    15
100
AcDbLine
 10
87.1747076708
 20
109.7995891828
 30
0.0
 11
78.1445210996
 21
108.2073237408
 31
0.0
  0
LINE
  5
275
330
1F
100
AcDbEntity
  8
0
  6
Continuous
 62
     7
370
    15
100
AcDbLine
 10
75.3787729154
 20
123.4053393487
 30
0.0
 11
78.1445210996
 21
108.2073237408
 31
0.0
  0
LINE
  5
276
330
1F
100
AcDbEntity
  8
0
  6
Continuous
 62
     7
370
    15
100
AcDbLine
 10
97.1305818493
 20
127.2407701832
 30
0.0
 11
75.3787729154
 21
123.4053393487
 31
0.0
  0
ARC
  5
277
330
1F
100
AcDbEntity
  8
0
  6
Continuous
 62
     7
370
    15
100
AcDbCircle
 10
80.6473662342
 20
120.0086466629
 30
0.0
 40
18.0
100
AcDbArc
 50
0.0
 51
23.6897924145
  0
LINE
  5
278
330
1F
100
AcDbEntity
  8
0
  6
Continuous
 62
     7
370
    15
100
AcDbLine
 10
98.6473654593
 20
103.0184283514
 30
0.0
 11
98.6473654593
 21
120.0086466629
 31
0.0
  0
SPLINE
  5
279
330
1F
100
AcDbEntity
  8
0
  6
Continuous
 62
     7
370
    15
100
AcDbSpline
210
0.0
220
0.0
230
1.0
 70
     8
 71
     3
 72
    22
 73
    18
 74
     0
 42
0.00000001
 43
0.00000001
 12
1.0
 22
0.0
 32
0.0
 13
1.0
 23
0.0
 33
0.0
 40
0.0
 40
0.0
 40
0.0
 40
0.0
 40
0.0417017495141564
 40
0.0833686863467972
 40
0.1250162801856162
 40
0.1666600222747323
 40
0.208315408155558
 40
0.2499979203837117
 40
0.3124743254900396
 40
0.3750125216340555
 40
0.5000186291051258
 40
0.6250234998319097
 40
0.7500213871740969
 40
0.8124885835488631
 40
0.8750197978527853
 40
0.9374824015406735
 40
0.9999999999999999
 40
0.9999999999999999
 40
0.9999999999999999
 40
0.9999999999999999
 10
89.65675655055628
 20
96.16052461932195
 30
0.0
 10
89.8013186618083
 20
96.22584702063443
 30
0.0
 10
90.0903222036503
 20
96.35643729202317
 30
0.0
 10
90.51875944772078
 20
96.56284735763909
 30
0.0
 10
90.9431726533665
 20
96.77682594929672
 30
0.0
 10
91.3632193931488
 20
96.99913509938507
 30
0.0
 10
91.77899107668422
 20
97.22957341111668
 30
0.0
 10
92.25873758621874
 20
97.507776214895
 30
0.0
 10
92.79935199063023
 20
97.83905168867643
 30
0.0
 10
93.59533103707159
 20
98.35926369883039
 30
0.0
 10
94.56153262352518
 20
99.05268646651498
 30
0.0
 10
95.67032036560575
 20
99.95072126845194
 30
0.0
 10
96.54921558356287
 20
100.7515788752608
 30
0.0
 10
97.22356307628819
 20
101.4220358118633
 30
0.0
 10
97.71411343242539
 20
101.9395906681021
 30
0.0
 10
98.19071743652488
 20
102.470428832388
 30
0.0
 10
98.49510591300411
 20
102.8357087010232
 30
0.0
 10
98.64736712094935
 20
103.018429002001
 30
0.0
  0
LINE
  5
27A
330
1F
100
AcDbEntity
  8
0
  6
Continuous
 62
     7
370
    15
100
AcDbLine
 10
87.1747076708
 20
109.7995891828
 30
0.0
 11
87.2533955808
 21
109.3671928752
 31
0.0
  0
LWPOLYLINE
  5
27B
330
1F
100
AcDbEntity
  8
0
  6
Continuous
 62
     7
370
    15
100
AcDbPolyline
 90
       37
 70
   128
 43
0.0
 10
74.7142393338
 20
122.8907491673
 10
74.7860368538
 20
122.8494156745
 10
74.8741194802
 20
122.7046082855
 10
74.9758105922
 20
122.4607263353
 10
75.0880209926
 20
122.1251803577
 10
75.2073411095
 20
121.7081658902
 10
75.3301453042
 20
121.2223533435
 10
75.4527022327
 20
120.6825041223
 10
75.5712880018
 20
120.1050211599
 10
75.6822997901
 20
119.5074510538
 10
75.7823638814
 20
118.9079506217
 10
75.8684404391
 20
118.3247354707
 10
75.9379138435
 20
117.775526283
 10
75.9886737178
 20
117.2770102635
 10
76.0191768604
 20
116.844334792
 10
76.0284970711
 20
116.4906466507
 10
76.0163507621
 20
116.2266921379
 10
75.9831072028
 20
116.0604918037
 10
75.9297768782
 20
115.9970948134
 10
75.8579793583
 20
116.0384283062
 10
75.7698967318
 20
116.1832356952
 10
75.6682051542
 20
116.4271174126
 10
75.5559947538
 20
116.7626633901
 10
75.4366746369
 20
117.1796779741
 10
75.3138709078
 20
117.6654905208
 10
75.1913139793
 20
118.2053398002
 10
75.0727282102
 20
118.7828227772
 10
74.961716422
 20
119.3803928105
 10
74.8616523306
 20
119.9798932226
 10
74.7755757729
 20
120.5631083936
 10
74.7061019028
 20
121.1123176977
 10
74.6553424942
 20
121.6108336007
 10
74.6248393516
 20
122.0435089559
 10
74.6155191409
 20
122.39719733
 10
74.62766545
 20
122.6611518428
 10
74.6609090093
 20
122.8273524098
 10
74.7142393338
 20
122.8907491673
  0
SPLINE
  5
27C
330
1F
100
AcDbEntity
  8
0
  6
Continuous
 62
     7
370
    15
100
AcDbSpline
210
0.0
220
0.0
230
1.0
 70
     8
 71
     3
 72
     8
 73
     4
 74
     0
 42
0.00000001
 43
0.00000001
 12
1.0
 22
0.0
 32
0.0
 13
1.0
 23
0.0
 33
0.0
 40
0.0
 40
0.0
 40
0.0
 40
0.0
 40
1.0
 40
1.0
 40
1.0
 40
1.0
 10
77.25630945208972
 20
102.1449193483456
 30
0.0
 10
77.18845390930433
 20
102.4786277429047
 30
0.0
 10
77.1206184549877
 20
102.8124285447997
 30
0.0
 10
77.05280656872905
 20
103.1463377602069
 30
0.0
  0
SPLINE
  5
27D
330
1F
100
AcDbEntity
  8
0
  6
Continuous
 62
     7
370
    15
100
AcDbSpline
210
0.0
220
0.0
230
1.0
 70
     8
 71
     3
 72
    12
 73
     8
 74
     0
 42
0.00000001
 43
0.00000001
 12
1.0
 22
0.0
 32
0.0
 13
1.0
 23
0.0
 33
0.0
 40
0.0
 40
0.0
 40
0.0
 40
0.0
 40
0.2500000000000001
 40
0.2500000000000001
 40
0.5000000000000001
 40
0.5000000000000001
 40
1.0
 40
1.0
 40
1.0
 40
1.0
 10
77.05280656872905
 20
103.1463377602069
 30
0.0
 10
77.03039741813137
 20
103.2566815702208
 30
0.0
 10
77.00755856150407
 20
103.3601297353339
 30
0.0
 10
76.96102578156061
 20
103.5533045074569
 30
0.0
 10
76.93790484925553
 20
103.6404401621056
 30
0.0
 10
76.87163750891668
 20
103.8622943227649
 30
0.0
 10
76.83161786006366
 20
103.9558972247345
 30
0.0
 10
76.8058840710024
 20
103.9620577796282
 30
0.0
  0
ARC
  5
27E
330
1F
100
AcDbEntity
  8
0
  6
Continuous
 62
     7
370
    15
100
AcDbCircle
 10
80.6473662342
 20
120.0086466629
 30
0.0
 40
16.50000000000002
100
AcDbArc
 50
254.6589672951
 51
256.53701681
  0
ARC
  5
27F
330
1F
100
AcDbEntity
  8
0
  6
Continuous
 62
     7
370
    15
100
AcDbCircle
 10
80.6473662342
 20
120.0086466629
 30
0.0
 40
16.50000000000001
100
AcDbArc
 50
123.46298319
 51
125.3410327049
  0
SPLINE
  5
280
330
1F
100
AcDbEntity
  8
0
  6
Continuous
 62
     7
370
    15
100
AcDbSpline
210
0.0
220
0.0
230
1.0
 70
     8
 71
     3
 72
    10
 73
     6
 74
     0
 42
0.00000001
 43
0.00000001
 12
1.0
 22
0.0
 32
0.0
 13
1.0
 23
0.0
 33
0.0
 40
0.0
 40
0.0
 40
0.0
 40
0.0
 40
0.5
 40
0.5
 40
1.0
 40
1.0
 40
1.0
 40
1.0
 10
71.54929716280523
 20
133.7736435453269
 30
0.0
 10
71.5713515704488
 20
133.7882205572786
 30
0.0
 10
71.5770320019744
 20
133.8882157569752
 30
0.0
 10
71.55882481630141
 20
134.1985004760036
 30
0.0
 10
71.5356772222281
 20
134.402066304246
 30
0.0
 10
71.50233573386954
 20
134.6246220962639
 30
0.0
  0
SPLINE
  5
281
330
1F
100
AcDbEntity
  8
0
  6
Continuous
 62
     7
370
    15
100
AcDbSpline
210
0.0
220
0.0
230
1.0
 70
     8
 71
     3
 72
     8
 73
     4
 74
     0
 42
0.00000001
 43
0.00000001
 12
1.0
 22
0.0
 32
0.0
 13
1.0
 23
0.0
 33
0.0
 40
0.0
 40
0.0
 40
0.0
 40
0.0
 40
1.0
 40
1.0
 40
1.0
 40
1.0
 10
71.50233573386954
 20
134.6246220962639
 30
0.0
 10
71.46161779965354
 20
134.8964159646515
 30
0.0
 10
71.42093843118914
 20
135.1681487448158
 30
0.0
 10
71.38029295006845
 20
135.4398278473635
 30
0.0
  0
ARC
  5
282
330
1F
100
AcDbEntity
  8
0
  6
Continuous
 62
     7
370
    15
100
AcDbCircle
 10
80.6473662342
 20
120.0086466629
 30
0.0
 40
18.0
100
AcDbArc
 50
117.9267509969
 51
120.9865875084
  0
LINE
  5
283
330
1F
100
AcDbEntity
  8
0
  6
Continuous
 62
     7
370
    15
100
AcDbLine
 10
72.2172028582
 20
135.912493955
 30
0.0
 11
75.3787729154
 21
123.4053393487
 31
0.0
  0
LWPOLYLINE
  5
284
330
1F
100
AcDbEntity
  8
0
  6
Continuous
 62
     7
370
    15
100
AcDbPolyline
 90
       14
 70
   128
 43
0.0
 10
75.4157873998
 20
115.9145093184
 10
75.3368745754
 20
116.1067033313
 10
75.2716819952
 20
116.2003017158
 10
75.2234776701
 20
116.1906115372
 10
75.1946797791
 20
116.0781184804
 10
75.1867318722
 20
115.8684633334
 10
75.2000325556
 20
115.5721588653
 10
75.2339145365
 20
115.2040633966
 10
75.286680014
 20
114.7826348093
 10
75.3556817035
 20
114.3290052783
 10
75.4374602075
 20
113.8659214262
 10
75.5279149125
 20
113.4166043844
 10
75.6225098121
 20
113.003584243
 10
75.7110553059
 20
112.6666699197
  0
ARC
  5
285
330
1F
100
AcDbEntity
  8
0
  6
Continuous
 62
     7
370
    15
100
AcDbCircle
 10
77.0406341943
 20
101.4456200056
 30
0.0
 40
0.7318020760773699
100
AcDbArc
 50
27.0168250781
 51
72.8593711156
  0
LINE
  5
286
330
1F
100
AcDbEntity
  8
0
  6
Continuous
 62
     7
370
    15
100
AcDbLine
 10
78.1445210996
 20
108.2073237408
 30
0.0
 11
75.4157873998
 21
115.9145093184
 31
0.0
  0
SPLINE
  5
287
330
1F
100
AcDbEntity
  8
0
  6
Continuous
 62
     7
370
    15
100
AcDbSpline
210
0.0
220
0.0
230
1.0
 70
    24
 71
     3
 72
     9
 73
     5
 74
     0
 42
0.00000001
 43
0.00000001
 12
1.0
 22
0.0
 32
0.0
 13
1.0
 23
0.0
 33
0.0
 40
0.0
 40
0.0
 40
0.0
 40
0.0
 40
0.4965833428128228
 40
1.0
 40
1.0
 40
1.0
 40
1.0
 10
98.64736623419005
 20
103.0184286694742
 30
0.0
 10
98.64736623419005
 20
102.8926211391451
 30
0.0
 10
98.64736623419005
 20
102.6392748838791
 30
0.0
 10
98.64736623419005
 20
102.3873821425014
 30
0.0
 10
98.64736623419005
 20
102.2605751406674
 30
0.0
  0
SPLINE
  5
288
330
1F
100
AcDbEntity
  8
0
  6
Continuous
 62
     7
370
    15
100
AcDbSpline
210
0.0
220
0.0
230
1.0
 70
     8
 71
     3
 72
    21
 73
    17
 74
     0
 42
0.00000001
 43
0.00000001
 12
1.0
 22
0.0
 32
0.0
 13
1.0
 23
0.0
 33
0.0
 40
0.0
 40
0.0
 40
0.0
 40
0.0
 40
0.0455813682610271
 40
0.0933710397763534
 40
0.1433690131573022
 40
0.195575285185989
 40
0.2499898510254558
 40
0.3089997024459565
 40
0.3750010354455609
 40
0.5000051977558819
 40
0.6250092704153115
 40
0.6909578935388636
 40
0.7500202618585653
 40
0.8394321987120135
 40
0.9227588152236604
 40
1.0
 40
1.0
 40
1.0
 40
1.0
 10
98.64736624466603
 20
102.2605698659115
 30
0.0
 10
98.53561880959386
 20
102.1314557095229
 30
0.0
 10
98.30671005579606
 20
101.8669721388934
 30
0.0
 10
97.94459501143102
 20
101.47030756401
 30
0.0
 10
97.55736727401782
 20
101.0631938573347
 30
0.0
 10
97.14321488969145
 20
100.647674129264
 30
0.0
 10
96.69489855565013
 20
100.2188338325585
 30
0.0
 10
96.19755280840292
 20
99.76682568139724
 30
0.0
 10
95.48714900378634
 20
99.15671017120431
 30
0.0
 10
94.55659050881971
 20
98.42450097785144
 30
0.0
 10
93.58655006756001
 20
97.74580466789268
 30
0.0
 10
92.79692497848981
 20
97.24241171553192
 30
0.0
 10
92.10789466723303
 20
96.82975720500272
 30
0.0
 10
91.348131033853
 20
96.4092301022813
 30
0.0
 10
90.51276277625962
 20
95.98559605074541
 30
0.0
 10
89.96445852358963
 20
95.73815096211617
 30
0.0
 10
89.7006966127058
 20
95.61911743447556
 30
0.0
  0
ARC
  5
289
330
1F
100
AcDbEntity
  8
0
  6
Continuous
 62
     7
370
    15
100
AcDbCircle
 10
80.6473662342
 20
120.0086466629
 30
0.0
 40
18.0
100
AcDbArc
 50
23.6897924145
 51
117.9267509969
  0
SPLINE
  5
28A
330
1F
100
AcDbEntity
  8
0
  6
Continuous
 62
     7
370
    15
100
AcDbSpline
210
0.0
220
0.0
230
1.0
 70
     8
 71
     3
 72
    12
 73
     8
 74
     0
 42
0.00000001
 43
0.00000001
 12
1.0
 22
0.0
 32
0.0
 13
1.0
 23
0.0
 33
0.0
 40
0.0
 40
0.0
 40
0.0
 40
0.0
 40
0.2500000000000018
 40
0.2500000000000018
 40
0.5000000000000037
 40
0.5000000000000037
 40
1.0
 40
1.0
 40
1.0
 40
1.0
 10
70.57437132861932
 20
133.0771115166314
 30
0.0
 10
70.64007200554289
 20
133.1277527045102
 30
0.0
 10
70.7028125731664
 20
133.1753231111475
 30
0.0
 10
70.82174704633256
 20
133.264314272833
 30
0.0
 10
70.87712449540994
 20
133.3051074303534
 30
0.0
 10
71.02037035449719
 20
133.4095765048264
 30
0.0
 10
71.08695352169131
 20
133.4566539245019
 30
0.0
 10
71.10307393020167
 20
133.4680851510734
 30
0.0
  0
SPLINE
  5
28B
330
1F
100
AcDbEntity
  8
0
  6
Continuous
 62
     7
370
    15
100
AcDbSpline
210
0.0
220
0.0
230
1.0
 70
     8
 71
     3
 72
    10
 73
     6
 74
     0
 42
0.00000001
 43
0.00000001
 12
1.0
 22
0.0
 32
0.0
 13
1.0
 23
0.0
 33
0.0
 40
0.0
 40
0.0
 40
0.0
 40
0.0
 40
0.5
 40
0.5
 40
1.0
 40
1.0
 40
1.0
 40
1.0
 10
76.28206426630508
 20
104.0965714139538
 30
0.0
 10
76.26304921308933
 20
104.1017879836296
 30
0.0
 10
76.1865834317789
 20
104.1226227307399
 30
0.0
 10
75.95648125485296
 20
104.1890405459929
 30
0.0
 10
75.80942325980831
 20
104.2329769220689
 30
0.0
 10
75.65152547451954
 20
104.2831395135908
 30
0.0
  0
ELLIPSE
  5
28C
330
1F
100
AcDbEntity
  8
0
  6
Continuous
 62
     7
370
    15
100
AcDbEllipse
 10
70.7543786806
 20
112.6034088132
 30
0.0
 11
-1.73265421802077
 21
2.349448555692874
 31
0.0
210
0.0
220
0.0
230
1.0
 40
0.7000471275
 41
0.0
 42
6.283185307179586
  0
ARC
  5
28D
330
1F
100
AcDbEntity
  8
0
  6
Continuous
 62
     7
370
    15
100
AcDbCircle
 10
80.6473662342
 20
120.0086466629
 30
0.0
 40
16.50000000000002
100
AcDbArc
 50
127.6245465932
 51
252.3754534068
  0
SPLINE
  5
28E
330
1F
100
AcDbEntity
  8
0
  6
Continuous
 62
     7
370
    15
100
AcDbSpline
210
0.0
220
0.0
230
1.0
 70
     8
 71
     3
 72
    10
 73
     6
 74
     0
 42
0.00000001
 43
0.00000001
 12
1.0
 22
0.0
 32
0.0
 13
1.0
 23
0.0
 33
0.0
 40
0.0
 40
0.0
 40
0.0
 40
0.0
 40
0.5
 40
0.5
 40
1.0
 40
1.0
 40
1.0
 40
1.0
 10
69.16223548766594
 20
114.9053947650699
 30
0.0
 10
69.16749889587128
 20
114.8076099152716
 30
0.0
 10
69.18381186974133
 20
114.711259002749
 30
0.0
 10
69.2453107921304
 20
114.5198971854413
 30
0.0
 10
69.29099688936218
 20
114.4246174626287
 30
0.0
 10
69.34828449125096
 20
114.3327948096283
 30
0.0
  0
SPLINE
  5
28F
330
1F
100
AcDbEntity
  8
0
  6
Continuous
 62
     7
370
    15
100
AcDbSpline
210
0.0
220
0.0
230
1.0
 70
     8
 71
     3
 72
    23
 73
    19
 74
     0
 42
0.00000001
 43
0.00000001
 12
1.0
 22
0.0
 32
0.0
 13
1.0
 23
0.0
 33
0.0
 40
0.0
 40
0.0
 40
0.0
 40
0.0
 40
0.0936609301441155
 40
0.140491361334467
 40
0.1642515462315162
 40
0.1884013744582921
 40
0.2120500932055423
 40
0.2357731533399105
 40
0.2613995303509583
 40
0.2877327759060869
 40
0.3443720357336523
 40
0.40131419351731
 40
0.5160733137743743
 40
0.6292706473294297
 40
0.7431885121007814
 40
0.8597173791647565
 40
0.9773495597995915
 40
1.0
 40
1.0
 40
1.0
 40
1.0
 10
69.3482841561504
 20
114.3327948298578
 30
0.0
 10
69.39749642844679
 20
114.3768756390711
 30
0.0
 10
69.47131481908889
 20
114.4429968369447
 30
0.0
 10
69.56387981158355
 20
114.5263316034427
 30
0.0
 10
69.62295375882238
 20
114.5736121788524
 30
0.0
 10
69.67292135409208
 20
114.6076363457227
 30
0.0
 10
69.73223498951204
 20
114.635511354494
 30
0.0
 10
69.79797966226771
 20
114.6501136690583
 30
0.0
 10
69.86279667491895
 20
114.6539410773025
 30
0.0
 10
69.95112610880177
 20
114.652280833742
 30
0.0
 10
70.05891787853152
 20
114.6443501463966
 30
0.0
 10
70.22831663653893
 20
114.6317279573462
 30
0.0
 10
70.43132670897542
 20
114.6220888317163
 30
0.0
 10
70.66347801940235
 20
114.6268305055067
 30
0.0
 10
70.88500201036643
 20
114.6490078186015
 30
0.0
 10
71.09178709807178
 20
114.6947441484738
 30
0.0
 10
71.23783076058871
 20
114.7379931407008
 30
0.0
 10
71.30340853394335
 20
114.776732366697
 30
0.0
 10
71.3139969120689
 20
114.7829873148625
 30
0.0
  0
SPLINE
  5
290
330
1F
100
AcDbEntity
  8
0
  6
Continuous
 62
     7
370
    15
100
AcDbSpline
210
0.0
220
0.0
230
1.0
 70
     8
 71
     3
 72
    15
 73
    11
 74
     0
 42
0.00000001
 43
0.00000001
 12
1.0
 22
0.0
 32
0.0
 13
1.0
 23
0.0
 33
0.0
 40
0.0
 40
0.0
 40
0.0
 40
0.0
 40
0.1932612479592963
 40
0.3514616540812881
 40
0.4468470702703489
 40
0.5080526014260238
 40
0.5698649753450953
 40
0.6548048412189085
 40
0.826230672345175
 40
1.0
 40
1.0
 40
1.0
 40
1.0
 10
70.0229947651692
 20
115.2413074519758
 30
0.0
 10
69.98652429984793
 20
115.1857401553616
 30
0.0
 10
69.9201997251995
 20
115.0846864046119
 30
0.0
 10
69.82508068959275
 20
114.9660374411329
 30
0.0
 10
69.74569940504435
 20
114.889154911155
 30
0.0
 10
69.67584909664183
 20
114.8456922116596
 30
0.0
 10
69.59725809818879
 20
114.8240750675198
 30
0.0
 10
69.48048929359616
 20
114.8259931783753
 30
0.0
 10
69.33472705061988
 20
114.8550855025433
 30
0.0
 10
69.21999246292073
 20
114.8885492841458
 30
0.0
 10
69.16223570806461
 20
114.9053947661345
 30
0.0
  0
LWPOLYLINE
  5
291
330
1F
100
AcDbEntity
  8
0
  6
Continuous
 62
     7
370
    15
100
AcDbPolyline
 90
        9
 70
   128
 43
0.0
 10
69.3482841562
 20
114.3327948299
 10
69.3313704069
 20
114.3848501738
 10
69.3124999489
 20
114.4429279153
 10
69.2917370434
 20
114.5068296824
 10
69.269152471
 20
114.5763366144
 10
69.2448244627
 20
114.6512116898
 10
69.2188359062
 20
114.7311978635
 10
69.1912743459
 20
114.8160222579
 10
69.1622357081
 20
114.9053947661
  0
LINE
  5
292
330
1F
100
AcDbEntity
  8
0
  6
Continuous
 62
     7
370
    15
100
AcDbLine
 10
77.0604660465
 20
103.1086474318
 30
0.0
 11
76.1042396734
 21
103.1086474318
 31
0.0
  0
SPLINE
  5
293
330
1F
100
AcDbEntity
  8
0
  6
Continuous
 62
     7
370
    15
100
AcDbSpline
210
0.0
220
0.0
230
1.0
 70
    24
 71
     3
 72
    12
 73
     8
 74
     0
 42
0.00000001
 43
0.00000001
 12
1.0
 22
0.0
 32
0.0
 13
1.0
 23
0.0
 33
0.0
 40
0.0
 40
0.0
 40
0.0
 40
0.0
 40
0.5000000000000022
 40
0.5000000000000022
 40
0.7500000000000011
 40
0.7500000000000011
 40
1.0
 40
1.0
 40
1.0
 40
1.0
 10
67.76996354575944
 20
131.8586466629332
 30
0.0
 10
67.95249024930713
 20
131.8586466629332
 30
0.0
 10
68.1370809046423
 20
131.8586466629331
 30
0.0
 10
68.39736222681684
 20
131.8586466629332
 30
0.0
 10
68.48191667962791
 20
131.8586466629331
 30
0.0
 10
68.64586462937213
 20
131.8586466629332
 30
0.0
 10
68.7253148534135
 20
131.8586466629331
 30
0.0
 10
68.79736623419184
 20
131.8586466629332
 30
0.0
  0
SPLINE
  5
294
330
1F
100
AcDbEntity
  8
0
  6
Continuous
 62
     7
370
    15
100
AcDbSpline
210
0.0
220
0.0
230
1.0
 70
    24
 71
     3
 72
    10
 73
     6
 74
     0
 42
0.00000001
 43
0.00000001
 12
1.0
 22
0.0
 32
0.0
 13
1.0
 23
0.0
 33
0.0
 40
0.0
 40
0.0
 40
0.0
 40
0.0
 40
0.5
 40
0.5
 40
1.0
 40
1.0
 40
1.0
 40
1.0
 10
68.79736623419002
 20
132.8860493513637
 30
0.0
 10
68.79736623419002
 20
132.7033406392288
 30
0.0
 10
68.79736623419002
 20
132.5198323494679
 30
0.0
 10
68.79736623419002
 20
132.1715283711473
 30
0.0
 10
68.79736623419002
 20
132.0033407886044
 30
0.0
 10
68.79736623419002
 20
131.8586466629317
 30
0.0
  0
SPLINE
  5
295
330
1F
100
AcDbEntity
  8
0
  6
Continuous
 62
     7
370
    15
100
AcDbSpline
210
0.0
220
0.0
230
1.0
 70
    24
 71
     3
 72
    10
 73
     6
 74
     0
 42
0.00000001
 43
0.00000001
 12
1.0
 22
0.0
 32
0.0
 13
1.0
 23
0.0
 33
0.0
 40
0.0
 40
0.0
 40
0.0
 40
0.0
 40
0.5
 40
0.5
 40
1.0
 40
1.0
 40
1.0
 40
1.0
 10
76.14736623419003
 20
138.879523696076
 30
0.0
 10
76.14736623419003
 20
139.0379581389639
 30
0.0
 10
76.14736623419003
 20
139.1969788337658
 30
0.0
 10
76.14736623419003
 20
139.4269866580215
 30
0.0
 10
76.14736623419003
 20
139.4958219328383
 30
0.0
 10
76.14736623419003
 20
139.4958219328383
 30
0.0
  0
ARC
  5
296
330
1F
100
AcDbEntity
  8
0
  6
Continuous
 62
     7
370
    15
100
AcDbCircle
 10
80.6473662342
 20
120.0086466629
 30
0.0
 40
20.0
100
AcDbArc
 50
103.0028781629
 51
126.3346172154
  0
SPLINE
  5
297
330
1F
100
AcDbEntity
  8
0
  6
Continuous
 62
     7
370
    15
100
AcDbSpline
210
0.0
220
0.0
230
1.0
 70
    24
 71
     3
 72
    12
 73
     8
 74
     0
 42
0.00000001
 43
0.00000001
 12
1.0
 22
0.0
 32
0.0
 13
1.0
 23
0.0
 33
0.0
 40
0.0
 40
0.0
 40
0.0
 40
0.0
 40
0.25
 40
0.25
 40
0.5
 40
0.5
 40
1.0
 40
1.0
 40
1.0
 40
1.0
 10
68.79736623419002
 20
136.1200556640106
 30
0.0
 10
68.79736623419002
 20
136.1200556640106
 30
0.0
 10
68.79736623419002
 20
136.0944310314058
 30
0.0
 10
68.79736623419002
 20
136.005887658474
 30
0.0
 10
68.79736623419002
 20
135.9430051753593
 30
0.0
 10
68.79736623419002
 20
135.7256439874258
 30
0.0
 10
68.79736623419002
 20
135.5469969774145
 30
0.0
 10
68.79736623419002
 20
135.3689038222387
 30
0.0
  0
ARC
  5
298
330
1F
100
AcDbEntity
  8
0
  6
Continuous
 62
     7
370
    15
100
AcDbCircle
 10
80.6473662342
 20
120.0086466629
 30
0.0
 40
20.0
100
AcDbArc
 50
143.6653827846
 51
254.0379858372
  0
SPLINE
  5
299
330
1F
100
AcDbEntity
  8
0
  6
Continuous
 62
     7
370
    15
100
AcDbSpline
210
0.0
220
0.0
230
1.0
 70
    24
 71
     3
 72
    10
 73
     6
 74
     0
 42
0.00000001
 43
0.00000001
 12
1.0
 22
0.0
 32
0.0
 13
1.0
 23
0.0
 33
0.0
 40
0.0
 40
0.0
 40
0.0
 40
0.0
 40
0.5
 40
0.5
 40
1.0
 40
1.0
 40
1.0
 40
1.0
 10
75.14736623419005
 20
101.4046148418466
 30
0.0
 10
75.14736623419005
 20
101.2449826729434
 30
0.0
 10
75.14736623419005
 20
101.0839330391793
 30
0.0
 10
75.14736623419005
 20
100.8509421555027
 30
0.0
 10
75.14736623419005
 20
100.7797621399037
 30
0.0
 10
75.14736623419005
 20
100.7797621399037
 30
0.0
  0
SPLINE
  5
29A
330
1F
100
AcDbEntity
  8
0
  6
Continuous
 62
     7
370
    15
100
AcDbSpline
210
0.0
220
0.0
230
1.0
 70
    24
 71
     3
 72
    12
 73
     8
 74
     0
 42
0.00000001
 43
0.00000001
 12
1.0
 22
0.0
 32
0.0
 13
1.0
 23
0.0
 33
0.0
 40
0.0
 40
0.0
 40
0.0
 40
0.0
 40
0.250000000000002
 40
0.250000000000002
 40
0.500000000000004
 40
0.500000000000004
 40
1.0
 40
1.0
 40
1.0
 40
1.0
 10
64.53595723311258
 20
131.8586466629332
 30
0.0
 10
64.53595723311258
 20
131.8586466629331
 30
0.0
 10
64.56123738327706
 20
131.8586466629332
 30
0.0
 10
64.6508487287788
 20
131.8586466629332
 30
0.0
 10
64.7138343657048
 20
131.8586466629331
 30
0.0
 10
64.93012108746237
 20
131.8586466629332
 30
0.0
 10
65.11010084488275
 20
131.8586466629332
 30
0.0
 10
65.28710907488444
 20
131.8586466629332
 30
0.0
  0
SPLINE
  5
29B
330
1F
100
AcDbEntity
  8
0
  6
Continuous
 62
     7
370
    15
100
AcDbSpline
210
0.0
220
0.0
230
1.0
 70
    24
 71
     3
 72
    10
 73
     6
 74
     0
 42
0.00000001
 43
0.00000001
 12
1.0
 22
0.0
 32
0.0
 13
1.0
 23
0.0
 33
0.0
 40
0.0
 40
0.0
 40
0.0
 40
0.0
 40
0.5
 40
0.5
 40
1.0
 40
1.0
 40
1.0
 40
1.0
 10
85.14736623419005
 20
139.4958219328382
 30
0.0
 10
85.14736623419005
 20
139.4958219328382
 30
0.0
 10
85.14736623419005
 20
139.4272365303324
 30
0.0
 10
85.14736623419005
 20
139.1974632610127
 30
0.0
 10
85.14736623419005
 20
139.038965059345
 30
0.0
 10
85.14736623419005
 20
138.879523696076
 30
0.0
  0
ARC
  5
29C
330
1F
100
AcDbEntity
  8
0
  6
Continuous
 62
     7
370
    15
100
AcDbCircle
 10
80.6473662342
 20
120.0086466629
 30
0.0
 40
20.0
100
AcDbArc
 50
334.1580672368
 51
76.9971218371
  0
LINE
  5
29D
330
1F
100
AcDbEntity
  8
0
  6
Continuous
 62
     7
370
    15
100
AcDbLine
 10
85.1473660405
 20
138.879523765
 30
0.0
 11
85.1473660405
 21
137.4370708723
 31
0.0
  0
LINE
  5
29E
330
1F
100
AcDbEntity
  8
0
  6
Continuous
 62
     7
370
    15
100
AcDbLine
 10
75.147366264
 20
103.1086474318
 30
0.0
 11
75.147366264
 21
101.4046139676
 31
0.0
  0
LINE
  5
29F
330
1F
100
AcDbEntity
  8
0
  6
Continuous
 62
     7
370
    15
100
AcDbLine
 10
76.1042396734
 20
103.1086474318
 30
0.0
 11
75.147366264
 21
103.1086474318
 31
0.0
  0
LINE
  5
2A0
330
1F
100
AcDbEntity
  8
0
  6
Continuous
 62
     7
370
    15
100
AcDbLine
 10
65.2871086459
 20
131.8586470221
 30
0.0
 11
67.769963407
 21
131.8586470221
 31
0.0
  0
LINE
  5
2A1
330
1F
100
AcDbEntity
  8
0
  6
Continuous
 62
     7
370
    15
100
AcDbLine
 10
76.1473664279
 20
137.4370708723
 30
0.0
 11
76.1473664279
 21
138.879523765
 31
0.0
  0
LINE
  5
2A2
330
1F
100
AcDbEntity
  8
0
  6
Continuous
 62
     7
370
    15
100
AcDbLine
 10
68.7973658751
 20
135.3689042513
 30
0.0
 11
68.7973658751
 21
132.8860494901
 31
0.0
  0
SPLINE
  5
2A3
330
1F
100
AcDbEntity
  8
0
  6
Continuous
 62
     7
370
    15
100
AcDbSpline
210
0.0
220
0.0
230
1.0
 70
     8
 71
     3
 72
    22
 73
    18
 74
     0
 42
0.00000001
 43
0.00000001
 12
1.0
 22
0.0
 32
0.0
 13
1.0
 23
0.0
 33
0.0
 40
0.0
 40
0.0
 40
0.0
 40
0.0
 40
0.2500000000000006
 40
0.2500000000000006
 40
0.3750000000000004
 40
0.3750000000000004
 40
0.5000000000000003
 40
0.5000000000000003
 40
0.6250000000000002
 40
0.6250000000000002
 40
0.75
 40
0.75
 40
0.8749999999999999
 40
0.8749999999999999
 40
0.9375
 40
0.9375
 40
1.0
 40
1.0
 40
1.0
 40
1.0
 10
64.53595723311257
 20
131.8586466629331
 30
0.0
 10
64.94995211127907
 20
132.4215193048312
 30
0.0
 10
65.385761912588
 20
132.9521441885607
 30
0.0
 10
66.06250271557234
 20
133.6978551794823
 30
0.0
 10
66.29335784274701
 20
133.939475405881
 30
0.0
 10
66.75339489790913
 20
134.3983341812069
 30
0.0
 10
66.97936257468764
 20
134.6125128536767
 30
0.0
 10
67.41655416318835
 20
135.0097414128223
 30
0.0
 10
67.6296068874809
 20
135.1941862478421
 30
0.0
 10
68.01378302671445
 20
135.5152660957257
 30
0.0
 10
68.18790003550593
 20
135.6546169258317
 30
0.0
 10
68.48141778030644
 20
135.8839224602573
 30
0.0
 10
68.59621008490387
 20
135.9704584697336
 30
0.0
 10
68.71516466099983
 20
136.0593480740648
 30
0.0
 10
68.74598274398643
 20
136.0821565799264
 30
0.0
 10
68.78700195570504
 20
136.1124477426227
 30
0.0
 10
68.79736623419004
 20
136.1200556640106
 30
0.0
 10
68.79736623419004
 20
136.1200556640106
 30
0.0
  0
SPLINE
  5
2A4
330
1F
100
AcDbEntity
  8
0
  6
Continuous
 62
     7
370
    15
100
AcDbSpline
210
0.0
220
0.0
230
1.0
 70
     8
 71
     3
 72
    20
 73
    16
 74
     0
 42
0.00000001
 43
0.00000001
 12
1.0
 22
0.0
 32
0.0
 13
1.0
 23
0.0
 33
0.0
 40
0.0
 40
0.0
 40
0.0
 40
0.0
 40
0.062841662067631
 40
0.1771389913205333
 40
0.2715396351215402
 40
0.33435729790994
 40
0.4485417188899861
 40
0.5427634966872791
 40
0.5897643386129781
 40
0.6758415471572377
 40
0.7499433723534056
 40
0.820377852426896
 40
0.8902542117600686
 40
0.9607968377448372
 40
1.0
 40
1.0
 40
1.0
 40
1.0
 10
75.14736626399237
 20
100.7797617126529
 30
0.0
 10
75.14998998575949
 20
100.7790115484336
 30
0.0
 10
75.15738577084923
 20
100.776896974618
 30
0.0
 10
75.23229717530701
 20
100.7555334613396
 30
0.0
 10
75.36452354739768
 20
100.7187877418971
 30
0.0
 10
75.54145627895088
 20
100.6710597449073
 30
0.0
 10
75.76618219224542
 20
100.6126507639338
 30
0.0
 10
76.02686190043944
 20
100.5491693936081
 30
0.0
 10
76.28596188036566
 20
100.4894846252599
 30
0.0
 10
76.54466853704834
 20
100.433075188893
 30
0.0
 10
76.85987448980121
 20
100.3697320919605
 30
0.0
 10
77.173595357094
 20
100.3116985718436
 30
0.0
 10
77.5005378307427
 20
100.2570008873169
 30
0.0
 10
77.79057272349876
 20
100.2124571754728
 30
0.0
 10
77.97658632322276
 20
100.1883692376094
 30
0.0
 10
78.04303371449488
 20
100.1797645945375
 30
0.0
  0
SPLINE
  5
2A5
330
1F
100
AcDbEntity
  8
0
  6
Continuous
 62
     7
370
    15
100
AcDbSpline
210
0.0
220
0.0
230
1.0
 70
     8
 71
     3
 72
    38
 73
    34
 74
     0
 42
0.00000001
 43
0.00000001
 12
1.0
 22
0.0
 32
0.0
 13
1.0
 23
0.0
 33
0.0
 40
0.0
 40
0.0
 40
0.0
 40
0.0
 40
0.0625000000000001
 40
0.0625000000000001
 40
0.1250000000000001
 40
0.1250000000000001
 40
0.1875000000000002
 40
0.1875000000000002
 40
0.2500000000000003
 40
0.2500000000000003
 40
0.3125000000000003
 40
0.3125000000000003
 40
0.3750000000000003
 40
0.3750000000000003
 40
0.4375000000000003
 40
0.4375000000000003
 40
0.5000000000000003
 40
0.5000000000000003
 40
0.5625000000000003
 40
0.5625000000000003
 40
0.6250000000000002
 40
0.6250000000000002
 40
0.6875000000000002
 40
0.6875000000000002
 40
0.7500000000000001
 40
0.7500000000000001
 40
0.8125000000000001
 40
0.8125000000000001
 40
0.8750000000000001
 40
0.8750000000000001
 40
0.9375
 40
0.9375
 40
1.0
 40
1.0
 40
1.0
 40
1.0
 10
76.14736623419005
 20
139.4958219328382
 30
0.0
 10
76.14736623419005
 20
139.4958219328382
 30
0.0
 10
76.17672665676155
 20
139.5026675000944
 30
0.0
 10
76.29158024726885
 20
139.528651659528
 30
0.0
 10
76.37853233001337
 20
139.5481045783509
 30
0.0
 10
76.60464521389801
 20
139.5961366828903
 30
0.0
 10
76.74287053837172
 20
139.6245206998695
 30
0.0
 10
77.06927537360899
 20
139.6866767133484
 30
0.0
 10
77.25859714793427
 20
139.7205748890252
 30
0.0
 10
77.67216620145098
 20
139.7872223213509
 30
0.0
 10
77.89801229137468
 20
139.8203197387638
 30
0.0
 10
78.38944278033742
 20
139.8823257094261
 30
0.0
 10
78.64980023548772
 20
139.9104916786738
 30
0.0
 10
79.1907450470459
 20
139.9573799477032
 30
0.0
 10
79.4752888889582
 20
139.9763919350231
 30
0.0
 10
80.05650206358555
 20
140.0020329715647
 30
0.0
 10
80.34906367144653
 20
140.0085900877701
 30
0.0
 10
80.93803366205626
 20
140.0087025094051
 30
0.0
 10
81.23726479540052
 20
140.0020369861731
 30
0.0
 10
81.8151071368607
 20
139.9766214754716
 30
0.0
 10
82.09607737000167
 20
139.95799058207
 30
0.0
 10
82.64208216959997
 20
139.9108122510305
 30
0.0
 10
82.90409446932337
 20
139.882430597777
 30
0.0
 10
83.39059630751592
 20
139.8211376466763
 30
0.0
 10
83.61896589874893
 20
139.7877860634144
 30
0.0
 10
84.03671259763894
 20
139.7204982050551
 30
0.0
 10
84.22226423860909
 20
139.6872549089056
 30
0.0
 10
84.54819095009711
 20
139.6252489369311
 30
0.0
 10
84.68961283150767
 20
139.5962338794605
 30
0.0
 10
84.91548997771147
 20
139.5482589986111
 30
0.0
 10
85.00113074616904
 20
139.5291047612707
 30
0.0
 10
85.117355629355
 20
139.5028187305495
 30
0.0
 10
85.14736623419005
 20
139.4958219328382
 30
0.0
 10
85.14736623419005
 20
139.4958219328382
 30
0.0
  0
ARC
  5
2A6
330
1F
100
AcDbEntity
  8
0
  6
Continuous
 62
     7
370
    15
100
AcDbCircle
 10
86.8753040619
 20
95.4337662143
 30
0.0
 40
2.622892515288691
100
AcDbArc
 50
352.705131874
 51
15.9651009039
  0
LINE
  5
2A7
330
1F
100
AcDbEntity
  8
0
  6
Continuous
 62
     7
370
    15
100
AcDbLine
 10
84.0600785996
 20
109.2503966425
 30
0.0
 11
84.054390547
 21
109.2667506669
 31
0.0
  0
LINE
  5
2A8
330
1F
100
AcDbEntity
  8
0
  6
Continuous
 62
     7
370
    15
100
AcDbLine
 10
86.5763208094
 20
95.657830279
 30
0.0
 11
84.2408138524
 21
108.4916351024
 31
0.0
  0
LINE
  5
2A9
330
1F
100
AcDbEntity
  8
0
  6
Continuous
 62
     7
370
    15
100
AcDbLine
 10
89.397030064
 20
96.155197512
 30
0.0
 11
87.0615226413
 21
108.9890023355
 31
0.0
  0
ARC
  5
2AA
330
1F
100
AcDbEntity
  8
0
  6
Continuous
 62
     7
370
    15
100
AcDbCircle
 10
87.6018515752
 20
95.6401922562
 30
0.0
 40
2.131967091040899
100
AcDbArc
 50
354.9662332725
 51
14.8364735967
  0
LINE
  5
2AB
330
1F
100
AcDbEntity
  8
0
  6
Continuous
 62
     7
370
    15
100
AcDbLine
 10
87.3272331628
 20
109.0199110691
 30
0.0
 11
89.6627401198
 21
96.1861062456
 31
0.0
  0
ARC
  5
2AC
330
1F
100
AcDbEntity
  8
0
  6
Continuous
 62
     7
370
    15
100
AcDbCircle
 10
81.3471912383
 20
108.0287691618
 30
0.0
 40
5.794448302538795
100
AcDbArc
 50
9.5388346784
 51
17.257236972
  0
ARC
  5
2AD
330
1F
100
AcDbEntity
  8
0
  6
Continuous
 62
     7
370
    15
100
AcDbCircle
 10
83.420085063
 20
108.3671875469
 30
0.0
 40
3.961294519484112
100
AcDbArc
 50
9.4841818723
 51
17.5624995348
  0
LINE
  5
2AE
330
1F
100
AcDbEntity
  8
0
  6
Continuous
 62
     7
370
    15
100
AcDbLine
 10
87.1164306263
 20
109.7893139009
 30
0.0
 11
87.196737175
 21
109.5624921505
 31
0.0
  0
LWPOLYLINE
  5
2AF
330
1F
100
AcDbEntity
  8
0
  6
Continuous
 62
     7
370
    15
100
AcDbPolyline
 90
       37
 70
   128
 43
0.0
 10
75.7580405298
 20
116.2080612626
 10
75.6548783938
 20
116.463698832
 10
75.5416020947
 20
116.8098891281
 10
75.4216538007
 20
117.2361133281
 10
75.298677777
 20
117.7294204604
 10
75.1764104898
 20
118.2748219358
 10
75.0585669848
 20
118.8557458004
 10
74.9487281973
 20
119.4545412214
 10
74.8502310562
 20
120.0530139754
 10
74.7660688321
 20
120.6329797638
 10
74.6987984712
 20
121.1768166755
 10
74.6504642266
 20
121.6680003923
 10
74.6225343282
 20
122.0916066446
 10
74.6158576767
 20
122.4347643215
 10
74.6306368346
 20
122.6870468013
 10
74.6664233702
 20
122.8407883678
 10
74.722129033
 20
122.8913182054
 10
74.7960620756
 20
122.8371003304
 10
74.8859756823
 20
122.6797827181
 10
74.9891378182
 20
122.4241449159
 10
75.1024136516
 20
122.0779546198
 10
75.2223624113
 20
121.6517306526
 10
75.345338435
 20
121.1584234039
 10
75.4676057222
 20
120.6130219867
 10
75.5854492272
 20
120.0320980402
 10
75.6952880147
 20
119.4333026429
 10
75.7937851558
 20
118.8348299252
 10
75.8779469143
 20
118.2548641587
 10
75.9452172751
 20
117.7110273052
 10
75.9935519854
 20
117.2198435884
 10
76.0214818838
 20
116.7962373361
 10
76.0281585353
 20
116.4530796591
 10
76.0133789117
 20
116.2007971794
 10
75.9775928418
 20
116.0470556129
 10
75.921887179
 20
115.9965257753
 10
75.8479541364
 20
116.0507436503
 10
75.7580405298
 20
116.2080612626
  0
LWPOLYLINE
  5
2B0
330
1F
100
AcDbEntity
  8
0
  6
Continuous
 62
     7
370
    15
100
AcDbPolyline
 90
       28
 70
   128
 43
0.0
 10
75.5711692582
 20
117.5948585511
 10
75.4911914664
 20
117.8013949316
 10
75.402092767
 20
118.0964804149
 10
75.3086764562
 20
118.464206847
 10
75.2159786607
 20
118.884749863
 10
75.1289973232
 20
119.3354379862
 10
75.0524211871
 20
119.7919745387
 10
74.9903783399
 20
120.2297474734
 10
74.9462140921
 20
120.6251563631
 10
74.9223089042
 20
120.9568846166
 10
74.9199512611
 20
121.2070485704
 10
74.939268754
 20
121.362161975
 10
74.9792201641
 20
121.4138626015
 10
75.0376508768
 20
121.3593632343
 10
75.1114116247
 20
121.2016018467
 10
75.1965256604
 20
120.9490835095
 10
75.2884043577
 20
120.6154215393
 10
75.3820949431
 20
120.2186036895
 10
75.4725459228
 20
119.7800225705
 10
75.5548813577
 20
119.323322178
 10
75.6246625642
 20
118.8731233483
 10
75.6781274649
 20
118.4536964061
 10
75.7123940821
 20
118.0876527574
 10
75.7256151373
 20
117.7947259635
 10
75.7170772376
 20
117.5907078792
 10
75.687240922
 20
117.4865967255
 10
75.6377150501
 20
117.4880058166
 10
75.5711692582
 20
117.5948585511
  0
LINE
  5
2B1
330
1F
100
AcDbEntity
  8
0
  6
Continuous
 62
     7
370
    15
100
AcDbLine
 10
75.3805047098
 20
120.2160747849
 30
0.0
 11
75.3093223284
 21
120.0786269542
 31
0.0
  0
LINE
  5
2B2
330
1F
100
AcDbEntity
  8
0
  6
Continuous
 62
     7
370
    15
100
AcDbLine
 10
75.3093223284
 20
120.0786269542
 30
0.0
 11
75.4528642829
 21
119.8607742186
 31
0.0
  0
LINE
  5
2B3
330
1F
100
AcDbEntity
  8
0
  6
Continuous
 62
     7
370
    15
100
AcDbLine
 10
75.6651117663
 20
118.5577628562
 30
0.0
 11
75.6337527382
 21
118.3976140233
 31
0.0
  0
LINE
  5
2B4
330
1F
100
AcDbEntity
  8
0
  6
Continuous
 62
     7
370
    15
100
AcDbLine
 10
75.6833191226
 20
118.4063539036
 30
0.0
 11
75.6337527382
 21
118.3976140233
 31
0.0
  0
LINE
  5
2B5
330
1F
100
AcDbEntity
  8
0
  6
Continuous
 62
     7
370
    15
100
AcDbLine
 10
75.4085775661
 20
120.0961283244
 30
0.0
 11
75.3093223284
 21
120.0786269542
 31
0.0
  0
ELLIPSE
  5
2B6
330
1F
100
AcDbEntity
  8
0
  6
Continuous
 62
     7
370
    15
100
AcDbEllipse
 10
78.1217783955
 20
104.9304832455
 30
0.0
 11
-0.4087148498875735
 21
2.317396459798886
 31
0.0
210
0.0
220
0.0
230
1.0
 40
0.1043907487
 41
1.49577073600655
 42
2.730573435701756
  0
LINE
  5
2B7
330
1F
100
AcDbEntity
  8
0
  6
Continuous
 62
     7
370
    15
100
AcDbLine
 10
75.2857361185
 20
115.0038327683
 30
0.0
 11
77.8831691678
 21
100.7307238538
 31
0.0
  0
LWPOLYLINE
  5
2B8
330
1F
100
AcDbEntity
  8
0
  6
Continuous
 62
     7
370
    15
100
AcDbPolyline
 90
        9
 70
   128
 43
0.0
 10
75.2861361216
 20
115.3696129691
 10
75.2681876729
 20
115.4116910544
 10
75.2543063099
 20
115.425684176
 10
75.2455188158
 20
115.4105576348
 10
75.2424743223
 20
115.3674304147
 10
75.2453972782
 20
115.2994890359
 10
75.254072548
 20
115.2117556554
 10
75.2678584504
 20
115.1107141409
 10
75.2857361185
 20
115.0038327683
  0
LINE
  5
2B9
330
1F
100
AcDbEntity
  8
0
  6
Continuous
 62
     7
370
    15
100
AcDbLine
 10
77.8911270863
 20
108.0119322647
 30
0.0
 11
75.2861361216
 21
115.3696129691
 31
0.0
  0
ARC
  5
2BA
330
1F
100
AcDbEntity
  8
0
  6
Continuous
 62
     7
370
    15
100
AcDbCircle
 10
75.7330239028
 20
107.3288963511
 30
0.0
 40
2.263613794342465
100
AcDbArc
 50
9.4842482809
 51
17.5624890259
  0
LINE
  5
2BB
330
1F
100
AcDbEntity
  8
0
  6
Continuous
 62
     7
370
    15
100
AcDbLine
 10
80.5631291696
 20
93.4287767519
 30
0.0
 11
77.9656962222
 21
107.7018865977
 31
0.0
  0
LWPOLYLINE
  5
2BC
330
1F
100
AcDbEntity
  8
0
  6
Continuous
 62
     7
370
    15
100
AcDbPolyline
 90
        9
 70
   128
 43
0.0
 10
80.5627293994
 20
93.0629960854
 10
80.5806779426
 20
93.0209189315
 10
80.5945589855
 20
93.0069248785
 10
80.6033465924
 20
93.0220514197
 10
80.6063912678
 20
93.0651791055
 10
80.6034679808
 20
93.13312095
 10
80.5947927947
 20
93.2208533991
 10
80.5810068887
 20
93.3218944479
 10
80.5631291696
 20
93.4287767519
  0
LINE
  5
2BD
330
1F
100
AcDbEntity
  8
0
  6
Continuous
 62
     7
370
    15
100
AcDbLine
 10
77.9577383037
 20
100.4206772555
 30
0.0
 11
80.5627293994
 21
93.0629960854
 31
0.0
  0
ARC
  5
2BE
330
1F
100
AcDbEntity
  8
0
  6
Continuous
 62
     7
370
    15
100
AcDbCircle
 10
80.1158053516
 20
101.1037033578
 30
0.0
 40
2.26357638261242
100
AcDbArc
 50
189.4841307944
 51
197.562528253
  0
LWPOLYLINE
  5
2BF
330
1F
100
AcDbEntity
  8
0
  6
Continuous
 62
     7
370
    15
100
AcDbPolyline
 90
        9
 70
   128
 43
0.0
 10
80.560875158
 20
93.0798921395
 10
80.5779262773
 20
93.039917912
 10
80.5911132666
 20
93.0266242136
 10
80.599461493
 20
93.0409945209
 10
80.6023539371
 20
93.0819652636
 10
80.5995768133
 20
93.1465096433
 10
80.591335387
 20
93.2298574258
 10
80.5782387724
 20
93.3258451183
 10
80.5612549484
 20
93.4273834933
  0
LINE
  5
2C0
330
1F
100
AcDbEntity
  8
0
  6
Continuous
 62
     7
370
    15
100
AcDbLine
 10
80.5612549484
 20
93.4273834933
 30
0.0
 11
77.9638221684
 21
107.7004933391
 31
0.0
  0
ARC
  5
2C1
330
1F
100
AcDbEntity
  8
0
  6
Continuous
 62
     7
370
    15
100
AcDbCircle
 10
75.8427499279
 20
107.3461444897
 30
0.0
 40
2.150467520398525
100
AcDbArc
 50
9.4843143052
 51
17.5624373087
  0
LINE
  5
2C2
330
1F
100
AcDbEntity
  8
0
  6
Continuous
 62
     7
370
    15
100
AcDbLine
 10
77.8929813496
 20
107.9950371418
 30
0.0
 11
75.2879903848
 21
115.352716915
 31
0.0
  0
LWPOLYLINE
  5
2C3
330
1F
100
AcDbEntity
  8
0
  6
Continuous
 62
     7
370
    15
100
AcDbPolyline
 90
        9
 70
   128
 43
0.0
 10
75.2879903848
 20
115.352716915
 10
75.2709392655
 20
115.3926911425
 10
75.2577522035
 20
115.4059848409
 10
75.2494038279
 20
115.3916149993
 10
75.2465116057
 20
115.3506437909
 10
75.2492883439
 20
115.2860994112
 10
75.257530083
 20
115.20275256
 10
75.2706268067
 20
115.1067634706
 10
75.2876104052
 20
115.0052260269
  0
LINE
  5
2C4
330
1F
100
AcDbEntity
  8
0
  6
Continuous
 62
     7
370
    15
100
AcDbLine
 10
75.2876104052
 20
115.0052260269
 30
0.0
 11
77.8850432216
 21
100.7321171124
 31
0.0
  0
ARC
  5
2C5
330
1F
100
AcDbEntity
  8
0
  6
Continuous
 62
     7
370
    15
100
AcDbCircle
 10
80.0062247651
 20
101.0864881466
 30
0.0
 40
2.150578984882612
100
AcDbArc
 50
189.4844174346
 51
197.5621694231
  0
LINE
  5
2C6
330
1F
100
AcDbEntity
  8
0
  6
Continuous
 62
     7
370
    15
100
AcDbLine
 10
77.9558840404
 20
100.437571447
 30
0.0
 11
80.560875158
 21
93.0798921395
 31
0.0
  0
LINE
  5
2C7
330
1F
100
AcDbEntity
  8
0
  6
Continuous
 62
     7
370
    15
100
AcDbLine
 10
86.7824010747
 20
94.5254016329
 30
0.0
 11
84.1849680255
 21
108.7985114787
 31
0.0
  0
LINE
  5
2C8
330
1F
100
AcDbEntity
  8
0
  6
Continuous
 62
     7
370
    15
100
AcDbLine
 10
79.4739483354
 20
98.2329856266
 30
0.0
 11
78.0202589194
 21
106.2211293388
 31
0.0
  0
LINE
  5
2C9
330
1F
100
AcDbEntity
  8
0
  6
Continuous
 62
     7
370
    15
100
AcDbLine
 10
76.3749169382
 20
110.1996229623
 30
0.0
 11
77.8286064706
 21
102.2114801813
 31
0.0
  0
LWPOLYLINE
  5
2CA
330
1F
100
AcDbEntity
  8
0
  6
Continuous
 62
     7
370
    15
100
AcDbPolyline
 90
        9
 70
   128
 43
0.0
 10
76.3759162473
 20
111.1140736971
 10
76.3310451257
 20
111.2192684446
 10
76.2963426496
 20
111.2542517145
 10
76.2743736814
 20
111.2164362926
 10
76.266761982
 20
111.1086170782
 10
76.2740700702
 20
110.9387633983
 10
76.295757779
 20
110.7194304128
 10
76.3302227679
 20
110.4668268595
 10
76.3749169382
 20
110.1996229623
  0
LINE
  5
2CB
330
1F
100
AcDbEntity
  8
0
  6
Continuous
 62
     7
370
    15
100
AcDbLine
 10
77.8338358468
 20
106.9962458346
 30
0.0
 11
76.3759162473
 21
111.1140736971
 31
0.0
  0
ARC
  5
2CC
330
1F
100
AcDbEntity
  8
0
  6
Continuous
 62
     7
370
    15
100
AcDbCircle
 10
72.4386386037
 20
105.2886717777
 30
0.0
 40
5.658971854731776
100
AcDbArc
 50
9.4841688783
 51
17.562522708
  0
LWPOLYLINE
  5
2CD
330
1F
100
AcDbEntity
  8
0
  6
Continuous
 62
     7
370
    15
100
AcDbPolyline
 90
        9
 70
   128
 43
0.0
 10
79.4729489098
 20
97.3185367544
 10
79.5178202643
 20
97.2133401443
 10
79.5525228568
 20
97.1783578057
 10
79.5744919415
 20
97.2161732275
 10
79.5821036409
 20
97.323992442
 10
79.5747953198
 20
97.4938451905
 10
79.5531073782
 20
97.7131791074
 10
79.5186426221
 20
97.965783592
 10
79.4739483354
 20
98.2329856266
  0
LINE
  5
2CE
330
1F
100
AcDbEntity
  8
0
  6
Continuous
 62
     7
370
    15
100
AcDbLine
 10
78.0150295432
 20
101.4363627542
 30
0.0
 11
79.4729489098
 21
97.3185367544
 31
0.0
  0
ARC
  5
2CF
330
1F
100
AcDbEntity
  8
0
  6
Continuous
 62
     7
370
    15
100
AcDbCircle
 10
83.4103723389
 20
103.1439706976
 30
0.0
 40
5.659120847966469
100
AcDbArc
 50
189.4842551511
 51
197.5624051315
  0
LWPOLYLINE
  5
2D0
330
1F
100
AcDbEntity
  8
0
  6
Continuous
 62
     7
370
    15
100
AcDbPolyline
 90
       32
 70
   128
 43
0.0
 10
78.1636292777
 20
102.0367640663
 10
78.2518618471
 20
101.8183409829
 10
78.3266891922
 20
101.6980923374
 10
78.385048193
 20
101.6809373755
 10
78.4245495415
 20
101.7675820399
 10
78.4435762289
 20
101.9544779916
 10
78.441348971
 20
102.2339716215
 10
78.4179590373
 20
102.5946225632
 10
78.3743640604
 20
103.0216674913
 10
78.31234892
 20
103.4976180304
 10
78.2344524014
 20
104.0029946376
 10
78.1438638187
 20
104.5171023939
 10
78.0442914656
 20
105.0188952718
 10
77.9398122068
 20
105.4878310893
 10
77.834703141
 20
105.9047097001
 10
77.7332679099
 20
106.2524646182
 10
77.6396588153
 20
106.5168596465
 10
77.5577082495
 20
106.6870690916
 10
77.4907715349
 20
106.7561257292
 10
77.4415890883
 20
106.7212011326
 10
77.4121741961
 20
106.5837267448
 10
77.4037312913
 20
106.3493286852
 10
77.4166058945
 20
106.0276051645
 10
77.4502711101
 20
105.631726015
 10
77.5033483478
 20
105.177899975
 10
77.5736650648
 20
104.6847059984
 10
77.6583420775
 20
104.1723351587
 10
77.7539130031
 20
103.6617654968
 10
77.8564648899
 20
103.1738977541
 10
77.9617993358
 20
102.7287069369
 10
78.0656040843
 20
102.3444171656
 10
78.1636292777
 20
102.0367640663
  0
LINE
  5
2D1
330
1F
100
AcDbEntity
  8
0
  6
Continuous
 62
     7
370
    15
100
AcDbLine
 10
80.5988563116
 20
93.1557725776
 30
0.0
 11
80.560875158
 21
93.0798921395
 31
0.0
  0
LINE
  5
2D2
330
1F
100
AcDbEntity
  8
0
  6
Continuous
 62
     7
370
    15
100
AcDbLine
 10
78.1355301115
 20
100.7964789529
 30
0.0
 11
77.9558840404
 21
100.437571447
 31
0.0
  0
LINE
  5
2D3
330
1F
100
AcDbEntity
  8
0
  6
Continuous
 62
     7
370
    15
100
AcDbLine
 10
78.2099097232
 20
100.8859324862
 30
0.0
 11
78.1355301115
 21
100.7964789529
 31
0.0
  0
ARC
  5
2D4
330
1F
100
AcDbEntity
  8
0
  6
Continuous
 62
     7
370
    15
100
AcDbCircle
 10
85.7737225614
 20
94.2368296675
 30
0.0
 40
1.049145424868901
100
AcDbArc
 50
352.7049999133
 51
15.9652503936
  0
ARC
  5
2D5
330
1F
100
AcDbEntity
  8
0
  6
Continuous
 62
     7
370
    15
100
AcDbCircle
 10
81.9523098415
 20
108.4255250629
 30
0.0
 40
2.263599220893914
100
AcDbArc
 50
9.4842115979
 51
17.5625287969
  0
LINE
  5
2D6
330
1F
100
AcDbEntity
  8
0
  6
Continuous
 62
     7
370
    15
100
AcDbLine
 10
84.1103986568
 20
109.108558077
 30
0.0
 11
84.0601747586
 21
109.2504134063
 31
0.0
  0
LINE
  5
2D7
330
1F
100
AcDbEntity
  8
0
  6
Continuous
 62
     7
370
    15
100
AcDbLine
 10
78.1355301115
 20
100.7964789529
 30
0.0
 11
77.8850432216
 21
100.7321171124
 31
0.0
  0
LINE
  5
2D8
330
1F
100
AcDbEntity
  8
0
  6
Continuous
 62
     7
370
    15
100
AcDbLine
 10
75.4007288451
 20
115.0342916731
 30
0.0
 11
75.2876104052
 21
115.0052260269
 31
0.0
  0
LINE
  5
2D9
330
1F
100
AcDbEntity
  8
VERMASSUNG
  6
CENTERX2
100
AcDbLine
 10
80.4792938428
 20
93.2986564795
 30
0.0
 11
71.1868927806
 21
145.9984816842
 31
0.0
  0
CIRCLE
  5
2DA
330
1F
100
AcDbEntity
  8
VERMASSUNG
  6
CENTERX2
100
AcDbCircle
 10
80.6473662342
 20
118.2980915066
 30
0.0
 40
25.00000000000001
  0
DIMENSION
  5
2DB
330
1F
100
AcDbEntity
  8
VERMASSUNG
100
AcDbDimension
  2
_D_5
 10
71.1868927806
 20
145.9984816842
 30
0.0
 11
75.7148818211
 21
148.7240254057
 31
0.0
 70
   162
  1
<>
 71
     1
 42
-1.0
  3
SLDDIMSTYLE2
100
AcDb2LineAngularDimension
 13
80.6473662342
 23
142.5086466629
 33
0.0
 14
80.6473662342
 24
90.0742911518
 34
0.0
 15
80.4792938428
 25
93.2986564795
 35
0.0
 16
75.7148818211
 26
148.7240254057
 36
0.0
  0
DIMENSION
  5
2E8
330
1F
100
AcDbEntity
  8
VERMASSUNG
100
AcDbDimension
  2
_D_6
 10
65.7163599285
 20
98.2465316994
 30
0.0
 11
59.4845599266
 21
89.8775505411
 31
0.0
 70
   160
  1
%%c<> min. 
 71
     2
 42
-1.0
  3
SLDDIMSTYLE3
100
AcDbAlignedDimension
 13
95.5783725398
 23
138.3496513138
 33
0.0
 14
65.7163599285
 24
98.2465316994
 34
0.0
 50
53.3275000889
100
AcDbRotatedDimension
  0
INSERT
  5
302
330
1F
100
AcDbEntity
  8
VERMASSUNG
100
AcDbBlockReference
  2
SW_CENTERMARKSYMBOL_0
 10
80.6473662342
 20
120.0086466629
 30
0.0
  0
OLE2FRAME
  5
303
330
1F
100
AcDbEntity
  8
0
100
AcDbOle2Frame
 70
     2
  3
Paintbrush-Bild
 10
13.8511154363
 20
38.264191557
 30
0.0
 11
51.6290888628
 21
31.9806341108
 31
0.0
 71
     2
 72
     0
 73
     1
 90
    12928
310
80552BED0767C5B32B40DDAF6807D121434000000000000000006FFBDDFB85D0
310
4940DDAF6807D121434000000000000000006FFBDDFB85D04940416F4BD60AFB
310
3F4000000000000000002BED0767C5B32B40416F4BD60AFB3F40000000000000
310
0000000000000100000000010000010000000100000000000100000000320000
310
D0CF11E0A1B11AE1000000000000000000000000000000003E000300FEFF0900
310
0600000000000000000000000100000001000000000000000010000002000000
310
01000000FEFFFFFF0000000000000000FFFFFFFFFFFFFFFFFFFFFFFFFFFFFFFF
310
FFFFFFFFFFFFFFFFFFFFFFFFFFFFFFFFFFFFFFFFFFFFFFFFFFFFFFFFFFFFFFFF
310
FFFFFFFFFFFFFFFFFFFFFFFFFFFFFFFFFFFFFFFFFFFFFFFFFFFFFFFFFFFFFFFF
310
FFFFFFFFFFFFFFFFFFFFFFFFFFFFFFFFFFFFFFFFFFFFFFFFFFFFFFFFFFFFFFFF
310
FFFFFFFFFFFFFFFFFFFFFFFFFFFFFFFFFFFFFFFFFFFFFFFFFFFFFFFFFFFFFFFF
310
FFFFFFFFFFFFFFFFFFFFFFFFFFFFFFFFFFFFFFFFFFFFFFFFFFFFFFFFFFFFFFFF
310
FFFFFFFFFFFFFFFFFFFFFFFFFFFFFFFFFFFFFFFFFFFFFFFFFFFFFFFFFFFFFFFF
310
FFFFFFFFFFFFFFFFFFFFFFFFFFFFFFFFFFFFFFFFFFFFFFFFFFFFFFFFFFFFFFFF
310
FFFFFFFFFFFFFFFFFFFFFFFFFFFFFFFFFFFFFFFFFFFFFFFFFFFFFFFFFFFFFFFF
310
FFFFFFFFFFFFFFFFFFFFFFFFFFFFFFFFFFFFFFFFFFFFFFFFFFFFFFFFFFFFFFFF
310
FFFFFFFFFFFFFFFFFFFFFFFFFFFFFFFFFFFFFFFFFFFFFFFFFFFFFFFFFFFFFFFF
310
FFFFFFFFFFFFFFFFFFFFFFFFFFFFFFFFFFFFFFFFFFFFFFFFFFFFFFFFFFFFFFFF
310
FFFFFFFFFFFFFFFFFFFFFFFFFFFFFFFFFFFFFFFFFFFFFFFFFFFFFFFFFFFFFFFF
310
FFFFFFFFFFFFFFFFFFFFFFFFFFFFFFFFFFFFFFFFFFFFFFFFFFFFFFFFFFFFFFFF
310
FDFFFFFFFEFFFFFFFEFFFFFFFEFFFFFF05000000060000000700000008000000
310
090000000A0000000B0000000C0000000D0000000E0000000F00000010000000
310
11000000120000001300000014000000150000001600000017000000FEFFFFFF
310
FFFFFFFFFFFFFFFFFFFFFFFFFFFFFFFFFFFFFFFFFFFFFFFFFFFFFFFFFFFFFFFF
310
FFFFFFFFFFFFFFFFFFFFFFFFFFFFFFFFFFFFFFFFFFFFFFFFFFFFFFFFFFFFFFFF
310
FFFFFFFFFFFFFFFFFFFFFFFFFFFFFFFFFFFFFFFFFFFFFFFFFFFFFFFFFFFFFFFF
310
FFFFFFFFFFFFFFFFFFFFFFFFFFFFFFFFFFFFFFFFFFFFFFFFFFFFFFFFFFFFFFFF
310
FFFFFFFFFFFFFFFFFFFFFFFFFFFFFFFFFFFFFFFFFFFFFFFFFFFFFFFFFFFFFFFF
310
FFFFFFFFFFFFFFFFFFFFFFFFFFFFFFFFFFFFFFFFFFFFFFFFFFFFFFFFFFFFFFFF
310
FFFFFFFFFFFFFFFFFFFFFFFFFFFFFFFFFFFFFFFFFFFFFFFFFFFFFFFFFFFFFFFF
310
FFFFFFFFFFFFFFFFFFFFFFFFFFFFFFFFFFFFFFFFFFFFFFFFFFFFFFFFFFFFFFFF
310
FFFFFFFFFFFFFFFFFFFFFFFFFFFFFFFFFFFFFFFFFFFFFFFFFFFFFFFFFFFFFFFF
310
FFFFFFFFFFFFFFFFFFFFFFFFFFFFFFFFFFFFFFFFFFFFFFFFFFFFFFFFFFFFFFFF
310
FFFFFFFFFFFFFFFFFFFFFFFFFFFFFFFFFFFFFFFFFFFFFFFFFFFFFFFFFFFFFFFF
310
FFFFFFFFFFFFFFFFFFFFFFFFFFFFFFFFFFFFFFFFFFFFFFFFFFFFFFFFFFFFFFFF
310
FFFFFFFFFFFFFFFFFFFFFFFFFFFFFFFFFFFFFFFFFFFFFFFFFFFFFFFFFFFFFFFF
310
52006F006F007400200045006E00740072007900000000000000000000000000
310
0000000000000000000000000000000000000000000000000000000000000000
310
16000500FFFFFFFFFFFFFFFF020000000A00030000000000C000000000000046
310
00000000000000000000000030F191D3DC4ACD0103000000C000000000000000
310
01004F006C006500000000000000000000000000000000000000000000000000
310
0000000000000000000000000000000000000000000000000000000000000000
310
0A000200FFFFFFFFFFFFFFFFFFFFFFFF00000000000000000000000000000000
310
0000000000000000000000000000000000000000000000001400000000000000
310
010043006F006D0070004F0062006A0000000000000000000000000000000000
310
0000000000000000000000000000000000000000000000000000000000000000
310
120002010100000003000000FFFFFFFF00000000000000000000000000000000
310
0000000000000000000000000000000000000000010000004D00000000000000
310
01004F006C006500310030004E00610074006900760065000000000000000000
310
0000000000000000000000000000000000000000000000000000000000000000
310
1A000200FFFFFFFFFFFFFFFFFFFFFFFF00000000000000000000000000000000
310
0000000000000000000000000000000000000000040000002426000000000000
310
FEFFFFFF02000000FEFFFFFFFFFFFFFFFFFFFFFFFFFFFFFFFFFFFFFFFFFFFFFF
310
FFFFFFFFFFFFFFFFFFFFFFFFFFFFFFFFFFFFFFFFFFFFFFFFFFFFFFFFFFFFFFFF
310
FFFFFFFFFFFFFFFFFFFFFFFFFFFFFFFFFFFFFFFFFFFFFFFFFFFFFFFFFFFFFFFF
310
FFFFFFFFFFFFFFFFFFFFFFFFFFFFFFFFFFFFFFFFFFFFFFFFFFFFFFFFFFFFFFFF
310
FFFFFFFFFFFFFFFFFFFFFFFFFFFFFFFFFFFFFFFFFFFFFFFFFFFFFFFFFFFFFFFF
310
FFFFFFFFFFFFFFFFFFFFFFFFFFFFFFFFFFFFFFFFFFFFFFFFFFFFFFFFFFFFFFFF
310
FFFFFFFFFFFFFFFFFFFFFFFFFFFFFFFFFFFFFFFFFFFFFFFFFFFFFFFFFFFFFFFF
310
FFFFFFFFFFFFFFFFFFFFFFFFFFFFFFFFFFFFFFFFFFFFFFFFFFFFFFFFFFFFFFFF
310
FFFFFFFFFFFFFFFFFFFFFFFFFFFFFFFFFFFFFFFFFFFFFFFFFFFFFFFFFFFFFFFF
310
FFFFFFFFFFFFFFFFFFFFFFFFFFFFFFFFFFFFFFFFFFFFFFFFFFFFFFFFFFFFFFFF
310
FFFFFFFFFFFFFFFFFFFFFFFFFFFFFFFFFFFFFFFFFFFFFFFFFFFFFFFFFFFFFFFF
310
FFFFFFFFFFFFFFFFFFFFFFFFFFFFFFFFFFFFFFFFFFFFFFFFFFFFFFFFFFFFFFFF
310
FFFFFFFFFFFFFFFFFFFFFFFFFFFFFFFFFFFFFFFFFFFFFFFFFFFFFFFFFFFFFFFF
310
FFFFFFFFFFFFFFFFFFFFFFFFFFFFFFFFFFFFFFFFFFFFFFFFFFFFFFFFFFFFFFFF
310
FFFFFFFFFFFFFFFFFFFFFFFFFFFFFFFFFFFFFFFFFFFFFFFFFFFFFFFFFFFFFFFF
310
FFFFFFFFFFFFFFFFFFFFFFFFFFFFFFFFFFFFFFFFFFFFFFFFFFFFFFFFFFFFFFFF
310
0100000200000000000000000000000000000000000000000000000000000000
310
0000000000000000000000000000000000000000000000000000000000000000
310
0100FEFF030A0000FFFFFFFF0A00030000000000C00000000000004607000000
310
5042727573680007000000504272757368000700000050427275736800F439B2
310
7100000000000000000000000000000000000000000000000000000000000000
310
0000000000000000000000000000000000000000000000000000000000000000
310
0000000000000000000000000000000000000000000000000000000000000000
310
0000000000000000000000000000000000000000000000000000000000000000
310
0000000000000000000000000000000000000000000000000000000000000000
310
0000000000000000000000000000000000000000000000000000000000000000
310
0000000000000000000000000000000000000000000000000000000000000000
310
0000000000000000000000000000000000000000000000000000000000000000
310
0000000000000000000000000000000000000000000000000000000000000000
310
0000000000000000000000000000000000000000000000000000000000000000
310
0000000000000000000000000000000000000000000000000000000000000000
310
0000000000000000000000000000000000000000000000000000000000000000
310
20260000424D0E260000000000003E00000028000000B40200006E0000000100
310
01000000000000000000130B0000130B00000200000002000000000000FFFFFF
310
FFFFFFFFFFFFFFFFFFFFFFFFFFFFFFFFFFFFFFFFFFFFFFFFFFFFFFFFFFFFFFFF
310
FFFFFFFFFFFFFFFFFFFFFFFFFFFFFFFFFFFFFFFFFFFFFFFFFFFFFFFFFFFFFFFF
310
FFFFFFFFFFFFFFFFFFFFFFFFFFFFFFFFFFFFFFFFFFFFFFFFF000FFFFFFFFFFFF
310
FFFFFFFFFFFFFFFFFFFFFFFFFFFFFFFFFFFFFFFFFFFFFFFFFFFFFFFFFFFFFFFF
310
FFFFFFFFFFFFFFFFFFFFFFFFFFFFFFFFFFFFFFFFFFFFFFFFFFFFFFFFFFFFFFFF
310
FFFFFFFFFFFFFFFFFFFFFFFFFFFFFFFFF000FFFFFFFFFFFFFFFFFFFFFFFFFFFF
310
FFFFFFFFFFFFFFFFFFFFFFFFFFFFFFFFFFFFFFFFFFFFFFFFFFFFFFFFFFFFFFFF
310
FFFFFFFFFFFFFFFFFFFFFFFFFFFFFFFFFFFFFFFFFFFFFFFFFFFFFFFFFFFFFFFF
310
FFFFFFFFFFFFFFFFF000FFFFFFFFFFFFFFFFFFFFFFFFFFFFFFFFFFFFFFFFFFFF
310
FFFFFFFFFFFFFFFFFFFFFFFFFFFFFFFFFFFFFFFFFFFFFFFFFFFFFFFFFFFFFFFF
310
FFFFFFFFFFFFFFFFFFFFFFFFFFFFFFFFFFFFFFFFFFFFFFFFFFFFFFFFFFFFFFFF
310
F000FFFFFFFFFFFFFFFFFFFFFFFFFFFFFFFFFFFFFFFFFFFFFFFFFFFFFFFFFFFF
310
FFFFFFFFFFFFFFFFFFFFFFFFFFFFFFFFFFFFFFFFFFFFFFFFFFFFFFFFFFFFFFFF
310
FFFFFFFFFFFFFFFFFFFFFFFFFFFFFFFFFFFFFFFFFFFFFFFFF000FFFFFFFFFFFF
310
FFFFFFFFFFFFFFFFFFFFFFFFFFFFFFFFFFFFFFFFFFFFFFFFFFFFFFFFFFFFFFFF
310
FFFFFFFFFFFFFFFFFFFFFFFFFFFFFFFFFFFFFFFFFFFFFFFFFFFFFFFFFFFFFFFF
310
FFFFFFFFFFFFFFFFFFFFFFFFFFFFFFFFF000FFFFFFFFFFFFFFFFFFFFFFFFFFFF
310
FFFFFFFFFFFFFFFFFFFFFFFFFFFFFFFFFFFFFFFFFFFFFFFFFFFFFFFFFFFFFFFF
310
FFFFFFFFFFFFFFFFFFFFFFFFFFFFFFFFFFFFFFFFFFFFFFFFFFFFFFFFFFFFFFFF
310
FFFFFFFFFFFFFFFFF000FFFFFFFFFFFFFFFFFFFFFFFFFFFFFFFFFFFFFFFFFFFF
310
FFFFFFFFFFFFFFFFFFFFFFFFFFFFFFFFFFFFFFFFFFFFFFFFFFFFFFFFFFFFFFFF
310
FFFFFFFFFFFFFFFFFFFFFFFFFFFFFFFFFFFFFFFFFFFFFFFFFFFFFFFFFFFFFFFF
310
F000FFFFFFFFFFFFFFFFFFFFFFFFFFFFFFFFFFFFFFFFFFFFFFFFFFFFFFFFFFFF
310
FFFFFFFFFFFFFFFFFFFFFFFFFFFFFFFFFFFFFFFFFFFFFFFFFFFFFFFFFFFFFFFF
310
FFFFFFFFFFFFFFFFFFFFFFFFFFFFFFFFFFFFFFFFFFFFFFFFF000FFFFFFFFFFFF
310
FFFFFFFFFFFFFFFFFFFFFFFFFFFFFFFFFFFFFFFFFFFFFFFFFFFFFFFFFFFFFFFF
310
FFFFFFFFFFFFFFFFFFFFFFFFFFFFFFFFFFFFFFFFFFFFFFFFFFFFFFFFFFFFFFFF
310
FFFFFFFFFFFFFFFFFFFFFFFFFFFFFFFFF000FFFFFFFFFFFFFFFFFFFFFFFFFFFF
310
FFFFFFFFFFFFFFFFFFFFFFFFFFFFFFFFFFFFFFFFFFFFFFFFFFFFFFFFFFFFFFFF
310
FFFFFFFFFFFFFFFFFFFFFFFFFFFFFFFFFFFFFFFFFFFFFFFFFFFFFFFFFFFFFFFF
310
FFFFFFFFFFFFFFFFF000FFFFFFFFFFFFFFFFFFFFFFFFFFFFFFFFFFFFFFFFFFFF
310
FFFFFFFFFFFFFFFFFFFFFFFFFFFFFFFFFFFFFFFFFFFFFFFFFFFFFFFFFFFFFFFF
310
FFFFFFFFFFFFFFFFFFFFFFFFFFFFFFFFFFFFFFFFFFFFFFFFFFFFFFFFFFFFFFFF
310
F000FFFFFFFFFFFFFFFFFFFFFFFFFFFFFFFFFFFFFFFFFFFFFFFFFFFFFFFFFFFF
310
FFFFFFFFFFFFFFFFFFFFFFFFFFFFFFFFFFFFFFFFFFFFFFFFFFFFFFFFFFFFFFFF
310
FFFFFFFFFFFFFFFFFFFFFFFFFFFFFFFFFFFFFFFFFFFFFFFFF000FFFFFFFFFFFF
310
FFFFFFFFFFFFFFFFFFFFFFFFFFFFFFFFFFFFFFFFFFFFFFFFFFFFFFFFFFFFFFFF
310
FFFFFFFFFFFFFFFFFFFFFFFFFFFFFFFFFFFFFFFFFFFFFFFFFFFFFFFFFFFFFFFF
310
FFFFFFFFFFFFFFFFFFFFFFFFFFFFFFFFF000FFFFFFFFFFFFFFFFFFFFFFFFFFFF
310
FFFFFFFFFFFFFFFFFFFFFFFFFFFFFFFFFFFFFFFFFFFFFFFFFFFFFFFFFFFFFFFF
310
FFFFFFFFFFFFFFFFFFFFFFFFFFFFFFFFFFFFFFFFFFFFFFFFFFFFFFFFFFFFFFFF
310
FFFFFFFFFFFFFFFFF000FFFFFFFFFFFFFFFFFFFFFFFFFFFFFFFFFFFFFFFFFFFF
310
FFFFFFFFFFFFFFFFFFFFFFFFFFFFFFFFFFFFFFFFFFFFFFFFFFFFFFFFFFFFFFFF
310
FFFFFFFFFFFFFFFFFFFFFFFFFFFFFFFFFFFFFFFFFFFFFFFFFFFFFFFFFFFFFFFF
310
F000FFFFFFFFFFFFFFFFFFFFFFFFFFFFFFFFFFFFFFFFFFFFFFFFFFFFFFFFFFFF
310
FFFFFFFFFFFFFFFFFFFFFFFFFFFFFFFFFFFFFFFFFFFFFFFFFFFFFFFFFFFFFFFF
310
FFFFFFFFFFFFFFFFFFFFFFFFFFFFFFFFFFFFFFFFFFFFFFFFF000FFFFFFFFFFFF
310
FFFFFFFFFFFFFFFFFFFFFFFFFFFFFFFFFFFFFFFFFFFFFFFFFFFFFFFFFFFFFFFF
310
FFFFFFFFFFFFFFFFFFFFFFFFFFFFFFFFFFFFFFFFFFFFFFFFFFFFFFFFFFFFFFFF
310
FFFFFFFFFFFFFFFFFFFFFFFFFFFFFFFFF000FFFFFFFFFFFFFFFFFFFFFFFFFFFF
310
FFFFFFFFFFFFFFFFFFFFFFFFFFFFFFFFFFFFFFFFFFFFFFFFFFFFFFFFFFFFFFFF
310
FFFFFFFFFFFFFFFFFFFFFFFFFFFFFFFFFFFFFFFFFFFFFFFFFFFFFFFFFFFFFFFF
310
FFFFFFFFFFFFFFFFF000FFFFF80003FFFFFFFFFFFFFFFFFFFFFFFFFFFFFFFFFF
310
FFFFF00007FFFFFFFFFF00007FFFFFF800000000000000007FFFFFFFFFFFFFFF
310
FFFFFFFC001FFFFFFFFFFFFFFC001FFFFFFFFFFFFFFFFFFFFFFFFFFE0007FFFF
310
F000FFFF8000007FFFFFFFF8000FFFFFC0007FFFFF80007FFFFF0000007FFFFF
310
FFF8000007FFFFF800000000000000007FFFFFF0001FFFFFFFFFFFC00001FFFF
310
FFFFFFFFC00001FFFFFFFF000000000003FFFFE000007FFFF000FFFE0000000F
310
FFFFFFF0000FFFFF80007FFFFF80007FFFFC0000001FFFFFFFC0000001FFFFF8
310
00000000000000007FFFFFF0001FFFFFFFFFFE0000003FFFFFFFFFFE0000003F
310
FFFFFF000000000003FFFF0000000FFFF000FFF800000003FFFFFFF00007FFFF
310
80007FFFFF80007FFFF000000007FFFFFF000000003FFFF80000000000000000
310
7FFFFFF0001FFFFFFFFFF80000000FFFFFFFFFF80000000FFFFFFF0000000000
310
03FFFC00000003FFF000FFE000000000FFFFFFF00007FFFF80003FFFFF80007F
310
FFC000000001FFFFFC000000001FFFF800000000000000007FFFFFF0001FFFFF
310
FFFFE000000003FFFFFFFFE000000003FFFFFF000000000003FFF000000000FF
310
F000FF80000000007FFFFFF00007FFFF80003FFFFF80007FFF8000000000FFFF
310
F80000000007FFF800000000000000007FFFFFF0001FFFFFFFFFC000000001FF
310
FFFFFFC000000001FFFFFF000000000003FFC0000000007FF000FF0000000000
310
3FFFFFE00007FFFF00003FFFFF80007FFE00000000003FFFF00000000003FFF8
310
00000000000000007FFFFFF0001FFFFFFFFF8000000000FFFFFFFF8000000000
310
FFFFFF000000000003FF80000000003FF000FE00000000001FFFFFE00003FFFF
310
00003FFFFF80007FFC00000000001FFFE00000000001FFF8000001FFFE000000
310
7FFFFFF0001FFFFFFFFE00000000003FFFFFFE00000000003FFFFF0000000000
310
03FF00000000001FF000FC00000000000FFFFFE00003FFFF00001FFFFF80007F
310
F800000000001FFFC00000000000FFF8000001FFFE0000007FFFFFF0001FFFFF
310
FFFC00000000001FFFFFFC00000000001FFFFF000000000003FE00000000000F
310
F000F8000000000007FFFFE00003FFFF00001FFFFF80007FF800000000000FFF
310
800000000000FFF8000001FFFE0000007FFFFFF0001FFFFFFFF800000000000F
310
FFFFF800000000000FFFFF000000000003FC000000000007F000F80000000000
310
03FFFFC00003FFFE00001FFFFF80007FF0000000000007FF0000000000007FF8
310
000001FFFE0000007FFFFFF0001FFFFFFFF0000000000007FFFFF00000000000
310
07FFFF000000000003F8000000000003F000F0000000000003FFFFC00001FFFE
310
00001FFFFF80007FE0000000000007FE0000000000003FF8000001FFFE000000
310
7FFFFFF0001FFFFFFFF0000000000007FFFFF0000000000007FFFF0000000000
310
03F800001F800003F000E00001FFF00001FFFFC00001FFFE00000FFFFF80007F
310
E00001FFE00003FE00001FFF00003FF8000001FFFE0000007FFFFFF0001FFFFF
310
FFE000003E000003FFFFE000003E000003FFFF000000000003F00001FFF80001
310
F000E00007FFFC0001FFFFC00001FFFE00000FFFFF80007FC0000FFFFC0003FC
310
0000FFFFC0001FF8000001FFFE0000007FFFFFF0001FFFFFFFC00003FFE00001
310
FFFFC00003FFE00001FFFF0001FFFFFFFFF00007FFFE0001F000E0000FFFFF00
310
00FFFF800001FFFC00000FFFFF80007FC0001FFFFE0001FC0001FFFFE0001FF8
310
000001FFFE0000007FFFFFF0001FFFFFFF80000FFFF80000FFFF80000FFFF800
310
00FFFF0003FFFFFFFFE0000FFFFF8000F000C0003FFFFF8000FFFF800000FFFC
310
000007FFFF80007F80003FFFFF0001FC0003FFFFF0001FF8000001FFFE000000
310
7FFFFFF0001FFFFFFF80003FFFFE0000FFFF80003FFFFE0000FFFF0003FFFFFF
310
FFE0003FFFFF8000F000C0003FFFFF8000FFFF800000FFFC000007FFFF80007F
310
80007FFFFF8001F80007FFFFF8000FF8000001FFFE0000007FFFFFF0001FFFFF
310
FF00007FFFFF00007FFF00007FFFFF00007FFF0003FFFFFFFFE0003FFFFFC000
310
F000C0007FFFFFC000FFFF000000FFFC000007FFFF80007F8000FFFFFF8000F8
310
000FFFFFF8000FF8000001FFFE0000007FFFFFF0001FFFFFFF0000FFFFFF8000
310
7FFF0000FFFFFF80007FFF0003FFFFFFFFC0007FFFFFC00070008000FFFFFFC0
310
00FFFF000000FFF8000007FFFF80007F8000FFFFFF8000F8000FFFFFF8000FF8
310
000001FFFE0000007FFFFFF0001FFFFFFE0001FFFFFFC0003FFE0001FFFFFFC0
310
003FFF0003FFFFFFFFC0007FFFFFE00070008000FFFFFFC0007FFF0000007FF8
310
000003FFFF80007F0001FFFFFF8000F8000FFFFFF8000FF8000001FFFE000000
310
7FFFFFF0001FFFFFFE0001FFFFFFC0003FFE0001FFFFFFC0003FFF0003FFFFFF
310
FFC000FFFFFFE00070008000FFFFFFC0007FFF0000007FF8000003FFFF80007F
310
0001FFFFFF8000F8001FFFFFF8000FF8000001FFFE0000007FFFFFF0001FFFFF
310
FE0003FFFFFFE0003FFE0003FFFFFFE0003FFF0003FFFFFFFFC000FFFFFFE000
310
70008000FFFFFFC0007FFE0000007FF8000003FFFF80007F0001FFFFFF8000F0
310
001FFFFFF8000FF8000001FFFE0000007FFFFFF0001FFFFFFC0003FFFFFFE000
310
1FFC0003FFFFFFE0001FFF0003FFFFFFFFC000FFFFFFC00070008000FFFFFF80
310
007FFE0000007FF0000003FFFF80007F0001FFFFFF0000F0001FFFFFF8000FF8
310
000001FFFE0000007FFFFFF0001FFFFFFC0007FFFFFFF0001FFC0007FFFFFFF0
310
001FFF0003FFFFFFFFC000FFFFFFC00070008001FFFFFF0000FFFE0000003FF0
310
000001FFFF80007F0001FFFFFF0000F8001FFFFFF0000FF8000001FFFE000000
310
7FFFFFF0001FFFFFFC0007FFFFFFF0001FFC0007FFFFFFF0001FFF0003FFFFFF
310
FFC001FFFFFF80007000FFFFFFFFFE0000FFFE0008003FF0008001FFFF80007F
310
FFFFFFFFFC0000FFFFFFFFFFE0000FF8000001FFFE0000007FFFFFF0001FFFFF
310
F8000FFFFFFFF8000FF8000FFFFFFFF8000FFF0003FFFFFFFFFFFFFFFFFF0000
310
7000FFFFFFFFFC0000FFFC0008003FF0008001FFFF80007FFFFFFFFFF80001FF
310
FFFFFFFF80000FF8000001FFFE0000007FFFFFF0001FFFFFF8000FFFFFFFF800
310
0FF8000FFFFFFFF8000FFF0003FFFFFFFFFFFFFFFFFE0000F000FFFFFFFFE000
310
00FFFC000C003FE000C001FFFF80007FFFFFFFFFC00001FFFFFFFFFE00001FF8
310
000001FFFE0000007FFFFFF0001FFFFFF8000FFFFFFFF8000FF8000FFFFFFFF8
310
000FFF0003FFFFFFFFFFFFFFFFF00000F000FFFFFFFE000001FFFC000C001FE0
310
00C000FFFF80007FFFFFFFFE000001FFFFFFFFE000001FF80FFFFFFFFFFFFFC0
310
7FFFFFF0001FFFFFF8000FFFFFFFF8000FF8000FFFFFFFF8000FFF0003FFFFFF
310
FFFFFFFFFF800000F000FFFFFFC0000001FFFC001C001FE001C000FFFF80007F
310
FFFFFF80000003FFFFFFF80000001FF80FFFFFFFFFFFFFC07FFFFFF0001FFFFF
310
F8001FFFFFFFFC000FF8001FFFFFFFFC000FFF0003FFFFFFFFFFFFFFF0000001
310
F000FFFFF800000001FFF8001C001FE001C000FFFF80007FFFFFF800000003FF
310
FFFF800000003FF80FFFFFFFFFFFFFC07FFFFFF0001FFFFFF8001FFFFFFFFC00
310
0FF8001FFFFFFFFC000FFF0003FFFFFFFFFFFFFE00000001F000FFFFC0000000
310
03FFF8001E001FC001E000FFFF80007FFFFF8000000007FFFFFC000000003FF8
310
0FFFFFFFFFFFFFC07FFFFFF0001FFFFFF8001FFFFFFFFC000FF8001FFFFFFFFC
310
000FFF0003FFFFFFFFFFFFE000000003F000FFFE0000000007FFF8001E000FC0
310
01E0007FFF80007FFFFE0000000007FFFFE0000000007FF80FFFFFFFFFFFFFC0
310
7FFFFFF0001FFFFFF0001FFFFFFFFC0007F0001FFFFFFFFC0007FF0003FFFFFF
310
FFFFFF0000000003F000FFF80000000007FFF8001E000FC003E0007FFF80007F
310
FFF0000000000FFFFF8000000000FFF80FFFFFFFFFFFFFC07FFFFFF0001FFFFF
310
F0001FFFFFFFFC0007F0001FFFFFFFFC0007FF0003FFFFFFFFFFFC0000000007
310
F000FFE0000000000FFFF0003E000FC003E0007FFF80007FFFC0000000001FFF
310
FE0000000001FFF80FFFFFFFFFFFFFC07FFFFFF0001FFFFFF0001FFFFFFFFC00
310
07F0001FFFFFFFFC0007FF0003FFFFFFFFFFF0000000000FF000FFC000000000
310
1FFFF0003F000F8003F0003FFF80007FFF80000000003FFFF80000000003FFF8
310
0FFFFFFFFFFFFFC07FFFFFF0001FFFFFF0001FFFFFFFFC0007F0001FFFFFFFFC
310
0007FF0003FFFFFFFFFFE0000000001FF000FF00000000007FFFF0003F000780
310
03F0003FFF80007FFF00000000007FFFF00000000007FFF80FFFFFFFFFFFFFC0
310
7FFFFFF0001FFFFFF0001FFFFFFFFC0007F0001FFFFFFFFC0007FF0003FFFFFF
310
FFFF80000000007FF000FE0000000000FFFFE0003F00078007F0003FFF80007F
310
FE0000000001FFFFE0000000001FFFF80FFFFFFFFFFFFFC07FFFFFF0001FFFFF
310
F0001FFFFFFFFC0007F0001FFFFFFFFC0007FF0003FFFFFFFFFF0000000000FF
310
F000FC0000000003FFFFE0007F00078007F0003FFF80007FFC0000000007FFFF
310
C0000000007FFFF80FFFFFFFFFFFFFC07FFFFFF0001FFFFFF8001FFFFFFFFC00
310
0FF8001FFFFFFFFC000FFF0003FFFFFFFFFE0000000003FFF000FC000000000F
310
FFFFE0007F80070007F8001FFF80007FF8000000001FFFFF8000000001FFFFF8
310
0FFFFFFFFFFFFFC07FFFFFF0001FFFFFF8001FFFFFFFFC000FF8001FFFFFFFFC
310
000FFF0003FFFFFFFFFC000000000FFFF000F8000000007FFFFFE0007F800700
310
07F8001FFF80007FF000000000FFFFFF800000000FFFFFF80FFFFFFFFFFFFFC0
310
7FFFFFF0001FFFFFF8000FFFFFFFF8000FF8000FFFFFFFF8000FFF0003FFFFFF
310
FFFC000000007FFFF000F800000007FFFFFFC0007F8003000FF8001FFF80007F
310
F000000007FFFFFF000000007FFFFFF80FFFFFFFFFFFFFC07FFFFFF0001FFFFF
310
F8000FFFFFFFF8000FF8000FFFFFFFF8000FFF0003FFFFFFFFF80000000FFFFF
310
F000F0000000FFFFFFFFC000FF8003000FF8001FFF80007FE0000000FFFFFFFF
310
0000000FFFFFFFF8000001FFFE0000007FFFFFF0001FFFFFF8000FFFFFFFF800
310
0FF8000FFFFFFFF8000FFF0003FFFFFFFFF8000000FFFFFFF000F000000FFFFF
310
FFFFC000FFC002000FF8000FFF80007FE000001FFFFFFFFE000001FFFFFFFFF8
310
000001FFFE0000007FFFFFF0001FFFFFF8000FFFFFFFF8000FF8000FFFFFFFF8
310
000FFF0003FFFFFFFFF000001FFFFFFFF000E00000FFFFFFFFFFC000FFC00200
310
0FFC000FFF80007FE00001FFFFFFFFFE00001FFFFFFFFFF8000001FFFE000000
310
7FFFFFF0001FFFFFFC000FFFFFFFF8001FFC000FFFFFFFF8001FFF0003FFFFFF
310
FFF00001FFFFFFFFF000E00007FFFFFFFFFF8000FFC000001FFC000FFF80007F
310
C0000FFFFFFFFFFE0000FFFFFFFFFFF8000001FFFE0000007FFFFFF0001FFFFF
310
FC0007FFFFFFF0001FFC0007FFFFFFF0001FFF0003FFFFFFFFF00007FFFFFFFF
310
F000E0001FFFFFFFFFFF8000FFC000001FFC000FFF80007FC0003FFFFFFFFFFE
310
0001FFFFFFFFFFF8000001FFFE0000007FFFFFF0001FFFFFFC0007FFFFFFF000
310
1FFC0007FFFFFFF0001FFF0003FFFFFFFFF0001FFFFFFFFFF000E0003FFFFF00
310
03FF8001FFE000001FFC0007FF80007FC0007FFFFF0007FC0003FFFFF0003FF8
310
000001FFFE0000007FFFFFF0001FFFFFFC0003FFFFFFE0001FFC0003FFFFFFE0
310
001FFF0003FFFFFFFFF0003FFFFFFFFFF000E0003FFFFF0001FF8001FFE00000
310
1FFE0007FF80007FC0007FFFFE0003FC0007FFFFE0003FF8000001FFFE000000
310
7FFFFFF0001FFFFFFE0003FFFFFFE0003FFE0003FFFFFFE0003FFF0003FFFFFF
310
FFF0003FFFFF8001F000E0003FFFFF0001FF0001FFE000001FFE0007FF80007F
310
C0007FFFFE0003FC0007FFFFE0003FF8000001FFFE0000007FFFFFF0001FFFFF
310
FE0001FFFFFFC0003FFE0001FFFFFFC0003FFF0003FFFFFFFFF0003FFFFF0001
310
F000E0003FFFFF0003FF0001FFE000003FFE0007FF80007FC0007FFFFE0003FC
310
0007FFFFE0003FF8000001FFFE0000007FFFFFF0001FFFFFFF0001FFFFFFC000
310
7FFF0001FFFFFFC0007FFF0003FFFFFFFFF0003FFFFF0001F000E0003FFFFE00
310
03FF0003FFF000003FFE0003FF80007FC0007FFFFC0003FE0007FFFFE0003FF8
310
000001FFFE0000007FFFFFF0001FFFFFFF0000FFFFFF80007FFF0000FFFFFF80
310
007FFF0003FFFFFFFFF0003FFFFF0001F000E0003FFFFE0003FF0003FFF00000
310
3FFF0003FF80007FC0007FFFFC0007FE0007FFFFC0003FF8000001FFFE000000
310
7FFFFFF0001FFFFFFF80007FFFFF0000FFFF80007FFFFF0000FFFF0003FFFFFF
310
FFF0003FFFFF0003F000E0003FFFFC0003FE0003FFF000003FFF0003FF80007F
310
E0003FFFF80007FE0003FFFFC0007FF8000001FFFE0000007FFFFFF0001FFFFF
310
FF80003FFFFE0000FFFF80003FFFFE0000FFFF0003FFFFFFFFF0001FFFFE0003
310
F000F0001FFFF80003FE0003FFF000007FFF0001FF80007FE0003FFFF00007FE
310
0001FFFF80007FF8000001FFFE0000007FFFFFF0001FFFFFFFC0000FFFF80001
310
FFFFC0000FFFF80001FFFF0003FFFFFFFFF0001FFFFC0003F000F0000FFFF000
310
07FE0007FFF800007FFF0001FF80007FE0001FFFE00007FF0000FFFE00007FF8
310
000001FFFE0000007FFFFFF0001FFFFFFFC00003FFE00001FFFFC00003FFE000
310
01FFFF0003FFFFFFFFF8000FFFF80003F000F00003FFC00007FC0007FFF80000
310
7FFF8001FF80007FF00007FF80000FFF00007FF80000FFF8000001FFFE000000
310
7F80000000000001FFE000003E000003FFFFE000003E000003FFFF0003FFFFFF
310
FFF80003FFE00007F000F800000000000FFC0007FFF800007FFF8001FF80007F
310
F000000000000FFF000000000000FFF8000001FFFE0000007F80000000000001
310
FFF0000000000007FFFFF0000000000007FFFF0003FFFFFFFFFC00007E000007
310
F000F800000000000FFC0007FFF80000FFFF8000FF80007FF800000000001FFF
310
800000000001FFF8000001FFFE0000007F80000000000001FFF800000000000F
310
FFFFF800000000000FFFFF0003FFFFFFFFFC00000000000FF000FC0000000000
310
1FFC0007FFFC0000FFFF8000FF80007FF800000000003FFFC00000000001FFF8
310
000001FFFE0000007F80000000000001FFF800000000000FFFFFF80000000000
310
0FFFFF0003FFFFFFFFFE00000000001FF000FE00000000003FF8000FFFFC0000
310
FFFF8000FF80007FFC00000000003FFFC00000000003FFF8000001FFFE000000
310
7F80000000000001FFFC00000000001FFFFFFC00000000001FFFFF0003FFFFFF
310
FFFF00000000001FF000FF00000000003FF8000FFFFC0000FFFFC000FF80007F
310
FE00000000007FFFE00000000007FFF8000001FFFE0000007F80000000000001
310
FFFE00000000003FFFFFFE00000000003FFFFF0003FFFFFFFFFF80000000003F
310
F000FF80000000007FF8000FFFFC0001FFFFC0007F80007FFF0000000000FFFF
310
F0000000000FFFF800000000000000007F80000000000001FFFF8000000000FF
310
FFFFFF8000000000FFFFFF0003FFFFFFFFFFC0000000007FF000FFC000000000
310
FFF8000FFFFE0001FFFFC0007F80007FFF8000000001FFFFF8000000001FFFF8
310
00000000000000007F80000000000001FFFFC000000001FFFFFFFFC000000001
310
FFFFFF0003FFFFFFFFFFE000000000FFF000FFE000000003FFF0001FFFFE0001
310
FFFFC0007F80007FFFC000000007FFFFFE000000003FFFF80000000000000000
310
7F80000000000001FFFFE000000003FFFFFFFFE000000003FFFFFF0003FFFFFF
310
FFFFF000000003FFF000FFF80000000FFFF0001FFFFE0001FFFFE0007F80007F
310
FFF00000000FFFFFFF00000000FFFFF800000000000000007F80000000000001
310
FFFFF80000000FFFFFFFFFF80000000FFFFFFF0003FFFFFFFFFFFC0000000FFF
310
F000FFFE0000003FFFF0001FFFFE0003FFFFE0003F80007FFFFC0000003FFFFF
310
FFC0000003FFFFF800000000000000007F80000000000001FFFFFE0000003FFF
310
FFFFFFFE0000003FFFFFFF0003FFFFFFFFFFFF0000003FFFF000FFFF800000FF
310
FFF0001FFFFF0003FFFFE0003F80007FFFFF000001FFFFFFFFF800001FFFFFF8
310
00000000000000007F80000000000001FFFFFFC00001FFFFFFFFFFFFC00001FF
310
FFFFFF0003FFFFFFFFFFFFC00000FFFFF000FFFFF8000FFFFFFFFFFFFFFFFFFF
310
FFFFFFFFFFFFFFFFFFFFF0001FFFFFFFFFFF0000FFFFFFF80000000000000000
310
7FFFFFFFFFFFFFFFFFFFFFFC001FFFFFFFFFFFFFFC001FFFFFFFFFFFFFFFFFFF
310
FFFFFFFC001FFFFFF000FFFFFFFFFFFFFFFFFFFFFFFFFFFFFFFFFFFFFFFFFFFF
310
FFFFFFFFFFFFFFFFFFFFFFFFFFFFFFFFFFFFFFFFFFFFFFFFFFFFFFFFFFFFFFFF
310
FFFFFFFFFFFFFFFFFFFFFFFFFFFFFFFFFFFFFFFFFFFFFFFFFFFFFFFFFFFFFFFF
310
F000FFFFFFFFFFFFFFFFFFFFFFFFFFFFFFFFFFFFFFFFFFFFFFFFFFFFFFFFFFFF
310
FFFFFFFFFFFFFFFFFFFFFFFFFFFFFFFFFFFFFFFFFFFFFFFFFFFFFFFFFFFFFFFF
310
FFFFFFFFFFFFFFFFFFFFFFFFFFFFFFFFFFFFFFFFFFFFFFFFF000FFFFFFFFFFFF
310
FFFFFFFFFFFFFFFFFFFFFFFFFFFFFFFFFFFFFFFFFFFFFFFFFFFFFFFFFFFFFFFF
310
FFFFFFFFFFFFFFFFFFFFFFFFFFFFFFFFFFFFFFFFFFFFFFFFFFFFFFFFFFFFFFFF
310
FFFFFFFFFFFFFFFFFFFFFFFFFFFFFFFFF000FFFFFFFFFFFFFFFFFFFFFFFFFFFF
310
FFFFFFFFFFFFFFFFFFFFFFFFFFFFFFFFFFFFFFFFFFFFFFFFFFFFFFFFFFFFFFFF
310
FFFFFFFFFFFFFFFFFFFFFFFFFFFFFFFFFFFFFFFFFFFFFFFFFFFFFFFFFFFFFFFF
310
FFFFFFFFFFFFFFFFF000FFFFFFFFFFFFFFFFFFFFFFFFFFFFFFFFFFFFFFFFFFFF
310
FFFFFFFFFFFFFFFFFFFFFFFFFFFFFFFFFFFFFFFFFFFFFFFFFFFFFFFFFFFFFFFF
310
FFFFFFFFFFFFFFFFFFFFFFFFFFFFFFFFFFFFFFFFFFFFFFFFFFFFFFFFFFFFFFFF
310
F000FFFFFFFFFFFFFFFFFFFFFFFFFFFFFFFFFFFFFFFFFFFFFFFFFFFFFFFFFFFF
310
FFFFFFFFFFFFFFFFFFFFFFFFFFFFFFFFFFFFFFFFFFFFFFFFFFFFFFFFFFFFFFFF
310
FFFFFFFFFFFFFFFFFFFFFFFFFFFFFFFFFFFFFFFFFFFFFFFFF000FFFFFFFFFFFF
310
FFFFFFFFFFFFFFFFFFFFFFFFFFFFFFFFFFFFFFFFFFFFFFFFFFFFFFFFFFFFFFFF
310
FFFFFFFFFFFFFFFFFFFFFFFFFFFFFFFFFFFFFFFFFFFFFFFFFFFFFFFFFFFFFFFF
310
FFFFFFFFFFFFFFFFFFFFFFFFFFFFFFFFF000FFFFFFFFFFFFFFFFFFFFFFFFFFFF
310
FFFFFFFFFFFFFFFFFFFFFFFFFFFFFFFFFFFFFFFFFFFFFFFFFFFFFFFFFFFFFFFF
310
FFFFFFFFFFFFFFFFFFFFFFFFFFFFFFFFFFFFFFFFFFFFFFFFFFFFFFFFFFFFFFFF
310
FFFFFFFFFFFFFFFFF000FFFFFFFFFFFFFFFFFFFFFFFFFFFFFFFFFFFFFFFFFFFF
310
FFFFFFFFFFFFFFFFFFFFFFFFFFFFFFFFFFFFFFFFFFFFFFFFFFFFFFFFFFFFFFFF
310
FFFFFFFFFFFFFFFFFFFFFFFFFFFFFFFFFFFFFFFFFFFFFFFFFFFFFFFFFFFFFFFF
310
F000FFFFFFFFFFFFFFFFFFFFFFFFFFFFFFFFFFFFFFFFFFFFFFFFFFFFFFFFFFFF
310
FFFFFFFFFFFFFFFFFFFFFFFFFFFFFFFFFFFFFFFFFFFFFFFFFFFFFFFFFFFFFFFF
310
FFFFFFFFFFFFFFFFFFFFFFFFFFFFFFFFFFFFFFFFFFFFFFFFF000FFFFFFFFFFFF
310
FFFFFFFFFFFFFFFFFFFFFFFFFFFFFFFFFFFFFFFFFFFFFFFFFFFFFFFFFFFFFFFF
310
FFFFFFFFFFFFFFFFFFFFFFFFFFFFFFFFFFFFFFFFFFFFFFFFFFFFFFFFFFFFFFFF
310
FFFFFFFFFFFFFFFFFFFFFFFFFFFFFFFFF000FFFFFFFFFFFFFFFFFFFFFFFFFFFF
310
FFFFFFFFFFFFFFFFFFFFFFFFFFFFFFFFFFFFFFFFFFFFFFFFFFFFFFFFFFFFFFFF
310
FFFFFFFFFFFFFFFFFFFFFFFFFFFFFFFFFFFFFFFFFFFFFFFFFFFFFFFFFFFFFFFF
310
FFFFFFFFFFFFFFFFF000FFFFFFFFFFFFFFFFFFFFFFFFFFFFFFFFFFFFFFFFFFFF
310
FFFFFFFFFFFFFFFFFFFFFFFFFFFFFFFFFFFFFFFFFFFFFFFFFFFFFFFFFFFFFFFF
310
FFFFFFFFFFFFFFFFFFFFFFFFFFFFFFFFFFFFFFFFFFFFFFFFFFFFFFFFFFFFFFFF
310
F000FFFFFFFFFFFFFFFFFFFFFFFFFFFFFFFFFFFFFFFFFFFFFFFFFFFFFFFFFFFF
310
FFFFFFFFFFFFFFFFFFFFFFFFFFFFFFFFFFFFFFFFFFFFFFFFFFFFFFFFFFFFFFFF
310
FFFFFFFFFFFFFFFFFFFFFFFFFFFFFFFFFFFFFFFFFFFFFFFFF000FFFFFFFFFFFF
310
FFFFFFFFFFFFFFFFFFFFFFFFFFFFFFFFFFFFFFFFFFFFFFFFFFFFFFFFFFFFFFFF
310
FFFFFFFFFFFFFFFFFFFFFFFFFFFFFFFFFFFFFFFFFFFFFFFFFFFFFFFFFFFFFFFF
310
FFFFFFFFFFFFFFFFFFFFFFFFFFFFFFFFF000FFFFFFFFFFFFFFFFFFFFFFFFFFFF
310
FFFFFFFFFFFFFFFFFFFFFFFFFFFFFFFFFFFFFFFFFFFFFFFFFFFFFFFFFFFFFFFF
310
FFFFFFFFFFFFFFFFFFFFFFFFFFFFFFFFFFFFFFFFFFFFFFFFFFFFFFFFFFFFFFFF
310
FFFFFFFFFFFFFFFFF000FFFFFFFFFFFFFFFFFFFFFFFFFFFFFFFFFFFFFFFFFFFF
310
FFFFFFFFFFFFFFFFFFFFFFFFFFFFFFFFFFFFFFFFFFFFFFFFFFFFFFFFFFFFFFFF
310
FFFFFFFFFFFFFFFFFFFFFFFFFFFFFFFFFFFFFFFFFFFFFFFFFFFFFFFFFFFFFFFF
310
F000FFFFFFFFFFFFFFFFFFFFFFFFFFFFFFFFFFFFFFFFFFFFFFFFFFFFFFFFFFFF
310
FFFFFFFFFFFFFFFFFFFFFFFFFFFFFFFFFFFFFFFFFFFFFFFFFFFFFFFFFFFFFFFF
310
FFFFFFFFFFFFFFFFFFFFFFFFFFFFFFFFFFFFFFFFFFFFFFFFF000FFFFFFFFFFFF
310
FFFFFFFFFFFFFFFFFFFFFFFFFFFFFFFFFFFFFFFFFFFFFFFFFFFFFFFFFFFFFFFF
310
FFFFFFFFFFFFFFFFFFFFFFFFFFFFFFFFFFFFFFFFFFFFFFFFFFFFFFFFFFFFFFFF
310
FFFFFFFFFFFFFFFFFFFFFFFFFFFFFFFFF000FFFFFFFFFFFFFFFFFFFFFFFFFFFF
310
FFFFFFFFFFFFFFFFFFFFFFFFFFFFFFFFFFFFFFFFFFFFFFFFFFFFFFFFFFFFFFFF
310
FFFFFFFFFFFFFFFFFFFFFFFFFFFFFFFFFFFFFFFFFFFFFFFFFFFFFFFFFFFFFFFF
310
FFFFFFFFFFFFFFFFF000FFFFFFFFFFFFFFFFFFFFFFFFFFFFFFFFFFFFFFFFFFFF
310
FFFFFFFFFFFFFFFFFFFFFFFFFFFFFFFFFFFFFFFFFFFFFFFFFFFFFFFFFFFFFFFF
310
FFFFFFFFFFFFFFFFFFFFFFFFFFFFFFFFFFFFFFFFFFFFFFFFFFFFFFFFFFFFFFFF
310
F000FFFFFFFFFFFFFFFFFFFFFFFFFFFFFFFFFFFFFFFFFFFFFFFFFFFFFFFFFFFF
310
FFFFFFFFFFFFFFFFFFFFFFFFFFFFFFFFFFFFFFFFFFFFFFFFFFFFFFFFFFFFFFFF
310
FFFFFFFFFFFFFFFFFFFFFFFFFFFFFFFFFFFFFFFFFFFFFFFFF000FFFFFFFFFFFF
310
FFFFFFFFFFFFFFFFFFFFFFFFFFFFFFFFFFFFFFFFFFFFFFFFFFFFFFFFFFFFFFFF
310
FFFFFFFFFFFFFFFFFFFFFFFFFFFFFFFFFFFFFFFFFFFFFFFFFFFFFFFFFFFFFFFF
310
FFFFFFFFFFFFFFFFFFFFFFFFFFFFFFFFF0000000000000000000000000000000
310
0000000000000000000000000000000000000000000000000000000000000000
310
0000000000000000000000000000000000000000000000000000000000000000
310
0000000000000000000000000000000000000000000000000000000000000000
310
0000000000000000000000000000000000000000000000000000000000000000
310
0000000000000000000000000000000000000000000000000000000000000000
310
0000000000000000000000000000000000000000000000000000000000000000
310
0000000000000000000000000000000000000000000000000000000000000000
310
0000000000000000000000000000000000000000000000000000000000000000
310
0000000000000000000000000000000000000000000000000000000000000000
310
0000000000000000000000000000000000000000000000000000000000000000
310
0000000000000000000000000000000000000000000000000000000000000000
310
0000000000000000000000000000000000000000000000000000000000000000
310
0000000000000000000000000000000000000000000000000000000000000000
310
0000000000000000000000000000000000000000000000000000000000000000
310
0000000000000000000000000000000000000000000000000000000000000000
  1
OLE
  0
ENDSEC
  0
SECTION
  2
OBJECTS
  0
DICTIONARY
  5
C
330
0
100
AcDbDictionary
281
     1
  3
ACAD_GROUP
350
D
  3
ACAD_LAYOUT
350
1A
  3
ACAD_MLINESTYLE
350
17
  3
ACAD_PLOTSETTINGS
350
19
  3
ACAD_PLOTSTYLENAME
350
E
  0
DICTIONARY
  5
D
102
{ACAD_REACTORS
330
C
102
}
330
C
100
AcDbDictionary
281
     1
  0
DICTIONARY
  5
1A
102
{ACAD_REACTORS
330
C
102
}
330
C
100
AcDbDictionary
281
     1
  3
Layout1
350
1E
  3
Layout2
350
26
  3
Model
350
22
  0
DICTIONARY
  5
17
102
{ACAD_REACTORS
330
C
102
}
330
C
100
AcDbDictionary
281
     1
  3
Standard
350
18
  0
DICTIONARY
  5
19
102
{ACAD_REACTORS
330
C
102
}
330
C
100
AcDbDictionary
281
     1
  0
ACDBDICTIONARYWDFLT
  5
E
102
{ACAD_REACTORS
330
C
102
}
330
C
100
AcDbDictionary
281
     1
  3
Normal
350
F
100
AcDbDictionaryWithDefault
340
F
  0
LAYOUT
  5
1E
102
{ACAD_REACTORS
330
1A
102
}
330
1A
100
AcDbPlotSettings
  1

  2
none_device
  4

  6

 40
0.0
 41
0.0
 42
0.0
 43
0.0
 44
0.0
 45
0.0
 46
0.0
 47
0.0
 48
0.0
 49
0.0
140
0.0
141
0.0
142
1.0
143
1.0
 70
   688
 72
     0
 73
     0
 74
     5
  7

 75
    16
147
1.0
148
0.0
149
0.0
100
AcDbLayout
  1
Layout1
 70
     1
 71
     1
 10
0.0
 20
0.0
 11
420.0
 21
297.0
 12
0.0
 22
0.0
 32
0.0
 14
1.0000000000E+20
 24
1.0000000000E+20
 34
1.0000000000E+20
 15
-1.0000000000E+20
 25
-1.0000000000E+20
 35
-1.0000000000E+20
146
0.0
 13
0.0
 23
0.0
 33
0.0
 16
1.0
 26
0.0
 36
0.0
 17
0.0
 27
1.0
 37
0.0
 76
     0
330
1B
  0
LAYOUT
  5
26
102
{ACAD_REACTORS
330
1A
102
}
330
1A
100
AcDbPlotSettings
  1

  2
none_device
  4

  6

 40
0.0
 41
0.0
 42
0.0
 43
0.0
 44
0.0
 45
0.0
 46
0.0
 47
0.0
 48
0.0
 49
0.0
140
0.0
141
0.0
142
1.0
143
1.0
 70
   688
 72
     0
 73
     0
 74
     5
  7

 75
    16
147
1.0
148
0.0
149
0.0
100
AcDbLayout
  1
Layout2
 70
     1
 71
     2
 10
0.0
 20
0.0
 11
0.0
 21
0.0
 12
0.0
 22
0.0
 32
0.0
 14
0.0
 24
0.0
 34
0.0
 15
0.0
 25
0.0
 35
0.0
146
0.0
 13
0.0
 23
0.0
 33
0.0
 16
1.0
 26
0.0
 36
0.0
 17
0.0
 27
1.0
 37
0.0
 76
     0
330
23
  0
LAYOUT
  5
22
102
{ACAD_REACTORS
330
1A
102
}
330
1A
100
AcDbPlotSettings
  1

  2
none_device
  4

  6

 40
0.0
 41
0.0
 42
0.0
 43
0.0
 44
0.0
 45
0.0
 46
0.0
 47
0.0
 48
0.0
 49
0.0
140
0.0
141
0.0
142
1.0
143
1.0
 70
  1712
 72
     0
 73
     0
 74
     0
  7

 75
     0
147
1.0
148
0.0
149
0.0
100
AcDbLayout
  1
Model
 70
     1
 71
     0
 10
0.0
 20
0.0
 11
297.0
 21
210.0
 12
0.0
 22
0.0
 32
0.0
 14
0.0
 24
0.0
 34
0.0
 15
297.0
 25
210.0
 35
0.0
146
0.0
 13
0.0
 23
0.0
 33
0.0
 16
1.0
 26
0.0
 36
0.0
 17
0.0
 27
1.0
 37
0.0
 76
     0
330
1F
331
29
  0
MLINESTYLE
  5
18
102
{ACAD_REACTORS
330
17
102
}
330
17
100
AcDbMlineStyle
  2
Standard
 70
     0
  3

 62
   256
 51
90.0
 52
90.0
 71
     2
 49
0.5
 62
   256
  6
BYLAYER
 49
-0.5
 62
   256
  6
BYLAYER
  0
ACDBPLACEHOLDER
  5
F
102
{ACAD_REACTORS
330
E
102
}
330
E
  0
ENDSEC
  0
EOF
