  0
SECTION
  2
HEADER
  9
$ACADVER
  1
AC1015
  9
$ACADMAINTVER
 70
     6
  9
$DWGCODEPAGE
  3
ANSI_1252
  9
$INSBASE
 10
0.0
 20
0.0
 30
0.0
  9
$EXTMIN
 10
0.0
 20
0.0
 30
0.0
  9
$EXTMAX
 10
297.0
 20
210.0
 30
0.0
  9
$LIMMIN
 10
0.0
 20
0.0
  9
$LIMMAX
 10
297.0
 20
210.0
  9
$ORTHOMODE
 70
     0
  9
$REGENMODE
 70
     1
  9
$FILLMODE
 70
     1
  9
$QTEXTMODE
 70
     0
  9
$MIRRTEXT
 70
     1
  9
$LTSCALE
 40
1.0
  9
$ATTMODE
 70
     1
  9
$TEXTSIZE
 40
2.0
  9
$TRACEWID
 40
1.0
  9
$TEXTSTYLE
  7
Standard
  9
$CLAYER
  8
0
  9
$CELTYPE
  6
ByLayer
  9
$CECOLOR
 62
   256
  9
$CELTSCALE
 40
1.0
  9
$DISPSILH
 70
     0
  9
$DIMSCALE
 40
1.0
  9
$DIMASZ
 40
3.0
  9
$DIMEXO
 40
0.0
  9
$DIMDLI
 40
3.75
  9
$DIMRND
 40
0.0
  9
$DIMDLE
 40
0.0
  9
$DIMEXE
 40
1.0
  9
$DIMTP
 40
0.0
  9
$DIMTM
 40
0.0
  9
$DIMTXT
 40
2.0
  9
$DIMCEN
 40
2.5
  9
$DIMTSZ
 40
0.0
  9
$DIMTOL
 70
     0
  9
$DIMLIM
 70
     0
  9
$DIMTIH
 70
     1
  9
$DIMTOH
 70
     1
  9
$DIMSE1
 70
     0
  9
$DIMSE2
 70
     0
  9
$DIMTAD
 70
     1
  9
$DIMZIN
 70
     0
  9
$DIMBLK
  1

  9
$DIMASO
 70
     1
  9
$DIMSHO
 70
     1
  9
$DIMPOST
  1

  9
$DIMAPOST
  1

  9
$DIMALT
 70
     0
  9
$DIMALTD
 70
     3
  9
$DIMALTF
 40
0.0393700787
  9
$DIMLFAC
 40
1.0
  9
$DIMTOFL
 70
     1
  9
$DIMTVP
 40
0.0
  9
$DIMTIX
 70
     0
  9
$DIMSOXD
 70
     0
  9
$DIMSAH
 70
     0
  9
$DIMBLK1
  1

  9
$DIMBLK2
  1

  9
$DIMSTYLE
  2
ISO-25
  9
$DIMCLRD
 70
     0
  9
$DIMCLRE
 70
     0
  9
$DIMCLRT
 70
     0
  9
$DIMTFAC
 40
1.0
  9
$DIMGAP
 40
1.524
  9
$DIMJUST
 70
     0
  9
$DIMSD1
 70
     0
  9
$DIMSD2
 70
     0
  9
$DIMTOLJ
 70
     0
  9
$DIMTZIN
 70
     0
  9
$DIMALTZ
 70
     0
  9
$DIMALTTZ
 70
     0
  9
$DIMUPT
 70
     0
  9
$DIMDEC
 70
     2
  9
$DIMTDEC
 70
     3
  9
$DIMALTU
 70
     2
  9
$DIMALTTD
 70
     3
  9
$DIMTXSTY
  7
Standard
  9
$DIMAUNIT
 70
     0
  9
$DIMADEC
 70
     2
  9
$DIMALTRND
 40
0.0
  9
$DIMAZIN
 70
     0
  9
$DIMDSEP
 70
    44
  9
$DIMATFIT
 70
     3
  9
$DIMFRAC
 70
     0
  9
$DIMLDRBLK
  1

  9
$DIMLUNIT
 70
     2
  9
$DIMLWD
 70
    -2
  9
$DIMLWE
 70
    -2
  9
$DIMTMOVE
 70
     0
  9
$LUNITS
 70
     2
  9
$LUPREC
 70
     2
  9
$SKETCHINC
 40
1.0
  9
$FILLETRAD
 40
10.0
  9
$AUNITS
 70
     0
  9
$AUPREC
 70
     2
  9
$MENU
  1
.
  9
$ELEVATION
 40
0.0
  9
$PELEVATION
 40
0.0
  9
$THICKNESS
 40
0.0
  9
$LIMCHECK
 70
     0
  9
$CHAMFERA
 40
10.0
  9
$CHAMFERB
 40
10.0
  9
$CHAMFERC
 40
20.0
  9
$CHAMFERD
 40
0.0
  9
$SKPOLY
 70
     0
  9
$TDCREATE
 40
2456094.390263125
  9
$TDUCREATE
 40
2456094.306929792
  9
$TDUPDATE
 40
2456094.390264931
  9
$TDUUPDATE
 40
2456094.306931597
  9
$TDINDWG
 40
0.0000000116
  9
$TDUSRTIMER
 40
0.0000000116
  9
$USRTIMER
 70
     1
  9
$ANGBASE
 50
0.0
  9
$ANGDIR
 70
     0
  9
$PDMODE
 70
     0
  9
$PDSIZE
 40
-1.0
  9
$PLINEWID
 40
0.0
  9
$SPLFRAME
 70
     0
  9
$SPLINETYPE
 70
     6
  9
$SPLINESEGS
 70
     8
  9
$HANDSEED
  5
2FA
  9
$SURFTAB1
 70
     6
  9
$SURFTAB2
 70
     6
  9
$SURFTYPE
 70
     6
  9
$SURFU
 70
     6
  9
$SURFV
 70
     6
  9
$UCSBASE
  2

  9
$UCSNAME
  2

  9
$UCSORG
 10
0.0
 20
0.0
 30
0.0
  9
$UCSXDIR
 10
1.0
 20
0.0
 30
0.0
  9
$UCSYDIR
 10
0.0
 20
1.0
 30
0.0
  9
$UCSORTHOREF
  2

  9
$UCSORTHOVIEW
 70
     0
  9
$UCSORGTOP
 10
0.0
 20
0.0
 30
0.0
  9
$UCSORGBOTTOM
 10
0.0
 20
0.0
 30
0.0
  9
$UCSORGLEFT
 10
0.0
 20
0.0
 30
0.0
  9
$UCSORGRIGHT
 10
0.0
 20
0.0
 30
0.0
  9
$UCSORGFRONT
 10
0.0
 20
0.0
 30
0.0
  9
$UCSORGBACK
 10
0.0
 20
0.0
 30
0.0
  9
$PUCSBASE
  2

  9
$PUCSNAME
  2

  9
$PUCSORG
 10
0.0
 20
0.0
 30
0.0
  9
$PUCSXDIR
 10
1.0
 20
0.0
 30
0.0
  9
$PUCSYDIR
 10
0.0
 20
1.0
 30
0.0
  9
$PUCSORTHOREF
  2

  9
$PUCSORTHOVIEW
 70
     0
  9
$PUCSORGTOP
 10
0.0
 20
0.0
 30
0.0
  9
$PUCSORGBOTTOM
 10
0.0
 20
0.0
 30
0.0
  9
$PUCSORGLEFT
 10
0.0
 20
0.0
 30
0.0
  9
$PUCSORGRIGHT
 10
0.0
 20
0.0
 30
0.0
  9
$PUCSORGFRONT
 10
0.0
 20
0.0
 30
0.0
  9
$PUCSORGBACK
 10
0.0
 20
0.0
 30
0.0
  9
$USERI1
 70
     0
  9
$USERI2
 70
     0
  9
$USERI3
 70
     0
  9
$USERI4
 70
     0
  9
$USERI5
 70
     0
  9
$USERR1
 40
0.0
  9
$USERR2
 40
0.0
  9
$USERR3
 40
0.0
  9
$USERR4
 40
0.0
  9
$USERR5
 40
0.0
  9
$WORLDVIEW
 70
     1
  9
$SHADEDGE
 70
     3
  9
$SHADEDIF
 70
    70
  9
$TILEMODE
 70
     1
  9
$MAXACTVP
 70
    64
  9
$PINSBASE
 10
0.0
 20
0.0
 30
0.0
  9
$PLIMCHECK
 70
     0
  9
$PEXTMIN
 10
1.0000000000E+20
 20
1.0000000000E+20
 30
1.0000000000E+20
  9
$PEXTMAX
 10
-1.0000000000E+20
 20
-1.0000000000E+20
 30
-1.0000000000E+20
  9
$PLIMMIN
 10
0.0
 20
0.0
  9
$PLIMMAX
 10
420.0
 20
297.0
  9
$UNITMODE
 70
     0
  9
$VISRETAIN
 70
     1
  9
$PLINEGEN
 70
     0
  9
$PSLTSCALE
 70
     1
  9
$TREEDEPTH
 70
  3020
  9
$CMLSTYLE
  2
Standard
  9
$CMLJUST
 70
     0
  9
$CMLSCALE
 40
20.0
  9
$PROXYGRAPHICS
 70
     1
  9
$MEASUREMENT
 70
     1
  9
$CELWEIGHT
370
    -1
  9
$ENDCAPS
280
     0
  9
$JOINSTYLE
280
     0
  9
$LWDISPLAY
290
     1
  9
$INSUNITS
 70
     4
  9
$HYPERLINKBASE
  1

  9
$STYLESHEET
  1

  9
$XEDIT
290
     1
  9
$CEPSNTYPE
380
     0
  9
$PSTYLEMODE
290
     1
  9
$FINGERPRINTGUID
  2
{2E14782D-83B9-4E6A-A99C-94DD98A6A480}
  9
$VERSIONGUID
  2
{FAEB1C32-E019-11D5-929B-00C0DF256EC4}
  9
$EXTNAMES
290
     1
  9
$PSVPSCALE
 40
0.0
  9
$OLESTARTUP
290
     0
  0
ENDSEC
  0
SECTION
  2
CLASSES
  0
CLASS
  1
ACDBDICTIONARYWDFLT
  2
AcDbDictionaryWithDefault
  3
ObjectDBX Classes
 90
        0
280
     0
281
     0
  0
CLASS
  1
VISUALSTYLE
  2
AcDbVisualStyle
  3
ObjectDBX Classes
 90
     4095
280
     0
281
     0
  0
CLASS
  1
MATERIAL
  2
AcDbMaterial
  3
ObjectDBX Classes
 90
     1153
280
     0
281
     0
  0
CLASS
  1
ACDBPLACEHOLDER
  2
AcDbPlaceHolder
  3
ObjectDBX Classes
 90
        0
280
     0
281
     0
  0
CLASS
  1
LAYOUT
  2
AcDbLayout
  3
ObjectDBX Classes
 90
        0
280
     0
281
     0
  0
ENDSEC
  0
SECTION
  2
TABLES
  0
TABLE
  2
VPORT
  5
8
330
0
100
AcDbSymbolTable
 70
     1
  0
VPORT
  5
29
330
8
100
AcDbSymbolTableRecord
100
AcDbViewportTableRecord
  2
*Active
 70
     0
 10
0.0
 20
0.0
 11
1.0
 21
1.0
 12
148.5
 22
105.0
 13
0.0
 23
0.0
 14
10.0
 24
10.0
 15
10.0
 25
10.0
 16
0.0
 26
0.0
 36
1.0
 17
0.0
 27
0.0
 37
0.0
 40
210.0
 41
1.4142857143
 42
50.0
 43
0.0
 44
0.0
 50
0.0
 51
0.0
 71
     0
 72
  2000
 73
     1
 74
     3
 75
     0
 76
     0
 77
     0
 78
     0
281
     0
 65
     1
110
0.0
120
0.0
130
0.0
111
1.0
121
0.0
131
0.0
112
0.0
122
1.0
132
0.0
 79
     0
146
0.0
  0
ENDTAB
  0
TABLE
  2
LTYPE
  5
5
330
0
100
AcDbSymbolTable
 70
     6
  0
LTYPE
  5
14
330
5
100
AcDbSymbolTableRecord
100
AcDbLinetypeTableRecord
  2
ByBlock
 70
     0
  3

 72
    65
 73
     0
 40
0.0
  0
LTYPE
  5
15
330
5
100
AcDbSymbolTableRecord
100
AcDbLinetypeTableRecord
  2
ByLayer
 70
     0
  3

 72
    65
 73
     0
 40
0.0
  0
LTYPE
  5
16
330
5
100
AcDbSymbolTableRecord
100
AcDbLinetypeTableRecord
  2
Continuous
 70
     0
  3
Solid line
 72
    65
 73
     0
 40
0.0
  0
LTYPE
  5
3F
330
5
100
AcDbSymbolTableRecord
100
AcDbLinetypeTableRecord
  2
HIDDEN
 70
     0
  3
Hidden __ __ __ __ __ __ __ __ __ __ __ __ __ __
 72
    65
 73
     2
 40
1.905
 49
1.27
 74
     0
 49
-0.635
 74
     0
  0
LTYPE
  5
40
330
5
100
AcDbSymbolTableRecord
100
AcDbLinetypeTableRecord
  2
PHANTOM
 70
     0
  3
Phantom ______  __  __  ______  __  __  ______
 72
    65
 73
     6
 40
12.7
 49
6.35
 74
     0
 49
-1.27
 74
     0
 49
1.27
 74
     0
 49
-1.27
 74
     0
 49
1.27
 74
     0
 49
-1.27
 74
     0
  0
LTYPE
  5
41
330
5
100
AcDbSymbolTableRecord
100
AcDbLinetypeTableRecord
  2
CENTER
 70
     0
  3
Center ____ _ ____ _ ____ _ ____ _ ____ _ ____
 72
    65
 73
     4
 40
10.16
 49
6.35
 74
     0
 49
-1.27
 74
     0
 49
1.27
 74
     0
 49
-1.27
 74
     0
  0
LTYPE
  5
42
330
5
100
AcDbSymbolTableRecord
100
AcDbLinetypeTableRecord
  2
CENTERX2
 70
     0
  3
Center (2x) ________  __  ________  __  _____
 72
    65
 73
     4
 40
20.32
 49
12.7
 74
     0
 49
-2.54
 74
     0
 49
2.54
 74
     0
 49
-2.54
 74
     0
  0
LTYPE
  5
43
330
5
100
AcDbSymbolTableRecord
100
AcDbLinetypeTableRecord
  2
DOT2
 70
     0
  3
Dot (.5x) ........................................
 72
    65
 73
     2
 40
0.635
 49
0.0
 74
     0
 49
-0.635
 74
     0
  0
ENDTAB
  0
TABLE
  2
LAYER
  5
2
330
0
100
AcDbSymbolTable
 70
     5
  0
LAYER
  5
10
330
2
100
AcDbSymbolTableRecord
100
AcDbLayerTableRecord
  2
0
 70
     0
 62
     7
  6
Continuous
370
    -3
390
F
  0
LAYER
  5
44
330
2
100
AcDbSymbolTableRecord
100
AcDbLayerTableRecord
  2
FORMAT
 70
     0
 62
     7
  6
Continuous
370
    -3
390
F
  0
LAYER
  5
45
330
2
100
AcDbSymbolTableRecord
100
AcDbLayerTableRecord
  2
VERMASSUNG
 70
     0
 62
     7
  6
Continuous
370
    -3
390
F
  0
LAYER
  5
46
330
2
100
AcDbSymbolTableRecord
100
AcDbLayerTableRecord
  2
KOPF_DÜNN
 70
     0
 62
     7
  6
Continuous
370
    -3
390
F
  0
LAYER
  5
47
330
2
100
AcDbSymbolTableRecord
100
AcDbLayerTableRecord
  2
KOPF_DICK
 70
     0
 62
     7
  6
Continuous
370
    15
390
F
  0
ENDTAB
  0
TABLE
  2
STYLE
  5
3
330
0
100
AcDbSymbolTable
 70
     3
  0
STYLE
  5
11
330
3
100
AcDbSymbolTableRecord
100
AcDbTextStyleTableRecord
  2
Standard
 70
     0
 40
0.0
 41
1.0
 50
0.0
 71
     0
 42
2.0
  3
txt
  4

  0
STYLE
  5
48
330
3
100
AcDbSymbolTableRecord
100
AcDbTextStyleTableRecord
  2
SLDTEXTSTYLE0
 70
     0
 40
0.0
 41
0.7
 50
0.0
 71
     0
 42
0.2
  3
TXT
  4

  0
STYLE
  5
4C
330
3
100
AcDbSymbolTableRecord
100
AcDbTextStyleTableRecord
  2
SLDTEXTSTYLE1
 70
     0
 40
0.0
 41
0.6470588235
 50
0.0
 71
     0
 42
0.2
  3
TXT
  4

  0
ENDTAB
  0
TABLE
  2
VIEW
  5
6
330
0
100
AcDbSymbolTable
 70
     0
  0
ENDTAB
  0
TABLE
  2
UCS
  5
7
330
0
100
AcDbSymbolTable
 70
     0
  0
ENDTAB
  0
TABLE
  2
APPID
  5
9
330
0
100
AcDbSymbolTable
 70
     1
  0
APPID
  5
12
330
9
100
AcDbSymbolTableRecord
100
AcDbRegAppTableRecord
  2
ACAD
 70
     0
  0
ENDTAB
  0
TABLE
  2
DIMSTYLE
  5
A
330
0
100
AcDbSymbolTable
 70
     3
100
AcDbDimStyleTable
  0
DIMSTYLE
105
27
330
A
100
AcDbSymbolTableRecord
100
AcDbDimStyleTableRecord
  2
ISO-25
 70
     0
 41
2.5
 42
0.625
 43
3.75
 44
1.25
 73
     0
 74
     0
 77
     1
 78
     8
140
2.5
141
2.5
143
0.0393700787
147
0.625
171
     3
172
     1
178
     0
271
     2
272
     2
274
     3
278
    44
283
     0
284
     8
340
11
  0
DIMSTYLE
105
244
102
{ACAD_REACTORS
330
243
102
}
330
A
100
AcDbSymbolTableRecord
100
AcDbDimStyleTableRecord
  2
SLDDIMSTYLE0
 70
     0
 41
3.0
 44
0.0
 73
     0
 74
     0
 77
     1
 78
    12
 79
     3
140
2.0
147
0.5
173
     1
178
     0
272
     3
276
     2
284
    12
340
48
  0
DIMSTYLE
105
24D
102
{ACAD_REACTORS
330
24C
330
257
330
261
330
26B
102
}
330
A
100
AcDbSymbolTableRecord
100
AcDbDimStyleTableRecord
  2
SLDDIMSTYLE1
 70
     0
 41
3.0
 44
0.0
 45
0.000000001
 73
     0
 74
     0
 77
     1
 78
    12
 79
     3
140
2.0
147
0.5
173
     1
178
     0
271
     2
272
     3
276
     2
284
    12
340
48
  0
ENDTAB
  0
TABLE
  2
BLOCK_RECORD
  5
1
330
0
100
AcDbSymbolTable
 70
     7
  0
BLOCK_RECORD
  5
1F
330
1
100
AcDbSymbolTableRecord
100
AcDbBlockTableRecord
  2
*Model_Space
340
22
  0
BLOCK_RECORD
  5
1B
330
1
100
AcDbSymbolTableRecord
100
AcDbBlockTableRecord
  2
*Paper_Space
340
1E
  0
BLOCK_RECORD
  5
23
330
1
100
AcDbSymbolTableRecord
100
AcDbBlockTableRecord
  2
*Paper_Space0
340
26
  0
BLOCK_RECORD
  5
245
330
1
100
AcDbSymbolTableRecord
100
AcDbBlockTableRecord
  2
_D
340
0
  0
BLOCK_RECORD
  5
24E
330
1
100
AcDbSymbolTableRecord
100
AcDbBlockTableRecord
  2
_D_1
340
0
  0
BLOCK_RECORD
  5
258
330
1
100
AcDbSymbolTableRecord
100
AcDbBlockTableRecord
  2
_D_2
340
0
  0
BLOCK_RECORD
  5
262
330
1
100
AcDbSymbolTableRecord
100
AcDbBlockTableRecord
  2
_D_3
340
0
  0
BLOCK_RECORD
  5
26C
330
1
100
AcDbSymbolTableRecord
100
AcDbBlockTableRecord
  2
_D_4
340
0
  0
BLOCK_RECORD
  5
2ED
330
1
100
AcDbSymbolTableRecord
100
AcDbBlockTableRecord
  2
SW_CENTERMARKSYMBOL_0
340
0
102
{BLKREFS
331
2F8
102
}
  0
ENDTAB
  0
ENDSEC
  0
SECTION
  2
BLOCKS
  0
BLOCK
  5
20
330
1F
100
AcDbEntity
  8
0
100
AcDbBlockBegin
  2
*Model_Space
 70
     0
 10
0.0
 20
0.0
 30
0.0
  3
*Model_Space
  1

  0
ENDBLK
  5
21
330
1F
100
AcDbEntity
  8
0
100
AcDbBlockEnd
  0
BLOCK
  5
1C
330
1B
100
AcDbEntity
 67
     1
  8
0
100
AcDbBlockBegin
  2
*Paper_Space
 70
     0
 10
0.0
 20
0.0
 30
0.0
  3
*Paper_Space
  1

  0
ENDBLK
  5
1D
330
1B
100
AcDbEntity
 67
     1
  8
0
100
AcDbBlockEnd
  0
BLOCK
  5
24
330
23
100
AcDbEntity
  8
0
100
AcDbBlockBegin
  2
*Paper_Space0
 70
     0
 10
0.0
 20
0.0
 30
0.0
  3
*Paper_Space0
  1

  0
ENDBLK
  5
25
330
23
100
AcDbEntity
  8
0
100
AcDbBlockEnd
  0
BLOCK
  5
246
330
245
100
AcDbEntity
  8
0
100
AcDbBlockBegin
  2
_D
 70
     0
 10
0.0
 20
0.0
 30
0.0
  3
_D
  1

  0
ARC
  5
248
330
245
100
AcDbEntity
  8
VERMASSUNG
100
AcDbCircle
 10
229.7607057118
 20
97.1351805457
 30
0.0
 40
12.19684400255295
100
AcDbArc
 50
176.9915310639
 51
270.0
  0
SOLID
  5
249
330
245
100
AcDbEntity
  8
VERMASSUNG
100
AcDbTrace
 10
217.5806715457
 20
97.7753143875
 30
0.0
 11
217.3357997363
 21
94.7516514108
 31
0.0
 12
218.2337147724
 22
94.8128771234
 32
0.0
 13
218.2337147724
 23
94.8128771234
 33
0.0
  0
SOLID
  5
24A
330
245
100
AcDbEntity
  8
VERMASSUNG
100
AcDbTrace
 10
229.7607057118
 20
84.9383365431
 30
0.0
 11
226.8366253501
 21
85.7459590034
 31
0.0
 12
226.7283582383
 22
84.8524948281
 32
0.0
 13
226.7283582383
 23
84.8524948281
 33
0.0
  0
MTEXT
  5
24B
330
245
100
AcDbEntity
  8
VERMASSUNG
100
AcDbMText
 10
220.7869787352
 20
92.6183474542
 30
0.1
 40
2.0
 41
0.0
 71
     1
 72
     1
  1
93°
  7
SLDTEXTSTYLE0
 11
0.6883009647236955
 21
-0.7254252421583013
 31
0.0
 73
     1
 44
1.0
  0
ENDBLK
  5
247
330
245
100
AcDbEntity
  8
0
100
AcDbBlockEnd
  0
BLOCK
  5
24F
330
24E
100
AcDbEntity
  8
0
100
AcDbBlockBegin
  2
_D_1
 70
     0
 10
0.0
 20
0.0
 30
0.0
  3
_D_1
  1

  0
SOLID
  5
251
330
24E
100
AcDbEntity
  8
VERMASSUNG
100
AcDbTrace
 10
172.7607057118
 20
79.3480790275
 30
0.0
 11
175.7607057118
 21
78.8980790275
 31
0.0
 12
175.7607057118
 22
79.7980790275
 32
0.0
 13
175.7607057118
 23
79.7980790275
 33
0.0
  0
SOLID
  5
252
330
24E
100
AcDbEntity
  8
VERMASSUNG
100
AcDbTrace
 10
229.7607057118
 20
79.3480790275
 30
0.0
 11
226.7607057118
 21
79.7980790275
 31
0.0
 12
226.7607057118
 22
78.8980790275
 32
0.0
 13
226.7607057118
 23
78.8980790275
 33
0.0
  0
LINE
  5
253
330
24E
100
AcDbEntity
  8
VERMASSUNG
100
AcDbLine
 10
172.7607057118
 20
104.4578332797
 30
0.0
 11
172.7607057118
 21
78.3480790275
 31
0.0
  0
LINE
  5
254
330
24E
100
AcDbEntity
  8
VERMASSUNG
100
AcDbLine
 10
229.7607057118
 20
84.0344177919
 30
0.0
 11
229.7607057118
 21
78.3480790275
 31
0.0
  0
LINE
  5
255
330
24E
100
AcDbEntity
  8
VERMASSUNG
100
AcDbLine
 10
172.7607057118
 20
79.3480790275
 30
0.0
 11
229.7607057118
 21
79.3480790275
 31
0.0
  0
MTEXT
  5
256
330
24E
100
AcDbEntity
  8
VERMASSUNG
100
AcDbMText
 10
198.9607056608
 20
81.9262143907
 30
0.1
 40
2.0
 41
0.0
 71
     1
 72
     1
  1
57
  7
SLDTEXTSTYLE0
 73
     1
 44
1.0
  0
ENDBLK
  5
250
330
24E
100
AcDbEntity
  8
0
100
AcDbBlockEnd
  0
BLOCK
  5
259
330
258
100
AcDbEntity
  8
0
100
AcDbBlockBegin
  2
_D_2
 70
     0
 10
0.0
 20
0.0
 30
0.0
  3
_D_2
  1

  0
SOLID
  5
25B
330
258
100
AcDbEntity
  8
VERMASSUNG
100
AcDbTrace
 10
152.8607057118
 20
72.4991317068
 30
0.0
 11
155.8607057118
 21
72.0491317068
 31
0.0
 12
155.8607057118
 22
72.9491317068
 32
0.0
 13
155.8607057118
 23
72.9491317068
 33
0.0
  0
SOLID
  5
25C
330
258
100
AcDbEntity
  8
VERMASSUNG
100
AcDbTrace
 10
229.7607057118
 20
72.4991317068
 30
0.0
 11
226.7607057118
 21
72.9491317068
 31
0.0
 12
226.7607057118
 22
72.0491317068
 32
0.0
 13
226.7607057118
 23
72.0491317068
 33
0.0
  0
LINE
  5
25D
330
258
100
AcDbEntity
  8
VERMASSUNG
100
AcDbLine
 10
152.8607057118
 20
112.2868332797
 30
0.0
 11
152.8607057118
 21
71.4991317068
 31
0.0
  0
LINE
  5
25E
330
258
100
AcDbEntity
  8
VERMASSUNG
100
AcDbLine
 10
229.7607057118
 20
84.0344177919
 30
0.0
 11
229.7607057118
 21
71.4991317068
 31
0.0
  0
LINE
  5
25F
330
258
100
AcDbEntity
  8
VERMASSUNG
100
AcDbLine
 10
152.8607057118
 20
72.4991317068
 30
0.0
 11
229.7607057118
 21
72.4991317068
 31
0.0
  0
MTEXT
  5
260
330
258
100
AcDbEntity
  8
VERMASSUNG
100
AcDbMText
 10
188.0107054968
 20
75.0772670699
 30
0.1
 40
2.0
 41
0.0
 71
     1
 72
     1
  1
76.9
  7
SLDTEXTSTYLE0
 73
     1
 44
1.0
  0
ENDBLK
  5
25A
330
258
100
AcDbEntity
  8
0
100
AcDbBlockEnd
  0
BLOCK
  5
263
330
262
100
AcDbEntity
  8
0
100
AcDbBlockBegin
  2
_D_3
 70
     0
 10
0.0
 20
0.0
 30
0.0
  3
_D_3
  1

  0
SOLID
  5
265
330
262
100
AcDbEntity
  8
VERMASSUNG
100
AcDbTrace
 10
240.8782009705
 20
97.1578332797
 30
0.0
 11
241.3282009705
 21
100.1578332797
 31
0.0
 12
240.4282009705
 22
100.1578332797
 32
0.0
 13
240.4282009705
 23
100.1578332797
 33
0.0
  0
SOLID
  5
266
330
262
100
AcDbEntity
  8
VERMASSUNG
100
AcDbTrace
 10
240.8782009705
 20
124.1578332797
 30
0.0
 11
240.4282009705
 21
121.1578332797
 31
0.0
 12
241.3282009705
 22
121.1578332797
 32
0.0
 13
241.3282009705
 23
121.1578332797
 33
0.0
  0
LINE
  5
267
330
262
100
AcDbEntity
  8
VERMASSUNG
100
AcDbLine
 10
229.7607057118
 20
97.1578332797
 30
0.0
 11
241.8782009705
 21
97.1578332797
 31
0.0
  0
LINE
  5
268
330
262
100
AcDbEntity
  8
VERMASSUNG
100
AcDbLine
 10
229.7607057118
 20
124.1578332797
 30
0.0
 11
241.8782009705
 21
124.1578332797
 31
0.0
  0
LINE
  5
269
330
262
100
AcDbEntity
  8
VERMASSUNG
100
AcDbLine
 10
240.8782009705
 20
97.1578332797
 30
0.0
 11
240.8782009705
 21
124.1578332797
 31
0.0
  0
MTEXT
  5
26A
330
262
100
AcDbEntity
  8
VERMASSUNG
100
AcDbMText
 10
238.3000656074
 20
108.3578332287
 30
0.1
 40
2.0
 41
0.0
 71
     1
 72
     1
  1
27
  7
SLDTEXTSTYLE0
 11
6.123233995736766E-17
 21
1.0
 31
0.0
 73
     1
 44
1.0
  0
ENDBLK
  5
264
330
262
100
AcDbEntity
  8
0
100
AcDbBlockEnd
  0
BLOCK
  5
26D
330
26C
100
AcDbEntity
  8
0
100
AcDbBlockBegin
  2
_D_4
 70
     0
 10
0.0
 20
0.0
 30
0.0
  3
_D_4
  1

  0
SOLID
  5
26F
330
26C
100
AcDbEntity
  8
VERMASSUNG
100
AcDbTrace
 10
144.6319948745
 20
104.1578332797
 30
0.0
 11
145.0819948745
 21
107.1578332797
 31
0.0
 12
144.1819948745
 22
107.1578332797
 32
0.0
 13
144.1819948745
 23
107.1578332797
 33
0.0
  0
SOLID
  5
270
330
26C
100
AcDbEntity
  8
VERMASSUNG
100
AcDbTrace
 10
144.6319948745
 20
144.1578332797
 30
0.0
 11
144.1819948745
 21
141.1578332797
 31
0.0
 12
145.0819948745
 22
141.1578332797
 32
0.0
 13
145.0819948745
 23
141.1578332797
 33
0.0
  0
LINE
  5
271
330
26C
100
AcDbEntity
  8
VERMASSUNG
100
AcDbLine
 10
173.0607057118
 20
104.1578332797
 30
0.0
 11
143.6319948745
 21
104.1578332797
 31
0.0
  0
LINE
  5
272
330
26C
100
AcDbEntity
  8
VERMASSUNG
100
AcDbLine
 10
173.0607057118
 20
144.1578332797
 30
0.0
 11
143.6319948745
 21
144.1578332797
 31
0.0
  0
LINE
  5
273
330
26C
100
AcDbEntity
  8
VERMASSUNG
100
AcDbLine
 10
144.6319948745
 20
104.1578332797
 30
0.0
 11
144.6319948745
 21
144.1578332797
 31
0.0
  0
MTEXT
  5
274
330
26C
100
AcDbEntity
  8
VERMASSUNG
100
AcDbMText
 10
141.8538593854
 20
116.1528326288
 30
0.1
 40
2.0
 41
0.0
 71
     1
 72
     1
  1
HSK T
  7
SLDTEXTSTYLE0
 11
6.123233995736766E-17
 21
1.0
 31
0.0
 73
     1
 44
1.0
  0
MTEXT
  5
275
330
26C
100
AcDbEntity
  8
VERMASSUNG
100
AcDbMText
 10
142.0538593949
 20
123.752832757
 30
0.1
 40
2.0
 41
0.0
 71
     1
 72
     1
  1
%%c
  7
SLDTEXTSTYLE0
 11
6.123233995736766E-17
 21
1.0
 31
0.0
 73
     1
 44
1.0
  0
MTEXT
  5
276
330
26C
100
AcDbEntity
  8
VERMASSUNG
100
AcDbMText
 10
141.8538593854
 20
127.3628327713
 30
0.1
 40
2.0
 41
0.0
 71
     1
 72
     1
  1
40
  7
SLDTEXTSTYLE0
 11
6.123233995736766E-17
 21
1.0
 31
0.0
 73
     1
 44
1.0
  0
ENDBLK
  5
26E
330
26C
100
AcDbEntity
  8
0
100
AcDbBlockEnd
  0
BLOCK
  5
2EE
330
2ED
100
AcDbEntity
  8
0
100
AcDbBlockBegin
  2
SW_CENTERMARKSYMBOL_0
 70
     0
 10
0.0
 20
0.0
 30
0.0
  3
SW_CENTERMARKSYMBOL_0
  1

  0
LINE
  5
2F0
330
2ED
100
AcDbEntity
  8
VERMASSUNG
 62
     0
100
AcDbLine
 10
0.0
 20
0.0
 30
0.0
 11
0.0
 21
2.5
 31
0.0
  0
LINE
  5
2F1
330
2ED
100
AcDbEntity
  8
VERMASSUNG
 62
     0
100
AcDbLine
 10
0.0
 20
0.0
 30
0.0
 11
-2.5
 21
0.0
 31
0.0
  0
LINE
  5
2F2
330
2ED
100
AcDbEntity
  8
VERMASSUNG
 62
     0
100
AcDbLine
 10
0.0
 20
0.0
 30
0.0
 11
0.0
 21
-2.5
 31
0.0
  0
LINE
  5
2F3
330
2ED
100
AcDbEntity
  8
VERMASSUNG
 62
     0
100
AcDbLine
 10
0.0
 20
0.0
 30
0.0
 11
2.5
 21
0.0
 31
0.0
  0
LINE
  5
2F4
330
2ED
100
AcDbEntity
  8
VERMASSUNG
 62
     0
100
AcDbLine
 10
0.0
 20
5.0
 30
0.0
 11
0.0
 21
22.5
 31
0.0
  0
LINE
  5
2F5
330
2ED
100
AcDbEntity
  8
VERMASSUNG
 62
     0
100
AcDbLine
 10
-5.0
 20
0.0
 30
0.0
 11
-22.5
 21
0.0
 31
0.0
  0
LINE
  5
2F6
330
2ED
100
AcDbEntity
  8
VERMASSUNG
 62
     0
100
AcDbLine
 10
0.0
 20
-5.0
 30
0.0
 11
0.0
 21
-29.8780901007
 31
0.0
  0
LINE
  5
2F7
330
2ED
100
AcDbEntity
  8
VERMASSUNG
 62
     0
100
AcDbLine
 10
5.0
 20
0.0
 30
0.0
 11
22.5
 21
0.0
 31
0.0
  0
ENDBLK
  5
2EF
330
2ED
100
AcDbEntity
  8
0
100
AcDbBlockEnd
  0
ENDSEC
  0
SECTION
  2
ENTITIES
  0
MTEXT
  5
49
330
1F
100
AcDbEntity
  8
KOPF_DÜNN
100
AcDbMText
 10
13.8892156294
 20
23.8442973028
 30
0.0
 40
3.0
 41
0.0
 71
     1
 72
     1
  1
HA4.PDF.LJA.055
  7
SLDTEXTSTYLE0
 73
     1
 44
1.0
  0
MTEXT
  5
4A
330
1F
100
AcDbEntity
  8
VERMASSUNG
100
AcDbMText
 10
13.9329988022
 20
28.8834360957
 30
0.0
 40
3.0
 41
0.0
 71
     1
 72
     1
  1
Klemmhalter links_Turning tool left 55° /93°
  7
SLDTEXTSTYLE0
 73
     1
 44
1.0
  0
MTEXT
  5
4B
330
1F
100
AcDbEntity
  8
VERMASSUNG
100
AcDbMText
 10
98.8601118557
 20
13.8365368179
 30
0.0
 40
2.0
 41
0.0
 71
     1
 72
     1
  1
Datum: 15.06.2012
  7
SLDTEXTSTYLE0
 73
     1
 44
1.0
  0
MTEXT
  5
4D
330
1F
100
AcDbEntity
  8
VERMASSUNG
100
AcDbMText
 10
13.933048693
 20
18.0482802738
 30
0.0
 40
2.0
 41
0.0
 71
     1
 72
     1
  1
DIN 69893 HSK T 40  / DN.. 15 06..
  7
SLDTEXTSTYLE1
 73
     1
 44
1.0
  0
MTEXT
  5
4E
330
1F
100
AcDbEntity
  8
VERMASSUNG
100
AcDbMText
 10
13.9808475933
 20
13.9090973692
 30
0.0
 40
2.0
 41
0.0
 71
     1
 72
     1
  1
Gewicht: 321g
  7
SLDTEXTSTYLE0
 73
     1
 44
1.0
  0
LINE
  5
4F
330
1F
100
AcDbEntity
  8
0
  6
Continuous
 62
     7
370
    15
100
AcDbLine
 10
222.1405685859
 20
110.1125102886
 30
0.0
 11
221.547779553
 21
110.6171610867
 31
0.0
  0
LINE
  5
50
330
1F
100
AcDbEntity
  8
0
  6
Continuous
 62
     7
370
    15
100
AcDbLine
 10
214.2811335391
 20
98.3775566295
 30
0.0
 11
214.7172869941
 21
98.0062522077
 31
0.0
  0
LINE
  5
51
330
1F
100
AcDbEntity
  8
0
  6
Continuous
 62
     7
370
    15
100
AcDbLine
 10
216.2938887325
 20
103.1038941218
 30
0.0
 11
216.9382810929
 21
102.7469123623
 31
0.0
  0
ARC
  5
52
330
1F
100
AcDbEntity
  8
0
  6
Continuous
 62
     7
370
    15
100
AcDbCircle
 10
173.0607057118
 20
104.4578332797
 30
0.0
 40
0.3000000000000114
100
AcDbArc
 50
180.0
 51
270.0
  0
ARC
  5
53
330
1F
100
AcDbEntity
  8
0
  6
Continuous
 62
     7
370
    15
100
AcDbCircle
 10
173.0607057118
 20
143.8578332797
 30
0.0
 40
0.3000000000000114
100
AcDbArc
 50
90.0
 51
180.0
  0
LINE
  5
54
330
1F
100
AcDbEntity
  8
0
  6
Continuous
 62
     7
370
    15
100
AcDbLine
 10
173.0607057118
 20
104.1578332797
 30
0.0
 11
180.7107057118
 21
104.1578332797
 31
0.0
  0
LINE
  5
55
330
1F
100
AcDbEntity
  8
0
  6
Continuous
 62
     7
370
    15
100
AcDbLine
 10
180.7134358474
 20
144.1578332797
 30
0.0
 11
173.0607057118
 21
144.1578332797
 31
0.0
  0
ARC
  5
56
330
1F
100
AcDbEntity
  8
0
  6
Continuous
 62
     7
370
    15
100
AcDbCircle
 10
193.7107057118
 20
106.6578332797
 30
0.0
 40
1.000000000000002
100
AcDbArc
 50
90.0
 51
143.1142427467
  0
ARC
  5
57
330
1F
100
AcDbEntity
  8
0
  6
Continuous
 62
     7
370
    15
100
AcDbCircle
 10
193.7107057118
 20
141.6578332797
 30
0.0
 40
1.0
100
AcDbArc
 50
216.8994515981
 51
270.0
  0
LINE
  5
58
330
1F
100
AcDbEntity
  8
0
  6
Continuous
 62
     7
370
    15
100
AcDbLine
 10
205.6226029117
 20
140.6578332797
 30
0.0
 11
193.7107057118
 21
140.6578332797
 31
0.0
  0
LINE
  5
59
330
1F
100
AcDbEntity
  8
0
  6
Continuous
 62
     7
370
    15
100
AcDbLine
 10
193.7107057118
 20
107.6578332797
 30
0.0
 11
206.9933787238
 21
107.6578332797
 31
0.0
  0
ARC
  5
5A
330
1F
100
AcDbEntity
  8
0
  6
Continuous
 62
     7
370
    15
100
AcDbCircle
 10
172.2606989591
 20
108.7041261262
 30
0.0
 40
0.6000067526677203
100
AcDbArc
 50
33.5571153394
 51
90.0
  0
ARC
  5
5B
330
1F
100
AcDbEntity
  8
0
  6
Continuous
 62
     7
370
    15
100
AcDbCircle
 10
172.2606989591
 20
139.6115404332
 30
0.0
 40
0.6000067526677125
100
AcDbArc
 50
270.0
 51
326.4428846606
  0
LINE
  5
5C
330
1F
100
AcDbEntity
  8
0
  6
Continuous
 62
     7
370
    15
100
AcDbLine
 10
170.7607057118
 20
109.0541328789
 30
0.0
 11
171.6174176265
 21
109.2836881446
 31
0.0
  0
LINE
  5
5D
330
1F
100
AcDbEntity
  8
0
  6
Continuous
 62
     7
370
    15
100
AcDbLine
 10
171.6174176265
 20
139.0319784148
 30
0.0
 11
170.7607057118
 21
139.2615336805
 31
0.0
  0
LINE
  5
5E
330
1F
100
AcDbEntity
  8
0
  6
Continuous
 62
     7
370
    15
100
AcDbLine
 10
163.9447729907
 20
138.9200540853
 30
0.0
 11
156.4607057118
 21
138.5451008148
 31
0.0
  0
LINE
  5
5F
330
1F
100
AcDbEntity
  8
0
  6
Continuous
 62
     7
370
    15
100
AcDbLine
 10
170.7607057118
 20
139.2615336805
 30
0.0
 11
169.5259729692
 21
139.1996733227
 31
0.0
  0
LINE
  5
60
330
1F
100
AcDbEntity
  8
0
  6
Continuous
 62
     7
370
    15
100
AcDbLine
 10
169.5269691704
 20
109.1159433269
 30
0.0
 11
170.7607057118
 21
109.0541328789
 31
0.0
  0
LINE
  5
61
330
1F
100
AcDbEntity
  8
0
  6
Continuous
 62
     7
370
    15
100
AcDbLine
 10
158.9607057118
 20
109.6453152436
 30
0.0
 11
163.9452351513
 21
109.3955893198
 31
0.0
  0
ARC
  5
62
330
1F
100
AcDbEntity
  8
0
  6
Continuous
 62
     7
370
    15
100
AcDbCircle
 10
171.7727108012
 20
108.7041261262
 30
0.0
 40
0.6000067526677033
100
AcDbArc
 50
90.0
 51
105.0
  0
ARC
  5
63
330
1F
100
AcDbEntity
  8
0
  6
Continuous
 62
     7
370
    15
100
AcDbCircle
 10
171.7727108012
 20
139.6115404332
 30
0.0
 40
0.6000067526677242
100
AcDbArc
 50
255.0
 51
270.0
  0
LINE
  5
64
330
1F
100
AcDbEntity
  8
0
  6
Continuous
 62
     7
370
    15
100
AcDbLine
 10
171.7727108012
 20
109.3041328789
 30
0.0
 11
172.2606989591
 21
109.3041328789
 31
0.0
  0
LINE
  5
65
330
1F
100
AcDbEntity
  8
0
  6
Continuous
 62
     7
370
    15
100
AcDbLine
 10
172.2606989591
 20
139.0115336805
 30
0.0
 11
171.7727108012
 21
139.0115336805
 31
0.0
  0
ARC
  5
66
330
1F
100
AcDbEntity
  8
0
  6
Continuous
 62
     7
370
    15
100
AcDbCircle
 10
155.5607057118
 20
137.9378332797
 30
0.0
 40
0.9000000000000057
100
AcDbArc
 50
270.0
 51
311.221922679
  0
ARC
  5
67
330
1F
100
AcDbEntity
  8
0
  6
Continuous
 62
     7
370
    15
100
AcDbCircle
 10
158.0607057118
 20
110.3778332797
 30
0.0
 40
0.9000000000000057
100
AcDbArc
 50
34.3244016068
 51
90.0
  0
LINE
  5
68
330
1F
100
AcDbEntity
  8
0
  6
Continuous
 62
     7
370
    15
100
AcDbLine
 10
153.8107057118
 20
137.0378332797
 30
0.0
 11
152.8607057118
 21
136.0878332797
 31
0.0
  0
LINE
  5
69
330
1F
100
AcDbEntity
  8
0
  6
Continuous
 62
     7
370
    15
100
AcDbLine
 10
155.5607057118
 20
137.0378332797
 30
0.0
 11
153.8107057118
 21
137.0378332797
 31
0.0
  0
LINE
  5
6A
330
1F
100
AcDbEntity
  8
0
  6
Continuous
 62
     7
370
    15
100
AcDbLine
 10
153.8697057118
 20
111.2778332797
 30
0.0
 11
158.0607057118
 21
111.2778332797
 31
0.0
  0
LINE
  5
6B
330
1F
100
AcDbEntity
  8
0
  6
Continuous
 62
     7
370
    15
100
AcDbLine
 10
152.8607057118
 20
112.2868332797
 30
0.0
 11
153.8697057118
 21
111.2778332797
 31
0.0
  0
ARC
  5
6C
330
1F
100
AcDbEntity
  8
0
  6
Continuous
 62
     7
370
    15
100
AcDbCircle
 10
206.9933787238
 20
106.6578332797
 30
0.0
 40
1.0
100
AcDbArc
 50
15.0
 51
90.0
  0
LINE
  5
6D
330
1F
100
AcDbEntity
  8
0
  6
Continuous
 62
     7
370
    15
100
AcDbLine
 10
207.9593045501
 20
106.9166523248
 30
0.0
 11
210.1305353117
 21
98.8135088076
 31
0.0
  0
LINE
  5
6E
330
1F
100
AcDbEntity
  8
0
  6
Continuous
 62
     7
370
    15
100
AcDbLine
 10
207.1535918707
 20
110.3533015015
 30
0.0
 11
214.637221224
 21
98.1000062319
 31
0.0
  0
ARC
  5
6F
330
1F
100
AcDbEntity
  8
0
  6
Continuous
 62
     7
370
    15
100
AcDbCircle
 10
207.498291828
 20
110.5600145016
 30
0.0
 40
0.4019307464911532
100
AcDbArc
 50
87.0746497102
 51
210.9506803387
  0
LINE
  5
70
330
1F
100
AcDbEntity
  8
0
  6
Continuous
 62
     7
370
    15
100
AcDbLine
 10
221.9071312449
 20
110.2052286104
 30
0.0
 11
207.5188042891
 21
110.961421482
 31
0.0
  0
ARC
  5
71
330
1F
100
AcDbEntity
  8
0
  6
Continuous
 62
     7
370
    15
100
AcDbCircle
 10
221.8871913817
 20
109.8149333257
 30
0.0
 40
0.3908043083390226
100
AcDbArc
 50
31.4360998394
 51
87.0753488017
  0
LINE
  5
72
330
1F
100
AcDbEntity
  8
0
  6
Continuous
 62
     7
370
    15
100
AcDbLine
 10
229.7042637093
 20
97.7654609948
 30
0.0
 11
222.220634356
 21
110.0187562644
 31
0.0
  0
ARC
  5
73
330
1F
100
AcDbEntity
  8
0
  6
Continuous
 62
     7
370
    15
100
AcDbCircle
 10
229.359563752
 20
97.5587479947
 30
0.0
 40
0.4019307464911435
100
AcDbArc
 50
267.0746497102
 51
30.9506803387
  0
LINE
  5
74
330
1F
100
AcDbEntity
  8
0
  6
Continuous
 62
     7
370
    15
100
AcDbLine
 10
214.9507243351
 20
97.9135338858
 30
0.0
 11
229.3390512909
 21
97.1573410143
 31
0.0
  0
ARC
  5
75
330
1F
100
AcDbEntity
  8
0
  6
Continuous
 62
     7
370
    15
100
AcDbCircle
 10
214.9706641983
 20
98.3038291706
 30
0.0
 40
0.3908043083391901
100
AcDbArc
 50
211.4360998394
 51
267.0753488017
  0
ARC
  5
76
330
1F
100
AcDbEntity
  8
0
  6
Continuous
 62
     7
370
    15
100
AcDbCircle
 10
229.3598308616
 20
97.5585424538
 30
0.0
 40
0.3818342091665867
100
AcDbArc
 50
267.0746497102
 51
30.9506803387
  0
LINE
  5
77
330
1F
100
AcDbEntity
  8
0
  6
Continuous
 62
     7
370
    15
100
AcDbLine
 10
229.6872958211
 20
97.7549198039
 30
0.0
 11
222.2036664675
 21
110.0082150734
 31
0.0
  0
ARC
  5
78
330
1F
100
AcDbEntity
  8
0
  6
Continuous
 62
     7
370
    15
100
AcDbCircle
 10
221.8868956412
 20
109.8145832806
 30
0.0
 40
0.3712640940834812
100
AcDbArc
 50
31.4360999056
 51
87.0753486504
  0
LINE
  5
79
330
1F
100
AcDbEntity
  8
0
  6
Continuous
 62
     7
370
    15
100
AcDbLine
 10
221.9058385123
 20
110.1853638022
 30
0.0
 11
207.5175115564
 21
110.9415566738
 31
0.0
  0
ARC
  5
7A
330
1F
100
AcDbEntity
  8
0
  6
Continuous
 62
     7
370
    15
100
AcDbCircle
 10
207.4980247184
 20
110.5602200424
 30
0.0
 40
0.3818342091665881
100
AcDbArc
 50
87.0746497102
 51
210.9506803387
  0
LINE
  5
7B
330
1F
100
AcDbEntity
  8
0
  6
Continuous
 62
     7
370
    15
100
AcDbLine
 10
207.170559759
 20
110.3638426923
 30
0.0
 11
214.6541891123
 21
98.1105474227
 31
0.0
  0
ARC
  5
7C
330
1F
100
AcDbEntity
  8
0
  6
Continuous
 62
     7
370
    15
100
AcDbCircle
 10
214.9709599378
 20
98.3041792145
 30
0.0
 40
0.3712640929221727
100
AcDbArc
 50
211.4360998394
 51
267.0753488017
  0
LINE
  5
7D
330
1F
100
AcDbEntity
  8
0
  6
Continuous
 62
     7
370
    15
100
AcDbLine
 10
214.9520170678
 20
97.933398694
 30
0.0
 11
229.3403440236
 21
97.1772058224
 31
0.0
  0
ARC
  5
7E
330
1F
100
AcDbEntity
  8
0
  6
Continuous
 62
     7
370
    15
100
AcDbCircle
 10
206.7248652527
 20
111.2189132715
 30
0.0
 40
0.4018178940266778
100
AcDbArc
 50
87.137183918
 51
135.9381967289
  0
LINE
  5
7F
330
1F
100
AcDbEntity
  8
0
  6
Continuous
 62
     7
370
    15
100
AcDbLine
 10
207.4662123421
 20
110.5868872047
 30
0.0
 11
207.170559759
 21
110.3638426923
 31
0.0
  0
LINE
  5
80
330
1F
100
AcDbEntity
  8
0
  6
Continuous
 62
     7
370
    15
100
AcDbLine
 10
207.4662123421
 20
110.5868872047
 30
0.0
 11
207.5175115564
 21
110.9415566738
 31
0.0
  0
LINE
  5
81
330
1F
100
AcDbEntity
  8
0
  6
Continuous
 62
     7
370
    15
100
AcDbLine
 10
214.9498416955
 20
98.3335919351
 30
0.0
 11
214.6541891123
 21
98.1105474227
 31
0.0
  0
LINE
  5
82
330
1F
100
AcDbEntity
  8
0
  6
Continuous
 62
     7
370
    15
100
AcDbLine
 10
209.2438010744
 20
109.5477239326
 30
0.0
 11
207.4662123421
 21
110.5868872047
 31
0.0
  0
LINE
  5
83
330
1F
100
AcDbEntity
  8
0
  6
Continuous
 62
     7
370
    15
100
AcDbLine
 10
209.2438010744
 20
109.5477239326
 30
0.0
 11
209.591641557
 21
108.9781884921
 31
0.0
  0
LINE
  5
84
330
1F
100
AcDbEntity
  8
0
  6
Continuous
 62
     7
370
    15
100
AcDbLine
 10
215.1701769568
 20
98.7769901406
 30
0.0
 11
214.9498416955
 21
98.3335919351
 31
0.0
  0
LINE
  5
85
330
1F
100
AcDbEntity
  8
0
  6
Continuous
 62
     7
370
    15
100
AcDbLine
 10
216.7514534088
 20
111.0943270806
 30
0.0
 11
216.0667649666
 21
111.1303115645
 31
0.0
  0
LINE
  5
86
330
1F
100
AcDbEntity
  8
0
  6
Continuous
 62
     7
370
    15
100
AcDbLine
 10
211.0621205393
 20
111.3933356431
 30
0.0
 11
206.7449339585
 21
111.6202296891
 31
0.0
  0
LINE
  5
87
330
1F
100
AcDbEntity
  8
0
  6
Continuous
 62
     7
370
    15
100
AcDbLine
 10
221.8545392979
 20
109.8306943332
 30
0.0
 11
221.9058385123
 21
110.1853638022
 31
0.0
  0
LINE
  5
88
330
1F
100
AcDbEntity
  8
0
  6
Continuous
 62
     7
370
    15
100
AcDbLine
 10
221.5733916131
 20
109.4390667178
 30
0.0
 11
221.8545392979
 21
109.8306943332
 31
0.0
  0
LINE
  5
89
330
1F
100
AcDbEntity
  8
0
  6
Continuous
 62
     7
370
    15
100
AcDbLine
 10
209.9125731843
 20
109.5125759474
 30
0.0
 11
209.2438010744
 21
109.5477239326
 31
0.0
  0
ARC
  5
8A
330
1F
100
AcDbEntity
  8
0
  6
Continuous
 62
     7
370
    15
100
AcDbCircle
 10
212.321811464
 20
107.6895744162
 30
0.0
 40
1.004826866227832
100
AcDbArc
 50
87.0746497102
 51
210.9506803387
  0
LINE
  5
8B
330
1F
100
AcDbEntity
  8
0
  6
Continuous
 62
     7
370
    15
100
AcDbLine
 10
210.1869022124
 20
108.9881160175
 30
0.0
 11
210.1857068275
 21
108.9861255665
 31
0.0
  0
SPLINE
  5
8C
330
1F
100
AcDbEntity
  8
0
  6
Continuous
 62
     7
370
    15
100
AcDbSpline
210
0.0
220
0.0
230
1.0
 70
     8
 71
     3
 72
    14
 73
    10
 74
     0
 42
0.00000001
 43
0.00000001
 12
1.0
 22
0.0
 32
0.0
 13
1.0
 23
0.0
 33
0.0
 40
0.0
 40
0.0
 40
0.0
 40
0.0
 40
0.2210591904779639
 40
0.3460797326519255
 40
0.4396016244131535
 40
0.5338897453199836
 40
0.6146561933587593
 40
0.7517253237593944
 40
1.0
 40
1.0
 40
1.0
 40
1.0
 10
210.1869022123786
 20
108.9881160175407
 30
0.0
 10
210.2157185811576
 20
109.0397145507292
 30
0.0
 10
210.2608321146935
 20
109.1204947550377
 30
0.0
 10
210.288919077172
 20
109.2353026375685
 30
0.0
 10
210.2846005242157
 20
109.3194051586535
 30
0.0
 10
210.2534280674499
 20
109.3852460997184
 30
0.0
 10
210.1932269132587
 20
109.4425322873102
 30
0.0
 10
210.0801943560663
 20
109.496043903689
 30
0.0
 10
209.9782532319589
 20
109.5060980937592
 30
0.0
 10
209.912573184305
 20
109.5125759474097
 30
0.0
  0
SPLINE
  5
8D
330
1F
100
AcDbEntity
  8
0
  6
Continuous
 62
     7
370
    15
100
AcDbSpline
210
0.0
220
0.0
230
1.0
 70
     8
 71
     3
 72
    14
 73
    10
 74
     0
 42
0.00000001
 43
0.00000001
 12
1.0
 22
0.0
 32
0.0
 13
1.0
 23
0.0
 33
0.0
 40
0.0
 40
0.0
 40
0.0
 40
0.0
 40
0.2234968253973659
 40
0.3567622963774694
 40
0.45312125623414
 40
0.5344619041500421
 40
0.6157317558035375
 40
0.7396161778922139
 40
1.0
 40
1.0
 40
1.0
 40
1.0
 10
209.5916415570365
 20
108.9781884920992
 30
0.0
 10
209.6246147456726
 20
108.9291315524227
 30
0.0
 10
209.6772490078182
 20
108.8508232076795
 30
0.0
 10
209.770840276657
 20
108.7745225795977
 30
0.0
 10
209.847794249407
 20
108.7429293306924
 30
0.0
 10
209.9176220048573
 20
108.7405099179344
 30
0.0
 10
209.9910754304472
 20
108.7645152649068
 30
0.0
 10
210.0917314404243
 20
108.8407716826167
 30
0.0
 10
210.1477488781446
 20
108.9274151367421
 30
0.0
 10
210.185706827464
 20
108.9861255664653
 30
0.0
  0
LINE
  5
8E
330
1F
100
AcDbEntity
  8
0
  6
Continuous
 62
     7
370
    15
100
AcDbLine
 10
211.4600615707
 20
107.172791916
 30
0.0
 11
215.6483785029
 21
100.3150653197
 31
0.0
  0
LINE
  5
8F
330
1F
100
AcDbEntity
  8
0
  6
Continuous
 62
     7
370
    15
100
AcDbLine
 10
220.4257192995
 20
108.2698780416
 30
0.0
 11
212.3730926167
 21
108.6930918672
 31
0.0
  0
ARC
  5
90
330
1F
100
AcDbEntity
  8
0
  6
Continuous
 62
     7
370
    15
100
AcDbCircle
 10
220.3758696415
 20
107.2941398298
 30
0.0
 40
0.977010770847746
100
AcDbArc
 50
31.4360998394
 51
87.0753488017
  0
LINE
  5
91
330
1F
100
AcDbEntity
  8
0
  6
Continuous
 62
     7
370
    15
100
AcDbLine
 10
225.3977940093
 20
100.9459705803
 30
0.0
 11
221.2094770771
 21
107.8036971765
 31
0.0
  0
ARC
  5
92
330
1F
100
AcDbEntity
  8
0
  6
Continuous
 62
     7
370
    15
100
AcDbCircle
 10
224.5360441163
 20
100.4291880797
 30
0.0
 40
1.004826866207897
100
AcDbArc
 50
267.074649696
 51
30.9506803599
  0
LINE
  5
93
330
1F
100
AcDbEntity
  8
0
  6
Continuous
 62
     7
370
    15
100
AcDbLine
 10
216.4321362805
 20
99.8488844546
 30
0.0
 11
224.4847629633
 21
99.4256706287
 31
0.0
  0
ARC
  5
94
330
1F
100
AcDbEntity
  8
0
  6
Continuous
 62
     7
370
    15
100
AcDbCircle
 10
216.4819859386
 20
100.8246226664
 30
0.0
 40
0.9770107708477137
100
AcDbArc
 50
211.4360998394
 51
267.0753488017
  0
CIRCLE
  5
95
330
1F
100
AcDbEntity
  8
0
  6
Continuous
 62
     7
370
    15
100
AcDbCircle
 10
218.3979746911
 20
104.0518641698
 30
0.0
 40
2.558650000035823
  0
ARC
  5
96
330
1F
100
AcDbEntity
  8
0
  6
Continuous
 62
     7
370
    15
100
AcDbCircle
 10
217.6178460838
 20
104.7438053093
 30
0.0
 40
2.591416419569361
100
AcDbArc
 50
267.1344516908
 51
315.7139869475
  0
ARC
  5
97
330
1F
100
AcDbEntity
  8
0
  6
Continuous
 62
     7
370
    15
100
AcDbCircle
 10
217.6193619257
 20
104.6819474452
 30
0.0
 40
2.529715877077245
100
AcDbArc
 50
241.9979533775
 51
267.030121516
  0
LINE
  5
98
330
1F
100
AcDbEntity
  8
0
  6
Continuous
 62
     7
370
    15
100
AcDbLine
 10
221.8545392979
 20
109.8306943332
 30
0.0
 11
222.2036664675
 21
110.0082150734
 31
0.0
  0
LINE
  5
99
330
1F
100
AcDbEntity
  8
0
  6
Continuous
 62
     7
370
    15
100
AcDbLine
 10
229.3381686513
 20
97.5773990636
 30
0.0
 11
229.6872958211
 21
97.7549198039
 31
0.0
  0
LINE
  5
9A
330
1F
100
AcDbEntity
  8
0
  6
Continuous
 62
     7
370
    15
100
AcDbLine
 10
227.4190635561
 20
98.737037482
 30
0.0
 11
229.3381686513
 21
97.5773990636
 31
0.0
  0
LINE
  5
9B
330
1F
100
AcDbEntity
  8
0
  6
Continuous
 62
     7
370
    15
100
AcDbLine
 10
227.4190635561
 20
98.737037482
 30
0.0
 11
227.0712230735
 21
99.3065729224
 31
0.0
  0
SPLINE
  5
9C
330
1F
100
AcDbEntity
  8
0
  6
Continuous
 62
     7
370
    15
100
AcDbSpline
210
0.0
220
0.0
230
1.0
 70
     8
 71
     3
 72
    11
 73
     7
 74
     0
 42
0.00000001
 43
0.00000001
 12
1.0
 22
0.0
 32
0.0
 13
1.0
 23
0.0
 33
0.0
 40
0.0
 40
0.0
 40
0.0
 40
0.0
 40
0.3280455501580029
 40
0.6557028173711966
 40
0.9906967996087722
 40
1.0
 40
1.0
 40
1.0
 40
1.0
 10
221.5733916131049
 20
109.4390667177911
 30
0.0
 10
221.5315421349495
 20
109.378299843839
 30
0.0
 10
221.4478927127313
 20
109.2568380211318
 30
0.0
 10
221.3232895918611
 20
109.0455063517414
 30
0.0
 10
221.2506641072513
 20
108.9071976765137
 30
0.0
 10
221.2186224755035
 20
108.8411729616735
 30
0.0
 10
221.2177566835771
 20
108.8393889181671
 30
0.0
  0
SPLINE
  5
9D
330
1F
100
AcDbEntity
  8
0
  6
Continuous
 62
     7
370
    15
100
AcDbSpline
210
0.0
220
0.0
230
1.0
 70
     8
 71
     3
 72
    11
 73
     7
 74
     0
 42
0.00000001
 43
0.00000001
 12
1.0
 22
0.0
 32
0.0
 13
1.0
 23
0.0
 33
0.0
 40
0.0
 40
0.0
 40
0.0
 40
0.0
 40
0.3280455501580014
 40
0.6557028173711972
 40
0.9906967996087717
 40
0.9999999999999999
 40
0.9999999999999999
 40
0.9999999999999999
 40
0.9999999999999999
 10
215.1701769568205
 20
98.77699014060128
 30
0.0
 10
215.2049392175213
 20
98.8437904762843
 30
0.0
 10
215.2744225934389
 20
98.9773120810968
 30
0.0
 10
215.4020882930061
 20
99.18603652819102
 30
0.0
 10
215.4885262308709
 20
99.3125864407361
 30
0.0
 10
215.5306390974159
 20
99.37003735208845
 30
0.0
 10
215.5317770226046
 20
99.37158972419003
 30
0.0
  0
LINE
  5
9E
330
1F
100
AcDbEntity
  8
0
  6
Continuous
 62
     7
370
    15
100
AcDbLine
 10
229.3381686513
 20
97.5773990636
 30
0.0
 11
229.3403440236
 21
97.1772058224
 31
0.0
  0
LINE
  5
9F
330
1F
100
AcDbEntity
  8
0
  6
Continuous
 62
     7
370
    15
100
AcDbLine
 10
214.9498416955
 20
98.3335919351
 30
0.0
 11
214.9520170678
 21
97.933398694
 31
0.0
  0
LINE
  5
A0
330
1F
100
AcDbEntity
  8
0
  6
Continuous
 62
     7
370
    15
100
AcDbLine
 10
226.7502914463
 20
98.7721854671
 30
0.0
 11
227.4190635561
 21
98.737037482
 31
0.0
  0
LINE
  5
A1
330
1F
100
AcDbEntity
  8
0
  6
Continuous
 62
     7
370
    15
100
AcDbLine
 10
226.4759624182
 20
99.296645397
 30
0.0
 11
226.4771578031
 21
99.2986358481
 31
0.0
  0
SPLINE
  5
A2
330
1F
100
AcDbEntity
  8
0
  6
Continuous
 62
     7
370
    15
100
AcDbSpline
210
0.0
220
0.0
230
1.0
 70
     8
 71
     3
 72
    14
 73
    10
 74
     0
 42
0.00000001
 43
0.00000001
 12
1.0
 22
0.0
 32
0.0
 13
1.0
 23
0.0
 33
0.0
 40
0.0
 40
0.0
 40
0.0
 40
0.0
 40
0.2234968253973741
 40
0.3567622963774692
 40
0.4531212562341402
 40
0.5344619041500337
 40
0.6157317558035371
 40
0.7396161778922024
 40
1.0
 40
1.0
 40
1.0
 40
1.0
 10
227.0712230735459
 20
99.3065729224453
 30
0.0
 10
227.0382498849098
 20
99.35562986212176
 30
0.0
 10
226.9856156227642
 20
99.43393820686491
 30
0.0
 10
226.8920243539254
 20
99.5102388349468
 30
0.0
 10
226.8150703811754
 20
99.54183208385203
 30
0.0
 10
226.7452426257251
 20
99.54425149661012
 30
0.0
 10
226.6717892001352
 20
99.52024614963769
 30
0.0
 10
226.5711331901581
 20
99.44398973192777
 30
0.0
 10
226.5151157524378
 20
99.35734627780239
 30
0.0
 10
226.4771578031184
 20
99.29863584807912
 30
0.0
  0
SPLINE
  5
A3
330
1F
100
AcDbEntity
  8
0
  6
Continuous
 62
     7
370
    15
100
AcDbSpline
210
0.0
220
0.0
230
1.0
 70
     8
 71
     3
 72
    14
 73
    10
 74
     0
 42
0.00000001
 43
0.00000001
 12
1.0
 22
0.0
 32
0.0
 13
1.0
 23
0.0
 33
0.0
 40
0.0
 40
0.0
 40
0.0
 40
0.0
 40
0.2210591904779533
 40
0.3460797326519205
 40
0.4396016244131459
 40
0.5338897453199757
 40
0.6146561933587494
 40
0.7517253237593682
 40
1.0
 40
1.0
 40
1.0
 40
1.0
 10
226.4759624182038
 20
99.29664539700374
 30
0.0
 10
226.4471460494248
 20
99.2450468638153
 30
0.0
 10
226.4020325158889
 20
99.16426665950675
 30
0.0
 10
226.3739455534104
 20
99.04945877697598
 30
0.0
 10
226.3782641063666
 20
98.96535625589101
 30
0.0
 10
226.4094365631325
 20
98.89951531482602
 30
0.0
 10
226.4696377173237
 20
98.84222912723429
 30
0.0
 10
226.5826702745161
 20
98.78871751085548
 30
0.0
 10
226.6846113986234
 20
98.77866332078526
 30
0.0
 10
226.7502914462774
 20
98.77218546713476
 30
0.0
  0
ARC
  5
A4
330
1F
100
AcDbEntity
  8
0
  6
Continuous
 62
     7
370
    15
100
AcDbCircle
 10
207.4847512146
 20
110.8577759319
 30
0.0
 40
1.002541766232048
100
AcDbArc
 50
87.0972994384
 51
130.8756954957
  0
LINE
  5
A5
330
1F
100
AcDbEntity
  8
0
  6
Continuous
 62
     7
370
    15
100
AcDbLine
 10
211.0621205393
 20
111.3933356431
 30
0.0
 11
207.8865036521
 21
111.5602333554
 31
0.0
  0
LINE
  5
A6
330
1F
100
AcDbEntity
  8
0
  6
Continuous
 62
     7
370
    15
100
AcDbLine
 10
210.7111368303
 20
111.6921336961
 30
0.0
 11
207.5355199431
 21
111.8590314084
 31
0.0
  0
CIRCLE
  5
A7
330
1F
100
AcDbEntity
  8
0
  6
Continuous
 62
     7
370
    15
100
AcDbCircle
 10
212.3023076134
 20
118.2507830803
 30
0.0
 40
3.485383668575821
  0
CIRCLE
  5
A8
330
1F
100
AcDbEntity
  8
0
  6
Continuous
 62
     7
370
    15
100
AcDbCircle
 10
212.2908031883
 20
118.2557212921
 30
0.0
 40
1.992979827627595
  0
SPLINE
  5
A9
330
1F
100
AcDbEntity
  8
0
  6
Continuous
 62
     7
370
    15
100
AcDbSpline
210
0.0
220
0.0
230
1.0
 70
     8
 71
     3
 72
    11
 73
     7
 74
     0
 42
0.00000001
 43
0.00000001
 12
1.0
 22
0.0
 32
0.0
 13
1.0
 23
0.0
 33
0.0
 40
0.0
 40
0.0
 40
0.0
 40
0.0
 40
0.1081100880371208
 40
0.4711580666043593
 40
0.8135808430835995
 40
1.0
 40
1.0
 40
1.0
 40
1.0
 10
212.4891821747243
 20
116.5921926694371
 30
0.0
 10
212.5314099723618
 20
116.6317337697917
 30
0.0
 10
212.7154443011933
 20
116.804059116415
 30
0.0
 10
213.0785428568507
 20
117.1212857710809
 30
0.0
 10
213.5132865381117
 20
117.4508696569398
 30
0.0
 10
213.7542422134419
 20
117.617352714177
 30
0.0
 10
213.8391801712942
 20
117.6760387396435
 30
0.0
  0
SPLINE
  5
AA
330
1F
100
AcDbEntity
  8
0
  6
Continuous
 62
     7
370
    15
100
AcDbSpline
210
0.0
220
0.0
230
1.0
 70
     8
 71
     3
 72
    11
 73
     7
 74
     0
 42
0.00000001
 43
0.00000001
 12
1.0
 22
0.0
 32
0.0
 13
1.0
 23
0.0
 33
0.0
 40
0.0
 40
0.0
 40
0.0
 40
0.0
 40
0.2164499953511881
 40
0.4402998152333203
 40
0.7518914760010319
 40
1.0
 40
1.0
 40
1.0
 40
1.0
 10
213.8391801712942
 20
117.6760387396435
 30
0.0
 10
213.8156537271283
 20
117.7982302226412
 30
0.0
 10
213.7677965349737
 20
118.046790576268
 30
0.0
 10
213.6927525588038
 20
118.4963372704461
 30
0.0
 10
213.6310627100647
 20
118.9625549840272
 30
0.0
 10
213.6042616559459
 20
119.2501176375781
 30
0.0
 10
213.5923810631571
 20
119.3775907874386
 30
0.0
  0
SPLINE
  5
AB
330
1F
100
AcDbEntity
  8
0
  6
Continuous
 62
     7
370
    15
100
AcDbSpline
210
0.0
220
0.0
230
1.0
 70
     8
 71
     3
 72
    11
 73
     7
 74
     0
 42
0.00000001
 43
0.00000001
 12
1.0
 22
0.0
 32
0.0
 13
1.0
 23
0.0
 33
0.0
 40
0.0
 40
0.0
 40
0.0
 40
0.0
 40
0.2164499953511763
 40
0.4402998152332907
 40
0.7518914760010271
 40
1.0
 40
1.0
 40
1.0
 40
1.0
 10
213.5923810631571
 20
119.3775907874386
 30
0.0
 10
213.4763807923646
 20
119.4255396464912
 30
0.0
 10
213.2404145235084
 20
119.5230766029934
 30
0.0
 10
212.8162863204041
 20
119.692360979379
 30
0.0
 10
212.380131939065
 20
119.8579397934053
 30
0.0
 10
212.1136931479671
 20
119.9531092581086
 30
0.0
 10
211.99558395845
 20
119.9952967650274
 30
0.0
  0
SPLINE
  5
AC
330
1F
100
AcDbEntity
  8
0
  6
Continuous
 62
     7
370
    15
100
AcDbSpline
210
0.0
220
0.0
230
1.0
 70
     8
 71
     3
 72
    11
 73
     7
 74
     0
 42
0.00000001
 43
0.00000001
 12
1.0
 22
0.0
 32
0.0
 13
1.0
 23
0.0
 33
0.0
 40
0.0
 40
0.0
 40
0.0
 40
0.0
 40
0.1864191569163789
 40
0.5288419333956519
 40
0.8918899119628725
 40
1.0
 40
1.0
 40
1.0
 40
1.0
 10
211.99558395845
 20
119.9952967650274
 30
0.0
 10
211.9106460005977
 20
119.9366107395608
 30
0.0
 10
211.6696903252675
 20
119.7701276823236
 30
0.0
 10
211.2349466440064
 20
119.4405437964649
 30
0.0
 10
210.8718480883491
 20
119.1233171417988
 30
0.0
 10
210.6878137595176
 20
118.9509917951755
 30
0.0
 10
210.6455859618801
 20
118.9114506948209
 30
0.0
  0
SPLINE
  5
AD
330
1F
100
AcDbEntity
  8
0
  6
Continuous
 62
     7
370
    15
100
AcDbSpline
210
0.0
220
0.0
230
1.0
 70
     8
 71
     3
 72
    11
 73
     7
 74
     0
 42
0.00000001
 43
0.00000001
 12
1.0
 22
0.0
 32
0.0
 13
1.0
 23
0.0
 33
0.0
 40
0.0
 40
0.0
 40
0.0
 40
0.0
 40
0.2164499953511919
 40
0.4402998152333315
 40
0.7518914760010588
 40
1.0
 40
1.0
 40
1.0
 40
1.0
 10
210.6455859618801
 20
118.9114506948209
 30
0.0
 10
210.6558706166868
 20
118.8005321591911
 30
0.0
 10
210.6767915301004
 20
118.5749030910798
 30
0.0
 10
210.7293828187103
 20
118.1444707294333
 30
0.0
 10
210.8046080067481
 20
117.6667301647194
 30
0.0
 10
210.8654254230459
 20
117.3502088372246
 30
0.0
 10
210.8923850700172
 20
117.2098986470258
 30
0.0
  0
SPLINE
  5
AE
330
1F
100
AcDbEntity
  8
0
  6
Continuous
 62
     7
370
    15
100
AcDbSpline
210
0.0
220
0.0
230
1.0
 70
     8
 71
     3
 72
    11
 73
     7
 74
     0
 42
0.00000001
 43
0.00000001
 12
1.0
 22
0.0
 32
0.0
 13
1.0
 23
0.0
 33
0.0
 40
0.0
 40
0.0
 40
0.0
 40
0.0
 40
0.2164499953512037
 40
0.4402998152333432
 40
0.7518914760010824
 40
0.9999999999999999
 40
0.9999999999999999
 40
0.9999999999999999
 40
0.9999999999999999
 10
210.8923850700172
 20
117.2098986470258
 30
0.0
 10
210.9951435514504
 20
117.1732227353411
 30
0.0
 10
211.2041735415656
 20
117.0986170643542
 30
0.0
 10
211.6058490571101
 20
116.9484470205004
 30
0.0
 10
212.0555387777478
 20
116.7713453553412
 30
0.0
 10
212.3559939310247
 20
116.6472172166941
 30
0.0
 10
212.4891821747243
 20
116.5921926694371
 30
0.0
  0
LINE
  5
AF
330
1F
100
AcDbEntity
  8
0
  6
Continuous
 62
     7
370
    15
100
AcDbLine
 10
210.8498783378
 20
117.4375958777
 30
0.0
 11
211.2359610409
 21
117.2882434065
 31
0.0
  0
LINE
  5
B0
330
1F
100
AcDbEntity
  8
0
  6
Continuous
 62
     7
370
    15
100
AcDbLine
 10
211.2359610409
 20
117.2882434065
 30
0.0
 11
212.0343595933
 21
116.9793904177
 31
0.0
  0
LINE
  5
B1
330
1F
100
AcDbEntity
  8
0
  6
Continuous
 62
     7
370
    15
100
AcDbLine
 10
212.0343595933
 20
116.9793904177
 30
0.0
 11
212.4891821747
 21
116.5921926694
 31
0.0
  0
LINE
  5
B2
330
1F
100
AcDbEntity
  8
0
  6
Continuous
 62
     7
370
    15
100
AcDbLine
 10
213.3843575898
 20
118.0632364879
 30
0.0
 11
213.8391801713
 21
117.6760387396
 31
0.0
  0
LINE
  5
B3
330
1F
100
AcDbEntity
  8
0
  6
Continuous
 62
     7
370
    15
100
AcDbLine
 10
213.3843575898
 20
118.0632364879
 30
0.0
 11
213.2609580358
 21
118.9140125118
 31
0.0
  0
LINE
  5
B4
330
1F
100
AcDbEntity
  8
0
  6
Continuous
 62
     7
370
    15
100
AcDbLine
 10
213.2609580358
 20
118.9140125118
 30
0.0
 11
213.1685890719
 21
119.5508486848
 31
0.0
  0
LINE
  5
B5
330
1F
100
AcDbEntity
  8
0
  6
Continuous
 62
     7
370
    15
100
AcDbLine
 10
212.0343595933
 20
116.9793904177
 30
0.0
 11
212.7093585915
 21
117.5213134528
 31
0.0
  0
LINE
  5
B6
330
1F
100
AcDbEntity
  8
0
  6
Continuous
 62
     7
370
    15
100
AcDbLine
 10
212.7093585915
 20
117.5213134528
 30
0.0
 11
213.3843575898
 21
118.0632364879
 31
0.0
  0
ARC
  5
B7
330
1F
100
AcDbEntity
  8
0
  6
Continuous
 62
     7
370
    15
100
AcDbCircle
 10
211.8039854699
 20
118.7040339119
 30
0.0
 40
1.47202583876857
100
AcDbArc
 50
8.200988011
 51
40.97388485
  0
ARC
  5
B8
330
1F
100
AcDbEntity
  8
0
  6
Continuous
 62
     7
370
    15
100
AcDbCircle
 10
211.7650387992
 20
118.7009096979
 30
0.0
 40
1.511021896456668
100
AcDbArc
 50
308.6788410814
 51
8.1075823479
  0
ARC
  5
B9
330
1F
100
AcDbEntity
  8
0
  6
Continuous
 62
     7
370
    15
100
AcDbCircle
 10
211.7703839143
 20
118.6835048172
 30
0.0
 40
1.494109170016465
100
AcDbArc
 50
249.0418081686
 51
308.9359459285
  0
ARC
  5
BA
330
1F
100
AcDbEntity
  8
0
  6
Continuous
 62
     7
370
    15
100
AcDbCircle
 10
211.7636689162
 20
118.6530494854
 30
0.0
 40
1.463274148833409
100
AcDbArc
 50
229.7732204167
 51
248.8608012268
  0
ELLIPSE
  5
BB
330
1F
100
AcDbEntity
  8
0
  6
Continuous
 62
     7
370
    15
100
AcDbEllipse
 10
218.0846166674
 20
104.7983726212
 30
0.0
 11
1.442865798194987
 21
1.855749468010629
 31
0.0
210
0.0
220
0.0
230
1.0
 40
0.9878968605
 41
4.214947643785649
 42
5.931578861804652
  0
ELLIPSE
  5
BC
330
1F
100
AcDbEntity
  8
0
  6
Continuous
 62
     7
370
    15
100
AcDbEllipse
 10
218.0846166674
 20
104.7983726212
 30
0.0
 11
1.442865798194987
 21
1.855749468010629
 31
0.0
210
0.0
220
0.0
230
1.0
 40
0.9878968605
 41
2.555035078406043
 42
4.214947643785663
  0
SPLINE
  5
BD
330
1F
100
AcDbEntity
  8
0
  6
Continuous
 62
     7
370
    15
100
AcDbSpline
210
0.0
220
0.0
230
1.0
 70
     8
 71
     3
 72
    12
 73
     8
 74
     0
 42
0.00000001
 43
0.00000001
 12
1.0
 22
0.0
 32
0.0
 13
1.0
 23
0.0
 33
0.0
 40
0.0
 40
0.0
 40
0.0
 40
0.0
 40
0.2012767447566205
 40
0.4395346739639137
 40
0.6811614711063816
 40
0.9297815882444624
 40
1.0
 40
1.0
 40
1.0
 40
1.0
 10
216.1246466574723
 20
102.9512747179826
 30
0.0
 10
216.2075655803566
 20
102.8965134551571
 30
0.0
 10
216.3886383703577
 20
102.7769294772319
 30
0.0
 10
216.7111502292962
 20
102.6472949649773
 30
0.0
 10
217.0759230681378
 20
102.5654102026423
 30
0.0
 10
217.3684336725357
 20
102.5370695836878
 30
0.0
 10
217.5346466801519
 20
102.5569653114592
 30
0.0
 10
217.5712520849266
 20
102.561346985185
 30
0.0
  0
ARC
  5
BE
330
1F
100
AcDbEntity
  8
0
  6
Continuous
 62
     7
370
    15
100
AcDbCircle
 10
216.7042409828
 20
105.4906888852
 30
0.0
 40
3.079707181568703
100
AcDbArc
 50
266.0050885745
 51
285.1275375235
  0
LINE
  5
BF
330
1F
100
AcDbEntity
  8
0
  6
Continuous
 62
     7
370
    15
100
AcDbLine
 10
172.7607057118
 20
104.4578332797
 30
0.0
 11
172.7607057118
 21
143.8578332744
 31
0.0
  0
LINE
  5
C0
330
1F
100
AcDbEntity
  8
0
  6
Continuous
 62
     7
370
    15
100
AcDbLine
 10
180.7107057118
 20
136.0078332797
 30
0.0
 11
186.7255460129
 21
136.0078332797
 31
0.0
  0
LINE
  5
C1
330
1F
100
AcDbEntity
  8
0
  6
Continuous
 62
     7
370
    15
100
AcDbLine
 10
186.7255460129
 20
104.9289487567
 30
0.0
 11
186.7255460129
 21
136.0078332797
 31
0.0
  0
LINE
  5
C2
330
1F
100
AcDbEntity
  8
0
  6
Continuous
 62
     7
370
    15
100
AcDbLine
 10
186.7255460129
 20
104.9289487567
 30
0.0
 11
185.2107057118
 21
104.9289487567
 31
0.0
  0
SPLINE
  5
C3
330
1F
100
AcDbEntity
  8
0
  6
Continuous
 62
     7
370
    15
100
AcDbSpline
210
0.0
220
0.0
230
1.0
 70
     8
 71
     3
 72
    22
 73
    18
 74
     0
 42
0.00000001
 43
0.00000001
 12
1.0
 22
0.0
 32
0.0
 13
1.0
 23
0.0
 33
0.0
 40
0.0
 40
0.0
 40
0.0
 40
0.0
 40
0.125
 40
0.125
 40
0.25
 40
0.25
 40
0.375
 40
0.375
 40
0.5
 40
0.5
 40
0.625
 40
0.625
 40
0.75
 40
0.75
 40
0.875
 40
0.875
 40
1.0
 40
1.0
 40
1.0
 40
1.0
 10
185.2107057117979
 20
104.9289487566655
 30
0.0
 10
184.9115812827573
 20
104.9289487566655
 30
0.0
 10
184.6177588345085
 20
104.9204346555991
 30
0.0
 10
184.0401945582621
 20
104.8879908867172
 30
0.0
 10
183.7533768804482
 20
104.8636569980152
 30
0.0
 10
183.2089143515489
 20
104.8031969732583
 30
0.0
 10
182.9509590809275
 20
104.7672835524798
 30
0.0
 10
182.4629011375676
 20
104.6875735264107
 30
0.0
 10
182.2332028389039
 20
104.6436952252214
 30
0.0
 10
181.8207838559513
 20
104.5554516028512
 30
0.0
 10
181.6352569130912
 20
104.5106432613902
 30
0.0
 10
181.3067368681904
 20
104.423322253471
 30
0.0
 10
181.1683229812909
 20
104.3820314648954
 30
0.0
 10
180.943730834675
 20
104.3076932416016
 30
0.0
 10
180.8566520225507
 20
104.2742831158669
 30
0.0
 10
180.7401502145957
 20
104.2192637143407
 30
0.0
 10
180.7107057117979
 20
104.1978019478745
 30
0.0
 10
180.7107057117979
 20
104.1828489242567
 30
0.0
  0
LINE
  5
C4
330
1F
100
AcDbEntity
  8
0
  6
Continuous
 62
     7
370
    15
100
AcDbLine
 10
180.7107057118
 20
104.1828489243
 30
0.0
 11
180.7107057118
 21
104.1578332797
 31
0.0
  0
SPLINE
  5
C5
330
1F
100
AcDbEntity
  8
0
  6
Continuous
 62
     7
370
    15
100
AcDbSpline
210
0.0
220
0.0
230
1.0
 70
     8
 71
     3
 72
    23
 73
    19
 74
     0
 42
0.00000001
 43
0.00000001
 12
1.0
 22
0.0
 32
0.0
 13
1.0
 23
0.0
 33
0.0
 40
0.0
 40
0.0
 40
0.0
 40
0.0
 40
0.0520828288853462
 40
0.1572791263567905
 40
0.2110239256625283
 40
0.263033021143727
 40
0.3153991886431248
 40
0.3683114945074678
 40
0.4219674248644967
 40
0.5279242934660933
 40
0.5816875912436278
 40
0.6362178851308051
 40
0.7428913113902057
 40
0.7976661141272052
 40
0.8528630059279652
 40
0.9053629835456466
 40
0.9582418919883933
 40
1.0
 40
1.0
 40
1.0
 40
1.0
 10
185.2107057117979
 20
143.6450085496
 30
0.0
 10
185.0876528808488
 20
143.6457115688826
 30
0.0
 10
184.7160593602663
 20
143.6478345384092
 30
0.0
 10
184.221845476357
 20
143.6675736446713
 30
0.0
 10
183.7448305792226
 20
143.6989845478955
 30
0.0
 10
183.3976312231589
 20
143.7282115247957
 30
0.0
 10
183.0648768192399
 20
143.761896805713
 30
0.0
 10
182.7436265054247
 20
143.7997278606392
 30
0.0
 10
182.3373340682891
 20
143.853983460011
 30
0.0
 10
181.9676082542726
 20
143.9118293646901
 30
0.0
 10
181.6434556975918
 20
143.9683793970092
 30
0.0
 10
181.3518801897675
 20
144.0225749376641
 30
0.0
 10
181.1121400015718
 20
144.0709615594125
 30
0.0
 10
180.9315075438146
 20
144.1091946862218
 30
0.0
 10
180.8270311027111
 20
144.1319232888204
 30
0.0
 10
180.7559895270518
 20
144.1476686285091
 30
0.0
 10
180.7159849390809
 20
144.1566441010013
 30
0.0
 10
180.7142162656515
 20
144.1570433404989
 30
0.0
 10
180.7134358473874
 20
144.1572195029214
 30
0.0
  0
LINE
  5
C6
330
1F
100
AcDbEntity
  8
0
  6
Continuous
 62
     7
370
    15
100
AcDbLine
 10
186.7255460129
 20
143.6450085496
 30
0.0
 11
185.2107057118
 21
143.6450085496
 31
0.0
  0
LINE
  5
C7
330
1F
100
AcDbEntity
  8
0
  6
Continuous
 62
     7
370
    15
100
AcDbLine
 10
186.7255460129
 20
140.2692422808
 30
0.0
 11
186.7255460129
 21
143.6450085496
 31
0.0
  0
LINE
  5
C8
330
1F
100
AcDbEntity
  8
0
  6
Continuous
 62
     7
370
    15
100
AcDbLine
 10
185.2043761865
 20
140.2692422808
 30
0.0
 11
186.7255460129
 21
140.2692422808
 31
0.0
  0
SPLINE
  5
C9
330
1F
100
AcDbEntity
  8
0
  6
Continuous
 62
     7
370
    15
100
AcDbSpline
210
0.0
220
0.0
230
1.0
 70
     8
 71
     3
 72
    22
 73
    18
 74
     0
 42
0.00000001
 43
0.00000001
 12
1.0
 22
0.0
 32
0.0
 13
1.0
 23
0.0
 33
0.0
 40
0.0
 40
0.0
 40
0.0
 40
0.0
 40
0.2499999999999997
 40
0.2499999999999997
 40
0.3749999999999998
 40
0.3749999999999998
 40
0.4999999999999999
 40
0.4999999999999999
 40
0.625
 40
0.625
 40
0.75
 40
0.75
 40
0.8750000000000001
 40
0.8750000000000001
 40
0.9375000000000001
 40
0.9375000000000001
 40
1.0
 40
1.0
 40
1.0
 40
1.0
 10
180.7107057117979
 20
136.0078332796949
 30
0.0
 10
180.7326867297845
 20
136.5707059215929
 30
0.0
 10
180.8116636131393
 20
137.1013308053224
 30
0.0
 10
181.0580615061716
 20
137.847041796244
 30
0.0
 10
181.1625861212626
 20
138.0886620226428
 30
0.0
 10
181.4244327165691
 20
138.5475207979686
 30
0.0
 10
181.579649338735
 20
138.7616994704385
 30
0.0
 10
181.9482410917988
 20
139.158928029584
 30
0.0
 10
182.1643747842638
 20
139.3433728646038
 30
0.0
 10
182.6482692792507
 20
139.6644527124874
 30
0.0
 10
182.9187348242584
 20
139.8038035425934
 30
0.0
 10
183.5149613897686
 20
140.033109077019
 30
0.0
 10
183.8304546564885
 20
140.1196450864954
 30
0.0
 10
184.3311713045071
 20
140.2085346908266
 30
0.0
 10
184.5039677391222
 20
140.2313431966882
 30
0.0
 10
184.8523365119042
 20
140.2616343593845
 30
0.0
 10
185.0277375408147
 20
140.2692422807724
 30
0.0
 10
185.2043761865027
 20
140.2692422807724
 30
0.0
  0
LINE
  5
CA
330
1F
100
AcDbEntity
  8
0
  6
Continuous
 62
     7
370
    15
100
AcDbLine
 10
190.7958654107
 20
104.9289487567
 30
0.0
 11
190.7958654107
 21
136.0078332797
 31
0.0
  0
SPLINE
  5
CB
330
1F
100
AcDbEntity
  8
0
  6
Continuous
 62
     7
370
    15
100
AcDbSpline
210
0.0
220
0.0
230
1.0
 70
     8
 71
     3
 72
     8
 73
     4
 74
     0
 42
0.00000001
 43
0.00000001
 12
1.0
 22
0.0
 32
0.0
 13
1.0
 23
0.0
 33
0.0
 40
0.0
 40
0.0
 40
0.0
 40
0.0
 40
1.0
 40
1.0
 40
1.0
 40
1.0
 10
190.7958654106913
 20
104.9289487566655
 30
0.0
 10
190.463160138986
 20
105.5283204298892
 30
0.0
 10
190.1313443384125
 20
106.1281895405942
 30
0.0
 10
189.8007057117979
 20
106.7287098917052
 30
0.0
  0
LINE
  5
CC
330
1F
100
AcDbEntity
  8
0
  6
Continuous
 62
     7
370
    15
100
AcDbLine
 10
189.8007057118
 20
106.7287098917
 30
0.0
 11
189.8007057118
 21
136.0078332797
 31
0.0
  0
SPLINE
  5
CD
330
1F
100
AcDbEntity
  8
0
  6
Continuous
 62
     7
370
    15
100
AcDbSpline
210
0.0
220
0.0
230
1.0
 70
    24
 71
     3
 72
     8
 73
     4
 74
     0
 42
0.00000001
 43
0.00000001
 12
1.0
 22
0.0
 32
0.0
 13
1.0
 23
0.0
 33
0.0
 40
0.0
 40
0.0
 40
0.0
 40
0.0
 40
1.0
 40
1.0
 40
1.0
 40
1.0
 10
189.8007057117979
 20
136.0078332796949
 30
0.0
 10
190.1243423674201
 20
136.0078332796949
 30
0.0
 10
190.4568325889367
 20
136.0078332796949
 30
0.0
 10
190.7958654106914
 20
136.0078332796949
 30
0.0
  0
LINE
  5
CE
330
1F
100
AcDbEntity
  8
0
  6
Continuous
 62
     7
370
    15
100
AcDbLine
 10
192.7107057118
 20
105.5538014586
 30
0.0
 11
192.7107057118
 21
136.0078332797
 31
0.0
  0
SPLINE
  5
CF
330
1F
100
AcDbEntity
  8
0
  6
Continuous
 62
     7
370
    15
100
AcDbSpline
210
0.0
220
0.0
230
1.0
 70
     8
 71
     3
 72
    10
 73
     6
 74
     0
 42
0.00000001
 43
0.00000001
 12
1.0
 22
0.0
 32
0.0
 13
1.0
 23
0.0
 33
0.0
 40
0.0
 40
0.0
 40
0.0
 40
0.0
 40
0.5
 40
0.5
 40
1.0
 40
1.0
 40
1.0
 40
1.0
 10
192.7107057117979
 20
105.5538014586084
 30
0.0
 10
192.7107057117979
 20
105.3941692897051
 30
0.0
 10
192.6490691980926
 20
105.2331196559411
 30
0.0
 10
192.4300428318497
 20
105.0001287722645
 30
0.0
 10
192.2724259438023
 20
104.9289487566655
 30
0.0
 10
192.1107057117979
 20
104.9289487566655
 30
0.0
  0
SPLINE
  5
D0
330
1F
100
AcDbEntity
  8
0
  6
Continuous
 62
     7
370
    15
100
AcDbSpline
210
0.0
220
0.0
230
1.0
 70
    24
 71
     3
 72
    12
 73
     8
 74
     0
 42
0.00000001
 43
0.00000001
 12
1.0
 22
0.0
 32
0.0
 13
1.0
 23
0.0
 33
0.0
 40
0.0
 40
0.0
 40
0.0
 40
0.0
 40
0.2499999999999986
 40
0.2499999999999986
 40
0.4999999999999971
 40
0.4999999999999971
 40
1.0
 40
1.0
 40
1.0
 40
1.0
 10
192.1107057117979
 20
136.0078332796949
 30
0.0
 10
192.1988925771668
 20
136.0078332796949
 30
0.0
 10
192.287579970468
 20
136.0078332796949
 30
0.0
 10
192.4418324635869
 20
136.0078332796949
 30
0.0
 10
192.5071784446629
 20
136.0078332796949
 30
0.0
 10
192.661588314614
 20
136.0078332796949
 30
0.0
 10
192.7107057117979
 20
136.0078332796949
 30
0.0
 10
192.7107057117979
 20
136.0078332796949
 30
0.0
  0
LINE
  5
D1
330
1F
100
AcDbEntity
  8
0
  6
Continuous
 62
     7
370
    15
100
AcDbLine
 10
187.7207057118
 20
106.7287098917
 30
0.0
 11
187.7207057118
 21
136.0078332797
 31
0.0
  0
SPLINE
  5
D2
330
1F
100
AcDbEntity
  8
0
  6
Continuous
 62
     7
370
    15
100
AcDbSpline
210
0.0
220
0.0
230
1.0
 70
     8
 71
     3
 72
     8
 73
     4
 74
     0
 42
0.00000001
 43
0.00000001
 12
1.0
 22
0.0
 32
0.0
 13
1.0
 23
0.0
 33
0.0
 40
0.0
 40
0.0
 40
0.0
 40
0.0
 40
1.0
 40
1.0
 40
1.0
 40
1.0
 10
187.7207057117979
 20
106.7287098917052
 30
0.0
 10
187.3900670851833
 20
106.1281895405942
 30
0.0
 10
187.0582512846098
 20
105.5283204298891
 30
0.0
 10
186.7255460129045
 20
104.9289487566655
 30
0.0
  0
SPLINE
  5
D3
330
1F
100
AcDbEntity
  8
0
  6
Continuous
 62
     7
370
    15
100
AcDbSpline
210
0.0
220
0.0
230
1.0
 70
    24
 71
     3
 72
     8
 73
     4
 74
     0
 42
0.00000001
 43
0.00000001
 12
1.0
 22
0.0
 32
0.0
 13
1.0
 23
0.0
 33
0.0
 40
0.0
 40
0.0
 40
0.0
 40
0.0
 40
1.0
 40
1.0
 40
1.0
 40
1.0
 10
186.7255460129045
 20
136.0078332796949
 30
0.0
 10
187.0645788346591
 20
136.0078332796949
 30
0.0
 10
187.3970690561757
 20
136.0078332796949
 30
0.0
 10
187.7207057117979
 20
136.0078332796949
 30
0.0
  0
LINE
  5
D4
330
1F
100
AcDbEntity
  8
0
  6
Continuous
 62
     7
370
    15
100
AcDbLine
 10
192.1107057118
 20
104.9289487567
 30
0.0
 11
190.7958654107
 21
104.9289487567
 31
0.0
  0
LINE
  5
D5
330
1F
100
AcDbEntity
  8
0
  6
Continuous
 62
     7
370
    15
100
AcDbLine
 10
190.7958654107
 20
136.0078332797
 30
0.0
 11
192.1107057118
 21
136.0078332797
 31
0.0
  0
SPLINE
  5
D6
330
1F
100
AcDbEntity
  8
0
  6
Continuous
 62
     7
370
    15
100
AcDbSpline
210
0.0
220
0.0
230
1.0
 70
    24
 71
     3
 72
    16
 73
    12
 74
     0
 42
0.00000001
 43
0.00000001
 12
1.0
 22
0.0
 32
0.0
 13
1.0
 23
0.0
 33
0.0
 40
0.0
 40
0.0
 40
0.0
 40
0.0
 40
0.0625000000000005
 40
0.0625000000000005
 40
0.125000000000001
 40
0.125000000000001
 40
0.2500000000000008
 40
0.2500000000000008
 40
0.5000000000000002
 40
0.5000000000000002
 40
1.0
 40
1.0
 40
1.0
 40
1.0
 10
188.3207057117979
 20
107.2578332796949
 30
0.0
 10
188.2855992231838
 20
107.2578332796949
 30
0.0
 10
188.2525045380978
 20
107.2578332796949
 30
0.0
 10
188.195904826172
 20
107.2578332796949
 30
0.0
 10
188.1716027720364
 20
107.2578332796949
 30
0.0
 10
188.1070747833954
 20
107.2578332796949
 30
0.0
 10
188.0734859578793
 20
107.2578332796949
 30
0.0
 10
187.9854465435302
 20
107.2578332796949
 30
0.0
 10
187.9423387796578
 20
107.2578332796949
 30
0.0
 10
187.8319045654846
 20
107.2578332796949
 30
0.0
 10
187.7857245471072
 20
107.2578332796949
 30
0.0
 10
187.7559281123793
 20
107.2578332796949
 30
0.0
  0
SPLINE
  5
D7
330
1F
100
AcDbEntity
  8
0
  6
Continuous
 62
     7
370
    15
100
AcDbSpline
210
0.0
220
0.0
230
1.0
 70
    24
 71
     3
 72
    14
 73
    10
 74
     0
 42
0.00000001
 43
0.00000001
 12
1.0
 22
0.0
 32
0.0
 13
1.0
 23
0.0
 33
0.0
 40
0.0
 40
0.0
 40
0.0
 40
0.0
 40
0.25
 40
0.25
 40
0.5
 40
0.5
 40
0.75
 40
0.75
 40
1.0
 40
1.0
 40
1.0
 40
1.0
 10
187.7207057117979
 20
136.0078332796949
 30
0.0
 10
187.7207057117979
 20
136.0078332796949
 30
0.0
 10
187.7325827230589
 20
136.0078332796949
 30
0.0
 10
187.7811112128388
 20
136.0078332796949
 30
0.0
 10
187.817529669063
 20
136.0078332796949
 30
0.0
 10
187.9176570035916
 20
136.0078332796949
 30
0.0
 10
187.9808338150276
 20
136.0078332796949
 30
0.0
 10
188.1364043177136
 20
136.0078332796949
 30
0.0
 10
188.2282806654683
 20
136.0078332796949
 30
0.0
 10
188.3207057117991
 20
136.0078332796949
 30
0.0
  0
SPLINE
  5
D8
330
1F
100
AcDbEntity
  8
0
  6
Continuous
 62
     7
370
    15
100
AcDbSpline
210
0.0
220
0.0
230
1.0
 70
    24
 71
     3
 72
    16
 73
    12
 74
     0
 42
0.00000001
 43
0.00000001
 12
1.0
 22
0.0
 32
0.0
 13
1.0
 23
0.0
 33
0.0
 40
0.0
 40
0.0
 40
0.0
 40
0.0
 40
0.4999999999999984
 40
0.4999999999999984
 40
0.7499999999999984
 40
0.7499999999999984
 40
0.8749999999999991
 40
0.8749999999999991
 40
0.9374999999999996
 40
0.9374999999999996
 40
1.0
 40
1.0
 40
1.0
 40
1.0
 10
189.7654833112166
 20
107.2578332796949
 30
0.0
 10
189.7355089933624
 20
107.2578332796949
 30
0.0
 10
189.6889925987572
 20
107.2578332796949
 30
0.0
 10
189.5791312930229
 20
107.2578332796949
 30
0.0
 10
189.5359786424933
 20
107.2578332796949
 30
0.0
 10
189.4471945893795
 20
107.2578332796949
 30
0.0
 10
189.414005421501
 20
107.2578332796949
 30
0.0
 10
189.3492591211513
 20
107.2578332796949
 30
0.0
 10
189.324987910169
 20
107.2578332796949
 30
0.0
 10
189.26852663295
 20
107.2578332796949
 30
0.0
 10
189.2357230268767
 20
107.2578332796949
 30
0.0
 10
189.2007057117979
 20
107.2578332796949
 30
0.0
  0
SPLINE
  5
D9
330
1F
100
AcDbEntity
  8
0
  6
Continuous
 62
     7
370
    15
100
AcDbSpline
210
0.0
220
0.0
230
1.0
 70
    24
 71
     3
 72
    12
 73
     8
 74
     0
 42
0.00000001
 43
0.00000001
 12
1.0
 22
0.0
 32
0.0
 13
1.0
 23
0.0
 33
0.0
 40
0.0
 40
0.0
 40
0.0
 40
0.0
 40
0.2499999999999987
 40
0.2499999999999987
 40
0.4999999999999974
 40
0.4999999999999974
 40
1.0
 40
1.0
 40
1.0
 40
1.0
 10
189.2007057117979
 20
136.0078332796949
 30
0.0
 10
189.2930087109866
 20
136.0078332796949
 30
0.0
 10
189.3857524069456
 20
136.0078332796949
 30
0.0
 10
189.5408021372391
 20
136.0078332796949
 30
0.0
 10
189.6042521088415
 20
136.0078332796949
 30
0.0
 10
189.7535121999016
 20
136.0078332796949
 30
0.0
 10
189.8007057117979
 20
136.0078332796949
 30
0.0
 10
189.8007057117979
 20
136.0078332796949
 30
0.0
  0
SPLINE
  5
DA
330
1F
100
AcDbEntity
  8
0
  6
Continuous
 62
     7
370
    15
100
AcDbSpline
210
0.0
220
0.0
230
1.0
 70
    24
 71
     3
 72
    10
 73
     6
 74
     0
 42
0.00000001
 43
0.00000001
 12
1.0
 22
0.0
 32
0.0
 13
1.0
 23
0.0
 33
0.0
 40
0.0
 40
0.0
 40
0.0
 40
0.0
 40
0.5
 40
0.5
 40
1.0
 40
1.0
 40
1.0
 40
1.0
 10
192.9107057117979
 20
141.0578332796949
 30
0.0
 10
192.9107057117979
 20
141.0578332796949
 30
0.0
 10
192.8680602469796
 20
141.0578332796949
 30
0.0
 10
192.76814845884
 20
141.0578332796949
 30
0.0
 10
192.7129225874585
 20
141.0578332796949
 30
0.0
 10
192.7107678349212
 20
141.0578332796949
 30
0.0
  0
SPLINE
  5
DB
330
1F
100
AcDbEntity
  8
0
  6
Continuous
 62
     7
370
    15
100
AcDbSpline
210
0.0
220
0.0
230
1.0
 70
    24
 71
     3
 72
    10
 73
     6
 74
     0
 42
0.00000001
 43
0.00000001
 12
1.0
 22
0.0
 32
0.0
 13
1.0
 23
0.0
 33
0.0
 40
0.0
 40
0.0
 40
0.0
 40
0.0
 40
0.5000000000000001
 40
0.5000000000000001
 40
1.0
 40
1.0
 40
1.0
 40
1.0
 10
192.9107057117979
 20
107.2578332796949
 30
0.0
 10
192.9107057117979
 20
107.2578332796949
 30
0.0
 10
192.8671734673999
 20
107.2578332796949
 30
0.0
 10
192.7661655653698
 20
107.2578332796949
 30
0.0
 10
192.7107057117979
 20
107.2578332796949
 30
0.0
 10
192.7107057117979
 20
107.2578332796949
 30
0.0
  0
SPLINE
  5
DC
330
1F
100
AcDbEntity
  8
0
  6
Continuous
 62
     7
370
    15
100
AcDbSpline
210
0.0
220
0.0
230
1.0
 70
    24
 71
     3
 72
    12
 73
     8
 74
     0
 42
0.00000001
 43
0.00000001
 12
1.0
 22
0.0
 32
0.0
 13
1.0
 23
0.0
 33
0.0
 40
0.0
 40
0.0
 40
0.0
 40
0.0
 40
0.5
 40
0.5
 40
0.75
 40
0.75
 40
1.0
 40
1.0
 40
1.0
 40
1.0
 10
192.7107057117979
 20
136.0078332796949
 30
0.0
 10
192.7107057117979
 20
136.0078332796949
 30
0.0
 10
192.7379264599255
 20
136.0078332796949
 30
0.0
 10
192.8183729056985
 20
136.0078332796949
 30
0.0
 10
192.8518201341765
 20
136.0078332796949
 30
0.0
 10
192.9342297039508
 20
136.0078332796949
 30
0.0
 10
192.9835128008344
 20
136.0078332796949
 30
0.0
 10
193.039829423471
 20
136.0078332796949
 30
0.0
  0
SPLINE
  5
DD
330
1F
100
AcDbEntity
  8
0
  6
Continuous
 62
     7
370
    15
100
AcDbSpline
210
0.0
220
0.0
230
1.0
 70
     8
 71
     3
 72
    10
 73
     6
 74
     0
 42
0.00000001
 43
0.00000001
 12
1.0
 22
0.0
 32
0.0
 13
1.0
 23
0.0
 33
0.0
 40
0.0
 40
0.0
 40
0.0
 40
0.0
 40
0.5
 40
0.5
 40
1.0
 40
1.0
 40
1.0
 40
1.0
 10
192.7107057117979
 20
137.0352359681255
 30
0.0
 10
192.7107057117979
 20
136.8525272559905
 30
0.0
 10
192.737679045506
 20
136.6690189662297
 30
0.0
 10
192.8452694132917
 20
136.3207149879091
 30
0.0
 10
192.9267339576349
 20
136.1525274053662
 30
0.0
 10
193.0398294234707
 20
136.0078332796934
 30
0.0
  0
LINE
  5
DE
330
1F
100
AcDbEntity
  8
0
  6
Continuous
 62
     7
370
    15
100
AcDbLine
 10
189.2007057118
 20
107.2578332797
 30
0.0
 11
188.3207057118
 21
107.2578332797
 31
0.0
  0
LINE
  5
DF
330
1F
100
AcDbEntity
  8
0
  6
Continuous
 62
     7
370
    15
100
AcDbLine
 10
188.3207057118
 20
136.0078332797
 30
0.0
 11
189.2007057118
 21
136.0078332797
 31
0.0
  0
ELLIPSE
  5
E0
330
1F
100
AcDbEntity
  8
0
  6
Continuous
 62
     7
370
    15
100
AcDbEllipse
 10
250.2845854411
 20
124.1578332797
 30
0.0
 11
134.3815460477956
 21
1.75082014434858
 31
0.0
210
0.0
220
0.0
230
1.0
 40
0.1220915185
 41
1.897206393789014
 42
1.934371624571163
  0
SPLINE
  5
E1
330
1F
100
AcDbEntity
  8
0
  6
Continuous
 62
     7
370
    15
100
AcDbSpline
210
0.0
220
0.0
230
1.0
 70
     8
 71
     3
 72
    10
 73
     6
 74
     0
 42
0.00000001
 43
0.00000001
 12
1.0
 22
0.0
 32
0.0
 13
1.0
 23
0.0
 33
0.0
 40
0.0
 40
0.0
 40
0.0
 40
0.0
 40
0.5
 40
0.5
 40
1.0
 40
1.0
 40
1.0
 40
1.0
 10
202.2962903779109
 20
138.8695636987534
 30
0.0
 10
202.13228574889
 20
138.8598022455577
 30
0.0
 10
201.9804832224849
 20
138.8256347248206
 30
0.0
 10
201.742991167678
 20
138.7200119896821
 30
0.0
 10
201.6605587934327
 20
138.6501254259232
 30
0.0
 10
201.6210451916038
 20
138.572091173162
 30
0.0
  0
ELLIPSE
  5
E2
330
1F
100
AcDbEntity
  8
0
  6
Continuous
 62
     7
370
    15
100
AcDbEllipse
 10
203.3571425164
 20
124.1578332797
 30
0.0
 11
0.4974151432769531
 21
16.49946846537875
 31
0.0
210
0.0
220
0.0
230
1.0
 40
0.266256518
 41
0.516289275555134
 42
2.850796396907039
  0
SPLINE
  5
E3
330
1F
100
AcDbEntity
  8
0
  6
Continuous
 62
     7
370
    15
100
AcDbSpline
210
0.0
220
0.0
230
1.0
 70
     8
 71
     3
 72
    12
 73
     8
 74
     0
 42
0.00000001
 43
0.00000001
 12
1.0
 22
0.0
 32
0.0
 13
1.0
 23
0.0
 33
0.0
 40
0.0
 40
0.0
 40
0.0
 40
0.0
 40
0.250000000000001
 40
0.250000000000001
 40
0.500000000000002
 40
0.500000000000002
 40
1.0
 40
1.0
 40
1.0
 40
1.0
 10
201.6210451916038
 20
108.3890530322087
 30
0.0
 10
201.6408230674374
 20
108.3654252032849
 30
0.0
 10
201.6707014672896
 20
108.3436340909417
 30
0.0
 10
201.7514043728512
 20
108.3034671040246
 30
0.0
 10
201.8019757359197
 20
108.2854384390407
 30
0.0
 10
201.9782998759057
 20
108.239684935996
 30
0.0
 10
202.1320340969932
 20
108.2198532366381
 30
0.0
 10
202.2962903779109
 20
108.2142930936642
 30
0.0
  0
ELLIPSE
  5
E4
330
1F
100
AcDbEntity
  8
0
  6
Continuous
 62
     7
370
    15
100
AcDbEllipse
 10
250.2845854411
 20
124.1578332797
 30
0.0
 11
134.3815460477956
 21
1.75082014434858
 31
0.0
210
0.0
220
0.0
230
1.0
 40
0.1220915185
 41
4.345632291770597
 42
4.382797522552743
  0
ELLIPSE
  5
E5
330
1F
100
AcDbEntity
  8
0
  6
Continuous
 62
     7
370
    15
100
AcDbEllipse
 10
217.9639173626
 20
124.1578332797
 30
0.0
 11
-12.35438222969202
 21
16.49617782666479
 31
0.0
210
0.0
220
0.0
230
1.0
 40
0.0287452423
 41
5.842283926325019
 42
6.261660632376765
  0
ELLIPSE
  5
E6
330
1F
100
AcDbEntity
  8
0
  6
Continuous
 62
     7
370
    15
100
AcDbEllipse
 10
200.3109321819
 20
118.406518008
 30
0.0
 11
-0.1685164062339481
 21
2.666144295730163
 31
0.0
210
0.0
220
0.0
230
1.0
 40
0.2297521224
 41
0.0
 42
6.283185307179586
  0
LINE
  5
E7
330
1F
100
AcDbEntity
  8
0
  6
Continuous
 62
     7
370
    15
100
AcDbLine
 10
170.7607057118
 20
109.0541328789
 30
0.0
 11
170.7607057118
 21
139.2615336805
 31
0.0
  0
LINE
  5
E8
330
1F
100
AcDbEntity
  8
0
  6
Continuous
 62
     7
370
    15
100
AcDbLine
 10
158.9607057118
 20
109.6453152436
 30
0.0
 11
158.9607057118
 21
110.5210865816
 31
0.0
  0
SPLINE
  5
E9
330
1F
100
AcDbEntity
  8
0
  6
Continuous
 62
     7
370
    15
100
AcDbSpline
210
0.0
220
0.0
230
1.0
 70
     8
 71
     3
 72
    12
 73
     8
 74
     0
 42
0.00000001
 43
0.00000001
 12
1.0
 22
0.0
 32
0.0
 13
1.0
 23
0.0
 33
0.0
 40
0.0
 40
0.0
 40
0.0
 40
0.0
 40
0.2499999999999994
 40
0.2499999999999994
 40
0.4999999999999988
 40
0.4999999999999988
 40
1.0
 40
1.0
 40
1.0
 40
1.0
 10
158.592970618941
 20
111.2274574168102
 30
0.0
 10
158.6183948358349
 20
111.1605718237364
 30
0.0
 10
158.6590066754042
 20
111.0961233340528
 30
0.0
 10
158.7436078216764
 20
110.9711226739749
 30
0.0
 10
158.7877046179619
 20
110.9106039287828
 30
0.0
 10
158.903773726448
 20
110.7343978726744
 30
0.0
 10
158.9607057117979
 20
110.6240034577026
 30
0.0
 10
158.9607057117979
 20
110.5210865816094
 30
0.0
  0
SPLINE
  5
EA
330
1F
100
AcDbEntity
  8
0
  6
Continuous
 62
     7
370
    15
100
AcDbSpline
210
0.0
220
0.0
230
1.0
 70
     8
 71
     3
 72
    14
 73
    10
 74
     0
 42
0.00000001
 43
0.00000001
 12
1.0
 22
0.0
 32
0.0
 13
1.0
 23
0.0
 33
0.0
 40
0.0
 40
0.0
 40
0.0
 40
0.0
 40
0.1249999999999996
 40
0.1249999999999996
 40
0.2499999999999992
 40
0.2499999999999992
 40
0.4999999999999983
 40
0.4999999999999983
 40
1.0
 40
1.0
 40
1.0
 40
1.0
 10
158.0607057117979
 20
111.7174632321839
 30
0.0
 10
158.1097180346092
 20
111.721988291339
 30
0.0
 10
158.1625242596047
 20
111.7138689057845
 30
0.0
 10
158.2475913513342
 20
111.6835388306331
 30
0.0
 10
158.2821755366749
 20
111.6628838735566
 30
0.0
 10
158.3707312220122
 20
111.5983477502298
 30
0.0
 10
158.4116669233334
 20
111.5511095701772
 30
0.0
 10
158.5155474502364
 20
111.4113134688935
 30
0.0
 10
158.5587712496685
 20
111.3174285300242
 30
0.0
 10
158.592970618941
 20
111.2274574168102
 30
0.0
  0
SPLINE
  5
EB
330
1F
100
AcDbEntity
  8
0
  6
Continuous
 62
     7
370
    15
100
AcDbSpline
210
0.0
220
0.0
230
1.0
 70
     8
 71
     3
 72
    10
 73
     6
 74
     0
 42
0.00000001
 43
0.00000001
 12
1.0
 22
0.0
 32
0.0
 13
1.0
 23
0.0
 33
0.0
 40
0.0
 40
0.0
 40
0.0
 40
0.0
 40
0.5
 40
0.5
 40
1.0
 40
1.0
 40
1.0
 40
1.0
 10
155.1398823200994
 20
111.3912111526174
 30
0.0
 10
155.6158068863204
 20
111.4586721617288
 30
0.0
 10
156.0996857964712
 20
111.5165656848562
 30
0.0
 10
157.0749737497138
 20
111.623295486163
 30
0.0
 10
157.5666197273491
 20
111.6718467794406
 30
0.0
 10
158.0607057117979
 20
111.7174632321839
 30
0.0
  0
SPLINE
  5
EC
330
1F
100
AcDbEntity
  8
0
  6
Continuous
 62
     7
370
    15
100
AcDbSpline
210
0.0
220
0.0
230
1.0
 70
     8
 71
     3
 72
    10
 73
     6
 74
     0
 42
0.00000001
 43
0.00000001
 12
1.0
 22
0.0
 32
0.0
 13
1.0
 23
0.0
 33
0.0
 40
0.0
 40
0.0
 40
0.0
 40
0.0
 40
0.5
 40
0.5
 40
1.0
 40
1.0
 40
1.0
 40
1.0
 10
153.8697057117979
 20
111.3067664021386
 30
0.0
 10
154.0850647423553
 20
111.3137792331091
 30
0.0
 10
154.2995060806793
 20
111.3225539567644
 30
0.0
 10
154.7244972992998
 20
111.3476071343123
 30
0.0
 10
154.9358700310225
 20
111.3622929671126
 30
0.0
 10
155.1398823200994
 20
111.3912111526174
 30
0.0
  0
SPLINE
  5
ED
330
1F
100
AcDbEntity
  8
0
  6
Continuous
 62
     7
370
    15
100
AcDbSpline
210
0.0
220
0.0
230
1.0
 70
     8
 71
     3
 72
     8
 73
     4
 74
     0
 42
0.00000001
 43
0.00000001
 12
1.0
 22
0.0
 32
0.0
 13
1.0
 23
0.0
 33
0.0
 40
0.0
 40
0.0
 40
0.0
 40
0.0
 40
1.0
 40
1.0
 40
1.0
 40
1.0
 10
153.8021895622288
 20
111.4546555801513
 30
0.0
 10
153.816324006857
 20
111.4038592565181
 30
0.0
 10
153.8393813820056
 20
111.3546205059579
 30
0.0
 10
153.8697057117979
 20
111.3067664021386
 30
0.0
  0
ELLIPSE
  5
EE
330
1F
100
AcDbEntity
  8
0
  6
Continuous
 62
     7
370
    15
100
AcDbEllipse
 10
140.333963504
 20
123.5185356019
 30
0.0
 11
13.37355272666619
 21
-13.37146352987014
 31
0.0
210
0.0
220
0.0
230
1.0
 40
0.1761188775
 41
0.3023035477142409
 42
0.3822730435340363
  0
ELLIPSE
  5
EF
330
1F
100
AcDbEntity
  8
0
  6
Continuous
 62
     7
370
    15
100
AcDbEllipse
 10
140.2545850733
 20
124.796943731
 30
0.0
 11
13.36963611134303
 21
13.36754752639487
 31
0.0
210
0.0
220
0.0
230
1.0
 40
0.1761188775
 41
5.933076931846589
 42
5.976720052691201
  0
SPLINE
  5
F0
330
1F
100
AcDbEntity
  8
0
  6
Continuous
 62
     7
370
    15
100
AcDbSpline
210
0.0
220
0.0
230
1.0
 70
     8
 71
     3
 72
     8
 73
     4
 74
     0
 42
0.00000001
 43
0.00000001
 12
1.0
 22
0.0
 32
0.0
 13
1.0
 23
0.0
 33
0.0
 40
0.0
 40
0.0
 40
0.0
 40
0.0
 40
1.0
 40
1.0
 40
1.0
 40
1.0
 10
153.8107057117979
 20
137.0234138266732
 30
0.0
 10
153.7649408041086
 20
136.9618934475144
 30
0.0
 10
153.7305536824786
 20
136.897998587765
 30
0.0
 10
153.7115384288057
 20
136.8312686427213
 30
0.0
  0
SPLINE
  5
F1
330
1F
100
AcDbEntity
  8
0
  6
Continuous
 62
     7
370
    15
100
AcDbSpline
210
0.0
220
0.0
230
1.0
 70
     8
 71
     3
 72
    12
 73
     8
 74
     0
 42
0.00000001
 43
0.00000001
 12
1.0
 22
0.0
 32
0.0
 13
1.0
 23
0.0
 33
0.0
 40
0.0
 40
0.0
 40
0.0
 40
0.0
 40
0.25
 40
0.25
 40
0.5
 40
0.5
 40
1.0
 40
1.0
 40
1.0
 40
1.0
 10
155.5607057117979
 20
136.9386271383541
 30
0.0
 10
155.4186633086087
 20
136.9544528665303
 30
0.0
 10
155.2745452021045
 20
136.9654740003056
 30
0.0
 10
154.984790688432
 20
136.9840103621728
 30
0.0
 10
154.8390487850733
 20
136.9912810679086
 30
0.0
 10
154.4003685458934
 20
137.0097419182366
 30
0.0
 10
154.1059929298222
 20
137.0176207850601
 30
0.0
 10
153.8107057117979
 20
137.0234138266732
 30
0.0
  0
SPLINE
  5
F2
330
1F
100
AcDbEntity
  8
0
  6
Continuous
 62
     7
370
    15
100
AcDbSpline
210
0.0
220
0.0
230
1.0
 70
     8
 71
     3
 72
    20
 73
    16
 74
     0
 42
0.00000001
 43
0.00000001
 12
1.0
 22
0.0
 32
0.0
 13
1.0
 23
0.0
 33
0.0
 40
0.0
 40
0.0
 40
0.0
 40
0.0
 40
0.2499999999999992
 40
0.2499999999999992
 40
0.4999999999999983
 40
0.4999999999999983
 40
0.7499999999999976
 40
0.7499999999999976
 40
0.874999999999998
 40
0.874999999999998
 40
0.937499999999997
 40
0.937499999999997
 40
0.9687499999999986
 40
0.9687499999999986
 40
1.0
 40
1.0
 40
1.0
 40
1.0
 10
156.4607057117989
 20
137.7153574014428
 30
0.0
 10
156.4607057117989
 20
137.6547480017454
 30
0.0
 10
156.4353106922219
 20
137.5889220363418
 30
0.0
 10
156.34901750644
 20
137.4548742669952
 30
0.0
 10
156.2883815277567
 20
137.3861789088534
 30
0.0
 10
156.1402797335355
 20
137.245780357199
 30
0.0
 10
156.0535101267568
 20
137.1740768526176
 30
0.0
 10
155.9048723314276
 20
137.0679134508688
 30
0.0
 10
155.8525831145414
 20
137.0323851022372
 30
0.0
 10
155.7618192862315
 20
136.9826811717217
 30
0.0
 10
155.7294532937795
 20
136.9664201737066
 30
0.0
 10
155.6717641381133
 20
136.9473076053607
 30
0.0
 10
155.6507771102258
 20
136.9419164632791
 30
0.0
 10
155.6054881312353
 20
136.9361790948866
 30
0.0
 10
155.5824738623969
 20
136.93620182854
 30
0.0
 10
155.5607057117972
 20
136.9386271383529
 30
0.0
  0
LINE
  5
F3
330
1F
100
AcDbEntity
  8
0
  6
Continuous
 62
     7
370
    15
100
AcDbLine
 10
156.4607057118
 20
137.7153574014
 30
0.0
 11
156.4607057118
 21
138.5451008148
 31
0.0
  0
SPLINE
  5
F4
330
1F
100
AcDbEntity
  8
0
  6
Continuous
 62
     7
370
    15
100
AcDbSpline
210
0.0
220
0.0
230
1.0
 70
     8
 71
     3
 72
    24
 73
    20
 74
     0
 42
0.00000001
 43
0.00000001
 12
1.0
 22
0.0
 32
0.0
 13
1.0
 23
0.0
 33
0.0
 40
0.0
 40
0.0
 40
0.0
 40
0.0
 40
0.0016643206055871
 40
0.064879288201248
 40
0.1278826362658746
 40
0.1913652208697626
 40
0.254378220929336
 40
0.3163193242325661
 40
0.377746982652149
 40
0.4397082231452126
 40
0.5014188941660824
 40
0.5625360836783376
 40
0.6237133377390199
 40
0.6863020268400889
 40
0.7490598688495492
 40
0.8115924779751041
 40
0.874336019338232
 40
0.9379727055969247
 40
1.0
 40
1.0
 40
1.0
 40
1.0
 10
163.9452490327236
 20
109.3958663935908
 30
0.0
 10
163.9447716012778
 20
109.395797976696
 30
0.0
 10
163.926160155705
 20
109.393130918786
 30
0.0
 10
163.9893022889527
 20
109.4028460712059
 30
0.0
 10
164.1413449093015
 20
109.4250511346682
 30
0.0
 10
164.4092701365495
 20
109.459485682212
 30
0.0
 10
164.7585842108506
 20
109.4979497366905
 30
0.0
 10
165.1856349027893
 20
109.5321783506307
 30
0.0
 10
165.6730748612709
 20
109.5546289262721
 30
0.0
 10
166.2047250143287
 20
109.558224814053
 30
0.0
 10
166.755845655874
 20
109.5412104843189
 30
0.0
 10
167.303303538794
 20
109.5012648474383
 30
0.0
 10
167.8279378068586
 20
109.4421575073216
 30
0.0
 10
168.3097262421288
 20
109.3697925468475
 30
0.0
 10
168.7346746757457
 20
109.293472665747
 30
0.0
 10
169.0808911321146
 20
109.2214872640201
 30
0.0
 10
169.3359694312168
 20
109.1631009305827
 30
0.0
 10
169.4961648181136
 20
109.1234410291066
 30
0.0
 10
169.5167988972482
 20
109.1186167085645
 30
0.0
 10
169.5269838054016
 20
109.1162354410845
 30
0.0
  0
SPLINE
  5
F5
330
1F
100
AcDbEntity
  8
0
  6
Continuous
 62
     7
370
    15
100
AcDbSpline
210
0.0
220
0.0
230
1.0
 70
     8
 71
     3
 72
    24
 73
    20
 74
     0
 42
0.00000001
 43
0.00000001
 12
1.0
 22
0.0
 32
0.0
 13
1.0
 23
0.0
 33
0.0
 40
0.0
 40
0.0
 40
0.0
 40
0.0
 40
0.0629034705484452
 40
0.1256338607443301
 40
0.189023977043881
 40
0.2513957724608678
 40
0.3139907012378485
 40
0.3762905031717275
 40
0.4374458692512888
 40
0.4985431897945859
 40
0.5603281700726978
 40
0.6223344218847391
 40
0.6838864714806503
 40
0.7458035625966044
 40
0.8089499562205485
 40
0.872324598731804
 40
0.9353799512544955
 40
0.9988635347820907
 40
1.0
 40
1.0
 40
1.0
 40
1.0
 10
169.5259850204724
 20
139.1994327793488
 30
0.0
 10
169.5165143319031
 20
139.1970096092518
 30
0.0
 10
169.4975990135827
 20
139.1921699364663
 30
0.0
 10
169.3355479046403
 20
139.1521991248562
 30
0.0
 10
169.0790226747889
 20
139.0938547156598
 30
0.0
 10
168.732966341021
 20
139.0216199218395
 30
0.0
 10
168.3090670606461
 20
138.9454699167105
 30
0.0
 10
167.8280838964868
 20
138.8733521155009
 30
0.0
 10
167.304100555388
 20
138.8144636971345
 30
0.0
 10
166.7565025994734
 20
138.7745528877549
 30
0.0
 10
166.2050263575037
 20
138.7575160084359
 30
0.0
 10
165.6725851130181
 20
138.7610797494634
 30
0.0
 10
165.1846029911226
 20
138.7835134221343
 30
0.0
 10
164.7570902538252
 20
138.8178027827613
 30
0.0
 10
164.4081887136144
 20
138.8563067817017
 30
0.0
 10
164.1409346681199
 20
138.8907630249766
 30
0.0
 10
163.9879979196975
 20
138.9128453849565
 30
0.0
 10
163.926894960441
 20
138.9226744179762
 30
0.0
 10
163.9444734652359
 20
138.9199105647359
 30
0.0
 10
163.9447826163379
 20
138.9198619571731
 30
0.0
  0
SPLINE
  5
F6
330
1F
100
AcDbEntity
  8
0
  6
Continuous
 62
     7
370
    15
100
AcDbSpline
210
0.0
220
0.0
230
1.0
 70
     8
 71
     3
 72
    26
 73
    22
 74
     0
 42
0.00000001
 43
0.00000001
 12
1.0
 22
0.0
 32
0.0
 13
1.0
 23
0.0
 33
0.0
 40
0.0
 40
0.0
 40
0.0
 40
0.0
 40
0.2499999999999903
 40
0.2499999999999903
 40
0.3749999999999853
 40
0.3749999999999853
 40
0.4374999999999841
 40
0.4374999999999841
 40
0.468749999999985
 40
0.468749999999985
 40
0.4999999999999859
 40
0.4999999999999859
 40
0.5312499999999868
 40
0.5312499999999868
 40
0.5624999999999877
 40
0.5624999999999877
 40
0.6249999999999895
 40
0.6249999999999895
 40
0.7499999999999929
 40
0.7499999999999929
 40
1.0
 40
1.0
 40
1.0
 40
1.0
 10
153.6206757581857
 20
136.5459138593078
 30
0.0
 10
153.5732779740919
 20
136.4102304220689
 30
0.0
 10
153.5156235515535
 20
136.2662379623426
 30
0.0
 10
153.3935351760281
 20
136.0234048286939
 30
0.0
 10
153.3474713098796
 20
135.938344084584
 30
0.0
 10
153.2567687540379
 20
135.7979207954095
 30
0.0
 10
153.2223959248063
 20
135.7479912313905
 30
0.0
 10
153.1599147274881
 20
135.671436712839
 30
0.0
 10
153.1366036351208
 20
135.645029423516
 30
0.0
 10
153.0875221915773
 20
135.5974535059096
 30
0.0
 10
153.0631145194859
 20
135.5780618071763
 30
0.0
 10
153.0225190677785
 20
135.5532267744138
 30
0.0
 10
153.0063810713074
 20
135.5471899050718
 30
0.0
 10
152.9794335274934
 20
135.5415470821728
 30
0.0
 10
152.9686949746669
 20
135.5419532040837
 30
0.0
 10
152.9406865353862
 20
135.5481360497795
 30
0.0
 10
152.9278376084838
 20
135.5588160197553
 30
0.0
 10
152.8968618803826
 20
135.5978710369657
 30
0.0
 10
152.8860113232464
 20
135.6339417958777
 30
0.0
 10
152.8627573195875
 20
135.7516738922155
 30
0.0
 10
152.8607057117979
 20
135.8429311537953
 30
0.0
 10
152.8607057117979
 20
135.9360647441358
 30
0.0
  0
SPLINE
  5
F7
330
1F
100
AcDbEntity
  8
0
  6
Continuous
 62
     7
370
    15
100
AcDbSpline
210
0.0
220
0.0
230
1.0
 70
     8
 71
     3
 72
    24
 73
    20
 74
     0
 42
0.00000001
 43
0.00000001
 12
1.0
 22
0.0
 32
0.0
 13
1.0
 23
0.0
 33
0.0
 40
0.0
 40
0.0
 40
0.0
 40
0.0
 40
0.2500000000000004
 40
0.2500000000000004
 40
0.3750000000000012
 40
0.3750000000000012
 40
0.4375000000000024
 40
0.4375000000000024
 40
0.5000000000000037
 40
0.5000000000000037
 40
0.5312500000000034
 40
0.5312500000000034
 40
0.5625000000000031
 40
0.5625000000000031
 40
0.6250000000000021
 40
0.6250000000000021
 40
0.7500000000000013
 40
0.7500000000000013
 40
1.0
 40
1.0
 40
1.0
 40
1.0
 10
152.8607057117979
 20
112.6103200784735
 30
0.0
 10
152.8607057117979
 20
112.6952290321431
 30
0.0
 10
152.8634303402303
 20
112.77755872819
 30
0.0
 10
152.8897876613483
 20
112.879971115609
 30
0.0
 10
152.9020013796204
 20
112.9107882119934
 30
0.0
 10
152.9366120297528
 20
112.9398857280703
 30
0.0
 10
152.9509987401202
 20
112.9468433687089
 30
0.0
 10
152.9922472232226
 20
112.9457336274321
 30
0.0
 10
153.0207867731535
 20
112.9374402218233
 30
0.0
 10
153.0817094386648
 20
112.8928567879621
 30
0.0
 10
153.1047754088046
 20
112.8723950747048
 30
0.0
 10
153.1486712888109
 20
112.8277824564244
 30
0.0
 10
153.169551324371
 20
112.8039063782181
 30
0.0
 10
153.2267615876641
 20
112.7340092810561
 30
0.0
 10
153.2591082114405
 20
112.6884316922716
 30
0.0
 10
153.3452741549324
 20
112.5595482046527
 30
0.0
 10
153.3909381749724
 20
112.4797150275207
 30
0.0
 10
153.5114857384236
 20
112.2539342184083
 30
0.0
 10
153.5705458271248
 20
112.119102833437
 30
0.0
 10
153.6206757581857
 20
111.9908476947695
 30
0.0
  0
LINE
  5
F8
330
1F
100
AcDbEntity
  8
0
  6
Continuous
 62
     7
370
    15
100
AcDbLine
 10
152.8607057118
 20
112.6103200785
 30
0.0
 11
152.8607057118
 21
135.9360647441
 31
0.0
  0
SPLINE
  5
F9
330
1F
100
AcDbEntity
  8
0
  6
Continuous
 62
     7
370
    15
100
AcDbSpline
210
0.0
220
0.0
230
1.0
 70
     8
 71
     3
 72
     8
 73
     4
 74
     0
 42
0.00000001
 43
0.00000001
 12
1.0
 22
0.0
 32
0.0
 13
1.0
 23
0.0
 33
0.0
 40
0.0
 40
0.0
 40
0.0
 40
0.0
 40
1.0
 40
1.0
 40
1.0
 40
1.0
 10
190.7958654106913
 20
143.6450085496
 30
0.0
 10
190.4635073143017
 20
143.054198335928
 30
0.0
 10
190.1317260428175
 20
142.4630656716828
 30
0.0
 10
189.8007057117979
 20
141.8715099752251
 30
0.0
  0
LINE
  5
FA
330
1F
100
AcDbEntity
  8
0
  6
Continuous
 62
     7
370
    15
100
AcDbLine
 10
190.7958654107
 20
140.2692422808
 30
0.0
 11
190.7958654107
 21
143.6450085496
 31
0.0
  0
SPLINE
  5
FB
330
1F
100
AcDbEntity
  8
0
  6
Continuous
 62
     7
370
    15
100
AcDbSpline
210
0.0
220
0.0
230
1.0
 70
     8
 71
     3
 72
     8
 73
     4
 74
     0
 42
0.00000001
 43
0.00000001
 12
1.0
 22
0.0
 32
0.0
 13
1.0
 23
0.0
 33
0.0
 40
0.0
 40
0.0
 40
0.0
 40
0.0
 40
1.0
 40
1.0
 40
1.0
 40
1.0
 10
189.8007057117979
 20
138.0719211791503
 30
0.0
 10
190.1242632700528
 20
138.8080375777729
 30
0.0
 10
190.4567575902697
 20
139.5401291731915
 30
0.0
 10
190.7958654106914
 20
140.2692422807724
 30
0.0
  0
LINE
  5
FC
330
1F
100
AcDbEntity
  8
0
  6
Continuous
 62
     7
370
    15
100
AcDbLine
 10
189.8007057118
 20
138.0719211792
 30
0.0
 11
189.8007057118
 21
141.8715099752
 31
0.0
  0
SPLINE
  5
FD
330
1F
100
AcDbEntity
  8
0
  6
Continuous
 62
     7
370
    15
100
AcDbSpline
210
0.0
220
0.0
230
1.0
 70
     8
 71
     3
 72
     8
 73
     4
 74
     0
 42
0.00000001
 43
0.00000001
 12
1.0
 22
0.0
 32
0.0
 13
1.0
 23
0.0
 33
0.0
 40
0.0
 40
0.0
 40
0.0
 40
0.0
 40
1.0
 40
1.0
 40
1.0
 40
1.0
 10
187.7207057117979
 20
141.8715099752251
 30
0.0
 10
187.3896853807782
 20
142.4630656716828
 30
0.0
 10
187.0579041092942
 20
143.054198335928
 30
0.0
 10
186.7255460129045
 20
143.6450085496
 30
0.0
  0
LINE
  5
FE
330
1F
100
AcDbEntity
  8
0
  6
Continuous
 62
     7
370
    15
100
AcDbLine
 10
187.7207057118
 20
138.0719211792
 30
0.0
 11
187.7207057118
 21
141.8715099752
 31
0.0
  0
SPLINE
  5
FF
330
1F
100
AcDbEntity
  8
0
  6
Continuous
 62
     7
370
    15
100
AcDbSpline
210
0.0
220
0.0
230
1.0
 70
     8
 71
     3
 72
     8
 73
     4
 74
     0
 42
0.00000001
 43
0.00000001
 12
1.0
 22
0.0
 32
0.0
 13
1.0
 23
0.0
 33
0.0
 40
0.0
 40
0.0
 40
0.0
 40
0.0
 40
1.0
 40
1.0
 40
1.0
 40
1.0
 10
186.7255460129045
 20
140.2692422807724
 30
0.0
 10
187.0649690541861
 20
139.539451419253
 30
0.0
 10
187.3974797976811
 20
138.8072830638313
 30
0.0
 10
187.7207057117978
 20
138.0719211791503
 30
0.0
  0
SPLINE
  5
100
330
1F
100
AcDbEntity
  8
0
  6
Continuous
 62
     7
370
    15
100
AcDbSpline
210
0.0
220
0.0
230
1.0
 70
     8
 71
     3
 72
    10
 73
     6
 74
     0
 42
0.00000001
 43
0.00000001
 12
1.0
 22
0.0
 32
0.0
 13
1.0
 23
0.0
 33
0.0
 40
0.0
 40
0.0
 40
0.0
 40
0.0
 40
0.5
 40
0.5
 40
1.0
 40
1.0
 40
1.0
 40
1.0
 10
192.7107057117979
 20
143.0287103128378
 30
0.0
 10
192.7107057117979
 20
143.1871447557256
 30
0.0
 10
192.6485444953149
 20
143.3461654505276
 30
0.0
 10
192.4280351546433
 20
143.5761732747833
 30
0.0
 10
192.2691200516982
 20
143.6450085496
 30
0.0
 10
192.1107057117979
 20
143.6450085496
 30
0.0
  0
LINE
  5
101
330
1F
100
AcDbEntity
  8
0
  6
Continuous
 62
     7
370
    15
100
AcDbLine
 10
192.7107057118
 20
139.518090439
 30
0.0
 11
192.7107057118
 21
143.0287103128
 31
0.0
  0
SPLINE
  5
102
330
1F
100
AcDbEntity
  8
0
  6
Continuous
 62
     7
370
    15
100
AcDbSpline
210
0.0
220
0.0
230
1.0
 70
     8
 71
     3
 72
    12
 73
     8
 74
     0
 42
0.00000001
 43
0.00000001
 12
1.0
 22
0.0
 32
0.0
 13
1.0
 23
0.0
 33
0.0
 40
0.0
 40
0.0
 40
0.0
 40
0.0
 40
0.2499999999999986
 40
0.2499999999999986
 40
0.4999999999999971
 40
0.4999999999999971
 40
1.0
 40
1.0
 40
1.0
 40
1.0
 10
192.1107057117979
 20
140.2692422807724
 30
0.0
 10
192.1999940708417
 20
140.2692422807724
 30
0.0
 10
192.2880529017439
 20
140.2436176481676
 30
0.0
 10
192.440706614993
 20
140.1550742752358
 30
0.0
 10
192.506500108335
 20
140.0921917921212
 30
0.0
 10
192.6619407550511
 20
139.8748306041876
 30
0.0
 10
192.7107057117979
 20
139.6961835941762
 30
0.0
 10
192.7107057117979
 20
139.5180904390005
 30
0.0
  0
LINE
  5
103
330
1F
100
AcDbEntity
  8
0
  6
Continuous
 62
     7
370
    15
100
AcDbLine
 10
192.1107057118
 20
143.6450085496
 30
0.0
 11
190.7958654107
 21
143.6450085496
 31
0.0
  0
LINE
  5
104
330
1F
100
AcDbEntity
  8
0
  6
Continuous
 62
     7
370
    15
100
AcDbLine
 10
190.7958654107
 20
140.2692422808
 30
0.0
 11
192.1107057118
 21
140.2692422808
 31
0.0
  0
SPLINE
  5
105
330
1F
100
AcDbEntity
  8
0
  6
Continuous
 62
     7
370
    15
100
AcDbSpline
210
0.0
220
0.0
230
1.0
 70
     8
 71
     3
 72
    10
 73
     6
 74
     0
 42
0.00000001
 43
0.00000001
 12
1.0
 22
0.0
 32
0.0
 13
1.0
 23
0.0
 33
0.0
 40
0.0
 40
0.0
 40
0.0
 40
0.0
 40
0.5
 40
0.5
 40
1.0
 40
1.0
 40
1.0
 40
1.0
 10
187.9690500975479
 20
141.0578332796949
 30
0.0
 10
187.8917253656736
 20
141.1157152805565
 30
0.0
 10
187.8283455401371
 20
141.1927886251904
 30
0.0
 10
187.7427750913641
 20
141.3672916833843
 30
0.0
 10
187.7207057117979
 20
141.4640968868647
 30
0.0
 10
187.7207057117979
 20
141.5604372515147
 30
0.0
  0
SPLINE
  5
106
330
1F
100
AcDbEntity
  8
0
  6
Continuous
 62
     7
370
    15
100
AcDbSpline
210
0.0
220
0.0
230
1.0
 70
    24
 71
     3
 72
    12
 73
     8
 74
     0
 42
0.00000001
 43
0.00000001
 12
1.0
 22
0.0
 32
0.0
 13
1.0
 23
0.0
 33
0.0
 40
0.0
 40
0.0
 40
0.0
 40
0.0
 40
0.25
 40
0.25
 40
0.5
 40
0.5
 40
1.0
 40
1.0
 40
1.0
 40
1.0
 10
188.3207057117977
 20
141.0578332796949
 30
0.0
 10
188.2694164667613
 20
141.0578332796949
 30
0.0
 10
188.2222284410897
 20
141.0578332796949
 30
0.0
 10
188.1492122323947
 20
141.0578332796949
 30
0.0
 10
188.119720624855
 20
141.0578332796949
 30
0.0
 10
188.0421385857605
 20
141.0578332796949
 30
0.0
 10
188.0029772730452
 20
141.0578332796949
 30
0.0
 10
187.969050097547
 20
141.0578332796949
 30
0.0
  0
SPLINE
  5
107
330
1F
100
AcDbEntity
  8
0
  6
Continuous
 62
     7
370
    15
100
AcDbSpline
210
0.0
220
0.0
230
1.0
 70
     8
 71
     3
 72
    12
 73
     8
 74
     0
 42
0.00000001
 43
0.00000001
 12
1.0
 22
0.0
 32
0.0
 13
1.0
 23
0.0
 33
0.0
 40
0.0
 40
0.0
 40
0.0
 40
0.0
 40
0.499999999999998
 40
0.499999999999998
 40
0.749999999999999
 40
0.749999999999999
 40
1.0
 40
1.0
 40
1.0
 40
1.0
 10
187.7207057117979
 20
137.6736804599496
 30
0.0
 10
187.7207057117979
 20
137.4892412343231
 30
0.0
 10
187.7675484062504
 20
137.3023320148158
 30
0.0
 10
187.917100428947
 20
137.068696662195
 30
0.0
 10
187.9812054242512
 20
136.9984470304178
 30
0.0
 10
188.1354343795578
 20
136.8962062814566
 30
0.0
 10
188.2281108874908
 20
136.8648441398462
 30
0.0
 10
188.3207057117975
 20
136.8648441398461
 30
0.0
  0
SPLINE
  5
108
330
1F
100
AcDbEntity
  8
0
  6
Continuous
 62
     7
370
    15
100
AcDbSpline
210
0.0
220
0.0
230
1.0
 70
    24
 71
     3
 72
    12
 73
     8
 74
     0
 42
0.00000001
 43
0.00000001
 12
1.0
 22
0.0
 32
0.0
 13
1.0
 23
0.0
 33
0.0
 40
0.0
 40
0.0
 40
0.0
 40
0.0
 40
0.4999999999999957
 40
0.4999999999999957
 40
0.7499999999999978
 40
0.7499999999999978
 40
1.0
 40
1.0
 40
1.0
 40
1.0
 10
189.5523613260488
 20
141.0578332796949
 30
0.0
 10
189.5181913646982
 20
141.0578332796949
 30
0.0
 10
189.4789412236467
 20
141.0578332796949
 30
0.0
 10
189.4009412131337
 20
141.0578332796949
 30
0.0
 10
189.3715382847328
 20
141.0578332796949
 30
0.0
 10
189.2983936905843
 20
141.0578332796949
 30
0.0
 10
189.2517637126164
 20
141.0578332796949
 30
0.0
 10
189.2007057117979
 20
141.0578332796949
 30
0.0
  0
SPLINE
  5
109
330
1F
100
AcDbEntity
  8
0
  6
Continuous
 62
     7
370
    15
100
AcDbSpline
210
0.0
220
0.0
230
1.0
 70
     8
 71
     3
 72
    10
 73
     6
 74
     0
 42
0.00000001
 43
0.00000001
 12
1.0
 22
0.0
 32
0.0
 13
1.0
 23
0.0
 33
0.0
 40
0.0
 40
0.0
 40
0.0
 40
0.0
 40
0.5
 40
0.5
 40
1.0
 40
1.0
 40
1.0
 40
1.0
 10
189.8007057117979
 20
141.5604372515136
 30
0.0
 10
189.8007057117977
 20
141.4638947040381
 30
0.0
 10
189.7787650892168
 20
141.367433503769
 30
0.0
 10
189.6926349038265
 20
141.192030909526
 30
0.0
 10
189.6295525966842
 20
141.1156153771593
 30
0.0
 10
189.5523613260526
 20
141.0578332796984
 30
0.0
  0
SPLINE
  5
10A
330
1F
100
AcDbEntity
  8
0
  6
Continuous
 62
     7
370
    15
100
AcDbSpline
210
0.0
220
0.0
230
1.0
 70
     8
 71
     3
 72
    12
 73
     8
 74
     0
 42
0.00000001
 43
0.00000001
 12
1.0
 22
0.0
 32
0.0
 13
1.0
 23
0.0
 33
0.0
 40
0.0
 40
0.0
 40
0.0
 40
0.0
 40
0.25
 40
0.25
 40
0.5
 40
0.5
 40
1.0
 40
1.0
 40
1.0
 40
1.0
 10
189.2007057117979
 20
136.8648441398461
 30
0.0
 10
189.293956730131
 20
136.8648441398461
 30
0.0
 10
189.3854624389569
 20
136.8959054582454
 30
0.0
 10
189.540385973492
 20
136.998526108626
 30
0.0
 10
189.6039807914343
 20
137.0681786367048
 30
0.0
 10
189.7545397481173
 20
137.3033935686066
 30
0.0
 10
189.8007057117979
 20
137.4881996580159
 30
0.0
 10
189.8007057117979
 20
137.6736804599496
 30
0.0
  0
LINE
  5
10B
330
1F
100
AcDbEntity
  8
0
  6
Continuous
 62
     7
370
    15
100
AcDbLine
 10
188.3207057118
 20
136.8648441398
 30
0.0
 11
189.2007057118
 21
136.8648441398
 31
0.0
  0
LINE
  5
10C
330
1F
100
AcDbEntity
  8
0
  6
Continuous
 62
     7
370
    15
100
AcDbLine
 10
189.8007057118
 20
137.6736804599
 30
0.0
 11
189.8007057118
 21
138.0719211792
 31
0.0
  0
LINE
  5
10D
330
1F
100
AcDbEntity
  8
0
  6
Continuous
 62
     7
370
    15
100
AcDbLine
 10
187.7207057118
 20
138.0719211792
 30
0.0
 11
187.7207057118
 21
137.6736804599
 31
0.0
  0
LINE
  5
10E
330
1F
100
AcDbEntity
  8
0
  6
Continuous
 62
     7
370
    15
100
AcDbLine
 10
192.7107057118
 20
139.518090439
 30
0.0
 11
192.7107057118
 21
137.0352359681
 31
0.0
  0
LINE
  5
10F
330
1F
100
AcDbEntity
  8
0
  6
Continuous
 62
     7
370
    15
100
AcDbLine
 10
189.2007057118
 20
141.0578332797
 30
0.0
 11
188.3207057118
 21
141.0578332797
 31
0.0
  0
LINE
  5
110
330
1F
100
AcDbEntity
  8
0
  6
Continuous
 62
     7
370
    15
100
AcDbLine
 10
152.8607057118
 20
112.339361007
 30
0.0
 11
152.8607057118
 21
112.6103200785
 31
0.0
  0
LINE
  5
111
330
1F
100
AcDbEntity
  8
0
  6
Continuous
 62
     7
370
    15
100
AcDbLine
 10
152.8607057118
 20
136.031747417
 30
0.0
 11
152.8607057118
 21
135.9360647441
 31
0.0
  0
SPLINE
  5
112
330
1F
100
AcDbEntity
  8
0
  6
Continuous
 62
     7
370
    15
100
AcDbSpline
210
0.0
220
0.0
230
1.0
 70
     8
 71
     3
 72
    10
 73
     6
 74
     0
 42
0.00000001
 43
0.00000001
 12
1.0
 22
0.0
 32
0.0
 13
1.0
 23
0.0
 33
0.0
 40
0.0
 40
0.0
 40
0.0
 40
0.0
 40
0.5
 40
0.5
 40
1.0
 40
1.0
 40
1.0
 40
1.0
 10
206.9933787238189
 20
108.067426229461
 30
0.0
 10
207.2206300175505
 20
108.0608997300309
 30
0.0
 10
207.4364401393052
 20
107.9737056492288
 30
0.0
 10
207.781425008907
 20
107.6820127890416
 30
0.0
 10
207.9032093072618
 20
107.4851693572284
 30
0.0
 10
207.959304550108
 20
107.2653646414678
 30
0.0
  0
SPLINE
  5
113
330
1F
100
AcDbEntity
  8
0
  6
Continuous
 62
     7
370
    15
100
AcDbSpline
210
0.0
220
0.0
230
1.0
 70
     8
 71
     3
 72
     8
 73
     4
 74
     0
 42
0.00000001
 43
0.00000001
 12
1.0
 22
0.0
 32
0.0
 13
1.0
 23
0.0
 33
0.0
 40
0.0
 40
0.0
 40
0.0
 40
0.0
 40
1.0
 40
1.0
 40
1.0
 40
1.0
 10
207.0651211172734
 20
139.1436055996594
 30
0.0
 10
207.0413527060954
 20
139.1405192610922
 30
0.0
 10
207.0174400208273
 20
139.1383086018654
 30
0.0
 10
206.9933787238197
 20
139.1369999495744
 30
0.0
  0
LINE
  5
114
330
1F
100
AcDbEntity
  8
0
  6
Continuous
 62
     7
370
    15
100
AcDbLine
 10
219.1345684015
 20
122.8148344312
 30
0.0
 11
207.0651211173
 21
139.1436055997
 31
0.0
  0
LINE
  5
115
330
1F
100
AcDbEntity
  8
0
  6
Continuous
 62
     7
370
    15
100
AcDbLine
 10
219.1224376176
 20
121.8657407826
 30
0.0
 11
219.1345684015
 21
122.8148344312
 31
0.0
  0
ARC
  5
116
330
1F
100
AcDbEntity
  8
0
  6
Continuous
 62
     7
370
    15
100
AcDbCircle
 10
244.8130934006
 20
121.5197798813
 30
0.0
 40
25.69298510305795
100
AcDbArc
 50
179.2284781825
 51
206.0292797108
  0
LINE
  5
117
330
1F
100
AcDbEntity
  8
0
  6
Continuous
 62
     7
370
    15
100
AcDbLine
 10
218.0235992597
 20
110.439508258
 30
0.0
 11
221.7261501069
 21
110.2449170059
 31
0.0
  0
ELLIPSE
  5
118
330
1F
100
AcDbEntity
  8
0
  6
Continuous
 62
     7
370
    15
100
AcDbEllipse
 10
216.6093460867
 20
108.2209621251
 30
0.0
 11
-1.11736946871855
 21
2.767460135615096
 31
0.0
210
0.0
220
0.0
230
1.0
 40
0.8354536075
 41
5.249760830215996
 42
6.573783893731189
  0
LINE
  5
119
330
1F
100
AcDbEntity
  8
0
  6
Continuous
 62
     7
370
    15
100
AcDbLine
 10
211.7982113735
 20
110.7666897264
 30
0.0
 11
214.8763532881
 21
110.6049149085
 31
0.0
  0
LINE
  5
11A
330
1F
100
AcDbEntity
  8
0
  6
Continuous
 62
     7
370
    15
100
AcDbLine
 10
209.8702100825
 20
113.9234961345
 30
0.0
 11
211.7982113735
 21
110.7666897264
 31
0.0
  0
ARC
  5
11B
330
1F
100
AcDbEntity
  8
0
  6
Continuous
 62
     7
370
    15
100
AcDbCircle
 10
208.0972932729
 20
112.8026484851
 30
0.0
 40
2.097506487969462
100
AcDbArc
 50
32.3012968731
 51
211.3994030971
  0
LINE
  5
11C
330
1F
100
AcDbEntity
  8
0
  6
Continuous
 62
     7
370
    15
100
AcDbLine
 10
214.4551582501
 20
98.3684105873
 30
0.0
 11
206.306953553
 21
111.7098460536
 31
0.0
  0
LINE
  5
11D
330
1F
100
AcDbEntity
  8
0
  6
Continuous
 62
     7
370
    15
100
AcDbLine
 10
210.2168174979
 20
98.5911608121
 30
0.0
 11
214.4551582501
 21
98.3684105873
 31
0.0
  0
SPLINE
  5
11E
330
1F
100
AcDbEntity
  8
0
  6
Continuous
 62
     7
370
    15
100
AcDbSpline
210
0.0
220
0.0
230
1.0
 70
     8
 71
     3
 72
     8
 73
     4
 74
     0
 42
0.00000001
 43
0.00000001
 12
1.0
 22
0.0
 32
0.0
 13
1.0
 23
0.0
 33
0.0
 40
0.0
 40
0.0
 40
0.0
 40
0.0
 40
1.0
 40
1.0
 40
1.0
 40
1.0
 10
207.959304550108
 20
107.2653646414678
 30
0.0
 10
208.6981571801372
 20
104.3702297941543
 30
0.0
 10
209.4551287140884
 20
101.4800502477705
 30
0.0
 10
210.2168174978514
 20
98.5911608121172
 30
0.0
  0
CIRCLE
  5
11F
330
1F
100
AcDbEntity
  8
0
  6
Continuous
 62
     7
370
    15
100
AcDbCircle
 10
212.2724669206
 20
118.3108248697
 30
0.0
 40
3.476487220717134
  0
SPLINE
  5
120
330
1F
100
AcDbEntity
  8
0
  6
Continuous
 62
     7
370
    15
100
AcDbSpline
210
0.0
220
0.0
230
1.0
 70
     8
 71
     3
 72
     8
 73
     4
 74
     0
 42
0.00000001
 43
0.00000001
 12
1.0
 22
0.0
 32
0.0
 13
1.0
 23
0.0
 33
0.0
 40
0.0000006123680374
 40
0.0000006123680374
 40
0.0000006123680374
 40
0.0000006123680374
 40
0.0002225515425025
 40
0.0002225515425025
 40
0.0002225515425025
 40
0.0002225515425025
 10
206.9933787238189
 20
139.227991419323
 30
0.0
 10
207.0175389540652
 20
139.199519127431
 30
0.0
 10
207.0414446970229
 20
139.1714024518386
 30
0.0
 10
207.0651211172734
 20
139.1436055996594
 30
0.0
  0
LINE
  5
121
330
1F
100
AcDbEntity
  8
0
  6
Continuous
 62
     7
370
    15
100
AcDbLine
 10
153.8107057118
 20
137.0378332797
 30
0.0
 11
153.8107057118
 21
137.0234138267
 31
0.0
  0
LINE
  5
122
330
1F
100
AcDbEntity
  8
0
  6
Continuous
 62
     7
370
    15
100
AcDbLine
 10
152.8607057118
 20
136.0878332797
 30
0.0
 11
152.8607057118
 21
136.031747417
 31
0.0
  0
LINE
  5
123
330
1F
100
AcDbEntity
  8
0
  6
Continuous
 62
     7
370
    15
100
AcDbLine
 10
153.8697057118
 20
111.2778332797
 30
0.0
 11
153.8697057118
 21
111.3067664021
 31
0.0
  0
LINE
  5
124
330
1F
100
AcDbEntity
  8
0
  6
Continuous
 62
     7
370
    15
100
AcDbLine
 10
152.8607057118
 20
112.2868332797
 30
0.0
 11
152.8607057118
 21
112.339361007
 31
0.0
  0
LINE
  5
125
330
1F
100
AcDbEntity
  8
0
  6
Continuous
 62
     7
370
    15
100
AcDbLine
 10
210.6745760273
 20
111.7232584933
 30
0.0
 11
211.7982113735
 21
110.7666897264
 31
0.0
  0
LINE
  5
126
330
1F
100
AcDbEntity
  8
0
  6
Continuous
 62
     7
370
    15
100
AcDbLine
 10
210.6745760273
 20
111.7232584933
 30
0.0
 11
208.8028841234
 21
114.7878669165
 31
0.0
  0
LINE
  5
127
330
1F
100
AcDbEntity
  8
0
  6
Continuous
 62
     7
370
    15
100
AcDbLine
 10
210.2168174979
 20
98.5911608121
 30
0.0
 11
210.1383896035
 21
98.8156133588
 31
0.0
  0
LINE
  5
128
330
1F
100
AcDbEntity
  8
0
  6
HIDDEN
 62
     7
370
     0
100
AcDbLine
 10
172.7607057118
 20
143.8578332744
 30
0.0
 11
172.7607057118
 21
104.4578332797
 31
0.0
  0
LINE
  5
129
330
1F
100
AcDbEntity
  8
0
  6
HIDDEN
 62
     7
370
     0
100
AcDbLine
 10
180.7107057118
 20
104.1578332797
 30
0.0
 11
180.7107057118
 21
104.1828489243
 31
0.0
  0
SPLINE
  5
12A
330
1F
100
AcDbEntity
  8
0
  6
HIDDEN
 62
     7
370
     0
100
AcDbSpline
210
0.0
220
0.0
230
1.0
 70
     8
 71
     3
 72
    22
 73
    18
 74
     0
 42
0.00000001
 43
0.00000001
 12
1.0
 22
0.0
 32
0.0
 13
1.0
 23
0.0
 33
0.0
 40
0.0
 40
0.0
 40
0.0
 40
0.0
 40
0.125
 40
0.125
 40
0.25
 40
0.25
 40
0.375
 40
0.375
 40
0.5
 40
0.5
 40
0.625
 40
0.625
 40
0.75
 40
0.75
 40
0.875
 40
0.875
 40
1.0
 40
1.0
 40
1.0
 40
1.0
 10
180.7107057117979
 20
104.1828489242567
 30
0.0
 10
180.7107057117979
 20
104.197804516866
 30
0.0
 10
180.7401541329281
 20
104.2191927135124
 30
0.0
 10
180.8549919991519
 20
104.2735709601277
 30
0.0
 10
180.9418048376897
 20
104.3070171237361
 30
0.0
 10
181.1674522099856
 20
104.3817813991338
 30
0.0
 10
181.3052893516498
 20
104.4228798880948
 30
0.0
 10
181.6304903115542
 20
104.5094328170585
 30
0.0
 10
181.8191925914622
 20
104.5550837161564
 30
0.0
 10
182.2315243116944
 20
104.6433632713213
 30
0.0
 10
182.4566712380463
 20
104.6864646213285
 30
0.0
 10
182.9466470894036
 20
104.7666688011838
 30
0.0
 10
183.2073547315255
 20
104.8029636485734
 30
0.0
 10
183.7482121122411
 20
104.8631428677231
 30
0.0
 10
184.0319027382952
 20
104.8874302051542
 30
0.0
 10
184.6159851092246
 20
104.9204282994655
 30
0.0
 10
184.9115526642165
 20
104.9289487566655
 30
0.0
 10
185.2107057117979
 20
104.9289487566655
 30
0.0
  0
LINE
  5
12B
330
1F
100
AcDbEntity
  8
0
  6
HIDDEN
 62
     7
370
     0
100
AcDbLine
 10
185.2107057118
 20
104.9289487567
 30
0.0
 11
186.7255460129
 21
104.9289487567
 31
0.0
  0
LINE
  5
12C
330
1F
100
AcDbEntity
  8
0
  6
HIDDEN
 62
     7
370
     0
100
AcDbLine
 10
186.7255460129
 20
143.6450085496
 30
0.0
 11
186.7255460129
 21
104.9289487567
 31
0.0
  0
LINE
  5
12D
330
1F
100
AcDbEntity
  8
0
  6
HIDDEN
 62
     7
370
     0
100
AcDbLine
 10
185.2107057118
 20
143.6450085496
 30
0.0
 11
186.7255460129
 21
143.6450085496
 31
0.0
  0
SPLINE
  5
12E
330
1F
100
AcDbEntity
  8
0
  6
HIDDEN
 62
     7
370
     0
100
AcDbSpline
210
0.0
220
0.0
230
1.0
 70
     8
 71
     3
 72
    24
 73
    20
 74
     0
 42
0.00000001
 43
0.00000001
 12
1.0
 22
0.0
 32
0.0
 13
1.0
 23
0.0
 33
0.0
 40
0.0
 40
0.0
 40
0.0
 40
0.0
 40
0.0117108460769376
 40
0.0659886545615338
 40
0.1176345701638059
 40
0.2219208156641859
 40
0.2751660384998965
 40
0.3271703075620232
 40
0.379526562567326
 40
0.4324221120994051
 40
0.486052921959237
 40
0.5922069786485413
 40
0.6466607151669145
 40
0.7015150059953161
 40
0.8079331324654485
 40
0.8625917672408678
 40
0.9176759912570389
 40
0.9587469730330015
 40
1.0
 40
1.0
 40
1.0
 40
1.0
 10
180.7134358473874
 20
144.1572195029214
 30
0.0
 10
180.712596378253
 20
144.157408228073
 30
0.0
 10
180.7078661104005
 20
144.1584716626669
 30
0.0
 10
180.7307573243392
 20
144.1533182411064
 30
0.0
 10
180.799819853899
 20
144.1379062325836
 30
0.0
 10
180.9320193247884
 20
144.108887776685
 30
0.0
 10
181.120240275319
 20
144.0694915899014
 30
0.0
 10
181.2896757521835
 20
144.0353073279381
 30
0.0
 10
181.4848641694323
 20
143.9976396837435
 30
0.0
 10
181.7074368252071
 20
143.9569485025646
 30
0.0
 10
182.0374981679862
 20
143.9004140206615
 30
0.0
 10
182.4162072959661
 20
143.8425490703912
 30
0.0
 10
182.8348703367684
 20
143.7884077333503
 30
0.0
 10
183.2772877092882
 20
143.7384544902142
 30
0.0
 10
183.750977972538
 20
143.696982821271
 30
0.0
 10
184.2442542387316
 20
143.667709760862
 30
0.0
 10
184.5954685613654
 20
143.6538045829238
 30
0.0
 10
184.9186965463006
 20
143.6462773687224
 30
0.0
 10
185.1132259340247
 20
143.6454321123531
 30
0.0
 10
185.2107057117979
 20
143.6450085496
 30
0.0
  0
SPLINE
  5
12F
330
1F
100
AcDbEntity
  8
0
  6
HIDDEN
 62
     7
370
     0
100
AcDbSpline
210
0.0
220
0.0
230
1.0
 70
     8
 71
     3
 72
    76
 73
    72
 74
     0
 42
0.00000001
 43
0.00000001
 12
1.0
 22
0.0
 32
0.0
 13
1.0
 23
0.0
 33
0.0
 40
-0.0312499999999999
 40
-0.0312499999999999
 40
0.0
 40
0.0
 40
0.03125
 40
0.03125
 40
0.0625
 40
0.0625
 40
0.09375
 40
0.09375
 40
0.1249999999999999
 40
0.1249999999999999
 40
0.1562499999999999
 40
0.1562499999999999
 40
0.1874999999999999
 40
0.1874999999999999
 40
0.2031249999999999
 40
0.2031249999999999
 40
0.2187499999999999
 40
0.2187499999999999
 40
0.2499999999999999
 40
0.2499999999999999
 40
0.2812499999999999
 40
0.2812499999999999
 40
0.3124999999999999
 40
0.3124999999999999
 40
0.3437499999999999
 40
0.3437499999999999
 40
0.3749999999999998
 40
0.3749999999999998
 40
0.4062499999999998
 40
0.4062499999999998
 40
0.4374999999999998
 40
0.4374999999999998
 40
0.4687499999999998
 40
0.4687499999999998
 40
0.4843749999999998
 40
0.4843749999999998
 40
0.4999999999999998
 40
0.4999999999999998
 40
0.5312499999999997
 40
0.5312499999999997
 40
0.5624999999999997
 40
0.5624999999999997
 40
0.5937499999999996
 40
0.5937499999999996
 40
0.6249999999999996
 40
0.6249999999999996
 40
0.6562499999999996
 40
0.6562499999999996
 40
0.6874999999999997
 40
0.6874999999999997
 40
0.7187499999999997
 40
0.7187499999999997
 40
0.7343749999999997
 40
0.7343749999999997
 40
0.7499999999999997
 40
0.7499999999999997
 40
0.7812499999999998
 40
0.7812499999999998
 40
0.8124999999999998
 40
0.8124999999999998
 40
0.8437499999999999
 40
0.8437499999999999
 40
0.8749999999999999
 40
0.8749999999999999
 40
0.90625
 40
0.90625
 40
0.9375
 40
0.9375
 40
0.9687500000000001
 40
0.9687500000000001
 40
1.0
 40
1.0
 40
1.03125
 40
1.03125
 10
179.4289641328826
 20
119.1578332796949
 30
0.0
 10
180.0924472907132
 20
119.1578332796949
 30
0.0
 10
180.4183705122481
 20
119.190519248301
 30
0.0
 10
181.059144291212
 20
119.3183303164017
 30
0.0
 10
181.3773916317317
 20
119.4150944353813
 30
0.0
 10
181.9821931389402
 20
119.6664817325409
 30
0.0
 10
182.2688329774086
 20
119.8201188528028
 30
0.0
 10
182.8113105915172
 20
120.1828768399838
 30
0.0
 10
183.067079147429
 20
120.3930854953976
 30
0.0
 10
183.5262231953441
 20
120.8523364552635
 30
0.0
 10
183.7327423175995
 20
121.1031804704459
 30
0.0
 10
184.0983563109576
 20
121.649294688704
 30
0.0
 10
184.2528311947752
 20
121.9382059878419
 30
0.0
 10
184.4402170183753
 20
122.3890319627002
 30
0.0
 10
184.495441938623
 20
122.5425442521661
 30
0.0
 10
184.5910981272291
 20
122.8562208592677
 30
0.0
 10
184.6316817210119
 20
123.0173434385594
 30
0.0
 10
184.728421720027
 20
123.5018644527915
 30
0.0
 10
184.7605007687193
 20
123.8271645117803
 30
0.0
 10
184.7609087160051
 20
124.4822748954096
 30
0.0
 10
184.7281257124383
 20
124.8150928003728
 30
0.0
 10
184.599955388517
 20
125.4574155612987
 30
0.0
 10
184.5051382923915
 20
125.7697692221616
 30
0.0
 10
184.2533692737225
 20
126.3768312773887
 30
0.0
 10
184.0974528692901
 20
126.6674603684798
 30
0.0
 10
183.7361218123877
 20
127.2076973520678
 30
0.0
 10
183.5279172575478
 20
127.4616790981332
 30
0.0
 10
183.0647214375182
 20
127.9248958099214
 30
0.0
 10
182.8137468695435
 20
128.130826333249
 30
0.0
 10
182.2734513239846
 20
128.492789289035
 30
0.0
 10
181.9806659708974
 20
128.6498819767757
 30
0.0
 10
181.3772884007912
 20
128.9005524848106
 30
0.0
 10
181.0656206612351
 20
128.9957025564065
 30
0.0
 10
180.5827789759707
 20
129.0925208168431
 30
0.0
 10
180.4182755905126
 20
129.1171459570039
 30
0.0
 10
180.090156203842
 20
129.149690924901
 30
0.0
 10
179.9263664458071
 20
129.1577630100843
 30
0.0
 10
179.4357881699414
 20
129.1579724519071
 30
0.0
 10
179.1097833757192
 20
129.1263394802615
 30
0.0
 10
178.4599429332875
 20
128.9970243222884
 30
0.0
 10
178.147133569543
 20
128.9015309793471
 30
0.0
 10
177.5448154977166
 20
128.6518419004127
 30
0.0
 10
177.2523409378146
 20
128.4954234315028
 30
0.0
 10
176.7096066220134
 20
128.1324246434375
 30
0.0
 10
176.4587177148177
 20
127.9265418073889
 30
0.0
 10
175.9972876752209
 20
127.4658498124349
 30
0.0
 10
175.7871067120369
 20
127.2100642181315
 30
0.0
 10
175.4254560331733
 20
126.6700460366955
 30
0.0
 10
175.271241405037
 20
126.3834183195866
 30
0.0
 10
175.0180534004609
 20
125.7751667596055
 30
0.0
 10
174.9223296861127
 20
125.4603864608393
 30
0.0
 10
174.8261245313603
 20
124.9803540469581
 30
0.0
 10
174.8018374603107
 20
124.8186124899675
 30
0.0
 10
174.769151652978
 20
124.491587048535
 30
0.0
 10
174.7607915938086
 20
124.3253312958186
 30
0.0
 10
174.7605359502697
 20
123.830588040472
 30
0.0
 10
174.7926867563083
 20
123.505142915774
 30
0.0
 10
174.9202390461527
 20
122.8628045108885
 30
0.0
 10
175.0171978362801
 20
122.5435942586508
 30
0.0
 10
175.2674477670514
 20
121.9403419890394
 30
0.0
 10
175.42086452497
 20
121.6531738688982
 30
0.0
 10
175.7851785643112
 20
121.1077965273628
 30
0.0
 10
175.993773939794
 20
120.8539696171806
 30
0.0
 10
176.4523928460463
 20
120.3948084249116
 30
0.0
 10
176.7058558616271
 20
120.1860072751012
 30
0.0
 10
177.2507097092335
 20
119.8210799451178
 30
0.0
 10
177.5373959773341
 20
119.667497218282
 30
0.0
 10
178.1391296466892
 20
119.4168718598083
 30
0.0
 10
178.4576531381646
 20
119.3194433481131
 30
0.0
 10
179.102039199722
 20
119.190528017729
 30
0.0
 10
179.4289641328826
 20
119.1578332796949
 30
0.0
 10
180.0924472907132
 20
119.1578332796949
 30
0.0
  0
SPLINE
  5
130
330
1F
100
AcDbEntity
  8
0
  6
HIDDEN
 62
     7
370
     0
100
AcDbSpline
210
0.0
220
0.0
230
1.0
 70
     8
 71
     3
 72
    10
 73
     6
 74
     0
 42
0.00000001
 43
0.00000001
 12
1.0
 22
0.0
 32
0.0
 13
1.0
 23
0.0
 33
0.0
 40
0.0
 40
0.0
 40
0.0
 40
0.0
 40
0.5
 40
0.5
 40
1.0
 40
1.0
 40
1.0
 40
1.0
 10
187.7559281123793
 20
107.2578332796949
 30
0.0
 10
187.7442159954162
 20
107.2234899425009
 30
0.0
 10
187.7354179255441
 20
107.1883974047627
 30
0.0
 10
187.723604367772
 20
107.116725629372
 30
0.0
 10
187.7207057117979
 20
107.0807819750067
 30
0.0
 10
187.7207057117979
 20
107.0449543576666
 30
0.0
  0
LINE
  5
131
330
1F
100
AcDbEntity
  8
0
  6
HIDDEN
 62
     7
370
     0
100
AcDbLine
 10
187.7207057118
 20
107.0449543577
 30
0.0
 11
187.7207057118
 21
136.0078332797
 31
0.0
  0
SPLINE
  5
132
330
1F
100
AcDbEntity
  8
0
  6
HIDDEN
 62
     7
370
     0
100
AcDbSpline
210
0.0
220
0.0
230
1.0
 70
     8
 71
     3
 72
    10
 73
     6
 74
     0
 42
0.00000001
 43
0.00000001
 12
1.0
 22
0.0
 32
0.0
 13
1.0
 23
0.0
 33
0.0
 40
0.0
 40
0.0
 40
0.0
 40
0.0
 40
0.5
 40
0.5
 40
1.0
 40
1.0
 40
1.0
 40
1.0
 10
189.8007057117979
 20
107.0449543576666
 30
0.0
 10
189.8007057117979
 20
107.0811768471073
 30
0.0
 10
189.7977359825005
 20
107.1173700443657
 30
0.0
 10
189.7858570001526
 20
107.1890085357804
 30
0.0
 10
189.777061772312
 20
107.223881860422
 30
0.0
 10
189.7654833112168
 20
107.2578332796943
 30
0.0
  0
LINE
  5
133
330
1F
100
AcDbEntity
  8
0
  6
HIDDEN
 62
     7
370
     0
100
AcDbLine
 10
189.8007057118
 20
107.0449543577
 30
0.0
 11
189.8007057118
 21
136.0078332797
 31
0.0
  0
SPLINE
  5
134
330
1F
100
AcDbEntity
  8
0
  6
HIDDEN
 62
     7
370
     0
100
AcDbSpline
210
0.0
220
0.0
230
1.0
 70
     8
 71
     3
 72
    16
 73
    12
 74
     0
 42
0.00000001
 43
0.00000001
 12
1.0
 22
0.0
 32
0.0
 13
1.0
 23
0.0
 33
0.0
 40
0.0
 40
0.0
 40
0.0
 40
0.0
 40
0.2499999999999998
 40
0.2499999999999998
 40
0.4999999999999996
 40
0.4999999999999996
 40
0.6249999999999996
 40
0.6249999999999996
 40
0.7499999999999996
 40
0.7499999999999996
 40
1.0
 40
1.0
 40
1.0
 40
1.0
 10
193.7107057117979
 20
125.8897015523022
 30
0.0
 10
193.5632498916534
 20
126.1005825799582
 30
0.0
 10
193.4529219739304
 20
126.3304148817508
 30
0.0
 10
193.2998162608377
 20
126.8217659267528
 30
0.0
 10
193.2609296228861
 20
127.0724390273416
 30
0.0
 10
193.260595170738
 20
127.4504722885452
 30
0.0
 10
193.2705106870673
 20
127.5756171467105
 30
0.0
 10
193.3090919007155
 20
127.8171673373218
 30
0.0
 10
193.3377303685206
 20
127.9347861282809
 30
0.0
 10
193.4520281661293
 20
128.2806958697849
 30
0.0
 10
193.5632391879255
 20
128.4950614638063
 30
0.0
 10
193.7107057117979
 20
128.6989395067039
 30
0.0
  0
SPLINE
  5
135
330
1F
100
AcDbEntity
  8
0
  6
HIDDEN
 62
     7
370
     0
100
AcDbSpline
210
0.0
220
0.0
230
1.0
 70
     8
 71
     3
 72
     9
 73
     5
 74
     0
 42
0.00000001
 43
0.00000001
 12
1.0
 22
0.0
 32
0.0
 13
1.0
 23
0.0
 33
0.0
 40
0.0
 40
0.0
 40
0.0
 40
0.0
 40
0.5
 40
1.0
 40
1.0
 40
1.0
 40
1.0
 10
192.7107678349212
 20
141.0578332796949
 30
0.0
 10
192.7107471222179
 20
141.0597561480288
 30
0.0
 10
192.7107160608995
 20
141.0636014370177
 30
0.0
 10
192.7107057117979
 20
141.0674458313382
 30
0.0
 10
192.7107057117979
 20
141.0693678049827
 30
0.0
  0
SPLINE
  5
136
330
1F
100
AcDbEntity
  8
0
  6
HIDDEN
 62
     7
370
     0
100
AcDbSpline
210
0.0
220
0.0
230
1.0
 70
    24
 71
     3
 72
    14
 73
    10
 74
     0
 42
0.00000001
 43
0.00000001
 12
1.0
 22
0.0
 32
0.0
 13
1.0
 23
0.0
 33
0.0
 40
0.0
 40
0.0
 40
0.0
 40
0.0
 40
0.5
 40
0.5
 40
0.75
 40
0.75
 40
0.875
 40
0.875
 40
1.0
 40
1.0
 40
1.0
 40
1.0
 10
192.7107678349212
 20
141.0578332796949
 30
0.0
 10
192.7129211677419
 20
141.0578332796949
 30
0.0
 10
192.768138630471
 20
141.0578332796949
 30
0.0
 10
192.8430977608044
 20
141.0578332796949
 30
0.0
 10
192.8669953370576
 20
141.0578332796949
 30
0.0
 10
192.8924294141183
 20
141.0578332796949
 30
0.0
 10
192.8991917691318
 20
141.0578332796949
 30
0.0
 10
192.9083326250987
 20
141.0578332796949
 30
0.0
 10
192.9107057117979
 20
141.0578332796949
 30
0.0
 10
192.9107057117979
 20
141.0578332796949
 30
0.0
  0
SPLINE
  5
137
330
1F
100
AcDbEntity
  8
0
  6
HIDDEN
 62
     7
370
     0
100
AcDbSpline
210
0.0
220
0.0
230
1.0
 70
     8
 71
     3
 72
     9
 73
     5
 74
     0
 42
0.00000001
 43
0.00000001
 12
1.0
 22
0.0
 32
0.0
 13
1.0
 23
0.0
 33
0.0
 40
0.0
 40
0.0
 40
0.0
 40
0.0
 40
0.5
 40
1.0
 40
1.0
 40
1.0
 40
1.0
 10
192.7107057117979
 20
141.0693678049827
 30
0.0
 10
192.7107057117979
 20
141.0674446804996
 30
0.0
 10
192.7107160732955
 20
141.0635991356547
 30
0.0
 10
192.7107471346114
 20
141.0597549974772
 30
0.0
 10
192.7107678349212
 20
141.0578332796949
 30
0.0
  0
LINE
  5
138
330
1F
100
AcDbEntity
  8
0
  6
HIDDEN
 62
     7
370
     0
100
AcDbLine
 10
192.7107057118
 20
141.069367805
 30
0.0
 11
192.7107057118
 21
107.2578332797
 31
0.0
  0
SPLINE
  5
139
330
1F
100
AcDbEntity
  8
0
  6
HIDDEN
 62
     7
370
     0
100
AcDbSpline
210
0.0
220
0.0
230
1.0
 70
    24
 71
     3
 72
    14
 73
    10
 74
     0
 42
0.00000001
 43
0.00000001
 12
1.0
 22
0.0
 32
0.0
 13
1.0
 23
0.0
 33
0.0
 40
0.0
 40
0.0
 40
0.0
 40
0.0
 40
0.5000000000000001
 40
0.5000000000000001
 40
0.75
 40
0.75
 40
0.8750000000000001
 40
0.8750000000000001
 40
1.0
 40
1.0
 40
1.0
 40
1.0
 10
192.7107057117979
 20
107.2578332796949
 30
0.0
 10
192.7107057117979
 20
107.2578332796949
 30
0.0
 10
192.7661535716292
 20
107.2578332796949
 30
0.0
 10
192.8419358369726
 20
107.2578332796949
 30
0.0
 10
192.8662134990554
 20
107.2578332796949
 30
0.0
 10
192.8920870443939
 20
107.2578332796949
 30
0.0
 10
192.8989742370777
 20
107.2578332796949
 30
0.0
 10
192.9082864278733
 20
107.2578332796949
 30
0.0
 10
192.9107057117979
 20
107.2578332796949
 30
0.0
 10
192.9107057117979
 20
107.2578332796949
 30
0.0
  0
LINE
  5
13A
330
1F
100
AcDbEntity
  8
0
  6
HIDDEN
 62
     7
370
     0
100
AcDbLine
 10
192.7107057118
 20
137.0352359681
 30
0.0
 11
192.7107057118
 21
141.069367805
 31
0.0
  0
LINE
  5
13B
330
1F
100
AcDbEntity
  8
0
  6
HIDDEN
 62
     7
370
     0
100
AcDbLine
 10
192.7107057118
 20
107.2578332797
 30
0.0
 11
192.7107057118
 21
136.0078332797
 31
0.0
  0
LINE
  5
13C
330
1F
100
AcDbEntity
  8
0
  6
HIDDEN
 62
     7
370
     0
100
AcDbLine
 10
180.7107057118
 20
136.0078332797
 30
0.0
 11
185.2043761865
 21
136.0078332797
 31
0.0
  0
SPLINE
  5
13D
330
1F
100
AcDbEntity
  8
0
  6
HIDDEN
 62
     7
370
     0
100
AcDbSpline
210
0.0
220
0.0
230
1.0
 70
     8
 71
     3
 72
    56
 73
    52
 74
     0
 42
0.00000001
 43
0.00000001
 12
1.0
 22
0.0
 32
0.0
 13
1.0
 23
0.0
 33
0.0
 40
0.0
 40
0.0
 40
0.0
 40
0.0
 40
0.0625
 40
0.0625
 40
0.125
 40
0.125
 40
0.15625
 40
0.15625
 40
0.1875
 40
0.1875
 40
0.21875
 40
0.21875
 40
0.25
 40
0.25
 40
0.28125
 40
0.28125
 40
0.3125
 40
0.3125
 40
0.34375
 40
0.34375
 40
0.375
 40
0.375
 40
0.40625
 40
0.40625
 40
0.4375
 40
0.4375
 40
0.5
 40
0.5
 40
0.5625
 40
0.5625
 40
0.625
 40
0.625
 40
0.6875
 40
0.6875
 40
0.71875
 40
0.71875
 40
0.75
 40
0.75
 40
0.78125
 40
0.78125
 40
0.8125
 40
0.8125
 40
0.84375
 40
0.84375
 40
0.875
 40
0.875
 40
0.90625
 40
0.90625
 40
0.9375
 40
0.9375
 40
1.0
 40
1.0
 40
1.0
 40
1.0
 10
193.7107057117979
 20
125.8897015523022
 30
0.0
 10
193.8629799044029
 20
125.671929624476
 30
0.0
 10
194.0450799080617
 20
125.4828743179785
 30
0.0
 10
194.4685965636764
 20
125.1623939225332
 30
0.0
 10
194.7021055351119
 20
125.0376837195473
 30
0.0
 10
195.0778532110221
 20
124.9081467616579
 30
0.0
 10
195.2074356463858
 20
124.8748249909658
 30
0.0
 10
195.4668258417594
 20
124.8297661204821
 30
0.0
 10
195.5977506513175
 20
124.8176027181962
 30
0.0
 10
195.8620950664644
 20
124.8143121678758
 30
0.0
 10
195.9959738577249
 20
124.8234577086726
 30
0.0
 10
196.2567504619445
 20
124.8624211176922
 30
0.0
 10
196.3848364698357
 20
124.8921356722939
 30
0.0
 10
196.6364088497041
 20
124.9719933263931
 30
0.0
 10
196.7606913374586
 20
125.0226831461929
 30
0.0
 10
196.9964492929824
 20
125.1414505102365
 30
0.0
 10
197.1088176500252
 20
125.209663687487
 30
0.0
 10
197.3226488185572
 20
125.3635209892201
 30
0.0
 10
197.4248957299933
 20
125.4500471488625
 30
0.0
 10
197.6124126139846
 20
125.6359253238598
 30
0.0
 10
197.6980848004445
 20
125.7353117741097
 30
0.0
 10
197.8535013430444
 20
125.9467133005144
 30
0.0
 10
197.9237379988898
 20
126.0597450287478
 30
0.0
 10
198.0447073996592
 20
126.2939074974813
 30
0.0
 10
198.0953074287557
 20
126.4143307082071
 30
0.0
 10
198.2181051309721
 20
126.7852965544264
 30
0.0
 10
198.260737584836
 20
127.0483823569513
 30
0.0
 10
198.2606738019797
 20
127.564576371719
 30
0.0
 10
198.2179669587025
 20
127.8251862995048
 30
0.0
 10
198.0540822976228
 20
128.3108024999498
 30
0.0
 10
197.9306691291181
 20
128.5427120433914
 30
0.0
 10
197.6198875063199
 20
128.9506013984302
 30
0.0
 10
197.428509149159
 20
129.132031319743
 30
0.0
 10
197.1081776916616
 20
129.351476652313
 30
0.0
 10
196.9957920388779
 20
129.4162657826428
 30
0.0
 10
196.7595713956796
 20
129.5289893264342
 30
0.0
 10
196.6353884881706
 20
129.5768064100079
 30
0.0
 10
196.384211779762
 20
129.6520447145012
 30
0.0
 10
196.2561664963166
 20
129.680045051261
 30
0.0
 10
195.9951170593303
 20
129.7167422249653
 30
0.0
 10
195.8611475282048
 20
129.7252988508542
 30
0.0
 10
195.5971583169071
 20
129.722125417051
 30
0.0
 10
195.4662430184931
 20
129.7106574588637
 30
0.0
 10
195.2065566522559
 20
129.6680443854698
 30
0.0
 10
195.0766775800021
 20
129.6364599151716
 30
0.0
 10
194.8266737106442
 20
129.5548889691715
 30
0.0
 10
194.7061508675683
 20
129.505042211674
 30
0.0
 10
194.4738959846078
 20
129.3873884002587
 30
0.0
 10
194.3612283528244
 20
129.3188581440889
 30
0.0
 10
194.0448238484872
 20
129.0902585994536
 30
0.0
 10
193.8629818171081
 20
128.9094669777219
 30
0.0
 10
193.7107057117979
 20
128.6989395067039
 30
0.0
  0
SPLINE
  5
13E
330
1F
100
AcDbEntity
  8
0
  6
HIDDEN
 62
     7
370
     0
100
AcDbSpline
210
0.0
220
0.0
230
1.0
 70
     8
 71
     3
 72
    24
 73
    20
 74
     0
 42
0.00000001
 43
0.00000001
 12
1.0
 22
0.0
 32
0.0
 13
1.0
 23
0.0
 33
0.0
 40
0.0
 40
0.0
 40
0.0
 40
0.0
 40
0.1249999999999994
 40
0.1249999999999994
 40
0.2499999999999989
 40
0.2499999999999989
 40
0.3749999999999983
 40
0.3749999999999983
 40
0.4374999999999984
 40
0.4374999999999984
 40
0.4999999999999984
 40
0.4999999999999984
 40
0.6249999999999988
 40
0.6249999999999988
 40
0.7499999999999991
 40
0.7499999999999991
 40
0.8749999999999996
 40
0.8749999999999996
 40
1.0
 40
1.0
 40
1.0
 40
1.0
 10
206.9933787238189
 20
117.2582449399785
 30
0.0
 10
206.7788169280323
 20
117.4648137529951
 30
0.0
 10
206.5872486382668
 20
117.6872508424232
 30
0.0
 10
206.2469461551787
 20
118.1633952827758
 30
0.0
 10
206.0975463796711
 20
118.4185792190767
 30
0.0
 10
205.8479650815297
 20
118.9576043828436
 30
0.0
 10
205.7500541654218
 20
119.2358743347848
 30
0.0
 10
205.6446117829709
 20
119.6671685317337
 30
0.0
 10
205.6164218876028
 20
119.8132619870226
 30
0.0
 10
205.5748632223239
 20
120.1104255093549
 30
0.0
 10
205.5615012401567
 20
120.2625325996135
 30
0.0
 10
205.5459948868267
 20
120.7167364055833
 30
0.0
 10
205.5675494901696
 20
121.0176986187445
 30
0.0
 10
205.6774580770243
 20
121.6153687725794
 30
0.0
 10
205.7679930551666
 20
121.9158645649497
 30
0.0
 10
206.0125847501312
 20
122.4805939891834
 30
0.0
 10
206.1661730162214
 20
122.7475698162335
 30
0.0
 10
206.5387215381373
 20
123.2487948446526
 30
0.0
 10
206.7533945572825
 20
123.4767391034601
 30
0.0
 10
206.9933787238188
 20
123.6786632349461
 30
0.0
  0
ELLIPSE
  5
13F
330
1F
100
AcDbEntity
  8
0
  6
HIDDEN
 62
     7
370
     0
100
AcDbEllipse
 10
217.9639173626
 20
124.1578332797
 30
0.0
 11
-12.35438222969202
 21
16.49617782666479
 31
0.0
210
0.0
220
0.0
230
1.0
 40
0.0287452423
 41
6.261660632376765
 42
6.800813143521244
  0
LINE
  5
140
330
1F
100
AcDbEntity
  8
0
  6
HIDDEN
 62
     7
370
     0
100
AcDbLine
 10
172.7607057118
 20
107.9506325946
 30
0.0
 11
172.7607057118
 21
140.352220507
 31
0.0
  0
LINE
  5
141
330
1F
100
AcDbEntity
  8
0
  6
HIDDEN
 62
     7
370
     0
100
AcDbLine
 10
170.7607057118
 20
139.2615336805
 30
0.0
 11
170.7607057118
 21
109.0541328789
 31
0.0
  0
SPLINE
  5
142
330
1F
100
AcDbEntity
  8
0
  6
HIDDEN
 62
     7
370
     0
100
AcDbSpline
210
0.0
220
0.0
230
1.0
 70
     8
 71
     3
 72
     8
 73
     4
 74
     0
 42
0.00000001
 43
0.00000001
 12
1.0
 22
0.0
 32
0.0
 13
1.0
 23
0.0
 33
0.0
 40
0.0
 40
0.0
 40
0.0
 40
0.0
 40
1.0
 40
1.0
 40
1.0
 40
1.0
 10
153.8021895622288
 20
111.4546555801513
 30
0.0
 10
153.816324006857
 20
111.4038592565181
 30
0.0
 10
153.8393813820056
 20
111.3546205059579
 30
0.0
 10
153.8697057117979
 20
111.3067664021386
 30
0.0
  0
SPLINE
  5
143
330
1F
100
AcDbEntity
  8
0
  6
HIDDEN
 62
     7
370
     0
100
AcDbSpline
210
0.0
220
0.0
230
1.0
 70
     8
 71
     3
 72
    10
 73
     6
 74
     0
 42
0.00000001
 43
0.00000001
 12
1.0
 22
0.0
 32
0.0
 13
1.0
 23
0.0
 33
0.0
 40
0.0
 40
0.0
 40
0.0
 40
0.0
 40
0.5
 40
0.5
 40
1.0
 40
1.0
 40
1.0
 40
1.0
 10
153.8697057117979
 20
111.3067664021386
 30
0.0
 10
154.0850647423553
 20
111.3137792331091
 30
0.0
 10
154.2995060806793
 20
111.3225539567644
 30
0.0
 10
154.7244972992998
 20
111.3476071343122
 30
0.0
 10
154.9358700310225
 20
111.3622929671126
 30
0.0
 10
155.1398823200994
 20
111.3912111526173
 30
0.0
  0
SPLINE
  5
144
330
1F
100
AcDbEntity
  8
0
  6
HIDDEN
 62
     7
370
     0
100
AcDbSpline
210
0.0
220
0.0
230
1.0
 70
     8
 71
     3
 72
    10
 73
     6
 74
     0
 42
0.00000001
 43
0.00000001
 12
1.0
 22
0.0
 32
0.0
 13
1.0
 23
0.0
 33
0.0
 40
0.0
 40
0.0
 40
0.0
 40
0.0
 40
0.5
 40
0.5
 40
1.0
 40
1.0
 40
1.0
 40
1.0
 10
155.1398823200994
 20
111.3912111526174
 30
0.0
 10
155.6158068863204
 20
111.4586721617288
 30
0.0
 10
156.0996857964712
 20
111.5165656848562
 30
0.0
 10
157.0749737497138
 20
111.6232954861629
 30
0.0
 10
157.5666197273491
 20
111.6718467794405
 30
0.0
 10
158.0607057117978
 20
111.7174632321839
 30
0.0
  0
SPLINE
  5
145
330
1F
100
AcDbEntity
  8
0
  6
HIDDEN
 62
     7
370
     0
100
AcDbSpline
210
0.0
220
0.0
230
1.0
 70
     8
 71
     3
 72
    14
 73
    10
 74
     0
 42
0.00000001
 43
0.00000001
 12
1.0
 22
0.0
 32
0.0
 13
1.0
 23
0.0
 33
0.0
 40
0.0
 40
0.0
 40
0.0
 40
0.0
 40
0.1250000000000002
 40
0.1250000000000002
 40
0.2500000000000005
 40
0.2500000000000005
 40
0.500000000000001
 40
0.500000000000001
 40
1.0
 40
1.0
 40
1.0
 40
1.0
 10
158.0607057117979
 20
111.7174632321839
 30
0.0
 10
158.1097180346093
 20
111.721988291339
 30
0.0
 10
158.1625242596047
 20
111.7138689057845
 30
0.0
 10
158.2475913513342
 20
111.6835388306331
 30
0.0
 10
158.2821755366749
 20
111.6628838735566
 30
0.0
 10
158.3707312220122
 20
111.5983477502298
 30
0.0
 10
158.4116669233335
 20
111.5511095701771
 30
0.0
 10
158.5155474502364
 20
111.4113134688935
 30
0.0
 10
158.5587712496685
 20
111.3174285300242
 30
0.0
 10
158.592970618941
 20
111.2274574168102
 30
0.0
  0
SPLINE
  5
146
330
1F
100
AcDbEntity
  8
0
  6
HIDDEN
 62
     7
370
     0
100
AcDbSpline
210
0.0
220
0.0
230
1.0
 70
     8
 71
     3
 72
    12
 73
     8
 74
     0
 42
0.00000001
 43
0.00000001
 12
1.0
 22
0.0
 32
0.0
 13
1.0
 23
0.0
 33
0.0
 40
0.0
 40
0.0
 40
0.0
 40
0.0
 40
0.2499999999999995
 40
0.2499999999999995
 40
0.499999999999999
 40
0.499999999999999
 40
1.0
 40
1.0
 40
1.0
 40
1.0
 10
158.592970618941
 20
111.2274574168102
 30
0.0
 10
158.618394835835
 20
111.1605718237364
 30
0.0
 10
158.6590066754042
 20
111.0961233340528
 30
0.0
 10
158.7436078216764
 20
110.9711226739749
 30
0.0
 10
158.7877046179619
 20
110.9106039287828
 30
0.0
 10
158.903773726448
 20
110.7343978726744
 30
0.0
 10
158.9607057117979
 20
110.6240034577026
 30
0.0
 10
158.9607057117979
 20
110.5210865816094
 30
0.0
  0
LINE
  5
147
330
1F
100
AcDbEntity
  8
0
  6
HIDDEN
 62
     7
370
     0
100
AcDbLine
 10
158.9607057118
 20
110.5210865816
 30
0.0
 11
158.9607057118
 21
109.6453152436
 31
0.0
  0
LINE
  5
148
330
1F
100
AcDbEntity
  8
0
  6
HIDDEN
 62
     7
370
     0
100
AcDbLine
 10
156.4607057118
 20
138.5451008148
 30
0.0
 11
156.4607057118
 21
137.7153574014
 31
0.0
  0
SPLINE
  5
149
330
1F
100
AcDbEntity
  8
0
  6
HIDDEN
 62
     7
370
     0
100
AcDbSpline
210
0.0
220
0.0
230
1.0
 70
     8
 71
     3
 72
    20
 73
    16
 74
     0
 42
0.00000001
 43
0.00000001
 12
1.0
 22
0.0
 32
0.0
 13
1.0
 23
0.0
 33
0.0
 40
0.0
 40
0.0
 40
0.0
 40
0.0
 40
0.2500000000000017
 40
0.2500000000000017
 40
0.5000000000000033
 40
0.5000000000000033
 40
0.750000000000005
 40
0.750000000000005
 40
0.8750000000000053
 40
0.8750000000000053
 40
0.9375000000000047
 40
0.9375000000000047
 40
0.9687500000000023
 40
0.9687500000000023
 40
1.0
 40
1.0
 40
1.0
 40
1.0
 10
156.4607057117989
 20
137.7153574014428
 30
0.0
 10
156.4607057117989
 20
137.6547480017454
 30
0.0
 10
156.4353106922219
 20
137.5889220363418
 30
0.0
 10
156.34901750644
 20
137.4548742669952
 30
0.0
 10
156.2883815277568
 20
137.3861789088534
 30
0.0
 10
156.1402797335355
 20
137.245780357199
 30
0.0
 10
156.0535101267568
 20
137.1740768526176
 30
0.0
 10
155.9048723314276
 20
137.0679134508688
 30
0.0
 10
155.8525831145414
 20
137.0323851022372
 30
0.0
 10
155.7618192862315
 20
136.9826811717217
 30
0.0
 10
155.7294532937795
 20
136.9664201737066
 30
0.0
 10
155.6717641381133
 20
136.9473076053606
 30
0.0
 10
155.6507771102258
 20
136.9419164632791
 30
0.0
 10
155.6054881312353
 20
136.9361790948866
 30
0.0
 10
155.5824738623968
 20
136.93620182854
 30
0.0
 10
155.5607057117972
 20
136.9386271383529
 30
0.0
  0
SPLINE
  5
14A
330
1F
100
AcDbEntity
  8
0
  6
HIDDEN
 62
     7
370
     0
100
AcDbSpline
210
0.0
220
0.0
230
1.0
 70
     8
 71
     3
 72
    12
 73
     8
 74
     0
 42
0.00000001
 43
0.00000001
 12
1.0
 22
0.0
 32
0.0
 13
1.0
 23
0.0
 33
0.0
 40
0.0
 40
0.0
 40
0.0
 40
0.0
 40
0.2499999999999999
 40
0.2499999999999999
 40
0.4999999999999999
 40
0.4999999999999999
 40
1.0
 40
1.0
 40
1.0
 40
1.0
 10
155.5607057117979
 20
136.9386271383541
 30
0.0
 10
155.4186633086086
 20
136.9544528665303
 30
0.0
 10
155.2745452021045
 20
136.9654740003056
 30
0.0
 10
154.984790688432
 20
136.9840103621728
 30
0.0
 10
154.8390487850732
 20
136.9912810679086
 30
0.0
 10
154.4003685458935
 20
137.0097419182366
 30
0.0
 10
154.1059929298222
 20
137.0176207850601
 30
0.0
 10
153.8107057117979
 20
137.0234138266732
 30
0.0
  0
SPLINE
  5
14B
330
1F
100
AcDbEntity
  8
0
  6
HIDDEN
 62
     7
370
     0
100
AcDbSpline
210
0.0
220
0.0
230
1.0
 70
     8
 71
     3
 72
     8
 73
     4
 74
     0
 42
0.00000001
 43
0.00000001
 12
1.0
 22
0.0
 32
0.0
 13
1.0
 23
0.0
 33
0.0
 40
0.0
 40
0.0
 40
0.0
 40
0.0
 40
1.0
 40
1.0
 40
1.0
 40
1.0
 10
153.8107057117979
 20
137.0234138266732
 30
0.0
 10
153.7649408041086
 20
136.9618934475144
 30
0.0
 10
153.7305536824786
 20
136.897998587765
 30
0.0
 10
153.7115384288057
 20
136.8312686427213
 30
0.0
  0
ELLIPSE
  5
14C
330
1F
100
AcDbEntity
  8
0
  6
HIDDEN
 62
     7
370
     0
100
AcDbEllipse
 10
140.2545850733
 20
124.796943731
 30
0.0
 11
13.36963611134303
 21
13.36754752639487
 31
0.0
210
0.0
220
0.0
230
1.0
 40
0.1761188775
 41
5.933076931846585
 42
5.976720052691196
  0
ELLIPSE
  5
14D
330
1F
100
AcDbEntity
  8
0
  6
HIDDEN
 62
     7
370
     0
100
AcDbEllipse
 10
140.333963504
 20
123.5185356019
 30
0.0
 11
13.37355272666619
 21
-13.37146352987014
 31
0.0
210
0.0
220
0.0
230
1.0
 40
0.1761188775
 41
0.3023035477142489
 42
0.3822730435340257
  0
SPLINE
  5
14E
330
1F
100
AcDbEntity
  8
0
  6
HIDDEN
 62
     7
370
     0
100
AcDbSpline
210
0.0
220
0.0
230
1.0
 70
     8
 71
     3
 72
    11
 73
     7
 74
     0
 42
0.00000001
 43
0.00000001
 12
1.0
 22
0.0
 32
0.0
 13
1.0
 23
0.0
 33
0.0
 40
0.0
 40
0.0
 40
0.0
 40
0.0
 40
0.2594696993328745
 40
0.332608385099981
 40
0.6701731213681564
 40
1.0
 40
1.0
 40
1.0
 40
1.0
 10
164.4096968573879
 20
109.4590785749783
 30
0.0
 10
164.3441364196113
 20
109.4505869956622
 30
0.0
 10
164.2600959655952
 20
109.4397018306872
 30
0.0
 10
164.0832238671211
 20
109.4170934853103
 30
0.0
 10
163.981339381849
 20
109.4004983512255
 30
0.0
 10
163.9571858021256
 20
109.3973983990024
 30
0.0
 10
163.9452490327236
 20
109.3958663935908
 30
0.0
  0
SPLINE
  5
14F
330
1F
100
AcDbEntity
  8
0
  6
HIDDEN
 62
     7
370
     0
100
AcDbSpline
210
0.0
220
0.0
230
1.0
 70
     8
 71
     3
 72
    22
 73
    18
 74
     0
 42
0.00000001
 43
0.00000001
 12
1.0
 22
0.0
 32
0.0
 13
1.0
 23
0.0
 33
0.0
 40
0.0
 40
0.0
 40
0.0
 40
0.0
 40
0.0022119892135995
 40
0.0799684066544815
 40
0.1575272210100459
 40
0.2358577707004931
 40
0.3136121986747531
 40
0.3900719849068373
 40
0.4660893368550172
 40
0.5423590138346582
 40
0.6186534253635926
 40
0.6937723136933789
 40
0.7691592386674121
 40
0.845942941220073
 40
0.9207580945211429
 40
0.9231032099376817
 40
1.0
 40
1.0
 40
1.0
 40
1.0
 10
169.5269838054016
 20
109.1162354410845
 30
0.0
 10
169.5274939379601
 20
109.1161125607762
 30
0.0
 10
169.5459363822728
 20
109.1116701600622
 30
0.0
 10
169.4822886354536
 20
109.1274778455058
 30
0.0
 10
169.3298567815658
 20
109.1643191203606
 30
0.0
 10
169.0632723942496
 20
109.2246098117169
 30
0.0
 10
168.7164437634868
 20
109.2970763507325
 30
0.0
 10
168.2926466549907
 20
109.3734513728161
 30
0.0
 10
167.8093336245079
 20
109.444744050498
 30
0.0
 10
167.2805842142943
 20
109.5026237417564
 30
0.0
 10
166.7313923752786
 20
109.5423737942479
 30
0.0
 10
166.1819091099937
 20
109.5592077535868
 30
0.0
 10
165.6563852111043
 20
109.5539537685903
 30
0.0
 10
165.16815306237
 20
109.5312261599261
 30
0.0
 10
164.9009781601271
 20
109.5070740187126
 30
0.0
 10
164.6166294057008
 20
109.4851171268923
 30
0.0
 10
164.5116091262815
 20
109.4719023087306
 30
0.0
 10
164.4096968573879
 20
109.4590785749783
 30
0.0
  0
SPLINE
  5
150
330
1F
100
AcDbEntity
  8
0
  6
HIDDEN
 62
     7
370
     0
100
AcDbSpline
210
0.0
220
0.0
230
1.0
 70
     8
 71
     3
 72
    22
 73
    18
 74
     0
 42
0.00000001
 43
0.00000001
 12
1.0
 22
0.0
 32
0.0
 13
1.0
 23
0.0
 33
0.0
 40
0.0
 40
0.0
 40
0.0
 40
0.0
 40
0.076949672456193
 40
0.0780938842379792
 40
0.1541393950159876
 40
0.2309485255645725
 40
0.3064555070166344
 40
0.3815281357795765
 40
0.4579812249393619
 40
0.5341646046826095
 40
0.6102700341699662
 40
0.686584554805299
 40
0.7642917127866102
 40
0.8424373766491885
 40
0.9199456367429183
 40
0.9982050411745873
 40
0.9999999999999999
 40
0.9999999999999999
 40
0.9999999999999999
 40
0.9999999999999999
 10
164.4095794271009
 20
138.8565735004755
 30
0.0
 10
164.5116829782035
 20
138.8437769384339
 30
0.0
 10
164.6153047695066
 20
138.8307900964784
 30
0.0
 10
164.8993767514343
 20
138.8088075481038
 30
0.0
 10
165.1667745323413
 20
138.7846496839088
 30
0.0
 10
165.6576780516832
 20
138.7617544086834
 30
0.0
 10
166.1834038387268
 20
138.7564368374124
 30
0.0
 10
166.7334707047522
 20
138.7732974160004
 30
0.0
 10
167.2826877043848
 20
138.8131894085692
 30
0.0
 10
167.8115533767899
 20
138.8712149100944
 30
0.0
 10
168.2943823150677
 20
138.9424850606399
 30
0.0
 10
168.7179057011993
 20
139.018797659234
 30
0.0
 10
169.0641651402179
 20
139.0911327205438
 30
0.0
 10
169.33001291419
 20
139.1513387022826
 30
0.0
 10
169.4834275101466
 20
139.1882573976654
 30
0.0
 10
169.5441834421393
 20
139.2040017144963
 30
0.0
 10
169.5263841125693
 20
139.1995329762748
 30
0.0
 10
169.5259850204724
 20
139.1994327793488
 30
0.0
  0
SPLINE
  5
151
330
1F
100
AcDbEntity
  8
0
  6
HIDDEN
 62
     7
370
     0
100
AcDbSpline
210
0.0
220
0.0
230
1.0
 70
     8
 71
     3
 72
    10
 73
     6
 74
     0
 42
0.00000001
 43
0.00000001
 12
1.0
 22
0.0
 32
0.0
 13
1.0
 23
0.0
 33
0.0
 40
0.0
 40
0.0
 40
0.0
 40
0.0
 40
0.3343825155164061
 40
0.665547320539825
 40
1.0
 40
1.0
 40
1.0
 40
1.0
 10
163.9447826163379
 20
138.9198619571731
 30
0.0
 10
163.9544893336598
 20
138.918288178266
 30
0.0
 10
163.9738093620856
 20
138.9151557646794
 30
0.0
 10
164.131381228324
 20
138.8911000172308
 30
0.0
 10
164.3165418219842
 20
138.8681201763564
 30
0.0
 10
164.4095794271009
 20
138.8565735004755
 30
0.0
  0
LWPOLYLINE
  5
152
330
1F
100
AcDbEntity
  8
0
  6
HIDDEN
 62
     7
370
     0
100
AcDbPolyline
 90
       23
 70
   128
 43
0.0
 10
195.2990580993
 20
123.9919763778
 10
195.5424516357
 20
124.139992532
 10
195.7430057563
 20
124.2049475146
 10
195.8907517562
 20
124.1836126857
 10
195.9783458009
 20
124.0770485103
 10
196.0014339575
 20
123.8905518469
 10
195.9588686106
 20
123.6333926631
 10
195.852765505
 20
123.3183532643
 10
195.6883985817
 20
122.9610929389
 10
195.4739378315
 20
122.5793696003
 10
195.2200431995
 20
122.1921571162
 10
194.9393347241
 20
121.8187021963
 10
194.645765247
 20
121.4775677199
 10
194.3539268769
 20
121.1857100521
 10
194.0783256761
 20
120.9576362146
 10
193.8326606252
 20
120.804682802
 10
193.6291427046
 20
120.7344524875
 10
193.4778879372
 20
120.7504361257
 10
193.3864145636
 20
120.8518392369
 10
193.3592693419
 20
121.0336214975
 10
193.3978015473
 20
121.286747273
 10
193.5000959053
 20
121.5986347419
 10
193.6610677922
 20
121.9537812851
  0
SPLINE
  5
153
330
1F
100
AcDbEntity
  8
0
  6
HIDDEN
 62
     7
370
     0
100
AcDbSpline
210
0.0
220
0.0
230
1.0
 70
     8
 71
     3
 72
    22
 73
    18
 74
     0
 42
0.00000001
 43
0.00000001
 12
1.0
 22
0.0
 32
0.0
 13
1.0
 23
0.0
 33
0.0
 40
0.0
 40
0.0
 40
0.0
 40
0.0
 40
0.125
 40
0.125
 40
0.2500000000000001
 40
0.2500000000000001
 40
0.3750000000000001
 40
0.3750000000000001
 40
0.5000000000000001
 40
0.5000000000000001
 40
0.6250000000000001
 40
0.6250000000000001
 40
0.7500000000000002
 40
0.7500000000000002
 40
0.8750000000000002
 40
0.8750000000000002
 40
1.0
 40
1.0
 40
1.0
 40
1.0
 10
195.299058099339
 20
123.9919763778394
 30
0.0
 10
195.2214527368083
 20
123.9542865422362
 30
0.0
 10
195.1380239623026
 20
123.9124252843332
 30
0.0
 10
194.9442584033913
 20
123.8097562308835
 30
0.0
 10
194.8341656378368
 20
123.749295873626
 30
0.0
 10
194.6051708940977
 20
123.6069293879168
 30
0.0
 10
194.4929039836228
 20
123.5281237182321
 30
0.0
 10
194.2875111686878
 20
123.3543328621619
 30
0.0
 10
194.1944806205475
 20
123.2599929047087
 30
0.0
 10
194.0273284700867
 20
123.0535389131768
 30
0.0
 10
193.9532884310046
 20
122.9409461400821
 30
0.0
 10
193.8303718251865
 20
122.7093163021357
 30
0.0
 10
193.7801335702378
 20
122.5869963625407
 30
0.0
 10
193.708259208786
 20
122.3600963340132
 30
0.0
 10
193.6862791476523
 20
122.2557762356341
 30
0.0
 10
193.6624403286871
 20
122.0844441505146
 30
0.0
 10
193.6595386801657
 20
122.0140422200535
 30
0.0
 10
193.661067792161
 20
121.9537812851233
 30
0.0
  0
SPLINE
  5
154
330
1F
100
AcDbEntity
  8
0
  6
HIDDEN
 62
     7
370
     0
100
AcDbSpline
210
0.0
220
0.0
230
1.0
 70
     8
 71
     3
 72
     8
 73
     4
 74
     0
 42
0.00000001
 43
0.00000001
 12
1.0
 22
0.0
 32
0.0
 13
1.0
 23
0.0
 33
0.0
 40
0.0
 40
0.0
 40
0.0
 40
0.0
 40
1.0
 40
1.0
 40
1.0
 40
1.0
 10
197.3376646732323
 20
123.1340365292742
 30
0.0
 10
197.1104218911001
 20
123.299596939798
 30
0.0
 10
196.8765053492601
 20
123.4737974697091
 30
0.0
 10
196.6399869994639
 20
123.644739318433
 30
0.0
  0
SPLINE
  5
155
330
1F
100
AcDbEntity
  8
0
  6
HIDDEN
 62
     7
370
     0
100
AcDbSpline
210
0.0
220
0.0
230
1.0
 70
     8
 71
     3
 72
    12
 73
     8
 74
     0
 42
0.00000001
 43
0.00000001
 12
1.0
 22
0.0
 32
0.0
 13
1.0
 23
0.0
 33
0.0
 40
0.0
 40
0.0
 40
0.0
 40
0.0
 40
0.2499999999999989
 40
0.2499999999999989
 40
0.4999999999999978
 40
0.4999999999999978
 40
1.0
 40
1.0
 40
1.0
 40
1.0
 10
196.6399869994628
 20
123.6447393184337
 30
0.0
 10
196.5577003686761
 20
123.7045756936846
 30
0.0
 10
196.4587513640546
 20
123.7617033227433
 30
0.0
 10
196.2510706894277
 20
123.859371060082
 30
0.0
 10
196.14081747544
 20
123.9005913080922
 30
0.0
 10
195.7944343985399
 20
123.9958711535027
 30
0.0
 10
195.5516731856951
 20
124.0203104071038
 30
0.0
 10
195.299058099339
 20
123.9919763778394
 30
0.0
  0
SPLINE
  5
156
330
1F
100
AcDbEntity
  8
0
  6
HIDDEN
 62
     7
370
     0
100
AcDbSpline
210
0.0
220
0.0
230
1.0
 70
     8
 71
     3
 72
    52
 73
    48
 74
     0
 42
0.00000001
 43
0.00000001
 12
1.0
 22
0.0
 32
0.0
 13
1.0
 23
0.0
 33
0.0
 40
0.0
 40
0.0
 40
0.0
 40
0.0
 40
0.0625000000000008
 40
0.0625000000000008
 40
0.1250000000000015
 40
0.1250000000000015
 40
0.156250000000002
 40
0.156250000000002
 40
0.1875000000000025
 40
0.1875000000000025
 40
0.2031250000000027
 40
0.2031250000000027
 40
0.2187500000000028
 40
0.2187500000000028
 40
0.2500000000000021
 40
0.2500000000000021
 40
0.2812500000000014
 40
0.2812500000000014
 40
0.3125000000000008
 40
0.3125000000000008
 40
0.3750000000000001
 40
0.3750000000000001
 40
0.4374999999999995
 40
0.4374999999999995
 40
0.4999999999999989
 40
0.4999999999999989
 40
0.5624999999999983
 40
0.5624999999999983
 40
0.5937499999999984
 40
0.5937499999999984
 40
0.6249999999999987
 40
0.6249999999999987
 40
0.6874999999999991
 40
0.6874999999999991
 40
0.7187499999999992
 40
0.7187499999999992
 40
0.7499999999999993
 40
0.7499999999999993
 40
0.8124999999999993
 40
0.8124999999999993
 40
0.8749999999999993
 40
0.8749999999999993
 40
0.9374999999999993
 40
0.9374999999999993
 40
0.9687499999999998
 40
0.9687499999999998
 40
1.0
 40
1.0
 40
1.0
 40
1.0
 10
193.661067792161
 20
121.9537812851234
 30
0.0
 10
193.6645742386511
 20
121.7502770434434
 30
0.0
 10
193.6926647798013
 20
121.5567545802475
 30
0.0
 10
193.7878467777071
 20
121.1845767992618
 30
0.0
 10
193.855819164416
 20
121.0045145193137
 30
0.0
 10
193.9855057948535
 20
120.7500964312933
 30
0.0
 10
194.033203008304
 20
120.6680415933872
 30
0.0
 10
194.1397471532788
 20
120.5082173580307
 30
0.0
 10
194.198386312701
 20
120.4302773175692
 30
0.0
 10
194.3002176074359
 20
120.3170154298205
 30
0.0
 10
194.336659154835
 20
120.2798227491558
 30
0.0
 10
194.4148733206103
 20
120.2094106633943
 30
0.0
 10
194.4562879415628
 20
120.1768302896479
 30
0.0
 10
194.5791908681304
 20
120.0938940780471
 30
0.0
 10
194.6525088367108
 20
120.0604468927593
 30
0.0
 10
194.7925638634299
 20
120.0074752178735
 30
0.0
 10
194.8602276496619
 20
119.9884579312651
 30
0.0
 10
194.997178818622
 20
119.9583271109287
 30
0.0
 10
195.0661154369028
 20
119.9475635901142
 30
0.0
 10
195.2748007975646
 20
119.92601674242
 30
0.0
 10
195.4172436668429
 20
119.9256492668572
 30
0.0
 10
195.7142332730167
 20
119.9529428570359
 30
0.0
 10
195.870008249317
 20
119.9810322419351
 30
0.0
 10
196.1919910810316
 20
120.0722643001865
 30
0.0
 10
196.3563115034129
 20
120.1344985238222
 30
0.0
 10
196.6936843265727
 20
120.3046887056746
 30
0.0
 10
196.8611763233043
 20
120.4100829174584
 30
0.0
 10
197.1027277853021
 20
120.6053504390203
 30
0.0
 10
197.1796125192815
 20
120.6750799927567
 30
0.0
 10
197.3254821984034
 20
120.8246430648255
 30
0.0
 10
197.3945720974362
 20
120.904942809157
 30
0.0
 10
197.5785976956609
 20
121.1490151199968
 30
0.0
 10
197.6746618427645
 20
121.3221171368822
 30
0.0
 10
197.7724055167236
 20
121.5707030946971
 30
0.0
 10
197.7978799176448
 20
121.6527652518545
 30
0.0
 10
197.835213637738
 20
121.8096820603704
 30
0.0
 10
197.8474180584184
 20
121.8853505752354
 30
0.0
 10
197.8677726572442
 20
122.105229616597
 30
0.0
 10
197.8593582710263
 20
122.2414362931296
 30
0.0
 10
197.8119129520056
 20
122.4872617158418
 30
0.0
 10
197.7726854044648
 20
122.5991354554397
 30
0.0
 10
197.6709588215607
 20
122.8013979692729
 30
0.0
 10
197.6089989528171
 20
122.8905502827516
 30
0.0
 10
197.5066147937077
 20
123.0044220729392
 30
0.0
 10
197.4708488182325
 20
123.0390829770045
 30
0.0
 10
197.3999147092627
 20
123.0981405563297
 30
0.0
 10
197.3637732969254
 20
123.1235042433487
 30
0.0
 10
197.337664673233
 20
123.1340365292737
 30
0.0
  0
SPLINE
  5
157
330
1F
100
AcDbEntity
  8
0
  6
HIDDEN
 62
     7
370
     0
100
AcDbSpline
210
0.0
220
0.0
230
1.0
 70
     8
 71
     3
 72
    12
 73
     8
 74
     0
 42
0.00000001
 43
0.00000001
 12
1.0
 22
0.0
 32
0.0
 13
1.0
 23
0.0
 33
0.0
 40
0.0
 40
0.0
 40
0.0
 40
0.0
 40
0.5
 40
0.5
 40
0.75
 40
0.75
 40
1.0
 40
1.0
 40
1.0
 40
1.0
 10
197.7607057117979
 20
124.3252705880785
 30
0.0
 10
197.8204245690888
 20
124.1651243686688
 30
0.0
 10
197.860611903356
 20
123.9599679097767
 30
0.0
 10
197.8607523553358
 20
123.6211266318593
 30
0.0
 10
197.851226208066
 20
123.5064564242987
 30
0.0
 10
197.8159057438939
 20
123.2803172451184
 30
0.0
 10
197.7905895642309
 20
123.1712888744078
 30
0.0
 10
197.7607057117979
 20
123.0681744259872
 30
0.0
  0
SPLINE
  5
158
330
1F
100
AcDbEntity
  8
0
  6
HIDDEN
 62
     7
370
     0
100
AcDbSpline
210
0.0
220
0.0
230
1.0
 70
     8
 71
     3
 72
    64
 73
    60
 74
     0
 42
0.00000001
 43
0.00000001
 12
1.0
 22
0.0
 32
0.0
 13
1.0
 23
0.0
 33
0.0
 40
0.0
 40
0.0
 40
0.0
 40
0.0
 40
0.0625000000000001
 40
0.0625000000000001
 40
0.0937500000000002
 40
0.0937500000000002
 40
0.1250000000000002
 40
0.1250000000000002
 40
0.1562500000000002
 40
0.1562500000000002
 40
0.1875000000000003
 40
0.1875000000000003
 40
0.2187500000000003
 40
0.2187500000000003
 40
0.2500000000000004
 40
0.2500000000000004
 40
0.2812500000000004
 40
0.2812500000000004
 40
0.3125000000000004
 40
0.3125000000000004
 40
0.3437500000000004
 40
0.3437500000000004
 40
0.3750000000000004
 40
0.3750000000000004
 40
0.4062500000000004
 40
0.4062500000000004
 40
0.4375000000000004
 40
0.4375000000000004
 40
0.4687500000000005
 40
0.4687500000000005
 40
0.5000000000000004
 40
0.5000000000000004
 40
0.5312500000000006
 40
0.5312500000000006
 40
0.5625000000000006
 40
0.5625000000000006
 40
0.5937500000000007
 40
0.5937500000000007
 40
0.6250000000000007
 40
0.6250000000000007
 40
0.6562500000000008
 40
0.6562500000000008
 40
0.6875000000000009
 40
0.6875000000000009
 40
0.7187500000000009
 40
0.7187500000000009
 40
0.750000000000001
 40
0.750000000000001
 40
0.7812500000000011
 40
0.7812500000000011
 40
0.8125000000000011
 40
0.8125000000000011
 40
0.8437500000000012
 40
0.8437500000000012
 40
0.8750000000000012
 40
0.8750000000000012
 40
0.9375000000000008
 40
0.9375000000000008
 40
1.0
 40
1.0
 40
1.0
 40
1.0
 10
197.7607057117979
 20
123.0681744259872
 30
0.0
 10
197.6811431067669
 20
122.8367925623038
 30
0.0
 10
197.5618815024654
 20
122.6419578071899
 30
0.0
 10
197.3384847523723
 20
122.395371136278
 30
0.0
 10
197.2577932385539
 20
122.322352890816
 30
0.0
 10
197.084070018004
 20
122.1916918478706
 30
0.0
 10
196.9902811736233
 20
122.1337364925729
 30
0.0
 10
196.7930253566489
 20
122.0340789138058
 30
0.0
 10
196.6895915481268
 20
121.9921549336665
 30
0.0
 10
196.4698498488276
 20
121.9224659290472
 30
0.0
 10
196.3522041631203
 20
121.8944348654804
 30
0.0
 10
196.1029335381024
 20
121.8541188810996
 30
0.0
 10
195.9719491680219
 20
121.8419521842459
 30
0.0
 10
195.7038706773202
 20
121.8351777372127
 30
0.0
 10
195.5710052016319
 20
121.8405658896058
 30
0.0
 10
195.3112217098967
 20
121.8684649724784
 30
0.0
 10
195.1897115214304
 20
121.8902880272895
 30
0.0
 10
194.9573847920365
 20
121.9492274042573
 30
0.0
 10
194.8472845155947
 20
121.9864080858641
 30
0.0
 10
194.641551134509
 20
122.0745547116845
 30
0.0
 10
194.5448455707611
 20
122.125795129557
 30
0.0
 10
194.3615822710261
 20
122.2446611394643
 30
0.0
 10
194.2748838636383
 20
122.3126836953456
 30
0.0
 10
194.1169252967373
 20
122.4631566431559
 30
0.0
 10
194.0448781972753
 20
122.5460074623782
 30
0.0
 10
193.9153661416414
 20
122.7296753562231
 30
0.0
 10
193.8573792252785
 20
122.8319043510734
 30
0.0
 10
193.7627954575404
 20
123.0499105791688
 30
0.0
 10
193.7257230827365
 20
123.1657846177978
 30
0.0
 10
193.6745082715457
 20
123.4134532513178
 30
0.0
 10
193.6612853566491
 20
123.5418212892972
 30
0.0
 10
193.6601635215528
 20
123.8023947289901
 30
0.0
 10
193.6725999605626
 20
123.9372203832298
 30
0.0
 10
193.721458922551
 20
124.1995172452658
 30
0.0
 10
193.7576878730071
 20
124.3283071892848
 30
0.0
 10
193.8515491230256
 20
124.5789188524336
 30
0.0
 10
193.907893782971
 20
124.6975931870856
 30
0.0
 10
194.0373079717912
 20
124.9235420763539
 30
0.0
 10
194.110708457844
 20
125.03088601672
 30
0.0
 10
194.2684501865714
 20
125.228262012123
 30
0.0
 10
194.3533401728968
 20
125.3193763645906
 30
0.0
 10
194.5357465529628
 20
125.4876301680705
 30
0.0
 10
194.6339600902082
 20
125.5651557473461
 30
0.0
 10
194.8401355105709
 20
125.701840947651
 30
0.0
 10
194.9484081498215
 20
125.7615589982363
 30
0.0
 10
195.179962433417
 20
125.8616545381118
 30
0.0
 10
195.3038481142775
 20
125.9018595244842
 30
0.0
 10
195.5609301350634
 20
125.9533444334578
 30
0.0
 10
195.6970852551286
 20
125.9645519155509
 30
0.0
 10
195.9625695263819
 20
125.9533913953752
 30
0.0
 10
196.0957481866277
 20
125.9310171552587
 30
0.0
 10
196.3440835630173
 20
125.8611946598255
 30
0.0
 10
196.4624151093259
 20
125.8135564922197
 30
0.0
 10
196.6855829978803
 20
125.699637201726
 30
0.0
 10
196.7896392383853
 20
125.6339731651805
 30
0.0
 10
197.0855172441526
 20
125.4130297276149
 30
0.0
 10
197.2626602412325
 20
125.2317712073381
 30
0.0
 10
197.5582520024994
 20
124.8197970457779
 30
0.0
 10
197.6809522139594
 20
124.5823960922792
 30
0.0
 10
197.7607057117979
 20
124.3252705880785
 30
0.0
  0
ARC
  5
159
330
1F
100
AcDbEntity
  8
0
  6
HIDDEN
 62
     7
370
     0
100
AcDbCircle
 10
195.776566561
 20
121.7333048767
 30
0.0
 40
2.097397549031987
100
AcDbArc
 50
41.9007812964
 51
65.6906710958
  0
SPLINE
  5
15A
330
1F
100
AcDbEntity
  8
0
  6
HIDDEN
 62
     7
370
     0
100
AcDbSpline
210
0.0
220
0.0
230
1.0
 70
    11
 71
     3
 72
    14
 73
    10
 74
     0
 42
0.00000001
 43
0.00000001
 12
1.0
 22
0.0
 32
0.0
 13
1.0
 23
0.0
 33
0.0
 40
0.0
 40
0.0
 40
0.0
 40
0.0
 40
0.2500000000000001
 40
0.2500000000000001
 40
0.5000000000000001
 40
0.5000000000000001
 40
0.7500000000000001
 40
0.7500000000000001
 40
1.0
 40
1.0
 40
1.0
 40
1.0
 10
168.5848824396754
 20
136.8306435731748
 30
0.0
 10
168.7387583353782
 20
136.8527931060268
 30
0.0
 10
168.8566389030073
 20
136.8656051731004
 30
0.0
 10
169.01970269292
 20
136.8819578819309
 30
0.0
 10
169.0606192115436
 20
136.8851336446487
 30
0.0
 10
169.0607919440598
 20
136.8851483468254
 30
0.0
 10
169.019864185826
 20
136.881968795832
 30
0.0
 10
168.8575268203604
 20
136.8656994643545
 30
0.0
 10
168.7387565522543
 20
136.8527928493565
 30
0.0
 10
168.5848824396754
 20
136.8306435731748
 30
0.0
  0
SPLINE
  5
15B
330
1F
100
AcDbEntity
  8
0
  6
HIDDEN
 62
     7
370
     0
100
AcDbSpline
210
0.0
220
0.0
230
1.0
 70
    11
 71
     3
 72
    14
 73
    10
 74
     0
 42
0.00000001
 43
0.00000001
 12
1.0
 22
0.0
 32
0.0
 13
1.0
 23
0.0
 33
0.0
 40
0.0
 40
0.0
 40
0.0
 40
0.0
 40
0.25
 40
0.25
 40
0.5
 40
0.5
 40
0.75
 40
0.75
 40
1.0
 40
1.0
 40
1.0
 40
1.0
 10
168.5848824396754
 20
111.485022986215
 30
0.0
 10
168.7387583353782
 20
111.462873453363
 30
0.0
 10
168.8566389030073
 20
111.4500613862894
 30
0.0
 10
169.0197026929199
 20
111.4337086774589
 30
0.0
 10
169.0606192115436
 20
111.4305329147411
 30
0.0
 10
169.0607919440598
 20
111.4305182125644
 30
0.0
 10
169.019864185826
 20
111.4336977635578
 30
0.0
 10
168.8575268203604
 20
111.4499670950352
 30
0.0
 10
168.7387565522543
 20
111.4628737100333
 30
0.0
 10
168.5848824396754
 20
111.485022986215
 30
0.0
  0
LINE
  5
15C
330
1F
100
AcDbEntity
  8
0
  6
HIDDEN
 62
     7
370
     0
100
AcDbLine
 10
172.7607057118
 20
113.6578332797
 30
0.0
 11
172.7607057118
 21
134.6447809525
 31
0.0
  0
SPLINE
  5
15D
330
1F
100
AcDbEntity
  8
0
  6
HIDDEN
 62
     7
370
     0
100
AcDbSpline
210
0.0
220
0.0
230
1.0
 70
    11
 71
     3
 72
    50
 73
    46
 74
     0
 42
0.00000001
 43
0.00000001
 12
1.0
 22
0.0
 32
0.0
 13
1.0
 23
0.0
 33
0.0
 40
0.0
 40
0.0
 40
0.0
 40
0.0
 40
0.0624999999999997
 40
0.0624999999999997
 40
0.1249999999999994
 40
0.1249999999999994
 40
0.1562499999999994
 40
0.1562499999999994
 40
0.1874999999999993
 40
0.1874999999999993
 40
0.2187499999999993
 40
0.2187499999999993
 40
0.2499999999999993
 40
0.2499999999999993
 40
0.2812499999999992
 40
0.2812499999999992
 40
0.3124999999999992
 40
0.3124999999999992
 40
0.3749999999999991
 40
0.3749999999999991
 40
0.4374999999999989
 40
0.4374999999999989
 40
0.4999999999999989
 40
0.4999999999999989
 40
0.5312499999999988
 40
0.5312499999999988
 40
0.5624999999999988
 40
0.5624999999999988
 40
0.5937499999999987
 40
0.5937499999999987
 40
0.6249999999999987
 40
0.6249999999999987
 40
0.6562499999999987
 40
0.6562499999999987
 40
0.6874999999999988
 40
0.6874999999999988
 40
0.749999999999999
 40
0.749999999999999
 40
0.8124999999999992
 40
0.8124999999999992
 40
0.8749999999999994
 40
0.8749999999999994
 40
0.9374999999999997
 40
0.9374999999999997
 40
1.0
 40
1.0
 40
1.0
 40
1.0
 10
168.5848824396754
 20
111.485022986215
 30
0.0
 10
168.4386276048738
 20
111.5060755120405
 30
0.0
 10
168.2671589679154
 20
111.5283567367225
 30
0.0
 10
167.8740143624054
 20
111.5691982270714
 30
0.0
 10
167.6587701768402
 20
111.5869558619924
 30
0.0
 10
167.3160303902906
 20
111.605229154836
 30
0.0
 10
167.197784007235
 20
111.60993909385
 30
0.0
 10
166.9620050050567
 20
111.6159381889088
 30
0.0
 10
166.8434386953508
 20
111.6172940213046
 30
0.0
 10
166.6049436145502
 20
111.6165996092939
 30
0.0
 10
166.4841512210284
 20
111.6145011063026
 30
0.0
 10
166.2490852555632
 20
111.6071179567767
 30
0.0
 10
166.1340297430632
 20
111.6018551935058
 30
0.0
 10
165.9088099883203
 20
111.5886014314573
 30
0.0
 10
165.797727818718
 20
111.5805223567798
 30
0.0
 10
165.5864763717824
 20
111.5625866297848
 30
0.0
 10
165.4861181372816
 20
111.5527503945714
 30
0.0
 10
165.2004741802582
 20
111.5217347261499
 30
0.0
 10
165.0301954366623
 20
111.4989030319312
 30
0.0
 10
164.7540443067421
 20
111.4582057576005
 30
0.0
 10
164.6443451203573
 20
111.4398797080284
 30
0.0
 10
164.4988020391934
 20
111.4148521087834
 30
0.0
 10
164.4607954037361
 20
111.407849459416
 30
0.0
 10
164.4606611103782
 20
111.4078252339492
 30
0.0
 10
164.4697788656205
 20
111.4094798212053
 30
0.0
 10
164.5066974111341
 20
111.4160624644782
 30
0.0
 10
164.5346710661588
 20
111.4210187060008
 30
0.0
 10
164.6074426456111
 20
111.4335353786992
 30
0.0
 10
164.6523678837728
 20
111.4411199180126
 30
0.0
 10
164.7594111987283
 20
111.4584281733858
 30
0.0
 10
164.8219792396948
 20
111.4682124651785
 30
0.0
 10
164.9603701424342
 20
111.4886176668446
 30
0.0
 10
165.0365535982086
 20
111.4993026217677
 30
0.0
 10
165.2029093320197
 20
111.5208863593451
 30
0.0
 10
165.2939376344644
 20
111.5318724683462
 30
0.0
 10
165.5805914511373
 20
111.5630295521123
 30
0.0
 10
165.7926435092549
 20
111.5817257391485
 30
0.0
 10
166.2458207852095
 20
111.608473019864
 30
0.0
 10
166.4804504339494
 20
111.6161786265658
 30
0.0
 10
166.9618739834081
 20
111.617696634064
 30
0.0
 10
167.1971793536765
 20
111.6115079458316
 30
0.0
 10
167.6570870053521
 20
111.5871026101388
 30
0.0
 10
167.8715155173112
 20
111.5694194562135
 30
0.0
 10
168.2647147020766
 20
111.5286485391808
 30
0.0
 10
168.4386237737417
 20
111.5060760635095
 30
0.0
 10
168.5848824396754
 20
111.485022986215
 30
0.0
  0
SPLINE
  5
15E
330
1F
100
AcDbEntity
  8
0
  6
HIDDEN
 62
     7
370
     0
100
AcDbSpline
210
0.0
220
0.0
230
1.0
 70
    11
 71
     3
 72
    50
 73
    46
 74
     0
 42
0.00000001
 43
0.00000001
 12
1.0
 22
0.0
 32
0.0
 13
1.0
 23
0.0
 33
0.0
 40
0.0
 40
0.0
 40
0.0
 40
0.0
 40
0.0624999999999998
 40
0.0624999999999998
 40
0.1249999999999996
 40
0.1249999999999996
 40
0.1562499999999995
 40
0.1562499999999995
 40
0.1874999999999994
 40
0.1874999999999994
 40
0.2187499999999993
 40
0.2187499999999993
 40
0.2499999999999992
 40
0.2499999999999992
 40
0.2812499999999991
 40
0.2812499999999991
 40
0.312499999999999
 40
0.312499999999999
 40
0.374999999999999
 40
0.374999999999999
 40
0.4374999999999992
 40
0.4374999999999992
 40
0.4999999999999993
 40
0.4999999999999993
 40
0.5312499999999994
 40
0.5312499999999994
 40
0.5624999999999996
 40
0.5624999999999996
 40
0.5937499999999997
 40
0.5937499999999997
 40
0.6249999999999998
 40
0.6249999999999998
 40
0.6562499999999999
 40
0.6562499999999999
 40
0.6875
 40
0.6875
 40
0.75
 40
0.75
 40
0.8125
 40
0.8125
 40
0.875
 40
0.875
 40
0.9375
 40
0.9375
 40
1.0
 40
1.0
 40
1.0
 40
1.0
 10
168.5848824396754
 20
136.8306435731748
 30
0.0
 10
168.4386276048738
 20
136.8095910473493
 30
0.0
 10
168.2671589679154
 20
136.7873098226673
 30
0.0
 10
167.8740143624054
 20
136.7464683323184
 30
0.0
 10
167.6587701768402
 20
136.7287106973974
 30
0.0
 10
167.3160303902905
 20
136.7104374045539
 30
0.0
 10
167.197784007235
 20
136.7057274655398
 30
0.0
 10
166.9620050050567
 20
136.699728370481
 30
0.0
 10
166.8434386953508
 20
136.6983725380852
 30
0.0
 10
166.6049436145502
 20
136.6990669500959
 30
0.0
 10
166.4841512210284
 20
136.7011654530872
 30
0.0
 10
166.2490852555632
 20
136.708548602613
 30
0.0
 10
166.1340297430632
 20
136.7138113658839
 30
0.0
 10
165.9088099883203
 20
136.7270651279325
 30
0.0
 10
165.797727818718
 20
136.73514420261
 30
0.0
 10
165.5864763717824
 20
136.753079929605
 30
0.0
 10
165.4861181372816
 20
136.7629161648184
 30
0.0
 10
165.2004741802582
 20
136.7939318332398
 30
0.0
 10
165.0301954366624
 20
136.8167635274585
 30
0.0
 10
164.7540443067421
 20
136.8574608017892
 30
0.0
 10
164.6443451203573
 20
136.8757868513614
 30
0.0
 10
164.4988020391934
 20
136.9008144506064
 30
0.0
 10
164.4607954037361
 20
136.9078170999738
 30
0.0
 10
164.4606611103782
 20
136.9078413254406
 30
0.0
 10
164.4697788656205
 20
136.9061867381845
 30
0.0
 10
164.5066974111341
 20
136.8996040949116
 30
0.0
 10
164.5346710661588
 20
136.894647853389
 30
0.0
 10
164.6074426456111
 20
136.8821311806906
 30
0.0
 10
164.6523678837728
 20
136.8745466413772
 30
0.0
 10
164.7594111987283
 20
136.857238386004
 30
0.0
 10
164.8219792396948
 20
136.8474540942113
 30
0.0
 10
164.9603701424342
 20
136.8270488925452
 30
0.0
 10
165.0365535982086
 20
136.8163639376221
 30
0.0
 10
165.2029093320197
 20
136.7947802000447
 30
0.0
 10
165.2939376344644
 20
136.7837940910436
 30
0.0
 10
165.5805914511373
 20
136.7526370072775
 30
0.0
 10
165.7926435092549
 20
136.7339408202413
 30
0.0
 10
166.2458207852095
 20
136.7071935395258
 30
0.0
 10
166.4804504339494
 20
136.699487932824
 30
0.0
 10
166.9618739834081
 20
136.6979699253259
 30
0.0
 10
167.1971793536765
 20
136.7041586135582
 30
0.0
 10
167.657087005352
 20
136.728563949251
 30
0.0
 10
167.8715155173112
 20
136.7462471031763
 30
0.0
 10
168.2647147020766
 20
136.7870180202089
 30
0.0
 10
168.4386237737417
 20
136.8095904958803
 30
0.0
 10
168.5848824396754
 20
136.8306435731748
 30
0.0
  0
LINE
  5
15F
330
1F
100
AcDbEntity
  8
0
  6
HIDDEN
 62
     7
370
     0
100
AcDbLine
 10
160.7633554426
 20
134.6578332797
 30
0.0
 11
160.7633554426
 21
113.6578332797
 31
0.0
  0
LINE
  5
160
330
1F
100
AcDbEntity
  8
0
  6
HIDDEN
 62
     7
370
     0
100
AcDbLine
 10
187.7207057118
 20
137.6736804599
 30
0.0
 11
187.7207057118
 21
141.5604372515
 31
0.0
  0
LINE
  5
161
330
1F
100
AcDbEntity
  8
0
  6
HIDDEN
 62
     7
370
     0
100
AcDbLine
 10
189.8007057118
 20
137.6736804599
 30
0.0
 11
189.8007057118
 21
141.5604372515
 31
0.0
  0
LINE
  5
162
330
1F
100
AcDbEntity
  8
0
  6
HIDDEN
 62
     7
370
     0
100
AcDbLine
 10
185.2043761865
 20
136.0078332797
 30
0.0
 11
193.0398294235
 21
136.0078332797
 31
0.0
  0
LINE
  5
163
330
1F
100
AcDbEntity
  8
0
  6
HIDDEN
 62
     7
370
     0
100
AcDbLine
 10
152.8607057118
 20
114.2928271366
 30
0.0
 11
152.8607057118
 21
134.0228394228
 31
0.0
  0
LINE
  5
164
330
1F
100
AcDbEntity
  8
0
  6
HIDDEN
 62
     7
370
     0
100
AcDbLine
 10
178.930080962
 20
134.6578332797
 30
0.0
 11
178.930080962
 21
113.6578332797
 31
0.0
  0
LINE
  5
165
330
1F
100
AcDbEntity
  8
0
  6
HIDDEN
 62
     7
370
     0
100
AcDbLine
 10
180.7107057118
 20
134.0328332784
 30
0.0
 11
180.7107057118
 21
114.2828332797
 31
0.0
  0
LINE
  5
166
330
1F
100
AcDbEntity
  8
0
  6
HIDDEN
 62
     7
370
     0
100
AcDbLine
 10
153.8697057118
 20
114.4356501915
 30
0.0
 11
158.0607057118
 21
114.4356501915
 31
0.0
  0
ARC
  5
167
330
1F
100
AcDbEntity
  8
0
  6
HIDDEN
 62
     7
370
     0
100
AcDbCircle
 10
157.8357057118
 20
124.1578332797
 30
0.0
 40
10.49999999999999
100
AcDbArc
 50
247.4596895365
 51
247.8078280674
  0
LINE
  5
168
330
1F
100
AcDbEntity
  8
0
  6
HIDDEN
 62
     7
370
     0
100
AcDbLine
 10
153.8107057118
 20
133.8557389814
 30
0.0
 11
153.8107057118
 21
114.4599275779
 31
0.0
  0
LINE
  5
169
330
1F
100
AcDbEntity
  8
0
  6
HIDDEN
 62
     7
370
     0
100
AcDbLine
 10
155.5607057118
 20
133.8557389814
 30
0.0
 11
153.8107057118
 21
133.8557389814
 31
0.0
  0
SPLINE
  5
16A
330
1F
100
AcDbEntity
  8
0
  6
HIDDEN
 62
     7
370
     0
100
AcDbSpline
210
0.0
220
0.0
230
1.0
 70
     8
 71
     3
 72
    14
 73
    10
 74
     0
 42
0.00000001
 43
0.00000001
 12
1.0
 22
0.0
 32
0.0
 13
1.0
 23
0.0
 33
0.0
 40
0.0
 40
0.0
 40
0.0
 40
0.0
 40
0.2499999999999999
 40
0.2499999999999999
 40
0.4999999999999999
 40
0.4999999999999999
 40
0.7499999999999998
 40
0.7499999999999998
 40
1.0
 40
1.0
 40
1.0
 40
1.0
 10
156.4607057117979
 20
134.1820227731153
 30
0.0
 10
156.4607057117979
 20
134.1455509085815
 30
0.0
 10
156.4383350799938
 20
134.107815156069
 30
0.0
 10
156.3511195487456
 20
134.0326794343695
 30
0.0
 10
156.2870983426689
 20
133.9963071481475
 30
0.0
 10
156.1236130449277
 20
133.9320836089854
 30
0.0
 10
156.0242981707544
 20
133.9045606463629
 30
0.0
 10
155.8044719000494
 20
133.8663884794758
 30
0.0
 10
155.6834683377402
 20
133.8557389814431
 30
0.0
 10
155.5607057117979
 20
133.8557389814431
 30
0.0
  0
LINE
  5
16B
330
1F
100
AcDbEntity
  8
0
  6
HIDDEN
 62
     7
370
     0
100
AcDbLine
 10
156.4607057118
 20
134.1820227731
 30
0.0
 11
156.4607057118
 21
134.6578332797
 31
0.0
  0
SPLINE
  5
16C
330
1F
100
AcDbEntity
  8
0
  6
HIDDEN
 62
     7
370
     0
100
AcDbSpline
210
0.0
220
0.0
230
1.0
 70
     8
 71
     3
 72
    14
 73
    10
 74
     0
 42
0.00000001
 43
0.00000001
 12
1.0
 22
0.0
 32
0.0
 13
1.0
 23
0.0
 33
0.0
 40
0.0
 40
0.0
 40
0.0
 40
0.0
 40
0.2499999999999996
 40
0.2499999999999996
 40
0.4999999999999992
 40
0.4999999999999992
 40
0.7499999999999994
 40
0.7499999999999994
 40
1.0
 40
1.0
 40
1.0
 40
1.0
 10
156.4607057117979
 20
134.1820227731153
 30
0.0
 10
156.4607057117979
 20
134.1455509085815
 30
0.0
 10
156.4383350799938
 20
134.107815156069
 30
0.0
 10
156.3511195487456
 20
134.0326794343695
 30
0.0
 10
156.2870983426689
 20
133.9963071481475
 30
0.0
 10
156.1236130449277
 20
133.9320836089854
 30
0.0
 10
156.0242981707545
 20
133.9045606463629
 30
0.0
 10
155.8044719000494
 20
133.8663884794758
 30
0.0
 10
155.6834683377402
 20
133.8557389814431
 30
0.0
 10
155.5607057117979
 20
133.8557389814431
 30
0.0
  0
SPLINE
  5
16D
330
1F
100
AcDbEntity
  8
0
  6
HIDDEN
 62
     7
370
     0
100
AcDbSpline
210
0.0
220
0.0
230
1.0
 70
     8
 71
     3
 72
    14
 73
    10
 74
     0
 42
0.00000001
 43
0.00000001
 12
1.0
 22
0.0
 32
0.0
 13
1.0
 23
0.0
 33
0.0
 40
0.0
 40
0.0
 40
0.0
 40
0.0
 40
0.25
 40
0.25
 40
0.5
 40
0.5
 40
0.75
 40
0.75
 40
1.0
 40
1.0
 40
1.0
 40
1.0
 10
158.0607057117979
 20
114.4356501915197
 30
0.0
 10
158.1831737997168
 20
114.4356501915197
 30
0.0
 10
158.3033848785856
 20
114.4253131717998
 30
0.0
 10
158.5235911978383
 20
114.3878459432218
 30
0.0
 10
158.6232466505363
 20
114.3607147749326
 30
0.0
 10
158.7862340034921
 20
114.2979477287258
 30
0.0
 10
158.8509713642385
 20
114.2618840347988
 30
0.0
 10
158.9378067143556
 20
114.1886913649307
 30
0.0
 10
158.9607057117979
 20
114.1511485794198
 30
0.0
 10
158.9607057117979
 20
114.1154409352383
 30
0.0
  0
LINE
  5
16E
330
1F
100
AcDbEntity
  8
0
  6
HIDDEN
 62
     7
370
     0
100
AcDbLine
 10
158.9607057118
 20
114.1154409352
 30
0.0
 11
158.9607057118
 21
113.6578332797
 31
0.0
  0
SPLINE
  5
16F
330
1F
100
AcDbEntity
  8
0
  6
HIDDEN
 62
     7
370
     0
100
AcDbSpline
210
0.0
220
0.0
230
1.0
 70
     8
 71
     3
 72
    14
 73
    10
 74
     0
 42
0.00000001
 43
0.00000001
 12
1.0
 22
0.0
 32
0.0
 13
1.0
 23
0.0
 33
0.0
 40
0.0
 40
0.0
 40
0.0
 40
0.0
 40
0.2500000000000003
 40
0.2500000000000003
 40
0.5000000000000002
 40
0.5000000000000002
 40
0.7500000000000001
 40
0.7500000000000001
 40
1.0
 40
1.0
 40
1.0
 40
1.0
 10
158.0607057117979
 20
114.4356501915197
 30
0.0
 10
158.1831737997168
 20
114.4356501915197
 30
0.0
 10
158.3033848785856
 20
114.4253131717998
 30
0.0
 10
158.5235911978383
 20
114.3878459432218
 30
0.0
 10
158.6232466505363
 20
114.3607147749326
 30
0.0
 10
158.7862340034921
 20
114.2979477287258
 30
0.0
 10
158.8509713642385
 20
114.2618840347988
 30
0.0
 10
158.9378067143556
 20
114.1886913649307
 30
0.0
 10
158.9607057117979
 20
114.1511485794198
 30
0.0
 10
158.9607057117979
 20
114.1154409352383
 30
0.0
  0
LINE
  5
170
330
1F
100
AcDbEntity
  8
0
  6
HIDDEN
 62
     7
370
     0
100
AcDbLine
 10
153.8107057118
 20
114.4599275779
 30
0.0
 11
153.8107057118
 21
133.8557389814
 31
0.0
  0
LINE
  5
171
330
1F
100
AcDbEntity
  8
0
  6
HIDDEN
 62
     7
370
     0
100
AcDbLine
 10
156.4607057118
 20
135.1578332797
 30
0.0
 11
156.4607057118
 21
137.7153574014
 31
0.0
  0
LINE
  5
172
330
1F
100
AcDbEntity
  8
0
  6
HIDDEN
 62
     7
370
     0
100
AcDbLine
 10
158.9607057118
 20
113.1578332797
 30
0.0
 11
158.9607057118
 21
110.5210865816
 31
0.0
  0
LINE
  5
173
330
1F
100
AcDbEntity
  8
0
  6
HIDDEN
 62
     7
370
     0
100
AcDbLine
 10
153.8107057118
 20
135.1578332797
 30
0.0
 11
153.8107057118
 21
137.0378332797
 31
0.0
  0
LINE
  5
174
330
1F
100
AcDbEntity
  8
0
  6
HIDDEN
 62
     7
370
     0
100
AcDbLine
 10
152.8607057118
 20
135.1578332797
 30
0.0
 11
152.8607057118
 21
136.0878332797
 31
0.0
  0
LINE
  5
175
330
1F
100
AcDbEntity
  8
0
  6
HIDDEN
 62
     7
370
     0
100
AcDbLine
 10
153.8697057118
 20
113.1578332797
 30
0.0
 11
153.8697057118
 21
111.2778332797
 31
0.0
  0
LINE
  5
176
330
1F
100
AcDbEntity
  8
0
  6
HIDDEN
 62
     7
370
     0
100
AcDbLine
 10
152.8607057118
 20
113.1578332797
 30
0.0
 11
152.8607057118
 21
112.2868332797
 31
0.0
  0
LINE
  5
177
330
1F
100
AcDbEntity
  8
0
  6
HIDDEN
 62
     7
370
     0
100
AcDbLine
 10
186.0607057118
 20
130.4078332797
 30
0.0
 11
186.0607057118
 21
117.9078332797
 31
0.0
  0
LINE
  5
178
330
1F
100
AcDbEntity
  8
0
  6
HIDDEN
 62
     7
370
     0
100
AcDbLine
 10
188.5607057118
 20
130.4078332797
 30
0.0
 11
188.5607057118
 21
117.9078332797
 31
0.0
  0
LINE
  5
179
330
1F
100
AcDbEntity
  8
0
  6
HIDDEN
 62
     7
370
     0
100
AcDbLine
 10
181.2107057118
 20
129.6578332797
 30
0.0
 11
181.2107057118
 21
118.6578332797
 31
0.0
  0
LINE
  5
17A
330
1F
100
AcDbEntity
  8
0
  6
HIDDEN
 62
     7
370
     0
100
AcDbLine
 10
180.7107057118
 20
118.1578332797
 30
0.0
 11
180.7107057118
 21
130.1578332797
 31
0.0
  0
LINE
  5
17B
330
1F
100
AcDbEntity
  8
0
  6
HIDDEN
 62
     7
370
     0
100
AcDbLine
 10
186.0607057118
 20
118.6578332797
 30
0.0
 11
186.0607057118
 21
129.6578332797
 31
0.0
  0
LINE
  5
17C
330
1F
100
AcDbEntity
  8
0
  6
HIDDEN
 62
     7
370
     0
100
AcDbLine
 10
180.7107057118
 20
104.1828489243
 30
0.0
 11
180.7107057118
 21
107.2578332797
 31
0.0
  0
LINE
  5
17D
330
1F
100
AcDbEntity
  8
0
  6
HIDDEN
 62
     7
370
     0
100
AcDbLine
 10
185.2107057118
 20
107.2578332797
 30
0.0
 11
180.7107057118
 21
107.2578332797
 31
0.0
  0
LINE
  5
17E
330
1F
100
AcDbEntity
  8
0
  6
HIDDEN
 62
     7
370
     0
100
AcDbLine
 10
192.7107057118
 20
107.2578332797
 30
0.0
 11
189.7654833112
 21
107.2578332797
 31
0.0
  0
LINE
  5
17F
330
1F
100
AcDbEntity
  8
0
  6
HIDDEN
 62
     7
370
     0
100
AcDbLine
 10
189.8007057118
 20
106.7287098917
 30
0.0
 11
189.8007057118
 21
107.0449543577
 31
0.0
  0
LINE
  5
180
330
1F
100
AcDbEntity
  8
0
  6
HIDDEN
 62
     7
370
     0
100
AcDbLine
 10
192.7107057118
 20
107.2578332797
 30
0.0
 11
192.7107057118
 21
105.5538014586
 31
0.0
  0
LINE
  5
181
330
1F
100
AcDbEntity
  8
0
  6
HIDDEN
 62
     7
370
     0
100
AcDbLine
 10
187.7559281124
 20
107.2578332797
 30
0.0
 11
185.2107057118
 21
107.2578332797
 31
0.0
  0
LINE
  5
182
330
1F
100
AcDbEntity
  8
0
  6
HIDDEN
 62
     7
370
     0
100
AcDbLine
 10
187.7207057118
 20
107.0449543577
 30
0.0
 11
187.7207057118
 21
106.7287098917
 31
0.0
  0
ELLIPSE
  5
183
330
1F
100
AcDbEntity
  8
0
  6
HIDDEN
 62
     7
370
     0
100
AcDbEllipse
 10
150.7549389721
 20
124.1578332797
 30
0.0
 11
12.26424774976718
 21
-1.421085471520200E-14
 31
0.0
210
0.0
220
0.0
230
1.0
 40
0.8164965809
 41
1.318982952866335
 42
1.398241670070622
  0
LINE
  5
184
330
1F
100
AcDbEntity
  8
0
  6
HIDDEN
 62
     7
370
     0
100
AcDbLine
 10
152.8607057118
 20
135.1578332797
 30
0.0
 11
152.8607057118
 21
134.0228394228
 31
0.0
  0
ELLIPSE
  5
185
330
1F
100
AcDbEntity
  8
0
  6
HIDDEN
 62
     7
370
     0
100
AcDbEllipse
 10
150.7549389721
 20
124.1578332797
 30
0.0
 11
12.26424774976718
 21
-1.421085471520200E-14
 31
0.0
210
0.0
220
0.0
230
1.0
 40
0.8164965809
 41
4.884943637108978
 42
4.964202354313267
  0
LINE
  5
186
330
1F
100
AcDbEntity
  8
0
  6
HIDDEN
 62
     7
370
     0
100
AcDbLine
 10
152.8607057118
 20
113.1578332797
 30
0.0
 11
152.8607057118
 21
114.2928271366
 31
0.0
  0
CIRCLE
  5
187
330
1F
100
AcDbEntity
  8
0
  6
HIDDEN
 62
     7
370
     0
100
AcDbCircle
 10
211.714378746
 20
118.7859342714
 30
0.0
 40
3.476487220717134
  0
LINE
  5
188
330
1F
100
AcDbEntity
  8
0
  6
HIDDEN
 62
     7
370
     0
100
AcDbLine
 10
185.2107057118
 20
141.0578332797
 30
0.0
 11
180.7107057118
 21
141.0578332797
 31
0.0
  0
LINE
  5
189
330
1F
100
AcDbEntity
  8
0
  6
HIDDEN
 62
     7
370
     0
100
AcDbLine
 10
192.7107678349
 20
141.0578332797
 30
0.0
 11
189.5523613261
 21
141.0578332797
 31
0.0
  0
LINE
  5
18A
330
1F
100
AcDbEntity
  8
0
  6
HIDDEN
 62
     7
370
     0
100
AcDbLine
 10
189.8007057118
 20
141.8715099752
 30
0.0
 11
189.8007057118
 21
141.5604372515
 31
0.0
  0
LINE
  5
18B
330
1F
100
AcDbEntity
  8
0
  6
HIDDEN
 62
     7
370
     0
100
AcDbLine
 10
192.7107057118
 20
141.069367805
 30
0.0
 11
192.7107057118
 21
143.0287103128
 31
0.0
  0
LINE
  5
18C
330
1F
100
AcDbEntity
  8
0
  6
HIDDEN
 62
     7
370
     0
100
AcDbLine
 10
187.9690500975
 20
141.0578332797
 30
0.0
 11
185.2107057118
 21
141.0578332797
 31
0.0
  0
LINE
  5
18D
330
1F
100
AcDbEntity
  8
0
  6
HIDDEN
 62
     7
370
     0
100
AcDbLine
 10
187.7207057118
 20
141.5604372515
 30
0.0
 11
187.7207057118
 21
141.8715099752
 31
0.0
  0
ARC
  5
18E
330
1F
100
AcDbEntity
  8
0
  6
HIDDEN
 62
     7
370
     0
100
AcDbCircle
 10
206.9736579267
 20
113.7592172519
 30
0.0
 40
2.097506487969464
100
AcDbArc
 50
32.3012968731
 51
211.3994030971
  0
LINE
  5
18F
330
1F
100
AcDbEntity
  8
0
  6
HIDDEN
 62
     7
370
     0
100
AcDbLine
 10
153.8107057118
 20
135.1578332797
 30
0.0
 11
153.8107057118
 21
133.8557389814
 31
0.0
  0
LINE
  5
190
330
1F
100
AcDbEntity
  8
0
  6
HIDDEN
 62
     7
370
     0
100
AcDbLine
 10
156.4607057118
 20
135.1578332797
 30
0.0
 11
156.4607057118
 21
134.1820227731
 31
0.0
  0
LINE
  5
191
330
1F
100
AcDbEntity
  8
0
  6
HIDDEN
 62
     7
370
     0
100
AcDbLine
 10
153.8697057118
 20
113.1578332797
 30
0.0
 11
153.8697057118
 21
114.4356501915
 31
0.0
  0
LINE
  5
192
330
1F
100
AcDbEntity
  8
0
  6
HIDDEN
 62
     7
370
     0
100
AcDbLine
 10
158.9607057118
 20
113.1578332797
 30
0.0
 11
158.9607057118
 21
114.1154409352
 31
0.0
  0
LINE
  5
193
330
1F
100
AcDbEntity
  8
0
  6
HIDDEN
 62
     7
370
     0
100
AcDbLine
 10
208.8028841234
 20
114.7878669165
 30
0.0
 11
208.7465747363
 21
114.8800649014
 31
0.0
  0
SPLINE
  5
194
330
1F
100
AcDbEntity
  8
0
  6
HIDDEN
 62
     7
370
     0
100
AcDbSpline
210
0.0
220
0.0
230
1.0
 70
     8
 71
     3
 72
    14
 73
    10
 74
     0
 42
0.00000001
 43
0.00000001
 12
1.0
 22
0.0
 32
0.0
 13
1.0
 23
0.0
 33
0.0
 40
0.0
 40
0.0
 40
0.0
 40
0.0
 40
0.25
 40
0.25
 40
0.5
 40
0.5
 40
0.75
 40
0.75
 40
1.0
 40
1.0
 40
1.0
 40
1.0
 10
207.959304550108
 20
116.5731061296739
 30
0.0
 10
207.9293540421167
 20
116.5835561051729
 30
0.0
 10
207.8781759191302
 20
116.606037914567
 30
0.0
 10
207.7370396074109
 20
116.6818496650204
 30
0.0
 10
207.6464652285472
 20
116.7360644250002
 30
0.0
 10
207.4533247810066
 20
116.8676646711392
 30
0.0
 10
207.3542858881565
 20
116.9424382954155
 30
0.0
 10
207.1660374355898
 20
117.0976908046247
 30
0.0
 10
207.0776523755437
 20
117.1771107001127
 30
0.0
 10
206.9933787238189
 20
117.2582449399784
 30
0.0
  0
LINE
  5
195
330
1F
100
AcDbEntity
  8
0
  6
HIDDEN
 62
     7
370
     0
100
AcDbLine
 10
216.4578970537
 20
125.0935276204
 30
0.0
 11
219.1345684015
 21
122.8148344312
 31
0.0
  0
SPLINE
  5
196
330
1F
100
AcDbEntity
  8
0
  6
HIDDEN
 62
     7
370
     0
100
AcDbSpline
210
0.0
220
0.0
230
1.0
 70
     8
 71
     3
 72
    10
 73
     6
 74
     0
 42
0.00000001
 43
0.00000001
 12
1.0
 22
0.0
 32
0.0
 13
1.0
 23
0.0
 33
0.0
 40
0.0
 40
0.0
 40
0.0
 40
0.0
 40
0.5
 40
0.5
 40
1.0
 40
1.0
 40
1.0
 40
1.0
 10
210.3755733940145
 20
105.0391100575904
 30
0.0
 10
210.0052351975626
 20
106.9373991797504
 30
0.0
 10
209.6595457061169
 20
108.8390537080421
 30
0.0
 10
209.0488961138783
 20
112.6533851362363
 30
0.0
 10
208.7841077673274
 20
114.5660854865708
 30
0.0
 10
208.582288919916
 20
116.4873833651914
 30
0.0
  0
SPLINE
  5
197
330
1F
100
AcDbEntity
  8
0
  6
HIDDEN
 62
     7
370
     0
100
AcDbSpline
210
0.0
220
0.0
230
1.0
 70
     8
 71
     3
 72
     8
 73
     4
 74
     0
 42
0.00000001
 43
0.00000001
 12
1.0
 22
0.0
 32
0.0
 13
1.0
 23
0.0
 33
0.0
 40
0.0
 40
0.0
 40
0.0
 40
0.0
 40
1.0
 40
1.0
 40
1.0
 40
1.0
 10
208.582288919916
 20
116.4873833651915
 30
0.0
 10
208.3769460604132
 20
116.4756167501562
 30
0.0
 10
208.169294180142
 20
116.4998390421992
 30
0.0
 10
207.959304550108
 20
116.5731061296739
 30
0.0
  0
SPLINE
  5
198
330
1F
100
AcDbEntity
  8
0
  6
HIDDEN
 62
     7
370
     0
100
AcDbSpline
210
0.0
220
0.0
230
1.0
 70
     8
 71
     3
 72
    11
 73
     7
 74
     0
 42
0.00000001
 43
0.00000001
 12
1.0
 22
0.0
 32
0.0
 13
1.0
 23
0.0
 33
0.0
 40
0.0
 40
0.0
 40
0.0
 40
0.0
 40
0.0735834016396535
 40
0.3816629458139181
 40
0.6906809774467774
 40
1.0
 40
1.0
 40
1.0
 40
1.0
 10
210.1383896035351
 20
98.81561335880778
 30
0.0
 10
210.129521804484
 20
98.83916242998612
 30
0.0
 10
210.0835262370967
 20
98.96130693101261
 30
0.0
 10
210.0957374007873
 20
99.17641792664048
 30
0.0
 10
210.1739994097023
 20
99.46078933587438
 30
0.0
 10
210.3083602647492
 20
99.64492341000766
 30
0.0
 10
210.3755733940145
 20
99.7370352629915
 30
0.0
  0
SPLINE
  5
199
330
1F
100
AcDbEntity
  8
0
  6
HIDDEN
 62
     7
370
     0
100
AcDbSpline
210
0.0
220
0.0
230
1.0
 70
     8
 71
     3
 72
    35
 73
    31
 74
     0
 42
0.00000001
 43
0.00000001
 12
1.0
 22
0.0
 32
0.0
 13
1.0
 23
0.0
 33
0.0
 40
-0.0968759714501538
 40
-0.0666637413392336
 40
-0.034378669203658
 40
0.0
 40
0.0402501655240617
 40
0.0744868222977734
 40
0.1027071321015416
 40
0.1249179508767021
 40
0.1620537620812918
 40
0.203686623763741
 40
0.2499064447776949
 40
0.2843401084277129
 40
0.3106265058334635
 40
0.3287516660584177
 40
0.3698185614135332
 40
0.407158350767628
 40
0.4519490945101928
 40
0.5000414664483006
 40
0.5203026886840033
 40
0.5628788326113845
 40
0.5977565701893222
 40
0.6256573753262534
 40
0.6860513535191776
 40
0.7499481360754927
 40
0.7710338114755653
 40
0.8124324596666772
 40
0.8472054374237988
 40
0.8749589221790297
 40
0.9031240285498462
 40
0.9333362586607664
 40
0.965621330796342
 40
1.0
 40
1.040250165524062
 40
1.074486822297773
 40
1.102707132101542
 10
164.6044794927359
 20
109.9169873677473
 30
0.0
 10
164.8431422827463
 20
109.9535548272394
 30
0.0
 10
165.1895766011771
 20
109.9939656297927
 30
0.0
 10
165.5943366877481
 20
110.0233394107387
 30
0.0
 10
165.967935107262
 20
110.0405465912739
 30
0.0
 10
166.3765658921814
 20
110.0457393893298
 30
0.0
 10
166.8666326346282
 20
110.02081107378
 30
0.0
 10
167.4650229413675
 20
109.9599941714232
 30
0.0
 10
168.0001491442125
 20
109.8724813962085
 30
0.0
 10
168.3944054505846
 20
109.7887245720124
 30
0.0
 10
168.6343344762126
 20
109.7308420040309
 30
0.0
 10
168.8481162247769
 20
109.6728291440002
 30
0.0
 10
169.0158840410811
 20
109.6262949487407
 30
0.0
 10
169.0863476620985
 20
109.6042340120287
 30
0.0
 10
168.9968224697614
 20
109.6330107479527
 30
0.0
 10
168.7639859755263
 20
109.6945729372399
 30
0.0
 10
168.4445518230833
 20
109.7785136069806
 30
0.0
 10
168.0924602784861
 20
109.8535062565613
 30
0.0
 10
167.6447597201562
 20
109.9312809503983
 30
0.0
 10
167.0778861849818
 20
110.0081653407776
 30
0.0
 10
166.325035973039
 20
110.0534545515306
 30
0.0
 10
165.6538645257775
 20
110.0359810473812
 30
0.0
 10
165.1690714358528
 20
109.9912119358992
 30
0.0
 10
164.8547147309213
 20
109.9556627019089
 30
0.0
 10
164.6198807778275
 20
109.9199769538676
 30
0.0
 10
164.4949424517559
 20
109.8971949034987
 30
0.0
 10
164.4481181452393
 20
109.8902164525858
 30
0.0
 10
164.4796317774299
 20
109.8971750186356
 30
0.0
 10
164.6044794927359
 20
109.9169873677473
 30
0.0
 10
164.8431422827463
 20
109.9535548272394
 30
0.0
 10
165.1895766011771
 20
109.9939656297927
 30
0.0
  0
SPLINE
  5
19A
330
1F
100
AcDbEntity
  8
0
  6
HIDDEN
 62
     7
370
     0
100
AcDbSpline
210
0.0
220
0.0
230
1.0
 70
     8
 71
     3
 72
    35
 73
    31
 74
     0
 42
0.00000001
 43
0.00000001
 12
1.0
 22
0.0
 32
0.0
 13
1.0
 23
0.0
 33
0.0
 40
-0.1243198177516676
 40
-0.1014877469670911
 40
-0.0608367564019587
 40
0.0
 40
0.0343712166277541
 40
0.0666387492023782
 40
0.0968233043275062
 40
0.1249505753809189
 40
0.1526662634932851
 40
0.1874715367338359
 40
0.2288808094524685
 40
0.2500284990771759
 40
0.3139875781759838
 40
0.3744836764366285
 40
0.4023317405690336
 40
0.4371113310320651
 40
0.4795885132843852
 40
0.4997903583980663
 40
0.5479907218499458
 40
0.5929884342252264
 40
0.6398023656132041
 40
0.694515536563908
 40
0.7285101556289765
 40
0.762522450697201
 40
0.7965528224366288
 40
0.8145532956157043
 40
0.8337228321526615
 40
0.8540904280754057
 40
0.8756801822483323
 40
0.8985122530329088
 40
0.9391632435980412
 40
0.9999999999999999
 40
1.034371216627754
 40
1.066638749202378
 40
1.096823304327506
 10
165.3600203977255
 20
138.3040124627281
 30
0.0
 10
164.8885943412328
 20
138.3549031383649
 30
0.0
 10
164.6047006376919
 20
138.3986207263532
 30
0.0
 10
164.4797494017537
 20
138.418426346604
 30
0.0
 10
164.4481374422948
 20
138.4254115201477
 30
0.0
 10
164.4946242797835
 20
138.4184684951878
 30
0.0
 10
164.6190849025915
 20
138.3956854389694
 30
0.0
 10
164.8534346216153
 20
138.3600138754347
 30
0.0
 10
165.1677278372293
 20
138.3244638547455
 30
0.0
 10
165.652653519082
 20
138.2796928731441
 30
0.0
 10
166.3246080031205
 20
138.2622074389472
 30
0.0
 10
167.0778853459088
 20
138.3074451543429
 30
0.0
 10
167.6443693929186
 20
138.3841768155644
 30
0.0
 10
168.0909628799861
 20
138.4617887364922
 30
0.0
 10
168.4423507027457
 20
138.5366129028726
 30
0.0
 10
168.7622426301674
 20
138.6205702850746
 30
0.0
 10
168.9963120925854
 20
138.6821581847481
 30
0.0
 10
169.09307657408
 20
138.7135601611851
 30
0.0
 10
168.9876105511904
 20
138.6795387985438
 30
0.0
 10
168.6881770142617
 20
138.5967836146075
 30
0.0
 10
168.2887311917548
 20
138.5069931500798
 30
0.0
 10
167.8879658278667
 20
138.4338399321744
 30
0.0
 10
167.508017158436
 20
138.366604353061
 30
0.0
 10
167.1770314755804
 20
138.3188655147022
 30
0.0
 10
166.9019475167369
 20
138.2940923564628
 30
0.0
 10
166.6067128573218
 20
138.2777824224115
 30
0.0
 10
166.2959782364306
 20
138.2710206838262
 30
0.0
 10
165.8993957127315
 20
138.2730450434039
 30
0.0
 10
165.3600203977255
 20
138.3040124627281
 30
0.0
 10
164.8885943412328
 20
138.3549031383649
 30
0.0
 10
164.6047006376919
 20
138.3986207263532
 30
0.0
  0
ELLIPSE
  5
19B
330
1F
100
AcDbEntity
  8
0
  6
HIDDEN
 62
     7
370
     0
100
AcDbEllipse
 10
215.1305191879
 20
110.9641934583
 30
0.0
 11
3.057590872828484
 21
-0.4260790707184867
 31
0.0
210
0.0
220
0.0
230
1.0
 40
0.126900916
 41
5.970884811489443
 42
6.479989883702482
  0
SPLINE
  5
19C
330
1F
100
AcDbEntity
  8
0
  6
HIDDEN
 62
     7
370
     0
100
AcDbSpline
210
0.0
220
0.0
230
1.0
 70
     8
 71
     3
 72
    42
 73
    38
 74
     0
 42
0.00000001
 43
0.00000001
 12
1.0
 22
0.0
 32
0.0
 13
1.0
 23
0.0
 33
0.0
 40
0.0
 40
0.0
 40
0.0
 40
0.0
 40
0.125000000000001
 40
0.125000000000001
 40
0.1875000000000012
 40
0.1875000000000012
 40
0.2500000000000014
 40
0.2500000000000014
 40
0.3125000000000016
 40
0.3125000000000016
 40
0.3750000000000018
 40
0.3750000000000018
 40
0.4062500000000019
 40
0.4062500000000019
 40
0.4375000000000021
 40
0.4375000000000021
 40
0.4687500000000022
 40
0.4687500000000022
 40
0.5000000000000023
 40
0.5000000000000023
 40
0.5156250000000023
 40
0.5156250000000023
 40
0.5312500000000023
 40
0.5312500000000023
 40
0.5625000000000026
 40
0.5625000000000026
 40
0.6250000000000022
 40
0.6250000000000022
 40
0.6875000000000018
 40
0.6875000000000018
 40
0.7500000000000013
 40
0.7500000000000013
 40
0.812500000000001
 40
0.812500000000001
 40
0.8750000000000006
 40
0.8750000000000006
 40
1.0
 40
1.0
 40
1.0
 40
1.0
 10
209.9309409510063
 20
115.3694493783514
 30
0.0
 10
209.9989929655944
 20
115.3115156083819
 30
0.0
 10
210.1322668474506
 20
115.2386839279992
 30
0.0
 10
210.3927398191427
 20
115.1249009840554
 30
0.0
 10
210.4906568461102
 20
115.0861063541822
 30
0.0
 10
210.7048673113842
 20
115.0110364220855
 30
0.0
 10
210.8213490457573
 20
114.9746235120467
 30
0.0
 10
211.0749409493447
 20
114.9076706580561
 30
0.0
 10
211.2119390825537
 20
114.8770489481047
 30
0.0
 10
211.5130205403703
 20
114.8272934037367
 30
0.0
 10
211.6780858102555
 20
114.8077747700337
 30
0.0
 10
211.9546413734262
 20
114.7968697216557
 30
0.0
 10
212.0512816787467
 20
114.7963525409736
 30
0.0
 10
212.2572709411396
 20
114.8048526372852
 30
0.0
 10
212.3671856309997
 20
114.813935465286
 30
0.0
 10
212.5992721518499
 20
114.8469873008199
 30
0.0
 10
212.7242566417585
 20
114.8714702052401
 30
0.0
 10
212.9821639706514
 20
114.9425085321562
 30
0.0
 10
213.1176959387929
 20
114.9904319756043
 30
0.0
 10
213.3082183297839
 20
115.0766096382962
 30
0.0
 10
213.3710251667484
 20
115.1082695285902
 30
0.0
 10
213.4889896994747
 20
115.1739570170197
 30
0.0
 10
213.5443321282176
 20
115.2079600336813
 30
0.0
 10
213.7012168377479
 20
115.3128363247677
 30
0.0
 10
213.7913555063731
 20
115.3851645749221
 30
0.0
 10
214.0218223251143
 20
115.5944538601995
 30
0.0
 10
214.1290217379405
 20
115.7265745045599
 30
0.0
 10
214.3041906442203
 20
115.9820874027591
 30
0.0
 10
214.3683718092985
 20
116.1023677109555
 30
0.0
 10
214.4699067399611
 20
116.3301427464919
 30
0.0
 10
214.5070167663467
 20
116.4379449006538
 30
0.0
 10
214.5623263614008
 20
116.6421424364579
 30
0.0
 10
214.5803783416762
 20
116.7386888875125
 30
0.0
 10
214.6009353962763
 20
116.9166342318416
 30
0.0
 10
214.6035354340107
 20
116.9984124442466
 30
0.0
 10
214.5911520329936
 20
117.2187790855656
 30
0.0
 10
214.557801710664
 20
117.334524222276
 30
0.0
 10
214.49010234469
 20
117.3921577768321
 30
0.0
  0
ELLIPSE
  5
19D
330
1F
100
AcDbEntity
  8
0
  6
HIDDEN
 62
     7
370
     0
100
AcDbEllipse
 10
215.1305191879
 20
110.9641934583
 30
0.0
 11
3.057590872828484
 21
-0.4260790707184867
 31
0.0
210
0.0
220
0.0
230
1.0
 40
0.126900916
 41
3.338397230112817
 42
4.646861747974172
  0
LINE
  5
19E
330
1F
100
AcDbEntity
  8
0
  6
HIDDEN
 62
     7
370
     0
100
AcDbLine
 10
197.7607057118
 20
123.9903959713
 30
0.0
 11
197.7607057118
 21
121.6578332797
 31
0.0
  0
SPLINE
  5
19F
330
1F
100
AcDbEntity
  8
0
  6
HIDDEN
 62
     7
370
     0
100
AcDbSpline
210
0.0
220
0.0
230
1.0
 70
     8
 71
     3
 72
    12
 73
     8
 74
     0
 42
0.00000001
 43
0.00000001
 12
1.0
 22
0.0
 32
0.0
 13
1.0
 23
0.0
 33
0.0
 40
0.0
 40
0.0
 40
0.0
 40
0.0
 40
0.5000000000000002
 40
0.5000000000000002
 40
0.7500000000000001
 40
0.7500000000000001
 40
1.0
 40
1.0
 40
1.0
 40
1.0
 10
197.7607057117979
 20
123.9903959713113
 30
0.0
 10
197.8204245690888
 20
124.150542190721
 30
0.0
 10
197.860611903356
 20
124.3556986496131
 30
0.0
 10
197.8607523553357
 20
124.6945399275305
 30
0.0
 10
197.851226208066
 20
124.8092101350911
 30
0.0
 10
197.8159057438939
 20
125.0353493142714
 30
0.0
 10
197.7905895642309
 20
125.1443776849819
 30
0.0
 10
197.7607057117979
 20
125.2474921334026
 30
0.0
  0
LINE
  5
1A0
330
1F
100
AcDbEntity
  8
0
  6
HIDDEN
 62
     7
370
     0
100
AcDbLine
 10
197.7607057118
 20
124.3252705881
 30
0.0
 11
197.7607057118
 21
126.6578332797
 31
0.0
  0
LINE
  5
1A1
330
1F
100
AcDbEntity
  8
0
  6
HIDDEN
 62
     7
370
     0
100
AcDbLine
 10
220.6025147607
 20
111.2014857728
 30
0.0
 11
221.7261501069
 21
110.2449170059
 31
0.0
  0
SPLINE
  5
1A2
330
1F
100
AcDbEntity
  8
0
  6
HIDDEN
 62
     7
370
     0
100
AcDbSpline
210
0.0
220
0.0
230
1.0
 70
     8
 71
     3
 72
    64
 73
    60
 74
     0
 42
0.00000001
 43
0.00000001
 12
1.0
 22
0.0
 32
0.0
 13
1.0
 23
0.0
 33
0.0
 40
0.0
 40
0.0
 40
0.0
 40
0.0
 40
0.0625000000000001
 40
0.0625000000000001
 40
0.0937500000000001
 40
0.0937500000000001
 40
0.1250000000000002
 40
0.1250000000000002
 40
0.1562500000000002
 40
0.1562500000000002
 40
0.1875000000000002
 40
0.1875000000000002
 40
0.2187500000000003
 40
0.2187500000000003
 40
0.2500000000000003
 40
0.2500000000000003
 40
0.2812500000000004
 40
0.2812500000000004
 40
0.3125000000000004
 40
0.3125000000000004
 40
0.3437500000000004
 40
0.3437500000000004
 40
0.3750000000000005
 40
0.3750000000000005
 40
0.4062500000000006
 40
0.4062500000000006
 40
0.4375000000000006
 40
0.4375000000000006
 40
0.4687500000000006
 40
0.4687500000000006
 40
0.5000000000000007
 40
0.5000000000000007
 40
0.5312500000000007
 40
0.5312500000000007
 40
0.5625000000000008
 40
0.5625000000000008
 40
0.5937500000000008
 40
0.5937500000000008
 40
0.6250000000000009
 40
0.6250000000000009
 40
0.6562500000000009
 40
0.6562500000000009
 40
0.6875000000000009
 40
0.6875000000000009
 40
0.718750000000001
 40
0.718750000000001
 40
0.750000000000001
 40
0.750000000000001
 40
0.781250000000001
 40
0.781250000000001
 40
0.8125000000000011
 40
0.8125000000000011
 40
0.8437500000000011
 40
0.8437500000000011
 40
0.8750000000000011
 40
0.8750000000000011
 40
0.9375000000000006
 40
0.9375000000000006
 40
1.0
 40
1.0
 40
1.0
 40
1.0
 10
197.7607057117979
 20
125.2474921334026
 30
0.0
 10
197.6811431067669
 20
125.478873997086
 30
0.0
 10
197.5618815024654
 20
125.6737087521999
 30
0.0
 10
197.3384847523723
 20
125.9202954231118
 30
0.0
 10
197.2577932385539
 20
125.9933136685738
 30
0.0
 10
197.084070018004
 20
126.1239747115192
 30
0.0
 10
196.9902811736233
 20
126.1819300668169
 30
0.0
 10
196.7930253566489
 20
126.281587645584
 30
0.0
 10
196.6895915481268
 20
126.3235116257233
 30
0.0
 10
196.4698498488276
 20
126.3932006303426
 30
0.0
 10
196.3522041631203
 20
126.4212316939094
 30
0.0
 10
196.1029335381024
 20
126.4615476782902
 30
0.0
 10
195.9719491680219
 20
126.4737143751438
 30
0.0
 10
195.7038706773202
 20
126.4804888221771
 30
0.0
 10
195.5710052016318
 20
126.475100669784
 30
0.0
 10
195.3112217098967
 20
126.4472015869114
 30
0.0
 10
195.1897115214304
 20
126.4253785321003
 30
0.0
 10
194.9573847920366
 20
126.3664391551325
 30
0.0
 10
194.8472845155947
 20
126.3292584735257
 30
0.0
 10
194.641551134509
 20
126.2411118477053
 30
0.0
 10
194.5448455707611
 20
126.1898714298328
 30
0.0
 10
194.3615822710261
 20
126.0710054199256
 30
0.0
 10
194.2748838636383
 20
126.0029828640442
 30
0.0
 10
194.1169252967373
 20
125.8525099162339
 30
0.0
 10
194.0448781972753
 20
125.7696590970116
 30
0.0
 10
193.9153661416414
 20
125.5859912031667
 30
0.0
 10
193.8573792252785
 20
125.4837622083164
 30
0.0
 10
193.7627954575404
 20
125.265755980221
 30
0.0
 10
193.7257230827365
 20
125.149881941592
 30
0.0
 10
193.6745082715458
 20
124.902213308072
 30
0.0
 10
193.6612853566491
 20
124.7738452700926
 30
0.0
 10
193.6601635215528
 20
124.5132718303997
 30
0.0
 10
193.6725999605626
 20
124.37844617616
 30
0.0
 10
193.721458922551
 20
124.116149314124
 30
0.0
 10
193.7576878730071
 20
123.987359370105
 30
0.0
 10
193.8515491230256
 20
123.7367477069562
 30
0.0
 10
193.907893782971
 20
123.6180733723042
 30
0.0
 10
194.0373079717912
 20
123.3921244830359
 30
0.0
 10
194.110708457844
 20
123.2847805426698
 30
0.0
 10
194.2684501865714
 20
123.0874045472668
 30
0.0
 10
194.3533401728968
 20
122.9962901947992
 30
0.0
 10
194.5357465529628
 20
122.8280363913193
 30
0.0
 10
194.6339600902082
 20
122.7505108120437
 30
0.0
 10
194.8401355105709
 20
122.6138256117388
 30
0.0
 10
194.9484081498215
 20
122.5541075611535
 30
0.0
 10
195.179962433417
 20
122.454012021278
 30
0.0
 10
195.3038481142775
 20
122.4138070349056
 30
0.0
 10
195.5609301350634
 20
122.362322125932
 30
0.0
 10
195.6970852551286
 20
122.351114643839
 30
0.0
 10
195.9625695263818
 20
122.3622751640146
 30
0.0
 10
196.0957481866277
 20
122.3846494041311
 30
0.0
 10
196.3440835630173
 20
122.4544718995643
 30
0.0
 10
196.4624151093259
 20
122.5021100671701
 30
0.0
 10
196.6855829978803
 20
122.6160293576638
 30
0.0
 10
196.7896392383853
 20
122.6816933942093
 30
0.0
 10
197.0855172441526
 20
122.9026368317749
 30
0.0
 10
197.2626602412325
 20
123.0838953520517
 30
0.0
 10
197.5582520024994
 20
123.4958695136119
 30
0.0
 10
197.6809522139594
 20
123.7332704671106
 30
0.0
 10
197.7607057117979
 20
123.9903959713113
 30
0.0
  0
LINE
  5
1A3
330
1F
100
AcDbEntity
  8
0
  6
HIDDEN
 62
     7
370
     0
100
AcDbLine
 10
188.5607057118
 20
121.6578332797
 30
0.0
 11
188.5607057118
 21
126.6450065882
 31
0.0
  0
LINE
  5
1A4
330
1F
100
AcDbEntity
  8
0
  6
HIDDEN
 62
     7
370
     0
100
AcDbLine
 10
214.4551582501
 20
98.3684105873
 30
0.0
 11
213.3315229039
 21
99.3249793542
 31
0.0
  0
LINE
  5
1A5
330
1F
100
AcDbEntity
  8
0
  6
HIDDEN
 62
     7
370
     0
100
AcDbLine
 10
218.763957681
 20
107.8744245228
 30
0.0
 11
217.2523925283
 21
111.3775547875
 31
0.0
  0
LINE
  5
1A6
330
1F
100
AcDbEntity
  8
0
  6
HIDDEN
 62
     7
370
     0
100
AcDbLine
 10
218.3863835285
 20
108.1958594462
 30
0.0
 11
218.763957681
 21
107.8744245228
 31
0.0
  0
LINE
  5
1A7
330
1F
100
AcDbEntity
  8
0
  6
HIDDEN
 62
     7
370
     0
100
AcDbLine
 10
215.6890456907
 20
113.1994346982
 30
0.0
 11
213.9792461997
 21
117.8270577952
 31
0.0
  0
LINE
  5
1A8
330
1F
100
AcDbEntity
  8
0
  6
HIDDEN
 62
     7
370
     0
100
AcDbLine
 10
214.4901023447
 20
117.3921577768
 30
0.0
 11
213.9792461997
 21
117.8270577952
 31
0.0
  0
LINE
  5
1A9
330
1F
100
AcDbEntity
  8
0
  6
HIDDEN
 62
     7
370
     0
100
AcDbLine
 10
217.2523925283
 20
111.3775547875
 30
0.0
 11
218.1396601966
 21
110.6222096106
 31
0.0
  0
SPLINE
  5
1AA
330
1F
100
AcDbEntity
  8
0
  6
HIDDEN
 62
     7
370
     0
100
AcDbSpline
210
0.0
220
0.0
230
1.0
 70
     8
 71
     3
 72
     8
 73
     4
 74
     0
 42
0.00000001
 43
0.00000001
 12
1.0
 22
0.0
 32
0.0
 13
1.0
 23
0.0
 33
0.0
 40
0.0
 40
0.0
 40
0.0
 40
0.0
 40
1.0
 40
1.0
 40
1.0
 40
1.0
 10
207.959304550108
 20
124.4014163767497
 30
0.0
 10
208.0269221209717
 20
124.4692943998936
 30
0.0
 10
208.0947125917477
 20
124.532849959703
 30
0.0
 10
208.1626295004446
 20
124.5923899121031
 30
0.0
  0
SPLINE
  5
1AB
330
1F
100
AcDbEntity
  8
0
  6
HIDDEN
 62
     7
370
     0
100
AcDbSpline
210
0.0
220
0.0
230
1.0
 70
     8
 71
     3
 72
    14
 73
    10
 74
     0
 42
0.00000001
 43
0.00000001
 12
1.0
 22
0.0
 32
0.0
 13
1.0
 23
0.0
 33
0.0
 40
0.0
 40
0.0
 40
0.0
 40
0.0
 40
0.25
 40
0.25
 40
0.5
 40
0.5
 40
0.75
 40
0.75
 40
1.0
 40
1.0
 40
1.0
 40
1.0
 10
206.9933787238189
 20
123.6786632349462
 30
0.0
 10
207.0901482142965
 20
123.7600856704388
 30
0.0
 10
207.1874567357974
 20
123.8371424740534
 30
0.0
 10
207.3815012692925
 20
123.9834394770559
 30
0.0
 10
207.4784387391287
 20
124.0526768939579
 30
0.0
 10
207.6563189568013
 20
124.1767890271042
 30
0.0
 10
207.7394132009263
 20
124.2332423749382
 30
0.0
 10
207.8738011761364
 20
124.3286580870938
 30
0.0
 10
207.9273458792
 20
124.3693346060526
 30
0.0
 10
207.959304550108
 20
124.4014163767497
 30
0.0
  0
ELLIPSE
  5
1AC
330
1F
100
AcDbEntity
  8
0
  6
HIDDEN
 62
     7
370
     0
100
AcDbEllipse
 10
209.5498324542
 20
120.5859561787
 30
0.0
 11
-3.239832403550395
 21
2.758121215709707
 31
0.0
210
0.0
220
0.0
230
1.0
 40
0.98710888
 41
2.038984550136852
 42
4.86130160899676
  0
SPLINE
  5
1AD
330
1F
100
AcDbEntity
  8
0
  6
HIDDEN
 62
     7
370
     0
100
AcDbSpline
210
0.0
220
0.0
230
1.0
 70
     8
 71
     3
 72
    14
 73
    10
 74
     0
 42
0.00000001
 43
0.00000001
 12
1.0
 22
0.0
 32
0.0
 13
1.0
 23
0.0
 33
0.0
 40
0.0
 40
0.0
 40
0.0
 40
0.0
 40
0.25
 40
0.25
 40
0.5
 40
0.5
 40
0.75
 40
0.75
 40
1.0
 40
1.0
 40
1.0
 40
1.0
 10
211.7615968528272
 20
124.1578332796949
 30
0.0
 10
211.4943429030112
 20
124.324732332304
 30
0.0
 10
211.2139001175835
 20
124.4595095998457
 30
0.0
 10
210.6274973211909
 20
124.6669783458166
 30
0.0
 10
210.3180013694812
 20
124.7396007845999
 30
0.0
 10
209.6998680998405
 20
124.8143864704717
 30
0.0
 10
209.3890415502178
 20
124.8180957703121
 30
0.0
 10
208.7637507613269
 20
124.755895293322
 30
0.0
 10
208.4574811275702
 20
124.6904125791486
 30
0.0
 10
208.1626295004446
 20
124.5923899121031
 30
0.0
  0
ELLIPSE
  5
1AE
330
1F
100
AcDbEntity
  8
0
  6
HIDDEN
 62
     7
370
     0
100
AcDbEllipse
 10
210.6539286711
 20
119.6460213855
 30
0.0
 11
3.360552843564931
 21
2.55521041516971
 31
0.0
210
0.0
220
0.0
230
1.0
 40
0.8809351658
 41
3.812217460808003
 42
5.087341302046394
  0
LINE
  5
1AF
330
1F
100
AcDbEntity
  8
0
  6
HIDDEN
 62
     7
370
     0
100
AcDbLine
 10
209.420084806
 20
115.8043493967
 30
0.0
 11
209.930940951
 21
115.3694493784
 31
0.0
  0
CIRCLE
  5
1B0
330
1F
100
AcDbEntity
  8
0
  6
HIDDEN
 62
     7
370
     0
100
AcDbCircle
 10
211.6622906929
 20
118.8385468848
 30
0.0
 40
4.172099954555177
  0
LINE
  5
1B1
330
1F
100
AcDbEntity
  8
0
  6
HIDDEN
 62
     7
370
     0
100
AcDbLine
 10
180.7107057118
 20
107.2578332797
 30
0.0
 11
185.2107057118
 21
107.2578332797
 31
0.0
  0
CIRCLE
  5
1B2
330
1F
100
AcDbEntity
  8
0
  6
HIDDEN
 62
     7
370
     0
100
AcDbCircle
 10
195.755034621
 20
126.1411050758
 30
0.0
 40
2.087061979203479
  0
LINE
  5
1B3
330
1F
100
AcDbEntity
  8
0
  6
HIDDEN
 62
     7
370
     0
100
AcDbLine
 10
212.1213781792
 20
111.306177306
 30
0.0
 11
211.694412571
 21
111.6696599667
 31
0.0
  0
LINE
  5
1B4
330
1F
100
AcDbEntity
  8
0
  6
HIDDEN
 62
     7
370
     0
100
AcDbLine
 10
158.9607057118
 20
113.1578332797
 30
0.0
 11
158.9607057118
 21
110.5210865816
 31
0.0
  0
LINE
  5
1B5
330
1F
100
AcDbEntity
  8
0
  6
HIDDEN
 62
     7
370
     0
100
AcDbLine
 10
156.4607057118
 20
135.1578332797
 30
0.0
 11
156.4607057118
 21
137.7153574014
 31
0.0
  0
LINE
  5
1B6
330
1F
100
AcDbEntity
  8
0
  6
HIDDEN
 62
     7
370
     0
100
AcDbLine
 10
189.8007057118
 20
141.5604372515
 30
0.0
 11
189.8007057118
 21
107.0449543577
 31
0.0
  0
SPLINE
  5
1B7
330
1F
100
AcDbEntity
  8
0
  6
HIDDEN
 62
     7
370
     0
100
AcDbSpline
210
0.0
220
0.0
230
1.0
 70
     8
 71
     3
 72
    10
 73
     6
 74
     0
 42
0.00000001
 43
0.00000001
 12
1.0
 22
0.0
 32
0.0
 13
1.0
 23
0.0
 33
0.0
 40
0.0
 40
0.0
 40
0.0
 40
0.0
 40
0.5
 40
0.5
 40
1.0
 40
1.0
 40
1.0
 40
1.0
 10
189.5523613260479
 20
141.0578332796949
 30
0.0
 10
189.6297893305965
 20
141.1157925860819
 30
0.0
 10
189.6929689474831
 20
141.1927772412
 30
0.0
 10
189.7782641267442
 20
141.3663473740724
 30
0.0
 10
189.8007057117979
 20
141.4632486365542
 30
0.0
 10
189.8007057117979
 20
141.5604372515147
 30
0.0
  0
SPLINE
  5
1B8
330
1F
100
AcDbEntity
  8
0
  6
HIDDEN
 62
     7
370
     0
100
AcDbSpline
210
0.0
220
0.0
230
1.0
 70
     8
 71
     3
 72
    10
 73
     6
 74
     0
 42
0.00000001
 43
0.00000001
 12
1.0
 22
0.0
 32
0.0
 13
1.0
 23
0.0
 33
0.0
 40
0.0
 40
0.0
 40
0.0
 40
0.0
 40
0.5
 40
0.5
 40
1.0
 40
1.0
 40
1.0
 40
1.0
 10
189.7654833112165
 20
107.2578332796949
 30
0.0
 10
189.7771954281797
 20
107.2234899425009
 30
0.0
 10
189.7859934980517
 20
107.1883974047627
 30
0.0
 10
189.7978070558238
 20
107.116725629372
 30
0.0
 10
189.8007057117979
 20
107.0807819750067
 30
0.0
 10
189.8007057117979
 20
107.0449543576666
 30
0.0
  0
SPLINE
  5
1B9
330
1F
100
AcDbEntity
  8
0
  6
HIDDEN
 62
     7
370
     0
100
AcDbSpline
210
0.0
220
0.0
230
1.0
 70
    24
 71
     3
 72
    12
 73
     8
 74
     0
 42
0.00000001
 43
0.00000001
 12
1.0
 22
0.0
 32
0.0
 13
1.0
 23
0.0
 33
0.0
 40
0.0
 40
0.0
 40
0.0
 40
0.0
 40
0.25
 40
0.25
 40
0.5
 40
0.5
 40
1.0
 40
1.0
 40
1.0
 40
1.0
 10
189.2007057117979
 20
141.0578332796949
 30
0.0
 10
189.2524226297073
 20
141.0578332796949
 30
0.0
 10
189.2995104178461
 20
141.0578332796949
 30
0.0
 10
189.3725744125212
 20
141.0578332796949
 30
0.0
 10
189.4022033198069
 20
141.0578332796949
 30
0.0
 10
189.480776664332
 20
141.0578332796949
 30
0.0
 10
189.5187405325644
 20
141.0578332796949
 30
0.0
 10
189.5523613260479
 20
141.0578332796949
 30
0.0
  0
SPLINE
  5
1BA
330
1F
100
AcDbEntity
  8
0
  6
HIDDEN
 62
     7
370
     0
100
AcDbSpline
210
0.0
220
0.0
230
1.0
 70
    24
 71
     3
 72
    16
 73
    12
 74
     0
 42
0.00000001
 43
0.00000001
 12
1.0
 22
0.0
 32
0.0
 13
1.0
 23
0.0
 33
0.0
 40
0.0
 40
0.0
 40
0.0
 40
0.0
 40
0.0624999999999999
 40
0.0624999999999999
 40
0.1249999999999998
 40
0.1249999999999998
 40
0.2499999999999996
 40
0.2499999999999996
 40
0.4999999999999992
 40
0.4999999999999992
 40
1.0
 40
1.0
 40
1.0
 40
1.0
 10
189.2007057117979
 20
107.2578332796949
 30
0.0
 10
189.2350350494407
 20
107.2578332796949
 30
0.0
 10
189.2690502909014
 20
107.2578332796949
 30
0.0
 10
189.3255348654576
 20
107.2578332796949
 30
0.0
 10
189.3498372482997
 20
107.2578332796949
 30
0.0
 10
189.4141025251187
 20
107.2578332796949
 30
0.0
 10
189.4474598946248
 20
107.2578332796949
 30
0.0
 10
189.5358836299423
 20
107.2578332796949
 30
0.0
 10
189.5784231735512
 20
107.2578332796949
 30
0.0
 10
189.6884072586213
 20
107.2578332796949
 30
0.0
 10
189.7356339256488
 20
107.2578332796949
 30
0.0
 10
189.7654833112165
 20
107.2578332796949
 30
0.0
  0
LINE
  5
1BB
330
1F
100
AcDbEntity
  8
0
  6
HIDDEN
 62
     7
370
     0
100
AcDbLine
 10
153.8697057118
 20
113.1578332797
 30
0.0
 11
153.8697057118
 21
111.279542114
 31
0.0
  0
LINE
  5
1BC
330
1F
100
AcDbEntity
  8
0
  6
HIDDEN
 62
     7
370
     0
100
AcDbLine
 10
152.8607057118
 20
113.1578332797
 30
0.0
 11
152.8607057118
 21
112.2920102091
 31
0.0
  0
SPLINE
  5
1BD
330
1F
100
AcDbEntity
  8
0
  6
HIDDEN
 62
     7
370
     0
100
AcDbSpline
210
0.0
220
0.0
230
1.0
 70
     8
 71
     3
 72
    10
 73
     6
 74
     0
 42
0.00000001
 43
0.00000001
 12
1.0
 22
0.0
 32
0.0
 13
1.0
 23
0.0
 33
0.0
 40
0.0
 40
0.0
 40
0.0
 40
0.0
 40
0.5
 40
0.5
 40
1.0
 40
1.0
 40
1.0
 40
1.0
 10
187.7207057117979
 20
141.5604372515147
 30
0.0
 10
187.7207057117979
 20
141.463502186283
 30
0.0
 10
187.7431553476434
 20
141.3664429075438
 30
0.0
 10
187.8281510059114
 20
141.1932588201368
 30
0.0
 10
187.8910070898419
 20
141.1162529512513
 30
0.0
 10
187.9690500975479
 20
141.0578332796949
 30
0.0
  0
LINE
  5
1BE
330
1F
100
AcDbEntity
  8
0
  6
HIDDEN
 62
     7
370
     0
100
AcDbLine
 10
187.7207057118
 20
141.5604372515
 30
0.0
 11
187.7207057118
 21
107.0449543577
 31
0.0
  0
SPLINE
  5
1BF
330
1F
100
AcDbEntity
  8
0
  6
HIDDEN
 62
     7
370
     0
100
AcDbSpline
210
0.0
220
0.0
230
1.0
 70
     8
 71
     3
 72
    10
 73
     6
 74
     0
 42
0.00000001
 43
0.00000001
 12
1.0
 22
0.0
 32
0.0
 13
1.0
 23
0.0
 33
0.0
 40
0.0
 40
0.0
 40
0.0
 40
0.0
 40
0.5
 40
0.5
 40
1.0
 40
1.0
 40
1.0
 40
1.0
 10
187.7207057117979
 20
107.0449543576666
 30
0.0
 10
187.7207057117979
 20
107.0811768471074
 30
0.0
 10
187.7236754410953
 20
107.1173700443659
 30
0.0
 10
187.7355544234433
 20
107.1890085357808
 30
0.0
 10
187.744349651284
 20
107.2238818604225
 30
0.0
 10
187.7559281123792
 20
107.2578332796949
 30
0.0
  0
SPLINE
  5
1C0
330
1F
100
AcDbEntity
  8
0
  6
HIDDEN
 62
     7
370
     0
100
AcDbSpline
210
0.0
220
0.0
230
1.0
 70
    24
 71
     3
 72
    12
 73
     8
 74
     0
 42
0.00000001
 43
0.00000001
 12
1.0
 22
0.0
 32
0.0
 13
1.0
 23
0.0
 33
0.0
 40
0.0
 40
0.0
 40
0.0
 40
0.0
 40
0.4999999999999982
 40
0.4999999999999982
 40
0.7499999999999991
 40
0.7499999999999991
 40
1.0
 40
1.0
 40
1.0
 40
1.0
 10
187.9690500975479
 20
141.0578332796949
 30
0.0
 10
188.0027463412069
 20
141.0578332796949
 30
0.0
 10
188.040783215975
 20
141.0578332796949
 30
0.0
 10
188.1193435373793
 20
141.0578332796949
 30
0.0
 10
188.1489720428048
 20
141.0578332796949
 30
0.0
 10
188.2219157855505
 20
141.0578332796949
 30
0.0
 10
188.2690682658072
 20
141.0578332796949
 30
0.0
 10
188.3207057117979
 20
141.0578332796949
 30
0.0
  0
SPLINE
  5
1C1
330
1F
100
AcDbEntity
  8
0
  6
HIDDEN
 62
     7
370
     0
100
AcDbSpline
210
0.0
220
0.0
230
1.0
 70
    24
 71
     3
 72
    16
 73
    12
 74
     0
 42
0.00000001
 43
0.00000001
 12
1.0
 22
0.0
 32
0.0
 13
1.0
 23
0.0
 33
0.0
 40
0.0
 40
0.0
 40
0.0
 40
0.0
 40
0.5000000000000001
 40
0.5000000000000001
 40
0.7499999999999993
 40
0.7499999999999993
 40
0.8749999999999998
 40
0.8749999999999998
 40
0.9374999999999999
 40
0.9374999999999999
 40
1.0
 40
1.0
 40
1.0
 40
1.0
 10
187.7559281123792
 20
107.2578332796949
 30
0.0
 10
187.7857845514999
 20
107.2578332796949
 30
0.0
 10
187.8327064253547
 20
107.2578332796949
 30
0.0
 10
187.9431738317747
 20
107.2578332796949
 30
0.0
 10
187.9863996839858
 20
107.2578332796949
 30
0.0
 10
188.0748175845129
 20
107.2578332796949
 30
0.0
 10
188.1076909251534
 20
107.2578332796949
 30
0.0
 10
188.1719830562283
 20
107.2578332796949
 30
0.0
 10
188.1961372102356
 20
107.2578332796949
 30
0.0
 10
188.2528719808933
 20
107.2578332796949
 30
0.0
 10
188.2862430370788
 20
107.2578332796949
 30
0.0
 10
188.3207057117979
 20
107.2578332796949
 30
0.0
  0
LINE
  5
1C2
330
1F
100
AcDbEntity
  8
0
  6
HIDDEN
 62
     7
370
     0
100
AcDbLine
 10
153.8107057118
 20
135.1578332797
 30
0.0
 11
153.8107057118
 21
137.0305738426
 31
0.0
  0
LINE
  5
1C3
330
1F
100
AcDbEntity
  8
0
  6
HIDDEN
 62
     7
370
     0
100
AcDbLine
 10
152.8607057118
 20
135.1578332797
 30
0.0
 11
152.8607057118
 21
136.0823056742
 31
0.0
  0
LINE
  5
1C4
330
1F
100
AcDbEntity
  8
0
  6
HIDDEN
 62
     7
370
     0
100
AcDbLine
 10
152.8607057118
 20
134.0228394228
 30
0.0
 11
152.8607057118
 21
114.2928271366
 31
0.0
  0
LINE
  5
1C5
330
1F
100
AcDbEntity
  8
0
  6
HIDDEN
 62
     7
370
     0
100
AcDbLine
 10
188.3207057118
 20
141.0578332797
 30
0.0
 11
189.2007057118
 21
141.0578332797
 31
0.0
  0
LINE
  5
1C6
330
1F
100
AcDbEntity
  8
0
  6
HIDDEN
 62
     7
370
     0
100
AcDbLine
 10
188.3207057118
 20
107.2578332797
 30
0.0
 11
189.2007057118
 21
107.2578332797
 31
0.0
  0
SPLINE
  5
1C7
330
1F
100
AcDbEntity
  8
0
  6
HIDDEN
 62
     7
370
     0
100
AcDbSpline
210
0.0
220
0.0
230
1.0
 70
     8
 71
     3
 72
     8
 73
     4
 74
     0
 42
0.00000001
 43
0.00000001
 12
1.0
 22
0.0
 32
0.0
 13
1.0
 23
0.0
 33
0.0
 40
0.0
 40
0.0
 40
0.0
 40
0.0
 40
1.0
 40
1.0
 40
1.0
 40
1.0
 10
189.8007057117979
 20
141.8715099752251
 30
0.0
 10
190.1317260428175
 20
142.4630656716828
 30
0.0
 10
190.4635073143017
 20
143.054198335928
 30
0.0
 10
190.7958654106913
 20
143.6450085496
 30
0.0
  0
LINE
  5
1C8
330
1F
100
AcDbEntity
  8
0
  6
HIDDEN
 62
     7
370
     0
100
AcDbLine
 10
190.7958654107
 20
143.6450085496
 30
0.0
 11
192.1107057118
 21
143.6450085496
 31
0.0
  0
SPLINE
  5
1C9
330
1F
100
AcDbEntity
  8
0
  6
HIDDEN
 62
     7
370
     0
100
AcDbSpline
210
0.0
220
0.0
230
1.0
 70
     8
 71
     3
 72
    10
 73
     6
 74
     0
 42
0.00000001
 43
0.00000001
 12
1.0
 22
0.0
 32
0.0
 13
1.0
 23
0.0
 33
0.0
 40
0.0
 40
0.0
 40
0.0
 40
0.0
 40
0.5
 40
0.5
 40
1.0
 40
1.0
 40
1.0
 40
1.0
 10
192.1107057117979
 20
143.6450085496
 30
0.0
 10
192.2711279363973
 20
143.6450085496
 30
0.0
 10
192.4276107370646
 20
143.5764231470941
 30
0.0
 10
192.6482643476319
 20
143.3466498777745
 30
0.0
 10
192.7107057117979
 20
143.1881516761068
 30
0.0
 10
192.7107057117979
 20
143.0287103128378
 30
0.0
  0
LINE
  5
1CA
330
1F
100
AcDbEntity
  8
0
  6
HIDDEN
 62
     7
370
     0
100
AcDbLine
 10
192.7107057118
 20
143.0287103128
 30
0.0
 11
192.7107057118
 21
105.5538014586
 31
0.0
  0
SPLINE
  5
1CB
330
1F
100
AcDbEntity
  8
0
  6
HIDDEN
 62
     7
370
     0
100
AcDbSpline
210
0.0
220
0.0
230
1.0
 70
     8
 71
     3
 72
    12
 73
     8
 74
     0
 42
0.00000001
 43
0.00000001
 12
1.0
 22
0.0
 32
0.0
 13
1.0
 23
0.0
 33
0.0
 40
0.0
 40
0.0
 40
0.0
 40
0.0
 40
0.25
 40
0.25
 40
0.5
 40
0.5
 40
1.0
 40
1.0
 40
1.0
 40
1.0
 10
192.1107057117979
 20
104.9289487566655
 30
0.0
 10
192.1904711922681
 20
104.9289487566655
 30
0.0
 10
192.2708924759252
 20
104.9459243530236
 30
0.0
 10
192.4175743925877
 20
105.0103998504828
 30
0.0
 10
192.4839282021516
 20
105.0575134822774
 30
0.0
 10
192.6501322828783
 20
105.2341233962649
 30
0.0
 10
192.7107057117978
 20
105.393972272073
 30
0.0
 10
192.7107057117979
 20
105.5538014586081
 30
0.0
  0
SPLINE
  5
1CC
330
1F
100
AcDbEntity
  8
0
  6
HIDDEN
 62
     7
370
     0
100
AcDbSpline
210
0.0
220
0.0
230
1.0
 70
     8
 71
     3
 72
     8
 73
     4
 74
     0
 42
0.00000001
 43
0.00000001
 12
1.0
 22
0.0
 32
0.0
 13
1.0
 23
0.0
 33
0.0
 40
0.0
 40
0.0
 40
0.0
 40
0.0
 40
1.0
 40
1.0
 40
1.0
 40
1.0
 10
186.7255460129045
 20
143.6450085496
 30
0.0
 10
187.0579041092941
 20
143.054198335928
 30
0.0
 10
187.3896853807782
 20
142.4630656716828
 30
0.0
 10
187.7207057117979
 20
141.8715099752251
 30
0.0
  0
LINE
  5
1CD
330
1F
100
AcDbEntity
  8
0
  6
HIDDEN
 62
     7
370
     0
100
AcDbLine
 10
190.7958654107
 20
143.6450085496
 30
0.0
 11
190.7958654107
 21
104.9289487567
 31
0.0
  0
LINE
  5
1CE
330
1F
100
AcDbEntity
  8
0
  6
HIDDEN
 62
     7
370
     0
100
AcDbLine
 10
189.8007057118
 20
141.8715099752
 30
0.0
 11
189.8007057118
 21
106.7287098917
 31
0.0
  0
LINE
  5
1CF
330
1F
100
AcDbEntity
  8
0
  6
HIDDEN
 62
     7
370
     0
100
AcDbLine
 10
187.7207057118
 20
141.8715099752
 30
0.0
 11
187.7207057118
 21
106.7287098917
 31
0.0
  0
ARC
  5
1D0
330
1F
100
AcDbEntity
  8
0
  6
HIDDEN
 62
     7
370
     0
100
AcDbCircle
 10
217.2859700337
 20
105.056288838
 30
0.0
 40
3.18219047562068
100
AcDbArc
 50
165.5247254639
 51
62.3249751974
  0
LINE
  5
1D1
330
1F
100
AcDbEntity
  8
0
  6
HIDDEN
 62
     7
370
     0
100
AcDbLine
 10
227.7607057118
 20
99.2683613992
 30
0.0
 11
221.7446307553
 21
109.1187614292
 31
0.0
  0
LINE
  5
1D2
330
1F
100
AcDbEntity
  8
0
  6
HIDDEN
 62
     7
370
     0
100
AcDbLine
 10
227.7607057118
 20
99.2656589049
 30
0.0
 11
227.7607057118
 21
99.2683613992
 31
0.0
  0
LINE
  5
1D3
330
1F
100
AcDbEntity
  8
0
  6
HIDDEN
 62
     7
370
     0
100
AcDbLine
 10
227.5110018722
 20
98.7724522688
 30
0.0
 11
227.7607057118
 21
99.2656589049
 31
0.0
  0
ELLIPSE
  5
1D4
330
1F
100
AcDbEntity
  8
0
  6
HIDDEN
 62
     7
370
     0
100
AcDbEllipse
 10
174.6297920165
 20
124.1578332797
 30
0.0
 11
219.8970753509382
 21
2.864978418024975
 31
0.0
210
0.0
220
0.0
230
1.0
 40
0.1220915185
 41
4.944171182132871
 42
4.953659996238167
  0
LINE
  5
1D5
330
1F
100
AcDbEntity
  8
0
  6
HIDDEN
 62
     7
370
     0
100
AcDbLine
 10
211.694412571
 20
111.6696599667
 30
0.0
 11
214.2047962874
 21
105.8517161243
 31
0.0
  0
LINE
  5
1D6
330
1F
100
AcDbEntity
  8
0
  6
HIDDEN
 62
     7
370
     0
100
AcDbLine
 10
213.3315229039
 20
99.3249793542
 30
0.0
 11
225.483319342
 21
98.6863295743
 31
0.0
  0
LINE
  5
1D7
330
1F
100
AcDbEntity
  8
0
  6
HIDDEN
 62
     7
370
     0
100
AcDbLine
 10
220.6025147607
 20
111.2014857728
 30
0.0
 11
217.2523925283
 21
111.3775547875
 31
0.0
  0
LINE
  5
1D8
330
1F
100
AcDbEntity
  8
0
  6
HIDDEN
 62
     7
370
     0
100
AcDbLine
 10
211.694412571
 20
111.6696599667
 30
0.0
 11
210.6745760273
 21
111.7232584933
 31
0.0
  0
ARC
  5
1D9
330
1F
100
AcDbEntity
  8
0
  6
HIDDEN
 62
     7
370
     0
100
AcDbCircle
 10
243.4713850902
 20
122.387708201
 30
0.0
 40
25.45813823443806
100
AcDbArc
 50
206.0653958144
 51
211.4132150452
  0
LINE
  5
1DA
330
1F
100
AcDbEntity
  8
0
  6
HIDDEN
 62
     7
370
     0
100
AcDbLine
 10
205.1833182068
 20
112.6664148204
 30
0.0
 11
213.3315229039
 21
99.3249793542
 31
0.0
  0
SPLINE
  5
1DB
330
1F
100
AcDbEntity
  8
0
  6
HIDDEN
 62
     7
370
     0
100
AcDbSpline
210
0.0
220
0.0
230
1.0
 70
     8
 71
     3
 72
     8
 73
     4
 74
     0
 42
0.00000001
 43
0.00000001
 12
1.0
 22
0.0
 32
0.0
 13
1.0
 23
0.0
 33
0.0
 40
0.0
 40
0.0
 40
0.0
 40
0.0
 40
1.0
 40
1.0
 40
1.0
 40
1.0
 10
189.8007057117979
 20
106.7287098917052
 30
0.0
 10
190.1313443384125
 20
106.1281895405942
 30
0.0
 10
190.463160138986
 20
105.5283204298892
 30
0.0
 10
190.7958654106913
 20
104.9289487566655
 30
0.0
  0
LINE
  5
1DC
330
1F
100
AcDbEntity
  8
0
  6
HIDDEN
 62
     7
370
     0
100
AcDbLine
 10
190.7958654107
 20
104.9289487567
 30
0.0
 11
192.1107057118
 21
104.9289487567
 31
0.0
  0
SPLINE
  5
1DD
330
1F
100
AcDbEntity
  8
0
  6
HIDDEN
 62
     7
370
     0
100
AcDbSpline
210
0.0
220
0.0
230
1.0
 70
     8
 71
     3
 72
     8
 73
     4
 74
     0
 42
0.00000001
 43
0.00000001
 12
1.0
 22
0.0
 32
0.0
 13
1.0
 23
0.0
 33
0.0
 40
0.0
 40
0.0
 40
0.0
 40
0.0
 40
1.0
 40
1.0
 40
1.0
 40
1.0
 10
186.7255460129045
 20
104.9289487566655
 30
0.0
 10
187.0582512846098
 20
105.5283204298892
 30
0.0
 10
187.3900670851833
 20
106.1281895405942
 30
0.0
 10
187.7207057117979
 20
106.7287098917052
 30
0.0
  0
LINE
  5
1DE
330
1F
100
AcDbEntity
  8
0
  6
HIDDEN
 62
     7
370
     0
100
AcDbLine
 10
152.8607057118
 20
112.339361007
 30
0.0
 11
152.8607057118
 21
112.6103200785
 31
0.0
  0
LINE
  5
1DF
330
1F
100
AcDbEntity
  8
0
  6
HIDDEN
 62
     7
370
     0
100
AcDbLine
 10
152.8607057118
 20
136.031747417
 30
0.0
 11
152.8607057118
 21
135.9360647441
 31
0.0
  0
SPLINE
  5
1E0
330
1F
100
AcDbEntity
  8
0
  6
HIDDEN
 62
     7
370
     0
100
AcDbSpline
210
0.0
220
0.0
230
1.0
 70
     8
 71
     3
 72
    26
 73
    22
 74
     0
 42
0.00000001
 43
0.00000001
 12
1.0
 22
0.0
 32
0.0
 13
1.0
 23
0.0
 33
0.0
 40
0.0
 40
0.0
 40
0.0
 40
0.0
 40
0.2499999999999986
 40
0.2499999999999986
 40
0.3749999999999979
 40
0.3749999999999979
 40
0.4374999999999978
 40
0.4374999999999978
 40
0.4687499999999984
 40
0.4687499999999984
 40
0.499999999999999
 40
0.499999999999999
 40
0.5312499999999996
 40
0.5312499999999996
 40
0.5625000000000002
 40
0.5625000000000002
 40
0.6249999999999998
 40
0.6249999999999998
 40
0.7499999999999996
 40
0.7499999999999996
 40
1.0
 40
1.0
 40
1.0
 40
1.0
 10
153.6206757581857
 20
136.5459138593078
 30
0.0
 10
153.5732779740919
 20
136.410230422069
 30
0.0
 10
153.5156235515536
 20
136.2662379623427
 30
0.0
 10
153.3935351760282
 20
136.0234048286941
 30
0.0
 10
153.3474713098798
 20
135.9383440845842
 30
0.0
 10
153.2567687540381
 20
135.7979207954098
 30
0.0
 10
153.2223959248065
 20
135.7479912313908
 30
0.0
 10
153.1599147274884
 20
135.6714367128394
 30
0.0
 10
153.1366036351211
 20
135.6450294235163
 30
0.0
 10
153.0875221915778
 20
135.59745350591
 30
0.0
 10
153.0631145194862
 20
135.5780618071764
 30
0.0
 10
153.0225190677788
 20
135.553226774414
 30
0.0
 10
153.0063810713077
 20
135.5471899050719
 30
0.0
 10
152.9794335274935
 20
135.5415470821728
 30
0.0
 10
152.968694974667
 20
135.5419532040837
 30
0.0
 10
152.9406865353863
 20
135.5481360497795
 30
0.0
 10
152.9278376084839
 20
135.5588160197553
 30
0.0
 10
152.8968618803826
 20
135.5978710369656
 30
0.0
 10
152.8860113232464
 20
135.6339417958776
 30
0.0
 10
152.8627573195875
 20
135.7516738922154
 30
0.0
 10
152.8607057117979
 20
135.8429311537952
 30
0.0
 10
152.8607057117979
 20
135.9360647441358
 30
0.0
  0
SPLINE
  5
1E1
330
1F
100
AcDbEntity
  8
0
  6
HIDDEN
 62
     7
370
     0
100
AcDbSpline
210
0.0
220
0.0
230
1.0
 70
     8
 71
     3
 72
    24
 73
    20
 74
     0
 42
0.00000001
 43
0.00000001
 12
1.0
 22
0.0
 32
0.0
 13
1.0
 23
0.0
 33
0.0
 40
0.0
 40
0.0
 40
0.0
 40
0.0
 40
0.2500000000000039
 40
0.2500000000000039
 40
0.3750000000000065
 40
0.3750000000000065
 40
0.4375000000000082
 40
0.4375000000000082
 40
0.5000000000000098
 40
0.5000000000000098
 40
0.53125000000001
 40
0.53125000000001
 40
0.5625000000000103
 40
0.5625000000000103
 40
0.6250000000000091
 40
0.6250000000000091
 40
0.7500000000000059
 40
0.7500000000000059
 40
1.0
 40
1.0
 40
1.0
 40
1.0
 10
152.8607057117979
 20
112.6103200784735
 30
0.0
 10
152.8607057117979
 20
112.6952290321431
 30
0.0
 10
152.8634303402303
 20
112.77755872819
 30
0.0
 10
152.8897876613483
 20
112.879971115609
 30
0.0
 10
152.9020013796204
 20
112.9107882119934
 30
0.0
 10
152.9366120297528
 20
112.9398857280703
 30
0.0
 10
152.9509987401202
 20
112.9468433687089
 30
0.0
 10
152.9922472232226
 20
112.9457336274321
 30
0.0
 10
153.0207867731534
 20
112.9374402218233
 30
0.0
 10
153.0817094386648
 20
112.8928567879621
 30
0.0
 10
153.1047754088046
 20
112.8723950747048
 30
0.0
 10
153.1486712888108
 20
112.8277824564245
 30
0.0
 10
153.169551324371
 20
112.8039063782181
 30
0.0
 10
153.2267615876641
 20
112.7340092810561
 30
0.0
 10
153.2591082114405
 20
112.6884316922716
 30
0.0
 10
153.3452741549323
 20
112.5595482046527
 30
0.0
 10
153.3909381749723
 20
112.4797150275207
 30
0.0
 10
153.5114857384236
 20
112.2539342184084
 30
0.0
 10
153.5705458271248
 20
112.119102833437
 30
0.0
 10
153.6206757581857
 20
111.9908476947695
 30
0.0
  0
LINE
  5
1E2
330
1F
100
AcDbEntity
  8
0
  6
HIDDEN
 62
     7
370
     0
100
AcDbLine
 10
152.8607057118
 20
135.9360647441
 30
0.0
 11
152.8607057118
 21
112.6103200785
 31
0.0
  0
SPLINE
  5
1E3
330
1F
100
AcDbEntity
  8
0
  6
HIDDEN
 62
     7
370
     0
100
AcDbSpline
210
0.0
220
0.0
230
1.0
 70
     8
 71
     3
 72
    10
 73
     6
 74
     0
 42
0.00000001
 43
0.00000001
 12
1.0
 22
0.0
 32
0.0
 13
1.0
 23
0.0
 33
0.0
 40
0.0
 40
0.0
 40
0.0
 40
0.0
 40
0.5
 40
0.5
 40
1.0
 40
1.0
 40
1.0
 40
1.0
 10
213.6561713306731
 20
106.822627755449
 30
0.0
 10
213.6614655214591
 20
106.673170476566
 30
0.0
 10
213.6797901921192
 20
106.5375893661888
 30
0.0
 10
213.7368913005412
 20
106.3106483185578
 30
0.0
 10
213.7751007884032
 20
106.2175227847419
 30
0.0
 10
213.8272221348047
 20
106.1731510477521
 30
0.0
  0
ARC
  5
1E4
330
1F
100
AcDbEntity
  8
0
  6
HIDDEN
 62
     7
370
     0
100
AcDbCircle
 10
216.6084251702
 20
105.633796554
 30
0.0
 40
3.182628215569178
100
AcDbArc
 50
158.0660456225
 51
69.7836550388
  0
SPLINE
  5
1E5
330
1F
100
AcDbEntity
  8
0
  6
HIDDEN
 62
     7
370
     0
100
AcDbSpline
210
0.0
220
0.0
230
1.0
 70
     8
 71
     3
 72
    10
 73
     6
 74
     0
 42
0.00000001
 43
0.00000001
 12
1.0
 22
0.0
 32
0.0
 13
1.0
 23
0.0
 33
0.0
 40
0.0
 40
0.0
 40
0.0
 40
0.0
 40
0.5
 40
0.5
 40
1.0
 40
1.0
 40
1.0
 40
1.0
 10
218.3863835284888
 20
108.1958594462334
 30
0.0
 10
218.3343233369774
 20
108.2401791210857
 30
0.0
 10
218.2382684051222
 20
108.3077422940642
 30
0.0
 10
218.0049143326108
 20
108.4564941488182
 30
0.0
 10
217.8658237163322
 20
108.5384879791864
 30
0.0
 10
217.7082329921574
 20
108.6203573039577
 30
0.0
  0
LINE
  5
1E6
330
1F
100
AcDbEntity
  8
0
  6
HIDDEN
 62
     7
370
     0
100
AcDbLine
 10
214.2047962874
 20
105.8517161243
 30
0.0
 11
213.8272221348
 21
106.1731510478
 31
0.0
  0
SPLINE
  5
1E7
330
1F
100
AcDbEntity
  8
0
  6
HIDDEN
 62
     7
370
     0
100
AcDbSpline
210
0.0
220
0.0
230
1.0
 70
     8
 71
     3
 72
    14
 73
    10
 74
     0
 42
0.00000001
 43
0.00000001
 12
1.0
 22
0.0
 32
0.0
 13
1.0
 23
0.0
 33
0.0
 40
0.0
 40
0.0
 40
0.0
 40
0.0
 40
0.25
 40
0.25
 40
0.5
 40
0.5
 40
0.75
 40
0.75
 40
1.0
 40
1.0
 40
1.0
 40
1.0
 10
207.959304550108
 20
136.8329434584026
 30
0.0
 10
207.9190860664062
 20
136.9046536822461
 30
0.0
 10
207.8558589044027
 20
137.0061031743607
 30
0.0
 10
207.7140875757751
 20
137.2287997542425
 30
0.0
 10
207.6342051629046
 20
137.3517854543668
 30
0.0
 10
207.4648571077101
 20
137.6101062317376
 30
0.0
 10
207.3755393374594
 20
137.7451839853828
 30
0.0
 10
207.1900139662435
 20
138.0241189720481
 30
0.0
 10
207.0938554008103
 20
138.1679137207405
 30
0.0
 10
206.9933787238189
 20
138.3172108936483
 30
0.0
  0
ELLIPSE
  5
1E8
330
1F
100
AcDbEntity
  8
0
  6
HIDDEN
 62
     7
370
     0
100
AcDbEllipse
 10
-179.2835426419
 20
124.1578332797
 30
0.0
 11
416.8462288874755
 21
-26.87473345100398
 31
0.0
210
0.0
220
0.0
230
1.0
 40
0.0062320976
 41
0.2417277857022823
 42
0.3569816272027971
  0
SPLINE
  5
1E9
330
1F
100
AcDbEntity
  8
0
  6
HIDDEN
 62
     7
370
     0
100
AcDbSpline
210
0.0
220
0.0
230
1.0
 70
     8
 71
     3
 72
    19
 73
    15
 74
     0
 42
0.00000001
 43
0.00000001
 12
1.0
 22
0.0
 32
0.0
 13
1.0
 23
0.0
 33
0.0
 40
0.0
 40
0.0
 40
0.0
 40
0.0
 40
0.0521089568309275
 40
0.1037346154986973
 40
0.1548794753958059
 40
0.2055461070724557
 40
0.2557371545607538
 40
0.3829452795488168
 40
0.5075462158621294
 40
0.6326596382605972
 40
0.7555467352871954
 40
0.8378626495647045
 40
0.9193401265389467
 40
1.0
 40
1.0
 40
1.0
 40
1.0
 10
223.775449729009
 20
104.0332213453828
 30
0.0
 10
223.8537200136439
 20
103.9179265922021
 30
0.0
 10
224.0095346446662
 20
103.6884064172153
 30
0.0
 10
224.2376661845865
 20
103.3539830015946
 30
0.0
 10
224.4603017901128
 20
103.0288250902528
 30
0.0
 10
224.6771297882084
 20
102.7134802637882
 30
0.0
 10
224.9968600907912
 20
102.2504478839514
 30
0.0
 10
225.4068053677489
 20
101.6614899074466
 30
0.0
 10
225.8928326655754
 20
100.9721695251696
 30
0.0
 10
226.3463426558795
 20
100.3383123875616
 30
0.0
 10
226.7233180884578
 20
99.82039497398702
 30
0.0
 10
227.0308956873616
 20
99.40491888273829
 30
0.0
 10
227.2806144488558
 20
99.07238477425557
 30
0.0
 10
227.4344646277822
 20
98.87209351056515
 30
0.0
 10
227.5110018101825
 20
98.7724528790805
 30
0.0
  0
SPLINE
  5
1EA
330
1F
100
AcDbEntity
  8
0
  6
HIDDEN
 62
     7
370
     0
100
AcDbSpline
210
0.0
220
0.0
230
1.0
 70
     8
 71
     3
 72
    22
 73
    18
 74
     0
 42
0.00000001
 43
0.00000001
 12
1.0
 22
0.0
 32
0.0
 13
1.0
 23
0.0
 33
0.0
 40
0.0
 40
0.0
 40
0.0
 40
0.0
 40
0.040490468879919
 40
0.0810495762493591
 40
0.1216900201082936
 40
0.1624244223925044
 40
0.2032653179239181
 40
0.2442251437550796
 40
0.3058206497338238
 40
0.3677101731145672
 40
0.4921526858666269
 40
0.6175897957136485
 40
0.7440373437653729
 40
0.8076158225029447
 40
0.871511778234875
 40
0.9355968630095077
 40
1.0
 40
1.0
 40
1.0
 40
1.0
 10
227.7607057665846
 20
99.2680953275794
 30
0.0
 10
227.7216339813103
 20
99.31831504541383
 30
0.0
 10
227.6434241771914
 20
99.41883961236596
 30
0.0
 10
227.5213657348021
 20
99.57763378737313
 30
0.0
 10
227.3957303689185
 20
99.74242262395981
 30
0.0
 10
227.2661815683512
 20
99.91377634947084
 30
0.0
 10
227.1328087685157
 20
100.09154334266
 30
0.0
 10
226.9726975652322
 20
100.30649370329
 30
0.0
 10
226.7833920403782
 20
100.5627867500051
 30
0.0
 10
226.4879846259333
 20
100.9664656098453
 30
0.0
 10
226.098058711376
 20
101.5060784876529
 30
0.0
 10
225.5995083033208
 20
102.2062301058621
 30
0.0
 10
225.1595864223998
 20
102.8319967979097
 30
0.0
 10
224.7931724169078
 20
103.3576657289737
 30
0.0
 10
224.5106037372342
 20
103.7652505334579
 30
0.0
 10
224.2213626923996
 20
104.1844188153349
 30
0.0
 10
224.0234531270376
 20
104.4729627661559
 30
0.0
 10
223.9242533974854
 20
104.6175918639612
 30
0.0
  0
LINE
  5
1EB
330
1F
100
AcDbEntity
  8
0
  6
HIDDEN
 62
     7
370
     0
100
AcDbLine
 10
227.7607057118
 20
99.2656589049
 30
0.0
 11
227.7607057118
 21
99.2680952685
 31
0.0
  0
LINE
  5
1EC
330
1F
100
AcDbEntity
  8
0
  6
HIDDEN
 62
     7
370
     0
100
AcDbLine
 10
227.7607057118
 20
99.2683613992
 30
0.0
 11
227.7607057118
 21
99.2680954093
 31
0.0
  0
SPLINE
  5
1ED
330
1F
100
AcDbEntity
  8
0
  6
HIDDEN
 62
     7
370
     0
100
AcDbSpline
210
0.0
220
0.0
230
1.0
 70
     8
 71
     3
 72
    18
 73
    14
 74
     0
 42
0.00000001
 43
0.00000001
 12
1.0
 22
0.0
 32
0.0
 13
1.0
 23
0.0
 33
0.0
 40
0.0
 40
0.0
 40
0.0
 40
0.0
 40
0.250000000000003
 40
0.250000000000003
 40
0.500000000000006
 40
0.500000000000006
 40
0.750000000000009
 40
0.750000000000009
 40
0.8750000000000083
 40
0.8750000000000083
 40
0.9375000000000042
 40
0.9375000000000042
 40
1.0
 40
1.0
 40
1.0
 40
1.0
 10
210.3755733940145
 20
99.7370352629915
 30
0.0
 10
210.3916359345127
 20
99.75663591953341
 30
0.0
 10
210.4141832859827
 20
99.77572348989133
 30
0.0
 10
210.4789373906247
 20
99.81234315467381
 30
0.0
 10
210.5209133031379
 20
99.82996267288702
 30
0.0
 10
210.6391678941411
 20
99.86216217056216
 30
0.0
 10
210.7134012016448
 20
99.87701083454361
 30
0.0
 10
210.8842167358689
 20
99.89222806629957
 30
0.0
 10
210.9529274848724
 20
99.89618099249171
 30
0.0
 10
211.0819086343955
 20
99.89709439626438
 30
0.0
 10
211.1298189356012
 20
99.89651566972618
 30
0.0
 10
211.2329966333864
 20
99.89276337154648
 30
0.0
 10
211.2879730468514
 20
99.88954904822114
 30
0.0
 10
211.341499220304
 20
99.88519903374167
 30
0.0
  0
CIRCLE
  5
1EE
330
1F
100
AcDbEntity
  8
0
  6
HIDDEN
 62
     7
370
     0
100
AcDbCircle
 10
195.7547458936
 20
126.1933978603
 30
0.0
 40
2.486145231250812
  0
ELLIPSE
  5
1EF
330
1F
100
AcDbEntity
  8
0
  6
HIDDEN
 62
     7
370
     0
100
AcDbEllipse
 10
215.1403127574
 20
108.9773491944
 30
0.0
 11
-1.11736946871855
 21
2.767460135615096
 31
0.0
210
0.0
220
0.0
230
1.0
 40
0.8354536075
 41
2.075197245936486
 42
4.264521616479573
  0
LWPOLYLINE
  5
1F0
330
1F
100
AcDbEntity
  8
0
  6
HIDDEN
 62
     7
370
     0
100
AcDbPolyline
 90
       16
 70
   128
 43
0.0
 10
215.6890456907
 20
113.1994346982
 10
215.7727536433
 20
112.8159522203
 10
215.7531745416
 20
112.4050287354
 10
215.6311640862
 20
111.9846235715
 10
215.4120547197
 20
111.5731104516
 10
215.1054225726
 20
111.1884744738
 10
214.7246689412
 20
110.8475260759
 10
214.2864345863
 20
110.5651663389
 10
213.809872452
 20
110.3537357384
 10
213.3158105905
 20
110.2224748061
 10
212.8258418757
 20
110.1771202745
 10
212.3613802918
 20
110.2196543545
 10
211.9427250386
 20
110.3482181025
 10
211.5881733597
 20
110.5571926658
 10
211.3132208647
 20
110.8374448534
 10
211.129884297
 20
111.1767262997
  0
LINE
  5
1F1
330
1F
100
AcDbEntity
  8
0
  6
HIDDEN
 62
     7
370
     0
100
AcDbLine
 10
209.420084806
 20
115.8043493967
 30
0.0
 11
211.129884297
 21
111.1767262997
 31
0.0
  0
SPLINE
  5
1F2
330
1F
100
AcDbEntity
  8
0
  6
HIDDEN
 62
     7
370
     0
100
AcDbSpline
210
0.0
220
0.0
230
1.0
 70
     8
 71
     3
 72
     8
 73
     4
 74
     0
 42
0.00000001
 43
0.00000001
 12
1.0
 22
0.0
 32
0.0
 13
1.0
 23
0.0
 33
0.0
 40
0.0
 40
0.0
 40
0.0
 40
0.0
 40
1.0
 40
1.0
 40
1.0
 40
1.0
 10
208.1626295004446
 20
136.4748597561644
 30
0.0
 10
208.0918809086851
 20
136.5980925902663
 30
0.0
 10
208.0239972143205
 20
136.7175953645732
 30
0.0
 10
207.959304550108
 20
136.8329434584026
 30
0.0
  0
LINE
  5
1F3
330
1F
100
AcDbEntity
  8
0
  6
HIDDEN
 62
     7
370
     0
100
AcDbLine
 10
208.1626295004
 20
136.4748597562
 30
0.0
 11
208.1626295004
 21
124.5923899121
 31
0.0
  0
ELLIPSE
  5
1F4
330
1F
100
AcDbEntity
  8
0
  6
HIDDEN
 62
     7
370
     0
100
AcDbEllipse
 10
218.6771885069
 20
124.1578332797
 30
0.0
 11
3.410605131648481E-13
 21
18.0
 31
0.0
210
0.0
220
0.0
230
1.0
 40
0.1234608926
 41
1.518789867639015
 42
1.570796326794899
  0
ELLIPSE
  5
1F5
330
1F
100
AcDbEntity
  8
0
  6
HIDDEN
 62
     7
370
     0
100
AcDbEllipse
 10
217.9639173626
 20
124.1578332797
 30
0.0
 11
-13.4775078869371
 21
17.99583035636206
 31
0.0
210
0.0
220
0.0
230
1.0
 40
0.0287452423
 41
0.7956567986291595
 42
1.497265192835699
  0
CIRCLE
  5
1F6
330
1F
100
AcDbEntity
  8
0
  6
HIDDEN
 62
     7
370
     0
100
AcDbCircle
 10
179.7607057118
 20
124.1578332797
 30
0.0
 40
5.0
  0
SPLINE
  5
1F7
330
1F
100
AcDbEntity
  8
0
  6
HIDDEN
 62
     7
370
     0
100
AcDbSpline
210
0.0
220
0.0
230
1.0
 70
     8
 71
     3
 72
    14
 73
    10
 74
     0
 42
0.00000001
 43
0.00000001
 12
1.0
 22
0.0
 32
0.0
 13
1.0
 23
0.0
 33
0.0
 40
0.0
 40
0.0
 40
0.0
 40
0.0
 40
0.25
 40
0.25
 40
0.5
 40
0.5
 40
0.75
 40
0.75
 40
1.0
 40
1.0
 40
1.0
 40
1.0
 10
211.3414992203036
 20
104.0332214821968
 30
0.0
 10
211.2162252243174
 20
104.0332214821968
 30
0.0
 10
211.0907205074372
 20
104.0659810639327
 30
0.0
 10
210.86548826891
 20
104.184090479572
 30
0.0
 10
210.7676065767022
 20
104.2671801600281
 30
0.0
 10
210.6047651041976
 20
104.4581272467814
 30
0.0
 10
210.5387627757788
 20
104.5669715721468
 30
0.0
 10
210.4361659975771
 20
104.7963216412364
 30
0.0
 10
210.3996447808071
 20
104.9157243195231
 30
0.0
 10
210.3755733940145
 20
105.0391100575904
 30
0.0
  0
SPLINE
  5
1F8
330
1F
100
AcDbEntity
  8
0
  6
HIDDEN
 62
     7
370
     0
100
AcDbSpline
210
0.0
220
0.0
230
1.0
 70
     8
 71
     3
 72
     9
 73
     5
 74
     0
 42
0.00000001
 43
0.00000001
 12
1.0
 22
0.0
 32
0.0
 13
1.0
 23
0.0
 33
0.0
 40
0.0
 40
0.0
 40
0.0
 40
0.0
 40
0.4978844840985344
 40
1.0
 40
1.0
 40
1.0
 40
1.0
 10
223.9242537792693
 20
104.6175917687285
 30
0.0
 10
223.899906979682
 20
104.520520090089
 30
0.0
 10
223.8510064809421
 20
104.325551815841
 30
0.0
 10
223.800705718751
 20
104.1309400921246
 30
0.0
 10
223.7754489255931
 20
104.0332225260702
 30
0.0
  0
LINE
  5
1F9
330
1F
100
AcDbEntity
  8
0
  6
HIDDEN
 62
     7
370
     0
100
AcDbLine
 10
223.775450183
 20
104.0332214822
 30
0.0
 11
211.3414992203
 21
104.0332214822
 31
0.0
  0
LINE
  5
1FA
330
1F
100
AcDbEntity
  8
0
  6
HIDDEN
 62
     7
370
     0
100
AcDbLine
 10
223.9242535664
 20
104.6175916365
 30
0.0
 11
220.4356378998
 21
110.2331280125
 31
0.0
  0
ELLIPSE
  5
1FB
330
1F
100
AcDbEntity
  8
0
  6
HIDDEN
 62
     7
370
     0
100
AcDbEllipse
 10
242.6522967428
 20
123.8018241544
 30
0.0
 11
20.05610535531218
 21
-17.07408371629779
 31
0.0
210
0.0
220
0.0
230
1.0
 40
0.98710888
 41
3.84045272574368
 42
4.398958086381859
  0
LINE
  5
1FC
330
1F
100
AcDbEntity
  8
0
  6
HIDDEN
 62
     7
370
     0
100
AcDbLine
 10
216.4548924402
 20
124.1366647166
 30
0.0
 11
216.4548924402
 21
124.1578332797
 31
0.0
  0
LINE
  5
1FD
330
1F
100
AcDbEntity
  8
0
  6
HIDDEN
 62
     7
370
     0
100
AcDbLine
 10
172.7607057118
 20
107.9506325946
 30
0.0
 11
172.8548664873
 21
108.6206213259
 31
0.0
  0
LINE
  5
1FE
330
1F
100
AcDbEntity
  8
0
  6
HIDDEN
 62
     7
370
     0
100
AcDbLine
 10
172.8548664873
 20
139.6950452335
 30
0.0
 11
172.7607057118
 21
140.3650339648
 31
0.0
  0
ARC
  5
1FF
330
1F
100
AcDbEntity
  8
0
  6
HIDDEN
 62
     7
370
     0
100
AcDbCircle
 10
172.2606989591
 20
108.7041261262
 30
0.0
 40
0.6000067526677121
100
AcDbArc
 50
352.0
 51
0.0
  0
ARC
  5
200
330
1F
100
AcDbEntity
  8
0
  6
HIDDEN
 62
     7
370
     0
100
AcDbCircle
 10
172.2606989591
 20
108.7041261262
 30
0.0
 40
0.6000067526677203
100
AcDbArc
 50
0.0
 51
33.5571153394
  0
ARC
  5
201
330
1F
100
AcDbEntity
  8
0
  6
HIDDEN
 62
     7
370
     0
100
AcDbCircle
 10
172.2606989591
 20
139.6115404332
 30
0.0
 40
0.6000067526677081
100
AcDbArc
 50
348.75
 51
8.0
  0
LWPOLYLINE
  5
202
330
1F
100
AcDbEntity
  8
0
  6
HIDDEN
 62
     7
370
     0
100
AcDbPolyline
 90
        3
 70
   128
 43
0.0
 10
172.8491767503
 20
139.4944849226
 10
172.8150329173
 20
139.3819277896
 10
172.7607057118
 20
139.2798759181
  0
LINE
  5
203
330
1F
100
AcDbEntity
  8
0
  6
HIDDEN
 62
     7
370
     0
100
AcDbLine
 10
172.8607057118
 20
108.7041261262
 30
0.0
 11
172.8607057118
 21
139.6115404332
 31
0.0
  0
LINE
  5
204
330
1F
100
AcDbEntity
  8
0
  6
HIDDEN
 62
     7
370
     0
100
AcDbLine
 10
172.8607057118
 20
108.7041261262
 30
0.0
 11
172.8607057118
 21
139.6115404332
 31
0.0
  0
LINE
  5
205
330
1F
100
AcDbEntity
  8
0
  6
HIDDEN
 62
     7
370
     0
100
AcDbLine
 10
195.5060017241
 20
124.121699255
 30
0.0
 11
193.6999838535
 21
123.1764683317
 31
0.0
  0
LINE
  5
206
330
1F
100
AcDbEntity
  8
0
  6
HIDDEN
 62
     7
370
     0
100
AcDbLine
 10
193.6999838535
 20
123.1764683317
 30
0.0
 11
193.372350408
 21
121.1645492547
 31
0.0
  0
LINE
  5
207
330
1F
100
AcDbEntity
  8
0
  6
HIDDEN
 62
     7
370
     0
100
AcDbLine
 10
196.6359706893
 20
123.6476474917
 30
0.0
 11
195.9093395989
 21
124.1719284318
 31
0.0
  0
LINE
  5
208
330
1F
100
AcDbEntity
  8
0
  6
HIDDEN
 62
     7
370
     0
100
AcDbLine
 10
200.2590495714
 20
121.0335132664
 30
0.0
 11
197.3968310875
 21
123.0986693235
 31
0.0
  0
LINE
  5
209
330
1F
100
AcDbEntity
  8
0
  6
HIDDEN
 62
     7
370
     0
100
AcDbLine
 10
193.4518450027
 20
120.7659454152
 30
0.0
 11
200.3628147923
 21
115.7795227495
 31
0.0
  0
LINE
  5
20A
330
1F
100
AcDbEntity
  8
0
  6
HIDDEN
 62
     7
370
     0
100
AcDbLine
 10
197.8607057118
 20
122.0980151613
 30
0.0
 11
197.8607057118
 21
123.7330684181
 31
0.0
  0
LINE
  5
20B
330
1F
100
AcDbEntity
  8
0
  6
HIDDEN
 62
     7
370
     0
100
AcDbLine
 10
193.6607057118
 20
123.6810288738
 30
0.0
 11
193.6607057118
 21
121.9828499384
 31
0.0
  0
ARC
  5
20C
330
1F
100
AcDbEntity
  8
0
  6
HIDDEN
 62
     7
370
     0
100
AcDbCircle
 10
168.5848824397
 20
116.4078332797
 30
0.0
 40
5.00000000000001
100
AcDbArc
 50
275.4583648529
 51
326.6329870308
  0
ARC
  5
20D
330
1F
100
AcDbEntity
  8
0
  6
HIDDEN
 62
     7
370
     0
100
AcDbCircle
 10
168.5848824397
 20
131.9078332797
 30
0.0
 40
4.999999999999995
100
AcDbArc
 50
33.3670129692
 51
84.5418040654
  0
LINE
  5
20E
330
1F
100
AcDbEntity
  8
0
  6
HIDDEN
 62
     7
370
     0
100
AcDbLine
 10
162.293333656
 20
111.4078332797
 30
0.0
 11
164.4657298796
 21
111.4078332797
 31
0.0
  0
LINE
  5
20F
330
1F
100
AcDbEntity
  8
0
  6
HIDDEN
 62
     7
370
     0
100
AcDbLine
 10
164.4657298796
 20
136.9078332797
 30
0.0
 11
162.293333656
 21
136.9078332797
 31
0.0
  0
ARC
  5
210
330
1F
100
AcDbEntity
  8
0
  6
HIDDEN
 62
     7
370
     0
100
AcDbCircle
 10
162.293333656
 20
111.8078332797
 30
0.0
 40
0.4000000000000102
100
AcDbArc
 50
210.0
 51
270.0
  0
ARC
  5
211
330
1F
100
AcDbEntity
  8
0
  6
HIDDEN
 62
     7
370
     0
100
AcDbCircle
 10
162.293333656
 20
136.5078332797
 30
0.0
 40
0.4000000000000173
100
AcDbArc
 50
90.0
 51
150.0
  0
LINE
  5
212
330
1F
100
AcDbEntity
  8
0
  6
HIDDEN
 62
     7
370
     0
100
AcDbLine
 10
161.9469234944
 20
136.7078332797
 30
0.0
 11
160.7633554426
 21
134.6578332797
 31
0.0
  0
LINE
  5
213
330
1F
100
AcDbEntity
  8
0
  6
HIDDEN
 62
     7
370
     0
100
AcDbLine
 10
160.7633554426
 20
113.6578332797
 30
0.0
 11
161.9469234944
 21
111.6078332797
 31
0.0
  0
ARC
  5
214
330
1F
100
AcDbEntity
  8
0
  6
HIDDEN
 62
     7
370
     0
100
AcDbCircle
 10
179.7107057118
 20
114.2828332797
 30
0.0
 40
1.0
100
AcDbArc
 50
218.6821874535
 51
0.0
  0
ARC
  5
215
330
1F
100
AcDbEntity
  8
0
  6
HIDDEN
 62
     7
370
     0
100
AcDbCircle
 10
179.7107057118
 20
134.0328332797
 30
0.0
 40
1.0
100
AcDbArc
 50
0.0
 51
141.3178125465
  0
LINE
  5
216
330
1F
100
AcDbEntity
  8
0
  6
HIDDEN
 62
     7
370
     0
100
AcDbLine
 10
172.7607057118
 20
113.6578332797
 30
0.0
 11
178.930080962
 21
113.6578332797
 31
0.0
  0
LINE
  5
217
330
1F
100
AcDbEntity
  8
0
  6
HIDDEN
 62
     7
370
     0
100
AcDbLine
 10
178.930080962
 20
134.6578332797
 30
0.0
 11
172.7607057118
 21
134.6578332797
 31
0.0
  0
LINE
  5
218
330
1F
100
AcDbEntity
  8
0
  6
HIDDEN
 62
     7
370
     0
100
AcDbLine
 10
158.9607057118
 20
113.6578332797
 30
0.0
 11
160.7633554426
 21
113.6578332797
 31
0.0
  0
LINE
  5
219
330
1F
100
AcDbEntity
  8
0
  6
HIDDEN
 62
     7
370
     0
100
AcDbLine
 10
160.7633554426
 20
134.6578332797
 30
0.0
 11
156.4607057118
 21
134.6578332797
 31
0.0
  0
LINE
  5
21A
330
1F
100
AcDbEntity
  8
0
  6
HIDDEN
 62
     7
370
     0
100
AcDbLine
 10
186.0607057118
 20
117.9078332797
 30
0.0
 11
188.5607057118
 21
117.9078332797
 31
0.0
  0
LINE
  5
21B
330
1F
100
AcDbEntity
  8
0
  6
HIDDEN
 62
     7
370
     0
100
AcDbLine
 10
188.5607057118
 20
130.4078332797
 30
0.0
 11
186.0607057118
 21
130.4078332797
 31
0.0
  0
LINE
  5
21C
330
1F
100
AcDbEntity
  8
0
  6
HIDDEN
 62
     7
370
     0
100
AcDbLine
 10
180.7107057118
 20
118.1578332797
 30
0.0
 11
181.2107057118
 21
118.6578332797
 31
0.0
  0
LINE
  5
21D
330
1F
100
AcDbEntity
  8
0
  6
HIDDEN
 62
     7
370
     0
100
AcDbLine
 10
181.2107057118
 20
129.6578332797
 30
0.0
 11
180.7107057118
 21
130.1578332797
 31
0.0
  0
LINE
  5
21E
330
1F
100
AcDbEntity
  8
0
  6
HIDDEN
 62
     7
370
     0
100
AcDbLine
 10
181.2107057118
 20
118.6578332797
 30
0.0
 11
186.0607057118
 21
118.6578332797
 31
0.0
  0
LINE
  5
21F
330
1F
100
AcDbEntity
  8
0
  6
HIDDEN
 62
     7
370
     0
100
AcDbLine
 10
186.0607057118
 20
129.6578332797
 30
0.0
 11
181.2107057118
 21
129.6578332797
 31
0.0
  0
LINE
  5
220
330
1F
100
AcDbEntity
  8
0
  6
HIDDEN
 62
     7
370
     0
100
AcDbLine
 10
209.4481447307
 20
116.0759984587
 30
0.0
 11
210.0062329053
 21
115.600889057
 31
0.0
  0
LINE
  5
221
330
1F
100
AcDbEntity
  8
0
  6
HIDDEN
 62
     7
370
     0
100
AcDbLine
 10
214.5438428121
 20
120.9310012823
 30
0.0
 11
213.9857546375
 21
121.406110684
 31
0.0
  0
LINE
  5
222
330
1F
100
AcDbEntity
  8
0
  6
HIDDEN
 62
     7
370
     0
100
AcDbLine
 10
180.7107057118
 20
144.1578332797
 30
0.0
 11
180.7107057118
 21
141.0578332797
 31
0.0
  0
LINE
  5
223
330
1F
100
AcDbEntity
  8
0
  6
HIDDEN
 62
     7
370
     0
100
AcDbLine
 10
209.4498647898
 20
114.4157047616
 30
0.0
 11
208.3262294436
 21
115.3722735285
 31
0.0
  0
LINE
  5
224
330
1F
100
AcDbEntity
  8
0
  6
HIDDEN
 62
     7
370
     0
100
AcDbLine
 10
169.5278849562
 20
109.1165286663
 30
0.0
 11
169.0599563681
 21
109.6123651472
 31
0.0
  0
LINE
  5
225
330
1F
100
AcDbEntity
  8
0
  6
HIDDEN
 62
     7
370
     0
100
AcDbLine
 10
164.4620513529
 20
109.8922188608
 30
0.0
 11
163.944577637
 21
109.3963935481
 31
0.0
  0
LINE
  5
226
330
1F
100
AcDbEntity
  8
0
  6
HIDDEN
 62
     7
370
     0
100
AcDbLine
 10
163.9439434051
 20
138.9193229526
 30
0.0
 11
164.4616296532
 21
138.423435906
 31
0.0
  0
LINE
  5
227
330
1F
100
AcDbEntity
  8
0
  6
HIDDEN
 62
     7
370
     0
100
AcDbLine
 10
169.0592704882
 20
138.7030834392
 30
0.0
 11
169.5271743843
 21
139.1989773119
 31
0.0
  0
LINE
  5
228
330
1F
100
AcDbEntity
  8
0
  6
HIDDEN
 62
     7
370
     0
100
AcDbLine
 10
218.179959847
 20
110.5759116633
 30
0.0
 11
214.5405980376
 21
117.3269461192
 31
0.0
  0
LINE
  5
229
330
1F
100
AcDbEntity
  8
0
  6
HIDDEN
 62
     7
370
     0
100
AcDbLine
 10
197.7607057118
 20
121.6578332797
 30
0.0
 11
198.6706312975
 21
124.1578332797
 31
0.0
  0
LINE
  5
22A
330
1F
100
AcDbEntity
  8
0
  6
HIDDEN
 62
     7
370
     0
100
AcDbLine
 10
198.6706312975
 20
124.1578332797
 30
0.0
 11
197.7607057118
 21
126.6578332797
 31
0.0
  0
LINE
  5
22B
330
1F
100
AcDbEntity
  8
0
  6
HIDDEN
 62
     7
370
     0
100
AcDbLine
 10
188.5607057118
 20
121.6578332797
 30
0.0
 11
197.7607057118
 21
121.6578332797
 31
0.0
  0
LINE
  5
22C
330
1F
100
AcDbEntity
  8
0
  6
HIDDEN
 62
     7
370
     0
100
AcDbLine
 10
197.7607057118
 20
126.6578332797
 30
0.0
 11
188.5607057118
 21
126.6578332797
 31
0.0
  0
LINE
  5
22D
330
1F
100
AcDbEntity
  8
0
  6
HIDDEN
 62
     7
370
     0
100
AcDbLine
 10
169.0607057118
 20
136.885045765
 30
0.0
 11
169.0607057118
 21
138.7028728851
 31
0.0
  0
LINE
  5
22E
330
1F
100
AcDbEntity
  8
0
  6
HIDDEN
 62
     7
370
     0
100
AcDbLine
 10
164.4607057118
 20
138.4223335815
 30
0.0
 11
164.4607057118
 21
136.9069322632
 31
0.0
  0
LINE
  5
22F
330
1F
100
AcDbEntity
  8
0
  6
HIDDEN
 62
     7
370
     0
100
AcDbLine
 10
169.0607057118
 20
109.6244206296
 30
0.0
 11
169.0607057118
 21
111.4306207944
 31
0.0
  0
LINE
  5
230
330
1F
100
AcDbEntity
  8
0
  6
HIDDEN
 62
     7
370
     0
100
AcDbLine
 10
164.4607057118
 20
111.4087342962
 30
0.0
 11
164.4607057118
 21
109.8992267355
 31
0.0
  0
LINE
  5
231
330
1F
100
AcDbEntity
  8
0
  6
HIDDEN
 62
     7
370
     0
100
AcDbLine
 10
207.2066288302
 20
117.0649316244
 30
0.0
 11
208.9431251976
 21
115.5866244543
 31
0.0
  0
LINE
  5
232
330
1F
100
AcDbEntity
  8
0
  6
HIDDEN
 62
     7
370
     0
100
AcDbLine
 10
214.3882570858
 20
121.9827591246
 30
0.0
 11
212.2723983982
 21
123.7840235138
 31
0.0
  0
LINE
  5
233
330
1F
100
AcDbEntity
  8
0
  6
HIDDEN
 62
     7
370
     0
100
AcDbLine
 10
197.8607057118
 20
124.5825981413
 30
0.0
 11
197.8607057118
 21
126.1154678867
 31
0.0
  0
LINE
  5
234
330
1F
100
AcDbEntity
  8
0
  6
HIDDEN
 62
     7
370
     0
100
AcDbLine
 10
193.6607057118
 20
126.1154678867
 30
0.0
 11
193.6607057118
 21
124.6346420839
 31
0.0
  0
ARC
  5
235
330
1F
100
AcDbEntity
  8
0
  6
HIDDEN
 62
     7
370
     0
100
AcDbCircle
 10
158.0607057118
 20
110.3778332797
 30
0.0
 40
0.9000000000000199
100
AcDbArc
 50
34.3244016068
 51
90.0
  0
ARC
  5
236
330
1F
100
AcDbEntity
  8
0
  6
HIDDEN
 62
     7
370
     0
100
AcDbCircle
 10
155.5607057118
 20
137.9378332797
 30
0.0
 40
0.9000000000000057
100
AcDbArc
 50
270.0
 51
311.221922679
  0
LINE
  5
237
330
1F
100
AcDbEntity
  8
0
  6
HIDDEN
 62
     7
370
     0
100
AcDbLine
 10
153.8697057118
 20
111.2778332797
 30
0.0
 11
158.0607057118
 21
111.2778332797
 31
0.0
  0
LINE
  5
238
330
1F
100
AcDbEntity
  8
0
  6
HIDDEN
 62
     7
370
     0
100
AcDbLine
 10
152.8607057118
 20
112.2868332797
 30
0.0
 11
153.8697057118
 21
111.2778332797
 31
0.0
  0
LINE
  5
239
330
1F
100
AcDbEntity
  8
0
  6
HIDDEN
 62
     7
370
     0
100
AcDbLine
 10
155.5607057118
 20
137.0378332797
 30
0.0
 11
153.8107057118
 21
137.0378332797
 31
0.0
  0
LINE
  5
23A
330
1F
100
AcDbEntity
  8
0
  6
HIDDEN
 62
     7
370
     0
100
AcDbLine
 10
153.8107057118
 20
137.0378332797
 30
0.0
 11
152.8607057118
 21
136.0878332797
 31
0.0
  0
LINE
  5
23B
330
1F
100
AcDbEntity
  8
0
  6
HIDDEN
 62
     7
370
     0
100
AcDbLine
 10
219.3418489047
 20
107.484735037
 30
0.0
 11
218.6593805817
 21
108.0657312511
 31
0.0
  0
LINE
  5
23C
330
1F
100
AcDbEntity
  8
0
  6
HIDDEN
 62
     7
370
     0
100
AcDbLine
 10
214.5107086669
 20
103.192485788
 30
0.0
 11
215.19317699
 21
102.6114895739
 31
0.0
  0
LINE
  5
23D
330
1F
100
AcDbEntity
  8
0
  6
HIDDEN
 62
     7
370
     0
100
AcDbLine
 10
198.2607057118
 20
126.1613277311
 30
0.0
 11
198.2607057118
 21
127.306156752
 31
0.0
  0
LINE
  5
23E
330
1F
100
AcDbEntity
  8
0
  6
HIDDEN
 62
     7
370
     0
100
AcDbLine
 10
193.2607057118
 20
127.326339703
 30
0.0
 11
193.2607057118
 21
126.1613277311
 31
0.0
  0
LINE
  5
23F
330
1F
100
AcDbEntity
  8
0
  6
HIDDEN
 62
     7
370
     0
100
AcDbLine
 10
211.2088575448
 20
111.0017724213
 30
0.0
 11
213.7725775808
 21
106.2460588634
 31
0.0
  0
LINE
  5
240
330
1F
100
AcDbEntity
  8
VERMASSUNG
  6
CENTERX2
100
AcDbLine
 10
150.0689995513
 20
124.1578332797
 30
0.0
 11
229.7607057118
 21
124.1578332797
 31
0.0
  0
LINE
  5
241
330
1F
100
AcDbEntity
  8
VERMASSUNG
  6
CENTERX2
100
AcDbLine
 10
229.7607057118
 20
97.1578332797
 30
0.0
 11
229.7607057118
 21
124.1578332797
 31
0.0
  0
LINE
  5
242
330
1F
100
AcDbEntity
  8
VERMASSUNG
  6
CENTERX2
100
AcDbLine
 10
229.7607057118
 20
97.1578332797
 30
0.0
 11
229.7607057118
 21
84.0344177919
 31
0.0
  0
DIMENSION
  5
243
330
1F
100
AcDbEntity
  8
VERMASSUNG
100
AcDbDimension
  2
_D
 10
229.7607057118
 20
84.0344177919
 30
0.0
 11
220.9128071977
 21
88.7400810521
 31
0.0
 70
   162
  1
<>
 71
     1
 42
-1.0
  3
SLDDIMSTYLE0
100
AcDb2LineAngularDimension
 13
214.9507243351
 23
97.9135338858
 33
0.0
 14
229.3390512909
 24
97.1573410143
 34
0.0
 15
229.7607057118
 25
97.1578332797
 35
0.0
 16
220.9128071977
 26
88.7400810521
 36
0.0
  0
DIMENSION
  5
24C
330
1F
100
AcDbEntity
  8
VERMASSUNG
100
AcDbDimension
  2
_D_1
 10
229.7607057118
 20
79.3480790275
 30
0.0
 11
201.2607057118
 21
79.3480790275
 31
0.0
 70
   160
  1
<>
 71
     2
 42
-1.0
  3
SLDDIMSTYLE1
100
AcDbAlignedDimension
 13
172.7607057118
 23
104.4578332797
 33
0.0
 14
229.7607057118
 24
84.0344177919
 34
0.0
100
AcDbRotatedDimension
  0
DIMENSION
  5
257
330
1F
100
AcDbEntity
  8
VERMASSUNG
100
AcDbDimension
  2
_D_2
 10
229.7607057118
 20
72.4991317068
 30
0.0
 11
191.3107057118
 21
72.4991317068
 31
0.0
 70
   160
  1
<>
 71
     2
 42
-1.0
  3
SLDDIMSTYLE1
100
AcDbAlignedDimension
 13
152.8607057118
 23
112.2868332797
 33
0.0
 14
229.7607057118
 24
84.0344177919
 34
0.0
100
AcDbRotatedDimension
  0
DIMENSION
  5
261
330
1F
100
AcDbEntity
  8
VERMASSUNG
100
AcDbDimension
  2
_D_3
 10
240.8782009705
 20
124.1578332797
 30
0.0
 11
240.8782009705
 21
110.6578332797
 31
0.0
 70
   160
  1
<>
 71
     2
 42
-1.0
  3
SLDDIMSTYLE1
100
AcDbAlignedDimension
 13
229.7607057118
 23
97.1578332797
 33
0.0
 14
229.7607057118
 24
124.1578332797
 34
0.0
 50
90.0
100
AcDbRotatedDimension
  0
DIMENSION
  5
26B
330
1F
100
AcDbEntity
  8
VERMASSUNG
100
AcDbDimension
  2
_D_4
 10
144.6319948745
 20
144.1578332797
 30
0.0
 11
144.6319948745
 21
124.1578332797
 31
0.0
 70
   160
  1
HSK T%%c<>
 71
     2
 42
-1.0
  3
SLDDIMSTYLE1
100
AcDbAlignedDimension
 13
173.0607057118
 23
104.1578332797
 33
0.0
 14
173.0607057118
 24
144.1578332797
 34
0.0
 50
90.0
100
AcDbRotatedDimension
  0
LINE
  5
277
330
1F
100
AcDbEntity
  8
0
  6
Continuous
 62
     7
370
    15
100
AcDbLine
 10
83.4887217764
 20
97.1568286136
 30
0.0
 11
89.7568630874
 21
97.8156368897
 31
0.0
  0
LINE
  5
278
330
1F
100
AcDbEntity
  8
0
  6
Continuous
 62
     7
370
    15
100
AcDbLine
 10
81.5890318602
 20
99.8676441327
 30
0.0
 11
82.0120673282
 21
99.2689769432
 31
0.0
  0
SPLINE
  5
279
330
1F
100
AcDbEntity
  8
0
  6
Continuous
 62
     7
370
    15
100
AcDbSpline
210
0.0
220
0.0
230
1.0
 70
     8
 71
     3
 72
    10
 73
     6
 74
     0
 42
0.00000001
 43
0.00000001
 12
1.0
 22
0.0
 32
0.0
 13
1.0
 23
0.0
 33
0.0
 40
0.0
 40
0.0
 40
0.0
 40
0.0
 40
0.3311084658638345
 40
0.6713041142317623
 40
1.0
 40
1.0
 40
1.0
 40
1.0
 10
82.02971577453238
 20
99.27421097608982
 30
0.0
 10
82.05393614806057
 20
99.23306258756018
 30
0.0
 10
82.10304161673318
 20
99.14963650408056
 30
0.0
 10
82.11654576085671
 20
99.07387018883126
 30
0.0
 10
82.11700825936055
 20
99.06881473417303
 30
0.0
 10
82.11723553291333
 20
99.0663304642099
 30
0.0
  0
SPLINE
  5
27A
330
1F
100
AcDbEntity
  8
0
  6
Continuous
 62
     7
370
    15
100
AcDbSpline
210
0.0
220
0.0
230
1.0
 70
     8
 71
     3
 72
    12
 73
     8
 74
     0
 42
0.00000001
 43
0.00000001
 12
1.0
 22
0.0
 32
0.0
 13
1.0
 23
0.0
 33
0.0
 40
0.0
 40
0.0
 40
0.0
 40
0.0
 40
0.0771342645984866
 40
0.357270953667353
 40
0.606147303744764
 40
0.8538251625526123
 40
1.0
 40
1.0
 40
1.0
 40
1.0
 10
80.5004293918125
 20
109.7414673954505
 30
0.0
 10
80.49986751237961
 20
109.7429895072252
 30
0.0
 10
80.49726499582128
 20
109.7500396337572
 30
0.0
 10
80.50780527603479
 20
109.7184051390193
 30
0.0
 10
80.51711052147283
 20
109.6241628585592
 30
0.0
 10
80.5114924174219
 20
109.4881965422376
 30
0.0
 10
80.46907976493469
 20
109.3985566207295
 30
0.0
 10
80.45333869564158
 20
109.3652875811118
 30
0.0
  0
LINE
  5
27B
330
1F
100
AcDbEntity
  8
0
  6
Continuous
 62
     7
370
    15
100
AcDbLine
 10
80.4473216533
 20
109.3683236927
 30
0.0
 11
80.146887701
 21
108.6689134777
 31
0.0
  0
LINE
  5
27C
330
1F
100
AcDbEntity
  8
0
  6
Continuous
 62
     7
370
    15
100
AcDbLine
 10
80.1528036948
 20
111.0476351992
 30
0.0
 11
79.3374156467
 21
110.9619339645
 31
0.0
  0
LINE
  5
27D
330
1F
100
AcDbEntity
  8
0
  6
Continuous
 62
     7
370
    15
100
AcDbLine
 10
89.777206432
 20
97.8919662252
 30
0.0
 11
92.4573604837
 21
98.1736615017
 31
0.0
  0
LINE
  5
27E
330
1F
100
AcDbEntity
  8
0
  6
Continuous
 62
     7
370
    15
100
AcDbLine
 10
92.4714513942
 20
98.1827512101
 30
0.0
 11
92.7319981977
 21
98.5095057354
 31
0.0
  0
LINE
  5
27F
330
1F
100
AcDbEntity
  8
0
  6
Continuous
 62
     7
370
    15
100
AcDbLine
 10
90.5979963839
 20
110.908970581
 30
0.0
 11
90.2811488024
 21
111.169527629
 31
0.0
  0
LINE
  5
280
330
1F
100
AcDbEntity
  8
0
  6
Continuous
 62
     7
370
    15
100
AcDbLine
 10
79.3594879917
 20
110.3533016235
 30
0.0
 11
81.5712966844
 21
98.1000069246
 31
0.0
  0
ARC
  5
281
330
1F
100
AcDbEntity
  8
0
  6
Continuous
 62
     7
370
    15
100
AcDbCircle
 10
80.5876242607
 20
110.6956747656
 30
0.0
 40
1.274965906802695
100
AcDbArc
 50
167.9693701454
 51
195.5771174385
  0
LINE
  5
282
330
1F
100
AcDbEntity
  8
0
  6
Continuous
 62
     7
370
    15
100
AcDbLine
 10
81.1965362057
 20
110.2052287847
 30
0.0
 11
79.3406613059
 21
110.9614217371
 31
0.0
  0
ARC
  5
283
330
1F
100
AcDbEntity
  8
0
  6
Continuous
 62
     7
370
    15
100
AcDbCircle
 10
80.8499914922
 20
109.9945235026
 30
0.0
 40
0.4055736114884955
100
AcDbArc
 50
3.425471424
 51
31.3003372282
  0
LINE
  5
284
330
1F
100
AcDbEntity
  8
0
  6
Continuous
 62
     7
370
    15
100
AcDbLine
 10
83.4666493295
 20
97.7654609546
 30
0.0
 11
81.2548404913
 21
110.0187565848
 31
0.0
  0
ARC
  5
285
330
1F
100
AcDbEntity
  8
0
  6
Continuous
 62
     7
370
    15
100
AcDbCircle
 10
82.2385196308
 20
97.4230883293
 30
0.0
 40
1.274959439148379
100
AcDbArc
 50
347.9692844608
 51
15.5771743586
  0
LINE
  5
286
330
1F
100
AcDbEntity
  8
0
  6
Continuous
 62
     7
370
    15
100
AcDbLine
 10
81.6296010864
 20
97.9135337934
 30
0.0
 11
83.4854758625
 21
97.157340841
 31
0.0
  0
ARC
  5
287
330
1F
100
AcDbEntity
  8
0
  6
Continuous
 62
     7
370
    15
100
AcDbCircle
 10
81.9761470196
 20
98.1242395886
 30
0.0
 40
0.4055749202294194
100
AcDbArc
 50
183.4254011666
 51
211.300309644
  0
ARC
  5
288
330
1F
100
AcDbEntity
  8
0
  6
Continuous
 62
     7
370
    15
100
AcDbCircle
 10
82.2989412425
 20
97.4296662352
 30
0.0
 40
1.211209473720874
100
AcDbArc
 50
347.96925615
 51
15.5772014546
  0
LINE
  5
289
330
1F
100
AcDbEntity
  8
0
  6
Continuous
 62
     7
370
    15
100
AcDbLine
 10
83.4656623822
 20
97.7549202457
 30
0.0
 11
81.2538535222
 21
110.0082149446
 31
0.0
  0
ARC
  5
28A
330
1F
100
AcDbEntity
  8
0
  6
Continuous
 62
     7
370
    15
100
AcDbCircle
 10
80.8692541855
 20
109.9851960376
 30
0.0
 40
0.3852875806952652
100
AcDbArc
 50
3.4251612618
 51
31.3005873525
  0
LINE
  5
28B
330
1F
100
AcDbEntity
  8
0
  6
Continuous
 62
     7
370
    15
100
AcDbLine
 10
81.1984645091
 20
110.1853636742
 30
0.0
 11
79.3425896093
 21
110.9415566266
 31
0.0
  0
ARC
  5
28C
330
1F
100
AcDbEntity
  8
0
  6
Continuous
 62
     7
370
    15
100
AcDbCircle
 10
80.5272063131
 20
110.6890964873
 30
0.0
 40
1.211219574247724
100
AcDbArc
 50
167.9693649582
 51
195.5770753445
  0
LINE
  5
28D
330
1F
100
AcDbEntity
  8
0
  6
Continuous
 62
     7
370
    15
100
AcDbLine
 10
79.360474728
 20
110.3638423324
 30
0.0
 11
81.5722836535
 21
98.1105476335
 31
0.0
  0
ARC
  5
28E
330
1F
100
AcDbEntity
  8
0
  6
Continuous
 62
     7
370
    15
100
AcDbCircle
 10
81.9568910527
 20
98.1335692778
 30
0.0
 40
0.3852957923892995
100
AcDbArc
 50
183.4254959512
 51
211.3003212618
  0
LINE
  5
28F
330
1F
100
AcDbEntity
  8
0
  6
Continuous
 62
     7
370
    15
100
AcDbLine
 10
81.6276727831
 20
97.9333989039
 30
0.0
 11
83.4835475882
 21
97.1772059515
 31
0.0
  0
LINE
  5
290
330
1F
100
AcDbEntity
  8
0
  6
Continuous
 62
     7
370
    15
100
AcDbLine
 10
89.7347907423
 20
98.4242692307
 30
0.0
 11
87.5229820497
 21
110.6775648609
 31
0.0
  0
ARC
  5
291
330
1F
100
AcDbEntity
  8
0
  6
Continuous
 62
     7
370
    15
100
AcDbCircle
 10
88.407024907
 20
98.0714007605
 30
0.0
 40
1.373855258358715
100
AcDbArc
 50
349.2709334618
 51
14.8829642138
  0
LINE
  5
292
330
1F
100
AcDbEntity
  8
0
  6
Continuous
 62
     7
370
    15
100
AcDbLine
 10
82.0409570708
 20
98.776990892
 30
0.0
 11
81.8076004628
 21
98.3335919395
 31
0.0
  0
ARC
  5
293
330
1F
100
AcDbEntity
  8
0
  6
Continuous
 62
     7
370
    15
100
AcDbCircle
 10
79.5303573989
 20
100.0900386941
 30
0.0
 40
3.187400596703303
100
AcDbArc
 50
347.9692945122
 51
15.5771667728
  0
LINE
  5
294
330
1F
100
AcDbEntity
  8
0
  6
Continuous
 62
     7
370
    15
100
AcDbLine
 10
82.6006836844
 20
100.9459703878
 30
0.0
 11
81.3628143053
 21
107.8036971107
 31
0.0
  0
LINE
  5
295
330
1F
100
AcDbEntity
  8
0
  6
Continuous
 62
     7
370
    15
100
AcDbLine
 10
80.2254536077
 20
107.172791259
 30
0.0
 11
81.4633228704
 21
100.3150645361
 31
0.0
  0
ARC
  5
296
330
1F
100
AcDbEntity
  8
0
  6
Continuous
 62
     7
370
    15
100
AcDbCircle
 10
83.2957780425
 20
108.0287231341
 30
0.0
 40
3.187398862670166
100
AcDbArc
 50
167.9692912035
 51
195.5771788478
  0
LINE
  5
297
330
1F
100
AcDbEntity
  8
0
  6
Continuous
 62
     7
370
    15
100
AcDbLine
 10
81.217053242
 20
108.269878076
 30
0.0
 11
80.1783871259
 21
108.693091543
 31
0.0
  0
ARC
  5
298
330
1F
100
AcDbEntity
  8
0
  6
Continuous
 62
     7
370
    15
100
AcDbCircle
 10
80.3506882337
 20
107.7431131648
 30
0.0
 40
1.013937670288582
100
AcDbArc
 50
3.4255293196
 51
31.300324933
  0
LINE
  5
299
330
1F
100
AcDbEntity
  8
0
  6
Continuous
 62
     7
370
    15
100
AcDbLine
 10
81.6090840501
 20
99.8488835708
 30
0.0
 11
82.6477500498
 21
99.4256701038
 31
0.0
  0
ARC
  5
29A
330
1F
100
AcDbEntity
  8
0
  6
Continuous
 62
     7
370
    15
100
AcDbCircle
 10
82.4754481479
 20
100.3756484501
 30
0.0
 40
1.013936875726063
100
AcDbArc
 50
183.4255301994
 51
211.3003501207
  0
LWPOLYLINE
  5
29B
330
1F
100
AcDbEntity
  8
0
  6
Continuous
 62
     7
370
    15
100
AcDbPolyline
 90
       32
 70
   128
 43
0.0
 10
81.6618158835
 20
101.4968216136
 10
81.7230718797
 20
101.5222429946
 10
81.771636161
 20
101.6515347824
 10
81.805520703
 20
101.879405202
 10
81.8233383009
 20
102.1965242639
 10
81.8243592632
 20
102.5899074689
 10
81.8085420299
 20
103.0434522495
 10
81.7765341028
 20
103.5385898963
 10
81.7296457365
 20
104.0550473795
 10
81.6697967359
 20
104.5716818139
 10
81.5994372945
 20
105.0673447266
 10
81.5214478764
 20
105.5217407361
 10
81.4390214048
 20
105.9162657425
 10
81.3555322941
 20
106.2347724751
 10
81.2743989638
 20
106.4642168299
 10
81.1989425104
 20
106.59520735
 10
81.1322525963
 20
106.6223796174
 10
81.0770591609
 20
106.5446253583
 10
81.0356222912
 20
106.3651222453
 10
81.0096379257
 20
106.0912221387
 10
81.0001701004
 20
105.7341400251
 10
81.0076062455
 20
105.3084920809
 10
81.0316422842
 20
104.8317052141
 10
81.0712938085
 20
104.3232980833
 10
81.1249377559
 20
103.8040876106
 10
81.1903776023
 20
103.2953284398
 10
81.264934631
 20
102.8178505317
 10
81.3455561995
 20
102.3912004844
 10
81.4289419334
 20
102.0328461841
 10
81.5116776041
 20
101.7574578241
 10
81.5903762243
 20
101.5763099954
 10
81.6618158835
 20
101.4968216136
  0
ARC
  5
29C
330
1F
100
AcDbEntity
  8
0
  6
Continuous
 62
     7
370
    15
100
AcDbCircle
 10
87.1181275088
 20
110.6533296132
 30
0.0
 40
0.4055792727275029
100
AcDbArc
 50
3.4257300106
 51
31.3002089793
  0
LINE
  5
29D
330
1F
100
AcDbEntity
  8
0
  6
Continuous
 62
     7
370
    15
100
AcDbLine
 10
87.4646775312
 20
110.8640370608
 30
0.0
 11
87.4462066106
 21
110.8715630785
 31
0.0
  0
LINE
  5
29E
330
1F
100
AcDbEntity
  8
0
  6
Continuous
 62
     7
370
    15
100
AcDbLine
 10
80.5126641765
 20
109.5477243603
 30
0.0
 11
79.5957915373
 21
110.5868875698
 31
0.0
  0
SPLINE
  5
29F
330
1F
100
AcDbEntity
  8
0
  6
Continuous
 62
     7
370
    15
100
AcDbSpline
210
0.0
220
0.0
230
1.0
 70
     8
 71
     3
 72
     9
 73
     5
 74
     0
 42
0.00000001
 43
0.00000001
 12
1.0
 22
0.0
 32
0.0
 13
1.0
 23
0.0
 33
0.0
 40
0.0
 40
0.0
 40
0.0
 40
0.0
 40
0.6791964535037383
 40
0.9999999999999999
 40
0.9999999999999999
 40
0.9999999999999999
 40
0.9999999999999999
 10
82.04095707083863
 20
98.77699089201866
 30
0.0
 10
82.07094208091222
 20
98.84406377734307
 30
0.0
 10
82.1150898527666
 20
98.94281706879269
 30
0.0
 10
82.1022784067468
 20
99.04230747817888
 30
0.0
 10
82.0981684494279
 20
99.07422435435232
 30
0.0
  0
LINE
  5
2A0
330
1F
100
AcDbEntity
  8
0
  6
Continuous
 62
     7
370
    15
100
AcDbLine
 10
89.5593058206
 20
99.3964452014
 30
0.0
 11
87.5705367773
 21
110.4141141936
 31
0.0
  0
ARC
  5
2A1
330
1F
100
AcDbEntity
  8
0
  6
Continuous
 62
     7
370
    15
100
AcDbCircle
 10
89.0827281043
 20
98.8130703795
 30
0.0
 40
3.434674279896042
100
AcDbArc
 50
349.2710612437
 51
14.8828338915
  0
ARC
  5
2A2
330
1F
100
AcDbEntity
  8
0
  6
Continuous
 62
     7
370
    15
100
AcDbCircle
 10
90.0311326408
 20
98.9162892752
 30
0.0
 40
2.731327077523918
100
AcDbArc
 50
351.434927948
 51
13.8096737946
  0
LINE
  5
2A3
330
1F
100
AcDbEntity
  8
0
  6
Continuous
 62
     7
370
    15
100
AcDbLine
 10
92.4021796211
 20
99.6952432856
 30
0.0
 11
90.4134101122
 21
110.7129122779
 31
0.0
  0
LINE
  5
2A4
330
1F
100
AcDbEntity
  8
0
  6
Continuous
 62
     7
370
    15
100
AcDbLine
 10
90.6947384476
 20
110.5859189943
 30
0.0
 11
92.6835079565
 21
99.568250002
 31
0.0
  0
ARC
  5
2A5
330
1F
100
AcDbEntity
  8
0
  6
Continuous
 62
     7
370
    15
100
AcDbCircle
 10
89.1898317481
 20
110.6041048873
 30
0.0
 40
1.228406716603853
100
AcDbArc
 50
5.0816924516
 51
27.4017303075
  0
ARC
  5
2A6
330
1F
100
AcDbEntity
  8
0
  6
Continuous
 62
     7
370
    15
100
AcDbCircle
 10
88.1876307759
 20
110.1441120559
 30
0.0
 40
2.545738055774459
100
AcDbArc
 50
9.994153245
 51
13.6443591156
  0
LWPOLYLINE
  5
2A7
330
1F
100
AcDbEntity
  8
0
  6
Continuous
 62
     7
370
    15
100
AcDbPolyline
 90
       37
 70
   128
 43
0.0
 10
78.9242436997
 20
120.9717461556
 10
78.9511100277
 20
121.3109554906
 10
78.9938698411
 20
121.5576437485
 10
79.0512234792
 20
121.7043156453
 10
79.1214284375
 20
121.746514104
 10
79.2023519873
 20
121.6829573918
 10
79.2915345057
 20
121.5155763734
 10
79.3862667754
 20
121.2494570013
 10
79.4836705438
 20
120.8926850181
 10
79.5807860679
 20
120.4561010186
 10
79.6746622193
 20
119.952970063
 10
79.7624470554
 20
119.3985798113
 10
79.8414730355
 20
118.8097753279
 10
79.90933921
 20
118.2044463881
 10
79.9639831651
 20
117.6009866126
 10
80.0037448182
 20
117.0177304834
 10
80.0274160113
 20
116.4724015348
 10
80.0342775303
 20
115.9815679953
 10
80.0241207592
 20
115.5601445303
 10
79.9972544312
 20
115.2209344968
 10
79.9544948507
 20
114.9742467046
 10
79.8971412125
 20
114.827574575
 10
79.8269360214
 20
114.7853763491
 10
79.7460127044
 20
114.8489325956
 10
79.6568299531
 20
115.016313614
 10
79.5620976835
 20
115.2824334517
 10
79.4646939151
 20
115.6392054349
 10
79.3675783909
 20
116.0757889688
 10
79.2737024724
 20
116.5789201573
 10
79.1859174035
 20
117.1333104089
 10
79.1068914234
 20
117.7221148923
 10
79.0390254817
 20
118.3274438322
 10
78.9843815267
 20
118.9309040733
 10
78.9446196407
 20
119.5141597368
 10
78.9209486804
 20
120.0594891511
 10
78.9140871614
 20
120.5503224578
 10
78.9242436997
 20
120.9717461556
  0
LWPOLYLINE
  5
2A8
330
1F
100
AcDbEntity
  8
0
  6
Continuous
 62
     7
370
    15
100
AcDbPolyline
 90
       28
 70
   128
 43
0.0
 10
79.159931641
 20
119.8121173024
 10
79.1824505552
 20
120.0590598114
 10
79.2206967137
 20
120.2093352281
 10
79.272608634
 20
120.2548417446
 10
79.3353872261
 20
120.19312649
 10
79.4056485295
 20
120.0275163815
 10
79.4796043895
 20
119.76693931
 10
79.5532678142
 20
119.4254433453
 10
79.6226676441
 20
119.0214388721
 10
79.6840627565
 20
118.5767053344
 10
79.7341429982
 20
118.1152187005
 10
79.7702089305
 20
117.6618573904
 10
79.7903159521
 20
117.2410630338
 10
79.7933800034
 20
116.8755203203
 10
79.7792360074
 20
116.5849355698
 10
79.7486464846
 20
116.3849745594
 10
79.7032608073
 20
116.2864168823
 10
79.6455250941
 20
116.2945761994
 10
79.5785522907
 20
116.4090129264
 10
79.5059529021
 20
116.6235570513
 10
79.4316408112
 20
116.9266429447
 10
79.3596221022
 20
117.3019310177
 10
79.2937794588
 20
117.7291887529
 10
79.2376621514
 20
118.1853836119
 10
79.194296047
 20
118.6459216938
 10
79.1660182997
 20
119.0859748699
 10
79.1543539501
 20
119.4818200261
 10
79.159931641
 20
119.8121173024
  0
SPLINE
  5
2A9
330
1F
100
AcDbEntity
  8
0
  6
Continuous
 62
     7
370
    15
100
AcDbSpline
210
0.0
220
0.0
230
1.0
 70
     8
 71
     3
 72
     9
 73
     5
 74
     0
 42
0.00000001
 43
0.00000001
 12
1.0
 22
0.0
 32
0.0
 13
1.0
 23
0.0
 33
0.0
 40
0.0
 40
0.0
 40
0.0
 40
0.0
 40
0.4352884536623587
 40
1.0
 40
1.0
 40
1.0
 40
1.0
 10
79.6007224246375
 20
119.1257251143712
 30
0.0
 10
79.58993573164399
 20
119.0938124711313
 30
0.0
 10
79.56515516854213
 20
119.0204986881185
 30
0.0
 10
79.50856736846302
 20
118.9508065579501
 30
0.0
 10
79.47661158437651
 20
118.9114506073552
 30
0.0
  0
SPLINE
  5
2AA
330
1F
100
AcDbEntity
  8
0
  6
Continuous
 62
     7
370
    15
100
AcDbSpline
210
0.0
220
0.0
230
1.0
 70
     8
 71
     3
 72
     9
 73
     5
 74
     0
 42
0.00000001
 43
0.00000001
 12
1.0
 22
0.0
 32
0.0
 13
1.0
 23
0.0
 33
0.0
 40
0.0
 40
0.0
 40
0.0
 40
0.0
 40
0.8576533828423623
 40
1.0
 40
1.0
 40
1.0
 40
1.0
 10
79.47661158437651
 20
118.9114506073552
 30
0.0
 10
79.5502164405517
 20
118.802599059395
 30
0.0
 10
79.63603765649705
 20
118.6756811807533
 30
0.0
 10
79.68134213446547
 20
118.531650838937
 30
0.0
 10
79.68779107364637
 20
118.5111486070114
 30
0.0
  0
LINE
  5
2AB
330
1F
100
AcDbEntity
  8
0
  6
Continuous
 62
     7
370
    15
100
AcDbLine
 10
79.7726208232
 20
117.5349483915
 30
0.0
 11
79.6859221421
 21
117.2098986522
 31
0.0
  0
LINE
  5
2AC
330
1F
100
AcDbEntity
  8
0
  6
Continuous
 62
     7
370
    15
100
AcDbLine
 10
79.6859221421
 20
117.2098986522
 30
0.0
 11
79.7900689188
 21
117.151511246
 31
0.0
  0
LINE
  5
2AD
330
1F
100
AcDbEntity
  8
0
  6
Continuous
 62
     7
370
    15
100
AcDbLine
 10
79.7908889483
 20
117.2209310994
 30
0.0
 11
79.6859221421
 21
117.2098986522
 31
0.0
  0
LINE
  5
2AE
330
1F
100
AcDbEntity
  8
0
  6
Continuous
 62
     7
370
    15
100
AcDbLine
 10
79.6366914995
 20
118.928275881
 30
0.0
 11
79.4766115844
 21
118.9114506074
 31
0.0
  0
ELLIPSE
  5
2AF
330
1F
100
AcDbEntity
  8
0
  6
Continuous
 62
     7
370
    15
100
AcDbEllipse
 10
81.6271981588
 20
104.7983726212
 30
0.0
 11
-0.2462142437749719
 21
2.339803405812702
 31
0.0
210
0.0
220
0.0
230
1.0
 40
0.1217543576
 41
1.830108722682747
 42
2.984187663433564
  0
LINE
  5
2B0
330
1F
100
AcDbEntity
  8
0
  6
Continuous
 62
     7
370
    15
100
AcDbLine
 10
101.547611773
 20
104.6175922916
 30
0.0
 11
101.547611773
 21
110.2331284151
 31
0.0
  0
SPLINE
  5
2B1
330
1F
100
AcDbEntity
  8
0
  6
Continuous
 62
     7
370
    15
100
AcDbSpline
210
0.0
220
0.0
230
1.0
 70
     8
 71
     3
 72
    22
 73
    18
 74
     0
 42
0.00000001
 43
0.00000001
 12
1.0
 22
0.0
 32
0.0
 13
1.0
 23
0.0
 33
0.0
 40
0.0
 40
0.0
 40
0.0
 40
0.0
 40
0.040490468879919
 40
0.0810495762493591
 40
0.1216900201082936
 40
0.1624244223925044
 40
0.2032653179239181
 40
0.2442251437550796
 40
0.3058206497338238
 40
0.3677101731145672
 40
0.4921526858666269
 40
0.6175897957136485
 40
0.7440373437653729
 40
0.8076158225029447
 40
0.871511778234875
 40
0.9355968630095077
 40
1.0
 40
1.0
 40
1.0
 40
1.0
 10
92.7260323495507
 20
99.2680953275794
 30
0.0
 10
92.86138924206685
 20
99.31831504541383
 30
0.0
 10
93.13233248091642
 20
99.41883961236596
 30
0.0
 10
93.53478000200131
 20
99.57763378737313
 30
0.0
 10
93.93469645077136
 20
99.74242262395981
 30
0.0
 10
94.33177685534625
 20
99.91377634947084
 30
0.0
 10
94.72610302191785
 20
100.09154334266
 30
0.0
 10
95.18298298249276
 20
100.30649370329
 30
0.0
 10
95.70021557747658
 20
100.5627867500051
 30
0.0
 10
96.46741403897579
 20
100.9664656098453
 30
0.0
 10
97.40774535242649
 20
101.5060784876529
 30
0.0
 10
98.5009306582229
 20
102.2062301058621
 30
0.0
 10
99.38063273766387
 20
102.8319967979097
 30
0.0
 10
100.0656700115005
 20
103.3576657289737
 30
0.0
 10
100.5704232036811
 20
103.7652505334579
 30
0.0
 10
101.0661711490582
 20
104.1844188153349
 30
0.0
 10
101.3868677874226
 20
104.4729627661559
 30
0.0
 10
101.5476130234391
 20
104.6175918639612
 30
0.0
  0
LINE
  5
2B2
330
1F
100
AcDbEntity
  8
0
  6
Continuous
 62
     7
370
    15
100
AcDbLine
 10
92.7234756648
 20
99.2656595722
 30
0.0
 11
92.7260321453
 21
99.2680959121
 31
0.0
  0
SPLINE
  5
2B3
330
1F
100
AcDbEntity
  8
0
  6
Continuous
 62
     7
370
    15
100
AcDbSpline
210
0.0
220
0.0
230
1.0
 70
    24
 71
     3
 72
     9
 73
     5
 74
     0
 42
0.00000001
 43
0.00000001
 12
1.0
 22
0.0
 32
0.0
 13
1.0
 23
0.0
 33
0.0
 40
0.0
 40
0.0
 40
0.0
 40
0.0
 40
0.4978844840985344
 40
1.0
 40
1.0
 40
1.0
 40
1.0
 10
101.547612547826
 20
104.6175917687285
 30
0.0
 10
101.547612547826
 20
104.520520090089
 30
0.0
 10
101.547612547826
 20
104.325551815841
 30
0.0
 10
101.547612547826
 20
104.1309400921246
 30
0.0
 10
101.547612547826
 20
104.0332225260702
 30
0.0
  0
SPLINE
  5
2B4
330
1F
100
AcDbEntity
  8
0
  6
Continuous
 62
     7
370
    15
100
AcDbSpline
210
0.0
220
0.0
230
1.0
 70
     8
 71
     3
 72
    19
 73
    15
 74
     0
 42
0.00000001
 43
0.00000001
 12
1.0
 22
0.0
 32
0.0
 13
1.0
 23
0.0
 33
0.0
 40
0.0
 40
0.0
 40
0.0
 40
0.0
 40
0.0521089568309275
 40
0.1037346154986973
 40
0.1548794753958059
 40
0.2055461070724557
 40
0.2557371545607538
 40
0.3829452795488168
 40
0.5075462158621294
 40
0.6326596382605972
 40
0.7555467352871954
 40
0.8378626495647045
 40
0.9193401265389467
 40
1.0
 40
1.0
 40
1.0
 40
1.0
 10
101.5476123948633
 20
104.0332213453828
 30
0.0
 10
101.4172554403707
 20
103.9179265922021
 30
0.0
 10
101.1577505610897
 20
103.6884064172153
 30
0.0
 10
100.7604793900291
 20
103.3539830015946
 30
0.0
 10
100.3599543883523
 20
103.0288250902528
 30
0.0
 10
99.95573069530464
 20
102.7134802637882
 30
0.0
 10
99.33857393225433
 20
102.2504478839514
 30
0.0
 10
98.49649476766722
 20
101.6614899074466
 30
0.0
 10
97.4032827827403
 20
100.9721695251696
 30
0.0
 10
96.28271734456311
 20
100.3383123875616
 30
0.0
 10
95.25604212449456
 20
99.82039497398702
 30
0.0
 10
94.34220265793908
 20
99.40491888273829
 30
0.0
 10
93.54921002875915
 20
99.07238477425557
 30
0.0
 10
93.0118233544606
 20
98.87209351056515
 30
0.0
 10
92.74448494642442
 20
98.7724528790805
 30
0.0
  0
LWPOLYLINE
  5
2B5
330
1F
100
AcDbEntity
  8
0
  6
Continuous
 62
     7
370
    15
100
AcDbPolyline
 90
        3
 70
   128
 43
0.0
 10
90.6615246906
 20
110.7446377814
 10
90.6294965073
 20
110.9353456363
 10
90.5852130502
 20
111.2014859632
  0
LINE
  5
2B6
330
1F
100
AcDbEntity
  8
0
  6
Continuous
 62
     7
370
    15
100
AcDbLine
 10
90.5852130502
 20
111.2014859632
 30
0.0
 11
81.4840690121
 21
110.2449170962
 31
0.0
  0
ARC
  5
2B7
330
1F
100
AcDbEntity
  8
0
  6
Continuous
 62
     7
370
    15
100
AcDbCircle
 10
274.2154371315
 20
141.7459888407
 30
0.0
 40
195.2887548688566
100
AcDbArc
 50
185.8427884931
 51
189.2826568887
  0
LINE
  5
2B8
330
1F
100
AcDbEntity
  8
0
  6
Continuous
 62
     7
370
    15
100
AcDbLine
 10
101.547611773
 20
110.2331284151
 30
0.0
 11
101.547611773
 21
124.1366647159
 31
0.0
  0
ARC
  5
2B9
330
1F
100
AcDbEntity
  8
0
  6
Continuous
 62
     7
370
    15
100
AcDbCircle
 10
83.5476125478
 20
124.1578332797
 30
0.0
 40
16.5
100
AcDbArc
 50
255.0775297682
 51
256.7535282199
  0
ARC
  5
2BA
330
1F
100
AcDbEntity
  8
0
  6
Continuous
 62
     7
370
    15
100
AcDbCircle
 10
83.5476125478
 20
124.1578332797
 30
0.0
 40
16.49999999999999
100
AcDbArc
 50
114.7930593633
 51
116.9224702318
  0
SPLINE
  5
2BB
330
1F
100
AcDbEntity
  8
0
  6
Continuous
 62
     7
370
    15
100
AcDbSpline
210
0.0
220
0.0
230
1.0
 70
     8
 71
     3
 72
     8
 73
     4
 74
     0
 42
0.00000001
 43
0.00000001
 12
1.0
 22
0.0
 32
0.0
 13
1.0
 23
0.0
 33
0.0
 40
0.0
 40
0.0
 40
0.0
 40
0.0
 40
1.0
 40
1.0
 40
1.0
 40
1.0
 10
76.63663076556773
 20
139.1436055996594
 30
0.0
 10
76.63402068356312
 20
139.1405192610922
 30
0.0
 10
76.63130075174315
 20
139.1383086018654
 30
0.0
 10
76.62846766743598
 20
139.1369999495744
 30
0.0
  0
LINE
  5
2BC
330
1F
100
AcDbEntity
  8
0
  6
Continuous
 62
     7
370
    15
100
AcDbLine
 10
79.842958495
 20
122.8148344621
 30
0.0
 11
76.6366309374
 21
139.1436060608
 31
0.0
  0
LINE
  5
2BD
330
1F
100
AcDbEntity
  8
0
  6
Continuous
 62
     7
370
    15
100
AcDbLine
 10
79.9412146564
 20
121.8657408558
 30
0.0
 11
79.842958495
 21
122.8148344621
 31
0.0
  0
ELLIPSE
  5
2BE
330
1F
100
AcDbEntity
  8
0
  6
Continuous
 62
     7
370
    15
100
AcDbEllipse
 10
81.0650700942
 20
108.2209621251
 30
0.0
 11
-0.3504323720944598
 21
2.920426735972953
 31
0.0
210
0.0
220
0.0
230
1.0
 40
0.1061937766
 41
5.562350187526397
 42
6.886373251041531
  0
LINE
  5
2BF
330
1F
100
AcDbEntity
  8
0
  6
Continuous
 62
     7
370
    15
100
AcDbLine
 10
80.2035163044
 20
110.7666896373
 30
0.0
 11
80.6005498282
 21
110.6049151808
 31
0.0
  0
LINE
  5
2C0
330
1F
100
AcDbEntity
  8
0
  6
Continuous
 62
     7
370
    15
100
AcDbLine
 10
79.6336898468
 20
113.9234959796
 30
0.0
 11
80.2035163044
 21
110.7666896373
 31
0.0
  0
LWPOLYLINE
  5
2C1
330
1F
100
AcDbEntity
  8
0
  6
Continuous
 62
     7
370
    15
100
AcDbPolyline
 90
       15
 70
   128
 43
0.0
 10
79.4264309927
 20
111.7098455966
 10
79.3578823916
 20
112.1317458987
 10
79.2979676164
 20
112.5879905835
 10
79.2496906481
 20
113.0557017118
 10
79.2154729254
 20
113.5114276499
 10
79.1970299445
 20
113.9323156044
 10
79.1952865086
 20
114.2972599432
 10
79.2103296965
 20
114.587961109
 10
79.2414056025
 20
114.7898429722
 10
79.286956124
 20
114.8927820564
 10
79.3446967266
 20
114.8916160405
 10
79.4117323942
 20
114.7864035979
 10
79.4847015179
 20
114.5824197397
 10
79.5599449314
 20
114.2898950443
 10
79.6336898468
 20
113.9234959796
  0
LINE
  5
2C2
330
1F
100
AcDbEntity
  8
0
  6
Continuous
 62
     7
370
    15
100
AcDbLine
 10
79.5572636537
 20
110.9850410089
 30
0.0
 11
79.4264309927
 21
111.7098455966
 31
0.0
  0
LINE
  5
2C3
330
1F
100
AcDbEntity
  8
0
  6
Continuous
 62
     7
370
    15
100
AcDbLine
 10
80.6705997213
 20
103.0898153499
 30
0.0
 11
81.2879757843
 21
98.5911603734
 31
0.0
  0
LWPOLYLINE
  5
2C4
330
1F
100
AcDbEntity
  8
0
  6
Continuous
 62
     7
370
    15
100
AcDbPolyline
 90
       37
 70
   128
 43
0.0
 10
79.9030392784
 20
118.265945343
 10
79.9591044317
 20
117.6614564561
 10
80.0004353635
 20
117.0753346473
 10
80.0257766507
 20
116.5253891327
 10
80.0343578569
 20
116.0283297017
 10
80.0259182117
 20
115.5992582158
 10
80.0007145274
 20
115.2512136564
 10
79.959512351
 20
114.9947693289
 10
79.9035638459
 20
114.8377185405
 10
79.8345686756
 20
114.7848333881
 10
79.7546232473
 20
114.8377185405
 10
79.6661569159
 20
114.9947693289
 10
79.5718574784
 20
115.2512136564
 10
79.4745901487
 20
115.5992582158
 10
79.3773107118
 20
116.0283297017
 10
79.2829742543
 20
116.5253891327
 10
79.1944478526
 20
117.0753346473
 10
79.1144211664
 20
117.6614564561
 10
79.0453254133
 20
118.265945343
 10
78.98926026
 20
118.8704337642
 10
78.9479290954
 20
119.4565555729
 10
78.9225878082
 20
120.0065010876
 10
78.914006602
 20
120.5035609842
 10
78.9224462471
 20
120.9326317717
 10
78.9476501643
 20
121.2806767967
 10
78.988851875
 20
121.5371206586
 10
79.044800613
 20
121.694171447
 10
79.1137957833
 20
121.7470572979
 10
79.1937409788
 20
121.694171447
 10
79.2822077758
 20
121.5371206586
 10
79.3765069805
 20
121.2806767967
 10
79.4737743102
 20
120.9326317717
 10
79.571053747
 20
120.5035609842
 10
79.6653902046
 20
120.0065010876
 10
79.7539166063
 20
119.4565555729
 10
79.8339435253
 20
118.8704337642
 10
79.9030392784
 20
118.265945343
  0
LINE
  5
2C5
330
1F
100
AcDbEntity
  8
0
  6
Continuous
 62
     7
370
    15
100
AcDbLine
 10
81.0064965747
 20
110.4395085663
 30
0.0
 11
81.4840690121
 21
110.2449170962
 31
0.0
  0
LINE
  5
2C6
330
1F
100
AcDbEntity
  8
0
  6
Continuous
 62
     7
370
    15
100
AcDbLine
 10
81.2879757843
 20
98.5911603734
 30
0.0
 11
81.4980937987
 21
98.5055457518
 31
0.0
  0
LINE
  5
2C7
330
1F
100
AcDbEntity
  8
0
  6
Continuous
 62
     7
370
    15
100
AcDbLine
 10
101.5232763141
 20
125.0935275989
 30
0.0
 11
79.842958495
 21
122.8148344621
 31
0.0
  0
ARC
  5
2C8
330
1F
100
AcDbEntity
  8
0
  6
Continuous
 62
     7
370
    15
100
AcDbCircle
 10
83.5476125478
 20
124.1578332797
 30
0.0
 40
18.0
100
AcDbArc
 50
0.0
 51
2.9797506171
  0
LINE
  5
2C9
330
1F
100
AcDbEntity
  8
0
  6
Continuous
 62
     7
370
    15
100
AcDbLine
 10
101.547611773
 20
124.1366647159
 30
0.0
 11
101.547611773
 21
124.1578332797
 31
0.0
  0
SPLINE
  5
2CA
330
1F
100
AcDbEntity
  8
0
  6
Continuous
 62
     7
370
    15
100
AcDbSpline
210
0.0
220
0.0
230
1.0
 70
     8
 71
     3
 72
     8
 73
     4
 74
     0
 42
0.00000001
 43
0.00000001
 12
1.0
 22
0.0
 32
0.0
 13
1.0
 23
0.0
 33
0.0
 40
0.0000006123680374
 40
0.0000006123680374
 40
0.0000006123680374
 40
0.0000006123680374
 40
0.0002225515425025
 40
0.0002225515425025
 40
0.0002225515425025
 40
0.0002225515425025
 10
76.8289569050206
 20
139.227991419323
 30
0.0
 10
76.76509264939845
 20
139.199519127431
 30
0.0
 10
76.70097199193428
 20
139.1714024518386
 30
0.0
 10
76.63663076556773
 20
139.1436055996594
 30
0.0
  0
ARC
  5
2CB
330
1F
100
AcDbEntity
  8
0
  6
Continuous
 62
     7
370
    15
100
AcDbCircle
 10
83.5476125478
 20
124.1578332797
 30
0.0
 40
16.50000000000001
100
AcDbArc
 50
59.1088365975
 51
114.0285152829
  0
SPLINE
  5
2CC
330
1F
100
AcDbEntity
  8
0
  6
Continuous
 62
     7
370
    15
100
AcDbSpline
210
0.0
220
0.0
230
1.0
 70
     8
 71
     3
 72
    14
 73
    10
 74
     0
 42
0.00000001
 43
0.00000001
 12
1.0
 22
0.0
 32
0.0
 13
1.0
 23
0.0
 33
0.0
 40
0.0
 40
0.0
 40
0.0
 40
0.0
 40
0.25
 40
0.25
 40
0.5
 40
0.5
 40
0.75
 40
0.75
 40
1.0
 40
1.0
 40
1.0
 40
1.0
 10
95.2352086512657
 20
136.8329434584026
 30
0.0
 10
94.93602036522066
 20
136.9046536822461
 30
0.0
 10
94.65388865558982
 20
137.0061031743607
 30
0.0
 10
94.10097989374562
 20
137.2287997542425
 30
0.0
 10
93.83104651433082
 20
137.3517854543668
 30
0.0
 10
93.29890393351819
 20
137.6101062317376
 30
0.0
 10
93.03768911299686
 20
137.7451839853828
 30
0.0
 10
92.52246492192737
 20
138.0241189720481
 30
0.0
 10
92.26840426955724
 20
138.1679137207405
 30
0.0
 10
92.01885953899993
 20
138.3172108936483
 30
0.0
  0
SPLINE
  5
2CD
330
1F
100
AcDbEntity
  8
0
  6
Continuous
 62
     7
370
    15
100
AcDbSpline
210
0.0
220
0.0
230
1.0
 70
     8
 71
     3
 72
     8
 73
     4
 74
     0
 42
0.00000001
 43
0.00000001
 12
1.0
 22
0.0
 32
0.0
 13
1.0
 23
0.0
 33
0.0
 40
0.0
 40
0.0
 40
0.0
 40
0.0
 40
1.0
 40
1.0
 40
1.0
 40
1.0
 10
96.67357379940483
 20
136.4748597561644
 30
0.0
 10
96.19585380142513
 20
136.5980925902663
 30
0.0
 10
95.7164621830735
 20
136.7175953645732
 30
0.0
 10
95.2352086512657
 20
136.8329434584026
 30
0.0
  0
ARC
  5
2CE
330
1F
100
AcDbEntity
  8
0
  6
Continuous
 62
     7
370
    15
100
AcDbCircle
 10
83.5476125478
 20
124.1578332797
 30
0.0
 40
18.00000000000001
100
AcDbArc
 50
2.9797506171
 51
43.178950476
  0
ELLIPSE
  5
2CF
330
1F
100
AcDbEntity
  8
0
  6
Continuous
 62
     7
370
    15
100
AcDbEllipse
 10
84.4721830155
 20
110.9641934583
 30
0.0
 11
4.662851638761055
 21
0.5501674705389945
 31
0.0
210
0.0
220
0.0
230
1.0
 40
0.0367797422
 41
2.423320220423244
 42
2.546114469707625
  0
SPLINE
  5
2D0
330
1F
100
AcDbEntity
  8
0
  6
Continuous
 62
     7
370
    15
100
AcDbSpline
210
0.0
220
0.0
230
1.0
 70
     8
 71
     3
 72
    10
 73
     6
 74
     0
 42
0.00000001
 43
0.00000001
 12
1.0
 22
0.0
 32
0.0
 13
1.0
 23
0.0
 33
0.0
 40
0.0
 40
0.0
 40
0.0
 40
0.0
 40
0.5
 40
0.5
 40
1.0
 40
1.0
 40
1.0
 40
1.0
 10
76.07666963029881
 20
138.8695636987534
 30
0.0
 10
76.05744744248415
 20
138.8598022455577
 30
0.0
 10
75.98993123145505
 20
138.8256347248206
 30
0.0
 10
75.78836662236063
 20
138.7200119896821
 30
0.0
 10
75.65779763550972
 20
138.6501254259232
 30
0.0
 10
75.5177203081617
 20
138.572091173162
 30
0.0
  0
SPLINE
  5
2D1
330
1F
100
AcDbEntity
  8
0
  6
Continuous
 62
     7
370
    15
100
AcDbSpline
210
0.0
220
0.0
230
1.0
 70
     8
 71
     3
 72
    12
 73
     8
 74
     0
 42
0.00000001
 43
0.00000001
 12
1.0
 22
0.0
 32
0.0
 13
1.0
 23
0.0
 33
0.0
 40
0.0
 40
0.0
 40
0.0
 40
0.0
 40
0.250000000000001
 40
0.250000000000001
 40
0.500000000000002
 40
0.500000000000002
 40
1.0
 40
1.0
 40
1.0
 40
1.0
 10
78.69008544996134
 20
108.3890530322087
 30
0.0
 10
78.76678744966567
 20
108.3654252032849
 30
0.0
 10
78.83951256325055
 20
108.3436340909417
 30
0.0
 10
78.97659793243888
 20
108.3034671040246
 30
0.0
 10
79.03981098025841
 20
108.2854384390407
 30
0.0
 10
79.2030383329282
 20
108.239684935996
 30
0.0
 10
79.27780478247824
 20
108.2198532366381
 30
0.0
 10
79.29866840410918
 20
108.2142930936642
 30
0.0
  0
ELLIPSE
  5
2D2
330
1F
100
AcDbEntity
  8
0
  6
Continuous
 62
     7
370
    15
100
AcDbEllipse
 10
72.7208669105
 20
118.406518008
 30
0.0
 11
-1.884568774819542
 21
2.334645845946185
 31
0.0
210
0.0
220
0.0
230
1.0
 40
0.6835091599
 41
0.0
 42
6.283185307179586
  0
ARC
  5
2D3
330
1F
100
AcDbEntity
  8
0
  6
Continuous
 62
     7
370
    15
100
AcDbCircle
 10
83.5476125478
 20
124.1578332797
 30
0.0
 40
16.5
100
AcDbArc
 50
119.1212973517
 51
252.8787026484
  0
LWPOLYLINE
  5
2D4
330
1F
100
AcDbEntity
  8
0
  6
Continuous
 62
     7
370
    15
100
AcDbPolyline
 90
        3
 70
   128
 43
0.0
 10
70.9911369606
 20
120.8497924913
 10
70.9975146576
 20
120.8518393055
 10
71.4024350866
 20
121.0202177704
  0
SPLINE
  5
2D5
330
1F
100
AcDbEntity
  8
0
  6
Continuous
 62
     7
370
    15
100
AcDbSpline
210
0.0
220
0.0
230
1.0
 70
     8
 71
     3
 72
    18
 73
    14
 74
     0
 42
0.00000001
 43
0.00000001
 12
1.0
 22
0.0
 32
0.0
 13
1.0
 23
0.0
 33
0.0
 40
0.0
 40
0.0
 40
0.0
 40
0.0
 40
0.0140323524362992
 40
0.1574215096259219
 40
0.2110499219828573
 40
0.246014629084097
 40
0.2753881455469769
 40
0.3141209406681862
 40
0.4419274000454436
 40
0.5985088476529564
 40
0.759635994645209
 40
0.9318041586614326
 40
1.0
 40
1.0
 40
1.0
 40
1.0
 10
72.05209311838072
 20
121.0271379627544
 30
0.0
 10
72.04433763833453
 20
121.0096317917216
 30
0.0
 10
71.95733302650711
 20
120.8132393561515
 30
0.0
 10
71.81886976633139
 20
120.5853499333344
 30
0.0
 10
71.70450658747413
 20
120.3441425700525
 30
0.0
 10
71.68086615704657
 20
120.2267901942345
 30
0.0
 10
71.71234035559429
 20
120.1379745733684
 30
0.0
 10
71.86809295702373
 20
120.0231870649549
 30
0.0
 10
72.22189128665023
 20
119.945902839443
 30
0.0
 10
72.68807553287812
 20
119.9128679761824
 30
0.0
 10
73.1543674610182
 20
119.9892199684795
 30
0.0
 10
73.49842132725165
 20
120.129835598031
 30
0.0
 10
73.60065193409325
 20
120.3111773315161
 30
0.0
 10
73.62965670223159
 20
120.3626274314034
 30
0.0
  0
SPLINE
  5
2D6
330
1F
100
AcDbEntity
  8
0
  6
Continuous
 62
     7
370
    15
100
AcDbSpline
210
0.0
220
0.0
230
1.0
 70
    24
 71
     3
 72
     9
 73
     5
 74
     0
 42
0.00000001
 43
0.00000001
 12
1.0
 22
0.0
 32
0.0
 13
1.0
 23
0.0
 33
0.0
 40
0.0
 40
0.0
 40
0.0
 40
0.0
 40
0.5
 40
1.0
 40
1.0
 40
1.0
 40
1.0
 10
79.04761254782598
 20
141.0578332796949
 30
0.0
 10
79.04761254782598
 20
141.0597561480288
 30
0.0
 10
79.04761254782598
 20
141.0636014370177
 30
0.0
 10
79.04761254782598
 20
141.0674458313382
 30
0.0
 10
79.04761254782598
 20
141.0693678049827
 30
0.0
  0
SPLINE
  5
2D7
330
1F
100
AcDbEntity
  8
0
  6
Continuous
 62
     7
370
    15
100
AcDbSpline
210
0.0
220
0.0
230
1.0
 70
    24
 71
     3
 72
    18
 73
    14
 74
     0
 42
0.00000001
 43
0.00000001
 12
1.0
 22
0.0
 32
0.0
 13
1.0
 23
0.0
 33
0.0
 40
0.0
 40
0.0
 40
0.0
 40
0.0
 40
0.2500000000000001
 40
0.2500000000000001
 40
0.5000000000000001
 40
0.5000000000000001
 40
0.5625000000000001
 40
0.5625000000000001
 40
0.6250000000000001
 40
0.6250000000000001
 40
0.7500000000000002
 40
0.7500000000000002
 40
1.0
 40
1.0
 40
1.0
 40
1.0
 10
88.04761254782599
 20
141.0578332796949
 30
0.0
 10
87.30038859152438
 20
141.0578332796949
 30
0.0
 10
86.55442019414113
 20
141.0578332796949
 30
0.0
 10
85.06224703572316
 20
141.0578332796949
 30
0.0
 10
84.31595435732636
 20
141.0578332796949
 30
0.0
 10
83.38200630506589
 20
141.0578332796949
 30
0.0
 10
83.19167851679804
 20
141.0578332796949
 30
0.0
 10
82.81460470171746
 20
141.0578332796949
 30
0.0
 10
82.62615247524751
 20
141.0578332796949
 30
0.0
 10
82.06099537687514
 20
141.0578332796949
 30
0.0
 10
81.68449243448633
 20
141.0578332796949
 30
0.0
 10
80.5551218188206
 20
141.0578332796949
 30
0.0
 10
79.80242903604618
 20
141.0578332796949
 30
0.0
 10
79.04761254782599
 20
141.0578332796949
 30
0.0
  0
SPLINE
  5
2D8
330
1F
100
AcDbEntity
  8
0
  6
Continuous
 62
     7
370
    15
100
AcDbSpline
210
0.0
220
0.0
230
1.0
 70
    24
 71
     3
 72
     9
 73
     5
 74
     0
 42
0.00000001
 43
0.00000001
 12
1.0
 22
0.0
 32
0.0
 13
1.0
 23
0.0
 33
0.0
 40
0.0
 40
0.0
 40
0.0
 40
0.0
 40
0.5
 40
1.0
 40
1.0
 40
1.0
 40
1.0
 10
88.04761254782598
 20
141.0693678049827
 30
0.0
 10
88.04761254782598
 20
141.0674446804996
 30
0.0
 10
88.04761254782598
 20
141.0635991356547
 30
0.0
 10
88.04761254782599
 20
141.0597549974772
 30
0.0
 10
88.04761254782598
 20
141.0578332796949
 30
0.0
  0
LINE
  5
2D9
330
1F
100
AcDbEntity
  8
0
  6
Continuous
 62
     7
370
    15
100
AcDbLine
 10
79.918242421
 20
107.2578340486
 30
0.0
 11
79.0044859871
 21
107.2578340486
 31
0.0
  0
SPLINE
  5
2DA
330
1F
100
AcDbEntity
  8
0
  6
Continuous
 62
     7
370
    15
100
AcDbSpline
210
0.0
220
0.0
230
1.0
 70
    24
 71
     3
 72
    12
 73
     8
 74
     0
 42
0.00000001
 43
0.00000001
 12
1.0
 22
0.0
 32
0.0
 13
1.0
 23
0.0
 33
0.0
 40
0.0
 40
0.0
 40
0.0
 40
0.0
 40
0.5
 40
0.5
 40
0.75
 40
0.75
 40
1.0
 40
1.0
 40
1.0
 40
1.0
 10
70.67020985939537
 20
136.0078332796949
 30
0.0
 10
70.85273656294308
 20
136.0078332796949
 30
0.0
 10
71.03732721827825
 20
136.0078332796949
 30
0.0
 10
71.29760854045277
 20
136.0078332796949
 30
0.0
 10
71.38216299326385
 20
136.0078332796949
 30
0.0
 10
71.54611094300806
 20
136.0078332796949
 30
0.0
 10
71.62556116704944
 20
136.0078332796949
 30
0.0
 10
71.69761254782777
 20
136.0078332796949
 30
0.0
  0
SPLINE
  5
2DB
330
1F
100
AcDbEntity
  8
0
  6
Continuous
 62
     7
370
    15
100
AcDbSpline
210
0.0
220
0.0
230
1.0
 70
    24
 71
     3
 72
    10
 73
     6
 74
     0
 42
0.00000001
 43
0.00000001
 12
1.0
 22
0.0
 32
0.0
 13
1.0
 23
0.0
 33
0.0
 40
0.0
 40
0.0
 40
0.0
 40
0.0
 40
0.5
 40
0.5
 40
1.0
 40
1.0
 40
1.0
 40
1.0
 10
71.69761254782598
 20
137.0352359681255
 30
0.0
 10
71.69761254782598
 20
136.8525272559905
 30
0.0
 10
71.69761254782598
 20
136.6690189662297
 30
0.0
 10
71.69761254782598
 20
136.3207149879091
 30
0.0
 10
71.69761254782598
 20
136.1525274053662
 30
0.0
 10
71.69761254782598
 20
136.0078332796934
 30
0.0
  0
SPLINE
  5
2DC
330
1F
100
AcDbEntity
  8
0
  6
Continuous
 62
     7
370
    15
100
AcDbSpline
210
0.0
220
0.0
230
1.0
 70
    24
 71
     3
 72
    10
 73
     6
 74
     0
 42
0.00000001
 43
0.00000001
 12
1.0
 22
0.0
 32
0.0
 13
1.0
 23
0.0
 33
0.0
 40
0.0
 40
0.0
 40
0.0
 40
0.0
 40
0.5
 40
0.5
 40
1.0
 40
1.0
 40
1.0
 40
1.0
 10
79.04761254782598
 20
143.0287103128378
 30
0.0
 10
79.04761254782598
 20
143.1871447557256
 30
0.0
 10
79.04761254782598
 20
143.3461654505276
 30
0.0
 10
79.04761254782599
 20
143.5761732747833
 30
0.0
 10
79.04761254782598
 20
143.6450085496
 30
0.0
 10
79.04761254782598
 20
143.6450085496
 30
0.0
  0
ARC
  5
2DD
330
1F
100
AcDbEntity
  8
0
  6
Continuous
 62
     7
370
    15
100
AcDbCircle
 10
83.5476125478
 20
124.1578332797
 30
0.0
 40
20.00000000000001
100
AcDbArc
 50
103.0028781629
 51
126.3346172154
  0
SPLINE
  5
2DE
330
1F
100
AcDbEntity
  8
0
  6
Continuous
 62
     7
370
    15
100
AcDbSpline
210
0.0
220
0.0
230
1.0
 70
    24
 71
     3
 72
    12
 73
     8
 74
     0
 42
0.00000001
 43
0.00000001
 12
1.0
 22
0.0
 32
0.0
 13
1.0
 23
0.0
 33
0.0
 40
0.0
 40
0.0
 40
0.0
 40
0.0
 40
0.2499999999999986
 40
0.2499999999999986
 40
0.4999999999999971
 40
0.4999999999999971
 40
1.0
 40
1.0
 40
1.0
 40
1.0
 10
71.69761254782598
 20
140.2692422807724
 30
0.0
 10
71.69761254782598
 20
140.2692422807724
 30
0.0
 10
71.69761254782598
 20
140.2436176481676
 30
0.0
 10
71.69761254782598
 20
140.1550742752358
 30
0.0
 10
71.69761254782598
 20
140.0921917921212
 30
0.0
 10
71.69761254782598
 20
139.8748306041876
 30
0.0
 10
71.69761254782598
 20
139.6961835941762
 30
0.0
 10
71.69761254782598
 20
139.5180904390005
 30
0.0
  0
ARC
  5
2DF
330
1F
100
AcDbEntity
  8
0
  6
Continuous
 62
     7
370
    15
100
AcDbCircle
 10
83.5476125478
 20
124.1578332797
 30
0.0
 40
20.00000000000001
100
AcDbArc
 50
143.6653827846
 51
254.0379858372
  0
SPLINE
  5
2E0
330
1F
100
AcDbEntity
  8
0
  6
Continuous
 62
     7
370
    15
100
AcDbSpline
210
0.0
220
0.0
230
1.0
 70
    24
 71
     3
 72
    10
 73
     6
 74
     0
 42
0.00000001
 43
0.00000001
 12
1.0
 22
0.0
 32
0.0
 13
1.0
 23
0.0
 33
0.0
 40
0.0
 40
0.0
 40
0.0
 40
0.0
 40
0.5
 40
0.5
 40
1.0
 40
1.0
 40
1.0
 40
1.0
 10
78.04761254782599
 20
105.5538014586084
 30
0.0
 10
78.04761254782599
 20
105.3941692897051
 30
0.0
 10
78.04761254782599
 20
105.2331196559411
 30
0.0
 10
78.04761254782599
 20
105.0001287722645
 30
0.0
 10
78.04761254782599
 20
104.9289487566655
 30
0.0
 10
78.04761254782599
 20
104.9289487566655
 30
0.0
  0
SPLINE
  5
2E1
330
1F
100
AcDbEntity
  8
0
  6
Continuous
 62
     7
370
    15
100
AcDbSpline
210
0.0
220
0.0
230
1.0
 70
    24
 71
     3
 72
    12
 73
     8
 74
     0
 42
0.00000001
 43
0.00000001
 12
1.0
 22
0.0
 32
0.0
 13
1.0
 23
0.0
 33
0.0
 40
0.0
 40
0.0
 40
0.0
 40
0.0
 40
0.2499999999999986
 40
0.2499999999999986
 40
0.4999999999999971
 40
0.4999999999999971
 40
1.0
 40
1.0
 40
1.0
 40
1.0
 10
67.43620354674853
 20
136.0078332796949
 30
0.0
 10
67.43620354674852
 20
136.0078332796949
 30
0.0
 10
67.461483696913
 20
136.0078332796949
 30
0.0
 10
67.55109504241474
 20
136.0078332796949
 30
0.0
 10
67.61408067934074
 20
136.0078332796949
 30
0.0
 10
67.83036740109831
 20
136.0078332796949
 30
0.0
 10
68.01034715851868
 20
136.0078332796949
 30
0.0
 10
68.18735538852039
 20
136.0078332796949
 30
0.0
  0
SPLINE
  5
2E2
330
1F
100
AcDbEntity
  8
0
  6
Continuous
 62
     7
370
    15
100
AcDbSpline
210
0.0
220
0.0
230
1.0
 70
    24
 71
     3
 72
    10
 73
     6
 74
     0
 42
0.00000001
 43
0.00000001
 12
1.0
 22
0.0
 32
0.0
 13
1.0
 23
0.0
 33
0.0
 40
0.0
 40
0.0
 40
0.0
 40
0.0
 40
0.5
 40
0.5
 40
1.0
 40
1.0
 40
1.0
 40
1.0
 10
88.04761254782598
 20
143.6450085496
 30
0.0
 10
88.04761254782598
 20
143.6450085496
 30
0.0
 10
88.04761254782598
 20
143.5764231470941
 30
0.0
 10
88.04761254782598
 20
143.3466498777745
 30
0.0
 10
88.04761254782598
 20
143.1881516761068
 30
0.0
 10
88.04761254782598
 20
143.0287103128378
 30
0.0
  0
ARC
  5
2E3
330
1F
100
AcDbEntity
  8
0
  6
Continuous
 62
     7
370
    15
100
AcDbCircle
 10
83.5476125478
 20
124.1578332797
 30
0.0
 40
20.0
100
AcDbArc
 50
334.1580672368
 51
76.9971218371
  0
LINE
  5
2E4
330
1F
100
AcDbEntity
  8
0
  6
Continuous
 62
     7
370
    15
100
AcDbLine
 10
88.0476123541
 20
143.0287103817
 30
0.0
 11
88.0476123541
 21
141.0693678722
 31
0.0
  0
LINE
  5
2E5
330
1F
100
AcDbEntity
  8
0
  6
Continuous
 62
     7
370
    15
100
AcDbLine
 10
78.0476125776
 20
107.2578340486
 30
0.0
 11
78.0476125776
 21
105.5538005844
 31
0.0
  0
LINE
  5
2E6
330
1F
100
AcDbEntity
  8
0
  6
Continuous
 62
     7
370
    15
100
AcDbLine
 10
79.0044859871
 20
107.2578340486
 30
0.0
 11
78.0476125776
 21
107.2578340486
 31
0.0
  0
LINE
  5
2E7
330
1F
100
AcDbEntity
  8
0
  6
Continuous
 62
     7
370
    15
100
AcDbLine
 10
68.1873549595
 20
136.0078336388
 30
0.0
 11
70.6702097207
 21
136.0078336388
 31
0.0
  0
LINE
  5
2E8
330
1F
100
AcDbEntity
  8
0
  6
Continuous
 62
     7
370
    15
100
AcDbLine
 10
79.0476127415
 20
141.0693678722
 30
0.0
 11
79.0476127415
 21
143.0287103817
 31
0.0
  0
LINE
  5
2E9
330
1F
100
AcDbEntity
  8
0
  6
Continuous
 62
     7
370
    15
100
AcDbLine
 10
71.6976121887
 20
139.518090868
 30
0.0
 11
71.6976121887
 21
137.0352361068
 31
0.0
  0
SPLINE
  5
2EA
330
1F
100
AcDbEntity
  8
0
  6
Continuous
 62
     7
370
    15
100
AcDbSpline
210
0.0
220
0.0
230
1.0
 70
     8
 71
     3
 72
    22
 73
    18
 74
     0
 42
0.00000001
 43
0.00000001
 12
1.0
 22
0.0
 32
0.0
 13
1.0
 23
0.0
 33
0.0
 40
0.0
 40
0.0
 40
0.0
 40
0.0
 40
0.2499999999999997
 40
0.2499999999999997
 40
0.3749999999999998
 40
0.3749999999999998
 40
0.4999999999999999
 40
0.4999999999999999
 40
0.625
 40
0.625
 40
0.75
 40
0.75
 40
0.8750000000000001
 40
0.8750000000000001
 40
0.9375000000000001
 40
0.9375000000000001
 40
1.0
 40
1.0
 40
1.0
 40
1.0
 10
67.43620354674852
 20
136.0078332796949
 30
0.0
 10
67.850198424915
 20
136.5707059215929
 30
0.0
 10
68.28600822622394
 20
137.1013308053224
 30
0.0
 10
68.96274902920828
 20
137.847041796244
 30
0.0
 10
69.19360415638296
 20
138.0886620226428
 30
0.0
 10
69.6536412115451
 20
138.5475207979686
 30
0.0
 10
69.87960888832359
 20
138.7616994704385
 30
0.0
 10
70.31680047682431
 20
139.158928029584
 30
0.0
 10
70.52985320111688
 20
139.3433728646038
 30
0.0
 10
70.91402934035041
 20
139.6644527124874
 30
0.0
 10
71.08814634914188
 20
139.8038035425934
 30
0.0
 10
71.3816640939424
 20
140.033109077019
 30
0.0
 10
71.49645639853982
 20
140.1196450864954
 30
0.0
 10
71.6154109746358
 20
140.2085346908266
 30
0.0
 10
71.64622905762238
 20
140.2313431966882
 30
0.0
 10
71.687248269341
 20
140.2616343593845
 30
0.0
 10
71.69761254782598
 20
140.2692422807724
 30
0.0
 10
71.69761254782598
 20
140.2692422807724
 30
0.0
  0
SPLINE
  5
2EB
330
1F
100
AcDbEntity
  8
0
  6
Continuous
 62
     7
370
    15
100
AcDbSpline
210
0.0
220
0.0
230
1.0
 70
     8
 71
     3
 72
    14
 73
    10
 74
     0
 42
0.00000001
 43
0.00000001
 12
1.0
 22
0.0
 32
0.0
 13
1.0
 23
0.0
 33
0.0
 40
0.0
 40
0.0
 40
0.0
 40
0.0
 40
0.1516817691851072
 40
0.3033794251814776
 40
0.4548882755231037
 40
0.606421077072991
 40
0.7614697534467129
 40
0.9165206987043788
 40
1.0
 40
1.0
 40
1.0
 40
1.0
 10
78.04761257762831
 20
104.9289483294147
 30
0.0
 10
78.05968510535024
 20
104.9254284710052
 30
0.0
 10
78.0838314252438
 20
104.9183883855241
 30
0.0
 10
78.27143453798482
 20
104.8658249199014
 30
0.0
 10
78.56674443296701
 20
104.7869163514273
 30
0.0
 10
78.96954190393517
 20
104.6867404475476
 30
0.0
 10
79.47623161331985
 20
104.5748673289067
 30
0.0
 10
79.96904293618566
 20
104.4761057352913
 30
0.0
 10
80.31289039736787
 20
104.4233173642211
 30
0.0
 10
80.43322794879597
 20
104.4048428252595
 30
0.0
  0
SPLINE
  5
2EC
330
1F
100
AcDbEntity
  8
0
  6
Continuous
 62
     7
370
    15
100
AcDbSpline
210
0.0
220
0.0
230
1.0
 70
     8
 71
     3
 72
    38
 73
    34
 74
     0
 42
0.00000001
 43
0.00000001
 12
1.0
 22
0.0
 32
0.0
 13
1.0
 23
0.0
 33
0.0
 40
0.0
 40
0.0
 40
0.0
 40
0.0
 40
0.0625
 40
0.0625
 40
0.125
 40
0.125
 40
0.1874999999999999
 40
0.1874999999999999
 40
0.2499999999999999
 40
0.2499999999999999
 40
0.3124999999999999
 40
0.3124999999999999
 40
0.3749999999999999
 40
0.3749999999999999
 40
0.4374999999999999
 40
0.4374999999999999
 40
0.5
 40
0.5
 40
0.5625
 40
0.5625
 40
0.625
 40
0.625
 40
0.6875
 40
0.6875
 40
0.7499999999999999
 40
0.7499999999999999
 40
0.8124999999999999
 40
0.8124999999999999
 40
0.8749999999999999
 40
0.8749999999999999
 40
0.9374999999999999
 40
0.9374999999999999
 40
1.0
 40
1.0
 40
1.0
 40
1.0
 10
79.04761254782598
 20
143.6450085496
 30
0.0
 10
79.04761254782598
 20
143.6450085496
 30
0.0
 10
79.07697297039748
 20
143.6518541168562
 30
0.0
 10
79.19182656090479
 20
143.6778382762898
 30
0.0
 10
79.27877864364932
 20
143.6972911951127
 30
0.0
 10
79.50489152753396
 20
143.745323299652
 30
0.0
 10
79.64311685200767
 20
143.7737073166313
 30
0.0
 10
79.96952168724492
 20
143.8358633301101
 30
0.0
 10
80.1588434615702
 20
143.8697615057869
 30
0.0
 10
80.57241251508692
 20
143.9364089381126
 30
0.0
 10
80.7982586050106
 20
143.9695063555256
 30
0.0
 10
81.28968909397335
 20
144.0315123261878
 30
0.0
 10
81.55004654912366
 20
144.0596782954355
 30
0.0
 10
82.09099136068184
 20
144.106566564465
 30
0.0
 10
82.37553520259415
 20
144.1255785517849
 30
0.0
 10
82.9567483772215
 20
144.1512195883264
 30
0.0
 10
83.24930998508246
 20
144.1577767045319
 30
0.0
 10
83.83827997569219
 20
144.1578891261669
 30
0.0
 10
84.13751110903647
 20
144.1512236029348
 30
0.0
 10
84.71535345049665
 20
144.1258080922334
 30
0.0
 10
84.99632368363761
 20
144.1071771988317
 30
0.0
 10
85.54232848323592
 20
144.0599988677923
 30
0.0
 10
85.80434078295931
 20
144.0316172145387
 30
0.0
 10
86.29084262115187
 20
143.9703242634381
 30
0.0
 10
86.51921221238487
 20
143.9369726801762
 30
0.0
 10
86.93695891127487
 20
143.8696848218168
 30
0.0
 10
87.12251055224502
 20
143.8364415256674
 30
0.0
 10
87.44843726373306
 20
143.7744355536929
 30
0.0
 10
87.58985914514362
 20
143.7454204962223
 30
0.0
 10
87.8157362913474
 20
143.6974456153729
 30
0.0
 10
87.90137705980499
 20
143.6782913780325
 30
0.0
 10
88.01760194299094
 20
143.6520053473112
 30
0.0
 10
88.04761254782599
 20
143.6450085496
 30
0.0
 10
88.04761254782598
 20
143.6450085496
 30
0.0
  0
INSERT
  5
2F8
330
1F
100
AcDbEntity
  8
VERMASSUNG
100
AcDbBlockReference
  2
SW_CENTERMARKSYMBOL_0
 10
83.5476125478
 20
124.1578332797
 30
0.0
  0
OLE2FRAME
  5
2F9
330
1F
100
AcDbEntity
  8
0
100
AcDbOle2Frame
 70
     2
  3
Paintbrush-Bild
 10
13.8511154363
 20
38.264191557
 30
0.0
 11
51.6290888628
 21
31.9806341108
 31
0.0
 71
     2
 72
     0
 73
     1
 90
    12928
310
80552BED0767C5B32B40DDAF6807D121434000000000000000006FFBDDFB85D0
310
4940DDAF6807D121434000000000000000006FFBDDFB85D04940416F4BD60AFB
310
3F4000000000000000002BED0767C5B32B40416F4BD60AFB3F40000000000000
310
0000000000000100000000010000010000000100000000000100000000320000
310
D0CF11E0A1B11AE1000000000000000000000000000000003E000300FEFF0900
310
0600000000000000000000000100000001000000000000000010000002000000
310
01000000FEFFFFFF0000000000000000FFFFFFFFFFFFFFFFFFFFFFFFFFFFFFFF
310
FFFFFFFFFFFFFFFFFFFFFFFFFFFFFFFFFFFFFFFFFFFFFFFFFFFFFFFFFFFFFFFF
310
FFFFFFFFFFFFFFFFFFFFFFFFFFFFFFFFFFFFFFFFFFFFFFFFFFFFFFFFFFFFFFFF
310
FFFFFFFFFFFFFFFFFFFFFFFFFFFFFFFFFFFFFFFFFFFFFFFFFFFFFFFFFFFFFFFF
310
FFFFFFFFFFFFFFFFFFFFFFFFFFFFFFFFFFFFFFFFFFFFFFFFFFFFFFFFFFFFFFFF
310
FFFFFFFFFFFFFFFFFFFFFFFFFFFFFFFFFFFFFFFFFFFFFFFFFFFFFFFFFFFFFFFF
310
FFFFFFFFFFFFFFFFFFFFFFFFFFFFFFFFFFFFFFFFFFFFFFFFFFFFFFFFFFFFFFFF
310
FFFFFFFFFFFFFFFFFFFFFFFFFFFFFFFFFFFFFFFFFFFFFFFFFFFFFFFFFFFFFFFF
310
FFFFFFFFFFFFFFFFFFFFFFFFFFFFFFFFFFFFFFFFFFFFFFFFFFFFFFFFFFFFFFFF
310
FFFFFFFFFFFFFFFFFFFFFFFFFFFFFFFFFFFFFFFFFFFFFFFFFFFFFFFFFFFFFFFF
310
FFFFFFFFFFFFFFFFFFFFFFFFFFFFFFFFFFFFFFFFFFFFFFFFFFFFFFFFFFFFFFFF
310
FFFFFFFFFFFFFFFFFFFFFFFFFFFFFFFFFFFFFFFFFFFFFFFFFFFFFFFFFFFFFFFF
310
FFFFFFFFFFFFFFFFFFFFFFFFFFFFFFFFFFFFFFFFFFFFFFFFFFFFFFFFFFFFFFFF
310
FFFFFFFFFFFFFFFFFFFFFFFFFFFFFFFFFFFFFFFFFFFFFFFFFFFFFFFFFFFFFFFF
310
FDFFFFFFFEFFFFFFFEFFFFFFFEFFFFFF05000000060000000700000008000000
310
090000000A0000000B0000000C0000000D0000000E0000000F00000010000000
310
11000000120000001300000014000000150000001600000017000000FEFFFFFF
310
FFFFFFFFFFFFFFFFFFFFFFFFFFFFFFFFFFFFFFFFFFFFFFFFFFFFFFFFFFFFFFFF
310
FFFFFFFFFFFFFFFFFFFFFFFFFFFFFFFFFFFFFFFFFFFFFFFFFFFFFFFFFFFFFFFF
310
FFFFFFFFFFFFFFFFFFFFFFFFFFFFFFFFFFFFFFFFFFFFFFFFFFFFFFFFFFFFFFFF
310
FFFFFFFFFFFFFFFFFFFFFFFFFFFFFFFFFFFFFFFFFFFFFFFFFFFFFFFFFFFFFFFF
310
FFFFFFFFFFFFFFFFFFFFFFFFFFFFFFFFFFFFFFFFFFFFFFFFFFFFFFFFFFFFFFFF
310
FFFFFFFFFFFFFFFFFFFFFFFFFFFFFFFFFFFFFFFFFFFFFFFFFFFFFFFFFFFFFFFF
310
FFFFFFFFFFFFFFFFFFFFFFFFFFFFFFFFFFFFFFFFFFFFFFFFFFFFFFFFFFFFFFFF
310
FFFFFFFFFFFFFFFFFFFFFFFFFFFFFFFFFFFFFFFFFFFFFFFFFFFFFFFFFFFFFFFF
310
FFFFFFFFFFFFFFFFFFFFFFFFFFFFFFFFFFFFFFFFFFFFFFFFFFFFFFFFFFFFFFFF
310
FFFFFFFFFFFFFFFFFFFFFFFFFFFFFFFFFFFFFFFFFFFFFFFFFFFFFFFFFFFFFFFF
310
FFFFFFFFFFFFFFFFFFFFFFFFFFFFFFFFFFFFFFFFFFFFFFFFFFFFFFFFFFFFFFFF
310
FFFFFFFFFFFFFFFFFFFFFFFFFFFFFFFFFFFFFFFFFFFFFFFFFFFFFFFFFFFFFFFF
310
FFFFFFFFFFFFFFFFFFFFFFFFFFFFFFFFFFFFFFFFFFFFFFFFFFFFFFFFFFFFFFFF
310
52006F006F007400200045006E00740072007900000000000000000000000000
310
0000000000000000000000000000000000000000000000000000000000000000
310
16000500FFFFFFFFFFFFFFFF020000000A00030000000000C000000000000046
310
000000000000000000000000A07C0B8DC74ACD0103000000C000000000000000
310
01004F006C006500000000000000000000000000000000000000000000000000
310
0000000000000000000000000000000000000000000000000000000000000000
310
0A000200FFFFFFFFFFFFFFFFFFFFFFFF00000000000000000000000000000000
310
0000000000000000000000000000000000000000000000001400000000000000
310
010043006F006D0070004F0062006A0000000000000000000000000000000000
310
0000000000000000000000000000000000000000000000000000000000000000
310
120002010100000003000000FFFFFFFF00000000000000000000000000000000
310
0000000000000000000000000000000000000000010000004D00000000000000
310
01004F006C006500310030004E00610074006900760065000000000000000000
310
0000000000000000000000000000000000000000000000000000000000000000
310
1A000200FFFFFFFFFFFFFFFFFFFFFFFF00000000000000000000000000000000
310
0000000000000000000000000000000000000000040000002426000000000000
310
FEFFFFFF02000000FEFFFFFFFFFFFFFFFFFFFFFFFFFFFFFFFFFFFFFFFFFFFFFF
310
FFFFFFFFFFFFFFFFFFFFFFFFFFFFFFFFFFFFFFFFFFFFFFFFFFFFFFFFFFFFFFFF
310
FFFFFFFFFFFFFFFFFFFFFFFFFFFFFFFFFFFFFFFFFFFFFFFFFFFFFFFFFFFFFFFF
310
FFFFFFFFFFFFFFFFFFFFFFFFFFFFFFFFFFFFFFFFFFFFFFFFFFFFFFFFFFFFFFFF
310
FFFFFFFFFFFFFFFFFFFFFFFFFFFFFFFFFFFFFFFFFFFFFFFFFFFFFFFFFFFFFFFF
310
FFFFFFFFFFFFFFFFFFFFFFFFFFFFFFFFFFFFFFFFFFFFFFFFFFFFFFFFFFFFFFFF
310
FFFFFFFFFFFFFFFFFFFFFFFFFFFFFFFFFFFFFFFFFFFFFFFFFFFFFFFFFFFFFFFF
310
FFFFFFFFFFFFFFFFFFFFFFFFFFFFFFFFFFFFFFFFFFFFFFFFFFFFFFFFFFFFFFFF
310
FFFFFFFFFFFFFFFFFFFFFFFFFFFFFFFFFFFFFFFFFFFFFFFFFFFFFFFFFFFFFFFF
310
FFFFFFFFFFFFFFFFFFFFFFFFFFFFFFFFFFFFFFFFFFFFFFFFFFFFFFFFFFFFFFFF
310
FFFFFFFFFFFFFFFFFFFFFFFFFFFFFFFFFFFFFFFFFFFFFFFFFFFFFFFFFFFFFFFF
310
FFFFFFFFFFFFFFFFFFFFFFFFFFFFFFFFFFFFFFFFFFFFFFFFFFFFFFFFFFFFFFFF
310
FFFFFFFFFFFFFFFFFFFFFFFFFFFFFFFFFFFFFFFFFFFFFFFFFFFFFFFFFFFFFFFF
310
FFFFFFFFFFFFFFFFFFFFFFFFFFFFFFFFFFFFFFFFFFFFFFFFFFFFFFFFFFFFFFFF
310
FFFFFFFFFFFFFFFFFFFFFFFFFFFFFFFFFFFFFFFFFFFFFFFFFFFFFFFFFFFFFFFF
310
FFFFFFFFFFFFFFFFFFFFFFFFFFFFFFFFFFFFFFFFFFFFFFFFFFFFFFFFFFFFFFFF
310
0100000200000000000000000000000000000000000000000000000000000000
310
0000000000000000000000000000000000000000000000000000000000000000
310
0100FEFF030A0000FFFFFFFF0A00030000000000C00000000000004607000000
310
5042727573680007000000504272757368000700000050427275736800F439B2
310
7100000000000000000000000000000000000000000000000000000000000000
310
0000000000000000000000000000000000000000000000000000000000000000
310
0000000000000000000000000000000000000000000000000000000000000000
310
0000000000000000000000000000000000000000000000000000000000000000
310
0000000000000000000000000000000000000000000000000000000000000000
310
0000000000000000000000000000000000000000000000000000000000000000
310
0000000000000000000000000000000000000000000000000000000000000000
310
0000000000000000000000000000000000000000000000000000000000000000
310
0000000000000000000000000000000000000000000000000000000000000000
310
0000000000000000000000000000000000000000000000000000000000000000
310
0000000000000000000000000000000000000000000000000000000000000000
310
0000000000000000000000000000000000000000000000000000000000000000
310
20260000424D0E260000000000003E00000028000000B40200006E0000000100
310
01000000000000000000130B0000130B00000200000002000000000000FFFFFF
310
FFFFFFFFFFFFFFFFFFFFFFFFFFFFFFFFFFFFFFFFFFFFFFFFFFFFFFFFFFFFFFFF
310
FFFFFFFFFFFFFFFFFFFFFFFFFFFFFFFFFFFFFFFFFFFFFFFFFFFFFFFFFFFFFFFF
310
FFFFFFFFFFFFFFFFFFFFFFFFFFFFFFFFFFFFFFFFFFFFFFFFF000FFFFFFFFFFFF
310
FFFFFFFFFFFFFFFFFFFFFFFFFFFFFFFFFFFFFFFFFFFFFFFFFFFFFFFFFFFFFFFF
310
FFFFFFFFFFFFFFFFFFFFFFFFFFFFFFFFFFFFFFFFFFFFFFFFFFFFFFFFFFFFFFFF
310
FFFFFFFFFFFFFFFFFFFFFFFFFFFFFFFFF000FFFFFFFFFFFFFFFFFFFFFFFFFFFF
310
FFFFFFFFFFFFFFFFFFFFFFFFFFFFFFFFFFFFFFFFFFFFFFFFFFFFFFFFFFFFFFFF
310
FFFFFFFFFFFFFFFFFFFFFFFFFFFFFFFFFFFFFFFFFFFFFFFFFFFFFFFFFFFFFFFF
310
FFFFFFFFFFFFFFFFF000FFFFFFFFFFFFFFFFFFFFFFFFFFFFFFFFFFFFFFFFFFFF
310
FFFFFFFFFFFFFFFFFFFFFFFFFFFFFFFFFFFFFFFFFFFFFFFFFFFFFFFFFFFFFFFF
310
FFFFFFFFFFFFFFFFFFFFFFFFFFFFFFFFFFFFFFFFFFFFFFFFFFFFFFFFFFFFFFFF
310
F000FFFFFFFFFFFFFFFFFFFFFFFFFFFFFFFFFFFFFFFFFFFFFFFFFFFFFFFFFFFF
310
FFFFFFFFFFFFFFFFFFFFFFFFFFFFFFFFFFFFFFFFFFFFFFFFFFFFFFFFFFFFFFFF
310
FFFFFFFFFFFFFFFFFFFFFFFFFFFFFFFFFFFFFFFFFFFFFFFFF000FFFFFFFFFFFF
310
FFFFFFFFFFFFFFFFFFFFFFFFFFFFFFFFFFFFFFFFFFFFFFFFFFFFFFFFFFFFFFFF
310
FFFFFFFFFFFFFFFFFFFFFFFFFFFFFFFFFFFFFFFFFFFFFFFFFFFFFFFFFFFFFFFF
310
FFFFFFFFFFFFFFFFFFFFFFFFFFFFFFFFF000FFFFFFFFFFFFFFFFFFFFFFFFFFFF
310
FFFFFFFFFFFFFFFFFFFFFFFFFFFFFFFFFFFFFFFFFFFFFFFFFFFFFFFFFFFFFFFF
310
FFFFFFFFFFFFFFFFFFFFFFFFFFFFFFFFFFFFFFFFFFFFFFFFFFFFFFFFFFFFFFFF
310
FFFFFFFFFFFFFFFFF000FFFFFFFFFFFFFFFFFFFFFFFFFFFFFFFFFFFFFFFFFFFF
310
FFFFFFFFFFFFFFFFFFFFFFFFFFFFFFFFFFFFFFFFFFFFFFFFFFFFFFFFFFFFFFFF
310
FFFFFFFFFFFFFFFFFFFFFFFFFFFFFFFFFFFFFFFFFFFFFFFFFFFFFFFFFFFFFFFF
310
F000FFFFFFFFFFFFFFFFFFFFFFFFFFFFFFFFFFFFFFFFFFFFFFFFFFFFFFFFFFFF
310
FFFFFFFFFFFFFFFFFFFFFFFFFFFFFFFFFFFFFFFFFFFFFFFFFFFFFFFFFFFFFFFF
310
FFFFFFFFFFFFFFFFFFFFFFFFFFFFFFFFFFFFFFFFFFFFFFFFF000FFFFFFFFFFFF
310
FFFFFFFFFFFFFFFFFFFFFFFFFFFFFFFFFFFFFFFFFFFFFFFFFFFFFFFFFFFFFFFF
310
FFFFFFFFFFFFFFFFFFFFFFFFFFFFFFFFFFFFFFFFFFFFFFFFFFFFFFFFFFFFFFFF
310
FFFFFFFFFFFFFFFFFFFFFFFFFFFFFFFFF000FFFFFFFFFFFFFFFFFFFFFFFFFFFF
310
FFFFFFFFFFFFFFFFFFFFFFFFFFFFFFFFFFFFFFFFFFFFFFFFFFFFFFFFFFFFFFFF
310
FFFFFFFFFFFFFFFFFFFFFFFFFFFFFFFFFFFFFFFFFFFFFFFFFFFFFFFFFFFFFFFF
310
FFFFFFFFFFFFFFFFF000FFFFFFFFFFFFFFFFFFFFFFFFFFFFFFFFFFFFFFFFFFFF
310
FFFFFFFFFFFFFFFFFFFFFFFFFFFFFFFFFFFFFFFFFFFFFFFFFFFFFFFFFFFFFFFF
310
FFFFFFFFFFFFFFFFFFFFFFFFFFFFFFFFFFFFFFFFFFFFFFFFFFFFFFFFFFFFFFFF
310
F000FFFFFFFFFFFFFFFFFFFFFFFFFFFFFFFFFFFFFFFFFFFFFFFFFFFFFFFFFFFF
310
FFFFFFFFFFFFFFFFFFFFFFFFFFFFFFFFFFFFFFFFFFFFFFFFFFFFFFFFFFFFFFFF
310
FFFFFFFFFFFFFFFFFFFFFFFFFFFFFFFFFFFFFFFFFFFFFFFFF000FFFFFFFFFFFF
310
FFFFFFFFFFFFFFFFFFFFFFFFFFFFFFFFFFFFFFFFFFFFFFFFFFFFFFFFFFFFFFFF
310
FFFFFFFFFFFFFFFFFFFFFFFFFFFFFFFFFFFFFFFFFFFFFFFFFFFFFFFFFFFFFFFF
310
FFFFFFFFFFFFFFFFFFFFFFFFFFFFFFFFF000FFFFFFFFFFFFFFFFFFFFFFFFFFFF
310
FFFFFFFFFFFFFFFFFFFFFFFFFFFFFFFFFFFFFFFFFFFFFFFFFFFFFFFFFFFFFFFF
310
FFFFFFFFFFFFFFFFFFFFFFFFFFFFFFFFFFFFFFFFFFFFFFFFFFFFFFFFFFFFFFFF
310
FFFFFFFFFFFFFFFFF000FFFFFFFFFFFFFFFFFFFFFFFFFFFFFFFFFFFFFFFFFFFF
310
FFFFFFFFFFFFFFFFFFFFFFFFFFFFFFFFFFFFFFFFFFFFFFFFFFFFFFFFFFFFFFFF
310
FFFFFFFFFFFFFFFFFFFFFFFFFFFFFFFFFFFFFFFFFFFFFFFFFFFFFFFFFFFFFFFF
310
F000FFFFFFFFFFFFFFFFFFFFFFFFFFFFFFFFFFFFFFFFFFFFFFFFFFFFFFFFFFFF
310
FFFFFFFFFFFFFFFFFFFFFFFFFFFFFFFFFFFFFFFFFFFFFFFFFFFFFFFFFFFFFFFF
310
FFFFFFFFFFFFFFFFFFFFFFFFFFFFFFFFFFFFFFFFFFFFFFFFF000FFFFFFFFFFFF
310
FFFFFFFFFFFFFFFFFFFFFFFFFFFFFFFFFFFFFFFFFFFFFFFFFFFFFFFFFFFFFFFF
310
FFFFFFFFFFFFFFFFFFFFFFFFFFFFFFFFFFFFFFFFFFFFFFFFFFFFFFFFFFFFFFFF
310
FFFFFFFFFFFFFFFFFFFFFFFFFFFFFFFFF000FFFFFFFFFFFFFFFFFFFFFFFFFFFF
310
FFFFFFFFFFFFFFFFFFFFFFFFFFFFFFFFFFFFFFFFFFFFFFFFFFFFFFFFFFFFFFFF
310
FFFFFFFFFFFFFFFFFFFFFFFFFFFFFFFFFFFFFFFFFFFFFFFFFFFFFFFFFFFFFFFF
310
FFFFFFFFFFFFFFFFF000FFFFF80003FFFFFFFFFFFFFFFFFFFFFFFFFFFFFFFFFF
310
FFFFF00007FFFFFFFFFF00007FFFFFF800000000000000007FFFFFFFFFFFFFFF
310
FFFFFFFC001FFFFFFFFFFFFFFC001FFFFFFFFFFFFFFFFFFFFFFFFFFE0007FFFF
310
F000FFFF8000007FFFFFFFF8000FFFFFC0007FFFFF80007FFFFF0000007FFFFF
310
FFF8000007FFFFF800000000000000007FFFFFF0001FFFFFFFFFFFC00001FFFF
310
FFFFFFFFC00001FFFFFFFF000000000003FFFFE000007FFFF000FFFE0000000F
310
FFFFFFF0000FFFFF80007FFFFF80007FFFFC0000001FFFFFFFC0000001FFFFF8
310
00000000000000007FFFFFF0001FFFFFFFFFFE0000003FFFFFFFFFFE0000003F
310
FFFFFF000000000003FFFF0000000FFFF000FFF800000003FFFFFFF00007FFFF
310
80007FFFFF80007FFFF000000007FFFFFF000000003FFFF80000000000000000
310
7FFFFFF0001FFFFFFFFFF80000000FFFFFFFFFF80000000FFFFFFF0000000000
310
03FFFC00000003FFF000FFE000000000FFFFFFF00007FFFF80003FFFFF80007F
310
FFC000000001FFFFFC000000001FFFF800000000000000007FFFFFF0001FFFFF
310
FFFFE000000003FFFFFFFFE000000003FFFFFF000000000003FFF000000000FF
310
F000FF80000000007FFFFFF00007FFFF80003FFFFF80007FFF8000000000FFFF
310
F80000000007FFF800000000000000007FFFFFF0001FFFFFFFFFC000000001FF
310
FFFFFFC000000001FFFFFF000000000003FFC0000000007FF000FF0000000000
310
3FFFFFE00007FFFF00003FFFFF80007FFE00000000003FFFF00000000003FFF8
310
00000000000000007FFFFFF0001FFFFFFFFF8000000000FFFFFFFF8000000000
310
FFFFFF000000000003FF80000000003FF000FE00000000001FFFFFE00003FFFF
310
00003FFFFF80007FFC00000000001FFFE00000000001FFF8000001FFFE000000
310
7FFFFFF0001FFFFFFFFE00000000003FFFFFFE00000000003FFFFF0000000000
310
03FF00000000001FF000FC00000000000FFFFFE00003FFFF00001FFFFF80007F
310
F800000000001FFFC00000000000FFF8000001FFFE0000007FFFFFF0001FFFFF
310
FFFC00000000001FFFFFFC00000000001FFFFF000000000003FE00000000000F
310
F000F8000000000007FFFFE00003FFFF00001FFFFF80007FF800000000000FFF
310
800000000000FFF8000001FFFE0000007FFFFFF0001FFFFFFFF800000000000F
310
FFFFF800000000000FFFFF000000000003FC000000000007F000F80000000000
310
03FFFFC00003FFFE00001FFFFF80007FF0000000000007FF0000000000007FF8
310
000001FFFE0000007FFFFFF0001FFFFFFFF0000000000007FFFFF00000000000
310
07FFFF000000000003F8000000000003F000F0000000000003FFFFC00001FFFE
310
00001FFFFF80007FE0000000000007FE0000000000003FF8000001FFFE000000
310
7FFFFFF0001FFFFFFFF0000000000007FFFFF0000000000007FFFF0000000000
310
03F800001F800003F000E00001FFF00001FFFFC00001FFFE00000FFFFF80007F
310
E00001FFE00003FE00001FFF00003FF8000001FFFE0000007FFFFFF0001FFFFF
310
FFE000003E000003FFFFE000003E000003FFFF000000000003F00001FFF80001
310
F000E00007FFFC0001FFFFC00001FFFE00000FFFFF80007FC0000FFFFC0003FC
310
0000FFFFC0001FF8000001FFFE0000007FFFFFF0001FFFFFFFC00003FFE00001
310
FFFFC00003FFE00001FFFF0001FFFFFFFFF00007FFFE0001F000E0000FFFFF00
310
00FFFF800001FFFC00000FFFFF80007FC0001FFFFE0001FC0001FFFFE0001FF8
310
000001FFFE0000007FFFFFF0001FFFFFFF80000FFFF80000FFFF80000FFFF800
310
00FFFF0003FFFFFFFFE0000FFFFF8000F000C0003FFFFF8000FFFF800000FFFC
310
000007FFFF80007F80003FFFFF0001FC0003FFFFF0001FF8000001FFFE000000
310
7FFFFFF0001FFFFFFF80003FFFFE0000FFFF80003FFFFE0000FFFF0003FFFFFF
310
FFE0003FFFFF8000F000C0003FFFFF8000FFFF800000FFFC000007FFFF80007F
310
80007FFFFF8001F80007FFFFF8000FF8000001FFFE0000007FFFFFF0001FFFFF
310
FF00007FFFFF00007FFF00007FFFFF00007FFF0003FFFFFFFFE0003FFFFFC000
310
F000C0007FFFFFC000FFFF000000FFFC000007FFFF80007F8000FFFFFF8000F8
310
000FFFFFF8000FF8000001FFFE0000007FFFFFF0001FFFFFFF0000FFFFFF8000
310
7FFF0000FFFFFF80007FFF0003FFFFFFFFC0007FFFFFC00070008000FFFFFFC0
310
00FFFF000000FFF8000007FFFF80007F8000FFFFFF8000F8000FFFFFF8000FF8
310
000001FFFE0000007FFFFFF0001FFFFFFE0001FFFFFFC0003FFE0001FFFFFFC0
310
003FFF0003FFFFFFFFC0007FFFFFE00070008000FFFFFFC0007FFF0000007FF8
310
000003FFFF80007F0001FFFFFF8000F8000FFFFFF8000FF8000001FFFE000000
310
7FFFFFF0001FFFFFFE0001FFFFFFC0003FFE0001FFFFFFC0003FFF0003FFFFFF
310
FFC000FFFFFFE00070008000FFFFFFC0007FFF0000007FF8000003FFFF80007F
310
0001FFFFFF8000F8001FFFFFF8000FF8000001FFFE0000007FFFFFF0001FFFFF
310
FE0003FFFFFFE0003FFE0003FFFFFFE0003FFF0003FFFFFFFFC000FFFFFFE000
310
70008000FFFFFFC0007FFE0000007FF8000003FFFF80007F0001FFFFFF8000F0
310
001FFFFFF8000FF8000001FFFE0000007FFFFFF0001FFFFFFC0003FFFFFFE000
310
1FFC0003FFFFFFE0001FFF0003FFFFFFFFC000FFFFFFC00070008000FFFFFF80
310
007FFE0000007FF0000003FFFF80007F0001FFFFFF0000F0001FFFFFF8000FF8
310
000001FFFE0000007FFFFFF0001FFFFFFC0007FFFFFFF0001FFC0007FFFFFFF0
310
001FFF0003FFFFFFFFC000FFFFFFC00070008001FFFFFF0000FFFE0000003FF0
310
000001FFFF80007F0001FFFFFF0000F8001FFFFFF0000FF8000001FFFE000000
310
7FFFFFF0001FFFFFFC0007FFFFFFF0001FFC0007FFFFFFF0001FFF0003FFFFFF
310
FFC001FFFFFF80007000FFFFFFFFFE0000FFFE0008003FF0008001FFFF80007F
310
FFFFFFFFFC0000FFFFFFFFFFE0000FF8000001FFFE0000007FFFFFF0001FFFFF
310
F8000FFFFFFFF8000FF8000FFFFFFFF8000FFF0003FFFFFFFFFFFFFFFFFF0000
310
7000FFFFFFFFFC0000FFFC0008003FF0008001FFFF80007FFFFFFFFFF80001FF
310
FFFFFFFF80000FF8000001FFFE0000007FFFFFF0001FFFFFF8000FFFFFFFF800
310
0FF8000FFFFFFFF8000FFF0003FFFFFFFFFFFFFFFFFE0000F000FFFFFFFFE000
310
00FFFC000C003FE000C001FFFF80007FFFFFFFFFC00001FFFFFFFFFE00001FF8
310
000001FFFE0000007FFFFFF0001FFFFFF8000FFFFFFFF8000FF8000FFFFFFFF8
310
000FFF0003FFFFFFFFFFFFFFFFF00000F000FFFFFFFE000001FFFC000C001FE0
310
00C000FFFF80007FFFFFFFFE000001FFFFFFFFE000001FF80FFFFFFFFFFFFFC0
310
7FFFFFF0001FFFFFF8000FFFFFFFF8000FF8000FFFFFFFF8000FFF0003FFFFFF
310
FFFFFFFFFF800000F000FFFFFFC0000001FFFC001C001FE001C000FFFF80007F
310
FFFFFF80000003FFFFFFF80000001FF80FFFFFFFFFFFFFC07FFFFFF0001FFFFF
310
F8001FFFFFFFFC000FF8001FFFFFFFFC000FFF0003FFFFFFFFFFFFFFF0000001
310
F000FFFFF800000001FFF8001C001FE001C000FFFF80007FFFFFF800000003FF
310
FFFF800000003FF80FFFFFFFFFFFFFC07FFFFFF0001FFFFFF8001FFFFFFFFC00
310
0FF8001FFFFFFFFC000FFF0003FFFFFFFFFFFFFE00000001F000FFFFC0000000
310
03FFF8001E001FC001E000FFFF80007FFFFF8000000007FFFFFC000000003FF8
310
0FFFFFFFFFFFFFC07FFFFFF0001FFFFFF8001FFFFFFFFC000FF8001FFFFFFFFC
310
000FFF0003FFFFFFFFFFFFE000000003F000FFFE0000000007FFF8001E000FC0
310
01E0007FFF80007FFFFE0000000007FFFFE0000000007FF80FFFFFFFFFFFFFC0
310
7FFFFFF0001FFFFFF0001FFFFFFFFC0007F0001FFFFFFFFC0007FF0003FFFFFF
310
FFFFFF0000000003F000FFF80000000007FFF8001E000FC003E0007FFF80007F
310
FFF0000000000FFFFF8000000000FFF80FFFFFFFFFFFFFC07FFFFFF0001FFFFF
310
F0001FFFFFFFFC0007F0001FFFFFFFFC0007FF0003FFFFFFFFFFFC0000000007
310
F000FFE0000000000FFFF0003E000FC003E0007FFF80007FFFC0000000001FFF
310
FE0000000001FFF80FFFFFFFFFFFFFC07FFFFFF0001FFFFFF0001FFFFFFFFC00
310
07F0001FFFFFFFFC0007FF0003FFFFFFFFFFF0000000000FF000FFC000000000
310
1FFFF0003F000F8003F0003FFF80007FFF80000000003FFFF80000000003FFF8
310
0FFFFFFFFFFFFFC07FFFFFF0001FFFFFF0001FFFFFFFFC0007F0001FFFFFFFFC
310
0007FF0003FFFFFFFFFFE0000000001FF000FF00000000007FFFF0003F000780
310
03F0003FFF80007FFF00000000007FFFF00000000007FFF80FFFFFFFFFFFFFC0
310
7FFFFFF0001FFFFFF0001FFFFFFFFC0007F0001FFFFFFFFC0007FF0003FFFFFF
310
FFFF80000000007FF000FE0000000000FFFFE0003F00078007F0003FFF80007F
310
FE0000000001FFFFE0000000001FFFF80FFFFFFFFFFFFFC07FFFFFF0001FFFFF
310
F0001FFFFFFFFC0007F0001FFFFFFFFC0007FF0003FFFFFFFFFF0000000000FF
310
F000FC0000000003FFFFE0007F00078007F0003FFF80007FFC0000000007FFFF
310
C0000000007FFFF80FFFFFFFFFFFFFC07FFFFFF0001FFFFFF8001FFFFFFFFC00
310
0FF8001FFFFFFFFC000FFF0003FFFFFFFFFE0000000003FFF000FC000000000F
310
FFFFE0007F80070007F8001FFF80007FF8000000001FFFFF8000000001FFFFF8
310
0FFFFFFFFFFFFFC07FFFFFF0001FFFFFF8001FFFFFFFFC000FF8001FFFFFFFFC
310
000FFF0003FFFFFFFFFC000000000FFFF000F8000000007FFFFFE0007F800700
310
07F8001FFF80007FF000000000FFFFFF800000000FFFFFF80FFFFFFFFFFFFFC0
310
7FFFFFF0001FFFFFF8000FFFFFFFF8000FF8000FFFFFFFF8000FFF0003FFFFFF
310
FFFC000000007FFFF000F800000007FFFFFFC0007F8003000FF8001FFF80007F
310
F000000007FFFFFF000000007FFFFFF80FFFFFFFFFFFFFC07FFFFFF0001FFFFF
310
F8000FFFFFFFF8000FF8000FFFFFFFF8000FFF0003FFFFFFFFF80000000FFFFF
310
F000F0000000FFFFFFFFC000FF8003000FF8001FFF80007FE0000000FFFFFFFF
310
0000000FFFFFFFF8000001FFFE0000007FFFFFF0001FFFFFF8000FFFFFFFF800
310
0FF8000FFFFFFFF8000FFF0003FFFFFFFFF8000000FFFFFFF000F000000FFFFF
310
FFFFC000FFC002000FF8000FFF80007FE000001FFFFFFFFE000001FFFFFFFFF8
310
000001FFFE0000007FFFFFF0001FFFFFF8000FFFFFFFF8000FF8000FFFFFFFF8
310
000FFF0003FFFFFFFFF000001FFFFFFFF000E00000FFFFFFFFFFC000FFC00200
310
0FFC000FFF80007FE00001FFFFFFFFFE00001FFFFFFFFFF8000001FFFE000000
310
7FFFFFF0001FFFFFFC000FFFFFFFF8001FFC000FFFFFFFF8001FFF0003FFFFFF
310
FFF00001FFFFFFFFF000E00007FFFFFFFFFF8000FFC000001FFC000FFF80007F
310
C0000FFFFFFFFFFE0000FFFFFFFFFFF8000001FFFE0000007FFFFFF0001FFFFF
310
FC0007FFFFFFF0001FFC0007FFFFFFF0001FFF0003FFFFFFFFF00007FFFFFFFF
310
F000E0001FFFFFFFFFFF8000FFC000001FFC000FFF80007FC0003FFFFFFFFFFE
310
0001FFFFFFFFFFF8000001FFFE0000007FFFFFF0001FFFFFFC0007FFFFFFF000
310
1FFC0007FFFFFFF0001FFF0003FFFFFFFFF0001FFFFFFFFFF000E0003FFFFF00
310
03FF8001FFE000001FFC0007FF80007FC0007FFFFF0007FC0003FFFFF0003FF8
310
000001FFFE0000007FFFFFF0001FFFFFFC0003FFFFFFE0001FFC0003FFFFFFE0
310
001FFF0003FFFFFFFFF0003FFFFFFFFFF000E0003FFFFF0001FF8001FFE00000
310
1FFE0007FF80007FC0007FFFFE0003FC0007FFFFE0003FF8000001FFFE000000
310
7FFFFFF0001FFFFFFE0003FFFFFFE0003FFE0003FFFFFFE0003FFF0003FFFFFF
310
FFF0003FFFFF8001F000E0003FFFFF0001FF0001FFE000001FFE0007FF80007F
310
C0007FFFFE0003FC0007FFFFE0003FF8000001FFFE0000007FFFFFF0001FFFFF
310
FE0001FFFFFFC0003FFE0001FFFFFFC0003FFF0003FFFFFFFFF0003FFFFF0001
310
F000E0003FFFFF0003FF0001FFE000003FFE0007FF80007FC0007FFFFE0003FC
310
0007FFFFE0003FF8000001FFFE0000007FFFFFF0001FFFFFFF0001FFFFFFC000
310
7FFF0001FFFFFFC0007FFF0003FFFFFFFFF0003FFFFF0001F000E0003FFFFE00
310
03FF0003FFF000003FFE0003FF80007FC0007FFFFC0003FE0007FFFFE0003FF8
310
000001FFFE0000007FFFFFF0001FFFFFFF0000FFFFFF80007FFF0000FFFFFF80
310
007FFF0003FFFFFFFFF0003FFFFF0001F000E0003FFFFE0003FF0003FFF00000
310
3FFF0003FF80007FC0007FFFFC0007FE0007FFFFC0003FF8000001FFFE000000
310
7FFFFFF0001FFFFFFF80007FFFFF0000FFFF80007FFFFF0000FFFF0003FFFFFF
310
FFF0003FFFFF0003F000E0003FFFFC0003FE0003FFF000003FFF0003FF80007F
310
E0003FFFF80007FE0003FFFFC0007FF8000001FFFE0000007FFFFFF0001FFFFF
310
FF80003FFFFE0000FFFF80003FFFFE0000FFFF0003FFFFFFFFF0001FFFFE0003
310
F000F0001FFFF80003FE0003FFF000007FFF0001FF80007FE0003FFFF00007FE
310
0001FFFF80007FF8000001FFFE0000007FFFFFF0001FFFFFFFC0000FFFF80001
310
FFFFC0000FFFF80001FFFF0003FFFFFFFFF0001FFFFC0003F000F0000FFFF000
310
07FE0007FFF800007FFF0001FF80007FE0001FFFE00007FF0000FFFE00007FF8
310
000001FFFE0000007FFFFFF0001FFFFFFFC00003FFE00001FFFFC00003FFE000
310
01FFFF0003FFFFFFFFF8000FFFF80003F000F00003FFC00007FC0007FFF80000
310
7FFF8001FF80007FF00007FF80000FFF00007FF80000FFF8000001FFFE000000
310
7F80000000000001FFE000003E000003FFFFE000003E000003FFFF0003FFFFFF
310
FFF80003FFE00007F000F800000000000FFC0007FFF800007FFF8001FF80007F
310
F000000000000FFF000000000000FFF8000001FFFE0000007F80000000000001
310
FFF0000000000007FFFFF0000000000007FFFF0003FFFFFFFFFC00007E000007
310
F000F800000000000FFC0007FFF80000FFFF8000FF80007FF800000000001FFF
310
800000000001FFF8000001FFFE0000007F80000000000001FFF800000000000F
310
FFFFF800000000000FFFFF0003FFFFFFFFFC00000000000FF000FC0000000000
310
1FFC0007FFFC0000FFFF8000FF80007FF800000000003FFFC00000000001FFF8
310
000001FFFE0000007F80000000000001FFF800000000000FFFFFF80000000000
310
0FFFFF0003FFFFFFFFFE00000000001FF000FE00000000003FF8000FFFFC0000
310
FFFF8000FF80007FFC00000000003FFFC00000000003FFF8000001FFFE000000
310
7F80000000000001FFFC00000000001FFFFFFC00000000001FFFFF0003FFFFFF
310
FFFF00000000001FF000FF00000000003FF8000FFFFC0000FFFFC000FF80007F
310
FE00000000007FFFE00000000007FFF8000001FFFE0000007F80000000000001
310
FFFE00000000003FFFFFFE00000000003FFFFF0003FFFFFFFFFF80000000003F
310
F000FF80000000007FF8000FFFFC0001FFFFC0007F80007FFF0000000000FFFF
310
F0000000000FFFF800000000000000007F80000000000001FFFF8000000000FF
310
FFFFFF8000000000FFFFFF0003FFFFFFFFFFC0000000007FF000FFC000000000
310
FFF8000FFFFE0001FFFFC0007F80007FFF8000000001FFFFF8000000001FFFF8
310
00000000000000007F80000000000001FFFFC000000001FFFFFFFFC000000001
310
FFFFFF0003FFFFFFFFFFE000000000FFF000FFE000000003FFF0001FFFFE0001
310
FFFFC0007F80007FFFC000000007FFFFFE000000003FFFF80000000000000000
310
7F80000000000001FFFFE000000003FFFFFFFFE000000003FFFFFF0003FFFFFF
310
FFFFF000000003FFF000FFF80000000FFFF0001FFFFE0001FFFFE0007F80007F
310
FFF00000000FFFFFFF00000000FFFFF800000000000000007F80000000000001
310
FFFFF80000000FFFFFFFFFF80000000FFFFFFF0003FFFFFFFFFFFC0000000FFF
310
F000FFFE0000003FFFF0001FFFFE0003FFFFE0003F80007FFFFC0000003FFFFF
310
FFC0000003FFFFF800000000000000007F80000000000001FFFFFE0000003FFF
310
FFFFFFFE0000003FFFFFFF0003FFFFFFFFFFFF0000003FFFF000FFFF800000FF
310
FFF0001FFFFF0003FFFFE0003F80007FFFFF000001FFFFFFFFF800001FFFFFF8
310
00000000000000007F80000000000001FFFFFFC00001FFFFFFFFFFFFC00001FF
310
FFFFFF0003FFFFFFFFFFFFC00000FFFFF000FFFFF8000FFFFFFFFFFFFFFFFFFF
310
FFFFFFFFFFFFFFFFFFFFF0001FFFFFFFFFFF0000FFFFFFF80000000000000000
310
7FFFFFFFFFFFFFFFFFFFFFFC001FFFFFFFFFFFFFFC001FFFFFFFFFFFFFFFFFFF
310
FFFFFFFC001FFFFFF000FFFFFFFFFFFFFFFFFFFFFFFFFFFFFFFFFFFFFFFFFFFF
310
FFFFFFFFFFFFFFFFFFFFFFFFFFFFFFFFFFFFFFFFFFFFFFFFFFFFFFFFFFFFFFFF
310
FFFFFFFFFFFFFFFFFFFFFFFFFFFFFFFFFFFFFFFFFFFFFFFFFFFFFFFFFFFFFFFF
310
F000FFFFFFFFFFFFFFFFFFFFFFFFFFFFFFFFFFFFFFFFFFFFFFFFFFFFFFFFFFFF
310
FFFFFFFFFFFFFFFFFFFFFFFFFFFFFFFFFFFFFFFFFFFFFFFFFFFFFFFFFFFFFFFF
310
FFFFFFFFFFFFFFFFFFFFFFFFFFFFFFFFFFFFFFFFFFFFFFFFF000FFFFFFFFFFFF
310
FFFFFFFFFFFFFFFFFFFFFFFFFFFFFFFFFFFFFFFFFFFFFFFFFFFFFFFFFFFFFFFF
310
FFFFFFFFFFFFFFFFFFFFFFFFFFFFFFFFFFFFFFFFFFFFFFFFFFFFFFFFFFFFFFFF
310
FFFFFFFFFFFFFFFFFFFFFFFFFFFFFFFFF000FFFFFFFFFFFFFFFFFFFFFFFFFFFF
310
FFFFFFFFFFFFFFFFFFFFFFFFFFFFFFFFFFFFFFFFFFFFFFFFFFFFFFFFFFFFFFFF
310
FFFFFFFFFFFFFFFFFFFFFFFFFFFFFFFFFFFFFFFFFFFFFFFFFFFFFFFFFFFFFFFF
310
FFFFFFFFFFFFFFFFF000FFFFFFFFFFFFFFFFFFFFFFFFFFFFFFFFFFFFFFFFFFFF
310
FFFFFFFFFFFFFFFFFFFFFFFFFFFFFFFFFFFFFFFFFFFFFFFFFFFFFFFFFFFFFFFF
310
FFFFFFFFFFFFFFFFFFFFFFFFFFFFFFFFFFFFFFFFFFFFFFFFFFFFFFFFFFFFFFFF
310
F000FFFFFFFFFFFFFFFFFFFFFFFFFFFFFFFFFFFFFFFFFFFFFFFFFFFFFFFFFFFF
310
FFFFFFFFFFFFFFFFFFFFFFFFFFFFFFFFFFFFFFFFFFFFFFFFFFFFFFFFFFFFFFFF
310
FFFFFFFFFFFFFFFFFFFFFFFFFFFFFFFFFFFFFFFFFFFFFFFFF000FFFFFFFFFFFF
310
FFFFFFFFFFFFFFFFFFFFFFFFFFFFFFFFFFFFFFFFFFFFFFFFFFFFFFFFFFFFFFFF
310
FFFFFFFFFFFFFFFFFFFFFFFFFFFFFFFFFFFFFFFFFFFFFFFFFFFFFFFFFFFFFFFF
310
FFFFFFFFFFFFFFFFFFFFFFFFFFFFFFFFF000FFFFFFFFFFFFFFFFFFFFFFFFFFFF
310
FFFFFFFFFFFFFFFFFFFFFFFFFFFFFFFFFFFFFFFFFFFFFFFFFFFFFFFFFFFFFFFF
310
FFFFFFFFFFFFFFFFFFFFFFFFFFFFFFFFFFFFFFFFFFFFFFFFFFFFFFFFFFFFFFFF
310
FFFFFFFFFFFFFFFFF000FFFFFFFFFFFFFFFFFFFFFFFFFFFFFFFFFFFFFFFFFFFF
310
FFFFFFFFFFFFFFFFFFFFFFFFFFFFFFFFFFFFFFFFFFFFFFFFFFFFFFFFFFFFFFFF
310
FFFFFFFFFFFFFFFFFFFFFFFFFFFFFFFFFFFFFFFFFFFFFFFFFFFFFFFFFFFFFFFF
310
F000FFFFFFFFFFFFFFFFFFFFFFFFFFFFFFFFFFFFFFFFFFFFFFFFFFFFFFFFFFFF
310
FFFFFFFFFFFFFFFFFFFFFFFFFFFFFFFFFFFFFFFFFFFFFFFFFFFFFFFFFFFFFFFF
310
FFFFFFFFFFFFFFFFFFFFFFFFFFFFFFFFFFFFFFFFFFFFFFFFF000FFFFFFFFFFFF
310
FFFFFFFFFFFFFFFFFFFFFFFFFFFFFFFFFFFFFFFFFFFFFFFFFFFFFFFFFFFFFFFF
310
FFFFFFFFFFFFFFFFFFFFFFFFFFFFFFFFFFFFFFFFFFFFFFFFFFFFFFFFFFFFFFFF
310
FFFFFFFFFFFFFFFFFFFFFFFFFFFFFFFFF000FFFFFFFFFFFFFFFFFFFFFFFFFFFF
310
FFFFFFFFFFFFFFFFFFFFFFFFFFFFFFFFFFFFFFFFFFFFFFFFFFFFFFFFFFFFFFFF
310
FFFFFFFFFFFFFFFFFFFFFFFFFFFFFFFFFFFFFFFFFFFFFFFFFFFFFFFFFFFFFFFF
310
FFFFFFFFFFFFFFFFF000FFFFFFFFFFFFFFFFFFFFFFFFFFFFFFFFFFFFFFFFFFFF
310
FFFFFFFFFFFFFFFFFFFFFFFFFFFFFFFFFFFFFFFFFFFFFFFFFFFFFFFFFFFFFFFF
310
FFFFFFFFFFFFFFFFFFFFFFFFFFFFFFFFFFFFFFFFFFFFFFFFFFFFFFFFFFFFFFFF
310
F000FFFFFFFFFFFFFFFFFFFFFFFFFFFFFFFFFFFFFFFFFFFFFFFFFFFFFFFFFFFF
310
FFFFFFFFFFFFFFFFFFFFFFFFFFFFFFFFFFFFFFFFFFFFFFFFFFFFFFFFFFFFFFFF
310
FFFFFFFFFFFFFFFFFFFFFFFFFFFFFFFFFFFFFFFFFFFFFFFFF000FFFFFFFFFFFF
310
FFFFFFFFFFFFFFFFFFFFFFFFFFFFFFFFFFFFFFFFFFFFFFFFFFFFFFFFFFFFFFFF
310
FFFFFFFFFFFFFFFFFFFFFFFFFFFFFFFFFFFFFFFFFFFFFFFFFFFFFFFFFFFFFFFF
310
FFFFFFFFFFFFFFFFFFFFFFFFFFFFFFFFF000FFFFFFFFFFFFFFFFFFFFFFFFFFFF
310
FFFFFFFFFFFFFFFFFFFFFFFFFFFFFFFFFFFFFFFFFFFFFFFFFFFFFFFFFFFFFFFF
310
FFFFFFFFFFFFFFFFFFFFFFFFFFFFFFFFFFFFFFFFFFFFFFFFFFFFFFFFFFFFFFFF
310
FFFFFFFFFFFFFFFFF000FFFFFFFFFFFFFFFFFFFFFFFFFFFFFFFFFFFFFFFFFFFF
310
FFFFFFFFFFFFFFFFFFFFFFFFFFFFFFFFFFFFFFFFFFFFFFFFFFFFFFFFFFFFFFFF
310
FFFFFFFFFFFFFFFFFFFFFFFFFFFFFFFFFFFFFFFFFFFFFFFFFFFFFFFFFFFFFFFF
310
F000FFFFFFFFFFFFFFFFFFFFFFFFFFFFFFFFFFFFFFFFFFFFFFFFFFFFFFFFFFFF
310
FFFFFFFFFFFFFFFFFFFFFFFFFFFFFFFFFFFFFFFFFFFFFFFFFFFFFFFFFFFFFFFF
310
FFFFFFFFFFFFFFFFFFFFFFFFFFFFFFFFFFFFFFFFFFFFFFFFF000FFFFFFFFFFFF
310
FFFFFFFFFFFFFFFFFFFFFFFFFFFFFFFFFFFFFFFFFFFFFFFFFFFFFFFFFFFFFFFF
310
FFFFFFFFFFFFFFFFFFFFFFFFFFFFFFFFFFFFFFFFFFFFFFFFFFFFFFFFFFFFFFFF
310
FFFFFFFFFFFFFFFFFFFFFFFFFFFFFFFFF000FFFFFFFFFFFFFFFFFFFFFFFFFFFF
310
FFFFFFFFFFFFFFFFFFFFFFFFFFFFFFFFFFFFFFFFFFFFFFFFFFFFFFFFFFFFFFFF
310
FFFFFFFFFFFFFFFFFFFFFFFFFFFFFFFFFFFFFFFFFFFFFFFFFFFFFFFFFFFFFFFF
310
FFFFFFFFFFFFFFFFF000FFFFFFFFFFFFFFFFFFFFFFFFFFFFFFFFFFFFFFFFFFFF
310
FFFFFFFFFFFFFFFFFFFFFFFFFFFFFFFFFFFFFFFFFFFFFFFFFFFFFFFFFFFFFFFF
310
FFFFFFFFFFFFFFFFFFFFFFFFFFFFFFFFFFFFFFFFFFFFFFFFFFFFFFFFFFFFFFFF
310
F000FFFFFFFFFFFFFFFFFFFFFFFFFFFFFFFFFFFFFFFFFFFFFFFFFFFFFFFFFFFF
310
FFFFFFFFFFFFFFFFFFFFFFFFFFFFFFFFFFFFFFFFFFFFFFFFFFFFFFFFFFFFFFFF
310
FFFFFFFFFFFFFFFFFFFFFFFFFFFFFFFFFFFFFFFFFFFFFFFFF000FFFFFFFFFFFF
310
FFFFFFFFFFFFFFFFFFFFFFFFFFFFFFFFFFFFFFFFFFFFFFFFFFFFFFFFFFFFFFFF
310
FFFFFFFFFFFFFFFFFFFFFFFFFFFFFFFFFFFFFFFFFFFFFFFFFFFFFFFFFFFFFFFF
310
FFFFFFFFFFFFFFFFFFFFFFFFFFFFFFFFF0000000000000000000000000000000
310
0000000000000000000000000000000000000000000000000000000000000000
310
0000000000000000000000000000000000000000000000000000000000000000
310
0000000000000000000000000000000000000000000000000000000000000000
310
0000000000000000000000000000000000000000000000000000000000000000
310
0000000000000000000000000000000000000000000000000000000000000000
310
0000000000000000000000000000000000000000000000000000000000000000
310
0000000000000000000000000000000000000000000000000000000000000000
310
0000000000000000000000000000000000000000000000000000000000000000
310
0000000000000000000000000000000000000000000000000000000000000000
310
0000000000000000000000000000000000000000000000000000000000000000
310
0000000000000000000000000000000000000000000000000000000000000000
310
0000000000000000000000000000000000000000000000000000000000000000
310
0000000000000000000000000000000000000000000000000000000000000000
310
0000000000000000000000000000000000000000000000000000000000000000
310
0000000000000000000000000000000000000000000000000000000000000000
  1
OLE
  0
ENDSEC
  0
SECTION
  2
OBJECTS
  0
DICTIONARY
  5
C
330
0
100
AcDbDictionary
281
     1
  3
ACAD_GROUP
350
D
  3
ACAD_LAYOUT
350
1A
  3
ACAD_MLINESTYLE
350
17
  3
ACAD_PLOTSETTINGS
350
19
  3
ACAD_PLOTSTYLENAME
350
E
  0
DICTIONARY
  5
D
102
{ACAD_REACTORS
330
C
102
}
330
C
100
AcDbDictionary
281
     1
  0
DICTIONARY
  5
1A
102
{ACAD_REACTORS
330
C
102
}
330
C
100
AcDbDictionary
281
     1
  3
Layout1
350
1E
  3
Layout2
350
26
  3
Model
350
22
  0
DICTIONARY
  5
17
102
{ACAD_REACTORS
330
C
102
}
330
C
100
AcDbDictionary
281
     1
  3
Standard
350
18
  0
DICTIONARY
  5
19
102
{ACAD_REACTORS
330
C
102
}
330
C
100
AcDbDictionary
281
     1
  0
ACDBDICTIONARYWDFLT
  5
E
102
{ACAD_REACTORS
330
C
102
}
330
C
100
AcDbDictionary
281
     1
  3
Normal
350
F
100
AcDbDictionaryWithDefault
340
F
  0
LAYOUT
  5
1E
102
{ACAD_REACTORS
330
1A
102
}
330
1A
100
AcDbPlotSettings
  1

  2
none_device
  4

  6

 40
0.0
 41
0.0
 42
0.0
 43
0.0
 44
0.0
 45
0.0
 46
0.0
 47
0.0
 48
0.0
 49
0.0
140
0.0
141
0.0
142
1.0
143
1.0
 70
   688
 72
     0
 73
     0
 74
     5
  7

 75
    16
147
1.0
148
0.0
149
0.0
100
AcDbLayout
  1
Layout1
 70
     1
 71
     1
 10
0.0
 20
0.0
 11
420.0
 21
297.0
 12
0.0
 22
0.0
 32
0.0
 14
1.0000000000E+20
 24
1.0000000000E+20
 34
1.0000000000E+20
 15
-1.0000000000E+20
 25
-1.0000000000E+20
 35
-1.0000000000E+20
146
0.0
 13
0.0
 23
0.0
 33
0.0
 16
1.0
 26
0.0
 36
0.0
 17
0.0
 27
1.0
 37
0.0
 76
     0
330
1B
  0
LAYOUT
  5
26
102
{ACAD_REACTORS
330
1A
102
}
330
1A
100
AcDbPlotSettings
  1

  2
none_device
  4

  6

 40
0.0
 41
0.0
 42
0.0
 43
0.0
 44
0.0
 45
0.0
 46
0.0
 47
0.0
 48
0.0
 49
0.0
140
0.0
141
0.0
142
1.0
143
1.0
 70
   688
 72
     0
 73
     0
 74
     5
  7

 75
    16
147
1.0
148
0.0
149
0.0
100
AcDbLayout
  1
Layout2
 70
     1
 71
     2
 10
0.0
 20
0.0
 11
0.0
 21
0.0
 12
0.0
 22
0.0
 32
0.0
 14
0.0
 24
0.0
 34
0.0
 15
0.0
 25
0.0
 35
0.0
146
0.0
 13
0.0
 23
0.0
 33
0.0
 16
1.0
 26
0.0
 36
0.0
 17
0.0
 27
1.0
 37
0.0
 76
     0
330
23
  0
LAYOUT
  5
22
102
{ACAD_REACTORS
330
1A
102
}
330
1A
100
AcDbPlotSettings
  1

  2
none_device
  4

  6

 40
0.0
 41
0.0
 42
0.0
 43
0.0
 44
0.0
 45
0.0
 46
0.0
 47
0.0
 48
0.0
 49
0.0
140
0.0
141
0.0
142
1.0
143
1.0
 70
  1712
 72
     0
 73
     0
 74
     0
  7

 75
     0
147
1.0
148
0.0
149
0.0
100
AcDbLayout
  1
Model
 70
     1
 71
     0
 10
0.0
 20
0.0
 11
297.0
 21
210.0
 12
0.0
 22
0.0
 32
0.0
 14
0.0
 24
0.0
 34
0.0
 15
297.0
 25
210.0
 35
0.0
146
0.0
 13
0.0
 23
0.0
 33
0.0
 16
1.0
 26
0.0
 36
0.0
 17
0.0
 27
1.0
 37
0.0
 76
     0
330
1F
331
29
  0
MLINESTYLE
  5
18
102
{ACAD_REACTORS
330
17
102
}
330
17
100
AcDbMlineStyle
  2
Standard
 70
     0
  3

 62
   256
 51
90.0
 52
90.0
 71
     2
 49
0.5
 62
   256
  6
BYLAYER
 49
-0.5
 62
   256
  6
BYLAYER
  0
ACDBPLACEHOLDER
  5
F
102
{ACAD_REACTORS
330
E
102
}
330
E
  0
ENDSEC
  0
EOF
