  0
SECTION
  2
HEADER
  9
$ACADVER
  1
AC1015
  9
$ACADMAINTVER
 70
     6
  9
$DWGCODEPAGE
  3
ANSI_1252
  9
$INSBASE
 10
0.0
 20
0.0
 30
0.0
  9
$EXTMIN
 10
0.0
 20
0.0
 30
0.0
  9
$EXTMAX
 10
297.0
 20
210.0
 30
0.0
  9
$LIMMIN
 10
0.0
 20
0.0
  9
$LIMMAX
 10
297.0
 20
210.0
  9
$ORTHOMODE
 70
     0
  9
$REGENMODE
 70
     1
  9
$FILLMODE
 70
     1
  9
$QTEXTMODE
 70
     0
  9
$MIRRTEXT
 70
     1
  9
$LTSCALE
 40
1.0
  9
$ATTMODE
 70
     1
  9
$TEXTSIZE
 40
2.0
  9
$TRACEWID
 40
1.0
  9
$TEXTSTYLE
  7
Standard
  9
$CLAYER
  8
0
  9
$CELTYPE
  6
ByLayer
  9
$CECOLOR
 62
   256
  9
$CELTSCALE
 40
1.0
  9
$DISPSILH
 70
     0
  9
$DIMSCALE
 40
1.0
  9
$DIMASZ
 40
3.0
  9
$DIMEXO
 40
0.0
  9
$DIMDLI
 40
3.75
  9
$DIMRND
 40
0.0
  9
$DIMDLE
 40
0.0
  9
$DIMEXE
 40
1.0
  9
$DIMTP
 40
0.0
  9
$DIMTM
 40
0.0
  9
$DIMTXT
 40
2.0
  9
$DIMCEN
 40
2.5
  9
$DIMTSZ
 40
0.0
  9
$DIMTOL
 70
     0
  9
$DIMLIM
 70
     0
  9
$DIMTIH
 70
     1
  9
$DIMTOH
 70
     1
  9
$DIMSE1
 70
     0
  9
$DIMSE2
 70
     0
  9
$DIMTAD
 70
     1
  9
$DIMZIN
 70
     0
  9
$DIMBLK
  1

  9
$DIMASO
 70
     1
  9
$DIMSHO
 70
     1
  9
$DIMPOST
  1

  9
$DIMAPOST
  1

  9
$DIMALT
 70
     0
  9
$DIMALTD
 70
     3
  9
$DIMALTF
 40
0.0393700787
  9
$DIMLFAC
 40
1.0
  9
$DIMTOFL
 70
     1
  9
$DIMTVP
 40
0.0
  9
$DIMTIX
 70
     0
  9
$DIMSOXD
 70
     0
  9
$DIMSAH
 70
     0
  9
$DIMBLK1
  1

  9
$DIMBLK2
  1

  9
$DIMSTYLE
  2
ISO-25
  9
$DIMCLRD
 70
     0
  9
$DIMCLRE
 70
     0
  9
$DIMCLRT
 70
     0
  9
$DIMTFAC
 40
1.0
  9
$DIMGAP
 40
1.524
  9
$DIMJUST
 70
     0
  9
$DIMSD1
 70
     0
  9
$DIMSD2
 70
     0
  9
$DIMTOLJ
 70
     0
  9
$DIMTZIN
 70
     0
  9
$DIMALTZ
 70
     0
  9
$DIMALTTZ
 70
     0
  9
$DIMUPT
 70
     0
  9
$DIMDEC
 70
     2
  9
$DIMTDEC
 70
     3
  9
$DIMALTU
 70
     2
  9
$DIMALTTD
 70
     3
  9
$DIMTXSTY
  7
Standard
  9
$DIMAUNIT
 70
     0
  9
$DIMADEC
 70
     2
  9
$DIMALTRND
 40
0.0
  9
$DIMAZIN
 70
     0
  9
$DIMDSEP
 70
    44
  9
$DIMATFIT
 70
     3
  9
$DIMFRAC
 70
     0
  9
$DIMLDRBLK
  1

  9
$DIMLUNIT
 70
     2
  9
$DIMLWD
 70
    -2
  9
$DIMLWE
 70
    -2
  9
$DIMTMOVE
 70
     0
  9
$LUNITS
 70
     2
  9
$LUPREC
 70
     2
  9
$SKETCHINC
 40
1.0
  9
$FILLETRAD
 40
10.0
  9
$AUNITS
 70
     0
  9
$AUPREC
 70
     2
  9
$MENU
  1
.
  9
$ELEVATION
 40
0.0
  9
$PELEVATION
 40
0.0
  9
$THICKNESS
 40
0.0
  9
$LIMCHECK
 70
     0
  9
$CHAMFERA
 40
10.0
  9
$CHAMFERB
 40
10.0
  9
$CHAMFERC
 40
20.0
  9
$CHAMFERD
 40
0.0
  9
$SKPOLY
 70
     0
  9
$TDCREATE
 40
2456093.571620868
  9
$TDUCREATE
 40
2456093.488287535
  9
$TDUPDATE
 40
2456093.571622581
  9
$TDUUPDATE
 40
2456093.488289248
  9
$TDINDWG
 40
0.0000000116
  9
$TDUSRTIMER
 40
0.0000000116
  9
$USRTIMER
 70
     1
  9
$ANGBASE
 50
0.0
  9
$ANGDIR
 70
     0
  9
$PDMODE
 70
     0
  9
$PDSIZE
 40
-1.0
  9
$PLINEWID
 40
0.0
  9
$SPLFRAME
 70
     0
  9
$SPLINETYPE
 70
     6
  9
$SPLINESEGS
 70
     8
  9
$HANDSEED
  5
2FD
  9
$SURFTAB1
 70
     6
  9
$SURFTAB2
 70
     6
  9
$SURFTYPE
 70
     6
  9
$SURFU
 70
     6
  9
$SURFV
 70
     6
  9
$UCSBASE
  2

  9
$UCSNAME
  2

  9
$UCSORG
 10
0.0
 20
0.0
 30
0.0
  9
$UCSXDIR
 10
1.0
 20
0.0
 30
0.0
  9
$UCSYDIR
 10
0.0
 20
1.0
 30
0.0
  9
$UCSORTHOREF
  2

  9
$UCSORTHOVIEW
 70
     0
  9
$UCSORGTOP
 10
0.0
 20
0.0
 30
0.0
  9
$UCSORGBOTTOM
 10
0.0
 20
0.0
 30
0.0
  9
$UCSORGLEFT
 10
0.0
 20
0.0
 30
0.0
  9
$UCSORGRIGHT
 10
0.0
 20
0.0
 30
0.0
  9
$UCSORGFRONT
 10
0.0
 20
0.0
 30
0.0
  9
$UCSORGBACK
 10
0.0
 20
0.0
 30
0.0
  9
$PUCSBASE
  2

  9
$PUCSNAME
  2

  9
$PUCSORG
 10
0.0
 20
0.0
 30
0.0
  9
$PUCSXDIR
 10
1.0
 20
0.0
 30
0.0
  9
$PUCSYDIR
 10
0.0
 20
1.0
 30
0.0
  9
$PUCSORTHOREF
  2

  9
$PUCSORTHOVIEW
 70
     0
  9
$PUCSORGTOP
 10
0.0
 20
0.0
 30
0.0
  9
$PUCSORGBOTTOM
 10
0.0
 20
0.0
 30
0.0
  9
$PUCSORGLEFT
 10
0.0
 20
0.0
 30
0.0
  9
$PUCSORGRIGHT
 10
0.0
 20
0.0
 30
0.0
  9
$PUCSORGFRONT
 10
0.0
 20
0.0
 30
0.0
  9
$PUCSORGBACK
 10
0.0
 20
0.0
 30
0.0
  9
$USERI1
 70
     0
  9
$USERI2
 70
     0
  9
$USERI3
 70
     0
  9
$USERI4
 70
     0
  9
$USERI5
 70
     0
  9
$USERR1
 40
0.0
  9
$USERR2
 40
0.0
  9
$USERR3
 40
0.0
  9
$USERR4
 40
0.0
  9
$USERR5
 40
0.0
  9
$WORLDVIEW
 70
     1
  9
$SHADEDGE
 70
     3
  9
$SHADEDIF
 70
    70
  9
$TILEMODE
 70
     1
  9
$MAXACTVP
 70
    64
  9
$PINSBASE
 10
0.0
 20
0.0
 30
0.0
  9
$PLIMCHECK
 70
     0
  9
$PEXTMIN
 10
1.0000000000E+20
 20
1.0000000000E+20
 30
1.0000000000E+20
  9
$PEXTMAX
 10
-1.0000000000E+20
 20
-1.0000000000E+20
 30
-1.0000000000E+20
  9
$PLIMMIN
 10
0.0
 20
0.0
  9
$PLIMMAX
 10
420.0
 20
297.0
  9
$UNITMODE
 70
     0
  9
$VISRETAIN
 70
     1
  9
$PLINEGEN
 70
     0
  9
$PSLTSCALE
 70
     1
  9
$TREEDEPTH
 70
  3020
  9
$CMLSTYLE
  2
Standard
  9
$CMLJUST
 70
     0
  9
$CMLSCALE
 40
20.0
  9
$PROXYGRAPHICS
 70
     1
  9
$MEASUREMENT
 70
     1
  9
$CELWEIGHT
370
    -1
  9
$ENDCAPS
280
     0
  9
$JOINSTYLE
280
     0
  9
$LWDISPLAY
290
     1
  9
$INSUNITS
 70
     4
  9
$HYPERLINKBASE
  1

  9
$STYLESHEET
  1

  9
$XEDIT
290
     1
  9
$CEPSNTYPE
380
     0
  9
$PSTYLEMODE
290
     1
  9
$FINGERPRINTGUID
  2
{08C1075E-0E12-43FA-A18D-803B82297C55}
  9
$VERSIONGUID
  2
{FAEB1C32-E019-11D5-929B-00C0DF256EC4}
  9
$EXTNAMES
290
     1
  9
$PSVPSCALE
 40
0.0
  9
$OLESTARTUP
290
     0
  0
ENDSEC
  0
SECTION
  2
CLASSES
  0
CLASS
  1
ACDBDICTIONARYWDFLT
  2
AcDbDictionaryWithDefault
  3
ObjectDBX Classes
 90
        0
280
     0
281
     0
  0
CLASS
  1
VISUALSTYLE
  2
AcDbVisualStyle
  3
ObjectDBX Classes
 90
     4095
280
     0
281
     0
  0
CLASS
  1
MATERIAL
  2
AcDbMaterial
  3
ObjectDBX Classes
 90
     1153
280
     0
281
     0
  0
CLASS
  1
ACDBPLACEHOLDER
  2
AcDbPlaceHolder
  3
ObjectDBX Classes
 90
        0
280
     0
281
     0
  0
CLASS
  1
LAYOUT
  2
AcDbLayout
  3
ObjectDBX Classes
 90
        0
280
     0
281
     0
  0
ENDSEC
  0
SECTION
  2
TABLES
  0
TABLE
  2
VPORT
  5
8
330
0
100
AcDbSymbolTable
 70
     1
  0
VPORT
  5
29
330
8
100
AcDbSymbolTableRecord
100
AcDbViewportTableRecord
  2
*Active
 70
     0
 10
0.0
 20
0.0
 11
1.0
 21
1.0
 12
148.5
 22
105.0
 13
0.0
 23
0.0
 14
10.0
 24
10.0
 15
10.0
 25
10.0
 16
0.0
 26
0.0
 36
1.0
 17
0.0
 27
0.0
 37
0.0
 40
210.0
 41
1.4142857143
 42
50.0
 43
0.0
 44
0.0
 50
0.0
 51
0.0
 71
     0
 72
  2000
 73
     1
 74
     3
 75
     0
 76
     0
 77
     0
 78
     0
281
     0
 65
     1
110
0.0
120
0.0
130
0.0
111
1.0
121
0.0
131
0.0
112
0.0
122
1.0
132
0.0
 79
     0
146
0.0
  0
ENDTAB
  0
TABLE
  2
LTYPE
  5
5
330
0
100
AcDbSymbolTable
 70
     6
  0
LTYPE
  5
14
330
5
100
AcDbSymbolTableRecord
100
AcDbLinetypeTableRecord
  2
ByBlock
 70
     0
  3

 72
    65
 73
     0
 40
0.0
  0
LTYPE
  5
15
330
5
100
AcDbSymbolTableRecord
100
AcDbLinetypeTableRecord
  2
ByLayer
 70
     0
  3

 72
    65
 73
     0
 40
0.0
  0
LTYPE
  5
16
330
5
100
AcDbSymbolTableRecord
100
AcDbLinetypeTableRecord
  2
Continuous
 70
     0
  3
Solid line
 72
    65
 73
     0
 40
0.0
  0
LTYPE
  5
3F
330
5
100
AcDbSymbolTableRecord
100
AcDbLinetypeTableRecord
  2
HIDDEN
 70
     0
  3
Hidden __ __ __ __ __ __ __ __ __ __ __ __ __ __
 72
    65
 73
     2
 40
1.905
 49
1.27
 74
     0
 49
-0.635
 74
     0
  0
LTYPE
  5
40
330
5
100
AcDbSymbolTableRecord
100
AcDbLinetypeTableRecord
  2
PHANTOM
 70
     0
  3
Phantom ______  __  __  ______  __  __  ______
 72
    65
 73
     6
 40
12.7
 49
6.35
 74
     0
 49
-1.27
 74
     0
 49
1.27
 74
     0
 49
-1.27
 74
     0
 49
1.27
 74
     0
 49
-1.27
 74
     0
  0
LTYPE
  5
41
330
5
100
AcDbSymbolTableRecord
100
AcDbLinetypeTableRecord
  2
CENTER
 70
     0
  3
Center ____ _ ____ _ ____ _ ____ _ ____ _ ____
 72
    65
 73
     4
 40
10.16
 49
6.35
 74
     0
 49
-1.27
 74
     0
 49
1.27
 74
     0
 49
-1.27
 74
     0
  0
LTYPE
  5
42
330
5
100
AcDbSymbolTableRecord
100
AcDbLinetypeTableRecord
  2
CENTERX2
 70
     0
  3
Center (2x) ________  __  ________  __  _____
 72
    65
 73
     4
 40
20.32
 49
12.7
 74
     0
 49
-2.54
 74
     0
 49
2.54
 74
     0
 49
-2.54
 74
     0
  0
LTYPE
  5
43
330
5
100
AcDbSymbolTableRecord
100
AcDbLinetypeTableRecord
  2
DOT2
 70
     0
  3
Dot (.5x) ........................................
 72
    65
 73
     2
 40
0.635
 49
0.0
 74
     0
 49
-0.635
 74
     0
  0
ENDTAB
  0
TABLE
  2
LAYER
  5
2
330
0
100
AcDbSymbolTable
 70
     5
  0
LAYER
  5
10
330
2
100
AcDbSymbolTableRecord
100
AcDbLayerTableRecord
  2
0
 70
     0
 62
     7
  6
Continuous
370
    -3
390
F
  0
LAYER
  5
44
330
2
100
AcDbSymbolTableRecord
100
AcDbLayerTableRecord
  2
FORMAT
 70
     0
 62
     7
  6
Continuous
370
    -3
390
F
  0
LAYER
  5
45
330
2
100
AcDbSymbolTableRecord
100
AcDbLayerTableRecord
  2
VERMASSUNG
 70
     0
 62
     7
  6
Continuous
370
    -3
390
F
  0
LAYER
  5
46
330
2
100
AcDbSymbolTableRecord
100
AcDbLayerTableRecord
  2
KOPF_DÜNN
 70
     0
 62
     7
  6
Continuous
370
    -3
390
F
  0
LAYER
  5
47
330
2
100
AcDbSymbolTableRecord
100
AcDbLayerTableRecord
  2
KOPF_DICK
 70
     0
 62
     7
  6
Continuous
370
    15
390
F
  0
ENDTAB
  0
TABLE
  2
STYLE
  5
3
330
0
100
AcDbSymbolTable
 70
     2
  0
STYLE
  5
11
330
3
100
AcDbSymbolTableRecord
100
AcDbTextStyleTableRecord
  2
Standard
 70
     0
 40
0.0
 41
1.0
 50
0.0
 71
     0
 42
2.0
  3
txt
  4

  0
STYLE
  5
48
330
3
100
AcDbSymbolTableRecord
100
AcDbTextStyleTableRecord
  2
SLDTEXTSTYLE0
 70
     0
 40
0.0
 41
0.7
 50
0.0
 71
     0
 42
0.2
  3
TXT
  4

  0
ENDTAB
  0
TABLE
  2
VIEW
  5
6
330
0
100
AcDbSymbolTable
 70
     0
  0
ENDTAB
  0
TABLE
  2
UCS
  5
7
330
0
100
AcDbSymbolTable
 70
     0
  0
ENDTAB
  0
TABLE
  2
APPID
  5
9
330
0
100
AcDbSymbolTable
 70
     1
  0
APPID
  5
12
330
9
100
AcDbSymbolTableRecord
100
AcDbRegAppTableRecord
  2
ACAD
 70
     0
  0
ENDTAB
  0
TABLE
  2
DIMSTYLE
  5
A
330
0
100
AcDbSymbolTable
 70
     5
100
AcDbDimStyleTable
  0
DIMSTYLE
105
27
330
A
100
AcDbSymbolTableRecord
100
AcDbDimStyleTableRecord
  2
ISO-25
 70
     0
 41
2.5
 42
0.625
 43
3.75
 44
1.25
 73
     0
 74
     0
 77
     1
 78
     8
140
2.5
141
2.5
143
0.0393700787
147
0.625
171
     3
172
     1
178
     0
271
     2
272
     2
274
     3
278
    44
283
     0
284
     8
340
11
  0
DIMSTYLE
105
238
102
{ACAD_REACTORS
330
237
330
242
330
256
330
260
102
}
330
A
100
AcDbSymbolTableRecord
100
AcDbDimStyleTableRecord
  2
SLDDIMSTYLE0
 70
     0
 41
3.0
 44
0.0
 45
0.000000001
 73
     0
 74
     0
 77
     1
 78
    12
 79
     3
140
2.0
147
0.5
173
     1
178
     0
271
     2
272
     3
276
     2
284
    12
340
48
  0
DIMSTYLE
105
24D
102
{ACAD_REACTORS
330
24C
102
}
330
A
100
AcDbSymbolTableRecord
100
AcDbDimStyleTableRecord
  2
SLDDIMSTYLE1
 70
     0
 41
3.0
 44
0.0
 73
     0
 74
     0
 77
     1
 78
    12
 79
     3
140
2.0
147
0.5
173
     1
178
     0
179
     1
272
     3
276
     2
284
    12
340
48
  0
DIMSTYLE
105
2D8
102
{ACAD_REACTORS
330
2D7
102
}
330
A
100
AcDbSymbolTableRecord
100
AcDbDimStyleTableRecord
  2
SLDDIMSTYLE2
 70
     0
 41
3.0
 44
0.0
 73
     0
 74
     0
 77
     1
 78
    12
 79
     3
140
2.0
147
0.5
173
     1
178
     0
179
     2
272
     3
276
     2
284
    12
340
48
  0
DIMSTYLE
105
2E2
102
{ACAD_REACTORS
330
2E1
102
}
330
A
100
AcDbSymbolTableRecord
100
AcDbDimStyleTableRecord
  2
SLDDIMSTYLE3
 70
     0
 41
3.0
 44
0.0
 45
0.000000001
 73
     0
 74
     0
 77
     1
 78
    12
 79
     3
140
2.0
147
0.5
172
     1
173
     1
178
     0
271
     2
272
     3
276
     2
284
    12
289
     0
340
48
  0
ENDTAB
  0
TABLE
  2
BLOCK_RECORD
  5
1
330
0
100
AcDbSymbolTable
 70
     9
  0
BLOCK_RECORD
  5
1F
330
1
100
AcDbSymbolTableRecord
100
AcDbBlockTableRecord
  2
*Model_Space
340
22
  0
BLOCK_RECORD
  5
1B
330
1
100
AcDbSymbolTableRecord
100
AcDbBlockTableRecord
  2
*Paper_Space
340
1E
  0
BLOCK_RECORD
  5
23
330
1
100
AcDbSymbolTableRecord
100
AcDbBlockTableRecord
  2
*Paper_Space0
340
26
  0
BLOCK_RECORD
  5
239
330
1
100
AcDbSymbolTableRecord
100
AcDbBlockTableRecord
  2
_D
340
0
  0
BLOCK_RECORD
  5
243
330
1
100
AcDbSymbolTableRecord
100
AcDbBlockTableRecord
  2
_D_1
340
0
  0
BLOCK_RECORD
  5
24E
330
1
100
AcDbSymbolTableRecord
100
AcDbBlockTableRecord
  2
_D_2
340
0
  0
BLOCK_RECORD
  5
257
330
1
100
AcDbSymbolTableRecord
100
AcDbBlockTableRecord
  2
_D_3
340
0
  0
BLOCK_RECORD
  5
261
330
1
100
AcDbSymbolTableRecord
100
AcDbBlockTableRecord
  2
_D_4
340
0
  0
BLOCK_RECORD
  5
2D9
330
1
100
AcDbSymbolTableRecord
100
AcDbBlockTableRecord
  2
_D_5
340
0
  0
BLOCK_RECORD
  5
2E3
330
1
100
AcDbSymbolTableRecord
100
AcDbBlockTableRecord
  2
_D_6
340
0
  0
BLOCK_RECORD
  5
2F0
330
1
100
AcDbSymbolTableRecord
100
AcDbBlockTableRecord
  2
SW_CENTERMARKSYMBOL_0
340
0
102
{BLKREFS
331
2FB
102
}
  0
ENDTAB
  0
ENDSEC
  0
SECTION
  2
BLOCKS
  0
BLOCK
  5
20
330
1F
100
AcDbEntity
  8
0
100
AcDbBlockBegin
  2
*Model_Space
 70
     0
 10
0.0
 20
0.0
 30
0.0
  3
*Model_Space
  1

  0
ENDBLK
  5
21
330
1F
100
AcDbEntity
  8
0
100
AcDbBlockEnd
  0
BLOCK
  5
1C
330
1B
100
AcDbEntity
 67
     1
  8
0
100
AcDbBlockBegin
  2
*Paper_Space
 70
     0
 10
0.0
 20
0.0
 30
0.0
  3
*Paper_Space
  1

  0
ENDBLK
  5
1D
330
1B
100
AcDbEntity
 67
     1
  8
0
100
AcDbBlockEnd
  0
BLOCK
  5
24
330
23
100
AcDbEntity
  8
0
100
AcDbBlockBegin
  2
*Paper_Space0
 70
     0
 10
0.0
 20
0.0
 30
0.0
  3
*Paper_Space0
  1

  0
ENDBLK
  5
25
330
23
100
AcDbEntity
  8
0
100
AcDbBlockEnd
  0
BLOCK
  5
23A
330
239
100
AcDbEntity
  8
0
100
AcDbBlockBegin
  2
_D
 70
     0
 10
0.0
 20
0.0
 30
0.0
  3
_D
  1

  0
SOLID
  5
23C
330
239
100
AcDbEntity
  8
VERMASSUNG
100
AcDbTrace
 10
182.0078790265
 20
82.6434943869
 30
0.0
 11
185.0078790265
 21
82.1934943869
 31
0.0
 12
185.0078790265
 22
83.0934943869
 32
0.0
 13
185.0078790265
 23
83.0934943869
 33
0.0
  0
SOLID
  5
23D
330
239
100
AcDbEntity
  8
VERMASSUNG
100
AcDbTrace
 10
237.0078790265
 20
82.6434943869
 30
0.0
 11
234.0078790265
 21
83.0934943869
 31
0.0
 12
234.0078790265
 22
82.1934943869
 32
0.0
 13
234.0078790265
 23
82.1934943869
 33
0.0
  0
LINE
  5
23E
330
239
100
AcDbEntity
  8
VERMASSUNG
100
AcDbLine
 10
182.0078790265
 20
99.2208942784
 30
0.0
 11
182.0078790265
 21
81.6434943869
 31
0.0
  0
LINE
  5
23F
330
239
100
AcDbEntity
  8
VERMASSUNG
100
AcDbLine
 10
237.0078790265
 20
91.9208942784
 30
0.0
 11
237.0078790265
 21
81.6434943869
 31
0.0
  0
LINE
  5
240
330
239
100
AcDbEntity
  8
VERMASSUNG
100
AcDbLine
 10
182.0078790265
 20
82.6434943869
 30
0.0
 11
237.0078790265
 21
82.6434943869
 31
0.0
  0
MTEXT
  5
241
330
239
100
AcDbEntity
  8
VERMASSUNG
100
AcDbMText
 10
207.2078789755
 20
85.22162975
 30
0.1
 40
2.0
 41
0.0
 71
     1
 72
     1
  1
55
  7
SLDTEXTSTYLE0
 73
     1
 44
1.0
  0
ENDBLK
  5
23B
330
239
100
AcDbEntity
  8
0
100
AcDbBlockEnd
  0
BLOCK
  5
244
330
243
100
AcDbEntity
  8
0
100
AcDbBlockBegin
  2
_D_1
 70
     0
 10
0.0
 20
0.0
 30
0.0
  3
_D_1
  1

  0
SOLID
  5
246
330
243
100
AcDbEntity
  8
VERMASSUNG
100
AcDbTrace
 10
237.0078790265
 20
74.3182352686
 30
0.0
 11
234.0078790265
 21
74.7682352686
 31
0.0
 12
234.0078790265
 22
73.8682352686
 32
0.0
 13
234.0078790265
 23
73.8682352686
 33
0.0
  0
SOLID
  5
247
330
243
100
AcDbEntity
  8
VERMASSUNG
100
AcDbTrace
 10
162.1078790265
 20
74.3182352686
 30
0.0
 11
165.1078790265
 21
73.8682352686
 31
0.0
 12
165.1078790265
 22
74.7682352686
 32
0.0
 13
165.1078790265
 23
74.7682352686
 33
0.0
  0
LINE
  5
248
330
243
100
AcDbEntity
  8
VERMASSUNG
100
AcDbLine
 10
237.0078790265
 20
91.9208942784
 30
0.0
 11
237.0078790265
 21
73.3182352686
 31
0.0
  0
LINE
  5
249
330
243
100
AcDbEntity
  8
VERMASSUNG
100
AcDbLine
 10
162.1078790265
 20
107.0498942784
 30
0.0
 11
162.1078790265
 21
73.3182352686
 31
0.0
  0
LINE
  5
24A
330
243
100
AcDbEntity
  8
VERMASSUNG
100
AcDbLine
 10
237.0078790265
 20
74.3182352686
 30
0.0
 11
162.1078790265
 21
74.3182352686
 31
0.0
  0
MTEXT
  5
24B
330
243
100
AcDbEntity
  8
VERMASSUNG
100
AcDbMText
 10
196.1578789814
 20
76.8963706317
 30
0.1
 40
2.0
 41
0.0
 71
     1
 72
     1
  1
74.9
  7
SLDTEXTSTYLE0
 73
     1
 44
1.0
  0
ENDBLK
  5
245
330
243
100
AcDbEntity
  8
0
100
AcDbBlockEnd
  0
BLOCK
  5
24F
330
24E
100
AcDbEntity
  8
0
100
AcDbBlockBegin
  2
_D_2
 70
     0
 10
0.0
 20
0.0
 30
0.0
  3
_D_2
  1

  0
ARC
  5
251
330
24E
100
AcDbEntity
  8
VERMASSUNG
100
AcDbCircle
 10
237.1532644611
 20
91.9208942784
 30
0.0
 40
9.97911984873294
100
AcDbArc
 50
0.0
 51
107.4530903395
  0
SOLID
  5
252
330
24E
100
AcDbEntity
  8
VERMASSUNG
100
AcDbTrace
 10
247.1323843098
 20
91.9208942784
 30
0.0
 11
247.1411017164
 21
94.9544440154
 31
0.0
 12
246.2506790226
 22
94.8234958333
 32
0.0
 13
246.2506790226
 23
94.8234958333
 33
0.0
  0
SOLID
  5
253
330
24E
100
AcDbEntity
  8
VERMASSUNG
100
AcDbTrace
 10
234.1602782975
 20
101.4406036636
 30
0.0
 11
237.1936976218
 21
101.4700519716
 31
0.0
 12
237.0515574145
 22
102.3587567378
 32
0.0
 13
237.0515574145
 23
102.3587567378
 33
0.0
  0
LINE
  5
254
330
24E
100
AcDbEntity
  8
VERMASSUNG
100
AcDbLine
 10
245.5993934206
 20
91.9208942784
 30
0.0
 11
248.1323843098
 21
91.9208942784
 31
0.0
  0
MTEXT
  5
255
330
24E
100
AcDbEntity
  8
VERMASSUNG
100
AcDbMText
 10
241.0353446473
 20
104.6477993096
 30
0.1
 40
2.0
 41
0.0
 71
     1
 72
     1
  1
107.5°
  7
SLDTEXTSTYLE0
 11
0.8062024758120011
 21
-0.5916397282084763
 31
0.0
 73
     1
 44
1.0
  0
ENDBLK
  5
250
330
24E
100
AcDbEntity
  8
0
100
AcDbBlockEnd
  0
BLOCK
  5
258
330
257
100
AcDbEntity
  8
0
100
AcDbBlockBegin
  2
_D_3
 70
     0
 10
0.0
 20
0.0
 30
0.0
  3
_D_3
  1

  0
SOLID
  5
25A
330
257
100
AcDbEntity
  8
VERMASSUNG
100
AcDbTrace
 10
252.565479593
 20
91.9208942784
 30
0.0
 11
253.015479593
 21
94.9208942784
 31
0.0
 12
252.115479593
 22
94.9208942784
 32
0.0
 13
252.115479593
 23
94.9208942784
 33
0.0
  0
SOLID
  5
25B
330
257
100
AcDbEntity
  8
VERMASSUNG
100
AcDbTrace
 10
252.565479593
 20
118.9208942784
 30
0.0
 11
252.115479593
 21
115.9208942784
 31
0.0
 12
253.015479593
 22
115.9208942784
 32
0.0
 13
253.015479593
 23
115.9208942784
 33
0.0
  0
LINE
  5
25C
330
257
100
AcDbEntity
  8
VERMASSUNG
100
AcDbLine
 10
237.0078790265
 20
91.9208942784
 30
0.0
 11
253.565479593
 21
91.9208942784
 31
0.0
  0
LINE
  5
25D
330
257
100
AcDbEntity
  8
VERMASSUNG
100
AcDbLine
 10
237.0078790265
 20
118.9208942784
 30
0.0
 11
253.565479593
 21
118.9208942784
 31
0.0
  0
LINE
  5
25E
330
257
100
AcDbEntity
  8
VERMASSUNG
100
AcDbLine
 10
252.565479593
 20
91.9208942784
 30
0.0
 11
252.565479593
 21
118.9208942784
 31
0.0
  0
MTEXT
  5
25F
330
257
100
AcDbEntity
  8
VERMASSUNG
100
AcDbMText
 10
249.9873442298
 20
103.1208942273
 30
0.1
 40
2.0
 41
0.0
 71
     1
 72
     1
  1
27
  7
SLDTEXTSTYLE0
 11
6.123233995736766E-17
 21
1.0
 31
0.0
 73
     1
 44
1.0
  0
ENDBLK
  5
259
330
257
100
AcDbEntity
  8
0
100
AcDbBlockEnd
  0
BLOCK
  5
262
330
261
100
AcDbEntity
  8
0
100
AcDbBlockBegin
  2
_D_4
 70
     0
 10
0.0
 20
0.0
 30
0.0
  3
_D_4
  1

  0
SOLID
  5
264
330
261
100
AcDbEntity
  8
VERMASSUNG
100
AcDbTrace
 10
152.1078790265
 20
138.9208942784
 30
0.0
 11
151.6578790265
 21
135.9208942784
 31
0.0
 12
152.5578790265
 22
135.9208942784
 32
0.0
 13
152.5578790265
 23
135.9208942784
 33
0.0
  0
SOLID
  5
265
330
261
100
AcDbEntity
  8
VERMASSUNG
100
AcDbTrace
 10
152.1078790265
 20
98.9208942784
 30
0.0
 11
152.5578790265
 21
101.9208942784
 31
0.0
 12
151.6578790265
 22
101.9208942784
 32
0.0
 13
151.6578790265
 23
101.9208942784
 33
0.0
  0
LINE
  5
266
330
261
100
AcDbEntity
  8
VERMASSUNG
100
AcDbLine
 10
182.3078790265
 20
138.9208942784
 30
0.0
 11
151.1078790265
 21
138.9208942784
 31
0.0
  0
LINE
  5
267
330
261
100
AcDbEntity
  8
VERMASSUNG
100
AcDbLine
 10
182.3078790265
 20
98.9208942784
 30
0.0
 11
151.1078790265
 21
98.9208942784
 31
0.0
  0
LINE
  5
268
330
261
100
AcDbEntity
  8
VERMASSUNG
100
AcDbLine
 10
152.1078790265
 20
138.9208942784
 30
0.0
 11
152.1078790265
 21
98.9208942784
 31
0.0
  0
MTEXT
  5
269
330
261
100
AcDbEntity
  8
VERMASSUNG
100
AcDbMText
 10
149.3297435375
 20
110.9158936275
 30
0.1
 40
2.0
 41
0.0
 71
     1
 72
     1
  1
HSK T
  7
SLDTEXTSTYLE0
 11
-7.044195017643634E-15
 21
1.0
 31
0.0
 73
     1
 44
1.0
  0
MTEXT
  5
26A
330
261
100
AcDbEntity
  8
VERMASSUNG
100
AcDbMText
 10
149.529743547
 20
118.5158937556
 30
0.1
 40
2.0
 41
0.0
 71
     1
 72
     1
  1
%%c
  7
SLDTEXTSTYLE0
 11
-7.044195017643634E-15
 21
1.0
 31
0.0
 73
     1
 44
1.0
  0
MTEXT
  5
26B
330
261
100
AcDbEntity
  8
VERMASSUNG
100
AcDbMText
 10
149.3297435375
 20
122.1258937699
 30
0.1
 40
2.0
 41
0.0
 71
     1
 72
     1
  1
40
  7
SLDTEXTSTYLE0
 11
-7.044195017643634E-15
 21
1.0
 31
0.0
 73
     1
 44
1.0
  0
ENDBLK
  5
263
330
261
100
AcDbEntity
  8
0
100
AcDbBlockEnd
  0
BLOCK
  5
2DA
330
2D9
100
AcDbEntity
  8
0
100
AcDbBlockBegin
  2
_D_5
 70
     0
 10
0.0
 20
0.0
 30
0.0
  3
_D_5
  1

  0
ARC
  5
2DC
330
2D9
100
AcDbEntity
  8
VERMASSUNG
100
AcDbCircle
 10
78.8478596053
 20
91.2577181973
 30
0.0
 40
57.56422359670964
100
AcDbArc
 50
90.0
 51
100.0
  0
SOLID
  5
2DD
330
2D9
100
AcDbEntity
  8
VERMASSUNG
100
AcDbTrace
 10
78.8478596053
 20
148.821941794
 30
0.0
 11
75.837162114
 21
149.1936952278
 31
0.0
 12
75.860590336
 22
148.2940002137
 32
0.0
 13
75.860590336
 23
148.2940002137
 33
0.0
  0
SOLID
  5
2DE
330
2D9
100
AcDbEntity
  8
VERMASSUNG
100
AcDbTrace
 10
68.851937079
 20
147.9474118915
 30
0.0
 11
71.8854991091
 21
147.9462247949
 31
0.0
 12
71.7523410041
 22
148.8363196882
 32
0.0
 13
71.7523410041
 23
148.8363196882
 33
0.0
  0
LINE
  5
2DF
330
2D9
100
AcDbEntity
  8
VERMASSUNG
100
AcDbLine
 10
78.8478596053
 20
141.4208942784
 30
0.0
 11
78.8478596053
 21
149.821941794
 31
0.0
  0
MTEXT
  5
2E0
330
2D9
100
AcDbEntity
  8
VERMASSUNG
100
AcDbMText
 10
70.916381885
 20
150.9358968123
 30
0.1
 40
2.0
 41
0.0
 71
     1
 72
     1
  1
10°
  7
SLDTEXTSTYLE0
 11
0.9961946980917449
 21
0.08715574274766515
 31
0.0
 73
     1
 44
1.0
  0
ENDBLK
  5
2DB
330
2D9
100
AcDbEntity
  8
0
100
AcDbBlockEnd
  0
BLOCK
  5
2E4
330
2E3
100
AcDbEntity
  8
0
100
AcDbBlockBegin
  2
_D_6
 70
     0
 10
0.0
 20
0.0
 30
0.0
  3
_D_6
  1

  0
SOLID
  5
2E6
330
2E3
100
AcDbEntity
  8
VERMASSUNG
100
AcDbTrace
 10
96.525529135
 20
134.7574541632
 30
0.0
 11
98.9650475301
 21
136.5605764552
 31
0.0
 12
98.328651427
 22
137.1969725583
 32
0.0
 13
98.328651427
 23
137.1969725583
 33
0.0
  0
SOLID
  5
2E7
330
2E3
100
AcDbEntity
  8
VERMASSUNG
100
AcDbTrace
 10
61.1701900757
 20
99.4021151038
 30
0.0
 11
58.7306716806
 21
97.5989928118
 31
0.0
 12
59.3670677836
 22
96.9625967088
 32
0.0
 13
59.3670677836
 23
96.9625967088
 33
0.0
  0
LINE
  5
2E8
330
2E3
100
AcDbEntity
  8
VERMASSUNG
100
AcDbLine
 10
96.525529135
 20
134.7574541632
 30
0.0
 11
97.2326359162
 21
134.050347382
 31
0.0
  0
LINE
  5
2E9
330
2E3
100
AcDbEntity
  8
VERMASSUNG
100
AcDbLine
 10
61.1701900757
 20
99.4021151038
 30
0.0
 11
61.8772968569
 21
98.6950083227
 31
0.0
  0
LINE
  5
2EA
330
2E3
100
AcDbEntity
  8
VERMASSUNG
100
AcDbLine
 10
96.525529135
 20
134.7574541632
 30
0.0
 11
100.7681698221
 21
139.0000948503
 31
0.0
  0
LINE
  5
2EB
330
2E3
100
AcDbEntity
  8
VERMASSUNG
100
AcDbLine
 10
96.525529135
 20
134.7574541632
 30
0.0
 11
61.1701900757
 21
99.4021151038
 31
0.0
  0
LINE
  5
2EC
330
2E3
100
AcDbEntity
  8
VERMASSUNG
100
AcDbLine
 10
61.1701900757
 20
99.4021151038
 30
0.0
 11
49.3822588781
 21
87.6141839063
 31
0.0
  0
MTEXT
  5
2ED
330
2E3
100
AcDbEntity
  8
VERMASSUNG
100
AcDbMText
 10
47.5592417977
 20
89.4372009867
 30
0.1
 40
2.0
 41
0.0
 71
     1
 72
     1
  1
%%c
  7
SLDTEXTSTYLE0
 11
0.7071067811865466
 21
0.7071067811865485
 31
0.0
 73
     1
 44
1.0
  0
MTEXT
  5
2EE
330
2E3
100
AcDbEntity
  8
VERMASSUNG
100
AcDbMText
 10
49.9704759249
 20
92.1312778398
 30
0.1
 40
2.0
 41
0.0
 71
     1
 72
     1
  1
50
  7
SLDTEXTSTYLE0
 11
0.7071067811865466
 21
0.7071067811865485
 31
0.0
 73
     1
 44
1.0
  0
MTEXT
  5
2EF
330
2E3
100
AcDbEntity
  8
VERMASSUNG
100
AcDbMText
 10
54.0628568225
 20
96.2236587374
 30
0.1
 40
2.0
 41
0.0
 71
     1
 72
     1
  1
min.
  7
SLDTEXTSTYLE0
 11
0.7071067811865466
 21
0.7071067811865485
 31
0.0
 73
     1
 44
1.0
  0
ENDBLK
  5
2E5
330
2E3
100
AcDbEntity
  8
0
100
AcDbBlockEnd
  0
BLOCK
  5
2F1
330
2F0
100
AcDbEntity
  8
0
100
AcDbBlockBegin
  2
SW_CENTERMARKSYMBOL_0
 70
     0
 10
0.0
 20
0.0
 30
0.0
  3
SW_CENTERMARKSYMBOL_0
  1

  0
LINE
  5
2F3
330
2F0
100
AcDbEntity
  8
VERMASSUNG
 62
     0
100
AcDbLine
 10
0.0
 20
0.0
 30
0.0
 11
0.0
 21
2.5
 31
0.0
  0
LINE
  5
2F4
330
2F0
100
AcDbEntity
  8
VERMASSUNG
 62
     0
100
AcDbLine
 10
0.0
 20
0.0
 30
0.0
 11
-2.5
 21
0.0
 31
0.0
  0
LINE
  5
2F5
330
2F0
100
AcDbEntity
  8
VERMASSUNG
 62
     0
100
AcDbLine
 10
0.0
 20
0.0
 30
0.0
 11
0.0
 21
-2.5
 31
0.0
  0
LINE
  5
2F6
330
2F0
100
AcDbEntity
  8
VERMASSUNG
 62
     0
100
AcDbLine
 10
0.0
 20
0.0
 30
0.0
 11
2.5
 21
0.0
 31
0.0
  0
LINE
  5
2F7
330
2F0
100
AcDbEntity
  8
VERMASSUNG
 62
     0
100
AcDbLine
 10
0.0
 20
5.0
 30
0.0
 11
0.0
 21
22.5
 31
0.0
  0
LINE
  5
2F8
330
2F0
100
AcDbEntity
  8
VERMASSUNG
 62
     0
100
AcDbLine
 10
-5.0
 20
0.0
 30
0.0
 11
-22.5
 21
0.0
 31
0.0
  0
LINE
  5
2F9
330
2F0
100
AcDbEntity
  8
VERMASSUNG
 62
     0
100
AcDbLine
 10
0.0
 20
-5.0
 30
0.0
 11
0.0
 21
-29.4213306882
 31
0.0
  0
LINE
  5
2FA
330
2F0
100
AcDbEntity
  8
VERMASSUNG
 62
     0
100
AcDbLine
 10
5.0
 20
0.0
 30
0.0
 11
22.5
 21
0.0
 31
0.0
  0
ENDBLK
  5
2F2
330
2F0
100
AcDbEntity
  8
0
100
AcDbBlockEnd
  0
ENDSEC
  0
SECTION
  2
ENTITIES
  0
MTEXT
  5
49
330
1F
100
AcDbEntity
  8
KOPF_DÜNN
100
AcDbMText
 10
13.8892156294
 20
23.8442973028
 30
0.0
 40
3.0
 41
0.0
 71
     1
 72
     1
  1
HA4.PDF.LHA.055
  7
SLDTEXTSTYLE0
 73
     1
 44
1.0
  0
MTEXT
  5
4A
330
1F
100
AcDbEntity
  8
VERMASSUNG
100
AcDbMText
 10
13.9329988022
 20
28.8834360957
 30
0.0
 40
3.0
 41
0.0
 71
     1
 72
     1
  1
Klemmhalter links_Turning tool left 107.5° /55°
  7
SLDTEXTSTYLE0
 73
     1
 44
1.0
  0
MTEXT
  5
4B
330
1F
100
AcDbEntity
  8
VERMASSUNG
100
AcDbMText
 10
98.8601118557
 20
13.8365368179
 30
0.0
 40
2.0
 41
0.0
 71
     1
 72
     1
  1
Datum: 14.06.2012
  7
SLDTEXTSTYLE0
 73
     1
 44
1.0
  0
MTEXT
  5
4C
330
1F
100
AcDbEntity
  8
VERMASSUNG
100
AcDbMText
 10
13.933048693
 20
18.0482802738
 30
0.0
 40
2.0
 41
0.0
 71
     1
 72
     1
  1
HSK T ø40 / DN..15 06..
  7
SLDTEXTSTYLE0
 73
     1
 44
1.0
  0
MTEXT
  5
4D
330
1F
100
AcDbEntity
  8
VERMASSUNG
100
AcDbMText
 10
13.9808475933
 20
13.9090973692
 30
0.0
 40
2.0
 41
0.0
 71
     1
 72
     1
  1
Gewicht: 336g
  7
SLDTEXTSTYLE0
 73
     1
 44
1.0
  0
LINE
  5
4E
330
1F
100
AcDbEntity
  8
0
  6
Continuous
 62
     7
370
    15
100
AcDbLine
 10
182.3078790265
 20
98.9208942784
 30
0.0
 11
189.9578790265
 21
98.9208942784
 31
0.0
  0
LINE
  5
4F
330
1F
100
AcDbEntity
  8
0
  6
Continuous
 62
     7
370
    15
100
AcDbLine
 10
189.9606091621
 20
138.9208942784
 30
0.0
 11
182.3078790265
 21
138.9208942784
 31
0.0
  0
ARC
  5
50
330
1F
100
AcDbEntity
  8
0
  6
Continuous
 62
     7
370
    15
100
AcDbCircle
 10
182.3078790265
 20
99.2208942784
 30
0.0
 40
0.3000000000000114
100
AcDbArc
 50
180.0
 51
270.0
  0
ARC
  5
51
330
1F
100
AcDbEntity
  8
0
  6
Continuous
 62
     7
370
    15
100
AcDbCircle
 10
182.3078790265
 20
138.6208942784
 30
0.0
 40
0.3000000000000114
100
AcDbArc
 50
90.0
 51
180.0
  0
ARC
  5
52
330
1F
100
AcDbEntity
  8
0
  6
Continuous
 62
     7
370
    15
100
AcDbCircle
 10
202.9578790265
 20
101.4208942784
 30
0.0
 40
1.000000000000002
100
AcDbArc
 50
90.0
 51
143.1142427467
  0
ARC
  5
53
330
1F
100
AcDbEntity
  8
0
  6
Continuous
 62
     7
370
    15
100
AcDbCircle
 10
202.9578790265
 20
136.4208942784
 30
0.0
 40
1.000000000000018
100
AcDbArc
 50
216.8994515981
 51
270.0
  0
LINE
  5
54
330
1F
100
AcDbEntity
  8
0
  6
Continuous
 62
     7
370
    15
100
AcDbLine
 10
216.2405520385
 20
135.4208942784
 30
0.0
 11
202.9578790265
 21
135.4208942784
 31
0.0
  0
LINE
  5
55
330
1F
100
AcDbEntity
  8
0
  6
Continuous
 62
     7
370
    15
100
AcDbLine
 10
202.9578790265
 20
102.4208942784
 30
0.0
 11
216.2405520385
 21
102.4208942784
 31
0.0
  0
ARC
  5
56
330
1F
100
AcDbEntity
  8
0
  6
Continuous
 62
     7
370
    15
100
AcDbCircle
 10
181.5078722738
 20
103.4671871249
 30
0.0
 40
0.60000675266771
100
AcDbArc
 50
33.5571153394
 51
90.0
  0
ARC
  5
57
330
1F
100
AcDbEntity
  8
0
  6
Continuous
 62
     7
370
    15
100
AcDbCircle
 10
181.5078722738
 20
134.3746014318
 30
0.0
 40
0.6000067526677045
100
AcDbArc
 50
270.0
 51
326.4428846606
  0
LINE
  5
58
330
1F
100
AcDbEntity
  8
0
  6
Continuous
 62
     7
370
    15
100
AcDbLine
 10
173.1919463054
 20
133.6831150839
 30
0.0
 11
165.7078790265
 21
133.3081618134
 31
0.0
  0
LINE
  5
59
330
1F
100
AcDbEntity
  8
0
  6
Continuous
 62
     7
370
    15
100
AcDbLine
 10
180.0078790265
 20
134.0245946792
 30
0.0
 11
178.7731462839
 21
133.9627343213
 31
0.0
  0
LINE
  5
5A
330
1F
100
AcDbEntity
  8
0
  6
Continuous
 62
     7
370
    15
100
AcDbLine
 10
178.7741424851
 20
103.8790043255
 30
0.0
 11
180.0078790265
 21
103.8171938776
 31
0.0
  0
LINE
  5
5B
330
1F
100
AcDbEntity
  8
0
  6
Continuous
 62
     7
370
    15
100
AcDbLine
 10
168.2078790265
 20
104.4083762423
 30
0.0
 11
173.192408466
 21
104.1586503185
 31
0.0
  0
LINE
  5
5C
330
1F
100
AcDbEntity
  8
0
  6
Continuous
 62
     7
370
    15
100
AcDbLine
 10
180.0078790265
 20
103.8171938776
 30
0.0
 11
180.8645909412
 21
104.0467491432
 31
0.0
  0
LINE
  5
5D
330
1F
100
AcDbEntity
  8
0
  6
Continuous
 62
     7
370
    15
100
AcDbLine
 10
180.8645909412
 20
133.7950394135
 30
0.0
 11
180.0078790265
 21
134.0245946792
 31
0.0
  0
ARC
  5
5E
330
1F
100
AcDbEntity
  8
0
  6
Continuous
 62
     7
370
    15
100
AcDbCircle
 10
181.019884116
 20
103.4671871249
 30
0.0
 40
0.6000067526676959
100
AcDbArc
 50
90.0
 51
105.0
  0
ARC
  5
5F
330
1F
100
AcDbEntity
  8
0
  6
Continuous
 62
     7
370
    15
100
AcDbCircle
 10
181.019884116
 20
134.3746014318
 30
0.0
 40
0.6000067526677096
100
AcDbArc
 50
255.0
 51
270.0
  0
LINE
  5
60
330
1F
100
AcDbEntity
  8
0
  6
Continuous
 62
     7
370
    15
100
AcDbLine
 10
181.019884116
 20
104.0671938776
 30
0.0
 11
181.5078722738
 21
104.0671938776
 31
0.0
  0
LINE
  5
61
330
1F
100
AcDbEntity
  8
0
  6
Continuous
 62
     7
370
    15
100
AcDbLine
 10
181.5078722738
 20
133.7745946792
 30
0.0
 11
181.019884116
 21
133.7745946792
 31
0.0
  0
LINE
  5
62
330
1F
100
AcDbEntity
  8
0
  6
Continuous
 62
     7
370
    15
100
AcDbLine
 10
222.1174269191
 20
136.9208942784
 30
0.0
 11
217.4098028152
 21
136.9208942784
 31
0.0
  0
LINE
  5
63
330
1F
100
AcDbEntity
  8
0
  6
Continuous
 62
     7
370
    15
100
AcDbLine
 10
217.4098028152
 20
136.9208942784
 30
0.0
 11
217.2064778648
 21
136.1620752333
 31
0.0
  0
ARC
  5
64
330
1F
100
AcDbEntity
  8
0
  6
Continuous
 62
     7
370
    15
100
AcDbCircle
 10
216.2405520385
 20
136.4208942784
 30
0.0
 40
1.0
100
AcDbArc
 50
270.0
 51
345.0
  0
ARC
  5
65
330
1F
100
AcDbEntity
  8
0
  6
Continuous
 62
     7
370
    15
100
AcDbCircle
 10
164.8078790265
 20
132.7008942784
 30
0.0
 40
0.9000000000000057
100
AcDbArc
 50
270.0
 51
311.1792132368
  0
ARC
  5
66
330
1F
100
AcDbEntity
  8
0
  6
Continuous
 62
     7
370
    15
100
AcDbCircle
 10
167.3078790265
 20
105.1408942784
 30
0.0
 40
0.9000000000000057
100
AcDbArc
 50
34.6391318474
 51
90.0
  0
LINE
  5
67
330
1F
100
AcDbEntity
  8
0
  6
Continuous
 62
     7
370
    15
100
AcDbLine
 10
163.0578790265
 20
131.8008942784
 30
0.0
 11
162.1078790265
 21
130.8508942784
 31
0.0
  0
LINE
  5
68
330
1F
100
AcDbEntity
  8
0
  6
Continuous
 62
     7
370
    15
100
AcDbLine
 10
164.8078790265
 20
131.8008942784
 30
0.0
 11
163.0578790265
 21
131.8008942784
 31
0.0
  0
LINE
  5
69
330
1F
100
AcDbEntity
  8
0
  6
Continuous
 62
     7
370
    15
100
AcDbLine
 10
163.1168790265
 20
106.0408942784
 30
0.0
 11
167.3078790265
 21
106.0408942784
 31
0.0
  0
LINE
  5
6A
330
1F
100
AcDbEntity
  8
0
  6
Continuous
 62
     7
370
    15
100
AcDbLine
 10
162.1078790265
 20
107.0498942784
 30
0.0
 11
163.1168790265
 21
106.0408942784
 31
0.0
  0
ARC
  5
6B
330
1F
100
AcDbEntity
  8
0
  6
Continuous
 62
     7
370
    15
100
AcDbCircle
 10
216.2405520385
 20
101.4208942784
 30
0.0
 40
1.0
100
AcDbArc
 50
15.0
 51
90.0
  0
LINE
  5
6C
330
1F
100
AcDbEntity
  8
0
  6
Continuous
 62
     7
370
    15
100
AcDbLine
 10
217.2064778648
 20
101.6797133235
 30
0.0
 11
218.1153275118
 21
98.2878402644
 31
0.0
  0
LINE
  5
6D
330
1F
100
AcDbEntity
  8
0
  6
Continuous
 62
     7
370
    15
100
AcDbLine
 10
225.0338085241
 20
101.0051824042
 30
0.0
 11
225.3607417416
 21
100.5224207994
 31
0.0
  0
LINE
  5
6E
330
1F
100
AcDbEntity
  8
0
  6
Continuous
 62
     7
370
    15
100
AcDbLine
 10
232.6810321046
 20
106.1090119664
 30
0.0
 11
232.0172763628
 21
107.2056373753
 31
0.0
  0
LINE
  5
6F
330
1F
100
AcDbEntity
  8
0
  6
Continuous
 62
     7
370
    15
100
AcDbLine
 10
222.251526722
 20
96.6602307369
 30
0.0
 11
222.5128978556
 21
96.2284058829
 31
0.0
  0
LINE
  5
70
330
1F
100
AcDbEntity
  8
0
  6
Continuous
 62
     7
370
    15
100
AcDbLine
 10
189.9578790265
 20
130.7708942784
 30
0.0
 11
195.9727193276
 21
130.7708942784
 31
0.0
  0
LINE
  5
71
330
1F
100
AcDbEntity
  8
0
  6
Continuous
 62
     7
370
    15
100
AcDbLine
 10
195.9727193276
 20
99.6920097553
 30
0.0
 11
195.9727193276
 21
130.7708942784
 31
0.0
  0
LINE
  5
72
330
1F
100
AcDbEntity
  8
0
  6
Continuous
 62
     7
370
    15
100
AcDbLine
 10
195.9727193276
 20
99.6920097553
 30
0.0
 11
194.4578790265
 21
99.6920097553
 31
0.0
  0
SPLINE
  5
73
330
1F
100
AcDbEntity
  8
0
  6
Continuous
 62
     7
370
    15
100
AcDbSpline
210
0.0
220
0.0
230
1.0
 70
     8
 71
     3
 72
    22
 73
    18
 74
     0
 42
0.00000001
 43
0.00000001
 12
1.0
 22
0.0
 32
0.0
 13
1.0
 23
0.0
 33
0.0
 40
0.0
 40
0.0
 40
0.0
 40
0.0
 40
0.125
 40
0.125
 40
0.2500000000000001
 40
0.2500000000000001
 40
0.3750000000000001
 40
0.3750000000000001
 40
0.5000000000000001
 40
0.5000000000000001
 40
0.6250000000000001
 40
0.6250000000000001
 40
0.7500000000000002
 40
0.7500000000000002
 40
0.8750000000000002
 40
0.8750000000000002
 40
1.0
 40
1.0
 40
1.0
 40
1.0
 10
194.4578790265143
 20
99.69200975532944
 30
0.0
 10
194.1587545974737
 20
99.69200975532944
 30
0.0
 10
193.8649321492249
 20
99.68349565426304
 30
0.0
 10
193.2873678729785
 20
99.65105188538115
 30
0.0
 10
193.0005501951646
 20
99.62671799667912
 30
0.0
 10
192.4560876662653
 20
99.56625797192228
 30
0.0
 10
192.198132395644
 20
99.53034455114378
 30
0.0
 10
191.710074452284
 20
99.45063452507465
 30
0.0
 10
191.4803761536203
 20
99.40675622388531
 30
0.0
 10
191.0679571706677
 20
99.31851260151514
 30
0.0
 10
190.8824302278076
 20
99.27370426005416
 30
0.0
 10
190.5539101829068
 20
99.186383252135
 30
0.0
 10
190.4154962960073
 20
99.14509246355932
 30
0.0
 10
190.1909041493914
 20
99.0707542402655
 30
0.0
 10
190.1038253372672
 20
99.03734411453082
 30
0.0
 10
189.9873235293121
 20
98.98232471300469
 30
0.0
 10
189.9578790265143
 20
98.96086294653844
 30
0.0
 10
189.9578790265143
 20
98.94590992292065
 30
0.0
  0
LINE
  5
74
330
1F
100
AcDbEntity
  8
0
  6
Continuous
 62
     7
370
    15
100
AcDbLine
 10
189.9578790265
 20
98.9459099229
 30
0.0
 11
189.9578790265
 21
98.9208942784
 31
0.0
  0
SPLINE
  5
75
330
1F
100
AcDbEntity
  8
0
  6
Continuous
 62
     7
370
    15
100
AcDbSpline
210
0.0
220
0.0
230
1.0
 70
     8
 71
     3
 72
    24
 73
    20
 74
     0
 42
0.00000001
 43
0.00000001
 12
1.0
 22
0.0
 32
0.0
 13
1.0
 23
0.0
 33
0.0
 40
0.0
 40
0.0
 40
0.0
 40
0.0
 40
0.052077919477862
 40
0.1572643009817951
 40
0.211004034219184
 40
0.2630082272421763
 40
0.3153694586252034
 40
0.3682767768933253
 40
0.4219276495589311
 40
0.5278745305013453
 40
0.5816327604668372
 40
0.6361579142437264
 40
0.6893483200380345
 40
0.742915546854972
 40
0.7976851864338984
 40
0.8528768752898135
 40
0.9053719041779748
 40
0.9582458281725926
 40
1.0
 40
1.0
 40
1.0
 40
1.0
 10
194.4578790265143
 20
138.4080695482639
 30
0.0
 10
194.334826195632
 20
138.4087725675366
 30
0.0
 10
193.9632326752581
 20
138.4108955370333
 30
0.0
 10
193.4690187890934
 20
138.4306346436201
 30
0.0
 10
192.9920038973653
 20
138.4620455460662
 30
0.0
 10
192.6448045252598
 20
138.4912725252756
 30
0.0
 10
192.3120501817299
 20
138.5249577974999
 30
0.0
 10
191.9907996387122
 20
138.5627888854199
 30
0.0
 10
191.5845083540941
 20
138.6170443188861
 30
0.0
 10
191.2147755646592
 20
138.6748912276815
 30
0.0
 10
190.8906395062604
 20
138.7314388850614
 30
0.0
 10
190.6715494358838
 20
138.7721593324555
 30
0.0
 10
190.4795101470729
 20
138.8097711067813
 30
0.0
 10
190.3150849745565
 20
138.8433822730476
 30
0.0
 10
190.1786683264017
 20
138.8722588207235
 30
0.0
 10
190.0742076035335
 20
138.8949834902446
 30
0.0
 10
190.0031619969035
 20
138.9107298385784
 30
0.0
 10
189.9631584145511
 20
138.9197050594408
 30
0.0
 10
189.9613896295836
 20
138.920104326848
 30
0.0
 10
189.9606091621038
 20
138.9202805015853
 30
0.0
  0
LINE
  5
76
330
1F
100
AcDbEntity
  8
0
  6
Continuous
 62
     7
370
    15
100
AcDbLine
 10
195.9727193276
 20
138.4080695483
 30
0.0
 11
194.4578790265
 21
138.4080695483
 31
0.0
  0
LINE
  5
77
330
1F
100
AcDbEntity
  8
0
  6
Continuous
 62
     7
370
    15
100
AcDbLine
 10
195.9727193276
 20
135.0323032794
 30
0.0
 11
195.9727193276
 21
138.4080695483
 31
0.0
  0
LINE
  5
78
330
1F
100
AcDbEntity
  8
0
  6
Continuous
 62
     7
370
    15
100
AcDbLine
 10
194.4515495012
 20
135.0323032794
 30
0.0
 11
195.9727193276
 21
135.0323032794
 31
0.0
  0
SPLINE
  5
79
330
1F
100
AcDbEntity
  8
0
  6
Continuous
 62
     7
370
    15
100
AcDbSpline
210
0.0
220
0.0
230
1.0
 70
     8
 71
     3
 72
    22
 73
    18
 74
     0
 42
0.00000001
 43
0.00000001
 12
1.0
 22
0.0
 32
0.0
 13
1.0
 23
0.0
 33
0.0
 40
0.0
 40
0.0
 40
0.0
 40
0.0
 40
0.2500000000000003
 40
0.2500000000000003
 40
0.3750000000000003
 40
0.3750000000000003
 40
0.5000000000000003
 40
0.5000000000000003
 40
0.6250000000000003
 40
0.6250000000000003
 40
0.7500000000000004
 40
0.7500000000000004
 40
0.8750000000000004
 40
0.8750000000000004
 40
0.9375000000000002
 40
0.9375000000000002
 40
1.0
 40
1.0
 40
1.0
 40
1.0
 10
189.9578790265143
 20
130.7708942783588
 30
0.0
 10
189.979860044501
 20
131.3337669202569
 30
0.0
 10
190.0588369278557
 20
131.8643918039864
 30
0.0
 10
190.3052348208881
 20
132.610102794908
 30
0.0
 10
190.409759435979
 20
132.8517230213067
 30
0.0
 10
190.6716060312855
 20
133.3105817966326
 30
0.0
 10
190.8268226534514
 20
133.5247604691024
 30
0.0
 10
191.1954144065153
 20
133.921989028248
 30
0.0
 10
191.4115480989802
 20
134.1064338632678
 30
0.0
 10
191.8954425939671
 20
134.4275137111514
 30
0.0
 10
192.1659081389748
 20
134.5668645412574
 30
0.0
 10
192.762134704485
 20
134.796170075683
 30
0.0
 10
193.0776279712049
 20
134.8827060851593
 30
0.0
 10
193.5783446192235
 20
134.9715956894906
 30
0.0
 10
193.7511410538386
 20
134.9944041953522
 30
0.0
 10
194.0995098266206
 20
135.0246953580484
 30
0.0
 10
194.2749108555311
 20
135.0323032794363
 30
0.0
 10
194.4515495012191
 20
135.0323032794363
 30
0.0
  0
LINE
  5
7A
330
1F
100
AcDbEntity
  8
0
  6
Continuous
 62
     7
370
    15
100
AcDbLine
 10
182.0078790265
 20
99.2208942784
 30
0.0
 11
182.0078790265
 21
138.6208942767
 31
0.0
  0
LINE
  5
7B
330
1F
100
AcDbEntity
  8
0
  6
Continuous
 62
     7
370
    15
100
AcDbLine
 10
201.9578790265
 20
100.3168624573
 30
0.0
 11
201.9578790265
 21
130.7708942784
 31
0.0
  0
SPLINE
  5
7C
330
1F
100
AcDbEntity
  8
0
  6
Continuous
 62
     7
370
    15
100
AcDbSpline
210
0.0
220
0.0
230
1.0
 70
     8
 71
     3
 72
    10
 73
     6
 74
     0
 42
0.00000001
 43
0.00000001
 12
1.0
 22
0.0
 32
0.0
 13
1.0
 23
0.0
 33
0.0
 40
0.0
 40
0.0
 40
0.0
 40
0.0
 40
0.5
 40
0.5
 40
1.0
 40
1.0
 40
1.0
 40
1.0
 10
201.9578790265143
 20
100.3168624572723
 30
0.0
 10
201.9578790265143
 20
100.1572302883691
 30
0.0
 10
201.896242512809
 20
99.99618065460503
 30
0.0
 10
201.6772161465661
 20
99.76318977092843
 30
0.0
 10
201.5195992585187
 20
99.69200975532944
 30
0.0
 10
201.3578790265143
 20
99.69200975532944
 30
0.0
  0
SPLINE
  5
7D
330
1F
100
AcDbEntity
  8
0
  6
Continuous
 62
     7
370
    15
100
AcDbSpline
210
0.0
220
0.0
230
1.0
 70
    24
 71
     3
 72
    12
 73
     8
 74
     0
 42
0.00000001
 43
0.00000001
 12
1.0
 22
0.0
 32
0.0
 13
1.0
 23
0.0
 33
0.0
 40
0.0
 40
0.0
 40
0.0
 40
0.0
 40
0.2499999999999966
 40
0.2499999999999966
 40
0.4999999999999931
 40
0.4999999999999931
 40
1.0
 40
1.0
 40
1.0
 40
1.0
 10
201.3578790265143
 20
130.7708942783588
 30
0.0
 10
201.4460658918832
 20
130.7708942783588
 30
0.0
 10
201.5347532851845
 20
130.7708942783588
 30
0.0
 10
201.6890057783033
 20
130.7708942783588
 30
0.0
 10
201.7543517593793
 20
130.7708942783588
 30
0.0
 10
201.9087616293304
 20
130.7708942783588
 30
0.0
 10
201.9578790265143
 20
130.7708942783588
 30
0.0
 10
201.9578790265143
 20
130.7708942783588
 30
0.0
  0
LINE
  5
7E
330
1F
100
AcDbEntity
  8
0
  6
Continuous
 62
     7
370
    15
100
AcDbLine
 10
201.3578790265
 20
99.6920097553
 30
0.0
 11
200.0430387254
 21
99.6920097553
 31
0.0
  0
LINE
  5
7F
330
1F
100
AcDbEntity
  8
0
  6
Continuous
 62
     7
370
    15
100
AcDbLine
 10
200.0430387254
 20
99.6920097553
 30
0.0
 11
200.0430387254
 21
130.7708942784
 31
0.0
  0
LINE
  5
80
330
1F
100
AcDbEntity
  8
0
  6
Continuous
 62
     7
370
    15
100
AcDbLine
 10
200.0430387254
 20
130.7708942784
 30
0.0
 11
201.3578790265
 21
130.7708942784
 31
0.0
  0
LINE
  5
81
330
1F
100
AcDbEntity
  8
0
  6
Continuous
 62
     7
370
    15
100
AcDbLine
 10
196.9678790265
 20
101.4917708904
 30
0.0
 11
196.9678790265
 21
130.7708942784
 31
0.0
  0
SPLINE
  5
82
330
1F
100
AcDbEntity
  8
0
  6
Continuous
 62
     7
370
    15
100
AcDbSpline
210
0.0
220
0.0
230
1.0
 70
     8
 71
     3
 72
     8
 73
     4
 74
     0
 42
0.00000001
 43
0.00000001
 12
1.0
 22
0.0
 32
0.0
 13
1.0
 23
0.0
 33
0.0
 40
0.0
 40
0.0
 40
0.0
 40
0.0
 40
1.0
 40
1.0
 40
1.0
 40
1.0
 10
196.9678790265143
 20
101.4917708903691
 30
0.0
 10
196.6372403998997
 20
100.8912505392581
 30
0.0
 10
196.3054245993262
 20
100.2913814285531
 30
0.0
 10
195.9727193276209
 20
99.69200975532944
 30
0.0
  0
SPLINE
  5
83
330
1F
100
AcDbEntity
  8
0
  6
Continuous
 62
     7
370
    15
100
AcDbSpline
210
0.0
220
0.0
230
1.0
 70
    24
 71
     3
 72
     8
 73
     4
 74
     0
 42
0.00000001
 43
0.00000001
 12
1.0
 22
0.0
 32
0.0
 13
1.0
 23
0.0
 33
0.0
 40
0.0
 40
0.0
 40
0.0
 40
0.0
 40
1.0
 40
1.0
 40
1.0
 40
1.0
 10
195.9727193276209
 20
130.7708942783588
 30
0.0
 10
196.3117521493755
 20
130.7708942783588
 30
0.0
 10
196.6442423708921
 20
130.7708942783588
 30
0.0
 10
196.9678790265143
 20
130.7708942783588
 30
0.0
  0
SPLINE
  5
84
330
1F
100
AcDbEntity
  8
0
  6
Continuous
 62
     7
370
    15
100
AcDbSpline
210
0.0
220
0.0
230
1.0
 70
     8
 71
     3
 72
     8
 73
     4
 74
     0
 42
0.00000001
 43
0.00000001
 12
1.0
 22
0.0
 32
0.0
 13
1.0
 23
0.0
 33
0.0
 40
0.0
 40
0.0
 40
0.0
 40
0.0
 40
1.0
 40
1.0
 40
1.0
 40
1.0
 10
200.0430387254078
 20
99.69200975532944
 30
0.0
 10
199.7103334537024
 20
100.2913814285531
 30
0.0
 10
199.3785176531289
 20
100.8912505392581
 30
0.0
 10
199.0478790265143
 20
101.4917708903691
 30
0.0
  0
LINE
  5
85
330
1F
100
AcDbEntity
  8
0
  6
Continuous
 62
     7
370
    15
100
AcDbLine
 10
199.0478790265
 20
101.4917708904
 30
0.0
 11
199.0478790265
 21
130.7708942784
 31
0.0
  0
SPLINE
  5
86
330
1F
100
AcDbEntity
  8
0
  6
Continuous
 62
     7
370
    15
100
AcDbSpline
210
0.0
220
0.0
230
1.0
 70
    24
 71
     3
 72
     8
 73
     4
 74
     0
 42
0.00000001
 43
0.00000001
 12
1.0
 22
0.0
 32
0.0
 13
1.0
 23
0.0
 33
0.0
 40
0.0
 40
0.0
 40
0.0
 40
0.0
 40
1.0
 40
1.0
 40
1.0
 40
1.0
 10
199.0478790265143
 20
130.7708942783588
 30
0.0
 10
199.3715156821365
 20
130.7708942783588
 30
0.0
 10
199.7040059036532
 20
130.7708942783588
 30
0.0
 10
200.0430387254078
 20
130.7708942783588
 30
0.0
  0
SPLINE
  5
87
330
1F
100
AcDbEntity
  8
0
  6
Continuous
 62
     7
370
    15
100
AcDbSpline
210
0.0
220
0.0
230
1.0
 70
    24
 71
     3
 72
    16
 73
    12
 74
     0
 42
0.00000001
 43
0.00000001
 12
1.0
 22
0.0
 32
0.0
 13
1.0
 23
0.0
 33
0.0
 40
0.0
 40
0.0
 40
0.0
 40
0.0
 40
0.0625000000000001
 40
0.0625000000000001
 40
0.1250000000000002
 40
0.1250000000000002
 40
0.2500000000000003
 40
0.2500000000000003
 40
0.5000000000000007
 40
0.5000000000000007
 40
1.0
 40
1.0
 40
1.0
 40
1.0
 10
197.5678790265143
 20
102.0208942783588
 30
0.0
 10
197.5327725379002
 20
102.0208942783589
 30
0.0
 10
197.4996778528142
 20
102.0208942783588
 30
0.0
 10
197.4430781408884
 20
102.0208942783588
 30
0.0
 10
197.4187760867528
 20
102.0208942783588
 30
0.0
 10
197.3542480981119
 20
102.0208942783588
 30
0.0
 10
197.3206592725957
 20
102.0208942783588
 30
0.0
 10
197.2326198582466
 20
102.0208942783588
 30
0.0
 10
197.1895120943742
 20
102.0208942783588
 30
0.0
 10
197.0790778802011
 20
102.0208942783588
 30
0.0
 10
197.0328978618236
 20
102.0208942783588
 30
0.0
 10
197.0031014270957
 20
102.0208942783588
 30
0.0
  0
SPLINE
  5
88
330
1F
100
AcDbEntity
  8
0
  6
Continuous
 62
     7
370
    15
100
AcDbSpline
210
0.0
220
0.0
230
1.0
 70
    24
 71
     3
 72
    14
 73
    10
 74
     0
 42
0.00000001
 43
0.00000001
 12
1.0
 22
0.0
 32
0.0
 13
1.0
 23
0.0
 33
0.0
 40
0.0
 40
0.0
 40
0.0
 40
0.0
 40
0.25
 40
0.25
 40
0.5
 40
0.5
 40
0.75
 40
0.75
 40
1.0
 40
1.0
 40
1.0
 40
1.0
 10
196.9678790265143
 20
130.7708942783588
 30
0.0
 10
196.9678790265143
 20
130.7708942783588
 30
0.0
 10
196.9797560377753
 20
130.7708942783588
 30
0.0
 10
197.0282845275552
 20
130.7708942783588
 30
0.0
 10
197.0647029837795
 20
130.7708942783588
 30
0.0
 10
197.164830318308
 20
130.7708942783588
 30
0.0
 10
197.2280071297441
 20
130.7708942783588
 30
0.0
 10
197.38357763243
 20
130.7708942783588
 30
0.0
 10
197.4754539801848
 20
130.7708942783588
 30
0.0
 10
197.5678790265156
 20
130.7708942783588
 30
0.0
  0
SPLINE
  5
89
330
1F
100
AcDbEntity
  8
0
  6
Continuous
 62
     7
370
    15
100
AcDbSpline
210
0.0
220
0.0
230
1.0
 70
    24
 71
     3
 72
    16
 73
    12
 74
     0
 42
0.00000001
 43
0.00000001
 12
1.0
 22
0.0
 32
0.0
 13
1.0
 23
0.0
 33
0.0
 40
0.0
 40
0.0
 40
0.0
 40
0.0
 40
0.5000000000000028
 40
0.5000000000000028
 40
0.7500000000000033
 40
0.7500000000000033
 40
0.8750000000000043
 40
0.8750000000000043
 40
0.9375000000000022
 40
0.9375000000000022
 40
1.0
 40
1.0
 40
1.0
 40
1.0
 10
199.012656625933
 20
102.0208942783588
 30
0.0
 10
198.9826823080788
 20
102.0208942783589
 30
0.0
 10
198.9361659134736
 20
102.0208942783589
 30
0.0
 10
198.8263046077393
 20
102.0208942783588
 30
0.0
 10
198.7831519572098
 20
102.0208942783588
 30
0.0
 10
198.6943679040959
 20
102.0208942783588
 30
0.0
 10
198.6611787362174
 20
102.0208942783588
 30
0.0
 10
198.5964324358677
 20
102.0208942783588
 30
0.0
 10
198.5721612248854
 20
102.0208942783589
 30
0.0
 10
198.5156999476664
 20
102.0208942783588
 30
0.0
 10
198.4828963415931
 20
102.0208942783588
 30
0.0
 10
198.4478790265143
 20
102.0208942783588
 30
0.0
  0
SPLINE
  5
8A
330
1F
100
AcDbEntity
  8
0
  6
Continuous
 62
     7
370
    15
100
AcDbSpline
210
0.0
220
0.0
230
1.0
 70
    24
 71
     3
 72
    12
 73
     8
 74
     0
 42
0.00000001
 43
0.00000001
 12
1.0
 22
0.0
 32
0.0
 13
1.0
 23
0.0
 33
0.0
 40
0.0
 40
0.0
 40
0.0
 40
0.0
 40
0.25
 40
0.25
 40
0.5
 40
0.5
 40
1.0
 40
1.0
 40
1.0
 40
1.0
 10
198.4478790265143
 20
130.7708942783588
 30
0.0
 10
198.540182025703
 20
130.7708942783588
 30
0.0
 10
198.632925721662
 20
130.7708942783588
 30
0.0
 10
198.7879754519555
 20
130.7708942783588
 30
0.0
 10
198.851425423558
 20
130.7708942783588
 30
0.0
 10
199.0006855146181
 20
130.7708942783588
 30
0.0
 10
199.0478790265143
 20
130.7708942783588
 30
0.0
 10
199.0478790265143
 20
130.7708942783588
 30
0.0
  0
SPLINE
  5
8B
330
1F
100
AcDbEntity
  8
0
  6
Continuous
 62
     7
370
    15
100
AcDbSpline
210
0.0
220
0.0
230
1.0
 70
    24
 71
     3
 72
    10
 73
     6
 74
     0
 42
0.00000001
 43
0.00000001
 12
1.0
 22
0.0
 32
0.0
 13
1.0
 23
0.0
 33
0.0
 40
0.0
 40
0.0
 40
0.0
 40
0.0
 40
0.5000000000000001
 40
0.5000000000000001
 40
1.0
 40
1.0
 40
1.0
 40
1.0
 10
202.1578790265143
 20
135.8208942783588
 30
0.0
 10
202.1578790265143
 20
135.8208942783588
 30
0.0
 10
202.115233561696
 20
135.8208942783588
 30
0.0
 10
202.0153217735564
 20
135.8208942783588
 30
0.0
 10
201.9600959021749
 20
135.8208942783588
 30
0.0
 10
201.9579411496376
 20
135.8208942783588
 30
0.0
  0
SPLINE
  5
8C
330
1F
100
AcDbEntity
  8
0
  6
Continuous
 62
     7
370
    15
100
AcDbSpline
210
0.0
220
0.0
230
1.0
 70
    24
 71
     3
 72
    10
 73
     6
 74
     0
 42
0.00000001
 43
0.00000001
 12
1.0
 22
0.0
 32
0.0
 13
1.0
 23
0.0
 33
0.0
 40
0.0
 40
0.0
 40
0.0
 40
0.0
 40
0.5
 40
0.5
 40
1.0
 40
1.0
 40
1.0
 40
1.0
 10
202.1578790265143
 20
102.0208942783588
 30
0.0
 10
202.1578790265143
 20
102.0208942783588
 30
0.0
 10
202.1143467821163
 20
102.0208942783588
 30
0.0
 10
202.0133388800862
 20
102.0208942783588
 30
0.0
 10
201.9578790265143
 20
102.0208942783588
 30
0.0
 10
201.9578790265143
 20
102.0208942783588
 30
0.0
  0
SPLINE
  5
8D
330
1F
100
AcDbEntity
  8
0
  6
Continuous
 62
     7
370
    15
100
AcDbSpline
210
0.0
220
0.0
230
1.0
 70
    24
 71
     3
 72
    12
 73
     8
 74
     0
 42
0.00000001
 43
0.00000001
 12
1.0
 22
0.0
 32
0.0
 13
1.0
 23
0.0
 33
0.0
 40
0.0
 40
0.0
 40
0.0
 40
0.0
 40
0.4999999999999978
 40
0.4999999999999978
 40
0.7499999999999989
 40
0.7499999999999989
 40
1.0
 40
1.0
 40
1.0
 40
1.0
 10
201.9578790265143
 20
130.7708942783588
 30
0.0
 10
201.9578790265143
 20
130.7708942783588
 30
0.0
 10
201.9850997746419
 20
130.7708942783588
 30
0.0
 10
202.0655462204149
 20
130.7708942783588
 30
0.0
 10
202.0989934488929
 20
130.7708942783588
 30
0.0
 10
202.1814030186672
 20
130.7708942783588
 30
0.0
 10
202.2306861155508
 20
130.7708942783588
 30
0.0
 10
202.2870027381874
 20
130.7708942783588
 30
0.0
  0
SPLINE
  5
8E
330
1F
100
AcDbEntity
  8
0
  6
Continuous
 62
     7
370
    15
100
AcDbSpline
210
0.0
220
0.0
230
1.0
 70
     8
 71
     3
 72
    10
 73
     6
 74
     0
 42
0.00000001
 43
0.00000001
 12
1.0
 22
0.0
 32
0.0
 13
1.0
 23
0.0
 33
0.0
 40
0.0
 40
0.0
 40
0.0
 40
0.0
 40
0.5
 40
0.5
 40
1.0
 40
1.0
 40
1.0
 40
1.0
 10
201.9578790265143
 20
131.7982969667895
 30
0.0
 10
201.9578790265143
 20
131.6155882546545
 30
0.0
 10
201.9848523602224
 20
131.4320799648937
 30
0.0
 10
202.0924427280081
 20
131.083775986573
 30
0.0
 10
202.1739072723513
 20
130.9155884040301
 30
0.0
 10
202.2870027381871
 20
130.7708942783574
 30
0.0
  0
LINE
  5
8F
330
1F
100
AcDbEntity
  8
0
  6
Continuous
 62
     7
370
    15
100
AcDbLine
 10
198.4478790265
 20
102.0208942784
 30
0.0
 11
197.5678790265
 21
102.0208942784
 31
0.0
  0
LINE
  5
90
330
1F
100
AcDbEntity
  8
0
  6
Continuous
 62
     7
370
    15
100
AcDbLine
 10
197.5678790265
 20
130.7708942784
 30
0.0
 11
198.4478790265
 21
130.7708942784
 31
0.0
  0
ELLIPSE
  5
91
330
1F
100
AcDbEntity
  8
0
  6
Continuous
 62
     7
370
    15
100
AcDbEllipse
 10
278.7459526831
 20
118.9208942784
 30
0.0
 11
156.986727460918
 21
2.896208653788094
 31
0.0
210
0.0
220
0.0
230
1.0
 40
0.1034726254
 41
1.978393697675621
 42
2.011171845226037
  0
SPLINE
  5
92
330
1F
100
AcDbEntity
  8
0
  6
Continuous
 62
     7
370
    15
100
AcDbSpline
210
0.0
220
0.0
230
1.0
 70
     8
 71
     3
 72
    12
 73
     8
 74
     0
 42
0.00000001
 43
0.00000001
 12
1.0
 22
0.0
 32
0.0
 13
1.0
 23
0.0
 33
0.0
 40
0.0
 40
0.0
 40
0.0
 40
0.0
 40
0.2500000000000007
 40
0.2500000000000007
 40
0.5000000000000014
 40
0.5000000000000014
 40
1.0
 40
1.0
 40
1.0
 40
1.0
 10
210.8655739053764
 20
131.9893591320571
 30
0.0
 10
210.8852671758575
 20
132.0400003199359
 30
0.0
 10
210.9150492925687
 20
132.0875707265732
 30
0.0
 10
210.9959988070262
 20
132.1765618882587
 30
0.0
 10
211.047068052747
 20
132.2173550457791
 30
0.0
 10
211.2261409723392
 20
132.3218241202522
 30
0.0
 10
211.3847603472632
 20
132.3689015399276
 30
0.0
 10
211.5546917957935
 20
132.3803327664991
 30
0.0
  0
ELLIPSE
  5
93
330
1F
100
AcDbEntity
  8
0
  6
Continuous
 62
     7
370
    15
100
AcDbEllipse
 10
212.9155589583
 20
118.9208942784
 30
0.0
 11
0.8249710662703649
 21
16.49857054117957
 31
0.0
210
0.0
220
0.0
230
1.0
 40
0.263265937
 41
0.669835432945312
 42
2.847149501692192
  0
SPLINE
  5
94
330
1F
100
AcDbEntity
  8
0
  6
Continuous
 62
     7
370
    15
100
AcDbSpline
210
0.0
220
0.0
230
1.0
 70
     8
 71
     3
 72
    10
 73
     6
 74
     0
 42
0.00000001
 43
0.00000001
 12
1.0
 22
0.0
 32
0.0
 13
1.0
 23
0.0
 33
0.0
 40
0.0
 40
0.0
 40
0.0
 40
0.0
 40
0.5
 40
0.5
 40
1.0
 40
1.0
 40
1.0
 40
1.0
 10
211.5546917957935
 20
103.0088190293796
 30
0.0
 10
211.3851427384421
 20
103.0140355990553
 30
0.0
 10
211.2288281005111
 20
103.0348703461656
 30
0.0
 10
210.986276475122
 20
103.1012881614186
 30
0.0
 10
210.904905717321
 20
103.1452245374947
 30
0.0
 10
210.8655739053764
 20
103.1953871290166
 30
0.0
  0
ELLIPSE
  5
95
330
1F
100
AcDbEntity
  8
0
  6
Continuous
 62
     7
370
    15
100
AcDbEllipse
 10
278.7459526831
 20
118.9208942784
 30
0.0
 11
156.986727460918
 21
2.896208653788094
 31
0.0
210
0.0
220
0.0
230
1.0
 40
0.1034726254
 41
4.268195585704877
 42
4.300973733255288
  0
ELLIPSE
  5
96
330
1F
100
AcDbEntity
  8
0
  6
Continuous
 62
     7
370
    15
100
AcDbEllipse
 10
209.9212644777
 20
112.2701889754
 30
0.0
 11
-0.1021341842900369
 21
2.680095477712314
 31
0.0
210
0.0
220
0.0
230
1.0
 40
0.2233299508
 41
0.0
 42
6.283185307179586
  0
LINE
  5
97
330
1F
100
AcDbEntity
  8
0
  6
Continuous
 62
     7
370
    15
100
AcDbLine
 10
168.2078790265
 20
104.4083762423
 30
0.0
 11
168.2078790265
 21
105.2841475803
 31
0.0
  0
SPLINE
  5
98
330
1F
100
AcDbEntity
  8
0
  6
Continuous
 62
     7
370
    15
100
AcDbSpline
210
0.0
220
0.0
230
1.0
 70
     8
 71
     3
 72
    12
 73
     8
 74
     0
 42
0.00000001
 43
0.00000001
 12
1.0
 22
0.0
 32
0.0
 13
1.0
 23
0.0
 33
0.0
 40
0.0
 40
0.0
 40
0.0
 40
0.0
 40
0.2500000000000001
 40
0.2500000000000001
 40
0.5000000000000002
 40
0.5000000000000002
 40
1.0
 40
1.0
 40
1.0
 40
1.0
 10
167.8401439336575
 20
105.9905184154741
 30
0.0
 10
167.8655681505514
 20
105.9236328224003
 30
0.0
 10
167.9061799901207
 20
105.8591843327167
 30
0.0
 10
167.9907811363928
 20
105.7341836726388
 30
0.0
 10
168.0348779326783
 20
105.6736649274467
 30
0.0
 10
168.1509470411644
 20
105.4974588713383
 30
0.0
 10
168.2078790265143
 20
105.3870644563665
 30
0.0
 10
168.2078790265143
 20
105.2841475802734
 30
0.0
  0
SPLINE
  5
99
330
1F
100
AcDbEntity
  8
0
  6
Continuous
 62
     7
370
    15
100
AcDbSpline
210
0.0
220
0.0
230
1.0
 70
     8
 71
     3
 72
    14
 73
    10
 74
     0
 42
0.00000001
 43
0.00000001
 12
1.0
 22
0.0
 32
0.0
 13
1.0
 23
0.0
 33
0.0
 40
0.0
 40
0.0
 40
0.0
 40
0.0
 40
0.1250000000000015
 40
0.1250000000000015
 40
0.2500000000000029
 40
0.2500000000000029
 40
0.5000000000000026
 40
0.5000000000000026
 40
1.0
 40
1.0
 40
1.0
 40
1.0
 10
167.3078790265143
 20
106.4805242308478
 30
0.0
 10
167.3568913493256
 20
106.485049290003
 30
0.0
 10
167.4096975743211
 20
106.4769299044485
 30
0.0
 10
167.4947646660506
 20
106.446599829297
 30
0.0
 10
167.5293488513914
 20
106.4259448722206
 30
0.0
 10
167.6179045367286
 20
106.3614087488937
 30
0.0
 10
167.6588402380499
 20
106.3141705688411
 30
0.0
 10
167.7627207649528
 20
106.1743744675574
 30
0.0
 10
167.8059445643849
 20
106.0804895286881
 30
0.0
 10
167.8401439336575
 20
105.9905184154741
 30
0.0
  0
SPLINE
  5
9A
330
1F
100
AcDbEntity
  8
0
  6
Continuous
 62
     7
370
    15
100
AcDbSpline
210
0.0
220
0.0
230
1.0
 70
     8
 71
     3
 72
    10
 73
     6
 74
     0
 42
0.00000001
 43
0.00000001
 12
1.0
 22
0.0
 32
0.0
 13
1.0
 23
0.0
 33
0.0
 40
0.0
 40
0.0
 40
0.0
 40
0.0
 40
0.5
 40
0.5
 40
1.0
 40
1.0
 40
1.0
 40
1.0
 10
164.3870556348158
 20
106.1542721512813
 30
0.0
 10
164.859625691814
 20
106.2212576678603
 30
0.0
 10
165.3451881738077
 20
106.2794354836603
 30
0.0
 10
166.321566067473
 20
106.3863012269656
 30
0.0
 10
166.8135642865801
 20
106.4348866582709
 30
0.0
 10
167.3078790265143
 20
106.4805242308478
 30
0.0
  0
SPLINE
  5
9B
330
1F
100
AcDbEntity
  8
0
  6
Continuous
 62
     7
370
    15
100
AcDbSpline
210
0.0
220
0.0
230
1.0
 70
     8
 71
     3
 72
    10
 73
     6
 74
     0
 42
0.00000001
 43
0.00000001
 12
1.0
 22
0.0
 32
0.0
 13
1.0
 23
0.0
 33
0.0
 40
0.0
 40
0.0
 40
0.0
 40
0.0
 40
0.5
 40
0.5
 40
1.0
 40
1.0
 40
1.0
 40
1.0
 10
163.1168790265143
 20
106.0698274008026
 30
0.0
 10
163.3322380570717
 20
106.0768402317731
 30
0.0
 10
163.5466793953957
 20
106.0856149554284
 30
0.0
 10
163.9716706140162
 20
106.1106681329762
 30
0.0
 10
164.1830433457389
 20
106.1253539657766
 30
0.0
 10
164.3870556348158
 20
106.1542721512813
 30
0.0
  0
SPLINE
  5
9C
330
1F
100
AcDbEntity
  8
0
  6
Continuous
 62
     7
370
    15
100
AcDbSpline
210
0.0
220
0.0
230
1.0
 70
     8
 71
     3
 72
     8
 73
     4
 74
     0
 42
0.00000001
 43
0.00000001
 12
1.0
 22
0.0
 32
0.0
 13
1.0
 23
0.0
 33
0.0
 40
0.0
 40
0.0
 40
0.0
 40
0.0
 40
1.0
 40
1.0
 40
1.0
 40
1.0
 10
163.0493628769453
 20
106.2177165788153
 30
0.0
 10
163.0634973215734
 20
106.166920255182
 30
0.0
 10
163.086554696722
 20
106.1176815046218
 30
0.0
 10
163.1168790265143
 20
106.0698274008026
 30
0.0
  0
ELLIPSE
  5
9D
330
1F
100
AcDbEntity
  8
0
  6
Continuous
 62
     7
370
    15
100
AcDbEllipse
 10
149.5811368187
 20
118.2815966006
 30
0.0
 11
13.37355272666625
 21
-13.37146352987014
 31
0.0
210
0.0
220
0.0
230
1.0
 40
0.1761188775
 41
0.3023035477142499
 42
0.3822730435340347
  0
ELLIPSE
  5
9E
330
1F
100
AcDbEntity
  8
0
  6
Continuous
 62
     7
370
    15
100
AcDbEllipse
 10
149.501758388
 20
119.5600047297
 30
0.0
 11
13.369636111343
 21
13.36754752639482
 31
0.0
210
0.0
220
0.0
230
1.0
 40
0.1761188775
 41
5.933076931846601
 42
5.976720052691199
  0
SPLINE
  5
9F
330
1F
100
AcDbEntity
  8
0
  6
Continuous
 62
     7
370
    15
100
AcDbSpline
210
0.0
220
0.0
230
1.0
 70
     8
 71
     3
 72
     8
 73
     4
 74
     0
 42
0.00000001
 43
0.00000001
 12
1.0
 22
0.0
 32
0.0
 13
1.0
 23
0.0
 33
0.0
 40
0.0
 40
0.0
 40
0.0
 40
0.0
 40
1.0
 40
1.0
 40
1.0
 40
1.0
 10
163.0578790265143
 20
131.7864748253372
 30
0.0
 10
163.012114118825
 20
131.7249544461783
 30
0.0
 10
162.977726997195
 20
131.6610595864289
 30
0.0
 10
162.9587117435221
 20
131.5943296413852
 30
0.0
  0
SPLINE
  5
A0
330
1F
100
AcDbEntity
  8
0
  6
Continuous
 62
     7
370
    15
100
AcDbSpline
210
0.0
220
0.0
230
1.0
 70
     8
 71
     3
 72
    12
 73
     8
 74
     0
 42
0.00000001
 43
0.00000001
 12
1.0
 22
0.0
 32
0.0
 13
1.0
 23
0.0
 33
0.0
 40
0.0
 40
0.0
 40
0.0
 40
0.0
 40
0.2500000000000014
 40
0.2500000000000014
 40
0.5000000000000028
 40
0.5000000000000028
 40
1.0
 40
1.0
 40
1.0
 40
1.0
 10
164.8078790265143
 20
131.701688137018
 30
0.0
 10
164.6658366233251
 20
131.7175138651942
 30
0.0
 10
164.521718516821
 20
131.7285349989696
 30
0.0
 10
164.2319640031485
 20
131.7470713608367
 30
0.0
 10
164.0862220997897
 20
131.7543420665725
 30
0.0
 10
163.6475418606099
 20
131.7728029169005
 30
0.0
 10
163.3531662445387
 20
131.7806817837241
 30
0.0
 10
163.0578790265143
 20
131.7864748253372
 30
0.0
  0
SPLINE
  5
A1
330
1F
100
AcDbEntity
  8
0
  6
Continuous
 62
     7
370
    15
100
AcDbSpline
210
0.0
220
0.0
230
1.0
 70
     8
 71
     3
 72
    20
 73
    16
 74
     0
 42
0.00000001
 43
0.00000001
 12
1.0
 22
0.0
 32
0.0
 13
1.0
 23
0.0
 33
0.0
 40
0.0
 40
0.0
 40
0.0
 40
0.0
 40
0.2500000000000014
 40
0.2500000000000014
 40
0.5000000000000029
 40
0.5000000000000029
 40
0.7500000000000043
 40
0.7500000000000043
 40
0.8750000000000032
 40
0.8750000000000032
 40
0.9375000000000017
 40
0.9375000000000017
 40
0.9687500000000008
 40
0.9687500000000008
 40
1.0
 40
1.0
 40
1.0
 40
1.0
 10
165.7078790265153
 20
132.4784184001067
 30
0.0
 10
165.7078790265153
 20
132.4178090004093
 30
0.0
 10
165.6824840069384
 20
132.3519830350058
 30
0.0
 10
165.5961908211564
 20
132.2179352656592
 30
0.0
 10
165.5355548424731
 20
132.1492399075174
 30
0.0
 10
165.3874530482519
 20
132.0088413558629
 30
0.0
 10
165.3006834414732
 20
131.9371378512816
 30
0.0
 10
165.152045646144
 20
131.8309744495327
 30
0.0
 10
165.0997564292578
 20
131.7954461009012
 30
0.0
 10
165.0089926009479
 20
131.7457421703857
 30
0.0
 10
164.976626608496
 20
131.7294811723706
 30
0.0
 10
164.9189374528297
 20
131.7103686040246
 30
0.0
 10
164.8979504249423
 20
131.7049774619431
 30
0.0
 10
164.8526614459518
 20
131.6992400935506
 30
0.0
 10
164.8296471771133
 20
131.699262827204
 30
0.0
 10
164.8078790265137
 20
131.7016881370169
 30
0.0
  0
LINE
  5
A2
330
1F
100
AcDbEntity
  8
0
  6
Continuous
 62
     7
370
    15
100
AcDbLine
 10
165.7078790265
 20
132.4784184001
 30
0.0
 11
165.7078790265
 21
133.3081618134
 31
0.0
  0
LINE
  5
A3
330
1F
100
AcDbEntity
  8
0
  6
Continuous
 62
     7
370
    15
100
AcDbLine
 10
180.0078790265
 20
103.8171938776
 30
0.0
 11
180.0078790265
 21
134.0245946792
 31
0.0
  0
SPLINE
  5
A4
330
1F
100
AcDbEntity
  8
0
  6
Continuous
 62
     7
370
    15
100
AcDbSpline
210
0.0
220
0.0
230
1.0
 70
     8
 71
     3
 72
    24
 73
    20
 74
     0
 42
0.00000001
 43
0.00000001
 12
1.0
 22
0.0
 32
0.0
 13
1.0
 23
0.0
 33
0.0
 40
0.0
 40
0.0
 40
0.0
 40
0.0
 40
0.0016643206052771
 40
0.0648792882012562
 40
0.1278826362656116
 40
0.1913652208697587
 40
0.2543782209291212
 40
0.3163193242325723
 40
0.3777469826521513
 40
0.4397082231452127
 40
0.5014188941660083
 40
0.5625360836783364
 40
0.6237133377388476
 40
0.6863020268400813
 40
0.7490598688494037
 40
0.8115924779751
 40
0.8743360193383471
 40
0.9379727055969234
 40
1.0
 40
1.0
 40
1.0
 40
1.0
 10
173.1924223474392
 20
104.1589273922547
 30
0.0
 10
173.1919449159935
 20
104.1588589753599
 30
0.0
 10
173.1733334704205
 20
104.1561919174499
 30
0.0
 10
173.2364756036689
 20
104.1659070698698
 30
0.0
 10
173.3885182240182
 20
104.1881121333321
 30
0.0
 10
173.6564434512652
 20
104.2225466808758
 30
0.0
 10
174.0057575255659
 20
104.2610107353545
 30
0.0
 10
174.4328082175052
 20
104.2952393492946
 30
0.0
 10
174.9202481759873
 20
104.317689924936
 30
0.0
 10
175.4518983290448
 20
104.3212858127169
 30
0.0
 10
176.0030189705902
 20
104.3042714829828
 30
0.0
 10
176.5504768535097
 20
104.2643258461024
 30
0.0
 10
177.0751111215745
 20
104.2052185059856
 30
0.0
 10
177.5568995568445
 20
104.1328535455116
 30
0.0
 10
177.9818479904621
 20
104.056533664411
 30
0.0
 10
178.3280644468309
 20
103.984548262684
 30
0.0
 10
178.5831427459337
 20
103.9261619292466
 30
0.0
 10
178.7433381328301
 20
103.8865020277706
 30
0.0
 10
178.7639722119644
 20
103.8816777072285
 30
0.0
 10
178.7741571201176
 20
103.8792964397484
 30
0.0
  0
SPLINE
  5
A5
330
1F
100
AcDbEntity
  8
0
  6
Continuous
 62
     7
370
    15
100
AcDbSpline
210
0.0
220
0.0
230
1.0
 70
     8
 71
     3
 72
    24
 73
    20
 74
     0
 42
0.00000001
 43
0.00000001
 12
1.0
 22
0.0
 32
0.0
 13
1.0
 23
0.0
 33
0.0
 40
0.0
 40
0.0
 40
0.0
 40
0.0
 40
0.0629034705483511
 40
0.1256338607442369
 40
0.1890239770438915
 40
0.2513957724609088
 40
0.3139907012378607
 40
0.3762905031717215
 40
0.4374458692513006
 40
0.4985431897945621
 40
0.5603281700727123
 40
0.6223344218846186
 40
0.6838864714806622
 40
0.745803562596468
 40
0.8089499562205675
 40
0.87232459873134
 40
0.9353799512544988
 40
0.998863534782079
 40
1.0
 40
1.0
 40
1.0
 40
1.0
 10
178.7731583351888
 20
133.9624937780127
 30
0.0
 10
178.7636876466196
 20
133.9600706079158
 30
0.0
 10
178.7447723282997
 20
133.9552309351303
 30
0.0
 10
178.5827212193572
 20
133.9152601235202
 30
0.0
 10
178.3261959895054
 20
133.8569157143238
 30
0.0
 10
177.9801396557374
 20
133.7846809205035
 30
0.0
 10
177.5562403753625
 20
133.7085309153744
 30
0.0
 10
177.0752572112032
 20
133.6364131141649
 30
0.0
 10
176.5512738701046
 20
133.5775246957985
 30
0.0
 10
176.0036759141899
 20
133.5376138864189
 30
0.0
 10
175.4521996722206
 20
133.5205770070998
 30
0.0
 10
174.9197584277351
 20
133.5241407481274
 30
0.0
 10
174.4317763058397
 20
133.5465744207982
 30
0.0
 10
174.0042635685418
 20
133.5808637814252
 30
0.0
 10
173.6553620283317
 20
133.6193677803655
 30
0.0
 10
173.3881079828381
 20
133.6538240236406
 30
0.0
 10
173.2351712344138
 20
133.6759063836203
 30
0.0
 10
173.1740682751574
 20
133.6857354166401
 30
0.0
 10
173.1916467799523
 20
133.6829715633998
 30
0.0
 10
173.1919559310543
 20
133.682922955837
 30
0.0
  0
SPLINE
  5
A6
330
1F
100
AcDbEntity
  8
0
  6
Continuous
 62
     7
370
    15
100
AcDbSpline
210
0.0
220
0.0
230
1.0
 70
     8
 71
     3
 72
    26
 73
    22
 74
     0
 42
0.00000001
 43
0.00000001
 12
1.0
 22
0.0
 32
0.0
 13
1.0
 23
0.0
 33
0.0
 40
0.0
 40
0.0
 40
0.0
 40
0.0
 40
0.2500000000000042
 40
0.2500000000000042
 40
0.3750000000000053
 40
0.3750000000000053
 40
0.4375000000000064
 40
0.4375000000000064
 40
0.4687500000000062
 40
0.4687500000000062
 40
0.5000000000000059
 40
0.5000000000000059
 40
0.5312500000000057
 40
0.5312500000000057
 40
0.5625000000000053
 40
0.5625000000000053
 40
0.6250000000000048
 40
0.6250000000000048
 40
0.7500000000000029
 40
0.7500000000000029
 40
1.0
 40
1.0
 40
1.0
 40
1.0
 10
162.8678490729022
 20
131.3089748579717
 30
0.0
 10
162.8204609634737
 20
131.1733191159487
 30
0.0
 10
162.7628196615693
 20
131.0293577176194
 30
0.0
 10
162.640771849026
 20
130.786585144365
 30
0.0
 10
162.5947228412494
 20
130.7015455039156
 30
0.0
 10
162.5040695570839
 20
130.5611695308753
 30
0.0
 10
162.4697170567983
 20
130.5112581535365
 30
0.0
 10
162.4072818844078
 20
130.4347228886822
 30
0.0
 10
162.3839878656097
 20
130.4083184096953
 30
0.0
 10
162.3349353284832
 20
130.3607236444343
 30
0.0
 10
162.3105038788264
 20
130.3412810305825
 30
0.0
 10
162.2698742832065
 20
130.3163732529143
 30
0.0
 10
162.2537120013554
 20
130.3103034216034
 30
0.0
 10
162.2267299572522
 20
130.3046145500096
 30
0.0
 10
162.2159804344294
 20
130.3050050580903
 30
0.0
 10
162.1879444602723
 20
130.3111474048788
 30
0.0
 10
162.1750832282397
 20
130.3218114112968
 30
0.0
 10
162.1440803670793
 20
130.360824201657
 30
0.0
 10
162.1332208850102
 20
130.3968761920613
 30
0.0
 10
162.1099436290722
 20
130.5145555895604
 30
0.0
 10
162.1078790265142
 20
130.6058854898934
 30
0.0
 10
162.1078790265142
 20
130.6991257427996
 30
0.0
  0
SPLINE
  5
A7
330
1F
100
AcDbEntity
  8
0
  6
Continuous
 62
     7
370
    15
100
AcDbSpline
210
0.0
220
0.0
230
1.0
 70
     8
 71
     3
 72
    12
 73
     8
 74
     0
 42
0.00000001
 43
0.00000001
 12
1.0
 22
0.0
 32
0.0
 13
1.0
 23
0.0
 33
0.0
 40
0.0
 40
0.0
 40
0.0
 40
0.0
 40
0.2500000000000002
 40
0.2500000000000002
 40
0.5000000000000004
 40
0.5000000000000004
 40
1.0
 40
1.0
 40
1.0
 40
1.0
 10
162.5023476250846
 20
107.4559781199871
 30
0.0
 10
162.5525826341298
 20
107.3851625176071
 30
0.0
 10
162.5926274732728
 20
107.3197649652793
 30
0.0
 10
162.6650799906991
 20
107.1937741617957
 30
0.0
 10
162.6963743884016
 20
107.1344106256994
 30
0.0
 10
162.7819831181321
 20
106.9624134047157
 30
0.0
 10
162.8279839144158
 20
106.8559018803671
 30
0.0
 10
162.8678490729022
 20
106.7539086934334
 30
0.0
  0
SPLINE
  5
A8
330
1F
100
AcDbEntity
  8
0
  6
Continuous
 62
     7
370
    15
100
AcDbSpline
210
0.0
220
0.0
230
1.0
 70
     8
 71
     3
 72
     8
 73
     4
 74
     0
 42
0.00000001
 43
0.00000001
 12
1.0
 22
0.0
 32
0.0
 13
1.0
 23
0.0
 33
0.0
 40
0.0
 40
0.0
 40
0.0
 40
0.0
 40
1.0
 40
1.0
 40
1.0
 40
1.0
 10
162.2347239462028
 20
107.7074621161757
 30
0.0
 10
162.3013255752139
 20
107.6060237173951
 30
0.0
 10
162.393268528393
 20
107.5186224861081
 30
0.0
 10
162.5023476250845
 20
107.4559781199872
 30
0.0
  0
SPLINE
  5
A9
330
1F
100
AcDbEntity
  8
0
  6
Continuous
 62
     7
370
    15
100
AcDbSpline
210
0.0
220
0.0
230
1.0
 70
     8
 71
     3
 72
    14
 73
    10
 74
     0
 42
0.00000001
 43
0.00000001
 12
1.0
 22
0.0
 32
0.0
 13
1.0
 23
0.0
 33
0.0
 40
0.0
 40
0.0
 40
0.0
 40
0.0
 40
0.4999999999999996
 40
0.4999999999999996
 40
0.7499999999999994
 40
0.7499999999999994
 40
0.8749999999999998
 40
0.8749999999999998
 40
1.0
 40
1.0
 40
1.0
 40
1.0
 10
162.1078790265143
 20
107.3733810771375
 30
0.0
 10
162.1078790265143
 20
107.4501926491448
 30
0.0
 10
162.1104082841141
 20
107.524609910476
 30
0.0
 10
162.1301792306471
 20
107.6211111881776
 30
0.0
 10
162.1394408305206
 20
107.6508527848524
 30
0.0
 10
162.1629022444301
 20
107.6853504110756
 30
0.0
 10
162.1723246590943
 20
107.6951810495043
 30
0.0
 10
162.1973940490466
 20
107.7083588779973
 30
0.0
 10
162.2126985034394
 20
107.711957112977
 30
0.0
 10
162.2347239461981
 20
107.7074621161862
 30
0.0
  0
LINE
  5
AA
330
1F
100
AcDbEntity
  8
0
  6
Continuous
 62
     7
370
    15
100
AcDbLine
 10
162.1078790265
 20
107.3733810771
 30
0.0
 11
162.1078790265
 21
130.6991257428
 31
0.0
  0
SPLINE
  5
AB
330
1F
100
AcDbEntity
  8
0
  6
Continuous
 62
     7
370
    15
100
AcDbSpline
210
0.0
220
0.0
230
1.0
 70
     8
 71
     3
 72
    10
 73
     6
 74
     0
 42
0.00000001
 43
0.00000001
 12
1.0
 22
0.0
 32
0.0
 13
1.0
 23
0.0
 33
0.0
 40
0.0
 40
0.0
 40
0.0
 40
0.0
 40
0.5
 40
0.5
 40
1.0
 40
1.0
 40
1.0
 40
1.0
 10
201.9578790265143
 20
137.7917713115017
 30
0.0
 10
201.9578790265143
 20
137.9502057543896
 30
0.0
 10
201.8957178100314
 20
138.1092264491915
 30
0.0
 10
201.6752084693597
 20
138.3392342734472
 30
0.0
 10
201.5162933664146
 20
138.408069548264
 30
0.0
 10
201.3578790265143
 20
138.408069548264
 30
0.0
  0
LINE
  5
AC
330
1F
100
AcDbEntity
  8
0
  6
Continuous
 62
     7
370
    15
100
AcDbLine
 10
201.9578790265
 20
134.2811514377
 30
0.0
 11
201.9578790265
 21
137.7917713115
 31
0.0
  0
SPLINE
  5
AD
330
1F
100
AcDbEntity
  8
0
  6
Continuous
 62
     7
370
    15
100
AcDbSpline
210
0.0
220
0.0
230
1.0
 70
     8
 71
     3
 72
    12
 73
     8
 74
     0
 42
0.00000001
 43
0.00000001
 12
1.0
 22
0.0
 32
0.0
 13
1.0
 23
0.0
 33
0.0
 40
0.0
 40
0.0
 40
0.0
 40
0.0
 40
0.25
 40
0.25
 40
0.5
 40
0.5
 40
1.0
 40
1.0
 40
1.0
 40
1.0
 10
201.3578790265143
 20
135.0323032794363
 30
0.0
 10
201.4471673855581
 20
135.0323032794363
 30
0.0
 10
201.5352262164603
 20
135.0066786468315
 30
0.0
 10
201.6878799297094
 20
134.9181352738998
 30
0.0
 10
201.7536734230514
 20
134.8552527907851
 30
0.0
 10
201.9091140697675
 20
134.6378916028515
 30
0.0
 10
201.9578790265143
 20
134.4592445928402
 30
0.0
 10
201.9578790265143
 20
134.2811514376645
 30
0.0
  0
LINE
  5
AE
330
1F
100
AcDbEntity
  8
0
  6
Continuous
 62
     7
370
    15
100
AcDbLine
 10
201.3578790265
 20
138.4080695483
 30
0.0
 11
200.0430387254
 21
138.4080695483
 31
0.0
  0
LINE
  5
AF
330
1F
100
AcDbEntity
  8
0
  6
Continuous
 62
     7
370
    15
100
AcDbLine
 10
200.0430387254
 20
135.0323032794
 30
0.0
 11
201.3578790265
 21
135.0323032794
 31
0.0
  0
LINE
  5
B0
330
1F
100
AcDbEntity
  8
0
  6
Continuous
 62
     7
370
    15
100
AcDbLine
 10
200.0430387254
 20
135.0323032794
 30
0.0
 11
200.0430387254
 21
138.4080695483
 31
0.0
  0
LINE
  5
B1
330
1F
100
AcDbEntity
  8
0
  6
Continuous
 62
     7
370
    15
100
AcDbLine
 10
198.4478790265
 20
135.8208942784
 30
0.0
 11
197.5678790265
 21
135.8208942784
 31
0.0
  0
LINE
  5
B2
330
1F
100
AcDbEntity
  8
0
  6
Continuous
 62
     7
370
    15
100
AcDbLine
 10
197.5678790265
 20
131.6279051385
 30
0.0
 11
198.4478790265
 21
131.6279051385
 31
0.0
  0
SPLINE
  5
B3
330
1F
100
AcDbEntity
  8
0
  6
Continuous
 62
     7
370
    15
100
AcDbSpline
210
0.0
220
0.0
230
1.0
 70
    24
 71
     3
 72
    12
 73
     8
 74
     0
 42
0.00000001
 43
0.00000001
 12
1.0
 22
0.0
 32
0.0
 13
1.0
 23
0.0
 33
0.0
 40
0.0
 40
0.0
 40
0.0
 40
0.0
 40
0.5000000000000044
 40
0.5000000000000044
 40
0.7500000000000022
 40
0.7500000000000022
 40
1.0
 40
1.0
 40
1.0
 40
1.0
 10
198.7995346407651
 20
135.8208942783588
 30
0.0
 10
198.7653646794146
 20
135.8208942783588
 30
0.0
 10
198.7261145383631
 20
135.8208942783588
 30
0.0
 10
198.6481145278501
 20
135.8208942783588
 30
0.0
 10
198.6187115994492
 20
135.8208942783588
 30
0.0
 10
198.5455670053007
 20
135.8208942783588
 30
0.0
 10
198.4989370273328
 20
135.8208942783588
 30
0.0
 10
198.4478790265143
 20
135.8208942783588
 30
0.0
  0
SPLINE
  5
B4
330
1F
100
AcDbEntity
  8
0
  6
Continuous
 62
     7
370
    15
100
AcDbSpline
210
0.0
220
0.0
230
1.0
 70
     8
 71
     3
 72
    10
 73
     6
 74
     0
 42
0.00000001
 43
0.00000001
 12
1.0
 22
0.0
 32
0.0
 13
1.0
 23
0.0
 33
0.0
 40
0.0
 40
0.0
 40
0.0
 40
0.0
 40
0.5
 40
0.5
 40
1.0
 40
1.0
 40
1.0
 40
1.0
 10
199.0478790265143
 20
136.3234982501776
 30
0.0
 10
199.0478790265142
 20
136.226955702702
 30
0.0
 10
199.0259384039332
 20
136.130494502433
 30
0.0
 10
198.939808218543
 20
135.9550919081899
 30
0.0
 10
198.8767259114006
 20
135.8786763758233
 30
0.0
 10
198.799534640769
 20
135.8208942783623
 30
0.0
  0
SPLINE
  5
B5
330
1F
100
AcDbEntity
  8
0
  6
Continuous
 62
     7
370
    15
100
AcDbSpline
210
0.0
220
0.0
230
1.0
 70
     8
 71
     3
 72
    12
 73
     8
 74
     0
 42
0.00000001
 43
0.00000001
 12
1.0
 22
0.0
 32
0.0
 13
1.0
 23
0.0
 33
0.0
 40
0.0
 40
0.0
 40
0.0
 40
0.0
 40
0.2500000000000013
 40
0.2500000000000013
 40
0.5000000000000026
 40
0.5000000000000026
 40
1.0
 40
1.0
 40
1.0
 40
1.0
 10
198.4478790265143
 20
131.62790513851
 30
0.0
 10
198.5411300448475
 20
131.62790513851
 30
0.0
 10
198.6326357536734
 20
131.6589664569094
 30
0.0
 10
198.7875592882084
 20
131.76158710729
 30
0.0
 10
198.8511541061507
 20
131.8312396353687
 30
0.0
 10
199.0017130628337
 20
132.0664545672705
 30
0.0
 10
199.0478790265143
 20
132.2512606566798
 30
0.0
 10
199.0478790265143
 20
132.4367414586136
 30
0.0
  0
SPLINE
  5
B6
330
1F
100
AcDbEntity
  8
0
  6
Continuous
 62
     7
370
    15
100
AcDbSpline
210
0.0
220
0.0
230
1.0
 70
     8
 71
     3
 72
     8
 73
     4
 74
     0
 42
0.00000001
 43
0.00000001
 12
1.0
 22
0.0
 32
0.0
 13
1.0
 23
0.0
 33
0.0
 40
0.0
 40
0.0
 40
0.0
 40
0.0
 40
1.0
 40
1.0
 40
1.0
 40
1.0
 10
200.0430387254078
 20
138.4080695482639
 30
0.0
 10
199.7106806290181
 20
137.8172593345919
 30
0.0
 10
199.378899357534
 20
137.2261266703468
 30
0.0
 10
199.0478790265143
 20
136.6345709738891
 30
0.0
  0
SPLINE
  5
B7
330
1F
100
AcDbEntity
  8
0
  6
Continuous
 62
     7
370
    15
100
AcDbSpline
210
0.0
220
0.0
230
1.0
 70
     8
 71
     3
 72
     8
 73
     4
 74
     0
 42
0.00000001
 43
0.00000001
 12
1.0
 22
0.0
 32
0.0
 13
1.0
 23
0.0
 33
0.0
 40
0.0
 40
0.0
 40
0.0
 40
0.0
 40
1.0
 40
1.0
 40
1.0
 40
1.0
 10
199.0478790265143
 20
132.8349821778142
 30
0.0
 10
199.3714365847692
 20
133.5710985764368
 30
0.0
 10
199.7039309049862
 20
134.3031901718554
 30
0.0
 10
200.0430387254078
 20
135.0323032794363
 30
0.0
  0
LINE
  5
B8
330
1F
100
AcDbEntity
  8
0
  6
Continuous
 62
     7
370
    15
100
AcDbLine
 10
199.0478790265
 20
132.8349821778
 30
0.0
 11
199.0478790265
 21
136.6345709739
 31
0.0
  0
SPLINE
  5
B9
330
1F
100
AcDbEntity
  8
0
  6
Continuous
 62
     7
370
    15
100
AcDbSpline
210
0.0
220
0.0
230
1.0
 70
     8
 71
     3
 72
     8
 73
     4
 74
     0
 42
0.00000001
 43
0.00000001
 12
1.0
 22
0.0
 32
0.0
 13
1.0
 23
0.0
 33
0.0
 40
0.0
 40
0.0
 40
0.0
 40
0.0
 40
1.0
 40
1.0
 40
1.0
 40
1.0
 10
196.9678790265143
 20
136.6345709738891
 30
0.0
 10
196.6368586954947
 20
137.2261266703468
 30
0.0
 10
196.3050774240105
 20
137.817259334592
 30
0.0
 10
195.9727193276209
 20
138.4080695482639
 30
0.0
  0
LINE
  5
BA
330
1F
100
AcDbEntity
  8
0
  6
Continuous
 62
     7
370
    15
100
AcDbLine
 10
196.9678790265
 20
132.8349821778
 30
0.0
 11
196.9678790265
 21
136.6345709739
 31
0.0
  0
SPLINE
  5
BB
330
1F
100
AcDbEntity
  8
0
  6
Continuous
 62
     7
370
    15
100
AcDbSpline
210
0.0
220
0.0
230
1.0
 70
     8
 71
     3
 72
     8
 73
     4
 74
     0
 42
0.00000001
 43
0.00000001
 12
1.0
 22
0.0
 32
0.0
 13
1.0
 23
0.0
 33
0.0
 40
0.0
 40
0.0
 40
0.0
 40
0.0
 40
1.0
 40
1.0
 40
1.0
 40
1.0
 10
195.9727193276209
 20
135.0323032794363
 30
0.0
 10
196.3121423689026
 20
134.3025124179169
 30
0.0
 10
196.6446531123976
 20
133.5703440624953
 30
0.0
 10
196.9678790265143
 20
132.8349821778143
 30
0.0
  0
SPLINE
  5
BC
330
1F
100
AcDbEntity
  8
0
  6
Continuous
 62
     7
370
    15
100
AcDbSpline
210
0.0
220
0.0
230
1.0
 70
     8
 71
     3
 72
    10
 73
     6
 74
     0
 42
0.00000001
 43
0.00000001
 12
1.0
 22
0.0
 32
0.0
 13
1.0
 23
0.0
 33
0.0
 40
0.0
 40
0.0
 40
0.0
 40
0.0
 40
0.5
 40
0.5
 40
1.0
 40
1.0
 40
1.0
 40
1.0
 10
197.2162234122643
 20
135.8208942783588
 30
0.0
 10
197.1388986803901
 20
135.8787762792205
 30
0.0
 10
197.0755188548536
 20
135.9558496238544
 30
0.0
 10
196.9899484060805
 20
136.1303526820483
 30
0.0
 10
196.9678790265143
 20
136.2271578855287
 30
0.0
 10
196.9678790265143
 20
136.3234982501787
 30
0.0
  0
SPLINE
  5
BD
330
1F
100
AcDbEntity
  8
0
  6
Continuous
 62
     7
370
    15
100
AcDbSpline
210
0.0
220
0.0
230
1.0
 70
    24
 71
     3
 72
    12
 73
     8
 74
     0
 42
0.00000001
 43
0.00000001
 12
1.0
 22
0.0
 32
0.0
 13
1.0
 23
0.0
 33
0.0
 40
0.0
 40
0.0
 40
0.0
 40
0.0
 40
0.25
 40
0.25
 40
0.5
 40
0.5
 40
1.0
 40
1.0
 40
1.0
 40
1.0
 10
197.5678790265141
 20
135.8208942783588
 30
0.0
 10
197.5165897814777
 20
135.8208942783588
 30
0.0
 10
197.4694017558061
 20
135.8208942783588
 30
0.0
 10
197.3963855471111
 20
135.8208942783588
 30
0.0
 10
197.3668939395714
 20
135.8208942783588
 30
0.0
 10
197.289311900477
 20
135.8208942783588
 30
0.0
 10
197.2501505877617
 20
135.8208942783588
 30
0.0
 10
197.2162234122635
 20
135.8208942783588
 30
0.0
  0
SPLINE
  5
BE
330
1F
100
AcDbEntity
  8
0
  6
Continuous
 62
     7
370
    15
100
AcDbSpline
210
0.0
220
0.0
230
1.0
 70
     8
 71
     3
 72
    12
 73
     8
 74
     0
 42
0.00000001
 43
0.00000001
 12
1.0
 22
0.0
 32
0.0
 13
1.0
 23
0.0
 33
0.0
 40
0.0
 40
0.0
 40
0.0
 40
0.0
 40
0.500000000000002
 40
0.500000000000002
 40
0.750000000000001
 40
0.750000000000001
 40
1.0
 40
1.0
 40
1.0
 40
1.0
 10
196.9678790265143
 20
132.4367414586136
 30
0.0
 10
196.9678790265143
 20
132.2523022329871
 30
0.0
 10
197.0147217209668
 20
132.0653930134798
 30
0.0
 10
197.1642737436634
 20
131.831757660859
 30
0.0
 10
197.2283787389676
 20
131.7615080290818
 30
0.0
 10
197.3826076942742
 20
131.6592672801206
 30
0.0
 10
197.4752842022072
 20
131.6279051385102
 30
0.0
 10
197.567879026514
 20
131.6279051385101
 30
0.0
  0
LINE
  5
BF
330
1F
100
AcDbEntity
  8
0
  6
Continuous
 62
     7
370
    15
100
AcDbLine
 10
196.9678790265
 20
132.8349821778
 30
0.0
 11
196.9678790265
 21
132.4367414586
 31
0.0
  0
LINE
  5
C0
330
1F
100
AcDbEntity
  8
0
  6
Continuous
 62
     7
370
    15
100
AcDbLine
 10
201.9578790265
 20
134.2811514377
 30
0.0
 11
201.9578790265
 21
131.7982969668
 31
0.0
  0
LINE
  5
C1
330
1F
100
AcDbEntity
  8
0
  6
Continuous
 62
     7
370
    15
100
AcDbLine
 10
199.0478790265
 20
132.4367414586
 30
0.0
 11
199.0478790265
 21
132.8349821778
 31
0.0
  0
LWPOLYLINE
  5
C2
330
1F
100
AcDbEntity
  8
0
  6
Continuous
 62
     7
370
    15
100
AcDbPolyline
 90
       37
 70
   128
 43
0.0
 10
221.7025345634
 20
118.7862339961
 10
222.3069737651
 20
118.7449006628
 10
222.8930473876
 20
118.6000931237
 10
223.4429478803
 20
118.3562112824
 10
223.9399667951
 20
118.0206653653
 10
224.3690024637
 20
117.6036507654
 10
224.7170188544
 20
117.1178382601
 10
224.9734416654
 20
116.5779890168
 10
225.1304796192
 20
116.0005060813
 10
225.1833611972
 20
115.4029359806
 10
225.1304796192
 20
114.8034355797
 10
224.9734416654
 20
114.2202203949
 10
224.7170188544
 20
113.6710111246
 10
224.3690024637
 20
113.1724952145
 10
223.9399667951
 20
112.7398198182
 10
223.4429478803
 20
112.3861315587
 10
222.8930473876
 20
112.1221770749
 10
222.3069737651
 20
111.9559764901
 10
221.7025345634
 20
111.892579725
 10
221.0980953617
 20
111.9339130582
 10
220.5120217392
 20
112.0787205974
 10
219.9621212465
 20
112.3226024386
 10
219.4651023317
 20
112.6581483557
 10
219.0360666631
 20
113.0751629557
 10
218.6880502724
 20
113.5609754609
 10
218.4316274614
 20
114.1008247043
 10
218.2745895075
 20
114.6783076397
 10
218.2217079296
 20
115.2758777405
 10
218.2745895075
 20
115.8753781414
 10
218.4316274614
 20
116.4585933261
 10
218.6880502724
 20
117.0078025964
 10
219.0360666631
 20
117.5063185066
 10
219.4651023317
 20
117.9389939029
 10
219.9621212465
 20
118.2926821623
 10
220.5120217392
 20
118.5566366462
 10
221.0980953617
 20
118.722837231
 10
221.7025345634
 20
118.7862339961
  0
SPLINE
  5
C3
330
1F
100
AcDbEntity
  8
0
  6
Continuous
 62
     7
370
    15
100
AcDbSpline
210
0.0
220
0.0
230
1.0
 70
     8
 71
     3
 72
     8
 73
     4
 74
     0
 42
0.00000001
 43
0.00000001
 12
1.0
 22
0.0
 32
0.0
 13
1.0
 23
0.0
 33
0.0
 40
0.0
 40
0.0
 40
0.0
 40
0.0
 40
1.0
 40
1.0
 40
1.0
 40
1.0
 10
218.2800033945774
 20
97.85040758242197
 30
0.0
 10
217.9174829840311
 20
99.25186528636401
 30
0.0
 10
217.5585553814925
 20
100.6542968988327
 30
0.0
 10
217.2064778648244
 20
102.0585853756326
 30
0.0
  0
SPLINE
  5
C4
330
1F
100
AcDbEntity
  8
0
  6
Continuous
 62
     7
370
    15
100
AcDbSpline
210
0.0
220
0.0
230
1.0
 70
     8
 71
     3
 72
    12
 73
     8
 74
     0
 42
0.00000001
 43
0.00000001
 12
1.0
 22
0.0
 32
0.0
 13
1.0
 23
0.0
 33
0.0
 40
0.0
 40
0.0
 40
0.0
 40
0.0
 40
0.2500000000000012
 40
0.2500000000000012
 40
0.5000000000000024
 40
0.5000000000000024
 40
1.0
 40
1.0
 40
1.0
 40
1.0
 10
217.2064778648244
 20
102.0585853756326
 30
0.0
 10
217.1788129118954
 20
102.1689291856465
 30
0.0
 10
217.1357290370146
 20
102.2723773507596
 30
0.0
 10
217.018879366056
 20
102.4655521228826
 30
0.0
 10
216.9462017452919
 20
102.5526877775314
 30
0.0
 10
216.6918255085653
 20
102.7745419381906
 30
0.0
 10
216.4714948334658
 20
102.8681448401602
 30
0.0
 10
216.2405520385359
 20
102.8743053950539
 30
0.0
  0
SPLINE
  5
C5
330
1F
100
AcDbEntity
  8
0
  6
Continuous
 62
     7
370
    15
100
AcDbSpline
210
0.0
220
0.0
230
1.0
 70
     8
 71
     3
 72
    10
 73
     6
 74
     0
 42
0.00000001
 43
0.00000001
 12
1.0
 22
0.0
 32
0.0
 13
1.0
 23
0.0
 33
0.0
 40
0.0
 40
0.0
 40
0.0
 40
0.0
 40
0.5
 40
0.5
 40
1.0
 40
1.0
 40
1.0
 40
1.0
 10
216.2405520385354
 20
132.6858911607526
 30
0.0
 10
216.4712813058712
 20
132.7004681727043
 30
0.0
 10
216.6897132001863
 20
132.8004633724009
 30
0.0
 10
217.0317526842756
 20
133.1107480914293
 30
0.0
 10
217.1511855974295
 20
133.3143139196717
 30
0.0
 10
217.2064778648244
 20
133.5368697116896
 30
0.0
  0
SPLINE
  5
C6
330
1F
100
AcDbEntity
  8
0
  6
Continuous
 62
     7
370
    15
100
AcDbSpline
210
0.0
220
0.0
230
1.0
 70
     8
 71
     3
 72
     8
 73
     4
 74
     0
 42
0.00000001
 43
0.00000001
 12
1.0
 22
0.0
 32
0.0
 13
1.0
 23
0.0
 33
0.0
 40
0.0
 40
0.0
 40
0.0
 40
0.0
 40
1.0
 40
1.0
 40
1.0
 40
1.0
 10
217.2064778648244
 20
133.5368697116896
 30
0.0
 10
217.274002951954
 20
133.8086635800773
 30
0.0
 10
217.3417884661961
 20
134.0803963602415
 30
0.0
 10
217.409802815161
 20
134.3520754627893
 30
0.0
  0
ELLIPSE
  5
C7
330
1F
100
AcDbEntity
  8
0
  6
Continuous
 62
     7
370
    15
100
AcDbEllipse
 10
278.7459526831
 20
118.9208942784
 30
0.0
 11
171.2582481391833
 21
3.15950034958702
 31
0.0
210
0.0
220
0.0
230
1.0
 40
0.1034726254
 41
1.898734183992596
 42
1.935172439450655
  0
LINE
  5
C8
330
1F
100
AcDbEntity
  8
0
  6
Continuous
 62
     7
370
    15
100
AcDbLine
 10
223.2756327488
 20
134.6794335121
 30
0.0
 11
232.162823337
 21
106.4121890187
 31
0.0
  0
LINE
  5
C9
330
1F
100
AcDbEntity
  8
0
  6
Continuous
 62
     7
370
    15
100
AcDbLine
 10
232.162823337
 20
106.4121890187
 30
0.0
 11
217.753364686
 21
110.7303819713
 31
0.0
  0
ARC
  5
CA
330
1F
100
AcDbEntity
  8
0
  6
Continuous
 62
     7
370
    15
100
AcDbCircle
 10
217.1186396883
 20
108.7484358455
 30
0.0
 40
2.081102176307272
100
AcDbArc
 50
72.2421588933
 51
252.0270386975
  0
LINE
  5
CB
330
1F
100
AcDbEntity
  8
0
  6
Continuous
 62
     7
370
    15
100
AcDbLine
 10
216.4764778548
 20
106.7688867938
 30
0.0
 11
219.4522815968
 21
105.8771048707
 31
0.0
  0
LINE
  5
CC
330
1F
100
AcDbEntity
  8
0
  6
Continuous
 62
     7
370
    15
100
AcDbLine
 10
219.4522815968
 20
105.8771048707
 30
0.0
 11
222.3603056601
 21
96.6276321185
 31
0.0
  0
LINE
  5
CD
330
1F
100
AcDbEntity
  8
0
  6
Continuous
 62
     7
370
    15
100
AcDbLine
 10
222.3603056601
 20
96.6276321185
 30
0.0
 11
218.2800033946
 21
97.8504075824
 31
0.0
  0
ELLIPSE
  5
CE
330
1F
100
AcDbEntity
  8
0
  6
Continuous
 62
     7
370
    15
100
AcDbEllipse
 10
227.9634538779
 20
118.9208942784
 30
0.0
 11
-5.858367632722149
 21
17.99809249727211
 31
0.0
210
0.0
220
0.0
230
1.0
 40
0.0447296713
 41
5.764247135812877
 42
6.268626856334468
  0
LINE
  5
CF
330
1F
100
AcDbEntity
  8
0
  6
Continuous
 62
     7
370
    15
100
AcDbLine
 10
217.4098028152
 20
134.3520754628
 30
0.0
 11
217.4098028152
 21
136.9208942784
 31
0.0
  0
LINE
  5
D0
330
1F
100
AcDbEntity
  8
0
  6
Continuous
 62
     7
370
    15
100
AcDbLine
 10
162.1078790265
 20
107.1024220057
 30
0.0
 11
162.1078790265
 21
107.3733810771
 31
0.0
  0
LINE
  5
D1
330
1F
100
AcDbEntity
  8
0
  6
Continuous
 62
     7
370
    15
100
AcDbLine
 10
162.1078790265
 20
130.7948084157
 30
0.0
 11
162.1078790265
 21
130.6991257428
 31
0.0
  0
LINE
  5
D2
330
1F
100
AcDbEntity
  8
0
  6
Continuous
 62
     7
370
    15
100
AcDbLine
 10
163.0578790265
 20
131.8008942784
 30
0.0
 11
163.0578790265
 21
131.7864748253
 31
0.0
  0
LINE
  5
D3
330
1F
100
AcDbEntity
  8
0
  6
Continuous
 62
     7
370
    15
100
AcDbLine
 10
162.1078790265
 20
130.8508942784
 30
0.0
 11
162.1078790265
 21
130.7948084157
 31
0.0
  0
LINE
  5
D4
330
1F
100
AcDbEntity
  8
0
  6
Continuous
 62
     7
370
    15
100
AcDbLine
 10
163.1168790265
 20
106.0408942784
 30
0.0
 11
163.1168790265
 21
106.0698274008
 31
0.0
  0
LINE
  5
D5
330
1F
100
AcDbEntity
  8
0
  6
Continuous
 62
     7
370
    15
100
AcDbLine
 10
162.1078790265
 20
107.0498942784
 30
0.0
 11
162.1078790265
 21
107.1024220057
 31
0.0
  0
LWPOLYLINE
  5
D6
330
1F
100
AcDbEntity
  8
0
  6
Continuous
 62
     7
370
    15
100
AcDbPolyline
 90
        3
 70
   128
 43
0.0
 10
215.0309164034
 20
108.5760448801
 10
215.0862455592
 20
108.5434172896
 10
215.5127254234
 20
108.3611523481
  0
LINE
  5
D7
330
1F
100
AcDbEntity
  8
0
  6
Continuous
 62
     7
370
    15
100
AcDbLine
 10
215.5127254234
 20
108.3611523481
 30
0.0
 11
218.4885291655
 21
107.469370425
 31
0.0
  0
LINE
  5
D8
330
1F
100
AcDbEntity
  8
0
  6
Continuous
 62
     7
370
    15
100
AcDbLine
 10
218.4885291655
 20
107.469370425
 30
0.0
 11
219.4522815968
 21
105.8771048707
 31
0.0
  0
SPLINE
  5
D9
330
1F
100
AcDbEntity
  8
0
  6
Continuous
 62
     7
370
    15
100
AcDbSpline
210
0.0
220
0.0
230
1.0
 70
     8
 71
     3
 72
     9
 73
     5
 74
     0
 42
0.00000001
 43
0.00000001
 12
1.0
 22
0.0
 32
0.0
 13
1.0
 23
0.0
 33
0.0
 40
0.0
 40
0.0
 40
0.0
 40
0.0
 40
0.912357449050115
 40
1.0
 40
1.0
 40
1.0
 40
1.0
 10
218.2800033945795
 20
97.85040758241733
 30
0.0
 10
218.2078309406079
 20
97.99155351739036
 30
0.0
 10
218.1287254824931
 20
98.1462581620666
 30
0.0
 10
218.1229602744909
 20
98.27818744900021
 30
0.0
 10
218.1224549969548
 20
98.28975006825208
 30
0.0
  0
LWPOLYLINE
  5
DA
330
1F
100
AcDbEntity
  8
0
  6
Continuous
 62
     7
370
    15
100
AcDbPolyline
 90
        3
 70
   128
 43
0.0
 10
217.5354420965
 20
110.783049282
 10
217.532860497
 20
110.6800440299
 10
217.5769614176
 20
110.4167012503
  0
LINE
  5
DB
330
1F
100
AcDbEntity
  8
0
  6
Continuous
 62
     7
370
    15
100
AcDbLine
 10
217.8780033918
 20
109.9193341357
 30
0.0
 11
218.8209296787
 21
106.920194236
 31
0.0
  0
LINE
  5
DC
330
1F
100
AcDbEntity
  8
0
  6
Continuous
 62
     7
370
    15
100
AcDbLine
 10
217.5769614176
 20
110.4167012503
 30
0.0
 11
218.5198877045
 21
107.4175613506
 31
0.0
  0
CIRCLE
  5
DD
330
1F
100
AcDbEntity
  8
0
  6
Continuous
 62
     7
370
    15
100
AcDbCircle
 10
221.6334525644
 20
115.3584955407
 30
0.0
 40
3.466176730597235
  0
CIRCLE
  5
DE
330
1F
100
AcDbEntity
  8
0
  6
Continuous
 62
     7
370
    15
100
AcDbCircle
 10
221.6635544275
 20
115.3522402882
 30
0.0
 40
1.982650949571208
  0
SPLINE
  5
DF
330
1F
100
AcDbEntity
  8
0
  6
Continuous
 62
     7
370
    15
100
AcDbSpline
210
0.0
220
0.0
230
1.0
 70
     8
 71
     3
 72
    11
 73
     7
 74
     0
 42
0.00000001
 43
0.00000001
 12
1.0
 22
0.0
 32
0.0
 13
1.0
 23
0.0
 33
0.0
 40
0.0
 40
0.0
 40
0.0
 40
0.0
 40
0.1081100880371212
 40
0.4711580666043579
 40
0.8135808430835962
 40
1.0
 40
1.0
 40
1.0
 40
1.0
 10
223.017594752715
 20
116.4782628148278
 30
0.0
 10
222.9603929206389
 20
116.5029849434027
 30
0.0
 10
222.7110997686628
 20
116.6107272504639
 30
0.0
 10
222.2474245671599
 20
116.7977957698937
 30
0.0
 10
221.7544278757981
 20
116.9655024854072
 30
0.0
 10
221.5012186885093
 20
117.0403202356318
 30
0.0
 10
221.4119613126526
 20
117.0666938286442
 30
0.0
  0
SPLINE
  5
E0
330
1F
100
AcDbEntity
  8
0
  6
Continuous
 62
     7
370
    15
100
AcDbSpline
210
0.0
220
0.0
230
1.0
 70
     8
 71
     3
 72
    11
 73
     7
 74
     0
 42
0.00000001
 43
0.00000001
 12
1.0
 22
0.0
 32
0.0
 13
1.0
 23
0.0
 33
0.0
 40
0.0
 40
0.0
 40
0.0
 40
0.0
 40
0.2164499953511896
 40
0.4402998152333217
 40
0.7518914760010332
 40
0.9999999999999999
 40
0.9999999999999999
 40
0.9999999999999999
 40
0.9999999999999999
 10
221.4119613126526
 20
117.0666938286442
 30
0.0
 10
221.3142833481499
 20
117.0012350486449
 30
0.0
 10
221.1155880806673
 20
116.8680796346551
 30
0.0
 10
220.7586667512779
 20
116.6014668515226
 30
0.0
 10
220.391929024179
 20
116.288814543387
 30
0.0
 10
220.1681094131305
 20
116.0707689333932
 30
0.0
 10
220.0688928060065
 20
115.9741118731805
 30
0.0
  0
SPLINE
  5
E1
330
1F
100
AcDbEntity
  8
0
  6
Continuous
 62
     7
370
    15
100
AcDbSpline
210
0.0
220
0.0
230
1.0
 70
     8
 71
     3
 72
    13
 73
     9
 74
     0
 42
0.00000001
 43
0.00000001
 12
1.0
 22
0.0
 32
0.0
 13
1.0
 23
0.0
 33
0.0
 40
0.0
 40
0.0
 40
0.0
 40
0.0
 40
0.216124118254462
 40
0.4396369202064778
 40
0.593253822176131
 40
0.7520048557756581
 40
0.8754343578245503
 40
1.0
 40
1.0
 40
1.0
 40
1.0
 10
220.0688928060065
 20
115.9741118731805
 30
0.0
 10
220.0811892876129
 20
115.8683964643591
 30
0.0
 10
220.1062026334001
 20
115.6533515303278
 30
0.0
 10
220.1523873073221
 20
115.3217308504125
 30
0.0
 10
220.2022406101451
 20
115.0056865585499
 30
0.0
 10
220.2470434218403
 20
114.7456765508614
 30
0.0
 10
220.2906280911562
 20
114.5066366754774
 30
0.0
 10
220.317806352745
 20
114.364495225296
 30
0.0
 10
220.3314577394227
 20
114.2930989039004
 30
0.0
  0
SPLINE
  5
E2
330
1F
100
AcDbEntity
  8
0
  6
Continuous
 62
     7
370
    15
100
AcDbSpline
210
0.0
220
0.0
230
1.0
 70
     8
 71
     3
 72
    11
 73
     7
 74
     0
 42
0.00000001
 43
0.00000001
 12
1.0
 22
0.0
 32
0.0
 13
1.0
 23
0.0
 33
0.0
 40
0.0
 40
0.0
 40
0.0
 40
0.0
 40
0.1864191569163805
 40
0.5288419333956538
 40
0.891889911962877
 40
1.0
 40
1.0
 40
1.0
 40
1.0
 10
220.3314577394227
 20
114.2930989039004
 30
0.0
 10
220.4207151152794
 20
114.2667253108881
 30
0.0
 10
220.6739243025681
 20
114.1919075606635
 30
0.0
 10
221.1669209939299
 20
114.0242008451498
 30
0.0
 10
221.6305961954329
 20
113.8371323257202
 30
0.0
 10
221.879889347409
 20
113.729390018659
 30
0.0
 10
221.9370911794851
 20
113.704667890084
 30
0.0
  0
SPLINE
  5
E3
330
1F
100
AcDbEntity
  8
0
  6
Continuous
 62
     7
370
    15
100
AcDbSpline
210
0.0
220
0.0
230
1.0
 70
     8
 71
     3
 72
    11
 73
     7
 74
     0
 42
0.00000001
 43
0.00000001
 12
1.0
 22
0.0
 32
0.0
 13
1.0
 23
0.0
 33
0.0
 40
0.0
 40
0.0
 40
0.0
 40
0.0
 40
0.2164499953511932
 40
0.4402998152333304
 40
0.7518914760010604
 40
0.9999999999999999
 40
0.9999999999999999
 40
0.9999999999999999
 40
0.9999999999999999
 10
221.9370911794851
 20
113.704667890084
 30
0.0
 10
222.0234115387528
 20
113.7888911608456
 30
0.0
 10
222.1990033107682
 20
113.9602170622138
 30
0.0
 10
222.5366667623249
 20
114.2586467876697
 30
0.0
 10
222.9150138751573
 20
114.5521186253762
 30
0.0
 10
223.1680096347365
 20
114.7219608017891
 30
0.0
 10
223.2801596861312
 20
114.7972498455477
 30
0.0
  0
SPLINE
  5
E4
330
1F
100
AcDbEntity
  8
0
  6
Continuous
 62
     7
370
    15
100
AcDbSpline
210
0.0
220
0.0
230
1.0
 70
     8
 71
     3
 72
    11
 73
     7
 74
     0
 42
0.00000001
 43
0.00000001
 12
1.0
 22
0.0
 32
0.0
 13
1.0
 23
0.0
 33
0.0
 40
0.0
 40
0.0
 40
0.0
 40
0.0
 40
0.2164499953512027
 40
0.4402998152333408
 40
0.7518914760010829
 40
1.0
 40
1.0
 40
1.0
 40
1.0
 10
223.2801596861312
 20
114.7972498455477
 30
0.0
 10
223.2564953870962
 20
114.9217801891283
 30
0.0
 10
223.2083577723283
 20
115.1750982230721
 30
0.0
 10
223.1308344535427
 20
115.6256852006753
 30
0.0
 10
223.063808479017
 20
116.0823769432379
 30
0.0
 10
223.0317887311865
 20
116.3566713313412
 30
0.0
 10
223.017594752715
 20
116.4782628148278
 30
0.0
  0
LINE
  5
E5
330
1F
100
AcDbEntity
  8
0
  6
Continuous
 62
     7
370
    15
100
AcDbLine
 10
222.8900541504
 20
115.4417635058
 30
0.0
 11
223.2801596861
 21
114.7972498455
 31
0.0
  0
LINE
  5
E6
330
1F
100
AcDbEntity
  8
0
  6
Continuous
 62
     7
370
    15
100
AcDbLine
 10
222.8900541504
 20
115.4417635058
 30
0.0
 11
222.7587716837
 21
116.2822699905
 31
0.0
  0
LINE
  5
E7
330
1F
100
AcDbEntity
  8
0
  6
Continuous
 62
     7
370
    15
100
AcDbLine
 10
222.7587716837
 20
116.2822699905
 30
0.0
 11
222.708019341
 21
116.6072004566
 31
0.0
  0
LINE
  5
E8
330
1F
100
AcDbEntity
  8
0
  6
Continuous
 62
     7
370
    15
100
AcDbLine
 10
220.2329744046
 20
114.8307391377
 30
0.0
 11
220.7441689237
 21
114.6433970573
 31
0.0
  0
LINE
  5
E9
330
1F
100
AcDbEntity
  8
0
  6
Continuous
 62
     7
370
    15
100
AcDbLine
 10
220.7441689237
 20
114.6433970573
 30
0.0
 11
221.5469856437
 21
114.3491815504
 31
0.0
  0
LINE
  5
EA
330
1F
100
AcDbEntity
  8
0
  6
Continuous
 62
     7
370
    15
100
AcDbLine
 10
221.5469856437
 20
114.3491815504
 30
0.0
 11
221.9370911795
 21
113.7046678901
 31
0.0
  0
LINE
  5
EB
330
1F
100
AcDbEntity
  8
0
  6
Continuous
 62
     7
370
    15
100
AcDbLine
 10
221.5469856437
 20
114.3491815504
 30
0.0
 11
222.2185198971
 21
114.8954725281
 31
0.0
  0
LINE
  5
EC
330
1F
100
AcDbEntity
  8
0
  6
Continuous
 62
     7
370
    15
100
AcDbLine
 10
222.2185198971
 20
114.8954725281
 30
0.0
 11
222.8900541504
 21
115.4417635058
 31
0.0
  0
LWPOLYLINE
  5
ED
330
1F
100
AcDbEntity
  8
0
  6
Continuous
 62
     7
370
    15
100
AcDbPolyline
 90
        3
 70
   128
 43
0.0
 10
222.6601389265
 20
116.6265695848
 10
222.7164783296
 20
116.4701334721
 10
222.7587716837
 20
116.2822699905
  0
ARC
  5
EE
330
1F
100
AcDbEntity
  8
0
  6
Continuous
 62
     7
370
    15
100
AcDbCircle
 10
221.280666034
 20
116.0594614062
 30
0.0
 40
1.494804327292774
100
AcDbArc
 50
308.85922951
 51
8.5721867676
  0
ARC
  5
EF
330
1F
100
AcDbEntity
  8
0
  6
Continuous
 62
     7
370
    15
100
AcDbCircle
 10
221.2592934937
 20
116.068176729
 30
0.0
 40
1.515041397302396
100
AcDbArc
 50
250.1227038883
 51
309.2818303983
  0
ARC
  5
F0
330
1F
100
AcDbEntity
  8
0
  6
Continuous
 62
     7
370
    15
100
AcDbCircle
 10
221.2435443205
 20
116.0103017671
 30
0.0
 40
1.455267766628717
100
AcDbArc
 50
223.6781345392
 51
249.9310832599
  0
ELLIPSE
  5
F1
330
1F
100
AcDbEntity
  8
0
  6
Continuous
 62
     7
370
    15
100
AcDbEllipse
 10
227.3085865411
 20
101.8371124039
 30
0.0
 11
1.997919256371518
 21
1.237404163304348
 31
0.0
210
0.0
220
0.0
230
1.0
 40
0.9806947386
 41
4.554496613076362
 42
6.323145573067614
  0
ELLIPSE
  5
F2
330
1F
100
AcDbEntity
  8
0
  6
Continuous
 62
     7
370
    15
100
AcDbEllipse
 10
227.3085865411
 20
101.8371124039
 30
0.0
 11
1.997919256371518
 21
1.237404163304348
 31
0.0
210
0.0
220
0.0
230
1.0
 40
0.9806947386
 41
2.830070889702491
 42
4.554496613076377
  0
SPLINE
  5
F3
330
1F
100
AcDbEntity
  8
0
  6
Continuous
 62
     7
370
    15
100
AcDbSpline
210
0.0
220
0.0
230
1.0
 70
     8
 71
     3
 72
     9
 73
     5
 74
     0
 42
0.00000001
 43
0.00000001
 12
1.0
 22
0.0
 32
0.0
 13
1.0
 23
0.0
 33
0.0
 40
0.0
 40
0.0
 40
0.0
 40
0.0
 40
0.4350214817078472
 40
1.0
 40
1.0
 40
1.0
 40
1.0
 10
225.0577868463066
 20
100.8703083616594
 30
0.0
 10
225.0817617604437
 20
100.8400705624519
 30
0.0
 10
225.1368737839766
 20
100.7705618129326
 30
0.0
 10
225.2126043115698
 20
100.7114073913251
 30
0.0
 10
225.2553904328389
 20
100.6779864138548
 30
0.0
  0
LINE
  5
F4
330
1F
100
AcDbEntity
  8
0
  6
Continuous
 62
     7
370
    15
100
AcDbLine
 10
225.3703553619
 20
100.5083396482
 30
0.0
 11
225.0870396161
 21
100.5952393418
 31
0.0
  0
LINE
  5
F5
330
1F
100
AcDbEntity
  8
0
  6
Continuous
 62
     7
370
    15
100
AcDbLine
 10
218.2027963082
 20
109.9008385322
 30
0.0
 11
222.4750785741
 21
96.3121069579
 31
0.0
  0
ARC
  5
F6
330
1F
100
AcDbEntity
  8
0
  6
Continuous
 62
     7
370
    15
100
AcDbCircle
 10
218.5886429637
 20
110.0159108191
 30
0.0
 40
0.4026403764246861
100
AcDbArc
 50
73.2885949299
 51
196.6063279791
  0
LINE
  5
F7
330
1F
100
AcDbEntity
  8
0
  6
Continuous
 62
     7
370
    15
100
AcDbLine
 10
232.4604415568
 20
106.2791741436
 30
0.0
 11
218.7044226768
 21
110.40154579
 31
0.0
  0
ARC
  5
F8
330
1F
100
AcDbEntity
  8
0
  6
Continuous
 62
     7
370
    15
100
AcDbCircle
 10
232.3507095184
 20
105.9090263107
 30
0.0
 40
0.3860706391893801
100
AcDbArc
 50
17.5297083813
 51
73.487299346
  0
LINE
  5
F9
330
1F
100
AcDbEntity
  8
0
  6
Continuous
 62
     7
370
    15
100
AcDbLine
 10
236.9911336519
 20
92.4365793171
 30
0.0
 11
232.7188513861
 21
106.0253108914
 31
0.0
  0
ARC
  5
FA
330
1F
100
AcDbEntity
  8
0
  6
Continuous
 62
     7
370
    15
100
AcDbCircle
 10
236.6052869965
 20
92.3215070302
 30
0.0
 40
0.4026403764246262
100
AcDbArc
 50
253.2885949299
 51
16.6063279791
  0
LINE
  5
FB
330
1F
100
AcDbEntity
  8
0
  6
Continuous
 62
     7
370
    15
100
AcDbLine
 10
222.7334884033
 20
96.0582437057
 30
0.0
 11
236.4895072833
 21
91.9358720593
 31
0.0
  0
ARC
  5
FC
330
1F
100
AcDbEntity
  8
0
  6
Continuous
 62
     7
370
    15
100
AcDbCircle
 10
222.8432204417
 20
96.4283915386
 30
0.0
 40
0.3860706391895208
100
AcDbArc
 50
197.5297083814
 51
253.4872993459
  0
ARC
  5
FD
330
1F
100
AcDbEntity
  8
0
  6
Continuous
 62
     7
370
    15
100
AcDbCircle
 10
236.6055784243
 20
92.3210895444
 30
0.0
 40
0.3825083576034536
100
AcDbArc
 50
253.2885949299
 51
16.6063279791
  0
LINE
  5
FE
330
1F
100
AcDbEntity
  8
0
  6
Continuous
 62
     7
370
    15
100
AcDbLine
 10
236.972132747
 20
92.430408217
 30
0.0
 11
232.6998504809
 21
106.0191397912
 31
0.0
  0
ARC
  5
FF
330
1F
100
AcDbEntity
  8
0
  6
Continuous
 62
     7
370
    15
100
AcDbCircle
 10
232.3501157056
 20
105.9086694388
 30
0.0
 40
0.3667671083425362
100
AcDbArc
 50
17.5297084465
 51
73.4872991965
  0
LINE
  5
100
330
1F
100
AcDbEntity
  8
0
  6
Continuous
 62
     7
370
    15
100
AcDbLine
 10
232.4543611433
 20
106.2603098808
 30
0.0
 11
218.6983422633
 21
110.3826815272
 31
0.0
  0
ARC
  5
101
330
1F
100
AcDbEntity
  8
0
  6
Continuous
 62
     7
370
    15
100
AcDbCircle
 10
218.5883515359
 20
110.0163283049
 30
0.0
 40
0.3825083576033882
100
AcDbArc
 50
73.2885949299
 51
196.6063279791
  0
LINE
  5
102
330
1F
100
AcDbEntity
  8
0
  6
Continuous
 62
     7
370
    15
100
AcDbLine
 10
218.2217972132
 20
109.9070096323
 30
0.0
 11
222.494079479
 21
96.318278058
 31
0.0
  0
ARC
  5
103
330
1F
100
AcDbEntity
  8
0
  6
Continuous
 62
     7
370
    15
100
AcDbCircle
 10
222.8438142533
 20
96.4287484097
 30
0.0
 40
0.3667671072299048
100
AcDbArc
 50
197.5297083813
 51
253.487299346
  0
LINE
  5
104
330
1F
100
AcDbEntity
  8
0
  6
Continuous
 62
     7
370
    15
100
AcDbLine
 10
222.7395688168
 20
96.0771079685
 30
0.0
 11
236.4955876968
 21
91.954736322
 31
0.0
  0
LINE
  5
105
330
1F
100
AcDbEntity
  8
0
  6
Continuous
 62
     7
370
    15
100
AcDbLine
 10
218.5598815833
 20
110.0621490469
 30
0.0
 11
218.2217972132
 21
109.9070096323
 31
0.0
  0
LINE
  5
106
330
1F
100
AcDbEntity
  8
0
  6
Continuous
 62
     7
370
    15
100
AcDbLine
 10
218.5598815833
 20
110.0621490469
 30
0.0
 11
218.6983422633
 21
110.3826815272
 31
0.0
  0
LINE
  5
107
330
1F
100
AcDbEntity
  8
0
  6
Continuous
 62
     7
370
    15
100
AcDbLine
 10
220.0227204106
 20
108.6656949336
 30
0.0
 11
218.5598815833
 21
110.0621490469
 31
0.0
  0
LINE
  5
108
330
1F
100
AcDbEntity
  8
0
  6
Continuous
 62
     7
370
    15
100
AcDbLine
 10
232.3159004634
 20
105.9397774005
 30
0.0
 11
232.4543611433
 21
106.2603098808
 31
0.0
  0
LINE
  5
109
330
1F
100
AcDbEntity
  8
0
  6
Continuous
 62
     7
370
    15
100
AcDbLine
 10
231.9454224782
 20
105.6390977439
 30
0.0
 11
232.3159004634
 21
105.9397774005
 31
0.0
  0
LINE
  5
10A
330
1F
100
AcDbEntity
  8
0
  6
Continuous
 62
     7
370
    15
100
AcDbLine
 10
220.6621027237
 20
108.4740863336
 30
0.0
 11
220.0227204106
 21
108.6656949336
 31
0.0
  0
LINE
  5
10B
330
1F
100
AcDbEntity
  8
0
  6
Continuous
 62
     7
370
    15
100
AcDbLine
 10
222.8321638492
 20
96.4734174726
 30
0.0
 11
222.494079479
 21
96.318278058
 31
0.0
  0
LINE
  5
10C
330
1F
100
AcDbEntity
  8
0
  6
Continuous
 62
     7
370
    15
100
AcDbLine
 10
220.0227204106
 20
108.6656949336
 30
0.0
 11
220.221296884
 21
108.0340881656
 31
0.0
  0
LINE
  5
10D
330
1F
100
AcDbEntity
  8
0
  6
Continuous
 62
     7
370
    15
100
AcDbLine
 10
223.1504824561
 20
96.8602723527
 30
0.0
 11
222.8321638492
 21
96.4734174726
 31
0.0
  0
LINE
  5
10E
330
1F
100
AcDbEntity
  8
0
  6
Continuous
 62
     7
370
    15
100
AcDbLine
 10
217.6113341357
 20
110.767521759
 30
0.0
 11
218.8209296787
 21
106.920194236
 31
0.0
  0
ARC
  5
10F
330
1F
100
AcDbEntity
  8
0
  6
Continuous
 62
     7
370
    15
100
AcDbCircle
 10
222.5666420171
 20
106.1039668808
 30
0.0
 40
1.006600941061635
100
AcDbArc
 50
73.2885949299
 51
196.6063279791
  0
LINE
  5
110
330
1F
100
AcDbEntity
  8
0
  6
Continuous
 62
     7
370
    15
100
AcDbLine
 10
220.8004145189
 20
107.9033098566
 30
0.0
 11
220.7987726345
 21
107.9016709805
 31
0.0
  0
SPLINE
  5
111
330
1F
100
AcDbEntity
  8
0
  6
Continuous
 62
     7
370
    15
100
AcDbSpline
210
0.0
220
0.0
230
1.0
 70
     8
 71
     3
 72
    14
 73
    10
 74
     0
 42
0.00000001
 43
0.00000001
 12
1.0
 22
0.0
 32
0.0
 13
1.0
 23
0.0
 33
0.0
 40
0.0
 40
0.0
 40
0.0
 40
0.0
 40
0.2210591904779629
 40
0.3460797326519289
 40
0.4396016244131548
 40
0.5338897453199872
 40
0.614656193358766
 40
0.751725323759394
 40
0.9999999999999999
 40
0.9999999999999999
 40
0.9999999999999999
 40
0.9999999999999999
 10
220.8004145189481
 20
107.9033098565659
 30
0.0
 10
220.8408732066501
 20
107.9463065553102
 30
0.0
 10
220.904213399804
 20
108.0136201375873
 30
0.0
 10
220.959327932446
 20
108.1177843829842
 30
0.0
 10
220.9755844277449
 20
108.1999596511271
 30
0.0
 10
220.9613857981199
 20
108.2708448731274
 30
0.0
 10
220.9169842084843
 20
108.3403197123015
 30
0.0
 10
220.8204807296298
 20
108.4186094389781
 30
0.0
 10
220.7241609641095
 20
108.4523484765077
 30
0.0
 10
220.662102723681
 20
108.4740863336498
 30
0.0
  0
SPLINE
  5
112
330
1F
100
AcDbEntity
  8
0
  6
Continuous
 62
     7
370
    15
100
AcDbSpline
210
0.0
220
0.0
230
1.0
 70
     8
 71
     3
 72
    14
 73
    10
 74
     0
 42
0.00000001
 43
0.00000001
 12
1.0
 22
0.0
 32
0.0
 13
1.0
 23
0.0
 33
0.0
 40
0.0
 40
0.0
 40
0.0
 40
0.0
 40
0.2234968253973684
 40
0.3567622963774655
 40
0.4531212562341382
 40
0.5344619041500357
 40
0.615731755803535
 40
0.7396161778922142
 40
1.0
 40
1.0
 40
1.0
 40
1.0
 10
220.2212968840329
 20
108.0340881656099
 30
0.0
 10
220.2413193258593
 20
107.9789745166647
 30
0.0
 10
220.2732806403539
 20
107.8909980010053
 30
0.0
 10
220.3454101840978
 20
107.7953015205734
 30
0.0
 10
220.4122868212782
 20
107.7466695790876
 30
0.0
 10
220.4793498454157
 20
107.7278700240102
 30
0.0
 10
220.5563478391642
 20
107.7337148432752
 30
0.0
 10
220.6723996359802
 20
107.783566563548
 30
0.0
 10
220.7477288450054
 20
107.8539669846348
 30
0.0
 10
220.7987726344899
 20
107.9016709804695
 30
0.0
  0
LINE
  5
113
330
1F
100
AcDbEntity
  8
0
  6
Continuous
 62
     7
370
    15
100
AcDbLine
 10
221.6020253785
 20
105.8162861633
 30
0.0
 11
223.9930673861
 21
98.2111641226
 31
0.0
  0
LINE
  5
114
330
1F
100
AcDbEntity
  8
0
  6
Continuous
 62
     7
370
    15
100
AcDbLine
 10
230.5548380008
 20
104.7609118571
 30
0.0
 11
222.8560912999
 21
107.0680543079
 31
0.0
  0
ARC
  5
115
330
1F
100
AcDbEntity
  8
0
  6
Continuous
 62
     7
370
    15
100
AcDbCircle
 10
230.2805079049
 20
103.8355422748
 30
0.0
 40
0.9651765979732367
100
AcDbArc
 50
17.5297083813
 51
73.487299346
  0
LINE
  5
116
330
1F
100
AcDbEntity
  8
0
  6
Continuous
 62
     7
370
    15
100
AcDbLine
 10
233.5919045816
 20
96.5211316859
 30
0.0
 11
231.2008625741
 21
104.1262537267
 31
0.0
  0
ARC
  5
117
330
1F
100
AcDbEntity
  8
0
  6
Continuous
 62
     7
370
    15
100
AcDbCircle
 10
232.6272879432
 20
96.2334509682
 30
0.0
 40
1.006600941035643
100
AcDbArc
 50
253.2885949153
 51
16.6063280002
  0
LINE
  5
118
330
1F
100
AcDbEntity
  8
0
  6
Continuous
 62
     7
370
    15
100
AcDbLine
 10
224.6390919593
 20
97.5765059922
 30
0.0
 11
232.3378386601
 21
95.2693635411
 31
0.0
  0
ARC
  5
119
330
1F
100
AcDbEntity
  8
0
  6
Continuous
 62
     7
370
    15
100
AcDbCircle
 10
224.9134220553
 20
98.5018755744
 30
0.0
 40
0.9651765979732938
100
AcDbArc
 50
197.5297083813
 51
253.487299346
  0
LWPOLYLINE
  5
11A
330
1F
100
AcDbEntity
  8
0
  6
Continuous
 62
     7
370
    15
100
AcDbPolyline
 90
       32
 70
   128
 43
0.0
 10
226.8125916409
 20
98.73521903
 10
227.3204275223
 20
98.6376573139
 10
227.8395848798
 20
98.6437171482
 10
228.34880935
 20
98.7531504425
 10
228.8272532234
 20
98.9614769849
 10
229.2553289516
 20
99.2601678622
 10
229.6155110639
 20
99.6369946349
 10
229.8930536624
 20
100.0765299705
 10
230.0765941204
 20
100.5607792409
 10
230.1586182701
 20
101.0699172239
 10
230.1357680332
 20
101.5830997508
 10
230.0089789009
 20
102.0793170686
 10
229.7834416353
 20
102.5382539819
 10
229.4683897585
 20
102.9411215598
 10
229.0767215315
 20
103.271426356
 10
228.6244718973
 20
103.5156456536
 10
228.1301560093
 20
103.6637810858
 10
227.6140112178
 20
103.7097679705
 10
227.0971685514
 20
103.6517235993
 10
226.6007876095
 20
103.4920243156
 10
226.1451902862
 20
103.2372082268
 10
225.7490287894
 20
102.8977075335
 10
225.4285220174
 20
102.4874214341
 10
225.1967915551
 20
102.0231470895
 10
225.0633244748
 20
101.5238919461
 10
225.0335849345
 20
101.0100955681
 10
225.1087904744
 20
100.5027928395
 10
225.2858621709
 20
100.0227527937
 10
225.557550688
 20
99.5896283266
 10
225.9127330658
 20
99.2211516046
 10
226.3368680961
 20
98.9324081082
 10
226.8125916409
 20
98.73521903
  0
LINE
  5
11B
330
1F
100
AcDbEntity
  8
0
  6
Continuous
 62
     7
370
    15
100
AcDbLine
 10
229.450928219
 20
102.8011874826
 30
0.0
 11
229.4000895109
 21
103.0092770257
 31
0.0
  0
ARC
  5
11C
330
1F
100
AcDbEntity
  8
0
  6
Continuous
 62
     7
370
    15
100
AcDbCircle
 10
226.8645032102
 20
102.2337361053
 30
0.0
 40
2.506108446107462
100
AcDbArc
 50
226.2053007785
 51
250.9586035198
  0
LINE
  5
11D
330
1F
100
AcDbEntity
  8
0
  6
Continuous
 62
     7
370
    15
100
AcDbLine
 10
232.3159004634
 20
105.9397774005
 30
0.0
 11
232.6998504809
 21
106.0191397912
 31
0.0
  0
LINE
  5
11E
330
1F
100
AcDbEntity
  8
0
  6
Continuous
 62
     7
370
    15
100
AcDbLine
 10
236.5881827292
 20
92.3510458262
 30
0.0
 11
236.972132747
 21
92.430408217
 31
0.0
  0
LINE
  5
11F
330
1F
100
AcDbEntity
  8
0
  6
Continuous
 62
     7
370
    15
100
AcDbLine
 10
235.0039640083
 20
93.9480379793
 30
0.0
 11
236.5881827292
 21
92.3510458262
 31
0.0
  0
LINE
  5
120
330
1F
100
AcDbEntity
  8
0
  6
Continuous
 62
     7
370
    15
100
AcDbLine
 10
235.0039640083
 20
93.9480379793
 30
0.0
 11
234.8053875349
 21
94.5796447473
 31
0.0
  0
ARC
  5
121
330
1F
100
AcDbEntity
  8
0
  6
Continuous
 62
     7
370
    15
100
AcDbCircle
 10
231.6874714535
 20
107.0057415751
 30
0.0
 40
0.3856547797606783
100
AcDbArc
 50
31.2201862127
 51
61.8728233494
  0
SPLINE
  5
122
330
1F
100
AcDbEntity
  8
0
  6
Continuous
 62
     7
370
    15
100
AcDbSpline
210
0.0
220
0.0
230
1.0
 70
     8
 71
     3
 72
    11
 73
     7
 74
     0
 42
0.00000001
 43
0.00000001
 12
1.0
 22
0.0
 32
0.0
 13
1.0
 23
0.0
 33
0.0
 40
0.0
 40
0.0
 40
0.0
 40
0.0
 40
0.3280455501579972
 40
0.6557028173711948
 40
0.9906967996087694
 40
1.0
 40
1.0
 40
1.0
 40
1.0
 10
231.9454224781995
 20
105.6390977439385
 30
0.0
 10
231.889769234611
 20
105.5916018164758
 30
0.0
 10
231.7785286200094
 20
105.4966661789219
 30
0.0
 10
231.6065939523623
 20
105.3215656077964
 30
0.0
 10
231.5032791327024
 20
105.202740827296
 30
0.0
 10
231.4566719046118
 20
105.1447720112331
 30
0.0
 10
231.4554125379818
 20
105.1432056449092
 30
0.0
  0
SPLINE
  5
123
330
1F
100
AcDbEntity
  8
0
  6
Continuous
 62
     7
370
    15
100
AcDbSpline
210
0.0
220
0.0
230
1.0
 70
     8
 71
     3
 72
    11
 73
     7
 74
     0
 42
0.00000001
 43
0.00000001
 12
1.0
 22
0.0
 32
0.0
 13
1.0
 23
0.0
 33
0.0
 40
0.0
 40
0.0
 40
0.0
 40
0.0
 40
0.3280455501580035
 40
0.6557028173711985
 40
0.9906967996087706
 40
1.0
 40
1.0
 40
1.0
 40
1.0
 10
223.1504824561314
 20
96.86027235265313
 30
0.0
 10
223.2000569277445
 20
96.91781133569137
 30
0.0
 10
223.2991471933821
 20
97.03282119718371
 30
0.0
 10
223.4737086631099
 20
97.20358189186912
 30
0.0
 10
223.5888705517075
 20
97.30283351314738
 30
0.0
 10
223.6441159710539
 20
97.34653072382655
 30
0.0
 10
223.6456087489005
 20
97.34771145933064
 30
0.0
  0
LINE
  5
124
330
1F
100
AcDbEntity
  8
0
  6
Continuous
 62
     7
370
    15
100
AcDbLine
 10
236.5881827292
 20
92.3510458262
 30
0.0
 11
236.4955876968
 21
91.954736322
 31
0.0
  0
LINE
  5
125
330
1F
100
AcDbEntity
  8
0
  6
Continuous
 62
     7
370
    15
100
AcDbLine
 10
222.8321638492
 20
96.4734174726
 30
0.0
 11
222.7395688168
 21
96.0771079685
 31
0.0
  0
LINE
  5
126
330
1F
100
AcDbEntity
  8
0
  6
Continuous
 62
     7
370
    15
100
AcDbLine
 10
234.3645816953
 20
94.1396465793
 30
0.0
 11
235.0039640083
 21
93.9480379793
 31
0.0
  0
LINE
  5
127
330
1F
100
AcDbEntity
  8
0
  6
Continuous
 62
     7
370
    15
100
AcDbLine
 10
234.2262699
 20
94.7104230563
 30
0.0
 11
234.2279117845
 21
94.7120619324
 31
0.0
  0
SPLINE
  5
128
330
1F
100
AcDbEntity
  8
0
  6
Continuous
 62
     7
370
    15
100
AcDbSpline
210
0.0
220
0.0
230
1.0
 70
     8
 71
     3
 72
    14
 73
    10
 74
     0
 42
0.00000001
 43
0.00000001
 12
1.0
 22
0.0
 32
0.0
 13
1.0
 23
0.0
 33
0.0
 40
0.0
 40
0.0
 40
0.0
 40
0.0
 40
0.2234968253973763
 40
0.3567622963774678
 40
0.4531212562341484
 40
0.5344619041500377
 40
0.6157317558035368
 40
0.7396161778921962
 40
1.0
 40
1.0
 40
1.0
 40
1.0
 10
234.8053875349211
 20
94.57964474730406
 30
0.0
 10
234.7853650930947
 20
94.63475839624921
 30
0.0
 10
234.7534037786
 20
94.7227349119087
 30
0.0
 10
234.6812742348561
 20
94.81843139234056
 30
0.0
 10
234.6143975976757
 20
94.86706333382634
 30
0.0
 10
234.5473345735382
 20
94.8858628889038
 30
0.0
 10
234.4703365797898
 20
94.88001806963882
 30
0.0
 10
234.3542847829738
 20
94.83016634936595
 30
0.0
 10
234.2789555739486
 20
94.75976592827917
 30
0.0
 10
234.2279117844641
 20
94.71206193244444
 30
0.0
  0
SPLINE
  5
129
330
1F
100
AcDbEntity
  8
0
  6
Continuous
 62
     7
370
    15
100
AcDbSpline
210
0.0
220
0.0
230
1.0
 70
     8
 71
     3
 72
    14
 73
    10
 74
     0
 42
0.00000001
 43
0.00000001
 12
1.0
 22
0.0
 32
0.0
 13
1.0
 23
0.0
 33
0.0
 40
0.0
 40
0.0
 40
0.0
 40
0.0
 40
0.2210591904779576
 40
0.3460797326519218
 40
0.4396016244131498
 40
0.5338897453199763
 40
0.6146561933587552
 40
0.7517253237593741
 40
1.0
 40
1.0
 40
1.0
 40
1.0
 10
234.2262699000058
 20
94.710423056348
 30
0.0
 10
234.1858112123039
 20
94.66742635760373
 30
0.0
 10
234.1224710191499
 20
94.60011277532669
 30
0.0
 10
234.0673564865079
 20
94.49594852992982
 30
0.0
 10
234.051099991209
 20
94.4137732617869
 30
0.0
 10
234.065298620834
 20
94.34288803978653
 30
0.0
 10
234.1097002104696
 20
94.27341320061241
 30
0.0
 10
234.206203689324
 20
94.19512347393587
 30
0.0
 10
234.3025234548444
 20
94.16138443640622
 30
0.0
 10
234.3645816952729
 20
94.13964657926415
 30
0.0
  0
LINE
  5
12A
330
1F
100
AcDbEntity
  8
0
  6
HIDDEN
 62
     7
370
     0
100
AcDbLine
 10
189.9578790265
 20
98.9208942784
 30
0.0
 11
189.9578790265
 21
98.9459099229
 31
0.0
  0
SPLINE
  5
12B
330
1F
100
AcDbEntity
  8
0
  6
HIDDEN
 62
     7
370
     0
100
AcDbSpline
210
0.0
220
0.0
230
1.0
 70
     8
 71
     3
 72
    22
 73
    18
 74
     0
 42
0.00000001
 43
0.00000001
 12
1.0
 22
0.0
 32
0.0
 13
1.0
 23
0.0
 33
0.0
 40
0.0
 40
0.0
 40
0.0
 40
0.0
 40
0.1250000000000002
 40
0.1250000000000002
 40
0.2500000000000003
 40
0.2500000000000003
 40
0.3750000000000004
 40
0.3750000000000004
 40
0.5000000000000006
 40
0.5000000000000006
 40
0.6250000000000004
 40
0.6250000000000004
 40
0.7500000000000002
 40
0.7500000000000002
 40
0.8750000000000001
 40
0.8750000000000001
 40
1.0
 40
1.0
 40
1.0
 40
1.0
 10
189.9578790265143
 20
98.94590992292065
 30
0.0
 10
189.9578790265143
 20
98.96086551552999
 30
0.0
 10
189.9873274476445
 20
98.98225371217636
 30
0.0
 10
190.1021653138684
 20
99.03663195879166
 30
0.0
 10
190.1889781524061
 20
99.07007812240003
 30
0.0
 10
190.4146255247021
 20
99.14484239779777
 30
0.0
 10
190.5524626663662
 20
99.18594088675873
 30
0.0
 10
190.8776636262706
 20
99.2724938157225
 30
0.0
 10
191.0663659061786
 20
99.31814471482038
 30
0.0
 10
191.4786976264109
 20
99.40642426998524
 30
0.0
 10
191.7038445527627
 20
99.44952561999249
 30
0.0
 10
192.19382040412
 20
99.52972979984774
 30
0.0
 10
192.4545280462419
 20
99.5660246472373
 30
0.0
 10
192.9953854269575
 20
99.626203866387
 30
0.0
 10
193.2790760530116
 20
99.6504912038181
 30
0.0
 10
193.863158423941
 20
99.68348929812947
 30
0.0
 10
194.1587259789329
 20
99.69200975532942
 30
0.0
 10
194.4578790265143
 20
99.69200975532944
 30
0.0
  0
LINE
  5
12C
330
1F
100
AcDbEntity
  8
0
  6
HIDDEN
 62
     7
370
     0
100
AcDbLine
 10
194.4578790265
 20
99.6920097553
 30
0.0
 11
195.9727193276
 21
99.6920097553
 31
0.0
  0
LINE
  5
12D
330
1F
100
AcDbEntity
  8
0
  6
HIDDEN
 62
     7
370
     0
100
AcDbLine
 10
195.9727193276
 20
138.4080695483
 30
0.0
 11
195.9727193276
 21
99.6920097553
 31
0.0
  0
LINE
  5
12E
330
1F
100
AcDbEntity
  8
0
  6
HIDDEN
 62
     7
370
     0
100
AcDbLine
 10
194.4578790265
 20
138.4080695483
 30
0.0
 11
195.9727193276
 21
138.4080695483
 31
0.0
  0
SPLINE
  5
12F
330
1F
100
AcDbEntity
  8
0
  6
HIDDEN
 62
     7
370
     0
100
AcDbSpline
210
0.0
220
0.0
230
1.0
 70
     8
 71
     3
 72
    23
 73
    19
 74
     0
 42
0.00000001
 43
0.00000001
 12
1.0
 22
0.0
 32
0.0
 13
1.0
 23
0.0
 33
0.0
 40
0.0
 40
0.0
 40
0.0
 40
0.0
 40
0.0117112045832955
 40
0.0659906746847158
 40
0.1176381713340904
 40
0.2219276093681312
 40
0.2751744622099257
 40
0.3271803232885841
 40
0.3795381810858309
 40
0.4324353499193795
 40
0.4860678015893444
 40
0.5922251079928781
 40
0.6466805115137931
 40
0.7015364816069822
 40
0.7443858954417993
 40
0.8306356392796049
 40
0.9177189709679234
 40
1.0
 40
1.0
 40
1.0
 40
1.0
 10
189.9606091621038
 20
138.9202805015853
 30
0.0
 10
189.9597696929682
 20
138.9204692267369
 30
0.0
 10
189.9550394251088
 20
138.9215326613305
 30
0.0
 10
189.9779306392433
 20
138.9163792397784
 30
0.0
 10
190.0469931677031
 20
138.9009672312084
 30
0.0
 10
190.179192645291
 20
138.8719487755963
 30
0.0
 10
190.3674135800107
 20
138.8325525881366
 30
0.0
 10
190.5368491041858
 20
138.7983683281968
 30
0.0
 10
190.73203734302
 20
138.7607006763712
 30
0.0
 10
190.9546106757644
 20
138.7200095241469
 30
0.0
 10
191.2846686111777
 20
138.6634748965073
 30
0.0
 10
191.6633984675947
 20
138.6056108328139
 30
0.0
 10
192.0820121573528
 20
138.5514673849773
 30
0.0
 10
192.3941995892018
 20
138.5162403697103
 30
0.0
 10
192.7868198101292
 20
138.4780234681853
 30
0.0
 10
193.2695945506428
 20
138.4414966854396
 30
0.0
 10
193.8629521209973
 20
138.4132632950827
 30
0.0
 10
194.2633545091649
 20
138.4097677587227
 30
0.0
 10
194.4578790265143
 20
138.4080695482639
 30
0.0
  0
SPLINE
  5
130
330
1F
100
AcDbEntity
  8
0
  6
HIDDEN
 62
     7
370
     0
100
AcDbSpline
210
0.0
220
0.0
230
1.0
 70
     8
 71
     3
 72
    76
 73
    72
 74
     0
 42
0.00000001
 43
0.00000001
 12
1.0
 22
0.0
 32
0.0
 13
1.0
 23
0.0
 33
0.0
 40
-0.0312499999999999
 40
-0.0312499999999999
 40
0.0
 40
0.0
 40
0.03125
 40
0.03125
 40
0.0625000000000002
 40
0.0625000000000002
 40
0.0937500000000003
 40
0.0937500000000003
 40
0.1250000000000004
 40
0.1250000000000004
 40
0.1562500000000005
 40
0.1562500000000005
 40
0.1875000000000006
 40
0.1875000000000006
 40
0.2031250000000007
 40
0.2031250000000007
 40
0.2187500000000007
 40
0.2187500000000007
 40
0.2500000000000007
 40
0.2500000000000007
 40
0.2812500000000008
 40
0.2812500000000008
 40
0.3125000000000008
 40
0.3125000000000008
 40
0.3437500000000008
 40
0.3437500000000008
 40
0.3750000000000009
 40
0.3750000000000009
 40
0.4062500000000009
 40
0.4062500000000009
 40
0.4375000000000009
 40
0.4375000000000009
 40
0.4687500000000009
 40
0.4687500000000009
 40
0.4843750000000009
 40
0.4843750000000009
 40
0.5000000000000008
 40
0.5000000000000008
 40
0.5312500000000007
 40
0.5312500000000007
 40
0.5625000000000007
 40
0.5625000000000007
 40
0.5937500000000006
 40
0.5937500000000006
 40
0.6250000000000004
 40
0.6250000000000004
 40
0.6562500000000004
 40
0.6562500000000004
 40
0.6875000000000003
 40
0.6875000000000003
 40
0.7187500000000002
 40
0.7187500000000002
 40
0.7343750000000002
 40
0.7343750000000002
 40
0.7500000000000002
 40
0.7500000000000002
 40
0.7812500000000002
 40
0.7812500000000002
 40
0.8125000000000001
 40
0.8125000000000001
 40
0.84375
 40
0.84375
 40
0.875
 40
0.875
 40
0.90625
 40
0.90625
 40
0.9375
 40
0.9375
 40
0.9687500000000001
 40
0.9687500000000001
 40
1.0
 40
1.0
 40
1.03125
 40
1.03125
 10
188.676137447599
 20
113.9208942783588
 30
0.0
 10
189.3396206054296
 20
113.9208942783588
 30
0.0
 10
189.6655438269645
 20
113.9535802469649
 30
0.0
 10
190.3063176059285
 20
114.0813913150657
 30
0.0
 10
190.6245649464481
 20
114.1781554340452
 30
0.0
 10
191.2293664536566
 20
114.4295427312049
 30
0.0
 10
191.5160062921251
 20
114.5831798514667
 30
0.0
 10
192.0584839062336
 20
114.9459378386477
 30
0.0
 10
192.3142524621454
 20
115.1561464940616
 30
0.0
 10
192.7733965100605
 20
115.6153974539274
 30
0.0
 10
192.9799156323159
 20
115.8662414691098
 30
0.0
 10
193.345529625674
 20
116.412355687368
 30
0.0
 10
193.5000045094916
 20
116.7012669865059
 30
0.0
 10
193.6873903330918
 20
117.1520929613642
 30
0.0
 10
193.7426152533394
 20
117.30560525083
 30
0.0
 10
193.8382714419455
 20
117.6192818579316
 30
0.0
 10
193.8788550357283
 20
117.7804044372233
 30
0.0
 10
193.9755950347435
 20
118.2649254514554
 30
0.0
 10
194.0076740834357
 20
118.5902255104442
 30
0.0
 10
194.0080820307215
 20
119.2453358940736
 30
0.0
 10
193.9752990271548
 20
119.5781537990367
 30
0.0
 10
193.8471287032334
 20
120.2204765599626
 30
0.0
 10
193.752311607108
 20
120.5328302208255
 30
0.0
 10
193.500542588439
 20
121.1398922760526
 30
0.0
 10
193.3446261840065
 20
121.4305213671438
 30
0.0
 10
192.9832951271041
 20
121.9707583507317
 30
0.0
 10
192.7750905722642
 20
122.2247400967971
 30
0.0
 10
192.3118947522346
 20
122.6879568085853
 30
0.0
 10
192.0609201842599
 20
122.893887331913
 30
0.0
 10
191.5206246387011
 20
123.255850287699
 30
0.0
 10
191.2278392856138
 20
123.4129429754397
 30
0.0
 10
190.6244617155076
 20
123.6636134834746
 30
0.0
 10
190.3127939759515
 20
123.7587635550704
 30
0.0
 10
189.8299522906871
 20
123.8555818155071
 30
0.0
 10
189.6654489052291
 20
123.8802069556679
 30
0.0
 10
189.3373295185585
 20
123.912751923565
 30
0.0
 10
189.1735397605235
 20
123.9208240087482
 30
0.0
 10
188.6829614846578
 20
123.921033450571
 30
0.0
 10
188.3569566904357
 20
123.8894004789255
 30
0.0
 10
187.7071162480039
 20
123.7600853209524
 30
0.0
 10
187.3943068842594
 20
123.6645919780111
 30
0.0
 10
186.791988812433
 20
123.4149028990766
 30
0.0
 10
186.499514252531
 20
123.2584844301667
 30
0.0
 10
185.9567799367298
 20
122.8954856421014
 30
0.0
 10
185.7058910295342
 20
122.6896028060528
 30
0.0
 10
185.2444609899373
 20
122.2289108110988
 30
0.0
 10
185.0342800267533
 20
121.9731252167954
 30
0.0
 10
184.6726293478897
 20
121.4331070353594
 30
0.0
 10
184.5184147197534
 20
121.1464793182506
 30
0.0
 10
184.2652267151773
 20
120.5382277582695
 30
0.0
 10
184.1695030008292
 20
120.2234474595033
 30
0.0
 10
184.0732978460767
 20
119.7434150456221
 30
0.0
 10
184.0490107750271
 20
119.5816734886315
 30
0.0
 10
184.0163249676944
 20
119.2546480471989
 30
0.0
 10
184.0079649085251
 20
119.0883922944826
 30
0.0
 10
184.0077092649861
 20
118.5936490391359
 30
0.0
 10
184.0398600710247
 20
118.2682039144379
 30
0.0
 10
184.1674123608691
 20
117.6258655095525
 30
0.0
 10
184.2643711509965
 20
117.3066552573148
 30
0.0
 10
184.5146210817678
 20
116.7034029877033
 30
0.0
 10
184.6680378396864
 20
116.4162348675621
 30
0.0
 10
185.0323518790276
 20
115.8708575260268
 30
0.0
 10
185.2409472545104
 20
115.6170306158446
 30
0.0
 10
185.6995661607627
 20
115.1578694235756
 30
0.0
 10
185.9530291763435
 20
114.9490682737652
 30
0.0
 10
186.4978830239499
 20
114.5841409437817
 30
0.0
 10
186.7845692920505
 20
114.430558216946
 30
0.0
 10
187.3863029614056
 20
114.1799328584723
 30
0.0
 10
187.704826452881
 20
114.0825043467771
 30
0.0
 10
188.3492125144384
 20
113.9535890163929
 30
0.0
 10
188.676137447599
 20
113.9208942783588
 30
0.0
 10
189.3396206054296
 20
113.9208942783588
 30
0.0
  0
LINE
  5
131
330
1F
100
AcDbEntity
  8
0
  6
HIDDEN
 62
     7
370
     0
100
AcDbLine
 10
182.0078790265
 20
138.6208942767
 30
0.0
 11
182.0078790265
 21
99.2208942784
 31
0.0
  0
SPLINE
  5
132
330
1F
100
AcDbEntity
  8
0
  6
HIDDEN
 62
     7
370
     0
100
AcDbSpline
210
0.0
220
0.0
230
1.0
 70
     8
 71
     3
 72
    10
 73
     6
 74
     0
 42
0.00000001
 43
0.00000001
 12
1.0
 22
0.0
 32
0.0
 13
1.0
 23
0.0
 33
0.0
 40
0.0
 40
0.0
 40
0.0
 40
0.0
 40
0.5
 40
0.5
 40
1.0
 40
1.0
 40
1.0
 40
1.0
 10
197.0031014270957
 20
102.0208942783589
 30
0.0
 10
196.9913893101326
 20
101.9865509411649
 30
0.0
 10
196.9825912402605
 20
101.9514584034266
 30
0.0
 10
196.9707776824884
 20
101.8797866280359
 30
0.0
 10
196.9678790265143
 20
101.8438429736706
 30
0.0
 10
196.9678790265143
 20
101.8080153563305
 30
0.0
  0
LINE
  5
133
330
1F
100
AcDbEntity
  8
0
  6
HIDDEN
 62
     7
370
     0
100
AcDbLine
 10
196.9678790265
 20
101.8080153563
 30
0.0
 11
196.9678790265
 21
130.7708942784
 31
0.0
  0
SPLINE
  5
134
330
1F
100
AcDbEntity
  8
0
  6
HIDDEN
 62
     7
370
     0
100
AcDbSpline
210
0.0
220
0.0
230
1.0
 70
     8
 71
     3
 72
    10
 73
     6
 74
     0
 42
0.00000001
 43
0.00000001
 12
1.0
 22
0.0
 32
0.0
 13
1.0
 23
0.0
 33
0.0
 40
0.0
 40
0.0
 40
0.0
 40
0.0
 40
0.5
 40
0.5
 40
1.0
 40
1.0
 40
1.0
 40
1.0
 10
199.0478790265143
 20
101.8080153563305
 30
0.0
 10
199.0478790265143
 20
101.8442378457712
 30
0.0
 10
199.0449092972169
 20
101.8804310430296
 30
0.0
 10
199.033030314869
 20
101.9520695344443
 30
0.0
 10
199.0242350870284
 20
101.9869428590859
 30
0.0
 10
199.0126566259332
 20
102.0208942783582
 30
0.0
  0
LINE
  5
135
330
1F
100
AcDbEntity
  8
0
  6
HIDDEN
 62
     7
370
     0
100
AcDbLine
 10
199.0478790265
 20
101.8080153563
 30
0.0
 11
199.0478790265
 21
130.7708942784
 31
0.0
  0
SPLINE
  5
136
330
1F
100
AcDbEntity
  8
0
  6
HIDDEN
 62
     7
370
     0
100
AcDbSpline
210
0.0
220
0.0
230
1.0
 70
     8
 71
     3
 72
    16
 73
    12
 74
     0
 42
0.00000001
 43
0.00000001
 12
1.0
 22
0.0
 32
0.0
 13
1.0
 23
0.0
 33
0.0
 40
0.0
 40
0.0
 40
0.0
 40
0.0
 40
0.2499999999999994
 40
0.2499999999999994
 40
0.4999999999999989
 40
0.4999999999999989
 40
0.6249999999999987
 40
0.6249999999999987
 40
0.7499999999999983
 40
0.7499999999999983
 40
1.0
 40
1.0
 40
1.0
 40
1.0
 10
202.9578790265138
 20
121.5091623781898
 30
0.0
 10
202.8104232063696
 20
121.7185895395708
 30
0.0
 10
202.7000952886467
 20
121.9482228826317
 30
0.0
 10
202.5469895755543
 20
122.4379774817806
 30
0.0
 10
202.5081029376028
 20
122.6872565234188
 30
0.0
 10
202.5077684854546
 20
123.0609376104695
 30
0.0
 10
202.5176840017839
 20
123.1842816607508
 30
0.0
 10
202.5562652154321
 20
123.4217824083489
 30
0.0
 10
202.5849036832372
 20
123.5371416363815
 30
0.0
 10
202.6992014808457
 20
123.8760117790602
 30
0.0
 10
202.8104125026417
 20
124.0854277208004
 30
0.0
 10
202.9578790265139
 20
124.2859717689739
 30
0.0
  0
SPLINE
  5
137
330
1F
100
AcDbEntity
  8
0
  6
HIDDEN
 62
     7
370
     0
100
AcDbSpline
210
0.0
220
0.0
230
1.0
 70
     8
 71
     3
 72
     9
 73
     5
 74
     0
 42
0.00000001
 43
0.00000001
 12
1.0
 22
0.0
 32
0.0
 13
1.0
 23
0.0
 33
0.0
 40
0.0
 40
0.0
 40
0.0
 40
0.0
 40
0.5
 40
1.0
 40
1.0
 40
1.0
 40
1.0
 10
201.9579411496376
 20
135.8208942783588
 30
0.0
 10
201.9579204369343
 20
135.8228171466928
 30
0.0
 10
201.9578893756159
 20
135.8266624356816
 30
0.0
 10
201.9578790265143
 20
135.8305068300022
 30
0.0
 10
201.9578790265143
 20
135.8324288036466
 30
0.0
  0
SPLINE
  5
138
330
1F
100
AcDbEntity
  8
0
  6
HIDDEN
 62
     7
370
     0
100
AcDbSpline
210
0.0
220
0.0
230
1.0
 70
    24
 71
     3
 72
    14
 73
    10
 74
     0
 42
0.00000001
 43
0.00000001
 12
1.0
 22
0.0
 32
0.0
 13
1.0
 23
0.0
 33
0.0
 40
0.0
 40
0.0
 40
0.0
 40
0.0
 40
0.5
 40
0.5
 40
0.75
 40
0.75
 40
0.875
 40
0.875
 40
1.0
 40
1.0
 40
1.0
 40
1.0
 10
201.9579411496376
 20
135.8208942783588
 30
0.0
 10
201.9600944824583
 20
135.8208942783588
 30
0.0
 10
202.0153119451874
 20
135.8208942783588
 30
0.0
 10
202.0902710755209
 20
135.8208942783588
 30
0.0
 10
202.1141686517741
 20
135.8208942783588
 30
0.0
 10
202.1396027288347
 20
135.8208942783588
 30
0.0
 10
202.1463650838482
 20
135.8208942783588
 30
0.0
 10
202.1555059398151
 20
135.8208942783588
 30
0.0
 10
202.1578790265143
 20
135.8208942783588
 30
0.0
 10
202.1578790265143
 20
135.8208942783588
 30
0.0
  0
SPLINE
  5
139
330
1F
100
AcDbEntity
  8
0
  6
HIDDEN
 62
     7
370
     0
100
AcDbSpline
210
0.0
220
0.0
230
1.0
 70
     8
 71
     3
 72
     9
 73
     5
 74
     0
 42
0.00000001
 43
0.00000001
 12
1.0
 22
0.0
 32
0.0
 13
1.0
 23
0.0
 33
0.0
 40
0.0
 40
0.0
 40
0.0
 40
0.0
 40
0.5
 40
1.0
 40
1.0
 40
1.0
 40
1.0
 10
201.9578790265143
 20
135.8324288036466
 30
0.0
 10
201.9578790265143
 20
135.8305056791635
 30
0.0
 10
201.9578893880119
 20
135.8266601343186
 30
0.0
 10
201.9579204493278
 20
135.8228159961411
 30
0.0
 10
201.9579411496376
 20
135.8208942783588
 30
0.0
  0
LINE
  5
13A
330
1F
100
AcDbEntity
  8
0
  6
HIDDEN
 62
     7
370
     0
100
AcDbLine
 10
201.9578790265
 20
135.8324288036
 30
0.0
 11
201.9578790265
 21
102.0208942784
 31
0.0
  0
SPLINE
  5
13B
330
1F
100
AcDbEntity
  8
0
  6
HIDDEN
 62
     7
370
     0
100
AcDbSpline
210
0.0
220
0.0
230
1.0
 70
    24
 71
     3
 72
    14
 73
    10
 74
     0
 42
0.00000001
 43
0.00000001
 12
1.0
 22
0.0
 32
0.0
 13
1.0
 23
0.0
 33
0.0
 40
0.0
 40
0.0
 40
0.0
 40
0.0
 40
0.5000000000000001
 40
0.5000000000000001
 40
0.75
 40
0.75
 40
0.8750000000000001
 40
0.8750000000000001
 40
1.0
 40
1.0
 40
1.0
 40
1.0
 10
201.9578790265143
 20
102.0208942783588
 30
0.0
 10
201.9578790265143
 20
102.0208942783588
 30
0.0
 10
202.0133268863456
 20
102.0208942783588
 30
0.0
 10
202.089109151689
 20
102.0208942783588
 30
0.0
 10
202.1133868137718
 20
102.0208942783588
 30
0.0
 10
202.1392603591104
 20
102.0208942783589
 30
0.0
 10
202.1461475517942
 20
102.0208942783589
 30
0.0
 10
202.1554597425897
 20
102.0208942783588
 30
0.0
 10
202.1578790265143
 20
102.0208942783588
 30
0.0
 10
202.1578790265143
 20
102.0208942783588
 30
0.0
  0
LINE
  5
13C
330
1F
100
AcDbEntity
  8
0
  6
HIDDEN
 62
     7
370
     0
100
AcDbLine
 10
201.9578790265
 20
131.7982969668
 30
0.0
 11
201.9578790265
 21
135.8324288036
 31
0.0
  0
LINE
  5
13D
330
1F
100
AcDbEntity
  8
0
  6
HIDDEN
 62
     7
370
     0
100
AcDbLine
 10
201.9578790265
 20
102.0208942784
 30
0.0
 11
201.9578790265
 21
130.7708942784
 31
0.0
  0
SPLINE
  5
13E
330
1F
100
AcDbEntity
  8
0
  6
HIDDEN
 62
     7
370
     0
100
AcDbSpline
210
0.0
220
0.0
230
1.0
 70
     8
 71
     3
 72
    56
 73
    52
 74
     0
 42
0.00000001
 43
0.00000001
 12
1.0
 22
0.0
 32
0.0
 13
1.0
 23
0.0
 33
0.0
 40
0.0
 40
0.0
 40
0.0
 40
0.0
 40
0.0625000000000001
 40
0.0625000000000001
 40
0.1250000000000002
 40
0.1250000000000002
 40
0.1562500000000003
 40
0.1562500000000003
 40
0.1875000000000003
 40
0.1875000000000003
 40
0.2187500000000004
 40
0.2187500000000004
 40
0.2500000000000004
 40
0.2500000000000004
 40
0.2812500000000005
 40
0.2812500000000005
 40
0.3125000000000006
 40
0.3125000000000006
 40
0.3437500000000006
 40
0.3437500000000006
 40
0.3750000000000006
 40
0.3750000000000006
 40
0.4062500000000006
 40
0.4062500000000006
 40
0.4375000000000006
 40
0.4375000000000006
 40
0.5000000000000007
 40
0.5000000000000007
 40
0.5625000000000007
 40
0.5625000000000007
 40
0.6250000000000007
 40
0.6250000000000007
 40
0.6875000000000006
 40
0.6875000000000006
 40
0.7187500000000004
 40
0.7187500000000004
 40
0.7500000000000004
 40
0.7500000000000004
 40
0.7812500000000003
 40
0.7812500000000003
 40
0.8125000000000003
 40
0.8125000000000003
 40
0.8437500000000002
 40
0.8437500000000002
 40
0.8750000000000002
 40
0.8750000000000002
 40
0.9062500000000001
 40
0.9062500000000001
 40
0.9375000000000001
 40
0.9375000000000001
 40
1.0
 40
1.0
 40
1.0
 40
1.0
 10
202.9578790265145
 20
121.5091623781902
 30
0.0
 10
203.1101532191195
 20
121.2928918242193
 30
0.0
 10
203.2922532227776
 20
121.1049147407492
 30
0.0
 10
203.7157698783923
 20
120.786060562127
 30
0.0
 10
203.9492788498277
 20
120.6618654564294
 30
0.0
 10
204.3250265257379
 20
120.532832428458
 30
0.0
 10
204.4546089611017
 20
120.499631782891
 30
0.0
 10
204.7139991564753
 20
120.4547340054027
 30
0.0
 10
204.8449239660333
 20
120.4426121798771
 30
0.0
 10
205.1092683811804
 20
120.4393330135974
 30
0.0
 10
205.2431471724409
 20
120.4484474283564
 30
0.0
 10
205.5039237766606
 20
120.4872726960108
 30
0.0
 10
205.6320097845518
 20
120.5168805879859
 30
0.0
 10
205.8835821644203
 20
120.596432472017
 30
0.0
 10
206.0078646521748
 20
120.6469207516792
 30
0.0
 10
206.2436226076986
 20
120.765176628697
 30
0.0
 10
206.3559909647415
 20
120.8330795317161
 30
0.0
 10
206.5698221332735
 20
120.9861738310368
 30
0.0
 10
206.6720690447097
 20
121.0722420307723
 30
0.0
 10
206.8595859287011
 20
121.2570459112193
 30
0.0
 10
206.945258115161
 20
121.3558165903194
 30
0.0
 10
207.1006746577609
 20
121.5657938415148
 30
0.0
 10
207.1709113136063
 20
121.6780090731701
 30
0.0
 10
207.2918807143758
 20
121.9103397008948
 30
0.0
 10
207.3424807434723
 20
122.0297541703821
 30
0.0
 10
207.4652784456887
 20
122.3973813945049
 30
0.0
 10
207.5079108995527
 20
122.6577823850237
 30
0.0
 10
207.5078471166964
 20
123.1680171759156
 30
0.0
 10
207.4651402734192
 20
123.42526600832
 30
0.0
 10
207.3012556123393
 20
123.9040172169554
 30
0.0
 10
207.1778424438346
 20
124.1323297923478
 30
0.0
 10
206.8670608210363
 20
124.5334794105986
 30
0.0
 10
206.6756824638754
 20
124.7116831871768
 30
0.0
 10
206.3553510063778
 20
124.9270785314347
 30
0.0
 10
206.2429653535941
 20
124.9906426447799
 30
0.0
 10
206.0067447103957
 20
125.1012044445182
 30
0.0
 10
205.8825618028867
 20
125.1480868561741
 30
0.0
 10
205.6313850944781
 20
125.2218422158078
 30
0.0
 10
205.5033398110326
 20
125.2492831686923
 30
0.0
 10
205.2422903740462
 20
125.2852453806962
 30
0.0
 10
205.1083208429207
 20
125.2936292668777
 30
0.0
 10
204.844331631623
 20
125.2905196950124
 30
0.0
 10
204.7134163332089
 20
125.2792830546252
 30
0.0
 10
204.4537299669717
 20
125.2375219630353
 30
0.0
 10
204.3238508947179
 20
125.2065668134822
 30
0.0
 10
204.07384702536
 20
125.1265978601421
 30
0.0
 10
203.9533241822841
 20
125.0777210732808
 30
0.0
 10
203.7210692993236
 20
124.9623119488051
 30
0.0
 10
203.6084016675401
 20
124.8950696935888
 30
0.0
 10
203.2919971632031
 20
124.6706590102414
 30
0.0
 10
203.1101551318241
 20
124.4930565079175
 30
0.0
 10
202.957879026514
 20
124.2859717689741
 30
0.0
  0
SPLINE
  5
13F
330
1F
100
AcDbEntity
  8
0
  6
HIDDEN
 62
     7
370
     0
100
AcDbSpline
210
0.0
220
0.0
230
1.0
 70
     8
 71
     3
 72
    20
 73
    16
 74
     0
 42
0.00000001
 43
0.00000001
 12
1.0
 22
0.0
 32
0.0
 13
1.0
 23
0.0
 33
0.0
 40
0.0
 40
0.0
 40
0.0
 40
0.0
 40
0.2499999999999999
 40
0.2499999999999999
 40
0.3749999999999999
 40
0.3749999999999999
 40
0.5
 40
0.5
 40
0.625
 40
0.625
 40
0.7499999999999999
 40
0.7499999999999999
 40
0.8749999999999999
 40
0.8749999999999999
 40
1.0
 40
1.0
 40
1.0
 40
1.0
 10
216.2405520385354
 20
116.3822668679664
 30
0.0
 10
215.8980438221794
 20
116.7761963772501
 30
0.0
 10
215.6283614186653
 20
117.2181168837002
 30
0.0
 10
215.3414773127514
 20
117.9491960843742
 30
0.0
 10
215.2684178822361
 20
118.1979208848912
 30
0.0
 10
215.1673377183509
 20
118.7054540453555
 30
0.0
 10
215.1392904493252
 20
118.9661456096912
 30
0.0
 10
215.1329054471203
 20
119.4902453764823
 30
0.0
 10
215.1542826530299
 20
119.7485490967196
 30
0.0
 10
215.2456813818324
 20
120.2577866530422
 30
0.0
 10
215.316929229745
 20
120.5115001899292
 30
0.0
 10
215.5057611178832
 20
120.9953030080569
 30
0.0
 10
215.6224256165433
 20
121.2250492972306
 30
0.0
 10
215.8995974457866
 20
121.6609531833129
 30
0.0
 10
216.0610016486158
 20
121.867560164243
 30
0.0
 10
216.2405520385354
 20
122.0564475325615
 30
0.0
  0
LINE
  5
140
330
1F
100
AcDbEntity
  8
0
  6
HIDDEN
 62
     7
370
     0
100
AcDbLine
 10
189.9578790265
 20
130.7708942784
 30
0.0
 11
194.4515495012
 21
130.7708942784
 31
0.0
  0
LINE
  5
141
330
1F
100
AcDbEntity
  8
0
  6
HIDDEN
 62
     7
370
     0
100
AcDbLine
 10
182.0078790265
 20
102.7136935933
 30
0.0
 11
182.0078790265
 21
135.1152815056
 31
0.0
  0
SPLINE
  5
142
330
1F
100
AcDbEntity
  8
0
  6
HIDDEN
 62
     7
370
     0
100
AcDbSpline
210
0.0
220
0.0
230
1.0
 70
     8
 71
     3
 72
     8
 73
     4
 74
     0
 42
0.00000001
 43
0.00000001
 12
1.0
 22
0.0
 32
0.0
 13
1.0
 23
0.0
 33
0.0
 40
0.0
 40
0.0
 40
0.0
 40
0.0
 40
1.0
 40
1.0
 40
1.0
 40
1.0
 10
163.0493628769453
 20
106.2177165788153
 30
0.0
 10
163.0634973215734
 20
106.166920255182
 30
0.0
 10
163.086554696722
 20
106.1176815046218
 30
0.0
 10
163.1168790265143
 20
106.0698274008026
 30
0.0
  0
SPLINE
  5
143
330
1F
100
AcDbEntity
  8
0
  6
HIDDEN
 62
     7
370
     0
100
AcDbSpline
210
0.0
220
0.0
230
1.0
 70
     8
 71
     3
 72
    10
 73
     6
 74
     0
 42
0.00000001
 43
0.00000001
 12
1.0
 22
0.0
 32
0.0
 13
1.0
 23
0.0
 33
0.0
 40
0.0
 40
0.0
 40
0.0
 40
0.0
 40
0.5
 40
0.5
 40
1.0
 40
1.0
 40
1.0
 40
1.0
 10
163.1168790265143
 20
106.0698274008026
 30
0.0
 10
163.3322380570717
 20
106.0768402317731
 30
0.0
 10
163.5466793953957
 20
106.0856149554284
 30
0.0
 10
163.9716706140162
 20
106.1106681329762
 30
0.0
 10
164.1830433457389
 20
106.1253539657766
 30
0.0
 10
164.3870556348158
 20
106.1542721512813
 30
0.0
  0
SPLINE
  5
144
330
1F
100
AcDbEntity
  8
0
  6
HIDDEN
 62
     7
370
     0
100
AcDbSpline
210
0.0
220
0.0
230
1.0
 70
     8
 71
     3
 72
    10
 73
     6
 74
     0
 42
0.00000001
 43
0.00000001
 12
1.0
 22
0.0
 32
0.0
 13
1.0
 23
0.0
 33
0.0
 40
0.0
 40
0.0
 40
0.0
 40
0.0
 40
0.5
 40
0.5
 40
1.0
 40
1.0
 40
1.0
 40
1.0
 10
164.3870556348158
 20
106.1542721512813
 30
0.0
 10
164.859625691814
 20
106.2212576678603
 30
0.0
 10
165.3451881738077
 20
106.2794354836603
 30
0.0
 10
166.321566067473
 20
106.3863012269656
 30
0.0
 10
166.81356428658
 20
106.4348866582709
 30
0.0
 10
167.3078790265142
 20
106.4805242308478
 30
0.0
  0
SPLINE
  5
145
330
1F
100
AcDbEntity
  8
0
  6
HIDDEN
 62
     7
370
     0
100
AcDbSpline
210
0.0
220
0.0
230
1.0
 70
     8
 71
     3
 72
    14
 73
    10
 74
     0
 42
0.00000001
 43
0.00000001
 12
1.0
 22
0.0
 32
0.0
 13
1.0
 23
0.0
 33
0.0
 40
0.0
 40
0.0
 40
0.0
 40
0.0
 40
0.1250000000000014
 40
0.1250000000000014
 40
0.2500000000000029
 40
0.2500000000000029
 40
0.5000000000000024
 40
0.5000000000000024
 40
1.0
 40
1.0
 40
1.0
 40
1.0
 10
167.3078790265143
 20
106.4805242308478
 30
0.0
 10
167.3568913493256
 20
106.485049290003
 30
0.0
 10
167.4096975743211
 20
106.4769299044485
 30
0.0
 10
167.4947646660506
 20
106.4465998292971
 30
0.0
 10
167.5293488513914
 20
106.4259448722206
 30
0.0
 10
167.6179045367286
 20
106.3614087488937
 30
0.0
 10
167.6588402380499
 20
106.3141705688411
 30
0.0
 10
167.7627207649528
 20
106.1743744675574
 30
0.0
 10
167.8059445643849
 20
106.0804895286881
 30
0.0
 10
167.8401439336575
 20
105.9905184154741
 30
0.0
  0
SPLINE
  5
146
330
1F
100
AcDbEntity
  8
0
  6
HIDDEN
 62
     7
370
     0
100
AcDbSpline
210
0.0
220
0.0
230
1.0
 70
     8
 71
     3
 72
    12
 73
     8
 74
     0
 42
0.00000001
 43
0.00000001
 12
1.0
 22
0.0
 32
0.0
 13
1.0
 23
0.0
 33
0.0
 40
0.0
 40
0.0
 40
0.0
 40
0.0
 40
0.2500000000000001
 40
0.2500000000000001
 40
0.5000000000000002
 40
0.5000000000000002
 40
1.0
 40
1.0
 40
1.0
 40
1.0
 10
167.8401439336575
 20
105.9905184154741
 30
0.0
 10
167.8655681505514
 20
105.9236328224003
 30
0.0
 10
167.9061799901207
 20
105.8591843327167
 30
0.0
 10
167.9907811363928
 20
105.7341836726388
 30
0.0
 10
168.0348779326783
 20
105.6736649274467
 30
0.0
 10
168.1509470411644
 20
105.4974588713383
 30
0.0
 10
168.2078790265143
 20
105.3870644563665
 30
0.0
 10
168.2078790265143
 20
105.2841475802734
 30
0.0
  0
LINE
  5
147
330
1F
100
AcDbEntity
  8
0
  6
HIDDEN
 62
     7
370
     0
100
AcDbLine
 10
168.2078790265
 20
105.2841475803
 30
0.0
 11
168.2078790265
 21
104.4083762423
 31
0.0
  0
LINE
  5
148
330
1F
100
AcDbEntity
  8
0
  6
HIDDEN
 62
     7
370
     0
100
AcDbLine
 10
165.7078790265
 20
133.3081618134
 30
0.0
 11
165.7078790265
 21
132.4784184001
 31
0.0
  0
SPLINE
  5
149
330
1F
100
AcDbEntity
  8
0
  6
HIDDEN
 62
     7
370
     0
100
AcDbSpline
210
0.0
220
0.0
230
1.0
 70
     8
 71
     3
 72
    20
 73
    16
 74
     0
 42
0.00000001
 43
0.00000001
 12
1.0
 22
0.0
 32
0.0
 13
1.0
 23
0.0
 33
0.0
 40
0.0
 40
0.0
 40
0.0
 40
0.0
 40
0.2499999999999987
 40
0.2499999999999987
 40
0.4999999999999974
 40
0.4999999999999974
 40
0.7499999999999962
 40
0.7499999999999962
 40
0.8749999999999969
 40
0.8749999999999969
 40
0.9374999999999988
 40
0.9374999999999988
 40
0.9687499999999993
 40
0.9687499999999993
 40
1.0
 40
1.0
 40
1.0
 40
1.0
 10
165.7078790265153
 20
132.4784184001067
 30
0.0
 10
165.7078790265153
 20
132.4178090004093
 30
0.0
 10
165.6824840069384
 20
132.3519830350058
 30
0.0
 10
165.5961908211564
 20
132.2179352656592
 30
0.0
 10
165.5355548424731
 20
132.1492399075174
 30
0.0
 10
165.3874530482519
 20
132.0088413558629
 30
0.0
 10
165.3006834414732
 20
131.9371378512816
 30
0.0
 10
165.152045646144
 20
131.8309744495327
 30
0.0
 10
165.0997564292578
 20
131.7954461009012
 30
0.0
 10
165.0089926009479
 20
131.7457421703857
 30
0.0
 10
164.9766266084959
 20
131.7294811723706
 30
0.0
 10
164.9189374528297
 20
131.7103686040246
 30
0.0
 10
164.8979504249423
 20
131.7049774619431
 30
0.0
 10
164.8526614459518
 20
131.6992400935506
 30
0.0
 10
164.8296471771133
 20
131.699262827204
 30
0.0
 10
164.8078790265137
 20
131.7016881370169
 30
0.0
  0
SPLINE
  5
14A
330
1F
100
AcDbEntity
  8
0
  6
HIDDEN
 62
     7
370
     0
100
AcDbSpline
210
0.0
220
0.0
230
1.0
 70
     8
 71
     3
 72
    12
 73
     8
 74
     0
 42
0.00000001
 43
0.00000001
 12
1.0
 22
0.0
 32
0.0
 13
1.0
 23
0.0
 33
0.0
 40
0.0
 40
0.0
 40
0.0
 40
0.0
 40
0.2500000000000014
 40
0.2500000000000014
 40
0.5000000000000028
 40
0.5000000000000028
 40
1.0
 40
1.0
 40
1.0
 40
1.0
 10
164.8078790265143
 20
131.701688137018
 30
0.0
 10
164.6658366233251
 20
131.7175138651942
 30
0.0
 10
164.521718516821
 20
131.7285349989696
 30
0.0
 10
164.2319640031485
 20
131.7470713608367
 30
0.0
 10
164.0862220997897
 20
131.7543420665725
 30
0.0
 10
163.6475418606099
 20
131.7728029169005
 30
0.0
 10
163.3531662445387
 20
131.7806817837241
 30
0.0
 10
163.0578790265143
 20
131.7864748253372
 30
0.0
  0
SPLINE
  5
14B
330
1F
100
AcDbEntity
  8
0
  6
HIDDEN
 62
     7
370
     0
100
AcDbSpline
210
0.0
220
0.0
230
1.0
 70
     8
 71
     3
 72
     8
 73
     4
 74
     0
 42
0.00000001
 43
0.00000001
 12
1.0
 22
0.0
 32
0.0
 13
1.0
 23
0.0
 33
0.0
 40
0.0
 40
0.0
 40
0.0
 40
0.0
 40
1.0
 40
1.0
 40
1.0
 40
1.0
 10
163.0578790265143
 20
131.7864748253372
 30
0.0
 10
163.012114118825
 20
131.7249544461783
 30
0.0
 10
162.977726997195
 20
131.6610595864289
 30
0.0
 10
162.9587117435221
 20
131.5943296413852
 30
0.0
  0
ELLIPSE
  5
14C
330
1F
100
AcDbEntity
  8
0
  6
HIDDEN
 62
     7
370
     0
100
AcDbEllipse
 10
149.501758388
 20
119.5600047297
 30
0.0
 11
13.369636111343
 21
13.36754752639482
 31
0.0
210
0.0
220
0.0
230
1.0
 40
0.1761188775
 41
5.933076931846601
 42
5.976720052691199
  0
ELLIPSE
  5
14D
330
1F
100
AcDbEntity
  8
0
  6
HIDDEN
 62
     7
370
     0
100
AcDbEllipse
 10
149.5811368187
 20
118.2815966006
 30
0.0
 11
13.37355272666625
 21
-13.37146352987014
 31
0.0
210
0.0
220
0.0
230
1.0
 40
0.1761188775
 41
0.3023035477142499
 42
0.3822730435340265
  0
LINE
  5
14E
330
1F
100
AcDbEntity
  8
0
  6
HIDDEN
 62
     7
370
     0
100
AcDbLine
 10
180.0078790265
 20
134.0245946792
 30
0.0
 11
180.0078790265
 21
103.8171938776
 31
0.0
  0
SPLINE
  5
14F
330
1F
100
AcDbEntity
  8
0
  6
HIDDEN
 62
     7
370
     0
100
AcDbSpline
210
0.0
220
0.0
230
1.0
 70
     8
 71
     3
 72
    11
 73
     7
 74
     0
 42
0.00000001
 43
0.00000001
 12
1.0
 22
0.0
 32
0.0
 13
1.0
 23
0.0
 33
0.0
 40
0.0
 40
0.0
 40
0.0
 40
0.0
 40
0.2594696993306329
 40
0.3326083850983168
 40
0.6701731213681286
 40
1.0
 40
1.0
 40
1.0
 40
1.0
 10
173.6568701721044
 20
104.2221395736423
 30
0.0
 10
173.5913097343283
 20
104.2136479943262
 30
0.0
 10
173.5072692803127
 20
104.2027628293512
 30
0.0
 10
173.3303971818389
 20
104.1801544839742
 30
0.0
 10
173.2285126965654
 20
104.1635593498895
 30
0.0
 10
173.2043591168415
 20
104.1604593976663
 30
0.0
 10
173.1924223474392
 20
104.1589273922547
 30
0.0
  0
SPLINE
  5
150
330
1F
100
AcDbEntity
  8
0
  6
HIDDEN
 62
     7
370
     0
100
AcDbSpline
210
0.0
220
0.0
230
1.0
 70
     8
 71
     3
 72
    22
 73
    18
 74
     0
 42
0.00000001
 43
0.00000001
 12
1.0
 22
0.0
 32
0.0
 13
1.0
 23
0.0
 33
0.0
 40
0.0
 40
0.0
 40
0.0
 40
0.0
 40
0.0022119892136436
 40
0.0799684066544704
 40
0.1575272210098999
 40
0.2358577707004853
 40
0.3136121986745928
 40
0.3900719849068284
 40
0.4660893368548849
 40
0.542359013834655
 40
0.6186534253636234
 40
0.6937723136933802
 40
0.7691592386674659
 40
0.8459429412200733
 40
0.9207580945220614
 40
0.9231032099376829
 40
1.0
 40
1.0
 40
1.0
 40
1.0
 10
178.7741571201176
 20
103.8792964397484
 30
0.0
 10
178.7746672526762
 20
103.8791735594402
 30
0.0
 10
178.7931096969887
 20
103.8747311587262
 30
0.0
 10
178.7294619501701
 20
103.8905388441697
 30
0.0
 10
178.5770300962824
 20
103.9273801190245
 30
0.0
 10
178.3104457089664
 20
103.9876708103808
 30
0.0
 10
177.9636170782033
 20
104.0601373493963
 30
0.0
 10
177.5398199697077
 20
104.1365123714799
 30
0.0
 10
177.0565069392247
 20
104.2078050491619
 30
0.0
 10
176.527757529011
 20
104.2656847404203
 30
0.0
 10
175.9785656899949
 20
104.3054347929119
 30
0.0
 10
175.4290824247099
 20
104.3222687522508
 30
0.0
 10
174.9035585258206
 20
104.3170147672542
 30
0.0
 10
174.4153263770845
 20
104.29428715859
 30
0.0
 10
174.1481514748417
 20
104.2701350173764
 30
0.0
 10
173.8638027204157
 20
104.2481781255561
 30
0.0
 10
173.7587824409977
 20
104.2349633073946
 30
0.0
 10
173.6568701721044
 20
104.2221395736423
 30
0.0
  0
SPLINE
  5
151
330
1F
100
AcDbEntity
  8
0
  6
HIDDEN
 62
     7
370
     0
100
AcDbSpline
210
0.0
220
0.0
230
1.0
 70
     8
 71
     3
 72
    22
 73
    18
 74
     0
 42
0.00000001
 43
0.00000001
 12
1.0
 22
0.0
 32
0.0
 13
1.0
 23
0.0
 33
0.0
 40
0.0
 40
0.0
 40
0.0
 40
0.0
 40
0.0769496724554534
 40
0.0780938842349384
 40
0.154139395015936
 40
0.2309485255635645
 40
0.3064555070166264
 40
0.3815281357796086
 40
0.4579812249393556
 40
0.5341646046826789
 40
0.6102700341699627
 40
0.686584554805393
 40
0.7642917127866079
 40
0.842437376649082
 40
0.9199456367429104
 40
0.998205041174558
 40
1.0
 40
1.0
 40
1.0
 40
1.0
 10
173.6567527418173
 20
133.6196344991394
 30
0.0
 10
173.7588562929194
 20
133.6068379370981
 30
0.0
 10
173.862478084219
 20
133.5938510951433
 30
0.0
 10
174.1465500661446
 20
133.5718685467685
 30
0.0
 10
174.4139478470499
 20
133.5477106825733
 30
0.0
 10
174.9048513663964
 20
133.5248154073469
 30
0.0
 10
175.4305771534411
 20
133.5194978360764
 30
0.0
 10
175.9806440194687
 20
133.5363584146643
 30
0.0
 10
176.5298610191014
 20
133.5762504072332
 30
0.0
 10
177.0587266915065
 20
133.6342759087583
 30
0.0
 10
177.5415556297844
 20
133.705546059304
 30
0.0
 10
177.9650790159158
 20
133.7818586578979
 30
0.0
 10
178.3113384549343
 20
133.8541937192077
 30
0.0
 10
178.5771862289059
 20
133.9143997009466
 30
0.0
 10
178.7306008248631
 20
133.9513183963294
 30
0.0
 10
178.7913567568555
 20
133.9670627131604
 30
0.0
 10
178.7735574272857
 20
133.9625939749387
 30
0.0
 10
178.7731583351888
 20
133.9624937780127
 30
0.0
  0
SPLINE
  5
152
330
1F
100
AcDbEntity
  8
0
  6
HIDDEN
 62
     7
370
     0
100
AcDbSpline
210
0.0
220
0.0
230
1.0
 70
     8
 71
     3
 72
    10
 73
     6
 74
     0
 42
0.00000001
 43
0.00000001
 12
1.0
 22
0.0
 32
0.0
 13
1.0
 23
0.0
 33
0.0
 40
0.0
 40
0.0
 40
0.0
 40
0.0
 40
0.3343825155184451
 40
0.6655473205418523
 40
1.0
 40
1.0
 40
1.0
 40
1.0
 10
173.1919559310543
 20
133.682922955837
 30
0.0
 10
173.2016626483765
 20
133.68134917693
 30
0.0
 10
173.2209826768027
 20
133.6782167633434
 30
0.0
 10
173.3785545430405
 20
133.6541610158945
 30
0.0
 10
173.5637151367009
 20
133.6311811750203
 30
0.0
 10
173.6567527418173
 20
133.6196344991394
 30
0.0
  0
SPLINE
  5
153
330
1F
100
AcDbEntity
  8
0
  6
HIDDEN
 62
     7
370
     0
100
AcDbSpline
210
0.0
220
0.0
230
1.0
 70
     8
 71
     3
 72
    48
 73
    44
 74
     0
 42
0.00000001
 43
0.00000001
 12
1.0
 22
0.0
 32
0.0
 13
1.0
 23
0.0
 33
0.0
 40
0.0
 40
0.0
 40
0.0
 40
0.0
 40
0.0624999999999993
 40
0.0624999999999993
 40
0.1249999999999986
 40
0.1249999999999986
 40
0.1562499999999986
 40
0.1562499999999986
 40
0.1874999999999986
 40
0.1874999999999986
 40
0.2187499999999986
 40
0.2187499999999986
 40
0.2499999999999986
 40
0.2499999999999986
 40
0.3124999999999991
 40
0.3124999999999991
 40
0.3749999999999994
 40
0.3749999999999994
 40
0.4374999999999999
 40
0.4374999999999999
 40
0.5000000000000003
 40
0.5000000000000003
 40
0.53125
 40
0.53125
 40
0.5624999999999997
 40
0.5624999999999997
 40
0.6249999999999999
 40
0.6249999999999999
 40
0.6875000000000001
 40
0.6875000000000001
 40
0.7500000000000002
 40
0.7500000000000002
 40
0.8125000000000004
 40
0.8125000000000004
 40
0.8750000000000007
 40
0.8750000000000007
 40
0.9375000000000009
 40
0.9375000000000009
 40
0.968750000000001
 40
0.968750000000001
 40
0.9843750000000006
 40
0.9843750000000006
 40
1.0
 40
1.0
 40
1.0
 40
1.0
 10
205.2585605291947
 20
113.6318975059454
 30
0.0
 10
205.0884183468641
 20
113.6396997914002
 30
0.0
 10
204.9266030637208
 20
113.670561137879
 30
0.0
 10
204.6191047481505
 20
113.7673024854542
 30
0.0
 10
204.4715665110978
 20
113.8343907078029
 30
0.0
 10
204.2761808543049
 20
113.9530963315303
 30
0.0
 10
204.2150134799312
 20
113.9959401095517
 30
0.0
 10
204.1146539117046
 20
114.0804286660248
 30
0.0
 10
204.0750543988957
 20
114.1229230127812
 30
0.0
 10
204.0576784161271
 20
114.1808880571161
 30
0.0
 10
204.0819716535934
 20
114.1937421158714
 30
0.0
 10
204.1569777316407
 20
114.2048010311484
 30
0.0
 10
204.2066224327924
 20
114.2047612846999
 30
0.0
 10
204.3696412642766
 20
114.2056340087845
 30
0.0
 10
204.4950910207803
 20
114.2071888728171
 30
0.0
 10
204.7621269652642
 20
114.231928372479
 30
0.0
 10
204.9054048373331
 20
114.2542207294182
 30
0.0
 10
205.2075379873396
 20
114.3274566364822
 30
0.0
 10
205.3634926430947
 20
114.3774045224461
 30
0.0
 10
205.6864030903841
 20
114.5134636424329
 30
0.0
 10
205.8530181252213
 20
114.5998579758847
 30
0.0
 10
206.0976275853974
 20
114.7597172828359
 30
0.0
 10
206.1795675901051
 20
114.8189988388755
 30
0.0
 10
206.3365415915186
 20
114.945827919784
 30
0.0
 10
206.4120350800473
 20
115.013555712663
 30
0.0
 10
206.6284178736387
 20
115.2312460499803
 30
0.0
 10
206.7530288242617
 20
115.3905481761086
 30
0.0
 10
206.9468004175665
 20
115.7159380269663
 30
0.0
 10
207.0141666414572
 20
115.8784449996756
 30
0.0
 10
207.0960721952859
 20
116.1843200993346
 30
0.0
 10
207.1115222784263
 20
116.3291181923798
 30
0.0
 10
207.1028189889053
 20
116.5980533955539
 30
0.0
 10
207.0791422220783
 20
116.7206644320684
 30
0.0
 10
207.0007768695485
 20
116.9492698875918
 30
0.0
 10
206.9456490256116
 20
117.0551835179594
 30
0.0
 10
206.8078326704751
 20
117.2507336687678
 30
0.0
 10
206.7265961456143
 20
117.3396747347731
 30
0.0
 10
206.5674278016671
 20
117.4811080350644
 30
0.0
 10
206.5075104650977
 20
117.5300065541195
 30
0.0
 10
206.4014595613698
 20
117.6130225177916
 30
0.0
 10
206.3634979741251
 20
117.6422976917112
 30
0.0
 10
206.2832600160591
 20
117.7035614191096
 30
0.0
 10
206.242569616561
 20
117.7343352473567
 30
0.0
 10
206.2012462829316
 20
117.7649531331829
 30
0.0
  0
ARC
  5
154
330
1F
100
AcDbEntity
  8
0
  6
HIDDEN
 62
     7
370
     0
100
AcDbCircle
 10
206.029615141
 20
117.5527215061
 30
0.0
 40
0.2729459881415791
100
AcDbArc
 50
342.0235054139
 51
51.0376257442
  0
SPLINE
  5
155
330
1F
100
AcDbEntity
  8
0
  6
HIDDEN
 62
     7
370
     0
100
AcDbSpline
210
0.0
220
0.0
230
1.0
 70
     8
 71
     3
 72
    14
 73
    10
 74
     0
 42
0.00000001
 43
0.00000001
 12
1.0
 22
0.0
 32
0.0
 13
1.0
 23
0.0
 33
0.0
 40
0.0
 40
0.0
 40
0.0
 40
0.0
 40
0.125
 40
0.125
 40
0.25
 40
0.25
 40
0.5
 40
0.5
 40
1.0
 40
1.0
 40
1.0
 40
1.0
 10
206.2892367819944
 20
117.4684830590441
 30
0.0
 10
206.3491469268535
 20
117.42849844995
 30
0.0
 10
206.4091145763288
 20
117.3786671273862
 30
0.0
 10
206.5180772098094
 20
117.2696178070987
 30
0.0
 10
206.5676277636498
 20
117.2106827995012
 30
0.0
 10
206.7010452038947
 20
117.0327113510465
 30
0.0
 10
206.7730712990089
 20
116.9100389922885
 30
0.0
 10
206.9613517490962
 20
116.5242019829298
 30
0.0
 10
207.0442305573357
 20
116.2534781060138
 30
0.0
 10
207.0838882520544
 20
115.962067894365
 30
0.0
  0
SPLINE
  5
156
330
1F
100
AcDbEntity
  8
0
  6
HIDDEN
 62
     7
370
     0
100
AcDbSpline
210
0.0
220
0.0
230
1.0
 70
     8
 71
     3
 72
    26
 73
    22
 74
     0
 42
0.00000001
 43
0.00000001
 12
1.0
 22
0.0
 32
0.0
 13
1.0
 23
0.0
 33
0.0
 40
0.0
 40
0.0
 40
0.0
 40
0.0
 40
0.1249999999999979
 40
0.1249999999999979
 40
0.1874999999999977
 40
0.1874999999999977
 40
0.2499999999999975
 40
0.2499999999999975
 40
0.3749999999999984
 40
0.3749999999999984
 40
0.4999999999999994
 40
0.4999999999999994
 40
0.6250000000000001
 40
0.6250000000000001
 40
0.7500000000000008
 40
0.7500000000000008
 40
0.8125000000000007
 40
0.8125000000000007
 40
0.8750000000000006
 40
0.8750000000000006
 40
1.0
 40
1.0
 40
1.0
 40
1.0
 10
207.0838882520545
 20
115.962067894365
 30
0.0
 10
206.9461656423105
 20
115.976015902178
 30
0.0
 10
206.8072891543208
 20
115.9816457246062
 30
0.0
 10
206.5969572949101
 20
115.9531535781868
 30
0.0
 10
206.5266997585126
 20
115.9370371569312
 30
0.0
 10
206.3925770581883
 20
115.8804553436378
 30
0.0
 10
206.3291494113741
 20
115.8387566144238
 30
0.0
 10
206.1655847900336
 20
115.6730608624828
 30
0.0
 10
206.0950386191233
 20
115.5214548494393
 30
0.0
 10
205.9454404398768
 20
115.2346913752472
 30
0.0
 10
205.8652279261215
 20
115.0933144244543
 30
0.0
 10
205.678351157308
 20
114.8360684438152
 30
0.0
 10
205.5740344872788
 20
114.7226222270621
 30
0.0
 10
205.3655074068065
 20
114.5100820094161
 30
0.0
 10
205.2616788984841
 20
114.410651634633
 30
0.0
 10
205.1678610722412
 20
114.2447691853904
 30
0.0
 10
205.1485381689079
 20
114.1890043413815
 30
0.0
 10
205.1313375640365
 20
114.0750997575259
 30
0.0
 10
205.133444608736
 20
114.0168793477783
 30
0.0
 10
205.1605089953455
 20
113.8476050265142
 30
0.0
 10
205.2044682935568
 20
113.7379773817692
 30
0.0
 10
205.2585605291947
 20
113.6318975059454
 30
0.0
  0
SPLINE
  5
157
330
1F
100
AcDbEntity
  8
0
  6
HIDDEN
 62
     7
370
     0
100
AcDbSpline
210
0.0
220
0.0
230
1.0
 70
     8
 71
     3
 72
    12
 73
     8
 74
     0
 42
0.00000001
 43
0.00000001
 12
1.0
 22
0.0
 32
0.0
 13
1.0
 23
0.0
 33
0.0
 40
0.0
 40
0.0
 40
0.0
 40
0.0
 40
0.5
 40
0.5
 40
0.7499999999999999
 40
0.7499999999999999
 40
1.0
 40
1.0
 40
1.0
 40
1.0
 10
207.0078790265143
 20
118.9575560092883
 30
0.0
 10
207.0675978838051
 20
118.8056730672404
 30
0.0
 10
207.1077852180724
 20
118.6066634904401
 30
0.0
 10
207.1079256700521
 20
118.2717471490011
 30
0.0
 10
207.0983995227824
 20
118.1574976523666
 30
0.0
 10
207.0630790586103
 20
117.9304545311057
 30
0.0
 10
207.0377628789473
 20
117.8201052696127
 30
0.0
 10
207.0078790265143
 20
117.7149711928094
 30
0.0
  0
SPLINE
  5
158
330
1F
100
AcDbEntity
  8
0
  6
HIDDEN
 62
     7
370
     0
100
AcDbSpline
210
0.0
220
0.0
230
1.0
 70
     8
 71
     3
 72
    64
 73
    60
 74
     0
 42
0.00000001
 43
0.00000001
 12
1.0
 22
0.0
 32
0.0
 13
1.0
 23
0.0
 33
0.0
 40
0.0
 40
0.0
 40
0.0
 40
0.0
 40
0.0624999999999996
 40
0.0624999999999996
 40
0.0937499999999996
 40
0.0937499999999996
 40
0.1249999999999996
 40
0.1249999999999996
 40
0.1562499999999997
 40
0.1562499999999997
 40
0.1874999999999997
 40
0.1874999999999997
 40
0.2187499999999998
 40
0.2187499999999998
 40
0.2499999999999998
 40
0.2499999999999998
 40
0.2812499999999998
 40
0.2812499999999998
 40
0.3124999999999998
 40
0.3124999999999998
 40
0.3437499999999998
 40
0.3437499999999998
 40
0.3749999999999998
 40
0.3749999999999998
 40
0.4062499999999998
 40
0.4062499999999998
 40
0.4374999999999998
 40
0.4374999999999998
 40
0.4687499999999999
 40
0.4687499999999999
 40
0.4999999999999999
 40
0.4999999999999999
 40
0.5312499999999999
 40
0.5312499999999999
 40
0.5624999999999999
 40
0.5624999999999999
 40
0.5937499999999999
 40
0.5937499999999999
 40
0.6249999999999999
 40
0.6249999999999999
 40
0.65625
 40
0.65625
 40
0.6875
 40
0.6875
 40
0.71875
 40
0.71875
 40
0.75
 40
0.75
 40
0.78125
 40
0.78125
 40
0.8125
 40
0.8125
 40
0.84375
 40
0.84375
 40
0.875
 40
0.875
 40
0.9375000000000001
 40
0.9375000000000001
 40
1.0
 40
1.0
 40
1.0
 40
1.0
 10
207.0078790265143
 20
117.7149711928066
 30
0.0
 10
206.928316421483
 20
117.4897709348286
 30
0.0
 10
206.8090548171789
 20
117.3024058790461
 30
0.0
 10
206.5856580670854
 20
117.0678712659292
 30
0.0
 10
206.5049665532669
 20
116.9989408659344
 30
0.0
 10
206.3312433327168
 20
116.8764634389594
 30
0.0
 10
206.237454488336
 20
116.8226358987081
 30
0.0
 10
206.0401986713614
 20
116.7308633748156
 30
0.0
 10
205.9367648628392
 20
116.6927068914903
 30
0.0
 10
205.7170231635399
 20
116.629877888173
 30
0.0
 10
205.5993774778325
 20
116.6049766779453
 30
0.0
 10
205.3501068528144
 20
116.5694511782679
 30
0.0
 10
205.2191224827339
 20
116.558902853512
 30
0.0
 10
204.9510439920322
 20
116.5530187746204
 30
0.0
 10
204.8181785163439
 20
116.5576636694672
 30
0.0
 10
204.5583950246092
 20
116.5820644002873
 30
0.0
 10
204.4368848361431
 20
116.6012524222944
 30
0.0
 10
204.2045581067496
 20
116.6539138828636
 30
0.0
 10
204.0944578303079
 20
116.6874565627327
 30
0.0
 10
203.8887244492225
 20
116.768008793411
 30
0.0
 10
203.7920188854748
 20
116.8152559221685
 30
0.0
 10
203.6087555857401
 20
116.9259689750245
 30
0.0
 10
203.5220571783524
 20
116.9898152423045
 30
0.0
 10
203.3640986114518
 20
117.1321876700095
 30
0.0
 10
203.2920515119899
 20
117.2110790413503
 30
0.0
 10
203.1625394563564
 20
117.38713404794
 30
0.0
 10
203.1045525399937
 20
117.4856688824799
 30
0.0
 10
203.0099687722559
 20
117.6970184165297
 30
0.0
 10
202.9728963974521
 20
117.8099089934641
 30
0.0
 10
202.9216815862618
 20
118.0524379241558
 30
0.0
 10
202.9084586713653
 20
118.1787304282659
 30
0.0
 10
202.9073368362694
 20
118.4362456855495
 30
0.0
 10
202.9197732752794
 20
118.5700734218286
 30
0.0
 10
202.9686322372681
 20
118.8315192488519
 30
0.0
 10
203.0048611877242
 20
118.9604322475165
 30
0.0
 10
203.098722437743
 20
119.2122632110842
 30
0.0
 10
203.1550670976884
 20
119.3320137362477
 30
0.0
 10
203.2844812865087
 20
119.5608514123977
 30
0.0
 10
203.3578817725616
 20
119.6700201811159
 30
0.0
 10
203.5156235012891
 20
119.8714835342587
 30
0.0
 10
203.6005134876145
 20
119.9648740319852
 30
0.0
 10
203.7829198676805
 20
120.1379577956527
 30
0.0
 10
203.8811334049259
 20
120.2180574577297
 30
0.0
 10
204.0873088252887
 20
120.3597863218332
 30
0.0
 10
204.1955814645393
 20
120.4219900395492
 30
0.0
 10
204.4271357481348
 20
120.5265692979938
 30
0.0
 10
204.5510214289954
 20
120.5687671916464
 30
0.0
 10
204.8081034497813
 20
120.6228821669812
 30
0.0
 10
204.9442585698464
 20
120.6347026307404
 30
0.0
 10
205.2097428410995
 20
120.6229506073405
 30
0.0
 10
205.3429215013453
 20
120.5993796358357
 30
0.0
 10
205.5912568777347
 20
120.5261175873179
 30
0.0
 10
205.7095884240432
 20
120.4762401659165
 30
0.0
 10
205.9327563125974
 20
120.3575175209194
 30
0.0
 10
206.0368125531024
 20
120.2893116301113
 30
0.0
 10
206.3326905588695
 20
120.060834763918
 30
0.0
 10
206.5098335559493
 20
119.874650010502
 30
0.0
 10
206.805425317216
 20
119.4552583705836
 30
0.0
 10
206.9281255286747
 20
119.2152324356072
 30
0.0
 10
207.0078790265135
 20
118.9575560092912
 30
0.0
  0
SPLINE
  5
159
330
1F
100
AcDbEntity
  8
0
  6
HIDDEN
 62
     7
370
     0
100
AcDbSpline
210
0.0
220
0.0
230
1.0
 70
     8
 71
     3
 72
     8
 73
     4
 74
     0
 42
0.00000001
 43
0.00000001
 12
1.0
 22
0.0
 32
0.0
 13
1.0
 23
0.0
 33
0.0
 40
0.0
 40
0.0
 40
0.0
 40
0.0
 40
1.0
 40
1.0
 40
1.0
 40
1.0
 10
206.2012462829319
 20
117.7649531331824
 30
0.0
 10
206.1925690523534
 20
117.6915363918004
 30
0.0
 10
206.2244971056536
 20
117.5937843159542
 30
0.0
 10
206.2892367819948
 20
117.4684830590485
 30
0.0
  0
LWPOLYLINE
  5
15A
330
1F
100
AcDbEntity
  8
0
  6
HIDDEN
 62
     7
370
     0
100
AcDbPolyline
 90
       22
 70
   128
 43
0.0
 10
205.2585605292
 20
113.6318975059
 10
204.791470065
 20
113.6281759941
 10
204.3350866041
 20
113.7247306525
 10
203.9119900765
 20
113.9167843636
 10
203.5431135151
 20
114.1948351193
 10
203.2467073774
 20
114.5451261402
 10
203.0374365897
 20
114.9503265029
 10
202.9256549886
 20
115.3903886015
 10
202.9168930566
 20
115.843540018
 10
203.0115842971
 20
116.2873607304
 10
203.2050437866
 20
116.6998923605
 10
203.4876999651
 20
117.0607245819
 10
203.8455681961
 20
117.3520049373
 10
204.260942668
 20
117.5593221024
 10
204.7132724027
 20
117.6724188977
 10
205.1801780314
 20
117.6856997704
 10
205.6385590315
 20
117.5985076389
 10
206.0657366433
 20
117.4151564023
 10
206.4405759189
 20
117.1447175072
 10
206.7445313909
 20
116.8005711301
 10
206.9625646238
 20
116.3997441832
 10
207.0838882521
 20
115.9620678944
  0
SPLINE
  5
15B
330
1F
100
AcDbEntity
  8
0
  6
HIDDEN
 62
     7
370
     0
100
AcDbSpline
210
0.0
220
0.0
230
1.0
 70
    11
 71
     3
 72
    50
 73
    46
 74
     0
 42
0.00000001
 43
0.00000001
 12
1.0
 22
0.0
 32
0.0
 13
1.0
 23
0.0
 33
0.0
 40
0.0
 40
0.0
 40
0.0
 40
0.0
 40
0.0624999999999999
 40
0.0624999999999999
 40
0.1249999999999998
 40
0.1249999999999998
 40
0.1562499999999997
 40
0.1562499999999997
 40
0.1874999999999997
 40
0.1874999999999997
 40
0.2187499999999996
 40
0.2187499999999996
 40
0.2499999999999996
 40
0.2499999999999996
 40
0.2812499999999995
 40
0.2812499999999995
 40
0.3124999999999994
 40
0.3124999999999994
 40
0.3749999999999996
 40
0.3749999999999996
 40
0.4374999999999996
 40
0.4374999999999996
 40
0.4999999999999996
 40
0.4999999999999996
 40
0.5312499999999994
 40
0.5312499999999994
 40
0.5624999999999994
 40
0.5624999999999994
 40
0.5937499999999993
 40
0.5937499999999993
 40
0.6249999999999994
 40
0.6249999999999994
 40
0.6562499999999994
 40
0.6562499999999994
 40
0.6874999999999996
 40
0.6874999999999996
 40
0.7499999999999997
 40
0.7499999999999997
 40
0.8124999999999998
 40
0.8124999999999998
 40
0.8749999999999999
 40
0.8749999999999999
 40
0.9375
 40
0.9375
 40
1.0
 40
1.0
 40
1.0
 40
1.0
 10
177.8320557543918
 20
106.2480839848789
 30
0.0
 10
177.6858009195902
 20
106.2691365107044
 30
0.0
 10
177.5143322826318
 20
106.2914177353864
 30
0.0
 10
177.1211876771219
 20
106.3322592257354
 30
0.0
 10
176.9059434915566
 20
106.3500168606563
 30
0.0
 10
176.563203705007
 20
106.3682901534999
 30
0.0
 10
176.4449573219514
 20
106.3730000925139
 30
0.0
 10
176.2091783197731
 20
106.3789991875727
 30
0.0
 10
176.0906120100672
 20
106.3803550199685
 30
0.0
 10
175.8521169292666
 20
106.3796606079578
 30
0.0
 10
175.7313245357448
 20
106.3775621049665
 30
0.0
 10
175.4962585702796
 20
106.3701789554407
 30
0.0
 10
175.3812030577796
 20
106.3649161921698
 30
0.0
 10
175.1559833030367
 20
106.3516624301213
 30
0.0
 10
175.0449011334345
 20
106.3435833554438
 30
0.0
 10
174.8336496864988
 20
106.3256476284488
 30
0.0
 10
174.7332914519981
 20
106.3158113932353
 30
0.0
 10
174.4476474949746
 20
106.2847957248139
 30
0.0
 10
174.2773687513788
 20
106.2619640305952
 30
0.0
 10
174.0012176214585
 20
106.2212667562645
 30
0.0
 10
173.8915184350737
 20
106.2029407066923
 30
0.0
 10
173.7459753539098
 20
106.1779131074474
 30
0.0
 10
173.7079687184525
 20
106.1709104580799
 30
0.0
 10
173.7078344250946
 20
106.1708862326131
 30
0.0
 10
173.7169521803369
 20
106.1725408198692
 30
0.0
 10
173.7538707258505
 20
106.1791234631421
 30
0.0
 10
173.7818443808752
 20
106.1840797046648
 30
0.0
 10
173.8546159603275
 20
106.1965963773631
 30
0.0
 10
173.8995411984892
 20
106.2041809166766
 30
0.0
 10
174.0065845134447
 20
106.2214891720498
 30
0.0
 10
174.0691525544112
 20
106.2312734638425
 30
0.0
 10
174.2075434571506
 20
106.2516786655085
 30
0.0
 10
174.283726912925
 20
106.2623636204316
 30
0.0
 10
174.4500826467361
 20
106.283947358009
 30
0.0
 10
174.5411109491809
 20
106.2949334670102
 30
0.0
 10
174.8277647658537
 20
106.3260905507763
 30
0.0
 10
175.0398168239714
 20
106.3447867378124
 30
0.0
 10
175.4929940999259
 20
106.3715340185279
 30
0.0
 10
175.7276237486658
 20
106.3792396252297
 30
0.0
 10
176.2090472981245
 20
106.3807576327279
 30
0.0
 10
176.4443526683929
 20
106.3745689444956
 30
0.0
 10
176.9042603200685
 20
106.3501636088027
 30
0.0
 10
177.1186888320276
 20
106.3324804548774
 30
0.0
 10
177.511888016793
 20
106.2917095378448
 30
0.0
 10
177.6857970884582
 20
106.2691370621734
 30
0.0
 10
177.8320557543918
 20
106.2480839848789
 30
0.0
  0
SPLINE
  5
15C
330
1F
100
AcDbEntity
  8
0
  6
HIDDEN
 62
     7
370
     0
100
AcDbSpline
210
0.0
220
0.0
230
1.0
 70
    11
 71
     3
 72
    50
 73
    46
 74
     0
 42
0.00000001
 43
0.00000001
 12
1.0
 22
0.0
 32
0.0
 13
1.0
 23
0.0
 33
0.0
 40
0.0
 40
0.0
 40
0.0
 40
0.0
 40
0.0624999999999999
 40
0.0624999999999999
 40
0.1249999999999998
 40
0.1249999999999998
 40
0.1562499999999997
 40
0.1562499999999997
 40
0.1874999999999997
 40
0.1874999999999997
 40
0.2187499999999996
 40
0.2187499999999996
 40
0.2499999999999996
 40
0.2499999999999996
 40
0.2812499999999995
 40
0.2812499999999995
 40
0.3124999999999994
 40
0.3124999999999994
 40
0.3749999999999996
 40
0.3749999999999996
 40
0.4374999999999996
 40
0.4374999999999996
 40
0.4999999999999996
 40
0.4999999999999996
 40
0.5312499999999994
 40
0.5312499999999994
 40
0.5624999999999994
 40
0.5624999999999994
 40
0.5937499999999993
 40
0.5937499999999993
 40
0.6249999999999994
 40
0.6249999999999994
 40
0.6562499999999994
 40
0.6562499999999994
 40
0.6874999999999996
 40
0.6874999999999996
 40
0.7499999999999997
 40
0.7499999999999997
 40
0.8124999999999998
 40
0.8124999999999998
 40
0.8749999999999999
 40
0.8749999999999999
 40
0.9375
 40
0.9375
 40
1.0
 40
1.0
 40
1.0
 40
1.0
 10
177.8320557543918
 20
131.5937045718387
 30
0.0
 10
177.6858009195902
 20
131.5726520460133
 30
0.0
 10
177.5143322826318
 20
131.5503708213313
 30
0.0
 10
177.1211876771219
 20
131.5095293309823
 30
0.0
 10
176.9059434915566
 20
131.4917716960614
 30
0.0
 10
176.563203705007
 20
131.4734984032178
 30
0.0
 10
176.4449573219514
 20
131.4687884642038
 30
0.0
 10
176.2091783197731
 20
131.462789369145
 30
0.0
 10
176.0906120100672
 20
131.4614335367491
 30
0.0
 10
175.8521169292666
 20
131.4621279487598
 30
0.0
 10
175.7313245357448
 20
131.4642264517512
 30
0.0
 10
175.4962585702796
 20
131.471609601277
 30
0.0
 10
175.3812030577796
 20
131.4768723645479
 30
0.0
 10
175.1559833030367
 20
131.4901261265964
 30
0.0
 10
175.0449011334345
 20
131.4982052012739
 30
0.0
 10
174.8336496864988
 20
131.5161409282689
 30
0.0
 10
174.7332914519981
 20
131.5259771634824
 30
0.0
 10
174.4476474949746
 20
131.5569928319038
 30
0.0
 10
174.2773687513788
 20
131.5798245261225
 30
0.0
 10
174.0012176214585
 20
131.6205218004532
 30
0.0
 10
173.8915184350737
 20
131.6388478500254
 30
0.0
 10
173.7459753539098
 20
131.6638754492703
 30
0.0
 10
173.7079687184525
 20
131.6708780986378
 30
0.0
 10
173.7078344250946
 20
131.6709023241046
 30
0.0
 10
173.7169521803369
 20
131.6692477368485
 30
0.0
 10
173.7538707258505
 20
131.6626650935756
 30
0.0
 10
173.7818443808752
 20
131.6577088520529
 30
0.0
 10
173.8546159603275
 20
131.6451921793546
 30
0.0
 10
173.8995411984892
 20
131.6376076400411
 30
0.0
 10
174.0065845134447
 20
131.6202993846679
 30
0.0
 10
174.0691525544112
 20
131.6105150928752
 30
0.0
 10
174.2075434571506
 20
131.5901098912091
 30
0.0
 10
174.283726912925
 20
131.579424936286
 30
0.0
 10
174.4500826467361
 20
131.5578411987087
 30
0.0
 10
174.5411109491809
 20
131.5468550897075
 30
0.0
 10
174.8277647658537
 20
131.5156980059414
 30
0.0
 10
175.0398168239714
 20
131.4970018189053
 30
0.0
 10
175.4929940999259
 20
131.4702545381898
 30
0.0
 10
175.7276237486658
 20
131.462548931488
 30
0.0
 10
176.2090472981245
 20
131.4610309239898
 30
0.0
 10
176.4443526683929
 20
131.4672196122221
 30
0.0
 10
176.9042603200685
 20
131.491624947915
 30
0.0
 10
177.1186888320276
 20
131.5093081018403
 30
0.0
 10
177.511888016793
 20
131.5500790188729
 30
0.0
 10
177.6857970884582
 20
131.5726514945443
 30
0.0
 10
177.8320557543918
 20
131.5937045718387
 30
0.0
  0
SPLINE
  5
15D
330
1F
100
AcDbEntity
  8
0
  6
HIDDEN
 62
     7
370
     0
100
AcDbSpline
210
0.0
220
0.0
230
1.0
 70
    11
 71
     3
 72
    14
 73
    10
 74
     0
 42
0.00000001
 43
0.00000001
 12
1.0
 22
0.0
 32
0.0
 13
1.0
 23
0.0
 33
0.0
 40
0.0
 40
0.0
 40
0.0
 40
0.0
 40
0.25
 40
0.25
 40
0.5000000000000001
 40
0.5000000000000001
 40
0.7500000000000001
 40
0.7500000000000001
 40
1.0
 40
1.0
 40
1.0
 40
1.0
 10
177.8320557543918
 20
131.5937045718387
 30
0.0
 10
177.9859316500946
 20
131.6158541046907
 30
0.0
 10
178.1038122177237
 20
131.6286661717643
 30
0.0
 10
178.2668760076363
 20
131.6450188805948
 30
0.0
 10
178.30779252626
 20
131.6481946433126
 30
0.0
 10
178.3079652587762
 20
131.6482093454894
 30
0.0
 10
178.2670375005424
 20
131.645029794496
 30
0.0
 10
178.1047001350769
 20
131.6287604630185
 30
0.0
 10
177.9859298669707
 20
131.6158538480205
 30
0.0
 10
177.8320557543918
 20
131.5937045718387
 30
0.0
  0
SPLINE
  5
15E
330
1F
100
AcDbEntity
  8
0
  6
HIDDEN
 62
     7
370
     0
100
AcDbSpline
210
0.0
220
0.0
230
1.0
 70
    11
 71
     3
 72
    14
 73
    10
 74
     0
 42
0.00000001
 43
0.00000001
 12
1.0
 22
0.0
 32
0.0
 13
1.0
 23
0.0
 33
0.0
 40
0.0
 40
0.0
 40
0.0
 40
0.0
 40
0.2500000000000001
 40
0.2500000000000001
 40
0.5000000000000001
 40
0.5000000000000001
 40
0.75
 40
0.75
 40
1.0
 40
1.0
 40
1.0
 40
1.0
 10
177.8320557543918
 20
106.248083984879
 30
0.0
 10
177.9859316500946
 20
106.225934452027
 30
0.0
 10
178.1038122177237
 20
106.2131223849533
 30
0.0
 10
178.2668760076363
 20
106.1967696761229
 30
0.0
 10
178.30779252626
 20
106.193593913405
 30
0.0
 10
178.3079652587762
 20
106.1935792112283
 30
0.0
 10
178.2670375005424
 20
106.1967587622217
 30
0.0
 10
178.1047001350769
 20
106.2130280936992
 30
0.0
 10
177.9859298669707
 20
106.2259347086972
 30
0.0
 10
177.8320557543918
 20
106.2480839848789
 30
0.0
  0
LINE
  5
15F
330
1F
100
AcDbEntity
  8
0
  6
HIDDEN
 62
     7
370
     0
100
AcDbLine
 10
182.0078790265
 20
108.4208942784
 30
0.0
 11
182.0078790265
 21
129.4208942784
 31
0.0
  0
LINE
  5
160
330
1F
100
AcDbEntity
  8
0
  6
HIDDEN
 62
     7
370
     0
100
AcDbLine
 10
170.0105287573
 20
129.4208942784
 30
0.0
 11
170.0105287573
 21
108.4208942784
 31
0.0
  0
LINE
  5
161
330
1F
100
AcDbEntity
  8
0
  6
HIDDEN
 62
     7
370
     0
100
AcDbLine
 10
199.0478790265
 20
132.4367414586
 30
0.0
 11
199.0478790265
 21
136.3234982502
 31
0.0
  0
LINE
  5
162
330
1F
100
AcDbEntity
  8
0
  6
HIDDEN
 62
     7
370
     0
100
AcDbLine
 10
196.9678790265
 20
132.4367414586
 30
0.0
 11
196.9678790265
 21
136.3234982502
 31
0.0
  0
LINE
  5
163
330
1F
100
AcDbEntity
  8
0
  6
HIDDEN
 62
     7
370
     0
100
AcDbLine
 10
194.4515495012
 20
130.7708942784
 30
0.0
 11
202.2870027382
 21
130.7708942784
 31
0.0
  0
LINE
  5
164
330
1F
100
AcDbEntity
  8
0
  6
HIDDEN
 62
     7
370
     0
100
AcDbLine
 10
162.1078790265
 20
109.0558881352
 30
0.0
 11
162.1078790265
 21
128.7859004215
 31
0.0
  0
LINE
  5
165
330
1F
100
AcDbEntity
  8
0
  6
HIDDEN
 62
     7
370
     0
100
AcDbLine
 10
188.1772542767
 20
129.4208942784
 30
0.0
 11
188.1772542767
 21
108.4208942784
 31
0.0
  0
LINE
  5
166
330
1F
100
AcDbEntity
  8
0
  6
HIDDEN
 62
     7
370
     0
100
AcDbLine
 10
189.9578790265
 20
128.7958942784
 30
0.0
 11
189.9578790265
 21
109.0458942784
 31
0.0
  0
LINE
  5
167
330
1F
100
AcDbEntity
  8
0
  6
HIDDEN
 62
     7
370
     0
100
AcDbLine
 10
163.1168790265
 20
109.1987111902
 30
0.0
 11
167.3078790265
 21
109.1987111902
 31
0.0
  0
ARC
  5
168
330
1F
100
AcDbEntity
  8
0
  6
HIDDEN
 62
     7
370
     0
100
AcDbCircle
 10
167.0828790265
 20
118.9208942784
 30
0.0
 40
10.49999999999999
100
AcDbArc
 50
247.4596895365
 51
247.8078280674
  0
LINE
  5
169
330
1F
100
AcDbEntity
  8
0
  6
HIDDEN
 62
     7
370
     0
100
AcDbLine
 10
163.0578790265
 20
128.6187999801
 30
0.0
 11
163.0578790265
 21
109.2229885766
 31
0.0
  0
LINE
  5
16A
330
1F
100
AcDbEntity
  8
0
  6
HIDDEN
 62
     7
370
     0
100
AcDbLine
 10
164.8078790265
 20
128.6187999801
 30
0.0
 11
163.0578790265
 21
128.6187999801
 31
0.0
  0
SPLINE
  5
16B
330
1F
100
AcDbEntity
  8
0
  6
HIDDEN
 62
     7
370
     0
100
AcDbSpline
210
0.0
220
0.0
230
1.0
 70
     8
 71
     3
 72
    14
 73
    10
 74
     0
 42
0.00000001
 43
0.00000001
 12
1.0
 22
0.0
 32
0.0
 13
1.0
 23
0.0
 33
0.0
 40
0.0
 40
0.0
 40
0.0
 40
0.0
 40
0.25
 40
0.25
 40
0.5
 40
0.5
 40
0.75
 40
0.75
 40
1.0
 40
1.0
 40
1.0
 40
1.0
 10
165.7078790265143
 20
128.9450837717793
 30
0.0
 10
165.7078790265143
 20
128.9086119072454
 30
0.0
 10
165.6855083947103
 20
128.8708761547329
 30
0.0
 10
165.598292863462
 20
128.7957404330335
 30
0.0
 10
165.5342716573853
 20
128.7593681468114
 30
0.0
 10
165.3707863596441
 20
128.6951446076493
 30
0.0
 10
165.2714714854709
 20
128.6676216450269
 30
0.0
 10
165.0516452147658
 20
128.6294494781397
 30
0.0
 10
164.9306416524566
 20
128.618799980107
 30
0.0
 10
164.8078790265143
 20
128.618799980107
 30
0.0
  0
LINE
  5
16C
330
1F
100
AcDbEntity
  8
0
  6
HIDDEN
 62
     7
370
     0
100
AcDbLine
 10
165.7078790265
 20
128.9450837718
 30
0.0
 11
165.7078790265
 21
129.4208942784
 31
0.0
  0
SPLINE
  5
16D
330
1F
100
AcDbEntity
  8
0
  6
HIDDEN
 62
     7
370
     0
100
AcDbSpline
210
0.0
220
0.0
230
1.0
 70
     8
 71
     3
 72
    14
 73
    10
 74
     0
 42
0.00000001
 43
0.00000001
 12
1.0
 22
0.0
 32
0.0
 13
1.0
 23
0.0
 33
0.0
 40
0.0
 40
0.0
 40
0.0
 40
0.0
 40
0.25
 40
0.25
 40
0.5
 40
0.5
 40
0.75
 40
0.75
 40
1.0
 40
1.0
 40
1.0
 40
1.0
 10
165.7078790265143
 20
128.9450837717793
 30
0.0
 10
165.7078790265143
 20
128.9086119072454
 30
0.0
 10
165.6855083947103
 20
128.8708761547329
 30
0.0
 10
165.598292863462
 20
128.7957404330335
 30
0.0
 10
165.5342716573853
 20
128.7593681468114
 30
0.0
 10
165.3707863596441
 20
128.6951446076493
 30
0.0
 10
165.2714714854709
 20
128.6676216450269
 30
0.0
 10
165.0516452147658
 20
128.6294494781397
 30
0.0
 10
164.9306416524566
 20
128.618799980107
 30
0.0
 10
164.8078790265143
 20
128.618799980107
 30
0.0
  0
SPLINE
  5
16E
330
1F
100
AcDbEntity
  8
0
  6
HIDDEN
 62
     7
370
     0
100
AcDbSpline
210
0.0
220
0.0
230
1.0
 70
     8
 71
     3
 72
    14
 73
    10
 74
     0
 42
0.00000001
 43
0.00000001
 12
1.0
 22
0.0
 32
0.0
 13
1.0
 23
0.0
 33
0.0
 40
0.0
 40
0.0
 40
0.0
 40
0.0
 40
0.2499999999999998
 40
0.2499999999999998
 40
0.4999999999999999
 40
0.4999999999999999
 40
0.75
 40
0.75
 40
1.0
 40
1.0
 40
1.0
 40
1.0
 10
167.3078790265143
 20
109.1987111901836
 30
0.0
 10
167.4303471144333
 20
109.1987111901836
 30
0.0
 10
167.5505581933021
 20
109.1883741704637
 30
0.0
 10
167.7707645125547
 20
109.1509069418858
 30
0.0
 10
167.8704199652527
 20
109.1237757735965
 30
0.0
 10
168.0334073182085
 20
109.0610087273897
 30
0.0
 10
168.098144678955
 20
109.0249450334628
 30
0.0
 10
168.184980029072
 20
108.9517523635947
 30
0.0
 10
168.2078790265143
 20
108.9142095780837
 30
0.0
 10
168.2078790265143
 20
108.8785019339023
 30
0.0
  0
LINE
  5
16F
330
1F
100
AcDbEntity
  8
0
  6
HIDDEN
 62
     7
370
     0
100
AcDbLine
 10
168.2078790265
 20
108.8785019339
 30
0.0
 11
168.2078790265
 21
108.4208942784
 31
0.0
  0
SPLINE
  5
170
330
1F
100
AcDbEntity
  8
0
  6
HIDDEN
 62
     7
370
     0
100
AcDbSpline
210
0.0
220
0.0
230
1.0
 70
     8
 71
     3
 72
    14
 73
    10
 74
     0
 42
0.00000001
 43
0.00000001
 12
1.0
 22
0.0
 32
0.0
 13
1.0
 23
0.0
 33
0.0
 40
0.0
 40
0.0
 40
0.0
 40
0.0
 40
0.2499999999999998
 40
0.2499999999999998
 40
0.4999999999999999
 40
0.4999999999999999
 40
0.75
 40
0.75
 40
1.0
 40
1.0
 40
1.0
 40
1.0
 10
167.3078790265143
 20
109.1987111901836
 30
0.0
 10
167.4303471144333
 20
109.1987111901836
 30
0.0
 10
167.5505581933021
 20
109.1883741704637
 30
0.0
 10
167.7707645125547
 20
109.1509069418858
 30
0.0
 10
167.8704199652527
 20
109.1237757735965
 30
0.0
 10
168.0334073182085
 20
109.0610087273897
 30
0.0
 10
168.098144678955
 20
109.0249450334628
 30
0.0
 10
168.184980029072
 20
108.9517523635947
 30
0.0
 10
168.2078790265143
 20
108.9142095780837
 30
0.0
 10
168.2078790265143
 20
108.8785019339023
 30
0.0
  0
LINE
  5
171
330
1F
100
AcDbEntity
  8
0
  6
HIDDEN
 62
     7
370
     0
100
AcDbLine
 10
163.0578790265
 20
109.2229885766
 30
0.0
 11
163.0578790265
 21
128.6187999801
 31
0.0
  0
ELLIPSE
  5
172
330
1F
100
AcDbEntity
  8
0
  6
HIDDEN
 62
     7
370
     0
100
AcDbEllipse
 10
227.9634538779
 20
118.9208942784
 30
0.0
 11
-5.858367632722149
 21
17.99809249727211
 31
0.0
210
0.0
220
0.0
230
1.0
 40
0.0447296713
 41
6.268626856334468
 42
7.839423183129048
  0
LINE
  5
173
330
1F
100
AcDbEntity
  8
0
  6
HIDDEN
 62
     7
370
     0
100
AcDbLine
 10
217.4098028152
 20
136.9208942784
 30
0.0
 11
217.4098028152
 21
123.2519113936
 31
0.0
  0
SPLINE
  5
174
330
1F
100
AcDbEntity
  8
0
  6
HIDDEN
 62
     7
370
     0
100
AcDbSpline
210
0.0
220
0.0
230
1.0
 70
     8
 71
     3
 72
    28
 73
    24
 74
     0
 42
0.00000001
 43
0.00000001
 12
1.0
 22
0.0
 32
0.0
 13
1.0
 23
0.0
 33
0.0
 40
0.0
 40
0.0
 40
0.0
 40
0.0
 40
0.1250000000000033
 40
0.1250000000000033
 40
0.1875000000000047
 40
0.1875000000000047
 40
0.2500000000000062
 40
0.2500000000000062
 40
0.375000000000008
 40
0.375000000000008
 40
0.4375000000000082
 40
0.4375000000000082
 40
0.5000000000000082
 40
0.5000000000000082
 40
0.6250000000000068
 40
0.6250000000000068
 40
0.7500000000000052
 40
0.7500000000000052
 40
0.8125000000000033
 40
0.8125000000000033
 40
0.8750000000000014
 40
0.8750000000000014
 40
1.0
 40
1.0
 40
1.0
 40
1.0
 10
223.3965314246564
 20
118.9208942783588
 30
0.0
 10
223.4385665304104
 20
119.2975370499646
 30
0.0
 10
223.43195530793
 20
119.6711864075887
 30
0.0
 10
223.3499683866231
 20
120.2272458155657
 30
0.0
 10
223.3100134140054
 20
120.4130113615297
 30
0.0
 10
223.2072716291705
 20
120.7728810671804
 30
0.0
 10
223.1445022904443
 20
120.9479414991435
 30
0.0
 10
222.9222930835043
 20
121.4587564689006
 30
0.0
 10
222.7256423950901
 20
121.7837708536676
 30
0.0
 10
222.3764576571551
 20
122.2161498810637
 30
0.0
 10
222.2507890070721
 20
122.3520186210001
 30
0.0
 10
221.9806437640804
 20
122.6072211273974
 30
0.0
 10
221.8349999781437
 20
122.7272792261312
 30
0.0
 10
221.3802730887446
 20
123.0531466395101
 30
0.0
 10
221.0524788756734
 20
123.2274657481678
 30
0.0
 10
220.3465379692997
 20
123.4902240759071
 30
0.0
 10
219.980710336884
 20
123.5735911875603
 30
0.0
 10
219.4210470248161
 20
123.6275144689403
 30
0.0
 10
219.2307913324956
 20
123.6335138115837
 30
0.0
 10
218.8546359632473
 20
123.6210238476468
 30
0.0
 10
218.6684794182653
 20
123.6027798817054
 30
0.0
 10
218.1156306478947
 20
123.512853350416
 30
0.0
 10
217.7497818129455
 20
123.4037939451857
 30
0.0
 10
217.409802815161
 20
123.2519113935565
 30
0.0
  0
SPLINE
  5
175
330
1F
100
AcDbEntity
  8
0
  6
HIDDEN
 62
     7
370
     0
100
AcDbSpline
210
0.0
220
0.0
230
1.0
 70
     8
 71
     3
 72
     8
 73
     4
 74
     0
 42
0.00000001
 43
0.00000001
 12
1.0
 22
0.0
 32
0.0
 13
1.0
 23
0.0
 33
0.0
 40
0.0
 40
0.0
 40
0.0
 40
0.0
 40
1.0
 40
1.0
 40
1.0
 40
1.0
 10
217.2064778648244
 20
122.9806045258535
 30
0.0
 10
217.2742463158749
 20
123.0754269431022
 30
0.0
 10
217.3420274022786
 20
123.1657028185452
 30
0.0
 10
217.409802815161
 20
123.2519113935565
 30
0.0
  0
SPLINE
  5
176
330
1F
100
AcDbEntity
  8
0
  6
HIDDEN
 62
     7
370
     0
100
AcDbSpline
210
0.0
220
0.0
230
1.0
 70
     8
 71
     3
 72
    14
 73
    10
 74
     0
 42
0.00000001
 43
0.00000001
 12
1.0
 22
0.0
 32
0.0
 13
1.0
 23
0.0
 33
0.0
 40
0.0
 40
0.0
 40
0.0
 40
0.0
 40
0.2499999999999999
 40
0.2499999999999999
 40
0.4999999999999998
 40
0.4999999999999998
 40
0.7499999999999997
 40
0.7499999999999997
 40
1.0
 40
1.0
 40
1.0
 40
1.0
 10
216.2405520385354
 20
122.0564475325615
 30
0.0
 10
216.3292403047801
 20
122.1497477655446
 30
0.0
 10
216.4206808349547
 20
122.2403656399925
 30
0.0
 10
216.6078445303585
 20
122.4175620110536
 30
0.0
 10
216.7035800190662
 20
122.5039688836677
 30
0.0
 10
216.8850048650278
 20
122.6653408005182
 30
0.0
 10
216.9718761810163
 20
122.7414118980064
 30
0.0
 10
217.1159513959093
 20
122.8755557538118
 30
0.0
 10
217.1729239038632
 20
122.9336554273085
 30
0.0
 10
217.2064778648244
 20
122.9806045258535
 30
0.0
  0
LINE
  5
177
330
1F
100
AcDbEntity
  8
0
  6
HIDDEN
 62
     7
370
     0
100
AcDbLine
 10
162.5023476251
 20
107.45597812
 30
0.0
 11
162.2347239462
 21
107.7074621162
 31
0.0
  0
LINE
  5
178
330
1F
100
AcDbEntity
  8
0
  6
HIDDEN
 62
     7
370
     0
100
AcDbLine
 10
165.7078790265
 20
129.9208942784
 30
0.0
 11
165.7078790265
 21
132.4784184001
 31
0.0
  0
LINE
  5
179
330
1F
100
AcDbEntity
  8
0
  6
HIDDEN
 62
     7
370
     0
100
AcDbLine
 10
168.2078790265
 20
107.9208942784
 30
0.0
 11
168.2078790265
 21
105.2841475803
 31
0.0
  0
LINE
  5
17A
330
1F
100
AcDbEntity
  8
0
  6
HIDDEN
 62
     7
370
     0
100
AcDbLine
 10
163.0578790265
 20
129.9208942784
 30
0.0
 11
163.0578790265
 21
131.8008942784
 31
0.0
  0
LINE
  5
17B
330
1F
100
AcDbEntity
  8
0
  6
HIDDEN
 62
     7
370
     0
100
AcDbLine
 10
162.1078790265
 20
129.9208942784
 30
0.0
 11
162.1078790265
 21
130.8508942784
 31
0.0
  0
LINE
  5
17C
330
1F
100
AcDbEntity
  8
0
  6
HIDDEN
 62
     7
370
     0
100
AcDbLine
 10
163.1168790265
 20
107.9208942784
 30
0.0
 11
163.1168790265
 21
106.0408942784
 31
0.0
  0
LINE
  5
17D
330
1F
100
AcDbEntity
  8
0
  6
HIDDEN
 62
     7
370
     0
100
AcDbLine
 10
162.1078790265
 20
107.9208942784
 30
0.0
 11
162.1078790265
 21
107.0498942784
 31
0.0
  0
LINE
  5
17E
330
1F
100
AcDbEntity
  8
0
  6
HIDDEN
 62
     7
370
     0
100
AcDbLine
 10
197.8078790265
 20
125.1708942784
 30
0.0
 11
197.8078790265
 21
112.6708942784
 31
0.0
  0
LINE
  5
17F
330
1F
100
AcDbEntity
  8
0
  6
HIDDEN
 62
     7
370
     0
100
AcDbLine
 10
195.3078790265
 20
125.1708942784
 30
0.0
 11
195.3078790265
 21
112.6708942784
 31
0.0
  0
LWPOLYLINE
  5
180
330
1F
100
AcDbEntity
  8
0
  6
HIDDEN
 62
     7
370
     0
100
AcDbPolyline
 90
       37
 70
   128
 43
0.0
 10
221.2238571731
 20
119.5770818274
 10
221.8282963748
 20
119.5357484941
 10
222.4143699972
 20
119.390940955
 10
222.9642704899
 20
119.1470591137
 10
223.4612894047
 20
118.8115131966
 10
223.8903250733
 20
118.3944985967
 10
224.2383414641
 20
117.9086860915
 10
224.4947642751
 20
117.3688368481
 10
224.6518022289
 20
116.7913539126
 10
224.7046838068
 20
116.1937838119
 10
224.6518022289
 20
115.594283411
 10
224.4947642751
 20
115.0110682262
 10
224.2383414641
 20
114.4618589559
 10
223.8903250733
 20
113.9633430458
 10
223.4612894047
 20
113.5306676495
 10
222.9642704899
 20
113.17697939
 10
222.4143699972
 20
112.9130249062
 10
221.8282963748
 20
112.7468243214
 10
221.2238571731
 20
112.6834275563
 10
220.6194179713
 20
112.7247608895
 10
220.0333443489
 20
112.8695684287
 10
219.4834438562
 20
113.11345027
 10
218.9864249414
 20
113.448996187
 10
218.5573892728
 20
113.866010787
 10
218.209372882
 20
114.3518232922
 10
217.952950071
 20
114.8916725356
 10
217.7959121172
 20
115.469155471
 10
217.7430305393
 20
116.0667255718
 10
217.7959121172
 20
116.6662259727
 10
217.952950071
 20
117.2494411574
 10
218.209372882
 20
117.7986504277
 10
218.5573892728
 20
118.2971663379
 10
218.9864249414
 20
118.7298417342
 10
219.4834438562
 20
119.0835299936
 10
220.0333443489
 20
119.3474844775
 10
220.6194179713
 20
119.5136850623
 10
221.2238571731
 20
119.5770818274
  0
LINE
  5
181
330
1F
100
AcDbEntity
  8
0
  6
HIDDEN
 62
     7
370
     0
100
AcDbLine
 10
190.4578790265
 20
124.4208942784
 30
0.0
 11
190.4578790265
 21
113.4208942784
 31
0.0
  0
LINE
  5
182
330
1F
100
AcDbEntity
  8
0
  6
HIDDEN
 62
     7
370
     0
100
AcDbLine
 10
189.9578790265
 20
112.9208942784
 30
0.0
 11
189.9578790265
 21
124.9208942784
 31
0.0
  0
LINE
  5
183
330
1F
100
AcDbEntity
  8
0
  6
HIDDEN
 62
     7
370
     0
100
AcDbLine
 10
194.4578790265
 20
102.0208942784
 30
0.0
 11
189.9578790265
 21
102.0208942784
 31
0.0
  0
LINE
  5
184
330
1F
100
AcDbEntity
  8
0
  6
HIDDEN
 62
     7
370
     0
100
AcDbLine
 10
189.9578790265
 20
98.9459099229
 30
0.0
 11
189.9578790265
 21
102.0208942784
 31
0.0
  0
LINE
  5
185
330
1F
100
AcDbEntity
  8
0
  6
HIDDEN
 62
     7
370
     0
100
AcDbLine
 10
197.0031014271
 20
102.0208942784
 30
0.0
 11
194.4578790265
 21
102.0208942784
 31
0.0
  0
LINE
  5
186
330
1F
100
AcDbEntity
  8
0
  6
HIDDEN
 62
     7
370
     0
100
AcDbLine
 10
196.9678790265
 20
101.8080153563
 30
0.0
 11
196.9678790265
 21
101.4917708904
 31
0.0
  0
LINE
  5
187
330
1F
100
AcDbEntity
  8
0
  6
HIDDEN
 62
     7
370
     0
100
AcDbLine
 10
201.9578790265
 20
102.0208942784
 30
0.0
 11
199.0126566259
 21
102.0208942784
 31
0.0
  0
LINE
  5
188
330
1F
100
AcDbEntity
  8
0
  6
HIDDEN
 62
     7
370
     0
100
AcDbLine
 10
199.0478790265
 20
101.4917708904
 30
0.0
 11
199.0478790265
 21
101.8080153563
 31
0.0
  0
LINE
  5
189
330
1F
100
AcDbEntity
  8
0
  6
HIDDEN
 62
     7
370
     0
100
AcDbLine
 10
201.9578790265
 20
102.0208942784
 30
0.0
 11
201.9578790265
 21
100.3168624573
 31
0.0
  0
LINE
  5
18A
330
1F
100
AcDbEntity
  8
0
  6
HIDDEN
 62
     7
370
     0
100
AcDbLine
 10
195.3078790265
 20
113.4208942784
 30
0.0
 11
195.3078790265
 21
124.4208942784
 31
0.0
  0
ARC
  5
18B
330
1F
100
AcDbEntity
  8
0
  6
HIDDEN
 62
     7
370
     0
100
AcDbCircle
 10
216.1606879829
 20
110.331794628
 30
0.0
 40
2.087831650101285
100
AcDbArc
 50
72.468311164
 51
237.2399509595
  0
LINE
  5
18C
330
1F
100
AcDbEntity
  8
0
  6
HIDDEN
 62
     7
370
     0
100
AcDbLine
 10
231.1990709056
 20
108.004454573
 30
0.0
 11
232.162823337
 21
106.4121890187
 31
0.0
  0
ELLIPSE
  5
18D
330
1F
100
AcDbEntity
  8
0
  6
HIDDEN
 62
     7
370
     0
100
AcDbEllipse
 10
160.0021122868
 20
118.9208942784
 30
0.0
 11
12.26424774976732
 21
-2.842170943040401E-14
 31
0.0
210
0.0
220
0.0
230
1.0
 40
0.8164965809
 41
4.884943637108986
 42
4.964202354313277
  0
LINE
  5
18E
330
1F
100
AcDbEntity
  8
0
  6
HIDDEN
 62
     7
370
     0
100
AcDbLine
 10
162.1078790265
 20
107.9208942784
 30
0.0
 11
162.1078790265
 21
109.0558881352
 31
0.0
  0
ELLIPSE
  5
18F
330
1F
100
AcDbEntity
  8
0
  6
HIDDEN
 62
     7
370
     0
100
AcDbEllipse
 10
160.0021122868
 20
118.9208942784
 30
0.0
 11
12.26424774976729
 21
0.0
 31
0.0
210
0.0
220
0.0
230
1.0
 40
0.8164965809
 41
1.318982952866325
 42
1.398241670070615
  0
LINE
  5
190
330
1F
100
AcDbEntity
  8
0
  6
HIDDEN
 62
     7
370
     0
100
AcDbLine
 10
162.1078790265
 20
129.9208942784
 30
0.0
 11
162.1078790265
 21
128.7859004215
 31
0.0
  0
LINE
  5
191
330
1F
100
AcDbEntity
  8
0
  6
HIDDEN
 62
     7
370
     0
100
AcDbLine
 10
197.2162234123
 20
135.8208942784
 30
0.0
 11
194.4578790265
 21
135.8208942784
 31
0.0
  0
LINE
  5
192
330
1F
100
AcDbEntity
  8
0
  6
HIDDEN
 62
     7
370
     0
100
AcDbLine
 10
196.9678790265
 20
136.3234982502
 30
0.0
 11
196.9678790265
 21
136.6345709739
 31
0.0
  0
LINE
  5
193
330
1F
100
AcDbEntity
  8
0
  6
HIDDEN
 62
     7
370
     0
100
AcDbLine
 10
201.9579411496
 20
135.8208942784
 30
0.0
 11
198.7995346408
 21
135.8208942784
 31
0.0
  0
LINE
  5
194
330
1F
100
AcDbEntity
  8
0
  6
HIDDEN
 62
     7
370
     0
100
AcDbLine
 10
201.9578790265
 20
135.8324288036
 30
0.0
 11
201.9578790265
 21
137.7917713115
 31
0.0
  0
LINE
  5
195
330
1F
100
AcDbEntity
  8
0
  6
HIDDEN
 62
     7
370
     0
100
AcDbLine
 10
199.0478790265
 20
136.6345709739
 30
0.0
 11
199.0478790265
 21
136.3234982502
 31
0.0
  0
LINE
  5
196
330
1F
100
AcDbEntity
  8
0
  6
HIDDEN
 62
     7
370
     0
100
AcDbLine
 10
194.4578790265
 20
135.8208942784
 30
0.0
 11
189.9578790265
 21
135.8208942784
 31
0.0
  0
LINE
  5
197
330
1F
100
AcDbEntity
  8
0
  6
HIDDEN
 62
     7
370
     0
100
AcDbLine
 10
163.0578790265
 20
129.9208942784
 30
0.0
 11
163.0578790265
 21
128.6187999801
 31
0.0
  0
LINE
  5
198
330
1F
100
AcDbEntity
  8
0
  6
HIDDEN
 62
     7
370
     0
100
AcDbLine
 10
165.7078790265
 20
129.9208942784
 30
0.0
 11
165.7078790265
 21
128.9450837718
 31
0.0
  0
LINE
  5
199
330
1F
100
AcDbEntity
  8
0
  6
HIDDEN
 62
     7
370
     0
100
AcDbLine
 10
163.1168790265
 20
107.9208942784
 30
0.0
 11
163.1168790265
 21
109.1987111902
 31
0.0
  0
LINE
  5
19A
330
1F
100
AcDbEntity
  8
0
  6
HIDDEN
 62
     7
370
     0
100
AcDbLine
 10
168.2078790265
 20
107.9208942784
 30
0.0
 11
168.2078790265
 21
108.8785019339
 31
0.0
  0
SPLINE
  5
19B
330
1F
100
AcDbEntity
  8
0
  6
HIDDEN
 62
     7
370
     0
100
AcDbSpline
210
0.0
220
0.0
230
1.0
 70
     8
 71
     3
 72
    14
 73
    10
 74
     0
 42
0.00000001
 43
0.00000001
 12
1.0
 22
0.0
 32
0.0
 13
1.0
 23
0.0
 33
0.0
 40
0.0
 40
0.0
 40
0.0
 40
0.0
 40
0.25
 40
0.25
 40
0.5
 40
0.5
 40
0.75
 40
0.75
 40
1.0
 40
1.0
 40
1.0
 40
1.0
 10
217.2064778648244
 20
115.6295393550436
 30
0.0
 10
217.1736918389415
 20
115.6353317587124
 30
0.0
 10
217.1165204125784
 20
115.6578054893482
 30
0.0
 10
216.9679921050788
 20
115.7388588333461
 30
0.0
 10
216.8769790364487
 20
115.7976652159822
 30
0.0
 10
216.6888271734261
 20
115.9397398017456
 30
0.0
 10
216.5944767073125
 20
116.0203488505662
 30
0.0
 10
216.410784062122
 20
116.1949454880914
 30
0.0
 10
216.3234308968643
 20
116.2869452773214
 30
0.0
 10
216.2405520385346
 20
116.3822668679657
 30
0.0
  0
SPLINE
  5
19C
330
1F
100
AcDbEntity
  8
0
  6
HIDDEN
 62
     7
370
     0
100
AcDbSpline
210
0.0
220
0.0
230
1.0
 70
     8
 71
     3
 72
    42
 73
    38
 74
     0
 42
0.00000001
 43
0.00000001
 12
1.0
 22
0.0
 32
0.0
 13
1.0
 23
0.0
 33
0.0
 40
0.0
 40
0.0
 40
0.0
 40
0.0
 40
0.1249999999999966
 40
0.1249999999999966
 40
0.1874999999999948
 40
0.1874999999999948
 40
0.2499999999999932
 40
0.2499999999999932
 40
0.3124999999999916
 40
0.3124999999999916
 40
0.37499999999999
 40
0.37499999999999
 40
0.4062499999999896
 40
0.4062499999999896
 40
0.4374999999999893
 40
0.4374999999999893
 40
0.4687499999999889
 40
0.4687499999999889
 40
0.4999999999999886
 40
0.4999999999999886
 40
0.5156249999999883
 40
0.5156249999999883
 40
0.5312499999999881
 40
0.5312499999999881
 40
0.5624999999999889
 40
0.5624999999999889
 40
0.6249999999999906
 40
0.6249999999999906
 40
0.6874999999999921
 40
0.6874999999999921
 40
0.7499999999999938
 40
0.7499999999999938
 40
0.8124999999999953
 40
0.8124999999999953
 40
0.874999999999997
 40
0.874999999999997
 40
1.0
 40
1.0
 40
1.0
 40
1.0
 10
219.4785069586526
 20
113.2794613879823
 30
0.0
 10
219.5368557194127
 20
113.1830603633281
 30
0.0
 10
219.6603837593437
 20
113.0715028294519
 30
0.0
 10
219.9065718157355
 20
112.899262198455
 30
0.0
 10
219.999676901935
 20
112.8409321955991
 30
0.0
 10
220.204442725115
 20
112.7271877749133
 30
0.0
 10
220.3163324302717
 20
112.6715500752951
 30
0.0
 10
220.5611464001895
 20
112.5663695847422
 30
0.0
 10
220.6939525015426
 20
112.5167428676799
 30
0.0
 10
220.9873512219705
 20
112.4292718460958
 30
0.0
 10
221.1491065928809
 20
112.3908990912223
 30
0.0
 10
221.4199797068949
 20
112.3528502033309
 30
0.0
 10
221.5149206003508
 20
112.3434512969923
 30
0.0
 10
221.718179594009
 20
112.3347288966056
 30
0.0
 10
221.8266690621664
 20
112.3354356869178
 30
0.0
 10
222.0569990593804
 20
112.3531554044889
 30
0.0
 10
222.1814058018925
 20
112.3705221631462
 30
0.0
 10
222.4390647134598
 20
112.4301520026519
 30
0.0
 10
222.5748607609402
 20
112.4737067255236
 30
0.0
 10
222.767230350805
 20
112.5568789803367
 30
0.0
 10
222.8309602856727
 20
112.5881385790581
 30
0.0
 10
222.9505836314256
 20
112.6538423479364
 30
0.0
 10
223.0069882483913
 20
112.6884108492005
 30
0.0
 10
223.1675682950095
 20
112.7964263331546
 30
0.0
 10
223.2601984133619
 20
112.8722877639347
 30
0.0
 10
223.4988773556894
 20
113.0948952796269
 30
0.0
 10
223.6122666797686
 20
113.2393141235629
 30
0.0
 10
223.8000140193867
 20
113.5223873573761
 30
0.0
 10
223.8701281763625
 20
113.6570448869931
 30
0.0
 10
223.983880731751
 20
113.9155222207794
 30
0.0
 10
224.0270807201005
 20
114.0393922925928
 30
0.0
 10
224.0944625167097
 20
114.2767961920207
 30
0.0
 10
224.1184601294352
 20
114.3903207425677
 30
0.0
 10
224.1506511598678
 20
114.6025941188575
 30
0.0
 10
224.158963179583
 20
114.7018437481781
 30
0.0
 10
224.1633080791935
 20
114.9755314689198
 30
0.0
 10
224.1406146236588
 20
115.1279777543376
 30
0.0
 10
224.0824998030075
 20
115.2239922743617
 30
0.0
  0
ELLIPSE
  5
19D
330
1F
100
AcDbEntity
  8
0
  6
HIDDEN
 62
     7
370
     0
100
AcDbEllipse
 10
223.8693696553
 20
109.6823925515
 30
0.0
 11
3.44041209672173
 21
-1.586775504002233
 31
0.0
210
0.0
220
0.0
230
1.0
 40
0.1360681752
 41
3.340251500733471
 42
6.481844154323189
  0
SPLINE
  5
19E
330
1F
100
AcDbEntity
  8
0
  6
HIDDEN
 62
     7
370
     0
100
AcDbSpline
210
0.0
220
0.0
230
1.0
 70
     8
 71
     3
 72
    10
 73
     6
 74
     0
 42
0.00000001
 43
0.00000001
 12
1.0
 22
0.0
 32
0.0
 13
1.0
 23
0.0
 33
0.0
 40
0.0
 40
0.0
 40
0.0
 40
0.0
 40
0.5
 40
0.5
 40
1.0
 40
1.0
 40
1.0
 40
1.0
 10
219.4167053511571
 20
100.8728174690869
 30
0.0
 10
218.954740119723
 20
103.3077862413812
 30
0.0
 10
218.5364539989398
 20
105.7491992716489
 30
0.0
 10
217.863759754005
 20
110.6562032989676
 30
0.0
 10
217.6114012960059
 20
113.122096696348
 30
0.0
 10
217.4908391979219
 20
115.6074348518881
 30
0.0
  0
SPLINE
  5
19F
330
1F
100
AcDbEntity
  8
0
  6
HIDDEN
 62
     7
370
     0
100
AcDbSpline
210
0.0
220
0.0
230
1.0
 70
     8
 71
     3
 72
     8
 73
     4
 74
     0
 42
0.00000001
 43
0.00000001
 12
1.0
 22
0.0
 32
0.0
 13
1.0
 23
0.0
 33
0.0
 40
0.0
 40
0.0
 40
0.0
 40
0.0
 40
1.0
 40
1.0
 40
1.0
 40
1.0
 10
217.4908391979219
 20
115.6074348518881
 30
0.0
 10
217.3963794463927
 20
115.6059122545811
 30
0.0
 10
217.3016361275861
 20
115.612727464749
 30
0.0
 10
217.2064778648244
 20
115.6295393550436
 30
0.0
  0
SPLINE
  5
1A0
330
1F
100
AcDbEntity
  8
0
  6
HIDDEN
 62
     7
370
     0
100
AcDbSpline
210
0.0
220
0.0
230
1.0
 70
     8
 71
     3
 72
    11
 73
     7
 74
     0
 42
0.00000001
 43
0.00000001
 12
1.0
 22
0.0
 32
0.0
 13
1.0
 23
0.0
 33
0.0
 40
0.0
 40
0.0
 40
0.0
 40
0.0
 40
0.2726966872001138
 40
0.5619902882655873
 40
0.8538216820871253
 40
1.0
 40
1.0
 40
1.0
 40
1.0
 10
218.1224549969548
 20
98.28975006825208
 30
0.0
 10
218.0843604362161
 20
98.5285841059547
 30
0.0
 10
218.0058527968653
 20
99.02078814068005
 30
0.0
 10
218.3572099428333
 20
99.61881731347944
 30
0.0
 10
218.8813893368375
 20
100.0531889106687
 30
0.0
 10
219.2936060546758
 20
100.2820637835591
 30
0.0
 10
219.4311763980149
 20
100.3584468934202
 30
0.0
  0
SPLINE
  5
1A1
330
1F
100
AcDbEntity
  8
0
  6
HIDDEN
 62
     7
370
     0
100
AcDbSpline
210
0.0
220
0.0
230
1.0
 70
     8
 71
     3
 72
     8
 73
     4
 74
     0
 42
0.00000001
 43
0.00000001
 12
1.0
 22
0.0
 32
0.0
 13
1.0
 23
0.0
 33
0.0
 40
0.0
 40
0.0
 40
0.0
 40
0.0
 40
1.0
 40
1.0
 40
1.0
 40
1.0
 10
219.4311763980149
 20
100.3584468934202
 30
0.0
 10
219.4263730055303
 20
100.5278091975693
 30
0.0
 10
219.4215493715334
 20
100.6992653250144
 30
0.0
 10
219.4167053511571
 20
100.8728174690869
 30
0.0
  0
SPLINE
  5
1A2
330
1F
100
AcDbEntity
  8
0
  6
HIDDEN
 62
     7
370
     0
100
AcDbSpline
210
0.0
220
0.0
230
1.0
 70
     8
 71
     3
 72
    35
 73
    31
 74
     0
 42
0.00000001
 43
0.00000001
 12
1.0
 22
0.0
 32
0.0
 13
1.0
 23
0.0
 33
0.0
 40
-0.0968759714474241
 40
-0.0666637413356056
 40
-0.0343786692009398
 40
0.0
 40
0.0402501655263726
 40
0.0744868223008524
 40
0.1027071321038401
 40
0.1249179508766711
 40
0.1620537620836052
 40
0.2036866237660473
 40
0.2499064447776349
 40
0.2843401084276527
 40
0.3106265058333986
 40
0.3287516660583437
 40
0.3698185614134538
 40
0.4071583507675399
 40
0.4519490945114165
 40
0.500041466448205
 40
0.5203026887115041
 40
0.5628788326114631
 40
0.5977565701836253
 40
0.6256573753263367
 40
0.6860513535191936
 40
0.7499481360755537
 40
0.7710338114755536
 40
0.8124324596667264
 40
0.847205437428349
 40
0.8749589221790596
 40
0.9031240285525759
 40
0.9333362586643944
 40
0.9656213307990602
 40
1.0
 40
1.040250165526373
 40
1.074486822300852
 40
1.10270713210384
 10
173.8516528074654
 20
104.6800483664139
 30
0.0
 10
174.0903155974765
 20
104.7166158259049
 30
0.0
 10
174.4367499159119
 20
104.757026628459
 30
0.0
 10
174.8415100024971
 20
104.7864004094057
 30
0.0
 10
175.2151084220036
 20
104.803607589941
 30
0.0
 10
175.6237392069201
 20
104.8088003879928
 30
0.0
 10
176.1138059493676
 20
104.7838720724381
 30
0.0
 10
176.7121962561056
 20
104.7230551700832
 30
0.0
 10
177.2473224589376
 20
104.6355423948707
 30
0.0
 10
177.6415787653011
 20
104.5517855706763
 30
0.0
 10
177.881507790929
 20
104.4939030026949
 30
0.0
 10
178.0952895394934
 20
104.4358901426641
 30
0.0
 10
178.2630573557975
 20
104.3893559474044
 30
0.0
 10
178.3335209768157
 20
104.3672950106933
 30
0.0
 10
178.2439957844755
 20
104.3960717466128
 30
0.0
 10
178.0111592901832
 20
104.4576339359258
 30
0.0
 10
177.6917251377035
 20
104.5415746056575
 30
0.0
 10
177.3396335931072
 20
104.6165672552418
 30
0.0
 10
176.8919330348994
 20
104.6943419490618
 30
0.0
 10
176.3250594997266
 20
104.7712263394375
 30
0.0
 10
175.5722092877559
 20
104.8165155501954
 30
0.0
 10
174.9010378404944
 20
104.7990420460452
 30
0.0
 10
174.4162447505695
 20
104.7542729345631
 30
0.0
 10
174.1018880456234
 20
104.7187237005717
 30
0.0
 10
173.8670540925352
 20
104.6830379525287
 30
0.0
 10
173.7421157664662
 20
104.6602559021608
 30
0.0
 10
173.6952914599535
 20
104.6532774512537
 30
0.0
 10
173.7268050921539
 20
104.6602360173034
 30
0.0
 10
173.8516528074654
 20
104.6800483664139
 30
0.0
 10
174.0903155974765
 20
104.7166158259049
 30
0.0
 10
174.4367499159119
 20
104.757026628459
 30
0.0
  0
SPLINE
  5
1A3
330
1F
100
AcDbEntity
  8
0
  6
HIDDEN
 62
     7
370
     0
100
AcDbSpline
210
0.0
220
0.0
230
1.0
 70
     8
 71
     3
 72
    35
 73
    31
 74
     0
 42
0.00000001
 43
0.00000001
 12
1.0
 22
0.0
 32
0.0
 13
1.0
 23
0.0
 33
0.0
 40
-0.1243198177515349
 40
-0.1014877469671309
 40
-0.0608367563980154
 40
0.0
 40
0.0343712166263974
 40
0.0666387492005671
 40
0.0968233043261481
 40
0.1249505753809243
 40
0.1526662634914465
 40
0.1874715367338338
 40
0.2288808094622376
 40
0.2500284990771094
 40
0.3139875781773871
 40
0.3744836764365422
 40
0.4023317405704667
 40
0.4371113310319799
 40
0.4795885132761255
 40
0.4997903583980334
 40
0.547990721849227
 40
0.5929884342251965
 40
0.6398023656133756
 40
0.6945155365638733
 40
0.7285101556289393
 40
0.7625224506971624
 40
0.7965528224365898
 40
0.8145532956158392
 40
0.8337228321528826
 40
0.8540904280756259
 40
0.8756801822484651
 40
0.8985122530328691
 40
0.9391632436019846
 40
1.0
 40
1.034371216626397
 40
1.066638749200567
 40
1.096823304326148
 10
174.607193712425
 20
133.0670734613901
 30
0.0
 10
174.1357676559453
 20
133.117964137029
 30
0.0
 10
173.8518739524148
 20
133.1616817250184
 30
0.0
 10
173.7269227164738
 20
133.1814873452691
 30
0.0
 10
173.69531075701
 20
133.1884725188123
 30
0.0
 10
173.7417975944971
 20
133.1815294938523
 30
0.0
 10
173.8662582173043
 20
133.158746437633
 30
0.0
 10
174.1006079363476
 20
133.1230748740958
 30
0.0
 10
174.4149011519806
 20
133.0875248534076
 30
0.0
 10
174.8998268338489
 20
133.0427538718043
 30
0.0
 10
175.5717813178452
 20
133.0252684376151
 30
0.0
 10
176.3250586606394
 20
133.0705061530084
 30
0.0
 10
176.891542707642
 20
133.1472378142286
 30
0.0
 10
177.3381361946734
 20
133.2248497351511
 30
0.0
 10
177.6895240174335
 20
133.2996739015324
 30
0.0
 10
178.0094159448651
 20
133.3836312837318
 30
0.0
 10
178.2434854073006
 20
133.4452191834146
 30
0.0
 10
178.340249888797
 20
133.4766211598486
 30
0.0
 10
178.2347838659065
 20
133.4425997972074
 30
0.0
 10
177.9353503289775
 20
133.3598446132713
 30
0.0
 10
177.5359045064712
 20
133.2700541487438
 30
0.0
 10
177.1351391425831
 20
133.1969009308385
 30
0.0
 10
176.7551904731516
 20
133.1296653517248
 30
0.0
 10
176.4242047902948
 20
133.0819265133657
 30
0.0
 10
176.1491208314499
 20
133.057153355126
 30
0.0
 10
175.8538861720349
 20
133.0408434210748
 30
0.0
 10
175.543151551145
 20
133.0340816824896
 30
0.0
 10
175.1465690274287
 20
133.0361060420686
 30
0.0
 10
174.607193712425
 20
133.0670734613901
 30
0.0
 10
174.1357676559453
 20
133.117964137029
 30
0.0
 10
173.8518739524148
 20
133.1616817250184
 30
0.0
  0
LINE
  5
1A4
330
1F
100
AcDbEntity
  8
0
  6
HIDDEN
 62
     7
370
     0
100
AcDbLine
 10
222.3603056601
 20
96.6276321185
 30
0.0
 11
221.3965532288
 21
98.2198976728
 31
0.0
  0
LINE
  5
1A5
330
1F
100
AcDbEntity
  8
0
  6
HIDDEN
 62
     7
370
     0
100
AcDbLine
 10
207.0078790265
 20
118.9575560093
 30
0.0
 11
207.0078790265
 21
121.4208942784
 31
0.0
  0
SPLINE
  5
1A6
330
1F
100
AcDbEntity
  8
0
  6
HIDDEN
 62
     7
370
     0
100
AcDbSpline
210
0.0
220
0.0
230
1.0
 70
     8
 71
     3
 72
    64
 73
    60
 74
     0
 42
0.00000001
 43
0.00000001
 12
1.0
 22
0.0
 32
0.0
 13
1.0
 23
0.0
 33
0.0
 40
0.0
 40
0.0
 40
0.0
 40
0.0
 40
0.0625000000000004
 40
0.0625000000000004
 40
0.0937500000000004
 40
0.0937500000000004
 40
0.1250000000000004
 40
0.1250000000000004
 40
0.1562500000000004
 40
0.1562500000000004
 40
0.1875000000000004
 40
0.1875000000000004
 40
0.2187500000000004
 40
0.2187500000000004
 40
0.2500000000000003
 40
0.2500000000000003
 40
0.2812500000000003
 40
0.2812500000000003
 40
0.3125000000000003
 40
0.3125000000000003
 40
0.3437500000000003
 40
0.3437500000000003
 40
0.3750000000000002
 40
0.3750000000000002
 40
0.4062500000000002
 40
0.4062500000000002
 40
0.4375000000000003
 40
0.4375000000000003
 40
0.4687500000000003
 40
0.4687500000000003
 40
0.5000000000000002
 40
0.5000000000000002
 40
0.5312500000000003
 40
0.5312500000000003
 40
0.5625000000000003
 40
0.5625000000000003
 40
0.5937500000000002
 40
0.5937500000000002
 40
0.6250000000000002
 40
0.6250000000000002
 40
0.6562500000000002
 40
0.6562500000000002
 40
0.6875000000000002
 40
0.6875000000000002
 40
0.7187500000000002
 40
0.7187500000000002
 40
0.7500000000000001
 40
0.7500000000000001
 40
0.7812500000000001
 40
0.7812500000000001
 40
0.8125000000000001
 40
0.8125000000000001
 40
0.8437500000000001
 40
0.8437500000000001
 40
0.8750000000000001
 40
0.8750000000000001
 40
0.9375
 40
0.9375
 40
1.0
 40
1.0
 40
1.0
 40
1.0
 10
207.0078790265144
 20
120.1268173639111
 30
0.0
 10
206.9283164214831
 20
120.3520176218891
 30
0.0
 10
206.8090548171791
 20
120.5393826776714
 30
0.0
 10
206.5856580670856
 20
120.7739172907884
 30
0.0
 10
206.5049665532671
 20
120.8428476907832
 30
0.0
 10
206.331243332717
 20
120.9653251177582
 30
0.0
 10
206.2374544883363
 20
121.0191526580095
 30
0.0
 10
206.0401986713616
 20
121.110925181902
 30
0.0
 10
205.9367648628395
 20
121.1490816652273
 30
0.0
 10
205.7170231635401
 20
121.2119106685447
 30
0.0
 10
205.5993774778327
 20
121.2368118787723
 30
0.0
 10
205.3501068528147
 20
121.2723373784498
 30
0.0
 10
205.2191224827342
 20
121.2828857032057
 30
0.0
 10
204.9510439920325
 20
121.2887697820973
 30
0.0
 10
204.8181785163442
 20
121.2841248872505
 30
0.0
 10
204.5583950246094
 20
121.2597241564304
 30
0.0
 10
204.4368848361433
 20
121.2405361344234
 30
0.0
 10
204.2045581067499
 20
121.1878746738541
 30
0.0
 10
204.0944578303081
 20
121.154331993985
 30
0.0
 10
203.8887244492227
 20
121.0737797633068
 30
0.0
 10
203.792018885475
 20
121.0265326345493
 30
0.0
 10
203.6087555857403
 20
120.9158195816933
 30
0.0
 10
203.5220571783526
 20
120.8519733144133
 30
0.0
 10
203.364098611452
 20
120.7096008867083
 30
0.0
 10
203.29205151199
 20
120.6307095153675
 30
0.0
 10
203.1625394563566
 20
120.4546545087778
 30
0.0
 10
203.1045525399938
 20
120.356119674238
 30
0.0
 10
203.009968772256
 20
120.1447701401882
 30
0.0
 10
202.9728963974523
 20
120.0318795632538
 30
0.0
 10
202.9216815862619
 20
119.7893506325621
 30
0.0
 10
202.9084586713654
 20
119.663058128452
 30
0.0
 10
202.9073368362695
 20
119.4055428711685
 30
0.0
 10
202.9197732752794
 20
119.2717151348893
 30
0.0
 10
202.9686322372681
 20
119.010269307866
 30
0.0
 10
203.0048611877242
 20
118.8813563092014
 30
0.0
 10
203.098722437743
 20
118.6295253456337
 30
0.0
 10
203.1550670976884
 20
118.5097748204701
 30
0.0
 10
203.2844812865087
 20
118.2809371443202
 30
0.0
 10
203.3578817725616
 20
118.171768375602
 30
0.0
 10
203.515623501289
 20
117.9703050224591
 30
0.0
 10
203.6005134876144
 20
117.8769145247326
 30
0.0
 10
203.7829198676804
 20
117.7038307610651
 30
0.0
 10
203.8811334049258
 20
117.6237310989881
 30
0.0
 10
204.0873088252886
 20
117.4820022348846
 30
0.0
 10
204.1955814645392
 20
117.4197985171685
 30
0.0
 10
204.4271357481347
 20
117.3152192587239
 30
0.0
 10
204.5510214289953
 20
117.2730213650713
 30
0.0
 10
204.8081034497811
 20
117.2189063897365
 30
0.0
 10
204.9442585698463
 20
117.2070859259773
 30
0.0
 10
205.2097428410994
 20
117.2188379493771
 30
0.0
 10
205.3429215013451
 20
117.2424089208819
 30
0.0
 10
205.5912568777345
 20
117.3156709693997
 30
0.0
 10
205.7095884240431
 20
117.3655483908011
 30
0.0
 10
205.9327563125973
 20
117.4842710357981
 30
0.0
 10
206.0368125531022
 20
117.5524769266063
 30
0.0
 10
206.3326905588694
 20
117.7809537927995
 30
0.0
 10
206.5098335559491
 20
117.9671385462156
 30
0.0
 10
206.8054253172159
 20
118.3865301861339
 30
0.0
 10
206.9281255286748
 20
118.6265561211105
 30
0.0
 10
207.0078790265135
 20
118.8842325474265
 30
0.0
  0
LINE
  5
1A7
330
1F
100
AcDbEntity
  8
0
  6
HIDDEN
 62
     7
370
     0
100
AcDbLine
 10
207.0078790265
 20
118.8842325474
 30
0.0
 11
207.0078790265
 21
116.4208942784
 31
0.0
  0
LINE
  5
1A8
330
1F
100
AcDbEntity
  8
0
  6
HIDDEN
 62
     7
370
     0
100
AcDbLine
 10
197.8078790265
 20
116.4208942784
 30
0.0
 11
197.8078790265
 21
121.4080675868
 31
0.0
  0
SPLINE
  5
1A9
330
1F
100
AcDbEntity
  8
0
  6
HIDDEN
 62
     7
370
     0
100
AcDbSpline
210
0.0
220
0.0
230
1.0
 70
     8
 71
     3
 72
    12
 73
     8
 74
     0
 42
0.00000001
 43
0.00000001
 12
1.0
 22
0.0
 32
0.0
 13
1.0
 23
0.0
 33
0.0
 40
0.0
 40
0.0
 40
0.0
 40
0.0
 40
0.5000000000000001
 40
0.5000000000000001
 40
0.75
 40
0.75
 40
1.0
 40
1.0
 40
1.0
 40
1.0
 10
207.0078790265143
 20
118.8842325474291
 30
0.0
 10
207.0675978838052
 20
119.0361154894771
 30
0.0
 10
207.1077852180725
 20
119.2351250662775
 30
0.0
 10
207.1079256700522
 20
119.5700414077165
 30
0.0
 10
207.0983995227825
 20
119.6842909043511
 30
0.0
 10
207.0630790586103
 20
119.911334025612
 30
0.0
 10
207.0377628789473
 20
120.0216832871052
 30
0.0
 10
207.0078790265143
 20
120.1268173639084
 30
0.0
  0
ELLIPSE
  5
1AA
330
1F
100
AcDbEntity
  8
0
  6
HIDDEN
 62
     7
370
     0
100
AcDbEllipse
 10
219.199126536
 20
119.4754175628
 30
0.0
 11
-2.220506159018016
 21
3.668613800738087
 31
0.0
210
0.0
220
0.0
230
1.0
 40
0.9794128731
 41
2.171682789022532
 42
4.046880030083853
  0
LINE
  5
1AB
330
1F
100
AcDbEntity
  8
0
  6
HIDDEN
 62
     7
370
     0
100
AcDbLine
 10
224.082499803
 20
115.2239922744
 30
0.0
 11
223.6443337614
 21
115.9479091978
 31
0.0
  0
ELLIPSE
  5
1AC
330
1F
100
AcDbEntity
  8
0
  6
HIDDEN
 62
     7
370
     0
100
AcDbEllipse
 10
220.312094216
 20
117.6366257296
 30
0.0
 11
3.738204015186938
 21
1.921056458613734
 31
0.0
210
0.0
220
0.0
230
1.0
 40
0.8435555064
 41
3.985897569496328
 42
5.261021410734732
  0
LINE
  5
1AD
330
1F
100
AcDbEntity
  8
0
  6
HIDDEN
 62
     7
370
     0
100
AcDbLine
 10
219.0403409171
 20
114.0033783114
 30
0.0
 11
219.4785069587
 21
113.279461388
 31
0.0
  0
LWPOLYLINE
  5
1AE
330
1F
100
AcDbEntity
  8
0
  6
HIDDEN
 62
     7
370
     0
100
AcDbPolyline
 90
       41
 70
   128
 43
0.0
 10
221.179892247
 20
120.3390839971
 10
221.8333177499
 20
120.3000863757
 10
222.4706537482
 20
120.1602022171
 10
223.0762069146
 20
119.9228759334
 10
223.6350665204
 20
119.5939512854
 10
224.1334715873
 20
119.1815274897
 10
224.5591497285
 20
118.6957597887
 10
224.9016193354
 20
118.1486093955
 10
225.1524476696
 20
117.5535489686
 10
225.3054585052
 20
116.9252308707
 10
225.3568842076
 20
116.2791263785
 10
225.3054585052
 20
115.631144729
 10
225.1524476696
 20
114.9972413809
 10
224.9016193354
 20
114.3930251384
 10
224.5591497285
 20
113.8333738108
 10
224.1334715873
 20
113.332067871
 10
223.6350665204
 20
112.9014511351
 10
223.0762069146
 20
112.5521268162
 10
222.4706537482
 20
112.2926964383
 10
221.8333177499
 20
112.1295480385
 10
221.179892247
 20
112.0666988718
 10
220.5264667442
 20
112.1056964931
 10
219.8891307459
 20
112.2455806518
 10
219.2835775795
 20
112.4829069354
 10
218.7247179737
 20
112.8118315834
 10
218.2263129068
 20
113.2242553792
 10
217.8006347656
 20
113.7100230801
 10
217.4581651587
 20
114.2571734733
 10
217.2073368245
 20
114.8522339002
 10
217.0543259889
 20
115.4805519982
 10
217.0029002865
 20
116.1266564903
 10
217.0543259889
 20
116.7746381398
 10
217.2073368245
 20
117.408541488
 10
217.4581651587
 20
118.0127577304
 10
217.8006347656
 20
118.5724090581
 10
218.2263129068
 20
119.0737149978
 10
218.7247179737
 20
119.5043317338
 10
219.2835775795
 20
119.8536560527
 10
219.8891307459
 20
120.1130864305
 10
220.5264667442
 20
120.2762348303
 10
221.179892247
 20
120.3390839971
  0
LINE
  5
1AF
330
1F
100
AcDbEntity
  8
0
  6
HIDDEN
 62
     7
370
     0
100
AcDbLine
 10
228.1522032916
 20
105.5944047346
 30
0.0
 11
226.5761866297
 21
109.389829748
 31
0.0
  0
LINE
  5
1B0
330
1F
100
AcDbEntity
  8
0
  6
HIDDEN
 62
     7
370
     0
100
AcDbLine
 10
227.828354448
 20
106.1294522652
 30
0.0
 11
228.1522032916
 21
105.5944047346
 31
0.0
  0
LINE
  5
1B1
330
1F
100
AcDbEntity
  8
0
  6
HIDDEN
 62
     7
370
     0
100
AcDbLine
 10
225.3288007461
 20
111.5971533592
 30
0.0
 11
223.6443337614
 21
115.9479091978
 31
0.0
  0
LINE
  5
1B2
330
1F
100
AcDbEntity
  8
0
  6
HIDDEN
 62
     7
370
     0
100
AcDbLine
 10
226.5761866297
 20
109.389829748
 30
0.0
 11
227.2847270073
 21
108.2192133114
 31
0.0
  0
LWPOLYLINE
  5
1B3
330
1F
100
AcDbEntity
  8
0
  6
HIDDEN
 62
     7
370
     0
100
AcDbPolyline
 90
       29
 70
   128
 43
0.0
 10
205.0078790265
 20
123.4405506714
 10
205.4751729878
 20
123.3894632581
 10
205.9190348787
 20
123.2387627544
 10
206.3172076104
 20
122.996005913
 10
206.6497251397
 20
122.6733655754
 10
206.8999136491
 20
122.2870202755
 10
207.0552276421
 20
121.8563429797
 10
207.1078790265
 20
121.4029296462
 10
207.0552276421
 20
120.9495163126
 10
206.8999136491
 20
120.5188390169
 10
206.6497251397
 20
120.1324937169
 10
206.3172076104
 20
119.8098533794
 10
205.9190348787
 20
119.5670965379
 10
205.4751729878
 20
119.4163960343
 10
205.0078790265
 20
119.365308621
 10
204.5405850652
 20
119.4163960343
 10
204.0967231744
 20
119.5670965379
 10
203.6985504426
 20
119.8098533794
 10
203.3660329133
 20
120.1324937169
 10
203.1158444039
 20
120.5188390169
 10
202.9605304109
 20
120.9495163126
 10
202.9078790265
 20
121.4029296462
 10
202.9605304109
 20
121.8563429797
 10
203.1158444039
 20
122.2870202755
 10
203.3660329133
 20
122.6733655754
 10
203.6985504426
 20
122.996005913
 10
204.0967231744
 20
123.2387627544
 10
204.5405850652
 20
123.3894632581
 10
205.0078790265
 20
123.4405506714
  0
LINE
  5
1B4
330
1F
100
AcDbEntity
  8
0
  6
HIDDEN
 62
     7
370
     0
100
AcDbLine
 10
189.9578790265
 20
102.0208942784
 30
0.0
 11
194.4578790265
 21
102.0208942784
 31
0.0
  0
LINE
  5
1B5
330
1F
100
AcDbEntity
  8
0
  6
HIDDEN
 62
     7
370
     0
100
AcDbLine
 10
168.2078790265
 20
107.9208942784
 30
0.0
 11
168.2078790265
 21
105.2841475803
 31
0.0
  0
LINE
  5
1B6
330
1F
100
AcDbEntity
  8
0
  6
HIDDEN
 62
     7
370
     0
100
AcDbLine
 10
165.7078790265
 20
129.9208942784
 30
0.0
 11
165.7078790265
 21
132.4784184001
 31
0.0
  0
LINE
  5
1B7
330
1F
100
AcDbEntity
  8
0
  6
HIDDEN
 62
     7
370
     0
100
AcDbLine
 10
220.3956475186
 20
111.2419992902
 30
0.0
 11
223.5482104473
 21
103.6498738482
 31
0.0
  0
ARC
  5
1B8
330
1F
100
AcDbEntity
  8
0
  6
HIDDEN
 62
     7
370
     0
100
AcDbCircle
 10
226.6122834548
 20
102.8177991441
 30
0.0
 40
3.175042001081867
100
AcDbArc
 50
164.8072357946
 51
60.9870227258
  0
LINE
  5
1B9
330
1F
100
AcDbEntity
  8
0
  6
HIDDEN
 62
     7
370
     0
100
AcDbLine
 10
234.9943776267
 20
94.2495407612
 30
0.0
 11
235.3573943748
 21
94.7781885964
 31
0.0
  0
ELLIPSE
  5
1BA
330
1F
100
AcDbEntity
  8
0
  6
HIDDEN
 62
     7
370
     0
100
AcDbEllipse
 10
178.1966191211
 20
117.1208942784
 30
0.0
 11
237.8586779710882
 21
4.388194929981964
 31
0.0
210
0.0
220
0.0
230
1.0
 40
0.1034726254
 41
4.950277995051382
 42
4.951596976753849
  0
LINE
  5
1BB
330
1F
100
AcDbEntity
  8
0
  6
HIDDEN
 62
     7
370
     0
100
AcDbLine
 10
221.3965532288
 20
98.2198976728
 30
0.0
 11
234.6896721483
 21
94.2362468066
 31
0.0
  0
LINE
  5
1BC
330
1F
100
AcDbEntity
  8
0
  6
HIDDEN
 62
     7
370
     0
100
AcDbLine
 10
218.4885291655
 20
107.469370425
 30
0.0
 11
221.3965532288
 21
98.2198976728
 31
0.0
  0
LINE
  5
1BD
330
1F
100
AcDbEntity
  8
0
  6
HIDDEN
 62
     7
370
     0
100
AcDbLine
 10
220.3956475186
 20
111.2419992902
 30
0.0
 11
216.7896122547
 21
112.3226475256
 31
0.0
  0
LINE
  5
1BE
330
1F
100
AcDbEntity
  8
0
  6
HIDDEN
 62
     7
370
     0
100
AcDbLine
 10
231.1990709056
 20
108.004454573
 30
0.0
 11
226.5761866297
 21
109.389829748
 31
0.0
  0
LINE
  5
1BF
330
1F
100
AcDbEntity
  8
0
  6
HIDDEN
 62
     7
370
     0
100
AcDbLine
 10
235.357394385
 20
94.7781885997
 30
0.0
 11
231.1990709056
 21
108.004454573
 31
0.0
  0
LINE
  5
1C0
330
1F
100
AcDbEntity
  8
0
  6
HIDDEN
 62
     7
370
     0
100
AcDbLine
 10
199.0478790265
 20
136.3234982502
 30
0.0
 11
199.0478790265
 21
101.8080153563
 31
0.0
  0
SPLINE
  5
1C1
330
1F
100
AcDbEntity
  8
0
  6
HIDDEN
 62
     7
370
     0
100
AcDbSpline
210
0.0
220
0.0
230
1.0
 70
     8
 71
     3
 72
    10
 73
     6
 74
     0
 42
0.00000001
 43
0.00000001
 12
1.0
 22
0.0
 32
0.0
 13
1.0
 23
0.0
 33
0.0
 40
0.0
 40
0.0
 40
0.0
 40
0.0
 40
0.5
 40
0.5
 40
1.0
 40
1.0
 40
1.0
 40
1.0
 10
198.7995346407643
 20
135.8208942783588
 30
0.0
 10
198.8769626453129
 20
135.8788535847459
 30
0.0
 10
198.9401422621995
 20
135.955838239864
 30
0.0
 10
199.0254374414606
 20
136.1294083727364
 30
0.0
 10
199.0478790265143
 20
136.2263096352181
 30
0.0
 10
199.0478790265143
 20
136.3234982501787
 30
0.0
  0
SPLINE
  5
1C2
330
1F
100
AcDbEntity
  8
0
  6
HIDDEN
 62
     7
370
     0
100
AcDbSpline
210
0.0
220
0.0
230
1.0
 70
     8
 71
     3
 72
    10
 73
     6
 74
     0
 42
0.00000001
 43
0.00000001
 12
1.0
 22
0.0
 32
0.0
 13
1.0
 23
0.0
 33
0.0
 40
0.0
 40
0.0
 40
0.0
 40
0.0
 40
0.5
 40
0.5
 40
1.0
 40
1.0
 40
1.0
 40
1.0
 10
199.0126566259329
 20
102.0208942783588
 30
0.0
 10
199.0243687428961
 20
101.9865509411649
 30
0.0
 10
199.0331668127681
 20
101.9514584034266
 30
0.0
 10
199.0449803705403
 20
101.8797866280359
 30
0.0
 10
199.0478790265143
 20
101.8438429736706
 30
0.0
 10
199.0478790265143
 20
101.8080153563305
 30
0.0
  0
SPLINE
  5
1C3
330
1F
100
AcDbEntity
  8
0
  6
HIDDEN
 62
     7
370
     0
100
AcDbSpline
210
0.0
220
0.0
230
1.0
 70
    24
 71
     3
 72
    12
 73
     8
 74
     0
 42
0.00000001
 43
0.00000001
 12
1.0
 22
0.0
 32
0.0
 13
1.0
 23
0.0
 33
0.0
 40
0.0
 40
0.0
 40
0.0
 40
0.0
 40
0.2499999999999991
 40
0.2499999999999991
 40
0.4999999999999982
 40
0.4999999999999982
 40
1.0
 40
1.0
 40
1.0
 40
1.0
 10
198.4478790265143
 20
135.8208942783588
 30
0.0
 10
198.4995959444238
 20
135.8208942783588
 30
0.0
 10
198.5466837325625
 20
135.8208942783588
 30
0.0
 10
198.6197477272376
 20
135.8208942783588
 30
0.0
 10
198.6493766345234
 20
135.8208942783588
 30
0.0
 10
198.7279499790484
 20
135.8208942783588
 30
0.0
 10
198.7659138472808
 20
135.8208942783588
 30
0.0
 10
198.7995346407643
 20
135.8208942783588
 30
0.0
  0
SPLINE
  5
1C4
330
1F
100
AcDbEntity
  8
0
  6
HIDDEN
 62
     7
370
     0
100
AcDbSpline
210
0.0
220
0.0
230
1.0
 70
    24
 71
     3
 72
    16
 73
    12
 74
     0
 42
0.00000001
 43
0.00000001
 12
1.0
 22
0.0
 32
0.0
 13
1.0
 23
0.0
 33
0.0
 40
0.0
 40
0.0
 40
0.0
 40
0.0
 40
0.0625000000000008
 40
0.0625000000000008
 40
0.1250000000000017
 40
0.1250000000000017
 40
0.2500000000000022
 40
0.2500000000000022
 40
0.5000000000000003
 40
0.5000000000000003
 40
1.0
 40
1.0
 40
1.0
 40
1.0
 10
198.4478790265143
 20
102.0208942783588
 30
0.0
 10
198.4822083641571
 20
102.0208942783588
 30
0.0
 10
198.5162236056178
 20
102.0208942783588
 30
0.0
 10
198.572708180174
 20
102.0208942783588
 30
0.0
 10
198.5970105630161
 20
102.0208942783589
 30
0.0
 10
198.6612758398351
 20
102.0208942783588
 30
0.0
 10
198.6946332093412
 20
102.0208942783588
 30
0.0
 10
198.7830569446588
 20
102.0208942783588
 30
0.0
 10
198.8255964882676
 20
102.0208942783588
 30
0.0
 10
198.9355805733377
 20
102.0208942783588
 30
0.0
 10
198.9828072403653
 20
102.0208942783588
 30
0.0
 10
199.0126566259329
 20
102.0208942783588
 30
0.0
  0
LINE
  5
1C5
330
1F
100
AcDbEntity
  8
0
  6
HIDDEN
 62
     7
370
     0
100
AcDbLine
 10
162.1078790265
 20
107.9208942784
 30
0.0
 11
162.1078790265
 21
107.0550712078
 31
0.0
  0
LINE
  5
1C6
330
1F
100
AcDbEntity
  8
0
  6
HIDDEN
 62
     7
370
     0
100
AcDbLine
 10
163.1168790265
 20
107.9208942784
 30
0.0
 11
163.1168790265
 21
106.0426031127
 31
0.0
  0
SPLINE
  5
1C7
330
1F
100
AcDbEntity
  8
0
  6
HIDDEN
 62
     7
370
     0
100
AcDbSpline
210
0.0
220
0.0
230
1.0
 70
     8
 71
     3
 72
    10
 73
     6
 74
     0
 42
0.00000001
 43
0.00000001
 12
1.0
 22
0.0
 32
0.0
 13
1.0
 23
0.0
 33
0.0
 40
0.0
 40
0.0
 40
0.0
 40
0.0
 40
0.5
 40
0.5
 40
1.0
 40
1.0
 40
1.0
 40
1.0
 10
196.9678790265143
 20
136.3234982501787
 30
0.0
 10
196.9678790265143
 20
136.226563184947
 30
0.0
 10
196.9903286623598
 20
136.1295039062078
 30
0.0
 10
197.0753243206279
 20
135.9563198188008
 30
0.0
 10
197.1381804045583
 20
135.8793139499153
 30
0.0
 10
197.2162234122643
 20
135.8208942783588
 30
0.0
  0
LINE
  5
1C8
330
1F
100
AcDbEntity
  8
0
  6
HIDDEN
 62
     7
370
     0
100
AcDbLine
 10
196.9678790265
 20
136.3234982502
 30
0.0
 11
196.9678790265
 21
101.8080153563
 31
0.0
  0
SPLINE
  5
1C9
330
1F
100
AcDbEntity
  8
0
  6
HIDDEN
 62
     7
370
     0
100
AcDbSpline
210
0.0
220
0.0
230
1.0
 70
     8
 71
     3
 72
    10
 73
     6
 74
     0
 42
0.00000001
 43
0.00000001
 12
1.0
 22
0.0
 32
0.0
 13
1.0
 23
0.0
 33
0.0
 40
0.0
 40
0.0
 40
0.0
 40
0.0
 40
0.5
 40
0.5
 40
1.0
 40
1.0
 40
1.0
 40
1.0
 10
196.9678790265143
 20
101.8080153563305
 30
0.0
 10
196.9678790265143
 20
101.8442378457713
 30
0.0
 10
196.9708487558117
 20
101.8804310430299
 30
0.0
 10
196.9827277381597
 20
101.9520695344447
 30
0.0
 10
196.9915229660004
 20
101.9869428590864
 30
0.0
 10
197.0031014270957
 20
102.0208942783589
 30
0.0
  0
SPLINE
  5
1CA
330
1F
100
AcDbEntity
  8
0
  6
HIDDEN
 62
     7
370
     0
100
AcDbSpline
210
0.0
220
0.0
230
1.0
 70
    24
 71
     3
 72
    12
 73
     8
 74
     0
 42
0.00000001
 43
0.00000001
 12
1.0
 22
0.0
 32
0.0
 13
1.0
 23
0.0
 33
0.0
 40
0.0
 40
0.0
 40
0.0
 40
0.0
 40
0.4999999999999982
 40
0.4999999999999982
 40
0.7499999999999991
 40
0.7499999999999991
 40
1.0
 40
1.0
 40
1.0
 40
1.0
 10
197.2162234122643
 20
135.8208942783588
 30
0.0
 10
197.2499196559233
 20
135.8208942783588
 30
0.0
 10
197.2879565306914
 20
135.8208942783588
 30
0.0
 10
197.3665168520957
 20
135.8208942783588
 30
0.0
 10
197.3961453575212
 20
135.8208942783588
 30
0.0
 10
197.469089100267
 20
135.8208942783588
 30
0.0
 10
197.5162415805236
 20
135.8208942783588
 30
0.0
 10
197.5678790265143
 20
135.8208942783588
 30
0.0
  0
SPLINE
  5
1CB
330
1F
100
AcDbEntity
  8
0
  6
HIDDEN
 62
     7
370
     0
100
AcDbSpline
210
0.0
220
0.0
230
1.0
 70
    24
 71
     3
 72
    16
 73
    12
 74
     0
 42
0.00000001
 43
0.00000001
 12
1.0
 22
0.0
 32
0.0
 13
1.0
 23
0.0
 33
0.0
 40
0.0
 40
0.0
 40
0.0
 40
0.0
 40
0.499999999999999
 40
0.499999999999999
 40
0.7499999999999984
 40
0.7499999999999984
 40
0.8749999999999982
 40
0.8749999999999982
 40
0.9374999999999991
 40
0.9374999999999991
 40
1.0
 40
1.0
 40
1.0
 40
1.0
 10
197.0031014270956
 20
102.0208942783588
 30
0.0
 10
197.0329578662163
 20
102.0208942783588
 30
0.0
 10
197.0798797400712
 20
102.0208942783588
 30
0.0
 10
197.1903471464912
 20
102.0208942783588
 30
0.0
 10
197.2335729987022
 20
102.0208942783588
 30
0.0
 10
197.3219908992294
 20
102.0208942783588
 30
0.0
 10
197.3548642398698
 20
102.0208942783589
 30
0.0
 10
197.4191563709447
 20
102.0208942783589
 30
0.0
 10
197.443310524952
 20
102.0208942783588
 30
0.0
 10
197.5000452956097
 20
102.0208942783588
 30
0.0
 10
197.5334163517952
 20
102.0208942783589
 30
0.0
 10
197.5678790265143
 20
102.0208942783588
 30
0.0
  0
LINE
  5
1CC
330
1F
100
AcDbEntity
  8
0
  6
HIDDEN
 62
     7
370
     0
100
AcDbLine
 10
220.4540123032
 20
111.1455717917
 30
0.0
 11
220.3956475186
 21
111.2419992902
 31
0.0
  0
LINE
  5
1CD
330
1F
100
AcDbEntity
  8
0
  6
HIDDEN
 62
     7
370
     0
100
AcDbLine
 10
163.0578790265
 20
129.9208942784
 30
0.0
 11
163.0578790265
 21
131.7936348412
 31
0.0
  0
LINE
  5
1CE
330
1F
100
AcDbEntity
  8
0
  6
HIDDEN
 62
     7
370
     0
100
AcDbLine
 10
162.1078790265
 20
128.7859004215
 30
0.0
 11
162.1078790265
 21
109.0558881352
 31
0.0
  0
LINE
  5
1CF
330
1F
100
AcDbEntity
  8
0
  6
HIDDEN
 62
     7
370
     0
100
AcDbLine
 10
162.1078790265
 20
129.9208942784
 30
0.0
 11
162.1078790265
 21
130.8453666729
 31
0.0
  0
LINE
  5
1D0
330
1F
100
AcDbEntity
  8
0
  6
HIDDEN
 62
     7
370
     0
100
AcDbLine
 10
197.5678790265
 20
135.8208942784
 30
0.0
 11
198.4478790265
 21
135.8208942784
 31
0.0
  0
LINE
  5
1D1
330
1F
100
AcDbEntity
  8
0
  6
HIDDEN
 62
     7
370
     0
100
AcDbLine
 10
197.5678790265
 20
102.0208942784
 30
0.0
 11
198.4478790265
 21
102.0208942784
 31
0.0
  0
LINE
  5
1D2
330
1F
100
AcDbEntity
  8
0
  6
HIDDEN
 62
     7
370
     0
100
AcDbLine
 10
201.9578790265
 20
137.7917713115
 30
0.0
 11
201.9578790265
 21
100.3168624573
 31
0.0
  0
SPLINE
  5
1D3
330
1F
100
AcDbEntity
  8
0
  6
HIDDEN
 62
     7
370
     0
100
AcDbSpline
210
0.0
220
0.0
230
1.0
 70
     8
 71
     3
 72
    10
 73
     6
 74
     0
 42
0.00000001
 43
0.00000001
 12
1.0
 22
0.0
 32
0.0
 13
1.0
 23
0.0
 33
0.0
 40
0.0
 40
0.0
 40
0.0
 40
0.0
 40
0.5
 40
0.5
 40
1.0
 40
1.0
 40
1.0
 40
1.0
 10
201.3578790265143
 20
138.4080695482639
 30
0.0
 10
201.5183012511137
 20
138.4080695482639
 30
0.0
 10
201.674784051781
 20
138.3394841457581
 30
0.0
 10
201.8954376623483
 20
138.1097108764384
 30
0.0
 10
201.9578790265143
 20
137.9512126747708
 30
0.0
 10
201.9578790265143
 20
137.7917713115017
 30
0.0
  0
SPLINE
  5
1D4
330
1F
100
AcDbEntity
  8
0
  6
HIDDEN
 62
     7
370
     0
100
AcDbSpline
210
0.0
220
0.0
230
1.0
 70
     8
 71
     3
 72
    12
 73
     8
 74
     0
 42
0.00000001
 43
0.00000001
 12
1.0
 22
0.0
 32
0.0
 13
1.0
 23
0.0
 33
0.0
 40
0.0
 40
0.0
 40
0.0
 40
0.0
 40
0.2500000000000001
 40
0.2500000000000001
 40
0.5000000000000002
 40
0.5000000000000002
 40
1.0
 40
1.0
 40
1.0
 40
1.0
 10
201.3578790265143
 20
99.69200975532944
 30
0.0
 10
201.4376445069845
 20
99.69200975532944
 30
0.0
 10
201.5180657906416
 20
99.70898535168755
 30
0.0
 10
201.6647477073042
 20
99.77346084914673
 30
0.0
 10
201.7311015168681
 20
99.82057448094133
 30
0.0
 10
201.8973055975947
 20
99.99718439492882
 30
0.0
 10
201.9578790265142
 20
100.157033270737
 30
0.0
 10
201.9578790265143
 20
100.316862457272
 30
0.0
  0
LINE
  5
1D5
330
1F
100
AcDbEntity
  8
0
  6
HIDDEN
 62
     7
370
     0
100
AcDbLine
 10
196.9678790265
 20
136.6345709739
 30
0.0
 11
196.9678790265
 21
101.4917708904
 31
0.0
  0
LINE
  5
1D6
330
1F
100
AcDbEntity
  8
0
  6
HIDDEN
 62
     7
370
     0
100
AcDbLine
 10
199.0478790265
 20
136.6345709739
 30
0.0
 11
199.0478790265
 21
101.4917708904
 31
0.0
  0
LINE
  5
1D7
330
1F
100
AcDbEntity
  8
0
  6
HIDDEN
 62
     7
370
     0
100
AcDbLine
 10
200.0430387254
 20
138.4080695483
 30
0.0
 11
200.0430387254
 21
99.6920097553
 31
0.0
  0
SPLINE
  5
1D8
330
1F
100
AcDbEntity
  8
0
  6
HIDDEN
 62
     7
370
     0
100
AcDbSpline
210
0.0
220
0.0
230
1.0
 70
     8
 71
     3
 72
     8
 73
     4
 74
     0
 42
0.00000001
 43
0.00000001
 12
1.0
 22
0.0
 32
0.0
 13
1.0
 23
0.0
 33
0.0
 40
0.0
 40
0.0
 40
0.0
 40
0.0
 40
1.0
 40
1.0
 40
1.0
 40
1.0
 10
195.9727193276209
 20
138.4080695482639
 30
0.0
 10
196.3050774240105
 20
137.8172593345919
 30
0.0
 10
196.6368586954947
 20
137.2261266703468
 30
0.0
 10
196.9678790265143
 20
136.6345709738891
 30
0.0
  0
SPLINE
  5
1D9
330
1F
100
AcDbEntity
  8
0
  6
HIDDEN
 62
     7
370
     0
100
AcDbSpline
210
0.0
220
0.0
230
1.0
 70
     8
 71
     3
 72
     8
 73
     4
 74
     0
 42
0.00000001
 43
0.00000001
 12
1.0
 22
0.0
 32
0.0
 13
1.0
 23
0.0
 33
0.0
 40
0.0
 40
0.0
 40
0.0
 40
0.0
 40
1.0
 40
1.0
 40
1.0
 40
1.0
 10
199.0478790265143
 20
136.6345709738891
 30
0.0
 10
199.378899357534
 20
137.2261266703468
 30
0.0
 10
199.7106806290181
 20
137.8172593345919
 30
0.0
 10
200.0430387254078
 20
138.4080695482639
 30
0.0
  0
LINE
  5
1DA
330
1F
100
AcDbEntity
  8
0
  6
HIDDEN
 62
     7
370
     0
100
AcDbLine
 10
200.0430387254
 20
138.4080695483
 30
0.0
 11
201.3578790265
 21
138.4080695483
 31
0.0
  0
SPLINE
  5
1DB
330
1F
100
AcDbEntity
  8
0
  6
HIDDEN
 62
     7
370
     0
100
AcDbSpline
210
0.0
220
0.0
230
1.0
 70
     8
 71
     3
 72
     8
 73
     4
 74
     0
 42
0.00000001
 43
0.00000001
 12
1.0
 22
0.0
 32
0.0
 13
1.0
 23
0.0
 33
0.0
 40
0.0
 40
0.0
 40
0.0
 40
0.0
 40
1.0
 40
1.0
 40
1.0
 40
1.0
 10
195.9727193276209
 20
99.69200975532944
 30
0.0
 10
196.3054245993262
 20
100.2913814285531
 30
0.0
 10
196.6372403998997
 20
100.8912505392581
 30
0.0
 10
196.9678790265143
 20
101.4917708903691
 30
0.0
  0
SPLINE
  5
1DC
330
1F
100
AcDbEntity
  8
0
  6
HIDDEN
 62
     7
370
     0
100
AcDbSpline
210
0.0
220
0.0
230
1.0
 70
     8
 71
     3
 72
     8
 73
     4
 74
     0
 42
0.00000001
 43
0.00000001
 12
1.0
 22
0.0
 32
0.0
 13
1.0
 23
0.0
 33
0.0
 40
0.0
 40
0.0
 40
0.0
 40
0.0
 40
1.0
 40
1.0
 40
1.0
 40
1.0
 10
199.0478790265143
 20
101.4917708903691
 30
0.0
 10
199.3785176531289
 20
100.8912505392581
 30
0.0
 10
199.7103334537024
 20
100.2913814285531
 30
0.0
 10
200.0430387254078
 20
99.69200975532944
 30
0.0
  0
LINE
  5
1DD
330
1F
100
AcDbEntity
  8
0
  6
HIDDEN
 62
     7
370
     0
100
AcDbLine
 10
200.0430387254
 20
99.6920097553
 30
0.0
 11
201.3578790265
 21
99.6920097553
 31
0.0
  0
LINE
  5
1DE
330
1F
100
AcDbEntity
  8
0
  6
HIDDEN
 62
     7
370
     0
100
AcDbLine
 10
162.1078790265
 20
107.1024220057
 30
0.0
 11
162.1078790265
 21
107.3733810771
 31
0.0
  0
SPLINE
  5
1DF
330
1F
100
AcDbEntity
  8
0
  6
HIDDEN
 62
     7
370
     0
100
AcDbSpline
210
0.0
220
0.0
230
1.0
 70
     8
 71
     3
 72
    10
 73
     6
 74
     0
 42
0.00000001
 43
0.00000001
 12
1.0
 22
0.0
 32
0.0
 13
1.0
 23
0.0
 33
0.0
 40
0.0
 40
0.0
 40
0.0
 40
0.0
 40
0.5
 40
0.5
 40
1.0
 40
1.0
 40
1.0
 40
1.0
 10
223.1041606543199
 20
105.0014239662524
 30
0.0
 10
223.1002991102339
 20
104.8253614310577
 30
0.0
 10
223.1097011034879
 20
104.6626736711428
 30
0.0
 10
223.1496839320083
 20
104.3802702872976
 30
0.0
 10
223.1796566426471
 20
104.2587807716986
 30
0.0
 10
223.2243616036369
 20
104.1849213787926
 30
0.0
  0
ARC
  5
1E0
330
1F
100
AcDbEntity
  8
0
  6
HIDDEN
 62
     7
370
     0
100
AcDbCircle
 10
226.0328742315
 20
103.7754693708
 30
0.0
 40
3.174953210221024
100
AcDbArc
 50
157.2858961055
 51
68.5083624149
  0
SPLINE
  5
1E1
330
1F
100
AcDbEntity
  8
0
  6
HIDDEN
 62
     7
370
     0
100
AcDbSpline
210
0.0
220
0.0
230
1.0
 70
     8
 71
     3
 72
    10
 73
     6
 74
     0
 42
0.00000001
 43
0.00000001
 12
1.0
 22
0.0
 32
0.0
 13
1.0
 23
0.0
 33
0.0
 40
0.0
 40
0.0
 40
0.0
 40
0.0
 40
0.5
 40
0.5
 40
1.0
 40
1.0
 40
1.0
 40
1.0
 10
227.8283544479921
 20
106.1294522651729
 30
0.0
 10
227.7837019401172
 20
106.2032249975574
 30
0.0
 10
227.6953259595084
 20
106.3001829537786
 30
0.0
 10
227.47735723191
 20
106.5074197004221
 30
0.0
 10
227.3460011173636
 20
106.6185889138441
 30
0.0
 10
227.1960673194806
 20
106.7296714165809
 30
0.0
  0
LINE
  5
1E2
330
1F
100
AcDbEntity
  8
0
  6
HIDDEN
 62
     7
370
     0
100
AcDbLine
 10
223.5482104473
 20
103.6498738482
 30
0.0
 11
223.2243616036
 21
104.1849213788
 31
0.0
  0
LINE
  5
1E3
330
1F
100
AcDbEntity
  8
0
  6
HIDDEN
 62
     7
370
     0
100
AcDbLine
 10
162.1078790265
 20
130.7948084157
 30
0.0
 11
162.1078790265
 21
130.6991257428
 31
0.0
  0
SPLINE
  5
1E4
330
1F
100
AcDbEntity
  8
0
  6
HIDDEN
 62
     7
370
     0
100
AcDbSpline
210
0.0
220
0.0
230
1.0
 70
     8
 71
     3
 72
     8
 73
     4
 74
     0
 42
0.00000001
 43
0.00000001
 12
1.0
 22
0.0
 32
0.0
 13
1.0
 23
0.0
 33
0.0
 40
0.0
 40
0.0
 40
0.0
 40
0.0
 40
1.0
 40
1.0
 40
1.0
 40
1.0
 10
162.5023476250743
 20
107.4559781199931
 30
0.0
 10
162.3941432938282
 20
107.518120106389
 30
0.0
 10
162.301905545769
 20
107.605140386378
 30
0.0
 10
162.2347239461956
 20
107.7074621161867
 30
0.0
  0
SPLINE
  5
1E5
330
1F
100
AcDbEntity
  8
0
  6
HIDDEN
 62
     7
370
     0
100
AcDbSpline
210
0.0
220
0.0
230
1.0
 70
     8
 71
     3
 72
    26
 73
    22
 74
     0
 42
0.00000001
 43
0.00000001
 12
1.0
 22
0.0
 32
0.0
 13
1.0
 23
0.0
 33
0.0
 40
0.0
 40
0.0
 40
0.0
 40
0.0
 40
0.2500000000000042
 40
0.2500000000000042
 40
0.3750000000000053
 40
0.3750000000000053
 40
0.4375000000000064
 40
0.4375000000000064
 40
0.4687500000000062
 40
0.4687500000000062
 40
0.5000000000000059
 40
0.5000000000000059
 40
0.5312500000000057
 40
0.5312500000000057
 40
0.5625000000000053
 40
0.5625000000000053
 40
0.6250000000000048
 40
0.6250000000000048
 40
0.7500000000000029
 40
0.7500000000000029
 40
1.0
 40
1.0
 40
1.0
 40
1.0
 10
162.8678490729022
 20
131.3089748579717
 30
0.0
 10
162.8204609634737
 20
131.1733191159487
 30
0.0
 10
162.7628196615693
 20
131.0293577176194
 30
0.0
 10
162.640771849026
 20
130.786585144365
 30
0.0
 10
162.5947228412494
 20
130.7015455039156
 30
0.0
 10
162.5040695570839
 20
130.5611695308753
 30
0.0
 10
162.4697170567983
 20
130.5112581535365
 30
0.0
 10
162.4072818844078
 20
130.4347228886822
 30
0.0
 10
162.3839878656097
 20
130.4083184096953
 30
0.0
 10
162.3349353284832
 20
130.3607236444343
 30
0.0
 10
162.3105038788264
 20
130.3412810305825
 30
0.0
 10
162.2698742832065
 20
130.3163732529143
 30
0.0
 10
162.2537120013554
 20
130.3103034216034
 30
0.0
 10
162.2267299572522
 20
130.3046145500096
 30
0.0
 10
162.2159804344294
 20
130.3050050580903
 30
0.0
 10
162.1879444602723
 20
130.3111474048788
 30
0.0
 10
162.1750832282397
 20
130.3218114112968
 30
0.0
 10
162.1440803670793
 20
130.360824201657
 30
0.0
 10
162.1332208850102
 20
130.3968761920613
 30
0.0
 10
162.1099436290722
 20
130.5145555895604
 30
0.0
 10
162.1078790265142
 20
130.6058854898934
 30
0.0
 10
162.1078790265142
 20
130.6991257427996
 30
0.0
  0
SPLINE
  5
1E6
330
1F
100
AcDbEntity
  8
0
  6
HIDDEN
 62
     7
370
     0
100
AcDbSpline
210
0.0
220
0.0
230
1.0
 70
     8
 71
     3
 72
    12
 73
     8
 74
     0
 42
0.00000001
 43
0.00000001
 12
1.0
 22
0.0
 32
0.0
 13
1.0
 23
0.0
 33
0.0
 40
0.0
 40
0.0
 40
0.0
 40
0.0
 40
0.2499999999999989
 40
0.2499999999999989
 40
0.4999999999999979
 40
0.4999999999999979
 40
1.0
 40
1.0
 40
1.0
 40
1.0
 10
162.5023476250806
 20
107.4559781199927
 30
0.0
 10
162.5525826341268
 20
107.3851625176119
 30
0.0
 10
162.5926274732702
 20
107.3197649652836
 30
0.0
 10
162.6650799906974
 20
107.1937741617989
 30
0.0
 10
162.6963743884002
 20
107.1344106257021
 30
0.0
 10
162.7819831181315
 20
106.9624134047171
 30
0.0
 10
162.8279839144155
 20
106.8559018803678
 30
0.0
 10
162.8678490729022
 20
106.7539086934334
 30
0.0
  0
SPLINE
  5
1E7
330
1F
100
AcDbEntity
  8
0
  6
HIDDEN
 62
     7
370
     0
100
AcDbSpline
210
0.0
220
0.0
230
1.0
 70
     8
 71
     3
 72
    14
 73
    10
 74
     0
 42
0.00000001
 43
0.00000001
 12
1.0
 22
0.0
 32
0.0
 13
1.0
 23
0.0
 33
0.0
 40
0.0
 40
0.0
 40
0.0
 40
0.0
 40
0.4999999999999994
 40
0.4999999999999994
 40
0.7499999999999983
 40
0.7499999999999983
 40
0.8749999999999991
 40
0.8749999999999991
 40
1.0
 40
1.0
 40
1.0
 40
1.0
 10
162.1078790265143
 20
107.3733810771375
 30
0.0
 10
162.1078790265143
 20
107.4501926491444
 30
0.0
 10
162.1104082841141
 20
107.5246099104753
 30
0.0
 10
162.1301792306468
 20
107.6211111881766
 30
0.0
 10
162.1394408305203
 20
107.6508527848513
 30
0.0
 10
162.1629022444294
 20
107.6853504110747
 30
0.0
 10
162.1723246590934
 20
107.6951810495035
 30
0.0
 10
162.1973940490452
 20
107.7083588779968
 30
0.0
 10
162.2126985034376
 20
107.7119571129768
 30
0.0
 10
162.2347239461956
 20
107.7074621161867
 30
0.0
  0
LINE
  5
1E8
330
1F
100
AcDbEntity
  8
0
  6
HIDDEN
 62
     7
370
     0
100
AcDbLine
 10
162.1078790265
 20
130.6991257428
 30
0.0
 11
162.1078790265
 21
107.3733810771
 31
0.0
  0
SPLINE
  5
1E9
330
1F
100
AcDbEntity
  8
0
  6
HIDDEN
 62
     7
370
     0
100
AcDbSpline
210
0.0
220
0.0
230
1.0
 70
     8
 71
     3
 72
    20
 73
    16
 74
     0
 42
0.00000001
 43
0.00000001
 12
1.0
 22
0.0
 32
0.0
 13
1.0
 23
0.0
 33
0.0
 40
0.0
 40
0.0
 40
0.0
 40
0.0
 40
0.0412192005148486
 40
0.0824623497812437
 40
0.1237452197179982
 40
0.1857337189984902
 40
0.247841584846535
 40
0.3722882213277528
 40
0.4971031675721916
 40
0.6222866674125922
 40
0.7478335347079138
 40
0.8107134505957153
 40
0.8737471163370508
 40
0.9368026427603231
 40
1.0
 40
1.0
 40
1.0
 40
1.0
 10
235.3573943981024
 20
94.77818857196439
 30
0.0
 10
235.3291379780759
 20
94.84329427666437
 30
0.0
 10
235.2726087207714
 20
94.9735435131043
 30
0.0
 10
235.1847222466493
 20
95.1792285691217
 30
0.0
 10
235.0795250760723
 20
95.42805241839713
 30
0.0
 10
234.9551778074179
 20
95.72617722017746
 30
0.0
 10
234.7614936400457
 20
96.19737949157528
 30
0.0
 10
234.5062709652026
 20
96.8307314262699
 30
0.0
 10
234.1804745909182
 20
97.65801404715243
 30
0.0
 10
233.8359364238671
 20
98.5505729099552
 30
0.0
 10
233.534399665365
 20
99.34564563378702
 30
0.0
 10
233.2850200118381
 20
100.0111012235767
 30
0.0
 10
233.0938673976906
 20
100.5250984431908
 30
0.0
 10
232.8991048984206
 20
101.0522960547205
 30
0.0
 10
232.7663908343887
 20
101.4146542842655
 30
0.0
 10
232.6999592577624
 20
101.5960369332546
 30
0.0
  0
SPLINE
  5
1EA
330
1F
100
AcDbEntity
  8
0
  6
HIDDEN
 62
     7
370
     0
100
AcDbSpline
210
0.0
220
0.0
230
1.0
 70
     8
 71
     3
 72
    20
 73
    16
 74
     0
 42
0.00000001
 43
0.00000001
 12
1.0
 22
0.0
 32
0.0
 13
1.0
 23
0.0
 33
0.0
 40
0.0
 40
0.0
 40
0.0
 40
0.0
 40
0.0430378782243321
 40
0.0856634991776142
 40
0.1278772835216428
 40
0.1696796643611651
 40
0.211071087725167
 40
0.2520520130709037
 40
0.3789022556570447
 40
0.5027373396737252
 40
0.6286087845772322
 40
0.7520391716813044
 40
0.8355673768001384
 40
0.9182185245193143
 40
1.0
 40
1.0
 40
1.0
 40
1.0
 10
232.444302986626
 20
100.8728173200456
 30
0.0
 10
232.4877682823173
 20
100.7526334209718
 30
0.0
 10
232.5742825222223
 20
100.5134168572322
 30
0.0
 10
232.7015756374012
 20
100.1634642234932
 30
0.0
 10
232.8262550676749
 20
99.82218454116561
 30
0.0
 10
232.9481912019863
 20
99.49003782535576
 30
0.0
 10
233.0674195277389
 20
99.16684183372753
 30
0.0
 10
233.2656882270377
 20
98.63204756177014
 30
0.0
 10
233.5345120413041
 20
97.91459179635179
 30
0.0
 10
233.8657183411109
 20
97.04616007071134
 30
0.0
 10
234.1770541468619
 20
96.24579756040028
 30
0.0
 10
234.4389016481643
 20
95.58789722398066
 30
0.0
 10
234.6542579379217
 20
95.05867613510688
 30
0.0
 10
234.8305855144019
 20
94.63335957122254
 30
0.0
 10
234.9399730687262
 20
94.37702896739654
 30
0.0
 10
234.9943775744609
 20
94.24954152248566
 30
0.0
  0
ELLIPSE
  5
1EB
330
1F
100
AcDbEntity
  8
0
  6
HIDDEN
 62
     7
370
     0
100
AcDbEllipse
 10
159.2592838372
 20
117.1208942784
 30
0.0
 11
78.33234788356006
 21
-24.79521835240341
 31
0.0
210
0.0
220
0.0
230
1.0
 40
0.0407660087
 41
0.2862490822381862
 42
0.7078348487651362
  0
LWPOLYLINE
  5
1EC
330
1F
100
AcDbEntity
  8
0
  6
HIDDEN
 62
     7
370
     0
100
AcDbPolyline
 90
       16
 70
   128
 43
0.0
 10
225.3288007461
 20
111.5971533592
 10
225.4100405863
 20
111.2361462793
 10
225.3871215658
 20
110.8484242757
 10
225.2610453558
 20
110.4509326606
 10
225.0373220916
 20
110.0610437249
 10
224.7257295535
 20
109.695797486
 10
224.3398858304
 20
109.3711569571
 10
223.8966541447
 20
109.1013104872
 10
223.4154058478
 20
108.8980516619
 10
222.9171737995
 20
108.7702638671
 10
222.4237331313
 20
108.7235320428
 10
221.956649568
 20
108.7598985938
 10
221.5363369028
 20
108.8777741275
 10
221.1811648158
 20
109.0720069172
 10
220.9066560318
 20
109.3341080582
 10
220.7248079017
 20
109.6526224728
  0
ELLIPSE
  5
1ED
330
1F
100
AcDbEntity
  8
0
  6
HIDDEN
 62
     7
370
     0
100
AcDbEllipse
 10
224.6307364952
 20
107.1163328964
 30
0.0
 11
-1.091603625900547
 21
2.745937317723843
 31
0.0
210
0.0
220
0.0
230
1.0
 40
0.8456084473
 41
2.064901711759857
 42
4.254226082302994
  0
LWPOLYLINE
  5
1EE
330
1F
100
AcDbEntity
  8
0
  6
HIDDEN
 62
     7
370
     0
100
AcDbPolyline
 90
       32
 70
   128
 43
0.0
 10
205.0078790265
 20
123.8868134978
 10
205.5111253267
 20
123.8371584715
 10
205.9937686643
 20
123.6902262753
 10
206.4360495643
 20
123.4520323304
 10
206.8198609946
 20
123.132328325
 10
207.1294896703
 20
122.7442029786
 10
207.3522593569
 20
122.3035461885
 10
207.4790498373
 20
121.8283984955
 10
207.5046702944
 20
121.338212502
 10
207.4280718237
 20
120.8530564801
 10
207.2523903754
 20
120.3927927743
 10
206.9848183689
 20
119.9762646349
 10
206.6363102333
 20
119.6205247728
 10
206.2211339328
 20
119.3401372198
 10
205.7562868339
 20
119.1465810753
 10
205.2607998315
 20
119.0477805504
 10
204.7549582215
 20
119.0477805504
 10
204.2594712191
 20
119.1465810753
 10
203.7946241202
 20
119.3401372198
 10
203.3794478197
 20
119.6205247728
 10
203.0309396842
 20
119.9762646349
 10
202.7633676776
 20
120.3927927743
 10
202.5876862293
 20
120.8530564801
 10
202.5110877586
 20
121.338212502
 10
202.5367082157
 20
121.8283984955
 10
202.6634986961
 20
122.3035461885
 10
202.8862683828
 20
122.7442029786
 10
203.1958970584
 20
123.132328325
 10
203.5797084888
 20
123.4520323304
 10
204.0219893887
 20
123.6902262753
 10
204.5046327263
 20
123.8371584715
 10
205.0078790265
 20
123.8868134978
  0
LINE
  5
1EF
330
1F
100
AcDbEntity
  8
0
  6
HIDDEN
 62
     7
370
     0
100
AcDbLine
 10
219.0403409171
 20
114.0033783114
 30
0.0
 11
220.7248079017
 21
109.6526224728
 31
0.0
  0
CIRCLE
  5
1F0
330
1F
100
AcDbEntity
  8
0
  6
HIDDEN
 62
     7
370
     0
100
AcDbCircle
 10
189.0078790265
 20
118.9208942784
 30
0.0
 40
4.999999999999986
  0
LINE
  5
1F1
330
1F
100
AcDbEntity
  8
0
  6
HIDDEN
 62
     7
370
     0
100
AcDbLine
 10
232.4443037012
 20
100.8728174691
 30
0.0
 11
219.4167053512
 21
100.8728174691
 31
0.0
  0
SPLINE
  5
1F2
330
1F
100
AcDbEntity
  8
0
  6
HIDDEN
 62
     7
370
     0
100
AcDbSpline
210
0.0
220
0.0
230
1.0
 70
     8
 71
     3
 72
     9
 73
     5
 74
     0
 42
0.00000001
 43
0.00000001
 12
1.0
 22
0.0
 32
0.0
 13
1.0
 23
0.0
 33
0.0
 40
0.0
 40
0.0
 40
0.0
 40
0.0
 40
0.4999996198017346
 40
1.0
 40
1.0
 40
1.0
 40
1.0
 10
232.6999599462628
 20
101.5960366958684
 30
0.0
 10
232.6580439690364
 20
101.4752555669662
 30
0.0
 10
232.5742119508379
 20
101.2336931254785
 30
0.0
 10
232.4876042278356
 20
100.993111906903
 30
0.0
 10
232.4443003334063
 20
100.8728212061467
 30
0.0
  0
LINE
  5
1F3
330
1F
100
AcDbEntity
  8
0
  6
HIDDEN
 62
     7
370
     0
100
AcDbLine
 10
232.6999594332
 20
101.5960365292
 30
0.0
 11
227.0732046855
 21
118.9208942784
 31
0.0
  0
LINE
  5
1F4
330
1F
100
AcDbEntity
  8
0
  6
HIDDEN
 62
     7
370
     0
100
AcDbLine
 10
182.0078790265
 20
102.7136935933
 30
0.0
 11
182.102039802
 21
103.3836823245
 31
0.0
  0
LINE
  5
1F5
330
1F
100
AcDbEntity
  8
0
  6
HIDDEN
 62
     7
370
     0
100
AcDbLine
 10
182.102039802
 20
134.4581062322
 30
0.0
 11
182.0078790265
 21
135.1280949634
 31
0.0
  0
ARC
  5
1F6
330
1F
100
AcDbEntity
  8
0
  6
HIDDEN
 62
     7
370
     0
100
AcDbCircle
 10
181.5078722738
 20
103.4671871249
 30
0.0
 40
0.6000067526677242
100
AcDbArc
 50
352.0
 51
0.0
  0
ARC
  5
1F7
330
1F
100
AcDbEntity
  8
0
  6
HIDDEN
 62
     7
370
     0
100
AcDbCircle
 10
181.5078722738
 20
103.4671871249
 30
0.0
 40
0.6000067526677242
100
AcDbArc
 50
0.0
 51
33.5571153394
  0
ARC
  5
1F8
330
1F
100
AcDbEntity
  8
0
  6
HIDDEN
 62
     7
370
     0
100
AcDbCircle
 10
181.5078722738
 20
134.3746014318
 30
0.0
 40
0.6000067526677042
100
AcDbArc
 50
348.75
 51
8.0
  0
LWPOLYLINE
  5
1F9
330
1F
100
AcDbEntity
  8
0
  6
HIDDEN
 62
     7
370
     0
100
AcDbPolyline
 90
        3
 70
   128
 43
0.0
 10
182.096350065
 20
134.2575459212
 10
182.062206232
 20
134.1449887883
 10
182.0078790265
 20
134.0429369168
  0
LINE
  5
1FA
330
1F
100
AcDbEntity
  8
0
  6
HIDDEN
 62
     7
370
     0
100
AcDbLine
 10
182.1078790265
 20
103.4671871249
 30
0.0
 11
182.1078790265
 21
134.3746014318
 31
0.0
  0
LINE
  5
1FB
330
1F
100
AcDbEntity
  8
0
  6
HIDDEN
 62
     7
370
     0
100
AcDbLine
 10
182.1078790265
 20
103.4671871249
 30
0.0
 11
182.1078790265
 21
134.3746014318
 31
0.0
  0
LINE
  5
1FC
330
1F
100
AcDbEntity
  8
0
  6
HIDDEN
 62
     7
370
     0
100
AcDbLine
 10
209.9297842122
 20
114.9096644369
 30
0.0
 11
206.2228134515
 21
117.7512638422
 31
0.0
  0
LINE
  5
1FD
330
1F
100
AcDbEntity
  8
0
  6
HIDDEN
 62
     7
370
     0
100
AcDbLine
 10
204.2044135786
 20
114.0064670577
 30
0.0
 11
209.9127447432
 21
109.6307135139
 31
0.0
  0
LINE
  5
1FE
330
1F
100
AcDbEntity
  8
0
  6
HIDDEN
 62
     7
370
     0
100
AcDbLine
 10
202.9078790265
 20
118.3169500509
 30
0.0
 11
202.9078790265
 21
115.6549486878
 31
0.0
  0
LINE
  5
1FF
330
1F
100
AcDbEntity
  8
0
  6
HIDDEN
 62
     7
370
     0
100
AcDbLine
 10
207.1078790265
 20
116.4190816523
 30
0.0
 11
207.1078790265
 21
118.3820388744
 31
0.0
  0
ARC
  5
200
330
1F
100
AcDbEntity
  8
0
  6
HIDDEN
 62
     7
370
     0
100
AcDbCircle
 10
171.5405069707
 20
106.5708942784
 30
0.0
 40
0.4000000000000057
100
AcDbArc
 50
210.0
 51
270.0
  0
ARC
  5
201
330
1F
100
AcDbEntity
  8
0
  6
HIDDEN
 62
     7
370
     0
100
AcDbCircle
 10
171.5405069707
 20
131.2708942784
 30
0.0
 40
0.4000000000000057
100
AcDbArc
 50
90.0
 51
150.0
  0
LINE
  5
202
330
1F
100
AcDbEntity
  8
0
  6
HIDDEN
 62
     7
370
     0
100
AcDbLine
 10
171.5405069707
 20
106.1708942784
 30
0.0
 11
173.7146630495
 21
106.1708942784
 31
0.0
  0
LINE
  5
203
330
1F
100
AcDbEntity
  8
0
  6
HIDDEN
 62
     7
370
     0
100
AcDbLine
 10
173.7129031943
 20
131.6708942784
 30
0.0
 11
171.5405069707
 21
131.6708942784
 31
0.0
  0
ARC
  5
204
330
1F
100
AcDbEntity
  8
0
  6
HIDDEN
 62
     7
370
     0
100
AcDbCircle
 10
177.8320557544
 20
111.1708942784
 30
0.0
 40
5.000000000000018
100
AcDbArc
 50
275.4575836378
 51
326.6329870308
  0
ARC
  5
205
330
1F
100
AcDbEntity
  8
0
  6
HIDDEN
 62
     7
370
     0
100
AcDbCircle
 10
177.8320557544
 20
126.6708942784
 30
0.0
 40
5.00000000000001
100
AcDbArc
 50
33.3670129692
 51
84.5415745942
  0
LINE
  5
206
330
1F
100
AcDbEntity
  8
0
  6
HIDDEN
 62
     7
370
     0
100
AcDbLine
 10
171.1940968092
 20
131.4708942784
 30
0.0
 11
170.0105287573
 21
129.4208942784
 31
0.0
  0
LINE
  5
207
330
1F
100
AcDbEntity
  8
0
  6
HIDDEN
 62
     7
370
     0
100
AcDbLine
 10
170.0105287573
 20
108.4208942784
 30
0.0
 11
171.1940968092
 21
106.3708942784
 31
0.0
  0
ARC
  5
208
330
1F
100
AcDbEntity
  8
0
  6
HIDDEN
 62
     7
370
     0
100
AcDbCircle
 10
188.9578790265
 20
109.0458942784
 30
0.0
 40
1.0
100
AcDbArc
 50
218.6821874535
 51
0.0
  0
ARC
  5
209
330
1F
100
AcDbEntity
  8
0
  6
HIDDEN
 62
     7
370
     0
100
AcDbCircle
 10
188.9578790265
 20
128.7958942784
 30
0.0
 40
1.0
100
AcDbArc
 50
0.0
 51
141.3178125465
  0
LINE
  5
20A
330
1F
100
AcDbEntity
  8
0
  6
HIDDEN
 62
     7
370
     0
100
AcDbLine
 10
182.0078790265
 20
108.4208942784
 30
0.0
 11
188.1772542767
 21
108.4208942784
 31
0.0
  0
LINE
  5
20B
330
1F
100
AcDbEntity
  8
0
  6
HIDDEN
 62
     7
370
     0
100
AcDbLine
 10
188.1772542767
 20
129.4208942784
 30
0.0
 11
182.0078790265
 21
129.4208942784
 31
0.0
  0
LINE
  5
20C
330
1F
100
AcDbEntity
  8
0
  6
HIDDEN
 62
     7
370
     0
100
AcDbLine
 10
168.2078790265
 20
108.4208942784
 30
0.0
 11
170.0105287573
 21
108.4208942784
 31
0.0
  0
LINE
  5
20D
330
1F
100
AcDbEntity
  8
0
  6
HIDDEN
 62
     7
370
     0
100
AcDbLine
 10
170.0105287573
 20
129.4208942784
 30
0.0
 11
165.7078790265
 21
129.4208942784
 31
0.0
  0
LINE
  5
20E
330
1F
100
AcDbEntity
  8
0
  6
HIDDEN
 62
     7
370
     0
100
AcDbLine
 10
195.3078790265
 20
112.6708942784
 30
0.0
 11
197.8078790265
 21
112.6708942784
 31
0.0
  0
LINE
  5
20F
330
1F
100
AcDbEntity
  8
0
  6
HIDDEN
 62
     7
370
     0
100
AcDbLine
 10
197.8078790265
 20
125.1708942784
 30
0.0
 11
195.3078790265
 21
125.1708942784
 31
0.0
  0
LINE
  5
210
330
1F
100
AcDbEntity
  8
0
  6
HIDDEN
 62
     7
370
     0
100
AcDbLine
 10
218.2296175207
 20
114.3179277611
 30
0.0
 11
218.708294911
 21
113.5270799297
 31
0.0
  0
LINE
  5
211
330
1F
100
AcDbEntity
  8
0
  6
HIDDEN
 62
     7
370
     0
100
AcDbLine
 10
224.6967742158
 20
117.1517337913
 30
0.0
 11
224.2180968254
 21
117.9425816226
 31
0.0
  0
LINE
  5
212
330
1F
100
AcDbEntity
  8
0
  6
HIDDEN
 62
     7
370
     0
100
AcDbLine
 10
189.9578790265
 20
112.9208942784
 30
0.0
 11
190.4578790265
 21
113.4208942784
 31
0.0
  0
LINE
  5
213
330
1F
100
AcDbEntity
  8
0
  6
HIDDEN
 62
     7
370
     0
100
AcDbLine
 10
190.4578790265
 20
124.4208942784
 30
0.0
 11
189.9578790265
 21
124.9208942784
 31
0.0
  0
LINE
  5
214
330
1F
100
AcDbEntity
  8
0
  6
HIDDEN
 62
     7
370
     0
100
AcDbLine
 10
190.4578790265
 20
113.4208942784
 30
0.0
 11
195.3078790265
 21
113.4208942784
 31
0.0
  0
LINE
  5
215
330
1F
100
AcDbEntity
  8
0
  6
HIDDEN
 62
     7
370
     0
100
AcDbLine
 10
195.3078790265
 20
124.4208942784
 30
0.0
 11
190.4578790265
 21
124.4208942784
 31
0.0
  0
LINE
  5
216
330
1F
100
AcDbEntity
  8
0
  6
HIDDEN
 62
     7
370
     0
100
AcDbLine
 10
214.3546250476
 20
109.2545037784
 30
0.0
 11
215.318377479
 21
107.6622382241
 31
0.0
  0
LINE
  5
217
330
1F
100
AcDbEntity
  8
0
  6
HIDDEN
 62
     7
370
     0
100
AcDbLine
 10
189.9578790265
 20
138.9208942784
 30
0.0
 11
189.9578790265
 21
135.8208942784
 31
0.0
  0
LINE
  5
218
330
1F
100
AcDbEntity
  8
0
  6
HIDDEN
 62
     7
370
     0
100
AcDbLine
 10
227.3012121609
 20
108.1883586617
 30
0.0
 11
224.1016102086
 21
115.1873949624
 31
0.0
  0
LINE
  5
219
330
1F
100
AcDbEntity
  8
0
  6
HIDDEN
 62
     7
370
     0
100
AcDbLine
 10
178.775058271
 20
103.8795896649
 30
0.0
 11
178.3071296828
 21
104.3754261458
 31
0.0
  0
LINE
  5
21A
330
1F
100
AcDbEntity
  8
0
  6
HIDDEN
 62
     7
370
     0
100
AcDbLine
 10
173.7092246676
 20
104.6552798595
 30
0.0
 11
173.1917509517
 21
104.1594545467
 31
0.0
  0
LINE
  5
21B
330
1F
100
AcDbEntity
  8
0
  6
HIDDEN
 62
     7
370
     0
100
AcDbLine
 10
173.1911167199
 20
133.6823839513
 30
0.0
 11
173.7088029679
 21
133.1864969047
 31
0.0
  0
LINE
  5
21C
330
1F
100
AcDbEntity
  8
0
  6
HIDDEN
 62
     7
370
     0
100
AcDbLine
 10
178.3064438029
 20
133.4661444378
 30
0.0
 11
178.7743476991
 21
133.9620383105
 31
0.0
  0
LINE
  5
21D
330
1F
100
AcDbEntity
  8
0
  6
HIDDEN
 62
     7
370
     0
100
AcDbLine
 10
197.8078790265
 20
116.4208942784
 30
0.0
 11
207.0078790265
 21
116.4208942784
 31
0.0
  0
LINE
  5
21E
330
1F
100
AcDbEntity
  8
0
  6
HIDDEN
 62
     7
370
     0
100
AcDbLine
 10
207.0078790265
 20
121.4208942784
 30
0.0
 11
197.8078790265
 21
121.4208942784
 31
0.0
  0
LINE
  5
21F
330
1F
100
AcDbEntity
  8
0
  6
HIDDEN
 62
     7
370
     0
100
AcDbLine
 10
207.0078790265
 20
116.4208942784
 30
0.0
 11
207.9178046122
 21
118.9208942784
 31
0.0
  0
LINE
  5
220
330
1F
100
AcDbEntity
  8
0
  6
HIDDEN
 62
     7
370
     0
100
AcDbLine
 10
207.9178046122
 20
118.9208942784
 30
0.0
 11
207.0078790265
 21
121.4208942784
 31
0.0
  0
LINE
  5
221
330
1F
100
AcDbEntity
  8
0
  6
HIDDEN
 62
     7
370
     0
100
AcDbLine
 10
178.3078790265
 20
104.3756701708
 30
0.0
 11
178.3078790265
 21
106.193681793
 31
0.0
  0
LINE
  5
222
330
1F
100
AcDbEntity
  8
0
  6
HIDDEN
 62
     7
370
     0
100
AcDbLine
 10
173.7078790265
 20
106.1721137106
 30
0.0
 11
173.7078790265
 21
104.6622877342
 31
0.0
  0
LINE
  5
223
330
1F
100
AcDbEntity
  8
0
  6
HIDDEN
 62
     7
370
     0
100
AcDbLine
 10
178.3078790265
 20
131.6481067637
 30
0.0
 11
178.3078790265
 21
133.4659338838
 31
0.0
  0
LINE
  5
224
330
1F
100
AcDbEntity
  8
0
  6
HIDDEN
 62
     7
370
     0
100
AcDbLine
 10
173.7078790265
 20
133.1853945802
 30
0.0
 11
173.7078790265
 21
131.6699932618
 31
0.0
  0
LINE
  5
225
330
1F
100
AcDbEntity
  8
0
  6
HIDDEN
 62
     7
370
     0
100
AcDbLine
 10
215.7779231226
 20
117.0166464631
 30
0.0
 11
217.5868046642
 21
114.0280991175
 31
0.0
  0
LINE
  5
226
330
1F
100
AcDbEntity
  8
0
  6
HIDDEN
 62
     7
370
     0
100
AcDbLine
 10
224.7729798299
 20
118.3776837514
 30
0.0
 11
222.8138612527
 21
121.6144455233
 31
0.0
  0
LINE
  5
227
330
1F
100
AcDbEntity
  8
0
  6
HIDDEN
 62
     7
370
     0
100
AcDbLine
 10
202.9078790265
 20
121.4029296462
 30
0.0
 11
202.9078790265
 21
119.525422516
 31
0.0
  0
LINE
  5
228
330
1F
100
AcDbEntity
  8
0
  6
HIDDEN
 62
     7
370
     0
100
AcDbLine
 10
207.1078790265
 20
119.4597496823
 30
0.0
 11
207.1078790265
 21
121.4029296462
 31
0.0
  0
ARC
  5
229
330
1F
100
AcDbEntity
  8
0
  6
HIDDEN
 62
     7
370
     0
100
AcDbCircle
 10
167.3078790265
 20
105.1408942784
 30
0.0
 40
0.9000000000000057
100
AcDbArc
 50
34.6391318474
 51
90.0
  0
ARC
  5
22A
330
1F
100
AcDbEntity
  8
0
  6
HIDDEN
 62
     7
370
     0
100
AcDbCircle
 10
164.8078790265
 20
132.7008942784
 30
0.0
 40
0.9000000000000152
100
AcDbArc
 50
270.0
 51
311.221922679
  0
LINE
  5
22B
330
1F
100
AcDbEntity
  8
0
  6
HIDDEN
 62
     7
370
     0
100
AcDbLine
 10
162.1078790265
 20
107.0498942784
 30
0.0
 11
163.1168790265
 21
106.0408942784
 31
0.0
  0
LINE
  5
22C
330
1F
100
AcDbEntity
  8
0
  6
HIDDEN
 62
     7
370
     0
100
AcDbLine
 10
163.1168790265
 20
106.0408942784
 30
0.0
 11
167.3078790265
 21
106.0408942784
 31
0.0
  0
LINE
  5
22D
330
1F
100
AcDbEntity
  8
0
  6
HIDDEN
 62
     7
370
     0
100
AcDbLine
 10
164.8078790265
 20
131.8008942784
 30
0.0
 11
163.0578790265
 21
131.8008942784
 31
0.0
  0
LINE
  5
22E
330
1F
100
AcDbEntity
  8
0
  6
HIDDEN
 62
     7
370
     0
100
AcDbLine
 10
163.0578790265
 20
131.8008942784
 30
0.0
 11
162.1078790265
 21
130.8508942784
 31
0.0
  0
LINE
  5
22F
330
1F
100
AcDbEntity
  8
0
  6
HIDDEN
 62
     7
370
     0
100
AcDbLine
 10
229.3383992645
 20
104.4714951449
 30
0.0
 11
228.7530398702
 21
105.4385978677
 31
0.0
  0
LINE
  5
230
330
1F
100
AcDbEntity
  8
0
  6
HIDDEN
 62
     7
370
     0
100
AcDbLine
 10
223.2778587915
 20
102.1246286229
 30
0.0
 11
223.8632181858
 21
101.1575259001
 31
0.0
  0
LINE
  5
231
330
1F
100
AcDbEntity
  8
0
  6
HIDDEN
 62
     7
370
     0
100
AcDbLine
 10
220.7531233555
 20
109.5854770953
 30
0.0
 11
223.2045514193
 21
104.2230494364
 31
0.0
  0
LINE
  5
232
330
1F
100
AcDbEntity
  8
0
  6
HIDDEN
 62
     7
370
     0
100
AcDbLine
 10
202.5078790265
 20
122.9381633732
 30
0.0
 11
202.5078790265
 21
121.4610741822
 31
0.0
  0
LINE
  5
233
330
1F
100
AcDbEntity
  8
0
  6
HIDDEN
 62
     7
370
     0
100
AcDbLine
 10
207.5078790265
 20
121.4610741822
 30
0.0
 11
207.5078790265
 21
122.9122868912
 31
0.0
  0
LINE
  5
234
330
1F
100
AcDbEntity
  8
VERMASSUNG
  6
CENTERX2
100
AcDbLine
 10
159.381063613
 20
118.9208942784
 30
0.0
 11
237.0078790265
 21
118.9208942784
 31
0.0
  0
LINE
  5
235
330
1F
100
AcDbEntity
  8
VERMASSUNG
  6
CENTERX2
100
AcDbLine
 10
237.0078790265
 20
91.9208942784
 30
0.0
 11
237.0078790265
 21
118.9208942784
 31
0.0
  0
LINE
  5
236
330
1F
100
AcDbEntity
  8
VERMASSUNG
  6
CENTERX2
100
AcDbLine
 10
237.0078790265
 20
91.9208942784
 30
0.0
 11
245.5993934206
 21
91.9208942784
 31
0.0
  0
DIMENSION
  5
237
330
1F
100
AcDbEntity
  8
VERMASSUNG
100
AcDbDimension
  2
_D
 10
237.0078790265
 20
82.6434943869
 30
0.0
 11
209.5078790265
 21
82.6434943869
 31
0.0
 70
   160
  1
<>
 71
     2
 42
-1.0
  3
SLDDIMSTYLE0
100
AcDbAlignedDimension
 13
182.0078790265
 23
99.2208942784
 33
0.0
 14
237.0078790265
 24
91.9208942784
 34
0.0
100
AcDbRotatedDimension
  0
DIMENSION
  5
242
330
1F
100
AcDbEntity
  8
VERMASSUNG
100
AcDbDimension
  2
_D_1
 10
162.1078790265
 20
74.3182352686
 30
0.0
 11
199.5578790265
 21
74.3182352686
 31
0.0
 70
   160
  1
<>
 71
     2
 42
-1.0
  3
SLDDIMSTYLE0
100
AcDbAlignedDimension
 13
237.0078790265
 23
91.9208942784
 33
0.0
 14
162.1078790265
 24
107.0498942784
 34
0.0
100
AcDbRotatedDimension
  0
DIMENSION
  5
24C
330
1F
100
AcDbEntity
  8
VERMASSUNG
100
AcDbDimension
  2
_D_2
 10
232.7188513861
 20
106.0253108914
 30
0.0
 11
243.0573082162
 21
99.9660854068
 31
0.0
 70
   162
  1
<>
 71
     1
 42
-1.0
  3
SLDDIMSTYLE1
100
AcDb2LineAngularDimension
 13
245.5993934206
 23
91.9208942784
 33
0.0
 14
237.0078790265
 24
91.9208942784
 34
0.0
 15
236.9911336519
 25
92.4365793171
 35
0.0
 16
243.0573082162
 26
99.9660854068
 36
0.0
  0
DIMENSION
  5
256
330
1F
100
AcDbEntity
  8
VERMASSUNG
100
AcDbDimension
  2
_D_3
 10
252.565479593
 20
118.9208942784
 30
0.0
 11
252.565479593
 21
105.4208942784
 31
0.0
 70
   160
  1
<>
 71
     2
 42
-1.0
  3
SLDDIMSTYLE0
100
AcDbAlignedDimension
 13
237.0078790265
 23
91.9208942784
 33
0.0
 14
237.0078790265
 24
118.9208942784
 34
0.0
 50
90.0
100
AcDbRotatedDimension
  0
DIMENSION
  5
260
330
1F
100
AcDbEntity
  8
VERMASSUNG
100
AcDbDimension
  2
_D_4
 10
152.1078790265
 20
98.9208942784
 30
0.0
 11
152.1078790265
 21
118.9208942784
 31
0.0
 70
   160
  1
HSK T%%c<>
 71
     2
 42
-1.0
  3
SLDDIMSTYLE0
100
AcDbAlignedDimension
 13
182.3078790265
 23
138.9208942784
 33
0.0
 14
182.3078790265
 24
98.9208942784
 34
0.0
 50
90.0
100
AcDbRotatedDimension
  0
LINE
  5
26C
330
1F
100
AcDbEntity
  8
0
  6
Continuous
 62
     7
370
    15
100
AcDbLine
 10
84.999091722
 20
93.3416887638
 30
0.0
 11
87.6852950476
 21
93.8153388858
 31
0.0
  0
LINE
  5
26D
330
1F
100
AcDbEntity
  8
0
  6
Continuous
 62
     7
370
    15
100
AcDbLine
 10
87.6951527233
 20
93.8227012939
 30
0.0
 11
87.9339248292
 21
94.1677439718
 31
0.0
  0
LINE
  5
26E
330
1F
100
AcDbEntity
  8
0
  6
Continuous
 62
     7
370
    15
100
AcDbLine
 10
78.7955972864
 20
91.9192342131
 30
0.0
 11
85.0148690306
 21
93.015859622
 31
0.0
  0
LINE
  5
26F
330
1F
100
AcDbEntity
  8
0
  6
Continuous
 62
     7
370
    15
100
AcDbLine
 10
77.7669504123
 20
95.2409206788
 30
0.0
 11
78.2375467158
 21
94.6690004176
 31
0.0
  0
LINE
  5
270
330
1F
100
AcDbEntity
  8
0
  6
Continuous
 62
     7
370
    15
100
AcDbLine
 10
74.9134309569
 20
107.9690063056
 30
0.0
 11
74.9006614915
 21
107.9188676766
 31
0.0
  0
LINE
  5
271
330
1F
100
AcDbEntity
  8
0
  6
Continuous
 62
     7
370
    15
100
AcDbLine
 10
74.8920602411
 20
107.914672947
 30
0.0
 11
74.6008185637
 21
107.0898884766
 31
0.0
  0
LINE
  5
272
330
1F
100
AcDbEntity
  8
0
  6
Continuous
 62
     7
370
    15
100
AcDbLine
 10
73.9197174631
 20
110.4728566392
 30
0.0
 11
73.6096514554
 21
110.4181836362
 31
0.0
  0
SPLINE
  5
273
330
1F
100
AcDbEntity
  8
0
  6
Continuous
 62
     7
370
    15
100
AcDbSpline
210
0.0
220
0.0
230
1.0
 70
     8
 71
     3
 72
    20
 73
    16
 74
     0
 42
0.00000001
 43
0.00000001
 12
1.0
 22
0.0
 32
0.0
 13
1.0
 23
0.0
 33
0.0
 40
0.0
 40
0.0
 40
0.0
 40
0.0
 40
0.0412192005148486
 40
0.0824623497812437
 40
0.1237452197179982
 40
0.1857337189984902
 40
0.247841584846535
 40
0.3722882213277528
 40
0.4971031675721916
 40
0.6222866674125922
 40
0.7478335347079138
 40
0.8107134505957153
 40
0.8737471163370508
 40
0.9368026427603231
 40
1.0
 40
1.0
 40
1.0
 40
1.0
 10
87.88800153736794
 20
94.77818857196439
 30
0.0
 10
88.0317880824394
 20
94.84329427666437
 30
0.0
 10
88.31944471394657
 20
94.9735435131043
 30
0.0
 10
88.74574799502443
 20
95.1792285691217
 30
0.0
 10
89.23877640018769
 20
95.42805241839713
 30
0.0
 10
89.79525565533497
 20
95.72617722017746
 30
0.0
 10
90.6171084997994
 20
96.19737949157528
 30
0.0
 10
91.61841877353976
 20
96.8307314262699
 30
0.0
 10
92.77317211863142
 20
97.65801404715243
 30
0.0
 10
93.87821533692647
 20
98.5505729099552
 30
0.0
 10
94.75397583405903
 20
99.34564563378702
 30
0.0
 10
95.42632965453784
 20
100.0111012235767
 30
0.0
 10
95.91597396510062
 20
100.5250984431908
 30
0.0
 10
96.39192332945706
 20
101.0522960547205
 30
0.0
 10
96.69576766452586
 20
101.4146542842655
 30
0.0
 10
96.84786049941
 20
101.5960369332546
 30
0.0
  0
SPLINE
  5
274
330
1F
100
AcDbEntity
  8
0
  6
Continuous
 62
     7
370
    15
100
AcDbSpline
210
0.0
220
0.0
230
1.0
 70
    24
 71
     3
 72
     9
 73
     5
 74
     0
 42
0.00000001
 43
0.00000001
 12
1.0
 22
0.0
 32
0.0
 13
1.0
 23
0.0
 33
0.0
 40
0.0
 40
0.0
 40
0.0
 40
0.0
 40
0.4999996198017346
 40
1.0
 40
1.0
 40
1.0
 40
1.0
 10
96.84785960533843
 20
101.5960366958684
 30
0.0
 10
96.84785960533843
 20
101.4752555669662
 30
0.0
 10
96.84785960533843
 20
101.2336931254785
 30
0.0
 10
96.84785960533843
 20
100.993111906903
 30
0.0
 10
96.84785960533843
 20
100.8728212061467
 30
0.0
  0
SPLINE
  5
275
330
1F
100
AcDbEntity
  8
0
  6
Continuous
 62
     7
370
    15
100
AcDbSpline
210
0.0
220
0.0
230
1.0
 70
     8
 71
     3
 72
    20
 73
    16
 74
     0
 42
0.00000001
 43
0.00000001
 12
1.0
 22
0.0
 32
0.0
 13
1.0
 23
0.0
 33
0.0
 40
0.0
 40
0.0
 40
0.0
 40
0.0
 40
0.0430378782243321
 40
0.0856634991776142
 40
0.1278772835216428
 40
0.1696796643611651
 40
0.211071087725167
 40
0.2520520130709037
 40
0.3789022556570447
 40
0.5027373396737252
 40
0.6286087845772322
 40
0.7520391716813044
 40
0.8355673768001384
 40
0.9182185245193143
 40
1.0
 40
1.0
 40
1.0
 40
1.0
 10
96.84785947788397
 20
100.8728173200456
 30
0.0
 10
96.74393353087807
 20
100.7526334209718
 30
0.0
 10
96.5370771373201
 20
100.5134168572322
 30
0.0
 10
96.21941554217793
 20
100.1634642234932
 30
0.0
 10
95.89858043931984
 20
99.82218454116561
 30
0.0
 10
95.5742167067005
 20
99.49003782535576
 30
0.0
 10
95.24676770638784
 20
99.16684183372753
 30
0.0
 10
94.68467992162118
 20
98.63204756177014
 30
0.0
 10
93.87192269999576
 20
97.91459179635179
 30
0.0
 10
92.76955125339971
 20
97.04616007071134
 30
0.0
 10
91.62757089439008
 20
96.24579756040028
 30
0.0
 10
90.56778720433763
 20
95.58789722398066
 30
0.0
 10
89.61774876404577
 20
95.05867613510688
 30
0.0
 10
88.78749576831898
 20
94.63335957122254
 30
0.0
 10
88.22315244897652
 20
94.37702896739654
 30
0.0
 10
87.94247317478289
 20
94.24954152248566
 30
0.0
  0
LINE
  5
276
330
1F
100
AcDbEntity
  8
0
  6
Continuous
 62
     7
370
    15
100
AcDbLine
 10
87.9424733014
 20
94.2495407612
 30
0.0
 11
87.8880016186
 21
94.7781885964
 31
0.0
  0
LINE
  5
277
330
1F
100
AcDbEntity
  8
0
  6
Continuous
 62
     7
370
    15
100
AcDbLine
 10
85.1120543497
 20
108.004454573
 30
0.0
 11
76.0818676596
 21
106.4121890187
 31
0.0
  0
LINE
  5
278
330
1F
100
AcDbEntity
  8
0
  6
Continuous
 62
     7
370
    15
100
AcDbLine
 10
70.149098704
 20
134.6794335121
 30
0.0
 11
76.0818676596
 21
106.4121890187
 31
0.0
  0
ARC
  5
279
330
1F
100
AcDbEntity
  8
0
  6
Continuous
 62
     7
370
    15
100
AcDbCircle
 10
78.8478596053
 20
118.9208942784
 30
0.0
 40
18.0
100
AcDbArc
 50
0.0
 51
118.8988292579
  0
LINE
  5
27A
330
1F
100
AcDbEntity
  8
0
  6
Continuous
 62
     7
370
    15
100
AcDbLine
 10
96.8478596053
 20
101.5960365292
 30
0.0
 11
96.8478596053
 21
118.9208942784
 31
0.0
  0
LINE
  5
27B
330
1F
100
AcDbEntity
  8
0
  6
Continuous
 62
     7
370
    15
100
AcDbLine
 10
85.1984549604
 20
107.5927906091
 30
0.0
 11
85.1120543497
 21
108.004454573
 31
0.0
  0
LWPOLYLINE
  5
27C
330
1F
100
AcDbEntity
  8
0
  6
Continuous
 62
     7
370
    15
100
AcDbPolyline
 90
       37
 70
   128
 43
0.0
 10
72.7836086817
 20
118.7862339961
 10
72.8554060227
 20
118.7449006628
 10
72.9434885799
 20
118.6000931237
 10
73.0451800092
 20
118.3562112824
 10
73.1573904682
 20
118.0206653653
 10
73.2767104988
 20
117.6036507654
 10
73.3995146222
 20
117.1178382601
 10
73.5220714973
 20
116.5779890168
 10
73.6406572954
 20
116.0005060813
 10
73.7516688472
 20
115.4029359806
 10
73.8517331227
 20
114.8034355797
 10
73.9378097196
 20
114.2202203949
 10
74.007283244
 20
113.6710111246
 10
74.0580427781
 20
113.1724952145
 10
74.0885460191
 20
112.7398198182
 10
74.0978661415
 20
112.3861315587
 10
74.085719958
 20
112.1221770749
 10
74.0524765244
 20
111.9559764901
 10
73.9991459254
 20
111.892579725
 10
73.9273485844
 20
111.9339130582
 10
73.8392660273
 20
112.0787205974
 10
73.7375745979
 20
112.3226024386
 10
73.6253641389
 20
112.6581483557
 10
73.5060441083
 20
113.0751629557
 10
73.3832399849
 20
113.5609754609
 10
73.2606831098
 20
114.1008247043
 10
73.1420973117
 20
114.6783076397
 10
73.0310857599
 20
115.2758777405
 10
72.9310214844
 20
115.8753781414
 10
72.8449448875
 20
116.4585933261
 10
72.7754713631
 20
117.0078025964
 10
72.724711829
 20
117.5063185066
 10
72.694208588
 20
117.9389939029
 10
72.6848884656
 20
118.2926821623
 10
72.6970346491
 20
118.5566366462
 10
72.7302780828
 20
118.722837231
 10
72.7836086817
 20
118.7862339961
  0
SPLINE
  5
27D
330
1F
100
AcDbEntity
  8
0
  6
Continuous
 62
     7
370
    15
100
AcDbSpline
210
0.0
220
0.0
230
1.0
 70
     8
 71
     3
 72
     8
 73
     4
 74
     0
 42
0.00000001
 43
0.00000001
 12
1.0
 22
0.0
 32
0.0
 13
1.0
 23
0.0
 33
0.0
 40
0.0
 40
0.0
 40
0.0
 40
0.0
 40
1.0
 40
1.0
 40
1.0
 40
1.0
 10
76.10988792098554
 20
97.85040758242197
 30
0.0
 10
75.82408289353265
 20
99.25186528636401
 30
0.0
 10
75.53848958445482
 20
100.6542968988327
 30
0.0
 10
75.25329993987745
 20
102.0585853756326
 30
0.0
  0
SPLINE
  5
27E
330
1F
100
AcDbEntity
  8
0
  6
Continuous
 62
     7
370
    15
100
AcDbSpline
210
0.0
220
0.0
230
1.0
 70
     8
 71
     3
 72
    12
 73
     8
 74
     0
 42
0.00000001
 43
0.00000001
 12
1.0
 22
0.0
 32
0.0
 13
1.0
 23
0.0
 33
0.0
 40
0.0
 40
0.0
 40
0.0
 40
0.0
 40
0.2500000000000012
 40
0.2500000000000012
 40
0.5000000000000024
 40
0.5000000000000024
 40
1.0
 40
1.0
 40
1.0
 40
1.0
 10
75.25329993987745
 20
102.0585853756326
 30
0.0
 10
75.23089078927975
 20
102.1689291856465
 30
0.0
 10
75.20805193265247
 20
102.2723773507596
 30
0.0
 10
75.161519152709
 20
102.4655521228826
 30
0.0
 10
75.13839822040391
 20
102.5526877775314
 30
0.0
 10
75.07213088006506
 20
102.7745419381906
 30
0.0
 10
75.03211123121206
 20
102.8681448401602
 30
0.0
 10
75.00637744215078
 20
102.8743053950539
 30
0.0
  0
ARC
  5
27F
330
1F
100
AcDbEntity
  8
0
  6
Continuous
 62
     7
370
    15
100
AcDbCircle
 10
78.8478596053
 20
118.9208942784
 30
0.0
 40
16.49999999999999
100
AcDbArc
 50
254.6589672951
 51
256.53701681
  0
ARC
  5
280
330
1F
100
AcDbEntity
  8
0
  6
Continuous
 62
     7
370
    15
100
AcDbCircle
 10
78.8478596053
 20
118.9208942784
 30
0.0
 40
16.50000000000002
100
AcDbArc
 50
123.46298319
 51
125.3410327049
  0
SPLINE
  5
281
330
1F
100
AcDbEntity
  8
0
  6
Continuous
 62
     7
370
    15
100
AcDbSpline
210
0.0
220
0.0
230
1.0
 70
     8
 71
     3
 72
    10
 73
     6
 74
     0
 42
0.00000001
 43
0.00000001
 12
1.0
 22
0.0
 32
0.0
 13
1.0
 23
0.0
 33
0.0
 40
0.0
 40
0.0
 40
0.0
 40
0.0
 40
0.5
 40
0.5
 40
1.0
 40
1.0
 40
1.0
 40
1.0
 10
69.74979053395361
 20
132.6858911607526
 30
0.0
 10
69.77184494159721
 20
132.7004681727043
 30
0.0
 10
69.77752537312278
 20
132.8004633724009
 30
0.0
 10
69.7593181874498
 20
133.1107480914293
 30
0.0
 10
69.7361705933765
 20
133.3143139196717
 30
0.0
 10
69.70282910501794
 20
133.5368697116896
 30
0.0
  0
SPLINE
  5
282
330
1F
100
AcDbEntity
  8
0
  6
Continuous
 62
     7
370
    15
100
AcDbSpline
210
0.0
220
0.0
230
1.0
 70
     8
 71
     3
 72
     8
 73
     4
 74
     0
 42
0.00000001
 43
0.00000001
 12
1.0
 22
0.0
 32
0.0
 13
1.0
 23
0.0
 33
0.0
 40
0.0
 40
0.0
 40
0.0
 40
0.0
 40
1.0
 40
1.0
 40
1.0
 40
1.0
 10
69.70282910501793
 20
133.5368697116896
 30
0.0
 10
69.66211117080192
 20
133.8086635800773
 30
0.0
 10
69.62143180233753
 20
134.0803963602415
 30
0.0
 10
69.58078632121685
 20
134.3520754627893
 30
0.0
  0
ARC
  5
283
330
1F
100
AcDbEntity
  8
0
  6
Continuous
 62
     7
370
    15
100
AcDbCircle
 10
78.8478596053
 20
118.9208942784
 30
0.0
 40
18.0
100
AcDbArc
 50
118.8988292579
 51
120.9865875084
  0
LWPOLYLINE
  5
284
330
1F
100
AcDbEntity
  8
0
  6
Continuous
 62
     7
370
    15
100
AcDbPolyline
 90
        6
 70
   128
 43
0.0
 10
73.7825950735
 20
110.7303819713
 10
73.7190370901
 20
110.8133239578
 10
73.6727627483
 20
110.7927839317
 10
73.6460924368
 20
110.6697918559
 10
73.6403635162
 20
110.4505150664
 10
73.6409619823
 20
110.4237045269
  0
ARC
  5
285
330
1F
100
AcDbEntity
  8
0
  6
Continuous
 62
     7
370
    15
100
AcDbCircle
 10
87.3868518527
 20
111.11347586
 30
0.0
 40
13.75995333186927
100
AcDbArc
 50
185.7879432254
 51
197.9185985926
  0
LINE
  5
286
330
1F
100
AcDbEntity
  8
0
  6
Continuous
 62
     7
370
    15
100
AcDbLine
 10
76.0818676596
 20
106.4121890187
 30
0.0
 11
73.7825950735
 21
110.7303819713
 31
0.0
  0
LINE
  5
287
330
1F
100
AcDbEntity
  8
0
  6
Continuous
 62
     7
370
    15
100
AcDbLine
 10
76.2412603528
 20
97.6036810687
 30
0.0
 11
76.109887921
 21
97.8504075824
 31
0.0
  0
SPLINE
  5
288
330
1F
100
AcDbEntity
  8
0
  6
Continuous
 62
     7
370
    15
100
AcDbSpline
210
0.0
220
0.0
230
1.0
 70
     8
 71
     3
 72
    12
 73
     8
 74
     0
 42
0.00000001
 43
0.00000001
 12
1.0
 22
0.0
 32
0.0
 13
1.0
 23
0.0
 33
0.0
 40
0.0
 40
0.0
 40
0.0
 40
0.0
 40
0.2500000000000007
 40
0.2500000000000007
 40
0.5000000000000014
 40
0.5000000000000014
 40
1.0
 40
1.0
 40
1.0
 40
1.0
 10
68.77486469976772
 20
131.9893591320571
 30
0.0
 10
68.84056537669129
 20
132.0400003199359
 30
0.0
 10
68.90330594431478
 20
132.0875707265732
 30
0.0
 10
69.02224041748096
 20
132.1765618882587
 30
0.0
 10
69.07761786655833
 20
132.2173550457791
 30
0.0
 10
69.22086372564557
 20
132.3218241202522
 30
0.0
 10
69.2874468928397
 20
132.3689015399276
 30
0.0
 10
69.30356730135007
 20
132.3803327664991
 30
0.0
  0
SPLINE
  5
289
330
1F
100
AcDbEntity
  8
0
  6
Continuous
 62
     7
370
    15
100
AcDbSpline
210
0.0
220
0.0
230
1.0
 70
     8
 71
     3
 72
    10
 73
     6
 74
     0
 42
0.00000001
 43
0.00000001
 12
1.0
 22
0.0
 32
0.0
 13
1.0
 23
0.0
 33
0.0
 40
0.0
 40
0.0
 40
0.0
 40
0.0
 40
0.5
 40
0.5
 40
1.0
 40
1.0
 40
1.0
 40
1.0
 10
74.48255763745348
 20
103.0088190293796
 30
0.0
 10
74.46354258423773
 20
103.0140355990553
 30
0.0
 10
74.38707680292728
 20
103.0348703461656
 30
0.0
 10
74.15697462600134
 20
103.1012881614186
 30
0.0
 10
74.0099166309567
 20
103.1452245374947
 30
0.0
 10
73.85201884566793
 20
103.1953871290166
 30
0.0
  0
ELLIPSE
  5
28A
330
1F
100
AcDbEntity
  8
0
  6
Continuous
 62
     7
370
    15
100
AcDbEllipse
 10
68.6733090417
 20
112.2701889754
 30
0.0
 11
-1.786124008288567
 21
2.383476616957935
 31
0.0
210
0.0
220
0.0
230
1.0
 40
0.686264414
 41
0.0
 42
6.283185307179586
  0
ARC
  5
28B
330
1F
100
AcDbEntity
  8
0
  6
Continuous
 62
     7
370
    15
100
AcDbCircle
 10
78.8478596053
 20
118.9208942784
 30
0.0
 40
16.5
100
AcDbArc
 50
127.6245465932
 51
252.3754534068
  0
SPLINE
  5
28C
330
1F
100
AcDbEntity
  8
0
  6
Continuous
 62
     7
370
    15
100
AcDbSpline
210
0.0
220
0.0
230
1.0
 70
     8
 71
     3
 72
    23
 73
    19
 74
     0
 42
0.00000001
 43
0.00000001
 12
1.0
 22
0.0
 32
0.0
 13
1.0
 23
0.0
 33
0.0
 40
0.0
 40
0.0
 40
0.0
 40
0.0
 40
0.1252577739534949
 40
0.2548894194944901
 40
0.2975056452778359
 40
0.3403586477448228
 40
0.371442410460204
 40
0.4030292571199456
 40
0.4230463793442906
 40
0.4436123440449019
 40
0.4636515577366279
 40
0.4842405498882376
 40
0.5293652962300222
 40
0.5757447558090938
 40
0.7144954957900697
 40
0.857039908681372
 40
0.9549087298455097
 40
1.0
 40
1.0
 40
1.0
 40
1.0
 10
66.25327061142467
 20
113.6318975059454
 30
0.0
 10
66.35451174762781
 20
113.6484897916998
 30
0.0
 10
66.56052925553408
 20
113.6822537486228
 30
0.0
 10
66.81873201869045
 20
113.8120518549441
 30
0.0
 10
67.01690586324247
 20
113.925315786469
 30
0.0
 10
67.13053080331412
 20
113.9919287946675
 30
0.0
 10
67.24166443359479
 20
114.0536235744436
 30
0.0
 10
67.33743290403464
 20
114.1005479244575
 30
0.0
 10
67.42882589986124
 20
114.1366614647074
 30
0.0
 10
67.51019674046665
 20
114.1616441910438
 30
0.0
 10
67.59441426640215
 20
114.1799861270872
 30
0.0
 10
67.71151793249969
 20
114.1965623941444
 30
0.0
 10
67.85843372635458
 20
114.2041154723926
 30
0.0
 10
68.1402736781698
 20
114.205622245301
 30
0.0
 10
68.50711997157896
 20
114.2066456466735
 30
0.0
 10
68.88346959328793
 20
114.2644121212888
 30
0.0
 10
69.14010341481186
 20
114.3419712183994
 30
0.0
 10
69.24126712585588
 20
114.4100799488052
 30
0.0
 10
69.27317533312157
 20
114.4315622319674
 30
0.0
  0
LINE
  5
28D
330
1F
100
AcDbEntity
  8
0
  6
Continuous
 62
     7
370
    15
100
AcDbLine
 10
75.2609641659
 20
102.0208942784
 30
0.0
 11
74.3047329287
 21
102.0208942784
 31
0.0
  0
SPLINE
  5
28E
330
1F
100
AcDbEntity
  8
0
  6
Continuous
 62
     7
370
    15
100
AcDbSpline
210
0.0
220
0.0
230
1.0
 70
    24
 71
     3
 72
    12
 73
     8
 74
     0
 42
0.00000001
 43
0.00000001
 12
1.0
 22
0.0
 32
0.0
 13
1.0
 23
0.0
 33
0.0
 40
0.0
 40
0.0
 40
0.0
 40
0.0
 40
0.4999999999999978
 40
0.4999999999999978
 40
0.7499999999999989
 40
0.7499999999999989
 40
1.0
 40
1.0
 40
1.0
 40
1.0
 10
65.97045691690782
 20
130.7708942783588
 30
0.0
 10
66.15298362045553
 20
130.7708942783588
 30
0.0
 10
66.3375742757907
 20
130.7708942783588
 30
0.0
 10
66.59785559796522
 20
130.7708942783588
 30
0.0
 10
66.6824100507763
 20
130.7708942783588
 30
0.0
 10
66.84635800052051
 20
130.7708942783588
 30
0.0
 10
66.92580822456188
 20
130.7708942783588
 30
0.0
 10
66.99785960534022
 20
130.7708942783588
 30
0.0
  0
SPLINE
  5
28F
330
1F
100
AcDbEntity
  8
0
  6
Continuous
 62
     7
370
    15
100
AcDbSpline
210
0.0
220
0.0
230
1.0
 70
    24
 71
     3
 72
    10
 73
     6
 74
     0
 42
0.00000001
 43
0.00000001
 12
1.0
 22
0.0
 32
0.0
 13
1.0
 23
0.0
 33
0.0
 40
0.0
 40
0.0
 40
0.0
 40
0.0
 40
0.5
 40
0.5
 40
1.0
 40
1.0
 40
1.0
 40
1.0
 10
66.99785960533843
 20
131.7982969667895
 30
0.0
 10
66.99785960533843
 20
131.6155882546545
 30
0.0
 10
66.99785960533842
 20
131.4320799648937
 30
0.0
 10
66.99785960533843
 20
131.083775986573
 30
0.0
 10
66.99785960533843
 20
130.9155884040301
 30
0.0
 10
66.99785960533843
 20
130.7708942783574
 30
0.0
  0
LINE
  5
290
330
1F
100
AcDbEntity
  8
0
  6
Continuous
 62
     7
370
    15
100
AcDbLine
 10
83.3478596053
 20
137.7917713115
 30
0.0
 11
83.3478596053
 21
136.3493193363
 31
0.0
  0
ARC
  5
291
330
1F
100
AcDbEntity
  8
0
  6
Continuous
 62
     7
370
    15
100
AcDbCircle
 10
78.8478596053
 20
118.9208942784
 30
0.0
 40
20.00000000000003
100
AcDbArc
 50
334.1580672368
 51
76.9971218371
  0
SPLINE
  5
292
330
1F
100
AcDbEntity
  8
0
  6
Continuous
 62
     7
370
    15
100
AcDbSpline
210
0.0
220
0.0
230
1.0
 70
    24
 71
     3
 72
    10
 73
     6
 74
     0
 42
0.00000001
 43
0.00000001
 12
1.0
 22
0.0
 32
0.0
 13
1.0
 23
0.0
 33
0.0
 40
0.0
 40
0.0
 40
0.0
 40
0.0
 40
0.5
 40
0.5
 40
1.0
 40
1.0
 40
1.0
 40
1.0
 10
83.34785960533844
 20
138.4080695482639
 30
0.0
 10
83.34785960533844
 20
138.4080695482639
 30
0.0
 10
83.34785960533844
 20
138.3394841457581
 30
0.0
 10
83.34785960533844
 20
138.1097108764384
 30
0.0
 10
83.34785960533844
 20
137.9512126747708
 30
0.0
 10
83.34785960533844
 20
137.7917713115017
 30
0.0
  0
LINE
  5
293
330
1F
100
AcDbEntity
  8
0
  6
Continuous
 62
     7
370
    15
100
AcDbLine
 10
74.3478596053
 20
136.3493193363
 30
0.0
 11
74.3478596053
 21
137.7917713115
 31
0.0
  0
LINE
  5
294
330
1F
100
AcDbEntity
  8
0
  6
Continuous
 62
     7
370
    15
100
AcDbLine
 10
66.9978596053
 20
134.2811514377
 30
0.0
 11
66.9978596053
 21
131.7982969668
 31
0.0
  0
LINE
  5
295
330
1F
100
AcDbEntity
  8
0
  6
Continuous
 62
     7
370
    15
100
AcDbLine
 10
73.3478596053
 20
102.0208942784
 30
0.0
 11
73.3478596053
 21
100.3168624573
 31
0.0
  0
LINE
  5
296
330
1F
100
AcDbEntity
  8
0
  6
Continuous
 62
     7
370
    15
100
AcDbLine
 10
74.3047329287
 20
102.0208942784
 30
0.0
 11
73.3478596053
 21
102.0208942784
 31
0.0
  0
LINE
  5
297
330
1F
100
AcDbEntity
  8
0
  6
Continuous
 62
     7
370
    15
100
AcDbLine
 10
63.487602446
 20
130.7708942784
 30
0.0
 11
65.9704569169
 21
130.7708942784
 31
0.0
  0
ARC
  5
298
330
1F
100
AcDbEntity
  8
0
  6
Continuous
 62
     7
370
    15
100
AcDbCircle
 10
78.8478596053
 20
118.9208942784
 30
0.0
 40
20.00000000000003
100
AcDbArc
 50
103.0028781629
 51
126.3346172154
  0
SPLINE
  5
299
330
1F
100
AcDbEntity
  8
0
  6
Continuous
 62
     7
370
    15
100
AcDbSpline
210
0.0
220
0.0
230
1.0
 70
    24
 71
     3
 72
    10
 73
     6
 74
     0
 42
0.00000001
 43
0.00000001
 12
1.0
 22
0.0
 32
0.0
 13
1.0
 23
0.0
 33
0.0
 40
0.0
 40
0.0
 40
0.0
 40
0.0
 40
0.5
 40
0.5
 40
1.0
 40
1.0
 40
1.0
 40
1.0
 10
74.34785960533843
 20
137.7917713115017
 30
0.0
 10
74.34785960533843
 20
137.9502057543896
 30
0.0
 10
74.34785960533843
 20
138.1092264491915
 30
0.0
 10
74.34785960533843
 20
138.3392342734472
 30
0.0
 10
74.34785960533843
 20
138.408069548264
 30
0.0
 10
74.34785960533843
 20
138.408069548264
 30
0.0
  0
SPLINE
  5
29A
330
1F
100
AcDbEntity
  8
0
  6
Continuous
 62
     7
370
    15
100
AcDbSpline
210
0.0
220
0.0
230
1.0
 70
    24
 71
     3
 72
    12
 73
     8
 74
     0
 42
0.00000001
 43
0.00000001
 12
1.0
 22
0.0
 32
0.0
 13
1.0
 23
0.0
 33
0.0
 40
0.0
 40
0.0
 40
0.0
 40
0.0
 40
0.25
 40
0.25
 40
0.5
 40
0.5
 40
1.0
 40
1.0
 40
1.0
 40
1.0
 10
66.99785960533843
 20
135.0323032794363
 30
0.0
 10
66.99785960533843
 20
135.0323032794363
 30
0.0
 10
66.99785960533842
 20
135.0066786468315
 30
0.0
 10
66.99785960533843
 20
134.9181352738998
 30
0.0
 10
66.99785960533843
 20
134.8552527907851
 30
0.0
 10
66.99785960533843
 20
134.6378916028515
 30
0.0
 10
66.99785960533843
 20
134.4592445928402
 30
0.0
 10
66.99785960533843
 20
134.2811514376645
 30
0.0
  0
ARC
  5
29B
330
1F
100
AcDbEntity
  8
0
  6
Continuous
 62
     7
370
    15
100
AcDbCircle
 10
78.8478596053
 20
118.9208942784
 30
0.0
 40
20.00000000000001
100
AcDbArc
 50
143.6653827846
 51
254.0379858372
  0
SPLINE
  5
29C
330
1F
100
AcDbEntity
  8
0
  6
Continuous
 62
     7
370
    15
100
AcDbSpline
210
0.0
220
0.0
230
1.0
 70
    24
 71
     3
 72
    10
 73
     6
 74
     0
 42
0.00000001
 43
0.00000001
 12
1.0
 22
0.0
 32
0.0
 13
1.0
 23
0.0
 33
0.0
 40
0.0
 40
0.0
 40
0.0
 40
0.0
 40
0.5
 40
0.5
 40
1.0
 40
1.0
 40
1.0
 40
1.0
 10
73.34785960533843
 20
100.3168624572723
 30
0.0
 10
73.34785960533843
 20
100.1572302883691
 30
0.0
 10
73.34785960533843
 20
99.99618065460503
 30
0.0
 10
73.34785960533843
 20
99.76318977092843
 30
0.0
 10
73.34785960533843
 20
99.69200975532944
 30
0.0
 10
73.34785960533843
 20
99.69200975532944
 30
0.0
  0
SPLINE
  5
29D
330
1F
100
AcDbEntity
  8
0
  6
Continuous
 62
     7
370
    15
100
AcDbSpline
210
0.0
220
0.0
230
1.0
 70
    24
 71
     3
 72
    12
 73
     8
 74
     0
 42
0.00000001
 43
0.00000001
 12
1.0
 22
0.0
 32
0.0
 13
1.0
 23
0.0
 33
0.0
 40
0.0
 40
0.0
 40
0.0
 40
0.0
 40
0.2499999999999966
 40
0.2499999999999966
 40
0.4999999999999931
 40
0.4999999999999931
 40
1.0
 40
1.0
 40
1.0
 40
1.0
 10
62.73645060426097
 20
130.7708942783588
 30
0.0
 10
62.73645060426097
 20
130.7708942783588
 30
0.0
 10
62.76173075442544
 20
130.7708942783588
 30
0.0
 10
62.85134209992719
 20
130.7708942783588
 30
0.0
 10
62.9143277368532
 20
130.7708942783588
 30
0.0
 10
63.13061445861076
 20
130.7708942783588
 30
0.0
 10
63.31059421603113
 20
130.7708942783588
 30
0.0
 10
63.48760244603284
 20
130.7708942783588
 30
0.0
  0
SPLINE
  5
29E
330
1F
100
AcDbEntity
  8
0
  6
Continuous
 62
     7
370
    15
100
AcDbSpline
210
0.0
220
0.0
230
1.0
 70
     8
 71
     3
 72
    38
 73
    34
 74
     0
 42
0.00000001
 43
0.00000001
 12
1.0
 22
0.0
 32
0.0
 13
1.0
 23
0.0
 33
0.0
 40
0.0
 40
0.0
 40
0.0
 40
0.0
 40
0.0625
 40
0.0625
 40
0.1250000000000001
 40
0.1250000000000001
 40
0.1875000000000001
 40
0.1875000000000001
 40
0.2500000000000002
 40
0.2500000000000002
 40
0.3125000000000002
 40
0.3125000000000002
 40
0.3750000000000002
 40
0.3750000000000002
 40
0.4375000000000003
 40
0.4375000000000003
 40
0.5000000000000003
 40
0.5000000000000003
 40
0.5625000000000003
 40
0.5625000000000003
 40
0.6250000000000004
 40
0.6250000000000004
 40
0.6875000000000003
 40
0.6875000000000003
 40
0.7500000000000002
 40
0.7500000000000002
 40
0.8125000000000002
 40
0.8125000000000002
 40
0.8750000000000001
 40
0.8750000000000001
 40
0.9375000000000001
 40
0.9375000000000001
 40
1.0
 40
1.0
 40
1.0
 40
1.0
 10
74.34785960533843
 20
138.4080695482639
 30
0.0
 10
74.34785960533843
 20
138.4080695482639
 30
0.0
 10
74.37722002790994
 20
138.4149151155201
 30
0.0
 10
74.49207361841725
 20
138.4408992749537
 30
0.0
 10
74.57902570116177
 20
138.4603521937766
 30
0.0
 10
74.80513858504641
 20
138.508384298316
 30
0.0
 10
74.94336390952012
 20
138.5367683152952
 30
0.0
 10
75.26976874475737
 20
138.5989243287741
 30
0.0
 10
75.45909051908265
 20
138.6328225044509
 30
0.0
 10
75.87265957259936
 20
138.6994699367766
 30
0.0
 10
76.09850566252307
 20
138.7325673541895
 30
0.0
 10
76.5899361514858
 20
138.7945733248518
 30
0.0
 10
76.8502936066361
 20
138.8227392940995
 30
0.0
 10
77.39123841819428
 20
138.8696275631289
 30
0.0
 10
77.67578226010659
 20
138.8886395504489
 30
0.0
 10
78.25699543473394
 20
138.9142805869904
 30
0.0
 10
78.54955704259493
 20
138.9208377031958
 30
0.0
 10
79.13852703320465
 20
138.9209501248308
 30
0.0
 10
79.43775816654893
 20
138.9142846015988
 30
0.0
 10
80.0156005080091
 20
138.8888690908974
 30
0.0
 10
80.29657074115006
 20
138.8702381974957
 30
0.0
 10
80.84257554074837
 20
138.8230598664562
 30
0.0
 10
81.10458784047177
 20
138.7946782132027
 30
0.0
 10
81.59108967866432
 20
138.733385262102
 30
0.0
 10
81.81945926989732
 20
138.7000336788402
 30
0.0
 10
82.23720596878734
 20
138.6327458204808
 30
0.0
 10
82.42275760975748
 20
138.5995025243313
 30
0.0
 10
82.7486843212455
 20
138.5374965523569
 30
0.0
 10
82.89010620265607
 20
138.5084814948862
 30
0.0
 10
83.11598334885987
 20
138.4605066140369
 30
0.0
 10
83.20162411731744
 20
138.4413523766964
 30
0.0
 10
83.3178490005034
 20
138.4150663459752
 30
0.0
 10
83.34785960533843
 20
138.4080695482639
 30
0.0
 10
83.34785960533843
 20
138.4080695482639
 30
0.0
  0
SPLINE
  5
29F
330
1F
100
AcDbEntity
  8
0
  6
Continuous
 62
     7
370
    15
100
AcDbSpline
210
0.0
220
0.0
230
1.0
 70
     8
 71
     3
 72
    14
 73
    10
 74
     0
 42
0.00000001
 43
0.00000001
 12
1.0
 22
0.0
 32
0.0
 13
1.0
 23
0.0
 33
0.0
 40
0.0
 40
0.0
 40
0.0
 40
0.0
 40
0.1456394863286558
 40
0.2956023489317982
 40
0.4412149087678584
 40
0.5908719021505744
 40
0.7398802576418311
 40
0.8930172740161669
 40
1.0
 40
1.0
 40
1.0
 40
1.0
 10
73.34785960533843
 20
99.69200975532944
 30
0.0
 10
73.35934873239863
 20
99.68870561559285
 30
0.0
 10
73.38266804662986
 20
99.68199925118611
 30
0.0
 10
73.569776610902
 20
99.62936375106757
 30
0.0
 10
73.86465059302144
 20
99.55061038895755
 30
0.0
 10
74.26613612124596
 20
99.45074032712485
 30
0.0
 10
74.77278186212459
 20
99.33836070996854
 30
0.0
 10
75.30128752445749
 20
99.23338314984976
 30
0.0
 10
75.68660590411544
 20
99.17429244181804
 30
0.0
 10
75.84508065214408
 20
99.14998946132053
 30
0.0
  0
SPLINE
  5
2A0
330
1F
100
AcDbEntity
  8
0
  6
Continuous
 62
     7
370
    15
100
AcDbSpline
210
0.0
220
0.0
230
1.0
 70
     8
 71
     3
 72
    22
 73
    18
 74
     0
 42
0.00000001
 43
0.00000001
 12
1.0
 22
0.0
 32
0.0
 13
1.0
 23
0.0
 33
0.0
 40
0.0
 40
0.0
 40
0.0
 40
0.0
 40
0.2500000000000003
 40
0.2500000000000003
 40
0.3750000000000003
 40
0.3750000000000003
 40
0.5000000000000003
 40
0.5000000000000003
 40
0.6250000000000003
 40
0.6250000000000003
 40
0.7500000000000004
 40
0.7500000000000004
 40
0.8750000000000004
 40
0.8750000000000004
 40
0.9375000000000002
 40
0.9375000000000002
 40
1.0
 40
1.0
 40
1.0
 40
1.0
 10
62.73645060426097
 20
130.7708942783588
 30
0.0
 10
63.15044548242746
 20
131.3337669202569
 30
0.0
 10
63.58625528373639
 20
131.8643918039864
 30
0.0
 10
64.26299608672072
 20
132.610102794908
 30
0.0
 10
64.49385121389541
 20
132.8517230213067
 30
0.0
 10
64.95388826905753
 20
133.3105817966326
 30
0.0
 10
65.17985594583604
 20
133.5247604691024
 30
0.0
 10
65.61704753433675
 20
133.921989028248
 30
0.0
 10
65.83010025862932
 20
134.1064338632678
 30
0.0
 10
66.21427639786286
 20
134.4275137111514
 30
0.0
 10
66.38839340665433
 20
134.5668645412574
 30
0.0
 10
66.68191115145486
 20
134.796170075683
 30
0.0
 10
66.79670345605227
 20
134.8827060851593
 30
0.0
 10
66.91565803214824
 20
134.9715956894906
 30
0.0
 10
66.94647611513483
 20
134.9944041953522
 30
0.0
 10
66.98749532685343
 20
135.0246953580484
 30
0.0
 10
66.99785960533843
 20
135.0323032794363
 30
0.0
 10
66.99785960533843
 20
135.0323032794363
 30
0.0
  0
LINE
  5
2A1
330
1F
100
AcDbEntity
  8
0
  6
Continuous
 62
     7
370
    15
100
AcDbLine
 10
81.9973618457
 20
107.4552502479
 30
0.0
 11
81.9926474754
 21
107.4644319764
 31
0.0
  0
LINE
  5
2A2
330
1F
100
AcDbEntity
  8
0
  6
Continuous
 62
     7
370
    15
100
AcDbLine
 10
84.7379254073
 20
94.6113345313
 30
0.0
 11
82.1735022118
 21
106.829773846
 31
0.0
  0
ARC
  5
2A3
330
1F
100
AcDbEntity
  8
0
  6
Continuous
 62
     7
370
    15
100
AcDbCircle
 10
83.924030484
 20
94.0998771281
 30
0.0
 40
3.77201181452271
100
AcDbArc
 50
355.6738360677
 51
15.512582509
  0
LINE
  5
2A4
330
1F
100
AcDbEntity
  8
0
  6
Continuous
 62
     7
370
    15
100
AcDbLine
 10
87.5586344818
 20
95.1087016459
 30
0.0
 11
84.9942112863
 21
107.3271409606
 31
0.0
  0
ARC
  5
2A5
330
1F
100
AcDbEntity
  8
0
  6
Continuous
 62
     7
370
    15
100
AcDbCircle
 10
85.6086928957
 20
94.3760762421
 30
0.0
 40
2.334546182735434
100
AcDbArc
 50
354.8801784655
 51
17.2391548901
  0
LINE
  5
2A6
330
1F
100
AcDbEntity
  8
0
  6
Continuous
 62
     7
370
    15
100
AcDbLine
 10
85.2739388646
 20
107.2863835329
 30
0.0
 11
87.8383620602
 21
95.0679442182
 31
0.0
  0
ARC
  5
2A7
330
1F
100
AcDbEntity
  8
0
  6
Continuous
 62
     7
370
    15
100
AcDbCircle
 10
81.8047610106
 20
106.7664997291
 30
0.0
 40
3.238350143457878
100
AcDbArc
 50
9.9695965912
 51
21.4858970917
  0
ARC
  5
2A8
330
1F
100
AcDbEntity
  8
0
  6
Continuous
 62
     7
370
    15
100
AcDbCircle
 10
83.1238488529
 20
106.9138535541
 30
0.0
 40
2.182124112760074
100
AcDbArc
 50
9.829624053
 51
21.981667198
  0
LINE
  5
2A9
330
1F
100
AcDbEntity
  8
0
  6
Continuous
 62
     7
370
    15
100
AcDbLine
 10
85.0110317569
 20
107.9866415642
 30
0.0
 11
85.1473405492
 21
107.7306442241
 31
0.0
  0
LWPOLYLINE
  5
2AA
330
1F
100
AcDbEntity
  8
0
  6
Continuous
 62
     7
370
    15
100
AcDbPolyline
 90
       37
 70
   128
 43
0.0
 10
73.827409854
 20
112.103546115
 10
73.7242477241
 20
112.3591838333
 10
73.6109714949
 20
112.7053741203
 10
73.4910230074
 20
113.1315981592
 10
73.3680468355
 20
113.6249053482
 10
73.2457795481
 20
114.1703067982
 10
73.1279361749
 20
114.7512307619
 10
73.018097327
 20
115.3500261588
 10
72.9196004023
 20
115.9484988937
 10
72.8354381801
 20
116.5284646753
 10
72.7681678867
 20
117.0723015369
 10
72.7198334962
 20
117.5634852707
 10
72.6919036244
 20
117.9870915075
 10
72.6852269064
 20
118.330249186
 10
72.7000062109
 20
118.5825316339
 10
72.7357924762
 20
118.7362733767
 10
72.7914983548
 20
118.7868030492
 10
72.8654312516
 20
118.7325853331
 10
72.9553447531
 20
118.575267606
 10
73.058506883
 20
118.3196298877
 10
73.1717831122
 20
117.9734396007
 10
73.2917315997
 20
117.5472155619
 10
73.4147077716
 20
117.0539083728
 10
73.536975059
 20
116.5085069228
 10
73.6548184322
 20
115.9275829591
 10
73.7646572801
 20
115.3287875622
 10
73.8631542048
 20
114.7303148274
 10
73.9473164271
 20
114.1503490457
 10
74.0145867204
 20
113.6065121841
 10
74.0629211109
 20
113.1153284503
 10
74.0908509827
 20
112.6917222136
 10
74.0975277007
 20
112.348564535
 10
74.0827483962
 20
112.0962820871
 10
74.0469621309
 20
111.9425403444
 10
73.9912562523
 20
111.8920106718
 10
73.9173233555
 20
111.946228388
 10
73.827409854
 20
112.103546115
  0
LWPOLYLINE
  5
2AB
330
1F
100
AcDbEntity
  8
0
  6
Continuous
 62
     7
370
    15
100
AcDbPolyline
 90
       28
 70
   128
 43
0.0
 10
73.640538761
 20
113.4903435774
 10
73.5605606473
 20
113.6968799479
 10
73.4714618158
 20
113.9919653695
 10
73.3780456075
 20
114.3596917106
 10
73.2853481144
 20
114.7802347491
 10
73.1983666824
 20
115.2309229008
 10
73.1217905029
 20
115.6874594509
 10
73.0597478175
 20
116.1252323957
 10
73.0155833637
 20
116.5206412825
 10
72.9916780583
 20
116.8523695159
 10
72.9893206428
 20
117.1025335409
 10
73.0086382059
 20
117.2576469502
 10
73.0485893328
 20
117.3093475398
 10
73.107020248
 20
117.2548481174
 10
73.1807809256
 20
117.0970867611
 10
73.2658949085
 20
116.8445684264
 10
73.3577736798
 20
116.510906442
 10
73.4514640311
 20
116.114088612
 10
73.5419150914
 20
115.6755074883
 10
73.6242506206
 20
115.2188070927
 10
73.694031889
 20
114.7686082618
 10
73.7474969703
 20
114.3491813311
 10
73.7817635483
 20
113.983137715
 10
73.7949843027
 20
113.6902109196
 10
73.7864464993
 20
113.4861927043
 10
73.7566104134
 20
113.3820817438
 10
73.7070845159
 20
113.383490687
 10
73.640538761
 20
113.4903435774
  0
LINE
  5
2AC
330
1F
100
AcDbEntity
  8
0
  6
Continuous
 62
     7
370
    15
100
AcDbLine
 10
73.4498740261
 20
116.1115597088
 30
0.0
 11
73.3786916754
 21
115.9741118732
 31
0.0
  0
LINE
  5
2AD
330
1F
100
AcDbEntity
  8
0
  6
Continuous
 62
     7
370
    15
100
AcDbLine
 10
73.3786916754
 20
115.9741118732
 30
0.0
 11
73.5222337381
 21
115.7562591321
 31
0.0
  0
LINE
  5
2AE
330
1F
100
AcDbEntity
  8
0
  6
Continuous
 62
     7
370
    15
100
AcDbLine
 10
73.7366212295
 20
114.430171663
 30
0.0
 11
73.7031220268
 21
114.2930989039
 31
0.0
  0
LINE
  5
2AF
330
1F
100
AcDbEntity
  8
0
  6
Continuous
 62
     7
370
    15
100
AcDbLine
 10
73.7526883513
 20
114.3018387842
 30
0.0
 11
73.7031220268
 21
114.2930989039
 31
0.0
  0
LINE
  5
2B0
330
1F
100
AcDbEntity
  8
0
  6
Continuous
 62
     7
370
    15
100
AcDbLine
 10
73.4779468749
 20
115.9916132428
 30
0.0
 11
73.3786916754
 21
115.9741118732
 31
0.0
  0
ELLIPSE
  5
2B1
330
1F
100
AcDbEntity
  8
0
  6
Continuous
 62
     7
370
    15
100
AcDbEllipse
 10
76.3909259864
 20
101.8371124039
 30
0.0
 11
-0.4087880550088698
 21
2.316979695793151
 31
0.0
210
0.0
220
0.0
230
1.0
 40
0.104426044
 41
1.743310430552216
 42
2.77589212456718
  0
LINE
  5
2B2
330
1F
100
AcDbEntity
  8
0
  6
Continuous
 62
     7
370
    15
100
AcDbLine
 10
73.6603156817
 20
109.9008385322
 30
0.0
 11
76.5123377403
 21
96.3121069579
 31
0.0
  0
LWPOLYLINE
  5
2B3
330
1F
100
AcDbEntity
  8
0
  6
Continuous
 62
     7
370
    15
100
AcDbPolyline
 90
        9
 70
   128
 43
0.0
 10
73.6255638767
 20
110.40154579
 10
73.6112642056
 20
110.4181753905
 10
73.6019790524
 20
110.4056908518
 10
73.5983946801
 20
110.3650149027
 10
73.6007760087
 20
110.2991538914
 10
73.6089470349
 20
110.2129755872
 10
73.6223038404
 20
110.1128494052
 10
73.6398592272
 20
110.006175644
 10
73.6603156817
 20
109.9008385322
  0
LINE
  5
2B4
330
1F
100
AcDbEntity
  8
0
  6
Continuous
 62
     7
370
    15
100
AcDbLine
 10
75.820569107
 20
106.2791741436
 30
0.0
 11
73.6255638767
 21
110.40154579
 31
0.0
  0
ARC
  5
2B5
330
1F
100
AcDbEntity
  8
0
  6
Continuous
 62
     7
370
    15
100
AcDbCircle
 10
74.6642881377
 20
105.8124366179
 30
0.0
 40
1.246928064434159
100
AcDbArc
 50
9.829624053
 51
21.981667198
  0
LINE
  5
2B6
330
1F
100
AcDbEntity
  8
0
  6
Continuous
 62
     7
370
    15
100
AcDbLine
 10
78.7449330601
 20
92.4365793171
 30
0.0
 11
75.8929110015
 21
106.0253108914
 31
0.0
  0
LWPOLYLINE
  5
2B7
330
1F
100
AcDbEntity
  8
0
  6
Continuous
 62
     7
370
    15
100
AcDbPolyline
 90
        9
 70
   128
 43
0.0
 10
78.7796848651
 20
91.9358720593
 10
78.7939845362
 20
91.9192424588
 10
78.8032696894
 20
91.9317269975
 10
78.8068540617
 20
91.9724029467
 10
78.8044727331
 20
92.038263958
 10
78.7963017069
 20
92.1244422621
 10
78.7829449014
 20
92.2245684441
 10
78.7653895146
 20
92.3312422053
 10
78.7449330601
 20
92.4365793171
  0
LINE
  5
2B8
330
1F
100
AcDbEntity
  8
0
  6
Continuous
 62
     7
370
    15
100
AcDbLine
 10
76.5846796348
 20
96.0582437057
 30
0.0
 11
78.7796848651
 21
91.9358720593
 31
0.0
  0
ARC
  5
2B9
330
1F
100
AcDbEntity
  8
0
  6
Continuous
 62
     7
370
    15
100
AcDbCircle
 10
77.7409606041
 20
96.5249812315
 30
0.0
 40
1.246928064432842
100
AcDbArc
 50
189.829624053
 51
201.981667198
  0
LWPOLYLINE
  5
2BA
330
1F
100
AcDbEntity
  8
0
  6
Continuous
 62
     7
370
    15
100
AcDbPolyline
 90
        9
 70
   128
 43
0.0
 10
78.7770075225
 20
91.954736322
 10
78.79059221
 20
91.9389382015
 10
78.7994131055
 20
91.9507985133
 10
78.8028182592
 20
91.989440665
 10
78.800555997
 20
92.0520086258
 10
78.7927935221
 20
92.1338780147
 10
78.780104557
 20
92.2289978876
 10
78.7634269394
 20
92.3303379607
 10
78.7439933077
 20
92.430408217
  0
LINE
  5
2BB
330
1F
100
AcDbEntity
  8
0
  6
Continuous
 62
     7
370
    15
100
AcDbLine
 10
78.7439933077
 20
92.430408217
 30
0.0
 11
75.8919712493
 21
106.0191397912
 31
0.0
  0
ARC
  5
2BC
330
1F
100
AcDbEntity
  8
0
  6
Continuous
 62
     7
370
    15
100
AcDbCircle
 10
74.7247795372
 20
105.8169092332
 30
0.0
 40
1.18458165247248
100
AcDbArc
 50
9.8296240353
 51
21.9816672752
  0
LINE
  5
2BD
330
1F
100
AcDbEntity
  8
0
  6
Continuous
 62
     7
370
    15
100
AcDbLine
 10
75.8232464493
 20
106.2603098808
 30
0.0
 11
73.628241219
 21
110.3826815272
 31
0.0
  0
LWPOLYLINE
  5
2BE
330
1F
100
AcDbEntity
  8
0
  6
Continuous
 62
     7
370
    15
100
AcDbPolyline
 90
        9
 70
   128
 43
0.0
 10
73.628241219
 20
110.3826815272
 10
73.6146565315
 20
110.3984796477
 10
73.6058356359
 20
110.3866193359
 10
73.6024304823
 20
110.3479771842
 10
73.6046927444
 20
110.2854092235
 10
73.6124552193
 20
110.2035398346
 10
73.6251441845
 20
110.1084199617
 10
73.641821802
 20
110.0070798885
 10
73.6612554337
 20
109.9070096323
  0
LINE
  5
2BF
330
1F
100
AcDbEntity
  8
0
  6
Continuous
 62
     7
370
    15
100
AcDbLine
 10
73.6612554337
 20
109.9070096323
 30
0.0
 11
76.5132774923
 21
96.318278058
 31
0.0
  0
ARC
  5
2C0
330
1F
100
AcDbEntity
  8
0
  6
Continuous
 62
     7
370
    15
100
AcDbCircle
 10
77.680469213
 20
96.5205086179
 30
0.0
 40
1.184581661210829
100
AcDbArc
 50
189.829624053
 51
201.981667198
  0
LINE
  5
2C1
330
1F
100
AcDbEntity
  8
0
  6
Continuous
 62
     7
370
    15
100
AcDbLine
 10
76.5820022921
 20
96.0771079685
 30
0.0
 11
78.7770075225
 21
91.954736322
 31
0.0
  0
LINE
  5
2C2
330
1F
100
AcDbEntity
  8
0
  6
Continuous
 62
     7
370
    15
100
AcDbLine
 10
84.9642048043
 20
93.533204726
 30
0.0
 11
82.1121827457
 21
107.1219363003
 31
0.0
  0
ARC
  5
2C3
330
1F
100
AcDbEntity
  8
0
  6
Continuous
 62
     7
370
    15
100
AcDbCircle
 10
83.5103632052
 20
93.1296749189
 30
0.0
 40
1.508804725808603
100
AcDbArc
 50
355.6738360677
 51
15.512582509
  0
LINE
  5
2C4
330
1F
100
AcDbEntity
  8
0
  6
Continuous
 62
     7
370
    15
100
AcDbLine
 10
78.8024564049
 20
92.0162314947
 30
0.0
 11
78.7770075225
 21
91.954736322
 31
0.0
  0
LINE
  5
2C5
330
1F
100
AcDbEntity
  8
0
  6
Continuous
 62
     7
370
    15
100
AcDbLine
 10
76.7460092135
 20
96.4734174726
 30
0.0
 11
76.5820022921
 21
96.0771079685
 31
0.0
  0
LINE
  5
2C6
330
1F
100
AcDbEntity
  8
0
  6
Continuous
 62
     7
370
    15
100
AcDbLine
 10
76.9330094952
 20
96.8014949998
 30
0.0
 11
76.7460092135
 21
96.4734174726
 31
0.0
  0
LINE
  5
2C7
330
1F
100
AcDbEntity
  8
0
  6
Continuous
 62
     7
370
    15
100
AcDbLine
 10
77.6619313837
 20
96.5211316859
 30
0.0
 11
76.0657576937
 21
104.1262537267
 31
0.0
  0
LINE
  5
2C8
330
1F
100
AcDbEntity
  8
0
  6
Continuous
 62
     7
370
    15
100
AcDbLine
 10
74.7433173578
 20
105.8162861633
 30
0.0
 11
76.3394910477
 21
98.2111641226
 31
0.0
  0
LWPOLYLINE
  5
2C9
330
1F
100
AcDbEntity
  8
0
  6
Continuous
 62
     7
370
    15
100
AcDbPolyline
 90
        9
 70
   128
 43
0.0
 10
74.6564378453
 20
107.0680543079
 10
74.6206886677
 20
107.1096283093
 10
74.5974757846
 20
107.0784169624
 10
74.5885148539
 20
106.9767270895
 10
74.5944681755
 20
106.8120745613
 10
74.6148957409
 20
106.596628801
 10
74.6482877546
 20
106.3463133459
 10
74.6921762217
 20
106.0796289429
 10
74.7433173578
 20
105.8162861633
  0
LINE
  5
2CA
330
1F
100
AcDbEntity
  8
0
  6
Continuous
 62
     7
370
    15
100
AcDbLine
 10
75.8849029574
 20
104.7609118571
 30
0.0
 11
74.6564378453
 21
107.0680543079
 31
0.0
  0
ARC
  5
2CB
330
1F
100
AcDbEntity
  8
0
  6
Continuous
 62
     7
370
    15
100
AcDbCircle
 10
72.9942005341
 20
103.5940680427
 30
0.0
 40
3.117320161085892
100
AcDbArc
 50
9.829624053
 51
21.981667198
  0
LWPOLYLINE
  5
2CC
330
1F
100
AcDbEntity
  8
0
  6
Continuous
 62
     7
370
    15
100
AcDbPolyline
 90
        9
 70
   128
 43
0.0
 10
77.7488108964
 20
95.2693635411
 10
77.784560074
 20
95.2277895398
 10
77.807772957
 20
95.2590008866
 10
77.8167338877
 20
95.3606907595
 10
77.8107805661
 20
95.5253432878
 10
77.7903530006
 20
95.7407890481
 10
77.7569609869
 20
95.9911045033
 10
77.7130725197
 20
96.2577889063
 10
77.6619313837
 20
96.5211316859
  0
LINE
  5
2CD
330
1F
100
AcDbEntity
  8
0
  6
Continuous
 62
     7
370
    15
100
AcDbLine
 10
76.5203457841
 20
97.5765059922
 30
0.0
 11
77.7488108964
 21
95.2693635411
 31
0.0
  0
ARC
  5
2CE
330
1F
100
AcDbEntity
  8
0
  6
Continuous
 62
     7
370
    15
100
AcDbCircle
 10
79.4110482073
 20
98.7433498065
 30
0.0
 40
3.117320161087707
100
AcDbArc
 50
189.829624053
 51
201.9816671979
  0
LWPOLYLINE
  5
2CF
330
1F
100
AcDbEntity
  8
0
  6
Continuous
 62
     7
370
    15
100
AcDbPolyline
 90
       32
 70
   128
 43
0.0
 10
76.5480015519
 20
98.73521903
 10
76.619403423
 20
98.6376573139
 10
76.6737423106
 20
98.6437171482
 10
76.7087935745
 20
98.7531504425
 10
76.7231222117
 20
98.9614769849
 10
76.7161416061
 20
99.2601678622
 10
76.6881375446
 20
99.6369946349
 10
76.6402565167
 20
100.0765299705
 10
76.5744587773
 20
100.5607792409
 10
76.4934380937
 20
101.0699172239
 10
76.400511462
 20
101.5830997508
 10
76.2994833097
 20
102.0793170686
 10
76.1944897409
 20
102.5382539819
 10
76.0898292049
 20
102.9411215598
 10
75.9897865163
 20
103.271426356
 10
75.8984574344
 20
103.5156456536
 10
75.8195809826
 20
103.6637810858
 10
75.7563863721
 20
103.7097679705
 10
75.7114607978
 20
103.6517235993
 10
75.6866435178
 20
103.4920243156
 10
75.6829505546
 20
103.2372082268
 10
75.7005330985
 20
102.8977075335
 10
75.7386713181
 20
102.4874214341
 10
75.7958038302
 20
102.0231470895
 10
75.869591623
 20
101.5238919461
 10
75.9570138156
 20
101.0100955681
 10
76.0544913332
 20
100.5027928395
 10
76.1580334348
 20
100.0227527937
 10
76.2634010946
 20
99.5896283266
 10
76.3662805481
 20
99.2211516046
 10
76.4624598986
 20
98.9324081082
 10
76.5480015519
 20
98.73521903
  0
LWPOLYLINE
  5
2D0
330
1F
100
AcDbEntity
  8
0
  6
Continuous
 62
     7
370
    15
100
AcDbPolyline
 90
        3
 70
   128
 43
0.0
 10
78.2743628315
 20
94.6152601823
 10
78.2540338499
 20
94.6506199898
 10
78.2033763129
 20
94.7210842986
  0
ARC
  5
2D1
330
1F
100
AcDbEntity
  8
0
  6
Continuous
 62
     7
370
    15
100
AcDbCircle
 10
80.8835598819
 20
106.9090620267
 30
0.0
 40
1.246928064431038
100
AcDbArc
 50
9.829624053
 51
21.981667198
  0
LINE
  5
2D2
330
1F
100
AcDbEntity
  8
0
  6
Continuous
 62
     7
370
    15
100
AcDbLine
 10
82.0398408512
 20
107.3757995524
 30
0.0
 11
81.9975214133
 21
107.455278384
 31
0.0
  0
LINE
  5
2D3
330
1F
100
AcDbEntity
  8
0
  6
Continuous
 62
     7
370
    15
100
AcDbLine
 10
76.7460092135
 20
96.4734174726
 30
0.0
 11
76.5132774923
 21
96.318278058
 31
0.0
  0
LINE
  5
2D4
330
1F
100
AcDbEntity
  8
0
  6
Continuous
 62
     7
370
    15
100
AcDbLine
 10
73.8238182563
 20
110.0153743236
 30
0.0
 11
73.6612554337
 21
109.9070096323
 31
0.0
  0
LINE
  5
2D5
330
1F
100
AcDbEntity
  8
VERMASSUNG
  6
CENTERX2
100
AcDbLine
 10
78.7028329393
 20
92.0802052917
 30
0.0
 11
68.7272992791
 21
148.6542679796
 31
0.0
  0
CIRCLE
  5
2D6
330
1F
100
AcDbEntity
  8
VERMASSUNG
  6
CENTERX2
100
AcDbCircle
 10
78.8478596053
 20
117.0797846335
 30
0.0
 40
25.0
  0
DIMENSION
  5
2D7
330
1F
100
AcDbEntity
  8
VERMASSUNG
100
AcDbDimension
  2
_D_5
 10
68.7272992791
 20
148.6542679796
 30
0.0
 11
73.8308069421
 21
148.6028925441
 31
0.0
 70
   162
  1
<>
 71
     1
 42
-1.0
  3
SLDDIMSTYLE2
100
AcDb2LineAngularDimension
 13
78.8478596053
 23
141.4208942784
 33
0.0
 14
78.8478596053
 24
89.4995635902
 34
0.0
 15
78.7028329393
 25
92.0802052917
 35
0.0
 16
73.8308069421
 26
148.6028925441
 36
0.0
  0
DIMENSION
  5
2E1
330
1F
100
AcDbEntity
  8
VERMASSUNG
100
AcDbDimension
  2
_D_6
 10
61.1701900757
 20
99.4021151038
 30
0.0
 11
54.2648310081
 21
92.4967560363
 31
0.0
 70
   160
  1
%%c<> min. 
 71
     2
 42
-1.0
  3
SLDDIMSTYLE3
100
AcDbAlignedDimension
 13
96.525529135
 23
134.7574541632
 33
0.0
 14
61.1701900757
 24
99.4021151038
 34
0.0
 50
45.0
100
AcDbRotatedDimension
  0
INSERT
  5
2FB
330
1F
100
AcDbEntity
  8
VERMASSUNG
100
AcDbBlockReference
  2
SW_CENTERMARKSYMBOL_0
 10
78.8478596053
 20
118.9208942784
 30
0.0
  0
OLE2FRAME
  5
2FC
330
1F
100
AcDbEntity
  8
0
100
AcDbOle2Frame
 70
     2
  3
Paintbrush-Bild
 10
13.8511154363
 20
38.264191557
 30
0.0
 11
51.6290888628
 21
31.9806341108
 31
0.0
 71
     2
 72
     0
 73
     1
 90
    12928
310
80552BED0767C5B32B40DDAF6807D121434000000000000000006FFBDDFB85D0
310
4940DDAF6807D121434000000000000000006FFBDDFB85D04940416F4BD60AFB
310
3F4000000000000000002BED0767C5B32B40416F4BD60AFB3F40000000000000
310
0000000000000100000000010000010000000100000000000100000000320000
310
D0CF11E0A1B11AE1000000000000000000000000000000003E000300FEFF0900
310
0600000000000000000000000100000001000000000000000010000002000000
310
01000000FEFFFFFF0000000000000000FFFFFFFFFFFFFFFFFFFFFFFFFFFFFFFF
310
FFFFFFFFFFFFFFFFFFFFFFFFFFFFFFFFFFFFFFFFFFFFFFFFFFFFFFFFFFFFFFFF
310
FFFFFFFFFFFFFFFFFFFFFFFFFFFFFFFFFFFFFFFFFFFFFFFFFFFFFFFFFFFFFFFF
310
FFFFFFFFFFFFFFFFFFFFFFFFFFFFFFFFFFFFFFFFFFFFFFFFFFFFFFFFFFFFFFFF
310
FFFFFFFFFFFFFFFFFFFFFFFFFFFFFFFFFFFFFFFFFFFFFFFFFFFFFFFFFFFFFFFF
310
FFFFFFFFFFFFFFFFFFFFFFFFFFFFFFFFFFFFFFFFFFFFFFFFFFFFFFFFFFFFFFFF
310
FFFFFFFFFFFFFFFFFFFFFFFFFFFFFFFFFFFFFFFFFFFFFFFFFFFFFFFFFFFFFFFF
310
FFFFFFFFFFFFFFFFFFFFFFFFFFFFFFFFFFFFFFFFFFFFFFFFFFFFFFFFFFFFFFFF
310
FFFFFFFFFFFFFFFFFFFFFFFFFFFFFFFFFFFFFFFFFFFFFFFFFFFFFFFFFFFFFFFF
310
FFFFFFFFFFFFFFFFFFFFFFFFFFFFFFFFFFFFFFFFFFFFFFFFFFFFFFFFFFFFFFFF
310
FFFFFFFFFFFFFFFFFFFFFFFFFFFFFFFFFFFFFFFFFFFFFFFFFFFFFFFFFFFFFFFF
310
FFFFFFFFFFFFFFFFFFFFFFFFFFFFFFFFFFFFFFFFFFFFFFFFFFFFFFFFFFFFFFFF
310
FFFFFFFFFFFFFFFFFFFFFFFFFFFFFFFFFFFFFFFFFFFFFFFFFFFFFFFFFFFFFFFF
310
FFFFFFFFFFFFFFFFFFFFFFFFFFFFFFFFFFFFFFFFFFFFFFFFFFFFFFFFFFFFFFFF
310
FDFFFFFFFEFFFFFFFEFFFFFFFEFFFFFF05000000060000000700000008000000
310
090000000A0000000B0000000C0000000D0000000E0000000F00000010000000
310
11000000120000001300000014000000150000001600000017000000FEFFFFFF
310
FFFFFFFFFFFFFFFFFFFFFFFFFFFFFFFFFFFFFFFFFFFFFFFFFFFFFFFFFFFFFFFF
310
FFFFFFFFFFFFFFFFFFFFFFFFFFFFFFFFFFFFFFFFFFFFFFFFFFFFFFFFFFFFFFFF
310
FFFFFFFFFFFFFFFFFFFFFFFFFFFFFFFFFFFFFFFFFFFFFFFFFFFFFFFFFFFFFFFF
310
FFFFFFFFFFFFFFFFFFFFFFFFFFFFFFFFFFFFFFFFFFFFFFFFFFFFFFFFFFFFFFFF
310
FFFFFFFFFFFFFFFFFFFFFFFFFFFFFFFFFFFFFFFFFFFFFFFFFFFFFFFFFFFFFFFF
310
FFFFFFFFFFFFFFFFFFFFFFFFFFFFFFFFFFFFFFFFFFFFFFFFFFFFFFFFFFFFFFFF
310
FFFFFFFFFFFFFFFFFFFFFFFFFFFFFFFFFFFFFFFFFFFFFFFFFFFFFFFFFFFFFFFF
310
FFFFFFFFFFFFFFFFFFFFFFFFFFFFFFFFFFFFFFFFFFFFFFFFFFFFFFFFFFFFFFFF
310
FFFFFFFFFFFFFFFFFFFFFFFFFFFFFFFFFFFFFFFFFFFFFFFFFFFFFFFFFFFFFFFF
310
FFFFFFFFFFFFFFFFFFFFFFFFFFFFFFFFFFFFFFFFFFFFFFFFFFFFFFFFFFFFFFFF
310
FFFFFFFFFFFFFFFFFFFFFFFFFFFFFFFFFFFFFFFFFFFFFFFFFFFFFFFFFFFFFFFF
310
FFFFFFFFFFFFFFFFFFFFFFFFFFFFFFFFFFFFFFFFFFFFFFFFFFFFFFFFFFFFFFFF
310
FFFFFFFFFFFFFFFFFFFFFFFFFFFFFFFFFFFFFFFFFFFFFFFFFFFFFFFFFFFFFFFF
310
52006F006F007400200045006E00740072007900000000000000000000000000
310
0000000000000000000000000000000000000000000000000000000000000000
310
16000500FFFFFFFFFFFFFFFF020000000A00030000000000C000000000000046
310
000000000000000000000000E02B43DE224ACD0103000000C000000000000000
310
01004F006C006500000000000000000000000000000000000000000000000000
310
0000000000000000000000000000000000000000000000000000000000000000
310
0A000200FFFFFFFFFFFFFFFFFFFFFFFF00000000000000000000000000000000
310
0000000000000000000000000000000000000000000000001400000000000000
310
010043006F006D0070004F0062006A0000000000000000000000000000000000
310
0000000000000000000000000000000000000000000000000000000000000000
310
120002010100000003000000FFFFFFFF00000000000000000000000000000000
310
0000000000000000000000000000000000000000010000004D00000000000000
310
01004F006C006500310030004E00610074006900760065000000000000000000
310
0000000000000000000000000000000000000000000000000000000000000000
310
1A000200FFFFFFFFFFFFFFFFFFFFFFFF00000000000000000000000000000000
310
0000000000000000000000000000000000000000040000002426000000000000
310
FEFFFFFF02000000FEFFFFFFFFFFFFFFFFFFFFFFFFFFFFFFFFFFFFFFFFFFFFFF
310
FFFFFFFFFFFFFFFFFFFFFFFFFFFFFFFFFFFFFFFFFFFFFFFFFFFFFFFFFFFFFFFF
310
FFFFFFFFFFFFFFFFFFFFFFFFFFFFFFFFFFFFFFFFFFFFFFFFFFFFFFFFFFFFFFFF
310
FFFFFFFFFFFFFFFFFFFFFFFFFFFFFFFFFFFFFFFFFFFFFFFFFFFFFFFFFFFFFFFF
310
FFFFFFFFFFFFFFFFFFFFFFFFFFFFFFFFFFFFFFFFFFFFFFFFFFFFFFFFFFFFFFFF
310
FFFFFFFFFFFFFFFFFFFFFFFFFFFFFFFFFFFFFFFFFFFFFFFFFFFFFFFFFFFFFFFF
310
FFFFFFFFFFFFFFFFFFFFFFFFFFFFFFFFFFFFFFFFFFFFFFFFFFFFFFFFFFFFFFFF
310
FFFFFFFFFFFFFFFFFFFFFFFFFFFFFFFFFFFFFFFFFFFFFFFFFFFFFFFFFFFFFFFF
310
FFFFFFFFFFFFFFFFFFFFFFFFFFFFFFFFFFFFFFFFFFFFFFFFFFFFFFFFFFFFFFFF
310
FFFFFFFFFFFFFFFFFFFFFFFFFFFFFFFFFFFFFFFFFFFFFFFFFFFFFFFFFFFFFFFF
310
FFFFFFFFFFFFFFFFFFFFFFFFFFFFFFFFFFFFFFFFFFFFFFFFFFFFFFFFFFFFFFFF
310
FFFFFFFFFFFFFFFFFFFFFFFFFFFFFFFFFFFFFFFFFFFFFFFFFFFFFFFFFFFFFFFF
310
FFFFFFFFFFFFFFFFFFFFFFFFFFFFFFFFFFFFFFFFFFFFFFFFFFFFFFFFFFFFFFFF
310
FFFFFFFFFFFFFFFFFFFFFFFFFFFFFFFFFFFFFFFFFFFFFFFFFFFFFFFFFFFFFFFF
310
FFFFFFFFFFFFFFFFFFFFFFFFFFFFFFFFFFFFFFFFFFFFFFFFFFFFFFFFFFFFFFFF
310
FFFFFFFFFFFFFFFFFFFFFFFFFFFFFFFFFFFFFFFFFFFFFFFFFFFFFFFFFFFFFFFF
310
0100000200000000000000000000000000000000000000000000000000000000
310
0000000000000000000000000000000000000000000000000000000000000000
310
0100FEFF030A0000FFFFFFFF0A00030000000000C00000000000004607000000
310
5042727573680007000000504272757368000700000050427275736800F439B2
310
7100000000000000000000000000000000000000000000000000000000000000
310
0000000000000000000000000000000000000000000000000000000000000000
310
0000000000000000000000000000000000000000000000000000000000000000
310
0000000000000000000000000000000000000000000000000000000000000000
310
0000000000000000000000000000000000000000000000000000000000000000
310
0000000000000000000000000000000000000000000000000000000000000000
310
0000000000000000000000000000000000000000000000000000000000000000
310
0000000000000000000000000000000000000000000000000000000000000000
310
0000000000000000000000000000000000000000000000000000000000000000
310
0000000000000000000000000000000000000000000000000000000000000000
310
0000000000000000000000000000000000000000000000000000000000000000
310
0000000000000000000000000000000000000000000000000000000000000000
310
20260000424D0E260000000000003E00000028000000B40200006E0000000100
310
01000000000000000000130B0000130B00000200000002000000000000FFFFFF
310
FFFFFFFFFFFFFFFFFFFFFFFFFFFFFFFFFFFFFFFFFFFFFFFFFFFFFFFFFFFFFFFF
310
FFFFFFFFFFFFFFFFFFFFFFFFFFFFFFFFFFFFFFFFFFFFFFFFFFFFFFFFFFFFFFFF
310
FFFFFFFFFFFFFFFFFFFFFFFFFFFFFFFFFFFFFFFFFFFFFFFFF000FFFFFFFFFFFF
310
FFFFFFFFFFFFFFFFFFFFFFFFFFFFFFFFFFFFFFFFFFFFFFFFFFFFFFFFFFFFFFFF
310
FFFFFFFFFFFFFFFFFFFFFFFFFFFFFFFFFFFFFFFFFFFFFFFFFFFFFFFFFFFFFFFF
310
FFFFFFFFFFFFFFFFFFFFFFFFFFFFFFFFF000FFFFFFFFFFFFFFFFFFFFFFFFFFFF
310
FFFFFFFFFFFFFFFFFFFFFFFFFFFFFFFFFFFFFFFFFFFFFFFFFFFFFFFFFFFFFFFF
310
FFFFFFFFFFFFFFFFFFFFFFFFFFFFFFFFFFFFFFFFFFFFFFFFFFFFFFFFFFFFFFFF
310
FFFFFFFFFFFFFFFFF000FFFFFFFFFFFFFFFFFFFFFFFFFFFFFFFFFFFFFFFFFFFF
310
FFFFFFFFFFFFFFFFFFFFFFFFFFFFFFFFFFFFFFFFFFFFFFFFFFFFFFFFFFFFFFFF
310
FFFFFFFFFFFFFFFFFFFFFFFFFFFFFFFFFFFFFFFFFFFFFFFFFFFFFFFFFFFFFFFF
310
F000FFFFFFFFFFFFFFFFFFFFFFFFFFFFFFFFFFFFFFFFFFFFFFFFFFFFFFFFFFFF
310
FFFFFFFFFFFFFFFFFFFFFFFFFFFFFFFFFFFFFFFFFFFFFFFFFFFFFFFFFFFFFFFF
310
FFFFFFFFFFFFFFFFFFFFFFFFFFFFFFFFFFFFFFFFFFFFFFFFF000FFFFFFFFFFFF
310
FFFFFFFFFFFFFFFFFFFFFFFFFFFFFFFFFFFFFFFFFFFFFFFFFFFFFFFFFFFFFFFF
310
FFFFFFFFFFFFFFFFFFFFFFFFFFFFFFFFFFFFFFFFFFFFFFFFFFFFFFFFFFFFFFFF
310
FFFFFFFFFFFFFFFFFFFFFFFFFFFFFFFFF000FFFFFFFFFFFFFFFFFFFFFFFFFFFF
310
FFFFFFFFFFFFFFFFFFFFFFFFFFFFFFFFFFFFFFFFFFFFFFFFFFFFFFFFFFFFFFFF
310
FFFFFFFFFFFFFFFFFFFFFFFFFFFFFFFFFFFFFFFFFFFFFFFFFFFFFFFFFFFFFFFF
310
FFFFFFFFFFFFFFFFF000FFFFFFFFFFFFFFFFFFFFFFFFFFFFFFFFFFFFFFFFFFFF
310
FFFFFFFFFFFFFFFFFFFFFFFFFFFFFFFFFFFFFFFFFFFFFFFFFFFFFFFFFFFFFFFF
310
FFFFFFFFFFFFFFFFFFFFFFFFFFFFFFFFFFFFFFFFFFFFFFFFFFFFFFFFFFFFFFFF
310
F000FFFFFFFFFFFFFFFFFFFFFFFFFFFFFFFFFFFFFFFFFFFFFFFFFFFFFFFFFFFF
310
FFFFFFFFFFFFFFFFFFFFFFFFFFFFFFFFFFFFFFFFFFFFFFFFFFFFFFFFFFFFFFFF
310
FFFFFFFFFFFFFFFFFFFFFFFFFFFFFFFFFFFFFFFFFFFFFFFFF000FFFFFFFFFFFF
310
FFFFFFFFFFFFFFFFFFFFFFFFFFFFFFFFFFFFFFFFFFFFFFFFFFFFFFFFFFFFFFFF
310
FFFFFFFFFFFFFFFFFFFFFFFFFFFFFFFFFFFFFFFFFFFFFFFFFFFFFFFFFFFFFFFF
310
FFFFFFFFFFFFFFFFFFFFFFFFFFFFFFFFF000FFFFFFFFFFFFFFFFFFFFFFFFFFFF
310
FFFFFFFFFFFFFFFFFFFFFFFFFFFFFFFFFFFFFFFFFFFFFFFFFFFFFFFFFFFFFFFF
310
FFFFFFFFFFFFFFFFFFFFFFFFFFFFFFFFFFFFFFFFFFFFFFFFFFFFFFFFFFFFFFFF
310
FFFFFFFFFFFFFFFFF000FFFFFFFFFFFFFFFFFFFFFFFFFFFFFFFFFFFFFFFFFFFF
310
FFFFFFFFFFFFFFFFFFFFFFFFFFFFFFFFFFFFFFFFFFFFFFFFFFFFFFFFFFFFFFFF
310
FFFFFFFFFFFFFFFFFFFFFFFFFFFFFFFFFFFFFFFFFFFFFFFFFFFFFFFFFFFFFFFF
310
F000FFFFFFFFFFFFFFFFFFFFFFFFFFFFFFFFFFFFFFFFFFFFFFFFFFFFFFFFFFFF
310
FFFFFFFFFFFFFFFFFFFFFFFFFFFFFFFFFFFFFFFFFFFFFFFFFFFFFFFFFFFFFFFF
310
FFFFFFFFFFFFFFFFFFFFFFFFFFFFFFFFFFFFFFFFFFFFFFFFF000FFFFFFFFFFFF
310
FFFFFFFFFFFFFFFFFFFFFFFFFFFFFFFFFFFFFFFFFFFFFFFFFFFFFFFFFFFFFFFF
310
FFFFFFFFFFFFFFFFFFFFFFFFFFFFFFFFFFFFFFFFFFFFFFFFFFFFFFFFFFFFFFFF
310
FFFFFFFFFFFFFFFFFFFFFFFFFFFFFFFFF000FFFFFFFFFFFFFFFFFFFFFFFFFFFF
310
FFFFFFFFFFFFFFFFFFFFFFFFFFFFFFFFFFFFFFFFFFFFFFFFFFFFFFFFFFFFFFFF
310
FFFFFFFFFFFFFFFFFFFFFFFFFFFFFFFFFFFFFFFFFFFFFFFFFFFFFFFFFFFFFFFF
310
FFFFFFFFFFFFFFFFF000FFFFFFFFFFFFFFFFFFFFFFFFFFFFFFFFFFFFFFFFFFFF
310
FFFFFFFFFFFFFFFFFFFFFFFFFFFFFFFFFFFFFFFFFFFFFFFFFFFFFFFFFFFFFFFF
310
FFFFFFFFFFFFFFFFFFFFFFFFFFFFFFFFFFFFFFFFFFFFFFFFFFFFFFFFFFFFFFFF
310
F000FFFFFFFFFFFFFFFFFFFFFFFFFFFFFFFFFFFFFFFFFFFFFFFFFFFFFFFFFFFF
310
FFFFFFFFFFFFFFFFFFFFFFFFFFFFFFFFFFFFFFFFFFFFFFFFFFFFFFFFFFFFFFFF
310
FFFFFFFFFFFFFFFFFFFFFFFFFFFFFFFFFFFFFFFFFFFFFFFFF000FFFFFFFFFFFF
310
FFFFFFFFFFFFFFFFFFFFFFFFFFFFFFFFFFFFFFFFFFFFFFFFFFFFFFFFFFFFFFFF
310
FFFFFFFFFFFFFFFFFFFFFFFFFFFFFFFFFFFFFFFFFFFFFFFFFFFFFFFFFFFFFFFF
310
FFFFFFFFFFFFFFFFFFFFFFFFFFFFFFFFF000FFFFFFFFFFFFFFFFFFFFFFFFFFFF
310
FFFFFFFFFFFFFFFFFFFFFFFFFFFFFFFFFFFFFFFFFFFFFFFFFFFFFFFFFFFFFFFF
310
FFFFFFFFFFFFFFFFFFFFFFFFFFFFFFFFFFFFFFFFFFFFFFFFFFFFFFFFFFFFFFFF
310
FFFFFFFFFFFFFFFFF000FFFFF80003FFFFFFFFFFFFFFFFFFFFFFFFFFFFFFFFFF
310
FFFFF00007FFFFFFFFFF00007FFFFFF800000000000000007FFFFFFFFFFFFFFF
310
FFFFFFFC001FFFFFFFFFFFFFFC001FFFFFFFFFFFFFFFFFFFFFFFFFFE0007FFFF
310
F000FFFF8000007FFFFFFFF8000FFFFFC0007FFFFF80007FFFFF0000007FFFFF
310
FFF8000007FFFFF800000000000000007FFFFFF0001FFFFFFFFFFFC00001FFFF
310
FFFFFFFFC00001FFFFFFFF000000000003FFFFE000007FFFF000FFFE0000000F
310
FFFFFFF0000FFFFF80007FFFFF80007FFFFC0000001FFFFFFFC0000001FFFFF8
310
00000000000000007FFFFFF0001FFFFFFFFFFE0000003FFFFFFFFFFE0000003F
310
FFFFFF000000000003FFFF0000000FFFF000FFF800000003FFFFFFF00007FFFF
310
80007FFFFF80007FFFF000000007FFFFFF000000003FFFF80000000000000000
310
7FFFFFF0001FFFFFFFFFF80000000FFFFFFFFFF80000000FFFFFFF0000000000
310
03FFFC00000003FFF000FFE000000000FFFFFFF00007FFFF80003FFFFF80007F
310
FFC000000001FFFFFC000000001FFFF800000000000000007FFFFFF0001FFFFF
310
FFFFE000000003FFFFFFFFE000000003FFFFFF000000000003FFF000000000FF
310
F000FF80000000007FFFFFF00007FFFF80003FFFFF80007FFF8000000000FFFF
310
F80000000007FFF800000000000000007FFFFFF0001FFFFFFFFFC000000001FF
310
FFFFFFC000000001FFFFFF000000000003FFC0000000007FF000FF0000000000
310
3FFFFFE00007FFFF00003FFFFF80007FFE00000000003FFFF00000000003FFF8
310
00000000000000007FFFFFF0001FFFFFFFFF8000000000FFFFFFFF8000000000
310
FFFFFF000000000003FF80000000003FF000FE00000000001FFFFFE00003FFFF
310
00003FFFFF80007FFC00000000001FFFE00000000001FFF8000001FFFE000000
310
7FFFFFF0001FFFFFFFFE00000000003FFFFFFE00000000003FFFFF0000000000
310
03FF00000000001FF000FC00000000000FFFFFE00003FFFF00001FFFFF80007F
310
F800000000001FFFC00000000000FFF8000001FFFE0000007FFFFFF0001FFFFF
310
FFFC00000000001FFFFFFC00000000001FFFFF000000000003FE00000000000F
310
F000F8000000000007FFFFE00003FFFF00001FFFFF80007FF800000000000FFF
310
800000000000FFF8000001FFFE0000007FFFFFF0001FFFFFFFF800000000000F
310
FFFFF800000000000FFFFF000000000003FC000000000007F000F80000000000
310
03FFFFC00003FFFE00001FFFFF80007FF0000000000007FF0000000000007FF8
310
000001FFFE0000007FFFFFF0001FFFFFFFF0000000000007FFFFF00000000000
310
07FFFF000000000003F8000000000003F000F0000000000003FFFFC00001FFFE
310
00001FFFFF80007FE0000000000007FE0000000000003FF8000001FFFE000000
310
7FFFFFF0001FFFFFFFF0000000000007FFFFF0000000000007FFFF0000000000
310
03F800001F800003F000E00001FFF00001FFFFC00001FFFE00000FFFFF80007F
310
E00001FFE00003FE00001FFF00003FF8000001FFFE0000007FFFFFF0001FFFFF
310
FFE000003E000003FFFFE000003E000003FFFF000000000003F00001FFF80001
310
F000E00007FFFC0001FFFFC00001FFFE00000FFFFF80007FC0000FFFFC0003FC
310
0000FFFFC0001FF8000001FFFE0000007FFFFFF0001FFFFFFFC00003FFE00001
310
FFFFC00003FFE00001FFFF0001FFFFFFFFF00007FFFE0001F000E0000FFFFF00
310
00FFFF800001FFFC00000FFFFF80007FC0001FFFFE0001FC0001FFFFE0001FF8
310
000001FFFE0000007FFFFFF0001FFFFFFF80000FFFF80000FFFF80000FFFF800
310
00FFFF0003FFFFFFFFE0000FFFFF8000F000C0003FFFFF8000FFFF800000FFFC
310
000007FFFF80007F80003FFFFF0001FC0003FFFFF0001FF8000001FFFE000000
310
7FFFFFF0001FFFFFFF80003FFFFE0000FFFF80003FFFFE0000FFFF0003FFFFFF
310
FFE0003FFFFF8000F000C0003FFFFF8000FFFF800000FFFC000007FFFF80007F
310
80007FFFFF8001F80007FFFFF8000FF8000001FFFE0000007FFFFFF0001FFFFF
310
FF00007FFFFF00007FFF00007FFFFF00007FFF0003FFFFFFFFE0003FFFFFC000
310
F000C0007FFFFFC000FFFF000000FFFC000007FFFF80007F8000FFFFFF8000F8
310
000FFFFFF8000FF8000001FFFE0000007FFFFFF0001FFFFFFF0000FFFFFF8000
310
7FFF0000FFFFFF80007FFF0003FFFFFFFFC0007FFFFFC00070008000FFFFFFC0
310
00FFFF000000FFF8000007FFFF80007F8000FFFFFF8000F8000FFFFFF8000FF8
310
000001FFFE0000007FFFFFF0001FFFFFFE0001FFFFFFC0003FFE0001FFFFFFC0
310
003FFF0003FFFFFFFFC0007FFFFFE00070008000FFFFFFC0007FFF0000007FF8
310
000003FFFF80007F0001FFFFFF8000F8000FFFFFF8000FF8000001FFFE000000
310
7FFFFFF0001FFFFFFE0001FFFFFFC0003FFE0001FFFFFFC0003FFF0003FFFFFF
310
FFC000FFFFFFE00070008000FFFFFFC0007FFF0000007FF8000003FFFF80007F
310
0001FFFFFF8000F8001FFFFFF8000FF8000001FFFE0000007FFFFFF0001FFFFF
310
FE0003FFFFFFE0003FFE0003FFFFFFE0003FFF0003FFFFFFFFC000FFFFFFE000
310
70008000FFFFFFC0007FFE0000007FF8000003FFFF80007F0001FFFFFF8000F0
310
001FFFFFF8000FF8000001FFFE0000007FFFFFF0001FFFFFFC0003FFFFFFE000
310
1FFC0003FFFFFFE0001FFF0003FFFFFFFFC000FFFFFFC00070008000FFFFFF80
310
007FFE0000007FF0000003FFFF80007F0001FFFFFF0000F0001FFFFFF8000FF8
310
000001FFFE0000007FFFFFF0001FFFFFFC0007FFFFFFF0001FFC0007FFFFFFF0
310
001FFF0003FFFFFFFFC000FFFFFFC00070008001FFFFFF0000FFFE0000003FF0
310
000001FFFF80007F0001FFFFFF0000F8001FFFFFF0000FF8000001FFFE000000
310
7FFFFFF0001FFFFFFC0007FFFFFFF0001FFC0007FFFFFFF0001FFF0003FFFFFF
310
FFC001FFFFFF80007000FFFFFFFFFE0000FFFE0008003FF0008001FFFF80007F
310
FFFFFFFFFC0000FFFFFFFFFFE0000FF8000001FFFE0000007FFFFFF0001FFFFF
310
F8000FFFFFFFF8000FF8000FFFFFFFF8000FFF0003FFFFFFFFFFFFFFFFFF0000
310
7000FFFFFFFFFC0000FFFC0008003FF0008001FFFF80007FFFFFFFFFF80001FF
310
FFFFFFFF80000FF8000001FFFE0000007FFFFFF0001FFFFFF8000FFFFFFFF800
310
0FF8000FFFFFFFF8000FFF0003FFFFFFFFFFFFFFFFFE0000F000FFFFFFFFE000
310
00FFFC000C003FE000C001FFFF80007FFFFFFFFFC00001FFFFFFFFFE00001FF8
310
000001FFFE0000007FFFFFF0001FFFFFF8000FFFFFFFF8000FF8000FFFFFFFF8
310
000FFF0003FFFFFFFFFFFFFFFFF00000F000FFFFFFFE000001FFFC000C001FE0
310
00C000FFFF80007FFFFFFFFE000001FFFFFFFFE000001FF80FFFFFFFFFFFFFC0
310
7FFFFFF0001FFFFFF8000FFFFFFFF8000FF8000FFFFFFFF8000FFF0003FFFFFF
310
FFFFFFFFFF800000F000FFFFFFC0000001FFFC001C001FE001C000FFFF80007F
310
FFFFFF80000003FFFFFFF80000001FF80FFFFFFFFFFFFFC07FFFFFF0001FFFFF
310
F8001FFFFFFFFC000FF8001FFFFFFFFC000FFF0003FFFFFFFFFFFFFFF0000001
310
F000FFFFF800000001FFF8001C001FE001C000FFFF80007FFFFFF800000003FF
310
FFFF800000003FF80FFFFFFFFFFFFFC07FFFFFF0001FFFFFF8001FFFFFFFFC00
310
0FF8001FFFFFFFFC000FFF0003FFFFFFFFFFFFFE00000001F000FFFFC0000000
310
03FFF8001E001FC001E000FFFF80007FFFFF8000000007FFFFFC000000003FF8
310
0FFFFFFFFFFFFFC07FFFFFF0001FFFFFF8001FFFFFFFFC000FF8001FFFFFFFFC
310
000FFF0003FFFFFFFFFFFFE000000003F000FFFE0000000007FFF8001E000FC0
310
01E0007FFF80007FFFFE0000000007FFFFE0000000007FF80FFFFFFFFFFFFFC0
310
7FFFFFF0001FFFFFF0001FFFFFFFFC0007F0001FFFFFFFFC0007FF0003FFFFFF
310
FFFFFF0000000003F000FFF80000000007FFF8001E000FC003E0007FFF80007F
310
FFF0000000000FFFFF8000000000FFF80FFFFFFFFFFFFFC07FFFFFF0001FFFFF
310
F0001FFFFFFFFC0007F0001FFFFFFFFC0007FF0003FFFFFFFFFFFC0000000007
310
F000FFE0000000000FFFF0003E000FC003E0007FFF80007FFFC0000000001FFF
310
FE0000000001FFF80FFFFFFFFFFFFFC07FFFFFF0001FFFFFF0001FFFFFFFFC00
310
07F0001FFFFFFFFC0007FF0003FFFFFFFFFFF0000000000FF000FFC000000000
310
1FFFF0003F000F8003F0003FFF80007FFF80000000003FFFF80000000003FFF8
310
0FFFFFFFFFFFFFC07FFFFFF0001FFFFFF0001FFFFFFFFC0007F0001FFFFFFFFC
310
0007FF0003FFFFFFFFFFE0000000001FF000FF00000000007FFFF0003F000780
310
03F0003FFF80007FFF00000000007FFFF00000000007FFF80FFFFFFFFFFFFFC0
310
7FFFFFF0001FFFFFF0001FFFFFFFFC0007F0001FFFFFFFFC0007FF0003FFFFFF
310
FFFF80000000007FF000FE0000000000FFFFE0003F00078007F0003FFF80007F
310
FE0000000001FFFFE0000000001FFFF80FFFFFFFFFFFFFC07FFFFFF0001FFFFF
310
F0001FFFFFFFFC0007F0001FFFFFFFFC0007FF0003FFFFFFFFFF0000000000FF
310
F000FC0000000003FFFFE0007F00078007F0003FFF80007FFC0000000007FFFF
310
C0000000007FFFF80FFFFFFFFFFFFFC07FFFFFF0001FFFFFF8001FFFFFFFFC00
310
0FF8001FFFFFFFFC000FFF0003FFFFFFFFFE0000000003FFF000FC000000000F
310
FFFFE0007F80070007F8001FFF80007FF8000000001FFFFF8000000001FFFFF8
310
0FFFFFFFFFFFFFC07FFFFFF0001FFFFFF8001FFFFFFFFC000FF8001FFFFFFFFC
310
000FFF0003FFFFFFFFFC000000000FFFF000F8000000007FFFFFE0007F800700
310
07F8001FFF80007FF000000000FFFFFF800000000FFFFFF80FFFFFFFFFFFFFC0
310
7FFFFFF0001FFFFFF8000FFFFFFFF8000FF8000FFFFFFFF8000FFF0003FFFFFF
310
FFFC000000007FFFF000F800000007FFFFFFC0007F8003000FF8001FFF80007F
310
F000000007FFFFFF000000007FFFFFF80FFFFFFFFFFFFFC07FFFFFF0001FFFFF
310
F8000FFFFFFFF8000FF8000FFFFFFFF8000FFF0003FFFFFFFFF80000000FFFFF
310
F000F0000000FFFFFFFFC000FF8003000FF8001FFF80007FE0000000FFFFFFFF
310
0000000FFFFFFFF8000001FFFE0000007FFFFFF0001FFFFFF8000FFFFFFFF800
310
0FF8000FFFFFFFF8000FFF0003FFFFFFFFF8000000FFFFFFF000F000000FFFFF
310
FFFFC000FFC002000FF8000FFF80007FE000001FFFFFFFFE000001FFFFFFFFF8
310
000001FFFE0000007FFFFFF0001FFFFFF8000FFFFFFFF8000FF8000FFFFFFFF8
310
000FFF0003FFFFFFFFF000001FFFFFFFF000E00000FFFFFFFFFFC000FFC00200
310
0FFC000FFF80007FE00001FFFFFFFFFE00001FFFFFFFFFF8000001FFFE000000
310
7FFFFFF0001FFFFFFC000FFFFFFFF8001FFC000FFFFFFFF8001FFF0003FFFFFF
310
FFF00001FFFFFFFFF000E00007FFFFFFFFFF8000FFC000001FFC000FFF80007F
310
C0000FFFFFFFFFFE0000FFFFFFFFFFF8000001FFFE0000007FFFFFF0001FFFFF
310
FC0007FFFFFFF0001FFC0007FFFFFFF0001FFF0003FFFFFFFFF00007FFFFFFFF
310
F000E0001FFFFFFFFFFF8000FFC000001FFC000FFF80007FC0003FFFFFFFFFFE
310
0001FFFFFFFFFFF8000001FFFE0000007FFFFFF0001FFFFFFC0007FFFFFFF000
310
1FFC0007FFFFFFF0001FFF0003FFFFFFFFF0001FFFFFFFFFF000E0003FFFFF00
310
03FF8001FFE000001FFC0007FF80007FC0007FFFFF0007FC0003FFFFF0003FF8
310
000001FFFE0000007FFFFFF0001FFFFFFC0003FFFFFFE0001FFC0003FFFFFFE0
310
001FFF0003FFFFFFFFF0003FFFFFFFFFF000E0003FFFFF0001FF8001FFE00000
310
1FFE0007FF80007FC0007FFFFE0003FC0007FFFFE0003FF8000001FFFE000000
310
7FFFFFF0001FFFFFFE0003FFFFFFE0003FFE0003FFFFFFE0003FFF0003FFFFFF
310
FFF0003FFFFF8001F000E0003FFFFF0001FF0001FFE000001FFE0007FF80007F
310
C0007FFFFE0003FC0007FFFFE0003FF8000001FFFE0000007FFFFFF0001FFFFF
310
FE0001FFFFFFC0003FFE0001FFFFFFC0003FFF0003FFFFFFFFF0003FFFFF0001
310
F000E0003FFFFF0003FF0001FFE000003FFE0007FF80007FC0007FFFFE0003FC
310
0007FFFFE0003FF8000001FFFE0000007FFFFFF0001FFFFFFF0001FFFFFFC000
310
7FFF0001FFFFFFC0007FFF0003FFFFFFFFF0003FFFFF0001F000E0003FFFFE00
310
03FF0003FFF000003FFE0003FF80007FC0007FFFFC0003FE0007FFFFE0003FF8
310
000001FFFE0000007FFFFFF0001FFFFFFF0000FFFFFF80007FFF0000FFFFFF80
310
007FFF0003FFFFFFFFF0003FFFFF0001F000E0003FFFFE0003FF0003FFF00000
310
3FFF0003FF80007FC0007FFFFC0007FE0007FFFFC0003FF8000001FFFE000000
310
7FFFFFF0001FFFFFFF80007FFFFF0000FFFF80007FFFFF0000FFFF0003FFFFFF
310
FFF0003FFFFF0003F000E0003FFFFC0003FE0003FFF000003FFF0003FF80007F
310
E0003FFFF80007FE0003FFFFC0007FF8000001FFFE0000007FFFFFF0001FFFFF
310
FF80003FFFFE0000FFFF80003FFFFE0000FFFF0003FFFFFFFFF0001FFFFE0003
310
F000F0001FFFF80003FE0003FFF000007FFF0001FF80007FE0003FFFF00007FE
310
0001FFFF80007FF8000001FFFE0000007FFFFFF0001FFFFFFFC0000FFFF80001
310
FFFFC0000FFFF80001FFFF0003FFFFFFFFF0001FFFFC0003F000F0000FFFF000
310
07FE0007FFF800007FFF0001FF80007FE0001FFFE00007FF0000FFFE00007FF8
310
000001FFFE0000007FFFFFF0001FFFFFFFC00003FFE00001FFFFC00003FFE000
310
01FFFF0003FFFFFFFFF8000FFFF80003F000F00003FFC00007FC0007FFF80000
310
7FFF8001FF80007FF00007FF80000FFF00007FF80000FFF8000001FFFE000000
310
7F80000000000001FFE000003E000003FFFFE000003E000003FFFF0003FFFFFF
310
FFF80003FFE00007F000F800000000000FFC0007FFF800007FFF8001FF80007F
310
F000000000000FFF000000000000FFF8000001FFFE0000007F80000000000001
310
FFF0000000000007FFFFF0000000000007FFFF0003FFFFFFFFFC00007E000007
310
F000F800000000000FFC0007FFF80000FFFF8000FF80007FF800000000001FFF
310
800000000001FFF8000001FFFE0000007F80000000000001FFF800000000000F
310
FFFFF800000000000FFFFF0003FFFFFFFFFC00000000000FF000FC0000000000
310
1FFC0007FFFC0000FFFF8000FF80007FF800000000003FFFC00000000001FFF8
310
000001FFFE0000007F80000000000001FFF800000000000FFFFFF80000000000
310
0FFFFF0003FFFFFFFFFE00000000001FF000FE00000000003FF8000FFFFC0000
310
FFFF8000FF80007FFC00000000003FFFC00000000003FFF8000001FFFE000000
310
7F80000000000001FFFC00000000001FFFFFFC00000000001FFFFF0003FFFFFF
310
FFFF00000000001FF000FF00000000003FF8000FFFFC0000FFFFC000FF80007F
310
FE00000000007FFFE00000000007FFF8000001FFFE0000007F80000000000001
310
FFFE00000000003FFFFFFE00000000003FFFFF0003FFFFFFFFFF80000000003F
310
F000FF80000000007FF8000FFFFC0001FFFFC0007F80007FFF0000000000FFFF
310
F0000000000FFFF800000000000000007F80000000000001FFFF8000000000FF
310
FFFFFF8000000000FFFFFF0003FFFFFFFFFFC0000000007FF000FFC000000000
310
FFF8000FFFFE0001FFFFC0007F80007FFF8000000001FFFFF8000000001FFFF8
310
00000000000000007F80000000000001FFFFC000000001FFFFFFFFC000000001
310
FFFFFF0003FFFFFFFFFFE000000000FFF000FFE000000003FFF0001FFFFE0001
310
FFFFC0007F80007FFFC000000007FFFFFE000000003FFFF80000000000000000
310
7F80000000000001FFFFE000000003FFFFFFFFE000000003FFFFFF0003FFFFFF
310
FFFFF000000003FFF000FFF80000000FFFF0001FFFFE0001FFFFE0007F80007F
310
FFF00000000FFFFFFF00000000FFFFF800000000000000007F80000000000001
310
FFFFF80000000FFFFFFFFFF80000000FFFFFFF0003FFFFFFFFFFFC0000000FFF
310
F000FFFE0000003FFFF0001FFFFE0003FFFFE0003F80007FFFFC0000003FFFFF
310
FFC0000003FFFFF800000000000000007F80000000000001FFFFFE0000003FFF
310
FFFFFFFE0000003FFFFFFF0003FFFFFFFFFFFF0000003FFFF000FFFF800000FF
310
FFF0001FFFFF0003FFFFE0003F80007FFFFF000001FFFFFFFFF800001FFFFFF8
310
00000000000000007F80000000000001FFFFFFC00001FFFFFFFFFFFFC00001FF
310
FFFFFF0003FFFFFFFFFFFFC00000FFFFF000FFFFF8000FFFFFFFFFFFFFFFFFFF
310
FFFFFFFFFFFFFFFFFFFFF0001FFFFFFFFFFF0000FFFFFFF80000000000000000
310
7FFFFFFFFFFFFFFFFFFFFFFC001FFFFFFFFFFFFFFC001FFFFFFFFFFFFFFFFFFF
310
FFFFFFFC001FFFFFF000FFFFFFFFFFFFFFFFFFFFFFFFFFFFFFFFFFFFFFFFFFFF
310
FFFFFFFFFFFFFFFFFFFFFFFFFFFFFFFFFFFFFFFFFFFFFFFFFFFFFFFFFFFFFFFF
310
FFFFFFFFFFFFFFFFFFFFFFFFFFFFFFFFFFFFFFFFFFFFFFFFFFFFFFFFFFFFFFFF
310
F000FFFFFFFFFFFFFFFFFFFFFFFFFFFFFFFFFFFFFFFFFFFFFFFFFFFFFFFFFFFF
310
FFFFFFFFFFFFFFFFFFFFFFFFFFFFFFFFFFFFFFFFFFFFFFFFFFFFFFFFFFFFFFFF
310
FFFFFFFFFFFFFFFFFFFFFFFFFFFFFFFFFFFFFFFFFFFFFFFFF000FFFFFFFFFFFF
310
FFFFFFFFFFFFFFFFFFFFFFFFFFFFFFFFFFFFFFFFFFFFFFFFFFFFFFFFFFFFFFFF
310
FFFFFFFFFFFFFFFFFFFFFFFFFFFFFFFFFFFFFFFFFFFFFFFFFFFFFFFFFFFFFFFF
310
FFFFFFFFFFFFFFFFFFFFFFFFFFFFFFFFF000FFFFFFFFFFFFFFFFFFFFFFFFFFFF
310
FFFFFFFFFFFFFFFFFFFFFFFFFFFFFFFFFFFFFFFFFFFFFFFFFFFFFFFFFFFFFFFF
310
FFFFFFFFFFFFFFFFFFFFFFFFFFFFFFFFFFFFFFFFFFFFFFFFFFFFFFFFFFFFFFFF
310
FFFFFFFFFFFFFFFFF000FFFFFFFFFFFFFFFFFFFFFFFFFFFFFFFFFFFFFFFFFFFF
310
FFFFFFFFFFFFFFFFFFFFFFFFFFFFFFFFFFFFFFFFFFFFFFFFFFFFFFFFFFFFFFFF
310
FFFFFFFFFFFFFFFFFFFFFFFFFFFFFFFFFFFFFFFFFFFFFFFFFFFFFFFFFFFFFFFF
310
F000FFFFFFFFFFFFFFFFFFFFFFFFFFFFFFFFFFFFFFFFFFFFFFFFFFFFFFFFFFFF
310
FFFFFFFFFFFFFFFFFFFFFFFFFFFFFFFFFFFFFFFFFFFFFFFFFFFFFFFFFFFFFFFF
310
FFFFFFFFFFFFFFFFFFFFFFFFFFFFFFFFFFFFFFFFFFFFFFFFF000FFFFFFFFFFFF
310
FFFFFFFFFFFFFFFFFFFFFFFFFFFFFFFFFFFFFFFFFFFFFFFFFFFFFFFFFFFFFFFF
310
FFFFFFFFFFFFFFFFFFFFFFFFFFFFFFFFFFFFFFFFFFFFFFFFFFFFFFFFFFFFFFFF
310
FFFFFFFFFFFFFFFFFFFFFFFFFFFFFFFFF000FFFFFFFFFFFFFFFFFFFFFFFFFFFF
310
FFFFFFFFFFFFFFFFFFFFFFFFFFFFFFFFFFFFFFFFFFFFFFFFFFFFFFFFFFFFFFFF
310
FFFFFFFFFFFFFFFFFFFFFFFFFFFFFFFFFFFFFFFFFFFFFFFFFFFFFFFFFFFFFFFF
310
FFFFFFFFFFFFFFFFF000FFFFFFFFFFFFFFFFFFFFFFFFFFFFFFFFFFFFFFFFFFFF
310
FFFFFFFFFFFFFFFFFFFFFFFFFFFFFFFFFFFFFFFFFFFFFFFFFFFFFFFFFFFFFFFF
310
FFFFFFFFFFFFFFFFFFFFFFFFFFFFFFFFFFFFFFFFFFFFFFFFFFFFFFFFFFFFFFFF
310
F000FFFFFFFFFFFFFFFFFFFFFFFFFFFFFFFFFFFFFFFFFFFFFFFFFFFFFFFFFFFF
310
FFFFFFFFFFFFFFFFFFFFFFFFFFFFFFFFFFFFFFFFFFFFFFFFFFFFFFFFFFFFFFFF
310
FFFFFFFFFFFFFFFFFFFFFFFFFFFFFFFFFFFFFFFFFFFFFFFFF000FFFFFFFFFFFF
310
FFFFFFFFFFFFFFFFFFFFFFFFFFFFFFFFFFFFFFFFFFFFFFFFFFFFFFFFFFFFFFFF
310
FFFFFFFFFFFFFFFFFFFFFFFFFFFFFFFFFFFFFFFFFFFFFFFFFFFFFFFFFFFFFFFF
310
FFFFFFFFFFFFFFFFFFFFFFFFFFFFFFFFF000FFFFFFFFFFFFFFFFFFFFFFFFFFFF
310
FFFFFFFFFFFFFFFFFFFFFFFFFFFFFFFFFFFFFFFFFFFFFFFFFFFFFFFFFFFFFFFF
310
FFFFFFFFFFFFFFFFFFFFFFFFFFFFFFFFFFFFFFFFFFFFFFFFFFFFFFFFFFFFFFFF
310
FFFFFFFFFFFFFFFFF000FFFFFFFFFFFFFFFFFFFFFFFFFFFFFFFFFFFFFFFFFFFF
310
FFFFFFFFFFFFFFFFFFFFFFFFFFFFFFFFFFFFFFFFFFFFFFFFFFFFFFFFFFFFFFFF
310
FFFFFFFFFFFFFFFFFFFFFFFFFFFFFFFFFFFFFFFFFFFFFFFFFFFFFFFFFFFFFFFF
310
F000FFFFFFFFFFFFFFFFFFFFFFFFFFFFFFFFFFFFFFFFFFFFFFFFFFFFFFFFFFFF
310
FFFFFFFFFFFFFFFFFFFFFFFFFFFFFFFFFFFFFFFFFFFFFFFFFFFFFFFFFFFFFFFF
310
FFFFFFFFFFFFFFFFFFFFFFFFFFFFFFFFFFFFFFFFFFFFFFFFF000FFFFFFFFFFFF
310
FFFFFFFFFFFFFFFFFFFFFFFFFFFFFFFFFFFFFFFFFFFFFFFFFFFFFFFFFFFFFFFF
310
FFFFFFFFFFFFFFFFFFFFFFFFFFFFFFFFFFFFFFFFFFFFFFFFFFFFFFFFFFFFFFFF
310
FFFFFFFFFFFFFFFFFFFFFFFFFFFFFFFFF000FFFFFFFFFFFFFFFFFFFFFFFFFFFF
310
FFFFFFFFFFFFFFFFFFFFFFFFFFFFFFFFFFFFFFFFFFFFFFFFFFFFFFFFFFFFFFFF
310
FFFFFFFFFFFFFFFFFFFFFFFFFFFFFFFFFFFFFFFFFFFFFFFFFFFFFFFFFFFFFFFF
310
FFFFFFFFFFFFFFFFF000FFFFFFFFFFFFFFFFFFFFFFFFFFFFFFFFFFFFFFFFFFFF
310
FFFFFFFFFFFFFFFFFFFFFFFFFFFFFFFFFFFFFFFFFFFFFFFFFFFFFFFFFFFFFFFF
310
FFFFFFFFFFFFFFFFFFFFFFFFFFFFFFFFFFFFFFFFFFFFFFFFFFFFFFFFFFFFFFFF
310
F000FFFFFFFFFFFFFFFFFFFFFFFFFFFFFFFFFFFFFFFFFFFFFFFFFFFFFFFFFFFF
310
FFFFFFFFFFFFFFFFFFFFFFFFFFFFFFFFFFFFFFFFFFFFFFFFFFFFFFFFFFFFFFFF
310
FFFFFFFFFFFFFFFFFFFFFFFFFFFFFFFFFFFFFFFFFFFFFFFFF000FFFFFFFFFFFF
310
FFFFFFFFFFFFFFFFFFFFFFFFFFFFFFFFFFFFFFFFFFFFFFFFFFFFFFFFFFFFFFFF
310
FFFFFFFFFFFFFFFFFFFFFFFFFFFFFFFFFFFFFFFFFFFFFFFFFFFFFFFFFFFFFFFF
310
FFFFFFFFFFFFFFFFFFFFFFFFFFFFFFFFF000FFFFFFFFFFFFFFFFFFFFFFFFFFFF
310
FFFFFFFFFFFFFFFFFFFFFFFFFFFFFFFFFFFFFFFFFFFFFFFFFFFFFFFFFFFFFFFF
310
FFFFFFFFFFFFFFFFFFFFFFFFFFFFFFFFFFFFFFFFFFFFFFFFFFFFFFFFFFFFFFFF
310
FFFFFFFFFFFFFFFFF000FFFFFFFFFFFFFFFFFFFFFFFFFFFFFFFFFFFFFFFFFFFF
310
FFFFFFFFFFFFFFFFFFFFFFFFFFFFFFFFFFFFFFFFFFFFFFFFFFFFFFFFFFFFFFFF
310
FFFFFFFFFFFFFFFFFFFFFFFFFFFFFFFFFFFFFFFFFFFFFFFFFFFFFFFFFFFFFFFF
310
F000FFFFFFFFFFFFFFFFFFFFFFFFFFFFFFFFFFFFFFFFFFFFFFFFFFFFFFFFFFFF
310
FFFFFFFFFFFFFFFFFFFFFFFFFFFFFFFFFFFFFFFFFFFFFFFFFFFFFFFFFFFFFFFF
310
FFFFFFFFFFFFFFFFFFFFFFFFFFFFFFFFFFFFFFFFFFFFFFFFF000FFFFFFFFFFFF
310
FFFFFFFFFFFFFFFFFFFFFFFFFFFFFFFFFFFFFFFFFFFFFFFFFFFFFFFFFFFFFFFF
310
FFFFFFFFFFFFFFFFFFFFFFFFFFFFFFFFFFFFFFFFFFFFFFFFFFFFFFFFFFFFFFFF
310
FFFFFFFFFFFFFFFFFFFFFFFFFFFFFFFFF0000000000000000000000000000000
310
0000000000000000000000000000000000000000000000000000000000000000
310
0000000000000000000000000000000000000000000000000000000000000000
310
0000000000000000000000000000000000000000000000000000000000000000
310
0000000000000000000000000000000000000000000000000000000000000000
310
0000000000000000000000000000000000000000000000000000000000000000
310
0000000000000000000000000000000000000000000000000000000000000000
310
0000000000000000000000000000000000000000000000000000000000000000
310
0000000000000000000000000000000000000000000000000000000000000000
310
0000000000000000000000000000000000000000000000000000000000000000
310
0000000000000000000000000000000000000000000000000000000000000000
310
0000000000000000000000000000000000000000000000000000000000000000
310
0000000000000000000000000000000000000000000000000000000000000000
310
0000000000000000000000000000000000000000000000000000000000000000
310
0000000000000000000000000000000000000000000000000000000000000000
310
0000000000000000000000000000000000000000000000000000000000000000
  1
OLE
  0
ENDSEC
  0
SECTION
  2
OBJECTS
  0
DICTIONARY
  5
C
330
0
100
AcDbDictionary
281
     1
  3
ACAD_GROUP
350
D
  3
ACAD_LAYOUT
350
1A
  3
ACAD_MLINESTYLE
350
17
  3
ACAD_PLOTSETTINGS
350
19
  3
ACAD_PLOTSTYLENAME
350
E
  0
DICTIONARY
  5
D
102
{ACAD_REACTORS
330
C
102
}
330
C
100
AcDbDictionary
281
     1
  0
DICTIONARY
  5
1A
102
{ACAD_REACTORS
330
C
102
}
330
C
100
AcDbDictionary
281
     1
  3
Layout1
350
1E
  3
Layout2
350
26
  3
Model
350
22
  0
DICTIONARY
  5
17
102
{ACAD_REACTORS
330
C
102
}
330
C
100
AcDbDictionary
281
     1
  3
Standard
350
18
  0
DICTIONARY
  5
19
102
{ACAD_REACTORS
330
C
102
}
330
C
100
AcDbDictionary
281
     1
  0
ACDBDICTIONARYWDFLT
  5
E
102
{ACAD_REACTORS
330
C
102
}
330
C
100
AcDbDictionary
281
     1
  3
Normal
350
F
100
AcDbDictionaryWithDefault
340
F
  0
LAYOUT
  5
1E
102
{ACAD_REACTORS
330
1A
102
}
330
1A
100
AcDbPlotSettings
  1

  2
none_device
  4

  6

 40
0.0
 41
0.0
 42
0.0
 43
0.0
 44
0.0
 45
0.0
 46
0.0
 47
0.0
 48
0.0
 49
0.0
140
0.0
141
0.0
142
1.0
143
1.0
 70
   688
 72
     0
 73
     0
 74
     5
  7

 75
    16
147
1.0
148
0.0
149
0.0
100
AcDbLayout
  1
Layout1
 70
     1
 71
     1
 10
0.0
 20
0.0
 11
420.0
 21
297.0
 12
0.0
 22
0.0
 32
0.0
 14
1.0000000000E+20
 24
1.0000000000E+20
 34
1.0000000000E+20
 15
-1.0000000000E+20
 25
-1.0000000000E+20
 35
-1.0000000000E+20
146
0.0
 13
0.0
 23
0.0
 33
0.0
 16
1.0
 26
0.0
 36
0.0
 17
0.0
 27
1.0
 37
0.0
 76
     0
330
1B
  0
LAYOUT
  5
26
102
{ACAD_REACTORS
330
1A
102
}
330
1A
100
AcDbPlotSettings
  1

  2
none_device
  4

  6

 40
0.0
 41
0.0
 42
0.0
 43
0.0
 44
0.0
 45
0.0
 46
0.0
 47
0.0
 48
0.0
 49
0.0
140
0.0
141
0.0
142
1.0
143
1.0
 70
   688
 72
     0
 73
     0
 74
     5
  7

 75
    16
147
1.0
148
0.0
149
0.0
100
AcDbLayout
  1
Layout2
 70
     1
 71
     2
 10
0.0
 20
0.0
 11
0.0
 21
0.0
 12
0.0
 22
0.0
 32
0.0
 14
0.0
 24
0.0
 34
0.0
 15
0.0
 25
0.0
 35
0.0
146
0.0
 13
0.0
 23
0.0
 33
0.0
 16
1.0
 26
0.0
 36
0.0
 17
0.0
 27
1.0
 37
0.0
 76
     0
330
23
  0
LAYOUT
  5
22
102
{ACAD_REACTORS
330
1A
102
}
330
1A
100
AcDbPlotSettings
  1

  2
none_device
  4

  6

 40
0.0
 41
0.0
 42
0.0
 43
0.0
 44
0.0
 45
0.0
 46
0.0
 47
0.0
 48
0.0
 49
0.0
140
0.0
141
0.0
142
1.0
143
1.0
 70
  1712
 72
     0
 73
     0
 74
     0
  7

 75
     0
147
1.0
148
0.0
149
0.0
100
AcDbLayout
  1
Model
 70
     1
 71
     0
 10
0.0
 20
0.0
 11
297.0
 21
210.0
 12
0.0
 22
0.0
 32
0.0
 14
0.0
 24
0.0
 34
0.0
 15
297.0
 25
210.0
 35
0.0
146
0.0
 13
0.0
 23
0.0
 33
0.0
 16
1.0
 26
0.0
 36
0.0
 17
0.0
 27
1.0
 37
0.0
 76
     0
330
1F
331
29
  0
MLINESTYLE
  5
18
102
{ACAD_REACTORS
330
17
102
}
330
17
100
AcDbMlineStyle
  2
Standard
 70
     0
  3

 62
   256
 51
90.0
 52
90.0
 71
     2
 49
0.5
 62
   256
  6
BYLAYER
 49
-0.5
 62
   256
  6
BYLAYER
  0
ACDBPLACEHOLDER
  5
F
102
{ACAD_REACTORS
330
E
102
}
330
E
  0
ENDSEC
  0
EOF
