  0
SECTION
  2
HEADER
  9
$ACADVER
  1
AC1015
  9
$ACADMAINTVER
 70
     6
  9
$DWGCODEPAGE
  3
ANSI_1252
  9
$INSBASE
 10
0.0
 20
0.0
 30
0.0
  9
$EXTMIN
 10
0.0
 20
0.0
 30
0.0
  9
$EXTMAX
 10
297.0
 20
210.0
 30
0.0
  9
$LIMMIN
 10
0.0
 20
0.0
  9
$LIMMAX
 10
297.0
 20
210.0
  9
$ORTHOMODE
 70
     0
  9
$REGENMODE
 70
     1
  9
$FILLMODE
 70
     1
  9
$QTEXTMODE
 70
     0
  9
$MIRRTEXT
 70
     1
  9
$LTSCALE
 40
1.0
  9
$ATTMODE
 70
     1
  9
$TEXTSIZE
 40
2.0
  9
$TRACEWID
 40
1.0
  9
$TEXTSTYLE
  7
Standard
  9
$CLAYER
  8
0
  9
$CELTYPE
  6
ByLayer
  9
$CECOLOR
 62
   256
  9
$CELTSCALE
 40
1.0
  9
$DISPSILH
 70
     0
  9
$DIMSCALE
 40
1.0
  9
$DIMASZ
 40
3.0
  9
$DIMEXO
 40
0.0
  9
$DIMDLI
 40
3.75
  9
$DIMRND
 40
0.0
  9
$DIMDLE
 40
0.0
  9
$DIMEXE
 40
1.0
  9
$DIMTP
 40
0.0
  9
$DIMTM
 40
0.0
  9
$DIMTXT
 40
2.0
  9
$DIMCEN
 40
2.5
  9
$DIMTSZ
 40
0.0
  9
$DIMTOL
 70
     0
  9
$DIMLIM
 70
     0
  9
$DIMTIH
 70
     1
  9
$DIMTOH
 70
     1
  9
$DIMSE1
 70
     0
  9
$DIMSE2
 70
     0
  9
$DIMTAD
 70
     1
  9
$DIMZIN
 70
     0
  9
$DIMBLK
  1

  9
$DIMASO
 70
     1
  9
$DIMSHO
 70
     1
  9
$DIMPOST
  1

  9
$DIMAPOST
  1

  9
$DIMALT
 70
     0
  9
$DIMALTD
 70
     3
  9
$DIMALTF
 40
0.0393700787
  9
$DIMLFAC
 40
1.0
  9
$DIMTOFL
 70
     1
  9
$DIMTVP
 40
0.0
  9
$DIMTIX
 70
     0
  9
$DIMSOXD
 70
     0
  9
$DIMSAH
 70
     0
  9
$DIMBLK1
  1

  9
$DIMBLK2
  1

  9
$DIMSTYLE
  2
ISO-25
  9
$DIMCLRD
 70
     0
  9
$DIMCLRE
 70
     0
  9
$DIMCLRT
 70
     0
  9
$DIMTFAC
 40
1.0
  9
$DIMGAP
 40
1.524
  9
$DIMJUST
 70
     0
  9
$DIMSD1
 70
     0
  9
$DIMSD2
 70
     0
  9
$DIMTOLJ
 70
     0
  9
$DIMTZIN
 70
     0
  9
$DIMALTZ
 70
     0
  9
$DIMALTTZ
 70
     0
  9
$DIMUPT
 70
     0
  9
$DIMDEC
 70
     2
  9
$DIMTDEC
 70
     3
  9
$DIMALTU
 70
     2
  9
$DIMALTTD
 70
     3
  9
$DIMTXSTY
  7
Standard
  9
$DIMAUNIT
 70
     0
  9
$DIMADEC
 70
     2
  9
$DIMALTRND
 40
0.0
  9
$DIMAZIN
 70
     0
  9
$DIMDSEP
 70
    44
  9
$DIMATFIT
 70
     3
  9
$DIMFRAC
 70
     0
  9
$DIMLDRBLK
  1

  9
$DIMLUNIT
 70
     2
  9
$DIMLWD
 70
    -2
  9
$DIMLWE
 70
    -2
  9
$DIMTMOVE
 70
     0
  9
$LUNITS
 70
     2
  9
$LUPREC
 70
     2
  9
$SKETCHINC
 40
1.0
  9
$FILLETRAD
 40
10.0
  9
$AUNITS
 70
     0
  9
$AUPREC
 70
     2
  9
$MENU
  1
.
  9
$ELEVATION
 40
0.0
  9
$PELEVATION
 40
0.0
  9
$THICKNESS
 40
0.0
  9
$LIMCHECK
 70
     0
  9
$CHAMFERA
 40
10.0
  9
$CHAMFERB
 40
10.0
  9
$CHAMFERC
 40
20.0
  9
$CHAMFERD
 40
0.0
  9
$SKPOLY
 70
     0
  9
$TDCREATE
 40
2456094.620804757
  9
$TDUCREATE
 40
2456094.537471423
  9
$TDUPDATE
 40
2456094.620806563
  9
$TDUUPDATE
 40
2456094.537473229
  9
$TDINDWG
 40
0.0000000116
  9
$TDUSRTIMER
 40
0.0000000116
  9
$USRTIMER
 70
     1
  9
$ANGBASE
 50
0.0
  9
$ANGDIR
 70
     0
  9
$PDMODE
 70
     0
  9
$PDSIZE
 40
-1.0
  9
$PLINEWID
 40
0.0
  9
$SPLFRAME
 70
     0
  9
$SPLINETYPE
 70
     6
  9
$SPLINESEGS
 70
     8
  9
$HANDSEED
  5
329
  9
$SURFTAB1
 70
     6
  9
$SURFTAB2
 70
     6
  9
$SURFTYPE
 70
     6
  9
$SURFU
 70
     6
  9
$SURFV
 70
     6
  9
$UCSBASE
  2

  9
$UCSNAME
  2

  9
$UCSORG
 10
0.0
 20
0.0
 30
0.0
  9
$UCSXDIR
 10
1.0
 20
0.0
 30
0.0
  9
$UCSYDIR
 10
0.0
 20
1.0
 30
0.0
  9
$UCSORTHOREF
  2

  9
$UCSORTHOVIEW
 70
     0
  9
$UCSORGTOP
 10
0.0
 20
0.0
 30
0.0
  9
$UCSORGBOTTOM
 10
0.0
 20
0.0
 30
0.0
  9
$UCSORGLEFT
 10
0.0
 20
0.0
 30
0.0
  9
$UCSORGRIGHT
 10
0.0
 20
0.0
 30
0.0
  9
$UCSORGFRONT
 10
0.0
 20
0.0
 30
0.0
  9
$UCSORGBACK
 10
0.0
 20
0.0
 30
0.0
  9
$PUCSBASE
  2

  9
$PUCSNAME
  2

  9
$PUCSORG
 10
0.0
 20
0.0
 30
0.0
  9
$PUCSXDIR
 10
1.0
 20
0.0
 30
0.0
  9
$PUCSYDIR
 10
0.0
 20
1.0
 30
0.0
  9
$PUCSORTHOREF
  2

  9
$PUCSORTHOVIEW
 70
     0
  9
$PUCSORGTOP
 10
0.0
 20
0.0
 30
0.0
  9
$PUCSORGBOTTOM
 10
0.0
 20
0.0
 30
0.0
  9
$PUCSORGLEFT
 10
0.0
 20
0.0
 30
0.0
  9
$PUCSORGRIGHT
 10
0.0
 20
0.0
 30
0.0
  9
$PUCSORGFRONT
 10
0.0
 20
0.0
 30
0.0
  9
$PUCSORGBACK
 10
0.0
 20
0.0
 30
0.0
  9
$USERI1
 70
     0
  9
$USERI2
 70
     0
  9
$USERI3
 70
     0
  9
$USERI4
 70
     0
  9
$USERI5
 70
     0
  9
$USERR1
 40
0.0
  9
$USERR2
 40
0.0
  9
$USERR3
 40
0.0
  9
$USERR4
 40
0.0
  9
$USERR5
 40
0.0
  9
$WORLDVIEW
 70
     1
  9
$SHADEDGE
 70
     3
  9
$SHADEDIF
 70
    70
  9
$TILEMODE
 70
     1
  9
$MAXACTVP
 70
    64
  9
$PINSBASE
 10
0.0
 20
0.0
 30
0.0
  9
$PLIMCHECK
 70
     0
  9
$PEXTMIN
 10
1.0000000000E+20
 20
1.0000000000E+20
 30
1.0000000000E+20
  9
$PEXTMAX
 10
-1.0000000000E+20
 20
-1.0000000000E+20
 30
-1.0000000000E+20
  9
$PLIMMIN
 10
0.0
 20
0.0
  9
$PLIMMAX
 10
420.0
 20
297.0
  9
$UNITMODE
 70
     0
  9
$VISRETAIN
 70
     1
  9
$PLINEGEN
 70
     0
  9
$PSLTSCALE
 70
     1
  9
$TREEDEPTH
 70
  3020
  9
$CMLSTYLE
  2
Standard
  9
$CMLJUST
 70
     0
  9
$CMLSCALE
 40
20.0
  9
$PROXYGRAPHICS
 70
     1
  9
$MEASUREMENT
 70
     1
  9
$CELWEIGHT
370
    -1
  9
$ENDCAPS
280
     0
  9
$JOINSTYLE
280
     0
  9
$LWDISPLAY
290
     1
  9
$INSUNITS
 70
     4
  9
$HYPERLINKBASE
  1

  9
$STYLESHEET
  1

  9
$XEDIT
290
     1
  9
$CEPSNTYPE
380
     0
  9
$PSTYLEMODE
290
     1
  9
$FINGERPRINTGUID
  2
{2F748BC7-6093-4090-8E95-5B151926FE6C}
  9
$VERSIONGUID
  2
{FAEB1C32-E019-11D5-929B-00C0DF256EC4}
  9
$EXTNAMES
290
     1
  9
$PSVPSCALE
 40
0.0
  9
$OLESTARTUP
290
     0
  0
ENDSEC
  0
SECTION
  2
CLASSES
  0
CLASS
  1
ACDBDICTIONARYWDFLT
  2
AcDbDictionaryWithDefault
  3
ObjectDBX Classes
 90
        0
280
     0
281
     0
  0
CLASS
  1
VISUALSTYLE
  2
AcDbVisualStyle
  3
ObjectDBX Classes
 90
     4095
280
     0
281
     0
  0
CLASS
  1
MATERIAL
  2
AcDbMaterial
  3
ObjectDBX Classes
 90
     1153
280
     0
281
     0
  0
CLASS
  1
ACDBPLACEHOLDER
  2
AcDbPlaceHolder
  3
ObjectDBX Classes
 90
        0
280
     0
281
     0
  0
CLASS
  1
LAYOUT
  2
AcDbLayout
  3
ObjectDBX Classes
 90
        0
280
     0
281
     0
  0
ENDSEC
  0
SECTION
  2
TABLES
  0
TABLE
  2
VPORT
  5
8
330
0
100
AcDbSymbolTable
 70
     1
  0
VPORT
  5
29
330
8
100
AcDbSymbolTableRecord
100
AcDbViewportTableRecord
  2
*Active
 70
     0
 10
0.0
 20
0.0
 11
1.0
 21
1.0
 12
148.5
 22
105.0
 13
0.0
 23
0.0
 14
10.0
 24
10.0
 15
10.0
 25
10.0
 16
0.0
 26
0.0
 36
1.0
 17
0.0
 27
0.0
 37
0.0
 40
210.0
 41
1.4142857143
 42
50.0
 43
0.0
 44
0.0
 50
0.0
 51
0.0
 71
     0
 72
  2000
 73
     1
 74
     3
 75
     0
 76
     0
 77
     0
 78
     0
281
     0
 65
     1
110
0.0
120
0.0
130
0.0
111
1.0
121
0.0
131
0.0
112
0.0
122
1.0
132
0.0
 79
     0
146
0.0
  0
ENDTAB
  0
TABLE
  2
LTYPE
  5
5
330
0
100
AcDbSymbolTable
 70
     6
  0
LTYPE
  5
14
330
5
100
AcDbSymbolTableRecord
100
AcDbLinetypeTableRecord
  2
ByBlock
 70
     0
  3

 72
    65
 73
     0
 40
0.0
  0
LTYPE
  5
15
330
5
100
AcDbSymbolTableRecord
100
AcDbLinetypeTableRecord
  2
ByLayer
 70
     0
  3

 72
    65
 73
     0
 40
0.0
  0
LTYPE
  5
16
330
5
100
AcDbSymbolTableRecord
100
AcDbLinetypeTableRecord
  2
Continuous
 70
     0
  3
Solid line
 72
    65
 73
     0
 40
0.0
  0
LTYPE
  5
3F
330
5
100
AcDbSymbolTableRecord
100
AcDbLinetypeTableRecord
  2
HIDDEN
 70
     0
  3
Hidden __ __ __ __ __ __ __ __ __ __ __ __ __ __
 72
    65
 73
     2
 40
1.905
 49
1.27
 74
     0
 49
-0.635
 74
     0
  0
LTYPE
  5
40
330
5
100
AcDbSymbolTableRecord
100
AcDbLinetypeTableRecord
  2
PHANTOM
 70
     0
  3
Phantom ______  __  __  ______  __  __  ______
 72
    65
 73
     6
 40
12.7
 49
6.35
 74
     0
 49
-1.27
 74
     0
 49
1.27
 74
     0
 49
-1.27
 74
     0
 49
1.27
 74
     0
 49
-1.27
 74
     0
  0
LTYPE
  5
41
330
5
100
AcDbSymbolTableRecord
100
AcDbLinetypeTableRecord
  2
CENTER
 70
     0
  3
Center ____ _ ____ _ ____ _ ____ _ ____ _ ____
 72
    65
 73
     4
 40
10.16
 49
6.35
 74
     0
 49
-1.27
 74
     0
 49
1.27
 74
     0
 49
-1.27
 74
     0
  0
LTYPE
  5
42
330
5
100
AcDbSymbolTableRecord
100
AcDbLinetypeTableRecord
  2
CENTERX2
 70
     0
  3
Center (2x) ________  __  ________  __  _____
 72
    65
 73
     4
 40
20.32
 49
12.7
 74
     0
 49
-2.54
 74
     0
 49
2.54
 74
     0
 49
-2.54
 74
     0
  0
LTYPE
  5
43
330
5
100
AcDbSymbolTableRecord
100
AcDbLinetypeTableRecord
  2
DOT2
 70
     0
  3
Dot (.5x) ........................................
 72
    65
 73
     2
 40
0.635
 49
0.0
 74
     0
 49
-0.635
 74
     0
  0
ENDTAB
  0
TABLE
  2
LAYER
  5
2
330
0
100
AcDbSymbolTable
 70
     5
  0
LAYER
  5
10
330
2
100
AcDbSymbolTableRecord
100
AcDbLayerTableRecord
  2
0
 70
     0
 62
     7
  6
Continuous
370
    -3
390
F
  0
LAYER
  5
44
330
2
100
AcDbSymbolTableRecord
100
AcDbLayerTableRecord
  2
FORMAT
 70
     0
 62
     7
  6
Continuous
370
    -3
390
F
  0
LAYER
  5
45
330
2
100
AcDbSymbolTableRecord
100
AcDbLayerTableRecord
  2
VERMASSUNG
 70
     0
 62
     7
  6
Continuous
370
    -3
390
F
  0
LAYER
  5
46
330
2
100
AcDbSymbolTableRecord
100
AcDbLayerTableRecord
  2
KOPF_DÜNN
 70
     0
 62
     7
  6
Continuous
370
    -3
390
F
  0
LAYER
  5
47
330
2
100
AcDbSymbolTableRecord
100
AcDbLayerTableRecord
  2
KOPF_DICK
 70
     0
 62
     7
  6
Continuous
370
    15
390
F
  0
ENDTAB
  0
TABLE
  2
STYLE
  5
3
330
0
100
AcDbSymbolTable
 70
     2
  0
STYLE
  5
11
330
3
100
AcDbSymbolTableRecord
100
AcDbTextStyleTableRecord
  2
Standard
 70
     0
 40
0.0
 41
1.0
 50
0.0
 71
     0
 42
2.0
  3
txt
  4

  0
STYLE
  5
48
330
3
100
AcDbSymbolTableRecord
100
AcDbTextStyleTableRecord
  2
SLDTEXTSTYLE0
 70
     0
 40
0.0
 41
0.7
 50
0.0
 71
     0
 42
0.2
  3
TXT
  4

  0
ENDTAB
  0
TABLE
  2
VIEW
  5
6
330
0
100
AcDbSymbolTable
 70
     0
  0
ENDTAB
  0
TABLE
  2
UCS
  5
7
330
0
100
AcDbSymbolTable
 70
     0
  0
ENDTAB
  0
TABLE
  2
APPID
  5
9
330
0
100
AcDbSymbolTable
 70
     1
  0
APPID
  5
12
330
9
100
AcDbSymbolTableRecord
100
AcDbRegAppTableRecord
  2
ACAD
 70
     0
  0
ENDTAB
  0
TABLE
  2
DIMSTYLE
  5
A
330
0
100
AcDbSymbolTable
 70
     4
100
AcDbDimStyleTable
  0
DIMSTYLE
105
27
330
A
100
AcDbSymbolTableRecord
100
AcDbDimStyleTableRecord
  2
ISO-25
 70
     0
 41
2.5
 42
0.625
 43
3.75
 44
1.25
 73
     0
 74
     0
 77
     1
 78
     8
140
2.5
141
2.5
143
0.0393700787
147
0.625
171
     3
172
     1
178
     0
271
     2
272
     2
274
     3
278
    44
283
     0
284
     8
340
11
  0
DIMSTYLE
105
258
102
{ACAD_REACTORS
330
257
330
301
102
}
330
A
100
AcDbSymbolTableRecord
100
AcDbDimStyleTableRecord
  2
SLDDIMSTYLE0
 70
     0
 41
3.0
 44
0.0
 73
     0
 74
     0
 77
     1
 78
    12
 79
     3
140
2.0
147
0.5
173
     1
178
     0
179
     2
272
     3
276
     2
284
    12
340
48
  0
DIMSTYLE
105
261
102
{ACAD_REACTORS
330
260
330
26B
330
275
330
27F
102
}
330
A
100
AcDbSymbolTableRecord
100
AcDbDimStyleTableRecord
  2
SLDDIMSTYLE1
 70
     0
 41
3.0
 44
0.0
 45
0.000000001
 73
     0
 74
     0
 77
     1
 78
    12
 79
     3
140
2.0
147
0.5
173
     1
178
     0
271
     2
272
     3
276
     2
284
    12
340
48
  0
DIMSTYLE
105
30E
102
{ACAD_REACTORS
330
30D
102
}
330
A
100
AcDbSymbolTableRecord
100
AcDbDimStyleTableRecord
  2
SLDDIMSTYLE2
 70
     0
 41
3.0
 44
0.0
 45
0.000000001
 73
     0
 74
     0
 77
     1
 78
    12
 79
     3
140
2.0
147
0.5
172
     1
173
     1
178
     0
271
     2
272
     3
276
     2
284
    12
289
     0
340
48
  0
ENDTAB
  0
TABLE
  2
BLOCK_RECORD
  5
1
330
0
100
AcDbSymbolTable
 70
     9
  0
BLOCK_RECORD
  5
1F
330
1
100
AcDbSymbolTableRecord
100
AcDbBlockTableRecord
  2
*Model_Space
340
22
  0
BLOCK_RECORD
  5
1B
330
1
100
AcDbSymbolTableRecord
100
AcDbBlockTableRecord
  2
*Paper_Space
340
1E
  0
BLOCK_RECORD
  5
23
330
1
100
AcDbSymbolTableRecord
100
AcDbBlockTableRecord
  2
*Paper_Space0
340
26
  0
BLOCK_RECORD
  5
259
330
1
100
AcDbSymbolTableRecord
100
AcDbBlockTableRecord
  2
_D
340
0
  0
BLOCK_RECORD
  5
262
330
1
100
AcDbSymbolTableRecord
100
AcDbBlockTableRecord
  2
_D_1
340
0
  0
BLOCK_RECORD
  5
26C
330
1
100
AcDbSymbolTableRecord
100
AcDbBlockTableRecord
  2
_D_2
340
0
  0
BLOCK_RECORD
  5
276
330
1
100
AcDbSymbolTableRecord
100
AcDbBlockTableRecord
  2
_D_3
340
0
  0
BLOCK_RECORD
  5
280
330
1
100
AcDbSymbolTableRecord
100
AcDbBlockTableRecord
  2
_D_4
340
0
  0
BLOCK_RECORD
  5
302
330
1
100
AcDbSymbolTableRecord
100
AcDbBlockTableRecord
  2
_D_5
340
0
  0
BLOCK_RECORD
  5
30F
330
1
100
AcDbSymbolTableRecord
100
AcDbBlockTableRecord
  2
_D_6
340
0
  0
BLOCK_RECORD
  5
31C
330
1
100
AcDbSymbolTableRecord
100
AcDbBlockTableRecord
  2
SW_CENTERMARKSYMBOL_0
340
0
102
{BLKREFS
331
327
102
}
  0
ENDTAB
  0
ENDSEC
  0
SECTION
  2
BLOCKS
  0
BLOCK
  5
20
330
1F
100
AcDbEntity
  8
0
100
AcDbBlockBegin
  2
*Model_Space
 70
     0
 10
0.0
 20
0.0
 30
0.0
  3
*Model_Space
  1

  0
ENDBLK
  5
21
330
1F
100
AcDbEntity
  8
0
100
AcDbBlockEnd
  0
BLOCK
  5
1C
330
1B
100
AcDbEntity
 67
     1
  8
0
100
AcDbBlockBegin
  2
*Paper_Space
 70
     0
 10
0.0
 20
0.0
 30
0.0
  3
*Paper_Space
  1

  0
ENDBLK
  5
1D
330
1B
100
AcDbEntity
 67
     1
  8
0
100
AcDbBlockEnd
  0
BLOCK
  5
24
330
23
100
AcDbEntity
  8
0
100
AcDbBlockBegin
  2
*Paper_Space0
 70
     0
 10
0.0
 20
0.0
 30
0.0
  3
*Paper_Space0
  1

  0
ENDBLK
  5
25
330
23
100
AcDbEntity
  8
0
100
AcDbBlockEnd
  0
BLOCK
  5
25A
330
259
100
AcDbEntity
  8
0
100
AcDbBlockBegin
  2
_D
 70
     0
 10
0.0
 20
0.0
 30
0.0
  3
_D
  1

  0
ARC
  5
25C
330
259
100
AcDbEntity
  8
VERMASSUNG
100
AcDbCircle
 10
224.4198657927
 20
140.3492864476
 30
0.0
 40
10.78684295628422
100
AcDbArc
 50
264.9952138766
 51
0.0
  0
SOLID
  5
25D
330
259
100
AcDbEntity
  8
VERMASSUNG
100
AcDbTrace
 10
223.4788328511
 20
129.6035692558
 30
0.0
 11
226.4970548626
 21
129.2988794306
 31
0.0
 12
226.4536191238
 22
130.1978306732
 32
0.0
 13
226.4536191238
 23
130.1978306732
 33
0.0
  0
SOLID
  5
25E
330
259
100
AcDbEntity
  8
VERMASSUNG
100
AcDbTrace
 10
235.206708749
 20
140.3492864476
 30
0.0
 11
234.3551957491
 21
137.4376845499
 31
0.0
 12
235.2469303743
 22
137.3159908437
 32
0.0
 13
235.2469303743
 23
137.3159908437
 33
0.0
  0
MTEXT
  5
25F
330
259
100
AcDbEntity
  8
VERMASSUNG
100
AcDbMText
 10
227.827149229
 20
132.3378383219
 30
0.1
 40
2.0
 41
0.0
 71
     1
 72
     1
  1
95°
  7
SLDTEXTSTYLE0
 11
0.7373055534122332
 21
0.675559413306839
 31
0.0
 73
     1
 44
1.0
  0
ENDBLK
  5
25B
330
259
100
AcDbEntity
  8
0
100
AcDbBlockEnd
  0
BLOCK
  5
263
330
262
100
AcDbEntity
  8
0
100
AcDbBlockBegin
  2
_D_1
 70
     0
 10
0.0
 20
0.0
 30
0.0
  3
_D_1
  1

  0
SOLID
  5
265
330
262
100
AcDbEntity
  8
VERMASSUNG
100
AcDbTrace
 10
241.0821965863
 20
140.3492864476
 30
0.0
 11
240.6321965863
 21
137.3492864476
 31
0.0
 12
241.5321965863
 22
137.3492864476
 32
0.0
 13
241.5321965863
 23
137.3492864476
 33
0.0
  0
SOLID
  5
266
330
262
100
AcDbEntity
  8
VERMASSUNG
100
AcDbTrace
 10
241.0821965863
 20
113.3492864476
 30
0.0
 11
241.5321965863
 21
116.3492864476
 31
0.0
 12
240.6321965863
 22
116.3492864476
 32
0.0
 13
240.6321965863
 23
116.3492864476
 33
0.0
  0
LINE
  5
267
330
262
100
AcDbEntity
  8
VERMASSUNG
100
AcDbLine
 10
224.3831226866
 20
140.3492864476
 30
0.0
 11
242.0821965863
 21
140.3492864476
 31
0.0
  0
LINE
  5
268
330
262
100
AcDbEntity
  8
VERMASSUNG
100
AcDbLine
 10
224.3831226866
 20
113.3492864476
 30
0.0
 11
242.0821965863
 21
113.3492864476
 31
0.0
  0
LINE
  5
269
330
262
100
AcDbEntity
  8
VERMASSUNG
100
AcDbLine
 10
241.0821965863
 20
140.3492864476
 30
0.0
 11
241.0821965863
 21
113.3492864476
 31
0.0
  0
MTEXT
  5
26A
330
262
100
AcDbEntity
  8
VERMASSUNG
100
AcDbMText
 10
238.5040612232
 20
124.5492863966
 30
0.1
 40
2.0
 41
0.0
 71
     1
 72
     1
  1
27
  7
SLDTEXTSTYLE0
 11
-7.044195017643634E-15
 21
1.0
 31
0.0
 73
     1
 44
1.0
  0
ENDBLK
  5
264
330
262
100
AcDbEntity
  8
0
100
AcDbBlockEnd
  0
BLOCK
  5
26D
330
26C
100
AcDbEntity
  8
0
100
AcDbBlockBegin
  2
_D_2
 70
     0
 10
0.0
 20
0.0
 30
0.0
  3
_D_2
  1

  0
SOLID
  5
26F
330
26C
100
AcDbEntity
  8
VERMASSUNG
100
AcDbTrace
 10
169.3831226866
 20
149.3664905181
 30
0.0
 11
172.3831226866
 21
148.9164905181
 31
0.0
 12
172.3831226866
 22
149.8164905181
 32
0.0
 13
172.3831226866
 23
149.8164905181
 33
0.0
  0
SOLID
  5
270
330
26C
100
AcDbEntity
  8
VERMASSUNG
100
AcDbTrace
 10
224.3831226866
 20
149.3664905181
 30
0.0
 11
221.3831226866
 21
149.8164905181
 31
0.0
 12
221.3831226866
 22
148.9164905181
 32
0.0
 13
221.3831226866
 23
148.9164905181
 33
0.0
  0
LINE
  5
271
330
26C
100
AcDbEntity
  8
VERMASSUNG
100
AcDbLine
 10
169.3831226866
 20
133.0492864476
 30
0.0
 11
169.3831226866
 21
150.3664905181
 31
0.0
  0
LINE
  5
272
330
26C
100
AcDbEntity
  8
VERMASSUNG
100
AcDbLine
 10
224.3831226866
 20
140.3492864476
 30
0.0
 11
224.3831226866
 21
150.3664905181
 31
0.0
  0
LINE
  5
273
330
26C
100
AcDbEntity
  8
VERMASSUNG
100
AcDbLine
 10
169.3831226866
 20
149.3664905181
 30
0.0
 11
224.3831226866
 21
149.3664905181
 31
0.0
  0
MTEXT
  5
274
330
26C
100
AcDbEntity
  8
VERMASSUNG
100
AcDbMText
 10
194.5831226356
 20
151.9446258812
 30
0.1
 40
2.0
 41
0.0
 71
     1
 72
     1
  1
55
  7
SLDTEXTSTYLE0
 73
     1
 44
1.0
  0
ENDBLK
  5
26E
330
26C
100
AcDbEntity
  8
0
100
AcDbBlockEnd
  0
BLOCK
  5
277
330
276
100
AcDbEntity
  8
0
100
AcDbBlockBegin
  2
_D_3
 70
     0
 10
0.0
 20
0.0
 30
0.0
  3
_D_3
  1

  0
SOLID
  5
279
330
276
100
AcDbEntity
  8
VERMASSUNG
100
AcDbTrace
 10
224.3831226866
 20
156.9389719672
 30
0.0
 11
221.3831226866
 21
157.3889719672
 31
0.0
 12
221.3831226866
 22
156.4889719672
 32
0.0
 13
221.3831226866
 23
156.4889719672
 33
0.0
  0
SOLID
  5
27A
330
276
100
AcDbEntity
  8
VERMASSUNG
100
AcDbTrace
 10
149.4831226866
 20
156.9389719672
 30
0.0
 11
152.4831226866
 21
156.4889719672
 31
0.0
 12
152.4831226866
 22
157.3889719672
 32
0.0
 13
152.4831226866
 23
157.3889719672
 33
0.0
  0
LINE
  5
27B
330
276
100
AcDbEntity
  8
VERMASSUNG
100
AcDbLine
 10
224.3831226866
 20
140.3492864476
 30
0.0
 11
224.3831226866
 21
157.9389719672
 31
0.0
  0
LINE
  5
27C
330
276
100
AcDbEntity
  8
VERMASSUNG
100
AcDbLine
 10
149.4831226866
 20
125.2792864476
 30
0.0
 11
149.4831226866
 21
157.9389719672
 31
0.0
  0
LINE
  5
27D
330
276
100
AcDbEntity
  8
VERMASSUNG
100
AcDbLine
 10
224.3831226866
 20
156.9389719672
 30
0.0
 11
149.4831226866
 21
156.9389719672
 31
0.0
  0
MTEXT
  5
27E
330
276
100
AcDbEntity
  8
VERMASSUNG
100
AcDbMText
 10
183.5331226416
 20
159.5171073304
 30
0.1
 40
2.0
 41
0.0
 71
     1
 72
     1
  1
74.9
  7
SLDTEXTSTYLE0
 73
     1
 44
1.0
  0
ENDBLK
  5
278
330
276
100
AcDbEntity
  8
0
100
AcDbBlockEnd
  0
BLOCK
  5
281
330
280
100
AcDbEntity
  8
0
100
AcDbBlockBegin
  2
_D_4
 70
     0
 10
0.0
 20
0.0
 30
0.0
  3
_D_4
  1

  0
SOLID
  5
283
330
280
100
AcDbEntity
  8
VERMASSUNG
100
AcDbTrace
 10
139.4169213471
 20
133.3492864476
 30
0.0
 11
138.9669213471
 21
130.3492864476
 31
0.0
 12
139.8669213471
 22
130.3492864476
 32
0.0
 13
139.8669213471
 23
130.3492864476
 33
0.0
  0
SOLID
  5
284
330
280
100
AcDbEntity
  8
VERMASSUNG
100
AcDbTrace
 10
139.4169213471
 20
93.3492864476
 30
0.0
 11
139.8669213471
 21
96.3492864476
 31
0.0
 12
138.9669213471
 22
96.3492864476
 32
0.0
 13
138.9669213471
 23
96.3492864476
 33
0.0
  0
LINE
  5
285
330
280
100
AcDbEntity
  8
VERMASSUNG
100
AcDbLine
 10
169.6831226866
 20
133.3492864476
 30
0.0
 11
138.4169213471
 21
133.3492864476
 31
0.0
  0
LINE
  5
286
330
280
100
AcDbEntity
  8
VERMASSUNG
100
AcDbLine
 10
169.6831226866
 20
93.3492864476
 30
0.0
 11
138.4169213471
 21
93.3492864476
 31
0.0
  0
LINE
  5
287
330
280
100
AcDbEntity
  8
VERMASSUNG
100
AcDbLine
 10
139.4169213471
 20
133.3492864476
 30
0.0
 11
139.4169213471
 21
93.3492864476
 31
0.0
  0
MTEXT
  5
288
330
280
100
AcDbEntity
  8
VERMASSUNG
100
AcDbMText
 10
136.6387858581
 20
105.3442857967
 30
0.1
 40
2.0
 41
0.0
 71
     1
 72
     1
  1
HSK T
  7
SLDTEXTSTYLE0
 11
-7.044195017643634E-15
 21
1.0
 31
0.0
 73
     1
 44
1.0
  0
MTEXT
  5
289
330
280
100
AcDbEntity
  8
VERMASSUNG
100
AcDbMText
 10
136.8387858676
 20
112.9442859249
 30
0.1
 40
2.0
 41
0.0
 71
     1
 72
     1
  1
%%c
  7
SLDTEXTSTYLE0
 11
-7.044195017643634E-15
 21
1.0
 31
0.0
 73
     1
 44
1.0
  0
MTEXT
  5
28A
330
280
100
AcDbEntity
  8
VERMASSUNG
100
AcDbMText
 10
136.6387858581
 20
116.5542859392
 30
0.1
 40
2.0
 41
0.0
 71
     1
 72
     1
  1
40
  7
SLDTEXTSTYLE0
 11
-7.044195017643634E-15
 21
1.0
 31
0.0
 73
     1
 44
1.0
  0
ENDBLK
  5
282
330
280
100
AcDbEntity
  8
0
100
AcDbBlockEnd
  0
BLOCK
  5
303
330
302
100
AcDbEntity
  8
0
100
AcDbBlockBegin
  2
_D_5
 70
     0
 10
0.0
 20
0.0
 30
0.0
  3
_D_5
  1

  0
ARC
  5
305
330
302
100
AcDbEntity
  8
VERMASSUNG
100
AcDbCircle
 10
79.2069913115
 20
141.3547947272
 30
0.0
 40
63.51399990897124
100
AcDbArc
 50
264.0
 51
270.0
  0
ARC
  5
306
330
302
100
AcDbEntity
  8
VERMASSUNG
100
AcDbCircle
 10
79.2069913115
 20
141.3547947272
 30
0.0
 40
63.51399990897125
100
AcDbArc
 50
258.5929458195
 51
264.0
  0
ARC
  5
307
330
302
100
AcDbEntity
  8
VERMASSUNG
100
AcDbCircle
 10
79.2069913115
 20
141.3547947272
 30
0.0
 40
63.51399990897125
100
AcDbArc
 50
270.0
 51
275.4070541805
  0
SOLID
  5
308
330
302
100
AcDbEntity
  8
VERMASSUNG
100
AcDbTrace
 10
72.567970505
 20
78.1887311553
 30
0.0
 11
69.6502205435
 21
79.0189330356
 31
0.0
 12
69.5350500635
 22
78.1263324752
 32
0.0
 13
69.5350500635
 23
78.1263324752
 33
0.0
  0
SOLID
  5
309
330
302
100
AcDbEntity
  8
VERMASSUNG
100
AcDbTrace
 10
79.2069913115
 20
77.8407948182
 30
0.0
 11
82.2167746594
 21
77.4617114516
 31
0.0
 12
82.1955372602
 22
78.3614608461
 32
0.0
 13
82.1955372602
 23
78.3614608461
 33
0.0
  0
LINE
  5
30A
330
302
100
AcDbEntity
  8
VERMASSUNG
100
AcDbLine
 10
73.3134864364
 20
85.2818414325
 30
0.0
 11
72.4634420418
 21
77.1942092599
 31
0.0
  0
LINE
  5
30B
330
302
100
AcDbEntity
  8
VERMASSUNG
100
AcDbLine
 10
79.2069913115
 20
90.8492864476
 30
0.0
 11
79.2069913115
 21
76.8407948182
 31
0.0
  0
MTEXT
  5
30C
330
302
100
AcDbEntity
  8
VERMASSUNG
100
AcDbMText
 10
73.8208693739
 20
80.6175797812
 30
0.1
 40
2.0
 41
0.0
 71
     1
 72
     1
  1
6°
  7
SLDTEXTSTYLE0
 11
0.9986295347545747
 21
-0.05233595624292663
 31
0.0
 73
     1
 44
1.0
  0
ENDBLK
  5
304
330
302
100
AcDbEntity
  8
0
100
AcDbBlockEnd
  0
BLOCK
  5
310
330
30F
100
AcDbEntity
  8
0
100
AcDbBlockBegin
  2
_D_6
 70
     0
 10
0.0
 20
0.0
 30
0.0
  3
_D_6
  1

  0
SOLID
  5
312
330
30F
100
AcDbEntity
  8
VERMASSUNG
100
AcDbTrace
 10
94.3412763342
 20
95.4063783638
 30
0.0
 11
95.7992161282
 21
92.746131842
 31
0.0
 12
96.5155649456
 22
93.2909661028
 32
0.0
 13
96.5155649456
 23
93.2909661028
 33
0.0
  0
SOLID
  5
313
330
30F
100
AcDbEntity
  8
VERMASSUNG
100
AcDbTrace
 10
64.0727062889
 20
135.2035348881
 30
0.0
 11
62.6147664949
 21
137.8637814099
 31
0.0
 12
61.8984176774
 22
137.3189471491
 32
0.0
 13
61.8984176774
 23
137.3189471491
 33
0.0
  0
LINE
  5
314
330
30F
100
AcDbEntity
  8
VERMASSUNG
100
AcDbLine
 10
94.3412763342
 20
95.4063783638
 30
0.0
 11
93.5453332037
 21
94.8010069629
 31
0.0
  0
LINE
  5
315
330
30F
100
AcDbEntity
  8
VERMASSUNG
100
AcDbLine
 10
64.0727062889
 20
135.2035348881
 30
0.0
 11
63.2767631584
 21
134.5981634871
 31
0.0
  0
LINE
  5
316
330
30F
100
AcDbEntity
  8
VERMASSUNG
100
AcDbLine
 10
94.3412763342
 20
95.4063783638
 30
0.0
 11
97.9735047396
 21
90.6307195809
 31
0.0
  0
LINE
  5
317
330
30F
100
AcDbEntity
  8
VERMASSUNG
100
AcDbLine
 10
94.3412763342
 20
95.4063783638
 30
0.0
 11
64.0727062889
 21
135.2035348881
 31
0.0
  0
LINE
  5
318
330
30F
100
AcDbEntity
  8
VERMASSUNG
100
AcDbLine
 10
64.0727062889
 20
135.2035348881
 30
0.0
 11
53.2839386886
 21
149.3886210103
 31
0.0
  0
MTEXT
  5
319
330
30F
100
AcDbEntity
  8
VERMASSUNG
100
AcDbMText
 10
55.335987913
 20
150.9493504973
 30
0.1
 40
2.0
 41
0.0
 71
     1
 72
     1
  1
%%c
  7
SLDTEXTSTYLE0
 11
0.6053714009058776
 21
-0.7959431304843677
 31
0.0
 73
     1
 44
1.0
  0
MTEXT
  5
31A
330
30F
100
AcDbEntity
  8
VERMASSUNG
100
AcDbMText
 10
57.6805673126
 20
148.1970700708
 30
0.1
 40
2.0
 41
0.0
 71
     1
 72
     1
  1
50
  7
SLDTEXTSTYLE0
 11
0.6053714009058776
 21
-0.7959431304843677
 31
0.0
 73
     1
 44
1.0
  0
MTEXT
  5
31B
330
30F
100
AcDbEntity
  8
VERMASSUNG
100
AcDbMText
 10
61.184154639
 20
143.5905487513
 30
0.1
 40
2.0
 41
0.0
 71
     1
 72
     1
  1
min.
  7
SLDTEXTSTYLE0
 11
0.6053714009058776
 21
-0.7959431304843677
 31
0.0
 73
     1
 44
1.0
  0
ENDBLK
  5
311
330
30F
100
AcDbEntity
  8
0
100
AcDbBlockEnd
  0
BLOCK
  5
31D
330
31C
100
AcDbEntity
  8
0
100
AcDbBlockBegin
  2
SW_CENTERMARKSYMBOL_0
 70
     0
 10
0.0
 20
0.0
 30
0.0
  3
SW_CENTERMARKSYMBOL_0
  1

  0
LINE
  5
31F
330
31C
100
AcDbEntity
  8
VERMASSUNG
 62
     0
100
AcDbLine
 10
0.0
 20
0.0
 30
0.0
 11
0.0
 21
2.5
 31
0.0
  0
LINE
  5
320
330
31C
100
AcDbEntity
  8
VERMASSUNG
 62
     0
100
AcDbLine
 10
0.0
 20
0.0
 30
0.0
 11
-2.5
 21
0.0
 31
0.0
  0
LINE
  5
321
330
31C
100
AcDbEntity
  8
VERMASSUNG
 62
     0
100
AcDbLine
 10
0.0
 20
0.0
 30
0.0
 11
0.0
 21
-2.5
 31
0.0
  0
LINE
  5
322
330
31C
100
AcDbEntity
  8
VERMASSUNG
 62
     0
100
AcDbLine
 10
0.0
 20
0.0
 30
0.0
 11
2.5
 21
0.0
 31
0.0
  0
LINE
  5
323
330
31C
100
AcDbEntity
  8
VERMASSUNG
 62
     0
100
AcDbLine
 10
0.0
 20
5.0
 30
0.0
 11
0.0
 21
28.4519765459
 31
0.0
  0
LINE
  5
324
330
31C
100
AcDbEntity
  8
VERMASSUNG
 62
     0
100
AcDbLine
 10
-5.0
 20
0.0
 30
0.0
 11
-22.5
 21
0.0
 31
0.0
  0
LINE
  5
325
330
31C
100
AcDbEntity
  8
VERMASSUNG
 62
     0
100
AcDbLine
 10
0.0
 20
-5.0
 30
0.0
 11
0.0
 21
-22.5
 31
0.0
  0
LINE
  5
326
330
31C
100
AcDbEntity
  8
VERMASSUNG
 62
     0
100
AcDbLine
 10
5.0
 20
0.0
 30
0.0
 11
22.5
 21
0.0
 31
0.0
  0
ENDBLK
  5
31E
330
31C
100
AcDbEntity
  8
0
100
AcDbBlockEnd
  0
ENDSEC
  0
SECTION
  2
ENTITIES
  0
MTEXT
  5
49
330
1F
100
AcDbEntity
  8
KOPF_DÜNN
100
AcDbMText
 10
13.8892156294
 20
23.8442973028
 30
0.0
 40
3.0
 41
0.0
 71
     1
 72
     1
  1
HA4.PCD.RLA.055
  7
SLDTEXTSTYLE0
 73
     1
 44
1.0
  0
MTEXT
  5
4A
330
1F
100
AcDbEntity
  8
VERMASSUNG
100
AcDbMText
 10
13.9329988022
 20
28.8834360957
 30
0.0
 40
3.0
 41
0.0
 71
     1
 72
     1
  1
Klemmhalter rechts_Turning tool right 95° /80°
  7
SLDTEXTSTYLE0
 73
     1
 44
1.0
  0
MTEXT
  5
4B
330
1F
100
AcDbEntity
  8
VERMASSUNG
100
AcDbMText
 10
98.8601118557
 20
13.8365368179
 30
0.0
 40
2.0
 41
0.0
 71
     1
 72
     1
  1
Datum: 15.06.2012
  7
SLDTEXTSTYLE0
 73
     1
 44
1.0
  0
MTEXT
  5
4C
330
1F
100
AcDbEntity
  8
VERMASSUNG
100
AcDbMText
 10
13.933048693
 20
18.0482802738
 30
0.0
 40
2.0
 41
0.0
 71
     1
 72
     1
  1
HSK T ø40 / CN..12 04..
  7
SLDTEXTSTYLE0
 73
     1
 44
1.0
  0
MTEXT
  5
4D
330
1F
100
AcDbEntity
  8
VERMASSUNG
100
AcDbMText
 10
13.9808475933
 20
13.9090973692
 30
0.0
 40
2.0
 41
0.0
 71
     1
 72
     1
  1
Gewicht: 357g
  7
SLDTEXTSTYLE0
 73
     1
 44
1.0
  0
ARC
  5
4E
330
1F
100
AcDbEntity
  8
0
  6
Continuous
 62
     7
370
    15
100
AcDbCircle
 10
169.6831226866
 20
93.6492864476
 30
0.0
 40
0.3000000000000114
100
AcDbArc
 50
180.0
 51
270.0
  0
ARC
  5
4F
330
1F
100
AcDbEntity
  8
0
  6
Continuous
 62
     7
370
    15
100
AcDbCircle
 10
169.6831226866
 20
133.0492864476
 30
0.0
 40
0.3000000000000398
100
AcDbArc
 50
90.0
 51
180.0
  0
LINE
  5
50
330
1F
100
AcDbEntity
  8
0
  6
Continuous
 62
     7
370
    15
100
AcDbLine
 10
169.6831226866
 20
93.3492864476
 30
0.0
 11
177.3331226866
 21
93.3492864476
 31
0.0
  0
LINE
  5
51
330
1F
100
AcDbEntity
  8
0
  6
Continuous
 62
     7
370
    15
100
AcDbLine
 10
177.3358528222
 20
133.3492864476
 30
0.0
 11
169.6831226866
 21
133.3492864476
 31
0.0
  0
ARC
  5
52
330
1F
100
AcDbEntity
  8
0
  6
Continuous
 62
     7
370
    15
100
AcDbCircle
 10
190.3331226866
 20
95.8492864476
 30
0.0
 40
1.0
100
AcDbArc
 50
90.0
 51
143.1142427467
  0
ARC
  5
53
330
1F
100
AcDbEntity
  8
0
  6
Continuous
 62
     7
370
    15
100
AcDbCircle
 10
190.3331226866
 20
130.8492864476
 30
0.0
 40
0.999999999999978
100
AcDbArc
 50
216.8994515981
 51
270.0
  0
LINE
  5
54
330
1F
100
AcDbEntity
  8
0
  6
Continuous
 62
     7
370
    15
100
AcDbLine
 10
203.6157956987
 20
129.8492864476
 30
0.0
 11
190.3331226866
 21
129.8492864476
 31
0.0
  0
LINE
  5
55
330
1F
100
AcDbEntity
  8
0
  6
Continuous
 62
     7
370
    15
100
AcDbLine
 10
190.3331226866
 20
96.8492864476
 30
0.0
 11
203.6157956987
 21
96.8492864476
 31
0.0
  0
ARC
  5
56
330
1F
100
AcDbEntity
  8
0
  6
Continuous
 62
     7
370
    15
100
AcDbCircle
 10
168.883115934
 20
97.8955792941
 30
0.0
 40
0.60000675266771
100
AcDbArc
 50
33.5571153394
 51
90.0
  0
ARC
  5
57
330
1F
100
AcDbEntity
  8
0
  6
Continuous
 62
     7
370
    15
100
AcDbCircle
 10
168.883115934
 20
128.8029936011
 30
0.0
 40
0.6000067526677242
100
AcDbArc
 50
270.0
 51
326.4428846606
  0
LINE
  5
58
330
1F
100
AcDbEntity
  8
0
  6
Continuous
 62
     7
370
    15
100
AcDbLine
 10
167.3831226866
 20
98.2455860468
 30
0.0
 11
168.2398346013
 21
98.4751413125
 31
0.0
  0
LINE
  5
59
330
1F
100
AcDbEntity
  8
0
  6
Continuous
 62
     7
370
    15
100
AcDbLine
 10
168.2398346013
 20
128.2234315827
 30
0.0
 11
167.3831226866
 21
128.4529868484
 31
0.0
  0
LINE
  5
5A
330
1F
100
AcDbEntity
  8
0
  6
Continuous
 62
     7
370
    15
100
AcDbLine
 10
160.5671899655
 20
128.1115072532
 30
0.0
 11
153.0831226866
 21
127.7365539827
 31
0.0
  0
LINE
  5
5B
330
1F
100
AcDbEntity
  8
0
  6
Continuous
 62
     7
370
    15
100
AcDbLine
 10
167.3831226866
 20
128.4529868484
 30
0.0
 11
166.1483899441
 21
128.3911264906
 31
0.0
  0
LINE
  5
5C
330
1F
100
AcDbEntity
  8
0
  6
Continuous
 62
     7
370
    15
100
AcDbLine
 10
166.1493861453
 20
98.3073964948
 30
0.0
 11
167.3831226866
 21
98.2455860468
 31
0.0
  0
LINE
  5
5D
330
1F
100
AcDbEntity
  8
0
  6
Continuous
 62
     7
370
    15
100
AcDbLine
 10
155.5831226866
 20
98.8367684115
 30
0.0
 11
160.5676521261
 21
98.5870424877
 31
0.0
  0
ARC
  5
5E
330
1F
100
AcDbEntity
  8
0
  6
Continuous
 62
     7
370
    15
100
AcDbCircle
 10
168.3951277761
 20
97.8955792941
 30
0.0
 40
0.6000067526677242
100
AcDbArc
 50
90.0
 51
105.0
  0
ARC
  5
5F
330
1F
100
AcDbEntity
  8
0
  6
Continuous
 62
     7
370
    15
100
AcDbCircle
 10
168.3951277761
 20
128.8029936011
 30
0.0
 40
0.6000067526677242
100
AcDbArc
 50
255.0
 51
270.0
  0
LINE
  5
60
330
1F
100
AcDbEntity
  8
0
  6
Continuous
 62
     7
370
    15
100
AcDbLine
 10
168.3951277761
 20
98.4955860468
 30
0.0
 11
168.883115934
 21
98.4955860468
 31
0.0
  0
LINE
  5
61
330
1F
100
AcDbEntity
  8
0
  6
Continuous
 62
     7
370
    15
100
AcDbLine
 10
168.883115934
 20
128.2029868484
 30
0.0
 11
168.3951277761
 21
128.2029868484
 31
0.0
  0
ARC
  5
62
330
1F
100
AcDbEntity
  8
0
  6
Continuous
 62
     7
370
    15
100
AcDbCircle
 10
152.1831226866
 20
127.1292864476
 30
0.0
 40
0.9000000000000057
100
AcDbArc
 50
270.0
 51
311.221922679
  0
ARC
  5
63
330
1F
100
AcDbEntity
  8
0
  6
Continuous
 62
     7
370
    15
100
AcDbCircle
 10
154.6831226866
 20
99.5692864476
 30
0.0
 40
0.9000000000000057
100
AcDbArc
 50
34.3244016068
 51
90.0
  0
LINE
  5
64
330
1F
100
AcDbEntity
  8
0
  6
Continuous
 62
     7
370
    15
100
AcDbLine
 10
150.4331226866
 20
126.2292864476
 30
0.0
 11
149.4831226866
 21
125.2792864476
 31
0.0
  0
LINE
  5
65
330
1F
100
AcDbEntity
  8
0
  6
Continuous
 62
     7
370
    15
100
AcDbLine
 10
152.1831226866
 20
126.2292864476
 30
0.0
 11
150.4331226866
 21
126.2292864476
 31
0.0
  0
LINE
  5
66
330
1F
100
AcDbEntity
  8
0
  6
Continuous
 62
     7
370
    15
100
AcDbLine
 10
150.4921226866
 20
100.4692864476
 30
0.0
 11
154.6831226866
 21
100.4692864476
 31
0.0
  0
LINE
  5
67
330
1F
100
AcDbEntity
  8
0
  6
Continuous
 62
     7
370
    15
100
AcDbLine
 10
149.4831226866
 20
101.4782864476
 30
0.0
 11
150.4921226866
 21
100.4692864476
 31
0.0
  0
ARC
  5
68
330
1F
100
AcDbEntity
  8
0
  6
Continuous
 62
     7
370
    15
100
AcDbCircle
 10
203.6157956987
 20
130.8492864476
 30
0.0
 40
1.0
100
AcDbArc
 50
270.0
 51
345.0
  0
ARC
  5
69
330
1F
100
AcDbEntity
  8
0
  6
Continuous
 62
     7
370
    15
100
AcDbCircle
 10
203.6157956987
 20
95.8492864476
 30
0.0
 40
0.9999999999999858
100
AcDbArc
 50
15.0
 51
90.0
  0
LINE
  5
6A
330
1F
100
AcDbEntity
  8
0
  6
Continuous
 62
     7
370
    15
100
AcDbLine
 10
206.552586005
 20
137.9458337769
 30
0.0
 11
204.581721525
 21
130.5904674025
 31
0.0
  0
LINE
  5
6B
330
1F
100
AcDbEntity
  8
0
  6
Continuous
 62
     7
370
    15
100
AcDbLine
 10
204.581721525
 20
96.1081054927
 30
0.0
 11
204.7850464753
 21
95.3492864476
 31
0.0
  0
LINE
  5
6C
330
1F
100
AcDbEntity
  8
0
  6
Continuous
 62
     7
370
    15
100
AcDbLine
 10
204.7850464753
 20
95.3492864476
 30
0.0
 11
206.4606857201
 21
95.3492864476
 31
0.0
  0
LINE
  5
6D
330
1F
100
AcDbEntity
  8
0
  6
Continuous
 62
     7
370
    15
100
AcDbLine
 10
211.417497246
 20
138.4807477996
 30
0.0
 11
206.5564549906
 21
137.9698316707
 31
0.0
  0
LINE
  5
6E
330
1F
100
AcDbEntity
  8
0
  6
Continuous
 62
     7
370
    15
100
AcDbLine
 10
215.9123724446
 20
134.6631553293
 30
0.0
 11
214.9627117093
 21
134.0588237839
 31
0.0
  0
LINE
  5
6F
330
1F
100
AcDbEntity
  8
0
  6
Continuous
 62
     7
370
    15
100
AcDbLine
 10
222.7224394253
 20
127.2128605087
 30
0.0
 11
223.2199949104
 21
127.7076903328
 31
0.0
  0
LINE
  5
70
330
1F
100
AcDbEntity
  8
0
  6
Continuous
 62
     7
370
    15
100
AcDbLine
 10
211.7315973098
 20
139.3192135223
 30
0.0
 11
211.2340418246
 21
138.8243836982
 31
0.0
  0
LINE
  5
71
330
1F
100
AcDbEntity
  8
0
  6
Continuous
 62
     7
370
    15
100
AcDbLine
 10
169.3831226866
 20
93.6492864476
 30
0.0
 11
169.3831226866
 21
133.0492864438
 31
0.0
  0
LINE
  5
72
330
1F
100
AcDbEntity
  8
0
  6
Continuous
 62
     7
370
    15
100
AcDbLine
 10
177.3331226866
 20
125.1992864476
 30
0.0
 11
183.3479629878
 21
125.1992864476
 31
0.0
  0
LINE
  5
73
330
1F
100
AcDbEntity
  8
0
  6
Continuous
 62
     7
370
    15
100
AcDbLine
 10
183.3479629878
 20
94.1204019246
 30
0.0
 11
183.3479629878
 21
125.1992864476
 31
0.0
  0
LINE
  5
74
330
1F
100
AcDbEntity
  8
0
  6
Continuous
 62
     7
370
    15
100
AcDbLine
 10
183.3479629878
 20
94.1204019246
 30
0.0
 11
181.8331226866
 21
94.1204019246
 31
0.0
  0
SPLINE
  5
75
330
1F
100
AcDbEntity
  8
0
  6
Continuous
 62
     7
370
    15
100
AcDbSpline
210
0.0
220
0.0
230
1.0
 70
     8
 71
     3
 72
    22
 73
    18
 74
     0
 42
0.00000001
 43
0.00000001
 12
1.0
 22
0.0
 32
0.0
 13
1.0
 23
0.0
 33
0.0
 40
0.0
 40
0.0
 40
0.0
 40
0.0
 40
0.125
 40
0.125
 40
0.25
 40
0.25
 40
0.375
 40
0.375
 40
0.5
 40
0.5
 40
0.625
 40
0.625
 40
0.75
 40
0.75
 40
0.875
 40
0.875
 40
1.0
 40
1.0
 40
1.0
 40
1.0
 10
181.8331226866451
 20
94.12040192458446
 30
0.0
 10
181.5339982576045
 20
94.12040192458446
 30
0.0
 10
181.2401758093556
 20
94.11188782351806
 30
0.0
 10
180.6626115331093
 20
94.07944405463617
 30
0.0
 10
180.3757938552953
 20
94.05511016593414
 30
0.0
 10
179.831331326396
 20
93.9946501411773
 30
0.0
 10
179.5733760557747
 20
93.95873672039882
 30
0.0
 10
179.0853181124148
 20
93.87902669432965
 30
0.0
 10
178.855619813751
 20
93.83514839314033
 30
0.0
 10
178.4432008307984
 20
93.74690477077016
 30
0.0
 10
178.2576738879383
 20
93.70209642930918
 30
0.0
 10
177.9291538430376
 20
93.61477542139002
 30
0.0
 10
177.7907399561381
 20
93.57348463281436
 30
0.0
 10
177.5661478095221
 20
93.49914640952052
 30
0.0
 10
177.4790689973979
 20
93.46573628378584
 30
0.0
 10
177.3625671894428
 20
93.41071688225972
 30
0.0
 10
177.3331226866451
 20
93.38925511579347
 30
0.0
 10
177.3331226866451
 20
93.3743020921757
 30
0.0
  0
LINE
  5
76
330
1F
100
AcDbEntity
  8
0
  6
Continuous
 62
     7
370
    15
100
AcDbLine
 10
177.3331226866
 20
93.3743020922
 30
0.0
 11
177.3331226866
 21
93.3492864476
 31
0.0
  0
SPLINE
  5
77
330
1F
100
AcDbEntity
  8
0
  6
Continuous
 62
     7
370
    15
100
AcDbSpline
210
0.0
220
0.0
230
1.0
 70
     8
 71
     3
 72
    23
 73
    19
 74
     0
 42
0.00000001
 43
0.00000001
 12
1.0
 22
0.0
 32
0.0
 13
1.0
 23
0.0
 33
0.0
 40
0.0
 40
0.0
 40
0.0
 40
0.0
 40
0.104445388371122
 40
0.1572802188309727
 40
0.2110249001345423
 40
0.3153109676895675
 40
0.3682231573795678
 40
0.42187896992955
 40
0.4747217206551154
 40
0.5279257835252877
 40
0.5816889632600402
 40
0.6362191374204177
 40
0.6894144407017844
 40
0.7429865997014375
 40
0.7977612821747934
 40
0.8529580527851697
 40
0.9582419836725727
 40
1.0
 40
1.0
 40
1.0
 40
1.0
 10
181.8331226866451
 20
132.836461717519
 30
0.0
 10
181.5860160571815
 20
132.8390813736688
 30
0.0
 10
181.2139078639645
 20
132.8430262112431
 30
0.0
 10
180.7259497589572
 20
132.8668644921172
 30
0.0
 10
180.2490677886127
 20
132.8981917754498
 30
0.0
 10
179.7921095232521
 20
132.9410099756888
 30
0.0
 10
179.3660815346226
 20
132.9911751618629
 30
0.0
 10
179.0612282933349
 20
133.0318879127377
 30
0.0
 10
178.7752647781848
 20
133.0742955382198
 30
0.0
 10
178.5102800080602
 20
133.1171968211836
 30
0.0
 10
178.2658632154605
 20
133.1598339212767
 30
0.0
 10
178.0468018640511
 20
133.2005499751701
 30
0.0
 10
177.8547386370614
 20
133.2381664937403
 30
0.0
 10
177.6903816121568
 20
133.2717628668954
 30
0.0
 10
177.5537100014038
 20
133.3006952256604
 30
0.0
 10
177.4165647097739
 20
133.3305283175062
 30
0.0
 10
177.340047470437
 20
133.347730385634
 30
0.0
 10
177.3367805776474
 20
133.3484642599895
 30
0.0
 10
177.3358528222346
 20
133.3486726708403
 30
0.0
  0
LINE
  5
78
330
1F
100
AcDbEntity
  8
0
  6
Continuous
 62
     7
370
    15
100
AcDbLine
 10
183.3479629878
 20
132.8364617175
 30
0.0
 11
181.8331226866
 21
132.8364617175
 31
0.0
  0
LINE
  5
79
330
1F
100
AcDbEntity
  8
0
  6
Continuous
 62
     7
370
    15
100
AcDbLine
 10
183.3479629878
 20
129.4606954487
 30
0.0
 11
183.3479629878
 21
132.8364617175
 31
0.0
  0
LINE
  5
7A
330
1F
100
AcDbEntity
  8
0
  6
Continuous
 62
     7
370
    15
100
AcDbLine
 10
181.8267931613
 20
129.4606954487
 30
0.0
 11
183.3479629878
 21
129.4606954487
 31
0.0
  0
SPLINE
  5
7B
330
1F
100
AcDbEntity
  8
0
  6
Continuous
 62
     7
370
    15
100
AcDbSpline
210
0.0
220
0.0
230
1.0
 70
     8
 71
     3
 72
    22
 73
    18
 74
     0
 42
0.00000001
 43
0.00000001
 12
1.0
 22
0.0
 32
0.0
 13
1.0
 23
0.0
 33
0.0
 40
0.0
 40
0.0
 40
0.0
 40
0.0
 40
0.2499999999999993
 40
0.2499999999999993
 40
0.3749999999999993
 40
0.3749999999999993
 40
0.4999999999999994
 40
0.4999999999999994
 40
0.6249999999999996
 40
0.6249999999999996
 40
0.7499999999999996
 40
0.7499999999999996
 40
0.8749999999999997
 40
0.8749999999999997
 40
0.9374999999999999
 40
0.9374999999999999
 40
1.0
 40
1.0
 40
1.0
 40
1.0
 10
177.3331226866451
 20
125.1992864476139
 30
0.0
 10
177.3551037046317
 20
125.7621590895119
 30
0.0
 10
177.4340805879865
 20
126.2927839732414
 30
0.0
 10
177.6804784810188
 20
127.038494964163
 30
0.0
 10
177.7850030961098
 20
127.2801151905617
 30
0.0
 10
178.0468496914163
 20
127.7389739658876
 30
0.0
 10
178.2020663135821
 20
127.9531526383575
 30
0.0
 10
178.570658066646
 20
128.350381197503
 30
0.0
 10
178.7867917591109
 20
128.5348260325228
 30
0.0
 10
179.2706862540978
 20
128.8559058804064
 30
0.0
 10
179.5411517991056
 20
128.9952567105124
 30
0.0
 10
180.1373783646157
 20
129.224562244938
 30
0.0
 10
180.4528716313357
 20
129.3110982544143
 30
0.0
 10
180.9535882793542
 20
129.3999878587456
 30
0.0
 10
181.1263847139693
 20
129.4227963646072
 30
0.0
 10
181.4747534867514
 20
129.4530875273034
 30
0.0
 10
181.6501545156619
 20
129.4606954486914
 30
0.0
 10
181.8267931613498
 20
129.4606954486914
 30
0.0
  0
LINE
  5
7C
330
1F
100
AcDbEntity
  8
0
  6
Continuous
 62
     7
370
    15
100
AcDbLine
 10
187.4182823855
 20
94.1204019246
 30
0.0
 11
187.4182823855
 21
125.1992864476
 31
0.0
  0
SPLINE
  5
7D
330
1F
100
AcDbEntity
  8
0
  6
Continuous
 62
     7
370
    15
100
AcDbSpline
210
0.0
220
0.0
230
1.0
 70
     8
 71
     3
 72
     8
 73
     4
 74
     0
 42
0.00000001
 43
0.00000001
 12
1.0
 22
0.0
 32
0.0
 13
1.0
 23
0.0
 33
0.0
 40
0.0
 40
0.0
 40
0.0
 40
0.0
 40
1.0
 40
1.0
 40
1.0
 40
1.0
 10
187.4182823855385
 20
94.12040192458446
 30
0.0
 10
187.0855771138332
 20
94.71977359780811
 30
0.0
 10
186.7537613132596
 20
95.31964270851316
 30
0.0
 10
186.4231226866451
 20
95.92016305962417
 30
0.0
  0
LINE
  5
7E
330
1F
100
AcDbEntity
  8
0
  6
Continuous
 62
     7
370
    15
100
AcDbLine
 10
186.4231226866
 20
95.9201630596
 30
0.0
 11
186.4231226866
 21
125.1992864476
 31
0.0
  0
SPLINE
  5
7F
330
1F
100
AcDbEntity
  8
0
  6
Continuous
 62
     7
370
    15
100
AcDbSpline
210
0.0
220
0.0
230
1.0
 70
    24
 71
     3
 72
     8
 73
     4
 74
     0
 42
0.00000001
 43
0.00000001
 12
1.0
 22
0.0
 32
0.0
 13
1.0
 23
0.0
 33
0.0
 40
0.0
 40
0.0
 40
0.0
 40
0.0
 40
1.0
 40
1.0
 40
1.0
 40
1.0
 10
186.4231226866451
 20
125.1992864476139
 30
0.0
 10
186.7467593422673
 20
125.1992864476139
 30
0.0
 10
187.0792495637839
 20
125.1992864476139
 30
0.0
 10
187.4182823855385
 20
125.1992864476139
 30
0.0
  0
LINE
  5
80
330
1F
100
AcDbEntity
  8
0
  6
Continuous
 62
     7
370
    15
100
AcDbLine
 10
189.3331226866
 20
94.7452546265
 30
0.0
 11
189.3331226866
 21
125.1992864476
 31
0.0
  0
SPLINE
  5
81
330
1F
100
AcDbEntity
  8
0
  6
Continuous
 62
     7
370
    15
100
AcDbSpline
210
0.0
220
0.0
230
1.0
 70
     8
 71
     3
 72
    10
 73
     6
 74
     0
 42
0.00000001
 43
0.00000001
 12
1.0
 22
0.0
 32
0.0
 13
1.0
 23
0.0
 33
0.0
 40
0.0
 40
0.0
 40
0.0
 40
0.0
 40
0.5
 40
0.5
 40
1.0
 40
1.0
 40
1.0
 40
1.0
 10
189.3331226866451
 20
94.74525462652731
 30
0.0
 10
189.3331226866451
 20
94.58562245762408
 30
0.0
 10
189.2714861729398
 20
94.42457282386003
 30
0.0
 10
189.0524598066968
 20
94.19158194018344
 30
0.0
 10
188.8948429186495
 20
94.12040192458446
 30
0.0
 10
188.7331226866451
 20
94.12040192458446
 30
0.0
  0
SPLINE
  5
82
330
1F
100
AcDbEntity
  8
0
  6
Continuous
 62
     7
370
    15
100
AcDbSpline
210
0.0
220
0.0
230
1.0
 70
    24
 71
     3
 72
    12
 73
     8
 74
     0
 42
0.00000001
 43
0.00000001
 12
1.0
 22
0.0
 32
0.0
 13
1.0
 23
0.0
 33
0.0
 40
0.0
 40
0.0
 40
0.0
 40
0.0
 40
0.250000000000002
 40
0.250000000000002
 40
0.500000000000004
 40
0.500000000000004
 40
1.0
 40
1.0
 40
1.0
 40
1.0
 10
188.7331226866451
 20
125.1992864476139
 30
0.0
 10
188.8213095520139
 20
125.1992864476139
 30
0.0
 10
188.9099969453152
 20
125.1992864476139
 30
0.0
 10
189.064249438434
 20
125.1992864476139
 30
0.0
 10
189.12959541951
 20
125.1992864476139
 30
0.0
 10
189.2840052894612
 20
125.1992864476139
 30
0.0
 10
189.3331226866451
 20
125.1992864476139
 30
0.0
 10
189.3331226866451
 20
125.1992864476139
 30
0.0
  0
LINE
  5
83
330
1F
100
AcDbEntity
  8
0
  6
Continuous
 62
     7
370
    15
100
AcDbLine
 10
188.7331226866
 20
94.1204019246
 30
0.0
 11
187.4182823855
 21
94.1204019246
 31
0.0
  0
LINE
  5
84
330
1F
100
AcDbEntity
  8
0
  6
Continuous
 62
     7
370
    15
100
AcDbLine
 10
187.4182823855
 20
125.1992864476
 30
0.0
 11
188.7331226866
 21
125.1992864476
 31
0.0
  0
LINE
  5
85
330
1F
100
AcDbEntity
  8
0
  6
Continuous
 62
     7
370
    15
100
AcDbLine
 10
184.3431226866
 20
95.9201630596
 30
0.0
 11
184.3431226866
 21
125.1992864476
 31
0.0
  0
SPLINE
  5
86
330
1F
100
AcDbEntity
  8
0
  6
Continuous
 62
     7
370
    15
100
AcDbSpline
210
0.0
220
0.0
230
1.0
 70
     8
 71
     3
 72
     8
 73
     4
 74
     0
 42
0.00000001
 43
0.00000001
 12
1.0
 22
0.0
 32
0.0
 13
1.0
 23
0.0
 33
0.0
 40
0.0
 40
0.0
 40
0.0
 40
0.0
 40
1.0
 40
1.0
 40
1.0
 40
1.0
 10
184.3431226866451
 20
95.92016305962416
 30
0.0
 10
184.0124840600305
 20
95.31964270851316
 30
0.0
 10
183.680668259457
 20
94.71977359780811
 30
0.0
 10
183.3479629877516
 20
94.12040192458444
 30
0.0
  0
SPLINE
  5
87
330
1F
100
AcDbEntity
  8
0
  6
Continuous
 62
     7
370
    15
100
AcDbSpline
210
0.0
220
0.0
230
1.0
 70
    24
 71
     3
 72
     8
 73
     4
 74
     0
 42
0.00000001
 43
0.00000001
 12
1.0
 22
0.0
 32
0.0
 13
1.0
 23
0.0
 33
0.0
 40
0.0
 40
0.0
 40
0.0
 40
0.0
 40
1.0
 40
1.0
 40
1.0
 40
1.0
 10
183.3479629877516
 20
125.1992864476139
 30
0.0
 10
183.6869958095062
 20
125.1992864476139
 30
0.0
 10
184.0194860310229
 20
125.1992864476139
 30
0.0
 10
184.3431226866451
 20
125.1992864476139
 30
0.0
  0
SPLINE
  5
88
330
1F
100
AcDbEntity
  8
0
  6
Continuous
 62
     7
370
    15
100
AcDbSpline
210
0.0
220
0.0
230
1.0
 70
    24
 71
     3
 72
    16
 73
    12
 74
     0
 42
0.00000001
 43
0.00000001
 12
1.0
 22
0.0
 32
0.0
 13
1.0
 23
0.0
 33
0.0
 40
0.0
 40
0.0
 40
0.0
 40
0.0
 40
0.5000000000000002
 40
0.5000000000000002
 40
0.7499999999999994
 40
0.7499999999999994
 40
0.8749999999999997
 40
0.8749999999999997
 40
0.9374999999999999
 40
0.9374999999999999
 40
1.0
 40
1.0
 40
1.0
 40
1.0
 10
186.3879002860637
 20
96.44928644761386
 30
0.0
 10
186.3579259682096
 20
96.44928644761386
 30
0.0
 10
186.3114095736044
 20
96.44928644761386
 30
0.0
 10
186.2015482678701
 20
96.44928644761387
 30
0.0
 10
186.1583956173406
 20
96.44928644761386
 30
0.0
 10
186.0696115642267
 20
96.44928644761386
 30
0.0
 10
186.0364223963482
 20
96.44928644761386
 30
0.0
 10
185.9716760959985
 20
96.44928644761387
 30
0.0
 10
185.9474048850163
 20
96.44928644761386
 30
0.0
 10
185.8909436077972
 20
96.44928644761386
 30
0.0
 10
185.8581400017238
 20
96.44928644761387
 30
0.0
 10
185.8231226866451
 20
96.44928644761389
 30
0.0
  0
SPLINE
  5
89
330
1F
100
AcDbEntity
  8
0
  6
Continuous
 62
     7
370
    15
100
AcDbSpline
210
0.0
220
0.0
230
1.0
 70
    24
 71
     3
 72
    12
 73
     8
 74
     0
 42
0.00000001
 43
0.00000001
 12
1.0
 22
0.0
 32
0.0
 13
1.0
 23
0.0
 33
0.0
 40
0.0
 40
0.0
 40
0.0
 40
0.0
 40
0.249999999999999
 40
0.249999999999999
 40
0.499999999999998
 40
0.499999999999998
 40
1.0
 40
1.0
 40
1.0
 40
1.0
 10
185.8231226866451
 20
125.1992864476139
 30
0.0
 10
185.9154256858338
 20
125.1992864476139
 30
0.0
 10
186.0081693817927
 20
125.1992864476139
 30
0.0
 10
186.1632191120863
 20
125.1992864476139
 30
0.0
 10
186.2266690836887
 20
125.1992864476139
 30
0.0
 10
186.3759291747488
 20
125.1992864476139
 30
0.0
 10
186.4231226866451
 20
125.1992864476139
 30
0.0
 10
186.4231226866451
 20
125.1992864476139
 30
0.0
  0
SPLINE
  5
8A
330
1F
100
AcDbEntity
  8
0
  6
Continuous
 62
     7
370
    15
100
AcDbSpline
210
0.0
220
0.0
230
1.0
 70
    24
 71
     3
 72
    16
 73
    12
 74
     0
 42
0.00000001
 43
0.00000001
 12
1.0
 22
0.0
 32
0.0
 13
1.0
 23
0.0
 33
0.0
 40
0.0
 40
0.0
 40
0.0
 40
0.0
 40
0.0625000000000008
 40
0.0625000000000008
 40
0.1250000000000017
 40
0.1250000000000017
 40
0.2500000000000001
 40
0.2500000000000001
 40
0.4999999999999998
 40
0.4999999999999998
 40
1.0
 40
1.0
 40
1.0
 40
1.0
 10
184.9431226866451
 20
96.44928644761387
 30
0.0
 10
184.908016198031
 20
96.44928644761389
 30
0.0
 10
184.874921512945
 20
96.44928644761386
 30
0.0
 10
184.8183218010191
 20
96.44928644761386
 30
0.0
 10
184.7940197468835
 20
96.44928644761386
 30
0.0
 10
184.7294917582426
 20
96.44928644761387
 30
0.0
 10
184.6959029327264
 20
96.44928644761387
 30
0.0
 10
184.6078635183774
 20
96.44928644761387
 30
0.0
 10
184.5647557545049
 20
96.44928644761386
 30
0.0
 10
184.4543215403318
 20
96.44928644761387
 30
0.0
 10
184.4081415219544
 20
96.44928644761386
 30
0.0
 10
184.3783450872264
 20
96.44928644761386
 30
0.0
  0
SPLINE
  5
8B
330
1F
100
AcDbEntity
  8
0
  6
Continuous
 62
     7
370
    15
100
AcDbSpline
210
0.0
220
0.0
230
1.0
 70
    24
 71
     3
 72
    14
 73
    10
 74
     0
 42
0.00000001
 43
0.00000001
 12
1.0
 22
0.0
 32
0.0
 13
1.0
 23
0.0
 33
0.0
 40
0.0
 40
0.0
 40
0.0
 40
0.0
 40
0.25
 40
0.25
 40
0.5
 40
0.5
 40
0.75
 40
0.75
 40
1.0
 40
1.0
 40
1.0
 40
1.0
 10
184.3431226866451
 20
125.1992864476139
 30
0.0
 10
184.3431226866451
 20
125.1992864476139
 30
0.0
 10
184.354999697906
 20
125.1992864476139
 30
0.0
 10
184.403528187686
 20
125.1992864476139
 30
0.0
 10
184.4399466439102
 20
125.1992864476139
 30
0.0
 10
184.5400739784388
 20
125.1992864476139
 30
0.0
 10
184.6032507898748
 20
125.1992864476139
 30
0.0
 10
184.7588212925608
 20
125.1992864476139
 30
0.0
 10
184.8506976403155
 20
125.1992864476139
 30
0.0
 10
184.9431226866463
 20
125.1992864476139
 30
0.0
  0
SPLINE
  5
8C
330
1F
100
AcDbEntity
  8
0
  6
Continuous
 62
     7
370
    15
100
AcDbSpline
210
0.0
220
0.0
230
1.0
 70
    24
 71
     3
 72
    10
 73
     6
 74
     0
 42
0.00000001
 43
0.00000001
 12
1.0
 22
0.0
 32
0.0
 13
1.0
 23
0.0
 33
0.0
 40
0.0
 40
0.0
 40
0.0
 40
0.0
 40
0.4999999999999999
 40
0.4999999999999999
 40
1.0
 40
1.0
 40
1.0
 40
1.0
 10
189.5331226866451
 20
130.2492864476139
 30
0.0
 10
189.5331226866451
 20
130.2492864476139
 30
0.0
 10
189.4904772218268
 20
130.2492864476139
 30
0.0
 10
189.3905654336872
 20
130.2492864476139
 30
0.0
 10
189.3353395623057
 20
130.2492864476139
 30
0.0
 10
189.3331848097684
 20
130.2492864476139
 30
0.0
  0
SPLINE
  5
8D
330
1F
100
AcDbEntity
  8
0
  6
Continuous
 62
     7
370
    15
100
AcDbSpline
210
0.0
220
0.0
230
1.0
 70
    24
 71
     3
 72
    10
 73
     6
 74
     0
 42
0.00000001
 43
0.00000001
 12
1.0
 22
0.0
 32
0.0
 13
1.0
 23
0.0
 33
0.0
 40
0.0
 40
0.0
 40
0.0
 40
0.0
 40
0.4303706745440243
 40
0.8612888422699883
 40
1.0
 40
1.0
 40
1.0
 40
1.0
 10
189.5331226866451
 20
96.44928644761387
 30
0.0
 10
189.5287441781333
 20
96.44928644761387
 30
0.0
 10
189.5199815910192
 20
96.44928644761387
 30
0.0
 10
189.4716595897517
 20
96.44928644761389
 30
0.0
 10
189.4431719662648
 20
96.44928644761386
 30
0.0
 10
189.4362349090273
 20
96.44928644761386
 30
0.0
  0
SPLINE
  5
8E
330
1F
100
AcDbEntity
  8
0
  6
Continuous
 62
     7
370
    15
100
AcDbSpline
210
0.0
220
0.0
230
1.0
 70
    24
 71
     3
 72
    12
 73
     8
 74
     0
 42
0.00000001
 43
0.00000001
 12
1.0
 22
0.0
 32
0.0
 13
1.0
 23
0.0
 33
0.0
 40
0.0
 40
0.0
 40
0.0
 40
0.0
 40
0.4999999999999978
 40
0.4999999999999978
 40
0.7499999999999989
 40
0.7499999999999989
 40
1.0
 40
1.0
 40
1.0
 40
1.0
 10
189.3331226866451
 20
125.1992864476139
 30
0.0
 10
189.3331226866451
 20
125.1992864476139
 30
0.0
 10
189.3603434347727
 20
125.1992864476139
 30
0.0
 10
189.4407898805456
 20
125.1992864476139
 30
0.0
 10
189.4742371090237
 20
125.1992864476139
 30
0.0
 10
189.556646678798
 20
125.1992864476139
 30
0.0
 10
189.6059297756815
 20
125.1992864476139
 30
0.0
 10
189.6622463983182
 20
125.1992864476139
 30
0.0
  0
SPLINE
  5
8F
330
1F
100
AcDbEntity
  8
0
  6
Continuous
 62
     7
370
    15
100
AcDbSpline
210
0.0
220
0.0
230
1.0
 70
     8
 71
     3
 72
    10
 73
     6
 74
     0
 42
0.00000001
 43
0.00000001
 12
1.0
 22
0.0
 32
0.0
 13
1.0
 23
0.0
 33
0.0
 40
0.0
 40
0.0
 40
0.0
 40
0.0
 40
0.5
 40
0.5
 40
1.0
 40
1.0
 40
1.0
 40
1.0
 10
189.3331226866451
 20
126.2266891360445
 30
0.0
 10
189.3331226866451
 20
126.0439804239095
 30
0.0
 10
189.3600960203532
 20
125.8604721341487
 30
0.0
 10
189.4676863881389
 20
125.512168155828
 30
0.0
 10
189.5491509324821
 20
125.3439805732852
 30
0.0
 10
189.6622463983179
 20
125.1992864476124
 30
0.0
  0
LINE
  5
90
330
1F
100
AcDbEntity
  8
0
  6
Continuous
 62
     7
370
    15
100
AcDbLine
 10
185.8231226866
 20
96.4492864476
 30
0.0
 11
184.9431226866
 21
96.4492864476
 31
0.0
  0
LINE
  5
91
330
1F
100
AcDbEntity
  8
0
  6
Continuous
 62
     7
370
    15
100
AcDbLine
 10
184.9431226866
 20
125.1992864476
 30
0.0
 11
185.8231226866
 21
125.1992864476
 31
0.0
  0
ELLIPSE
  5
92
330
1F
100
AcDbEntity
  8
0
  6
Continuous
 62
     7
370
    15
100
AcDbEllipse
 10
248.3651821915
 20
113.3492864476
 30
0.0
 11
156.9869077039978
 21
-1.743768924240741
 31
0.0
210
0.0
220
0.0
230
1.0
 40
0.1045157088
 41
1.86101743459877
 42
1.892308793891306
  0
SPLINE
  5
93
330
1F
100
AcDbEntity
  8
0
  6
Continuous
 62
     7
370
    15
100
AcDbSpline
210
0.0
220
0.0
230
1.0
 70
     8
 71
     3
 72
    10
 73
     6
 74
     0
 42
0.00000001
 43
0.00000001
 12
1.0
 22
0.0
 32
0.0
 13
1.0
 23
0.0
 33
0.0
 40
0.0
 40
0.0
 40
0.0
 40
0.0
 40
0.5
 40
0.5
 40
1.0
 40
1.0
 40
1.0
 40
1.0
 10
198.2408175655071
 20
129.3221188733444
 30
0.0
 10
198.2813000250994
 20
129.3625709031581
 30
0.0
 10
198.3666238441436
 20
129.3971161636785
 30
0.0
 10
198.6078991264331
 20
129.4475151138521
 30
0.0
 10
198.7643580326704
 20
129.4632465275882
 30
0.0
 10
198.9299354559243
 20
129.4671697234537
 30
0.0
  0
ELLIPSE
  5
94
330
1F
100
AcDbEntity
  8
0
  6
Continuous
 62
     7
370
    15
100
AcDbEllipse
 10
199.7907471838
 20
113.3492864476
 30
0.0
 11
-0.4974151432769531
 21
16.49946846537875
 31
0.0
210
0.0
220
0.0
230
1.0
 40
0.266256518
 41
0.2454338676651502
 42
2.670665767052264
  0
SPLINE
  5
95
330
1F
100
AcDbEntity
  8
0
  6
Continuous
 62
     7
370
    15
100
AcDbSpline
210
0.0
220
0.0
230
1.0
 70
     8
 71
     3
 72
    10
 73
     6
 74
     0
 42
0.00000001
 43
0.00000001
 12
1.0
 22
0.0
 32
0.0
 13
1.0
 23
0.0
 33
0.0
 40
0.0
 40
0.0
 40
0.0
 40
0.0
 40
0.5
 40
0.5
 40
1.0
 40
1.0
 40
1.0
 40
1.0
 10
198.9299354559243
 20
98.31763239862222
 30
0.0
 10
198.7645301662431
 20
98.32518592807104
 30
0.0
 10
198.6100224912864
 20
98.35497244592767
 30
0.0
 10
198.3666053293921
 20
98.44992118617195
 30
0.0
 10
198.2812703146126
 20
98.51374224572282
 30
0.0
 10
198.2408175655071
 20
98.58572627010733
 30
0.0
  0
ELLIPSE
  5
96
330
1F
100
AcDbEntity
  8
0
  6
Continuous
 62
     7
370
    15
100
AcDbEllipse
 10
248.3651821915
 20
113.3492864476
 30
0.0
 11
156.9869077039978
 21
-1.743768924240741
 31
0.0
210
0.0
220
0.0
230
1.0
 40
0.1045157088
 41
4.393198377778952
 42
4.424489737071486
  0
ELLIPSE
  5
97
330
1F
100
AcDbEntity
  8
0
  6
Continuous
 62
     7
370
    15
100
AcDbEllipse
 10
196.9207162334
 20
120.4451919493
 30
0.0
 11
0.1470036699800233
 21
2.684479469109647
 31
0.0
210
0.0
220
0.0
230
1.0
 40
0.2233809943
 41
0.0
 42
6.283185307179586
  0
LINE
  5
98
330
1F
100
AcDbEntity
  8
0
  6
Continuous
 62
     7
370
    15
100
AcDbLine
 10
167.3831226866
 20
98.2455860468
 30
0.0
 11
167.3831226866
 21
128.4529868484
 31
0.0
  0
LINE
  5
99
330
1F
100
AcDbEntity
  8
0
  6
Continuous
 62
     7
370
    15
100
AcDbLine
 10
155.5831226866
 20
98.8367684115
 30
0.0
 11
155.5831226866
 21
99.7125397495
 31
0.0
  0
SPLINE
  5
9A
330
1F
100
AcDbEntity
  8
0
  6
Continuous
 62
     7
370
    15
100
AcDbSpline
210
0.0
220
0.0
230
1.0
 70
     8
 71
     3
 72
    12
 73
     8
 74
     0
 42
0.00000001
 43
0.00000001
 12
1.0
 22
0.0
 32
0.0
 13
1.0
 23
0.0
 33
0.0
 40
0.0
 40
0.0
 40
0.0
 40
0.0
 40
0.2499999999999994
 40
0.2499999999999994
 40
0.4999999999999988
 40
0.4999999999999988
 40
1.0
 40
1.0
 40
1.0
 40
1.0
 10
155.2153875937882
 20
100.4189105847291
 30
0.0
 10
155.2408118106821
 20
100.3520249916554
 30
0.0
 10
155.2814236502514
 20
100.2875765019717
 30
0.0
 10
155.3660247965236
 20
100.1625758418939
 30
0.0
 10
155.4101215928091
 20
100.1020570967018
 30
0.0
 10
155.5261907012952
 20
99.92585104059334
 30
0.0
 10
155.5831226866451
 20
99.81545662562155
 30
0.0
 10
155.5831226866451
 20
99.7125397495284
 30
0.0
  0
SPLINE
  5
9B
330
1F
100
AcDbEntity
  8
0
  6
Continuous
 62
     7
370
    15
100
AcDbSpline
210
0.0
220
0.0
230
1.0
 70
     8
 71
     3
 72
    14
 73
    10
 74
     0
 42
0.00000001
 43
0.00000001
 12
1.0
 22
0.0
 32
0.0
 13
1.0
 23
0.0
 33
0.0
 40
0.0
 40
0.0
 40
0.0
 40
0.0
 40
0.1249999999999994
 40
0.1249999999999994
 40
0.2499999999999988
 40
0.2499999999999988
 40
0.4999999999999991
 40
0.4999999999999991
 40
1.0
 40
1.0
 40
1.0
 40
1.0
 10
154.6831226866451
 20
100.9089164001029
 30
0.0
 10
154.7321350094564
 20
100.913441459258
 30
0.0
 10
154.7849412344519
 20
100.9053220737035
 30
0.0
 10
154.8700083261814
 20
100.8749919985521
 30
0.0
 10
154.9045925115222
 20
100.8543370414756
 30
0.0
 10
154.9931481968594
 20
100.7898009181488
 30
0.0
 10
155.0340838981806
 20
100.7425627380962
 30
0.0
 10
155.1379644250835
 20
100.6027666368124
 30
0.0
 10
155.1811882245157
 20
100.5088816979431
 30
0.0
 10
155.2153875937882
 20
100.4189105847291
 30
0.0
  0
SPLINE
  5
9C
330
1F
100
AcDbEntity
  8
0
  6
Continuous
 62
     7
370
    15
100
AcDbSpline
210
0.0
220
0.0
230
1.0
 70
     8
 71
     3
 72
    10
 73
     6
 74
     0
 42
0.00000001
 43
0.00000001
 12
1.0
 22
0.0
 32
0.0
 13
1.0
 23
0.0
 33
0.0
 40
0.0
 40
0.0
 40
0.0
 40
0.0
 40
0.5
 40
0.5
 40
1.0
 40
1.0
 40
1.0
 40
1.0
 10
151.7622992949465
 20
100.5826643205364
 30
0.0
 10
152.2346559341528
 20
100.6496195857255
 30
0.0
 10
152.7198296765434
 20
100.707758408674
 30
0.0
 10
153.6965109409687
 20
100.8146640279693
 30
0.0
 10
154.1886592958621
 20
100.8632651033471
 30
0.0
 10
154.6831226866451
 20
100.9089164001029
 30
0.0
  0
SPLINE
  5
9D
330
1F
100
AcDbEntity
  8
0
  6
Continuous
 62
     7
370
    15
100
AcDbSpline
210
0.0
220
0.0
230
1.0
 70
     8
 71
     3
 72
    10
 73
     6
 74
     0
 42
0.00000001
 43
0.00000001
 12
1.0
 22
0.0
 32
0.0
 13
1.0
 23
0.0
 33
0.0
 40
0.0
 40
0.0
 40
0.0
 40
0.0
 40
0.5
 40
0.5
 40
1.0
 40
1.0
 40
1.0
 40
1.0
 10
150.4921226866451
 20
100.4982195700576
 30
0.0
 10
150.7074817172024
 20
100.5052324010281
 30
0.0
 10
150.9219230555264
 20
100.5140071246834
 30
0.0
 10
151.3469142741469
 20
100.5390603022312
 30
0.0
 10
151.5582870058696
 20
100.5537461350316
 30
0.0
 10
151.7622992949465
 20
100.5826643205363
 30
0.0
  0
SPLINE
  5
9E
330
1F
100
AcDbEntity
  8
0
  6
Continuous
 62
     7
370
    15
100
AcDbSpline
210
0.0
220
0.0
230
1.0
 70
     8
 71
     3
 72
     8
 73
     4
 74
     0
 42
0.00000001
 43
0.00000001
 12
1.0
 22
0.0
 32
0.0
 13
1.0
 23
0.0
 33
0.0
 40
0.0
 40
0.0
 40
0.0
 40
0.0
 40
1.0
 40
1.0
 40
1.0
 40
1.0
 10
150.424606537076
 20
100.6461087480703
 30
0.0
 10
150.4387409817041
 20
100.5953124244371
 30
0.0
 10
150.4617983568527
 20
100.5460736738768
 30
0.0
 10
150.492122686645
 20
100.4982195700576
 30
0.0
  0
ELLIPSE
  5
9F
330
1F
100
AcDbEntity
  8
0
  6
Continuous
 62
     7
370
    15
100
AcDbEllipse
 10
136.9563804788
 20
112.7099887698
 30
0.0
 11
13.37355272666625
 21
-13.37146352987015
 31
0.0
210
0.0
220
0.0
230
1.0
 40
0.1761188775
 41
0.3023035477142557
 42
0.3822730435340398
  0
ELLIPSE
  5
A0
330
1F
100
AcDbEntity
  8
0
  6
Continuous
 62
     7
370
    15
100
AcDbEllipse
 10
136.8770020481
 20
113.9883968989
 30
0.0
 11
13.36963611134303
 21
13.36754752639484
 31
0.0
210
0.0
220
0.0
230
1.0
 40
0.1761188775
 41
5.933076931846609
 42
5.976720052691203
  0
SPLINE
  5
A1
330
1F
100
AcDbEntity
  8
0
  6
Continuous
 62
     7
370
    15
100
AcDbSpline
210
0.0
220
0.0
230
1.0
 70
     8
 71
     3
 72
     8
 73
     4
 74
     0
 42
0.00000001
 43
0.00000001
 12
1.0
 22
0.0
 32
0.0
 13
1.0
 23
0.0
 33
0.0
 40
0.0
 40
0.0
 40
0.0
 40
0.0
 40
1.0
 40
1.0
 40
1.0
 40
1.0
 10
150.433122686645
 20
126.2148669945922
 30
0.0
 10
150.3873577789558
 20
126.1533466154334
 30
0.0
 10
150.3529706573258
 20
126.089451755684
 30
0.0
 10
150.3339554036529
 20
126.0227218106402
 30
0.0
  0
SPLINE
  5
A2
330
1F
100
AcDbEntity
  8
0
  6
Continuous
 62
     7
370
    15
100
AcDbSpline
210
0.0
220
0.0
230
1.0
 70
     8
 71
     3
 72
    12
 73
     8
 74
     0
 42
0.00000001
 43
0.00000001
 12
1.0
 22
0.0
 32
0.0
 13
1.0
 23
0.0
 33
0.0
 40
0.0
 40
0.0
 40
0.0
 40
0.0
 40
0.2500000000000014
 40
0.2500000000000014
 40
0.5000000000000028
 40
0.5000000000000028
 40
1.0
 40
1.0
 40
1.0
 40
1.0
 10
152.1831226866451
 20
126.1300803062731
 30
0.0
 10
152.0410802834559
 20
126.1459060344493
 30
0.0
 10
151.8969621769517
 20
126.1569271682246
 30
0.0
 10
151.6072076632792
 20
126.1754635300918
 30
0.0
 10
151.4614657599204
 20
126.1827342358276
 30
0.0
 10
151.0227855207406
 20
126.2011950861556
 30
0.0
 10
150.7284099046694
 20
126.2090739529791
 30
0.0
 10
150.433122686645
 20
126.2148669945922
 30
0.0
  0
SPLINE
  5
A3
330
1F
100
AcDbEntity
  8
0
  6
Continuous
 62
     7
370
    15
100
AcDbSpline
210
0.0
220
0.0
230
1.0
 70
     8
 71
     3
 72
    20
 73
    16
 74
     0
 42
0.00000001
 43
0.00000001
 12
1.0
 22
0.0
 32
0.0
 13
1.0
 23
0.0
 33
0.0
 40
0.0
 40
0.0
 40
0.0
 40
0.0
 40
0.2500000000000015
 40
0.2500000000000015
 40
0.500000000000003
 40
0.500000000000003
 40
0.7500000000000044
 40
0.7500000000000044
 40
0.8750000000000034
 40
0.8750000000000034
 40
0.9375000000000014
 40
0.9375000000000014
 40
0.9687500000000007
 40
0.9687500000000007
 40
1.0
 40
1.0
 40
1.0
 40
1.0
 10
153.083122686646
 20
126.9068105693617
 30
0.0
 10
153.083122686646
 20
126.8462011696644
 30
0.0
 10
153.0577276670691
 20
126.7803752042608
 30
0.0
 10
152.9714344812871
 20
126.6463274349142
 30
0.0
 10
152.9107985026039
 20
126.5776320767724
 30
0.0
 10
152.7626967083826
 20
126.437233525118
 30
0.0
 10
152.675927101604
 20
126.3655300205366
 30
0.0
 10
152.5272893062748
 20
126.2593666187877
 30
0.0
 10
152.4750000893886
 20
126.2238382701562
 30
0.0
 10
152.3842362610786
 20
126.1741343396407
 30
0.0
 10
152.3518702686266
 20
126.1578733416256
 30
0.0
 10
152.2941811129604
 20
126.1387607732797
 30
0.0
 10
152.273194085073
 20
126.1333696311981
 30
0.0
 10
152.2279051060825
 20
126.1276322628056
 30
0.0
 10
152.204890837244
 20
126.1276549964591
 30
0.0
 10
152.1831226866444
 20
126.1300803062719
 30
0.0
  0
LINE
  5
A4
330
1F
100
AcDbEntity
  8
0
  6
Continuous
 62
     7
370
    15
100
AcDbLine
 10
153.0831226866
 20
126.9068105694
 30
0.0
 11
153.0831226866
 21
127.7365539827
 31
0.0
  0
SPLINE
  5
A5
330
1F
100
AcDbEntity
  8
0
  6
Continuous
 62
     7
370
    15
100
AcDbSpline
210
0.0
220
0.0
230
1.0
 70
     8
 71
     3
 72
    24
 73
    20
 74
     0
 42
0.00000001
 43
0.00000001
 12
1.0
 22
0.0
 32
0.0
 13
1.0
 23
0.0
 33
0.0
 40
0.0
 40
0.0
 40
0.0
 40
0.0
 40
0.0016643206054318
 40
0.0648792882012607
 40
0.1278826362657643
 40
0.1913652208697579
 40
0.254378220929077
 40
0.3163193242325704
 40
0.3777469826521245
 40
0.439708223145214
 40
0.5014188941660223
 40
0.5625360836783373
 40
0.6237133377388944
 40
0.6863020268400842
 40
0.7490598688494186
 40
0.8115924779751007
 40
0.8743360193381597
 40
0.9379727055969196
 40
1.0
 40
1.0
 40
1.0
 40
1.0
 10
160.5676660075698
 20
98.58731956150976
 30
0.0
 10
160.5671885761241
 20
98.58725114461495
 30
0.0
 10
160.5485771305511
 20
98.58458408670501
 30
0.0
 10
160.6117192637999
 20
98.59429923912487
 30
0.0
 10
160.7637618841496
 20
98.6165043025871
 30
0.0
 10
161.0316871113961
 20
98.6509388501309
 30
0.0
 10
161.3810011856966
 20
98.68940290460952
 30
0.0
 10
161.8080518776358
 20
98.72363151854965
 30
0.0
 10
162.295491836118
 20
98.74608209419105
 30
0.0
 10
162.8271419891756
 20
98.74967798197193
 30
0.0
 10
163.378262630721
 20
98.73266365223782
 30
0.0
 10
163.9257205136407
 20
98.69271801535737
 30
0.0
 10
164.4503547817054
 20
98.63361067524059
 30
0.0
 10
164.9321432169754
 20
98.56124571476656
 30
0.0
 10
165.3570916505928
 20
98.48492583366597
 30
0.0
 10
165.7033081069615
 20
98.41294043193912
 30
0.0
 10
165.9583864060639
 20
98.35455409850164
 30
0.0
 10
166.1185817929608
 20
98.31489419702561
 30
0.0
 10
166.1392158720955
 20
98.31006987648347
 30
0.0
 10
166.1494007802488
 20
98.30768860900343
 30
0.0
  0
SPLINE
  5
A6
330
1F
100
AcDbEntity
  8
0
  6
Continuous
 62
     7
370
    15
100
AcDbSpline
210
0.0
220
0.0
230
1.0
 70
     8
 71
     3
 72
    24
 73
    20
 74
     0
 42
0.00000001
 43
0.00000001
 12
1.0
 22
0.0
 32
0.0
 13
1.0
 23
0.0
 33
0.0
 40
0.0
 40
0.0
 40
0.0
 40
0.0
 40
0.0629034705483161
 40
0.1256338607442018
 40
0.1890239770438763
 40
0.2513957724607395
 40
0.3139907012378508
 40
0.3762905031716324
 40
0.4374458692512933
 40
0.498543189794507
 40
0.5603281700727083
 40
0.6223344218846146
 40
0.6838864714806616
 40
0.7458035625966253
 40
0.808949956220573
 40
0.8723245987313252
 40
0.9353799512544972
 40
0.998863534782067
 40
0.9999999999999999
 40
0.9999999999999999
 40
0.9999999999999999
 40
0.9999999999999999
 10
166.1484019953196
 20
128.3908859472677
 30
0.0
 10
166.1389313067503
 20
128.3884627771708
 30
0.0
 10
166.1200159884301
 20
128.3836231043854
 30
0.0
 10
165.9579648794874
 20
128.3436522927753
 30
0.0
 10
165.7014396496366
 20
128.2853078835789
 30
0.0
 10
165.3553833158686
 20
128.2130730897586
 30
0.0
 10
164.9314840354938
 20
128.1369230846296
 30
0.0
 10
164.4505008713342
 20
128.06480528342
 30
0.0
 10
163.9265175302357
 20
128.0059168650535
 30
0.0
 10
163.3789195743209
 20
127.9660060556739
 30
0.0
 10
162.8274433323515
 20
127.9489691763549
 30
0.0
 10
162.2950020878658
 20
127.9525329173824
 30
0.0
 10
161.8070199659702
 20
127.9749665900533
 30
0.0
 10
161.379507228672
 20
128.0092559506802
 30
0.0
 10
161.0306056884622
 20
128.0477599496206
 30
0.0
 10
160.7633516429697
 20
128.0822161928957
 30
0.0
 10
160.6104148945444
 20
128.1042985528754
 30
0.0
 10
160.5493119352881
 20
128.1141275858951
 30
0.0
 10
160.5668904400831
 20
128.1113637326548
 30
0.0
 10
160.5671995911851
 20
128.1113151250921
 30
0.0
  0
SPLINE
  5
A7
330
1F
100
AcDbEntity
  8
0
  6
Continuous
 62
     7
370
    15
100
AcDbSpline
210
0.0
220
0.0
230
1.0
 70
     8
 71
     3
 72
     8
 73
     4
 74
     0
 42
0.00000001
 43
0.00000001
 12
1.0
 22
0.0
 32
0.0
 13
1.0
 23
0.0
 33
0.0
 40
0.0
 40
0.0
 40
0.0
 40
0.0
 40
1.0
 40
1.0
 40
1.0
 40
1.0
 10
149.4831226866451
 20
101.8017732463925
 30
0.0
 10
149.4831226866451
 20
101.850975456553
 30
0.0
 10
149.4843922925238
 20
101.898986579691
 30
0.0
 10
149.4885379434059
 20
101.9442995270115
 30
0.0
  0
LINE
  5
A8
330
1F
100
AcDbEntity
  8
0
  6
Continuous
 62
     7
370
    15
100
AcDbLine
 10
149.4831226866
 20
101.8017732464
 30
0.0
 11
149.4831226866
 21
125.1275179121
 31
0.0
  0
SPLINE
  5
A9
330
1F
100
AcDbEntity
  8
0
  6
Continuous
 62
     7
370
    15
100
AcDbSpline
210
0.0
220
0.0
230
1.0
 70
     8
 71
     3
 72
     8
 73
     4
 74
     0
 42
0.00000001
 43
0.00000001
 12
1.0
 22
0.0
 32
0.0
 13
1.0
 23
0.0
 33
0.0
 40
0.0
 40
0.0
 40
0.0
 40
0.0
 40
1.0
 40
1.0
 40
1.0
 40
1.0
 10
149.5091669796998
 20
124.8291001860219
 30
0.0
 10
149.4848495904391
 20
124.9136095182659
 30
0.0
 10
149.4831226866449
 20
125.0197374120683
 30
0.0
 10
149.4831226866449
 20
125.1275179120547
 30
0.0
  0
SPLINE
  5
AA
330
1F
100
AcDbEntity
  8
0
  6
Continuous
 62
     7
370
    15
100
AcDbSpline
210
0.0
220
0.0
230
1.0
 70
     8
 71
     3
 72
    10
 73
     6
 74
     0
 42
0.00000001
 43
0.00000001
 12
1.0
 22
0.0
 32
0.0
 13
1.0
 23
0.0
 33
0.0
 40
0.0
 40
0.0
 40
0.0
 40
0.0
 40
0.5
 40
0.5
 40
1.0
 40
1.0
 40
1.0
 40
1.0
 10
150.0992114889578
 20
125.3835606573069
 30
0.0
 10
149.957890472098
 20
125.3514645704132
 30
0.0
 10
149.8252354105392
 20
125.2808210994875
 30
0.0
 10
149.6192320216426
 20
125.0859346046528
 30
0.0
 10
149.5454505546526
 20
124.9627258706408
 30
0.0
 10
149.5091669797003
 20
124.8291001860223
 30
0.0
  0
SPLINE
  5
AB
330
1F
100
AcDbEntity
  8
0
  6
Continuous
 62
     7
370
    15
100
AcDbSpline
210
0.0
220
0.0
230
1.0
 70
     8
 71
     3
 72
     8
 73
     4
 74
     0
 42
0.00000001
 43
0.00000001
 12
1.0
 22
0.0
 32
0.0
 13
1.0
 23
0.0
 33
0.0
 40
0.0
 40
0.0
 40
0.0
 40
0.0
 40
1.0
 40
1.0
 40
1.0
 40
1.0
 10
150.2430927330329
 20
125.7373670272268
 30
0.0
 10
150.2044105528095
 20
125.6266333447786
 30
0.0
 10
150.1585039896338
 20
125.5102920895885
 30
0.0
 10
150.0992114889578
 20
125.3835606573069
 30
0.0
  0
SPLINE
  5
AC
330
1F
100
AcDbEntity
  8
0
  6
Continuous
 62
     7
370
    15
100
AcDbSpline
210
0.0
220
0.0
230
1.0
 70
     8
 71
     3
 72
     8
 73
     4
 74
     0
 42
0.00000001
 43
0.00000001
 12
1.0
 22
0.0
 32
0.0
 13
1.0
 23
0.0
 33
0.0
 40
0.0001200374926535
 40
0.0001200374926535
 40
0.0001200374926535
 40
0.0001200374926535
 40
0.0002823292819059
 40
0.0002823292819059
 40
0.0002823292819059
 40
0.0002823292819059
 10
150.2086314576328
 20
101.2676329654156
 30
0.0
 10
150.2206739656351
 20
101.2387538404569
 30
0.0
 10
150.2321404940866
 20
101.2103216657307
 30
0.0
 10
150.243092733033
 20
101.1823008626884
 30
0.0
  0
SPLINE
  5
AD
330
1F
100
AcDbEntity
  8
0
  6
Continuous
 62
     7
370
    15
100
AcDbSpline
210
0.0
220
0.0
230
1.0
 70
     8
 71
     3
 72
    10
 73
     6
 74
     0
 42
0.00000001
 43
0.00000001
 12
1.0
 22
0.0
 32
0.0
 13
1.0
 23
0.0
 33
0.0
 40
0.0
 40
0.0
 40
0.0
 40
0.0
 40
0.5
 40
0.5
 40
1.0
 40
1.0
 40
1.0
 40
1.0
 10
149.4885379434059
 20
101.9442995270116
 30
0.0
 10
149.5095315311332
 20
101.7714458725429
 30
0.0
 10
149.5908552874988
 20
101.6094949965735
 30
0.0
 10
149.8516374710069
 20
101.3621468707204
 30
0.0
 10
150.0240036409294
 20
101.2842190560824
 30
0.0
 10
150.208631457641
 20
101.267632965417
 30
0.0
  0
SPLINE
  5
AE
330
1F
100
AcDbEntity
  8
0
  6
Continuous
 62
     7
370
    15
100
AcDbSpline
210
0.0
220
0.0
230
1.0
 70
     8
 71
     3
 72
     8
 73
     4
 74
     0
 42
0.00000001
 43
0.00000001
 12
1.0
 22
0.0
 32
0.0
 13
1.0
 23
0.0
 33
0.0
 40
0.0
 40
0.0
 40
0.0
 40
0.0
 40
1.0
 40
1.0
 40
1.0
 40
1.0
 10
183.3479629877516
 20
129.4606954486914
 30
0.0
 10
183.6873860290333
 20
128.730904587172
 30
0.0
 10
184.0198967725283
 20
127.9987362317503
 30
0.0
 10
184.343122686645
 20
127.2633743470693
 30
0.0
  0
LINE
  5
AF
330
1F
100
AcDbEntity
  8
0
  6
Continuous
 62
     7
370
    15
100
AcDbLine
 10
184.3431226866
 20
127.2633743471
 30
0.0
 11
184.3431226866
 21
126.8651336279
 31
0.0
  0
SPLINE
  5
B0
330
1F
100
AcDbEntity
  8
0
  6
Continuous
 62
     7
370
    15
100
AcDbSpline
210
0.0
220
0.0
230
1.0
 70
     8
 71
     3
 72
    12
 73
     8
 74
     0
 42
0.00000001
 43
0.00000001
 12
1.0
 22
0.0
 32
0.0
 13
1.0
 23
0.0
 33
0.0
 40
0.0
 40
0.0
 40
0.0
 40
0.0
 40
0.5000000000000032
 40
0.5000000000000032
 40
0.7500000000000016
 40
0.7500000000000016
 40
1.0
 40
1.0
 40
1.0
 40
1.0
 10
184.3431226866451
 20
126.8651336278686
 30
0.0
 10
184.3431226866451
 20
126.6806944022422
 30
0.0
 10
184.3899653810976
 20
126.4937851827348
 30
0.0
 10
184.5395174037942
 20
126.260149830114
 30
0.0
 10
184.6036223990984
 20
126.1899001983368
 30
0.0
 10
184.757851354405
 20
126.0876594493756
 30
0.0
 10
184.850527862338
 20
126.0562973077652
 30
0.0
 10
184.9431226866447
 20
126.0562973077651
 30
0.0
  0
LINE
  5
B1
330
1F
100
AcDbEntity
  8
0
  6
Continuous
 62
     7
370
    15
100
AcDbLine
 10
184.9431226866
 20
126.0562973078
 30
0.0
 11
185.8231226866
 21
126.0562973078
 31
0.0
  0
SPLINE
  5
B2
330
1F
100
AcDbEntity
  8
0
  6
Continuous
 62
     7
370
    15
100
AcDbSpline
210
0.0
220
0.0
230
1.0
 70
     8
 71
     3
 72
    12
 73
     8
 74
     0
 42
0.00000001
 43
0.00000001
 12
1.0
 22
0.0
 32
0.0
 13
1.0
 23
0.0
 33
0.0
 40
0.0
 40
0.0
 40
0.0
 40
0.0
 40
0.249999999999999
 40
0.249999999999999
 40
0.499999999999998
 40
0.499999999999998
 40
1.0
 40
1.0
 40
1.0
 40
1.0
 10
185.8231226866451
 20
126.0562973077651
 30
0.0
 10
185.9163737049782
 20
126.0562973077651
 30
0.0
 10
186.0078794138041
 20
126.0873586261644
 30
0.0
 10
186.1628029483392
 20
126.189979276545
 30
0.0
 10
186.2263977662815
 20
126.2596318046238
 30
0.0
 10
186.3769567229645
 20
126.4948467365256
 30
0.0
 10
186.4231226866451
 20
126.6796528259349
 30
0.0
 10
186.4231226866451
 20
126.8651336278686
 30
0.0
  0
LINE
  5
B3
330
1F
100
AcDbEntity
  8
0
  6
Continuous
 62
     7
370
    15
100
AcDbLine
 10
186.4231226866
 20
126.8651336279
 30
0.0
 11
186.4231226866
 21
127.2633743471
 31
0.0
  0
SPLINE
  5
B4
330
1F
100
AcDbEntity
  8
0
  6
Continuous
 62
     7
370
    15
100
AcDbSpline
210
0.0
220
0.0
230
1.0
 70
     8
 71
     3
 72
     8
 73
     4
 74
     0
 42
0.00000001
 43
0.00000001
 12
1.0
 22
0.0
 32
0.0
 13
1.0
 23
0.0
 33
0.0
 40
0.0
 40
0.0
 40
0.0
 40
0.0
 40
1.0
 40
1.0
 40
1.0
 40
1.0
 10
186.4231226866451
 20
127.2633743470692
 30
0.0
 10
186.7466802449
 20
127.9994907456918
 30
0.0
 10
187.0791745651169
 20
128.7315823411105
 30
0.0
 10
187.4182823855385
 20
129.4606954486914
 30
0.0
  0
LINE
  5
B5
330
1F
100
AcDbEntity
  8
0
  6
Continuous
 62
     7
370
    15
100
AcDbLine
 10
187.4182823855
 20
129.4606954487
 30
0.0
 11
188.7331226866
 21
129.4606954487
 31
0.0
  0
SPLINE
  5
B6
330
1F
100
AcDbEntity
  8
0
  6
Continuous
 62
     7
370
    15
100
AcDbSpline
210
0.0
220
0.0
230
1.0
 70
     8
 71
     3
 72
    12
 73
     8
 74
     0
 42
0.00000001
 43
0.00000001
 12
1.0
 22
0.0
 32
0.0
 13
1.0
 23
0.0
 33
0.0
 40
0.0
 40
0.0
 40
0.0
 40
0.0
 40
0.2500000000000006
 40
0.2500000000000006
 40
0.5000000000000011
 40
0.5000000000000011
 40
1.0
 40
1.0
 40
1.0
 40
1.0
 10
188.7331226866451
 20
129.4606954486914
 30
0.0
 10
188.8224110456888
 20
129.4606954486914
 30
0.0
 10
188.910469876591
 20
129.4350708160866
 30
0.0
 10
189.0631235898402
 20
129.3465274431548
 30
0.0
 10
189.1289170831822
 20
129.2836449600401
 30
0.0
 10
189.2843577298982
 20
129.0662837721065
 30
0.0
 10
189.3331226866451
 20
128.8876367620952
 30
0.0
 10
189.3331226866451
 20
128.7095436069195
 30
0.0
  0
LINE
  5
B7
330
1F
100
AcDbEntity
  8
0
  6
Continuous
 62
     7
370
    15
100
AcDbLine
 10
189.3331226866
 20
128.7095436069
 30
0.0
 11
189.3331226866
 21
126.226689136
 31
0.0
  0
SPLINE
  5
B8
330
1F
100
AcDbEntity
  8
0
  6
Continuous
 62
     7
370
    15
100
AcDbSpline
210
0.0
220
0.0
230
1.0
 70
     8
 71
     3
 72
    10
 73
     6
 74
     0
 42
0.00000001
 43
0.00000001
 12
1.0
 22
0.0
 32
0.0
 13
1.0
 23
0.0
 33
0.0
 40
0.0
 40
0.0
 40
0.0
 40
0.0
 40
0.5
 40
0.5
 40
1.0
 40
1.0
 40
1.0
 40
1.0
 10
189.3331226866451
 20
132.2201634807568
 30
0.0
 10
189.3331226866451
 20
132.3785979236446
 30
0.0
 10
189.2709614701621
 20
132.5376186184466
 30
0.0
 10
189.0504521294905
 20
132.7676264427022
 30
0.0
 10
188.8915370265454
 20
132.836461717519
 30
0.0
 10
188.7331226866451
 20
132.836461717519
 30
0.0
  0
LINE
  5
B9
330
1F
100
AcDbEntity
  8
0
  6
Continuous
 62
     7
370
    15
100
AcDbLine
 10
189.3331226866
 20
128.7095436069
 30
0.0
 11
189.3331226866
 21
132.2201634808
 31
0.0
  0
SPLINE
  5
BA
330
1F
100
AcDbEntity
  8
0
  6
Continuous
 62
     7
370
    15
100
AcDbSpline
210
0.0
220
0.0
230
1.0
 70
     8
 71
     3
 72
    10
 73
     6
 74
     0
 42
0.00000001
 43
0.00000001
 12
1.0
 22
0.0
 32
0.0
 13
1.0
 23
0.0
 33
0.0
 40
0.0
 40
0.0
 40
0.0
 40
0.0
 40
0.5
 40
0.5
 40
1.0
 40
1.0
 40
1.0
 40
1.0
 10
184.591467072395
 20
130.2492864476139
 30
0.0
 10
184.5141423405208
 20
130.3071684484755
 30
0.0
 10
184.4507625149843
 20
130.3842417931094
 30
0.0
 10
184.3651920662113
 20
130.5587448513033
 30
0.0
 10
184.3431226866451
 20
130.6555500547837
 30
0.0
 10
184.3431226866451
 20
130.7518904194337
 30
0.0
  0
SPLINE
  5
BB
330
1F
100
AcDbEntity
  8
0
  6
Continuous
 62
     7
370
    15
100
AcDbSpline
210
0.0
220
0.0
230
1.0
 70
    24
 71
     3
 72
    12
 73
     8
 74
     0
 42
0.00000001
 43
0.00000001
 12
1.0
 22
0.0
 32
0.0
 13
1.0
 23
0.0
 33
0.0
 40
0.0
 40
0.0
 40
0.0
 40
0.0
 40
0.2499999999999991
 40
0.2499999999999991
 40
0.4999999999999982
 40
0.4999999999999982
 40
1.0
 40
1.0
 40
1.0
 40
1.0
 10
184.9431226866449
 20
130.2492864476139
 30
0.0
 10
184.8918334416085
 20
130.2492864476139
 30
0.0
 10
184.8446454159368
 20
130.2492864476139
 30
0.0
 10
184.7716292072418
 20
130.2492864476139
 30
0.0
 10
184.7421375997021
 20
130.2492864476139
 30
0.0
 10
184.6645555606077
 20
130.2492864476139
 30
0.0
 10
184.6253942478924
 20
130.2492864476139
 30
0.0
 10
184.5914670723942
 20
130.2492864476139
 30
0.0
  0
SPLINE
  5
BC
330
1F
100
AcDbEntity
  8
0
  6
Continuous
 62
     7
370
    15
100
AcDbSpline
210
0.0
220
0.0
230
1.0
 70
    24
 71
     3
 72
    12
 73
     8
 74
     0
 42
0.00000001
 43
0.00000001
 12
1.0
 22
0.0
 32
0.0
 13
1.0
 23
0.0
 33
0.0
 40
0.0
 40
0.0
 40
0.0
 40
0.0
 40
0.4999999999999974
 40
0.4999999999999974
 40
0.7499999999999987
 40
0.7499999999999987
 40
1.0
 40
1.0
 40
1.0
 40
1.0
 10
186.1747783008959
 20
130.2492864476139
 30
0.0
 10
186.1406083395454
 20
130.2492864476139
 30
0.0
 10
186.1013581984938
 20
130.2492864476139
 30
0.0
 10
186.0233581879808
 20
130.2492864476139
 30
0.0
 10
185.99395525958
 20
130.2492864476139
 30
0.0
 10
185.9208106654314
 20
130.2492864476139
 30
0.0
 10
185.8741806874635
 20
130.2492864476139
 30
0.0
 10
185.8231226866451
 20
130.2492864476139
 30
0.0
  0
SPLINE
  5
BD
330
1F
100
AcDbEntity
  8
0
  6
Continuous
 62
     7
370
    15
100
AcDbSpline
210
0.0
220
0.0
230
1.0
 70
     8
 71
     3
 72
    10
 73
     6
 74
     0
 42
0.00000001
 43
0.00000001
 12
1.0
 22
0.0
 32
0.0
 13
1.0
 23
0.0
 33
0.0
 40
0.0
 40
0.0
 40
0.0
 40
0.0
 40
0.5
 40
0.5
 40
1.0
 40
1.0
 40
1.0
 40
1.0
 10
186.4231226866451
 20
130.7518904194326
 30
0.0
 10
186.4231226866449
 20
130.6553478719571
 30
0.0
 10
186.401182064064
 20
130.558886671688
 30
0.0
 10
186.3150518786737
 20
130.383484077445
 30
0.0
 10
186.2519695715313
 20
130.3070685450784
 30
0.0
 10
186.1747783008998
 20
130.2492864476174
 30
0.0
  0
SPLINE
  5
BE
330
1F
100
AcDbEntity
  8
0
  6
Continuous
 62
     7
370
    15
100
AcDbSpline
210
0.0
220
0.0
230
1.0
 70
     8
 71
     3
 72
     8
 73
     4
 74
     0
 42
0.00000001
 43
0.00000001
 12
1.0
 22
0.0
 32
0.0
 13
1.0
 23
0.0
 33
0.0
 40
0.0
 40
0.0
 40
0.0
 40
0.0
 40
1.0
 40
1.0
 40
1.0
 40
1.0
 10
184.3431226866451
 20
131.0629631431441
 30
0.0
 10
184.0121023556254
 20
131.6545188396018
 30
0.0
 10
183.6803210841413
 20
132.245651503847
 30
0.0
 10
183.3479629877516
 20
132.836461717519
 30
0.0
  0
LINE
  5
BF
330
1F
100
AcDbEntity
  8
0
  6
Continuous
 62
     7
370
    15
100
AcDbLine
 10
184.3431226866
 20
127.2633743471
 30
0.0
 11
184.3431226866
 21
131.0629631431
 31
0.0
  0
LINE
  5
C0
330
1F
100
AcDbEntity
  8
0
  6
Continuous
 62
     7
370
    15
100
AcDbLine
 10
185.8231226866
 20
130.2492864476
 30
0.0
 11
184.9431226866
 21
130.2492864476
 31
0.0
  0
SPLINE
  5
C1
330
1F
100
AcDbEntity
  8
0
  6
Continuous
 62
     7
370
    15
100
AcDbSpline
210
0.0
220
0.0
230
1.0
 70
     8
 71
     3
 72
     8
 73
     4
 74
     0
 42
0.00000001
 43
0.00000001
 12
1.0
 22
0.0
 32
0.0
 13
1.0
 23
0.0
 33
0.0
 40
0.0
 40
0.0
 40
0.0
 40
0.0
 40
1.0
 40
1.0
 40
1.0
 40
1.0
 10
187.4182823855385
 20
132.8364617175189
 30
0.0
 10
187.0859242891489
 20
132.245651503847
 30
0.0
 10
186.7541430176647
 20
131.6545188396018
 30
0.0
 10
186.4231226866451
 20
131.0629631431441
 30
0.0
  0
LINE
  5
C2
330
1F
100
AcDbEntity
  8
0
  6
Continuous
 62
     7
370
    15
100
AcDbLine
 10
187.4182823855
 20
129.4606954487
 30
0.0
 11
187.4182823855
 21
132.8364617175
 31
0.0
  0
LINE
  5
C3
330
1F
100
AcDbEntity
  8
0
  6
Continuous
 62
     7
370
    15
100
AcDbLine
 10
186.4231226866
 20
127.2633743471
 30
0.0
 11
186.4231226866
 21
131.0629631431
 31
0.0
  0
LINE
  5
C4
330
1F
100
AcDbEntity
  8
0
  6
Continuous
 62
     7
370
    15
100
AcDbLine
 10
188.7331226866
 20
132.8364617175
 30
0.0
 11
187.4182823855
 21
132.8364617175
 31
0.0
  0
LINE
  5
C5
330
1F
100
AcDbEntity
  8
0
  6
Continuous
 62
     7
370
    15
100
AcDbLine
 10
149.4831226866
 20
125.2232005849
 30
0.0
 11
149.4831226866
 21
125.1275179121
 31
0.0
  0
LINE
  5
C6
330
1F
100
AcDbEntity
  8
0
  6
Continuous
 62
     7
370
    15
100
AcDbLine
 10
149.4831226866
 20
101.5308141749
 30
0.0
 11
149.4831226866
 21
101.8017732464
 31
0.0
  0
LINE
  5
C7
330
1F
100
AcDbEntity
  8
0
  6
Continuous
 62
     7
370
    15
100
AcDbLine
 10
210.9109777098
 20
131.3352112704
 30
0.0
 11
209.6143286465
 21
131.2360146615
 31
0.0
  0
ARC
  5
C8
330
1F
100
AcDbEntity
  8
0
  6
Continuous
 62
     7
370
    15
100
AcDbCircle
 10
209.8234178414
 20
128.9060153845
 30
0.0
 40
2.339362075903199
100
AcDbArc
 50
95.1278664963
 51
274.862579501
  0
LINE
  5
C9
330
1F
100
AcDbEntity
  8
0
  6
Continuous
 62
     7
370
    15
100
AcDbLine
 10
210.0217166305
 20
126.5750729759
 30
0.0
 11
222.2677526962
 21
127.5119226477
 31
0.0
  0
LINE
  5
CA
330
1F
100
AcDbEntity
  8
0
  6
Continuous
 62
     7
370
    15
100
AcDbLine
 10
222.2677526962
 20
127.5119226477
 30
0.0
 11
221.2641796151
 21
116.0520554807
 31
0.0
  0
LINE
  5
CB
330
1F
100
AcDbEntity
  8
0
  6
Continuous
 62
     7
370
    15
100
AcDbLine
 10
221.2641796151
 20
116.0520554807
 30
0.0
 11
207.4091853828
 21
96.417289374
 31
0.0
  0
ELLIPSE
  5
CC
330
1F
100
AcDbEntity
  8
0
  6
Continuous
 62
     7
370
    15
100
AcDbEllipse
 10
248.3651821915
 20
113.3492864476
 30
0.0
 11
171.2584447679974
 21
-1.902293371899006
 31
0.0
210
0.0
220
0.0
230
1.0
 40
0.1045157088
 41
4.456250471810722
 42
4.472062491739848
  0
SPLINE
  5
CD
330
1F
100
AcDbEntity
  8
0
  6
Continuous
 62
     7
370
    15
100
AcDbSpline
210
0.0
220
0.0
230
1.0
 70
     8
 71
     3
 72
     8
 73
     4
 74
     0
 42
0.00000001
 43
0.00000001
 12
1.0
 22
0.0
 32
0.0
 13
1.0
 23
0.0
 33
0.0
 40
0.0
 40
0.0
 40
0.0
 40
0.0
 40
1.0
 40
1.0
 40
1.0
 40
1.0
 10
204.7850464752918
 20
96.51598154746566
 30
0.0
 10
204.7171526251921
 20
96.77916797935545
 30
0.0
 10
204.6493724232713
 20
97.04238291452785
 30
0.0
 10
204.5817215249552
 20
97.30563027940764
 30
0.0
  0
SPLINE
  5
CE
330
1F
100
AcDbEntity
  8
0
  6
Continuous
 62
     7
370
    15
100
AcDbSpline
210
0.0
220
0.0
230
1.0
 70
     8
 71
     3
 72
    10
 73
     6
 74
     0
 42
0.00000001
 43
0.00000001
 12
1.0
 22
0.0
 32
0.0
 13
1.0
 23
0.0
 33
0.0
 40
0.0
 40
0.0
 40
0.0
 40
0.0
 40
0.5
 40
0.5
 40
1.0
 40
1.0
 40
1.0
 40
1.0
 10
204.5817215249552
 20
97.30563027940764
 30
0.0
 10
204.5254402592263
 20
97.52463542588777
 30
0.0
 10
204.4022679529527
 20
97.72186680028844
 30
0.0
 10
204.0591441346664
 20
98.01296938028271
 30
0.0
 10
203.8414632030096
 20
98.10261354735744
 30
0.0
 10
203.6157956986671
 20
98.11210784360027
 30
0.0
  0
SPLINE
  5
CF
330
1F
100
AcDbEntity
  8
0
  6
Continuous
 62
     7
370
    15
100
AcDbSpline
210
0.0
220
0.0
230
1.0
 70
     8
 71
     3
 72
    10
 73
     6
 74
     0
 42
0.00000001
 43
0.00000001
 12
1.0
 22
0.0
 32
0.0
 13
1.0
 23
0.0
 33
0.0
 40
0.0
 40
0.0
 40
0.0
 40
0.0
 40
0.5
 40
0.5
 40
1.0
 40
1.0
 40
1.0
 40
1.0
 10
203.6157956986661
 20
129.5697329566572
 30
0.0
 10
203.8413941080336
 20
129.5742673243338
 30
0.0
 10
204.0568227293973
 20
129.657530357867
 30
0.0
 10
204.4028388711351
 20
129.9428474757119
 30
0.0
 10
204.5254582265213
 20
130.137287485777
 30
0.0
 10
204.5817215249552
 20
130.3549864563808
 30
0.0
  0
SPLINE
  5
D0
330
1F
100
AcDbEntity
  8
0
  6
Continuous
 62
     7
370
    15
100
AcDbSpline
210
0.0
220
0.0
230
1.0
 70
     8
 71
     3
 72
     8
 73
     4
 74
     0
 42
0.00000001
 43
0.00000001
 12
1.0
 22
0.0
 32
0.0
 13
1.0
 23
0.0
 33
0.0
 40
0.0
 40
0.0
 40
0.0
 40
0.0
 40
1.0
 40
1.0
 40
1.0
 40
1.0
 10
204.5817215249552
 20
130.3549864563808
 30
0.0
 10
205.2324897615292
 20
132.8729969382974
 30
0.0
 10
205.8941912648394
 20
135.3880250920559
 30
0.0
 10
206.5592751534562
 20
137.9021306137059
 30
0.0
  0
ELLIPSE
  5
D1
330
1F
100
AcDbEntity
  8
0
  6
Continuous
 62
     7
370
    15
100
AcDbEllipse
 10
244.8742143858
 20
116.8594834799
 30
0.0
 11
215.3493833991933
 21
20.26302228663778
 31
0.0
210
0.0
220
0.0
230
1.0
 40
0.1150714178
 41
1.715399562876174
 42
1.738830868213694
  0
LINE
  5
D2
330
1F
100
AcDbEntity
  8
0
  6
Continuous
 62
     7
370
    15
100
AcDbLine
 10
211.5350482352
 20
138.4615137378
 30
0.0
 11
210.9109777098
 21
131.3352112704
 31
0.0
  0
CIRCLE
  5
D3
330
1F
100
AcDbEntity
  8
0
  6
Continuous
 62
     7
370
    15
100
AcDbCircle
 10
213.0449989864
 20
121.5680368383
 30
0.0
 40
3.976282661240924
  0
LINE
  5
D4
330
1F
100
AcDbEntity
  8
0
  6
Continuous
 62
     7
370
    15
100
AcDbLine
 10
150.4331226866
 20
126.2292864476
 30
0.0
 11
150.4331226866
 21
126.2148669946
 31
0.0
  0
LINE
  5
D5
330
1F
100
AcDbEntity
  8
0
  6
Continuous
 62
     7
370
    15
100
AcDbLine
 10
149.4831226866
 20
125.2792864476
 30
0.0
 11
149.4831226866
 21
125.2232005849
 31
0.0
  0
LINE
  5
D6
330
1F
100
AcDbEntity
  8
0
  6
Continuous
 62
     7
370
    15
100
AcDbLine
 10
150.4921226866
 20
100.4692864476
 30
0.0
 11
150.4921226866
 21
100.4982195701
 31
0.0
  0
LINE
  5
D7
330
1F
100
AcDbEntity
  8
0
  6
Continuous
 62
     7
370
    15
100
AcDbLine
 10
149.4831226866
 20
101.4782864476
 30
0.0
 11
149.4831226866
 21
101.5308141749
 31
0.0
  0
LINE
  5
D8
330
1F
100
AcDbEntity
  8
0
  6
Continuous
 62
     7
370
    15
100
AcDbLine
 10
204.7850464753
 20
96.5159815475
 30
0.0
 11
204.7850464753
 21
95.3492864476
 31
0.0
  0
LINE
  5
D9
330
1F
100
AcDbEntity
  8
0
  6
Continuous
 62
     7
370
    15
100
AcDbLine
 10
206.5591611657
 20
137.9440719679
 30
0.0
 11
206.5592751535
 21
137.9021306137
 31
0.0
  0
ELLIPSE
  5
DA
330
1F
100
AcDbEntity
  8
0
  6
Continuous
 62
     7
370
    15
100
AcDbEllipse
 10
219.2621763234
 20
113.3492864476
 30
0.0
 11
12.8082609601664
 21
17.99807758938465
 31
0.0
210
0.0
220
0.0
230
1.0
 40
0.0205386817
 41
3.156207884742678
 42
3.502415060752386
  0
ARC
  5
DB
330
1F
100
AcDbEntity
  8
0
  6
Continuous
 62
     7
370
    15
100
AcDbCircle
 10
209.2976304713
 20
128.4420218239
 30
0.0
 40
2.312001507739081
100
AcDbArc
 50
94.3306845212
 51
126.1505283404
  0
LINE
  5
DC
330
1F
100
AcDbEntity
  8
0
  6
Continuous
 62
     7
370
    15
100
AcDbLine
 10
210.4196939324
 20
130.8466187969
 30
0.0
 11
210.9109777098
 21
131.3352112704
 31
0.0
  0
LINE
  5
DD
330
1F
100
AcDbEntity
  8
0
  6
Continuous
 62
     7
370
    15
100
AcDbLine
 10
210.4196939324
 20
130.8466187969
 30
0.0
 11
210.4427503405
 21
130.8483826647
 31
0.0
  0
LINE
  5
DE
330
1F
100
AcDbEntity
  8
0
  6
Continuous
 62
     7
370
    15
100
AcDbLine
 10
208.8157311871
 20
130.4417920026
 30
0.0
 11
210.4178776576
 21
130.5643598594
 31
0.0
  0
ELLIPSE
  5
DF
330
1F
100
AcDbEntity
  8
0
  6
Continuous
 62
     7
370
    15
100
AcDbEllipse
 10
208.9161712651
 20
113.0801408561
 30
0.0
 11
2.547289797953396
 21
25.40076590679334
 31
0.0
210
0.0
220
0.0
230
1.0
 40
0.0928940858
 41
6.252327540630584
 42
6.302465511708959
  0
ARC
  5
E0
330
1F
100
AcDbEntity
  8
0
  6
Continuous
 62
     7
370
    15
100
AcDbCircle
 10
209.2779052705
 20
128.6907374929
 30
0.0
 40
2.062506649555472
100
AcDbArc
 50
94.3060251397
 51
134.8142303556
  0
LINE
  5
E1
330
1F
100
AcDbEntity
  8
0
  6
Continuous
 62
     7
370
    15
100
AcDbLine
 10
210.0730854636
 20
126.6271550678
 30
0.0
 11
209.5482463819
 21
126.5870036817
 31
0.0
  0
ARC
  5
E2
330
1F
100
AcDbEntity
  8
0
  6
Continuous
 62
     7
370
    15
100
AcDbCircle
 10
208.9716723894
 20
128.3817723229
 30
0.0
 40
2.065913536239147
100
AcDbArc
 50
94.3289706866
 51
125.3082826055
  0
ARC
  5
E3
330
1F
100
AcDbEntity
  8
0
  6
Continuous
 62
     7
370
    15
100
AcDbCircle
 10
216.7361755496
 20
132.7781283782
 30
0.0
 40
2.822781787710891
100
AcDbArc
 50
6.2024868593
 51
83.4163009364
  0
ARC
  5
E4
330
1F
100
AcDbEntity
  8
0
  6
Continuous
 62
     7
370
    15
100
AcDbCircle
 10
216.214699371
 20
132.2945612812
 30
0.0
 40
2.779220866207435
100
AcDbArc
 50
76.4614121181
 51
108.8298541962
  0
CIRCLE
  5
E5
330
1F
100
AcDbEntity
  8
0
  6
Continuous
 62
     7
370
    15
100
AcDbCircle
 10
213.0087771393
 20
121.5262571538
 30
0.0
 40
3.479432626641044
  0
CIRCLE
  5
E6
330
1F
100
AcDbEntity
  8
0
  6
Continuous
 62
     7
370
    15
100
AcDbCircle
 10
213.0250884479
 20
121.525433434
 30
0.0
 40
1.988376604202218
  0
SPLINE
  5
E7
330
1F
100
AcDbEntity
  8
0
  6
Continuous
 62
     7
370
    15
100
AcDbSpline
210
0.0
220
0.0
230
1.0
 70
     8
 71
     3
 72
    11
 73
     7
 74
     0
 42
0.00000001
 43
0.00000001
 12
1.0
 22
0.0
 32
0.0
 13
1.0
 23
0.0
 33
0.0
 40
0.0
 40
0.0
 40
0.0
 40
0.0
 40
0.1081100880371203
 40
0.4711580666043557
 40
0.8135808430835948
 40
0.9999999999999999
 40
0.9999999999999999
 40
0.9999999999999999
 40
0.9999999999999999
 10
212.0062955127269
 20
120.114329790592
 30
0.0
 10
212.061283819743
 20
120.1046991236174
 30
0.0
 10
212.3009301366593
 20
120.0627274028073
 30
0.0
 10
212.7680894521311
 20
119.9936873143764
 30
0.0
 10
213.3149364152115
 20
119.9414042377127
 30
0.0
 10
213.6140002443308
 20
119.9222158989653
 30
0.0
 10
213.7194215873976
 20
119.9154519233688
 30
0.0
  0
SPLINE
  5
E8
330
1F
100
AcDbEntity
  8
0
  6
Continuous
 62
     7
370
    15
100
AcDbSpline
210
0.0
220
0.0
230
1.0
 70
     8
 71
     3
 72
    11
 73
     7
 74
     0
 42
0.00000001
 43
0.00000001
 12
1.0
 22
0.0
 32
0.0
 13
1.0
 23
0.0
 33
0.0
 40
0.0
 40
0.0
 40
0.0
 40
0.0
 40
0.2164499953511879
 40
0.4402998152333194
 40
0.7518914760010322
 40
0.9999999999999999
 40
0.9999999999999999
 40
0.9999999999999999
 40
0.9999999999999999
 10
213.7194215873976
 20
119.9154519233688
 30
0.0
 10
213.7830980388508
 20
120.0045015841516
 30
0.0
 10
213.9126278628826
 20
120.1856452664401
 30
0.0
 10
214.164811656653
 20
120.5335470124093
 30
0.0
 10
214.4514642796461
 20
120.9227884167279
 30
0.0
 10
214.6457803563031
 20
121.1826963882055
 30
0.0
 10
214.7319183928463
 20
121.2979105420221
 30
0.0
  0
SPLINE
  5
E9
330
1F
100
AcDbEntity
  8
0
  6
Continuous
 62
     7
370
    15
100
AcDbSpline
210
0.0
220
0.0
230
1.0
 70
     8
 71
     3
 72
    11
 73
     7
 74
     0
 42
0.00000001
 43
0.00000001
 12
1.0
 22
0.0
 32
0.0
 13
1.0
 23
0.0
 33
0.0
 40
0.0
 40
0.0
 40
0.0
 40
0.0
 40
0.2164499953511764
 40
0.4402998152332909
 40
0.7518914760010267
 40
1.0
 40
1.0
 40
1.0
 40
1.0
 10
214.7319183928462
 20
121.2979105420221
 30
0.0
 10
214.6782470230278
 20
121.4005831840686
 30
0.0
 10
214.5690694082349
 20
121.6094385608002
 30
0.0
 10
214.3782708472632
 20
122.0087664027417
 30
0.0
 10
214.18973390963
 20
122.4531728575148
 30
0.0
 10
214.0799534937463
 20
122.7483835791873
 30
0.0
 10
214.0312891236242
 20
122.8792470278985
 30
0.0
  0
SPLINE
  5
EA
330
1F
100
AcDbEntity
  8
0
  6
Continuous
 62
     7
370
    15
100
AcDbSpline
210
0.0
220
0.0
230
1.0
 70
     8
 71
     3
 72
    11
 73
     7
 74
     0
 42
0.00000001
 43
0.00000001
 12
1.0
 22
0.0
 32
0.0
 13
1.0
 23
0.0
 33
0.0
 40
0.0
 40
0.0
 40
0.0
 40
0.0
 40
0.1864191569163789
 40
0.5288419333956546
 40
0.8918899119628756
 40
1.0
 40
1.0
 40
1.0
 40
1.0
 10
214.0312891236242
 20
122.8792470278985
 30
0.0
 10
213.9258677805574
 20
122.886011003495
 30
0.0
 10
213.6268039514381
 20
122.9051993422424
 30
0.0
 10
213.0799569883577
 20
122.9574824189062
 30
0.0
 10
212.6127976728859
 20
123.026522507337
 30
0.0
 10
212.3731513559697
 20
123.0684942281471
 30
0.0
 10
212.3181630489535
 20
123.0781248951216
 30
0.0
  0
SPLINE
  5
EB
330
1F
100
AcDbEntity
  8
0
  6
Continuous
 62
     7
370
    15
100
AcDbSpline
210
0.0
220
0.0
230
1.0
 70
     8
 71
     3
 72
    11
 73
     7
 74
     0
 42
0.00000001
 43
0.00000001
 12
1.0
 22
0.0
 32
0.0
 13
1.0
 23
0.0
 33
0.0
 40
0.0
 40
0.0
 40
0.0
 40
0.0
 40
0.2164499953511909
 40
0.4402998152333311
 40
0.7518914760010593
 40
1.0
 40
1.0
 40
1.0
 40
1.0
 10
212.3181630489535
 20
123.0781248951216
 30
0.0
 10
212.2431289922654
 20
122.9777798472537
 30
0.0
 10
212.0904956727664
 20
122.7736592328635
 30
0.0
 10
211.8190540011631
 20
122.4066051057313
 30
0.0
 10
211.5440107639037
 20
122.0289094897165
 30
0.0
 10
211.3788708357773
 20
121.7980178367753
 30
0.0
 10
211.3056662435048
 20
121.6956662764684
 30
0.0
  0
SPLINE
  5
EC
330
1F
100
AcDbEntity
  8
0
  6
Continuous
 62
     7
370
    15
100
AcDbSpline
210
0.0
220
0.0
230
1.0
 70
     8
 71
     3
 72
    11
 73
     7
 74
     0
 42
0.00000001
 43
0.00000001
 12
1.0
 22
0.0
 32
0.0
 13
1.0
 23
0.0
 33
0.0
 40
0.0
 40
0.0
 40
0.0
 40
0.0
 40
0.2164499953512029
 40
0.4402998152333414
 40
0.751891476001082
 40
1.0
 40
1.0
 40
1.0
 40
1.0
 10
211.3056662435048
 20
121.6956662764684
 30
0.0
 10
211.3479800080883
 20
121.5816982473367
 30
0.0
 10
211.434054127414
 20
121.3498659385034
 30
0.0
 10
211.605594810553
 20
120.9313857153988
 30
0.0
 10
211.8057411339196
 20
120.4985250489296
 30
0.0
 10
211.9446976983341
 20
120.2323306457934
 30
0.0
 10
212.0062955127269
 20
120.114329790592
 30
0.0
  0
LINE
  5
ED
330
1F
100
AcDbEntity
  8
0
  6
Continuous
 62
     7
370
    15
100
AcDbLine
 10
213.6184955667
 20
119.9223278456
 30
0.0
 11
213.8355644544
 21
120.2187127359
 31
0.0
  0
LINE
  5
EE
330
1F
100
AcDbEntity
  8
0
  6
Continuous
 62
     7
370
    15
100
AcDbLine
 10
213.8355644544
 20
120.2187127359
 30
0.0
 11
214.3418128571
 21
120.9099420452
 31
0.0
  0
LINE
  5
EF
330
1F
100
AcDbEntity
  8
0
  6
Continuous
 62
     7
370
    15
100
AcDbLine
 10
214.3418128571
 20
120.9099420452
 30
0.0
 11
214.7319183928
 21
121.297910542
 31
0.0
  0
LINE
  5
F0
330
1F
100
AcDbEntity
  8
0
  6
Continuous
 62
     7
370
    15
100
AcDbLine
 10
214.3418128571
 20
120.9099420452
 30
0.0
 11
213.9914982225
 21
121.7006102882
 31
0.0
  0
LINE
  5
F1
330
1F
100
AcDbEntity
  8
0
  6
Continuous
 62
     7
370
    15
100
AcDbLine
 10
213.9914982225
 20
121.7006102882
 30
0.0
 11
213.6411835879
 21
122.4912785311
 31
0.0
  0
LINE
  5
F2
330
1F
100
AcDbEntity
  8
0
  6
Continuous
 62
     7
370
    15
100
AcDbLine
 10
213.6411835879
 20
122.4912785311
 30
0.0
 11
214.0312891236
 21
122.8792470279
 31
0.0
  0
LINE
  5
F3
330
1F
100
AcDbEntity
  8
0
  6
Continuous
 62
     7
370
    15
100
AcDbLine
 10
213.6411835879
 20
122.4912785311
 30
0.0
 11
212.7846205505
 21
122.5907174647
 31
0.0
  0
LINE
  5
F4
330
1F
100
AcDbEntity
  8
0
  6
Continuous
 62
     7
370
    15
100
AcDbLine
 10
212.7846205505
 20
122.5907174647
 30
0.0
 11
212.021204408
 21
122.6793429176
 31
0.0
  0
ARC
  5
F5
330
1F
100
AcDbEntity
  8
0
  6
Continuous
 62
     7
370
    15
100
AcDbCircle
 10
212.6334865068
 20
121.094355178
 30
0.0
 40
1.487192347545538
100
AcDbArc
 50
323.9288835421
 51
24.0573452248
  0
ARC
  5
F6
330
1F
100
AcDbEntity
  8
0
  6
Continuous
 62
     7
370
    15
100
AcDbCircle
 10
212.6515208423
 20
121.0858615817
 30
0.0
 40
1.467619295339024
100
AcDbArc
 50
306.8407417276
 51
323.7823603725
  0
ARC
  5
F7
330
1F
100
AcDbEntity
  8
0
  6
Continuous
 62
     7
370
    15
100
AcDbCircle
 10
212.6118347431
 20
121.1212061805
 30
0.0
 40
1.479634532477635
100
AcDbArc
 50
83.2939271646
 51
127.9145172634
  0
ARC
  5
F8
330
1F
100
AcDbEntity
  8
0
  6
Continuous
 62
     7
370
    15
100
AcDbCircle
 10
212.608052047
 20
121.0880682669
 30
0.0
 40
1.512987458046277
100
AcDbArc
 50
23.882102474
 51
83.2982025035
  0
LINE
  5
F9
330
1F
100
AcDbEntity
  8
0
  6
Continuous
 62
     7
370
    15
100
AcDbLine
 10
214.9212411572
 20
133.7821826551
 30
0.0
 11
215.2311748701
 21
133.979413848
 31
0.0
  0
LINE
  5
FA
330
1F
100
AcDbEntity
  8
0
  6
Continuous
 62
     7
370
    15
100
AcDbLine
 10
215.2311748701
 20
133.979413848
 30
0.0
 11
214.9365009589
 21
133.1730413319
 31
0.0
  0
ELLIPSE
  5
FB
330
1F
100
AcDbEntity
  8
0
  6
Continuous
 62
     7
370
    15
100
AcDbEllipse
 10
217.1265066382
 20
132.7688397542
 30
0.0
 11
-1.502644295739771
 21
1.675495476824068
 31
0.0
210
0.0
220
0.0
230
1.0
 40
0.9898983231
 41
3.837979583766194
 42
6.557150476637607
  0
ELLIPSE
  5
FC
330
1F
100
AcDbEntity
  8
0
  6
Continuous
 62
     7
370
    15
100
AcDbEllipse
 10
217.1265066382
 20
132.7688397542
 30
0.0
 11
-1.502644295739771
 21
1.675495476824068
 31
0.0
210
0.0
220
0.0
230
1.0
 40
0.9898983231
 41
3.295690576725349
 42
3.415557823047864
  0
LINE
  5
FD
330
1F
100
AcDbEntity
  8
0
  6
Continuous
 62
     7
370
    15
100
AcDbLine
 10
219.0218384064
 20
131.5582656604
 30
0.0
 11
219.3431723697
 21
132.4375931704
 31
0.0
  0
LINE
  5
FE
330
1F
100
AcDbEntity
  8
0
  6
Continuous
 62
     7
370
    15
100
AcDbLine
 10
216.4355645419
 20
135.0648425246
 30
0.0
 11
216.833383717
 21
134.9928877467
 31
0.0
  0
LINE
  5
FF
330
1F
100
AcDbEntity
  8
0
  6
Continuous
 62
     7
370
    15
100
AcDbLine
 10
211.0009496095
 20
126.6787742847
 30
0.0
 11
222.9726014284
 21
127.5946329362
 31
0.0
  0
ARC
  5
100
330
1F
100
AcDbEntity
  8
0
  6
Continuous
 62
     7
370
    15
100
AcDbCircle
 10
210.9712049887
 20
127.0803449184
 30
0.0
 40
0.4026707293642788
100
AcDbArc
 50
175.1377687674
 51
274.2362029422
  0
LINE
  5
101
330
1F
100
AcDbEntity
  8
0
  6
Continuous
 62
     7
370
    15
100
AcDbLine
 10
211.6173671338
 20
139.0746201974
 30
0.0
 11
210.569983316
 21
127.1144753395
 31
0.0
  0
ARC
  5
102
330
1F
100
AcDbEntity
  8
0
  6
Continuous
 62
     7
370
    15
100
AcDbCircle
 10
212.0083740309
 20
139.0409155538
 30
0.0
 40
0.392456872254995
100
AcDbArc
 50
94.2937518475
 51
175.073304225
  0
LINE
  5
103
330
1F
100
AcDbEntity
  8
0
  6
Continuous
 62
     7
370
    15
100
AcDbLine
 10
223.9506426107
 20
140.3481295704
 30
0.0
 11
211.9789907917
 21
139.4322709189
 31
0.0
  0
ARC
  5
104
330
1F
100
AcDbEntity
  8
0
  6
Continuous
 62
     7
370
    15
100
AcDbCircle
 10
223.9803872315
 20
139.9465589368
 30
0.0
 40
0.4026707293642887
100
AcDbArc
 50
355.1377687674
 51
94.2362029422
  0
LINE
  5
105
330
1F
100
AcDbEntity
  8
0
  6
Continuous
 62
     7
370
    15
100
AcDbLine
 10
223.3342250864
 20
127.9522836577
 30
0.0
 11
224.3816089042
 21
139.9124285157
 31
0.0
  0
ARC
  5
106
330
1F
100
AcDbEntity
  8
0
  6
Continuous
 62
     7
370
    15
100
AcDbCircle
 10
222.9432181893
 20
127.9859883014
 30
0.0
 40
0.3924568722548714
100
AcDbArc
 50
274.2937518475
 51
355.073304225
  0
ARC
  5
107
330
1F
100
AcDbEntity
  8
0
  6
Continuous
 62
     7
370
    15
100
AcDbCircle
 10
223.9806335664
 20
139.9468036741
 30
0.0
 40
0.3825371928960385
100
AcDbArc
 50
355.1377687674
 51
94.2362029422
  0
LINE
  5
108
330
1F
100
AcDbEntity
  8
0
  6
Continuous
 62
     7
370
    15
100
AcDbLine
 10
223.9523761766
 20
140.3282957761
 30
0.0
 11
211.9807243576
 21
139.4124371242
 31
0.0
  0
ARC
  5
109
330
1F
100
AcDbEntity
  8
0
  6
Continuous
 62
     7
370
    15
100
AcDbCircle
 10
212.0086384352
 20
139.040649527
 30
0.0
 40
0.3728340290430381
100
AcDbArc
 50
94.2937518945
 51
175.0733041242
  0
LINE
  5
10A
330
1F
100
AcDbEntity
  8
0
  6
Continuous
 62
     7
370
    15
100
AcDbLine
 10
211.6371818826
 20
139.0726689391
 30
0.0
 11
210.5897980648
 21
127.1125240812
 31
0.0
  0
ARC
  5
10B
330
1F
100
AcDbEntity
  8
0
  6
Continuous
 62
     7
370
    15
100
AcDbCircle
 10
210.9709586538
 20
127.0801001811
 30
0.0
 40
0.3825371928960647
100
AcDbArc
 50
175.1377687674
 51
274.2362029422
  0
LINE
  5
10C
330
1F
100
AcDbEntity
  8
0
  6
Continuous
 62
     7
370
    15
100
AcDbLine
 10
210.9992160436
 20
126.6986080791
 30
0.0
 11
222.9708678626
 21
127.6144667306
 31
0.0
  0
ARC
  5
10D
330
1F
100
AcDbEntity
  8
0
  6
Continuous
 62
     7
370
    15
100
AcDbCircle
 10
222.9429537854
 20
127.9862543275
 30
0.0
 40
0.3728340286421307
100
AcDbArc
 50
274.2937518475
 51
355.073304225
  0
LINE
  5
10E
330
1F
100
AcDbEntity
  8
0
  6
Continuous
 62
     7
370
    15
100
AcDbLine
 10
223.3144103376
 20
127.9542349161
 30
0.0
 11
224.3617941555
 21
139.914379774
 31
0.0
  0
LINE
  5
10F
330
1F
100
AcDbEntity
  8
0
  6
Continuous
 62
     7
370
    15
100
AcDbLine
 10
210.0724278308
 20
126.6196455153
 30
0.0
 11
210.0709615894
 21
126.5788403275
 31
0.0
  0
LINE
  5
110
330
1F
100
AcDbEntity
  8
0
  6
Continuous
 62
     7
370
    15
100
AcDbLine
 10
210.9433454679
 20
127.0526429774
 30
0.0
 11
210.9992160436
 21
126.6986080791
 31
0.0
  0
LINE
  5
111
330
1F
100
AcDbEntity
  8
0
  6
Continuous
 62
     7
370
    15
100
AcDbLine
 10
210.9433454679
 20
127.0526429774
 30
0.0
 11
210.5897980648
 21
127.1125240812
 31
0.0
  0
LINE
  5
112
330
1F
100
AcDbEntity
  8
0
  6
Continuous
 62
     7
370
    15
100
AcDbLine
 10
222.9149972868
 20
127.9685016289
 30
0.0
 11
222.9708678626
 21
127.6144667306
 31
0.0
  0
LINE
  5
113
330
1F
100
AcDbEntity
  8
0
  6
Continuous
 62
     7
370
    15
100
AcDbLine
 10
211.8068950003
 20
127.9064275152
 30
0.0
 11
210.9433454679
 21
127.0526429774
 31
0.0
  0
LINE
  5
114
330
1F
100
AcDbEntity
  8
0
  6
Continuous
 62
     7
370
    15
100
AcDbLine
 10
222.3069377538
 20
128.5080190106
 30
0.0
 11
222.9149972868
 21
127.9685016289
 31
0.0
  0
LINE
  5
115
330
1F
100
AcDbEntity
  8
0
  6
Continuous
 62
     7
370
    15
100
AcDbLine
 10
222.2300206671
 20
127.0810581199
 30
0.0
 11
222.4750459433
 21
127.0998031121
 31
0.0
  0
LINE
  5
116
330
1F
100
AcDbEntity
  8
0
  6
Continuous
 62
     7
370
    15
100
AcDbLine
 10
211.1198116486
 20
138.5797903733
 30
0.0
 11
211.1082922009
 21
138.4482490397
 31
0.0
  0
LINE
  5
117
330
1F
100
AcDbEntity
  8
0
  6
Continuous
 62
     7
370
    15
100
AcDbLine
 10
210.4447807636
 20
130.8715681998
 30
0.0
 11
210.0724278308
 21
126.6196455153
 31
0.0
  0
LINE
  5
118
330
1F
100
AcDbEntity
  8
0
  6
Continuous
 62
     7
370
    15
100
AcDbLine
 10
211.9907292857
 20
139.0127878354
 30
0.0
 11
211.6371818826
 21
139.0726689391
 31
0.0
  0
LINE
  5
119
330
1F
100
AcDbEntity
  8
0
  6
Continuous
 62
     7
370
    15
100
AcDbLine
 10
212.523772896
 20
138.3986654761
 30
0.0
 11
211.9907292857
 21
139.0127878354
 31
0.0
  0
ARC
  5
11A
330
1F
100
AcDbEntity
  8
0
  6
Continuous
 62
     7
370
    15
100
AcDbCircle
 10
213.8449709474
 20
129.922571843
 30
0.0
 40
1.006676823410638
100
AcDbArc
 50
175.1377687674
 51
274.2362029422
  0
SPLINE
  5
11B
330
1F
100
AcDbEntity
  8
0
  6
Continuous
 62
     7
370
    15
100
AcDbSpline
210
0.0
220
0.0
230
1.0
 70
     8
 71
     3
 72
    11
 73
     7
 74
     0
 42
0.00000001
 43
0.00000001
 12
1.0
 22
0.0
 32
0.0
 13
1.0
 23
0.0
 33
0.0
 40
0.0
 40
0.0
 40
0.0
 40
0.0
 40
0.3367831131412899
 40
0.6790111347687408
 40
0.9923717339918541
 40
0.9999999999999999
 40
0.9999999999999999
 40
0.9999999999999999
 40
0.9999999999999999
 10
211.8068950003333
 20
127.9064275151703
 30
0.0
 10
211.859959512891
 20
127.9588973556384
 30
0.0
 10
211.9669464533933
 20
128.0646853376577
 30
0.0
 10
212.1392748857586
 20
128.2351414837106
 30
0.0
 10
212.2491436207584
 20
128.3438383167779
 30
0.0
 10
212.2998168466476
 20
128.3939767987656
 30
0.0
 10
212.3010210904344
 20
128.3951683344208
 30
0.0
  0
LINE
  5
11C
330
1F
100
AcDbEntity
  8
0
  6
Continuous
 62
     7
370
    15
100
AcDbLine
 10
213.9193324995
 20
128.9186452588
 30
0.0
 11
220.6194334335
 21
129.431218252
 31
0.0
  0
LINE
  5
11D
330
1F
100
AcDbEntity
  8
0
  6
Continuous
 62
     7
370
    15
100
AcDbLine
 10
213.4280996419
 20
136.7015587995
 30
0.0
 11
212.8419167657
 21
130.0078978958
 31
0.0
  0
ARC
  5
11E
330
1F
100
AcDbEntity
  8
0
  6
Continuous
 62
     7
370
    15
100
AcDbCircle
 10
214.4056168846
 20
136.6172971903
 30
0.0
 40
0.9811421806370652
100
AcDbArc
 50
94.2937518475
 51
175.073304225
  0
LINE
  5
11F
330
1F
100
AcDbEntity
  8
0
  6
Continuous
 62
     7
370
    15
100
AcDbLine
 10
221.0322597207
 20
138.1082585964
 30
0.0
 11
214.3321587867
 21
137.5956856032
 31
0.0
  0
ARC
  5
120
330
1F
100
AcDbEntity
  8
0
  6
Continuous
 62
     7
370
    15
100
AcDbCircle
 10
221.1066212732
 20
137.1043320124
 30
0.0
 40
1.006676823230305
100
AcDbArc
 50
355.1377687515
 51
94.2362029702
  0
LINE
  5
121
330
1F
100
AcDbEntity
  8
0
  6
Continuous
 62
     7
370
    15
100
AcDbLine
 10
221.5234925783
 20
130.3253450557
 30
0.0
 11
222.1096754548
 21
137.0190059594
 31
0.0
  0
ARC
  5
122
330
1F
100
AcDbEntity
  8
0
  6
Continuous
 62
     7
370
    15
100
AcDbCircle
 10
220.5459753356
 20
130.4096066649
 30
0.0
 40
0.9811421806370935
100
AcDbArc
 50
274.2937518475
 51
355.073304225
  0
CIRCLE
  5
123
330
1F
100
AcDbEntity
  8
0
  6
Continuous
 62
     7
370
    15
100
AcDbCircle
 10
217.4782864345
 20
133.486383277
 30
0.0
 40
2.563474283191781
  0
ARC
  5
124
330
1F
100
AcDbEntity
  8
0
  6
Continuous
 62
     7
370
    15
100
AcDbCircle
 10
216.9579208624
 20
132.9947465912
 30
0.0
 40
2.586476709596065
100
AcDbArc
 50
354.9463959865
 51
126.3470978026
  0
ARC
  5
125
330
1F
100
AcDbEntity
  8
0
  6
Continuous
 62
     7
370
    15
100
AcDbCircle
 10
217.0056448579
 20
132.9865010256
 30
0.0
 40
2.538215064580505
100
AcDbArc
 50
322.8615752115
 51
355.0369060972
  0
LINE
  5
126
330
1F
100
AcDbEntity
  8
0
  6
Continuous
 62
     7
370
    15
100
AcDbLine
 10
223.9623811047
 20
139.9286464869
 30
0.0
 11
224.3617941555
 21
139.914379774
 31
0.0
  0
LINE
  5
127
330
1F
100
AcDbEntity
  8
0
  6
Continuous
 62
     7
370
    15
100
AcDbLine
 10
222.9149972868
 20
127.9685016289
 30
0.0
 11
223.3144103376
 21
127.9542349161
 31
0.0
  0
LINE
  5
128
330
1F
100
AcDbEntity
  8
0
  6
Continuous
 62
     7
370
    15
100
AcDbLine
 10
222.9979987082
 20
138.9745814582
 30
0.0
 11
223.9623811047
 21
139.9286464869
 31
0.0
  0
LINE
  5
129
330
1F
100
AcDbEntity
  8
0
  6
Continuous
 62
     7
370
    15
100
AcDbLine
 10
211.9907292857
 20
139.0127878354
 30
0.0
 11
211.9807243576
 21
139.4124371242
 31
0.0
  0
LINE
  5
12A
330
1F
100
AcDbEntity
  8
0
  6
Continuous
 62
     7
370
    15
100
AcDbLine
 10
223.9623811047
 20
139.9286464869
 30
0.0
 11
223.9523761766
 21
140.3282957761
 31
0.0
  0
SPLINE
  5
12B
330
1F
100
AcDbEntity
  8
0
  6
Continuous
 62
     7
370
    15
100
AcDbSpline
210
0.0
220
0.0
230
1.0
 70
     8
 71
     3
 72
    11
 73
     7
 74
     0
 42
0.00000001
 43
0.00000001
 12
1.0
 22
0.0
 32
0.0
 13
1.0
 23
0.0
 33
0.0
 40
0.0
 40
0.0
 40
0.0
 40
0.0
 40
0.0081164391031442
 40
0.3263678516910931
 40
0.6627685813469884
 40
1.0
 40
1.0
 40
1.0
 40
1.0
 10
221.824193841905
 20
129.0065434232278
 30
0.0
 10
221.8252786701291
 20
129.0052435972457
 30
0.0
 10
221.8689003929596
 20
128.95297665999
 30
0.0
 10
221.9676339368972
 20
128.8407898659029
 30
0.0
 10
222.1353969798043
 20
128.6656687801233
 30
0.0
 10
222.2497105072724
 20
128.5606121172756
 30
0.0
 10
222.3069377538284
 20
128.5080190105778
 30
0.0
  0
SPLINE
  5
12C
330
1F
100
AcDbEntity
  8
0
  6
Continuous
 62
     7
370
    15
100
AcDbSpline
210
0.0
220
0.0
230
1.0
 70
     8
 71
     3
 72
    14
 73
    10
 74
     0
 42
0.00000001
 43
0.00000001
 12
1.0
 22
0.0
 32
0.0
 13
1.0
 23
0.0
 33
0.0
 40
0.0
 40
0.0
 40
0.0
 40
0.0
 40
0.1661991552483386
 40
0.3374482187419063
 40
0.5035500723437353
 40
0.673861656936187
 40
0.8313461128980554
 40
0.9919081627660401
 40
1.0
 40
1.0
 40
1.0
 40
1.0
 10
212.5237728960341
 20
138.398665476145
 30
0.0
 10
212.54857772329
 20
138.3705870148841
 30
0.0
 10
212.5989410645549
 20
138.3135769372857
 30
0.0
 10
212.6819038078105
 20
138.2259521581204
 30
0.0
 10
212.7680337733838
 20
138.1389970296635
 30
0.0
 10
212.8528103749528
 20
138.0573792842466
 30
0.0
 10
212.935396151042
 20
137.9814218787595
 30
0.0
 10
212.9888463974313
 20
137.934523920773
 30
0.0
 10
213.0156775904314
 20
137.9116303521953
 30
0.0
 10
213.0169649230288
 20
137.9105319427022
 30
0.0
  0
ARC
  5
12D
330
1F
100
AcDbEntity
  8
0
  6
Continuous
 62
     7
370
    15
100
AcDbCircle
 10
222.4455556232
 20
127.4915374809
 30
0.0
 40
0.3928428372060022
100
AcDbArc
 50
274.3051870641
 51
314.8150684312
  0
ARC
  5
12E
330
1F
100
AcDbEntity
  8
0
  6
Continuous
 62
     7
370
    15
100
AcDbCircle
 10
211.5113950798
 20
138.5458833547
 30
0.0
 40
0.3930486859068182
100
AcDbArc
 50
134.8817616345
 51
175.0511301793
  0
SPLINE
  5
12F
330
1F
100
AcDbEntity
  8
0
  6
Continuous
 62
     7
370
    15
100
AcDbSpline
210
0.0
220
0.0
230
1.0
 70
     8
 71
     3
 72
    11
 73
     7
 74
     0
 42
0.00000001
 43
0.00000001
 12
1.0
 22
0.0
 32
0.0
 13
1.0
 23
0.0
 33
0.0
 40
0.0
 40
0.0
 40
0.0
 40
0.0
 40
0.0076282660081476
 40
0.3209888652310272
 40
0.6632168868585591
 40
1.0
 40
1.0
 40
1.0
 40
1.0
 10
222.5196264360129
 20
138.5015081557332
 30
0.0
 10
222.5206410912584
 20
138.502511141433
 30
0.0
 10
222.5633366442846
 20
138.5447156530839
 30
0.0
 10
222.660439795693
 20
138.640716833763
 30
0.0
 10
222.825150585248
 20
138.8035970672496
 30
0.0
 10
222.940691503474
 20
138.9178921674081
 30
0.0
 10
222.9979987082353
 20
138.974581458168
 30
0.0
  0
LINE
  5
130
330
1F
100
AcDbEntity
  8
0
  6
HIDDEN
 62
     7
370
     0
100
AcDbLine
 10
169.3831226866
 20
133.0492864438
 30
0.0
 11
169.3831226866
 21
93.6492864476
 31
0.0
  0
LINE
  5
131
330
1F
100
AcDbEntity
  8
0
  6
HIDDEN
 62
     7
370
     0
100
AcDbLine
 10
177.3331226866
 20
93.3492864476
 30
0.0
 11
177.3331226866
 21
93.3743020922
 31
0.0
  0
SPLINE
  5
132
330
1F
100
AcDbEntity
  8
0
  6
HIDDEN
 62
     7
370
     0
100
AcDbSpline
210
0.0
220
0.0
230
1.0
 70
     8
 71
     3
 72
    22
 73
    18
 74
     0
 42
0.00000001
 43
0.00000001
 12
1.0
 22
0.0
 32
0.0
 13
1.0
 23
0.0
 33
0.0
 40
0.0
 40
0.0
 40
0.0
 40
0.0
 40
0.125
 40
0.125
 40
0.25
 40
0.25
 40
0.375
 40
0.375
 40
0.5
 40
0.5
 40
0.625
 40
0.625
 40
0.75
 40
0.75
 40
0.875
 40
0.875
 40
1.0
 40
1.0
 40
1.0
 40
1.0
 10
177.3331226866451
 20
93.37430209217568
 30
0.0
 10
177.3331226866451
 20
93.38925768478501
 30
0.0
 10
177.3625711077753
 20
93.41064588143139
 30
0.0
 10
177.4774089739991
 20
93.4650241280467
 30
0.0
 10
177.5642218125368
 20
93.49847029165508
 30
0.0
 10
177.7898691848328
 20
93.57323456705281
 30
0.0
 10
177.927706326497
 20
93.61433305601375
 30
0.0
 10
178.2529072864014
 20
93.70088598497752
 30
0.0
 10
178.4416095663094
 20
93.7465368840754
 30
0.0
 10
178.8539412865416
 20
93.83481643924024
 30
0.0
 10
179.0790882128935
 20
93.8779177892475
 30
0.0
 10
179.5690640642508
 20
93.95812196910276
 30
0.0
 10
179.8297717063727
 20
93.99441681649233
 30
0.0
 10
180.3706290870883
 20
94.05459603564204
 30
0.0
 10
180.6543197131423
 20
94.07888337307313
 30
0.0
 10
181.2384020840718
 20
94.1118814673845
 30
0.0
 10
181.5339696390637
 20
94.12040192458444
 30
0.0
 10
181.8331226866451
 20
94.12040192458446
 30
0.0
  0
LINE
  5
133
330
1F
100
AcDbEntity
  8
0
  6
HIDDEN
 62
     7
370
     0
100
AcDbLine
 10
181.8331226866
 20
94.1204019246
 30
0.0
 11
183.3479629878
 21
94.1204019246
 31
0.0
  0
LINE
  5
134
330
1F
100
AcDbEntity
  8
0
  6
HIDDEN
 62
     7
370
     0
100
AcDbLine
 10
183.3479629878
 20
132.8364617175
 30
0.0
 11
183.3479629878
 21
94.1204019246
 31
0.0
  0
LINE
  5
135
330
1F
100
AcDbEntity
  8
0
  6
HIDDEN
 62
     7
370
     0
100
AcDbLine
 10
181.8331226866
 20
132.8364617175
 30
0.0
 11
183.3479629878
 21
132.8364617175
 31
0.0
  0
SPLINE
  5
136
330
1F
100
AcDbEntity
  8
0
  6
HIDDEN
 62
     7
370
     0
100
AcDbSpline
210
0.0
220
0.0
230
1.0
 70
     8
 71
     3
 72
    24
 73
    20
 74
     0
 42
0.00000001
 43
0.00000001
 12
1.0
 22
0.0
 32
0.0
 13
1.0
 23
0.0
 33
0.0
 40
0.0
 40
0.0
 40
0.0
 40
0.0
 40
0.0117102191730536
 40
0.0659851220631842
 40
0.1695418679550488
 40
0.221909985922081
 40
0.2751523584396024
 40
0.3794195775068484
 40
0.4323122954394166
 40
0.485940234339852
 40
0.5388781486619747
 40
0.592179344303362
 40
0.6466301658095075
 40
0.7014815201832464
 40
0.754545458735701
 40
0.8079889102535469
 40
0.8626446190481433
 40
0.9177258943008892
 40
0.9999999999999999
 40
0.9999999999999999
 40
0.9999999999999999
 40
0.9999999999999999
 10
177.3358528222346
 20
133.3486726708403
 30
0.0
 10
177.3350168960356
 20
133.3488605672992
 30
0.0
 10
177.3303065920301
 20
133.349919332348
 30
0.0
 10
177.362484702011
 20
133.342682340864
 30
0.0
 10
177.4505890870394
 20
133.3230040845172
 30
0.0
 10
177.6010654484346
 20
133.2905763302777
 30
0.0
 10
177.7895623528543
 20
133.2511317059742
 30
0.0
 10
178.0346266319837
 20
133.2023776333998
 30
0.0
 10
178.3298235739636
 20
133.1484060594094
 30
0.0
 10
178.5774054473781
 20
133.1060023799134
 30
0.0
 10
178.8481979812341
 20
133.063093116747
 30
0.0
 10
179.1412617204759
 20
133.0207323117915
 30
0.0
 10
179.4572786886545
 20
132.9798589717261
 30
0.0
 10
179.7903802722998
 20
132.9422589202847
 30
0.0
 10
180.136316745938
 20
132.9091730932956
 30
0.0
 10
180.4941941861431
 20
132.8812419385927
 30
0.0
 10
180.8667068828353
 20
132.8592916777463
 30
0.0
 10
181.3137736846489
 20
132.8408573227351
 30
0.0
 10
181.6385724223043
 20
132.8381083292452
 30
0.0
 10
181.8331226866451
 20
132.836461717519
 30
0.0
  0
SPLINE
  5
137
330
1F
100
AcDbEntity
  8
0
  6
HIDDEN
 62
     7
370
     0
100
AcDbSpline
210
0.0
220
0.0
230
1.0
 70
     8
 71
     3
 72
    76
 73
    72
 74
     0
 42
0.00000001
 43
0.00000001
 12
1.0
 22
0.0
 32
0.0
 13
1.0
 23
0.0
 33
0.0
 40
-0.03125
 40
-0.03125
 40
0.0
 40
0.0
 40
0.0312500000000001
 40
0.0312500000000001
 40
0.0625
 40
0.0625
 40
0.09375
 40
0.09375
 40
0.125
 40
0.125
 40
0.15625
 40
0.15625
 40
0.1874999999999999
 40
0.1874999999999999
 40
0.203125
 40
0.203125
 40
0.2187500000000001
 40
0.2187500000000001
 40
0.2500000000000001
 40
0.2500000000000001
 40
0.2812500000000002
 40
0.2812500000000002
 40
0.3125000000000003
 40
0.3125000000000003
 40
0.3437500000000004
 40
0.3437500000000004
 40
0.3750000000000006
 40
0.3750000000000006
 40
0.4062500000000007
 40
0.4062500000000007
 40
0.4375000000000008
 40
0.4375000000000008
 40
0.4687500000000009
 40
0.4687500000000009
 40
0.4843750000000009
 40
0.4843750000000009
 40
0.5000000000000009
 40
0.5000000000000009
 40
0.5312500000000009
 40
0.5312500000000009
 40
0.5625000000000008
 40
0.5625000000000008
 40
0.5937500000000008
 40
0.5937500000000008
 40
0.6250000000000007
 40
0.6250000000000007
 40
0.6562500000000007
 40
0.6562500000000007
 40
0.6875000000000006
 40
0.6875000000000006
 40
0.7187500000000006
 40
0.7187500000000006
 40
0.7343750000000004
 40
0.7343750000000004
 40
0.7500000000000003
 40
0.7500000000000003
 40
0.7812500000000003
 40
0.7812500000000003
 40
0.8125000000000003
 40
0.8125000000000003
 40
0.8437500000000002
 40
0.8437500000000002
 40
0.8750000000000002
 40
0.8750000000000002
 40
0.9062500000000001
 40
0.9062500000000001
 40
0.9375000000000001
 40
0.9375000000000001
 40
0.96875
 40
0.96875
 40
1.0
 40
1.0
 40
1.03125
 40
1.03125
 10
176.0513811077298
 20
108.3492864476139
 30
0.0
 10
176.7148642655604
 20
108.3492864476139
 30
0.0
 10
177.0407874870953
 20
108.38197241622
 30
0.0
 10
177.6815612660592
 20
108.5097834843207
 30
0.0
 10
177.9998086065789
 20
108.6065476033002
 30
0.0
 10
178.6046101137874
 20
108.8579349004599
 30
0.0
 10
178.8912499522558
 20
109.0115720207218
 30
0.0
 10
179.4337275663644
 20
109.3743300079028
 30
0.0
 10
179.6894961222762
 20
109.5845386633166
 30
0.0
 10
180.1486401701913
 20
110.0437896231825
 30
0.0
 10
180.3551592924467
 20
110.2946336383649
 30
0.0
 10
180.7207732858048
 20
110.840747856623
 30
0.0
 10
180.8752481696224
 20
111.1296591557609
 30
0.0
 10
181.0626339932225
 20
111.5804851306192
 30
0.0
 10
181.1178589134702
 20
111.733997420085
 30
0.0
 10
181.2135151020763
 20
112.0476740271867
 30
0.0
 10
181.254098695859
 20
112.2087966064784
 30
0.0
 10
181.3508386948742
 20
112.6933176207104
 30
0.0
 10
181.3829177435665
 20
113.0186176796992
 30
0.0
 10
181.3833256908522
 20
113.6737280633286
 30
0.0
 10
181.3505426872855
 20
114.0065459682918
 30
0.0
 10
181.2223723633642
 20
114.6488687292177
 30
0.0
 10
181.1275552672387
 20
114.9612223900806
 30
0.0
 10
180.8757862485697
 20
115.5682844453077
 30
0.0
 10
180.7198698441372
 20
115.8589135363988
 30
0.0
 10
180.3585387872349
 20
116.3991505199868
 30
0.0
 10
180.1503342323949
 20
116.6531322660522
 30
0.0
 10
179.6871384123654
 20
117.1163489778403
 30
0.0
 10
179.4361638443907
 20
117.322279501168
 30
0.0
 10
178.8958682988318
 20
117.684242456954
 30
0.0
 10
178.6030829457445
 20
117.8413351446947
 30
0.0
 10
177.9997053756384
 20
118.0920056527296
 30
0.0
 10
177.6880376360823
 20
118.1871557243255
 30
0.0
 10
177.2051959508179
 20
118.2839739847621
 30
0.0
 10
177.0406925653598
 20
118.3085991249229
 30
0.0
 10
176.7125731786892
 20
118.34114409282
 30
0.0
 10
176.5487834206543
 20
118.3492161780033
 30
0.0
 10
176.0582051447886
 20
118.3494256198261
 30
0.0
 10
175.7322003505664
 20
118.3177926481805
 30
0.0
 10
175.0823599081347
 20
118.1884774902074
 30
0.0
 10
174.7695505443902
 20
118.0929841472661
 30
0.0
 10
174.1672324725638
 20
117.8432950683317
 30
0.0
 10
173.8747579126617
 20
117.6868765994218
 30
0.0
 10
173.3320235968605
 20
117.3238778113565
 30
0.0
 10
173.0811346896649
 20
117.1179949753079
 30
0.0
 10
172.619704650068
 20
116.6573029803538
 30
0.0
 10
172.4095236868841
 20
116.4015173860505
 30
0.0
 10
172.0478730080205
 20
115.8614992046145
 30
0.0
 10
171.8936583798842
 20
115.5748714875056
 30
0.0
 10
171.640470375308
 20
114.9666199275245
 30
0.0
 10
171.5447466609599
 20
114.6518396287583
 30
0.0
 10
171.4485415062074
 20
114.1718072148771
 30
0.0
 10
171.4242544351578
 20
114.0100656578865
 30
0.0
 10
171.3915686278252
 20
113.6830402164539
 30
0.0
 10
171.3832085686558
 20
113.5167844637376
 30
0.0
 10
171.3829529251168
 20
113.022041208391
 30
0.0
 10
171.4151037311555
 20
112.696596083693
 30
0.0
 10
171.5426560209998
 20
112.0542576788075
 30
0.0
 10
171.6396148111273
 20
111.7350474265698
 30
0.0
 10
171.8898647418986
 20
111.1317951569584
 30
0.0
 10
172.0432814998172
 20
110.8446270368171
 30
0.0
 10
172.4075955391584
 20
110.2992496952818
 30
0.0
 10
172.6161909146412
 20
110.0454227850996
 30
0.0
 10
173.0748098208934
 20
109.5862615928306
 30
0.0
 10
173.3282728364743
 20
109.3774604430202
 30
0.0
 10
173.8731266840806
 20
109.0125331130368
 30
0.0
 10
174.1598129521813
 20
108.858950386201
 30
0.0
 10
174.7615466215364
 20
108.6083250277273
 30
0.0
 10
175.0800701130118
 20
108.5108965160321
 30
0.0
 10
175.7244561745692
 20
108.381981185648
 30
0.0
 10
176.0513811077298
 20
108.3492864476139
 30
0.0
 10
176.7148642655604
 20
108.3492864476139
 30
0.0
  0
SPLINE
  5
138
330
1F
100
AcDbEntity
  8
0
  6
HIDDEN
 62
     7
370
     0
100
AcDbSpline
210
0.0
220
0.0
230
1.0
 70
     8
 71
     3
 72
    10
 73
     6
 74
     0
 42
0.00000001
 43
0.00000001
 12
1.0
 22
0.0
 32
0.0
 13
1.0
 23
0.0
 33
0.0
 40
0.0
 40
0.0
 40
0.0
 40
0.0
 40
0.5
 40
0.5
 40
1.0
 40
1.0
 40
1.0
 40
1.0
 10
186.4231226866451
 20
96.23640752558558
 30
0.0
 10
186.4231226866451
 20
96.27263001502621
 30
0.0
 10
186.4201529573477
 20
96.30882321228466
 30
0.0
 10
186.4082739749998
 20
96.38046170369934
 30
0.0
 10
186.3994787471592
 20
96.41533502834093
 30
0.0
 10
186.3879002860639
 20
96.44928644761325
 30
0.0
  0
LINE
  5
139
330
1F
100
AcDbEntity
  8
0
  6
HIDDEN
 62
     7
370
     0
100
AcDbLine
 10
186.4231226866
 20
96.2364075256
 30
0.0
 11
186.4231226866
 21
125.1992864476
 31
0.0
  0
SPLINE
  5
13A
330
1F
100
AcDbEntity
  8
0
  6
HIDDEN
 62
     7
370
     0
100
AcDbSpline
210
0.0
220
0.0
230
1.0
 70
     8
 71
     3
 72
    10
 73
     6
 74
     0
 42
0.00000001
 43
0.00000001
 12
1.0
 22
0.0
 32
0.0
 13
1.0
 23
0.0
 33
0.0
 40
0.0
 40
0.0
 40
0.0
 40
0.0
 40
0.5
 40
0.5
 40
1.0
 40
1.0
 40
1.0
 40
1.0
 10
184.3783450872264
 20
96.44928644761386
 30
0.0
 10
184.3666329702633
 20
96.41494311041988
 30
0.0
 10
184.3578349003913
 20
96.37985057268168
 30
0.0
 10
184.3460213426192
 20
96.30817879729095
 30
0.0
 10
184.3431226866451
 20
96.27223514292565
 30
0.0
 10
184.3431226866451
 20
96.23640752558558
 30
0.0
  0
LINE
  5
13B
330
1F
100
AcDbEntity
  8
0
  6
HIDDEN
 62
     7
370
     0
100
AcDbLine
 10
184.3431226866
 20
96.2364075256
 30
0.0
 11
184.3431226866
 21
125.1992864476
 31
0.0
  0
SPLINE
  5
13C
330
1F
100
AcDbEntity
  8
0
  6
HIDDEN
 62
     7
370
     0
100
AcDbSpline
210
0.0
220
0.0
230
1.0
 70
     8
 71
     3
 72
    16
 73
    12
 74
     0
 42
0.00000001
 43
0.00000001
 12
1.0
 22
0.0
 32
0.0
 13
1.0
 23
0.0
 33
0.0
 40
0.0
 40
0.0
 40
0.0
 40
0.0
 40
0.2499999999999998
 40
0.2499999999999998
 40
0.4999999999999996
 40
0.4999999999999996
 40
0.6249999999999996
 40
0.6249999999999996
 40
0.7499999999999996
 40
0.7499999999999996
 40
1.0
 40
1.0
 40
1.0
 40
1.0
 10
190.3331226866449
 20
106.9088401846122
 30
0.0
 10
190.1856668665005
 20
107.1040714781874
 30
0.0
 10
190.0753389487774
 20
107.3040126117565
 30
0.0
 10
189.9222332356848
 20
107.7423086641634
 30
0.0
 10
189.8833465977332
 20
107.9712837011215
 30
0.0
 10
189.883012145585
 20
108.3374358286818
 30
0.0
 10
189.8929276619144
 20
108.4619828791781
 30
0.0
 10
189.9315088755625
 20
108.7076925777473
 30
0.0
 10
189.9601473433677
 20
108.8300023641764
 30
0.0
 10
190.0744451409764
 20
109.1933611692706
 30
0.0
 10
190.1856561627724
 20
109.4239788084333
 30
0.0
 10
190.3331226866449
 20
109.6305904655829
 30
0.0
  0
SPLINE
  5
13D
330
1F
100
AcDbEntity
  8
0
  6
HIDDEN
 62
     7
370
     0
100
AcDbSpline
210
0.0
220
0.0
230
1.0
 70
     8
 71
     3
 72
     9
 73
     5
 74
     0
 42
0.00000001
 43
0.00000001
 12
1.0
 22
0.0
 32
0.0
 13
1.0
 23
0.0
 33
0.0
 40
0.0
 40
0.0
 40
0.0
 40
0.0
 40
0.5
 40
1.0
 40
1.0
 40
1.0
 40
1.0
 10
189.3331848097683
 20
130.2492864476139
 30
0.0
 10
189.333164097065
 20
130.2512093159478
 30
0.0
 10
189.3331330357467
 20
130.2550546049367
 30
0.0
 10
189.3331226866451
 20
130.2588989992572
 30
0.0
 10
189.3331226866451
 20
130.2608209729017
 30
0.0
  0
SPLINE
  5
13E
330
1F
100
AcDbEntity
  8
0
  6
HIDDEN
 62
     7
370
     0
100
AcDbSpline
210
0.0
220
0.0
230
1.0
 70
    24
 71
     3
 72
    14
 73
    10
 74
     0
 42
0.00000001
 43
0.00000001
 12
1.0
 22
0.0
 32
0.0
 13
1.0
 23
0.0
 33
0.0
 40
0.0
 40
0.0
 40
0.0
 40
0.0
 40
0.5
 40
0.5
 40
0.75
 40
0.75
 40
0.875
 40
0.875
 40
1.0
 40
1.0
 40
1.0
 40
1.0
 10
189.3331848097684
 20
130.2492864476139
 30
0.0
 10
189.3353381425891
 20
130.2492864476139
 30
0.0
 10
189.3905556053182
 20
130.2492864476139
 30
0.0
 10
189.4655147356516
 20
130.2492864476139
 30
0.0
 10
189.4894123119048
 20
130.2492864476139
 30
0.0
 10
189.5148463889655
 20
130.2492864476139
 30
0.0
 10
189.521608743979
 20
130.2492864476139
 30
0.0
 10
189.5307495999459
 20
130.2492864476139
 30
0.0
 10
189.5331226866451
 20
130.2492864476139
 30
0.0
 10
189.5331226866451
 20
130.2492864476139
 30
0.0
  0
SPLINE
  5
13F
330
1F
100
AcDbEntity
  8
0
  6
HIDDEN
 62
     7
370
     0
100
AcDbSpline
210
0.0
220
0.0
230
1.0
 70
     8
 71
     3
 72
     9
 73
     5
 74
     0
 42
0.00000001
 43
0.00000001
 12
1.0
 22
0.0
 32
0.0
 13
1.0
 23
0.0
 33
0.0
 40
0.0
 40
0.0
 40
0.0
 40
0.0
 40
0.5
 40
1.0
 40
1.0
 40
1.0
 40
1.0
 10
189.333122686645
 20
130.2608209729017
 30
0.0
 10
189.333122686645
 20
130.2588978484186
 30
0.0
 10
189.3331330481427
 20
130.2550523035737
 30
0.0
 10
189.3331641094586
 20
130.2512081653962
 30
0.0
 10
189.3331848097684
 20
130.2492864476139
 30
0.0
  0
LINE
  5
140
330
1F
100
AcDbEntity
  8
0
  6
HIDDEN
 62
     7
370
     0
100
AcDbLine
 10
189.3331226866
 20
130.2608209729
 30
0.0
 11
189.3331226866
 21
96.4492864476
 31
0.0
  0
SPLINE
  5
141
330
1F
100
AcDbEntity
  8
0
  6
HIDDEN
 62
     7
370
     0
100
AcDbSpline
210
0.0
220
0.0
230
1.0
 70
    24
 71
     3
 72
    14
 73
    10
 74
     0
 42
0.00000001
 43
0.00000001
 12
1.0
 22
0.0
 32
0.0
 13
1.0
 23
0.0
 33
0.0
 40
0.0
 40
0.0
 40
0.0
 40
0.0
 40
0.5000000000000001
 40
0.5000000000000001
 40
0.7500000000000003
 40
0.7500000000000003
 40
0.8750000000000002
 40
0.8750000000000002
 40
1.0
 40
1.0
 40
1.0
 40
1.0
 10
189.3331226866451
 20
96.44928644761386
 30
0.0
 10
189.3331226866451
 20
96.44928644761386
 30
0.0
 10
189.3885705464764
 20
96.44928644761386
 30
0.0
 10
189.4643528118197
 20
96.44928644761387
 30
0.0
 10
189.4886304739026
 20
96.44928644761386
 30
0.0
 10
189.5145040192411
 20
96.44928644761386
 30
0.0
 10
189.5213912119249
 20
96.44928644761386
 30
0.0
 10
189.5307034027204
 20
96.44928644761387
 30
0.0
 10
189.5331226866451
 20
96.44928644761387
 30
0.0
 10
189.5331226866451
 20
96.44928644761387
 30
0.0
  0
SPLINE
  5
142
330
1F
100
AcDbEntity
  8
0
  6
HIDDEN
 62
     7
370
     0
100
AcDbSpline
210
0.0
220
0.0
230
1.0
 70
    24
 71
     3
 72
     9
 73
     5
 74
     0
 42
0.00000001
 43
0.00000001
 12
1.0
 22
0.0
 32
0.0
 13
1.0
 23
0.0
 33
0.0
 40
0.0
 40
0.0
 40
0.0
 40
0.0
 40
0.4273816864342287
 40
1.0
 40
1.0
 40
1.0
 40
1.0
 10
189.4362349090273
 20
96.44928644761386
 30
0.0
 10
189.4137069642408
 20
96.44928644761387
 30
0.0
 10
189.360995429092
 20
96.44928644761387
 30
0.0
 10
189.3432716481806
 20
96.44928644761386
 30
0.0
 10
189.3331226866451
 20
96.44928644761386
 30
0.0
  0
LINE
  5
143
330
1F
100
AcDbEntity
  8
0
  6
HIDDEN
 62
     7
370
     0
100
AcDbLine
 10
189.3331226866
 20
126.226689136
 30
0.0
 11
189.3331226866
 21
130.2608209729
 31
0.0
  0
LINE
  5
144
330
1F
100
AcDbEntity
  8
0
  6
HIDDEN
 62
     7
370
     0
100
AcDbLine
 10
189.3331226866
 20
96.4492864476
 30
0.0
 11
189.3331226866
 21
125.1992864476
 31
0.0
  0
LINE
  5
145
330
1F
100
AcDbEntity
  8
0
  6
HIDDEN
 62
     7
370
     0
100
AcDbLine
 10
177.3331226866
 20
125.1992864476
 30
0.0
 11
181.8267931613
 21
125.1992864476
 31
0.0
  0
SPLINE
  5
146
330
1F
100
AcDbEntity
  8
0
  6
HIDDEN
 62
     7
370
     0
100
AcDbSpline
210
0.0
220
0.0
230
1.0
 70
     8
 71
     3
 72
    56
 73
    52
 74
     0
 42
0.00000001
 43
0.00000001
 12
1.0
 22
0.0
 32
0.0
 13
1.0
 23
0.0
 33
0.0
 40
0.0
 40
0.0
 40
0.0
 40
0.0
 40
0.0624999999999996
 40
0.0624999999999996
 40
0.1249999999999993
 40
0.1249999999999993
 40
0.1562499999999991
 40
0.1562499999999991
 40
0.187499999999999
 40
0.187499999999999
 40
0.2187499999999988
 40
0.2187499999999988
 40
0.2499999999999987
 40
0.2499999999999987
 40
0.2812499999999986
 40
0.2812499999999986
 40
0.3124999999999984
 40
0.3124999999999984
 40
0.3437499999999983
 40
0.3437499999999983
 40
0.3749999999999982
 40
0.3749999999999982
 40
0.4062499999999981
 40
0.4062499999999981
 40
0.4374999999999979
 40
0.4374999999999979
 40
0.4999999999999978
 40
0.4999999999999978
 40
0.5624999999999977
 40
0.5624999999999977
 40
0.6249999999999974
 40
0.6249999999999974
 40
0.6874999999999973
 40
0.6874999999999973
 40
0.7187499999999977
 40
0.7187499999999977
 40
0.7499999999999979
 40
0.7499999999999979
 40
0.7812499999999981
 40
0.7812499999999981
 40
0.8124999999999984
 40
0.8124999999999984
 40
0.8437499999999987
 40
0.8437499999999987
 40
0.8749999999999989
 40
0.8749999999999989
 40
0.9062499999999992
 40
0.9062499999999992
 40
0.9374999999999994
 40
0.9374999999999994
 40
1.0
 40
1.0
 40
1.0
 40
1.0
 10
190.333122686645
 20
106.9088401846123
 30
0.0
 10
190.48539687925
 20
106.7072293728365
 30
0.0
 10
190.6674968829087
 20
106.5342899423485
 30
0.0
 10
191.0910135385234
 20
106.242995711798
 30
0.0
 10
191.3245225099588
 20
106.1307333705557
 30
0.0
 10
191.700270185869
 20
106.0144141788799
 30
0.0
 10
191.8298526212328
 20
105.9845712954973
 30
0.0
 10
192.0892428166063
 20
105.9442416790829
 30
0.0
 10
192.2201676261644
 20
105.9333726016638
 30
0.0
 10
192.4845120413113
 20
105.9304309405763
 30
0.0
 10
192.6183908325718
 20
105.9386020398102
 30
0.0
 10
192.8791674367915
 20
105.9734652180754
 30
0.0
 10
193.0072534446827
 20
106.0000649813498
 30
0.0
 10
193.2588258245511
 20
106.0717287262368
 30
0.0
 10
193.3831083123056
 20
106.1172864745547
 30
0.0
 10
193.6188662678293
 20
106.2243930938352
 30
0.0
 10
193.7312346248722
 20
106.2860619025281
 30
0.0
 10
193.9450657934042
 20
106.4257432906325
 30
0.0
 10
194.0473127048404
 20
106.504564581417
 30
0.0
 10
194.2348295888316
 20
106.6747291732463
 30
0.0
 10
194.3205017752915
 20
106.7660969346947
 30
0.0
 10
194.4759183178915
 20
106.9615027446175
 30
0.0
 10
194.5461549737368
 20
107.0664911084556
 30
0.0
 10
194.6671243745063
 20
107.285290583339
 30
0.0
 10
194.7177244036027
 20
107.3984306890213
 30
0.0
 10
194.8405221058191
 20
107.7491022861906
 30
0.0
 10
194.8831545596831
 20
108.000732915004
 30
0.0
 10
194.8830907768268
 20
108.5008559504386
 30
0.0
 10
194.8403839335496
 20
108.7566172548698
 30
0.0
 10
194.6764992724698
 20
109.2387750255506
 30
0.0
 10
194.5530861039651
 20
109.4719837511007
 30
0.0
 10
194.2423044811669
 20
109.8859865587307
 30
0.0
 10
194.0509261240061
 20
110.0722505703659
 30
0.0
 10
193.7305946665086
 20
110.2989126010991
 30
0.0
 10
193.6182090137249
 20
110.3661037804526
 30
0.0
 10
193.3819883705266
 20
110.4832880966103
 30
0.0
 10
193.2578054630176
 20
110.5331610661977
 30
0.0
 10
193.006628754609
 20
110.6117479376205
 30
0.0
 10
192.8785834711636
 20
110.6410639187747
 30
0.0
 10
192.6175340341772
 20
110.6795023669918
 30
0.0
 10
192.4835645030518
 20
110.6884776920496
 30
0.0
 10
192.2195752917541
 20
110.6851508520825
 30
0.0
 10
192.08865999334
 20
110.6731235452148
 30
0.0
 10
191.8289736271028
 20
110.6285020323481
 30
0.0
 10
191.699094554849
 20
110.5954489444462
 30
0.0
 10
191.4490906854911
 20
110.5103010249885
 30
0.0
 10
191.3285678424153
 20
110.4583516430418
 30
0.0
 10
191.0963129594548
 20
110.3361494740441
 30
0.0
 10
190.9836453276713
 20
110.2651502800281
 30
0.0
 10
190.6672408233341
 20
110.0293115716056
 30
0.0
 10
190.485398791955
 20
109.8439407069544
 30
0.0
 10
190.3331226866449
 20
109.6305904655829
 30
0.0
  0
LINE
  5
147
330
1F
100
AcDbEntity
  8
0
  6
HIDDEN
 62
     7
370
     0
100
AcDbLine
 10
169.3831226866
 20
97.1420857625
 30
0.0
 11
169.3831226866
 21
129.5564871327
 31
0.0
  0
LINE
  5
148
330
1F
100
AcDbEntity
  8
0
  6
HIDDEN
 62
     7
370
     0
100
AcDbLine
 10
167.3831226866
 20
128.4529868484
 30
0.0
 11
167.3831226866
 21
98.2455860468
 31
0.0
  0
SPLINE
  5
149
330
1F
100
AcDbEntity
  8
0
  6
HIDDEN
 62
     7
370
     0
100
AcDbSpline
210
0.0
220
0.0
230
1.0
 70
     8
 71
     3
 72
     8
 73
     4
 74
     0
 42
0.00000001
 43
0.00000001
 12
1.0
 22
0.0
 32
0.0
 13
1.0
 23
0.0
 33
0.0
 40
0.0
 40
0.0
 40
0.0
 40
0.0
 40
1.0
 40
1.0
 40
1.0
 40
1.0
 10
150.424606537076
 20
100.6461087480703
 30
0.0
 10
150.4387409817041
 20
100.5953124244371
 30
0.0
 10
150.4617983568527
 20
100.5460736738768
 30
0.0
 10
150.492122686645
 20
100.4982195700576
 30
0.0
  0
SPLINE
  5
14A
330
1F
100
AcDbEntity
  8
0
  6
HIDDEN
 62
     7
370
     0
100
AcDbSpline
210
0.0
220
0.0
230
1.0
 70
     8
 71
     3
 72
    10
 73
     6
 74
     0
 42
0.00000001
 43
0.00000001
 12
1.0
 22
0.0
 32
0.0
 13
1.0
 23
0.0
 33
0.0
 40
0.0
 40
0.0
 40
0.0
 40
0.0
 40
0.5
 40
0.5
 40
1.0
 40
1.0
 40
1.0
 40
1.0
 10
150.4921226866451
 20
100.4982195700576
 30
0.0
 10
150.7074817172024
 20
100.5052324010281
 30
0.0
 10
150.9219230555264
 20
100.5140071246834
 30
0.0
 10
151.3469142741469
 20
100.5390603022312
 30
0.0
 10
151.5582870058696
 20
100.5537461350316
 30
0.0
 10
151.7622992949466
 20
100.5826643205363
 30
0.0
  0
SPLINE
  5
14B
330
1F
100
AcDbEntity
  8
0
  6
HIDDEN
 62
     7
370
     0
100
AcDbSpline
210
0.0
220
0.0
230
1.0
 70
     8
 71
     3
 72
    10
 73
     6
 74
     0
 42
0.00000001
 43
0.00000001
 12
1.0
 22
0.0
 32
0.0
 13
1.0
 23
0.0
 33
0.0
 40
0.0
 40
0.0
 40
0.0
 40
0.0
 40
0.5
 40
0.5
 40
1.0
 40
1.0
 40
1.0
 40
1.0
 10
151.7622992949465
 20
100.5826643205364
 30
0.0
 10
152.2346559341529
 20
100.6496195857254
 30
0.0
 10
152.7198296765434
 20
100.707758408674
 30
0.0
 10
153.6965109409687
 20
100.8146640279693
 30
0.0
 10
154.188659295862
 20
100.8632651033471
 30
0.0
 10
154.683122686645
 20
100.9089164001029
 30
0.0
  0
SPLINE
  5
14C
330
1F
100
AcDbEntity
  8
0
  6
HIDDEN
 62
     7
370
     0
100
AcDbSpline
210
0.0
220
0.0
230
1.0
 70
     8
 71
     3
 72
    14
 73
    10
 74
     0
 42
0.00000001
 43
0.00000001
 12
1.0
 22
0.0
 32
0.0
 13
1.0
 23
0.0
 33
0.0
 40
0.0
 40
0.0
 40
0.0
 40
0.0
 40
0.1250000000000003
 40
0.1250000000000003
 40
0.2500000000000006
 40
0.2500000000000006
 40
0.4999999999999997
 40
0.4999999999999997
 40
1.0
 40
1.0
 40
1.0
 40
1.0
 10
154.683122686645
 20
100.9089164001029
 30
0.0
 10
154.7321350094564
 20
100.913441459258
 30
0.0
 10
154.7849412344518
 20
100.9053220737035
 30
0.0
 10
154.8700083261813
 20
100.8749919985521
 30
0.0
 10
154.9045925115221
 20
100.8543370414756
 30
0.0
 10
154.9931481968594
 20
100.7898009181488
 30
0.0
 10
155.0340838981806
 20
100.7425627380962
 30
0.0
 10
155.1379644250835
 20
100.6027666368124
 30
0.0
 10
155.1811882245157
 20
100.5088816979432
 30
0.0
 10
155.2153875937882
 20
100.4189105847291
 30
0.0
  0
SPLINE
  5
14D
330
1F
100
AcDbEntity
  8
0
  6
HIDDEN
 62
     7
370
     0
100
AcDbSpline
210
0.0
220
0.0
230
1.0
 70
     8
 71
     3
 72
    12
 73
     8
 74
     0
 42
0.00000001
 43
0.00000001
 12
1.0
 22
0.0
 32
0.0
 13
1.0
 23
0.0
 33
0.0
 40
0.0
 40
0.0
 40
0.0
 40
0.0
 40
0.2499999999999999
 40
0.2499999999999999
 40
0.4999999999999998
 40
0.4999999999999998
 40
1.0
 40
1.0
 40
1.0
 40
1.0
 10
155.2153875937882
 20
100.4189105847291
 30
0.0
 10
155.2408118106821
 20
100.3520249916554
 30
0.0
 10
155.2814236502514
 20
100.2875765019717
 30
0.0
 10
155.3660247965236
 20
100.1625758418939
 30
0.0
 10
155.4101215928091
 20
100.1020570967018
 30
0.0
 10
155.5261907012951
 20
99.92585104059334
 30
0.0
 10
155.5831226866451
 20
99.81545662562155
 30
0.0
 10
155.5831226866451
 20
99.7125397495284
 30
0.0
  0
LINE
  5
14E
330
1F
100
AcDbEntity
  8
0
  6
HIDDEN
 62
     7
370
     0
100
AcDbLine
 10
155.5831226866
 20
99.7125397495
 30
0.0
 11
155.5831226866
 21
98.8367684115
 31
0.0
  0
LINE
  5
14F
330
1F
100
AcDbEntity
  8
0
  6
HIDDEN
 62
     7
370
     0
100
AcDbLine
 10
153.0831226866
 20
127.7365539827
 30
0.0
 11
153.0831226866
 21
126.9068105694
 31
0.0
  0
SPLINE
  5
150
330
1F
100
AcDbEntity
  8
0
  6
HIDDEN
 62
     7
370
     0
100
AcDbSpline
210
0.0
220
0.0
230
1.0
 70
     8
 71
     3
 72
    20
 73
    16
 74
     0
 42
0.00000001
 43
0.00000001
 12
1.0
 22
0.0
 32
0.0
 13
1.0
 23
0.0
 33
0.0
 40
0.0
 40
0.0
 40
0.0
 40
0.0
 40
0.25
 40
0.25
 40
0.5
 40
0.5
 40
0.75
 40
0.75
 40
0.875
 40
0.875
 40
0.9375
 40
0.9375
 40
0.96875
 40
0.96875
 40
1.0
 40
1.0
 40
1.0
 40
1.0
 10
153.083122686646
 20
126.9068105693617
 30
0.0
 10
153.083122686646
 20
126.8462011696644
 30
0.0
 10
153.0577276670691
 20
126.7803752042608
 30
0.0
 10
152.9714344812871
 20
126.6463274349142
 30
0.0
 10
152.9107985026039
 20
126.5776320767724
 30
0.0
 10
152.7626967083826
 20
126.437233525118
 30
0.0
 10
152.6759271016039
 20
126.3655300205366
 30
0.0
 10
152.5272893062747
 20
126.2593666187877
 30
0.0
 10
152.4750000893885
 20
126.2238382701562
 30
0.0
 10
152.3842362610786
 20
126.1741343396407
 30
0.0
 10
152.3518702686266
 20
126.1578733416256
 30
0.0
 10
152.2941811129604
 20
126.1387607732797
 30
0.0
 10
152.273194085073
 20
126.1333696311981
 30
0.0
 10
152.2279051060825
 20
126.1276322628057
 30
0.0
 10
152.204890837244
 20
126.1276549964591
 30
0.0
 10
152.1831226866444
 20
126.130080306272
 30
0.0
  0
SPLINE
  5
151
330
1F
100
AcDbEntity
  8
0
  6
HIDDEN
 62
     7
370
     0
100
AcDbSpline
210
0.0
220
0.0
230
1.0
 70
     8
 71
     3
 72
    12
 73
     8
 74
     0
 42
0.00000001
 43
0.00000001
 12
1.0
 22
0.0
 32
0.0
 13
1.0
 23
0.0
 33
0.0
 40
0.0
 40
0.0
 40
0.0
 40
0.0
 40
0.2500000000000014
 40
0.2500000000000014
 40
0.5000000000000028
 40
0.5000000000000028
 40
1.0
 40
1.0
 40
1.0
 40
1.0
 10
152.1831226866451
 20
126.1300803062731
 30
0.0
 10
152.0410802834559
 20
126.1459060344493
 30
0.0
 10
151.8969621769517
 20
126.1569271682246
 30
0.0
 10
151.6072076632792
 20
126.1754635300918
 30
0.0
 10
151.4614657599205
 20
126.1827342358276
 30
0.0
 10
151.0227855207406
 20
126.2011950861556
 30
0.0
 10
150.7284099046694
 20
126.2090739529791
 30
0.0
 10
150.4331226866451
 20
126.2148669945922
 30
0.0
  0
SPLINE
  5
152
330
1F
100
AcDbEntity
  8
0
  6
HIDDEN
 62
     7
370
     0
100
AcDbSpline
210
0.0
220
0.0
230
1.0
 70
     8
 71
     3
 72
     8
 73
     4
 74
     0
 42
0.00000001
 43
0.00000001
 12
1.0
 22
0.0
 32
0.0
 13
1.0
 23
0.0
 33
0.0
 40
0.0
 40
0.0
 40
0.0
 40
0.0
 40
1.0
 40
1.0
 40
1.0
 40
1.0
 10
150.4331226866451
 20
126.2148669945922
 30
0.0
 10
150.3873577789558
 20
126.1533466154334
 30
0.0
 10
150.3529706573258
 20
126.089451755684
 30
0.0
 10
150.3339554036529
 20
126.0227218106402
 30
0.0
  0
ELLIPSE
  5
153
330
1F
100
AcDbEntity
  8
0
  6
HIDDEN
 62
     7
370
     0
100
AcDbEllipse
 10
136.8770020481
 20
113.9883968989
 30
0.0
 11
13.36963611134306
 21
13.36754752639486
 31
0.0
210
0.0
220
0.0
230
1.0
 40
0.1761188775
 41
5.933076931846606
 42
5.976720052691199
  0
ELLIPSE
  5
154
330
1F
100
AcDbEntity
  8
0
  6
HIDDEN
 62
     7
370
     0
100
AcDbEllipse
 10
136.9563804788
 20
112.7099887698
 30
0.0
 11
13.37355272666625
 21
-13.37146352987015
 31
0.0
210
0.0
220
0.0
230
1.0
 40
0.1761188775
 41
0.3023035477142548
 42
0.3822730435340247
  0
SPLINE
  5
155
330
1F
100
AcDbEntity
  8
0
  6
HIDDEN
 62
     7
370
     0
100
AcDbSpline
210
0.0
220
0.0
230
1.0
 70
     8
 71
     3
 72
    11
 73
     7
 74
     0
 42
0.00000001
 43
0.00000001
 12
1.0
 22
0.0
 32
0.0
 13
1.0
 23
0.0
 33
0.0
 40
0.0
 40
0.0
 40
0.0
 40
0.0
 40
0.2594696993796354
 40
0.3326083850969304
 40
0.6701731213681406
 40
1.0
 40
1.0
 40
1.0
 40
1.0
 10
161.0321138322351
 20
98.65053174289729
 30
0.0
 10
160.9665533944462
 20
98.64204016357964
 30
0.0
 10
160.8825129404304
 20
98.6311549986046
 30
0.0
 10
160.7056408419597
 20
98.608546653228
 30
0.0
 10
160.6037563566975
 20
98.59195151914454
 30
0.0
 10
160.5796027769726
 20
98.58885156692135
 30
0.0
 10
160.5676660075698
 20
98.58731956150976
 30
0.0
  0
SPLINE
  5
156
330
1F
100
AcDbEntity
  8
0
  6
HIDDEN
 62
     7
370
     0
100
AcDbSpline
210
0.0
220
0.0
230
1.0
 70
     8
 71
     3
 72
    22
 73
    18
 74
     0
 42
0.00000001
 43
0.00000001
 12
1.0
 22
0.0
 32
0.0
 13
1.0
 23
0.0
 33
0.0
 40
0.0
 40
0.0
 40
0.0
 40
0.0
 40
0.0022119892135005
 40
0.079968406654475
 40
0.1575272210099929
 40
0.2358577707004914
 40
0.313612198674753
 40
0.390071984906839
 40
0.4660893368550001
 40
0.5423590138346629
 40
0.6186534253635965
 40
0.693772313693388
 40
0.7691592386674395
 40
0.8459429412200842
 40
0.920758094522392
 40
0.9231032099373759
 40
1.0
 40
1.0
 40
1.0
 40
1.0
 10
166.1494007802488
 20
98.30768860900343
 30
0.0
 10
166.1499109128073
 20
98.30756572869517
 30
0.0
 10
166.16835335712
 20
98.30312332798117
 30
0.0
 10
166.1047056103008
 20
98.31893101342473
 30
0.0
 10
165.9522737564131
 20
98.35577228827952
 30
0.0
 10
165.6856893690968
 20
98.41606297963587
 30
0.0
 10
165.3388607383339
 20
98.48852951865143
 30
0.0
 10
164.9150636298379
 20
98.56490454073501
 30
0.0
 10
164.4317505993551
 20
98.63619721841695
 30
0.0
 10
163.9030011891415
 20
98.69407690967535
 30
0.0
 10
163.3538093501257
 20
98.73382696216692
 30
0.0
 10
162.8043260848408
 20
98.75066092150581
 30
0.0
 10
162.2788021859514
 20
98.74540693650924
 30
0.0
 10
161.7905700372146
 20
98.72267932784496
 30
0.0
 10
161.5233951349724
 20
98.69852718663141
 30
0.0
 10
161.2390463805469
 20
98.67657029481106
 30
0.0
 10
161.1340261011291
 20
98.66335547664963
 30
0.0
 10
161.0321138322351
 20
98.65053174289729
 30
0.0
  0
SPLINE
  5
157
330
1F
100
AcDbEntity
  8
0
  6
HIDDEN
 62
     7
370
     0
100
AcDbSpline
210
0.0
220
0.0
230
1.0
 70
     8
 71
     3
 72
    22
 73
    18
 74
     0
 42
0.00000001
 43
0.00000001
 12
1.0
 22
0.0
 32
0.0
 13
1.0
 23
0.0
 33
0.0
 40
0.0
 40
0.0
 40
0.0
 40
0.0
 40
0.0769496724551315
 40
0.0780938842343843
 40
0.1541393950159334
 40
0.2309485255633878
 40
0.3064555070166279
 40
0.3815281357795516
 40
0.4579812249393534
 40
0.5341646046825262
 40
0.6102700341699557
 40
0.6865845548043935
 40
0.764291712786568
 40
0.8424373766484228
 40
0.9199456367429116
 40
0.9982050411745839
 40
1.0
 40
1.0
 40
1.0
 40
1.0
 10
161.0319964019481
 20
128.0480266683944
 30
0.0
 10
161.1340999530497
 20
128.0352301063532
 30
0.0
 10
161.2377217443484
 20
128.0222432643985
 30
0.0
 10
161.5217937262738
 20
128.0002607160236
 30
0.0
 10
161.7891915071792
 20
127.9761028518284
 30
0.0
 10
162.2800950265266
 20
127.9532075766019
 30
0.0
 10
162.8058208135713
 20
127.9478900053315
 30
0.0
 10
163.3558876795993
 20
127.9647505839193
 30
0.0
 10
163.9051046792318
 20
128.0046425764882
 30
0.0
 10
164.4339703516368
 20
128.0626680780134
 30
0.0
 10
164.9167992899131
 20
128.1339382285586
 30
0.0
 10
165.3403226760437
 20
128.2102508271527
 30
0.0
 10
165.6865821150628
 20
128.2825858884623
 30
0.0
 10
165.9524298890385
 20
128.3427918702015
 30
0.0
 10
166.1058444849929
 20
128.3797105655843
 30
0.0
 10
166.1666004169864
 20
128.3954548824153
 30
0.0
 10
166.1488010874165
 20
128.3909861441937
 30
0.0
 10
166.1484019953196
 20
128.3908859472677
 30
0.0
  0
SPLINE
  5
158
330
1F
100
AcDbEntity
  8
0
  6
HIDDEN
 62
     7
370
     0
100
AcDbSpline
210
0.0
220
0.0
230
1.0
 70
     8
 71
     3
 72
    10
 73
     6
 74
     0
 42
0.00000001
 43
0.00000001
 12
1.0
 22
0.0
 32
0.0
 13
1.0
 23
0.0
 33
0.0
 40
0.0
 40
0.0
 40
0.0
 40
0.0
 40
0.3343825155178101
 40
0.6655473205412337
 40
1.0
 40
1.0
 40
1.0
 40
1.0
 10
160.5671995911851
 20
128.1113151250921
 30
0.0
 10
160.5769063085073
 20
128.109741346185
 30
0.0
 10
160.5962263369335
 20
128.1066089325984
 30
0.0
 10
160.7537982031715
 20
128.0825531851497
 30
0.0
 10
160.9389587968317
 20
128.0595733442753
 30
0.0
 10
161.0319964019481
 20
128.0480266683944
 30
0.0
  0
LWPOLYLINE
  5
159
330
1F
100
AcDbEntity
  8
0
  6
HIDDEN
 62
     7
370
     0
100
AcDbPolyline
 90
       30
 70
   128
 43
0.0
 10
191.722824618
 20
113.9514027521
 10
191.7824830611
 20
114.0571088579
 10
191.7806672622
 20
114.2366003047
 10
191.717462126
 20
114.4814842719
 10
191.5958230545
 20
114.7803102574
 10
191.4214377555
 20
115.1191054901
 10
191.2024602917
 20
115.4820282817
 10
190.9491298059
 20
115.8521087656
 10
190.6732917502
 20
116.2120423899
 10
190.3878440054
 20
116.5449990582
 10
190.1061337909
 20
116.8354100867
 10
189.8413335631
 20
117.0696961787
 10
189.6058250864
 20
117.2369023767
 10
189.4106204755
 20
117.3292103049
 10
189.2648472809
 20
117.3423037471
 10
189.1753216953
 20
117.2755704684
 10
189.1462298355
 20
117.1321308429
 10
189.1789320046
 20
116.9186919479
 10
189.2718990854
 20
116.6452339491
 10
189.4207840407
 20
116.3245434384
 10
189.6186251753
 20
115.9716155478
 10
189.8561716577
 20
115.6029527932
 10
190.1223160784
 20
115.2357934352
 10
190.4046138202
 20
114.8873054374
 10
190.6898649542
 20
114.5737837112
 10
190.9647314546
 20
114.309888184
 10
191.2163608692
 20
114.1079583175
 10
191.4329872863
 20
113.9774361277
 10
191.6044814955
 20
113.9244246872
 10
191.722824618
 20
113.9514027521
  0
SPLINE
  5
15A
330
1F
100
AcDbEntity
  8
0
  6
HIDDEN
 62
     7
370
     0
100
AcDbSpline
210
0.0
220
0.0
230
1.0
 70
     8
 71
     3
 72
    18
 73
    14
 74
     0
 42
0.00000001
 43
0.00000001
 12
1.0
 22
0.0
 32
0.0
 13
1.0
 23
0.0
 33
0.0
 40
0.0
 40
0.0
 40
0.0
 40
0.0
 40
0.2499999999999939
 40
0.2499999999999939
 40
0.3749999999999942
 40
0.3749999999999942
 40
0.4999999999999944
 40
0.4999999999999944
 40
0.6249999999999947
 40
0.6249999999999947
 40
0.749999999999995
 40
0.749999999999995
 40
1.0
 40
1.0
 40
1.0
 40
1.0
 10
193.3713591498125
 20
115.4497476900844
 30
0.0
 10
193.4262960606985
 20
115.4593393012153
 30
0.0
 10
193.4802895418424
 20
115.4713774175265
 30
0.0
 10
193.5639700181531
 20
115.4986755165726
 30
0.0
 10
193.5921525702952
 20
115.5091731444517
 30
0.0
 10
193.6533168965826
 20
115.5389663356588
 30
0.0
 10
193.6868920176703
 20
115.5593018955571
 30
0.0
 10
193.7530548379908
 20
115.6132989731839
 30
0.0
 10
193.7833629825222
 20
115.644388601332
 30
0.0
 10
193.8377042522874
 20
115.7054351652497
 30
0.0
 10
193.8624359804359
 20
115.7360982549915
 30
0.0
 10
193.9335974596115
 20
115.829221234572
 30
0.0
 10
193.9768338161733
 20
115.8928247763216
 30
0.0
 10
194.0175884059387
 20
115.9580021660166
 30
0.0
  0
SPLINE
  5
15B
330
1F
100
AcDbEntity
  8
0
  6
HIDDEN
 62
     7
370
     0
100
AcDbSpline
210
0.0
220
0.0
230
1.0
 70
     8
 71
     3
 72
    10
 73
     6
 74
     0
 42
0.00000001
 43
0.00000001
 12
1.0
 22
0.0
 32
0.0
 13
1.0
 23
0.0
 33
0.0
 40
0.0
 40
0.0
 40
0.0
 40
0.0
 40
0.5
 40
0.5
 40
1.0
 40
1.0
 40
1.0
 40
1.0
 10
194.0175884059387
 20
115.9580021660164
 30
0.0
 10
193.9087472467471
 20
115.8836711695388
 30
0.0
 10
193.8003639421929
 20
115.8044621764812
 30
0.0
 10
193.584776407832
 20
115.6346903175788
 30
0.0
 10
193.4769472490927
 20
115.5435413964906
 30
0.0
 10
193.3713591498133
 20
115.4497476900845
 30
0.0
  0
SPLINE
  5
15C
330
1F
100
AcDbEntity
  8
0
  6
HIDDEN
 62
     7
370
     0
100
AcDbSpline
210
0.0
220
0.0
230
1.0
 70
     8
 71
     3
 72
    90
 73
    86
 74
     0
 42
0.00000001
 43
0.00000001
 12
1.0
 22
0.0
 32
0.0
 13
1.0
 23
0.0
 33
0.0
 40
0.0
 40
0.0
 40
0.0
 40
0.0
 40
0.0156249999999993
 40
0.0156249999999993
 40
0.0234374999999991
 40
0.0234374999999991
 40
0.0312499999999988
 40
0.0312499999999988
 40
0.0390624999999986
 40
0.0390624999999986
 40
0.0468749999999983
 40
0.0468749999999983
 40
0.0624999999999984
 40
0.0624999999999984
 40
0.0937499999999983
 40
0.0937499999999983
 40
0.1249999999999982
 40
0.1249999999999982
 40
0.1562499999999981
 40
0.1562499999999981
 40
0.187499999999998
 40
0.187499999999998
 40
0.2187499999999979
 40
0.2187499999999979
 40
0.2499999999999978
 40
0.2499999999999978
 40
0.2812499999999977
 40
0.2812499999999977
 40
0.3124999999999976
 40
0.3124999999999976
 40
0.3437499999999976
 40
0.3437499999999976
 40
0.3749999999999976
 40
0.3749999999999976
 40
0.4374999999999973
 40
0.4374999999999973
 40
0.468749999999997
 40
0.468749999999997
 40
0.4843749999999969
 40
0.4843749999999969
 40
0.4999999999999968
 40
0.4999999999999968
 40
0.5078124999999969
 40
0.5078124999999969
 40
0.515624999999997
 40
0.515624999999997
 40
0.5234374999999971
 40
0.5234374999999971
 40
0.5312499999999972
 40
0.5312499999999972
 40
0.5624999999999973
 40
0.5624999999999973
 40
0.5937499999999976
 40
0.5937499999999976
 40
0.6249999999999978
 40
0.6249999999999978
 40
0.6874999999999979
 40
0.6874999999999979
 40
0.7187499999999981
 40
0.7187499999999981
 40
0.7499999999999983
 40
0.7499999999999983
 40
0.7812499999999986
 40
0.7812499999999986
 40
0.8124999999999987
 40
0.8124999999999987
 40
0.8437499999999989
 40
0.8437499999999989
 40
0.8749999999999991
 40
0.8749999999999991
 40
0.9062499999999993
 40
0.9062499999999993
 40
0.9374999999999994
 40
0.9374999999999994
 40
0.9531249999999996
 40
0.9531249999999996
 40
0.9609374999999997
 40
0.9609374999999997
 40
0.9687499999999998
 40
0.9687499999999998
 40
0.9765624999999999
 40
0.9765624999999999
 40
0.984375
 40
0.984375
 40
1.0
 40
1.0
 40
1.0
 40
1.0
 10
191.5025220361194
 20
119.0251383009187
 30
0.0
 10
191.4464839107452
 20
118.9817591790687
 30
0.0
 10
191.3924172042886
 20
118.9360951245981
 30
0.0
 10
191.3169686498481
 20
118.865299197272
 30
0.0
 10
191.2928533004053
 20
118.8414076020945
 30
0.0
 10
191.2491620248267
 20
118.7941849944284
 30
0.0
 10
191.2289643016815
 20
118.7705174859993
 30
0.0
 10
191.2042004859572
 20
118.7289318964458
 30
0.0
 10
191.2043367153572
 20
118.7148188700202
 30
0.0
 10
191.2276324336174
 20
118.703644320688
 30
0.0
 10
191.246775522376
 20
118.7040777520163
 30
0.0
 10
191.3097305921853
 20
118.7079210731069
 30
0.0
 10
191.3589400576938
 20
118.7145729409657
 30
0.0
 10
191.5117358976028
 20
118.7296397218434
 30
0.0
 10
191.6235197158728
 20
118.735499601782
 30
0.0
 10
191.8563284640931
 20
118.7300715865335
 30
0.0
 10
191.9776125434001
 20
118.7194166579404
 30
0.0
 10
192.2299911844812
 20
118.6795048695464
 30
0.0
 10
192.3610891646519
 20
118.650348038799
 30
0.0
 10
192.635185326309
 20
118.5688093249565
 30
0.0
 10
192.7761357179455
 20
118.5169139618143
 30
0.0
 10
193.0609969688898
 20
118.3879923138608
 30
0.0
 10
193.2075569456619
 20
118.3094893786023
 30
0.0
 10
193.4918945735296
 20
118.1268336214561
 30
0.0
 10
193.633301386206
 20
118.0201349589496
 30
0.0
 10
193.8919939747126
 20
117.78585265047
 30
0.0
 10
194.0114755630744
 20
117.6559228669166
 30
0.0
 10
194.2092804920636
 20
117.3918616190597
 30
0.0
 10
194.2897407020537
 20
117.2551327283337
 30
0.0
 10
194.4068795310048
 20
116.9929667256024
 30
0.0
 10
194.4450203664002
 20
116.8649865296609
 30
0.0
 10
194.485058847843
 20
116.6282011304767
 30
0.0
 10
194.4878135485863
 20
116.5172937678282
 30
0.0
 10
194.4540342602615
 20
116.2071128486882
 30
0.0
 10
194.3784904661125
 20
116.0372185446394
 30
0.0
 10
194.2086560286322
 20
115.8219956880587
 30
0.0
 10
194.1432481949208
 20
115.7583236777675
 30
0.0
 10
194.0316523510007
 20
115.671577423246
 30
0.0
 10
193.9922262258725
 20
115.6441755748498
 30
0.0
 10
193.9072312834278
 20
115.5902987708304
 30
0.0
 10
193.8623887402008
 20
115.5648276238235
 30
0.0
 10
193.7818697742698
 20
115.5169892908179
 30
0.0
 10
193.7522493853029
 20
115.4990145202743
 30
0.0
 10
193.6851398750401
 20
115.4512038838142
 30
0.0
 10
193.6494067250353
 20
115.4217782455084
 30
0.0
 10
193.5848646919071
 20
115.3658663522951
 30
0.0
 10
193.5542500056521
 20
115.3384007511054
 30
0.0
 10
193.4945292197605
 20
115.2858400258962
 30
0.0
 10
193.4652260450545
 20
115.2604500169478
 30
0.0
 10
193.3184107802204
 20
115.137017966604
 30
0.0
 10
193.19866222078
 20
115.0489620848605
 30
0.0
 10
192.9494749694375
 20
114.8961555658571
 30
0.0
 10
192.8204335457487
 20
114.8311779293544
 30
0.0
 10
192.5511495004952
 20
114.7264980886822
 30
0.0
 10
192.4105606024627
 20
114.6869858294997
 30
0.0
 10
191.9832989496491
 20
114.6173364910573
 30
0.0
 10
191.6806569939257
 20
114.6341090741747
 30
0.0
 10
191.2461496373518
 20
114.8001140964657
 30
0.0
 10
191.1054622401288
 20
114.8791043059039
 30
0.0
 10
190.8486297864166
 20
115.0837324885222
 30
0.0
 10
190.7323532753759
 20
115.2099606317632
 30
0.0
 10
190.5396390998974
 20
115.4943745398751
 30
0.0
 10
190.4620043946666
 20
115.6542537369222
 30
0.0
 10
190.349686223972
 20
115.9853449827459
 30
0.0
 10
190.3140568142804
 20
116.1583021847902
 30
0.0
 10
190.2790963210616
 20
116.4995914208325
 30
0.0
 10
190.2792711520735
 20
116.6723391826908
 30
0.0
 10
190.3084332566093
 20
117.0057018387989
 30
0.0
 10
190.337036914954
 20
117.1672140432345
 30
0.0
 10
190.4176274078962
 20
117.4814594111386
 30
0.0
 10
190.4700303155311
 20
117.634493791535
 30
0.0
 10
190.5922578189376
 20
117.923689197321
 30
0.0
 10
190.6626920760343
 20
118.0612076462716
 30
0.0
 10
190.7775659737069
 20
118.256088748719
 30
0.0
 10
190.8178115400696
 20
118.319411336541
 30
0.0
 10
190.8751272559738
 20
118.4085443411641
 30
0.0
 10
190.8938836595011
 20
118.4374250099267
 30
0.0
 10
190.9238895115437
 20
118.4893198105898
 30
0.0
 10
190.9341087265824
 20
118.5120460091096
 30
0.0
 10
190.9284542410896
 20
118.5336390763675
 30
0.0
 10
190.9146612131326
 20
118.5337186264864
 30
0.0
 10
190.8831703674744
 20
118.5271274687614
 30
0.0
 10
190.8653019734395
 20
118.5204761940199
 30
0.0
 10
190.8109469451556
 20
118.4968410859339
 30
0.0
 10
190.7734657865073
 20
118.4758866067772
 30
0.0
 10
190.7373426885314
 20
118.452538345477
 30
0.0
  0
SPLINE
  5
15D
330
1F
100
AcDbEntity
  8
0
  6
HIDDEN
 62
     7
370
     0
100
AcDbSpline
210
0.0
220
0.0
230
1.0
 70
     8
 71
     3
 72
    10
 73
     6
 74
     0
 42
0.00000001
 43
0.00000001
 12
1.0
 22
0.0
 32
0.0
 13
1.0
 23
0.0
 33
0.0
 40
0.0
 40
0.0
 40
0.0
 40
0.0
 40
0.5
 40
0.5
 40
1.0
 40
1.0
 40
1.0
 40
1.0
 10
190.737342688531
 20
118.4525383454766
 30
0.0
 10
190.8658780741345
 20
118.5503231952745
 30
0.0
 10
190.994644372369
 20
118.6466741077967
 30
0.0
 10
191.250939196984
 20
118.8380359251037
 30
0.0
 10
191.3787585041785
 20
118.9333156479158
 30
0.0
 10
191.5025220361151
 20
119.0251383009159
 30
0.0
  0
SPLINE
  5
15E
330
1F
100
AcDbEntity
  8
0
  6
HIDDEN
 62
     7
370
     0
100
AcDbSpline
210
0.0
220
0.0
230
1.0
 70
    11
 71
     3
 72
    14
 73
    10
 74
     0
 42
0.00000001
 43
0.00000001
 12
1.0
 22
0.0
 32
0.0
 13
1.0
 23
0.0
 33
0.0
 40
0.0
 40
0.0
 40
0.0
 40
0.0
 40
0.2500000000000001
 40
0.2500000000000001
 40
0.5000000000000001
 40
0.5000000000000001
 40
0.7500000000000002
 40
0.7500000000000002
 40
1.0
 40
1.0
 40
1.0
 40
1.0
 10
165.2072994145226
 20
126.0220967410938
 30
0.0
 10
165.3611753102254
 20
126.0442462739458
 30
0.0
 10
165.4790558778544
 20
126.0570583410194
 30
0.0
 10
165.6421196677671
 20
126.0734110498498
 30
0.0
 10
165.6830361863908
 20
126.0765868125677
 30
0.0
 10
165.683208918907
 20
126.0766015147444
 30
0.0
 10
165.6422811606731
 20
126.073421963751
 30
0.0
 10
165.4799437952076
 20
126.0571526322735
 30
0.0
 10
165.3611735271015
 20
126.0442460172755
 30
0.0
 10
165.2072994145226
 20
126.0220967410938
 30
0.0
  0
SPLINE
  5
15F
330
1F
100
AcDbEntity
  8
0
  6
HIDDEN
 62
     7
370
     0
100
AcDbSpline
210
0.0
220
0.0
230
1.0
 70
    11
 71
     3
 72
    14
 73
    10
 74
     0
 42
0.00000001
 43
0.00000001
 12
1.0
 22
0.0
 32
0.0
 13
1.0
 23
0.0
 33
0.0
 40
0.0
 40
0.0
 40
0.0
 40
0.0
 40
0.25
 40
0.25
 40
0.5
 40
0.5
 40
0.75
 40
0.75
 40
1.0
 40
1.0
 40
1.0
 40
1.0
 10
165.2072994145226
 20
100.676476154134
 30
0.0
 10
165.3611753102254
 20
100.654326621282
 30
0.0
 10
165.4790558778544
 20
100.6415145542084
 30
0.0
 10
165.6421196677671
 20
100.6251618453779
 30
0.0
 10
165.6830361863908
 20
100.6219860826601
 30
0.0
 10
165.683208918907
 20
100.6219713804833
 30
0.0
 10
165.6422811606731
 20
100.6251509314768
 30
0.0
 10
165.4799437952076
 20
100.6414202629542
 30
0.0
 10
165.3611735271015
 20
100.6543268779522
 30
0.0
 10
165.2072994145226
 20
100.676476154134
 30
0.0
  0
LINE
  5
160
330
1F
100
AcDbEntity
  8
0
  6
HIDDEN
 62
     7
370
     0
100
AcDbLine
 10
169.3831226866
 20
102.8492864476
 30
0.0
 11
169.3831226866
 21
123.8370248294
 31
0.0
  0
SPLINE
  5
161
330
1F
100
AcDbEntity
  8
0
  6
HIDDEN
 62
     7
370
     0
100
AcDbSpline
210
0.0
220
0.0
230
1.0
 70
    11
 71
     3
 72
    50
 73
    46
 74
     0
 42
0.00000001
 43
0.00000001
 12
1.0
 22
0.0
 32
0.0
 13
1.0
 23
0.0
 33
0.0
 40
0.0
 40
0.0
 40
0.0
 40
0.0
 40
0.0625000000000004
 40
0.0625000000000004
 40
0.1250000000000008
 40
0.1250000000000008
 40
0.156250000000001
 40
0.156250000000001
 40
0.1875000000000012
 40
0.1875000000000012
 40
0.2187500000000014
 40
0.2187500000000014
 40
0.2500000000000016
 40
0.2500000000000016
 40
0.2812500000000018
 40
0.2812500000000018
 40
0.312500000000002
 40
0.312500000000002
 40
0.3750000000000022
 40
0.3750000000000022
 40
0.4375000000000023
 40
0.4375000000000023
 40
0.5000000000000023
 40
0.5000000000000023
 40
0.5312500000000024
 40
0.5312500000000024
 40
0.5625000000000024
 40
0.5625000000000024
 40
0.5937500000000023
 40
0.5937500000000023
 40
0.6250000000000023
 40
0.6250000000000023
 40
0.6562500000000022
 40
0.6562500000000022
 40
0.687500000000002
 40
0.687500000000002
 40
0.7500000000000016
 40
0.7500000000000016
 40
0.8125000000000012
 40
0.8125000000000012
 40
0.8750000000000009
 40
0.8750000000000009
 40
0.9375000000000004
 40
0.9375000000000004
 40
1.0
 40
1.0
 40
1.0
 40
1.0
 10
165.2072994145226
 20
100.676476154134
 30
0.0
 10
165.0610445797209
 20
100.6975286799594
 30
0.0
 10
164.8895759427626
 20
100.7198099046415
 30
0.0
 10
164.4964313372526
 20
100.7606513949904
 30
0.0
 10
164.2811871516874
 20
100.7784090299113
 30
0.0
 10
163.9384473651377
 20
100.7966823227549
 30
0.0
 10
163.8202009820822
 20
100.801392261769
 30
0.0
 10
163.5844219799039
 20
100.8073913568278
 30
0.0
 10
163.465855670198
 20
100.8087471892236
 30
0.0
 10
163.2273605893974
 20
100.8080527772129
 30
0.0
 10
163.1065681958756
 20
100.8059542742215
 30
0.0
 10
162.8715022304104
 20
100.7985711246957
 30
0.0
 10
162.7564467179104
 20
100.7933083614248
 30
0.0
 10
162.5312269631675
 20
100.7800545993763
 30
0.0
 10
162.4201447935652
 20
100.7719755246988
 30
0.0
 10
162.2088933466295
 20
100.7540397977038
 30
0.0
 10
162.1085351121288
 20
100.7442035624904
 30
0.0
 10
161.8228911551054
 20
100.7131878940689
 30
0.0
 10
161.6526124115095
 20
100.6903561998502
 30
0.0
 10
161.3764612815892
 20
100.6496589255195
 30
0.0
 10
161.2667620952044
 20
100.6313328759474
 30
0.0
 10
161.1212190140405
 20
100.6063052767024
 30
0.0
 10
161.0832123785832
 20
100.5993026273349
 30
0.0
 10
161.0830780852254
 20
100.5992784018681
 30
0.0
 10
161.0921958404677
 20
100.6009329891243
 30
0.0
 10
161.1291143859813
 20
100.6075156323971
 30
0.0
 10
161.157088041006
 20
100.6124718739198
 30
0.0
 10
161.2298596204583
 20
100.6249885466182
 30
0.0
 10
161.27478485862
 20
100.6325730859316
 30
0.0
 10
161.3818281735754
 20
100.6498813413048
 30
0.0
 10
161.4443962145419
 20
100.6596656330975
 30
0.0
 10
161.5827871172814
 20
100.6800708347636
 30
0.0
 10
161.6589705730558
 20
100.6907557896867
 30
0.0
 10
161.8253263068669
 20
100.712339527264
 30
0.0
 10
161.9163546093116
 20
100.7233256362652
 30
0.0
 10
162.2030084259845
 20
100.7544827200313
 30
0.0
 10
162.4150604841022
 20
100.7731789070675
 30
0.0
 10
162.8682377600567
 20
100.7999261877829
 30
0.0
 10
163.1028674087966
 20
100.8076317944847
 30
0.0
 10
163.5842909582552
 20
100.8091498019829
 30
0.0
 10
163.8195963285237
 20
100.8029611137506
 30
0.0
 10
164.2795039801992
 20
100.7785557780578
 30
0.0
 10
164.4939324921584
 20
100.7608726241324
 30
0.0
 10
164.8871316769238
 20
100.7201017070998
 30
0.0
 10
165.0610407485889
 20
100.6975292314284
 30
0.0
 10
165.2072994145226
 20
100.676476154134
 30
0.0
  0
SPLINE
  5
162
330
1F
100
AcDbEntity
  8
0
  6
HIDDEN
 62
     7
370
     0
100
AcDbSpline
210
0.0
220
0.0
230
1.0
 70
    11
 71
     3
 72
    50
 73
    46
 74
     0
 42
0.00000001
 43
0.00000001
 12
1.0
 22
0.0
 32
0.0
 13
1.0
 23
0.0
 33
0.0
 40
0.0
 40
0.0
 40
0.0
 40
0.0
 40
0.0625
 40
0.0625
 40
0.1250000000000001
 40
0.1250000000000001
 40
0.1562500000000001
 40
0.1562500000000001
 40
0.1875000000000001
 40
0.1875000000000001
 40
0.2187500000000001
 40
0.2187500000000001
 40
0.2500000000000001
 40
0.2500000000000001
 40
0.2812500000000001
 40
0.2812500000000001
 40
0.3125000000000001
 40
0.3125000000000001
 40
0.375
 40
0.375
 40
0.4374999999999998
 40
0.4374999999999998
 40
0.4999999999999997
 40
0.4999999999999997
 40
0.5312499999999997
 40
0.5312499999999997
 40
0.5624999999999996
 40
0.5624999999999996
 40
0.5937499999999994
 40
0.5937499999999994
 40
0.6249999999999993
 40
0.6249999999999993
 40
0.6562499999999994
 40
0.6562499999999994
 40
0.6874999999999994
 40
0.6874999999999994
 40
0.7499999999999996
 40
0.7499999999999996
 40
0.8124999999999997
 40
0.8124999999999997
 40
0.8749999999999998
 40
0.8749999999999998
 40
0.9375
 40
0.9375
 40
1.0
 40
1.0
 40
1.0
 40
1.0
 10
165.2072994145226
 20
126.0220967410938
 30
0.0
 10
165.0610445797209
 20
126.0010442152683
 30
0.0
 10
164.8895759427626
 20
125.9787629905863
 30
0.0
 10
164.4964313372526
 20
125.9379215002374
 30
0.0
 10
164.2811871516874
 20
125.9201638653164
 30
0.0
 10
163.9384473651377
 20
125.9018905724728
 30
0.0
 10
163.8202009820822
 20
125.8971806334588
 30
0.0
 10
163.5844219799039
 20
125.8911815384
 30
0.0
 10
163.465855670198
 20
125.8898257060042
 30
0.0
 10
163.2273605893974
 20
125.8905201180148
 30
0.0
 10
163.1065681958756
 20
125.8926186210062
 30
0.0
 10
162.8715022304104
 20
125.900001770532
 30
0.0
 10
162.7564467179104
 20
125.9052645338029
 30
0.0
 10
162.5312269631675
 20
125.9185182958515
 30
0.0
 10
162.4201447935652
 20
125.9265973705289
 30
0.0
 10
162.2088933466295
 20
125.944533097524
 30
0.0
 10
162.1085351121288
 20
125.9543693327374
 30
0.0
 10
161.8228911551054
 20
125.9853850011588
 30
0.0
 10
161.6526124115095
 20
126.0082166953775
 30
0.0
 10
161.3764612815892
 20
126.0489139697082
 30
0.0
 10
161.2667620952044
 20
126.0672400192804
 30
0.0
 10
161.1212190140405
 20
126.0922676185254
 30
0.0
 10
161.0832123785833
 20
126.0992702678928
 30
0.0
 10
161.0830780852254
 20
126.0992944933596
 30
0.0
 10
161.0921958404677
 20
126.0976399061035
 30
0.0
 10
161.1291143859813
 20
126.0910572628306
 30
0.0
 10
161.157088041006
 20
126.0861010213079
 30
0.0
 10
161.2298596204583
 20
126.0735843486096
 30
0.0
 10
161.27478485862
 20
126.0659998092961
 30
0.0
 10
161.3818281735754
 20
126.048691553923
 30
0.0
 10
161.4443962145419
 20
126.0389072621302
 30
0.0
 10
161.5827871172814
 20
126.0185020604642
 30
0.0
 10
161.6589705730558
 20
126.0078171055411
 30
0.0
 10
161.8253263068669
 20
125.9862333679637
 30
0.0
 10
161.9163546093116
 20
125.9752472589626
 30
0.0
 10
162.2030084259845
 20
125.9440901751965
 30
0.0
 10
162.4150604841021
 20
125.9253939881603
 30
0.0
 10
162.8682377600567
 20
125.8986467074448
 30
0.0
 10
163.1028674087966
 20
125.890941100743
 30
0.0
 10
163.5842909582552
 20
125.8894230932448
 30
0.0
 10
163.8195963285237
 20
125.8956117814772
 30
0.0
 10
164.2795039801992
 20
125.92001711717
 30
0.0
 10
164.4939324921584
 20
125.9377002710953
 30
0.0
 10
164.8871316769238
 20
125.9784711881279
 30
0.0
 10
165.0610407485889
 20
126.0010436637993
 30
0.0
 10
165.2072994145226
 20
126.0220967410938
 30
0.0
  0
LINE
  5
163
330
1F
100
AcDbEntity
  8
0
  6
HIDDEN
 62
     7
370
     0
100
AcDbLine
 10
157.3857724175
 20
123.8492864476
 30
0.0
 11
157.3857724175
 21
102.8492864476
 31
0.0
  0
ARC
  5
164
330
1F
100
AcDbEntity
  8
0
  6
HIDDEN
 62
     7
370
     0
100
AcDbCircle
 10
192.4337784763
 20
117.306808548
 30
0.0
 40
2.080320299669947
100
AcDbArc
 50
296.7879967388
 51
319.5815746853
  0
SPLINE
  5
165
330
1F
100
AcDbEntity
  8
0
  6
HIDDEN
 62
     7
370
     0
100
AcDbSpline
210
0.0
220
0.0
230
1.0
 70
     8
 71
     3
 72
    12
 73
     8
 74
     0
 42
0.00000001
 43
0.00000001
 12
1.0
 22
0.0
 32
0.0
 13
1.0
 23
0.0
 33
0.0
 40
0.0
 40
0.0
 40
0.0
 40
0.0
 40
0.5000000000000002
 40
0.5000000000000002
 40
0.7500000000000001
 40
0.7500000000000001
 40
1.0
 40
1.0
 40
1.0
 40
1.0
 10
194.3831226866451
 20
114.7050330606107
 30
0.0
 10
194.442841543936
 20
114.4904529495483
 30
0.0
 10
194.4830288782032
 20
114.2566824545947
 30
0.0
 10
194.483169330183
 20
113.9282685378064
 30
0.0
 10
194.4736431829133
 20
113.8255342547399
 30
0.0
 10
194.4383227187411
 20
113.6389929407296
 30
0.0
 10
194.4130065390781
 20
113.5572546725178
 30
0.0
 10
194.3831226866451
 20
113.4870864544788
 30
0.0
  0
SPLINE
  5
166
330
1F
100
AcDbEntity
  8
0
  6
HIDDEN
 62
     7
370
     0
100
AcDbSpline
210
0.0
220
0.0
230
1.0
 70
     8
 71
     3
 72
    64
 73
    60
 74
     0
 42
0.00000001
 43
0.00000001
 12
1.0
 22
0.0
 32
0.0
 13
1.0
 23
0.0
 33
0.0
 40
0.0
 40
0.0
 40
0.0
 40
0.0
 40
0.0625
 40
0.0625
 40
0.09375
 40
0.09375
 40
0.125
 40
0.125
 40
0.15625
 40
0.15625
 40
0.1875
 40
0.1875
 40
0.21875
 40
0.21875
 40
0.25
 40
0.25
 40
0.2812499999999999
 40
0.2812499999999999
 40
0.3124999999999999
 40
0.3124999999999999
 40
0.3437499999999999
 40
0.3437499999999999
 40
0.3749999999999998
 40
0.3749999999999998
 40
0.4062499999999998
 40
0.4062499999999998
 40
0.4374999999999997
 40
0.4374999999999997
 40
0.4687499999999998
 40
0.4687499999999998
 40
0.4999999999999998
 40
0.4999999999999998
 40
0.5312499999999998
 40
0.5312499999999998
 40
0.5624999999999998
 40
0.5624999999999998
 40
0.5937499999999998
 40
0.5937499999999998
 40
0.6249999999999998
 40
0.6249999999999998
 40
0.6562499999999999
 40
0.6562499999999999
 40
0.6874999999999999
 40
0.6874999999999999
 40
0.7187499999999999
 40
0.7187499999999999
 40
0.7499999999999999
 40
0.7499999999999999
 40
0.7812499999999999
 40
0.7812499999999999
 40
0.8124999999999999
 40
0.8124999999999999
 40
0.8437499999999999
 40
0.8437499999999999
 40
0.8749999999999999
 40
0.8749999999999999
 40
0.9375
 40
0.9375
 40
1.0
 40
1.0
 40
1.0
 40
1.0
 10
194.3831226866451
 20
113.4870864544784
 30
0.0
 10
194.3035600816141
 20
113.2303899808759
 30
0.0
 10
194.1842984773122
 20
112.9932622119907
 30
0.0
 10
193.960901727219
 20
112.66907991521
 30
0.0
 10
193.8802102134006
 20
112.5682762948208
 30
0.0
 10
193.7064869928507
 20
112.3798481167811
 30
0.0
 10
193.61269814847
 20
112.2916573160211
 30
0.0
 10
193.4154423314956
 20
112.1327174789556
 30
0.0
 10
193.3120085229735
 20
112.061682290434
 30
0.0
 10
193.0922668236743
 20
111.9380685976976
 30
0.0
 10
192.9746211379669
 20
111.8849148100058
 30
0.0
 10
192.725350512949
 20
111.8057892323094
 30
0.0
 10
192.5943661428686
 20
111.7803108075062
 30
0.0
 10
192.3262876521668
 20
111.7662238969525
 30
0.0
 10
192.1934221764785
 20
111.7777531798459
 30
0.0
 10
191.9336386847434
 20
111.8342067662189
 30
0.0
 10
191.8121284962771
 20
111.8774259915611
 30
0.0
 10
191.5798017668833
 20
111.9863822233076
 30
0.0
 10
191.4697014904415
 20
112.0521294800398
 30
0.0
 10
191.2639681093558
 20
112.1984552431317
 30
0.0
 10
191.167262545608
 20
112.2796121053032
 30
0.0
 10
190.983999245873
 20
112.4575898488984
 30
0.0
 10
190.8973008384852
 20
112.554906847296
 30
0.0
 10
190.7393422715843
 20
112.7596416405576
 30
0.0
 10
190.6672951721222
 20
112.8677307974032
 30
0.0
 10
190.5377831164885
 20
113.0965599837236
 30
0.0
 10
190.4797962001255
 20
113.2188941967528
 30
0.0
 10
190.3852124323874
 20
113.4684628219648
 30
0.0
 10
190.3481400575836
 20
113.5959745374312
 30
0.0
 10
190.2969252463929
 20
113.8570573998087
 30
0.0
 10
190.2837023314963
 20
113.9869274885105
 30
0.0
 10
190.2825804964
 20
114.2398513347486
 30
0.0
 10
190.2950169354099
 20
114.3653049991474
 30
0.0
 10
190.3438758973982
 20
114.599268585668
 30
0.0
 10
190.3801048478543
 20
114.7091358902984
 30
0.0
 10
190.4739660978729
 20
114.9138493435267
 30
0.0
 10
190.5303107578183
 20
115.0061684644548
 30
0.0
 10
190.6597249466385
 20
115.1741593241633
 30
0.0
 10
190.7331254326913
 20
115.2497775583135
 30
0.0
 10
190.8908671614187
 20
115.3820378823296
 30
0.0
 10
190.975757147744
 20
115.4394867014425
 30
0.0
 10
191.1581635278101
 20
115.5397668603742
 30
0.0
 10
191.2563770650555
 20
115.5827432639218
 30
0.0
 10
191.4625524854182
 20
115.653834044719
 30
0.0
 10
191.5708251246687
 20
115.6822807335844
 30
0.0
 10
191.8023794082642
 20
115.7270209932396
 30
0.0
 10
191.9262650891248
 20
115.7432135319998
 30
0.0
 10
192.1833471099107
 20
115.7632262444016
 30
0.0
 10
192.3195022299759
 20
115.7672079451927
 30
0.0
 10
192.5849865012291
 20
115.7630677583303
 30
0.0
 10
192.7181651614749
 20
115.7548686702263
 30
0.0
 10
192.9665005378644
 20
115.7265489529047
 30
0.0
 10
193.0848320841731
 20
115.706231582688
 30
0.0
 10
193.3079999727275
 20
115.6525372133387
 30
0.0
 10
193.4120562132325
 20
115.6194860180292
 30
0.0
 10
193.7079342189998
 20
115.4988347184066
 30
0.0
 10
193.8850772160796
 20
115.3882372913732
 30
0.0
 10
194.1806689773466
 20
115.1018578312546
 30
0.0
 10
194.3033691888065
 20
114.9215524179761
 30
0.0
 10
194.383122686645
 20
114.705033060611
 30
0.0
  0
ARC
  5
167
330
1F
100
AcDbEntity
  8
0
  6
HIDDEN
 62
     7
370
     0
100
AcDbCircle
 10
192.3373300681
 20
117.111999946
 30
0.0
 40
2.087343482826421
100
AcDbArc
 50
113.5743042392
 51
140.0422736411
  0
LINE
  5
168
330
1F
100
AcDbEntity
  8
0
  6
HIDDEN
 62
     7
370
     0
100
AcDbLine
 10
181.8267931613
 20
125.1992864476
 30
0.0
 11
189.6622463983
 21
125.1992864476
 31
0.0
  0
LINE
  5
169
330
1F
100
AcDbEntity
  8
0
  6
HIDDEN
 62
     7
370
     0
100
AcDbLine
 10
184.3431226866
 20
126.8651336279
 30
0.0
 11
184.3431226866
 21
130.7518904194
 31
0.0
  0
LINE
  5
16A
330
1F
100
AcDbEntity
  8
0
  6
HIDDEN
 62
     7
370
     0
100
AcDbLine
 10
186.4231226866
 20
126.8651336279
 30
0.0
 11
186.4231226867
 21
130.7518904194
 31
0.0
  0
LINE
  5
16B
330
1F
100
AcDbEntity
  8
0
  6
HIDDEN
 62
     7
370
     0
100
AcDbLine
 10
149.4831226866
 20
103.4842803045
 30
0.0
 11
149.4831226866
 21
123.2142925907
 31
0.0
  0
LINE
  5
16C
330
1F
100
AcDbEntity
  8
0
  6
HIDDEN
 62
     7
370
     0
100
AcDbLine
 10
175.5524979368
 20
123.8492864476
 30
0.0
 11
175.5524979368
 21
102.8492864476
 31
0.0
  0
LINE
  5
16D
330
1F
100
AcDbEntity
  8
0
  6
HIDDEN
 62
     7
370
     0
100
AcDbLine
 10
177.3331226866
 20
123.2242864279
 30
0.0
 11
177.3331226866
 21
103.4742864476
 31
0.0
  0
LINE
  5
16E
330
1F
100
AcDbEntity
  8
0
  6
HIDDEN
 62
     7
370
     0
100
AcDbLine
 10
150.4921226866
 20
103.6271033594
 30
0.0
 11
154.6831226866
 21
103.6271033594
 31
0.0
  0
ARC
  5
16F
330
1F
100
AcDbEntity
  8
0
  6
HIDDEN
 62
     7
370
     0
100
AcDbCircle
 10
154.4581226866
 20
113.3492864476
 30
0.0
 40
10.49999999999998
100
AcDbArc
 50
247.4596895365
 51
247.8078280674
  0
LINE
  5
170
330
1F
100
AcDbEntity
  8
0
  6
HIDDEN
 62
     7
370
     0
100
AcDbLine
 10
150.4331226866
 20
123.0471921494
 30
0.0
 11
150.4331226866
 21
103.6513807459
 31
0.0
  0
LINE
  5
171
330
1F
100
AcDbEntity
  8
0
  6
HIDDEN
 62
     7
370
     0
100
AcDbLine
 10
152.1831226866
 20
123.0471921494
 30
0.0
 11
150.4331226866
 21
123.0471921494
 31
0.0
  0
SPLINE
  5
172
330
1F
100
AcDbEntity
  8
0
  6
HIDDEN
 62
     7
370
     0
100
AcDbSpline
210
0.0
220
0.0
230
1.0
 70
     8
 71
     3
 72
    14
 73
    10
 74
     0
 42
0.00000001
 43
0.00000001
 12
1.0
 22
0.0
 32
0.0
 13
1.0
 23
0.0
 33
0.0
 40
0.0
 40
0.0
 40
0.0
 40
0.0
 40
0.25
 40
0.25
 40
0.5
 40
0.5
 40
0.75
 40
0.75
 40
1.0
 40
1.0
 40
1.0
 40
1.0
 10
153.0831226866451
 20
123.3734759410343
 30
0.0
 10
153.0831226866451
 20
123.3370040765005
 30
0.0
 10
153.060752054841
 20
123.299268323988
 30
0.0
 10
152.9735365235927
 20
123.2241326022885
 30
0.0
 10
152.9095153175161
 20
123.1877603160664
 30
0.0
 10
152.7460300197748
 20
123.1235367769043
 30
0.0
 10
152.6467151456016
 20
123.0960138142819
 30
0.0
 10
152.4268888748965
 20
123.0578416473948
 30
0.0
 10
152.3058853125874
 20
123.0471921493621
 30
0.0
 10
152.1831226866451
 20
123.0471921493621
 30
0.0
  0
LINE
  5
173
330
1F
100
AcDbEntity
  8
0
  6
HIDDEN
 62
     7
370
     0
100
AcDbLine
 10
153.0831226866
 20
123.373475941
 30
0.0
 11
153.0831226866
 21
123.8492864476
 31
0.0
  0
SPLINE
  5
174
330
1F
100
AcDbEntity
  8
0
  6
HIDDEN
 62
     7
370
     0
100
AcDbSpline
210
0.0
220
0.0
230
1.0
 70
     8
 71
     3
 72
    14
 73
    10
 74
     0
 42
0.00000001
 43
0.00000001
 12
1.0
 22
0.0
 32
0.0
 13
1.0
 23
0.0
 33
0.0
 40
0.0
 40
0.0
 40
0.0
 40
0.0
 40
0.2500000000000001
 40
0.2500000000000001
 40
0.5000000000000002
 40
0.5000000000000002
 40
0.7500000000000003
 40
0.7500000000000003
 40
1.0
 40
1.0
 40
1.0
 40
1.0
 10
153.0831226866451
 20
123.3734759410343
 30
0.0
 10
153.0831226866451
 20
123.3370040765005
 30
0.0
 10
153.060752054841
 20
123.299268323988
 30
0.0
 10
152.9735365235928
 20
123.2241326022885
 30
0.0
 10
152.9095153175161
 20
123.1877603160664
 30
0.0
 10
152.7460300197748
 20
123.1235367769043
 30
0.0
 10
152.6467151456016
 20
123.0960138142819
 30
0.0
 10
152.4268888748965
 20
123.0578416473948
 30
0.0
 10
152.3058853125874
 20
123.0471921493621
 30
0.0
 10
152.1831226866451
 20
123.0471921493621
 30
0.0
  0
SPLINE
  5
175
330
1F
100
AcDbEntity
  8
0
  6
HIDDEN
 62
     7
370
     0
100
AcDbSpline
210
0.0
220
0.0
230
1.0
 70
     8
 71
     3
 72
    14
 73
    10
 74
     0
 42
0.00000001
 43
0.00000001
 12
1.0
 22
0.0
 32
0.0
 13
1.0
 23
0.0
 33
0.0
 40
0.0
 40
0.0
 40
0.0
 40
0.0
 40
0.2499999999999998
 40
0.2499999999999998
 40
0.4999999999999999
 40
0.4999999999999999
 40
0.75
 40
0.75
 40
1.0
 40
1.0
 40
1.0
 40
1.0
 10
154.683122686645
 20
103.6271033594387
 30
0.0
 10
154.805590774564
 20
103.6271033594387
 30
0.0
 10
154.9258018534328
 20
103.6167663397188
 30
0.0
 10
155.1460081726854
 20
103.5792991111408
 30
0.0
 10
155.2456636253835
 20
103.5521679428516
 30
0.0
 10
155.4086509783392
 20
103.4894008966447
 30
0.0
 10
155.4733883390857
 20
103.4533372027178
 30
0.0
 10
155.5602236892028
 20
103.3801445328497
 30
0.0
 10
155.5831226866451
 20
103.3426017473387
 30
0.0
 10
155.5831226866451
 20
103.3068941031573
 30
0.0
  0
LINE
  5
176
330
1F
100
AcDbEntity
  8
0
  6
HIDDEN
 62
     7
370
     0
100
AcDbLine
 10
155.5831226866
 20
103.3068941032
 30
0.0
 11
155.5831226866
 21
102.8492864476
 31
0.0
  0
SPLINE
  5
177
330
1F
100
AcDbEntity
  8
0
  6
HIDDEN
 62
     7
370
     0
100
AcDbSpline
210
0.0
220
0.0
230
1.0
 70
     8
 71
     3
 72
    14
 73
    10
 74
     0
 42
0.00000001
 43
0.00000001
 12
1.0
 22
0.0
 32
0.0
 13
1.0
 23
0.0
 33
0.0
 40
0.0
 40
0.0
 40
0.0
 40
0.0
 40
0.2500000000000003
 40
0.2500000000000003
 40
0.5000000000000002
 40
0.5000000000000002
 40
0.7500000000000001
 40
0.7500000000000001
 40
1.0
 40
1.0
 40
1.0
 40
1.0
 10
154.6831226866451
 20
103.6271033594387
 30
0.0
 10
154.805590774564
 20
103.6271033594387
 30
0.0
 10
154.9258018534328
 20
103.6167663397188
 30
0.0
 10
155.1460081726854
 20
103.5792991111408
 30
0.0
 10
155.2456636253835
 20
103.5521679428516
 30
0.0
 10
155.4086509783392
 20
103.4894008966447
 30
0.0
 10
155.4733883390857
 20
103.4533372027178
 30
0.0
 10
155.5602236892028
 20
103.3801445328497
 30
0.0
 10
155.5831226866451
 20
103.3426017473387
 30
0.0
 10
155.5831226866451
 20
103.3068941031573
 30
0.0
  0
LINE
  5
178
330
1F
100
AcDbEntity
  8
0
  6
HIDDEN
 62
     7
370
     0
100
AcDbLine
 10
150.4331226866
 20
103.6513807459
 30
0.0
 11
150.4331226866
 21
123.0471921494
 31
0.0
  0
LINE
  5
179
330
1F
100
AcDbEntity
  8
0
  6
HIDDEN
 62
     7
370
     0
100
AcDbLine
 10
149.5091669797
 20
124.829100186
 30
0.0
 11
150.099211489
 21
125.3835606573
 31
0.0
  0
LINE
  5
17A
330
1F
100
AcDbEntity
  8
0
  6
HIDDEN
 62
     7
370
     0
100
AcDbLine
 10
150.2086314576
 20
101.2676329654
 30
0.0
 11
149.4885379434
 21
101.944299527
 31
0.0
  0
LINE
  5
17B
330
1F
100
AcDbEntity
  8
0
  6
HIDDEN
 62
     7
370
     0
100
AcDbLine
 10
153.0831226866
 20
124.3492864476
 30
0.0
 11
153.0831226866
 21
126.9068105694
 31
0.0
  0
LINE
  5
17C
330
1F
100
AcDbEntity
  8
0
  6
HIDDEN
 62
     7
370
     0
100
AcDbLine
 10
155.5831226866
 20
102.3492864476
 30
0.0
 11
155.5831226866
 21
99.7125397495
 31
0.0
  0
LINE
  5
17D
330
1F
100
AcDbEntity
  8
0
  6
HIDDEN
 62
     7
370
     0
100
AcDbLine
 10
150.4331226866
 20
124.3492864476
 30
0.0
 11
150.4331226866
 21
126.2292864476
 31
0.0
  0
LINE
  5
17E
330
1F
100
AcDbEntity
  8
0
  6
HIDDEN
 62
     7
370
     0
100
AcDbLine
 10
149.4831226866
 20
124.3492864476
 30
0.0
 11
149.4831226866
 21
125.2792864476
 31
0.0
  0
LINE
  5
17F
330
1F
100
AcDbEntity
  8
0
  6
HIDDEN
 62
     7
370
     0
100
AcDbLine
 10
150.4921226866
 20
102.3492864476
 30
0.0
 11
150.4921226866
 21
100.4692864476
 31
0.0
  0
LINE
  5
180
330
1F
100
AcDbEntity
  8
0
  6
HIDDEN
 62
     7
370
     0
100
AcDbLine
 10
149.4831226866
 20
102.3492864476
 30
0.0
 11
149.4831226866
 21
101.4782864476
 31
0.0
  0
LINE
  5
181
330
1F
100
AcDbEntity
  8
0
  6
HIDDEN
 62
     7
370
     0
100
AcDbLine
 10
204.7850464753
 20
95.3492864476
 30
0.0
 11
204.7850464753
 21
113.3492864476
 31
0.0
  0
SPLINE
  5
182
330
1F
100
AcDbEntity
  8
0
  6
HIDDEN
 62
     7
370
     0
100
AcDbSpline
210
0.0
220
0.0
230
1.0
 70
     8
 71
     3
 72
    12
 73
     8
 74
     0
 42
0.00000001
 43
0.00000001
 12
1.0
 22
0.0
 32
0.0
 13
1.0
 23
0.0
 33
0.0
 40
0.0
 40
0.0
 40
0.0
 40
0.0
 40
0.5
 40
0.5
 40
0.75
 40
0.75
 40
1.0
 40
1.0
 40
1.0
 40
1.0
 10
206.5833128304674
 20
130.2798642059454
 30
0.0
 10
206.0685183788195
 20
127.4756974382292
 30
0.0
 10
205.6179836511459
 20
124.6662735168649
 30
0.0
 10
205.1341574785908
 20
120.4364318888195
 30
0.0
 10
205.0055413089038
 20
119.023812795232
 30
0.0
 10
204.8308363667851
 20
116.1918229574006
 30
0.0
 10
204.7850464752918
 20
114.7724277614019
 30
0.0
 10
204.7850464752918
 20
113.3492864476139
 30
0.0
  0
SPLINE
  5
183
330
1F
100
AcDbEntity
  8
0
  6
HIDDEN
 62
     7
370
     0
100
AcDbSpline
210
0.0
220
0.0
230
1.0
 70
     8
 71
     3
 72
    18
 73
    14
 74
     0
 42
0.00000001
 43
0.00000001
 12
1.0
 22
0.0
 32
0.0
 13
1.0
 23
0.0
 33
0.0
 40
0.0
 40
0.0
 40
0.0
 40
0.0
 40
0.0710117485989882
 40
0.2076995713005324
 40
0.3463851950628702
 40
0.4197010420551417
 40
0.4906747237071651
 40
0.5589086462481428
 40
0.6931476477432919
 40
0.7591812867014346
 40
0.8392860541725614
 40
0.9649790543326254
 40
1.0
 40
1.0
 40
1.0
 40
1.0
 10
206.5833128304674
 20
130.2798642059454
 30
0.0
 10
206.5821147275769
 20
130.6177684431625
 30
0.0
 10
206.5786104418547
 20
131.6060917360722
 30
0.0
 10
206.5736484794756
 20
133.0882065654827
 30
0.0
 10
206.5695417757015
 20
134.3811817006185
 30
0.0
 10
206.5667717278636
 20
135.2879047537689
 30
0.0
 10
206.5649606413275
 20
135.8952889861265
 30
0.0
 10
206.5629558085632
 20
136.5824290517245
 30
0.0
 10
206.5614375744601
 20
137.1187199407207
 30
0.0
 10
206.5602843861406
 20
137.5335495452303
 30
0.0
 10
206.5594994503938
 20
137.8192885897992
 30
0.0
 10
206.5590444673794
 20
137.9870319610671
 30
0.0
 10
206.5591402860339
 20
137.9517583828196
 30
0.0
 10
206.5591611657396
 20
137.944071967923
 30
0.0
  0
ELLIPSE
  5
184
330
1F
100
AcDbEntity
  8
0
  6
HIDDEN
 62
     7
370
     0
100
AcDbEllipse
 10
219.2621763234
 20
113.3492864476
 30
0.0
 11
12.8082609601664
 21
17.99807758938465
 31
0.0
210
0.0
220
0.0
230
1.0
 40
0.0205386817
 41
1.585411557947094
 42
3.156207884742678
  0
LINE
  5
185
330
1F
100
AcDbEntity
  8
0
  6
HIDDEN
 62
     7
370
     0
100
AcDbLine
 10
185.1831226866
 20
119.5992864476
 30
0.0
 11
185.1831226866
 21
107.0992864476
 31
0.0
  0
LINE
  5
186
330
1F
100
AcDbEntity
  8
0
  6
HIDDEN
 62
     7
370
     0
100
AcDbLine
 10
182.6831226866
 20
119.5992864476
 30
0.0
 11
182.6831226866
 21
107.0992864476
 31
0.0
  0
LINE
  5
187
330
1F
100
AcDbEntity
  8
0
  6
HIDDEN
 62
     7
370
     0
100
AcDbLine
 10
177.8331226866
 20
118.8492864476
 30
0.0
 11
177.8331226866
 21
107.8492864476
 31
0.0
  0
LINE
  5
188
330
1F
100
AcDbEntity
  8
0
  6
HIDDEN
 62
     7
370
     0
100
AcDbLine
 10
177.3331226866
 20
107.3492864476
 30
0.0
 11
177.3331226866
 21
119.3369588041
 31
0.0
  0
LINE
  5
189
330
1F
100
AcDbEntity
  8
0
  6
HIDDEN
 62
     7
370
     0
100
AcDbLine
 10
184.3783450872
 20
96.4492864476
 30
0.0
 11
181.8331226866
 21
96.4492864476
 31
0.0
  0
LINE
  5
18A
330
1F
100
AcDbEntity
  8
0
  6
HIDDEN
 62
     7
370
     0
100
AcDbLine
 10
184.3431226866
 20
96.2364075256
 30
0.0
 11
184.3431226866
 21
95.9201630596
 31
0.0
  0
LINE
  5
18B
330
1F
100
AcDbEntity
  8
0
  6
HIDDEN
 62
     7
370
     0
100
AcDbLine
 10
177.3331226866
 20
93.3743020922
 30
0.0
 11
177.3331226866
 21
96.4492864476
 31
0.0
  0
LINE
  5
18C
330
1F
100
AcDbEntity
  8
0
  6
HIDDEN
 62
     7
370
     0
100
AcDbLine
 10
181.8331226866
 20
96.4492864476
 30
0.0
 11
177.3331226866
 21
96.4492864476
 31
0.0
  0
LINE
  5
18D
330
1F
100
AcDbEntity
  8
0
  6
HIDDEN
 62
     7
370
     0
100
AcDbLine
 10
189.3331226866
 20
96.4492864476
 30
0.0
 11
186.3879002861
 21
96.4492864476
 31
0.0
  0
LINE
  5
18E
330
1F
100
AcDbEntity
  8
0
  6
HIDDEN
 62
     7
370
     0
100
AcDbLine
 10
186.4231226866
 20
95.9201630596
 30
0.0
 11
186.4231226866
 21
96.2364075256
 31
0.0
  0
LINE
  5
18F
330
1F
100
AcDbEntity
  8
0
  6
HIDDEN
 62
     7
370
     0
100
AcDbLine
 10
189.3331226866
 20
96.4492864476
 30
0.0
 11
189.3331226866
 21
94.7452546265
 31
0.0
  0
LINE
  5
190
330
1F
100
AcDbEntity
  8
0
  6
HIDDEN
 62
     7
370
     0
100
AcDbLine
 10
182.6831226866
 20
107.8492864476
 30
0.0
 11
182.6831226866
 21
118.83700428
 31
0.0
  0
ELLIPSE
  5
191
330
1F
100
AcDbEntity
  8
0
  6
HIDDEN
 62
     7
370
     0
100
AcDbEllipse
 10
147.3773559469
 20
113.3492864476
 30
0.0
 11
12.26424774976724
 21
0.0
 31
0.0
210
0.0
220
0.0
230
1.0
 40
0.8164965809
 41
1.318982952866331
 42
1.39824167007062
  0
LINE
  5
192
330
1F
100
AcDbEntity
  8
0
  6
HIDDEN
 62
     7
370
     0
100
AcDbLine
 10
149.4831226866
 20
124.3492864476
 30
0.0
 11
149.4831226866
 21
123.2142925907
 31
0.0
  0
ELLIPSE
  5
193
330
1F
100
AcDbEntity
  8
0
  6
HIDDEN
 62
     7
370
     0
100
AcDbEllipse
 10
147.3773559469
 20
113.3492864476
 30
0.0
 11
12.26424774976726
 21
0.0
 31
0.0
210
0.0
220
0.0
230
1.0
 40
0.8164965809
 41
4.884943637108976
 42
4.964202354313269
  0
LINE
  5
194
330
1F
100
AcDbEntity
  8
0
  6
HIDDEN
 62
     7
370
     0
100
AcDbLine
 10
149.4831226866
 20
102.3492864476
 30
0.0
 11
149.4831226866
 21
103.4842803045
 31
0.0
  0
LINE
  5
195
330
1F
100
AcDbEntity
  8
0
  6
HIDDEN
 62
     7
370
     0
100
AcDbLine
 10
184.5914670724
 20
130.2492864476
 30
0.0
 11
181.8331226866
 21
130.2492864476
 31
0.0
  0
LINE
  5
196
330
1F
100
AcDbEntity
  8
0
  6
HIDDEN
 62
     7
370
     0
100
AcDbLine
 10
184.3431226866
 20
130.7518904194
 30
0.0
 11
184.3431226866
 21
131.0629631431
 31
0.0
  0
LINE
  5
197
330
1F
100
AcDbEntity
  8
0
  6
HIDDEN
 62
     7
370
     0
100
AcDbLine
 10
181.8331226866
 20
130.2492864476
 30
0.0
 11
177.3331226866
 21
130.2492864476
 31
0.0
  0
LINE
  5
198
330
1F
100
AcDbEntity
  8
0
  6
HIDDEN
 62
     7
370
     0
100
AcDbLine
 10
189.3331848098
 20
130.2492864476
 30
0.0
 11
186.1747783009
 21
130.2492864476
 31
0.0
  0
LINE
  5
199
330
1F
100
AcDbEntity
  8
0
  6
HIDDEN
 62
     7
370
     0
100
AcDbLine
 10
186.4231226866
 20
131.0629631431
 30
0.0
 11
186.4231226867
 21
130.7518904194
 31
0.0
  0
LINE
  5
19A
330
1F
100
AcDbEntity
  8
0
  6
HIDDEN
 62
     7
370
     0
100
AcDbLine
 10
189.3331226866
 20
130.2608209729
 30
0.0
 11
189.3331226866
 21
132.2201634808
 31
0.0
  0
LINE
  5
19B
330
1F
100
AcDbEntity
  8
0
  6
HIDDEN
 62
     7
370
     0
100
AcDbLine
 10
150.4331226866
 20
124.3492864476
 30
0.0
 11
150.4331226866
 21
123.0471921494
 31
0.0
  0
LINE
  5
19C
330
1F
100
AcDbEntity
  8
0
  6
HIDDEN
 62
     7
370
     0
100
AcDbLine
 10
153.0831226866
 20
124.3492864476
 30
0.0
 11
153.0831226866
 21
123.373475941
 31
0.0
  0
LINE
  5
19D
330
1F
100
AcDbEntity
  8
0
  6
HIDDEN
 62
     7
370
     0
100
AcDbLine
 10
150.4921226866
 20
102.3492864476
 30
0.0
 11
150.4921226866
 21
103.6271033594
 31
0.0
  0
LINE
  5
19E
330
1F
100
AcDbEntity
  8
0
  6
HIDDEN
 62
     7
370
     0
100
AcDbLine
 10
155.5831226866
 20
102.3492864476
 30
0.0
 11
155.5831226866
 21
103.3068941032
 31
0.0
  0
CIRCLE
  5
19F
330
1F
100
AcDbEntity
  8
0
  6
HIDDEN
 62
     7
370
     0
100
AcDbCircle
 10
212.9916477909
 20
121.5106707614
 30
0.0
 40
3.477935630307773
  0
SPLINE
  5
1A0
330
1F
100
AcDbEntity
  8
0
  6
HIDDEN
 62
     7
370
     0
100
AcDbSpline
210
0.0
220
0.0
230
1.0
 70
     8
 71
     3
 72
    35
 73
    31
 74
     0
 42
0.00000001
 43
0.00000001
 12
1.0
 22
0.0
 32
0.0
 13
1.0
 23
0.0
 33
0.0
 40
-0.0968759714501678
 40
-0.0666637413392595
 40
-0.0343786692036793
 40
0.0
 40
0.0402501655240889
 40
0.0744868222978072
 40
0.1027071321015611
 40
0.1249179508766863
 40
0.1620537620812717
 40
0.2036866237637161
 40
0.2499064447776642
 40
0.2843401084276782
 40
0.3106265058334255
 40
0.3287516660583773
 40
0.3698185614124522
 40
0.4071583507675757
 40
0.4519490945103022
 40
0.5000414664482495
 40
0.5203026886864477
 40
0.5628788326113423
 40
0.5977565701891678
 40
0.6256573753262039
 40
0.686051353519073
 40
0.7499481360754279
 40
0.7710338114890904
 40
0.8124324596666909
 40
0.8472054374201765
 40
0.874958922179045
 40
0.9031240285498322
 40
0.9333362586607405
 40
0.9656213307963207
 40
1.0
 40
1.040250165524089
 40
1.074486822297807
 40
1.102707132101561
 10
161.226896467583
 20
99.10844053566628
 30
0.0
 10
161.4655592575935
 20
99.14500799515838
 30
0.0
 10
161.8119935760245
 20
99.1854187977117
 30
0.0
 10
162.2167536625957
 20
99.21479257865766
 30
0.0
 10
162.5903520821095
 20
99.23199975919292
 30
0.0
 10
162.9989828670287
 20
99.2371925572488
 30
0.0
 10
163.4890496094753
 20
99.212264241699
 30
0.0
 10
164.0874399162147
 20
99.1514473393422
 30
0.0
 10
164.6225661190597
 20
99.06393456412748
 30
0.0
 10
165.0168224254318
 20
98.98017773993134
 30
0.0
 10
165.2567514510598
 20
98.92229517194997
 30
0.0
 10
165.4705331996215
 20
98.8642823119197
 30
0.0
 10
165.638301015927
 20
98.8177481166614
 30
0.0
 10
165.7087646369465
 20
98.79568717994786
 30
0.0
 10
165.6192394446082
 20
98.82446391586736
 30
0.0
 10
165.386402950368
 20
98.88602610516094
 30
0.0
 10
165.0669687979218
 20
98.96996677490138
 30
0.0
 10
164.7148772533232
 20
99.04495942448202
 30
0.0
 10
164.2671766950039
 20
99.1227341183173
 30
0.0
 10
163.7003031598298
 20
99.1996185086963
 30
0.0
 10
162.9474529478861
 20
99.24490771945088
 30
0.0
 10
162.2762815005628
 20
99.22743421529512
 30
0.0
 10
161.7914884106515
 20
99.18266510381707
 30
0.0
 10
161.47713170575
 20
99.14711586982428
 30
0.0
 10
161.2422977526817
 20
99.11143012178576
 30
0.0
 10
161.1173594266051
 20
99.08864807141845
 30
0.0
 10
161.0705351200865
 20
99.08166962050463
 30
0.0
 10
161.102048752277
 20
99.08862818655464
 30
0.0
 10
161.226896467583
 20
99.10844053566628
 30
0.0
 10
161.4655592575935
 20
99.14500799515838
 30
0.0
 10
161.8119935760245
 20
99.1854187977117
 30
0.0
  0
SPLINE
  5
1A1
330
1F
100
AcDbEntity
  8
0
  6
HIDDEN
 62
     7
370
     0
100
AcDbSpline
210
0.0
220
0.0
230
1.0
 70
     8
 71
     3
 72
    35
 73
    31
 74
     0
 42
0.00000001
 43
0.00000001
 12
1.0
 22
0.0
 32
0.0
 13
1.0
 23
0.0
 33
0.0
 40
-0.1243198177520264
 40
-0.101487746967131
 40
-0.0608367563974259
 40
0.0
 40
0.0343712166259781
 40
0.0666387492000061
 40
0.0968233043257247
 40
0.1249505753809187
 40
0.1526662634896876
 40
0.1874715367338191
 40
0.2288808094652649
 40
0.2500284990770703
 40
0.3139875781755293
 40
0.3744836764365121
 40
0.4023317405726182
 40
0.4371113310319515
 40
0.4795885132661604
 40
0.4997903583980673
 40
0.5479907218495682
 40
0.5929884342252247
 40
0.6398023656129421
 40
0.6945155365638864
 40
0.7285101556289375
 40
0.7625224506971582
 40
0.7965528224365964
 40
0.8145532956153518
 40
0.833722832152147
 40
0.854090428074889
 40
0.8756801822479736
 40
0.898512253032869
 40
0.9391632436025741
 40
1.0
 40
1.034371216625978
 40
1.066638749200006
 40
1.096823304325725
 10
161.9824373725533
 20
127.4954656306441
 30
0.0
 10
161.5110113160762
 20
127.546356306284
 30
0.0
 10
161.2271176125477
 20
127.5900738942737
 30
0.0
 10
161.1021663766058
 20
127.6098795145246
 30
0.0
 10
161.0705544171405
 20
127.6168646880676
 30
0.0
 10
161.1170412546263
 20
127.6099216631079
 30
0.0
 10
161.2415018774317
 20
127.5871386068877
 30
0.0
 10
161.4758515964795
 20
127.5514670433503
 30
0.0
 10
161.7901448121223
 20
127.5159170226636
 30
0.0
 10
162.2750704939867
 20
127.4711460410584
 30
0.0
 10
162.9470249779662
 20
127.4536606068661
 30
0.0
 10
163.7003023207724
 20
127.4988983222642
 30
0.0
 10
164.2667863677829
 20
127.5756299834836
 30
0.0
 10
164.71337985477
 20
127.6532419044002
 30
0.0
 10
165.0647676775293
 20
127.728066070783
 30
0.0
 10
165.3846596049765
 20
127.8120234529794
 30
0.0
 10
165.6187290674317
 20
127.8736113526709
 30
0.0
 10
165.7154935489273
 20
127.9050133291036
 30
0.0
 10
165.610027526038
 20
127.8709919664609
 30
0.0
 10
165.3105939891098
 20
127.7882367825263
 30
0.0
 10
164.9111481666019
 20
127.6984463180004
 30
0.0
 10
164.5103828027138
 20
127.625293100095
 30
0.0
 10
164.1304341332846
 20
127.5580575209805
 30
0.0
 10
163.7994484504315
 20
127.510318682621
 30
0.0
 10
163.5243644915902
 20
127.4855455243815
 30
0.0
 10
163.2291298321752
 20
127.4692355903304
 30
0.0
 10
162.9183952112815
 20
127.462473851745
 30
0.0
 10
162.5218126875588
 20
127.4644982113236
 30
0.0
 10
161.9824373725533
 20
127.4954656306441
 30
0.0
 10
161.5110113160762
 20
127.546356306284
 30
0.0
 10
161.2271176125477
 20
127.5900738942737
 30
0.0
  0
CIRCLE
  5
1A2
330
1F
100
AcDbEntity
  8
0
  6
HIDDEN
 62
     7
370
     0
100
AcDbCircle
 10
212.5652346322
 20
121.0865935386
 30
0.0
 40
3.477935630307774
  0
ARC
  5
1A3
330
1F
100
AcDbEntity
  8
0
  6
HIDDEN
 62
     7
370
     0
100
AcDbCircle
 10
209.3420505638
 20
128.4283362557
 30
0.0
 40
2.349420408458708
100
AcDbArc
 50
126.8283778958
 51
274.5990531588
  0
LINE
  5
1A4
330
1F
100
AcDbEntity
  8
0
  6
HIDDEN
 62
     7
370
     0
100
AcDbLine
 10
222.2677526962
 20
127.5119226477
 30
0.0
 11
221.7764689188
 21
127.0233301743
 31
0.0
  0
LINE
  5
1A5
330
1F
100
AcDbEntity
  8
0
  6
HIDDEN
 62
     7
370
     0
100
AcDbLine
 10
221.2641796151
 20
116.0520554807
 30
0.0
 11
219.0892147624
 21
113.889005313
 31
0.0
  0
LINE
  5
1A6
330
1F
100
AcDbEntity
  8
0
  6
HIDDEN
 62
     7
370
     0
100
AcDbLine
 10
194.3831226866
 20
113.4870864545
 30
0.0
 11
194.3831226866
 21
110.8492864476
 31
0.0
  0
SPLINE
  5
1A7
330
1F
100
AcDbEntity
  8
0
  6
HIDDEN
 62
     7
370
     0
100
AcDbSpline
210
0.0
220
0.0
230
1.0
 70
     8
 71
     3
 72
    12
 73
     8
 74
     0
 42
0.00000001
 43
0.00000001
 12
1.0
 22
0.0
 32
0.0
 13
1.0
 23
0.0
 33
0.0
 40
0.0
 40
0.0
 40
0.0
 40
0.0
 40
0.4999999999999998
 40
0.4999999999999998
 40
0.7499999999999999
 40
0.7499999999999999
 40
1.0
 40
1.0
 40
1.0
 40
1.0
 10
194.3831226866451
 20
111.9935398346171
 30
0.0
 10
194.442841543936
 20
112.2081199456795
 30
0.0
 10
194.4830288782032
 20
112.441890440633
 30
0.0
 10
194.483169330183
 20
112.7703043574215
 30
0.0
 10
194.4736431829132
 20
112.8730386404878
 30
0.0
 10
194.4383227187411
 20
113.0595799544982
 30
0.0
 10
194.4130065390781
 20
113.1413182227099
 30
0.0
 10
194.3831226866451
 20
113.2114864407488
 30
0.0
  0
LINE
  5
1A8
330
1F
100
AcDbEntity
  8
0
  6
HIDDEN
 62
     7
370
     0
100
AcDbLine
 10
194.3831226866
 20
113.2114864407
 30
0.0
 11
194.3831226866
 21
115.8492864476
 31
0.0
  0
SPLINE
  5
1A9
330
1F
100
AcDbEntity
  8
0
  6
HIDDEN
 62
     7
370
     0
100
AcDbSpline
210
0.0
220
0.0
230
1.0
 70
     8
 71
     3
 72
    64
 73
    60
 74
     0
 42
0.00000001
 43
0.00000001
 12
1.0
 22
0.0
 32
0.0
 13
1.0
 23
0.0
 33
0.0
 40
0.0
 40
0.0
 40
0.0
 40
0.0
 40
0.0625000000000001
 40
0.0625000000000001
 40
0.0937500000000002
 40
0.0937500000000002
 40
0.1250000000000002
 40
0.1250000000000002
 40
0.1562500000000003
 40
0.1562500000000003
 40
0.1875000000000003
 40
0.1875000000000003
 40
0.2187500000000004
 40
0.2187500000000004
 40
0.2500000000000004
 40
0.2500000000000004
 40
0.2812500000000005
 40
0.2812500000000005
 40
0.3125000000000006
 40
0.3125000000000006
 40
0.3437500000000006
 40
0.3437500000000006
 40
0.3750000000000007
 40
0.3750000000000007
 40
0.4062500000000007
 40
0.4062500000000007
 40
0.4375000000000008
 40
0.4375000000000008
 40
0.4687500000000008
 40
0.4687500000000008
 40
0.5000000000000008
 40
0.5000000000000008
 40
0.5312500000000008
 40
0.5312500000000008
 40
0.5625000000000009
 40
0.5625000000000009
 40
0.5937500000000009
 40
0.5937500000000009
 40
0.625000000000001
 40
0.625000000000001
 40
0.656250000000001
 40
0.656250000000001
 40
0.6875000000000011
 40
0.6875000000000011
 40
0.7187500000000011
 40
0.7187500000000011
 40
0.7500000000000012
 40
0.7500000000000012
 40
0.7812500000000012
 40
0.7812500000000012
 40
0.8125000000000013
 40
0.8125000000000013
 40
0.8437500000000013
 40
0.8437500000000013
 40
0.8750000000000014
 40
0.8750000000000014
 40
0.9375000000000008
 40
0.9375000000000008
 40
1.0
 40
1.0
 40
1.0
 40
1.0
 10
194.3831226866451
 20
113.2114864407493
 30
0.0
 10
194.303560081614
 20
113.4681829143519
 30
0.0
 10
194.1842984773121
 20
113.7053106832372
 30
0.0
 10
193.960901727219
 20
114.0294929800179
 30
0.0
 10
193.8802102134005
 20
114.130296600407
 30
0.0
 10
193.7064869928506
 20
114.3187247784467
 30
0.0
 10
193.6126981484699
 20
114.4069155792068
 30
0.0
 10
193.4154423314954
 20
114.5658554162723
 30
0.0
 10
193.3120085229734
 20
114.6368906047939
 30
0.0
 10
193.0922668236742
 20
114.7605042975302
 30
0.0
 10
192.9746211379667
 20
114.813658085222
 30
0.0
 10
192.7253505129489
 20
114.8927836629184
 30
0.0
 10
192.5943661428684
 20
114.9182620877216
 30
0.0
 10
192.3262876521667
 20
114.9323489982753
 30
0.0
 10
192.1934221764784
 20
114.9208197153818
 30
0.0
 10
191.9336386847432
 20
114.8643661290088
 30
0.0
 10
191.812128496277
 20
114.8211469036666
 30
0.0
 10
191.5798017668832
 20
114.7121906719201
 30
0.0
 10
191.4697014904413
 20
114.6464434151879
 30
0.0
 10
191.2639681093557
 20
114.500117652096
 30
0.0
 10
191.1672625456079
 20
114.4189607899245
 30
0.0
 10
190.9839992458728
 20
114.2409830463292
 30
0.0
 10
190.8973008384851
 20
114.1436660479317
 30
0.0
 10
190.7393422715842
 20
113.9389312546701
 30
0.0
 10
190.6672951721221
 20
113.8308420978244
 30
0.0
 10
190.5377831164884
 20
113.6020129115041
 30
0.0
 10
190.4797962001255
 20
113.4796786984748
 30
0.0
 10
190.3852124323874
 20
113.2301100732628
 30
0.0
 10
190.3481400575835
 20
113.1025983577964
 30
0.0
 10
190.2969252463928
 20
112.8415154954189
 30
0.0
 10
190.2837023314962
 20
112.7116454067171
 30
0.0
 10
190.2825804964
 20
112.4587215604791
 30
0.0
 10
190.2950169354098
 20
112.3332678960802
 30
0.0
 10
190.3438758973982
 20
112.0993043095596
 30
0.0
 10
190.3801048478543
 20
111.9894370049293
 30
0.0
 10
190.4739660978729
 20
111.784723551701
 30
0.0
 10
190.5303107578183
 20
111.6924044307729
 30
0.0
 10
190.6597249466385
 20
111.5244135710644
 30
0.0
 10
190.7331254326913
 20
111.4487953369142
 30
0.0
 10
190.8908671614187
 20
111.3165350128981
 30
0.0
 10
190.9757571477441
 20
111.2590861937852
 30
0.0
 10
191.1581635278101
 20
111.1588060348535
 30
0.0
 10
191.2563770650555
 20
111.115829631306
 30
0.0
 10
191.4625524854182
 20
111.0447388505087
 30
0.0
 10
191.5708251246688
 20
111.0162921616433
 30
0.0
 10
191.8023794082643
 20
110.9715519019881
 30
0.0
 10
191.9262650891249
 20
110.955359363228
 30
0.0
 10
192.1833471099108
 20
110.9353466508262
 30
0.0
 10
192.319502229976
 20
110.9313649500351
 30
0.0
 10
192.5849865012292
 20
110.9355051368975
 30
0.0
 10
192.718165161475
 20
110.9437042250015
 30
0.0
 10
192.9665005378645
 20
110.972023942323
 30
0.0
 10
193.0848320841732
 20
110.9923413125397
 30
0.0
 10
193.3079999727275
 20
111.0460356818891
 30
0.0
 10
193.4120562132325
 20
111.0790868771985
 30
0.0
 10
193.7079342189998
 20
111.1997381768212
 30
0.0
 10
193.8850772160797
 20
111.3103356038546
 30
0.0
 10
194.1806689773466
 20
111.5967150639732
 30
0.0
 10
194.3033691888064
 20
111.7770204772517
 30
0.0
 10
194.3831226866449
 20
111.9935398346168
 30
0.0
  0
LINE
  5
1AA
330
1F
100
AcDbEntity
  8
0
  6
HIDDEN
 62
     7
370
     0
100
AcDbLine
 10
185.1831226866
 20
110.8492864476
 30
0.0
 11
185.1831226866
 21
115.8364597561
 31
0.0
  0
LINE
  5
1AB
330
1F
100
AcDbEntity
  8
0
  6
HIDDEN
 62
     7
370
     0
100
AcDbLine
 10
210.4427503405
 20
130.8483826647
 30
0.0
 11
210.922704513
 21
130.8851002529
 31
0.0
  0
LINE
  5
1AC
330
1F
100
AcDbEntity
  8
0
  6
HIDDEN
 62
     7
370
     0
100
AcDbLine
 10
210.615390831
 20
130.5794700674
 30
0.0
 11
210.922704513
 21
130.8851002529
 31
0.0
  0
LINE
  5
1AD
330
1F
100
AcDbEntity
  8
0
  6
HIDDEN
 62
     7
370
     0
100
AcDbLine
 10
210.4178776576
 20
130.5643598594
 30
0.0
 11
210.615390831
 21
130.5794700674
 31
0.0
  0
ELLIPSE
  5
1AE
330
1F
100
AcDbEntity
  8
0
  6
HIDDEN
 62
     7
370
     0
100
AcDbEllipse
 10
209.4261239278
 20
113.1337390407
 30
0.0
 11
2.547289797953425
 21
25.40076590679336
 31
0.0
210
0.0
220
0.0
230
1.0
 40
0.0928940858
 41
0.1589504141293279
 42
0.2762117811578175
  0
ELLIPSE
  5
1AF
330
1F
100
AcDbEntity
  8
0
  6
HIDDEN
 62
     7
370
     0
100
AcDbEllipse
 10
204.1655943784
 20
112.5808351053
 30
0.0
 11
215.3493833991938
 21
20.26302228663779
 31
0.0
210
0.0
220
0.0
230
1.0
 40
0.1150714178
 41
1.525591382197707
 42
1.527930896432983
  0
LINE
  5
1B0
330
1F
100
AcDbEntity
  8
0
  6
HIDDEN
 62
     7
370
     0
100
AcDbLine
 10
220.3669380565
 20
131.7285815945
 30
0.0
 11
206.5833128305
 21
130.2798642059
 31
0.0
  0
SPLINE
  5
1B1
330
1F
100
AcDbEntity
  8
0
  6
HIDDEN
 62
     7
370
     0
100
AcDbSpline
210
0.0
220
0.0
230
1.0
 70
     8
 71
     3
 72
    21
 73
    17
 74
     0
 42
0.00000001
 43
0.00000001
 12
1.0
 22
0.0
 32
0.0
 13
1.0
 23
0.0
 33
0.0
 40
0.0
 40
0.0
 40
0.0
 40
0.0
 40
0.0406993831255094
 40
0.0817173316712537
 40
0.1230542583023115
 40
0.1647105661975989
 40
0.2066866493267217
 40
0.2489828927172639
 40
0.3719888906396511
 40
0.4986653735144514
 40
0.6214651346866027
 40
0.74902694597249
 40
0.8109911412989985
 40
0.874448249981216
 40
0.9363421640835143
 40
1.0
 40
1.0
 40
1.0
 40
1.0
 10
221.9784412761873
 20
138.4106923885846
 30
0.0
 10
221.9581783578183
 20
138.3560956304046
 30
0.0
 10
221.9174939175682
 20
138.2464747699947
 30
0.0
 10
221.8554565046984
 20
138.0688353211486
 30
0.0
 10
221.7923995717324
 20
137.8805705832222
 30
0.0
 10
221.728279794576
 20
137.6806307896891
 30
0.0
 10
221.6631260243011
 20
137.4691289139904
 30
0.0
 10
221.5550245606042
 20
137.1044486694511
 30
0.0
 10
221.4004495187474
 20
136.5454350712374
 30
0.0
 10
221.1997603799357
 20
135.7482464102623
 30
0.0
 10
220.9937584027108
 20
134.8597639046603
 30
0.0
 10
220.821446456848
 20
134.0587912541236
 30
0.0
 10
220.6812456555711
 20
133.3725218763908
 30
0.0
 10
220.5772248608857
 20
132.8460678371927
 30
0.0
 10
220.472136889309
 20
132.2984326369402
 30
0.0
 10
220.4023329203672
 20
131.9203029827636
 30
0.0
 10
220.3669405853297
 20
131.7285819157364
 30
0.0
  0
ELLIPSE
  5
1B2
330
1F
100
AcDbEntity
  8
0
  6
HIDDEN
 62
     7
370
     0
100
AcDbEllipse
 10
178.7010533541
 20
109.9044039946
 30
0.0
 11
215.3493833991935
 21
20.26302228663778
 31
0.0
210
0.0
220
0.0
230
1.0
 40
0.1150714178
 41
1.35763978598206
 42
1.408330015169221
  0
ELLIPSE
  5
1B3
330
1F
100
AcDbEntity
  8
0
  6
HIDDEN
 62
     7
370
     0
100
AcDbEllipse
 10
208.9161712651
 20
113.0801408561
 30
0.0
 11
2.547289797953396
 21
25.40076590679334
 31
0.0
210
0.0
220
0.0
230
1.0
 40
0.0928940858
 41
0.0192802045293711
 42
0.1566108998940486
  0
ELLIPSE
  5
1B4
330
1F
100
AcDbEntity
  8
0
  6
HIDDEN
 62
     7
370
     0
100
AcDbEllipse
 10
215.0444697846
 20
127.8470481911
 30
0.0
 11
0.9406553105117155
 21
2.766158975077389
 31
0.0
210
0.0
220
0.0
230
1.0
 40
0.8539059128
 41
2.218014007038807
 42
2.406555537065115
  0
ELLIPSE
  5
1B5
330
1F
100
AcDbEntity
  8
0
  6
HIDDEN
 62
     7
370
     0
100
AcDbEllipse
 10
214.5736170074
 20
126.8289579655
 30
0.0
 11
2.968392757696109
 21
0.4881156426729519
 31
0.0
210
0.0
220
0.0
230
1.0
 40
0.1367129703
 41
2.278614760664393
 42
2.866566978731084
  0
ELLIPSE
  5
1B6
330
1F
100
AcDbEntity
  8
0
  6
HIDDEN
 62
     7
370
     0
100
AcDbEllipse
 10
214.112267522
 20
125.8314160068
 30
0.0
 11
0.9406553105117155
 21
2.766158975077417
 31
0.0
210
0.0
220
0.0
230
1.0
 40
0.8539059128
 41
1.544372593543373
 42
1.630061788972098
  0
SPLINE
  5
1B7
330
1F
100
AcDbEntity
  8
0
  6
HIDDEN
 62
     7
370
     0
100
AcDbSpline
210
0.0
220
0.0
230
1.0
 70
     8
 71
     3
 72
    22
 73
    18
 74
     0
 42
0.00000001
 43
0.00000001
 12
1.0
 22
0.0
 32
0.0
 13
1.0
 23
0.0
 33
0.0
 40
0.0
 40
0.0
 40
0.0
 40
0.0
 40
0.0625000000000002
 40
0.0625000000000002
 40
0.1250000000000003
 40
0.1250000000000003
 40
0.1875000000000005
 40
0.1875000000000005
 40
0.2500000000000007
 40
0.2500000000000007
 40
0.3750000000000009
 40
0.3750000000000009
 40
0.5000000000000011
 40
0.5000000000000011
 40
0.7500000000000006
 40
0.7500000000000006
 40
1.0
 40
1.0
 40
1.0
 40
1.0
 10
213.7397619954937
 20
124.9877033602367
 30
0.0
 10
213.602681581399
 20
125.0259811330059
 30
0.0
 10
213.4741199469924
 20
125.0505809244005
 30
0.0
 10
213.2274675472797
 20
125.0834148162913
 30
0.0
 10
213.1148481012033
 20
125.0908792096923
 30
0.0
 10
212.9027979750408
 20
125.0958060051325
 30
0.0
 10
212.8029121743708
 20
125.0930612343728
 30
0.0
 10
212.6164708960852
 20
125.0812172672147
 30
0.0
 10
212.5293512442354
 20
125.0721189900983
 30
0.0
 10
212.2809718677156
 20
125.0386133460638
 30
0.0
 10
212.1324600196016
 20
125.008118765753
 30
0.0
 10
211.8576055907279
 20
124.9391237828284
 30
0.0
 10
211.7315509738676
 20
124.9004200939715
 30
0.0
 10
211.3859467872338
 20
124.78037918465
 30
0.0
 10
211.1951254193337
 20
124.6944720946784
 30
0.0
 10
210.886354987862
 20
124.5329418917296
 30
0.0
 10
210.7670735570261
 20
124.4567187973651
 30
0.0
 10
210.7076328126161
 20
124.3976036755725
 30
0.0
  0
SPLINE
  5
1B8
330
1F
100
AcDbEntity
  8
0
  6
HIDDEN
 62
     7
370
     0
100
AcDbSpline
210
0.0
220
0.0
230
1.0
 70
     8
 71
     3
 72
     8
 73
     4
 74
     0
 42
0.00000001
 43
0.00000001
 12
1.0
 22
0.0
 32
0.0
 13
1.0
 23
0.0
 33
0.0
 40
0.0
 40
0.0
 40
0.0
 40
0.0
 40
1.0
 40
1.0
 40
1.0
 40
1.0
 10
214.1616561126571
 20
124.8295113687163
 30
0.0
 10
214.0192589942569
 20
124.8743908406786
 30
0.0
 10
213.8786186805333
 20
124.9270817478707
 30
0.0
 10
213.7397619954937
 20
124.9877033602367
 30
0.0
  0
SPLINE
  5
1B9
330
1F
100
AcDbEntity
  8
0
  6
HIDDEN
 62
     7
370
     0
100
AcDbSpline
210
0.0
220
0.0
230
1.0
 70
     8
 71
     3
 72
    22
 73
    18
 74
     0
 42
0.00000001
 43
0.00000001
 12
1.0
 22
0.0
 32
0.0
 13
1.0
 23
0.0
 33
0.0
 40
0.0
 40
0.0
 40
0.0
 40
0.0
 40
0.1249999999999996
 40
0.1249999999999996
 40
0.2499999999999996
 40
0.2499999999999996
 40
0.5
 40
0.5
 40
0.6250000000000001
 40
0.6250000000000001
 40
0.7500000000000003
 40
0.7500000000000003
 40
0.8750000000000003
 40
0.8750000000000003
 40
0.9375000000000002
 40
0.9375000000000002
 40
1.0
 40
1.0
 40
1.0
 40
1.0
 10
215.3803572440571
 20
122.6455347237591
 30
0.0
 10
215.4096955343641
 20
122.6747122958422
 30
0.0
 10
215.4301334430276
 20
122.7174839410568
 30
0.0
 10
215.4569454541174
 20
122.8229992747865
 30
0.0
 10
215.4632282829602
 20
122.886017376179
 30
0.0
 10
215.4617655617612
 20
123.0962191592973
 30
0.0
 10
215.4350987515193
 20
123.2642079715001
 30
0.0
 10
215.3437732674573
 20
123.5471628635757
 30
0.0
 10
215.3045832088572
 20
123.6468224431851
 30
0.0
 10
215.2011235789064
 20
123.8575892057424
 30
0.0
 10
215.136992605265
 20
123.9687266262204
 30
0.0
 10
214.9700183152892
 20
124.2010689807182
 30
0.0
 10
214.867430266113
 20
124.3230813213752
 30
0.0
 10
214.6597460934259
 20
124.5116387091704
 30
0.0
 10
214.5802550975762
 20
124.5763797695959
 30
0.0
 10
214.3928107404112
 20
124.7058313991859
 30
0.0
 10
214.2854651168594
 20
124.770032833206
 30
0.0
 10
214.1616561126571
 20
124.8295113687163
 30
0.0
  0
ELLIPSE
  5
1BA
330
1F
100
AcDbEntity
  8
0
  6
HIDDEN
 62
     7
370
     0
100
AcDbEllipse
 10
215.0444697846
 20
127.8470481911
 30
0.0
 11
0.9406553105117155
 21
2.766158975077389
 31
0.0
210
0.0
220
0.0
230
1.0
 40
0.8539059128
 41
4.576940229027283
 42
4.685965247133193
  0
ELLIPSE
  5
1BB
330
1F
100
AcDbEntity
  8
0
  6
HIDDEN
 62
     7
370
     0
100
AcDbEllipse
 10
214.293675117
 20
126.2236602672
 30
0.0
 11
2.968392757696108
 21
0.4881156426729235
 31
0.0
210
0.0
220
0.0
230
1.0
 40
0.1367129703
 41
6.202873845855635
 42
8.37325853781773
  0
LWPOLYLINE
  5
1BC
330
1F
100
AcDbEntity
  8
0
  6
HIDDEN
 62
     7
370
     0
100
AcDbPolyline
 90
       30
 70
   128
 43
0.0
 10
192.3831226866
 20
108.1816597795
 10
192.8345606111
 20
108.2283536424
 10
193.2648897999
 20
108.3662518782
 10
193.6539885386
 20
108.5889065185
 10
193.9836630024
 20
108.8859064798
 10
194.23849798
 20
109.2433643741
 10
194.4065776709
 20
109.6445658674
 10
194.4800428557
 20
110.0707512239
 10
194.455458384
 20
110.50199249
 10
194.3339737983
 20
110.9181253033
 10
194.1212695828
 20
111.299691756
 10
193.8272915502
 20
111.6288502248
 10
193.4657857867
 20
111.8902096256
 10
193.0536558999
 20
112.0715490833
 10
192.6101726253
 20
112.1643893664
 10
192.156072748
 20
112.1643893664
 10
191.7125894734
 20
112.0715490833
 10
191.3004595866
 20
111.8902096256
 10
190.9389538231
 20
111.6288502248
 10
190.6449757905
 20
111.299691756
 10
190.432271575
 20
110.9181253033
 10
190.3107869893
 20
110.50199249
 10
190.2862025176
 20
110.0707512239
 10
190.3596677024
 20
109.6445658674
 10
190.5277473933
 20
109.2433643741
 10
190.7825823709
 20
108.8859064798
 10
191.1122568347
 20
108.5889065185
 10
191.5013555734
 20
108.3662518782
 10
191.9316847622
 20
108.2283536424
 10
192.3831226866
 20
108.1816597795
  0
LINE
  5
1BD
330
1F
100
AcDbEntity
  8
0
  6
HIDDEN
 62
     7
370
     0
100
AcDbLine
 10
177.3331226866
 20
96.4492864476
 30
0.0
 11
181.8331226866
 21
96.4492864476
 31
0.0
  0
ELLIPSE
  5
1BE
330
1F
100
AcDbEntity
  8
0
  6
HIDDEN
 62
     7
370
     0
100
AcDbEllipse
 10
210.8408445526
 20
119.3307716694
 30
0.0
 11
3.010891765567009
 21
2.994397785440767
 31
0.0
210
0.0
220
0.0
230
1.0
 40
0.9890738004
 41
0.0
 42
6.283185307179586
  0
ELLIPSE
  5
1BF
330
1F
100
AcDbEntity
  8
0
  6
HIDDEN
 62
     7
370
     0
100
AcDbEllipse
 10
211.818831069
 20
120.3034006733
 30
0.0
 11
3.518690774465654
 21
-2.323872478491111
 31
0.0
210
0.0
220
0.0
230
1.0
 40
0.89827004
 41
1.182660514095205
 42
2.457784355333625
  0
LINE
  5
1C0
330
1F
100
AcDbEntity
  8
0
  6
HIDDEN
 62
     7
370
     0
100
AcDbLine
 10
215.0827187094
 20
122.3495266842
 30
0.0
 11
215.3803572441
 21
122.6455347238
 31
0.0
  0
LINE
  5
1C1
330
1F
100
AcDbEntity
  8
0
  6
HIDDEN
 62
     7
370
     0
100
AcDbLine
 10
210.7076328126
 20
124.3976036756
 30
0.0
 11
210.409994278
 21
124.101595636
 31
0.0
  0
ARC
  5
1C2
330
1F
100
AcDbEntity
  8
0
  6
HIDDEN
 62
     7
370
     0
100
AcDbCircle
 10
212.4846840024
 20
120.9987549189
 30
0.0
 40
4.181737729252886
100
AcDbArc
 50
72.5344011879
 51
66.3578667107
  0
ARC
  5
1C3
330
1F
100
AcDbEntity
  8
0
  6
HIDDEN
 62
     7
370
     0
100
AcDbCircle
 10
209.3205352049
 20
128.6776546112
 30
0.0
 40
2.101938722762235
100
AcDbArc
 50
135.3872291548
 51
274.5449062293
  0
LINE
  5
1C4
330
1F
100
AcDbEntity
  8
0
  6
HIDDEN
 62
     7
370
     0
100
AcDbLine
 10
212.5929323405
 20
126.8199290974
 30
0.0
 11
210.0730854636
 21
126.6271550678
 31
0.0
  0
LINE
  5
1C5
330
1F
100
AcDbEntity
  8
0
  6
HIDDEN
 62
     7
370
     0
100
AcDbLine
 10
209.5482463819
 20
126.5870036817
 30
0.0
 11
209.4870937059
 21
126.5823253626
 31
0.0
  0
LINE
  5
1C6
330
1F
100
AcDbEntity
  8
0
  6
HIDDEN
 62
     7
370
     0
100
AcDbLine
 10
209.5304328531
 20
126.0864805025
 30
0.0
 11
212.7626677716
 21
126.3337538411
 31
0.0
  0
ARC
  5
1C7
330
1F
100
AcDbEntity
  8
0
  6
HIDDEN
 62
     7
370
     0
100
AcDbCircle
 10
209.011246447
 20
128.3691526259
 30
0.0
 40
2.099233608093423
100
AcDbArc
 50
125.9906592831
 51
274.6048548094
  0
LINE
  5
1C8
330
1F
100
AcDbEntity
  8
0
  6
HIDDEN
 62
     7
370
     0
100
AcDbLine
 10
210.922704513
 20
130.8851002529
 30
0.0
 11
211.5678234379
 21
138.2517557817
 31
0.0
  0
LINE
  5
1C9
330
1F
100
AcDbEntity
  8
0
  6
HIDDEN
 62
     7
370
     0
100
AcDbLine
 10
211.0642588613
 20
138.2069482092
 30
0.0
 11
210.4196939324
 21
130.8466187969
 31
0.0
  0
LINE
  5
1CA
330
1F
100
AcDbEntity
  8
0
  6
HIDDEN
 62
     7
370
     0
100
AcDbLine
 10
217.4617348308
 20
127.1924035855
 30
0.0
 11
217.3808320003
 21
126.9710137152
 31
0.0
  0
LINE
  5
1CB
330
1F
100
AcDbEntity
  8
0
  6
HIDDEN
 62
     7
370
     0
100
AcDbLine
 10
221.8204766422
 20
127.5258572691
 30
0.0
 11
217.4617348308
 21
127.1924035855
 31
0.0
  0
LINE
  5
1CC
330
1F
100
AcDbEntity
  8
0
  6
HIDDEN
 62
     7
370
     0
100
AcDbLine
 10
221.7764689188
 20
127.0233301743
 30
0.0
 11
221.8204766422
 21
127.5258572691
 31
0.0
  0
LINE
  5
1CD
330
1F
100
AcDbEntity
  8
0
  6
HIDDEN
 62
     7
370
     0
100
AcDbLine
 10
217.2578536192
 20
126.6776458044
 30
0.0
 11
221.7764689188
 21
127.0233301743
 31
0.0
  0
LINE
  5
1CE
330
1F
100
AcDbEntity
  8
0
  6
HIDDEN
 62
     7
370
     0
100
AcDbLine
 10
216.1294516203
 20
125.6472492808
 30
0.0
 11
215.0827187094
 21
122.3495266842
 31
0.0
  0
LINE
  5
1CF
330
1F
100
AcDbEntity
  8
0
  6
HIDDEN
 62
     7
370
     0
100
AcDbLine
 10
217.9657979082
 20
129.6178453929
 30
0.0
 11
218.2589987192
 21
129.9094400192
 31
0.0
  0
LINE
  5
1D0
330
1F
100
AcDbEntity
  8
0
  6
HIDDEN
 62
     7
370
     0
100
AcDbLine
 10
217.1544211488
 20
126.8867734001
 30
0.0
 11
218.2589987192
 21
129.9094400192
 31
0.0
  0
LINE
  5
1D1
330
1F
100
AcDbEntity
  8
0
  6
HIDDEN
 62
     7
370
     0
100
AcDbLine
 10
217.1544211488
 20
126.8867734001
 30
0.0
 11
217.4617348308
 21
127.1924035855
 31
0.0
  0
LINE
  5
1D2
330
1F
100
AcDbEntity
  8
0
  6
HIDDEN
 62
     7
370
     0
100
AcDbLine
 10
221.8204766422
 20
127.5258572691
 30
0.0
 11
221.5131629602
 21
127.2202270836
 31
0.0
  0
LINE
  5
1D3
330
1F
100
AcDbEntity
  8
0
  6
HIDDEN
 62
     7
370
     0
100
AcDbLine
 10
155.5831226866
 20
102.3492864476
 30
0.0
 11
155.5831226866
 21
99.7125397495
 31
0.0
  0
LINE
  5
1D4
330
1F
100
AcDbEntity
  8
0
  6
HIDDEN
 62
     7
370
     0
100
AcDbLine
 10
153.0831226866
 20
124.3492864476
 30
0.0
 11
153.0831226866
 21
126.9068105694
 31
0.0
  0
LINE
  5
1D5
330
1F
100
AcDbEntity
  8
0
  6
HIDDEN
 62
     7
370
     0
100
AcDbLine
 10
186.4231226866
 20
130.7518904194
 30
0.0
 11
186.4231226866
 21
96.2364075256
 31
0.0
  0
SPLINE
  5
1D6
330
1F
100
AcDbEntity
  8
0
  6
HIDDEN
 62
     7
370
     0
100
AcDbSpline
210
0.0
220
0.0
230
1.0
 70
     8
 71
     3
 72
    10
 73
     6
 74
     0
 42
0.00000001
 43
0.00000001
 12
1.0
 22
0.0
 32
0.0
 13
1.0
 23
0.0
 33
0.0
 40
0.0
 40
0.0
 40
0.0
 40
0.0
 40
0.5
 40
0.5
 40
1.0
 40
1.0
 40
1.0
 40
1.0
 10
186.1747783008951
 20
130.2492864476139
 30
0.0
 10
186.2522063054437
 20
130.3072457540009
 30
0.0
 10
186.3153859223303
 20
130.384230409119
 30
0.0
 10
186.4006811015914
 20
130.5578005419914
 30
0.0
 10
186.4231226866451
 20
130.6547018044732
 30
0.0
 10
186.4231226866451
 20
130.7518904194337
 30
0.0
  0
SPLINE
  5
1D7
330
1F
100
AcDbEntity
  8
0
  6
HIDDEN
 62
     7
370
     0
100
AcDbSpline
210
0.0
220
0.0
230
1.0
 70
     8
 71
     3
 72
    10
 73
     6
 74
     0
 42
0.00000001
 43
0.00000001
 12
1.0
 22
0.0
 32
0.0
 13
1.0
 23
0.0
 33
0.0
 40
0.0
 40
0.0
 40
0.0
 40
0.0
 40
0.5
 40
0.5
 40
1.0
 40
1.0
 40
1.0
 40
1.0
 10
186.3879002860637
 20
96.44928644761387
 30
0.0
 10
186.3996124030268
 20
96.4149431104199
 30
0.0
 10
186.4084104728989
 20
96.37985057268169
 30
0.0
 10
186.420224030671
 20
96.30817879729095
 30
0.0
 10
186.4231226866451
 20
96.27223514292567
 30
0.0
 10
186.4231226866451
 20
96.23640752558558
 30
0.0
  0
SPLINE
  5
1D8
330
1F
100
AcDbEntity
  8
0
  6
HIDDEN
 62
     7
370
     0
100
AcDbSpline
210
0.0
220
0.0
230
1.0
 70
    24
 71
     3
 72
    12
 73
     8
 74
     0
 42
0.00000001
 43
0.00000001
 12
1.0
 22
0.0
 32
0.0
 13
1.0
 23
0.0
 33
0.0
 40
0.0
 40
0.0
 40
0.0
 40
0.0
 40
0.2499999999999991
 40
0.2499999999999991
 40
0.4999999999999982
 40
0.4999999999999982
 40
1.0
 40
1.0
 40
1.0
 40
1.0
 10
185.8231226866451
 20
130.2492864476139
 30
0.0
 10
185.8748396045545
 20
130.2492864476139
 30
0.0
 10
185.9219273926932
 20
130.2492864476139
 30
0.0
 10
185.9949913873684
 20
130.2492864476139
 30
0.0
 10
186.0246202946541
 20
130.2492864476139
 30
0.0
 10
186.1031936391792
 20
130.2492864476139
 30
0.0
 10
186.1411575074115
 20
130.2492864476139
 30
0.0
 10
186.1747783008951
 20
130.2492864476139
 30
0.0
  0
SPLINE
  5
1D9
330
1F
100
AcDbEntity
  8
0
  6
HIDDEN
 62
     7
370
     0
100
AcDbSpline
210
0.0
220
0.0
230
1.0
 70
    24
 71
     3
 72
    16
 73
    12
 74
     0
 42
0.00000001
 43
0.00000001
 12
1.0
 22
0.0
 32
0.0
 13
1.0
 23
0.0
 33
0.0
 40
0.0
 40
0.0
 40
0.0
 40
0.0
 40
0.0625
 40
0.0625
 40
0.125
 40
0.125
 40
0.25
 40
0.25
 40
0.5
 40
0.5
 40
1.0
 40
1.0
 40
1.0
 40
1.0
 10
185.8231226866451
 20
96.44928644761386
 30
0.0
 10
185.8574520242878
 20
96.44928644761386
 30
0.0
 10
185.8914672657486
 20
96.44928644761386
 30
0.0
 10
185.9479518403048
 20
96.44928644761386
 30
0.0
 10
185.9722542231469
 20
96.44928644761386
 30
0.0
 10
186.0365194999659
 20
96.44928644761387
 30
0.0
 10
186.069876869472
 20
96.44928644761386
 30
0.0
 10
186.1583006047895
 20
96.44928644761387
 30
0.0
 10
186.2008401483984
 20
96.44928644761386
 30
0.0
 10
186.3108242334685
 20
96.44928644761387
 30
0.0
 10
186.358050900496
 20
96.44928644761386
 30
0.0
 10
186.3879002860637
 20
96.44928644761386
 30
0.0
  0
LINE
  5
1DA
330
1F
100
AcDbEntity
  8
0
  6
HIDDEN
 62
     7
370
     0
100
AcDbLine
 10
150.4921226866
 20
102.3492864476
 30
0.0
 11
150.4921226866
 21
100.4709952819
 31
0.0
  0
LINE
  5
1DB
330
1F
100
AcDbEntity
  8
0
  6
HIDDEN
 62
     7
370
     0
100
AcDbLine
 10
149.4831226866
 20
102.3492864476
 30
0.0
 11
149.4831226866
 21
101.483463377
 31
0.0
  0
SPLINE
  5
1DC
330
1F
100
AcDbEntity
  8
0
  6
HIDDEN
 62
     7
370
     0
100
AcDbSpline
210
0.0
220
0.0
230
1.0
 70
     8
 71
     3
 72
    10
 73
     6
 74
     0
 42
0.00000001
 43
0.00000001
 12
1.0
 22
0.0
 32
0.0
 13
1.0
 23
0.0
 33
0.0
 40
0.0
 40
0.0
 40
0.0
 40
0.0
 40
0.5
 40
0.5
 40
1.0
 40
1.0
 40
1.0
 40
1.0
 10
184.3431226866451
 20
130.7518904194337
 30
0.0
 10
184.3431226866451
 20
130.654955354202
 30
0.0
 10
184.3655723224906
 20
130.5578960754628
 30
0.0
 10
184.4505679807586
 20
130.3847119880558
 30
0.0
 10
184.513424064689
 20
130.3077061191703
 30
0.0
 10
184.591467072395
 20
130.2492864476139
 30
0.0
  0
LINE
  5
1DD
330
1F
100
AcDbEntity
  8
0
  6
HIDDEN
 62
     7
370
     0
100
AcDbLine
 10
184.3431226866
 20
130.7518904194
 30
0.0
 11
184.3431226866
 21
96.2364075256
 31
0.0
  0
SPLINE
  5
1DE
330
1F
100
AcDbEntity
  8
0
  6
HIDDEN
 62
     7
370
     0
100
AcDbSpline
210
0.0
220
0.0
230
1.0
 70
     8
 71
     3
 72
    10
 73
     6
 74
     0
 42
0.00000001
 43
0.00000001
 12
1.0
 22
0.0
 32
0.0
 13
1.0
 23
0.0
 33
0.0
 40
0.0
 40
0.0
 40
0.0
 40
0.0
 40
0.5
 40
0.5
 40
1.0
 40
1.0
 40
1.0
 40
1.0
 10
184.3431226866451
 20
96.23640752558558
 30
0.0
 10
184.3431226866451
 20
96.27263001502632
 30
0.0
 10
184.3460924159425
 20
96.30882321228489
 30
0.0
 10
184.3579713982904
 20
96.38046170369977
 30
0.0
 10
184.3667666261311
 20
96.41533502834146
 30
0.0
 10
184.3783450872264
 20
96.44928644761387
 30
0.0
  0
SPLINE
  5
1DF
330
1F
100
AcDbEntity
  8
0
  6
HIDDEN
 62
     7
370
     0
100
AcDbSpline
210
0.0
220
0.0
230
1.0
 70
    24
 71
     3
 72
    12
 73
     8
 74
     0
 42
0.00000001
 43
0.00000001
 12
1.0
 22
0.0
 32
0.0
 13
1.0
 23
0.0
 33
0.0
 40
0.0
 40
0.0
 40
0.0
 40
0.0
 40
0.5000000000000003
 40
0.5000000000000003
 40
0.7500000000000001
 40
0.7500000000000001
 40
1.0
 40
1.0
 40
1.0
 40
1.0
 10
184.591467072395
 20
130.2492864476139
 30
0.0
 10
184.6251633160541
 20
130.2492864476139
 30
0.0
 10
184.6632001908222
 20
130.2492864476139
 30
0.0
 10
184.7417605122264
 20
130.2492864476139
 30
0.0
 10
184.771389017652
 20
130.2492864476139
 30
0.0
 10
184.8443327603977
 20
130.2492864476139
 30
0.0
 10
184.8914852406544
 20
130.2492864476139
 30
0.0
 10
184.9431226866451
 20
130.2492864476139
 30
0.0
  0
SPLINE
  5
1E0
330
1F
100
AcDbEntity
  8
0
  6
HIDDEN
 62
     7
370
     0
100
AcDbSpline
210
0.0
220
0.0
230
1.0
 70
    24
 71
     3
 72
    16
 73
    12
 74
     0
 42
0.00000001
 43
0.00000001
 12
1.0
 22
0.0
 32
0.0
 13
1.0
 23
0.0
 33
0.0
 40
0.0
 40
0.0
 40
0.0
 40
0.0
 40
0.4999999999999997
 40
0.4999999999999997
 40
0.7499999999999989
 40
0.7499999999999989
 40
0.8749999999999984
 40
0.8749999999999984
 40
0.9374999999999991
 40
0.9374999999999991
 40
1.0
 40
1.0
 40
1.0
 40
1.0
 10
184.3783450872264
 20
96.44928644761386
 30
0.0
 10
184.4082015263471
 20
96.44928644761387
 30
0.0
 10
184.4551234002019
 20
96.44928644761386
 30
0.0
 10
184.5655908066219
 20
96.44928644761387
 30
0.0
 10
184.6088166588329
 20
96.44928644761386
 30
0.0
 10
184.6972345593601
 20
96.44928644761386
 30
0.0
 10
184.7301079000006
 20
96.44928644761386
 30
0.0
 10
184.7944000310754
 20
96.44928644761386
 30
0.0
 10
184.8185541850827
 20
96.44928644761386
 30
0.0
 10
184.8752889557404
 20
96.44928644761387
 30
0.0
 10
184.908660011926
 20
96.44928644761386
 30
0.0
 10
184.9431226866451
 20
96.44928644761386
 30
0.0
  0
LINE
  5
1E1
330
1F
100
AcDbEntity
  8
0
  6
HIDDEN
 62
     7
370
     0
100
AcDbLine
 10
150.4331226866
 20
124.3492864476
 30
0.0
 11
150.4331226866
 21
126.2220270105
 31
0.0
  0
LINE
  5
1E2
330
1F
100
AcDbEntity
  8
0
  6
HIDDEN
 62
     7
370
     0
100
AcDbLine
 10
149.4831226866
 20
123.2142925907
 30
0.0
 11
149.4831226866
 21
103.4842803045
 31
0.0
  0
LINE
  5
1E3
330
1F
100
AcDbEntity
  8
0
  6
HIDDEN
 62
     7
370
     0
100
AcDbLine
 10
149.4831226866
 20
124.3492864476
 30
0.0
 11
149.4831226866
 21
125.2737588422
 31
0.0
  0
LINE
  5
1E4
330
1F
100
AcDbEntity
  8
0
  6
HIDDEN
 62
     7
370
     0
100
AcDbLine
 10
184.9431226866
 20
130.2492864476
 30
0.0
 11
185.8231226866
 21
130.2492864476
 31
0.0
  0
LINE
  5
1E5
330
1F
100
AcDbEntity
  8
0
  6
HIDDEN
 62
     7
370
     0
100
AcDbLine
 10
184.9431226866
 20
96.4492864476
 30
0.0
 11
185.8231226866
 21
96.4492864476
 31
0.0
  0
SPLINE
  5
1E6
330
1F
100
AcDbEntity
  8
0
  6
HIDDEN
 62
     7
370
     0
100
AcDbSpline
210
0.0
220
0.0
230
1.0
 70
     8
 71
     3
 72
     8
 73
     4
 74
     0
 42
0.00000001
 43
0.00000001
 12
1.0
 22
0.0
 32
0.0
 13
1.0
 23
0.0
 33
0.0
 40
0.0
 40
0.0
 40
0.0
 40
0.0
 40
1.0
 40
1.0
 40
1.0
 40
1.0
 10
186.4231226866451
 20
131.0629631431441
 30
0.0
 10
186.7541430176647
 20
131.6545188396018
 30
0.0
 10
187.0859242891489
 20
132.245651503847
 30
0.0
 10
187.4182823855385
 20
132.836461717519
 30
0.0
  0
SPLINE
  5
1E7
330
1F
100
AcDbEntity
  8
0
  6
HIDDEN
 62
     7
370
     0
100
AcDbSpline
210
0.0
220
0.0
230
1.0
 70
     8
 71
     3
 72
    10
 73
     6
 74
     0
 42
0.00000001
 43
0.00000001
 12
1.0
 22
0.0
 32
0.0
 13
1.0
 23
0.0
 33
0.0
 40
0.0
 40
0.0
 40
0.0
 40
0.0
 40
0.5
 40
0.5
 40
1.0
 40
1.0
 40
1.0
 40
1.0
 10
188.7331226866451
 20
132.8364617175189
 30
0.0
 10
188.8935449112445
 20
132.8364617175189
 30
0.0
 10
189.0500277119118
 20
132.7678763150131
 30
0.0
 10
189.2706813224791
 20
132.5381030456935
 30
0.0
 10
189.3331226866451
 20
132.3796048440258
 30
0.0
 10
189.3331226866451
 20
132.2201634807568
 30
0.0
  0
LINE
  5
1E8
330
1F
100
AcDbEntity
  8
0
  6
HIDDEN
 62
     7
370
     0
100
AcDbLine
 10
187.4182823855
 20
132.8364617175
 30
0.0
 11
188.7331226866
 21
132.8364617175
 31
0.0
  0
LINE
  5
1E9
330
1F
100
AcDbEntity
  8
0
  6
HIDDEN
 62
     7
370
     0
100
AcDbLine
 10
189.3331226866
 20
132.2201634808
 30
0.0
 11
189.3331226866
 21
94.7452546265
 31
0.0
  0
SPLINE
  5
1EA
330
1F
100
AcDbEntity
  8
0
  6
HIDDEN
 62
     7
370
     0
100
AcDbSpline
210
0.0
220
0.0
230
1.0
 70
     8
 71
     3
 72
    12
 73
     8
 74
     0
 42
0.00000001
 43
0.00000001
 12
1.0
 22
0.0
 32
0.0
 13
1.0
 23
0.0
 33
0.0
 40
0.0
 40
0.0
 40
0.0
 40
0.0
 40
0.25
 40
0.25
 40
0.5
 40
0.5
 40
1.0
 40
1.0
 40
1.0
 40
1.0
 10
188.7331226866451
 20
94.12040192458446
 30
0.0
 10
188.8128881671153
 20
94.12040192458447
 30
0.0
 10
188.8933094507724
 20
94.13737752094256
 30
0.0
 10
189.0399913674349
 20
94.20185301840175
 30
0.0
 10
189.1063451769988
 20
94.24896665019637
 30
0.0
 10
189.2725492577255
 20
94.42557656418386
 30
0.0
 10
189.333122686645
 20
94.58542543999201
 30
0.0
 10
189.3331226866451
 20
94.74525462652703
 30
0.0
  0
SPLINE
  5
1EB
330
1F
100
AcDbEntity
  8
0
  6
HIDDEN
 62
     7
370
     0
100
AcDbSpline
210
0.0
220
0.0
230
1.0
 70
     8
 71
     3
 72
     8
 73
     4
 74
     0
 42
0.00000001
 43
0.00000001
 12
1.0
 22
0.0
 32
0.0
 13
1.0
 23
0.0
 33
0.0
 40
0.0
 40
0.0
 40
0.0
 40
0.0
 40
1.0
 40
1.0
 40
1.0
 40
1.0
 10
183.3479629877516
 20
132.8364617175189
 30
0.0
 10
183.6803210841413
 20
132.245651503847
 30
0.0
 10
184.0121023556254
 20
131.6545188396018
 30
0.0
 10
184.3431226866451
 20
131.0629631431441
 30
0.0
  0
LINE
  5
1EC
330
1F
100
AcDbEntity
  8
0
  6
HIDDEN
 62
     7
370
     0
100
AcDbLine
 10
187.4182823855
 20
132.8364617175
 30
0.0
 11
187.4182823855
 21
94.1204019246
 31
0.0
  0
LINE
  5
1ED
330
1F
100
AcDbEntity
  8
0
  6
HIDDEN
 62
     7
370
     0
100
AcDbLine
 10
186.4231226866
 20
131.0629631431
 30
0.0
 11
186.4231226866
 21
95.9201630596
 31
0.0
  0
LINE
  5
1EE
330
1F
100
AcDbEntity
  8
0
  6
HIDDEN
 62
     7
370
     0
100
AcDbLine
 10
184.3431226866
 20
131.0629631431
 30
0.0
 11
184.3431226866
 21
95.9201630596
 31
0.0
  0
ARC
  5
1EF
330
1F
100
AcDbEntity
  8
0
  6
HIDDEN
 62
     7
370
     0
100
AcDbCircle
 10
216.6181783562
 20
132.6404673623
 30
0.0
 40
3.186032299350794
100
AcDbArc
 50
300.9977430098
 51
197.8945248889
  0
LINE
  5
1F0
330
1F
100
AcDbEntity
  8
0
  6
HIDDEN
 62
     7
370
     0
100
AcDbLine
 10
213.5862742878
 20
131.661508971
 30
0.0
 11
211.7759053063
 21
126.7074504827
 31
0.0
  0
LINE
  5
1F1
330
1F
100
AcDbEntity
  8
0
  6
HIDDEN
 62
     7
370
     0
100
AcDbLine
 10
222.4499345546
 20
137.9172837076
 30
0.0
 11
221.9784412096
 21
138.4106936704
 31
0.0
  0
LINE
  5
1F2
330
1F
100
AcDbEntity
  8
0
  6
HIDDEN
 62
     7
370
     0
100
AcDbLine
 10
217.1544211488
 20
126.8867734001
 30
0.0
 11
221.5131629602
 21
127.2202270836
 31
0.0
  0
LINE
  5
1F3
330
1F
100
AcDbEntity
  8
0
  6
HIDDEN
 62
     7
370
     0
100
AcDbLine
 10
211.2333714553
 20
137.6362315524
 30
0.0
 11
210.615390831
 21
130.5794700674
 31
0.0
  0
LINE
  5
1F4
330
1F
100
AcDbEntity
  8
0
  6
HIDDEN
 62
     7
370
     0
100
AcDbLine
 10
209.1797800239
 20
126.2766951772
 30
0.0
 11
211.6986592689
 21
126.4693951808
 31
0.0
  0
LINE
  5
1F5
330
1F
100
AcDbEntity
  8
0
  6
HIDDEN
 62
     7
370
     0
100
AcDbLine
 10
222.4499345578
 20
137.9172837073
 30
0.0
 11
221.5131629602
 21
127.2202270836
 31
0.0
  0
SPLINE
  5
1F6
330
1F
100
AcDbEntity
  8
0
  6
HIDDEN
 62
     7
370
     0
100
AcDbSpline
210
0.0
220
0.0
230
1.0
 70
     8
 71
     3
 72
     8
 73
     4
 74
     0
 42
0.00000001
 43
0.00000001
 12
1.0
 22
0.0
 32
0.0
 13
1.0
 23
0.0
 33
0.0
 40
0.0
 40
0.0
 40
0.0
 40
0.0
 40
1.0
 40
1.0
 40
1.0
 40
1.0
 10
186.4231226866451
 20
95.92016305962417
 30
0.0
 10
186.7537613132596
 20
95.31964270851317
 30
0.0
 10
187.0855771138332
 20
94.71977359780813
 30
0.0
 10
187.4182823855385
 20
94.12040192458446
 30
0.0
  0
LINE
  5
1F7
330
1F
100
AcDbEntity
  8
0
  6
HIDDEN
 62
     7
370
     0
100
AcDbLine
 10
187.4182823855
 20
94.1204019246
 30
0.0
 11
188.7331226866
 21
94.1204019246
 31
0.0
  0
SPLINE
  5
1F8
330
1F
100
AcDbEntity
  8
0
  6
HIDDEN
 62
     7
370
     0
100
AcDbSpline
210
0.0
220
0.0
230
1.0
 70
     8
 71
     3
 72
     8
 73
     4
 74
     0
 42
0.00000001
 43
0.00000001
 12
1.0
 22
0.0
 32
0.0
 13
1.0
 23
0.0
 33
0.0
 40
0.0
 40
0.0
 40
0.0
 40
0.0
 40
1.0
 40
1.0
 40
1.0
 40
1.0
 10
183.3479629877516
 20
94.12040192458446
 30
0.0
 10
183.680668259457
 20
94.71977359780813
 30
0.0
 10
184.0124840600305
 20
95.31964270851317
 30
0.0
 10
184.3431226866451
 20
95.92016305962417
 30
0.0
  0
ARC
  5
1F9
330
1F
100
AcDbEntity
  8
0
  6
HIDDEN
 62
     7
370
     0
100
AcDbCircle
 10
216.036768273
 20
132.0609884306
 30
0.0
 40
3.185835107678599
100
AcDbArc
 50
292.8562921984
 51
206.0359757003
  0
SPLINE
  5
1FA
330
1F
100
AcDbEntity
  8
0
  6
HIDDEN
 62
     7
370
     0
100
AcDbSpline
210
0.0
220
0.0
230
1.0
 70
     8
 71
     3
 72
    10
 73
     6
 74
     0
 42
0.00000001
 43
0.00000001
 12
1.0
 22
0.0
 32
0.0
 13
1.0
 23
0.0
 33
0.0
 40
0.0
 40
0.0
 40
0.0
 40
0.0
 40
0.5
 40
0.5
 40
1.0
 40
1.0
 40
1.0
 40
1.0
 10
213.1742361138062
 20
130.6626125974657
 30
0.0
 10
213.165388518867
 20
130.8231663804123
 30
0.0
 10
213.1723422627517
 20
130.9699776574867
 30
0.0
 10
213.211775592873
 20
131.2179476211503
 30
0.0
 10
213.243765353007
 20
131.3208763360285
 30
0.0
 10
213.2930734767788
 20
131.3699143447391
 30
0.0
  0
SPLINE
  5
1FB
330
1F
100
AcDbEntity
  8
0
  6
HIDDEN
 62
     7
370
     0
100
AcDbSpline
210
0.0
220
0.0
230
1.0
 70
     8
 71
     3
 72
    10
 73
     6
 74
     0
 42
0.00000001
 43
0.00000001
 12
1.0
 22
0.0
 32
0.0
 13
1.0
 23
0.0
 33
0.0
 40
0.0
 40
0.0
 40
0.0
 40
0.0
 40
0.5
 40
0.5
 40
1.0
 40
1.0
 40
1.0
 40
1.0
 10
217.9657979082167
 20
129.6178453929249
 30
0.0
 10
217.9164018657054
 20
129.5687199471029
 30
0.0
 10
217.8201097394644
 20
129.4910597415912
 30
0.0
 10
217.5815391948119
 20
129.3176754870099
 30
0.0
 10
217.4378168882464
 20
129.2213885290512
 30
0.0
 10
217.2742138985966
 20
129.1252987915137
 30
0.0
  0
LINE
  5
1FC
330
1F
100
AcDbEntity
  8
0
  6
HIDDEN
 62
     7
370
     0
100
AcDbLine
 10
213.5862742878
 20
131.661508971
 30
0.0
 11
213.2930734768
 21
131.3699143447
 31
0.0
  0
LINE
  5
1FD
330
1F
100
AcDbEntity
  8
0
  6
HIDDEN
 62
     7
370
     0
100
AcDbLine
 10
149.4831226866
 20
101.5308141749
 30
0.0
 11
149.4831226866
 21
101.8017732464
 31
0.0
  0
LINE
  5
1FE
330
1F
100
AcDbEntity
  8
0
  6
HIDDEN
 62
     7
370
     0
100
AcDbLine
 10
149.4831226866
 20
125.2232005849
 30
0.0
 11
149.4831226866
 21
125.1275179121
 31
0.0
  0
SPLINE
  5
1FF
330
1F
100
AcDbEntity
  8
0
  6
HIDDEN
 62
     7
370
     0
100
AcDbSpline
210
0.0
220
0.0
230
1.0
 70
     8
 71
     3
 72
    10
 73
     6
 74
     0
 42
0.00000001
 43
0.00000001
 12
1.0
 22
0.0
 32
0.0
 13
1.0
 23
0.0
 33
0.0
 40
0.0
 40
0.0
 40
0.0
 40
0.0
 40
0.5
 40
0.5
 40
1.0
 40
1.0
 40
1.0
 40
1.0
 10
150.208631457626
 20
101.2676329654185
 30
0.0
 10
150.0253665281885
 20
101.2840966207344
 30
0.0
 10
149.8506739294365
 20
101.3631258528265
 30
0.0
 10
149.5921206985732
 20
101.6082297715579
 30
0.0
 10
149.5095331306262
 20
101.7714327029052
 30
0.0
 10
149.4885379434067
 20
101.9442995270052
 30
0.0
  0
SPLINE
  5
200
330
1F
100
AcDbEntity
  8
0
  6
HIDDEN
 62
     7
370
     0
100
AcDbSpline
210
0.0
220
0.0
230
1.0
 70
     8
 71
     3
 72
    10
 73
     6
 74
     0
 42
0.00000001
 43
0.00000001
 12
1.0
 22
0.0
 32
0.0
 13
1.0
 23
0.0
 33
0.0
 40
0.0
 40
0.0
 40
0.0
 40
0.0
 40
0.5
 40
0.5
 40
1.0
 40
1.0
 40
1.0
 40
1.0
 10
149.5091669797003
 20
124.8291001860223
 30
0.0
 10
149.5454523135272
 20
124.96273234825
 30
0.0
 10
149.6194506616644
 20
125.0860691677681
 30
0.0
 10
149.8245930137665
 20
125.2802854983708
 30
0.0
 10
149.9569866940978
 20
125.3512593091019
 30
0.0
 10
150.0992114889577
 20
125.3835606573068
 30
0.0
  0
SPLINE
  5
201
330
1F
100
AcDbEntity
  8
0
  6
HIDDEN
 62
     7
370
     0
100
AcDbSpline
210
0.0
220
0.0
230
1.0
 70
     8
 71
     3
 72
     8
 73
     4
 74
     0
 42
0.00000001
 43
0.00000001
 12
1.0
 22
0.0
 32
0.0
 13
1.0
 23
0.0
 33
0.0
 40
0.0
 40
0.0
 40
0.0
 40
0.0
 40
1.0
 40
1.0
 40
1.0
 40
1.0
 10
150.2430927330329
 20
125.7373670272268
 30
0.0
 10
150.2044105528095
 20
125.6266333447786
 30
0.0
 10
150.1585039896338
 20
125.5102920895884
 30
0.0
 10
150.0992114889577
 20
125.3835606573068
 30
0.0
  0
SPLINE
  5
202
330
1F
100
AcDbEntity
  8
0
  6
HIDDEN
 62
     7
370
     0
100
AcDbSpline
210
0.0
220
0.0
230
1.0
 70
     8
 71
     3
 72
     8
 73
     4
 74
     0
 42
0.00000001
 43
0.00000001
 12
1.0
 22
0.0
 32
0.0
 13
1.0
 23
0.0
 33
0.0
 40
0.0
 40
0.0
 40
0.0
 40
0.0
 40
1.0
 40
1.0
 40
1.0
 40
1.0
 10
149.5091669796998
 20
124.8291001860219
 30
0.0
 10
149.4848495904391
 20
124.9136095182659
 30
0.0
 10
149.4831226866449
 20
125.0197374120683
 30
0.0
 10
149.4831226866449
 20
125.1275179120547
 30
0.0
  0
SPLINE
  5
203
330
1F
100
AcDbEntity
  8
0
  6
HIDDEN
 62
     7
370
     0
100
AcDbSpline
210
0.0
220
0.0
230
1.0
 70
     8
 71
     3
 72
     8
 73
     4
 74
     0
 42
0.00000001
 43
0.00000001
 12
1.0
 22
0.0
 32
0.0
 13
1.0
 23
0.0
 33
0.0
 40
0.0001200374926476
 40
0.0001200374926476
 40
0.0001200374926476
 40
0.0001200374926476
 40
0.000282329281906
 40
0.000282329281906
 40
0.000282329281906
 40
0.000282329281906
 10
150.2086314576315
 20
101.2676329654187
 30
0.0
 10
150.2206739656343
 20
101.2387538404589
 30
0.0
 10
150.2321404940862
 20
101.2103216657317
 30
0.0
 10
150.243092733033
 20
101.1823008626884
 30
0.0
  0
SPLINE
  5
204
330
1F
100
AcDbEntity
  8
0
  6
HIDDEN
 62
     7
370
     0
100
AcDbSpline
210
0.0
220
0.0
230
1.0
 70
     8
 71
     3
 72
     8
 73
     4
 74
     0
 42
0.00000001
 43
0.00000001
 12
1.0
 22
0.0
 32
0.0
 13
1.0
 23
0.0
 33
0.0
 40
0.0
 40
0.0
 40
0.0
 40
0.0
 40
1.0
 40
1.0
 40
1.0
 40
1.0
 10
149.4831226866451
 20
101.8017732463925
 30
0.0
 10
149.4831226866451
 20
101.850975456553
 30
0.0
 10
149.4843922925238
 20
101.898986579691
 30
0.0
 10
149.4885379434059
 20
101.9442995270115
 30
0.0
  0
LINE
  5
205
330
1F
100
AcDbEntity
  8
0
  6
HIDDEN
 62
     7
370
     0
100
AcDbLine
 10
149.4831226866
 20
125.1275179121
 30
0.0
 11
149.4831226866
 21
101.8017732464
 31
0.0
  0
SPLINE
  5
206
330
1F
100
AcDbEntity
  8
0
  6
HIDDEN
 62
     7
370
     0
100
AcDbSpline
210
0.0
220
0.0
230
1.0
 70
     8
 71
     3
 72
    21
 73
    17
 74
     0
 42
0.00000001
 43
0.00000001
 12
1.0
 22
0.0
 32
0.0
 13
1.0
 23
0.0
 33
0.0
 40
0.0
 40
0.0
 40
0.0
 40
0.0
 40
0.031413381923556
 40
0.0628094503132291
 40
0.0941958129839758
 40
0.1255800848090005
 40
0.1883050280747232
 40
0.2510223384616835
 40
0.3762975567273902
 40
0.5014060811737125
 40
0.6263354959399674
 40
0.7510762290803402
 40
0.8133546615474426
 40
0.8756374069353822
 40
0.9378169030496799
 40
1.0
 40
1.0
 40
1.0
 40
1.0
 10
220.7820779289227
 20
131.0797893105056
 30
0.0
 10
220.8001539251028
 20
131.1769796237147
 30
0.0
 10
220.8362959548497
 20
131.3713066835418
 30
0.0
 10
220.8905182022243
 20
131.6573676197635
 30
0.0
 10
220.9447217174371
 20
131.9393138106334
 30
0.0
 10
221.016940471977
 20
132.3090989717909
 30
0.0
 10
221.1071281472788
 20
132.7601033662552
 30
0.0
 10
221.2510197377075
 20
133.4565149341932
 30
0.0
 10
221.4299598224446
 20
134.2791141274059
 30
0.0
 10
221.6423251119101
 20
135.1854075524609
 30
0.0
 10
221.8514359829006
 20
136.0070966834934
 30
0.0
 10
222.022340160192
 20
136.6186978369704
 30
0.0
 10
222.1565967433937
 20
137.0626069245087
 30
0.0
 10
222.2558809298602
 20
137.3718668437064
 30
0.0
 10
222.3538701282911
 20
137.6595545344477
 30
0.0
 10
222.4179124655126
 20
137.8313723292713
 30
0.0
 10
222.449934561275
 20
137.917283714118
 30
0.0
  0
LWPOLYLINE
  5
207
330
1F
100
AcDbEntity
  8
0
  6
HIDDEN
 62
     7
370
     0
100
AcDbPolyline
 90
       16
 70
   128
 43
0.0
 10
216.1294516203
 20
125.6472492808
 10
216.1995409059
 20
126.0480570935
 10
216.1644567135
 20
126.4696345917
 10
216.0257323907
 20
126.8935568159
 10
215.7894308559
 20
127.3012963306
 10
215.4658796202
 20
127.6750329625
 10
215.0692194251
 20
127.9984326274
 10
214.6167862246
 20
128.2573612082
 10
214.1283535205
 20
128.4405022832
 10
213.6252681658
 20
128.5398517089
 10
213.1295174045
 20
128.5510674384
 10
212.6627679237
 20
128.4736592907
 10
212.2454189156
 20
128.3110103732
 10
211.8957105344
 20
128.0702292241
 10
211.6289267144
 20
127.761839135
 10
211.4567271888
 20
127.3993182326
  0
ELLIPSE
  5
208
330
1F
100
AcDbEntity
  8
0
  6
HIDDEN
 62
     7
370
     0
100
AcDbEllipse
 10
214.7432047553
 20
128.5776480902
 30
0.0
 11
0.940655310511744
 21
2.766158975077417
 31
0.0
210
0.0
220
0.0
230
1.0
 40
0.8539059128
 41
5.186288196584707
 42
7.327234951271456
  0
LWPOLYLINE
  5
209
330
1F
100
AcDbEntity
  8
0
  6
HIDDEN
 62
     7
370
     0
100
AcDbPolyline
 90
       32
 70
   128
 43
0.0
 10
192.3831226866
 20
107.7269667159
 10
192.8863689869
 20
107.7756371728
 10
193.3690123244
 20
107.9196559693
 10
193.8112932244
 20
108.1531269589
 10
194.1951046547
 20
108.4664918119
 10
194.5047333304
 20
108.8469213344
 10
194.727503017
 20
109.278840697
 10
194.8542934975
 20
109.7445670703
 10
194.8799139546
 20
110.2250335618
 10
194.8033154838
 20
110.700569817
 10
194.6276340356
 20
111.1517073256
 10
194.360062029
 20
111.5599764651
 10
194.0115538935
 20
111.9086626489
 10
193.596377593
 20
112.1834906236
 10
193.1315304941
 20
112.3732088998
 10
192.6360434916
 20
112.4700503889
 10
192.1302018817
 20
112.4700503889
 10
191.6347148792
 20
112.3732088998
 10
191.1698677803
 20
112.1834906236
 10
190.7546914798
 20
111.9086626489
 10
190.4061833443
 20
111.5599764651
 10
190.1386113377
 20
111.1517073256
 10
189.9629298895
 20
110.700569817
 10
189.8863314187
 20
110.2250335618
 10
189.9119518758
 20
109.7445670703
 10
190.0387423563
 20
109.278840697
 10
190.2615120429
 20
108.8469213344
 10
190.5711407186
 20
108.4664918119
 10
190.9549521489
 20
108.1531269589
 10
191.3972330489
 20
107.9196559693
 10
191.8798763864
 20
107.7756371728
 10
192.3831226866
 20
107.7269667159
  0
LINE
  5
20A
330
1F
100
AcDbEntity
  8
0
  6
HIDDEN
 62
     7
370
     0
100
AcDbLine
 10
210.409994278
 20
124.101595636
 30
0.0
 11
211.4567271888
 21
127.3993182326
 31
0.0
  0
CIRCLE
  5
20B
330
1F
100
AcDbEntity
  8
0
  6
HIDDEN
 62
     7
370
     0
100
AcDbCircle
 10
176.3831226866
 20
113.3492864476
 30
0.0
 40
5.0
  0
SPLINE
  5
20C
330
1F
100
AcDbEntity
  8
0
  6
HIDDEN
 62
     7
370
     0
100
AcDbSpline
210
0.0
220
0.0
230
1.0
 70
     8
 71
     3
 72
     9
 73
     5
 74
     0
 42
0.00000001
 43
0.00000001
 12
1.0
 22
0.0
 32
0.0
 13
1.0
 23
0.0
 33
0.0
 40
0.0
 40
0.0
 40
0.0
 40
0.0
 40
0.5030779040693283
 40
1.0
 40
1.0
 40
1.0
 40
1.0
 10
220.3669385691132
 20
131.7285767177297
 30
0.0
 10
220.437019005886
 20
131.6200771349317
 30
0.0
 10
220.5763223547431
 20
131.4044056019138
 30
0.0
 10
220.7137752668268
 20
131.1875500734756
 30
0.0
 10
220.7820786559912
 20
131.07978976977
 30
0.0
  0
LINE
  5
20D
330
1F
100
AcDbEntity
  8
0
  6
HIDDEN
 62
     7
370
     0
100
AcDbLine
 10
220.7820780876
 20
131.0797898257
 30
0.0
 11
219.0892147624
 21
113.889005313
 31
0.0
  0
LINE
  5
20E
330
1F
100
AcDbEntity
  8
0
  6
HIDDEN
 62
     7
370
     0
100
AcDbLine
 10
219.0892147624
 20
113.889005313
 30
0.0
 11
218.7053699855
 21
113.3492864476
 31
0.0
  0
LINE
  5
20F
330
1F
100
AcDbEntity
  8
0
  6
HIDDEN
 62
     7
370
     0
100
AcDbLine
 10
169.3831226866
 20
97.1420857625
 30
0.0
 11
169.4772834622
 21
97.8120744938
 31
0.0
  0
LINE
  5
210
330
1F
100
AcDbEntity
  8
0
  6
HIDDEN
 62
     7
370
     0
100
AcDbLine
 10
169.4772834622
 20
128.8864984014
 30
0.0
 11
169.3831226866
 21
129.5564871327
 31
0.0
  0
ARC
  5
211
330
1F
100
AcDbEntity
  8
0
  6
HIDDEN
 62
     7
370
     0
100
AcDbCircle
 10
168.883115934
 20
97.8955792941
 30
0.0
 40
0.6000067526676958
100
AcDbArc
 50
352.0
 51
0.0
  0
ARC
  5
212
330
1F
100
AcDbEntity
  8
0
  6
HIDDEN
 62
     7
370
     0
100
AcDbCircle
 10
168.883115934
 20
97.8955792941
 30
0.0
 40
0.6000067526676958
100
AcDbArc
 50
0.0
 51
33.5571153394
  0
ARC
  5
213
330
1F
100
AcDbEntity
  8
0
  6
HIDDEN
 62
     7
370
     0
100
AcDbCircle
 10
168.883115934
 20
128.8029936011
 30
0.0
 40
0.600006752667676
100
AcDbArc
 50
348.75
 51
8.0
  0
LWPOLYLINE
  5
214
330
1F
100
AcDbEntity
  8
0
  6
HIDDEN
 62
     7
370
     0
100
AcDbPolyline
 90
        3
 70
   128
 43
0.0
 10
169.4715937251
 20
128.6859380905
 10
169.4374498921
 20
128.5733809575
 10
169.3831226866
 20
128.471329086
  0
LINE
  5
215
330
1F
100
AcDbEntity
  8
0
  6
HIDDEN
 62
     7
370
     0
100
AcDbLine
 10
169.4831226866
 20
97.8955792941
 30
0.0
 11
169.4831226866
 21
128.8029936011
 31
0.0
  0
LINE
  5
216
330
1F
100
AcDbEntity
  8
0
  6
HIDDEN
 62
     7
370
     0
100
AcDbLine
 10
169.4831226866
 20
97.8955792941
 30
0.0
 11
169.4831226866
 21
128.8029936011
 31
0.0
  0
LINE
  5
217
330
1F
100
AcDbEntity
  8
0
  6
HIDDEN
 62
     7
370
     0
100
AcDbLine
 10
189.1552744582
 20
117.0310888979
 30
0.0
 11
189.4871675313
 21
114.904149424
 31
0.0
  0
LINE
  5
218
330
1F
100
AcDbEntity
  8
0
  6
HIDDEN
 62
     7
370
     0
100
AcDbLine
 10
189.4871675313
 20
114.904149424
 30
0.0
 11
191.430683051
 21
113.9785296521
 31
0.0
  0
LINE
  5
219
330
1F
100
AcDbEntity
  8
0
  6
HIDDEN
 62
     7
370
     0
100
AcDbLine
 10
194.0461045471
 20
115.6831991526
 30
0.0
 11
196.8860559246
 21
117.800127686
 31
0.0
  0
LINE
  5
21A
330
1F
100
AcDbEntity
  8
0
  6
HIDDEN
 62
     7
370
     0
100
AcDbLine
 10
191.722824618
 20
113.9514027521
 30
0.0
 11
193.2836377754
 21
115.114848695
 31
0.0
  0
LINE
  5
21B
330
1F
100
AcDbEntity
  8
0
  6
HIDDEN
 62
     7
370
     0
100
AcDbLine
 10
191.4003037877
 20
118.9494486928
 30
0.0
 11
189.2127273392
 21
117.3188070418
 31
0.0
  0
LINE
  5
21C
330
1F
100
AcDbEntity
  8
0
  6
HIDDEN
 62
     7
370
     0
100
AcDbLine
 10
196.9553765423
 20
123.0902562126
 30
0.0
 11
191.5095218799
 21
119.0308609654
 31
0.0
  0
ARC
  5
21D
330
1F
100
AcDbEntity
  8
0
  6
HIDDEN
 62
     7
370
     0
100
AcDbCircle
 10
165.2072994145
 20
105.5992864476
 30
0.0
 40
4.999999999999995
100
AcDbArc
 50
275.4520921423
 51
326.6329870308
  0
ARC
  5
21E
330
1F
100
AcDbEntity
  8
0
  6
HIDDEN
 62
     7
370
     0
100
AcDbCircle
 10
165.2072994145
 20
121.0992864476
 30
0.0
 40
4.999999999999999
100
AcDbArc
 50
33.3670129692
 51
84.5425889647
  0
LINE
  5
21F
330
1F
100
AcDbEntity
  8
0
  6
HIDDEN
 62
     7
370
     0
100
AcDbLine
 10
158.9157506308
 20
100.5992864476
 30
0.0
 11
161.0898660426
 21
100.5992864476
 31
0.0
  0
LINE
  5
220
330
1F
100
AcDbEntity
  8
0
  6
HIDDEN
 62
     7
370
     0
100
AcDbLine
 10
161.0899067097
 20
126.0992864476
 30
0.0
 11
158.9157506308
 21
126.0992864476
 31
0.0
  0
ARC
  5
221
330
1F
100
AcDbEntity
  8
0
  6
HIDDEN
 62
     7
370
     0
100
AcDbCircle
 10
158.9157506308
 20
100.9992864476
 30
0.0
 40
0.4000000000000244
100
AcDbArc
 50
210.0
 51
270.0
  0
ARC
  5
222
330
1F
100
AcDbEntity
  8
0
  6
HIDDEN
 62
     7
370
     0
100
AcDbCircle
 10
158.9157506308
 20
125.6992864476
 30
0.0
 40
0.3999999999999998
100
AcDbArc
 50
90.0
 51
150.0
  0
LINE
  5
223
330
1F
100
AcDbEntity
  8
0
  6
HIDDEN
 62
     7
370
     0
100
AcDbLine
 10
158.5693404693
 20
125.8992864476
 30
0.0
 11
157.3857724175
 21
123.8492864476
 31
0.0
  0
LINE
  5
224
330
1F
100
AcDbEntity
  8
0
  6
HIDDEN
 62
     7
370
     0
100
AcDbLine
 10
157.3857724175
 20
102.8492864476
 30
0.0
 11
158.5693404693
 21
100.7992864476
 31
0.0
  0
LINE
  5
225
330
1F
100
AcDbEntity
  8
0
  6
HIDDEN
 62
     7
370
     0
100
AcDbLine
 10
190.2831226866
 20
116.5958391195
 30
0.0
 11
190.2831226866
 21
114.1207297661
 31
0.0
  0
LINE
  5
226
330
1F
100
AcDbEntity
  8
0
  6
HIDDEN
 62
     7
370
     0
100
AcDbLine
 10
194.4831226866
 20
114.0371972067
 30
0.0
 11
194.4831226866
 21
116.5365584205
 31
0.0
  0
ARC
  5
227
330
1F
100
AcDbEntity
  8
0
  6
HIDDEN
 62
     7
370
     0
100
AcDbCircle
 10
176.3331226866
 20
103.4742864476
 30
0.0
 40
1.00000000000001
100
AcDbArc
 50
218.6821874535
 51
0.0
  0
ARC
  5
228
330
1F
100
AcDbEntity
  8
0
  6
HIDDEN
 62
     7
370
     0
100
AcDbCircle
 10
176.3331226866
 20
123.2242864476
 30
0.0
 40
1.00000000000001
100
AcDbArc
 50
0.0
 51
141.3178125465
  0
LINE
  5
229
330
1F
100
AcDbEntity
  8
0
  6
HIDDEN
 62
     7
370
     0
100
AcDbLine
 10
155.5831226866
 20
102.8492864476
 30
0.0
 11
157.3857724175
 21
102.8492864476
 31
0.0
  0
LINE
  5
22A
330
1F
100
AcDbEntity
  8
0
  6
HIDDEN
 62
     7
370
     0
100
AcDbLine
 10
157.3857724175
 20
123.8492864476
 30
0.0
 11
153.0831226866
 21
123.8492864476
 31
0.0
  0
LINE
  5
22B
330
1F
100
AcDbEntity
  8
0
  6
HIDDEN
 62
     7
370
     0
100
AcDbLine
 10
169.3831226866
 20
102.8492864476
 30
0.0
 11
175.5524979368
 21
102.8492864476
 31
0.0
  0
LINE
  5
22C
330
1F
100
AcDbEntity
  8
0
  6
HIDDEN
 62
     7
370
     0
100
AcDbLine
 10
175.5524979368
 20
123.8492864476
 30
0.0
 11
169.3831226866
 21
123.8492864476
 31
0.0
  0
LINE
  5
22D
330
1F
100
AcDbEntity
  8
0
  6
HIDDEN
 62
     7
370
     0
100
AcDbLine
 10
182.6831226866
 20
107.0992864476
 30
0.0
 11
185.1831226866
 21
107.0992864476
 31
0.0
  0
LINE
  5
22E
330
1F
100
AcDbEntity
  8
0
  6
HIDDEN
 62
     7
370
     0
100
AcDbLine
 10
185.1831226866
 20
119.5992864476
 30
0.0
 11
182.6831226866
 21
119.5992864476
 31
0.0
  0
LINE
  5
22F
330
1F
100
AcDbEntity
  8
0
  6
HIDDEN
 62
     7
370
     0
100
AcDbLine
 10
177.3331226866
 20
107.3492864476
 30
0.0
 11
177.8331226866
 21
107.8492864476
 31
0.0
  0
LINE
  5
230
330
1F
100
AcDbEntity
  8
0
  6
HIDDEN
 62
     7
370
     0
100
AcDbLine
 10
177.8331226866
 20
118.8492864476
 30
0.0
 11
177.3331226866
 21
119.3492864476
 31
0.0
  0
LINE
  5
231
330
1F
100
AcDbEntity
  8
0
  6
HIDDEN
 62
     7
370
     0
100
AcDbLine
 10
177.8331226866
 20
107.8492864476
 30
0.0
 11
182.6831226866
 21
107.8492864476
 31
0.0
  0
LINE
  5
232
330
1F
100
AcDbEntity
  8
0
  6
HIDDEN
 62
     7
370
     0
100
AcDbLine
 10
182.6831226866
 20
118.8492864476
 30
0.0
 11
177.8331226866
 21
118.8492864476
 31
0.0
  0
LINE
  5
233
330
1F
100
AcDbEntity
  8
0
  6
HIDDEN
 62
     7
370
     0
100
AcDbLine
 10
177.3331226866
 20
133.3492864476
 30
0.0
 11
177.3331226866
 21
130.2492864476
 31
0.0
  0
LINE
  5
234
330
1F
100
AcDbEntity
  8
0
  6
HIDDEN
 62
     7
370
     0
100
AcDbLine
 10
166.1503019311
 20
98.3079818342
 30
0.0
 11
165.6823733429
 21
98.8038183151
 31
0.0
  0
LINE
  5
235
330
1F
100
AcDbEntity
  8
0
  6
HIDDEN
 62
     7
370
     0
100
AcDbLine
 10
161.0844683278
 20
99.0836720287
 30
0.0
 11
160.5669946119
 21
98.587846716
 31
0.0
  0
LINE
  5
236
330
1F
100
AcDbEntity
  8
0
  6
HIDDEN
 62
     7
370
     0
100
AcDbLine
 10
160.56636038
 20
128.1107761205
 30
0.0
 11
161.084046628
 21
127.614889074
 31
0.0
  0
LINE
  5
237
330
1F
100
AcDbEntity
  8
0
  6
HIDDEN
 62
     7
370
     0
100
AcDbLine
 10
165.681687463
 20
127.8945366071
 30
0.0
 11
166.1495913592
 21
128.3904304798
 31
0.0
  0
LINE
  5
238
330
1F
100
AcDbEntity
  8
0
  6
HIDDEN
 62
     7
370
     0
100
AcDbLine
 10
210.526469406
 20
123.9543271723
 30
0.0
 11
210.1000562473
 21
123.5302499494
 31
0.0
  0
LINE
  5
239
330
1F
100
AcDbEntity
  8
0
  6
HIDDEN
 62
     7
370
     0
100
AcDbLine
 10
215.036190243
 20
118.5669263477
 30
0.0
 11
215.4626034017
 21
118.9910035705
 31
0.0
  0
LINE
  5
23A
330
1F
100
AcDbEntity
  8
0
  6
HIDDEN
 62
     7
370
     0
100
AcDbLine
 10
208.1608919399
 20
130.5718024565
 30
0.0
 11
207.6696081625
 21
130.083209983
 31
0.0
  0
LINE
  5
23B
330
1F
100
AcDbEntity
  8
0
  6
HIDDEN
 62
     7
370
     0
100
AcDbLine
 10
194.3831226866
 20
110.8492864476
 30
0.0
 11
195.2930482723
 21
113.3492864476
 31
0.0
  0
LINE
  5
23C
330
1F
100
AcDbEntity
  8
0
  6
HIDDEN
 62
     7
370
     0
100
AcDbLine
 10
195.2930482723
 20
113.3492864476
 30
0.0
 11
194.3831226866
 21
115.8492864476
 31
0.0
  0
LINE
  5
23D
330
1F
100
AcDbEntity
  8
0
  6
HIDDEN
 62
     7
370
     0
100
AcDbLine
 10
185.1831226866
 20
110.8492864476
 30
0.0
 11
194.3831226866
 21
110.8492864476
 31
0.0
  0
LINE
  5
23E
330
1F
100
AcDbEntity
  8
0
  6
HIDDEN
 62
     7
370
     0
100
AcDbLine
 10
194.3831226866
 20
115.8492864476
 30
0.0
 11
185.1831226866
 21
115.8492864476
 31
0.0
  0
LINE
  5
23F
330
1F
100
AcDbEntity
  8
0
  6
HIDDEN
 62
     7
370
     0
100
AcDbLine
 10
165.6831226866
 20
126.0764989329
 30
0.0
 11
165.6831226866
 21
127.894326053
 31
0.0
  0
LINE
  5
240
330
1F
100
AcDbEntity
  8
0
  6
HIDDEN
 62
     7
370
     0
100
AcDbLine
 10
161.0831226866
 20
127.6137867495
 30
0.0
 11
161.0831226866
 21
126.0980670154
 31
0.0
  0
LINE
  5
241
330
1F
100
AcDbEntity
  8
0
  6
HIDDEN
 62
     7
370
     0
100
AcDbLine
 10
165.6831226866
 20
98.8040623401
 30
0.0
 11
165.6831226866
 21
100.6220739623
 31
0.0
  0
LINE
  5
242
330
1F
100
AcDbEntity
  8
0
  6
HIDDEN
 62
     7
370
     0
100
AcDbLine
 10
161.0831226866
 20
100.6004985566
 30
0.0
 11
161.0831226866
 21
99.0906799034
 31
0.0
  0
LINE
  5
243
330
1F
100
AcDbEntity
  8
0
  6
HIDDEN
 62
     7
370
     0
100
AcDbLine
 10
215.4218936012
 20
122.7074426134
 30
0.0
 11
217.2729349453
 21
126.7098127613
 31
0.0
  0
LINE
  5
244
330
1F
100
AcDbEntity
  8
0
  6
HIDDEN
 62
     7
370
     0
100
AcDbLine
 10
190.2831226866
 20
112.5770971485
 30
0.0
 11
190.2831226866
 21
110.1788784637
 31
0.0
  0
LINE
  5
245
330
1F
100
AcDbEntity
  8
0
  6
HIDDEN
 62
     7
370
     0
100
AcDbLine
 10
194.4831226866
 20
110.1788784637
 30
0.0
 11
194.4831226866
 21
112.6613756885
 31
0.0
  0
LINE
  5
246
330
1F
100
AcDbEntity
  8
0
  6
HIDDEN
 62
     7
370
     0
100
AcDbLine
 10
209.5624779217
 20
123.9828582281
 30
0.0
 11
207.8791641552
 21
122.3087658305
 31
0.0
  0
LINE
  5
247
330
1F
100
AcDbEntity
  8
0
  6
HIDDEN
 62
     7
370
     0
100
AcDbLine
 10
213.8025249501
 20
116.3527775084
 30
0.0
 11
215.4858387166
 21
118.026869906
 31
0.0
  0
LINE
  5
248
330
1F
100
AcDbEntity
  8
0
  6
HIDDEN
 62
     7
370
     0
100
AcDbLine
 10
207.8242290888
 20
130.1538708559
 30
0.0
 11
207.5169154068
 21
129.8482406704
 31
0.0
  0
ARC
  5
249
330
1F
100
AcDbEntity
  8
0
  6
HIDDEN
 62
     7
370
     0
100
AcDbCircle
 10
154.6831226866
 20
99.5692864476
 30
0.0
 40
0.9000000000000026
100
AcDbArc
 50
34.3244016068
 51
90.0
  0
ARC
  5
24A
330
1F
100
AcDbEntity
  8
0
  6
HIDDEN
 62
     7
370
     0
100
AcDbCircle
 10
152.1831226866
 20
127.1292864476
 30
0.0
 40
0.9000000000000057
100
AcDbArc
 50
270.0
 51
311.221922679
  0
LINE
  5
24B
330
1F
100
AcDbEntity
  8
0
  6
HIDDEN
 62
     7
370
     0
100
AcDbLine
 10
150.4921226866
 20
100.4692864476
 30
0.0
 11
154.6831226866
 21
100.4692864476
 31
0.0
  0
LINE
  5
24C
330
1F
100
AcDbEntity
  8
0
  6
HIDDEN
 62
     7
370
     0
100
AcDbLine
 10
149.4831226866
 20
101.4782864476
 30
0.0
 11
150.4921226866
 21
100.4692864476
 31
0.0
  0
LINE
  5
24D
330
1F
100
AcDbEntity
  8
0
  6
HIDDEN
 62
     7
370
     0
100
AcDbLine
 10
152.1831226866
 20
126.2292864476
 30
0.0
 11
150.4331226866
 21
126.2292864476
 31
0.0
  0
LINE
  5
24E
330
1F
100
AcDbEntity
  8
0
  6
HIDDEN
 62
     7
370
     0
100
AcDbLine
 10
150.4331226866
 20
126.2292864476
 30
0.0
 11
149.4831226866
 21
125.2792864476
 31
0.0
  0
LINE
  5
24F
330
1F
100
AcDbEntity
  8
0
  6
HIDDEN
 62
     7
370
     0
100
AcDbLine
 10
214.3455602494
 20
134.9137097632
 30
0.0
 11
213.7602008551
 21
134.3315570289
 31
0.0
  0
LINE
  5
250
330
1F
100
AcDbEntity
  8
0
  6
HIDDEN
 62
     7
370
     0
100
AcDbLine
 10
218.2732376512
 20
129.7936611644
 30
0.0
 11
218.8585970455
 21
130.3758138987
 31
0.0
  0
LINE
  5
251
330
1F
100
AcDbEntity
  8
0
  6
HIDDEN
 62
     7
370
     0
100
AcDbLine
 10
213.2483388154
 20
131.3010909977
 30
0.0
 11
211.5240099551
 21
127.5727019061
 31
0.0
  0
LINE
  5
252
330
1F
100
AcDbEntity
  8
0
  6
HIDDEN
 62
     7
370
     0
100
AcDbLine
 10
189.8831226866
 20
110.1046080067
 30
0.0
 11
189.8831226866
 21
108.2178599671
 31
0.0
  0
LINE
  5
253
330
1F
100
AcDbEntity
  8
0
  6
HIDDEN
 62
     7
370
     0
100
AcDbLine
 10
194.8831226866
 20
108.2505462399
 30
0.0
 11
194.8831226866
 21
110.1046080067
 31
0.0
  0
LINE
  5
254
330
1F
100
AcDbEntity
  8
VERMASSUNG
  6
CENTERX2
100
AcDbLine
 10
145.4432202985
 20
113.3492864476
 30
0.0
 11
224.3831226866
 21
113.3492864476
 31
0.0
  0
LINE
  5
255
330
1F
100
AcDbEntity
  8
VERMASSUNG
  6
CENTERX2
100
AcDbLine
 10
224.3831226866
 20
140.3492864476
 30
0.0
 11
224.3831226866
 21
113.3492864476
 31
0.0
  0
LINE
  5
256
330
1F
100
AcDbEntity
  8
VERMASSUNG
  6
CENTERX2
100
AcDbLine
 10
224.3831226866
 20
140.3492864476
 30
0.0
 11
237.5310283588
 21
140.3492864476
 31
0.0
  0
DIMENSION
  5
257
330
1F
100
AcDbEntity
  8
VERMASSUNG
100
AcDbDimension
  2
_D
 10
237.5310283588
 20
140.3492864476
 30
0.0
 11
231.7070190917
 21
132.3960872322
 31
0.0
 70
   162
  1
<>
 71
     1
 42
-1.0
  3
SLDDIMSTYLE0
100
AcDb2LineAngularDimension
 13
223.3342250864
 23
127.9522836577
 33
0.0
 14
224.3816089042
 24
139.9124285157
 34
0.0
 15
224.3831226866
 25
140.3492864476
 35
0.0
 16
231.7070190917
 26
132.3960872322
 36
0.0
  0
DIMENSION
  5
260
330
1F
100
AcDbEntity
  8
VERMASSUNG
100
AcDbDimension
  2
_D_1
 10
241.0821965863
 20
113.3492864476
 30
0.0
 11
241.0821965863
 21
126.8492864476
 31
0.0
 70
   160
  1
<>
 71
     2
 42
-1.0
  3
SLDDIMSTYLE1
100
AcDbAlignedDimension
 13
224.3831226866
 23
140.3492864476
 33
0.0
 14
224.3831226866
 24
113.3492864476
 34
0.0
 50
90.0
100
AcDbRotatedDimension
  0
DIMENSION
  5
26B
330
1F
100
AcDbEntity
  8
VERMASSUNG
100
AcDbDimension
  2
_D_2
 10
224.3831226866
 20
149.3664905181
 30
0.0
 11
196.8831226866
 21
149.3664905181
 31
0.0
 70
   160
  1
<>
 71
     2
 42
-1.0
  3
SLDDIMSTYLE1
100
AcDbAlignedDimension
 13
169.3831226866
 23
133.0492864476
 33
0.0
 14
224.3831226866
 24
140.3492864476
 34
0.0
100
AcDbRotatedDimension
  0
DIMENSION
  5
275
330
1F
100
AcDbEntity
  8
VERMASSUNG
100
AcDbDimension
  2
_D_3
 10
149.4831226866
 20
156.9389719672
 30
0.0
 11
186.9331226866
 21
156.9389719672
 31
0.0
 70
   160
  1
<>
 71
     2
 42
-1.0
  3
SLDDIMSTYLE1
100
AcDbAlignedDimension
 13
224.3831226866
 23
140.3492864476
 33
0.0
 14
149.4831226866
 24
125.2792864476
 34
0.0
100
AcDbRotatedDimension
  0
DIMENSION
  5
27F
330
1F
100
AcDbEntity
  8
VERMASSUNG
100
AcDbDimension
  2
_D_4
 10
139.4169213471
 20
93.3492864476
 30
0.0
 11
139.4169213471
 21
113.3492864476
 31
0.0
 70
   160
  1
HSK T%%c<>
 71
     2
 42
-1.0
  3
SLDDIMSTYLE1
100
AcDbAlignedDimension
 13
169.6831226866
 23
133.3492864476
 33
0.0
 14
169.6831226866
 24
93.3492864476
 34
0.0
 50
90.0
100
AcDbRotatedDimension
  0
LINE
  5
28B
330
1F
100
AcDbEntity
  8
0
  6
Continuous
 62
     7
370
    15
100
AcDbLine
 10
76.8807483265
 20
125.1715869238
 30
0.0
 11
76.6592786676
 21
124.9902097273
 31
0.0
  0
LINE
  5
28C
330
1F
100
AcDbEntity
  8
0
  6
Continuous
 62
     7
370
    15
100
AcDbLine
 10
75.9316321526
 20
118.0671155898
 30
0.0
 11
76.1105517285
 21
117.843655789
 31
0.0
  0
LINE
  5
28D
330
1F
100
AcDbEntity
  8
0
  6
Continuous
 62
     7
370
    15
100
AcDbLine
 10
83.8729383839
 20
139.8544326163
 30
0.0
 11
79.1649470941
 21
140.3492624405
 31
0.0
  0
LINE
  5
28E
330
1F
100
AcDbEntity
  8
0
  6
Continuous
 62
     7
370
    15
100
AcDbLine
 10
78.2724737522
 20
138.1855203883
 30
0.0
 11
77.8441450974
 21
137.5838884249
 31
0.0
  0
SPLINE
  5
28F
330
1F
100
AcDbEntity
  8
0
  6
Continuous
 62
     7
370
    15
100
AcDbSpline
210
0.0
220
0.0
230
1.0
 70
     8
 71
     3
 72
     9
 73
     5
 74
     0
 42
0.00000001
 43
0.00000001
 12
1.0
 22
0.0
 32
0.0
 13
1.0
 23
0.0
 33
0.0
 40
0.0
 40
0.0
 40
0.0
 40
0.0
 40
0.8124185866047441
 40
1.0
 40
1.0
 40
1.0
 40
1.0
 10
78.37766493373292
 20
138.39576097558
 30
0.0
 10
78.37943802591526
 20
138.3974579256091
 30
0.0
 10
78.38162051190413
 20
138.3995466887874
 30
0.0
 10
78.37193016584513
 20
138.3663703964921
 30
0.0
 10
78.37011243703508
 20
138.3601471406922
 30
0.0
  0
LINE
  5
290
330
1F
100
AcDbEntity
  8
0
  6
Continuous
 62
     7
370
    15
100
AcDbLine
 10
76.873099724
 20
128.9344205763
 30
0.0
 11
77.17678062
 21
128.2342907899
 31
0.0
  0
SPLINE
  5
291
330
1F
100
AcDbEntity
  8
0
  6
Continuous
 62
     7
370
    15
100
AcDbSpline
210
0.0
220
0.0
230
1.0
 70
     8
 71
     3
 72
    13
 73
     9
 74
     0
 42
0.00000001
 43
0.00000001
 12
1.0
 22
0.0
 32
0.0
 13
1.0
 23
0.0
 33
0.0
 40
0.0
 40
0.0
 40
0.0
 40
0.0
 40
0.1843808120431342
 40
0.372383189854413
 40
0.540804176060915
 40
0.7066397713717752
 40
0.9264246606120213
 40
1.0
 40
1.0
 40
1.0
 40
1.0
 10
77.1920140308736
 20
128.2420387078577
 30
0.0
 10
77.21064918292828
 20
128.1934902429054
 30
0.0
 10
77.24828551443505
 20
128.0954397351486
 30
0.0
 10
77.25482687436788
 20
127.95647327025
 30
0.0
 10
77.24282053746967
 20
127.8555812485212
 30
0.0
 10
77.2275496813886
 20
127.7971827024418
 30
0.0
 10
77.219014038519
 20
127.7755691243685
 30
0.0
 10
77.22108168561049
 20
127.7802871998788
 30
0.0
 10
77.22160025568796
 20
127.7814705027708
 30
0.0
  0
LINE
  5
292
330
1F
100
AcDbEntity
  8
0
  6
Continuous
 62
     7
370
    15
100
AcDbLine
 10
76.3521087507
 20
126.6776414147
 30
0.0
 11
76.6506464149
 21
126.6462638418
 31
0.0
  0
LINE
  5
293
330
1F
100
AcDbEntity
  8
0
  6
Continuous
 62
     7
370
    15
100
AcDbLine
 10
86.5135599081
 20
138.8749727388
 30
0.0
 11
83.838999966
 21
139.1560803162
 31
0.0
  0
LINE
  5
294
330
1F
100
AcDbEntity
  8
0
  6
Continuous
 62
     7
370
    15
100
AcDbLine
 10
86.7861665762
 20
138.5407696307
 30
0.0
 11
86.5239071466
 21
138.8683159018
 31
0.0
  0
SPLINE
  5
295
330
1F
100
AcDbEntity
  8
0
  6
Continuous
 62
     7
370
    15
100
AcDbSpline
210
0.0
220
0.0
230
1.0
 70
     8
 71
     3
 72
    21
 73
    17
 74
     0
 42
0.00000001
 43
0.00000001
 12
1.0
 22
0.0
 32
0.0
 13
1.0
 23
0.0
 33
0.0
 40
0.0
 40
0.0
 40
0.0
 40
0.0
 40
0.031413381923556
 40
0.0628094503132291
 40
0.0941958129839758
 40
0.1255800848090005
 40
0.1883050280747232
 40
0.2510223384616835
 40
0.3762975567273902
 40
0.5014060811737125
 40
0.6263354959399674
 40
0.7510762290803402
 40
0.8133546615474426
 40
0.8756374069353822
 40
0.9378169030496799
 40
1.0
 40
1.0
 40
1.0
 40
1.0
 10
97.2069924441236
 20
131.0797893105056
 30
0.0
 10
97.11777703709559
 20
131.1769796237147
 30
0.0
 10
96.93939539424869
 20
131.3713066835418
 30
0.0
 10
96.66611779169016
 20
131.6573676197635
 30
0.0
 10
96.38878632064463
 20
131.9393138106334
 30
0.0
 10
96.01321720704927
 20
132.3090989717909
 30
0.0
 10
95.53305839933118
 20
132.7601033662552
 30
0.0
 10
94.74306541652444
 20
133.4565149341932
 30
0.0
 10
93.7157762847049
 20
134.2791141274059
 30
0.0
 10
92.42432466748183
 20
135.1854075524609
 30
0.0
 10
91.07961770745587
 20
136.0070966834934
 30
0.0
 10
89.91866940183573
 20
136.6186978369704
 30
0.0
 10
88.96891871584631
 20
137.0626069245087
 30
0.0
 10
88.24692552903952
 20
137.3718668437064
 30
0.0
 10
87.51623296327982
 20
137.6595545344477
 30
0.0
 10
87.02193870236984
 20
137.8313723292713
 30
0.0
 10
86.77478441593433
 20
137.917283714118
 30
0.0
  0
SPLINE
  5
296
330
1F
100
AcDbEntity
  8
0
  6
Continuous
 62
     7
370
    15
100
AcDbSpline
210
0.0
220
0.0
230
1.0
 70
    24
 71
     3
 72
     9
 73
     5
 74
     0
 42
0.00000001
 43
0.00000001
 12
1.0
 22
0.0
 32
0.0
 13
1.0
 23
0.0
 33
0.0
 40
0.0
 40
0.0
 40
0.0
 40
0.0
 40
0.5030779040693283
 40
1.0
 40
1.0
 40
1.0
 40
1.0
 10
97.20699131150964
 20
131.7285767177297
 30
0.0
 10
97.20699131150964
 20
131.6200771349317
 30
0.0
 10
97.20699131150964
 20
131.4044056019138
 30
0.0
 10
97.20699131150964
 20
131.1875500734756
 30
0.0
 10
97.20699131150964
 20
131.07978976977
 30
0.0
  0
SPLINE
  5
297
330
1F
100
AcDbEntity
  8
0
  6
Continuous
 62
     7
370
    15
100
AcDbSpline
210
0.0
220
0.0
230
1.0
 70
     8
 71
     3
 72
    21
 73
    17
 74
     0
 42
0.00000001
 43
0.00000001
 12
1.0
 22
0.0
 32
0.0
 13
1.0
 23
0.0
 33
0.0
 40
0.0
 40
0.0
 40
0.0
 40
0.0
 40
0.0406993831255094
 40
0.0817173316712537
 40
0.1230542583023115
 40
0.1647105661975989
 40
0.2066866493267217
 40
0.2489828927172639
 40
0.3719888906396511
 40
0.4986653735144514
 40
0.6214651346866027
 40
0.74902694597249
 40
0.8109911412989985
 40
0.874448249981216
 40
0.9363421640835143
 40
1.0
 40
1.0
 40
1.0
 40
1.0
 10
86.77681488500565
 20
138.4106923885846
 30
0.0
 10
86.93777451321404
 20
138.3560956304046
 30
0.0
 10
87.26095364552236
 20
138.2464747699947
 30
0.0
 10
87.74310945264699
 20
138.0688353211486
 30
0.0
 10
88.22541013929488
 20
137.8805705832222
 30
0.0
 10
88.70725825392016
 20
137.6806307896891
 30
0.0
 10
89.18844964349175
 20
137.4691289139904
 30
0.0
 10
89.97286359500598
 20
137.1044486694511
 30
0.0
 10
91.05615209398003
 20
136.5454350712374
 30
0.0
 10
92.39080422117912
 20
135.7482464102623
 30
0.0
 10
93.68905363760756
 20
134.8597639046603
 30
0.0
 10
94.71691668248705
 20
134.0587912541236
 30
0.0
 10
95.51794810317566
 20
133.3725218763908
 30
0.0
 10
96.09481293427032
 20
132.8460678371927
 30
0.0
 10
96.66155250906922
 20
132.2984326369402
 30
0.0
 10
97.02348337618193
 20
131.9203029827636
 30
0.0
 10
97.2069912583765
 20
131.7285819157364
 30
0.0
  0
LINE
  5
298
330
1F
100
AcDbEntity
  8
0
  6
Continuous
 62
     7
370
    15
100
AcDbLine
 10
76.6269436835
 20
116.0520554807
 30
0.0
 11
97.2069913115
 21
113.889005313
 31
0.0
  0
LINE
  5
299
330
1F
100
AcDbEntity
  8
0
  6
Continuous
 62
     7
370
    15
100
AcDbLine
 10
77.9374850517
 20
127.5119226477
 30
0.0
 11
76.6269436835
 21
116.0520554807
 31
0.0
  0
LINE
  5
29A
330
1F
100
AcDbEntity
  8
0
  6
Continuous
 62
     7
370
    15
100
AcDbLine
 10
77.9374850517
 20
127.5119226477
 30
0.0
 11
82.5861319135
 21
127.0233301743
 31
0.0
  0
LINE
  5
29B
330
1F
100
AcDbEntity
  8
0
  6
Continuous
 62
     7
370
    15
100
AcDbLine
 10
82.5861319135
 20
127.0233301743
 30
0.0
 11
82.6436005156
 21
127.5258572691
 31
0.0
  0
LINE
  5
29C
330
1F
100
AcDbEntity
  8
0
  6
Continuous
 62
     7
370
    15
100
AcDbLine
 10
82.6436005156
 20
127.5258572691
 30
0.0
 11
85.5514774886
 21
127.2202270836
 31
0.0
  0
LINE
  5
29D
330
1F
100
AcDbEntity
  8
0
  6
Continuous
 62
     7
370
    15
100
AcDbLine
 10
85.6104770334
 20
127.736141318
 30
0.0
 11
85.5514774886
 21
127.2202270836
 31
0.0
  0
LINE
  5
29E
330
1F
100
AcDbEntity
  8
0
  6
Continuous
 62
     7
370
    15
100
AcDbLine
 10
97.2069913115
 20
131.0797898257
 30
0.0
 11
97.2069913115
 21
113.889005313
 31
0.0
  0
ARC
  5
29F
330
1F
100
AcDbEntity
  8
0
  6
Continuous
 62
     7
370
    15
100
AcDbCircle
 10
96.2900164072
 20
126.8433294428
 30
0.0
 40
19.87735050766356
100
AcDbArc
 50
169.7618567446
 51
177.1902262948
  0
LWPOLYLINE
  5
2A0
330
1F
100
AcDbEntity
  8
0
  6
Continuous
 62
     7
370
    15
100
AcDbPolyline
 90
        3
 70
   128
 43
0.0
 10
76.4648294831
 20
126.6657939883
 10
76.4946503585
 20
126.5889671374
 10
76.5448181645
 20
126.5750729759
  0
LINE
  5
2A1
330
1F
100
AcDbEntity
  8
0
  6
Continuous
 62
     7
370
    15
100
AcDbLine
 10
76.6269436835
 20
116.0520554807
 30
0.0
 11
73.0990067748
 21
96.417289374
 31
0.0
  0
ARC
  5
2A2
330
1F
100
AcDbEntity
  8
0
  6
Continuous
 62
     7
370
    15
100
AcDbCircle
 10
79.2069913115
 20
113.3492864476
 30
0.0
 40
18.0
100
AcDbArc
 50
249.25782797
 51
250.1637899775
  0
SPLINE
  5
2A3
330
1F
100
AcDbEntity
  8
0
  6
Continuous
 62
     7
370
    15
100
AcDbSpline
210
0.0
220
0.0
230
1.0
 70
     8
 71
     3
 72
     8
 73
     4
 74
     0
 42
0.00000001
 43
0.00000001
 12
1.0
 22
0.0
 32
0.0
 13
1.0
 23
0.0
 33
0.0
 40
0.0
 40
0.0
 40
0.0
 40
0.0
 40
1.0
 40
1.0
 40
1.0
 40
1.0
 10
72.83205239896732
 20
96.51598154746566
 30
0.0
 10
72.85253916972547
 20
96.77916797935545
 30
0.0
 10
72.87304094700015
 20
97.04238291452785
 30
0.0
 10
72.89355979799039
 20
97.30563027940764
 30
0.0
  0
SPLINE
  5
2A4
330
1F
100
AcDbEntity
  8
0
  6
Continuous
 62
     7
370
    15
100
AcDbSpline
210
0.0
220
0.0
230
1.0
 70
     8
 71
     3
 72
    10
 73
     6
 74
     0
 42
0.00000001
 43
0.00000001
 12
1.0
 22
0.0
 32
0.0
 13
1.0
 23
0.0
 33
0.0
 40
0.0
 40
0.0
 40
0.0
 40
0.0
 40
0.5
 40
0.5
 40
1.0
 40
1.0
 40
1.0
 40
1.0
 10
72.89355979799039
 20
97.30563027940764
 30
0.0
 10
72.91063018336263
 20
97.52463542588777
 30
0.0
 10
72.91834279527514
 20
97.72186680028844
 30
0.0
 10
72.91267649349876
 20
98.01296938028271
 30
0.0
 10
72.89909326230858
 20
98.10261354735744
 30
0.0
 10
72.87624189384901
 20
98.11210784360027
 30
0.0
  0
ARC
  5
2A5
330
1F
100
AcDbEntity
  8
0
  6
Continuous
 62
     7
370
    15
100
AcDbCircle
 10
79.2069913115
 20
113.3492864476
 30
0.0
 40
16.5
100
AcDbArc
 50
245.6452090925
 51
247.4380719152
  0
ARC
  5
2A6
330
1F
100
AcDbEntity
  8
0
  6
Continuous
 62
     7
370
    15
100
AcDbCircle
 10
79.2069913115
 20
113.3492864476
 30
0.0
 40
16.50000000000003
100
AcDbArc
 50
100.5619280848
 51
102.3547909075
  0
SPLINE
  5
2A7
330
1F
100
AcDbEntity
  8
0
  6
Continuous
 62
     7
370
    15
100
AcDbSpline
210
0.0
220
0.0
230
1.0
 70
     8
 71
     3
 72
    10
 73
     6
 74
     0
 42
0.00000001
 43
0.00000001
 12
1.0
 22
0.0
 32
0.0
 13
1.0
 23
0.0
 33
0.0
 40
0.0
 40
0.0
 40
0.0
 40
0.0
 40
0.5
 40
0.5
 40
1.0
 40
1.0
 40
1.0
 40
1.0
 10
76.18257152463111
 20
129.5697329566572
 30
0.0
 10
76.20689006290712
 20
129.5742673243338
 30
0.0
 10
76.23840854187776
 20
129.657530357867
 30
0.0
 10
76.304964665124
 20
129.9428474757119
 30
0.0
 10
76.33835993694372
 20
130.137287485777
 30
0.0
 10
76.36718710499413
 20
130.3549864563808
 30
0.0
  0
SPLINE
  5
2A8
330
1F
100
AcDbEntity
  8
0
  6
Continuous
 62
     7
370
    15
100
AcDbSpline
210
0.0
220
0.0
230
1.0
 70
     8
 71
     3
 72
     8
 73
     4
 74
     0
 42
0.00000001
 43
0.00000001
 12
1.0
 22
0.0
 32
0.0
 13
1.0
 23
0.0
 33
0.0
 40
0.0
 40
0.0
 40
0.0
 40
0.0
 40
1.0
 40
1.0
 40
1.0
 40
1.0
 10
76.36718710499413
 20
130.3549864563808
 30
0.0
 10
76.70061592697505
 20
132.8729969382974
 30
0.0
 10
77.03488675601871
 20
135.3880250920559
 30
0.0
 10
77.36941807375122
 20
137.9021306137059
 30
0.0
  0
LWPOLYLINE
  5
2A9
330
1F
100
AcDbEntity
  8
0
  6
Continuous
 62
     7
370
    15
100
AcDbPolyline
 90
       41
 70
   128
 43
0.0
 10
75.9133055377
 20
121.5246432941
 10
75.853792397
 20
120.9022957359
 10
75.806096103
 20
120.2952724401
 10
75.7713910968
 20
119.7185203347
 10
75.7505319307
 20
119.1862409708
 10
75.7440322268
 20
118.7115408328
 10
75.7520520292
 20
118.3061086135
 10
75.7743938639
 20
117.9799273998
 10
75.8105076007
 20
117.7410288556
 10
75.8595039995
 20
117.5952954561
 10
75.9201766065
 20
117.546315641
 10
75.9910314606
 20
117.5952954561
 10
76.0703238802
 20
117.7410288556
 10
76.1561014228
 20
117.9799273998
 10
76.2462519606
 20
118.3061086135
 10
76.3385556881
 20
118.7115408328
 10
76.4307397813
 20
119.1862409708
 10
76.5205343618
 20
119.7185203347
 10
76.6057283891
 20
120.2952724401
 10
76.6842241034
 20
120.9022957359
 10
76.7540886798
 20
121.5246432941
 10
76.8136018206
 20
122.1469908522
 10
76.8612981146
 20
122.7540141481
 10
76.8960031208
 20
123.3307662534
 10
76.9168622868
 20
123.8630456173
 10
76.9233619908
 20
124.3377457553
 10
76.9153421883
 20
124.7431779746
 10
76.8930003537
 20
125.0693591883
 10
76.8568866169
 20
125.3082577325
 10
76.807890218
 20
125.4539911321
 10
76.7472176111
 20
125.5029709472
 10
76.676362757
 20
125.4539911321
 10
76.5970703374
 20
125.3082577325
 10
76.5112927948
 20
125.0693591883
 10
76.421142257
 20
124.7431779746
 10
76.3288385295
 20
124.3377457553
 10
76.2366544363
 20
123.8630456173
 10
76.1468598557
 20
123.3307662534
 10
76.0616658285
 20
122.7540141481
 10
75.9831701141
 20
122.1469908522
 10
75.9133055377
 20
121.5246432941
  0
LINE
  5
2AA
330
1F
100
AcDbEntity
  8
0
  6
Continuous
 62
     7
370
    15
100
AcDbLine
 10
76.5448181645
 20
126.5750729759
 30
0.0
 11
77.9374850517
 21
127.5119226477
 31
0.0
  0
ELLIPSE
  5
2AB
330
1F
100
AcDbEntity
  8
0
  6
Continuous
 62
     7
370
    15
100
AcDbEllipse
 10
79.2069913115
 20
116.8594834799
 30
0.0
 11
21.75048845429387
 21
30.80469282832283
 31
0.0
210
0.0
220
0.0
230
1.0
 40
0.4001153713
 41
1.118881298035923
 42
1.128811225373071
  0
LINE
  5
2AC
330
1F
100
AcDbEntity
  8
0
  6
Continuous
 62
     7
370
    15
100
AcDbLine
 10
82.6436005156
 20
127.5258572691
 30
0.0
 11
82.4976264166
 21
127.4276602142
 31
0.0
  0
LINE
  5
2AD
330
1F
100
AcDbEntity
  8
0
  6
Continuous
 62
     7
370
    15
100
AcDbLine
 10
97.2069913115
 20
113.889005313
 30
0.0
 11
97.2069913115
 21
113.3492864476
 31
0.0
  0
ARC
  5
2AE
330
1F
100
AcDbEntity
  8
0
  6
Continuous
 62
     7
370
    15
100
AcDbCircle
 10
79.2069913115
 20
113.3492864476
 30
0.0
 40
18.00000000000001
100
AcDbArc
 50
250.1637899775
 51
0.0
  0
SPLINE
  5
2AF
330
1F
100
AcDbEntity
  8
0
  6
Continuous
 62
     7
370
    15
100
AcDbSpline
210
0.0
220
0.0
230
1.0
 70
     8
 71
     3
 72
    10
 73
     6
 74
     0
 42
0.00000001
 43
0.00000001
 12
1.0
 22
0.0
 32
0.0
 13
1.0
 23
0.0
 33
0.0
 40
0.0
 40
0.0
 40
0.0
 40
0.0
 40
0.5
 40
0.5
 40
1.0
 40
1.0
 40
1.0
 40
1.0
 10
75.06952538421407
 20
129.3221188733444
 30
0.0
 10
75.22569186506219
 20
129.3625709031581
 30
0.0
 10
75.36907624282955
 20
129.3971161636785
 30
0.0
 10
75.58629186530938
 20
129.4475151138521
 30
0.0
 10
75.65866399575762
 20
129.4632465275882
 30
0.0
 10
75.676575088682
 20
129.4671697234537
 30
0.0
  0
SPLINE
  5
2B0
330
1F
100
AcDbEntity
  8
0
  6
Continuous
 62
     7
370
    15
100
AcDbSpline
210
0.0
220
0.0
230
1.0
 70
     8
 71
     3
 72
    10
 73
     6
 74
     0
 42
0.00000001
 43
0.00000001
 12
1.0
 22
0.0
 32
0.0
 13
1.0
 23
0.0
 33
0.0
 40
0.0
 40
0.0
 40
0.0
 40
0.0
 40
0.5
 40
0.5
 40
1.0
 40
1.0
 40
1.0
 40
1.0
 10
72.40262678927593
 20
98.31763239862222
 30
0.0
 10
72.38594014041219
 20
98.32518592807104
 30
0.0
 10
72.31982131153342
 20
98.35497244592767
 30
0.0
 10
72.11675310705748
 20
98.44992118617195
 30
0.0
 10
71.98323782837065
 20
98.51374224572282
 30
0.0
 10
71.83900034482525
 20
98.58572627010733
 30
0.0
  0
ELLIPSE
  5
2B1
330
1F
100
AcDbEntity
  8
0
  6
Continuous
 62
     7
370
    15
100
AcDbEllipse
 10
69.1826999663
 20
120.4451919493
 30
0.0
 11
1.725401997085925
 21
2.404881739335352
 31
0.0
210
0.0
220
0.0
230
1.0
 40
0.6916281361
 41
0.0
 42
6.283185307179586
  0
ARC
  5
2B2
330
1F
100
AcDbEntity
  8
0
  6
Continuous
 62
     7
370
    15
100
AcDbCircle
 10
79.2069913115
 20
113.3492864476
 30
0.0
 40
16.5
100
AcDbArc
 50
104.5222239123
 51
243.4777760877
  0
SPLINE
  5
2B3
330
1F
100
AcDbEntity
  8
0
  6
Continuous
 62
     7
370
    15
100
AcDbSpline
210
0.0
220
0.0
230
1.0
 70
     8
 71
     3
 72
    24
 73
    20
 74
     0
 42
0.00000001
 43
0.00000001
 12
1.0
 22
0.0
 32
0.0
 13
1.0
 23
0.0
 33
0.0
 40
0.0
 40
0.0
 40
0.0
 40
0.0
 40
0.0819571264356134
 40
0.1229357335318304
 40
0.1437269009692888
 40
0.1648589725718383
 40
0.1855523881573175
 40
0.2063112026262021
 40
0.2287351561124919
 40
0.2517781106455388
 40
0.3013397058418783
 40
0.3511661948087832
 40
0.4515851071878114
 40
0.5506373554961579
 40
0.6503203340218796
 40
0.7522878408061823
 40
0.8552209409654267
 40
0.971484170461123
 40
1.0
 40
1.0
 40
1.0
 40
1.0
 10
67.9079095685684
 20
119.0251383009171
 30
0.0
 10
67.95712158017888
 20
118.981057507851
 30
0.0
 10
68.03093962394182
 20
118.9149362946518
 30
0.0
 10
68.12350498086657
 20
118.8316011195098
 30
0.0
 10
68.18257854961082
 20
118.7843210094459
 30
0.0
 10
68.23254639061017
 20
118.7502966636905
 30
0.0
 10
68.29185995716917
 20
118.7224217326864
 30
0.0
 10
68.3576047512431
 20
118.7078197518914
 30
0.0
 10
68.4224217200227
 20
118.7039921570713
 30
0.0
 10
68.51075130034104
 20
118.7056520466107
 30
0.0
 10
68.61854177120216
 20
118.7135825672377
 30
0.0
 10
68.78794609395251
 20
118.7262092589747
 30
0.0
 10
68.9909173424701
 20
118.7358094693304
 30
0.0
 10
69.22322758890775
 20
118.7312296617541
 30
0.0
 10
69.4441551420324
 20
118.7084437238476
 30
0.0
 10
69.65322575891459
 20
118.6650397803363
 30
0.0
 10
69.85292273237722
 20
118.5940225667143
 30
0.0
 10
69.99081778077132
 20
118.5205227237591
 30
0.0
 10
70.05641395382965
 20
118.4637136802383
 30
0.0
 10
70.06933384225692
 20
118.4525245137103
 30
0.0
  0
SPLINE
  5
2B4
330
1F
100
AcDbEntity
  8
0
  6
Continuous
 62
     7
370
    15
100
AcDbSpline
210
0.0
220
0.0
230
1.0
 70
     8
 71
     3
 72
    17
 73
    13
 74
     0
 42
0.00000001
 43
0.00000001
 12
1.0
 22
0.0
 32
0.0
 13
1.0
 23
0.0
 33
0.0
 40
0.0
 40
0.0
 40
0.0
 40
0.0
 40
0.0615443785490199
 40
0.222084870749168
 40
0.3833382742781587
 40
0.504264890549221
 40
0.5771758578187206
 40
0.6239608714295978
 40
0.6712093084888929
 40
0.736136406567389
 40
0.8671722526425637
 40
1.0
 40
1.0
 40
1.0
 40
1.0
 10
68.74555015672448
 20
117.8366104988207
 30
0.0
 10
68.73223548982591
 20
117.8620682934624
 30
0.0
 10
68.6841890858008
 20
117.9539335647653
 30
0.0
 10
68.59382773076793
 20
118.103187572459
 30
0.0
 10
68.48326433972666
 20
118.2681874723945
 30
0.0
 10
68.38475075022285
 20
118.3919444866826
 30
0.0
 10
68.30531842312769
 20
118.4687720872662
 30
0.0
 10
68.23547563332261
 20
118.5122423143188
 30
0.0
 10
68.15688276949791
 20
118.5338572489377
 30
0.0
 10
68.04011448498368
 20
118.5319408464204
 30
0.0
 10
67.89435234237054
 20
118.5028472510568
 30
0.0
 10
67.77961754597207
 20
118.4693837310776
 30
0.0
 10
67.72186056498481
 20
118.4525383454764
 30
0.0
  0
SPLINE
  5
2B5
330
1F
100
AcDbEntity
  8
0
  6
Continuous
 62
     7
370
    15
100
AcDbSpline
210
0.0
220
0.0
230
1.0
 70
     8
 71
     3
 72
    10
 73
     6
 74
     0
 42
0.00000001
 43
0.00000001
 12
1.0
 22
0.0
 32
0.0
 13
1.0
 23
0.0
 33
0.0
 40
0.0
 40
0.0
 40
0.0
 40
0.0
 40
0.5
 40
0.5
 40
1.0
 40
1.0
 40
1.0
 40
1.0
 10
67.72186056498505
 20
118.4525383454766
 30
0.0
 10
67.72712397319033
 20
118.5503231952745
 30
0.0
 10
67.74343694706025
 20
118.6466741077967
 30
0.0
 10
67.80493586944876
 20
118.8380359251037
 30
0.0
 10
67.85062196668015
 20
118.9333156479158
 30
0.0
 10
67.90790956856851
 20
119.0251383009159
 30
0.0
  0
LINE
  5
2B6
330
1F
100
AcDbEntity
  8
0
  6
Continuous
 62
     7
370
    15
100
AcDbLine
 10
67.9079095686
 20
119.0251383009
 30
0.0
 11
67.721860565
 21
118.4525383455
 31
0.0
  0
SPLINE
  5
2B7
330
1F
100
AcDbEntity
  8
0
  6
Continuous
 62
     7
370
    15
100
AcDbSpline
210
0.0
220
0.0
230
1.0
 70
    24
 71
     3
 72
     9
 73
     5
 74
     0
 42
0.00000001
 43
0.00000001
 12
1.0
 22
0.0
 32
0.0
 13
1.0
 23
0.0
 33
0.0
 40
0.0
 40
0.0
 40
0.0
 40
0.0
 40
0.5
 40
1.0
 40
1.0
 40
1.0
 40
1.0
 10
74.70699131150965
 20
130.2492864476139
 30
0.0
 10
74.70699131150965
 20
130.2512093159478
 30
0.0
 10
74.70699131150965
 20
130.2550546049367
 30
0.0
 10
74.70699131150964
 20
130.2588989992572
 30
0.0
 10
74.70699131150965
 20
130.2608209729017
 30
0.0
  0
SPLINE
  5
2B8
330
1F
100
AcDbEntity
  8
0
  6
Continuous
 62
     7
370
    15
100
AcDbSpline
210
0.0
220
0.0
230
1.0
 70
    24
 71
     3
 72
     9
 73
     5
 74
     0
 42
0.00000001
 43
0.00000001
 12
1.0
 22
0.0
 32
0.0
 13
1.0
 23
0.0
 33
0.0
 40
0.0
 40
0.0
 40
0.0
 40
0.0
 40
0.2393474466824784
 40
1.0
 40
1.0
 40
1.0
 40
1.0
 10
76.35132986779553
 20
130.2492864476139
 30
0.0
 10
76.22031273790384
 20
130.2492864476139
 30
0.0
 10
75.67291968354841
 20
130.2492864476139
 30
0.0
 10
75.12430015596547
 20
130.2492864476139
 30
0.0
 10
74.70699131150964
 20
130.2492864476139
 30
0.0
  0
SPLINE
  5
2B9
330
1F
100
AcDbEntity
  8
0
  6
Continuous
 62
     7
370
    15
100
AcDbSpline
210
0.0
220
0.0
230
1.0
 70
    24
 71
     3
 72
    12
 73
     8
 74
     0
 42
0.00000001
 43
0.00000001
 12
1.0
 22
0.0
 32
0.0
 13
1.0
 23
0.0
 33
0.0
 40
0.0
 40
0.0
 40
0.0
 40
0.0
 40
0.4999999999999978
 40
0.4999999999999978
 40
0.7499999999999989
 40
0.7499999999999989
 40
1.0
 40
1.0
 40
1.0
 40
1.0
 10
66.32958862307903
 20
125.1992864476139
 30
0.0
 10
66.51211532662674
 20
125.1992864476139
 30
0.0
 10
66.6967059819619
 20
125.1992864476139
 30
0.0
 10
66.95698730413642
 20
125.1992864476139
 30
0.0
 10
67.0415417569475
 20
125.1992864476139
 30
0.0
 10
67.20548970669172
 20
125.1992864476139
 30
0.0
 10
67.28493993073309
 20
125.1992864476139
 30
0.0
 10
67.35699131151144
 20
125.1992864476139
 30
0.0
  0
SPLINE
  5
2BA
330
1F
100
AcDbEntity
  8
0
  6
Continuous
 62
     7
370
    15
100
AcDbSpline
210
0.0
220
0.0
230
1.0
 70
    24
 71
     3
 72
    10
 73
     6
 74
     0
 42
0.00000001
 43
0.00000001
 12
1.0
 22
0.0
 32
0.0
 13
1.0
 23
0.0
 33
0.0
 40
0.0
 40
0.0
 40
0.0
 40
0.0
 40
0.5
 40
0.5
 40
1.0
 40
1.0
 40
1.0
 40
1.0
 10
67.35699131150965
 20
126.2266891360445
 30
0.0
 10
67.35699131150965
 20
126.0439804239095
 30
0.0
 10
67.35699131150965
 20
125.8604721341487
 30
0.0
 10
67.35699131150965
 20
125.512168155828
 30
0.0
 10
67.35699131150965
 20
125.3439805732852
 30
0.0
 10
67.35699131150965
 20
125.1992864476124
 30
0.0
  0
SPLINE
  5
2BB
330
1F
100
AcDbEntity
  8
0
  6
Continuous
 62
     7
370
    15
100
AcDbSpline
210
0.0
220
0.0
230
1.0
 70
    24
 71
     3
 72
    10
 73
     6
 74
     0
 42
0.00000001
 43
0.00000001
 12
1.0
 22
0.0
 32
0.0
 13
1.0
 23
0.0
 33
0.0
 40
0.0
 40
0.0
 40
0.0
 40
0.0
 40
0.5
 40
0.5
 40
1.0
 40
1.0
 40
1.0
 40
1.0
 10
74.70699131150965
 20
132.2201634807568
 30
0.0
 10
74.70699131150965
 20
132.3785979236446
 30
0.0
 10
74.70699131150964
 20
132.5376186184466
 30
0.0
 10
74.70699131150965
 20
132.7676264427022
 30
0.0
 10
74.70699131150965
 20
132.836461717519
 30
0.0
 10
74.70699131150965
 20
132.836461717519
 30
0.0
  0
ARC
  5
2BC
330
1F
100
AcDbEntity
  8
0
  6
Continuous
 62
     7
370
    15
100
AcDbCircle
 10
79.2069913115
 20
113.3492864476
 30
0.0
 40
20.00000000000003
100
AcDbArc
 50
103.0028781629
 51
126.3346172154
  0
SPLINE
  5
2BD
330
1F
100
AcDbEntity
  8
0
  6
Continuous
 62
     7
370
    15
100
AcDbSpline
210
0.0
220
0.0
230
1.0
 70
    24
 71
     3
 72
    12
 73
     8
 74
     0
 42
0.00000001
 43
0.00000001
 12
1.0
 22
0.0
 32
0.0
 13
1.0
 23
0.0
 33
0.0
 40
0.0
 40
0.0
 40
0.0
 40
0.0
 40
0.2500000000000006
 40
0.2500000000000006
 40
0.5000000000000011
 40
0.5000000000000011
 40
1.0
 40
1.0
 40
1.0
 40
1.0
 10
67.35699131150965
 20
129.4606954486914
 30
0.0
 10
67.35699131150965
 20
129.4606954486914
 30
0.0
 10
67.35699131150965
 20
129.4350708160866
 30
0.0
 10
67.35699131150965
 20
129.3465274431548
 30
0.0
 10
67.35699131150965
 20
129.2836449600401
 30
0.0
 10
67.35699131150965
 20
129.0662837721065
 30
0.0
 10
67.35699131150965
 20
128.8876367620952
 30
0.0
 10
67.35699131150965
 20
128.7095436069195
 30
0.0
  0
ARC
  5
2BE
330
1F
100
AcDbEntity
  8
0
  6
Continuous
 62
     7
370
    15
100
AcDbCircle
 10
79.2069913115
 20
113.3492864476
 30
0.0
 40
20.00000000000002
100
AcDbArc
 50
143.6653827846
 51
254.0379858372
  0
SPLINE
  5
2BF
330
1F
100
AcDbEntity
  8
0
  6
Continuous
 62
     7
370
    15
100
AcDbSpline
210
0.0
220
0.0
230
1.0
 70
    24
 71
     3
 72
    10
 73
     6
 74
     0
 42
0.00000001
 43
0.00000001
 12
1.0
 22
0.0
 32
0.0
 13
1.0
 23
0.0
 33
0.0
 40
0.0
 40
0.0
 40
0.0
 40
0.0
 40
0.5
 40
0.5
 40
1.0
 40
1.0
 40
1.0
 40
1.0
 10
73.70699131150965
 20
94.74525462652731
 30
0.0
 10
73.70699131150965
 20
94.58562245762408
 30
0.0
 10
73.70699131150965
 20
94.42457282386003
 30
0.0
 10
73.70699131150965
 20
94.19158194018344
 30
0.0
 10
73.70699131150965
 20
94.12040192458446
 30
0.0
 10
73.70699131150965
 20
94.12040192458446
 30
0.0
  0
SPLINE
  5
2C0
330
1F
100
AcDbEntity
  8
0
  6
Continuous
 62
     7
370
    15
100
AcDbSpline
210
0.0
220
0.0
230
1.0
 70
    24
 71
     3
 72
    12
 73
     8
 74
     0
 42
0.00000001
 43
0.00000001
 12
1.0
 22
0.0
 32
0.0
 13
1.0
 23
0.0
 33
0.0
 40
0.0
 40
0.0
 40
0.0
 40
0.0
 40
0.250000000000002
 40
0.250000000000002
 40
0.500000000000004
 40
0.500000000000004
 40
1.0
 40
1.0
 40
1.0
 40
1.0
 10
63.09558231043219
 20
125.1992864476139
 30
0.0
 10
63.09558231043219
 20
125.1992864476139
 30
0.0
 10
63.12086246059664
 20
125.1992864476139
 30
0.0
 10
63.2104738060984
 20
125.1992864476139
 30
0.0
 10
63.27345944302439
 20
125.1992864476139
 30
0.0
 10
63.48974616478195
 20
125.1992864476139
 30
0.0
 10
63.66972592220234
 20
125.1992864476139
 30
0.0
 10
63.84673415220403
 20
125.1992864476139
 30
0.0
  0
ARC
  5
2C1
330
1F
100
AcDbEntity
  8
0
  6
Continuous
 62
     7
370
    15
100
AcDbCircle
 10
79.2069913115
 20
113.3492864476
 30
0.0
 40
20.00000000000001
100
AcDbArc
 50
285.9620141628
 51
25.8419327632
  0
SPLINE
  5
2C2
330
1F
100
AcDbEntity
  8
0
  6
Continuous
 62
     7
370
    15
100
AcDbSpline
210
0.0
220
0.0
230
1.0
 70
    24
 71
     3
 72
    12
 73
     8
 74
     0
 42
0.00000001
 43
0.00000001
 12
1.0
 22
0.0
 32
0.0
 13
1.0
 23
0.0
 33
0.0
 40
0.0
 40
0.0
 40
0.0
 40
0.0
 40
0.25
 40
0.25
 40
0.5
 40
0.5
 40
1.0
 40
1.0
 40
1.0
 40
1.0
 10
84.70699131150964
 20
94.12040192458446
 30
0.0
 10
84.70699131150964
 20
94.12040192458447
 30
0.0
 10
84.70699131150964
 20
94.13737752094256
 30
0.0
 10
84.70699131150964
 20
94.20185301840175
 30
0.0
 10
84.70699131150964
 20
94.24896665019637
 30
0.0
 10
84.70699131150964
 20
94.42557656418386
 30
0.0
 10
84.70699131150964
 20
94.58542543999201
 30
0.0
 10
84.70699131150964
 20
94.74525462652703
 30
0.0
  0
LINE
  5
2C3
330
1F
100
AcDbEntity
  8
0
  6
Continuous
 62
     7
370
    15
100
AcDbLine
 10
84.7069913115
 20
94.7452546265
 30
0.0
 11
84.7069913115
 21
96.2101499466
 31
0.0
  0
LINE
  5
2C4
330
1F
100
AcDbEntity
  8
0
  6
Continuous
 62
     7
370
    15
100
AcDbLine
 10
73.7069913115
 20
96.2101499466
 30
0.0
 11
73.7069913115
 21
94.7452546265
 31
0.0
  0
LINE
  5
2C5
330
1F
100
AcDbEntity
  8
0
  6
Continuous
 62
     7
370
    15
100
AcDbLine
 10
63.8467341522
 20
125.1992864476
 30
0.0
 11
66.3295886231
 21
125.1992864476
 31
0.0
  0
LINE
  5
2C6
330
1F
100
AcDbEntity
  8
0
  6
Continuous
 62
     7
370
    15
100
AcDbLine
 10
74.7069913115
 20
130.2608209729
 30
0.0
 11
74.7069913115
 21
132.2201634808
 31
0.0
  0
LINE
  5
2C7
330
1F
100
AcDbEntity
  8
0
  6
Continuous
 62
     7
370
    15
100
AcDbLine
 10
67.3569913115
 20
128.7095436069
 30
0.0
 11
67.3569913115
 21
126.226689136
 31
0.0
  0
SPLINE
  5
2C8
330
1F
100
AcDbEntity
  8
0
  6
Continuous
 62
     7
370
    15
100
AcDbSpline
210
0.0
220
0.0
230
1.0
 70
     8
 71
     3
 72
    22
 73
    18
 74
     0
 42
0.00000001
 43
0.00000001
 12
1.0
 22
0.0
 32
0.0
 13
1.0
 23
0.0
 33
0.0
 40
0.0
 40
0.0
 40
0.0
 40
0.0
 40
0.2499999999999993
 40
0.2499999999999993
 40
0.3749999999999993
 40
0.3749999999999993
 40
0.4999999999999994
 40
0.4999999999999994
 40
0.6249999999999996
 40
0.6249999999999996
 40
0.7499999999999996
 40
0.7499999999999996
 40
0.8749999999999997
 40
0.8749999999999997
 40
0.9374999999999999
 40
0.9374999999999999
 40
1.0
 40
1.0
 40
1.0
 40
1.0
 10
63.09558231043216
 20
125.1992864476139
 30
0.0
 10
63.50957718859865
 20
125.7621590895119
 30
0.0
 10
63.94538698990759
 20
126.2927839732414
 30
0.0
 10
64.62212779289193
 20
127.038494964163
 30
0.0
 10
64.85298292006661
 20
127.2801151905617
 30
0.0
 10
65.31301997522874
 20
127.7389739658876
 30
0.0
 10
65.53898765200725
 20
127.9531526383575
 30
0.0
 10
65.97617924050797
 20
128.350381197503
 30
0.0
 10
66.18923196480051
 20
128.5348260325228
 30
0.0
 10
66.57340810403406
 20
128.8559058804064
 30
0.0
 10
66.74752511282553
 20
128.9952567105124
 30
0.0
 10
67.04104285762607
 20
129.224562244938
 30
0.0
 10
67.15583516222348
 20
129.3110982544143
 30
0.0
 10
67.27478973831946
 20
129.3999878587456
 30
0.0
 10
67.30560782130604
 20
129.4227963646072
 30
0.0
 10
67.34662703302466
 20
129.4530875273034
 30
0.0
 10
67.35699131150965
 20
129.4606954486914
 30
0.0
 10
67.35699131150965
 20
129.4606954486914
 30
0.0
  0
SPLINE
  5
2C9
330
1F
100
AcDbEntity
  8
0
  6
Continuous
 62
     7
370
    15
100
AcDbSpline
210
0.0
220
0.0
230
1.0
 70
     8
 71
     3
 72
    22
 73
    18
 74
     0
 42
0.00000001
 43
0.00000001
 12
1.0
 22
0.0
 32
0.0
 13
1.0
 23
0.0
 33
0.0
 40
0.0
 40
0.0
 40
0.0
 40
0.0
 40
0.125
 40
0.125
 40
0.25
 40
0.25
 40
0.375
 40
0.375
 40
0.5
 40
0.5
 40
0.625
 40
0.625
 40
0.75
 40
0.75
 40
0.875
 40
0.875
 40
1.0
 40
1.0
 40
1.0
 40
1.0
 10
80.20699131150965
 20
93.37430209217568
 30
0.0
 10
80.50572903990731
 20
93.38925768478501
 30
0.0
 10
80.79893436474175
 20
93.41064588143139
 30
0.0
 10
81.37488944536933
 20
93.4650241280467
 30
0.0
 10
81.66063173918471
 20
93.49847029165508
 30
0.0
 10
82.20416088017839
 20
93.57323456705281
 30
0.0
 10
82.46165406840001
 20
93.61433305601375
 30
0.0
 10
82.94885906566529
 20
93.70088598497752
 30
0.0
 10
83.17899868785445
 20
93.7465368840754
 30
0.0
 10
83.59220434405792
 20
93.83481643924024
 30
0.0
 10
83.77804008475381
 20
93.8779177892475
 30
0.0
 10
84.10713666493723
 20
93.95812196910276
 30
0.0
 10
84.24709652175127
 20
93.99441681649233
 30
0.0
 10
84.47278288298094
 20
94.05459603564204
 30
0.0
 10
84.56005429131967
 20
94.07888337307313
 30
0.0
 10
84.67745450467054
 20
94.1118814673845
 30
0.0
 10
84.70699131150964
 20
94.12040192458444
 30
0.0
 10
84.70699131150964
 20
94.12040192458446
 30
0.0
  0
SPLINE
  5
2CA
330
1F
100
AcDbEntity
  8
0
  6
Continuous
 62
     7
370
    15
100
AcDbSpline
210
0.0
220
0.0
230
1.0
 70
     8
 71
     3
 72
    22
 73
    18
 74
     0
 42
0.00000001
 43
0.00000001
 12
1.0
 22
0.0
 32
0.0
 13
1.0
 23
0.0
 33
0.0
 40
0.0
 40
0.0
 40
0.0
 40
0.0
 40
0.125
 40
0.125
 40
0.25
 40
0.25
 40
0.375
 40
0.375
 40
0.5
 40
0.5
 40
0.625
 40
0.625
 40
0.75
 40
0.75
 40
0.875
 40
0.875
 40
1.0
 40
1.0
 40
1.0
 40
1.0
 10
73.70699131150965
 20
94.12040192458446
 30
0.0
 10
73.70699131150965
 20
94.12040192458446
 30
0.0
 10
73.73651720992956
 20
94.11188782351806
 30
0.0
 10
73.85192204321622
 20
94.07944405463617
 30
0.0
 10
73.93930484828206
 20
94.05511016593414
 30
0.0
 10
74.16597826758967
 20
93.9946501411773
 30
0.0
 10
74.30445411392223
 20
93.95873672039882
 30
0.0
 10
74.63126461108602
 20
93.87902669432965
 30
0.0
 10
74.820309447066
 20
93.83514839314033
 30
0.0
 10
75.23317772954174
 20
93.74690477077016
 30
0.0
 10
75.45864962079305
 20
93.70209642930918
 30
0.0
 10
75.94950522534074
 20
93.61477542139002
 30
0.0
 10
76.2083453832828
 20
93.57348463281436
 30
0.0
 10
76.74809820907863
 20
93.49914640952052
 30
0.0
 10
77.03220129790769
 20
93.46573628378584
 30
0.0
 10
77.6136544330496
 20
93.41071688225972
 30
0.0
 10
77.9083048986779
 20
93.38925511579347
 30
0.0
 10
78.20699131150965
 20
93.3743020921757
 30
0.0
  0
SPLINE
  5
2CB
330
1F
100
AcDbEntity
  8
0
  6
Continuous
 62
     7
370
    15
100
AcDbSpline
210
0.0
220
0.0
230
1.0
 70
     8
 71
     3
 72
    17
 73
    13
 74
     0
 42
0.00000001
 43
0.00000001
 12
1.0
 22
0.0
 32
0.0
 13
1.0
 23
0.0
 33
0.0
 40
0.0
 40
0.0
 40
0.0
 40
0.0
 40
0.1653727049161235
 40
0.2490282780648763
 40
0.3341244557002664
 40
0.4992449013762428
 40
0.583022960594889
 40
0.6679784286557114
 40
0.7516465422888774
 40
0.835886736390167
 40
0.9210122033570356
 40
1.0
 40
1.0
 40
1.0
 40
1.0
 10
74.70699131150965
 20
132.836461717519
 30
0.0
 10
74.71824691012748
 20
132.8390813766136
 30
0.0
 10
74.7351962751621
 20
132.8430262186224
 30
0.0
 10
74.84037658336636
 20
132.8668644785677
 30
0.0
 10
74.98192875375302
 20
132.8981918493454
 30
0.0
 10
75.18326340691844
 20
132.9410095261356
 30
0.0
 10
75.43726294987233
 20
132.991175947734
 30
0.0
 10
75.65544965904006
 20
133.0318848905293
 30
0.0
 10
75.89844066394949
 20
133.0743066701622
 30
0.0
 10
76.1648717044485
 20
133.1171547492708
 30
0.0
 10
76.44573099394071
 20
133.1587619907792
 30
0.0
 10
76.64717775911274
 20
133.1844872459699
 30
0.0
 10
76.74413418890882
 20
133.196868824283
 30
0.0
  0
ARC
  5
2CC
330
1F
100
AcDbEntity
  8
0
  6
Continuous
 62
     7
370
    15
100
AcDbCircle
 10
79.2069913115
 20
113.3492864476
 30
0.0
 40
20.0
100
AcDbArc
 50
267.1340160174
 51
272.8659839826
  0
LWPOLYLINE
  5
2CD
330
1F
100
AcDbEntity
  8
0
  6
Continuous
 62
     7
370
    15
100
AcDbPolyline
 90
       38
 70
   128
 43
0.0
 10
76.7355747744
 20
124.9824042494
 10
76.784484583
 20
124.8647498506
 10
76.8204260566
 20
124.6510066676
 10
76.8423652247
 20
124.3473237024
 10
76.8496709371
 20
123.9624373612
 10
76.842133022
 20
123.5074201231
 10
76.8199683313
 20
122.9953620056
 10
76.7838145029
 20
122.4409939886
 10
76.7347116167
 20
121.8602642305
 10
76.6740722731
 20
121.2698792691
 10
76.6036409558
 20
120.6868234049
 10
76.5254438455
 20
120.1278700934
 10
76.4417305307
 20
119.6090994039
 10
76.354909291
 20
119.1454354244
 10
76.2674778155
 20
118.7502169235
 10
76.1819513485
 20
118.434813618
 10
76.1007903307
 20
118.2082990866
 10
76.0263296169
 20
118.0771897399
 10
75.9607113062
 20
118.0452573553
 10
75.9058231179
 20
118.1134205692
 10
75.8632440854
 20
118.2797184501
 10
75.8341991297
 20
118.5393669108
 10
75.8195238215
 20
118.8848963377
 10
75.8196403426
 20
119.3063664784
 10
75.834545341
 20
119.7916524042
 10
75.8638100268
 20
120.3267933228
 10
75.9065925086
 20
120.896394204
 10
75.961662012
 20
121.4840686678
 10
76.0274342878
 20
122.0729103896
 10
76.1020171874
 20
122.6459794654
 10
76.1832650964
 20
123.1867897411
 10
76.2688406606
 20
123.6797830898
 10
76.3562820267
 20
124.1107769904
 10
76.4430736659
 20
124.4673725332
 10
76.5267187406
 20
124.7393111135
 10
76.6048109344
 20
124.9187695536
 10
76.6751036771
 20
125.0005851609
 10
76.7355747744
 20
124.9824042494
  0
LWPOLYLINE
  5
2CE
330
1F
100
AcDbEntity
  8
0
  6
Continuous
 62
     7
370
    15
100
AcDbPolyline
 90
       29
 70
   128
 43
0.0
 10
76.5633414891
 20
123.5005066971
 10
76.5987324695
 20
123.3998669943
 10
76.6208334702
 20
123.205195745
 10
76.6285362548
 20
122.9262545784
 10
76.6214545734
 20
122.5770307694
 10
76.5999435312
 20
122.175035858
 10
76.5650817816
 20
121.7404275476
 10
76.5186174383
 20
121.2949989137
 10
76.4628804176
 20
120.861085608
 10
76.4006656063
 20
120.4604458554
 10
76.335092715
 20
120.1131694061
 10
76.2694498421
 20
119.8366701513
 10
76.2070285954
 20
119.6448129183
 10
76.1509590369
 20
119.5472182298
 10
76.1040527284
 20
119.5487798911
 10
76.0686617481
 20
119.6494195938
 10
76.0465607474
 20
119.8440908431
 10
76.0388579628
 20
120.1230320097
 10
76.0459396442
 20
120.4722558188
 10
76.0674506864
 20
120.8742507302
 10
76.102312436
 20
121.3088590405
 10
76.1487767792
 20
121.7542876744
 10
76.2045138
 20
122.1882009802
 10
76.2667286112
 20
122.5888407327
 10
76.3323015026
 20
122.9361171821
 10
76.3979443755
 20
123.2126164368
 10
76.4603656221
 20
123.4044736698
 10
76.5164351806
 20
123.5020683583
 10
76.5633414891
 20
123.5005066971
  0
LINE
  5
2CF
330
1F
100
AcDbEntity
  8
0
  6
Continuous
 62
     7
370
    15
100
AcDbLine
 10
76.5756840354
 20
121.8876626743
 30
0.0
 11
76.4385729318
 21
121.6956662765
 31
0.0
  0
LINE
  5
2D0
330
1F
100
AcDbEntity
  8
0
  6
Continuous
 62
     7
370
    15
100
AcDbLine
 10
76.4385729318
 20
121.6956662765
 30
0.0
 11
76.5320892614
 21
121.4444658057
 31
0.0
  0
LINE
  5
2D1
330
1F
100
AcDbEntity
  8
0
  6
Continuous
 62
     7
370
    15
100
AcDbLine
 10
76.5596798984
 20
121.6829374214
 30
0.0
 11
76.4385729318
 21
121.6956662765
 31
0.0
  0
LINE
  5
2D2
330
1F
100
AcDbEntity
  8
0
  6
Continuous
 62
     7
370
    15
100
AcDbLine
 10
76.3558919952
 20
126.6787742847
 30
0.0
 11
77.7173548378
 21
127.5946329362
 31
0.0
  0
ARC
  5
2D3
330
1F
100
AcDbEntity
  8
0
  6
Continuous
 62
     7
370
    15
100
AcDbCircle
 10
77.2399647138
 20
126.89612139
 30
0.0
 40
0.9103978998325261
100
AcDbArc
 50
166.1226358657
 51
193.8121025197
  0
LINE
  5
2D4
330
1F
100
AcDbEntity
  8
0
  6
Continuous
 62
     7
370
    15
100
AcDbLine
 10
77.7238928638
 20
139.0746201974
 30
0.0
 11
76.3561401335
 21
127.1144753395
 31
0.0
  0
ARC
  5
2D5
330
1F
100
AcDbEntity
  8
0
  6
Continuous
 62
     7
370
    15
100
AcDbCircle
 10
78.7923502641
 20
139.0350080445
 30
0.0
 40
1.069191441661061
100
AcDbArc
 50
158.1884816747
 51
177.8767799399
  0
LINE
  5
2D6
330
1F
100
AcDbEntity
  8
0
  6
Continuous
 62
     7
370
    15
100
AcDbLine
 10
79.1611638496
 20
140.3481295704
 30
0.0
 11
77.799701007
 21
139.4322709189
 31
0.0
  0
ARC
  5
2D7
330
1F
100
AcDbEntity
  8
0
  6
Continuous
 62
     7
370
    15
100
AcDbCircle
 10
78.277091131
 20
140.1307824651
 30
0.0
 40
0.9103978998325681
100
AcDbArc
 50
346.1226358657
 51
13.8121025197
  0
LINE
  5
2D8
330
1F
100
AcDbEntity
  8
0
  6
Continuous
 62
     7
370
    15
100
AcDbLine
 10
77.7931629811
 20
127.9522836577
 30
0.0
 11
79.1609157113
 21
139.9124285157
 31
0.0
  0
ARC
  5
2D9
330
1F
100
AcDbEntity
  8
0
  6
Continuous
 62
     7
370
    15
100
AcDbCircle
 10
76.7247055808
 20
127.9918958107
 30
0.0
 40
1.069191441660515
100
AcDbArc
 50
338.1884816747
 51
357.8767799399
  0
ARC
  5
2DA
330
1F
100
AcDbEntity
  8
0
  6
Continuous
 62
     7
370
    15
100
AcDbCircle
 10
78.3193933597
 20
140.121816026
 30
0.0
 40
0.864878004841399
100
AcDbArc
 50
346.1226358657
 51
13.8121025197
  0
LINE
  5
2DB
330
1F
100
AcDbEntity
  8
0
  6
Continuous
 62
     7
370
    15
100
AcDbLine
 10
79.1592624424
 20
140.3282957761
 30
0.0
 11
77.7977996
 21
139.4124371242
 31
0.0
  0
ARC
  5
2DC
330
1F
100
AcDbEntity
  8
0
  6
Continuous
 62
     7
370
    15
100
AcDbCircle
 10
78.7408163962
 20
139.0350373926
 30
0.0
 40
1.015731871780803
100
AcDbArc
 50
158.1884816708
 51
177.8767798772
  0
LINE
  5
2DD
330
1F
100
AcDbEntity
  8
0
  6
Continuous
 62
     7
370
    15
100
AcDbLine
 10
77.7257818637
 20
139.0726689391
 30
0.0
 11
76.3580291335
 21
127.1125240812
 31
0.0
  0
ARC
  5
2DE
330
1F
100
AcDbEntity
  8
0
  6
Continuous
 62
     7
370
    15
100
AcDbCircle
 10
77.1976624848
 20
126.9050878292
 30
0.0
 40
0.8648780048414216
100
AcDbArc
 50
166.1226358657
 51
193.8121025197
  0
LINE
  5
2DF
330
1F
100
AcDbEntity
  8
0
  6
Continuous
 62
     7
370
    15
100
AcDbLine
 10
76.3577934021
 20
126.6986080791
 30
0.0
 11
77.7192562447
 21
127.6144667306
 31
0.0
  0
ARC
  5
2E0
330
1F
100
AcDbEntity
  8
0
  6
Continuous
 62
     7
370
    15
100
AcDbCircle
 10
76.7762394505
 20
127.9918664614
 30
0.0
 40
1.015731869578681
100
AcDbArc
 50
338.1884816747
 51
357.8767799399
  0
LINE
  5
2E1
330
1F
100
AcDbEntity
  8
0
  6
Continuous
 62
     7
370
    15
100
AcDbLine
 10
77.7912739808
 20
127.9542349161
 30
0.0
 11
79.159026711
 21
139.914379774
 31
0.0
  0
ARC
  5
2E2
330
1F
100
AcDbEntity
  8
0
  6
Continuous
 62
     7
370
    15
100
AcDbCircle
 10
82.8457870073
 20
139.6454762616
 30
0.0
 40
1.048190206276004
100
AcDbArc
 50
347.4435746887
 51
11.4989311382
  0
LINE
  5
2E3
330
1F
100
AcDbEntity
  8
0
  6
Continuous
 62
     7
370
    15
100
AcDbLine
 10
79.1759101806
 20
140.2915108763
 30
0.0
 11
79.1592624424
 21
140.3282957761
 31
0.0
  0
LINE
  5
2E4
330
1F
100
AcDbEntity
  8
0
  6
Continuous
 62
     7
370
    15
100
AcDbLine
 10
82.5011542708
 20
127.4574538336
 30
0.0
 11
83.8689070011
 21
139.4175986915
 31
0.0
  0
LINE
  5
2E5
330
1F
100
AcDbEntity
  8
0
  6
Continuous
 62
     7
370
    15
100
AcDbLine
 10
77.9786688355
 20
139.0127878354
 30
0.0
 11
77.7977996
 21
139.4124371242
 31
0.0
  0
LINE
  5
2E6
330
1F
100
AcDbEntity
  8
0
  6
Continuous
 62
     7
370
    15
100
AcDbLine
 10
78.3332498014
 20
138.3986654761
 30
0.0
 11
77.9786688355
 21
139.0127878354
 31
0.0
  0
ARC
  5
2E7
330
1F
100
AcDbEntity
  8
0
  6
Continuous
 62
     7
370
    15
100
AcDbCircle
 10
81.4326968705
 20
127.4970659865
 30
0.0
 40
1.069191441661022
100
AcDbArc
 50
338.1884816747
 51
357.8767799399
  0
LINE
  5
2E8
330
1F
100
AcDbEntity
  8
0
  6
Continuous
 62
     7
370
    15
100
AcDbLine
 10
77.7279890129
 20
127.6266809835
 30
0.0
 11
77.7192562447
 21
127.6144667306
 31
0.0
  0
LINE
  5
2E9
330
1F
100
AcDbEntity
  8
0
  6
Continuous
 62
     7
370
    15
100
AcDbLine
 10
76.6109161053
 20
127.0526429774
 30
0.0
 11
76.3577934021
 21
126.6986080791
 31
0.0
  0
LINE
  5
2EA
330
1F
100
AcDbEntity
  8
0
  6
Continuous
 62
     7
370
    15
100
AcDbLine
 10
77.2412115676
 20
127.857453782
 30
0.0
 11
76.6109161053
 21
127.0526429774
 31
0.0
  0
ARC
  5
2EB
330
1F
100
AcDbEntity
  8
0
  6
Continuous
 62
     7
370
    15
100
AcDbCircle
 10
76.4071381518
 20
137.5648908327
 30
0.0
 40
2.275994744395136
100
AcDbArc
 50
346.1226358433
 51
13.8121025628
  0
LINE
  5
2EC
330
1F
100
AcDbEntity
  8
0
  6
Continuous
 62
     7
370
    15
100
AcDbLine
 10
82.3487542013
 20
127.0482795772
 30
0.0
 11
82.4253461276
 21
127.0998031121
 31
0.0
  0
LINE
  5
2ED
330
1F
100
AcDbEntity
  8
0
  6
Continuous
 62
     7
370
    15
100
AcDbLine
 10
77.851217817
 20
130.3253450557
 30
0.0
 11
78.6166995973
 21
137.0190059594
 31
0.0
  0
ARC
  5
2EE
330
1F
100
AcDbEntity
  8
0
  6
Continuous
 62
     7
370
    15
100
AcDbCircle
 10
75.1800743163
 20
130.4243754382
 30
0.0
 40
2.672978604152066
100
AcDbArc
 50
338.1884816747
 51
357.8767799399
  0
LINE
  5
2EF
330
1F
100
AcDbEntity
  8
0
  6
Continuous
 62
     7
370
    15
100
AcDbLine
 10
76.8997359016
 20
128.9186452588
 30
0.0
 11
77.6616974589
 21
129.431218252
 31
0.0
  0
ARC
  5
2F0
330
1F
100
AcDbEntity
  8
0
  6
Continuous
 62
     7
370
    15
100
AcDbCircle
 10
79.1099176981
 20
129.4620130221
 30
0.0
 40
2.275994749582247
100
AcDbArc
 50
166.1226358657
 51
193.8121025197
  0
LINE
  5
2F1
330
1F
100
AcDbEntity
  8
0
  6
Continuous
 62
     7
370
    15
100
AcDbLine
 10
77.6658380275
 20
136.7015587995
 30
0.0
 11
76.9003562474
 21
130.0078978958
 31
0.0
  0
ARC
  5
2F2
330
1F
100
AcDbEntity
  8
0
  6
Continuous
 62
     7
370
    15
100
AcDbCircle
 10
80.3369815282
 20
136.602528417
 30
0.0
 40
2.672978604152249
100
AcDbArc
 50
158.1884816747
 51
177.8767799399
  0
LINE
  5
2F3
330
1F
100
AcDbEntity
  8
0
  6
Continuous
 62
     7
370
    15
100
AcDbLine
 10
78.6173199429
 20
138.1082585964
 30
0.0
 11
77.8553583856
 21
137.5956856032
 31
0.0
  0
LWPOLYLINE
  5
2F4
330
1F
100
AcDbEntity
  8
0
  6
Continuous
 62
     7
370
    15
100
AcDbPolyline
 90
       33
 70
   128
 43
0.0
 10
78.0022089384
 20
133.2617396027
 10
78.0544994701
 20
133.764767748
 10
78.0954159813
 20
134.2581379672
 10
78.1233860733
 20
134.7228903196
 10
78.1373348712
 20
135.1411646328
 10
78.1367263305
 20
135.4968868596
 10
78.121583837
 20
135.7763867943
 10
78.0924893084
 20
135.9689234111
 10
78.050560831
 20
136.0670976359
 10
77.9974096927
 20
136.0671366882
 10
77.9350784619
 20
135.9690390672
 10
77.8659624929
 20
135.7765746096
 10
77.7927178736
 20
135.4971396165
 10
77.7181593536
 20
135.141472618
 10
77.6451521751
 20
134.7232416973
 10
77.576501963
 20
134.2585192342
 10
77.5148469065
 20
133.7651642524
 10
77.4625563747
 20
133.2621361072
 10
77.4216398635
 20
132.7687658879
 10
77.3936697715
 20
132.3040135355
 10
77.3797209736
 20
131.8857392223
 10
77.3803295144
 20
131.5300169955
 10
77.3954720078
 20
131.2505170608
 10
77.4245665364
 20
131.057980444
 10
77.4664950139
 20
130.9598062193
 10
77.5196461522
 20
130.959767167
 10
77.581977383
 20
131.0578647879
 10
77.651093352
 20
131.2503292456
 10
77.7243379713
 20
131.5297642387
 10
77.7988964912
 20
131.8854312372
 10
77.8719036697
 20
132.3036621579
 10
77.9405538818
 20
132.7683846209
 10
78.0022089384
 20
133.2617396027
  0
LINE
  5
2F5
330
1F
100
AcDbEntity
  8
0
  6
Continuous
 62
     7
370
    15
100
AcDbLine
 10
78.2883314306
 20
138.2012716134
 30
0.0
 11
78.2740273815
 21
138.1844084746
 31
0.0
  0
LINE
  5
2F6
330
1F
100
AcDbEntity
  8
0
  6
Continuous
 62
     7
370
    15
100
AcDbLine
 10
76.6109161053
 20
127.0526429774
 30
0.0
 11
76.3580291335
 21
127.1125240812
 31
0.0
  0
LINE
  5
2F7
330
1F
100
AcDbEntity
  8
0
  6
Continuous
 62
     7
370
    15
100
AcDbLine
 10
77.9786688355
 20
139.0127878354
 30
0.0
 11
77.7257818637
 21
139.0726689391
 31
0.0
  0
LINE
  5
2F8
330
1F
100
AcDbEntity
  8
0
  6
Continuous
 62
     7
370
    15
100
AcDbLine
 10
85.3977855464
 20
128.1142666215
 30
0.0
 11
86.503481451
 21
137.7828879268
 31
0.0
  0
LINE
  5
2F9
330
1F
100
AcDbEntity
  8
0
  6
Continuous
 62
     7
370
    15
100
AcDbLine
 10
86.7718685893
 20
137.7809700482
 30
0.0
 11
85.6661726847
 21
128.1123487429
 31
0.0
  0
ARC
  5
2FA
330
1F
100
AcDbEntity
  8
0
  6
Continuous
 62
     7
370
    15
100
AcDbCircle
 10
83.9456814667
 20
138.3525818522
 30
0.0
 40
2.620475515690363
100
AcDbArc
 50
347.4435746887
 51
11.4989311382
  0
ARC
  5
2FB
330
1F
100
AcDbEntity
  8
0
  6
Continuous
 62
     7
370
    15
100
AcDbCircle
 10
84.6773384815
 20
138.2004194536
 30
0.0
 40
2.13611661100683
100
AcDbArc
 50
348.6757757005
 51
9.1680830091
  0
ARC
  5
2FC
330
1F
100
AcDbEntity
  8
0
  6
Continuous
 62
     7
370
    15
100
AcDbCircle
 10
81.3453347312
 20
128.4489064341
 30
0.0
 40
4.066244140913374
100
AcDbArc
 50
342.9079612228
 51
355.2793886748
  0
LINE
  5
2FD
330
1F
100
AcDbEntity
  8
0
  6
Continuous
 62
     7
370
    15
100
AcDbLine
 10
85.2474023716
 20
127.2521866663
 30
0.0
 11
85.5335084339
 21
127.4864599802
 31
0.0
  0
ARC
  5
2FE
330
1F
100
AcDbEntity
  8
0
  6
Continuous
 62
     7
370
    15
100
AcDbCircle
 10
83.7963722341
 20
128.1816700106
 30
0.0
 40
1.871085022905078
100
AcDbArc
 50
338.1884816747
 51
357.8767799399
  0
LINE
  5
2FF
330
1F
100
AcDbEntity
  8
VERMASSUNG
  6
CENTERX2
100
AcDbLine
 10
79.0966232749
 20
140.3047130027
 30
0.0
 11
73.3134864364
 21
85.2818414325
 31
0.0
  0
CIRCLE
  5
300
330
1F
100
AcDbEntity
  8
VERMASSUNG
  6
CENTERX2
100
AcDbCircle
 10
79.2069913115
 20
115.3049566259
 30
0.0
 40
25.00000000000001
  0
DIMENSION
  5
301
330
1F
100
AcDbEntity
  8
VERMASSUNG
100
AcDbDimension
  2
_D_5
 10
79.2069913115
 20
141.8012629935
 30
0.0
 11
75.8829253915
 21
77.9278385477
 31
0.0
 70
   162
  1
<>
 71
     1
 42
-1.0
  3
SLDDIMSTYLE0
100
AcDb2LineAngularDimension
 13
73.3134864364
 23
85.2818414325
 33
0.0
 14
79.0966232749
 24
140.3047130027
 34
0.0
 15
79.2069913115
 25
90.8492864476
 35
0.0
 16
75.8829253915
 26
77.9278385477
 36
0.0
  0
DIMENSION
  5
30D
330
1F
100
AcDbEntity
  8
VERMASSUNG
100
AcDbDimension
  2
_D_6
 10
64.0727062889
 20
135.2035348881
 30
0.0
 11
57.4640280457
 21
143.8926339128
 31
0.0
 70
   160
  1
%%c<> min. 
 71
     2
 42
-1.0
  3
SLDDIMSTYLE2
100
AcDbAlignedDimension
 13
94.3412763342
 23
95.4063783638
 33
0.0
 14
64.0727062889
 24
135.2035348881
 34
0.0
 50
-52.7444276593
100
AcDbRotatedDimension
  0
INSERT
  5
327
330
1F
100
AcDbEntity
  8
VERMASSUNG
100
AcDbBlockReference
  2
SW_CENTERMARKSYMBOL_0
 10
79.2069913115
 20
113.3492864476
 30
0.0
  0
OLE2FRAME
  5
328
330
1F
100
AcDbEntity
  8
0
100
AcDbOle2Frame
 70
     2
  3
Paintbrush-Bild
 10
13.8511154363
 20
38.264191557
 30
0.0
 11
51.6290888628
 21
31.9806341108
 31
0.0
 71
     2
 72
     0
 73
     1
 90
    12928
310
80552BED0767C5B32B40DDAF6807D121434000000000000000006FFBDDFB85D0
310
4940DDAF6807D121434000000000000000006FFBDDFB85D04940416F4BD60AFB
310
3F4000000000000000002BED0767C5B32B40416F4BD60AFB3F40000000000000
310
0000000000000100000000010000010000000100000000000100000000320000
310
D0CF11E0A1B11AE1000000000000000000000000000000003E000300FEFF0900
310
0600000000000000000000000100000001000000000000000010000002000000
310
01000000FEFFFFFF0000000000000000FFFFFFFFFFFFFFFFFFFFFFFFFFFFFFFF
310
FFFFFFFFFFFFFFFFFFFFFFFFFFFFFFFFFFFFFFFFFFFFFFFFFFFFFFFFFFFFFFFF
310
FFFFFFFFFFFFFFFFFFFFFFFFFFFFFFFFFFFFFFFFFFFFFFFFFFFFFFFFFFFFFFFF
310
FFFFFFFFFFFFFFFFFFFFFFFFFFFFFFFFFFFFFFFFFFFFFFFFFFFFFFFFFFFFFFFF
310
FFFFFFFFFFFFFFFFFFFFFFFFFFFFFFFFFFFFFFFFFFFFFFFFFFFFFFFFFFFFFFFF
310
FFFFFFFFFFFFFFFFFFFFFFFFFFFFFFFFFFFFFFFFFFFFFFFFFFFFFFFFFFFFFFFF
310
FFFFFFFFFFFFFFFFFFFFFFFFFFFFFFFFFFFFFFFFFFFFFFFFFFFFFFFFFFFFFFFF
310
FFFFFFFFFFFFFFFFFFFFFFFFFFFFFFFFFFFFFFFFFFFFFFFFFFFFFFFFFFFFFFFF
310
FFFFFFFFFFFFFFFFFFFFFFFFFFFFFFFFFFFFFFFFFFFFFFFFFFFFFFFFFFFFFFFF
310
FFFFFFFFFFFFFFFFFFFFFFFFFFFFFFFFFFFFFFFFFFFFFFFFFFFFFFFFFFFFFFFF
310
FFFFFFFFFFFFFFFFFFFFFFFFFFFFFFFFFFFFFFFFFFFFFFFFFFFFFFFFFFFFFFFF
310
FFFFFFFFFFFFFFFFFFFFFFFFFFFFFFFFFFFFFFFFFFFFFFFFFFFFFFFFFFFFFFFF
310
FFFFFFFFFFFFFFFFFFFFFFFFFFFFFFFFFFFFFFFFFFFFFFFFFFFFFFFFFFFFFFFF
310
FFFFFFFFFFFFFFFFFFFFFFFFFFFFFFFFFFFFFFFFFFFFFFFFFFFFFFFFFFFFFFFF
310
FDFFFFFFFEFFFFFFFEFFFFFFFEFFFFFF05000000060000000700000008000000
310
090000000A0000000B0000000C0000000D0000000E0000000F00000010000000
310
11000000120000001300000014000000150000001600000017000000FEFFFFFF
310
FFFFFFFFFFFFFFFFFFFFFFFFFFFFFFFFFFFFFFFFFFFFFFFFFFFFFFFFFFFFFFFF
310
FFFFFFFFFFFFFFFFFFFFFFFFFFFFFFFFFFFFFFFFFFFFFFFFFFFFFFFFFFFFFFFF
310
FFFFFFFFFFFFFFFFFFFFFFFFFFFFFFFFFFFFFFFFFFFFFFFFFFFFFFFFFFFFFFFF
310
FFFFFFFFFFFFFFFFFFFFFFFFFFFFFFFFFFFFFFFFFFFFFFFFFFFFFFFFFFFFFFFF
310
FFFFFFFFFFFFFFFFFFFFFFFFFFFFFFFFFFFFFFFFFFFFFFFFFFFFFFFFFFFFFFFF
310
FFFFFFFFFFFFFFFFFFFFFFFFFFFFFFFFFFFFFFFFFFFFFFFFFFFFFFFFFFFFFFFF
310
FFFFFFFFFFFFFFFFFFFFFFFFFFFFFFFFFFFFFFFFFFFFFFFFFFFFFFFFFFFFFFFF
310
FFFFFFFFFFFFFFFFFFFFFFFFFFFFFFFFFFFFFFFFFFFFFFFFFFFFFFFFFFFFFFFF
310
FFFFFFFFFFFFFFFFFFFFFFFFFFFFFFFFFFFFFFFFFFFFFFFFFFFFFFFFFFFFFFFF
310
FFFFFFFFFFFFFFFFFFFFFFFFFFFFFFFFFFFFFFFFFFFFFFFFFFFFFFFFFFFFFFFF
310
FFFFFFFFFFFFFFFFFFFFFFFFFFFFFFFFFFFFFFFFFFFFFFFFFFFFFFFFFFFFFFFF
310
FFFFFFFFFFFFFFFFFFFFFFFFFFFFFFFFFFFFFFFFFFFFFFFFFFFFFFFFFFFFFFFF
310
FFFFFFFFFFFFFFFFFFFFFFFFFFFFFFFFFFFFFFFFFFFFFFFFFFFFFFFFFFFFFFFF
310
52006F006F007400200045006E00740072007900000000000000000000000000
310
0000000000000000000000000000000000000000000000000000000000000000
310
16000500FFFFFFFFFFFFFFFF020000000A00030000000000C000000000000046
310
00000000000000000000000070B492EDF54ACD0103000000C000000000000000
310
01004F006C006500000000000000000000000000000000000000000000000000
310
0000000000000000000000000000000000000000000000000000000000000000
310
0A000200FFFFFFFFFFFFFFFFFFFFFFFF00000000000000000000000000000000
310
0000000000000000000000000000000000000000000000001400000000000000
310
010043006F006D0070004F0062006A0000000000000000000000000000000000
310
0000000000000000000000000000000000000000000000000000000000000000
310
120002010100000003000000FFFFFFFF00000000000000000000000000000000
310
0000000000000000000000000000000000000000010000004D00000000000000
310
01004F006C006500310030004E00610074006900760065000000000000000000
310
0000000000000000000000000000000000000000000000000000000000000000
310
1A000200FFFFFFFFFFFFFFFFFFFFFFFF00000000000000000000000000000000
310
0000000000000000000000000000000000000000040000002426000000000000
310
FEFFFFFF02000000FEFFFFFFFFFFFFFFFFFFFFFFFFFFFFFFFFFFFFFFFFFFFFFF
310
FFFFFFFFFFFFFFFFFFFFFFFFFFFFFFFFFFFFFFFFFFFFFFFFFFFFFFFFFFFFFFFF
310
FFFFFFFFFFFFFFFFFFFFFFFFFFFFFFFFFFFFFFFFFFFFFFFFFFFFFFFFFFFFFFFF
310
FFFFFFFFFFFFFFFFFFFFFFFFFFFFFFFFFFFFFFFFFFFFFFFFFFFFFFFFFFFFFFFF
310
FFFFFFFFFFFFFFFFFFFFFFFFFFFFFFFFFFFFFFFFFFFFFFFFFFFFFFFFFFFFFFFF
310
FFFFFFFFFFFFFFFFFFFFFFFFFFFFFFFFFFFFFFFFFFFFFFFFFFFFFFFFFFFFFFFF
310
FFFFFFFFFFFFFFFFFFFFFFFFFFFFFFFFFFFFFFFFFFFFFFFFFFFFFFFFFFFFFFFF
310
FFFFFFFFFFFFFFFFFFFFFFFFFFFFFFFFFFFFFFFFFFFFFFFFFFFFFFFFFFFFFFFF
310
FFFFFFFFFFFFFFFFFFFFFFFFFFFFFFFFFFFFFFFFFFFFFFFFFFFFFFFFFFFFFFFF
310
FFFFFFFFFFFFFFFFFFFFFFFFFFFFFFFFFFFFFFFFFFFFFFFFFFFFFFFFFFFFFFFF
310
FFFFFFFFFFFFFFFFFFFFFFFFFFFFFFFFFFFFFFFFFFFFFFFFFFFFFFFFFFFFFFFF
310
FFFFFFFFFFFFFFFFFFFFFFFFFFFFFFFFFFFFFFFFFFFFFFFFFFFFFFFFFFFFFFFF
310
FFFFFFFFFFFFFFFFFFFFFFFFFFFFFFFFFFFFFFFFFFFFFFFFFFFFFFFFFFFFFFFF
310
FFFFFFFFFFFFFFFFFFFFFFFFFFFFFFFFFFFFFFFFFFFFFFFFFFFFFFFFFFFFFFFF
310
FFFFFFFFFFFFFFFFFFFFFFFFFFFFFFFFFFFFFFFFFFFFFFFFFFFFFFFFFFFFFFFF
310
FFFFFFFFFFFFFFFFFFFFFFFFFFFFFFFFFFFFFFFFFFFFFFFFFFFFFFFFFFFFFFFF
310
0100000200000000000000000000000000000000000000000000000000000000
310
0000000000000000000000000000000000000000000000000000000000000000
310
0100FEFF030A0000FFFFFFFF0A00030000000000C00000000000004607000000
310
5042727573680007000000504272757368000700000050427275736800F439B2
310
7100000000000000000000000000000000000000000000000000000000000000
310
0000000000000000000000000000000000000000000000000000000000000000
310
0000000000000000000000000000000000000000000000000000000000000000
310
0000000000000000000000000000000000000000000000000000000000000000
310
0000000000000000000000000000000000000000000000000000000000000000
310
0000000000000000000000000000000000000000000000000000000000000000
310
0000000000000000000000000000000000000000000000000000000000000000
310
0000000000000000000000000000000000000000000000000000000000000000
310
0000000000000000000000000000000000000000000000000000000000000000
310
0000000000000000000000000000000000000000000000000000000000000000
310
0000000000000000000000000000000000000000000000000000000000000000
310
0000000000000000000000000000000000000000000000000000000000000000
310
20260000424D0E260000000000003E00000028000000B40200006E0000000100
310
01000000000000000000130B0000130B00000200000002000000000000FFFFFF
310
FFFFFFFFFFFFFFFFFFFFFFFFFFFFFFFFFFFFFFFFFFFFFFFFFFFFFFFFFFFFFFFF
310
FFFFFFFFFFFFFFFFFFFFFFFFFFFFFFFFFFFFFFFFFFFFFFFFFFFFFFFFFFFFFFFF
310
FFFFFFFFFFFFFFFFFFFFFFFFFFFFFFFFFFFFFFFFFFFFFFFFF000FFFFFFFFFFFF
310
FFFFFFFFFFFFFFFFFFFFFFFFFFFFFFFFFFFFFFFFFFFFFFFFFFFFFFFFFFFFFFFF
310
FFFFFFFFFFFFFFFFFFFFFFFFFFFFFFFFFFFFFFFFFFFFFFFFFFFFFFFFFFFFFFFF
310
FFFFFFFFFFFFFFFFFFFFFFFFFFFFFFFFF000FFFFFFFFFFFFFFFFFFFFFFFFFFFF
310
FFFFFFFFFFFFFFFFFFFFFFFFFFFFFFFFFFFFFFFFFFFFFFFFFFFFFFFFFFFFFFFF
310
FFFFFFFFFFFFFFFFFFFFFFFFFFFFFFFFFFFFFFFFFFFFFFFFFFFFFFFFFFFFFFFF
310
FFFFFFFFFFFFFFFFF000FFFFFFFFFFFFFFFFFFFFFFFFFFFFFFFFFFFFFFFFFFFF
310
FFFFFFFFFFFFFFFFFFFFFFFFFFFFFFFFFFFFFFFFFFFFFFFFFFFFFFFFFFFFFFFF
310
FFFFFFFFFFFFFFFFFFFFFFFFFFFFFFFFFFFFFFFFFFFFFFFFFFFFFFFFFFFFFFFF
310
F000FFFFFFFFFFFFFFFFFFFFFFFFFFFFFFFFFFFFFFFFFFFFFFFFFFFFFFFFFFFF
310
FFFFFFFFFFFFFFFFFFFFFFFFFFFFFFFFFFFFFFFFFFFFFFFFFFFFFFFFFFFFFFFF
310
FFFFFFFFFFFFFFFFFFFFFFFFFFFFFFFFFFFFFFFFFFFFFFFFF000FFFFFFFFFFFF
310
FFFFFFFFFFFFFFFFFFFFFFFFFFFFFFFFFFFFFFFFFFFFFFFFFFFFFFFFFFFFFFFF
310
FFFFFFFFFFFFFFFFFFFFFFFFFFFFFFFFFFFFFFFFFFFFFFFFFFFFFFFFFFFFFFFF
310
FFFFFFFFFFFFFFFFFFFFFFFFFFFFFFFFF000FFFFFFFFFFFFFFFFFFFFFFFFFFFF
310
FFFFFFFFFFFFFFFFFFFFFFFFFFFFFFFFFFFFFFFFFFFFFFFFFFFFFFFFFFFFFFFF
310
FFFFFFFFFFFFFFFFFFFFFFFFFFFFFFFFFFFFFFFFFFFFFFFFFFFFFFFFFFFFFFFF
310
FFFFFFFFFFFFFFFFF000FFFFFFFFFFFFFFFFFFFFFFFFFFFFFFFFFFFFFFFFFFFF
310
FFFFFFFFFFFFFFFFFFFFFFFFFFFFFFFFFFFFFFFFFFFFFFFFFFFFFFFFFFFFFFFF
310
FFFFFFFFFFFFFFFFFFFFFFFFFFFFFFFFFFFFFFFFFFFFFFFFFFFFFFFFFFFFFFFF
310
F000FFFFFFFFFFFFFFFFFFFFFFFFFFFFFFFFFFFFFFFFFFFFFFFFFFFFFFFFFFFF
310
FFFFFFFFFFFFFFFFFFFFFFFFFFFFFFFFFFFFFFFFFFFFFFFFFFFFFFFFFFFFFFFF
310
FFFFFFFFFFFFFFFFFFFFFFFFFFFFFFFFFFFFFFFFFFFFFFFFF000FFFFFFFFFFFF
310
FFFFFFFFFFFFFFFFFFFFFFFFFFFFFFFFFFFFFFFFFFFFFFFFFFFFFFFFFFFFFFFF
310
FFFFFFFFFFFFFFFFFFFFFFFFFFFFFFFFFFFFFFFFFFFFFFFFFFFFFFFFFFFFFFFF
310
FFFFFFFFFFFFFFFFFFFFFFFFFFFFFFFFF000FFFFFFFFFFFFFFFFFFFFFFFFFFFF
310
FFFFFFFFFFFFFFFFFFFFFFFFFFFFFFFFFFFFFFFFFFFFFFFFFFFFFFFFFFFFFFFF
310
FFFFFFFFFFFFFFFFFFFFFFFFFFFFFFFFFFFFFFFFFFFFFFFFFFFFFFFFFFFFFFFF
310
FFFFFFFFFFFFFFFFF000FFFFFFFFFFFFFFFFFFFFFFFFFFFFFFFFFFFFFFFFFFFF
310
FFFFFFFFFFFFFFFFFFFFFFFFFFFFFFFFFFFFFFFFFFFFFFFFFFFFFFFFFFFFFFFF
310
FFFFFFFFFFFFFFFFFFFFFFFFFFFFFFFFFFFFFFFFFFFFFFFFFFFFFFFFFFFFFFFF
310
F000FFFFFFFFFFFFFFFFFFFFFFFFFFFFFFFFFFFFFFFFFFFFFFFFFFFFFFFFFFFF
310
FFFFFFFFFFFFFFFFFFFFFFFFFFFFFFFFFFFFFFFFFFFFFFFFFFFFFFFFFFFFFFFF
310
FFFFFFFFFFFFFFFFFFFFFFFFFFFFFFFFFFFFFFFFFFFFFFFFF000FFFFFFFFFFFF
310
FFFFFFFFFFFFFFFFFFFFFFFFFFFFFFFFFFFFFFFFFFFFFFFFFFFFFFFFFFFFFFFF
310
FFFFFFFFFFFFFFFFFFFFFFFFFFFFFFFFFFFFFFFFFFFFFFFFFFFFFFFFFFFFFFFF
310
FFFFFFFFFFFFFFFFFFFFFFFFFFFFFFFFF000FFFFFFFFFFFFFFFFFFFFFFFFFFFF
310
FFFFFFFFFFFFFFFFFFFFFFFFFFFFFFFFFFFFFFFFFFFFFFFFFFFFFFFFFFFFFFFF
310
FFFFFFFFFFFFFFFFFFFFFFFFFFFFFFFFFFFFFFFFFFFFFFFFFFFFFFFFFFFFFFFF
310
FFFFFFFFFFFFFFFFF000FFFFFFFFFFFFFFFFFFFFFFFFFFFFFFFFFFFFFFFFFFFF
310
FFFFFFFFFFFFFFFFFFFFFFFFFFFFFFFFFFFFFFFFFFFFFFFFFFFFFFFFFFFFFFFF
310
FFFFFFFFFFFFFFFFFFFFFFFFFFFFFFFFFFFFFFFFFFFFFFFFFFFFFFFFFFFFFFFF
310
F000FFFFFFFFFFFFFFFFFFFFFFFFFFFFFFFFFFFFFFFFFFFFFFFFFFFFFFFFFFFF
310
FFFFFFFFFFFFFFFFFFFFFFFFFFFFFFFFFFFFFFFFFFFFFFFFFFFFFFFFFFFFFFFF
310
FFFFFFFFFFFFFFFFFFFFFFFFFFFFFFFFFFFFFFFFFFFFFFFFF000FFFFFFFFFFFF
310
FFFFFFFFFFFFFFFFFFFFFFFFFFFFFFFFFFFFFFFFFFFFFFFFFFFFFFFFFFFFFFFF
310
FFFFFFFFFFFFFFFFFFFFFFFFFFFFFFFFFFFFFFFFFFFFFFFFFFFFFFFFFFFFFFFF
310
FFFFFFFFFFFFFFFFFFFFFFFFFFFFFFFFF000FFFFFFFFFFFFFFFFFFFFFFFFFFFF
310
FFFFFFFFFFFFFFFFFFFFFFFFFFFFFFFFFFFFFFFFFFFFFFFFFFFFFFFFFFFFFFFF
310
FFFFFFFFFFFFFFFFFFFFFFFFFFFFFFFFFFFFFFFFFFFFFFFFFFFFFFFFFFFFFFFF
310
FFFFFFFFFFFFFFFFF000FFFFF80003FFFFFFFFFFFFFFFFFFFFFFFFFFFFFFFFFF
310
FFFFF00007FFFFFFFFFF00007FFFFFF800000000000000007FFFFFFFFFFFFFFF
310
FFFFFFFC001FFFFFFFFFFFFFFC001FFFFFFFFFFFFFFFFFFFFFFFFFFE0007FFFF
310
F000FFFF8000007FFFFFFFF8000FFFFFC0007FFFFF80007FFFFF0000007FFFFF
310
FFF8000007FFFFF800000000000000007FFFFFF0001FFFFFFFFFFFC00001FFFF
310
FFFFFFFFC00001FFFFFFFF000000000003FFFFE000007FFFF000FFFE0000000F
310
FFFFFFF0000FFFFF80007FFFFF80007FFFFC0000001FFFFFFFC0000001FFFFF8
310
00000000000000007FFFFFF0001FFFFFFFFFFE0000003FFFFFFFFFFE0000003F
310
FFFFFF000000000003FFFF0000000FFFF000FFF800000003FFFFFFF00007FFFF
310
80007FFFFF80007FFFF000000007FFFFFF000000003FFFF80000000000000000
310
7FFFFFF0001FFFFFFFFFF80000000FFFFFFFFFF80000000FFFFFFF0000000000
310
03FFFC00000003FFF000FFE000000000FFFFFFF00007FFFF80003FFFFF80007F
310
FFC000000001FFFFFC000000001FFFF800000000000000007FFFFFF0001FFFFF
310
FFFFE000000003FFFFFFFFE000000003FFFFFF000000000003FFF000000000FF
310
F000FF80000000007FFFFFF00007FFFF80003FFFFF80007FFF8000000000FFFF
310
F80000000007FFF800000000000000007FFFFFF0001FFFFFFFFFC000000001FF
310
FFFFFFC000000001FFFFFF000000000003FFC0000000007FF000FF0000000000
310
3FFFFFE00007FFFF00003FFFFF80007FFE00000000003FFFF00000000003FFF8
310
00000000000000007FFFFFF0001FFFFFFFFF8000000000FFFFFFFF8000000000
310
FFFFFF000000000003FF80000000003FF000FE00000000001FFFFFE00003FFFF
310
00003FFFFF80007FFC00000000001FFFE00000000001FFF8000001FFFE000000
310
7FFFFFF0001FFFFFFFFE00000000003FFFFFFE00000000003FFFFF0000000000
310
03FF00000000001FF000FC00000000000FFFFFE00003FFFF00001FFFFF80007F
310
F800000000001FFFC00000000000FFF8000001FFFE0000007FFFFFF0001FFFFF
310
FFFC00000000001FFFFFFC00000000001FFFFF000000000003FE00000000000F
310
F000F8000000000007FFFFE00003FFFF00001FFFFF80007FF800000000000FFF
310
800000000000FFF8000001FFFE0000007FFFFFF0001FFFFFFFF800000000000F
310
FFFFF800000000000FFFFF000000000003FC000000000007F000F80000000000
310
03FFFFC00003FFFE00001FFFFF80007FF0000000000007FF0000000000007FF8
310
000001FFFE0000007FFFFFF0001FFFFFFFF0000000000007FFFFF00000000000
310
07FFFF000000000003F8000000000003F000F0000000000003FFFFC00001FFFE
310
00001FFFFF80007FE0000000000007FE0000000000003FF8000001FFFE000000
310
7FFFFFF0001FFFFFFFF0000000000007FFFFF0000000000007FFFF0000000000
310
03F800001F800003F000E00001FFF00001FFFFC00001FFFE00000FFFFF80007F
310
E00001FFE00003FE00001FFF00003FF8000001FFFE0000007FFFFFF0001FFFFF
310
FFE000003E000003FFFFE000003E000003FFFF000000000003F00001FFF80001
310
F000E00007FFFC0001FFFFC00001FFFE00000FFFFF80007FC0000FFFFC0003FC
310
0000FFFFC0001FF8000001FFFE0000007FFFFFF0001FFFFFFFC00003FFE00001
310
FFFFC00003FFE00001FFFF0001FFFFFFFFF00007FFFE0001F000E0000FFFFF00
310
00FFFF800001FFFC00000FFFFF80007FC0001FFFFE0001FC0001FFFFE0001FF8
310
000001FFFE0000007FFFFFF0001FFFFFFF80000FFFF80000FFFF80000FFFF800
310
00FFFF0003FFFFFFFFE0000FFFFF8000F000C0003FFFFF8000FFFF800000FFFC
310
000007FFFF80007F80003FFFFF0001FC0003FFFFF0001FF8000001FFFE000000
310
7FFFFFF0001FFFFFFF80003FFFFE0000FFFF80003FFFFE0000FFFF0003FFFFFF
310
FFE0003FFFFF8000F000C0003FFFFF8000FFFF800000FFFC000007FFFF80007F
310
80007FFFFF8001F80007FFFFF8000FF8000001FFFE0000007FFFFFF0001FFFFF
310
FF00007FFFFF00007FFF00007FFFFF00007FFF0003FFFFFFFFE0003FFFFFC000
310
F000C0007FFFFFC000FFFF000000FFFC000007FFFF80007F8000FFFFFF8000F8
310
000FFFFFF8000FF8000001FFFE0000007FFFFFF0001FFFFFFF0000FFFFFF8000
310
7FFF0000FFFFFF80007FFF0003FFFFFFFFC0007FFFFFC00070008000FFFFFFC0
310
00FFFF000000FFF8000007FFFF80007F8000FFFFFF8000F8000FFFFFF8000FF8
310
000001FFFE0000007FFFFFF0001FFFFFFE0001FFFFFFC0003FFE0001FFFFFFC0
310
003FFF0003FFFFFFFFC0007FFFFFE00070008000FFFFFFC0007FFF0000007FF8
310
000003FFFF80007F0001FFFFFF8000F8000FFFFFF8000FF8000001FFFE000000
310
7FFFFFF0001FFFFFFE0001FFFFFFC0003FFE0001FFFFFFC0003FFF0003FFFFFF
310
FFC000FFFFFFE00070008000FFFFFFC0007FFF0000007FF8000003FFFF80007F
310
0001FFFFFF8000F8001FFFFFF8000FF8000001FFFE0000007FFFFFF0001FFFFF
310
FE0003FFFFFFE0003FFE0003FFFFFFE0003FFF0003FFFFFFFFC000FFFFFFE000
310
70008000FFFFFFC0007FFE0000007FF8000003FFFF80007F0001FFFFFF8000F0
310
001FFFFFF8000FF8000001FFFE0000007FFFFFF0001FFFFFFC0003FFFFFFE000
310
1FFC0003FFFFFFE0001FFF0003FFFFFFFFC000FFFFFFC00070008000FFFFFF80
310
007FFE0000007FF0000003FFFF80007F0001FFFFFF0000F0001FFFFFF8000FF8
310
000001FFFE0000007FFFFFF0001FFFFFFC0007FFFFFFF0001FFC0007FFFFFFF0
310
001FFF0003FFFFFFFFC000FFFFFFC00070008001FFFFFF0000FFFE0000003FF0
310
000001FFFF80007F0001FFFFFF0000F8001FFFFFF0000FF8000001FFFE000000
310
7FFFFFF0001FFFFFFC0007FFFFFFF0001FFC0007FFFFFFF0001FFF0003FFFFFF
310
FFC001FFFFFF80007000FFFFFFFFFE0000FFFE0008003FF0008001FFFF80007F
310
FFFFFFFFFC0000FFFFFFFFFFE0000FF8000001FFFE0000007FFFFFF0001FFFFF
310
F8000FFFFFFFF8000FF8000FFFFFFFF8000FFF0003FFFFFFFFFFFFFFFFFF0000
310
7000FFFFFFFFFC0000FFFC0008003FF0008001FFFF80007FFFFFFFFFF80001FF
310
FFFFFFFF80000FF8000001FFFE0000007FFFFFF0001FFFFFF8000FFFFFFFF800
310
0FF8000FFFFFFFF8000FFF0003FFFFFFFFFFFFFFFFFE0000F000FFFFFFFFE000
310
00FFFC000C003FE000C001FFFF80007FFFFFFFFFC00001FFFFFFFFFE00001FF8
310
000001FFFE0000007FFFFFF0001FFFFFF8000FFFFFFFF8000FF8000FFFFFFFF8
310
000FFF0003FFFFFFFFFFFFFFFFF00000F000FFFFFFFE000001FFFC000C001FE0
310
00C000FFFF80007FFFFFFFFE000001FFFFFFFFE000001FF80FFFFFFFFFFFFFC0
310
7FFFFFF0001FFFFFF8000FFFFFFFF8000FF8000FFFFFFFF8000FFF0003FFFFFF
310
FFFFFFFFFF800000F000FFFFFFC0000001FFFC001C001FE001C000FFFF80007F
310
FFFFFF80000003FFFFFFF80000001FF80FFFFFFFFFFFFFC07FFFFFF0001FFFFF
310
F8001FFFFFFFFC000FF8001FFFFFFFFC000FFF0003FFFFFFFFFFFFFFF0000001
310
F000FFFFF800000001FFF8001C001FE001C000FFFF80007FFFFFF800000003FF
310
FFFF800000003FF80FFFFFFFFFFFFFC07FFFFFF0001FFFFFF8001FFFFFFFFC00
310
0FF8001FFFFFFFFC000FFF0003FFFFFFFFFFFFFE00000001F000FFFFC0000000
310
03FFF8001E001FC001E000FFFF80007FFFFF8000000007FFFFFC000000003FF8
310
0FFFFFFFFFFFFFC07FFFFFF0001FFFFFF8001FFFFFFFFC000FF8001FFFFFFFFC
310
000FFF0003FFFFFFFFFFFFE000000003F000FFFE0000000007FFF8001E000FC0
310
01E0007FFF80007FFFFE0000000007FFFFE0000000007FF80FFFFFFFFFFFFFC0
310
7FFFFFF0001FFFFFF0001FFFFFFFFC0007F0001FFFFFFFFC0007FF0003FFFFFF
310
FFFFFF0000000003F000FFF80000000007FFF8001E000FC003E0007FFF80007F
310
FFF0000000000FFFFF8000000000FFF80FFFFFFFFFFFFFC07FFFFFF0001FFFFF
310
F0001FFFFFFFFC0007F0001FFFFFFFFC0007FF0003FFFFFFFFFFFC0000000007
310
F000FFE0000000000FFFF0003E000FC003E0007FFF80007FFFC0000000001FFF
310
FE0000000001FFF80FFFFFFFFFFFFFC07FFFFFF0001FFFFFF0001FFFFFFFFC00
310
07F0001FFFFFFFFC0007FF0003FFFFFFFFFFF0000000000FF000FFC000000000
310
1FFFF0003F000F8003F0003FFF80007FFF80000000003FFFF80000000003FFF8
310
0FFFFFFFFFFFFFC07FFFFFF0001FFFFFF0001FFFFFFFFC0007F0001FFFFFFFFC
310
0007FF0003FFFFFFFFFFE0000000001FF000FF00000000007FFFF0003F000780
310
03F0003FFF80007FFF00000000007FFFF00000000007FFF80FFFFFFFFFFFFFC0
310
7FFFFFF0001FFFFFF0001FFFFFFFFC0007F0001FFFFFFFFC0007FF0003FFFFFF
310
FFFF80000000007FF000FE0000000000FFFFE0003F00078007F0003FFF80007F
310
FE0000000001FFFFE0000000001FFFF80FFFFFFFFFFFFFC07FFFFFF0001FFFFF
310
F0001FFFFFFFFC0007F0001FFFFFFFFC0007FF0003FFFFFFFFFF0000000000FF
310
F000FC0000000003FFFFE0007F00078007F0003FFF80007FFC0000000007FFFF
310
C0000000007FFFF80FFFFFFFFFFFFFC07FFFFFF0001FFFFFF8001FFFFFFFFC00
310
0FF8001FFFFFFFFC000FFF0003FFFFFFFFFE0000000003FFF000FC000000000F
310
FFFFE0007F80070007F8001FFF80007FF8000000001FFFFF8000000001FFFFF8
310
0FFFFFFFFFFFFFC07FFFFFF0001FFFFFF8001FFFFFFFFC000FF8001FFFFFFFFC
310
000FFF0003FFFFFFFFFC000000000FFFF000F8000000007FFFFFE0007F800700
310
07F8001FFF80007FF000000000FFFFFF800000000FFFFFF80FFFFFFFFFFFFFC0
310
7FFFFFF0001FFFFFF8000FFFFFFFF8000FF8000FFFFFFFF8000FFF0003FFFFFF
310
FFFC000000007FFFF000F800000007FFFFFFC0007F8003000FF8001FFF80007F
310
F000000007FFFFFF000000007FFFFFF80FFFFFFFFFFFFFC07FFFFFF0001FFFFF
310
F8000FFFFFFFF8000FF8000FFFFFFFF8000FFF0003FFFFFFFFF80000000FFFFF
310
F000F0000000FFFFFFFFC000FF8003000FF8001FFF80007FE0000000FFFFFFFF
310
0000000FFFFFFFF8000001FFFE0000007FFFFFF0001FFFFFF8000FFFFFFFF800
310
0FF8000FFFFFFFF8000FFF0003FFFFFFFFF8000000FFFFFFF000F000000FFFFF
310
FFFFC000FFC002000FF8000FFF80007FE000001FFFFFFFFE000001FFFFFFFFF8
310
000001FFFE0000007FFFFFF0001FFFFFF8000FFFFFFFF8000FF8000FFFFFFFF8
310
000FFF0003FFFFFFFFF000001FFFFFFFF000E00000FFFFFFFFFFC000FFC00200
310
0FFC000FFF80007FE00001FFFFFFFFFE00001FFFFFFFFFF8000001FFFE000000
310
7FFFFFF0001FFFFFFC000FFFFFFFF8001FFC000FFFFFFFF8001FFF0003FFFFFF
310
FFF00001FFFFFFFFF000E00007FFFFFFFFFF8000FFC000001FFC000FFF80007F
310
C0000FFFFFFFFFFE0000FFFFFFFFFFF8000001FFFE0000007FFFFFF0001FFFFF
310
FC0007FFFFFFF0001FFC0007FFFFFFF0001FFF0003FFFFFFFFF00007FFFFFFFF
310
F000E0001FFFFFFFFFFF8000FFC000001FFC000FFF80007FC0003FFFFFFFFFFE
310
0001FFFFFFFFFFF8000001FFFE0000007FFFFFF0001FFFFFFC0007FFFFFFF000
310
1FFC0007FFFFFFF0001FFF0003FFFFFFFFF0001FFFFFFFFFF000E0003FFFFF00
310
03FF8001FFE000001FFC0007FF80007FC0007FFFFF0007FC0003FFFFF0003FF8
310
000001FFFE0000007FFFFFF0001FFFFFFC0003FFFFFFE0001FFC0003FFFFFFE0
310
001FFF0003FFFFFFFFF0003FFFFFFFFFF000E0003FFFFF0001FF8001FFE00000
310
1FFE0007FF80007FC0007FFFFE0003FC0007FFFFE0003FF8000001FFFE000000
310
7FFFFFF0001FFFFFFE0003FFFFFFE0003FFE0003FFFFFFE0003FFF0003FFFFFF
310
FFF0003FFFFF8001F000E0003FFFFF0001FF0001FFE000001FFE0007FF80007F
310
C0007FFFFE0003FC0007FFFFE0003FF8000001FFFE0000007FFFFFF0001FFFFF
310
FE0001FFFFFFC0003FFE0001FFFFFFC0003FFF0003FFFFFFFFF0003FFFFF0001
310
F000E0003FFFFF0003FF0001FFE000003FFE0007FF80007FC0007FFFFE0003FC
310
0007FFFFE0003FF8000001FFFE0000007FFFFFF0001FFFFFFF0001FFFFFFC000
310
7FFF0001FFFFFFC0007FFF0003FFFFFFFFF0003FFFFF0001F000E0003FFFFE00
310
03FF0003FFF000003FFE0003FF80007FC0007FFFFC0003FE0007FFFFE0003FF8
310
000001FFFE0000007FFFFFF0001FFFFFFF0000FFFFFF80007FFF0000FFFFFF80
310
007FFF0003FFFFFFFFF0003FFFFF0001F000E0003FFFFE0003FF0003FFF00000
310
3FFF0003FF80007FC0007FFFFC0007FE0007FFFFC0003FF8000001FFFE000000
310
7FFFFFF0001FFFFFFF80007FFFFF0000FFFF80007FFFFF0000FFFF0003FFFFFF
310
FFF0003FFFFF0003F000E0003FFFFC0003FE0003FFF000003FFF0003FF80007F
310
E0003FFFF80007FE0003FFFFC0007FF8000001FFFE0000007FFFFFF0001FFFFF
310
FF80003FFFFE0000FFFF80003FFFFE0000FFFF0003FFFFFFFFF0001FFFFE0003
310
F000F0001FFFF80003FE0003FFF000007FFF0001FF80007FE0003FFFF00007FE
310
0001FFFF80007FF8000001FFFE0000007FFFFFF0001FFFFFFFC0000FFFF80001
310
FFFFC0000FFFF80001FFFF0003FFFFFFFFF0001FFFFC0003F000F0000FFFF000
310
07FE0007FFF800007FFF0001FF80007FE0001FFFE00007FF0000FFFE00007FF8
310
000001FFFE0000007FFFFFF0001FFFFFFFC00003FFE00001FFFFC00003FFE000
310
01FFFF0003FFFFFFFFF8000FFFF80003F000F00003FFC00007FC0007FFF80000
310
7FFF8001FF80007FF00007FF80000FFF00007FF80000FFF8000001FFFE000000
310
7F80000000000001FFE000003E000003FFFFE000003E000003FFFF0003FFFFFF
310
FFF80003FFE00007F000F800000000000FFC0007FFF800007FFF8001FF80007F
310
F000000000000FFF000000000000FFF8000001FFFE0000007F80000000000001
310
FFF0000000000007FFFFF0000000000007FFFF0003FFFFFFFFFC00007E000007
310
F000F800000000000FFC0007FFF80000FFFF8000FF80007FF800000000001FFF
310
800000000001FFF8000001FFFE0000007F80000000000001FFF800000000000F
310
FFFFF800000000000FFFFF0003FFFFFFFFFC00000000000FF000FC0000000000
310
1FFC0007FFFC0000FFFF8000FF80007FF800000000003FFFC00000000001FFF8
310
000001FFFE0000007F80000000000001FFF800000000000FFFFFF80000000000
310
0FFFFF0003FFFFFFFFFE00000000001FF000FE00000000003FF8000FFFFC0000
310
FFFF8000FF80007FFC00000000003FFFC00000000003FFF8000001FFFE000000
310
7F80000000000001FFFC00000000001FFFFFFC00000000001FFFFF0003FFFFFF
310
FFFF00000000001FF000FF00000000003FF8000FFFFC0000FFFFC000FF80007F
310
FE00000000007FFFE00000000007FFF8000001FFFE0000007F80000000000001
310
FFFE00000000003FFFFFFE00000000003FFFFF0003FFFFFFFFFF80000000003F
310
F000FF80000000007FF8000FFFFC0001FFFFC0007F80007FFF0000000000FFFF
310
F0000000000FFFF800000000000000007F80000000000001FFFF8000000000FF
310
FFFFFF8000000000FFFFFF0003FFFFFFFFFFC0000000007FF000FFC000000000
310
FFF8000FFFFE0001FFFFC0007F80007FFF8000000001FFFFF8000000001FFFF8
310
00000000000000007F80000000000001FFFFC000000001FFFFFFFFC000000001
310
FFFFFF0003FFFFFFFFFFE000000000FFF000FFE000000003FFF0001FFFFE0001
310
FFFFC0007F80007FFFC000000007FFFFFE000000003FFFF80000000000000000
310
7F80000000000001FFFFE000000003FFFFFFFFE000000003FFFFFF0003FFFFFF
310
FFFFF000000003FFF000FFF80000000FFFF0001FFFFE0001FFFFE0007F80007F
310
FFF00000000FFFFFFF00000000FFFFF800000000000000007F80000000000001
310
FFFFF80000000FFFFFFFFFF80000000FFFFFFF0003FFFFFFFFFFFC0000000FFF
310
F000FFFE0000003FFFF0001FFFFE0003FFFFE0003F80007FFFFC0000003FFFFF
310
FFC0000003FFFFF800000000000000007F80000000000001FFFFFE0000003FFF
310
FFFFFFFE0000003FFFFFFF0003FFFFFFFFFFFF0000003FFFF000FFFF800000FF
310
FFF0001FFFFF0003FFFFE0003F80007FFFFF000001FFFFFFFFF800001FFFFFF8
310
00000000000000007F80000000000001FFFFFFC00001FFFFFFFFFFFFC00001FF
310
FFFFFF0003FFFFFFFFFFFFC00000FFFFF000FFFFF8000FFFFFFFFFFFFFFFFFFF
310
FFFFFFFFFFFFFFFFFFFFF0001FFFFFFFFFFF0000FFFFFFF80000000000000000
310
7FFFFFFFFFFFFFFFFFFFFFFC001FFFFFFFFFFFFFFC001FFFFFFFFFFFFFFFFFFF
310
FFFFFFFC001FFFFFF000FFFFFFFFFFFFFFFFFFFFFFFFFFFFFFFFFFFFFFFFFFFF
310
FFFFFFFFFFFFFFFFFFFFFFFFFFFFFFFFFFFFFFFFFFFFFFFFFFFFFFFFFFFFFFFF
310
FFFFFFFFFFFFFFFFFFFFFFFFFFFFFFFFFFFFFFFFFFFFFFFFFFFFFFFFFFFFFFFF
310
F000FFFFFFFFFFFFFFFFFFFFFFFFFFFFFFFFFFFFFFFFFFFFFFFFFFFFFFFFFFFF
310
FFFFFFFFFFFFFFFFFFFFFFFFFFFFFFFFFFFFFFFFFFFFFFFFFFFFFFFFFFFFFFFF
310
FFFFFFFFFFFFFFFFFFFFFFFFFFFFFFFFFFFFFFFFFFFFFFFFF000FFFFFFFFFFFF
310
FFFFFFFFFFFFFFFFFFFFFFFFFFFFFFFFFFFFFFFFFFFFFFFFFFFFFFFFFFFFFFFF
310
FFFFFFFFFFFFFFFFFFFFFFFFFFFFFFFFFFFFFFFFFFFFFFFFFFFFFFFFFFFFFFFF
310
FFFFFFFFFFFFFFFFFFFFFFFFFFFFFFFFF000FFFFFFFFFFFFFFFFFFFFFFFFFFFF
310
FFFFFFFFFFFFFFFFFFFFFFFFFFFFFFFFFFFFFFFFFFFFFFFFFFFFFFFFFFFFFFFF
310
FFFFFFFFFFFFFFFFFFFFFFFFFFFFFFFFFFFFFFFFFFFFFFFFFFFFFFFFFFFFFFFF
310
FFFFFFFFFFFFFFFFF000FFFFFFFFFFFFFFFFFFFFFFFFFFFFFFFFFFFFFFFFFFFF
310
FFFFFFFFFFFFFFFFFFFFFFFFFFFFFFFFFFFFFFFFFFFFFFFFFFFFFFFFFFFFFFFF
310
FFFFFFFFFFFFFFFFFFFFFFFFFFFFFFFFFFFFFFFFFFFFFFFFFFFFFFFFFFFFFFFF
310
F000FFFFFFFFFFFFFFFFFFFFFFFFFFFFFFFFFFFFFFFFFFFFFFFFFFFFFFFFFFFF
310
FFFFFFFFFFFFFFFFFFFFFFFFFFFFFFFFFFFFFFFFFFFFFFFFFFFFFFFFFFFFFFFF
310
FFFFFFFFFFFFFFFFFFFFFFFFFFFFFFFFFFFFFFFFFFFFFFFFF000FFFFFFFFFFFF
310
FFFFFFFFFFFFFFFFFFFFFFFFFFFFFFFFFFFFFFFFFFFFFFFFFFFFFFFFFFFFFFFF
310
FFFFFFFFFFFFFFFFFFFFFFFFFFFFFFFFFFFFFFFFFFFFFFFFFFFFFFFFFFFFFFFF
310
FFFFFFFFFFFFFFFFFFFFFFFFFFFFFFFFF000FFFFFFFFFFFFFFFFFFFFFFFFFFFF
310
FFFFFFFFFFFFFFFFFFFFFFFFFFFFFFFFFFFFFFFFFFFFFFFFFFFFFFFFFFFFFFFF
310
FFFFFFFFFFFFFFFFFFFFFFFFFFFFFFFFFFFFFFFFFFFFFFFFFFFFFFFFFFFFFFFF
310
FFFFFFFFFFFFFFFFF000FFFFFFFFFFFFFFFFFFFFFFFFFFFFFFFFFFFFFFFFFFFF
310
FFFFFFFFFFFFFFFFFFFFFFFFFFFFFFFFFFFFFFFFFFFFFFFFFFFFFFFFFFFFFFFF
310
FFFFFFFFFFFFFFFFFFFFFFFFFFFFFFFFFFFFFFFFFFFFFFFFFFFFFFFFFFFFFFFF
310
F000FFFFFFFFFFFFFFFFFFFFFFFFFFFFFFFFFFFFFFFFFFFFFFFFFFFFFFFFFFFF
310
FFFFFFFFFFFFFFFFFFFFFFFFFFFFFFFFFFFFFFFFFFFFFFFFFFFFFFFFFFFFFFFF
310
FFFFFFFFFFFFFFFFFFFFFFFFFFFFFFFFFFFFFFFFFFFFFFFFF000FFFFFFFFFFFF
310
FFFFFFFFFFFFFFFFFFFFFFFFFFFFFFFFFFFFFFFFFFFFFFFFFFFFFFFFFFFFFFFF
310
FFFFFFFFFFFFFFFFFFFFFFFFFFFFFFFFFFFFFFFFFFFFFFFFFFFFFFFFFFFFFFFF
310
FFFFFFFFFFFFFFFFFFFFFFFFFFFFFFFFF000FFFFFFFFFFFFFFFFFFFFFFFFFFFF
310
FFFFFFFFFFFFFFFFFFFFFFFFFFFFFFFFFFFFFFFFFFFFFFFFFFFFFFFFFFFFFFFF
310
FFFFFFFFFFFFFFFFFFFFFFFFFFFFFFFFFFFFFFFFFFFFFFFFFFFFFFFFFFFFFFFF
310
FFFFFFFFFFFFFFFFF000FFFFFFFFFFFFFFFFFFFFFFFFFFFFFFFFFFFFFFFFFFFF
310
FFFFFFFFFFFFFFFFFFFFFFFFFFFFFFFFFFFFFFFFFFFFFFFFFFFFFFFFFFFFFFFF
310
FFFFFFFFFFFFFFFFFFFFFFFFFFFFFFFFFFFFFFFFFFFFFFFFFFFFFFFFFFFFFFFF
310
F000FFFFFFFFFFFFFFFFFFFFFFFFFFFFFFFFFFFFFFFFFFFFFFFFFFFFFFFFFFFF
310
FFFFFFFFFFFFFFFFFFFFFFFFFFFFFFFFFFFFFFFFFFFFFFFFFFFFFFFFFFFFFFFF
310
FFFFFFFFFFFFFFFFFFFFFFFFFFFFFFFFFFFFFFFFFFFFFFFFF000FFFFFFFFFFFF
310
FFFFFFFFFFFFFFFFFFFFFFFFFFFFFFFFFFFFFFFFFFFFFFFFFFFFFFFFFFFFFFFF
310
FFFFFFFFFFFFFFFFFFFFFFFFFFFFFFFFFFFFFFFFFFFFFFFFFFFFFFFFFFFFFFFF
310
FFFFFFFFFFFFFFFFFFFFFFFFFFFFFFFFF000FFFFFFFFFFFFFFFFFFFFFFFFFFFF
310
FFFFFFFFFFFFFFFFFFFFFFFFFFFFFFFFFFFFFFFFFFFFFFFFFFFFFFFFFFFFFFFF
310
FFFFFFFFFFFFFFFFFFFFFFFFFFFFFFFFFFFFFFFFFFFFFFFFFFFFFFFFFFFFFFFF
310
FFFFFFFFFFFFFFFFF000FFFFFFFFFFFFFFFFFFFFFFFFFFFFFFFFFFFFFFFFFFFF
310
FFFFFFFFFFFFFFFFFFFFFFFFFFFFFFFFFFFFFFFFFFFFFFFFFFFFFFFFFFFFFFFF
310
FFFFFFFFFFFFFFFFFFFFFFFFFFFFFFFFFFFFFFFFFFFFFFFFFFFFFFFFFFFFFFFF
310
F000FFFFFFFFFFFFFFFFFFFFFFFFFFFFFFFFFFFFFFFFFFFFFFFFFFFFFFFFFFFF
310
FFFFFFFFFFFFFFFFFFFFFFFFFFFFFFFFFFFFFFFFFFFFFFFFFFFFFFFFFFFFFFFF
310
FFFFFFFFFFFFFFFFFFFFFFFFFFFFFFFFFFFFFFFFFFFFFFFFF000FFFFFFFFFFFF
310
FFFFFFFFFFFFFFFFFFFFFFFFFFFFFFFFFFFFFFFFFFFFFFFFFFFFFFFFFFFFFFFF
310
FFFFFFFFFFFFFFFFFFFFFFFFFFFFFFFFFFFFFFFFFFFFFFFFFFFFFFFFFFFFFFFF
310
FFFFFFFFFFFFFFFFFFFFFFFFFFFFFFFFF000FFFFFFFFFFFFFFFFFFFFFFFFFFFF
310
FFFFFFFFFFFFFFFFFFFFFFFFFFFFFFFFFFFFFFFFFFFFFFFFFFFFFFFFFFFFFFFF
310
FFFFFFFFFFFFFFFFFFFFFFFFFFFFFFFFFFFFFFFFFFFFFFFFFFFFFFFFFFFFFFFF
310
FFFFFFFFFFFFFFFFF000FFFFFFFFFFFFFFFFFFFFFFFFFFFFFFFFFFFFFFFFFFFF
310
FFFFFFFFFFFFFFFFFFFFFFFFFFFFFFFFFFFFFFFFFFFFFFFFFFFFFFFFFFFFFFFF
310
FFFFFFFFFFFFFFFFFFFFFFFFFFFFFFFFFFFFFFFFFFFFFFFFFFFFFFFFFFFFFFFF
310
F000FFFFFFFFFFFFFFFFFFFFFFFFFFFFFFFFFFFFFFFFFFFFFFFFFFFFFFFFFFFF
310
FFFFFFFFFFFFFFFFFFFFFFFFFFFFFFFFFFFFFFFFFFFFFFFFFFFFFFFFFFFFFFFF
310
FFFFFFFFFFFFFFFFFFFFFFFFFFFFFFFFFFFFFFFFFFFFFFFFF000FFFFFFFFFFFF
310
FFFFFFFFFFFFFFFFFFFFFFFFFFFFFFFFFFFFFFFFFFFFFFFFFFFFFFFFFFFFFFFF
310
FFFFFFFFFFFFFFFFFFFFFFFFFFFFFFFFFFFFFFFFFFFFFFFFFFFFFFFFFFFFFFFF
310
FFFFFFFFFFFFFFFFFFFFFFFFFFFFFFFFF0000000000000000000000000000000
310
0000000000000000000000000000000000000000000000000000000000000000
310
0000000000000000000000000000000000000000000000000000000000000000
310
0000000000000000000000000000000000000000000000000000000000000000
310
0000000000000000000000000000000000000000000000000000000000000000
310
0000000000000000000000000000000000000000000000000000000000000000
310
0000000000000000000000000000000000000000000000000000000000000000
310
0000000000000000000000000000000000000000000000000000000000000000
310
0000000000000000000000000000000000000000000000000000000000000000
310
0000000000000000000000000000000000000000000000000000000000000000
310
0000000000000000000000000000000000000000000000000000000000000000
310
0000000000000000000000000000000000000000000000000000000000000000
310
0000000000000000000000000000000000000000000000000000000000000000
310
0000000000000000000000000000000000000000000000000000000000000000
310
0000000000000000000000000000000000000000000000000000000000000000
310
0000000000000000000000000000000000000000000000000000000000000000
  1
OLE
  0
ENDSEC
  0
SECTION
  2
OBJECTS
  0
DICTIONARY
  5
C
330
0
100
AcDbDictionary
281
     1
  3
ACAD_GROUP
350
D
  3
ACAD_LAYOUT
350
1A
  3
ACAD_MLINESTYLE
350
17
  3
ACAD_PLOTSETTINGS
350
19
  3
ACAD_PLOTSTYLENAME
350
E
  0
DICTIONARY
  5
D
102
{ACAD_REACTORS
330
C
102
}
330
C
100
AcDbDictionary
281
     1
  0
DICTIONARY
  5
1A
102
{ACAD_REACTORS
330
C
102
}
330
C
100
AcDbDictionary
281
     1
  3
Layout1
350
1E
  3
Layout2
350
26
  3
Model
350
22
  0
DICTIONARY
  5
17
102
{ACAD_REACTORS
330
C
102
}
330
C
100
AcDbDictionary
281
     1
  3
Standard
350
18
  0
DICTIONARY
  5
19
102
{ACAD_REACTORS
330
C
102
}
330
C
100
AcDbDictionary
281
     1
  0
ACDBDICTIONARYWDFLT
  5
E
102
{ACAD_REACTORS
330
C
102
}
330
C
100
AcDbDictionary
281
     1
  3
Normal
350
F
100
AcDbDictionaryWithDefault
340
F
  0
LAYOUT
  5
1E
102
{ACAD_REACTORS
330
1A
102
}
330
1A
100
AcDbPlotSettings
  1

  2
none_device
  4

  6

 40
0.0
 41
0.0
 42
0.0
 43
0.0
 44
0.0
 45
0.0
 46
0.0
 47
0.0
 48
0.0
 49
0.0
140
0.0
141
0.0
142
1.0
143
1.0
 70
   688
 72
     0
 73
     0
 74
     5
  7

 75
    16
147
1.0
148
0.0
149
0.0
100
AcDbLayout
  1
Layout1
 70
     1
 71
     1
 10
0.0
 20
0.0
 11
420.0
 21
297.0
 12
0.0
 22
0.0
 32
0.0
 14
1.0000000000E+20
 24
1.0000000000E+20
 34
1.0000000000E+20
 15
-1.0000000000E+20
 25
-1.0000000000E+20
 35
-1.0000000000E+20
146
0.0
 13
0.0
 23
0.0
 33
0.0
 16
1.0
 26
0.0
 36
0.0
 17
0.0
 27
1.0
 37
0.0
 76
     0
330
1B
  0
LAYOUT
  5
26
102
{ACAD_REACTORS
330
1A
102
}
330
1A
100
AcDbPlotSettings
  1

  2
none_device
  4

  6

 40
0.0
 41
0.0
 42
0.0
 43
0.0
 44
0.0
 45
0.0
 46
0.0
 47
0.0
 48
0.0
 49
0.0
140
0.0
141
0.0
142
1.0
143
1.0
 70
   688
 72
     0
 73
     0
 74
     5
  7

 75
    16
147
1.0
148
0.0
149
0.0
100
AcDbLayout
  1
Layout2
 70
     1
 71
     2
 10
0.0
 20
0.0
 11
0.0
 21
0.0
 12
0.0
 22
0.0
 32
0.0
 14
0.0
 24
0.0
 34
0.0
 15
0.0
 25
0.0
 35
0.0
146
0.0
 13
0.0
 23
0.0
 33
0.0
 16
1.0
 26
0.0
 36
0.0
 17
0.0
 27
1.0
 37
0.0
 76
     0
330
23
  0
LAYOUT
  5
22
102
{ACAD_REACTORS
330
1A
102
}
330
1A
100
AcDbPlotSettings
  1

  2
none_device
  4

  6

 40
0.0
 41
0.0
 42
0.0
 43
0.0
 44
0.0
 45
0.0
 46
0.0
 47
0.0
 48
0.0
 49
0.0
140
0.0
141
0.0
142
1.0
143
1.0
 70
  1712
 72
     0
 73
     0
 74
     0
  7

 75
     0
147
1.0
148
0.0
149
0.0
100
AcDbLayout
  1
Model
 70
     1
 71
     0
 10
0.0
 20
0.0
 11
297.0
 21
210.0
 12
0.0
 22
0.0
 32
0.0
 14
0.0
 24
0.0
 34
0.0
 15
297.0
 25
210.0
 35
0.0
146
0.0
 13
0.0
 23
0.0
 33
0.0
 16
1.0
 26
0.0
 36
0.0
 17
0.0
 27
1.0
 37
0.0
 76
     0
330
1F
331
29
  0
MLINESTYLE
  5
18
102
{ACAD_REACTORS
330
17
102
}
330
17
100
AcDbMlineStyle
  2
Standard
 70
     0
  3

 62
   256
 51
90.0
 52
90.0
 71
     2
 49
0.5
 62
   256
  6
BYLAYER
 49
-0.5
 62
   256
  6
BYLAYER
  0
ACDBPLACEHOLDER
  5
F
102
{ACAD_REACTORS
330
E
102
}
330
E
  0
ENDSEC
  0
EOF
