  0
SECTION
  2
HEADER
  9
$ACADVER
  1
AC1015
  9
$ACADMAINTVER
 70
     6
  9
$DWGCODEPAGE
  3
ANSI_1252
  9
$INSBASE
 10
0.0
 20
0.0
 30
0.0
  9
$EXTMIN
 10
0.0
 20
0.0
 30
0.0
  9
$EXTMAX
 10
297.0
 20
210.0
 30
0.0
  9
$LIMMIN
 10
0.0
 20
0.0
  9
$LIMMAX
 10
297.0
 20
210.0
  9
$ORTHOMODE
 70
     0
  9
$REGENMODE
 70
     1
  9
$FILLMODE
 70
     1
  9
$QTEXTMODE
 70
     0
  9
$MIRRTEXT
 70
     1
  9
$LTSCALE
 40
1.0
  9
$ATTMODE
 70
     1
  9
$TEXTSIZE
 40
2.0
  9
$TRACEWID
 40
1.0
  9
$TEXTSTYLE
  7
Standard
  9
$CLAYER
  8
0
  9
$CELTYPE
  6
ByLayer
  9
$CECOLOR
 62
   256
  9
$CELTSCALE
 40
1.0
  9
$DISPSILH
 70
     0
  9
$DIMSCALE
 40
1.0
  9
$DIMASZ
 40
3.0
  9
$DIMEXO
 40
0.0
  9
$DIMDLI
 40
3.75
  9
$DIMRND
 40
0.0
  9
$DIMDLE
 40
0.0
  9
$DIMEXE
 40
1.0
  9
$DIMTP
 40
0.0
  9
$DIMTM
 40
0.0
  9
$DIMTXT
 40
2.0
  9
$DIMCEN
 40
2.5
  9
$DIMTSZ
 40
0.0
  9
$DIMTOL
 70
     0
  9
$DIMLIM
 70
     0
  9
$DIMTIH
 70
     1
  9
$DIMTOH
 70
     1
  9
$DIMSE1
 70
     0
  9
$DIMSE2
 70
     0
  9
$DIMTAD
 70
     1
  9
$DIMZIN
 70
     0
  9
$DIMBLK
  1

  9
$DIMASO
 70
     1
  9
$DIMSHO
 70
     1
  9
$DIMPOST
  1

  9
$DIMAPOST
  1

  9
$DIMALT
 70
     0
  9
$DIMALTD
 70
     3
  9
$DIMALTF
 40
0.0393700787
  9
$DIMLFAC
 40
1.0
  9
$DIMTOFL
 70
     1
  9
$DIMTVP
 40
0.0
  9
$DIMTIX
 70
     0
  9
$DIMSOXD
 70
     0
  9
$DIMSAH
 70
     0
  9
$DIMBLK1
  1

  9
$DIMBLK2
  1

  9
$DIMSTYLE
  2
ISO-25
  9
$DIMCLRD
 70
     0
  9
$DIMCLRE
 70
     0
  9
$DIMCLRT
 70
     0
  9
$DIMTFAC
 40
1.0
  9
$DIMGAP
 40
1.524
  9
$DIMJUST
 70
     0
  9
$DIMSD1
 70
     0
  9
$DIMSD2
 70
     0
  9
$DIMTOLJ
 70
     0
  9
$DIMTZIN
 70
     0
  9
$DIMALTZ
 70
     0
  9
$DIMALTTZ
 70
     0
  9
$DIMUPT
 70
     0
  9
$DIMDEC
 70
     2
  9
$DIMTDEC
 70
     3
  9
$DIMALTU
 70
     2
  9
$DIMALTTD
 70
     3
  9
$DIMTXSTY
  7
Standard
  9
$DIMAUNIT
 70
     0
  9
$DIMADEC
 70
     2
  9
$DIMALTRND
 40
0.0
  9
$DIMAZIN
 70
     0
  9
$DIMDSEP
 70
    44
  9
$DIMATFIT
 70
     3
  9
$DIMFRAC
 70
     0
  9
$DIMLDRBLK
  1

  9
$DIMLUNIT
 70
     2
  9
$DIMLWD
 70
    -2
  9
$DIMLWE
 70
    -2
  9
$DIMTMOVE
 70
     0
  9
$LUNITS
 70
     2
  9
$LUPREC
 70
     2
  9
$SKETCHINC
 40
1.0
  9
$FILLETRAD
 40
10.0
  9
$AUNITS
 70
     0
  9
$AUPREC
 70
     2
  9
$MENU
  1
.
  9
$ELEVATION
 40
0.0
  9
$PELEVATION
 40
0.0
  9
$THICKNESS
 40
0.0
  9
$LIMCHECK
 70
     0
  9
$CHAMFERA
 40
10.0
  9
$CHAMFERB
 40
10.0
  9
$CHAMFERC
 40
20.0
  9
$CHAMFERD
 40
0.0
  9
$SKPOLY
 70
     0
  9
$TDCREATE
 40
2456560.597652685
  9
$TDUCREATE
 40
2456560.514319352
  9
$TDUPDATE
 40
2456560.597654224
  9
$TDUUPDATE
 40
2456560.514320891
  9
$TDINDWG
 40
0.0000000116
  9
$TDUSRTIMER
 40
0.0000000116
  9
$USRTIMER
 70
     1
  9
$ANGBASE
 50
0.0
  9
$ANGDIR
 70
     0
  9
$PDMODE
 70
     0
  9
$PDSIZE
 40
-1.0
  9
$PLINEWID
 40
0.0
  9
$SPLFRAME
 70
     0
  9
$SPLINETYPE
 70
     6
  9
$SPLINESEGS
 70
     8
  9
$HANDSEED
  5
32E
  9
$SURFTAB1
 70
     6
  9
$SURFTAB2
 70
     6
  9
$SURFTYPE
 70
     6
  9
$SURFU
 70
     6
  9
$SURFV
 70
     6
  9
$UCSBASE
  2

  9
$UCSNAME
  2

  9
$UCSORG
 10
0.0
 20
0.0
 30
0.0
  9
$UCSXDIR
 10
1.0
 20
0.0
 30
0.0
  9
$UCSYDIR
 10
0.0
 20
1.0
 30
0.0
  9
$UCSORTHOREF
  2

  9
$UCSORTHOVIEW
 70
     0
  9
$UCSORGTOP
 10
0.0
 20
0.0
 30
0.0
  9
$UCSORGBOTTOM
 10
0.0
 20
0.0
 30
0.0
  9
$UCSORGLEFT
 10
0.0
 20
0.0
 30
0.0
  9
$UCSORGRIGHT
 10
0.0
 20
0.0
 30
0.0
  9
$UCSORGFRONT
 10
0.0
 20
0.0
 30
0.0
  9
$UCSORGBACK
 10
0.0
 20
0.0
 30
0.0
  9
$PUCSBASE
  2

  9
$PUCSNAME
  2

  9
$PUCSORG
 10
0.0
 20
0.0
 30
0.0
  9
$PUCSXDIR
 10
1.0
 20
0.0
 30
0.0
  9
$PUCSYDIR
 10
0.0
 20
1.0
 30
0.0
  9
$PUCSORTHOREF
  2

  9
$PUCSORTHOVIEW
 70
     0
  9
$PUCSORGTOP
 10
0.0
 20
0.0
 30
0.0
  9
$PUCSORGBOTTOM
 10
0.0
 20
0.0
 30
0.0
  9
$PUCSORGLEFT
 10
0.0
 20
0.0
 30
0.0
  9
$PUCSORGRIGHT
 10
0.0
 20
0.0
 30
0.0
  9
$PUCSORGFRONT
 10
0.0
 20
0.0
 30
0.0
  9
$PUCSORGBACK
 10
0.0
 20
0.0
 30
0.0
  9
$USERI1
 70
     0
  9
$USERI2
 70
     0
  9
$USERI3
 70
     0
  9
$USERI4
 70
     0
  9
$USERI5
 70
     0
  9
$USERR1
 40
0.0
  9
$USERR2
 40
0.0
  9
$USERR3
 40
0.0
  9
$USERR4
 40
0.0
  9
$USERR5
 40
0.0
  9
$WORLDVIEW
 70
     1
  9
$SHADEDGE
 70
     3
  9
$SHADEDIF
 70
    70
  9
$TILEMODE
 70
     1
  9
$MAXACTVP
 70
    64
  9
$PINSBASE
 10
0.0
 20
0.0
 30
0.0
  9
$PLIMCHECK
 70
     0
  9
$PEXTMIN
 10
1.0000000000E+20
 20
1.0000000000E+20
 30
1.0000000000E+20
  9
$PEXTMAX
 10
-1.0000000000E+20
 20
-1.0000000000E+20
 30
-1.0000000000E+20
  9
$PLIMMIN
 10
0.0
 20
0.0
  9
$PLIMMAX
 10
420.0
 20
297.0
  9
$UNITMODE
 70
     0
  9
$VISRETAIN
 70
     1
  9
$PLINEGEN
 70
     0
  9
$PSLTSCALE
 70
     1
  9
$TREEDEPTH
 70
  3020
  9
$CMLSTYLE
  2
Standard
  9
$CMLJUST
 70
     0
  9
$CMLSCALE
 40
20.0
  9
$PROXYGRAPHICS
 70
     1
  9
$MEASUREMENT
 70
     1
  9
$CELWEIGHT
370
    -1
  9
$ENDCAPS
280
     0
  9
$JOINSTYLE
280
     0
  9
$LWDISPLAY
290
     1
  9
$INSUNITS
 70
     4
  9
$HYPERLINKBASE
  1

  9
$STYLESHEET
  1

  9
$XEDIT
290
     1
  9
$CEPSNTYPE
380
     0
  9
$PSTYLEMODE
290
     1
  9
$FINGERPRINTGUID
  2
{7481BF17-C6D0-4652-91D4-D8E733B5399F}
  9
$VERSIONGUID
  2
{FAEB1C32-E019-11D5-929B-00C0DF256EC4}
  9
$EXTNAMES
290
     1
  9
$PSVPSCALE
 40
0.0
  9
$OLESTARTUP
290
     0
  0
ENDSEC
  0
SECTION
  2
CLASSES
  0
CLASS
  1
ACDBDICTIONARYWDFLT
  2
AcDbDictionaryWithDefault
  3
ObjectDBX Classes
 90
        0
280
     0
281
     0
  0
CLASS
  1
VISUALSTYLE
  2
AcDbVisualStyle
  3
ObjectDBX Classes
 90
     4095
280
     0
281
     0
  0
CLASS
  1
MATERIAL
  2
AcDbMaterial
  3
ObjectDBX Classes
 90
     1153
280
     0
281
     0
  0
CLASS
  1
ACDBPLACEHOLDER
  2
AcDbPlaceHolder
  3
ObjectDBX Classes
 90
        0
280
     0
281
     0
  0
CLASS
  1
LAYOUT
  2
AcDbLayout
  3
ObjectDBX Classes
 90
        0
280
     0
281
     0
  0
ENDSEC
  0
SECTION
  2
TABLES
  0
TABLE
  2
VPORT
  5
8
330
0
100
AcDbSymbolTable
 70
     1
  0
VPORT
  5
29
330
8
100
AcDbSymbolTableRecord
100
AcDbViewportTableRecord
  2
*Active
 70
     0
 10
0.0
 20
0.0
 11
1.0
 21
1.0
 12
148.5
 22
105.0
 13
0.0
 23
0.0
 14
10.0
 24
10.0
 15
10.0
 25
10.0
 16
0.0
 26
0.0
 36
1.0
 17
0.0
 27
0.0
 37
0.0
 40
210.0
 41
1.4142857143
 42
50.0
 43
0.0
 44
0.0
 50
0.0
 51
0.0
 71
     0
 72
  2000
 73
     1
 74
     3
 75
     0
 76
     0
 77
     0
 78
     0
281
     0
 65
     1
110
0.0
120
0.0
130
0.0
111
1.0
121
0.0
131
0.0
112
0.0
122
1.0
132
0.0
 79
     0
146
0.0
  0
ENDTAB
  0
TABLE
  2
LTYPE
  5
5
330
0
100
AcDbSymbolTable
 70
     6
  0
LTYPE
  5
14
330
5
100
AcDbSymbolTableRecord
100
AcDbLinetypeTableRecord
  2
ByBlock
 70
     0
  3

 72
    65
 73
     0
 40
0.0
  0
LTYPE
  5
15
330
5
100
AcDbSymbolTableRecord
100
AcDbLinetypeTableRecord
  2
ByLayer
 70
     0
  3

 72
    65
 73
     0
 40
0.0
  0
LTYPE
  5
16
330
5
100
AcDbSymbolTableRecord
100
AcDbLinetypeTableRecord
  2
Continuous
 70
     0
  3
Solid line
 72
    65
 73
     0
 40
0.0
  0
LTYPE
  5
3F
330
5
100
AcDbSymbolTableRecord
100
AcDbLinetypeTableRecord
  2
HIDDEN
 70
     0
  3
Hidden __ __ __ __ __ __ __ __ __ __ __ __ __ __
 72
    65
 73
     2
 40
1.905
 49
1.27
 74
     0
 49
-0.635
 74
     0
  0
LTYPE
  5
40
330
5
100
AcDbSymbolTableRecord
100
AcDbLinetypeTableRecord
  2
PHANTOM
 70
     0
  3
Phantom ______  __  __  ______  __  __  ______
 72
    65
 73
     6
 40
12.7
 49
6.35
 74
     0
 49
-1.27
 74
     0
 49
1.27
 74
     0
 49
-1.27
 74
     0
 49
1.27
 74
     0
 49
-1.27
 74
     0
  0
LTYPE
  5
41
330
5
100
AcDbSymbolTableRecord
100
AcDbLinetypeTableRecord
  2
CENTER
 70
     0
  3
Center ____ _ ____ _ ____ _ ____ _ ____ _ ____
 72
    65
 73
     4
 40
10.16
 49
6.35
 74
     0
 49
-1.27
 74
     0
 49
1.27
 74
     0
 49
-1.27
 74
     0
  0
LTYPE
  5
42
330
5
100
AcDbSymbolTableRecord
100
AcDbLinetypeTableRecord
  2
CENTERX2
 70
     0
  3
Center (2x) ________  __  ________  __  _____
 72
    65
 73
     4
 40
20.32
 49
12.7
 74
     0
 49
-2.54
 74
     0
 49
2.54
 74
     0
 49
-2.54
 74
     0
  0
LTYPE
  5
43
330
5
100
AcDbSymbolTableRecord
100
AcDbLinetypeTableRecord
  2
DOT2
 70
     0
  3
Dot (.5x) ........................................
 72
    65
 73
     2
 40
0.635
 49
0.0
 74
     0
 49
-0.635
 74
     0
  0
ENDTAB
  0
TABLE
  2
LAYER
  5
2
330
0
100
AcDbSymbolTable
 70
     5
  0
LAYER
  5
10
330
2
100
AcDbSymbolTableRecord
100
AcDbLayerTableRecord
  2
0
 70
     0
 62
     7
  6
Continuous
370
    -3
390
F
  0
LAYER
  5
44
330
2
100
AcDbSymbolTableRecord
100
AcDbLayerTableRecord
  2
FORMAT
 70
     0
 62
     7
  6
Continuous
370
    -3
390
F
  0
LAYER
  5
45
330
2
100
AcDbSymbolTableRecord
100
AcDbLayerTableRecord
  2
VERMASSUNG
 70
     0
 62
     7
  6
Continuous
370
    -3
390
F
  0
LAYER
  5
46
330
2
100
AcDbSymbolTableRecord
100
AcDbLayerTableRecord
  2
KOPF_DÜNN
 70
     0
 62
     7
  6
Continuous
370
    -3
390
F
  0
LAYER
  5
47
330
2
100
AcDbSymbolTableRecord
100
AcDbLayerTableRecord
  2
KOPF_DICK
 70
     0
 62
     7
  6
Continuous
370
    15
390
F
  0
ENDTAB
  0
TABLE
  2
STYLE
  5
3
330
0
100
AcDbSymbolTable
 70
     3
  0
STYLE
  5
11
330
3
100
AcDbSymbolTableRecord
100
AcDbTextStyleTableRecord
  2
Standard
 70
     0
 40
0.0
 41
1.0
 50
0.0
 71
     0
 42
2.0
  3
txt
  4

  0
STYLE
  5
48
330
3
100
AcDbSymbolTableRecord
100
AcDbTextStyleTableRecord
  2
SLDTEXTSTYLE0
 70
     0
 40
0.0
 41
0.7
 50
0.0
 71
     0
 42
0.2
  3
TXT
  4

  0
STYLE
  5
4C
330
3
100
AcDbSymbolTableRecord
100
AcDbTextStyleTableRecord
  2
SLDTEXTSTYLE1
 70
     0
 40
0.0
 41
0.6526315789
 50
0.0
 71
     0
 42
0.2
  3
TXT
  4

  0
ENDTAB
  0
TABLE
  2
VIEW
  5
6
330
0
100
AcDbSymbolTable
 70
     0
  0
ENDTAB
  0
TABLE
  2
UCS
  5
7
330
0
100
AcDbSymbolTable
 70
     0
  0
ENDTAB
  0
TABLE
  2
APPID
  5
9
330
0
100
AcDbSymbolTable
 70
     1
  0
APPID
  5
12
330
9
100
AcDbSymbolTableRecord
100
AcDbRegAppTableRecord
  2
ACAD
 70
     0
  0
ENDTAB
  0
TABLE
  2
DIMSTYLE
  5
A
330
0
100
AcDbSymbolTable
 70
     3
100
AcDbDimStyleTable
  0
DIMSTYLE
105
27
330
A
100
AcDbSymbolTableRecord
100
AcDbDimStyleTableRecord
  2
ISO-25
 70
     0
 41
2.5
 42
0.625
 43
3.75
 44
1.25
 73
     0
 74
     0
 77
     1
 78
     8
140
2.5
141
2.5
143
0.0393700787
147
0.625
171
     3
172
     1
178
     0
271
     2
272
     2
274
     3
278
    44
283
     0
284
     8
340
11
  0
DIMSTYLE
105
248
102
{ACAD_REACTORS
330
247
330
254
330
25E
330
268
102
}
330
A
100
AcDbSymbolTableRecord
100
AcDbDimStyleTableRecord
  2
SLDDIMSTYLE0
 70
     0
 41
3.0
 44
0.0
 45
0.000000001
 73
     0
 74
     0
 77
     1
 78
    12
 79
     3
140
2.0
147
0.5
173
     1
178
     0
271
     2
272
     3
276
     2
284
    12
340
48
  0
DIMSTYLE
105
273
102
{ACAD_REACTORS
330
272
102
}
330
A
100
AcDbSymbolTableRecord
100
AcDbDimStyleTableRecord
  2
SLDDIMSTYLE1
 70
     0
 41
3.0
 44
0.0
 73
     0
 74
     0
 77
     1
 78
    12
 79
     3
140
2.0
147
0.5
173
     1
178
     0
272
     3
276
     2
284
    12
340
48
  0
ENDTAB
  0
TABLE
  2
BLOCK_RECORD
  5
1
330
0
100
AcDbSymbolTable
 70
     7
  0
BLOCK_RECORD
  5
1F
330
1
100
AcDbSymbolTableRecord
100
AcDbBlockTableRecord
  2
*Model_Space
340
22
  0
BLOCK_RECORD
  5
1B
330
1
100
AcDbSymbolTableRecord
100
AcDbBlockTableRecord
  2
*Paper_Space
340
1E
  0
BLOCK_RECORD
  5
23
330
1
100
AcDbSymbolTableRecord
100
AcDbBlockTableRecord
  2
*Paper_Space0
340
26
  0
BLOCK_RECORD
  5
249
330
1
100
AcDbSymbolTableRecord
100
AcDbBlockTableRecord
  2
_D
340
0
  0
BLOCK_RECORD
  5
255
330
1
100
AcDbSymbolTableRecord
100
AcDbBlockTableRecord
  2
_D_1
340
0
  0
BLOCK_RECORD
  5
25F
330
1
100
AcDbSymbolTableRecord
100
AcDbBlockTableRecord
  2
_D_2
340
0
  0
BLOCK_RECORD
  5
269
330
1
100
AcDbSymbolTableRecord
100
AcDbBlockTableRecord
  2
_D_3
340
0
  0
BLOCK_RECORD
  5
274
330
1
100
AcDbSymbolTableRecord
100
AcDbBlockTableRecord
  2
_D_4
340
0
  0
BLOCK_RECORD
  5
321
330
1
100
AcDbSymbolTableRecord
100
AcDbBlockTableRecord
  2
SW_CENTERMARKSYMBOL_0
340
0
102
{BLKREFS
331
32C
102
}
  0
ENDTAB
  0
ENDSEC
  0
SECTION
  2
BLOCKS
  0
BLOCK
  5
20
330
1F
100
AcDbEntity
  8
0
100
AcDbBlockBegin
  2
*Model_Space
 70
     0
 10
0.0
 20
0.0
 30
0.0
  3
*Model_Space
  1

  0
ENDBLK
  5
21
330
1F
100
AcDbEntity
  8
0
100
AcDbBlockEnd
  0
BLOCK
  5
1C
330
1B
100
AcDbEntity
 67
     1
  8
0
100
AcDbBlockBegin
  2
*Paper_Space
 70
     0
 10
0.0
 20
0.0
 30
0.0
  3
*Paper_Space
  1

  0
ENDBLK
  5
1D
330
1B
100
AcDbEntity
 67
     1
  8
0
100
AcDbBlockEnd
  0
BLOCK
  5
24
330
23
100
AcDbEntity
  8
0
100
AcDbBlockBegin
  2
*Paper_Space0
 70
     0
 10
0.0
 20
0.0
 30
0.0
  3
*Paper_Space0
  1

  0
ENDBLK
  5
25
330
23
100
AcDbEntity
  8
0
100
AcDbBlockEnd
  0
BLOCK
  5
24A
330
249
100
AcDbEntity
  8
0
100
AcDbBlockBegin
  2
_D
 70
     0
 10
0.0
 20
0.0
 30
0.0
  3
_D
  1

  0
SOLID
  5
24C
330
249
100
AcDbEntity
  8
VERMASSUNG
100
AcDbTrace
 10
150.3782495435
 20
126.014692804
 30
0.0
 11
149.9282495435
 21
123.014692804
 31
0.0
 12
150.8282495435
 22
123.014692804
 32
0.0
 13
150.8282495435
 23
123.014692804
 33
0.0
  0
SOLID
  5
24D
330
249
100
AcDbEntity
  8
VERMASSUNG
100
AcDbTrace
 10
150.3782495435
 20
86.014692804
 30
0.0
 11
150.8282495435
 21
89.014692804
 31
0.0
 12
149.9282495435
 22
89.014692804
 32
0.0
 13
149.9282495435
 23
89.014692804
 33
0.0
  0
LINE
  5
24E
330
249
100
AcDbEntity
  8
VERMASSUNG
100
AcDbLine
 10
175.0854822382
 20
126.014692804
 30
0.0
 11
149.3782495435
 21
126.014692804
 31
0.0
  0
LINE
  5
24F
330
249
100
AcDbEntity
  8
VERMASSUNG
100
AcDbLine
 10
175.0854822382
 20
86.014692804
 30
0.0
 11
149.3782495435
 21
86.014692804
 31
0.0
  0
LINE
  5
250
330
249
100
AcDbEntity
  8
VERMASSUNG
100
AcDbLine
 10
150.3782495435
 20
126.014692804
 30
0.0
 11
150.3782495435
 21
86.014692804
 31
0.0
  0
MTEXT
  5
251
330
249
100
AcDbEntity
  8
VERMASSUNG
100
AcDbMText
 10
147.6001140544
 20
99.711559191
 30
0.0
 40
2.0
 41
0.0
 71
     1
 72
     1
  1
HSK
  7
SLDTEXTSTYLE0
 11
-7.044195017643634E-15
 21
1.0
 31
0.0
 73
     1
 44
1.0
  0
MTEXT
  5
252
330
249
100
AcDbEntity
  8
VERMASSUNG
100
AcDbMText
 10
147.8001140639
 20
105.7115592432
 30
0.0
 40
2.0
 41
0.0
 71
     1
 72
     1
  1
%%c
  7
SLDTEXTSTYLE0
 11
-7.044195017643634E-15
 21
1.0
 31
0.0
 73
     1
 44
1.0
  0
MTEXT
  5
253
330
249
100
AcDbEntity
  8
VERMASSUNG
100
AcDbMText
 10
147.8001141804
 20
109.3211714358
 30
0.0
 40
2.0
 41
0.0
 71
     1
 72
     1
  1
40
  7
SLDTEXTSTYLE0
 11
-7.044195017643634E-15
 21
1.0
 31
0.0
 73
     1
 44
1.0
  0
ENDBLK
  5
24B
330
249
100
AcDbEntity
  8
0
100
AcDbBlockEnd
  0
BLOCK
  5
256
330
255
100
AcDbEntity
  8
0
100
AcDbBlockBegin
  2
_D_1
 70
     0
 10
0.0
 20
0.0
 30
0.0
  3
_D_1
  1

  0
SOLID
  5
258
330
255
100
AcDbEntity
  8
VERMASSUNG
100
AcDbTrace
 10
154.8854822382
 20
138.3860211354
 30
0.0
 11
157.8854822382
 21
137.9360211354
 31
0.0
 12
157.8854822382
 22
138.8360211354
 32
0.0
 13
157.8854822382
 23
138.8360211354
 33
0.0
  0
SOLID
  5
259
330
255
100
AcDbEntity
  8
VERMASSUNG
100
AcDbTrace
 10
229.7854822382
 20
138.3860211354
 30
0.0
 11
226.7854822382
 21
138.8360211354
 31
0.0
 12
226.7854822382
 22
137.9360211354
 32
0.0
 13
226.7854822382
 23
137.9360211354
 33
0.0
  0
LINE
  5
25A
330
255
100
AcDbEntity
  8
VERMASSUNG
100
AcDbLine
 10
154.8854822382
 20
117.944692804
 30
0.0
 11
154.8854822382
 21
139.3860211354
 31
0.0
  0
LINE
  5
25B
330
255
100
AcDbEntity
  8
VERMASSUNG
100
AcDbLine
 10
229.7854822382
 20
79.014692804
 30
0.0
 11
229.7854822382
 21
139.3860211354
 31
0.0
  0
LINE
  5
25C
330
255
100
AcDbEntity
  8
VERMASSUNG
100
AcDbLine
 10
154.8854822382
 20
138.3860211354
 30
0.0
 11
229.7854822382
 21
138.3860211354
 31
0.0
  0
MTEXT
  5
25D
330
255
100
AcDbEntity
  8
VERMASSUNG
100
AcDbMText
 10
189.8365767284
 20
140.9641564986
 30
0.0
 40
2.0
 41
0.0
 71
     1
 72
     1
  1
74.9
  7
SLDTEXTSTYLE0
 73
     1
 44
1.0
  0
ENDBLK
  5
257
330
255
100
AcDbEntity
  8
0
100
AcDbBlockEnd
  0
BLOCK
  5
260
330
25F
100
AcDbEntity
  8
0
100
AcDbBlockBegin
  2
_D_2
 70
     0
 10
0.0
 20
0.0
 30
0.0
  3
_D_2
  1

  0
SOLID
  5
262
330
25F
100
AcDbEntity
  8
VERMASSUNG
100
AcDbTrace
 10
174.7854822382
 20
132.3860211354
 30
0.0
 11
177.7854822382
 21
131.9360211354
 31
0.0
 12
177.7854822382
 22
132.8360211354
 32
0.0
 13
177.7854822382
 23
132.8360211354
 33
0.0
  0
SOLID
  5
263
330
25F
100
AcDbEntity
  8
VERMASSUNG
100
AcDbTrace
 10
229.7854822382
 20
132.3860211354
 30
0.0
 11
226.7854822382
 21
132.8360211354
 31
0.0
 12
226.7854822382
 22
131.9360211354
 32
0.0
 13
226.7854822382
 23
131.9360211354
 33
0.0
  0
LINE
  5
264
330
25F
100
AcDbEntity
  8
VERMASSUNG
100
AcDbLine
 10
174.7854822382
 20
125.714692804
 30
0.0
 11
174.7854822382
 21
133.3860211354
 31
0.0
  0
LINE
  5
265
330
25F
100
AcDbEntity
  8
VERMASSUNG
100
AcDbLine
 10
229.7854822382
 20
79.014692804
 30
0.0
 11
229.7854822382
 21
133.3860211354
 31
0.0
  0
LINE
  5
266
330
25F
100
AcDbEntity
  8
VERMASSUNG
100
AcDbLine
 10
174.7854822382
 20
132.3860211354
 30
0.0
 11
229.7854822382
 21
132.3860211354
 31
0.0
  0
MTEXT
  5
267
330
25F
100
AcDbEntity
  8
VERMASSUNG
100
AcDbMText
 10
200.8870432469
 20
134.9641564986
 30
0.0
 40
2.0
 41
0.0
 71
     1
 72
     1
  1
55
  7
SLDTEXTSTYLE0
 73
     1
 44
1.0
  0
ENDBLK
  5
261
330
25F
100
AcDbEntity
  8
0
100
AcDbBlockEnd
  0
BLOCK
  5
26A
330
269
100
AcDbEntity
  8
0
100
AcDbBlockBegin
  2
_D_3
 70
     0
 10
0.0
 20
0.0
 30
0.0
  3
_D_3
  1

  0
SOLID
  5
26C
330
269
100
AcDbEntity
  8
VERMASSUNG
100
AcDbTrace
 10
236.171166993
 20
79.014692804
 30
0.0
 11
236.621166993
 21
82.014692804
 31
0.0
 12
235.721166993
 22
82.014692804
 32
0.0
 13
235.721166993
 23
82.014692804
 33
0.0
  0
SOLID
  5
26D
330
269
100
AcDbEntity
  8
VERMASSUNG
100
AcDbTrace
 10
236.171166993
 20
106.014692804
 30
0.0
 11
235.721166993
 21
103.014692804
 31
0.0
 12
236.621166993
 22
103.014692804
 32
0.0
 13
236.621166993
 23
103.014692804
 33
0.0
  0
LINE
  5
26E
330
269
100
AcDbEntity
  8
VERMASSUNG
100
AcDbLine
 10
229.7854822382
 20
79.014692804
 30
0.0
 11
237.171166993
 21
79.014692804
 31
0.0
  0
LINE
  5
26F
330
269
100
AcDbEntity
  8
VERMASSUNG
100
AcDbLine
 10
229.7318951613
 20
106.014692804
 30
0.0
 11
237.171166993
 21
106.014692804
 31
0.0
  0
LINE
  5
270
330
269
100
AcDbEntity
  8
VERMASSUNG
100
AcDbLine
 10
236.171166993
 20
79.014692804
 30
0.0
 11
236.171166993
 21
106.014692804
 31
0.0
  0
MTEXT
  5
271
330
269
100
AcDbEntity
  8
VERMASSUNG
100
AcDbMText
 10
233.5930316299
 20
91.1162538128
 30
0.0
 40
2.0
 41
0.0
 71
     1
 72
     1
  1
27
  7
SLDTEXTSTYLE0
 11
6.123233995736766E-17
 21
1.0
 31
0.0
 73
     1
 44
1.0
  0
ENDBLK
  5
26B
330
269
100
AcDbEntity
  8
0
100
AcDbBlockEnd
  0
BLOCK
  5
275
330
274
100
AcDbEntity
  8
0
100
AcDbBlockBegin
  2
_D_4
 70
     0
 10
0.0
 20
0.0
 30
0.0
  3
_D_4
  1

  0
ARC
  5
277
330
274
100
AcDbEntity
  8
VERMASSUNG
100
AcDbCircle
 10
229.7854822382
 20
69.6733044259
 30
0.0
 40
43.69622574661552
100
AcDbArc
 50
90.0
 51
93.0407433125
  0
ARC
  5
278
330
274
100
AcDbEntity
  8
VERMASSUNG
100
AcDbCircle
 10
229.7854822382
 20
69.6733044259
 30
0.0
 40
43.69622574661551
100
AcDbArc
 50
77.81802254
 51
90.0
  0
ARC
  5
279
330
274
100
AcDbEntity
  8
VERMASSUNG
100
AcDbCircle
 10
229.7854822382
 20
69.6733044259
 30
0.0
 40
43.69622574661553
100
AcDbArc
 50
93.0407433125
 51
100.8911733416
  0
SOLID
  5
27A
330
274
100
AcDbEntity
  8
VERMASSUNG
100
AcDbTrace
 10
229.7854822382
 20
113.3695301725
 30
0.0
 11
232.7683000013
 21
112.8169922174
 31
0.0
 12
232.7991406734
 22
113.7164636472
 32
0.0
 13
232.7991406734
 23
113.7164636472
 33
0.0
  0
SOLID
  5
27B
330
274
100
AcDbEntity
  8
VERMASSUNG
100
AcDbTrace
 10
227.4675690418
 20
113.3080087667
 30
0.0
 11
224.4397501804
 21
113.4945910355
 31
0.0
 12
224.5182608583
 22
112.5980219788
 32
0.0
 13
224.5182608583
 23
112.5980219788
 33
0.0
  0
LINE
  5
27C
330
274
100
AcDbEntity
  8
VERMASSUNG
100
AcDbLine
 10
229.7854822382
 20
106.014692804
 30
0.0
 11
229.7854822382
 21
114.3695301725
 31
0.0
  0
LINE
  5
27D
330
274
100
AcDbEntity
  8
VERMASSUNG
100
AcDbLine
 10
227.9483793505
 20
104.2567571067
 30
0.0
 11
227.4145229684
 21
114.3066008326
 31
0.0
  0
MTEXT
  5
27E
330
274
100
AcDbEntity
  8
VERMASSUNG
100
AcDbMText
 10
235.2633213696
 20
115.6406407414
 30
0.0
 40
2.0
 41
0.0
 71
     1
 72
     1
  1
3°
  7
SLDTEXTSTYLE0
 11
0.9892641946001022
 21
-0.1461381308290593
 31
0.0
 73
     1
 44
1.0
  0
ENDBLK
  5
276
330
274
100
AcDbEntity
  8
0
100
AcDbBlockEnd
  0
BLOCK
  5
322
330
321
100
AcDbEntity
  8
0
100
AcDbBlockBegin
  2
SW_CENTERMARKSYMBOL_0
 70
     0
 10
0.0
 20
0.0
 30
0.0
  3
SW_CENTERMARKSYMBOL_0
  1

  0
LINE
  5
324
330
321
100
AcDbEntity
  8
VERMASSUNG
 62
     0
100
AcDbLine
 10
0.0
 20
0.0
 30
0.0
 11
0.0
 21
2.5
 31
0.0
  0
LINE
  5
325
330
321
100
AcDbEntity
  8
VERMASSUNG
 62
     0
100
AcDbLine
 10
0.0
 20
0.0
 30
0.0
 11
-2.5
 21
0.0
 31
0.0
  0
LINE
  5
326
330
321
100
AcDbEntity
  8
VERMASSUNG
 62
     0
100
AcDbLine
 10
0.0
 20
0.0
 30
0.0
 11
0.0
 21
-2.5
 31
0.0
  0
LINE
  5
327
330
321
100
AcDbEntity
  8
VERMASSUNG
 62
     0
100
AcDbLine
 10
0.0
 20
0.0
 30
0.0
 11
2.5
 21
0.0
 31
0.0
  0
LINE
  5
328
330
321
100
AcDbEntity
  8
VERMASSUNG
 62
     0
100
AcDbLine
 10
0.0
 20
5.0
 30
0.0
 11
0.0
 21
22.5
 31
0.0
  0
LINE
  5
329
330
321
100
AcDbEntity
  8
VERMASSUNG
 62
     0
100
AcDbLine
 10
-5.0
 20
0.0
 30
0.0
 11
-22.5
 21
0.0
 31
0.0
  0
LINE
  5
32A
330
321
100
AcDbEntity
  8
VERMASSUNG
 62
     0
100
AcDbLine
 10
0.0
 20
-5.0
 30
0.0
 11
0.0
 21
-28.4991686105
 31
0.0
  0
LINE
  5
32B
330
321
100
AcDbEntity
  8
VERMASSUNG
 62
     0
100
AcDbLine
 10
5.0
 20
0.0
 30
0.0
 11
22.5
 21
0.0
 31
0.0
  0
ENDBLK
  5
323
330
321
100
AcDbEntity
  8
0
100
AcDbBlockEnd
  0
ENDSEC
  0
SECTION
  2
ENTITIES
  0
MTEXT
  5
49
330
1F
100
AcDbEntity
  8
KOPF_DÜNN
100
AcDbMText
 10
13.8892156294
 20
23.8442973028
 30
0.0
 40
3.0
 41
0.0
 71
     1
 72
     1
  1
HA4.KVD.LUA.055
  7
SLDTEXTSTYLE0
 73
     1
 44
1.0
  0
MTEXT
  5
4A
330
1F
100
AcDbEntity
  8
VERMASSUNG
100
AcDbMText
 10
13.9329988022
 20
28.8834360957
 30
0.0
 40
3.0
 41
0.0
 71
     1
 72
     1
  1
Klemmhalter links_Turning tool left 93° /35°
  7
SLDTEXTSTYLE0
 73
     1
 44
1.0
  0
MTEXT
  5
4B
330
1F
100
AcDbEntity
  8
VERMASSUNG
100
AcDbMText
 10
98.8601118557
 20
13.8365368179
 30
0.0
 40
2.0
 41
0.0
 71
     1
 72
     1
  1
Datum: 26.02.2009
  7
SLDTEXTSTYLE0
 73
     1
 44
1.0
  0
MTEXT
  5
4D
330
1F
100
AcDbEntity
  8
VERMASSUNG
100
AcDbMText
 10
13.933048693
 20
18.0482802738
 30
0.0
 40
2.0
 41
0.0
 71
     1
 72
     1
  1
DIN 69893 HSK 40 A ICTM / VN.. 16 04..
  7
SLDTEXTSTYLE1
 73
     1
 44
1.0
  0
MTEXT
  5
4E
330
1F
100
AcDbEntity
  8
VERMASSUNG
100
AcDbMText
 10
13.9808475933
 20
13.9090973692
 30
0.0
 40
2.0
 41
0.0
 71
     1
 72
     1
  1
Gewicht: 377g
  7
SLDTEXTSTYLE0
 73
     1
 44
1.0
  0
LINE
  5
4F
330
1F
100
AcDbEntity
  8
0
  6
Continuous
 62
     7
370
    15
100
AcDbLine
 10
175.0854822524
 20
86.0146932511
 30
0.0
 11
182.7354827031
 21
86.0146932511
 31
0.0
  0
LINE
  5
50
330
1F
100
AcDbEntity
  8
0
  6
Continuous
 62
     7
370
    15
100
AcDbLine
 10
182.751009713
 20
126.014692357
 30
0.0
 11
175.0854822524
 21
126.014692357
 31
0.0
  0
ARC
  5
51
330
1F
100
AcDbEntity
  8
0
  6
Continuous
 62
     7
370
    15
100
AcDbCircle
 10
175.0854822382
 20
86.314692804
 30
0.0
 40
0.2999999999999972
100
AcDbArc
 50
180.0
 51
270.0
  0
ARC
  5
52
330
1F
100
AcDbEntity
  8
0
  6
Continuous
 62
     7
370
    15
100
AcDbCircle
 10
175.0854822382
 20
125.714692804
 30
0.0
 40
0.2999999999999972
100
AcDbArc
 50
90.0
 51
180.0
  0
ARC
  5
53
330
1F
100
AcDbEntity
  8
0
  6
Continuous
 62
     7
370
    15
100
AcDbCircle
 10
195.7354822382
 20
88.514692804
 30
0.0
 40
1.0
100
AcDbArc
 50
90.0
 51
143.1137328946
  0
ARC
  5
54
330
1F
100
AcDbEntity
  8
0
  6
Continuous
 62
     7
370
    15
100
AcDbCircle
 10
195.7354822382
 20
123.514692804
 30
0.0
 40
1.000000000000014
100
AcDbArc
 50
216.8998129703
 51
270.0
  0
LINE
  5
55
330
1F
100
AcDbEntity
  8
0
  6
Continuous
 62
     7
370
    15
100
AcDbLine
 10
195.7354829713
 20
89.5146928934
 30
0.0
 11
209.0181545421
 21
89.5146928934
 31
0.0
  0
LINE
  5
56
330
1F
100
AcDbEntity
  8
0
  6
Continuous
 62
     7
370
    15
100
AcDbLine
 10
209.0181545421
 20
122.5146927146
 30
0.0
 11
195.7354829713
 21
122.5146927146
 31
0.0
  0
ARC
  5
57
330
1F
100
AcDbEntity
  8
0
  6
Continuous
 62
     7
370
    15
100
AcDbCircle
 10
174.2854754855
 20
90.5609856506
 30
0.0
 40
0.60000675266771
100
AcDbArc
 50
33.5571153394
 51
90.0
  0
ARC
  5
58
330
1F
100
AcDbEntity
  8
0
  6
Continuous
 62
     7
370
    15
100
AcDbCircle
 10
174.2854754855
 20
121.4683999575
 30
0.0
 40
0.6000067526677242
100
AcDbArc
 50
270.0
 51
326.4428846606
  0
LINE
  5
59
330
1F
100
AcDbEntity
  8
0
  6
Continuous
 62
     7
370
    15
100
AcDbLine
 10
165.9695492192
 20
120.7769137083
 30
0.0
 11
158.4854819878
 21
120.4019604457
 31
0.0
  0
LINE
  5
5A
330
1F
100
AcDbEntity
  8
0
  6
Continuous
 62
     7
370
    15
100
AcDbLine
 10
172.7854821432
 20
121.1183933748
 30
0.0
 11
171.5507495749
 21
121.0565330667
 31
0.0
  0
LINE
  5
5B
330
1F
100
AcDbEntity
  8
0
  6
Continuous
 62
     7
370
    15
100
AcDbLine
 10
171.5517456244
 20
90.9728031812
 30
0.0
 11
172.7854821432
 21
90.9109922333
 31
0.0
  0
LINE
  5
5C
330
1F
100
AcDbEntity
  8
0
  6
Continuous
 62
     7
370
    15
100
AcDbLine
 10
160.9854823976
 20
91.5021743832
 30
0.0
 11
165.9700120866
 21
91.2524486167
 31
0.0
  0
LINE
  5
5D
330
1F
100
AcDbEntity
  8
0
  6
Continuous
 62
     7
370
    15
100
AcDbLine
 10
172.7854821432
 20
90.9109922333
 30
0.0
 11
173.642194138
 21
91.1405474154
 31
0.0
  0
LINE
  5
5E
330
1F
100
AcDbEntity
  8
0
  6
Continuous
 62
     7
370
    15
100
AcDbLine
 10
173.642194138
 20
120.8888381926
 30
0.0
 11
172.7854821432
 21
121.1183933748
 31
0.0
  0
ARC
  5
5F
330
1F
100
AcDbEntity
  8
0
  6
Continuous
 62
     7
370
    15
100
AcDbCircle
 10
173.7974873276
 20
90.5609856506
 30
0.0
 40
0.60000675266771
100
AcDbArc
 50
90.0
 51
105.0
  0
ARC
  5
60
330
1F
100
AcDbEntity
  8
0
  6
Continuous
 62
     7
370
    15
100
AcDbCircle
 10
173.7974873276
 20
121.4683999575
 30
0.0
 40
0.6000067526677242
100
AcDbArc
 50
255.0
 51
270.0
  0
LINE
  5
61
330
1F
100
AcDbEntity
  8
0
  6
Continuous
 62
     7
370
    15
100
AcDbLine
 10
173.7974872879
 20
91.1609927399
 30
0.0
 11
174.2854754623
 21
91.1609927399
 31
0.0
  0
LINE
  5
62
330
1F
100
AcDbEntity
  8
0
  6
Continuous
 62
     7
370
    15
100
AcDbLine
 10
174.2854754623
 20
120.8683928681
 30
0.0
 11
173.7974872879
 21
120.8683928681
 31
0.0
  0
ARC
  5
63
330
1F
100
AcDbEntity
  8
0
  6
Continuous
 62
     7
370
    15
100
AcDbCircle
 10
209.0181552502
 20
123.514692804
 30
0.0
 40
1.000000000000008
100
AcDbArc
 50
270.0
 51
330.0
  0
ARC
  5
64
330
1F
100
AcDbEntity
  8
0
  6
Continuous
 62
     7
370
    15
100
AcDbCircle
 10
209.0181552502
 20
88.514692804
 30
0.0
 40
1.000000000000023
100
AcDbArc
 50
15.0
 51
90.0
  0
LINE
  5
65
330
1F
100
AcDbEntity
  8
0
  6
Continuous
 62
     7
370
    15
100
AcDbLine
 10
214.9808355673
 20
123.0146937279
 30
0.0
 11
209.8841802283
 21
123.0146937279
 31
0.0
  0
ARC
  5
66
330
1F
100
AcDbEntity
  8
0
  6
Continuous
 62
     7
370
    15
100
AcDbCircle
 10
157.5854822382
 20
119.794692804
 30
0.0
 40
0.8999999999999777
100
AcDbArc
 50
270.0
 51
311.1792132369
  0
ARC
  5
67
330
1F
100
AcDbEntity
  8
0
  6
Continuous
 62
     7
370
    15
100
AcDbCircle
 10
160.0854822382
 20
92.293692804
 30
0.0
 40
0.8999999999999915
100
AcDbArc
 50
29.8499024808
 51
90.0
  0
LINE
  5
68
330
1F
100
AcDbEntity
  8
0
  6
Continuous
 62
     7
370
    15
100
AcDbLine
 10
155.8354818328
 20
118.8946930898
 30
0.0
 11
154.8854825153
 21
117.944692841
 31
0.0
  0
LINE
  5
69
330
1F
100
AcDbEntity
  8
0
  6
Continuous
 62
     7
370
    15
100
AcDbLine
 10
157.585481654
 20
118.8946930898
 30
0.0
 11
155.8354818328
 21
118.8946930898
 31
0.0
  0
LINE
  5
6A
330
1F
100
AcDbEntity
  8
0
  6
Continuous
 62
     7
370
    15
100
AcDbLine
 10
155.8354818328
 20
93.1936927346
 30
0.0
 11
160.0854820638
 21
93.1936927346
 31
0.0
  0
LINE
  5
6B
330
1F
100
AcDbEntity
  8
0
  6
Continuous
 62
     7
370
    15
100
AcDbLine
 10
154.8854825153
 20
94.1436929835
 30
0.0
 11
155.8354818328
 21
93.1936927346
 31
0.0
  0
LINE
  5
6C
330
1F
100
AcDbEntity
  8
0
  6
Continuous
 62
     7
370
    15
100
AcDbLine
 10
209.0850011512
 20
107.665816785
 30
0.0
 11
209.4134078427
 21
106.8502879326
 31
0.0
  0
LINE
  5
6D
330
1F
100
AcDbEntity
  8
0
  6
Continuous
 62
     7
370
    15
100
AcDbLine
 10
212.1962481245
 20
107.9709160814
 30
0.0
 11
211.8589081868
 21
108.8086207138
 31
0.0
  0
LINE
  5
6E
330
1F
100
AcDbEntity
  8
0
  6
Continuous
 62
     7
370
    15
100
AcDbLine
 10
222.5279123589
 20
103.8209743539
 30
0.0
 11
222.2076305255
 21
104.6163226684
 31
0.0
  0
LINE
  5
6F
330
1F
100
AcDbEntity
  8
0
  6
Continuous
 62
     7
370
    15
100
AcDbLine
 10
209.2210524782
 20
99.3867242915
 30
0.0
 11
209.5413305863
 21
98.5913762098
 31
0.0
  0
LINE
  5
70
330
1F
100
AcDbEntity
  8
0
  6
Continuous
 62
     7
370
    15
100
AcDbLine
 10
221.5776653095
 20
102.8343705667
 30
0.0
 11
221.4381531879
 21
103.1808209347
 31
0.0
  0
LINE
  5
71
330
1F
100
AcDbEntity
  8
0
  6
Continuous
 62
     7
370
    15
100
AcDbLine
 10
210.7706056043
 20
98.8850790283
 30
0.0
 11
210.9101177259
 21
98.5386288932
 31
0.0
  0
LINE
  5
72
330
1F
100
AcDbEntity
  8
0
  6
Continuous
 62
     7
370
    15
100
AcDbLine
 10
202.7074811115
 20
107.0177374614
 30
0.0
 11
203.1505634143
 21
105.917437647
 31
0.0
  0
LINE
  5
73
330
1F
100
AcDbEntity
  8
0
  6
Continuous
 62
     7
370
    15
100
AcDbLine
 10
226.2825244173
 20
98.2743926553
 30
0.0
 11
225.9364598497
 21
99.133771958
 31
0.0
  0
LINE
  5
74
330
1F
100
AcDbEntity
  8
0
  6
Continuous
 62
     7
370
    15
100
AcDbLine
 10
224.1080240413
 20
89.024513608
 30
0.0
 11
227.9828996464
 21
92.2813980115
 31
0.0
  0
LINE
  5
75
330
1F
100
AcDbEntity
  8
0
  6
Continuous
 62
     7
370
    15
100
AcDbLine
 10
228.9633289977
 20
94.5083644448
 30
0.0
 11
228.6312864228
 21
95.3329164741
 31
0.0
  0
LINE
  5
76
330
1F
100
AcDbEntity
  8
0
  6
Continuous
 62
     7
370
    15
100
AcDbLine
 10
194.7354828074
 20
87.4106601087
 30
0.0
 11
194.7354828074
 21
117.8646931631
 31
0.0
  0
SPLINE
  5
77
330
1F
100
AcDbEntity
  8
0
  6
Continuous
 62
     7
370
    15
100
AcDbSpline
210
0.0
220
0.0
230
1.0
 70
     8
 71
     3
 72
    10
 73
     6
 74
     0
 42
0.00000001
 43
0.00000001
 12
1.0
 22
0.0
 32
0.0
 13
1.0
 23
0.0
 33
0.0
 40
0.0
 40
0.0
 40
0.0
 40
0.0
 40
0.5
 40
0.5
 40
1.0
 40
1.0
 40
1.0
 40
1.0
 10
194.7354822381547
 20
87.4106609829367
 30
0.0
 10
194.7354822381548
 20
87.25102881403346
 30
0.0
 10
194.6738457244494
 20
87.0899791802694
 30
0.0
 10
194.4548193582065
 20
86.8569882965928
 30
0.0
 10
194.2972024701591
 20
86.7858082809938
 30
0.0
 10
194.1354822381547
 20
86.7858082809938
 30
0.0
  0
SPLINE
  5
78
330
1F
100
AcDbEntity
  8
0
  6
Continuous
 62
     7
370
    15
100
AcDbSpline
210
0.0
220
0.0
230
1.0
 70
    24
 71
     3
 72
    12
 73
     8
 74
     0
 42
0.00000001
 43
0.00000001
 12
1.0
 22
0.0
 32
0.0
 13
1.0
 23
0.0
 33
0.0
 40
0.0
 40
0.0
 40
0.0
 40
0.0
 40
0.25
 40
0.25
 40
0.5
 40
0.5
 40
1.0
 40
1.0
 40
1.0
 40
1.0
 10
194.1354822381547
 20
117.8646928040232
 30
0.0
 10
194.2236691035236
 20
117.8646928040232
 30
0.0
 10
194.3123564968249
 20
117.8646928040232
 30
0.0
 10
194.4666089899437
 20
117.8646928040232
 30
0.0
 10
194.5319549710197
 20
117.8646928040232
 30
0.0
 10
194.6863648409708
 20
117.8646928040232
 30
0.0
 10
194.7354822381548
 20
117.8646928040232
 30
0.0
 10
194.7354822381548
 20
117.8646928040232
 30
0.0
  0
LINE
  5
79
330
1F
100
AcDbEntity
  8
0
  6
Continuous
 62
     7
370
    15
100
AcDbLine
 10
182.7354827031
 20
117.8646931631
 30
0.0
 11
188.7503224491
 21
117.8646931631
 31
0.0
  0
LINE
  5
7A
330
1F
100
AcDbEntity
  8
0
  6
Continuous
 62
     7
370
    15
100
AcDbLine
 10
188.7503224491
 20
86.7858078537
 30
0.0
 11
188.7503224491
 21
117.8646931631
 31
0.0
  0
LINE
  5
7B
330
1F
100
AcDbEntity
  8
0
  6
Continuous
 62
     7
370
    15
100
AcDbLine
 10
188.7503224491
 20
86.7858078537
 30
0.0
 11
187.2354825094
 21
86.7858078537
 31
0.0
  0
SPLINE
  5
7C
330
1F
100
AcDbEntity
  8
0
  6
Continuous
 62
     7
370
    15
100
AcDbSpline
210
0.0
220
0.0
230
1.0
 70
     8
 71
     3
 72
    22
 73
    18
 74
     0
 42
0.00000001
 43
0.00000001
 12
1.0
 22
0.0
 32
0.0
 13
1.0
 23
0.0
 33
0.0
 40
0.0
 40
0.0
 40
0.0
 40
0.0
 40
0.125
 40
0.125
 40
0.25
 40
0.25
 40
0.375
 40
0.375
 40
0.5
 40
0.5
 40
0.625
 40
0.625
 40
0.75
 40
0.75
 40
0.875
 40
0.875
 40
1.0
 40
1.0
 40
1.0
 40
1.0
 10
187.2354822381548
 20
86.78580828099382
 30
0.0
 10
186.9363578091141
 20
86.78580828099382
 30
0.0
 10
186.6425353608653
 20
86.77729417992742
 30
0.0
 10
186.064971084619
 20
86.74485041104553
 30
0.0
 10
185.778153406805
 20
86.7205165223435
 30
0.0
 10
185.2336908779057
 20
86.66005649758665
 30
0.0
 10
184.9757356072844
 20
86.62414307680817
 30
0.0
 10
184.4876776639245
 20
86.54443305073903
 30
0.0
 10
184.2579793652607
 20
86.50055474954969
 30
0.0
 10
183.8455603823081
 20
86.4123111271795
 30
0.0
 10
183.660033439448
 20
86.36750278571856
 30
0.0
 10
183.3315133945472
 20
86.28018177779937
 30
0.0
 10
183.1930995076477
 20
86.23889098922372
 30
0.0
 10
182.9685073610318
 20
86.16455276592988
 30
0.0
 10
182.8814285489076
 20
86.13114264019522
 30
0.0
 10
182.7649267409525
 20
86.07612323866907
 30
0.0
 10
182.7354822381548
 20
86.05466147220284
 30
0.0
 10
182.7354822381548
 20
86.03970844858505
 30
0.0
  0
LINE
  5
7D
330
1F
100
AcDbEntity
  8
0
  6
Continuous
 62
     7
370
    15
100
AcDbLine
 10
182.7354827031
 20
86.0397085754
 30
0.0
 11
182.7354827031
 21
86.0146932511
 31
0.0
  0
SPLINE
  5
7E
330
1F
100
AcDbEntity
  8
0
  6
Continuous
 62
     7
370
    15
100
AcDbSpline
210
0.0
220
0.0
230
1.0
 70
     8
 71
     3
 72
    17
 73
    13
 74
     0
 42
0.00000001
 43
0.00000001
 12
1.0
 22
0.0
 32
0.0
 13
1.0
 23
0.0
 33
0.0
 40
0.0
 40
0.0
 40
0.0
 40
0.0
 40
0.1039928149931941
 40
0.211050797947968
 40
0.315030024669631
 40
0.4219351868122974
 40
0.5275775927633417
 40
0.6362134531400181
 40
0.7429488821168505
 40
0.8528788227495517
 40
0.9578277247781112
 40
1.0
 40
1.0
 40
1.0
 40
1.0
 10
187.2354825093559
 20
125.5018688945021
 30
0.0
 10
186.9896654251309
 20
125.5045847290951
 30
0.0
 10
186.4907858460145
 20
125.5100964469767
 30
0.0
 10
185.7673023024898
 20
125.5531802057523
 30
0.0
 10
185.079506946282
 20
125.6170468179338
 30
0.0
 10
184.4547615741478
 20
125.6963823339587
 30
0.0
 10
183.8988107710855
 20
125.783321125727
 30
0.0
 10
183.4368242645182
 20
125.867280717046
 30
0.0
 10
183.0745591332465
 20
125.940443586137
 30
0.0
 10
182.8427801624928
 20
125.9905806264286
 30
0.0
 10
182.7332142182096
 20
126.0152007238111
 30
0.0
 10
182.7470450935741
 20
126.0120955757459
 30
0.0
 10
182.751009713035
 20
126.011205485269
 30
0.0
  0
LINE
  5
7F
330
1F
100
AcDbEntity
  8
0
  6
Continuous
 62
     7
370
    15
100
AcDbLine
 10
188.7503224491
 20
125.5018688945
 30
0.0
 11
187.2354825094
 21
125.5018688945
 31
0.0
  0
LINE
  5
80
330
1F
100
AcDbEntity
  8
0
  6
Continuous
 62
     7
370
    15
100
AcDbLine
 10
188.7503224491
 20
122.1261020956
 30
0.0
 11
188.7503224491
 21
125.5018688945
 31
0.0
  0
LINE
  5
81
330
1F
100
AcDbEntity
  8
0
  6
Continuous
 62
     7
370
    15
100
AcDbLine
 10
187.2291523098
 20
122.1261020956
 30
0.0
 11
188.7503224491
 21
122.1261020956
 31
0.0
  0
SPLINE
  5
82
330
1F
100
AcDbEntity
  8
0
  6
Continuous
 62
     7
370
    15
100
AcDbSpline
210
0.0
220
0.0
230
1.0
 70
     8
 71
     3
 72
    22
 73
    18
 74
     0
 42
0.00000001
 43
0.00000001
 12
1.0
 22
0.0
 32
0.0
 13
1.0
 23
0.0
 33
0.0
 40
0.0
 40
0.0
 40
0.0
 40
0.0
 40
0.2499999999999999
 40
0.2499999999999999
 40
0.3749999999999999
 40
0.3749999999999999
 40
0.4999999999999999
 40
0.4999999999999999
 40
0.6249999999999999
 40
0.6249999999999999
 40
0.7499999999999999
 40
0.7499999999999999
 40
0.8749999999999998
 40
0.8749999999999998
 40
0.9374999999999999
 40
0.9374999999999999
 40
1.0
 40
1.0
 40
1.0
 40
1.0
 10
182.7354822381548
 20
117.8646928040232
 30
0.0
 10
182.7574632561414
 20
118.4275654459212
 30
0.0
 10
182.8364401394961
 20
118.9581903296508
 30
0.0
 10
183.0828380325285
 20
119.7039013205723
 30
0.0
 10
183.1873626476194
 20
119.9455215469711
 30
0.0
 10
183.4492092429259
 20
120.404380322297
 30
0.0
 10
183.6044258650918
 20
120.6185589947668
 30
0.0
 10
183.9730176181557
 20
121.0157875539123
 30
0.0
 10
184.1891513106206
 20
121.2002323889321
 30
0.0
 10
184.6730458056075
 20
121.5213122368158
 30
0.0
 10
184.9435113506152
 20
121.6606630669218
 30
0.0
 10
185.5397379161254
 20
121.8899686013473
 30
0.0
 10
185.8552311828454
 20
121.9765046108237
 30
0.0
 10
186.3559478308639
 20
122.0653942151549
 30
0.0
 10
186.528744265479
 20
122.0882027210166
 30
0.0
 10
186.8771130382611
 20
122.1184938837128
 30
0.0
 10
187.0525140671715
 20
122.1261018051007
 30
0.0
 10
187.2291527128595
 20
122.1261018051007
 30
0.0
  0
LINE
  5
83
330
1F
100
AcDbEntity
  8
0
  6
Continuous
 62
     7
370
    15
100
AcDbLine
 10
192.8206426158
 20
86.7858078537
 30
0.0
 11
192.8206426158
 21
117.8646931631
 31
0.0
  0
SPLINE
  5
84
330
1F
100
AcDbEntity
  8
0
  6
Continuous
 62
     7
370
    15
100
AcDbSpline
210
0.0
220
0.0
230
1.0
 70
     8
 71
     3
 72
     8
 73
     4
 74
     0
 42
0.00000001
 43
0.00000001
 12
1.0
 22
0.0
 32
0.0
 13
1.0
 23
0.0
 33
0.0
 40
0.0
 40
0.0
 40
0.0
 40
0.0
 40
1.0
 40
1.0
 40
1.0
 40
1.0
 10
192.8206419370482
 20
86.78580828099382
 30
0.0
 10
192.4879366653429
 20
87.38517995421748
 30
0.0
 10
192.1561208647693
 20
87.9850490649225
 30
0.0
 10
191.8254822381547
 20
88.58556941603351
 30
0.0
  0
LINE
  5
85
330
1F
100
AcDbEntity
  8
0
  6
Continuous
 62
     7
370
    15
100
AcDbLine
 10
191.825481604
 20
88.5855701027
 30
0.0
 11
191.825481604
 21
117.8646931631
 31
0.0
  0
SPLINE
  5
86
330
1F
100
AcDbEntity
  8
0
  6
Continuous
 62
     7
370
    15
100
AcDbSpline
210
0.0
220
0.0
230
1.0
 70
    24
 71
     3
 72
     8
 73
     4
 74
     0
 42
0.00000001
 43
0.00000001
 12
1.0
 22
0.0
 32
0.0
 13
1.0
 23
0.0
 33
0.0
 40
0.0
 40
0.0
 40
0.0
 40
0.0
 40
1.0
 40
1.0
 40
1.0
 40
1.0
 10
191.8254822381547
 20
117.8646928040232
 30
0.0
 10
192.149118893777
 20
117.8646928040232
 30
0.0
 10
192.4816091152936
 20
117.8646928040232
 30
0.0
 10
192.8206419370482
 20
117.8646928040232
 30
0.0
  0
LINE
  5
87
330
1F
100
AcDbEntity
  8
0
  6
Continuous
 62
     7
370
    15
100
AcDbLine
 10
189.7454825296
 20
88.5855701027
 30
0.0
 11
189.7454825296
 21
117.8646931631
 31
0.0
  0
SPLINE
  5
88
330
1F
100
AcDbEntity
  8
0
  6
Continuous
 62
     7
370
    15
100
AcDbSpline
210
0.0
220
0.0
230
1.0
 70
     8
 71
     3
 72
     8
 73
     4
 74
     0
 42
0.00000001
 43
0.00000001
 12
1.0
 22
0.0
 32
0.0
 13
1.0
 23
0.0
 33
0.0
 40
0.0
 40
0.0
 40
0.0
 40
0.0
 40
1.0
 40
1.0
 40
1.0
 40
1.0
 10
189.7454822381548
 20
88.58556941603351
 30
0.0
 10
189.4148436115402
 20
87.9850490649225
 30
0.0
 10
189.0830278109667
 20
87.38517995421748
 30
0.0
 10
188.7503225392613
 20
86.78580828099382
 30
0.0
  0
SPLINE
  5
89
330
1F
100
AcDbEntity
  8
0
  6
Continuous
 62
     7
370
    15
100
AcDbSpline
210
0.0
220
0.0
230
1.0
 70
    24
 71
     3
 72
     8
 73
     4
 74
     0
 42
0.00000001
 43
0.00000001
 12
1.0
 22
0.0
 32
0.0
 13
1.0
 23
0.0
 33
0.0
 40
0.0
 40
0.0
 40
0.0
 40
0.0
 40
1.0
 40
1.0
 40
1.0
 40
1.0
 10
188.7503225392613
 20
117.8646928040232
 30
0.0
 10
189.0893553610159
 20
117.8646928040232
 30
0.0
 10
189.4218455825325
 20
117.8646928040232
 30
0.0
 10
189.7454822381548
 20
117.8646928040232
 30
0.0
  0
LINE
  5
8A
330
1F
100
AcDbEntity
  8
0
  6
Continuous
 62
     7
370
    15
100
AcDbLine
 10
194.135481964
 20
86.7858078537
 30
0.0
 11
192.8206426158
 21
86.7858078537
 31
0.0
  0
LINE
  5
8B
330
1F
100
AcDbEntity
  8
0
  6
Continuous
 62
     7
370
    15
100
AcDbLine
 10
192.8206426158
 20
117.8646931631
 30
0.0
 11
194.135481964
 21
117.8646931631
 31
0.0
  0
LINE
  5
8C
330
1F
100
AcDbEntity
  8
0
  6
Continuous
 62
     7
370
    15
100
AcDbLine
 10
174.7854822382
 20
86.3146927414
 30
0.0
 11
174.7854822382
 21
125.7146928666
 31
0.0
  0
SPLINE
  5
8D
330
1F
100
AcDbEntity
  8
0
  6
Continuous
 62
     7
370
    15
100
AcDbSpline
210
0.0
220
0.0
230
1.0
 70
    24
 71
     3
 72
    16
 73
    12
 74
     0
 42
0.00000001
 43
0.00000001
 12
1.0
 22
0.0
 32
0.0
 13
1.0
 23
0.0
 33
0.0
 40
0.0
 40
0.0
 40
0.0
 40
0.0
 40
0.0624999999999994
 40
0.0624999999999994
 40
0.1249999999999988
 40
0.1249999999999988
 40
0.2499999999999989
 40
0.2499999999999989
 40
0.499999999999999
 40
0.499999999999999
 40
1.0
 40
1.0
 40
1.0
 40
1.0
 10
190.3454822381282
 20
89.11469280402324
 30
0.0
 10
190.3110035709429
 20
89.11469280402324
 30
0.0
 10
190.2771833941061
 20
89.11469280402324
 30
0.0
 10
190.2206613269225
 20
89.11469280402324
 30
0.0
 10
190.1963352473961
 20
89.11469280402324
 30
0.0
 10
190.1318823478449
 20
89.11469280402322
 30
0.0
 10
190.0982540724863
 20
89.11469280402322
 30
0.0
 10
190.0101767569614
 20
89.11469280402324
 30
0.0
 10
189.9673573036938
 20
89.11469280402324
 30
0.0
 10
189.8567006694968
 20
89.11469280402324
 30
0.0
 10
189.8104680835528
 20
89.11469280402324
 30
0.0
 10
189.7807046387361
 20
89.11469280402324
 30
0.0
  0
SPLINE
  5
8E
330
1F
100
AcDbEntity
  8
0
  6
Continuous
 62
     7
370
    15
100
AcDbSpline
210
0.0
220
0.0
230
1.0
 70
    24
 71
     3
 72
    12
 73
     8
 74
     0
 42
0.00000001
 43
0.00000001
 12
1.0
 22
0.0
 32
0.0
 13
1.0
 23
0.0
 33
0.0
 40
0.0
 40
0.0
 40
0.0
 40
0.0
 40
0.5000000000000013
 40
0.5000000000000013
 40
0.7500000000000007
 40
0.7500000000000007
 40
1.0
 40
1.0
 40
1.0
 40
1.0
 10
189.7454822381548
 20
117.8646928040232
 30
0.0
 10
189.7454822381548
 20
117.8646928040232
 30
0.0
 10
189.7924783356631
 20
117.8646928040232
 30
0.0
 10
189.9419842736633
 20
117.8646928040232
 30
0.0
 10
190.0065028962217
 20
117.8646928040232
 30
0.0
 10
190.1609425889507
 20
117.8646928040232
 30
0.0
 10
190.2518809769537
 20
117.8646928040232
 30
0.0
 10
190.3454822381547
 20
117.8646928040232
 30
0.0
  0
SPLINE
  5
8F
330
1F
100
AcDbEntity
  8
0
  6
Continuous
 62
     7
370
    15
100
AcDbSpline
210
0.0
220
0.0
230
1.0
 70
    24
 71
     3
 72
    16
 73
    12
 74
     0
 42
0.00000001
 43
0.00000001
 12
1.0
 22
0.0
 32
0.0
 13
1.0
 23
0.0
 33
0.0
 40
0.0
 40
0.0
 40
0.0
 40
0.0
 40
0.4999999999999991
 40
0.4999999999999991
 40
0.7499999999999996
 40
0.7499999999999996
 40
0.8749999999999998
 40
0.8749999999999998
 40
0.9374999999999999
 40
0.9374999999999999
 40
1.0
 40
1.0
 40
1.0
 40
1.0
 10
191.7902598375735
 20
89.11469280402324
 30
0.0
 10
191.7602234180468
 20
89.11469280402324
 30
0.0
 10
191.7135893208421
 20
89.11469280402324
 30
0.0
 10
191.6032049092634
 20
89.11469280402322
 30
0.0
 10
191.5598672607427
 20
89.11469280402322
 30
0.0
 10
191.4713856263581
 20
89.11469280402324
 30
0.0
 10
191.4380101217415
 20
89.11469280402324
 30
0.0
 10
191.373517912291
 20
89.11469280402322
 30
0.0
 10
191.3493135751043
 20
89.11469280402324
 30
0.0
 10
191.2935597652939
 20
89.11469280402322
 30
0.0
 10
191.2599757392257
 20
89.11469280402322
 30
0.0
 10
191.2254822381547
 20
89.11469280402324
 30
0.0
  0
SPLINE
  5
90
330
1F
100
AcDbEntity
  8
0
  6
Continuous
 62
     7
370
    15
100
AcDbSpline
210
0.0
220
0.0
230
1.0
 70
    24
 71
     3
 72
    12
 73
     8
 74
     0
 42
0.00000001
 43
0.00000001
 12
1.0
 22
0.0
 32
0.0
 13
1.0
 23
0.0
 33
0.0
 40
0.0
 40
0.0
 40
0.0
 40
0.0
 40
0.250000000000001
 40
0.250000000000001
 40
0.500000000000002
 40
0.500000000000002
 40
1.0
 40
1.0
 40
1.0
 40
1.0
 10
191.2254822381547
 20
117.8646928040232
 30
0.0
 10
191.318140327661
 20
117.8646928040232
 30
0.0
 10
191.4102037372187
 20
117.8646928040232
 30
0.0
 10
191.5643612877095
 20
117.8646928040232
 30
0.0
 10
191.6288502210742
 20
117.8646928040232
 30
0.0
 10
191.7789017700237
 20
117.8646928040232
 30
0.0
 10
191.8254822381547
 20
117.8646928040232
 30
0.0
 10
191.8254822381547
 20
117.8646928040232
 30
0.0
  0
SPLINE
  5
91
330
1F
100
AcDbEntity
  8
0
  6
Continuous
 62
     7
370
    15
100
AcDbSpline
210
0.0
220
0.0
230
1.0
 70
    24
 71
     3
 72
    14
 73
    10
 74
     0
 42
0.00000001
 43
0.00000001
 12
1.0
 22
0.0
 32
0.0
 13
1.0
 23
0.0
 33
0.0
 40
0.0
 40
0.0
 40
0.0
 40
0.0
 40
0.125
 40
0.125
 40
0.25
 40
0.25
 40
0.5
 40
0.5
 40
1.0
 40
1.0
 40
1.0
 40
1.0
 10
194.9354822381382
 20
122.9146928040232
 30
0.0
 10
194.9354824633171
 20
122.9146928040232
 30
0.0
 10
194.9331061051986
 20
122.9146928040232
 30
0.0
 10
194.923958215369
 20
122.9146928040232
 30
0.0
 10
194.9171923195887
 20
122.9146928040232
 30
0.0
 10
194.8917529087586
 20
122.9146928040232
 30
0.0
 10
194.8678598721015
 20
122.9146928040232
 30
0.0
 10
194.7929256437713
 20
122.9146928040232
 30
0.0
 10
194.7376991269958
 20
122.9146928040232
 30
0.0
 10
194.7355443612781
 20
122.9146928040232
 30
0.0
  0
SPLINE
  5
92
330
1F
100
AcDbEntity
  8
0
  6
Continuous
 62
     7
370
    15
100
AcDbSpline
210
0.0
220
0.0
230
1.0
 70
    24
 71
     3
 72
    10
 73
     6
 74
     0
 42
0.00000001
 43
0.00000001
 12
1.0
 22
0.0
 32
0.0
 13
1.0
 23
0.0
 33
0.0
 40
0.0
 40
0.0
 40
0.0
 40
0.0
 40
0.0000121025478641
 40
0.896866131866605
 40
1.0
 40
1.0
 40
1.0
 40
1.0
 10
194.9354824676326
 20
89.11469357292314
 30
0.0
 10
194.9354824676352
 20
89.11469357292314
 30
0.0
 10
194.9354826607264
 20
89.11469357292599
 30
0.0
 10
194.8876123326157
 20
89.11469357292304
 30
0.0
 10
194.8518415714273
 20
89.11469357292312
 30
0.0
 10
194.8481523498109
 20
89.11469357292313
 30
0.0
  0
SPLINE
  5
93
330
1F
100
AcDbEntity
  8
0
  6
Continuous
 62
     7
370
    15
100
AcDbSpline
210
0.0
220
0.0
230
1.0
 70
    24
 71
     3
 72
    12
 73
     8
 74
     0
 42
0.00000001
 43
0.00000001
 12
1.0
 22
0.0
 32
0.0
 13
1.0
 23
0.0
 33
0.0
 40
0.0
 40
0.0
 40
0.0
 40
0.0
 40
0.5
 40
0.5
 40
0.75
 40
0.75
 40
1.0
 40
1.0
 40
1.0
 40
1.0
 10
194.7354822381548
 20
117.8646928040232
 30
0.0
 10
194.7354822381548
 20
117.8646928040232
 30
0.0
 10
194.7627029862824
 20
117.8646928040232
 30
0.0
 10
194.8431494320553
 20
117.8646928040232
 30
0.0
 10
194.8765966605333
 20
117.8646928040232
 30
0.0
 10
194.9590062303077
 20
117.8646928040232
 30
0.0
 10
195.0082893271912
 20
117.8646928040232
 30
0.0
 10
195.0646059498278
 20
117.8646928040232
 30
0.0
  0
SPLINE
  5
94
330
1F
100
AcDbEntity
  8
0
  6
Continuous
 62
     7
370
    15
100
AcDbSpline
210
0.0
220
0.0
230
1.0
 70
     8
 71
     3
 72
    10
 73
     6
 74
     0
 42
0.00000001
 43
0.00000001
 12
1.0
 22
0.0
 32
0.0
 13
1.0
 23
0.0
 33
0.0
 40
0.0
 40
0.0
 40
0.0
 40
0.0
 40
0.5
 40
0.5
 40
1.0
 40
1.0
 40
1.0
 40
1.0
 10
194.7354822381547
 20
118.8920954924538
 30
0.0
 10
194.7354822381547
 20
118.7093867803189
 30
0.0
 10
194.7624555718628
 20
118.5258784905581
 30
0.0
 10
194.8700459396486
 20
118.1775745122374
 30
0.0
 10
194.9515104839918
 20
118.0093869296945
 30
0.0
 10
195.0646059498276
 20
117.8646928040218
 30
0.0
  0
LINE
  5
95
330
1F
100
AcDbEntity
  8
0
  6
Continuous
 62
     7
370
    15
100
AcDbLine
 10
191.2254826232
 20
89.1146935729
 30
0.0
 11
190.3454824417
 21
89.1146935729
 31
0.0
  0
LINE
  5
96
330
1F
100
AcDbEntity
  8
0
  6
Continuous
 62
     7
370
    15
100
AcDbLine
 10
190.3454824417
 20
117.8646931631
 30
0.0
 11
191.2254826232
 21
117.8646931631
 31
0.0
  0
ELLIPSE
  5
97
330
1F
100
AcDbEntity
  8
0
  6
Continuous
 62
     7
370
    15
100
AcDbEllipse
 10
200.5420230078
 20
106.014692804
 30
0.0
 11
0.8249710662703365
 21
16.49857054117956
 31
0.0
210
0.0
220
0.0
230
1.0
 40
0.263265937
 41
0.7375628312926141
 42
2.779422103344888
  0
SPLINE
  5
98
330
1F
100
AcDbEntity
  8
0
  6
Continuous
 62
     7
370
    15
100
AcDbSpline
210
0.0
220
0.0
230
1.0
 70
     8
 71
     3
 72
    14
 73
    10
 74
     0
 42
0.00000001
 43
0.00000001
 12
1.0
 22
0.0
 32
0.0
 13
1.0
 23
0.0
 33
0.0
 40
0.0
 40
0.0
 40
0.0
 40
0.0
 40
0.25
 40
0.25
 40
0.5
 40
0.5
 40
0.75
 40
0.75
 40
1.0
 40
1.0
 40
1.0
 40
1.0
 10
200.9201488036555
 20
89.92767137547668
 30
0.0
 10
200.5903561810228
 20
89.93323512069071
 30
0.0
 10
200.273802335321
 20
89.95130459127851
 30
0.0
 10
199.6731278079831
 20
90.01614854306561
 30
0.0
 10
199.4026690341396
 20
90.0617101942913
 30
0.0
 10
198.9274877034362
 20
90.18453219225466
 30
0.0
 10
198.7308299811271
 20
90.25988098802605
 30
0.0
 10
198.4173149201762
 20
90.44187235265696
 30
0.0
 10
198.3051120055836
 20
90.54544009253337
 30
0.0
 10
198.2316407460207
 20
90.66333500873822
 30
0.0
  0
ELLIPSE
  5
99
330
1F
100
AcDbEntity
  8
0
  6
Continuous
 62
     7
370
    15
100
AcDbEllipse
 10
292.5334912726
 20
106.014692804
 30
0.0
 11
235.960909977373
 21
2.878844283987575
 31
0.0
210
0.0
220
0.0
230
1.0
 40
0.068854266
 41
4.31281022034724
 42
4.349771626634067
  0
ELLIPSE
  5
9A
330
1F
100
AcDbEntity
  8
0
  6
Continuous
 62
     7
370
    15
100
AcDbEllipse
 10
292.5334912726
 20
106.014692804
 30
0.0
 11
235.960909977373
 21
2.878844283987575
 31
0.0
210
0.0
220
0.0
230
1.0
 40
0.068854266
 41
1.931733566127229
 42
1.968694972414061
  0
SPLINE
  5
9B
330
1F
100
AcDbEntity
  8
0
  6
Continuous
 62
     7
370
    15
100
AcDbSpline
210
0.0
220
0.0
230
1.0
 70
     8
 71
     3
 72
    18
 73
    14
 74
     0
 42
0.00000001
 43
0.00000001
 12
1.0
 22
0.0
 32
0.0
 13
1.0
 23
0.0
 33
0.0
 40
0.0
 40
0.0
 40
0.0
 40
0.0
 40
0.25
 40
0.25
 40
0.375
 40
0.375
 40
0.5
 40
0.5
 40
0.625
 40
0.625
 40
0.75
 40
0.75
 40
1.0
 40
1.0
 40
1.0
 40
1.0
 10
198.2316407460207
 20
118.371500283037
 30
0.0
 10
198.3051637081354
 20
118.5847733068412
 30
0.0
 10
198.4173496848704
 20
118.7804878890911
 30
0.0
 10
198.651497098847
 20
119.0488927157027
 30
0.0
 10
198.7410389008554
 20
119.1341231961607
 30
0.0
 10
198.937498866404
 20
119.2903614769485
 30
0.0
 10
199.0450440640222
 20
119.3622123741863
 30
0.0
 10
199.2796773338716
 20
119.4938102805722
 30
0.0
 10
199.4082103979265
 20
119.5540851244715
 30
0.0
 10
199.6793526089963
 20
119.6592971534481
 30
0.0
 10
199.8211864825858
 20
119.7041949686
 30
0.0
 10
200.2655017546334
 20
119.8170952535985
 30
0.0
 10
200.5898956373791
 20
119.8632624388372
 30
0.0
 10
200.9201488036555
 20
119.8768542597352
 30
0.0
  0
LINE
  5
9C
330
1F
100
AcDbEntity
  8
0
  6
Continuous
 62
     7
370
    15
100
AcDbLine
 10
160.9854823976
 20
91.5021743832
 30
0.0
 11
160.9854823976
 21
92.411116345
 31
0.0
  0
SPLINE
  5
9D
330
1F
100
AcDbEntity
  8
0
  6
Continuous
 62
     7
370
    15
100
AcDbSpline
210
0.0
220
0.0
230
1.0
 70
     8
 71
     3
 72
    10
 73
     6
 74
     0
 42
0.00000001
 43
0.00000001
 12
1.0
 22
0.0
 32
0.0
 13
1.0
 23
0.0
 33
0.0
 40
0.0
 40
0.0
 40
0.0
 40
0.0
 40
0.5
 40
0.5
 40
1.0
 40
1.0
 40
1.0
 40
1.0
 10
160.6942470356695
 20
93.08068945681529
 30
0.0
 10
160.7321214386142
 20
92.95452734876264
 30
0.0
 10
160.81291248594
 20
92.83656830778074
 30
0.0
 10
160.9380424285314
 20
92.61352232519177
 30
0.0
 10
160.9854822381547
 20
92.5087272516964
 30
0.0
 10
160.9854822381547
 20
92.41111661829899
 30
0.0
  0
SPLINE
  5
9E
330
1F
100
AcDbEntity
  8
0
  6
Continuous
 62
     7
370
    15
100
AcDbSpline
210
0.0
220
0.0
230
1.0
 70
     8
 71
     3
 72
    16
 73
    12
 74
     0
 42
0.00000001
 43
0.00000001
 12
1.0
 22
0.0
 32
0.0
 13
1.0
 23
0.0
 33
0.0
 40
0.0
 40
0.0
 40
0.0
 40
0.0
 40
0.0624999999999998
 40
0.0624999999999998
 40
0.1249999999999996
 40
0.1249999999999996
 40
0.2500000000000004
 40
0.2500000000000004
 40
0.5000000000000009
 40
0.5000000000000009
 40
1.0
 40
1.0
 40
1.0
 40
1.0
 10
160.085482238155
 20
93.73081950547035
 30
0.0
 10
160.1167980374823
 20
93.7334241273624
 30
0.0
 10
160.1495123759078
 20
93.73165522690243
 30
0.0
 10
160.2108189293847
 20
93.72012033245242
 30
0.0
 10
160.2393298196027
 20
93.7105933551062
 30
0.0
 10
160.3152237929589
 20
93.67707975498128
 30
0.0
 10
160.3545633779919
 20
93.6486922406614
 30
0.0
 10
160.4559991589732
 20
93.56067129045354
 30
0.0
 10
160.5008245185792
 20
93.49903863824636
 30
0.0
 10
160.6151068735444
 20
93.31565044457125
 30
0.0
 10
160.6599207813872
 20
93.19503245010637
 30
0.0
 10
160.6942470356695
 20
93.08068945681528
 30
0.0
  0
SPLINE
  5
9F
330
1F
100
AcDbEntity
  8
0
  6
Continuous
 62
     7
370
    15
100
AcDbSpline
210
0.0
220
0.0
230
1.0
 70
     8
 71
     3
 72
    10
 73
     6
 74
     0
 42
0.00000001
 43
0.00000001
 12
1.0
 22
0.0
 32
0.0
 13
1.0
 23
0.0
 33
0.0
 40
0.0
 40
0.0
 40
0.0
 40
0.0
 40
0.5
 40
0.5
 40
1.0
 40
1.0
 40
1.0
 40
1.0
 10
155.9956908034391
 20
93.3035125415721
 30
0.0
 10
156.6539488143416
 20
93.3964372468891
 30
0.0
 10
157.3312911228787
 20
93.47237236401168
 30
0.0
 10
158.7006371365599
 20
93.61119044954935
 30
0.0
 10
159.3919572174323
 20
93.67313710583583
 30
0.0
 10
160.0854822381554
 20
93.7308195054704
 30
0.0
  0
SPLINE
  5
A0
330
1F
100
AcDbEntity
  8
0
  6
Continuous
 62
     7
370
    15
100
AcDbSpline
210
0.0
220
0.0
230
1.0
 70
     8
 71
     3
 72
     8
 73
     4
 74
     0
 42
0.00000001
 43
0.00000001
 12
1.0
 22
0.0
 32
0.0
 13
1.0
 23
0.0
 33
0.0
 40
0.0000002108190109
 40
0.0000002108190109
 40
0.0000002108190109
 40
0.0000002108190109
 40
0.0001710235456397
 40
0.0001710235456397
 40
0.0001710235456397
 40
0.0001710235456397
 10
155.8354822381548
 20
93.28415725306385
 30
0.0
 10
155.8894704242446
 20
93.2897873956674
 30
0.0
 10
155.9430600843204
 20
93.29608278912893
 30
0.0
 10
155.9956908034391
 20
93.30351254157209
 30
0.0
  0
SPLINE
  5
A1
330
1F
100
AcDbEntity
  8
0
  6
Continuous
 62
     7
370
    15
100
AcDbSpline
210
0.0
220
0.0
230
1.0
 70
     8
 71
     3
 72
     8
 73
     4
 74
     0
 42
0.00000001
 43
0.00000001
 12
1.0
 22
0.0
 32
0.0
 13
1.0
 23
0.0
 33
0.0
 40
0.000003532078448
 40
0.000003532078448
 40
0.000003532078448
 40
0.000003532078448
 40
0.0000638548434643
 40
0.0000638548434643
 40
0.0000638548434643
 40
0.0000638548434643
 10
155.8269660885857
 20
93.31151510447965
 30
0.0
 10
155.8295152597078
 20
93.30235390114092
 30
0.0
 10
155.8323571824896
 20
93.2932328978322
 30
0.0
 10
155.8354822381548
 20
93.28415725306385
 30
0.0
  0
ELLIPSE
  5
A2
330
1F
100
AcDbEntity
  8
0
  6
Continuous
 62
     7
370
    15
100
AcDbEllipse
 10
142.3587400303
 20
105.3753951262
 30
0.0
 11
13.37355272666628
 21
-13.37146352987014
 31
0.0
210
0.0
220
0.0
230
1.0
 40
0.1761188775
 41
0.3023035477142446
 42
0.3822730435340326
  0
ELLIPSE
  5
A3
330
1F
100
AcDbEntity
  8
0
  6
Continuous
 62
     7
370
    15
100
AcDbEllipse
 10
142.2793615996
 20
106.6538032553
 30
0.0
 11
13.36963611134303
 21
13.36754752639483
 31
0.0
210
0.0
220
0.0
230
1.0
 40
0.1761188775
 41
5.933076931846596
 42
5.976720052691198
  0
SPLINE
  5
A4
330
1F
100
AcDbEntity
  8
0
  6
Continuous
 62
     7
370
    15
100
AcDbSpline
210
0.0
220
0.0
230
1.0
 70
     8
 71
     3
 72
     8
 73
     4
 74
     0
 42
0.00000001
 43
0.00000001
 12
1.0
 22
0.0
 32
0.0
 13
1.0
 23
0.0
 33
0.0
 40
0.0
 40
0.0
 40
0.0
 40
0.0
 40
1.0
 40
1.0
 40
1.0
 40
1.0
 10
155.8354822381548
 20
118.8802733510016
 30
0.0
 10
155.7897173304655
 20
118.8187529718427
 30
0.0
 10
155.7553302088355
 20
118.7548581120933
 30
0.0
 10
155.7363149551626
 20
118.6881281670496
 30
0.0
  0
SPLINE
  5
A5
330
1F
100
AcDbEntity
  8
0
  6
Continuous
 62
     7
370
    15
100
AcDbSpline
210
0.0
220
0.0
230
1.0
 70
     8
 71
     3
 72
    12
 73
     8
 74
     0
 42
0.00000001
 43
0.00000001
 12
1.0
 22
0.0
 32
0.0
 13
1.0
 23
0.0
 33
0.0
 40
0.0
 40
0.0
 40
0.0
 40
0.0
 40
0.2499999999999986
 40
0.2499999999999986
 40
0.4999999999999971
 40
0.4999999999999971
 40
1.0
 40
1.0
 40
1.0
 40
1.0
 10
157.5854822381548
 20
118.7954866626824
 30
0.0
 10
157.4434398349655
 20
118.8113123908586
 30
0.0
 10
157.2993217284614
 20
118.8223335246339
 30
0.0
 10
157.0095672147889
 20
118.8408698865011
 30
0.0
 10
156.8638253114301
 20
118.8481405922369
 30
0.0
 10
156.4251450722503
 20
118.8666014425649
 30
0.0
 10
156.1307694561791
 20
118.8744803093884
 30
0.0
 10
155.8354822381548
 20
118.8802733510016
 30
0.0
  0
SPLINE
  5
A6
330
1F
100
AcDbEntity
  8
0
  6
Continuous
 62
     7
370
    15
100
AcDbSpline
210
0.0
220
0.0
230
1.0
 70
     8
 71
     3
 72
    20
 73
    16
 74
     0
 42
0.00000001
 43
0.00000001
 12
1.0
 22
0.0
 32
0.0
 13
1.0
 23
0.0
 33
0.0
 40
0.0
 40
0.0
 40
0.0
 40
0.0
 40
0.2500000000000019
 40
0.2500000000000019
 40
0.5000000000000039
 40
0.5000000000000039
 40
0.7500000000000058
 40
0.7500000000000058
 40
0.8750000000000054
 40
0.8750000000000054
 40
0.9375000000000053
 40
0.9375000000000053
 40
0.9687500000000027
 40
0.9687500000000027
 40
1.0
 40
1.0
 40
1.0
 40
1.0
 10
158.4854822381557
 20
119.5722169257711
 30
0.0
 10
158.4854822381557
 20
119.5116075260737
 30
0.0
 10
158.4600872185788
 20
119.4457815606702
 30
0.0
 10
158.3737940327968
 20
119.3117337913235
 30
0.0
 10
158.3131580541136
 20
119.2430384331817
 30
0.0
 10
158.1650562598923
 20
119.1026398815273
 30
0.0
 10
158.0782866531137
 20
119.0309363769459
 30
0.0
 10
157.9296488577845
 20
118.9247729751971
 30
0.0
 10
157.8773596408983
 20
118.8892446265656
 30
0.0
 10
157.7865958125884
 20
118.8395406960501
 30
0.0
 10
157.7542298201364
 20
118.823279698035
 30
0.0
 10
157.6965406644701
 20
118.804167129689
 30
0.0
 10
157.6755536365827
 20
118.7987759876075
 30
0.0
 10
157.6302646575922
 20
118.793038619215
 30
0.0
 10
157.6072503887537
 20
118.7930613528684
 30
0.0
 10
157.5854822381541
 20
118.7954866626813
 30
0.0
  0
LINE
  5
A7
330
1F
100
AcDbEntity
  8
0
  6
Continuous
 62
     7
370
    15
100
AcDbLine
 10
158.4854819878
 20
119.5722172243
 30
0.0
 11
158.4854819878
 21
120.4019604457
 31
0.0
  0
LINE
  5
A8
330
1F
100
AcDbEntity
  8
0
  6
Continuous
 62
     7
370
    15
100
AcDbLine
 10
172.7854821432
 20
90.9109922333
 30
0.0
 11
172.7854821432
 21
121.1183933748
 31
0.0
  0
SPLINE
  5
A9
330
1F
100
AcDbEntity
  8
0
  6
Continuous
 62
     7
370
    15
100
AcDbSpline
210
0.0
220
0.0
230
1.0
 70
     8
 71
     3
 72
    24
 73
    20
 74
     0
 42
0.00000001
 43
0.00000001
 12
1.0
 22
0.0
 32
0.0
 13
1.0
 23
0.0
 33
0.0
 40
0.0
 40
0.0
 40
0.0
 40
0.0
 40
0.0016643193296813
 40
0.0648792890554526
 40
0.127882629835479
 40
0.1913652263153964
 40
0.2543782098387403
 40
0.3163193264594876
 40
0.3777469775702122
 40
0.4397082275190884
 40
0.5014189034197821
 40
0.562536076452263
 40
0.6237133677268287
 40
0.6863020174790898
 40
0.7490598999921412
 40
0.811592469235191
 40
0.8743360189604256
 40
0.9379727054607176
 40
1.0
 40
1.0
 40
1.0
 40
1.0
 10
165.9700251250676
 20
91.25272615085503
 30
0.0
 10
165.969547734242
 20
91.25265774002006
 30
0.0
 10
165.950937857634
 20
91.24999091625787
 30
0.0
 10
166.0140783944431
 20
91.25970547909596
 30
0.0
 10
166.1661211515257
 20
91.28191018530393
 30
0.0
 10
166.4340466667906
 20
91.31634593683734
 30
0.0
 10
166.7833604439774
 20
91.35480894750657
 30
0.0
 10
167.2104115059014
 20
91.38903700045395
 30
0.0
 10
167.6978511343164
 20
91.41148956029407
 30
0.0
 10
168.2295014992577
 20
91.41508354802508
 30
0.0
 10
168.7806221017587
 20
91.39806991877187
 30
0.0
 10
169.3280800925454
 20
91.3581241533287
 30
0.0
 10
169.852714322301
 20
91.29901654067204
 30
0.0
 10
170.3345027207009
 20
91.2266521032509
 30
0.0
 10
170.7594513127105
 20
91.15033143177276
 30
0.0
 10
171.1056676261714
 20
91.07834748578168
 30
0.0
 10
171.3607459383026
 20
91.01996045961798
 30
0.0
 10
171.52094133044
 20
90.98030080331145
 30
0.0
 10
171.5415753928367
 20
90.97547612784771
 30
0.0
 10
171.5517602927199
 20
90.97309468518158
 30
0.0
  0
SPLINE
  5
AA
330
1F
100
AcDbEntity
  8
0
  6
Continuous
 62
     7
370
    15
100
AcDbSpline
210
0.0
220
0.0
230
1.0
 70
     8
 71
     3
 72
    24
 73
    20
 74
     0
 42
0.00000001
 43
0.00000001
 12
1.0
 22
0.0
 32
0.0
 13
1.0
 23
0.0
 33
0.0
 40
0.0
 40
0.0
 40
0.0
 40
0.0
 40
0.0629034706215385
 40
0.1256338688179741
 40
0.1890239793713884
 40
0.2513957684939822
 40
0.3139906836130308
 40
0.3762905044722344
 40
0.4374458894592898
 40
0.498543195540241
 40
0.5603281747675228
 40
0.6223344559749604
 40
0.6838864964282686
 40
0.7458035579052691
 40
0.8089499376965126
 40
0.8723245876864573
 40
0.9353799443000518
 40
0.9988635323362688
 40
1.0
 40
1.0
 40
1.0
 40
1.0
 10
171.5507614492587
 20
121.0562918541874
 30
0.0
 10
171.5412908229837
 20
121.0538690649188
 30
0.0
 10
171.5223756278874
 20
121.0490301524369
 30
0.0
 10
171.3603243314832
 20
121.0090585612595
 30
0.0
 10
171.1037990907375
 20
120.9507145656872
 30
0.0
 10
170.7577429544442
 20
120.8784794676989
 30
0.0
 10
170.3338435615509
 20
120.8023302161867
 30
0.0
 10
169.852860600713
 20
120.7302109146742
 30
0.0
 10
169.3288770437329
 20
120.6713234013664
 30
0.0
 10
168.7812791585258
 20
120.6314118787622
 30
0.0
 10
168.2298028424698
 20
120.614376131147
 30
0.0
 10
167.6973615626884
 20
120.6179396022387
 30
0.0
 10
167.2093793510024
 20
120.6403728672057
 30
0.0
 10
166.78186719737
 20
120.6746628820826
 30
0.0
 10
166.4329656425976
 20
120.7131666768693
 30
0.0
 10
166.1657110221069
 20
120.747622704824
 30
0.0
 10
166.012776717586
 20
120.7697054921621
 30
0.0
 10
165.9516670664225
 20
120.7795342039128
 30
0.0
 10
165.9692502301106
 20
120.7767704615167
 30
0.0
 10
165.9695594637803
 20
120.7767218558039
 30
0.0
  0
SPLINE
  5
AB
330
1F
100
AcDbEntity
  8
0
  6
Continuous
 62
     7
370
    15
100
AcDbSpline
210
0.0
220
0.0
230
1.0
 70
     8
 71
     3
 72
    26
 73
    22
 74
     0
 42
0.00000001
 43
0.00000001
 12
1.0
 22
0.0
 32
0.0
 13
1.0
 23
0.0
 33
0.0
 40
0.0
 40
0.0
 40
0.0
 40
0.0
 40
0.2499999999999991
 40
0.2499999999999991
 40
0.374999999999999
 40
0.374999999999999
 40
0.437499999999999
 40
0.437499999999999
 40
0.4687499999999998
 40
0.4687499999999998
 40
0.5000000000000006
 40
0.5000000000000006
 40
0.5312500000000013
 40
0.5312500000000013
 40
0.5625000000000021
 40
0.5625000000000021
 40
0.625000000000002
 40
0.625000000000002
 40
0.7500000000000014
 40
0.7500000000000014
 40
1.0
 40
1.0
 40
1.0
 40
1.0
 10
155.6454522845426
 20
118.4027733836361
 30
0.0
 10
155.5980641751141
 20
118.267117641613
 30
0.0
 10
155.5404228732097
 20
118.1231562432838
 30
0.0
 10
155.4183750606664
 20
117.8803836700294
 30
0.0
 10
155.3723260528899
 20
117.79534402958
 30
0.0
 10
155.2816727687243
 20
117.6549680565397
 30
0.0
 10
155.2473202684387
 20
117.6050566792009
 30
0.0
 10
155.1848850960482
 20
117.5285214143466
 30
0.0
 10
155.1615910772501
 20
117.5021169353597
 30
0.0
 10
155.1125385401236
 20
117.4545221700987
 30
0.0
 10
155.0881070904668
 20
117.4350795562469
 30
0.0
 10
155.047477494847
 20
117.4101717785788
 30
0.0
 10
155.0313152129958
 20
117.4041019472678
 30
0.0
 10
155.0043331688927
 20
117.398413075674
 30
0.0
 10
154.9935836460699
 20
117.3988035837548
 30
0.0
 10
154.9655476719127
 20
117.4049459305432
 30
0.0
 10
154.9526864398801
 20
117.4156099369612
 30
0.0
 10
154.9216835787198
 20
117.4546227273214
 30
0.0
 10
154.9108240966506
 20
117.4906747177257
 30
0.0
 10
154.8875468407126
 20
117.6083541152248
 30
0.0
 10
154.8854822381547
 20
117.6996840155578
 30
0.0
 10
154.8854822381547
 20
117.792924268464
 30
0.0
  0
SPLINE
  5
AC
330
1F
100
AcDbEntity
  8
0
  6
Continuous
 62
     7
370
    15
100
AcDbSpline
210
0.0
220
0.0
230
1.0
 70
     8
 71
     3
 72
    24
 73
    20
 74
     0
 42
0.00000001
 43
0.00000001
 12
1.0
 22
0.0
 32
0.0
 13
1.0
 23
0.0
 33
0.0
 40
0.0
 40
0.0
 40
0.0
 40
0.0
 40
0.2499999999999995
 40
0.2499999999999995
 40
0.3749999999999988
 40
0.3749999999999988
 40
0.4374999999999979
 40
0.4374999999999979
 40
0.4999999999999971
 40
0.4999999999999971
 40
0.531249999999997
 40
0.531249999999997
 40
0.562499999999997
 40
0.562499999999997
 40
0.6249999999999966
 40
0.6249999999999966
 40
0.7499999999999978
 40
0.7499999999999978
 40
1.0
 40
1.0
 40
1.0
 40
1.0
 10
154.8854822381547
 20
94.46717960280185
 30
0.0
 10
154.8854822381547
 20
94.55208855647143
 30
0.0
 10
154.8882068665871
 20
94.63441825251832
 30
0.0
 10
154.9145641877051
 20
94.73683063993731
 30
0.0
 10
154.9267779059773
 20
94.7676477363217
 30
0.0
 10
154.9613885561097
 20
94.79674525239865
 30
0.0
 10
154.9757752664771
 20
94.80370289303725
 30
0.0
 10
155.0170237495795
 20
94.8025931517604
 30
0.0
 10
155.0455632995103
 20
94.79429974615164
 30
0.0
 10
155.1064859650216
 20
94.7497163122904
 30
0.0
 10
155.1295519351615
 20
94.72925459903311
 30
0.0
 10
155.1734478151677
 20
94.68464198075277
 30
0.0
 10
155.1943278507279
 20
94.6607659025464
 30
0.0
 10
155.251538114021
 20
94.59086880538439
 30
0.0
 10
155.2838847377974
 20
94.5452912165999
 30
0.0
 10
155.3700506812892
 20
94.41640772898104
 30
0.0
 10
155.4157147013292
 20
94.33657455184897
 30
0.0
 10
155.5362622647804
 20
94.11079374273666
 30
0.0
 10
155.5953223534816
 20
93.97596235776534
 30
0.0
 10
155.6454522845426
 20
93.84770721909781
 30
0.0
  0
LINE
  5
AD
330
1F
100
AcDbEntity
  8
0
  6
Continuous
 62
     7
370
    15
100
AcDbLine
 10
154.8854825153
 20
94.4671794979
 30
0.0
 11
154.8854825153
 21
117.7929245142
 31
0.0
  0
SPLINE
  5
AE
330
1F
100
AcDbEntity
  8
0
  6
Continuous
 62
     7
370
    15
100
AcDbSpline
210
0.0
220
0.0
230
1.0
 70
     8
 71
     3
 72
    10
 73
     6
 74
     0
 42
0.00000001
 43
0.00000001
 12
1.0
 22
0.0
 32
0.0
 13
1.0
 23
0.0
 33
0.0
 40
0.0
 40
0.0
 40
0.0
 40
0.0
 40
0.5
 40
0.5
 40
1.0
 40
1.0
 40
1.0
 40
1.0
 10
194.7354822381548
 20
124.8855698371661
 30
0.0
 10
194.7354822381548
 20
125.044004280054
 30
0.0
 10
194.6733210216718
 20
125.2030249748559
 30
0.0
 10
194.4528116810002
 20
125.4330327991116
 30
0.0
 10
194.293896578055
 20
125.5018680739283
 30
0.0
 10
194.1354822381547
 20
125.5018680739283
 30
0.0
  0
LINE
  5
AF
330
1F
100
AcDbEntity
  8
0
  6
Continuous
 62
     7
370
    15
100
AcDbLine
 10
194.7354828074
 20
121.3749503924
 30
0.0
 11
194.7354828074
 21
124.885569906
 31
0.0
  0
SPLINE
  5
B0
330
1F
100
AcDbEntity
  8
0
  6
Continuous
 62
     7
370
    15
100
AcDbSpline
210
0.0
220
0.0
230
1.0
 70
     8
 71
     3
 72
    12
 73
     8
 74
     0
 42
0.00000001
 43
0.00000001
 12
1.0
 22
0.0
 32
0.0
 13
1.0
 23
0.0
 33
0.0
 40
0.0
 40
0.0
 40
0.0
 40
0.0
 40
0.2499999999999986
 40
0.2499999999999986
 40
0.4999999999999971
 40
0.4999999999999971
 40
1.0
 40
1.0
 40
1.0
 40
1.0
 10
194.1354822381547
 20
122.1261018051007
 30
0.0
 10
194.2247705971985
 20
122.1261018051007
 30
0.0
 10
194.3128294281007
 20
122.1004771724959
 30
0.0
 10
194.4654831413499
 20
122.0119337995641
 30
0.0
 10
194.5312766346918
 20
121.9490513164495
 30
0.0
 10
194.6867172814079
 20
121.7316901285159
 30
0.0
 10
194.7354822381547
 20
121.5530431185045
 30
0.0
 10
194.7354822381547
 20
121.3749499633289
 30
0.0
  0
SPLINE
  5
B1
330
1F
100
AcDbEntity
  8
0
  6
Continuous
 62
     7
370
    15
100
AcDbSpline
210
0.0
220
0.0
230
1.0
 70
     8
 71
     3
 72
     8
 73
     4
 74
     0
 42
0.00000001
 43
0.00000001
 12
1.0
 22
0.0
 32
0.0
 13
1.0
 23
0.0
 33
0.0
 40
0.0
 40
0.0
 40
0.0
 40
0.0
 40
1.0
 40
1.0
 40
1.0
 40
1.0
 10
188.7503225392613
 20
122.1261018051007
 30
0.0
 10
189.0897455805429
 20
121.3963109435813
 30
0.0
 10
189.422256324038
 20
120.6641425881596
 30
0.0
 10
189.7454822381547
 20
119.9287807034787
 30
0.0
  0
LINE
  5
B2
330
1F
100
AcDbEntity
  8
0
  6
Continuous
 62
     7
370
    15
100
AcDbLine
 10
189.7454825296
 20
119.9287805913
 30
0.0
 11
189.7454825296
 21
119.5305396078
 31
0.0
  0
SPLINE
  5
B3
330
1F
100
AcDbEntity
  8
0
  6
Continuous
 62
     7
370
    15
100
AcDbSpline
210
0.0
220
0.0
230
1.0
 70
     8
 71
     3
 72
    12
 73
     8
 74
     0
 42
0.00000001
 43
0.00000001
 12
1.0
 22
0.0
 32
0.0
 13
1.0
 23
0.0
 33
0.0
 40
0.0
 40
0.0
 40
0.0
 40
0.0
 40
0.4999999999999968
 40
0.4999999999999968
 40
0.7499999999999983
 40
0.7499999999999983
 40
1.0
 40
1.0
 40
1.0
 40
1.0
 10
189.7454822381548
 20
119.530539984278
 30
0.0
 10
189.7454822381548
 20
119.3447739076999
 30
0.0
 10
189.7920279834113
 20
119.1596005957096
 30
0.0
 10
189.9421289318011
 20
118.9251899923661
 30
0.0
 10
190.0060657480951
 20
118.855094094954
 30
0.0
 10
190.1614334798248
 20
118.7524135771499
 30
0.0
 10
190.2526767627427
 20
118.7217036641744
 30
0.0
 10
190.3454822381547
 20
118.7217036641744
 30
0.0
  0
LINE
  5
B4
330
1F
100
AcDbEntity
  8
0
  6
Continuous
 62
     7
370
    15
100
AcDbLine
 10
190.3454824417
 20
118.7217036469
 30
0.0
 11
191.2254826232
 21
118.7217036469
 31
0.0
  0
SPLINE
  5
B5
330
1F
100
AcDbEntity
  8
0
  6
Continuous
 62
     7
370
    15
100
AcDbSpline
210
0.0
220
0.0
230
1.0
 70
     8
 71
     3
 72
    12
 73
     8
 74
     0
 42
0.00000001
 43
0.00000001
 12
1.0
 22
0.0
 32
0.0
 13
1.0
 23
0.0
 33
0.0
 40
0.0
 40
0.0
 40
0.0
 40
0.0
 40
0.250000000000001
 40
0.250000000000001
 40
0.500000000000002
 40
0.500000000000002
 40
1.0
 40
1.0
 40
1.0
 40
1.0
 10
191.2254822381547
 20
118.7217036641745
 30
0.0
 10
191.3180242048766
 20
118.7217036641745
 30
0.0
 10
191.410233582021
 20
118.7527370110907
 30
0.0
 10
191.5653705423978
 20
118.8555478769156
 30
0.0
 10
191.6291804398589
 20
118.9257206912612
 30
0.0
 10
191.77830687566
 20
119.1586331747892
 30
0.0
 10
191.8254822381548
 20
119.3454285368591
 30
0.0
 10
191.8254822381547
 20
119.530539984278
 30
0.0
  0
LINE
  5
B6
330
1F
100
AcDbEntity
  8
0
  6
Continuous
 62
     7
370
    15
100
AcDbLine
 10
191.825481604
 20
119.5305396078
 30
0.0
 11
191.825481604
 21
119.9287805913
 31
0.0
  0
SPLINE
  5
B7
330
1F
100
AcDbEntity
  8
0
  6
Continuous
 62
     7
370
    15
100
AcDbSpline
210
0.0
220
0.0
230
1.0
 70
     8
 71
     3
 72
     8
 73
     4
 74
     0
 42
0.00000001
 43
0.00000001
 12
1.0
 22
0.0
 32
0.0
 13
1.0
 23
0.0
 33
0.0
 40
0.0
 40
0.0
 40
0.0
 40
0.0
 40
1.0
 40
1.0
 40
1.0
 40
1.0
 10
191.8254822381547
 20
119.9287807034786
 30
0.0
 10
192.1490397964097
 20
120.6648971021012
 30
0.0
 10
192.4815341166266
 20
121.3969886975198
 30
0.0
 10
192.8206419370482
 20
122.1261018051007
 30
0.0
  0
LINE
  5
B8
330
1F
100
AcDbEntity
  8
0
  6
Continuous
 62
     7
370
    15
100
AcDbLine
 10
192.8206426158
 20
122.1261020956
 30
0.0
 11
194.135481964
 21
122.1261020956
 31
0.0
  0
LINE
  5
B9
330
1F
100
AcDbEntity
  8
0
  6
Continuous
 62
     7
370
    15
100
AcDbLine
 10
194.7354828074
 20
121.3749503924
 30
0.0
 11
194.7354828074
 21
118.8920956312
 31
0.0
  0
LINE
  5
BA
330
1F
100
AcDbEntity
  8
0
  6
Continuous
 62
     7
370
    15
100
AcDbLine
 10
194.135481964
 20
125.5018688945
 30
0.0
 11
192.8206426158
 21
125.5018688945
 31
0.0
  0
LINE
  5
BB
330
1F
100
AcDbEntity
  8
0
  6
Continuous
 62
     7
370
    15
100
AcDbLine
 10
192.8206426158
 20
122.1261020956
 30
0.0
 11
192.8206426158
 21
125.5018688945
 31
0.0
  0
SPLINE
  5
BC
330
1F
100
AcDbEntity
  8
0
  6
Continuous
 62
     7
370
    15
100
AcDbSpline
210
0.0
220
0.0
230
1.0
 70
     8
 71
     3
 72
     8
 73
     4
 74
     0
 42
0.00000001
 43
0.00000001
 12
1.0
 22
0.0
 32
0.0
 13
1.0
 23
0.0
 33
0.0
 40
0.0
 40
0.0
 40
0.0
 40
0.0
 40
1.0
 40
1.0
 40
1.0
 40
1.0
 10
189.7454822381548
 20
123.7283694995534
 30
0.0
 10
189.4144619071351
 20
124.3199251960111
 30
0.0
 10
189.082680635651
 20
124.9110578602563
 30
0.0
 10
188.7503225392613
 20
125.5018680739283
 30
0.0
  0
LINE
  5
BD
330
1F
100
AcDbEntity
  8
0
  6
Continuous
 62
     7
370
    15
100
AcDbLine
 10
189.7454825296
 20
119.9287805913
 30
0.0
 11
189.7454825296
 21
123.7283699421
 31
0.0
  0
SPLINE
  5
BE
330
1F
100
AcDbEntity
  8
0
  6
Continuous
 62
     7
370
    15
100
AcDbSpline
210
0.0
220
0.0
230
1.0
 70
    24
 71
     3
 72
    12
 73
     8
 74
     0
 42
0.00000001
 43
0.00000001
 12
1.0
 22
0.0
 32
0.0
 13
1.0
 23
0.0
 33
0.0
 40
0.0
 40
0.0
 40
0.0
 40
0.0
 40
0.5
 40
0.5
 40
0.75
 40
0.75
 40
1.0
 40
1.0
 40
1.0
 40
1.0
 10
191.5771378524048
 20
122.9146928040232
 30
0.0
 10
191.5429921041138
 20
122.9146928040232
 30
0.0
 10
191.5037989457088
 20
122.9146928040232
 30
0.0
 10
191.425951287055
 20
122.9146928040232
 30
0.0
 10
191.3965468282697
 20
122.9146928040232
 30
0.0
 10
191.3235393069638
 20
122.9146928040232
 30
0.0
 10
191.276633989156
 20
122.9146928040232
 30
0.0
 10
191.2254822381547
 20
122.9146928040232
 30
0.0
  0
SPLINE
  5
BF
330
1F
100
AcDbEntity
  8
0
  6
Continuous
 62
     7
370
    15
100
AcDbSpline
210
0.0
220
0.0
230
1.0
 70
     8
 71
     3
 72
    10
 73
     6
 74
     0
 42
0.00000001
 43
0.00000001
 12
1.0
 22
0.0
 32
0.0
 13
1.0
 23
0.0
 33
0.0
 40
0.0
 40
0.0
 40
0.0
 40
0.0
 40
0.5
 40
0.5
 40
1.0
 40
1.0
 40
1.0
 40
1.0
 10
191.8254822381548
 20
123.4172967758419
 30
0.0
 10
191.8254822381546
 20
123.3207542283654
 30
0.0
 10
191.8035416155732
 20
123.2242930280953
 30
0.0
 10
191.7174114301812
 20
123.048890433851
 30
0.0
 10
191.6543291230377
 20
122.972474901484
 30
0.0
 10
191.5771378524048
 20
122.9146928040232
 30
0.0
  0
SPLINE
  5
C0
330
1F
100
AcDbEntity
  8
0
  6
Continuous
 62
     7
370
    15
100
AcDbSpline
210
0.0
220
0.0
230
1.0
 70
     8
 71
     3
 72
    10
 73
     6
 74
     0
 42
0.00000001
 43
0.00000001
 12
1.0
 22
0.0
 32
0.0
 13
1.0
 23
0.0
 33
0.0
 40
0.0
 40
0.0
 40
0.0
 40
0.0
 40
0.5
 40
0.5
 40
1.0
 40
1.0
 40
1.0
 40
1.0
 10
189.9938266239047
 20
122.9146928040232
 30
0.0
 10
189.9165018920305
 20
122.9725748048849
 30
0.0
 10
189.853122066494
 20
123.0496481495188
 30
0.0
 10
189.7675516177209
 20
123.2241512077126
 30
0.0
 10
189.7454822381548
 20
123.3209564111931
 30
0.0
 10
189.7454822381548
 20
123.4172967758431
 30
0.0
  0
SPLINE
  5
C1
330
1F
100
AcDbEntity
  8
0
  6
Continuous
 62
     7
370
    15
100
AcDbSpline
210
0.0
220
0.0
230
1.0
 70
    24
 71
     3
 72
    12
 73
     8
 74
     0
 42
0.00000001
 43
0.00000001
 12
1.0
 22
0.0
 32
0.0
 13
1.0
 23
0.0
 33
0.0
 40
0.0
 40
0.0
 40
0.0
 40
0.0
 40
0.25
 40
0.25
 40
0.5
 40
0.5
 40
1.0
 40
1.0
 40
1.0
 40
1.0
 10
190.3454822381547
 20
122.9146928040232
 30
0.0
 10
190.2938900378802
 20
122.9146928040232
 30
0.0
 10
190.2469850290856
 20
122.9146928040232
 30
0.0
 10
190.1736513032091
 20
122.9146928040232
 30
0.0
 10
190.1444214737601
 20
122.9146928040232
 30
0.0
 10
190.0661886936972
 20
122.9146928040232
 30
0.0
 10
190.0277545357895
 20
122.9146928040232
 30
0.0
 10
189.9938266239047
 20
122.9146928040232
 30
0.0
  0
SPLINE
  5
C2
330
1F
100
AcDbEntity
  8
0
  6
Continuous
 62
     7
370
    15
100
AcDbSpline
210
0.0
220
0.0
230
1.0
 70
     8
 71
     3
 72
     8
 73
     4
 74
     0
 42
0.00000001
 43
0.00000001
 12
1.0
 22
0.0
 32
0.0
 13
1.0
 23
0.0
 33
0.0
 40
0.0
 40
0.0
 40
0.0
 40
0.0
 40
1.0
 40
1.0
 40
1.0
 40
1.0
 10
192.8206419370482
 20
125.5018680739283
 30
0.0
 10
192.4882838406585
 20
124.9110578602563
 30
0.0
 10
192.1565025691744
 20
124.3199251960111
 30
0.0
 10
191.8254822381547
 20
123.7283694995535
 30
0.0
  0
LINE
  5
C3
330
1F
100
AcDbEntity
  8
0
  6
Continuous
 62
     7
370
    15
100
AcDbLine
 10
191.825481604
 20
119.9287805913
 30
0.0
 11
191.825481604
 21
123.7283699421
 31
0.0
  0
LINE
  5
C4
330
1F
100
AcDbEntity
  8
0
  6
Continuous
 62
     7
370
    15
100
AcDbLine
 10
191.2254826232
 20
122.9146920351
 30
0.0
 11
190.3454824417
 21
122.9146920351
 31
0.0
  0
SPLINE
  5
C5
330
1F
100
AcDbEntity
  8
0
  6
Continuous
 62
     7
370
    15
100
AcDbSpline
210
0.0
220
0.0
230
1.0
 70
     8
 71
     3
 72
    12
 73
     8
 74
     0
 42
0.00000001
 43
0.00000001
 12
1.0
 22
0.0
 32
0.0
 13
1.0
 23
0.0
 33
0.0
 40
0.0
 40
0.0
 40
0.0
 40
0.0
 40
0.2499999999999988
 40
0.2499999999999988
 40
0.4999999999999976
 40
0.4999999999999976
 40
1.0
 40
1.0
 40
1.0
 40
1.0
 10
209.9840810764649
 20
89.01298462193476
 30
0.0
 10
209.9563149092604
 20
89.12162758527914
 30
0.0
 10
209.9129869257644
 20
89.22335587180054
 30
0.0
 10
209.7951045870352
 20
89.41293744048198
 30
0.0
 10
209.7220680954636
 20
89.497702982863
 30
0.0
 10
209.4659392341514
 20
89.7128120329714
 30
0.0
 10
209.246170551083
 20
89.79992393773142
 30
0.0
 10
209.0181552501766
 20
89.80309744211647
 30
0.0
  0
SPLINE
  5
C6
330
1F
100
AcDbEntity
  8
0
  6
Continuous
 62
     7
370
    15
100
AcDbSpline
210
0.0
220
0.0
230
1.0
 70
     8
 71
     3
 72
    12
 73
     8
 74
     0
 42
0.00000001
 43
0.00000001
 12
1.0
 22
0.0
 32
0.0
 13
1.0
 23
0.0
 33
0.0
 40
0.0
 40
0.0
 40
0.0
 40
0.0
 40
0.2500000000000006
 40
0.2500000000000006
 40
0.5000000000000012
 40
0.5000000000000012
 40
1.0
 40
1.0
 40
1.0
 40
1.0
 10
209.0181552501758
 20
120.1980909271202
 30
0.0
 10
209.1087312822092
 20
120.2015512278893
 30
0.0
 10
209.1967218952245
 20
120.2176303968387
 30
0.0
 10
209.3678547664732
 20
120.2734525004383
 30
0.0
 10
209.4498474191164
 20
120.3132201986324
 30
0.0
 10
209.6747080887975
 20
120.4605716339625
 30
0.0
 10
209.799324361513
 20
120.5986205950899
 30
0.0
 10
209.8841806539602
 20
120.755673080059
 30
0.0
  0
ELLIPSE
  5
C7
330
1F
100
AcDbEntity
  8
0
  6
Continuous
 62
     7
370
    15
100
AcDbEllipse
 10
292.5334912726
 20
106.014692804
 30
0.0
 11
243.1112405827479
 21
2.966081989562952
 31
0.0
210
0.0
220
0.0
230
1.0
 40
0.068854266
 41
1.890266587129683
 42
1.916835812612725
  0
LINE
  5
C8
330
1F
100
AcDbEntity
  8
0
  6
Continuous
 62
     7
370
    15
100
AcDbLine
 10
227.9483811065
 20
104.2567570668
 30
0.0
 11
215.9871892139
 21
120.9754269777
 31
0.0
  0
LINE
  5
C9
330
1F
100
AcDbEntity
  8
0
  6
Continuous
 62
     7
370
    15
100
AcDbLine
 10
228.4278706714
 20
95.2303135974
 30
0.0
 11
227.9483811065
 21
104.2567570668
 31
0.0
  0
LINE
  5
CA
330
1F
100
AcDbEntity
  8
0
  6
Continuous
 62
     7
370
    15
100
AcDbLine
 10
226.5521423026
 20
97.5776627866
 30
0.0
 11
228.4278706714
 21
95.2303135974
 31
0.0
  0
LINE
  5
CB
330
1F
100
AcDbEntity
  8
0
  6
Continuous
 62
     7
370
    15
100
AcDbLine
 10
222.9433306559
 20
107.6845625622
 30
0.0
 11
223.0978854998
 21
104.7750904664
 31
0.0
  0
ARC
  5
CC
330
1F
100
AcDbEntity
  8
0
  6
Continuous
 62
     7
370
    15
100
AcDbCircle
 10
220.8711056356
 20
107.5472100974
 30
0.0
 40
2.076772070886292
100
AcDbArc
 50
3.792166321
 51
120.0525521673
  0
LINE
  5
CD
330
1F
100
AcDbEntity
  8
0
  6
Continuous
 62
     7
370
    15
100
AcDbLine
 10
219.7727696105
 20
88.3387956975
 30
0.0
 11
219.6614802881
 21
90.4337769581
 31
0.0
  0
ARC
  5
CE
330
1F
100
AcDbEntity
  8
0
  6
Continuous
 62
     7
370
    15
100
AcDbCircle
 10
219.0138504529
 20
81.3216175034
 30
0.0
 40
7.058098050851896
100
AcDbArc
 50
83.8273609265
 51
90.6986186533
  0
LINE
  5
CF
330
1F
100
AcDbEntity
  8
0
  6
Continuous
 62
     7
370
    15
100
AcDbLine
 10
210.1737507685
 20
88.2728953121
 30
0.0
 11
218.9277918144
 21
88.3791908828
 31
0.0
  0
SPLINE
  5
D0
330
1F
100
AcDbEntity
  8
0
  6
Continuous
 62
     7
370
    15
100
AcDbSpline
210
0.0
220
0.0
230
1.0
 70
     8
 71
     3
 72
     8
 73
     4
 74
     0
 42
0.00000001
 43
0.00000001
 12
1.0
 22
0.0
 32
0.0
 13
1.0
 23
0.0
 33
0.0
 40
0.0
 40
0.0
 40
0.0
 40
0.0
 40
1.0
 40
1.0
 40
1.0
 40
1.0
 10
209.9840810764649
 20
89.01298462193476
 30
0.0
 10
210.0471411136409
 20
88.76624443424622
 30
0.0
 10
210.1103705207215
 20
88.51954940345124
 30
0.0
 10
210.1737499886152
 20
88.272894381418
 30
0.0
  0
LINE
  5
D1
330
1F
100
AcDbEntity
  8
0
  6
Continuous
 62
     7
370
    15
100
AcDbLine
 10
209.8841802283
 20
123.0146937279
 30
0.0
 11
209.8841802283
 21
120.7556730343
 31
0.0
  0
LINE
  5
D2
330
1F
100
AcDbEntity
  8
0
  6
Continuous
 62
     7
370
    15
100
AcDbLine
 10
209.9840813383
 20
88.7735109983
 30
0.0
 11
209.9840813383
 21
88.773943132
 31
0.0
  0
ELLIPSE
  5
D3
330
1F
100
AcDbEntity
  8
0
  6
Continuous
 62
     7
370
    15
100
AcDbEllipse
 10
226.9385730464
 20
106.014692804
 30
0.0
 11
-11.97651934855725
 21
16.99469753577783
 31
0.0
210
0.0
220
0.0
230
1.0
 40
0.0354498044
 41
4.832978389737902
 42
6.753051525437696
  0
LINE
  5
D4
330
1F
100
AcDbEntity
  8
0
  6
Continuous
 62
     7
370
    15
100
AcDbLine
 10
154.8854825153
 20
94.196220508
 30
0.0
 11
154.8854825153
 21
94.4671794979
 31
0.0
  0
LINE
  5
D5
330
1F
100
AcDbEntity
  8
0
  6
Continuous
 62
     7
370
    15
100
AcDbLine
 10
154.8854825153
 20
117.8886067329
 30
0.0
 11
154.8854825153
 21
117.7929245142
 31
0.0
  0
ELLIPSE
  5
D6
330
1F
100
AcDbEntity
  8
0
  6
Continuous
 62
     7
370
    15
100
AcDbEllipse
 10
227.8592013149
 20
106.014692804
 30
0.0
 11
-1.817948901423392
 21
2.498870285622843
 31
0.0
210
0.0
220
0.0
230
1.0
 40
0.0413369652
 41
6.087764620915532
 42
7.165710230263444
  0
LINE
  5
D7
330
1F
100
AcDbEntity
  8
0
  6
Continuous
 62
     7
370
    15
100
AcDbLine
 10
226.6246550783
 20
107.5439422831
 30
0.0
 11
227.9483811065
 21
104.2567570668
 31
0.0
  0
LINE
  5
D8
330
1F
100
AcDbEntity
  8
0
  6
Continuous
 62
     7
370
    15
100
AcDbLine
 10
155.8354818328
 20
118.8946930898
 30
0.0
 11
155.8354818328
 21
118.8802734224
 31
0.0
  0
LINE
  5
D9
330
1F
100
AcDbEntity
  8
0
  6
Continuous
 62
     7
370
    15
100
AcDbLine
 10
154.8854825153
 20
117.944692841
 30
0.0
 11
154.8854825153
 21
117.8886067329
 31
0.0
  0
LINE
  5
DA
330
1F
100
AcDbEntity
  8
0
  6
Continuous
 62
     7
370
    15
100
AcDbLine
 10
155.8354818328
 20
93.1936927346
 30
0.0
 11
155.8354818328
 21
93.2841576843
 31
0.0
  0
LINE
  5
DB
330
1F
100
AcDbEntity
  8
0
  6
Continuous
 62
     7
370
    15
100
AcDbLine
 10
154.8854825153
 20
94.1436929835
 30
0.0
 11
154.8854825153
 21
94.196220508
 31
0.0
  0
LINE
  5
DC
330
1F
100
AcDbEntity
  8
0
  6
Continuous
 62
     7
370
    15
100
AcDbLine
 10
222.4135943755
 20
108.9476941826
 30
0.0
 11
222.592449288
 21
105.5807268395
 31
0.0
  0
SPLINE
  5
DD
330
1F
100
AcDbEntity
  8
0
  6
Continuous
 62
     7
370
    15
100
AcDbSpline
210
0.0
220
0.0
230
1.0
 70
     8
 71
     3
 72
     8
 73
     4
 74
     0
 42
0.00000001
 43
0.00000001
 12
1.0
 22
0.0
 32
0.0
 13
1.0
 23
0.0
 33
0.0
 40
0.0
 40
0.0
 40
0.0
 40
0.0
 40
1.0
 40
1.0
 40
1.0
 40
1.0
 10
210.1737499886128
 20
88.27289438142282
 30
0.0
 10
210.0911759386738
 20
88.43967430271354
 30
0.0
 10
210.027100139283
 20
88.60668013620663
 30
0.0
 10
209.9840810764649
 20
88.7739431277332
 30
0.0
  0
ARC
  5
DE
330
1F
100
AcDbEntity
  8
0
  6
Continuous
 62
     7
370
    15
100
AcDbCircle
 10
218.492123054
 20
82.7160981831
 30
0.0
 40
6.986112515412091
100
AcDbArc
 50
68.6841427561
 51
79.9938265067
  0
ARC
  5
DF
330
1F
100
AcDbEntity
  8
0
  6
Continuous
 62
     7
370
    15
100
AcDbCircle
 10
210.7935586608
 20
107.386814298
 30
0.0
 40
1.485817562482958
100
AcDbArc
 50
161.9708369598
 51
152.9674022863
  0
LINE
  5
E0
330
1F
100
AcDbEntity
  8
0
  6
Continuous
 62
     7
370
    15
100
AcDbLine
 10
209.4693430766
 20
107.781566444
 30
0.0
 11
209.3806960686
 21
107.8466763694
 31
0.0
  0
ARC
  5
E1
330
1F
100
AcDbEntity
  8
0
  6
Continuous
 62
     7
370
    15
100
AcDbCircle
 10
210.8124939013
 20
107.3443206627
 30
0.0
 40
1.412528941734222
100
AcDbArc
 50
161.9679953873
 51
152.9709973538
  0
LINE
  5
E2
330
1F
100
AcDbEntity
  8
0
  6
Continuous
 62
     7
370
    15
100
AcDbLine
 10
209.5542461678
 20
107.9862323796
 30
0.0
 11
209.4700695082
 21
108.0621144475
 31
0.0
  0
LINE
  5
E3
330
1F
100
AcDbEntity
  8
0
  6
Continuous
 62
     7
370
    15
100
AcDbLine
 10
209.6829623982
 20
107.7161552358
 30
0.0
 11
209.4693430766
 21
107.781566444
 31
0.0
  0
ARC
  5
E4
330
1F
100
AcDbEntity
  8
0
  6
Continuous
 62
     7
370
    15
100
AcDbCircle
 10
210.8140991035
 20
107.3479093388
 30
0.0
 40
1.189569370384894
100
AcDbArc
 50
161.9671419771
 51
152.9706417588
  0
LINE
  5
E5
330
1F
100
AcDbEntity
  8
0
  6
Continuous
 62
     7
370
    15
100
AcDbLine
 10
209.7544618949
 20
107.8885055587
 30
0.0
 11
209.5542461678
 21
107.9862323796
 31
0.0
  0
LINE
  5
E6
330
1F
100
AcDbEntity
  8
0
  6
Continuous
 62
     7
370
    15
100
AcDbLine
 10
209.5790864035
 20
107.9741086552
 30
0.0
 11
209.6829623982
 21
107.7161552358
 31
0.0
  0
ARC
  5
E7
330
1F
100
AcDbEntity
  8
0
  6
Continuous
 62
     7
370
    15
100
AcDbCircle
 10
209.9697721509
 20
109.484278168
 30
0.0
 40
1.220171437122867
100
AcDbArc
 50
274.1289405161
 51
309.73975866
  0
LINE
  5
E8
330
1F
100
AcDbEntity
  8
0
  6
Continuous
 62
     7
370
    15
100
AcDbLine
 10
209.3806960686
 20
107.8466763694
 30
0.0
 11
209.0378948554
 21
108.6979455987
 31
0.0
  0
LINE
  5
E9
330
1F
100
AcDbEntity
  8
0
  6
Continuous
 62
     7
370
    15
100
AcDbLine
 10
209.4700695082
 20
108.0621144475
 30
0.0
 11
209.1251784071
 21
108.9185777793
 31
0.0
  0
ARC
  5
EA
330
1F
100
AcDbEntity
  8
0
  6
Continuous
 62
     7
370
    15
100
AcDbCircle
 10
215.975081941
 20
101.0122949035
 30
0.0
 40
5.87765446778418
100
AcDbArc
 50
220.5394267403
 51
244.9707384393
  0
ARC
  5
EB
330
1F
100
AcDbEntity
  8
0
  6
Continuous
 62
     7
370
    15
100
AcDbCircle
 10
216.085043431
 20
101.0174145886
 30
0.0
 40
5.964931176246075
100
AcDbArc
 50
340.1453625451
 51
219.8902672716
  0
LWPOLYLINE
  5
EC
330
1F
100
AcDbEntity
  8
0
  6
Continuous
 62
     7
370
    15
100
AcDbPolyline
 90
       43
 70
   128
 43
0.0
 10
209.485954146
 20
103.5198062865
 10
209.2351489767
 20
102.6934831144
 10
209.0900973483
 20
101.8440286836
 10
209.0530493363
 20
100.9846535718
 10
209.1245786353
 20
100.1287243536
 10
209.3035788342
 20
99.2895514911
 10
209.5872596904
 20
98.4801870046
 10
209.9712179109
 20
97.71321865
 10
210.4494706794
 20
97.0005734099
 10
211.0145897671
 20
96.3533358855
 10
211.6577834889
 20
95.7815718112
 10
212.369045715
 20
95.2941743864
 10
213.1373160585
 20
94.8987217827
 10
213.9506475135
 20
94.6013653858
 10
214.7963889941
 20
94.4067301435
 10
215.6613902255
 20
94.3178428544
 10
216.5321954592
 20
94.336085601
 10
217.3952595397
 20
94.4611752612
 10
218.2371639713
 20
94.691165371
 10
219.0448143586
 20
95.022480583
 10
219.8056490227
 20
95.449966958
 10
220.5078364416
 20
95.9669757841
 10
221.1404503389
 20
96.5654669536
 10
221.6936596736
 20
97.2361328287
 10
222.1588552996
 20
97.9685425965
 10
222.5288064285
 20
98.7513052506
 10
222.7977537616
 20
99.572247008
 10
222.9615212484
 20
100.4186003676
 10
223.0175570651
 20
101.2772024816
 10
222.9649894937
 20
102.1346998142
 10
222.8046418234
 20
102.9777562918
 10
222.5390025481
 20
103.7932605224
 10
222.1722030147
 20
104.5685292894
 10
221.709950368
 20
105.2915052252
 10
221.1594344183
 20
105.9509443704
 10
220.5292121573
 20
106.5365908408
 10
219.8290885492
 20
107.0393364618
 10
219.0699526175
 20
107.4513621835
 10
218.2636098071
 20
107.7662601575
 10
217.4225994452
 20
107.9791329076
 10
216.5600047513
 20
108.0866696985
 10
215.6892367705
 20
108.0871982241
 10
214.8238443836
 20
107.9807098696
  0
SPLINE
  5
ED
330
1F
100
AcDbEntity
  8
0
  6
Continuous
 62
     7
370
    15
100
AcDbSpline
210
0.0
220
0.0
230
1.0
 70
     8
 71
     3
 72
    14
 73
    10
 74
     0
 42
0.00000001
 43
0.00000001
 12
1.0
 22
0.0
 32
0.0
 13
1.0
 23
0.0
 33
0.0
 40
0.0
 40
0.0
 40
0.0
 40
0.0
 40
0.2406872212041142
 40
0.3654956322584527
 40
0.4913834835352596
 40
0.5985914385768913
 40
0.7015345278875379
 40
0.8683343168131739
 40
1.0
 40
1.0
 40
1.0
 40
1.0
 10
209.4859541460088
 20
103.5198062864985
 30
0.0
 10
209.6897649223952
 20
103.5357466225303
 30
0.0
 10
209.9992618213322
 20
103.5599528232883
 30
0.0
 10
210.3962203175415
 20
103.8054929781162
 30
0.0
 10
210.6409820203451
 20
104.0860178044331
 30
0.0
 10
210.7864676069657
 20
104.4180375100608
 30
0.0
 10
210.8532643739818
 20
104.8053852104704
 30
0.0
 10
210.8215475696318
 20
105.2038106435514
 30
0.0
 10
210.7278722712218
 20
105.4605239496838
 30
0.0
 10
210.6865481539777
 20
105.5737709949646
 30
0.0
  0
ARC
  5
EE
330
1F
100
AcDbEntity
  8
0
  6
Continuous
 62
     7
370
    15
100
AcDbCircle
 10
215.9616583034
 20
101.1346617848
 30
0.0
 40
6.894380151171248
100
AcDbArc
 50
139.6170864588
 51
139.9187273988
  0
SPLINE
  5
EF
330
1F
100
AcDbEntity
  8
0
  6
Continuous
 62
     7
370
    15
100
AcDbSpline
210
0.0
220
0.0
230
1.0
 70
     8
 71
     3
 72
    14
 73
    10
 74
     0
 42
0.00000001
 43
0.00000001
 12
1.0
 22
0.0
 32
0.0
 13
1.0
 23
0.0
 33
0.0
 40
0.0
 40
0.0
 40
0.0
 40
0.0
 40
0.2406881315268463
 40
0.3654962888421003
 40
0.4913831507346855
 40
0.5985916143716719
 40
0.7015343358123611
 40
0.868334069482255
 40
0.9999999999999999
 40
0.9999999999999999
 40
0.9999999999999999
 40
0.9999999999999999
 10
210.7099914058259
 20
105.6014808392539
 30
0.0
 10
210.916846046868
 20
105.5499882067588
 30
0.0
 10
211.2309645833785
 20
105.471794213726
 30
0.0
 10
211.702134834099
 20
105.5726729844984
 30
0.0
 10
212.0330460017672
 20
105.7558277288376
 30
0.0
 10
212.2813107291068
 20
106.0194702060493
 30
0.0
 10
212.4686846851861
 20
106.3605388765659
 30
0.0
 10
212.5619444225116
 20
106.7440788469354
 30
0.0
 10
212.5499997220885
 20
107.0151833444319
 30
0.0
 10
212.5447304054311
 20
107.1347790976908
 30
0.0
  0
ARC
  5
F0
330
1F
100
AcDbEntity
  8
0
  6
Continuous
 62
     7
370
    15
100
AcDbCircle
 10
216.1126199222
 20
101.0025854759
 30
0.0
 40
7.09462008983406
100
AcDbArc
 50
119.8979274761
 51
120.1920960468
  0
SPLINE
  5
F1
330
1F
100
AcDbEntity
  8
0
  6
Continuous
 62
     7
370
    15
100
AcDbSpline
210
0.0
220
0.0
230
1.0
 70
     8
 71
     3
 72
    14
 73
    10
 74
     0
 42
0.00000001
 43
0.00000001
 12
1.0
 22
0.0
 32
0.0
 13
1.0
 23
0.0
 33
0.0
 40
0.0
 40
0.0
 40
0.0
 40
0.0
 40
0.2406873821879177
 40
0.365495790522605
 40
0.4913829770897908
 40
0.598591886189277
 40
0.7015346360052904
 40
0.868333705469712
 40
1.0
 40
1.0
 40
1.0
 40
1.0
 10
212.5762612625173
 20
107.1530164891775
 30
0.0
 10
212.7625991156161
 20
107.0368466516206
 30
0.0
 10
213.0455624363499
 20
106.8604369610634
 30
0.0
 10
213.5360390703521
 20
106.7997103563414
 30
0.0
 10
213.9138111861917
 20
106.861860009779
 30
0.0
 10
214.2345309591453
 20
107.0262590798834
 30
0.0
 10
214.5186743917556
 20
107.2829209709392
 30
0.0
 10
214.7236778709514
 20
107.6102122454653
 30
0.0
 10
214.793182716872
 20
107.8672979680639
 30
0.0
 10
214.8238443835786
 20
107.980709869593
 30
0.0
  0
LINE
  5
F2
330
1F
100
AcDbEntity
  8
0
  6
Continuous
 62
     7
370
    15
100
AcDbLine
 10
212.2559831544
 20
107.9483646873
 30
0.0
 11
212.5762612625
 21
107.1530164892
 31
0.0
  0
SPLINE
  5
F3
330
1F
100
AcDbEntity
  8
0
  6
Continuous
 62
     7
370
    15
100
AcDbSpline
210
0.0
220
0.0
230
1.0
 70
     8
 71
     3
 72
     9
 73
     5
 74
     0
 42
0.00000001
 43
0.00000001
 12
1.0
 22
0.0
 32
0.0
 13
1.0
 23
0.0
 33
0.0
 40
0.0
 40
0.0
 40
0.0
 40
0.0
 40
0.8863148065575608
 40
1.0
 40
1.0
 40
1.0
 40
1.0
 10
214.5035625501684
 20
108.7760581841614
 30
0.0
 10
214.4288196795447
 20
108.6597899854321
 30
0.0
 10
214.3444897438711
 20
108.5286083805791
 30
0.0
 10
214.1479862843575
 20
108.3843344214786
 30
0.0
 10
214.1256467505506
 20
108.3679326085295
 30
0.0
  0
SPLINE
  5
F4
330
1F
100
AcDbEntity
  8
0
  6
Continuous
 62
     7
370
    15
100
AcDbSpline
210
0.0
220
0.0
230
1.0
 70
     8
 71
     3
 72
    10
 73
     6
 74
     0
 42
0.00000001
 43
0.00000001
 12
1.0
 22
0.0
 32
0.0
 13
1.0
 23
0.0
 33
0.0
 40
0.0
 40
0.0
 40
0.0
 40
0.0
 40
0.096210740933123
 40
0.8075984040569387
 40
1.0
 40
1.0
 40
1.0
 40
1.0
 10
212.8710285826734
 20
107.8850834138613
 30
0.0
 10
212.8433067337731
 20
107.881673967741
 30
0.0
 10
212.6106079652964
 20
107.8530548840629
 30
0.0
 10
212.4302414277266
 20
107.8929788793446
 30
0.0
 10
212.2865686767465
 20
107.9386434624176
 30
0.0
 10
212.2559831543974
 20
107.9483646873306
 30
0.0
  0
LINE
  5
F5
330
1F
100
AcDbEntity
  8
0
  6
Continuous
 62
     7
370
    15
100
AcDbLine
 10
214.8238443836
 20
107.9807098696
 30
0.0
 11
214.5035625502
 21
108.7760581842
 31
0.0
  0
LINE
  5
F6
330
1F
100
AcDbEntity
  8
0
  6
Continuous
 62
     7
370
    15
100
AcDbLine
 10
210.5701216563
 20
105.9488256188
 30
0.0
 11
210.7099914058
 21
105.6014808393
 31
0.0
  0
LINE
  5
F7
330
1F
100
AcDbEntity
  8
0
  6
Continuous
 62
     7
370
    15
100
AcDbLine
 10
212.5447304054
 20
107.1347790977
 30
0.0
 11
212.224448572
 21
107.9301271794
 31
0.0
  0
LINE
  5
F8
330
1F
100
AcDbEntity
  8
0
  6
Continuous
 62
     7
370
    15
100
AcDbLine
 10
209.1656723126
 20
104.3151546011
 30
0.0
 11
209.485954146
 21
103.5198062865
 31
0.0
  0
SPLINE
  5
F9
330
1F
100
AcDbEntity
  8
0
  6
Continuous
 62
     7
370
    15
100
AcDbSpline
210
0.0
220
0.0
230
1.0
 70
     8
 71
     3
 72
     9
 73
     5
 74
     0
 42
0.00000001
 43
0.00000001
 12
1.0
 22
0.0
 32
0.0
 13
1.0
 23
0.0
 33
0.0
 40
0.0
 40
0.0
 40
0.0
 40
0.0
 40
0.2711462050191253
 40
1.0
 40
1.0
 40
1.0
 40
1.0
 10
210.42496199451
 20
105.9996365412409
 30
0.0
 10
210.4275124650257
 20
105.9880463616102
 30
0.0
 10
210.4369187206489
 20
105.94530123217
 30
0.0
 10
210.4214504355856
 20
105.8770508037695
 30
0.0
 10
210.4101763173154
 20
105.8273062200207
 30
0.0
  0
SPLINE
  5
FA
330
1F
100
AcDbEntity
  8
0
  6
Continuous
 62
     7
370
    15
100
AcDbSpline
210
0.0
220
0.0
230
1.0
 70
     8
 71
     3
 72
    10
 73
     6
 74
     0
 42
0.00000001
 43
0.00000001
 12
1.0
 22
0.0
 32
0.0
 13
1.0
 23
0.0
 33
0.0
 40
0.0
 40
0.0
 40
0.0
 40
0.0
 40
0.0103468780392097
 40
0.7893188236156249
 40
1.0
 40
1.0
 40
1.0
 40
1.0
 10
209.7121574982217
 20
104.6761282460686
 30
0.0
 10
209.7100603455697
 20
104.6739934266397
 30
0.0
 10
209.5500775896141
 20
104.5111372342874
 30
0.0
 10
209.3707496113177
 20
104.414570969809
 30
0.0
 10
209.2016672238524
 20
104.3326040379007
 30
0.0
 10
209.1656723125986
 20
104.3151546010669
 30
0.0
  0
LINE
  5
FB
330
1F
100
AcDbEntity
  8
0
  6
Continuous
 62
     7
370
    15
100
AcDbLine
 10
210.686548154
 20
105.573770995
 30
0.0
 11
210.5331742271
 21
105.9546390726
 31
0.0
  0
ARC
  5
FC
330
1F
100
AcDbEntity
  8
0
  6
Continuous
 62
     7
370
    15
100
AcDbCircle
 10
215.5412012797
 20
101.9222693316
 30
0.0
 40
6.809792179137481
100
AcDbArc
 50
159.4277110274
 51
201.8598860436
  0
ARC
  5
FD
330
1F
100
AcDbEntity
  8
0
  6
Continuous
 62
     7
370
    15
100
AcDbCircle
 10
215.8129616458
 20
101.9870852511
 30
0.0
 40
6.914092816638465
100
AcDbArc
 50
22.3505455413
 51
100.9166731145
  0
ARC
  5
FE
330
1F
100
AcDbEntity
  8
0
  6
Continuous
 62
     7
370
    15
100
AcDbCircle
 10
215.7321693069
 20
101.9012886579
 30
0.0
 40
6.975026786539613
100
AcDbArc
 50
119.8926169824
 51
120.1918563261
  0
LWPOLYLINE
  5
FF
330
1F
100
AcDbEntity
  8
0
  6
Continuous
 62
     7
370
    15
100
AcDbPolyline
 90
       47
 70
   128
 43
0.0
 10
221.9638736054
 20
101.1787505096
 10
221.8522825345
 20
101.9423684312
 10
221.6362156972
 20
102.6825922282
 10
221.3197001322
 20
103.3856325058
 10
220.9086329742
 20
104.0383930059
 10
220.4106696948
 20
104.6287141481
 10
219.8350862666
 20
105.1455992248
 10
219.1926078006
 20
105.5794197283
 10
218.4951999291
 20
105.9220943981
 10
217.7558527394
 20
106.1672398329
 10
216.9883423551
 20
106.3102894669
 10
216.206962715
 20
106.3485785245
 10
215.4262722536
 20
106.281393758
 10
214.6608145042
 20
106.1099867267
 10
213.9248424276
 20
105.8375503754
 10
213.2320725425
 20
105.4691597211
 10
212.5954055294
 20
105.011677134
 10
212.0267027124
 20
104.4736247251
 10
211.5365588172
 20
103.8650252132
 10
211.1341045304
 20
103.1972159373
 10
210.826835136
 20
102.482636573
 10
210.6204764052
 20
101.7345987467
 10
210.5188691124
 20
100.967036674
 10
210.5239094301
 20
100.1942489503
 10
210.635500501
 20
99.4306310287
 10
210.8515673383
 20
98.6904069988
 10
211.1680829032
 20
97.9873664884
 10
211.5791500612
 20
97.3346062211
 10
212.0771133407
 20
96.7442855446
 10
212.6526967689
 20
96.2274005843
 10
213.2951752349
 20
95.7935793532
 10
213.9925831064
 20
95.4509047998
 10
214.731930296
 20
95.2057592777
 10
215.4994406804
 20
95.0627099929
 10
216.2808203205
 20
95.0244205279
 10
217.0615107819
 20
95.0916052071
 10
217.8269685312
 20
95.263012333
 10
218.5629406079
 20
95.5354493318
 10
219.2557104929
 20
95.9038395641
 10
219.8923775061
 20
96.3613219766
 10
220.4610803231
 20
96.8993749676
 10
220.9512242182
 20
97.507973781
 10
221.353678505
 20
98.1757832898
 10
221.6609478994
 20
98.8903628869
 10
221.8673066302
 20
99.6384007132
 10
221.9689139231
 20
100.4059627859
 10
221.9638736054
 20
101.1787505096
  0
CIRCLE
  5
100
330
1F
100
AcDbEntity
  8
0
  6
Continuous
 62
     7
370
    15
100
AcDbCircle
 10
216.405070516
 20
100.3713974522
 30
0.0
 40
2.472043448376824
  0
SPLINE
  5
101
330
1F
100
AcDbEntity
  8
0
  6
Continuous
 62
     7
370
    15
100
AcDbSpline
210
0.0
220
0.0
230
1.0
 70
     8
 71
     3
 72
    11
 73
     7
 74
     0
 42
0.00000001
 43
0.00000001
 12
1.0
 22
0.0
 32
0.0
 13
1.0
 23
0.0
 33
0.0
 40
0.0
 40
0.0
 40
0.0
 40
0.0
 40
0.120891337257074
 40
0.4766713251009087
 40
0.8143664674838357
 40
1.0
 40
1.0
 40
1.0
 40
1.0
 10
214.4665555163434
 20
99.06890860031505
 30
0.0
 10
214.4571473834559
 20
99.16185790525401
 30
0.0
 10
214.4200513658916
 20
99.52835454064353
 30
0.0
 10
214.3602795040901
 20
100.1942543796674
 30
0.0
 10
214.3162376787433
 20
100.870651003245
 30
0.0
 10
214.3002242102331
 20
101.2132591238113
 30
0.0
 10
214.2945439621023
 20
101.334788019016
 30
0.0
  0
SPLINE
  5
102
330
1F
100
AcDbEntity
  8
0
  6
Continuous
 62
     7
370
    15
100
AcDbSpline
210
0.0
220
0.0
230
1.0
 70
     8
 71
     3
 72
    11
 73
     7
 74
     0
 42
0.00000001
 43
0.00000001
 12
1.0
 22
0.0
 32
0.0
 13
1.0
 23
0.0
 33
0.0
 40
0.0
 40
0.0
 40
0.0
 40
0.0
 40
0.2164537302691146
 40
0.4403061066977855
 40
0.7518965898024523
 40
1.0
 40
1.0
 40
1.0
 40
1.0
 10
216.542119632583
 20
98.10718672554155
 30
0.0
 10
216.3948893451667
 20
98.18561273028995
 30
0.0
 10
216.0953962638525
 20
98.34514543398464
 30
0.0
 10
215.5501224432529
 20
98.61510750790406
 30
0.0
 10
214.9795678136914
 20
98.8690430677363
 30
0.0
 10
214.6241199200545
 20
99.00752275512976
 30
0.0
 10
214.4665555163435
 20
99.06890860031504
 30
0.0
  0
SPLINE
  5
103
330
1F
100
AcDbEntity
  8
0
  6
Continuous
 62
     7
370
    15
100
AcDbSpline
210
0.0
220
0.0
230
1.0
 70
     8
 71
     3
 72
    11
 73
     7
 74
     0
 42
0.00000001
 43
0.00000001
 12
1.0
 22
0.0
 32
0.0
 13
1.0
 23
0.0
 33
0.0
 40
0.0
 40
0.0
 40
0.0
 40
0.0
 40
0.2164530376585476
 40
0.4403062499630163
 40
0.7518965284112445
 40
1.0
 40
1.0
 40
1.0
 40
1.0
 10
218.4456721945814
 20
99.4113438038077
 30
0.0
 10
218.310225225962
 20
99.33455701655723
 30
0.0
 10
218.0347005788293
 20
99.17835822763429
 30
0.0
 10
217.5339057570142
 20
98.86240115886373
 30
0.0
 10
217.0110631226637
 20
98.48782652545584
 30
0.0
 10
216.6861489814755
 20
98.22409484710394
 30
0.0
 10
216.542119632583
 20
98.10718672554155
 30
0.0
  0
SPLINE
  5
104
330
1F
100
AcDbEntity
  8
0
  6
Continuous
 62
     7
370
    15
100
AcDbSpline
210
0.0
220
0.0
230
1.0
 70
     8
 71
     3
 72
    11
 73
     7
 74
     0
 42
0.00000001
 43
0.00000001
 12
1.0
 22
0.0
 32
0.0
 13
1.0
 23
0.0
 33
0.0
 40
0.0
 40
0.0
 40
0.0
 40
0.0
 40
0.1856338603741262
 40
0.5233285455515928
 40
0.8791085375652999
 40
1.0
 40
1.0
 40
1.0
 40
1.0
 10
218.2736643656305
 20
101.6772232225086
 30
0.0
 10
218.2793447754952
 20
101.5556943963222
 30
0.0
 10
218.2953586677165
 20
101.213087160107
 30
0.0
 10
218.3393946626601
 20
100.5366895930784
 30
0.0
 10
218.3991681910412
 20
99.87078937120822
 30
0.0
 10
218.4362640856807
 20
99.50429308995467
 30
0.0
 10
218.4456721945814
 20
99.4113438038077
 30
0.0
  0
SPLINE
  5
105
330
1F
100
AcDbEntity
  8
0
  6
Continuous
 62
     7
370
    15
100
AcDbSpline
210
0.0
220
0.0
230
1.0
 70
     8
 71
     3
 72
    11
 73
     7
 74
     0
 42
0.00000001
 43
0.00000001
 12
1.0
 22
0.0
 32
0.0
 13
1.0
 23
0.0
 33
0.0
 40
0.0
 40
0.0
 40
0.0
 40
0.0
 40
0.2164519637549009
 40
0.4403053596345111
 40
0.7518955503677848
 40
1.0
 40
1.0
 40
1.0
 40
1.0
 10
216.1981002493909
 20
102.6389450972821
 30
0.0
 10
216.3352229017462
 20
102.5856149487823
 30
0.0
 10
216.6141570251052
 20
102.4771310625322
 30
0.0
 10
217.1422959572566
 20
102.24972348873
 30
0.0
 10
217.7231814822963
 20
101.9701326191718
 30
0.0
 10
218.1045910719208
 20
101.7671863402579
 30
0.0
 10
218.2736643656305
 20
101.6772232225086
 30
0.0
  0
SPLINE
  5
106
330
1F
100
AcDbEntity
  8
0
  6
Continuous
 62
     7
370
    15
100
AcDbSpline
210
0.0
220
0.0
230
1.0
 70
     8
 71
     3
 72
    11
 73
     7
 74
     0
 42
0.00000001
 43
0.00000001
 12
1.0
 22
0.0
 32
0.0
 13
1.0
 23
0.0
 33
0.0
 40
0.0
 40
0.0
 40
0.0
 40
0.0
 40
0.2164524312046348
 40
0.440306158558656
 40
0.7518960398239186
 40
0.9999999999999999
 40
0.9999999999999999
 40
0.9999999999999999
 40
0.9999999999999999
 10
214.2945439621023
 20
101.334788019016
 30
0.0
 10
214.4198845062558
 20
101.436671234326
 30
0.0
 10
214.6748514437983
 20
101.6439214227628
 30
0.0
 10
215.1585135040406
 20
102.0024270744519
 30
0.0
 10
215.691685324842
 20
102.3513503887987
 30
0.0
 10
216.04256188568
 20
102.5506143467434
 30
0.0
 10
216.198100249391
 20
102.6389450972821
 30
0.0
  0
LINE
  5
107
330
1F
100
AcDbEntity
  8
0
  6
Continuous
 62
     7
370
    15
100
AcDbLine
 10
218.2496995731
 20
99.8980026899
 30
0.0
 11
218.4456721946
 21
99.4113438038
 31
0.0
  0
LINE
  5
108
330
1F
100
AcDbEntity
  8
0
  6
Continuous
 62
     7
370
    15
100
AcDbLine
 10
218.2496995731
 20
99.8980026899
 30
0.0
 11
218.163693796
 21
101.0309426321
 31
0.0
  0
LINE
  5
109
330
1F
100
AcDbEntity
  8
0
  6
Continuous
 62
     7
370
    15
100
AcDbLine
 10
218.163693796
 20
101.0309426321
 30
0.0
 11
218.1080454095
 21
101.7640141046
 31
0.0
  0
LINE
  5
10A
330
1F
100
AcDbEntity
  8
0
  6
Continuous
 62
     7
370
    15
100
AcDbLine
 10
214.4266129538
 20
99.4832689149
 30
0.0
 11
215.3083630904
 21
99.074706549
 31
0.0
  0
LINE
  5
10B
330
1F
100
AcDbEntity
  8
0
  6
Continuous
 62
     7
370
    15
100
AcDbLine
 10
215.3083630904
 20
99.074706549
 30
0.0
 11
216.3461432859
 21
98.5938456116
 31
0.0
  0
LINE
  5
10C
330
1F
100
AcDbEntity
  8
0
  6
Continuous
 62
     7
370
    15
100
AcDbLine
 10
216.3461432859
 20
98.5938456116
 30
0.0
 11
216.5421196326
 21
98.1071867255
 31
0.0
  0
LINE
  5
10D
330
1F
100
AcDbEntity
  8
0
  6
Continuous
 62
     7
370
    15
100
AcDbLine
 10
216.3461432859
 20
98.5938456116
 30
0.0
 11
217.2979214295
 21
99.2459241507
 31
0.0
  0
LINE
  5
10E
330
1F
100
AcDbEntity
  8
0
  6
Continuous
 62
     7
370
    15
100
AcDbLine
 10
217.2979214295
 20
99.2459241507
 30
0.0
 11
218.2496995731
 21
99.8980026899
 31
0.0
  0
ARC
  5
10F
330
1F
100
AcDbEntity
  8
0
  6
Continuous
 62
     7
370
    15
100
AcDbCircle
 10
216.1344097422
 20
100.9583761004
 30
0.0
 40
5.750561327295511
100
AcDbArc
 50
22.7353043941
 51
201.133252852
  0
ARC
  5
110
330
1F
100
AcDbEntity
  8
0
  6
Continuous
 62
     7
370
    15
100
AcDbCircle
 10
216.1822076528
 20
100.8895376888
 30
0.0
 40
1.986525281463648
100
AcDbArc
 50
304.1693505892
 51
4.0818831156
  0
ARC
  5
111
330
1F
100
AcDbEntity
  8
0
  6
Continuous
 62
     7
370
    15
100
AcDbCircle
 10
216.1523957636
 20
100.9119982721
 30
0.0
 40
2.02188823359307
100
AcDbArc
 50
245.3264428234
 51
304.5108513077
  0
ARC
  5
112
330
1F
100
AcDbEntity
  8
0
  6
Continuous
 62
     7
370
    15
100
AcDbCircle
 10
216.1237922817
 20
100.8429546572
 30
0.0
 40
1.947209834161421
100
AcDbArc
 50
205.6022574299
 51
245.243168649
  0
ARC
  5
113
330
1F
100
AcDbEntity
  8
0
  6
Continuous
 62
     7
370
    15
100
AcDbCircle
 10
216.2374375587
 20
100.8851785167
 30
0.0
 40
1.931763512732216
100
AcDbArc
 50
4.3274522103
 51
32.0914400087
  0
SPLINE
  5
114
330
1F
100
AcDbEntity
  8
0
  6
Continuous
 62
     7
370
    15
100
AcDbSpline
210
0.0
220
0.0
230
1.0
 70
     8
 71
     3
 72
    10
 73
     6
 74
     0
 42
0.00000001
 43
0.00000001
 12
1.0
 22
0.0
 32
0.0
 13
1.0
 23
0.0
 33
0.0
 40
0.0
 40
0.0
 40
0.0
 40
0.0
 40
0.3401611608708575
 40
0.6905227542531025
 40
1.0
 40
1.0
 40
1.0
 40
1.0
 10
215.8866995080522
 20
113.4178141338672
 30
0.0
 10
215.5852207994813
 20
113.7448191875985
 30
0.0
 10
214.9732229227746
 20
114.4086352146225
 30
0.0
 10
213.9129288888321
 20
115.176706240102
 30
0.0
 10
213.1444464557203
 20
115.5418597263382
 30
0.0
 10
212.7840132518819
 20
115.7131238115873
 30
0.0
  0
SPLINE
  5
115
330
1F
100
AcDbEntity
  8
0
  6
Continuous
 62
     7
370
    15
100
AcDbSpline
210
0.0
220
0.0
230
1.0
 70
     8
 71
     3
 72
    14
 73
    10
 74
     0
 42
0.00000001
 43
0.00000001
 12
1.0
 22
0.0
 32
0.0
 13
1.0
 23
0.0
 33
0.0
 40
0.0
 40
0.0
 40
0.0
 40
0.0
 40
0.1271124997168299
 40
0.2544451151366045
 40
0.4212689504125207
 40
0.5883290770553873
 40
0.7932263568573181
 40
0.9982398195991111
 40
1.0
 40
1.0
 40
1.0
 40
1.0
 10
212.7840132518819
 20
115.7131238115873
 30
0.0
 10
212.4034542333989
 20
115.8564289298451
 30
0.0
 10
211.6416771973882
 20
116.1432873221827
 30
0.0
 10
210.387928721716
 20
116.3991645629743
 30
0.0
 10
209.0663078938606
 20
116.4966148629189
 30
0.0
 10
207.6177607031097
 20
116.3833787206488
 30
0.0
 10
206.1968503715432
 20
116.0298742677019
 30
0.0
 10
205.2979520341741
 20
115.6152485165948
 30
0.0
 10
204.879900104987
 20
115.3690885801062
 30
0.0
 10
204.876341397982
 20
115.3669931201186
 30
0.0
  0
SPLINE
  5
116
330
1F
100
AcDbEntity
  8
0
  6
Continuous
 62
     7
370
    15
100
AcDbSpline
210
0.0
220
0.0
230
1.0
 70
     8
 71
     3
 72
    14
 73
    10
 74
     0
 42
0.00000001
 43
0.00000001
 12
1.0
 22
0.0
 32
0.0
 13
1.0
 23
0.0
 33
0.0
 40
0.0
 40
0.0
 40
0.0
 40
0.0
 40
0.1271126612135632
 40
0.2544453022720685
 40
0.4212689120283096
 40
0.5883290886046236
 40
0.7932264772949854
 40
0.9982399102914394
 40
1.0
 40
1.0
 40
1.0
 40
1.0
 10
202.7382613225988
 20
107.2695431040521
 30
0.0
 10
202.6702712389894
 20
107.6755672873776
 30
0.0
 10
202.5341734088416
 20
108.4883183152429
 30
0.0
 10
202.5428543675864
 20
109.8052819010776
 30
0.0
 10
202.7360421983194
 20
111.1759480532342
 30
0.0
 10
203.1822851677971
 20
112.6553068833425
 30
0.0
 10
203.8771543647068
 20
114.0801409264408
 30
0.0
 10
204.5187403648934
 20
114.9603095786919
 30
0.0
 10
204.8733231320496
 20
115.3635605822767
 30
0.0
 10
204.876341397982
 20
115.3669931201186
 30
0.0
  0
SPLINE
  5
117
330
1F
100
AcDbEntity
  8
0
  6
Continuous
 62
     7
370
    15
100
AcDbSpline
210
0.0
220
0.0
230
1.0
 70
     8
 71
     3
 72
    10
 73
     6
 74
     0
 42
0.00000001
 43
0.00000001
 12
1.0
 22
0.0
 32
0.0
 13
1.0
 23
0.0
 33
0.0
 40
0.0
 40
0.0
 40
0.0
 40
0.0
 40
0.3401614734478003
 40
0.6905233838642103
 40
1.0
 40
1.0
 40
1.0
 40
1.0
 10
204.4240241005233
 20
103.7832935081716
 30
0.0
 10
204.1567889206157
 20
104.1390808609239
 30
0.0
 10
203.6143049677829
 20
104.8613245773226
 30
0.0
 10
203.0547461508562
 20
106.0502698657474
 30
0.0
 10
202.8393065342065
 20
106.8802614975675
 30
0.0
 10
202.7382613225988
 20
107.2695431040521
 30
0.0
  0
ARC
  5
118
330
1F
100
AcDbEntity
  8
0
  6
Continuous
 62
     7
370
    15
100
AcDbCircle
 10
209.7232251039
 20
109.7119646191
 30
0.0
 40
7.51528600546417
100
AcDbArc
 50
48.2815174514
 51
201.0080809503
  0
SPLINE
  5
119
330
1F
100
AcDbEntity
  8
0
  6
Continuous
 62
     7
370
    15
100
AcDbSpline
210
0.0
220
0.0
230
1.0
 70
     8
 71
     3
 72
    10
 73
     6
 74
     0
 42
0.00000001
 43
0.00000001
 12
1.0
 22
0.0
 32
0.0
 13
1.0
 23
0.0
 33
0.0
 40
0.0
 40
0.0
 40
0.0
 40
0.0
 40
0.1480671770436771
 40
0.9078070562225902
 40
1.0
 40
1.0
 40
1.0
 40
1.0
 10
214.7244312866739
 20
115.3215510977354
 30
0.0
 10
214.7563279012611
 20
115.2868935260826
 30
0.0
 10
214.9518875949759
 20
115.0744062704591
 30
0.0
 10
215.211648245314
 20
114.7856896123365
 30
0.0
 10
215.4344520824392
 20
114.5107516875459
 30
0.0
 10
215.4585630699209
 20
114.4809989465322
 30
0.0
  0
LWPOLYLINE
  5
11A
330
1F
100
AcDbEntity
  8
0
  6
Continuous
 62
     7
370
    15
100
AcDbPolyline
 90
        9
 70
   128
 43
0.0
 10
215.8866995081
 20
113.4178141339
 10
216.3836644097
 20
112.822929511
 10
216.8819480642
 20
112.2282004191
 10
217.3812561735
 20
111.6339761039
 10
217.8812981649
 20
111.0406067429
 10
218.3817760154
 20
110.4484411163
 10
218.8823991521
 20
109.8578280045
 10
219.3828732773
 20
109.269114325
 10
219.8829003676
 20
108.6826467628
  0
SPLINE
  5
11B
330
1F
100
AcDbEntity
  8
0
  6
Continuous
 62
     7
370
    15
100
AcDbSpline
210
0.0
220
0.0
230
1.0
 70
     8
 71
     3
 72
    15
 73
    11
 74
     0
 42
0.00000001
 43
0.00000001
 12
1.0
 22
0.0
 32
0.0
 13
1.0
 23
0.0
 33
0.0
 40
0.0
 40
0.0
 40
0.0
 40
0.0
 40
0.1220876998881333
 40
0.2441780674880429
 40
0.3704040000164815
 40
0.4966403440862884
 40
0.6208486673647633
 40
0.7450697892247529
 40
0.8725281675452117
 40
1.0
 40
1.0
 40
1.0
 40
1.0
 10
219.8829003675989
 20
108.6826467627581
 30
0.0
 10
220.3607020724026
 20
108.10520123333
 30
0.0
 10
221.3163159223512
 20
106.9502975568372
 30
0.0
 10
222.6199512573834
 20
105.1351406291501
 30
0.0
 10
223.8137985343325
 20
103.2708725600391
 30
0.0
 10
224.8729086049927
 20
101.3781845798227
 30
0.0
 10
225.7853838137947
 20
99.49445501655676
 30
0.0
 10
226.559219292438
 20
97.6182482009738
 30
0.0
 10
227.2085366817701
 20
95.74813683276247
 30
0.0
 10
227.5305115225929
 20
94.52438406610497
 30
0.0
 10
227.691507439237
 20
93.91247539053818
 30
0.0
  0
SPLINE
  5
11C
330
1F
100
AcDbEntity
  8
0
  6
Continuous
 62
     7
370
    15
100
AcDbSpline
210
0.0
220
0.0
230
1.0
 70
     8
 71
     3
 72
    15
 73
    11
 74
     0
 42
0.00000001
 43
0.00000001
 12
1.0
 22
0.0
 32
0.0
 13
1.0
 23
0.0
 33
0.0
 40
0.0
 40
0.0
 40
0.0
 40
0.0
 40
0.1220878223246372
 40
0.244178022931092
 40
0.3704040463575944
 40
0.4966402724188233
 40
0.6208486074994047
 40
0.7450697816779289
 40
0.8725280436679496
 40
1.0
 40
1.0
 40
1.0
 40
1.0
 10
208.4202230974249
 20
99.0481261370625
 30
0.0
 10
208.9172229619942
 20
98.48681561651543
 30
0.0
 10
209.9112323727352
 20
97.36418364104159
 30
0.0
 10
211.5246251708843
 20
95.8093817417502
 30
0.0
 10
213.2189676543838
 20
94.36578686789397
 30
0.0
 10
214.9785707062497
 20
93.06187029524338
 30
0.0
 10
216.7664719051602
 20
91.91395036834271
 30
0.0
 10
218.5824452993222
 20
90.91367023132793
 30
0.0
 10
220.4245359141026
 20
90.04610183649301
 30
0.0
 10
221.6575397620093
 20
89.58807814023747
 30
0.0
 10
222.2740748032144
 20
89.35905399005075
 30
0.0
  0
LWPOLYLINE
  5
11D
330
1F
100
AcDbEntity
  8
0
  6
Continuous
 62
     7
370
    15
100
AcDbPolyline
 90
        9
 70
   128
 43
0.0
 10
204.4240241005
 20
103.7832935082
 10
204.9209871396
 20
103.1884088853
 10
205.419270794
 20
102.5936795605
 10
205.9185807659
 20
101.9994552454
 10
206.4186208948
 20
101.4060858844
 10
206.9191024705
 20
100.8139207235
 10
207.4197256073
 20
100.2233071459
 10
207.9201960071
 20
99.6345934665
 10
208.4202230974
 20
99.0481261371
  0
LINE
  5
11E
330
1F
100
AcDbEntity
  8
0
  6
Continuous
 62
     7
370
    15
100
AcDbLine
 10
210.0519337758
 20
104.9287428588
 30
0.0
 11
210.3293673202
 21
105.4008867915
 31
0.0
  0
LINE
  5
11F
330
1F
100
AcDbEntity
  8
0
  6
Continuous
 62
     7
370
    15
100
AcDbLine
 10
213.3033485218
 20
107.8792185264
 30
0.0
 11
213.8253734513
 21
108.0831497649
 31
0.0
  0
SPLINE
  5
120
330
1F
100
AcDbEntity
  8
0
  6
Continuous
 62
     7
370
    15
100
AcDbSpline
210
0.0
220
0.0
230
1.0
 70
     8
 71
     3
 72
    18
 73
    14
 74
     0
 42
0.00000001
 43
0.00000001
 12
1.0
 22
0.0
 32
0.0
 13
1.0
 23
0.0
 33
0.0
 40
0.0
 40
0.0
 40
0.0
 40
0.0
 40
0.0078150778993489
 40
0.1192158575245343
 40
0.2297739801361249
 40
0.3371349251263683
 40
0.44085561901539
 40
0.54282831820439
 40
0.6459252040908502
 40
0.7522136306677853
 40
0.8619044527577232
 40
0.9733758450600757
 40
1.0
 40
1.0
 40
1.0
 40
1.0
 10
209.0900675459913
 20
107.6687843279835
 30
0.0
 10
209.0837187774065
 20
107.6794374040004
 30
0.0
 10
208.9868708763604
 20
107.8419457767888
 30
0.0
 10
208.9517576183086
 20
108.2249340938848
 30
0.0
 10
209.0186205982031
 20
108.7450066832051
 30
0.0
 10
209.2715185328303
 20
109.2040815348649
 30
0.0
 10
209.6494761515123
 20
109.5387819320855
 30
0.0
 10
210.1110199249041
 20
109.7253446544592
 30
0.0
 10
210.6099869553738
 20
109.7511173946334
 30
0.0
 10
211.1064227526092
 20
109.6125794457386
 30
0.0
 10
211.5301315666719
 20
109.3094030764015
 30
0.0
 10
211.7982407820527
 20
108.9974377971963
 30
0.0
 10
211.8559295544958
 20
108.7852721231206
 30
0.0
 10
211.867051671367
 20
108.7443676052537
 30
0.0
  0
LINE
  5
121
330
1F
100
AcDbEntity
  8
0
  6
Continuous
 62
     7
370
    15
100
AcDbLine
 10
219.4205471381
 20
109.8307975309
 30
0.0
 11
216.4484323069
 21
113.291445302
 31
0.0
  0
ARC
  5
122
330
1F
100
AcDbEntity
  8
0
  6
Continuous
 62
     7
370
    15
100
AcDbCircle
 10
253.8612519777
 20
145.430591717
 30
0.0
 40
49.32183905743262
100
AcDbArc
 50
218.8661239986
 51
220.6639306093
  0
ARC
  5
123
330
1F
100
AcDbEntity
  8
0
  6
Continuous
 62
     7
370
    15
100
AcDbCircle
 10
190.0822645244
 20
84.6263489919
 30
0.0
 40
38.67814696789626
100
AcDbArc
 50
23.8841546219
 51
40.6657965694
  0
SPLINE
  5
124
330
1F
100
AcDbEntity
  8
0
  6
Continuous
 62
     7
370
    15
100
AcDbSpline
210
0.0
220
0.0
230
1.0
 70
     8
 71
     3
 72
     9
 73
     5
 74
     0
 42
0.00000001
 43
0.00000001
 12
1.0
 22
0.0
 32
0.0
 13
1.0
 23
0.0
 33
0.0
 40
0.0
 40
0.0
 40
0.0
 40
0.0
 40
0.6629968109075451
 40
1.0
 40
1.0
 40
1.0
 40
1.0
 10
225.9348877771905
 20
99.13312375749608
 30
0.0
 10
225.8374386960908
 20
99.37330523924538
 30
0.0
 10
225.6904559663152
 20
99.73557166013589
 30
0.0
 10
225.5092968536299
 20
100.1477794748753
 30
0.0
 10
225.4482456549219
 20
100.2866948230114
 30
0.0
  0
SPLINE
  5
125
330
1F
100
AcDbEntity
  8
0
  6
Continuous
 62
     7
370
    15
100
AcDbSpline
210
0.0
220
0.0
230
1.0
 70
     8
 71
     3
 72
    13
 73
     9
 74
     0
 42
0.00000001
 43
0.00000001
 12
1.0
 22
0.0
 32
0.0
 13
1.0
 23
0.0
 33
0.0
 40
0.0
 40
0.0
 40
0.0
 40
0.0
 40
0.1991380195235227
 40
0.4036867379986066
 40
0.6029696980969818
 40
0.8091873114738849
 40
0.9985444076447485
 40
1.0
 40
1.0
 40
1.0
 40
1.0
 10
227.691507439237
 20
93.91247539053818
 30
0.0
 10
227.7341345616566
 20
93.73232453966139
 30
0.0
 10
227.8205470108765
 20
93.36712803167096
 30
0.0
 10
227.9094443488073
 20
92.92252046183422
 30
0.0
 10
227.9696772536411
 20
92.56589384596103
 30
0.0
 10
227.9915092928189
 20
92.35771662209935
 30
0.0
 10
227.9942729589214
 20
92.2643768038219
 30
0.0
 10
227.9826825883691
 20
92.28162684346933
 30
0.0
 10
227.9825941725782
 20
92.28175843338629
 30
0.0
  0
SPLINE
  5
126
330
1F
100
AcDbEntity
  8
0
  6
Continuous
 62
     7
370
    15
100
AcDbSpline
210
0.0
220
0.0
230
1.0
 70
     8
 71
     3
 72
    13
 73
     9
 74
     0
 42
0.00000001
 43
0.00000001
 12
1.0
 22
0.0
 32
0.0
 13
1.0
 23
0.0
 33
0.0
 40
0.0
 40
0.0
 40
0.0
 40
0.0
 40
0.1991381780798894
 40
0.4036866021769435
 40
0.6029695823234985
 40
0.8091871310008875
 40
0.9985444464586349
 40
1.0
 40
1.0
 40
1.0
 40
1.0
 10
222.2740748032144
 20
89.35905399005075
 30
0.0
 10
222.4579538783825
 20
89.29762592847021
 30
0.0
 10
222.8307077108309
 20
89.17310090922544
 30
0.0
 10
223.3047909787292
 20
89.05225784186476
 30
0.0
 10
223.7038066384338
 20
88.98036329356167
 30
0.0
 10
223.9668959374694
 20
88.97503142617632
 30
0.0
 10
224.101961509872
 20
88.9927475625593
 30
0.0
 10
224.1076712870147
 20
89.02463174314231
 30
0.0
 10
224.1077148421815
 20
89.02487496118208
 30
0.0
  0
LINE
  5
127
330
1F
100
AcDbEntity
  8
0
  6
Continuous
 62
     7
370
    15
100
AcDbLine
 10
228.9067194863
 20
94.6052890478
 30
0.0
 11
226.5677698954
 21
97.5323278664
 31
0.0
  0
ARC
  5
128
330
1F
100
AcDbEntity
  8
0
  6
Continuous
 62
     7
370
    15
100
AcDbCircle
 10
228.6048839664
 20
94.3640156975
 30
0.0
 40
0.3864162401457142
100
AcDbArc
 50
3.0242698118
 51
38.637222934
  0
LINE
  5
129
330
1F
100
AcDbEntity
  8
0
  6
Continuous
 62
     7
370
    15
100
AcDbLine
 10
229.7849343225
 20
79.4341001866
 30
0.0
 11
228.9907620355
 21
94.3844026161
 31
0.0
  0
ARC
  5
12A
330
1F
100
AcDbEntity
  8
0
  6
Continuous
 62
     7
370
    15
100
AcDbCircle
 10
229.3834226044
 20
79.4163818895
 30
0.0
 40
0.4019024729889368
100
AcDbArc
 50
219.2115686928
 51
2.5267642022
  0
LINE
  5
12B
330
1F
100
AcDbEntity
  8
0
  6
Continuous
 62
     7
370
    15
100
AcDbLine
 10
220.3061902031
 20
90.1321429966
 30
0.0
 11
229.0720217928
 21
79.1623048691
 31
0.0
  0
ARC
  5
12C
330
1F
100
AcDbEntity
  8
0
  6
Continuous
 62
     7
370
    15
100
AcDbCircle
 10
229.3835732508
 20
79.4159970902
 30
0.0
 40
0.3818093693772537
100
AcDbArc
 50
219.2119492543
 51
2.5265296479
  0
LINE
  5
12D
330
1F
100
AcDbEntity
  8
0
  6
Continuous
 62
     7
370
    15
100
AcDbLine
 10
229.7650114699
 20
79.432828
 30
0.0
 11
228.970839183
 21
94.3831294982
 31
0.0
  0
ARC
  5
12E
330
1F
100
AcDbEntity
  8
0
  6
Continuous
 62
     7
370
    15
100
AcDbCircle
 10
228.6042284793
 20
94.363751574
 30
0.0
 40
0.367122475462984
100
AcDbArc
 50
3.0256645768
 51
38.6358704276
  0
LINE
  5
12F
330
1F
100
AcDbEntity
  8
0
  6
Continuous
 62
     7
370
    15
100
AcDbLine
 10
228.8909987613
 20
94.5929713754
 30
0.0
 11
226.5871637567
 21
97.4760657383
 31
0.0
  0
LINE
  5
130
330
1F
100
AcDbEntity
  8
0
  6
Continuous
 62
     7
370
    15
100
AcDbLine
 10
220.3470193847
 20
90.1130415706
 30
0.0
 11
229.0877425178
 21
79.1746206788
 31
0.0
  0
LINE
  5
131
330
1F
100
AcDbEntity
  8
0
  6
Continuous
 62
     7
370
    15
100
AcDbLine
 10
228.5746806367
 20
95.4298410771
 30
0.0
 11
228.406062822
 21
95.6408517642
 31
0.0
  0
LINE
  5
132
330
1F
100
AcDbEntity
  8
0
  6
Continuous
 62
     7
370
    15
100
AcDbLine
 10
228.2353886469
 20
94.3053566126
 30
0.0
 11
228.5769791409
 21
94.3969521878
 31
0.0
  0
LINE
  5
133
330
1F
100
AcDbEntity
  8
0
  6
Continuous
 62
     7
370
    15
100
AcDbLine
 10
227.3387857779
 20
87.4724067954
 30
0.0
 11
227.1217764422
 21
91.5576122908
 31
0.0
  0
ARC
  5
134
330
1F
100
AcDbEntity
  8
0
  6
Continuous
 62
     7
370
    15
100
AcDbCircle
 10
226.3350022064
 20
87.4281149965
 30
0.0
 40
1.004760280780276
100
AcDbArc
 50
219.2117368135
 51
2.5265287718
  0
LINE
  5
135
330
1F
100
AcDbEntity
  8
0
  6
Continuous
 62
     7
370
    15
100
AcDbLine
 10
223.8032915696
 20
88.9869366048
 30
0.0
 11
225.5564988657
 21
86.7929175703
 31
0.0
  0
LINE
  5
136
330
1F
100
AcDbEntity
  8
0
  6
Continuous
 62
     7
370
    15
100
AcDbLine
 10
228.1623170777
 20
82.6179325787
 30
0.0
 11
229.3711514278
 21
79.4466506896
 31
0.0
  0
LINE
  5
137
330
1F
100
AcDbEntity
  8
0
  6
Continuous
 62
     7
370
    15
100
AcDbLine
 10
226.5076623364
 20
84.6886184273
 30
0.0
 11
228.1623170777
 21
82.6179325787
 31
0.0
  0
LINE
  5
138
330
1F
100
AcDbEntity
  8
0
  6
Continuous
 62
     7
370
    15
100
AcDbLine
 10
228.1623170777
 20
82.6179325787
 30
0.0
 11
228.0216575666
 21
85.2658242194
 31
0.0
  0
ARC
  5
139
330
1F
100
AcDbEntity
  8
0
  6
Continuous
 62
     7
370
    15
100
AcDbCircle
 10
228.2726800844
 20
95.1884753683
 30
0.0
 40
0.3866028181405415
100
AcDbArc
 50
21.9388161406
 51
38.6326432428
  0
SPLINE
  5
13A
330
1F
100
AcDbEntity
  8
0
  6
Continuous
 62
     7
370
    15
100
AcDbSpline
210
0.0
220
0.0
230
1.0
 70
     8
 71
     3
 72
    11
 73
     7
 74
     0
 42
0.00000001
 43
0.00000001
 12
1.0
 22
0.0
 32
0.0
 13
1.0
 23
0.0
 33
0.0
 40
0.0
 40
0.0
 40
0.0
 40
0.0
 40
0.3243048666198906
 40
0.648454231778144
 40
0.9886732732720881
 40
0.9999999999999999
 40
0.9999999999999999
 40
0.9999999999999999
 40
0.9999999999999999
 10
228.2353886469415
 20
94.30535661260744
 30
0.0
 10
228.1650413415436
 20
94.28477104755224
 30
0.0
 10
228.0243804616902
 20
94.24360978804752
 30
0.0
 10
227.794822195029
 20
94.1551001036905
 30
0.0
 10
227.6515588779665
 20
94.08947650058137
 30
0.0
 10
227.5854368205514
 20
94.0558166333055
 30
0.0
 10
227.5833063825181
 20
94.05473211984297
 30
0.0
  0
ARC
  5
13B
330
1F
100
AcDbEntity
  8
0
  6
Continuous
 62
     7
370
    15
100
AcDbCircle
 10
226.2554621626
 20
87.6251570992
 30
0.0
 40
2.427551476893278
100
AcDbArc
 50
281.0162598849
 51
300.7221746432
  0
SPLINE
  5
13C
330
1F
100
AcDbEntity
  8
0
  6
Continuous
 62
     7
370
    15
100
AcDbSpline
210
0.0
220
0.0
230
1.0
 70
     8
 71
     3
 72
    14
 73
    10
 74
     0
 42
0.00000001
 43
0.00000001
 12
1.0
 22
0.0
 32
0.0
 13
1.0
 23
0.0
 33
0.0
 40
0.0
 40
0.0
 40
0.0
 40
0.0
 40
0.2210590199343312
 40
0.3460796498557278
 40
0.4396037176291077
 40
0.5338902575458135
 40
0.6146584759813934
 40
0.7517265156151554
 40
1.0
 40
1.0
 40
1.0
 40
1.0
 10
226.7193370564989
 20
85.2423381267037
 30
0.0
 10
226.6617116911663
 20
85.22920613319131
 30
0.0
 10
226.5714961176826
 20
85.20864729909339
 30
0.0
 10
226.4670382757244
 20
85.15273497868928
 30
0.0
 10
226.4069283842903
 20
85.09333605858471
 30
0.0
 10
226.3782065249942
 20
85.02623930823027
 30
0.0
 10
226.3750186277106
 20
84.94335625898718
 30
0.0
 10
226.4095073950504
 20
84.82385400922638
 30
0.0
 10
226.4692016481966
 20
84.74160866380076
 30
0.0
 10
226.50766233645
 20
84.68861842732092
 30
0.0
  0
SPLINE
  5
13D
330
1F
100
AcDbEntity
  8
0
  6
Continuous
 62
     7
370
    15
100
AcDbSpline
210
0.0
220
0.0
230
1.0
 70
     8
 71
     3
 72
    14
 73
    10
 74
     0
 42
0.00000001
 43
0.00000001
 12
1.0
 22
0.0
 32
0.0
 13
1.0
 23
0.0
 33
0.0
 40
0.0
 40
0.0
 40
0.0
 40
0.0
 40
0.2234967715992942
 40
0.3567606168115838
 40
0.4531209173966567
 40
0.534462642300197
 40
0.6157323456462344
 40
0.7396183967629004
 40
1.0
 40
1.0
 40
1.0
 40
1.0
 10
228.0216575666479
 20
85.26582421939034
 30
0.0
 10
228.0159728060194
 20
85.32440248731399
 30
0.0
 10
228.006898407791
 20
85.41790906840083
 30
0.0
 10
227.9608680189251
 20
85.52892005479272
 30
0.0
 10
227.9082247611738
 20
85.59285642707084
 30
0.0
 10
227.8479859793474
 20
85.62782491961083
 30
0.0
 10
227.7720093235038
 20
85.64130447510799
 30
0.0
 10
227.6472987694241
 20
85.62170257589715
 30
0.0
 10
227.5568962834497
 20
85.57198805949373
 30
0.0
 10
227.4956391259244
 20
85.5383012650456
 30
0.0
  0
LINE
  5
13E
330
1F
100
AcDbEntity
  8
0
  6
Continuous
 62
     7
370
    15
100
AcDbLine
 10
228.6521368726
 20
95.3329071609
 30
0.0
 11
228.406062822
 21
95.6408517642
 31
0.0
  0
LINE
  5
13F
330
1F
100
AcDbEntity
  8
0
  6
Continuous
 62
     7
370
    15
100
AcDbLine
 10
228.6553033694
 20
95.2732755078
 30
0.0
 11
228.6521368726
 21
95.3329071609
 31
0.0
  0
LINE
  5
140
330
1F
100
AcDbEntity
  8
0
  6
Continuous
 62
     7
370
    15
100
AcDbLine
 10
228.4512394174
 20
95.831796175
 30
0.0
 11
228.3919812246
 21
95.9059527351
 31
0.0
  0
LINE
  5
141
330
1F
100
AcDbEntity
  8
0
  6
Continuous
 62
     7
370
    15
100
AcDbLine
 10
228.4512394174
 20
95.831796175
 30
0.0
 11
228.6521368726
 21
95.3329071609
 31
0.0
  0
LINE
  5
142
330
1F
100
AcDbEntity
  8
0
  6
HIDDEN
 62
     7
370
     0
100
AcDbLine
 10
182.7354827031
 20
86.0146932511
 30
0.0
 11
182.7354827031
 21
86.0397085754
 31
0.0
  0
SPLINE
  5
143
330
1F
100
AcDbEntity
  8
0
  6
HIDDEN
 62
     7
370
     0
100
AcDbSpline
210
0.0
220
0.0
230
1.0
 70
     8
 71
     3
 72
    22
 73
    18
 74
     0
 42
0.00000001
 43
0.00000001
 12
1.0
 22
0.0
 32
0.0
 13
1.0
 23
0.0
 33
0.0
 40
0.0
 40
0.0
 40
0.0
 40
0.0
 40
0.125
 40
0.125
 40
0.25
 40
0.25
 40
0.375
 40
0.375
 40
0.5
 40
0.5
 40
0.625
 40
0.625
 40
0.75
 40
0.75
 40
0.875
 40
0.875
 40
1.0
 40
1.0
 40
1.0
 40
1.0
 10
182.7354822381548
 20
86.03970844858505
 30
0.0
 10
182.7354822381548
 20
86.05466404119439
 30
0.0
 10
182.7649306592849
 20
86.07605223784074
 30
0.0
 10
182.8797685255088
 20
86.13043048445606
 30
0.0
 10
182.9665813640465
 20
86.16387664806443
 30
0.0
 10
183.1922287363425
 20
86.23864092346217
 30
0.0
 10
183.3300658780066
 20
86.2797394124231
 30
0.0
 10
183.655266837911
 20
86.36629234138688
 30
0.0
 10
183.843969117819
 20
86.41194324048476
 30
0.0
 10
184.2563008380513
 20
86.50022279564962
 30
0.0
 10
184.4814477644032
 20
86.54332414565687
 30
0.0
 10
184.9714236157605
 20
86.62352832551213
 30
0.0
 10
185.2321312578823
 20
86.6598231729017
 30
0.0
 10
185.772988638598
 20
86.7200023920514
 30
0.0
 10
186.056679264652
 20
86.7442897294825
 30
0.0
 10
186.6407616355815
 20
86.77728782379387
 30
0.0
 10
186.9363291905734
 20
86.78580828099382
 30
0.0
 10
187.2354822381548
 20
86.78580828099382
 30
0.0
  0
LINE
  5
144
330
1F
100
AcDbEntity
  8
0
  6
HIDDEN
 62
     7
370
     0
100
AcDbLine
 10
187.2354825094
 20
86.7858078537
 30
0.0
 11
188.7503224491
 21
86.7858078537
 31
0.0
  0
LINE
  5
145
330
1F
100
AcDbEntity
  8
0
  6
HIDDEN
 62
     7
370
     0
100
AcDbLine
 10
188.7503224491
 20
125.5018688945
 30
0.0
 11
188.7503224491
 21
86.7858078537
 31
0.0
  0
LINE
  5
146
330
1F
100
AcDbEntity
  8
0
  6
HIDDEN
 62
     7
370
     0
100
AcDbLine
 10
187.2354825094
 20
125.5018688945
 30
0.0
 11
188.7503224491
 21
125.5018688945
 31
0.0
  0
SPLINE
  5
147
330
1F
100
AcDbEntity
  8
0
  6
HIDDEN
 62
     7
370
     0
100
AcDbSpline
210
0.0
220
0.0
230
1.0
 70
     8
 71
     3
 72
    17
 73
    13
 74
     0
 42
0.00000001
 43
0.00000001
 12
1.0
 22
0.0
 32
0.0
 13
1.0
 23
0.0
 33
0.0
 40
0.0
 40
0.0
 40
0.0
 40
0.0
 40
0.0659340435969183
 40
0.1690661462905225
 40
0.2751488405985667
 40
0.379123145219446
 40
0.485986792297652
 40
0.5922065347858924
 40
0.7014821075588975
 40
0.8079660909051144
 40
0.9176704333646215
 40
1.0
 40
1.0
 40
1.0
 40
1.0
 10
182.751009713035
 20
126.011205485269
 30
0.0
 10
182.7495731678012
 20
126.0115248544937
 30
0.0
 10
182.7458896205259
 20
126.0123437717192
 30
0.0
 10
182.8797668413076
 20
125.9824167156934
 30
0.0
 10
183.1294849193848
 20
125.928989236192
 30
0.0
 10
183.4988784153031
 20
125.8554619493042
 30
0.0
 10
183.9684637270202
 20
125.7716093576277
 30
0.0
 10
184.5375112220831
 20
125.6846699014493
 30
0.0
 10
185.1831492500129
 20
125.6056449113509
 30
0.0
 10
185.8959621020445
 20
125.5435918162655
 30
0.0
 10
186.5873055321635
 20
125.5076092008856
 30
0.0
 10
187.0409809289497
 20
125.503591415824
 30
0.0
 10
187.2354825093559
 20
125.5018688945021
 30
0.0
  0
SPLINE
  5
148
330
1F
100
AcDbEntity
  8
0
  6
HIDDEN
 62
     7
370
     0
100
AcDbSpline
210
0.0
220
0.0
230
1.0
 70
     8
 71
     3
 72
    76
 73
    72
 74
     0
 42
0.00000001
 43
0.00000001
 12
1.0
 22
0.0
 32
0.0
 13
1.0
 23
0.0
 33
0.0
 40
-0.03125
 40
-0.03125
 40
0.0
 40
0.0
 40
0.0312500000000001
 40
0.0312500000000001
 40
0.0625000000000001
 40
0.0625000000000001
 40
0.0937500000000002
 40
0.0937500000000002
 40
0.1250000000000002
 40
0.1250000000000002
 40
0.1562500000000003
 40
0.1562500000000003
 40
0.1875000000000004
 40
0.1875000000000004
 40
0.2031250000000004
 40
0.2031250000000004
 40
0.2187500000000003
 40
0.2187500000000003
 40
0.2500000000000003
 40
0.2500000000000003
 40
0.2812500000000002
 40
0.2812500000000002
 40
0.3125000000000002
 40
0.3125000000000002
 40
0.3437500000000001
 40
0.3437500000000001
 40
0.3750000000000001
 40
0.3750000000000001
 40
0.4062500000000001
 40
0.4062500000000001
 40
0.4375
 40
0.4375
 40
0.4687499999999999
 40
0.4687499999999999
 40
0.4843749999999999
 40
0.4843749999999999
 40
0.4999999999999999
 40
0.4999999999999999
 40
0.5312499999999999
 40
0.5312499999999999
 40
0.5624999999999998
 40
0.5624999999999998
 40
0.5937499999999998
 40
0.5937499999999998
 40
0.6249999999999997
 40
0.6249999999999997
 40
0.6562499999999997
 40
0.6562499999999997
 40
0.6874999999999996
 40
0.6874999999999996
 40
0.7187499999999996
 40
0.7187499999999996
 40
0.7343749999999996
 40
0.7343749999999996
 40
0.7499999999999996
 40
0.7499999999999996
 40
0.7812499999999997
 40
0.7812499999999997
 40
0.8124999999999998
 40
0.8124999999999998
 40
0.8437499999999998
 40
0.8437499999999998
 40
0.8749999999999999
 40
0.8749999999999999
 40
0.9062499999999999
 40
0.9062499999999999
 40
0.9375
 40
0.9375
 40
0.96875
 40
0.96875
 40
1.0
 40
1.0
 40
1.03125
 40
1.03125
 10
176.7854822381547
 20
106.346427448069
 30
0.0
 10
176.7854822381547
 20
105.6829581599775
 30
0.0
 10
176.8181671738728
 20
105.3570236974647
 30
0.0
 10
176.9459914158835
 20
104.7162028415219
 30
0.0
 10
177.0427696891392
 20
104.3979173994796
 30
0.0
 10
177.2942223631236
 20
103.7930110612295
 30
0.0
 10
177.4479025438185
 20
103.5063277445057
 30
0.0
 10
177.8107350671326
 20
102.9638113243558
 30
0.0
 10
178.0209980242896
 20
102.7080182357617
 30
0.0
 10
178.4803017047119
 20
102.2488967742072
 30
0.0
 10
178.7311425640876
 20
102.0424207165782
 30
0.0
 10
179.2771739565534
 20
101.6769138855299
 30
0.0
 10
179.5660450692528
 20
101.5224776809114
 30
0.0
 10
180.0167945254023
 20
101.3351395892907
 30
0.0
 10
180.1702808410752
 20
101.2799275689299
 30
0.0
 10
180.4839097446399
 20
101.1842904989661
 30
0.0
 10
180.6450139287729
 20
101.1437120339776
 30
0.0
 10
181.1295107967751
 20
101.0469782414171
 30
0.0
 10
181.4547918663909
 20
101.0149005191786
 30
0.0
 10
182.1098612393172
 20
101.014487080538
 30
0.0
 10
182.4426825719513
 20
101.0472655068156
 30
0.0
 10
183.084991168677
 20
101.1754239779216
 30
0.0
 10
183.3973126501233
 20
101.2702277722667
 30
0.0
 10
184.0042919646765
 20
101.5219398493194
 30
0.0
 10
184.2948519831788
 20
101.6777999744279
 30
0.0
 10
184.8350415173856
 20
102.0390464244902
 30
0.0
 10
185.0890462673331
 20
102.2472359385071
 30
0.0
 10
185.5522702792096
 20
102.7103661884825
 30
0.0
 10
185.7582369600766
 20
102.9613364056517
 30
0.0
 10
186.1202908667723
 20
103.5016867297585
 30
0.0
 10
186.2774367932332
 20
103.7945332676986
 30
0.0
 10
186.5281725071537
 20
104.3980131499281
 30
0.0
 10
186.6233423980648
 20
104.7097340338985
 30
0.0
 10
186.7201728807361
 20
105.1926342041278
 30
0.0
 10
186.7447981279264
 20
105.357148271954
 30
0.0
 10
186.7773408321135
 20
105.6852589197363
 30
0.0
 10
186.7854125999915
 20
105.8490480786593
 30
0.0
 10
186.7856201718244
 20
106.339635625625
 30
0.0
 10
186.7539848530353
 20
106.66566134376
 30
0.0
 10
186.6246444588008
 20
107.3155722281335
 30
0.0
 10
186.5291446051077
 20
107.6283772390133
 30
0.0
 10
186.2794044471922
 20
108.2307643927799
 30
0.0
 10
186.1229439507653
 20
108.5232877933753
 30
0.0
 10
185.7598404467895
 20
109.0661022748124
 30
0.0
 10
185.55391439656
 20
109.3169951670936
 30
0.0
 10
185.093199712806
 20
109.7783727768064
 30
0.0
 10
184.8374162342178
 20
109.9885164855049
 30
0.0
 10
184.2974430647605
 20
110.3500853552725
 30
0.0
 10
184.010862352154
 20
110.5042538852736
 30
0.0
 10
183.4027236674313
 20
110.7573719533536
 30
0.0
 10
183.0879836326932
 20
110.853080116974
 30
0.0
 10
182.6080088253597
 20
110.9492723637796
 30
0.0
 10
182.4462841768464
 20
110.9735575791455
 30
0.0
 10
182.1192858614708
 20
111.0062430843658
 30
0.0
 10
181.9530340605393
 20
111.0146054368373
 30
0.0
 10
181.4582619180287
 20
111.0148654668347
 30
0.0
 10
181.132822277475
 20
110.982714014024
 30
0.0
 10
180.4905342096904
 20
110.8551792848295
 30
0.0
 10
180.1713676497453
 20
110.758239854294
 30
0.0
 10
179.5681916063746
 20
110.5080464265271
 30
0.0
 10
179.2810590951462
 20
110.3546678321049
 30
0.0
 10
178.7357148045486
 20
109.9904238216507
 30
0.0
 10
178.4819313611407
 20
109.7818984710651
 30
0.0
 10
178.0227385223629
 20
109.3233249479888
 30
0.0
 10
177.8138785949307
 20
109.0698365184829
 30
0.0
 10
177.4488664724168
 20
108.5249322976227
 30
0.0
 10
177.2952394436635
 20
108.2381996953326
 30
0.0
 10
177.044548929796
 20
107.6363631203562
 30
0.0
 10
176.9471030191425
 20
107.3177903465371
 30
0.0
 10
176.8181763095436
 20
106.6733645613197
 30
0.0
 10
176.7854822381547
 20
106.346427448069
 30
0.0
 10
176.7854822381547
 20
105.6829581599775
 30
0.0
  0
LINE
  5
149
330
1F
100
AcDbEntity
  8
0
  6
HIDDEN
 62
     7
370
     0
100
AcDbLine
 10
174.7854822382
 20
125.7146928666
 30
0.0
 11
174.7854822382
 21
86.3146927414
 31
0.0
  0
SPLINE
  5
14A
330
1F
100
AcDbEntity
  8
0
  6
HIDDEN
 62
     7
370
     0
100
AcDbSpline
210
0.0
220
0.0
230
1.0
 70
     8
 71
     3
 72
    10
 73
     6
 74
     0
 42
0.00000001
 43
0.00000001
 12
1.0
 22
0.0
 32
0.0
 13
1.0
 23
0.0
 33
0.0
 40
0.0
 40
0.0
 40
0.0
 40
0.0
 40
0.5
 40
0.5
 40
1.0
 40
1.0
 40
1.0
 40
1.0
 10
189.7807046387361
 20
89.11469280402324
 30
0.0
 10
189.768992521773
 20
89.08034946682925
 30
0.0
 10
189.7601944519009
 20
89.04525692909102
 30
0.0
 10
189.7483808941288
 20
88.9735851537003
 30
0.0
 10
189.7454822381548
 20
88.93764149933503
 30
0.0
 10
189.7454822381548
 20
88.90181388199493
 30
0.0
  0
LINE
  5
14B
330
1F
100
AcDbEntity
  8
0
  6
HIDDEN
 62
     7
370
     0
100
AcDbLine
 10
189.7454825296
 20
88.9018137215
 30
0.0
 11
189.7454825296
 21
117.8646931631
 31
0.0
  0
SPLINE
  5
14C
330
1F
100
AcDbEntity
  8
0
  6
HIDDEN
 62
     7
370
     0
100
AcDbSpline
210
0.0
220
0.0
230
1.0
 70
     8
 71
     3
 72
    10
 73
     6
 74
     0
 42
0.00000001
 43
0.00000001
 12
1.0
 22
0.0
 32
0.0
 13
1.0
 23
0.0
 33
0.0
 40
0.0
 40
0.0
 40
0.0
 40
0.0
 40
0.5
 40
0.5
 40
1.0
 40
1.0
 40
1.0
 40
1.0
 10
191.8254822381547
 20
88.90181388199493
 30
0.0
 10
191.8254822381547
 20
88.93803637143556
 30
0.0
 10
191.8225125088574
 20
88.97422956869403
 30
0.0
 10
191.8106335265095
 20
89.04586806010867
 30
0.0
 10
191.8018382986689
 20
89.08074138475027
 30
0.0
 10
191.7902598375736
 20
89.11469280402257
 30
0.0
  0
LINE
  5
14D
330
1F
100
AcDbEntity
  8
0
  6
HIDDEN
 62
     7
370
     0
100
AcDbLine
 10
191.825481604
 20
88.9018137215
 30
0.0
 11
191.825481604
 21
117.8646931631
 31
0.0
  0
SPLINE
  5
14E
330
1F
100
AcDbEntity
  8
0
  6
HIDDEN
 62
     7
370
     0
100
AcDbSpline
210
0.0
220
0.0
230
1.0
 70
     8
 71
     3
 72
     9
 73
     5
 74
     0
 42
0.00000001
 43
0.00000001
 12
1.0
 22
0.0
 32
0.0
 13
1.0
 23
0.0
 33
0.0
 40
0.0
 40
0.0
 40
0.0
 40
0.0
 40
0.5
 40
1.0
 40
1.0
 40
1.0
 40
1.0
 10
194.735544361278
 20
122.9146928040232
 30
0.0
 10
194.7355236485747
 20
122.9166156723571
 30
0.0
 10
194.7354925872563
 20
122.920460961346
 30
0.0
 10
194.7354822381548
 20
122.9243053556665
 30
0.0
 10
194.7354822381547
 20
122.926227329311
 30
0.0
  0
SPLINE
  5
14F
330
1F
100
AcDbEntity
  8
0
  6
HIDDEN
 62
     7
370
     0
100
AcDbSpline
210
0.0
220
0.0
230
1.0
 70
    24
 71
     3
 72
    10
 73
     6
 74
     0
 42
0.00000001
 43
0.00000001
 12
1.0
 22
0.0
 32
0.0
 13
1.0
 23
0.0
 33
0.0
 40
0.0
 40
0.0
 40
0.0
 40
0.0
 40
0.5
 40
0.5
 40
1.0
 40
1.0
 40
1.0
 40
1.0
 10
194.7355443612781
 20
122.9146928040232
 30
0.0
 10
194.7376976810509
 20
122.9146928040232
 30
0.0
 10
194.7929145041361
 20
122.9146928040232
 30
0.0
 10
194.8928594998122
 20
122.9146928040232
 30
0.0
 10
194.9354813288811
 20
122.9146928040232
 30
0.0
 10
194.9354822381382
 20
122.9146928040232
 30
0.0
  0
SPLINE
  5
150
330
1F
100
AcDbEntity
  8
0
  6
HIDDEN
 62
     7
370
     0
100
AcDbSpline
210
0.0
220
0.0
230
1.0
 70
     8
 71
     3
 72
     9
 73
     5
 74
     0
 42
0.00000001
 43
0.00000001
 12
1.0
 22
0.0
 32
0.0
 13
1.0
 23
0.0
 33
0.0
 40
0.0
 40
0.0
 40
0.0
 40
0.0
 40
0.5
 40
1.0
 40
1.0
 40
1.0
 40
1.0
 10
194.7354822381547
 20
122.926227329311
 30
0.0
 10
194.7354822381547
 20
122.9243042048279
 30
0.0
 10
194.7354925996524
 20
122.920458659983
 30
0.0
 10
194.7355236609683
 20
122.9166145218055
 30
0.0
 10
194.7355443612781
 20
122.9146928040232
 30
0.0
  0
LINE
  5
151
330
1F
100
AcDbEntity
  8
0
  6
HIDDEN
 62
     7
370
     0
100
AcDbLine
 10
194.7354828074
 20
122.9262273965
 30
0.0
 11
194.7354828074
 21
89.1146935729
 31
0.0
  0
SPLINE
  5
152
330
1F
100
AcDbEntity
  8
0
  6
HIDDEN
 62
     7
370
     0
100
AcDbSpline
210
0.0
220
0.0
230
1.0
 70
    24
 71
     3
 72
    10
 73
     6
 74
     0
 42
0.00000001
 43
0.00000001
 12
1.0
 22
0.0
 32
0.0
 13
1.0
 23
0.0
 33
0.0
 40
0.0
 40
0.0
 40
0.0
 40
0.0
 40
0.5
 40
0.5
 40
1.0
 40
1.0
 40
1.0
 40
1.0
 10
194.7354822381547
 20
89.11469280402324
 30
0.0
 10
194.7354822381547
 20
89.11469280402324
 30
0.0
 10
194.7909294569113
 20
89.11469280402324
 30
0.0
 10
194.8919719594282
 20
89.11469280402324
 30
0.0
 10
194.9354813298944
 20
89.11469280402324
 30
0.0
 10
194.9354822381385
 20
89.11469280402324
 30
0.0
  0
LINE
  5
153
330
1F
100
AcDbEntity
  8
0
  6
HIDDEN
 62
     7
370
     0
100
AcDbLine
 10
194.8481523498
 20
89.1146935729
 30
0.0
 11
194.7354828074
 21
89.1146935729
 31
0.0
  0
LINE
  5
154
330
1F
100
AcDbEntity
  8
0
  6
HIDDEN
 62
     7
370
     0
100
AcDbLine
 10
194.7354828074
 20
118.8920956312
 30
0.0
 11
194.7354828074
 21
122.9262273965
 31
0.0
  0
LINE
  5
155
330
1F
100
AcDbEntity
  8
0
  6
HIDDEN
 62
     7
370
     0
100
AcDbLine
 10
194.7354828074
 20
89.1146935729
 30
0.0
 11
194.7354828074
 21
117.8646931631
 31
0.0
  0
LINE
  5
156
330
1F
100
AcDbEntity
  8
0
  6
HIDDEN
 62
     7
370
     0
100
AcDbLine
 10
182.7354827031
 20
117.8646931631
 30
0.0
 11
187.2291523098
 21
117.8646931631
 31
0.0
  0
LINE
  5
157
330
1F
100
AcDbEntity
  8
0
  6
HIDDEN
 62
     7
370
     0
100
AcDbLine
 10
174.7854822382
 20
89.8074913977
 30
0.0
 11
174.7854822382
 21
122.2218942104
 31
0.0
  0
SPLINE
  5
158
330
1F
100
AcDbEntity
  8
0
  6
HIDDEN
 62
     7
370
     0
100
AcDbSpline
210
0.0
220
0.0
230
1.0
 70
     8
 71
     3
 72
     8
 73
     4
 74
     0
 42
0.00000001
 43
0.00000001
 12
1.0
 22
0.0
 32
0.0
 13
1.0
 23
0.0
 33
0.0
 40
0.000003532078448
 40
0.000003532078448
 40
0.000003532078448
 40
0.000003532078448
 40
0.0000638548434643
 40
0.0000638548434643
 40
0.0000638548434643
 40
0.0000638548434643
 10
155.8269660885857
 20
93.31151510447965
 30
0.0
 10
155.8295152597078
 20
93.30235390114092
 30
0.0
 10
155.8323571824896
 20
93.2932328978322
 30
0.0
 10
155.8354822381548
 20
93.28415725306384
 30
0.0
  0
SPLINE
  5
159
330
1F
100
AcDbEntity
  8
0
  6
HIDDEN
 62
     7
370
     0
100
AcDbSpline
210
0.0
220
0.0
230
1.0
 70
     8
 71
     3
 72
     8
 73
     4
 74
     0
 42
0.00000001
 43
0.00000001
 12
1.0
 22
0.0
 32
0.0
 13
1.0
 23
0.0
 33
0.0
 40
0.0000002108190109
 40
0.0000002108190109
 40
0.0000002108190109
 40
0.0000002108190109
 40
0.0001710235456397
 40
0.0001710235456397
 40
0.0001710235456397
 40
0.0001710235456397
 10
155.8354822381548
 20
93.28415725306385
 30
0.0
 10
155.8894704242446
 20
93.2897873956674
 30
0.0
 10
155.9430600843204
 20
93.29608278912893
 30
0.0
 10
155.9956908034391
 20
93.30351254157209
 30
0.0
  0
SPLINE
  5
15A
330
1F
100
AcDbEntity
  8
0
  6
HIDDEN
 62
     7
370
     0
100
AcDbSpline
210
0.0
220
0.0
230
1.0
 70
     8
 71
     3
 72
    10
 73
     6
 74
     0
 42
0.00000001
 43
0.00000001
 12
1.0
 22
0.0
 32
0.0
 13
1.0
 23
0.0
 33
0.0
 40
0.0
 40
0.0
 40
0.0
 40
0.0
 40
0.5
 40
0.5
 40
1.0
 40
1.0
 40
1.0
 40
1.0
 10
155.9956908034391
 20
93.3035125415721
 30
0.0
 10
156.6539488143414
 20
93.39643724688909
 30
0.0
 10
157.3312911228785
 20
93.47237236401166
 30
0.0
 10
158.7006371365594
 20
93.61119044954931
 30
0.0
 10
159.3919572174318
 20
93.67313710583578
 30
0.0
 10
160.0854822381548
 20
93.73081950547034
 30
0.0
  0
SPLINE
  5
15B
330
1F
100
AcDbEntity
  8
0
  6
HIDDEN
 62
     7
370
     0
100
AcDbSpline
210
0.0
220
0.0
230
1.0
 70
     8
 71
     3
 72
    16
 73
    12
 74
     0
 42
0.00000001
 43
0.00000001
 12
1.0
 22
0.0
 32
0.0
 13
1.0
 23
0.0
 33
0.0
 40
0.0
 40
0.0
 40
0.0
 40
0.0
 40
0.0625000000000006
 40
0.0625000000000006
 40
0.1250000000000011
 40
0.1250000000000011
 40
0.250000000000001
 40
0.250000000000001
 40
0.5000000000000008
 40
0.5000000000000008
 40
1.0
 40
1.0
 40
1.0
 40
1.0
 10
160.0854822381548
 20
93.73081950547032
 30
0.0
 10
160.116798037482
 20
93.7334241273624
 30
0.0
 10
160.1495123759076
 20
93.73165522690245
 30
0.0
 10
160.2108189293845
 20
93.72012033245248
 30
0.0
 10
160.2393298196025
 20
93.71059335510627
 30
0.0
 10
160.3152237929588
 20
93.67707975498135
 30
0.0
 10
160.3545633779918
 20
93.64869224066149
 30
0.0
 10
160.4559991589732
 20
93.56067129045357
 30
0.0
 10
160.5008245185792
 20
93.49903863824645
 30
0.0
 10
160.6151068735444
 20
93.31565044457125
 30
0.0
 10
160.6599207813872
 20
93.1950324501064
 30
0.0
 10
160.6942470356695
 20
93.08068945681528
 30
0.0
  0
SPLINE
  5
15C
330
1F
100
AcDbEntity
  8
0
  6
HIDDEN
 62
     7
370
     0
100
AcDbSpline
210
0.0
220
0.0
230
1.0
 70
     8
 71
     3
 72
    10
 73
     6
 74
     0
 42
0.00000001
 43
0.00000001
 12
1.0
 22
0.0
 32
0.0
 13
1.0
 23
0.0
 33
0.0
 40
0.0
 40
0.0
 40
0.0
 40
0.0
 40
0.5
 40
0.5
 40
1.0
 40
1.0
 40
1.0
 40
1.0
 10
160.6942470356695
 20
93.08068945681529
 30
0.0
 10
160.7321214386142
 20
92.95452734876264
 30
0.0
 10
160.81291248594
 20
92.83656830778074
 30
0.0
 10
160.9380424285314
 20
92.61352232519177
 30
0.0
 10
160.9854822381547
 20
92.5087272516964
 30
0.0
 10
160.9854822381547
 20
92.41111661829899
 30
0.0
  0
LINE
  5
15D
330
1F
100
AcDbEntity
  8
0
  6
HIDDEN
 62
     7
370
     0
100
AcDbLine
 10
160.9854823976
 20
92.411116345
 30
0.0
 11
160.9854823976
 21
91.5021743832
 31
0.0
  0
LINE
  5
15E
330
1F
100
AcDbEntity
  8
0
  6
HIDDEN
 62
     7
370
     0
100
AcDbLine
 10
158.4854819878
 20
120.4019604457
 30
0.0
 11
158.4854819878
 21
119.5722172243
 31
0.0
  0
SPLINE
  5
15F
330
1F
100
AcDbEntity
  8
0
  6
HIDDEN
 62
     7
370
     0
100
AcDbSpline
210
0.0
220
0.0
230
1.0
 70
     8
 71
     3
 72
    20
 73
    16
 74
     0
 42
0.00000001
 43
0.00000001
 12
1.0
 22
0.0
 32
0.0
 13
1.0
 23
0.0
 33
0.0
 40
0.0
 40
0.0
 40
0.0
 40
0.0
 40
0.2500000000000003
 40
0.2500000000000003
 40
0.5000000000000007
 40
0.5000000000000007
 40
0.750000000000001
 40
0.750000000000001
 40
0.8750000000000011
 40
0.8750000000000011
 40
0.9375000000000008
 40
0.9375000000000008
 40
0.9687500000000004
 40
0.9687500000000004
 40
1.0
 40
1.0
 40
1.0
 40
1.0
 10
158.4854822381557
 20
119.5722169257711
 30
0.0
 10
158.4854822381557
 20
119.5116075260737
 30
0.0
 10
158.4600872185788
 20
119.4457815606702
 30
0.0
 10
158.3737940327968
 20
119.3117337913235
 30
0.0
 10
158.3131580541136
 20
119.2430384331818
 30
0.0
 10
158.1650562598923
 20
119.1026398815273
 30
0.0
 10
158.0782866531137
 20
119.0309363769459
 30
0.0
 10
157.9296488577845
 20
118.9247729751971
 30
0.0
 10
157.8773596408983
 20
118.8892446265656
 30
0.0
 10
157.7865958125884
 20
118.8395406960501
 30
0.0
 10
157.7542298201364
 20
118.823279698035
 30
0.0
 10
157.6965406644702
 20
118.804167129689
 30
0.0
 10
157.6755536365827
 20
118.7987759876075
 30
0.0
 10
157.6302646575922
 20
118.7930386192149
 30
0.0
 10
157.6072503887537
 20
118.7930613528684
 30
0.0
 10
157.5854822381541
 20
118.7954866626812
 30
0.0
  0
SPLINE
  5
160
330
1F
100
AcDbEntity
  8
0
  6
HIDDEN
 62
     7
370
     0
100
AcDbSpline
210
0.0
220
0.0
230
1.0
 70
     8
 71
     3
 72
    12
 73
     8
 74
     0
 42
0.00000001
 43
0.00000001
 12
1.0
 22
0.0
 32
0.0
 13
1.0
 23
0.0
 33
0.0
 40
0.0
 40
0.0
 40
0.0
 40
0.0
 40
0.2500000000000015
 40
0.2500000000000015
 40
0.500000000000003
 40
0.500000000000003
 40
1.0
 40
1.0
 40
1.0
 40
1.0
 10
157.5854822381548
 20
118.7954866626824
 30
0.0
 10
157.4434398349655
 20
118.8113123908586
 30
0.0
 10
157.2993217284614
 20
118.8223335246339
 30
0.0
 10
157.0095672147889
 20
118.8408698865011
 30
0.0
 10
156.8638253114301
 20
118.8481405922369
 30
0.0
 10
156.4251450722503
 20
118.8666014425649
 30
0.0
 10
156.1307694561791
 20
118.8744803093884
 30
0.0
 10
155.8354822381548
 20
118.8802733510016
 30
0.0
  0
SPLINE
  5
161
330
1F
100
AcDbEntity
  8
0
  6
HIDDEN
 62
     7
370
     0
100
AcDbSpline
210
0.0
220
0.0
230
1.0
 70
     8
 71
     3
 72
     8
 73
     4
 74
     0
 42
0.00000001
 43
0.00000001
 12
1.0
 22
0.0
 32
0.0
 13
1.0
 23
0.0
 33
0.0
 40
0.0
 40
0.0
 40
0.0
 40
0.0
 40
1.0
 40
1.0
 40
1.0
 40
1.0
 10
155.8354822381548
 20
118.8802733510016
 30
0.0
 10
155.7897173304655
 20
118.8187529718427
 30
0.0
 10
155.7553302088354
 20
118.7548581120933
 30
0.0
 10
155.7363149551625
 20
118.6881281670496
 30
0.0
  0
ELLIPSE
  5
162
330
1F
100
AcDbEntity
  8
0
  6
HIDDEN
 62
     7
370
     0
100
AcDbEllipse
 10
142.2793615996
 20
106.6538032553
 30
0.0
 11
13.36963611134303
 21
13.36754752639482
 31
0.0
210
0.0
220
0.0
230
1.0
 40
0.1761188775
 41
5.933076931846601
 42
5.976720052691198
  0
ELLIPSE
  5
163
330
1F
100
AcDbEntity
  8
0
  6
HIDDEN
 62
     7
370
     0
100
AcDbEllipse
 10
142.3587400303
 20
105.3753951262
 30
0.0
 11
13.37355272666628
 21
-13.37146352987014
 31
0.0
210
0.0
220
0.0
230
1.0
 40
0.1761188775
 41
0.3023035477142446
 42
0.3822730435340326
  0
LINE
  5
164
330
1F
100
AcDbEntity
  8
0
  6
HIDDEN
 62
     7
370
     0
100
AcDbLine
 10
172.7854821432
 20
121.1183933748
 30
0.0
 11
172.7854821432
 21
90.9109922333
 31
0.0
  0
SPLINE
  5
165
330
1F
100
AcDbEntity
  8
0
  6
HIDDEN
 62
     7
370
     0
100
AcDbSpline
210
0.0
220
0.0
230
1.0
 70
     8
 71
     3
 72
    11
 73
     7
 74
     0
 42
0.00000001
 43
0.00000001
 12
1.0
 22
0.0
 32
0.0
 13
1.0
 23
0.0
 33
0.0
 40
0.0
 40
0.0
 40
0.0
 40
0.0
 40
0.25946967059813
 40
0.3326084702733429
 40
0.6701731790694504
 40
1.0
 40
1.0
 40
1.0
 40
1.0
 10
166.4344738303832
 20
91.3159378079619
 30
0.0
 10
166.368913534597
 20
91.30744639210609
 30
0.0
 10
166.2848732317678
 20
91.29656143267424
 30
0.0
 10
166.1079995583299
 20
91.27395329958195
 30
0.0
 10
166.0061159051958
 20
91.25735781955851
 30
0.0
 10
165.9819620366444
 20
91.25425806065499
 30
0.0
 10
165.9700251250676
 20
91.25272615085503
 30
0.0
  0
SPLINE
  5
166
330
1F
100
AcDbEntity
  8
0
  6
HIDDEN
 62
     7
370
     0
100
AcDbSpline
210
0.0
220
0.0
230
1.0
 70
     8
 71
     3
 72
    22
 73
    18
 74
     0
 42
0.00000001
 43
0.00000001
 12
1.0
 22
0.0
 32
0.0
 13
1.0
 23
0.0
 33
0.0
 40
0.0
 40
0.0
 40
0.0
 40
0.0
 40
0.0022119868471047
 40
0.0799684029100432
 40
0.1575272209552896
 40
0.2358577835459358
 40
0.3136122147965963
 40
0.3900719927085506
 40
0.4660893518218608
 40
0.5423589988219177
 40
0.6186534337227994
 40
0.6937723094550358
 40
0.7691592430128827
 40
0.8459429920566703
 40
0.9207581226786524
 40
0.9231032778326366
 40
1.0
 40
1.0
 40
1.0
 40
1.0
 10
171.5517602927199
 20
90.97309468518158
 30
0.0
 10
171.5522704075213
 20
90.97297198887101
 30
0.0
 10
171.5707122287363
 20
90.96853623555224
 30
0.0
 10
171.5070653073216
 20
90.98433360966295
 30
0.0
 10
171.3546332093753
 20
91.02118015312124
 30
0.0
 10
171.0880488698087
 20
91.08146976461401
 30
0.0
 10
170.7412201438209
 20
91.15393540776947
 30
0.0
 10
170.3174230857976
 20
91.23031039083065
 30
0.0
 10
169.8341102812312
 20
91.30160408152226
 30
0.0
 10
169.3053608335492
 20
91.35948358735764
 30
0.0
 10
168.7561690094277
 20
91.39923260201905
 30
0.0
 10
168.2066857329037
 20
91.41606704704513
 30
0.0
 10
167.681161789824
 20
91.41081377889682
 30
0.0
 10
167.1929293833694
 20
91.38808314573902
 30
0.0
 10
166.9257547416252
 20
91.36393802605909
 30
0.0
 10
166.6414056899638
 20
91.34197216841272
 30
0.0
 10
166.5363857327946
 20
91.3287594740262
 30
0.0
 10
166.4344738303832
 20
91.3159378079619
 30
0.0
  0
SPLINE
  5
167
330
1F
100
AcDbEntity
  8
0
  6
HIDDEN
 62
     7
370
     0
100
AcDbSpline
210
0.0
220
0.0
230
1.0
 70
     8
 71
     3
 72
    22
 73
    18
 74
     0
 42
0.00000001
 43
0.00000001
 12
1.0
 22
0.0
 32
0.0
 13
1.0
 23
0.0
 33
0.0
 40
0.0
 40
0.0
 40
0.0
 40
0.0
 40
0.0769496979898115
 40
0.0780938880527605
 40
0.1541394023339273
 40
0.230948519945297
 40
0.3064555519845071
 40
0.3815281636167389
 40
0.4579812553650078
 40
0.5341646018648127
 40
0.6102700516631084
 40
0.6865845638039152
 40
0.7642917144352694
 40
0.8424373723746879
 40
0.9199456372638479
 40
0.9982050360904
 40
0.9999999999999999
 40
0.9999999999999999
 40
0.9999999999999999
 40
0.9999999999999999
 10
166.4343555524162
 20
120.7134328989234
 30
0.0
 10
166.5364628472725
 20
120.7006436184441
 30
0.0
 10
166.6400884086741
 20
120.6876641699977
 30
0.0
 10
166.9241460279067
 20
120.665652731014
 30
0.0
 10
167.1915541008794
 20
120.6415159921786
 30
0.0
 10
167.6824536828977
 20
120.6186125141522
 30
0.0
 10
168.2081806185642
 20
120.6132962751729
 30
0.0
 10
168.7582472851256
 20
120.6301574175077
 30
0.0
 10
169.307464315057
 20
120.670049182425
 30
0.0
 10
169.836329840297
 20
120.7280748373416
 30
0.0
 10
170.3191590395777
 20
120.7993448397893
 30
0.0
 10
170.7426824899537
 20
120.8756568328734
 30
0.0
 10
171.0889416299156
 20
120.9479920436842
 30
0.0
 10
171.3547898123188
 20
121.0081998152967
 30
0.0
 10
171.5082028334084
 20
121.0451112644824
 30
0.0
 10
171.5689627732716
 20
121.0608747363802
 30
0.0
 10
171.5511606061125
 20
121.0563923572517
 30
0.0
 10
171.5507614492587
 20
121.0562918541874
 30
0.0
  0
SPLINE
  5
168
330
1F
100
AcDbEntity
  8
0
  6
HIDDEN
 62
     7
370
     0
100
AcDbSpline
210
0.0
220
0.0
230
1.0
 70
     8
 71
     3
 72
    10
 73
     6
 74
     0
 42
0.00000001
 43
0.00000001
 12
1.0
 22
0.0
 32
0.0
 13
1.0
 23
0.0
 33
0.0
 40
0.0
 40
0.0
 40
0.0
 40
0.0
 40
0.3343825542418548
 40
0.6655473131622539
 40
0.9999999999999999
 40
0.9999999999999999
 40
0.9999999999999999
 40
0.9999999999999999
 10
165.9695594637803
 20
120.7767218558039
 30
0.0
 10
165.9792661412856
 20
120.7751480037214
 30
0.0
 10
165.9985860880098
 20
120.7720154448855
 30
0.0
 10
166.1561575322243
 20
120.7479600584289
 30
0.0
 10
166.341318002055
 20
120.7249797903754
 30
0.0
 10
166.4343555524162
 20
120.7134328989234
 30
0.0
  0
SPLINE
  5
169
330
1F
100
AcDbEntity
  8
0
  6
HIDDEN
 62
     7
370
     0
100
AcDbSpline
210
0.0
220
0.0
230
1.0
 70
    11
 71
     3
 72
    50
 73
    46
 74
     0
 42
0.00000001
 43
0.00000001
 12
1.0
 22
0.0
 32
0.0
 13
1.0
 23
0.0
 33
0.0
 40
0.0
 40
0.0
 40
0.0
 40
0.0
 40
0.0625000000000001
 40
0.0625000000000001
 40
0.1250000000000002
 40
0.1250000000000002
 40
0.1562500000000002
 40
0.1562500000000002
 40
0.1875000000000002
 40
0.1875000000000002
 40
0.2187500000000003
 40
0.2187500000000003
 40
0.2500000000000003
 40
0.2500000000000003
 40
0.2812500000000004
 40
0.2812500000000004
 40
0.3125000000000005
 40
0.3125000000000005
 40
0.3750000000000004
 40
0.3750000000000004
 40
0.4375000000000003
 40
0.4375000000000003
 40
0.5000000000000002
 40
0.5000000000000002
 40
0.5312500000000002
 40
0.5312500000000002
 40
0.5625000000000002
 40
0.5625000000000002
 40
0.5937500000000001
 40
0.5937500000000001
 40
0.6250000000000001
 40
0.6250000000000001
 40
0.65625
 40
0.65625
 40
0.6875
 40
0.6875
 40
0.7499999999999999
 40
0.7499999999999999
 40
0.8124999999999999
 40
0.8124999999999999
 40
0.8749999999999999
 40
0.8749999999999999
 40
0.9374999999999999
 40
0.9374999999999999
 40
1.0
 40
1.0
 40
1.0
 40
1.0
 10
170.6096589660322
 20
93.34188251054334
 30
0.0
 10
170.4634041312306
 20
93.3629350363688
 30
0.0
 10
170.2919354942723
 20
93.38521626105083
 30
0.0
 10
169.8987908887623
 20
93.42605775139974
 30
0.0
 10
169.683546703197
 20
93.44381538632068
 30
0.0
 10
169.3408069166474
 20
93.46208867916427
 30
0.0
 10
169.2225605335919
 20
93.4667986181783
 30
0.0
 10
168.9867815314136
 20
93.4727977132371
 30
0.0
 10
168.8682152217076
 20
93.47415354563293
 30
0.0
 10
168.629720140907
 20
93.47345913362223
 30
0.0
 10
168.5089277473852
 20
93.4713606306309
 30
0.0
 10
168.27386178192
 20
93.46397748110509
 30
0.0
 10
168.15880626942
 20
93.45871471783416
 30
0.0
 10
167.9335865146771
 20
93.44546095578563
 30
0.0
 10
167.8225043450749
 20
93.43738188110818
 30
0.0
 10
167.6112528981392
 20
93.41944615411316
 30
0.0
 10
167.5108946636385
 20
93.40960991889969
 30
0.0
 10
167.2252507066151
 20
93.37859425047826
 30
0.0
 10
167.0549719630192
 20
93.35576255625959
 30
0.0
 10
166.7788208330989
 20
93.31506528192887
 30
0.0
 10
166.6691216467141
 20
93.29673923235671
 30
0.0
 10
166.5235785655502
 20
93.27171163311175
 30
0.0
 10
166.4855719300929
 20
93.2647089837443
 30
0.0
 10
166.4854376367351
 20
93.26468475827748
 30
0.0
 10
166.4945553919773
 20
93.26633934553362
 30
0.0
 10
166.5314739374909
 20
93.27292198880649
 30
0.0
 10
166.5594475925157
 20
93.27787823032916
 30
0.0
 10
166.6322191719679
 20
93.2903949030275
 30
0.0
 10
166.6771444101296
 20
93.29797944234095
 30
0.0
 10
166.7841877250851
 20
93.31528769771413
 30
0.0
 10
166.8467557660516
 20
93.32507198950687
 30
0.0
 10
166.985146668791
 20
93.34547719117292
 30
0.0
 10
167.0613301245655
 20
93.356162146096
 30
0.0
 10
167.2276858583766
 20
93.3777458836734
 30
0.0
 10
167.3187141608213
 20
93.38873199267452
 30
0.0
 10
167.6053679774942
 20
93.41988907644064
 30
0.0
 10
167.8174200356118
 20
93.43858526347681
 30
0.0
 10
168.2705973115663
 20
93.4653325441923
 30
0.0
 10
168.5052269603063
 20
93.47303815089411
 30
0.0
 10
168.9866505097649
 20
93.47455615839229
 30
0.0
 10
169.2219558800333
 20
93.46836747015993
 30
0.0
 10
169.6818635317089
 20
93.44396213446711
 30
0.0
 10
169.896292043668
 20
93.4262789805418
 30
0.0
 10
170.2894912284335
 20
93.38550806350918
 30
0.0
 10
170.4634003000986
 20
93.36293558783778
 30
0.0
 10
170.6096589660322
 20
93.34188251054333
 30
0.0
  0
SPLINE
  5
16A
330
1F
100
AcDbEntity
  8
0
  6
HIDDEN
 62
     7
370
     0
100
AcDbSpline
210
0.0
220
0.0
230
1.0
 70
    11
 71
     3
 72
    50
 73
    46
 74
     0
 42
0.00000001
 43
0.00000001
 12
1.0
 22
0.0
 32
0.0
 13
1.0
 23
0.0
 33
0.0
 40
0.0
 40
0.0
 40
0.0
 40
0.0
 40
0.0625
 40
0.0625
 40
0.125
 40
0.125
 40
0.15625
 40
0.15625
 40
0.1875
 40
0.1875
 40
0.21875
 40
0.21875
 40
0.25
 40
0.25
 40
0.2812499999999999
 40
0.2812499999999999
 40
0.3124999999999999
 40
0.3124999999999999
 40
0.3749999999999999
 40
0.3749999999999999
 40
0.4374999999999999
 40
0.4374999999999999
 40
0.4999999999999999
 40
0.4999999999999999
 40
0.5312499999999999
 40
0.5312499999999999
 40
0.5624999999999999
 40
0.5624999999999999
 40
0.5937499999999999
 40
0.5937499999999999
 40
0.6249999999999999
 40
0.6249999999999999
 40
0.65625
 40
0.65625
 40
0.6875
 40
0.6875
 40
0.75
 40
0.75
 40
0.8125
 40
0.8125
 40
0.875
 40
0.875
 40
0.9375000000000001
 40
0.9375000000000001
 40
1.0
 40
1.0
 40
1.0
 40
1.0
 10
170.6096589660322
 20
118.6875030975031
 30
0.0
 10
170.4634041312306
 20
118.6664505716776
 30
0.0
 10
170.2919354942723
 20
118.6441693469956
 30
0.0
 10
169.8987908887623
 20
118.6033278566467
 30
0.0
 10
169.683546703197
 20
118.5855702217258
 30
0.0
 10
169.3408069166474
 20
118.5672969288822
 30
0.0
 10
169.2225605335919
 20
118.5625869898681
 30
0.0
 10
168.9867815314136
 20
118.5565878948093
 30
0.0
 10
168.8682152217076
 20
118.5552320624135
 30
0.0
 10
168.629720140907
 20
118.5559264744242
 30
0.0
 10
168.5089277473852
 20
118.5580249774156
 30
0.0
 10
168.27386178192
 20
118.5654081269414
 30
0.0
 10
168.15880626942
 20
118.5706708902123
 30
0.0
 10
167.9335865146771
 20
118.5839246522608
 30
0.0
 10
167.8225043450749
 20
118.5920037269383
 30
0.0
 10
167.6112528981392
 20
118.6099394539333
 30
0.0
 10
167.5108946636385
 20
118.6197756891467
 30
0.0
 10
167.2252507066151
 20
118.6507913575682
 30
0.0
 10
167.0549719630192
 20
118.6736230517869
 30
0.0
 10
166.7788208330989
 20
118.7143203261176
 30
0.0
 10
166.6691216467141
 20
118.7326463756898
 30
0.0
 10
166.5235785655502
 20
118.7576739749347
 30
0.0
 10
166.4855719300929
 20
118.7646766243022
 30
0.0
 10
166.4854376367351
 20
118.764700849769
 30
0.0
 10
166.4945553919773
 20
118.7630462625128
 30
0.0
 10
166.5314739374909
 20
118.7564636192399
 30
0.0
 10
166.5594475925157
 20
118.7515073777173
 30
0.0
 10
166.6322191719679
 20
118.7389907050189
 30
0.0
 10
166.6771444101296
 20
118.7314061657055
 30
0.0
 10
166.7841877250851
 20
118.7140979103323
 30
0.0
 10
166.8467557660516
 20
118.7043136185396
 30
0.0
 10
166.985146668791
 20
118.6839084168735
 30
0.0
 10
167.0613301245655
 20
118.6732234619504
 30
0.0
 10
167.2276858583766
 20
118.6516397243731
 30
0.0
 10
167.3187141608213
 20
118.6406536153719
 30
0.0
 10
167.6053679774942
 20
118.6094965316058
 30
0.0
 10
167.8174200356118
 20
118.5908003445696
 30
0.0
 10
168.2705973115663
 20
118.5640530638541
 30
0.0
 10
168.5052269603063
 20
118.5563474571524
 30
0.0
 10
168.9866505097649
 20
118.5548294496542
 30
0.0
 10
169.2219558800333
 20
118.5610181378865
 30
0.0
 10
169.6818635317089
 20
118.5854234735793
 30
0.0
 10
169.896292043668
 20
118.6031066275046
 30
0.0
 10
170.2894912284335
 20
118.6438775445373
 30
0.0
 10
170.4634003000986
 20
118.6664500202086
 30
0.0
 10
170.6096589660322
 20
118.6875030975031
 30
0.0
  0
SPLINE
  5
16B
330
1F
100
AcDbEntity
  8
0
  6
HIDDEN
 62
     7
370
     0
100
AcDbSpline
210
0.0
220
0.0
230
1.0
 70
    11
 71
     3
 72
    14
 73
    10
 74
     0
 42
0.00000001
 43
0.00000001
 12
1.0
 22
0.0
 32
0.0
 13
1.0
 23
0.0
 33
0.0
 40
0.0
 40
0.0
 40
0.0
 40
0.0
 40
0.2499999999999999
 40
0.2499999999999999
 40
0.4999999999999999
 40
0.4999999999999999
 40
0.7499999999999999
 40
0.7499999999999999
 40
1.0
 40
1.0
 40
1.0
 40
1.0
 10
170.6096589660322
 20
118.6875030975031
 30
0.0
 10
170.7635348617351
 20
118.7096526303551
 30
0.0
 10
170.8814154293641
 20
118.7224646974287
 30
0.0
 10
171.0444792192768
 20
118.7388174062592
 30
0.0
 10
171.0853957379004
 20
118.741993168977
 30
0.0
 10
171.0855684704167
 20
118.7420078711538
 30
0.0
 10
171.0446407121828
 20
118.7388283201604
 30
0.0
 10
170.8823033467173
 20
118.7225589886829
 30
0.0
 10
170.7635330786112
 20
118.7096523736849
 30
0.0
 10
170.6096589660322
 20
118.6875030975031
 30
0.0
  0
SPLINE
  5
16C
330
1F
100
AcDbEntity
  8
0
  6
HIDDEN
 62
     7
370
     0
100
AcDbSpline
210
0.0
220
0.0
230
1.0
 70
    11
 71
     3
 72
    14
 73
    10
 74
     0
 42
0.00000001
 43
0.00000001
 12
1.0
 22
0.0
 32
0.0
 13
1.0
 23
0.0
 33
0.0
 40
0.0
 40
0.0
 40
0.0
 40
0.0
 40
0.2499999999999999
 40
0.2499999999999999
 40
0.4999999999999999
 40
0.4999999999999999
 40
0.7499999999999999
 40
0.7499999999999999
 40
1.0
 40
1.0
 40
1.0
 40
1.0
 10
170.6096589660322
 20
93.34188251054334
 30
0.0
 10
170.7635348617351
 20
93.31973297769136
 30
0.0
 10
170.8814154293641
 20
93.30692091061772
 30
0.0
 10
171.0444792192768
 20
93.29056820178725
 30
0.0
 10
171.0853957379004
 20
93.28739243906941
 30
0.0
 10
171.0855684704167
 20
93.2873777368927
 30
0.0
 10
171.0446407121828
 20
93.2905572878861
 30
0.0
 10
170.8823033467173
 20
93.30682661936359
 30
0.0
 10
170.7635330786112
 20
93.31973323436158
 30
0.0
 10
170.6096589660322
 20
93.34188251054333
 30
0.0
  0
LINE
  5
16D
330
1F
100
AcDbEntity
  8
0
  6
HIDDEN
 62
     7
370
     0
100
AcDbLine
 10
174.7854822382
 20
95.5146929456
 30
0.0
 11
174.7854822382
 21
116.5146926625
 31
0.0
  0
LINE
  5
16E
330
1F
100
AcDbEntity
  8
0
  6
HIDDEN
 62
     7
370
     0
100
AcDbLine
 10
162.7881317466
 20
116.5146926625
 30
0.0
 11
162.7881317466
 21
95.5146929456
 31
0.0
  0
LINE
  5
16F
330
1F
100
AcDbEntity
  8
0
  6
HIDDEN
 62
     7
370
     0
100
AcDbLine
 10
187.2291523098
 20
117.8646931631
 30
0.0
 11
195.0646066173
 21
117.8646931631
 31
0.0
  0
LINE
  5
170
330
1F
100
AcDbEntity
  8
0
  6
HIDDEN
 62
     7
370
     0
100
AcDbLine
 10
191.825481604
 20
119.5305396078
 30
0.0
 11
191.825481604
 21
123.4172970263
 31
0.0
  0
LINE
  5
171
330
1F
100
AcDbEntity
  8
0
  6
HIDDEN
 62
     7
370
     0
100
AcDbLine
 10
189.7454825296
 20
119.5305396078
 30
0.0
 11
189.7454825296
 21
123.4172970263
 31
0.0
  0
LINE
  5
172
330
1F
100
AcDbEntity
  8
0
  6
HIDDEN
 62
     7
370
     0
100
AcDbLine
 10
154.8854825153
 20
96.1496863721
 30
0.0
 11
154.8854825153
 21
115.879699236
 31
0.0
  0
LINE
  5
173
330
1F
100
AcDbEntity
  8
0
  6
HIDDEN
 62
     7
370
     0
100
AcDbLine
 10
180.9548572703
 20
116.5146926625
 30
0.0
 11
180.9548572703
 21
95.5146929456
 31
0.0
  0
LINE
  5
174
330
1F
100
AcDbEntity
  8
0
  6
HIDDEN
 62
     7
370
     0
100
AcDbLine
 10
182.7354827031
 20
115.8896923272
 30
0.0
 11
182.7354827031
 21
96.1396923495
 31
0.0
  0
LINE
  5
175
330
1F
100
AcDbEntity
  8
0
  6
HIDDEN
 62
     7
370
     0
100
AcDbLine
 10
155.8354818328
 20
96.3167870624
 30
0.0
 11
160.0854820638
 21
96.3167870624
 31
0.0
  0
LINE
  5
176
330
1F
100
AcDbEntity
  8
0
  6
HIDDEN
 62
     7
370
     0
100
AcDbLine
 10
155.8354818328
 20
115.7125985457
 30
0.0
 11
155.8354818328
 21
96.3167870624
 31
0.0
  0
LINE
  5
177
330
1F
100
AcDbEntity
  8
0
  6
HIDDEN
 62
     7
370
     0
100
AcDbLine
 10
157.585481654
 20
115.7125985457
 30
0.0
 11
155.8354818328
 21
115.7125985457
 31
0.0
  0
SPLINE
  5
178
330
1F
100
AcDbEntity
  8
0
  6
HIDDEN
 62
     7
370
     0
100
AcDbSpline
210
0.0
220
0.0
230
1.0
 70
     8
 71
     3
 72
    14
 73
    10
 74
     0
 42
0.00000001
 43
0.00000001
 12
1.0
 22
0.0
 32
0.0
 13
1.0
 23
0.0
 33
0.0
 40
0.0
 40
0.0
 40
0.0
 40
0.0
 40
0.2499999999999997
 40
0.2499999999999997
 40
0.4999999999999993
 40
0.4999999999999993
 40
0.7499999999999997
 40
0.7499999999999997
 40
1.0
 40
1.0
 40
1.0
 40
1.0
 10
158.4854822381547
 20
116.0388822974436
 30
0.0
 10
158.4854822381547
 20
116.0024104329098
 30
0.0
 10
158.4631116063507
 20
115.9646746803973
 30
0.0
 10
158.3758960751024
 20
115.8895389586979
 30
0.0
 10
158.3118748690258
 20
115.8531666724758
 30
0.0
 10
158.1483895712845
 20
115.7889431333137
 30
0.0
 10
158.0490746971113
 20
115.7614201706912
 30
0.0
 10
157.8292484264062
 20
115.7232480038041
 30
0.0
 10
157.7082448640971
 20
115.7125985057714
 30
0.0
 10
157.5854822381548
 20
115.7125985057714
 30
0.0
  0
LINE
  5
179
330
1F
100
AcDbEntity
  8
0
  6
HIDDEN
 62
     7
370
     0
100
AcDbLine
 10
158.4854819878
 20
116.0388827531
 30
0.0
 11
158.4854819878
 21
116.5146926625
 31
0.0
  0
SPLINE
  5
17A
330
1F
100
AcDbEntity
  8
0
  6
HIDDEN
 62
     7
370
     0
100
AcDbSpline
210
0.0
220
0.0
230
1.0
 70
     8
 71
     3
 72
    14
 73
    10
 74
     0
 42
0.00000001
 43
0.00000001
 12
1.0
 22
0.0
 32
0.0
 13
1.0
 23
0.0
 33
0.0
 40
0.0
 40
0.0
 40
0.0
 40
0.0
 40
0.2499999999999999
 40
0.2499999999999999
 40
0.4999999999999998
 40
0.4999999999999998
 40
0.7499999999999997
 40
0.7499999999999997
 40
1.0
 40
1.0
 40
1.0
 40
1.0
 10
158.4854822381548
 20
116.0388822974436
 30
0.0
 10
158.4854822381548
 20
116.0024104329098
 30
0.0
 10
158.4631116063507
 20
115.9646746803973
 30
0.0
 10
158.3758960751024
 20
115.8895389586979
 30
0.0
 10
158.3118748690258
 20
115.8531666724758
 30
0.0
 10
158.1483895712845
 20
115.7889431333137
 30
0.0
 10
158.0490746971113
 20
115.7614201706912
 30
0.0
 10
157.8292484264062
 20
115.7232480038041
 30
0.0
 10
157.7082448640971
 20
115.7125985057714
 30
0.0
 10
157.5854822381548
 20
115.7125985057714
 30
0.0
  0
SPLINE
  5
17B
330
1F
100
AcDbEntity
  8
0
  6
HIDDEN
 62
     7
370
     0
100
AcDbSpline
210
0.0
220
0.0
230
1.0
 70
     8
 71
     3
 72
    14
 73
    10
 74
     0
 42
0.00000001
 43
0.00000001
 12
1.0
 22
0.0
 32
0.0
 13
1.0
 23
0.0
 33
0.0
 40
0.0
 40
0.0
 40
0.0
 40
0.0
 40
0.2500000000000006
 40
0.2500000000000006
 40
0.5000000000000008
 40
0.5000000000000008
 40
0.7500000000000003
 40
0.7500000000000003
 40
1.0
 40
1.0
 40
1.0
 40
1.0
 10
160.0854822381548
 20
96.31678710227504
 30
0.0
 10
160.2080876615412
 20
96.31678710227504
 30
0.0
 10
160.328430763634
 20
96.30624376036504
 30
0.0
 10
160.5487307678129
 20
96.2680607997404
 30
0.0
 10
160.6483745141004
 20
96.24041953159961
 30
0.0
 10
160.8112625991614
 20
96.17648820681225
 30
0.0
 10
160.8759072559641
 20
96.13976946784837
 30
0.0
 10
160.96263022086
 20
96.06519282240275
 30
0.0
 10
160.9854822381548
 20
96.02693708852905
 30
0.0
 10
160.9854822381548
 20
95.99050331060283
 30
0.0
  0
LINE
  5
17C
330
1F
100
AcDbEntity
  8
0
  6
HIDDEN
 62
     7
370
     0
100
AcDbLine
 10
160.9854823976
 20
95.990502855
 30
0.0
 11
160.9854823976
 21
95.5146929456
 31
0.0
  0
SPLINE
  5
17D
330
1F
100
AcDbEntity
  8
0
  6
HIDDEN
 62
     7
370
     0
100
AcDbSpline
210
0.0
220
0.0
230
1.0
 70
     8
 71
     3
 72
    14
 73
    10
 74
     0
 42
0.00000001
 43
0.00000001
 12
1.0
 22
0.0
 32
0.0
 13
1.0
 23
0.0
 33
0.0
 40
0.0
 40
0.0
 40
0.0
 40
0.0
 40
0.2500000000000003
 40
0.2500000000000003
 40
0.5000000000000002
 40
0.5000000000000002
 40
0.7500000000000001
 40
0.7500000000000001
 40
1.0
 40
1.0
 40
1.0
 40
1.0
 10
160.0854822381548
 20
96.31678710227504
 30
0.0
 10
160.2080876615412
 20
96.31678710227504
 30
0.0
 10
160.328430763634
 20
96.30624376036504
 30
0.0
 10
160.5487307678129
 20
96.2680607997404
 30
0.0
 10
160.6483745141004
 20
96.24041953159961
 30
0.0
 10
160.8112625991614
 20
96.17648820681225
 30
0.0
 10
160.8759072559641
 20
96.13976946784838
 30
0.0
 10
160.96263022086
 20
96.06519282240275
 30
0.0
 10
160.9854822381548
 20
96.02693708852907
 30
0.0
 10
160.9854822381547
 20
95.99050331060283
 30
0.0
  0
LINE
  5
17E
330
1F
100
AcDbEntity
  8
0
  6
HIDDEN
 62
     7
370
     0
100
AcDbLine
 10
155.8354818328
 20
96.3167870624
 30
0.0
 11
155.8354818328
 21
115.7125985457
 31
0.0
  0
LINE
  5
17F
330
1F
100
AcDbEntity
  8
0
  6
HIDDEN
 62
     7
370
     0
100
AcDbLine
 10
223.2614629968
 20
101.6957220828
 30
0.0
 11
226.5521423026
 21
97.5776627866
 31
0.0
  0
LINE
  5
180
330
1F
100
AcDbEntity
  8
0
  6
HIDDEN
 62
     7
370
     0
100
AcDbLine
 10
223.0978854998
 20
104.7750904664
 30
0.0
 11
223.2614629968
 21
101.6957220828
 31
0.0
  0
ARC
  5
181
330
1F
100
AcDbEntity
  8
0
  6
HIDDEN
 62
     7
370
     0
100
AcDbCircle
 10
220.8493455779
 20
107.5168706057
 30
0.0
 40
2.092412327414236
100
AcDbArc
 50
119.1207176917
 51
182.7279291718
  0
LINE
  5
182
330
1F
100
AcDbEntity
  8
0
  6
HIDDEN
 62
     7
370
     0
100
AcDbLine
 10
219.6614802881
 20
90.4337769581
 30
0.0
 11
218.7593043848
 21
107.4172856726
 31
0.0
  0
LINE
  5
183
330
1F
100
AcDbEntity
  8
0
  6
HIDDEN
 62
     7
370
     0
100
AcDbLine
 10
206.8051234885
 20
109.3185526526
 30
0.0
 11
204.8814580842
 21
111.5584137125
 31
0.0
  0
ARC
  5
184
330
1F
100
AcDbEntity
  8
0
  6
HIDDEN
 62
     7
370
     0
100
AcDbCircle
 10
208.6964947029
 20
110.9470006956
 30
0.0
 40
2.495822128963157
100
AcDbArc
 50
220.7280582524
 51
39.3668712448
  0
LINE
  5
185
330
1F
100
AcDbEntity
  8
0
  6
HIDDEN
 62
     7
370
     0
100
AcDbLine
 10
208.7023505076
 20
114.7699203549
 30
0.0
 11
210.6260159119
 21
112.5300597606
 31
0.0
  0
ARC
  5
186
330
1F
100
AcDbEntity
  8
0
  6
HIDDEN
 62
     7
370
     0
100
AcDbCircle
 10
206.8109780841
 20
113.14147398
 30
0.0
 40
2.495821956873119
100
AcDbArc
 50
40.7280111197
 51
219.3669101935
  0
CIRCLE
  5
187
330
1F
100
AcDbEntity
  8
0
  6
HIDDEN
 62
     7
370
     0
100
AcDbCircle
 10
215.0861821537
 20
103.4844919971
 30
0.0
 40
3.079574414855587
  0
SPLINE
  5
188
330
1F
100
AcDbEntity
  8
0
  6
HIDDEN
 62
     7
370
     0
100
AcDbSpline
210
0.0
220
0.0
230
1.0
 70
     8
 71
     3
 72
    10
 73
     6
 74
     0
 42
0.00000001
 43
0.00000001
 12
1.0
 22
0.0
 32
0.0
 13
1.0
 23
0.0
 33
0.0
 40
0.0
 40
0.0
 40
0.0
 40
0.0
 40
0.5
 40
0.5
 40
1.0
 40
1.0
 40
1.0
 40
1.0
 10
209.984081076465
 20
103.1409633944373
 30
0.0
 10
209.9626901773439
 20
103.6199217175292
 30
0.0
 10
209.9361840960114
 20
104.0988837322894
 30
0.0
 10
209.8967229362068
 20
105.0567979819418
 30
0.0
 10
209.8841806539602
 20
105.5357499189156
 30
0.0
 10
209.8841806539602
 20
106.0146928040232
 30
0.0
  0
LINE
  5
189
330
1F
100
AcDbEntity
  8
0
  6
HIDDEN
 62
     7
370
     0
100
AcDbLine
 10
209.8841802283
 20
106.014692804
 30
0.0
 11
209.8841802283
 21
123.0146937279
 31
0.0
  0
SPLINE
  5
18A
330
1F
100
AcDbEntity
  8
0
  6
HIDDEN
 62
     7
370
     0
100
AcDbSpline
210
0.0
220
0.0
230
1.0
 70
     8
 71
     3
 72
    14
 73
    10
 74
     0
 42
0.00000001
 43
0.00000001
 12
1.0
 22
0.0
 32
0.0
 13
1.0
 23
0.0
 33
0.0
 40
0.0
 40
0.0
 40
0.0
 40
0.0
 40
0.2500000000000002
 40
0.2500000000000002
 40
0.5000000000000001
 40
0.5000000000000001
 40
0.75
 40
0.75
 40
1.0
 40
1.0
 40
1.0
 40
1.0
 10
209.9840810764649
 20
89.77197887789818
 30
0.0
 10
209.9626840949026
 20
89.68878498869431
 30
0.0
 10
209.9361799390229
 20
89.60562986918814
 30
0.0
 10
209.8967060535093
 20
89.43921688733185
 30
0.0
 10
209.8841598685723
 20
89.35593862023867
 30
0.0
 10
209.8842014949107
 20
89.18953916716222
 30
0.0
 10
209.8967690254824
 20
89.10639006651004
 30
0.0
 10
209.936225529037
 20
88.94014965209033
 30
0.0
 10
209.9627047558066
 20
88.85705668500071
 30
0.0
 10
209.9840810764649
 20
88.7739431277332
 30
0.0
  0
SPLINE
  5
18B
330
1F
100
AcDbEntity
  8
0
  6
HIDDEN
 62
     7
370
     0
100
AcDbSpline
210
0.0
220
0.0
230
1.0
 70
     8
 71
     3
 72
    18
 73
    14
 74
     0
 42
0.00000001
 43
0.00000001
 12
1.0
 22
0.0
 32
0.0
 13
1.0
 23
0.0
 33
0.0
 40
0.0
 40
0.0
 40
0.0
 40
0.0
 40
0.1249999999999999
 40
0.1249999999999999
 40
0.2499999999999999
 40
0.2499999999999999
 40
0.3749999999999998
 40
0.3749999999999998
 40
0.4999999999999999
 40
0.4999999999999999
 40
0.7499999999999999
 40
0.7499999999999999
 40
1.0
 40
1.0
 40
1.0
 40
1.0
 10
222.2303459668257
 20
106.0146928040232
 30
0.0
 10
222.2303459668257
 20
106.2260200768317
 30
0.0
 10
222.2767353799737
 20
106.4291610287357
 30
0.0
 10
222.4455836726962
 20
106.8140931024168
 30
0.0
 10
222.5640909205981
 20
106.9873411594265
 30
0.0
 10
222.8432188156615
 20
107.2987437282285
 30
0.0
 10
223.0003443193534
 20
107.433583536931
 30
0.0
 10
223.3389004422497
 20
107.6744814841415
 30
0.0
 10
223.5206606658924
 20
107.7800198655625
 30
0.0
 10
224.0771611143268
 20
108.0544206233992
 30
0.0
 10
224.4706396242513
 20
108.1870571869748
 30
0.0
 10
225.2788972392869
 20
108.3837688488582
 30
0.0
 10
225.6862187625235
 20
108.4456670658996
 30
0.0
 10
226.0959130119003
 20
108.4805920382162
 30
0.0
  0
ARC
  5
18C
330
1F
100
AcDbEntity
  8
0
  6
HIDDEN
 62
     7
370
     0
100
AcDbCircle
 10
206.7705829511
 20
113.234650733
 30
0.0
 40
1.996627412431353
100
AcDbArc
 50
40.6521095459
 51
219.44284542
  0
LINE
  5
18D
330
1F
100
AcDbEntity
  8
0
  6
HIDDEN
 62
     7
370
     0
100
AcDbLine
 10
210.2090478941
 20
112.295521537
 30
0.0
 11
208.2853824898
 21
114.535382597
 31
0.0
  0
ARC
  5
18E
330
1F
100
AcDbEntity
  8
0
  6
HIDDEN
 62
     7
370
     0
100
AcDbCircle
 10
206.5264351769
 20
113.8409385766
 30
0.0
 40
1.996627417373394
100
AcDbArc
 50
40.6521229842
 51
219.4428319818
  0
LINE
  5
18F
330
1F
100
AcDbEntity
  8
0
  6
HIDDEN
 62
     7
370
     0
100
AcDbLine
 10
205.2286700412
 20
111.9661770036
 30
0.0
 11
207.1523354455
 21
109.7263159437
 31
0.0
  0
ARC
  5
190
330
1F
100
AcDbEntity
  8
0
  6
HIDDEN
 62
     7
370
     0
100
AcDbCircle
 10
208.6669780221
 20
111.0272345533
 30
0.0
 40
1.996630001632787
100
AcDbArc
 50
220.6591095706
 51
39.4358453954
  0
LINE
  5
191
330
1F
100
AcDbEntity
  8
0
  6
HIDDEN
 62
     7
370
     0
100
AcDbLine
 10
204.9845219656
 20
112.5724652057
 30
0.0
 11
206.9081873699
 21
110.3326041458
 31
0.0
  0
LINE
  5
192
330
1F
100
AcDbEntity
  8
0
  6
HIDDEN
 62
     7
370
     0
100
AcDbLine
 10
158.4854819878
 20
117.0146927444
 30
0.0
 11
158.4854819878
 21
119.5722172243
 31
0.0
  0
LINE
  5
193
330
1F
100
AcDbEntity
  8
0
  6
HIDDEN
 62
     7
370
     0
100
AcDbLine
 10
160.9854823976
 20
95.0146928636
 30
0.0
 11
160.9854823976
 21
92.411116345
 31
0.0
  0
LINE
  5
194
330
1F
100
AcDbEntity
  8
0
  6
HIDDEN
 62
     7
370
     0
100
AcDbLine
 10
155.8354818328
 20
117.0146927444
 30
0.0
 11
155.8354818328
 21
118.8946930898
 31
0.0
  0
LINE
  5
195
330
1F
100
AcDbEntity
  8
0
  6
HIDDEN
 62
     7
370
     0
100
AcDbLine
 10
154.8854825153
 20
117.0146927444
 30
0.0
 11
154.8854825153
 21
117.944692841
 31
0.0
  0
LINE
  5
196
330
1F
100
AcDbEntity
  8
0
  6
HIDDEN
 62
     7
370
     0
100
AcDbLine
 10
155.8354818328
 20
95.0146928636
 30
0.0
 11
155.8354818328
 21
93.1936927346
 31
0.0
  0
LINE
  5
197
330
1F
100
AcDbEntity
  8
0
  6
HIDDEN
 62
     7
370
     0
100
AcDbLine
 10
154.8854825153
 20
95.0146928636
 30
0.0
 11
154.8854825153
 21
94.1436929835
 31
0.0
  0
ARC
  5
198
330
1F
100
AcDbEntity
  8
0
  6
HIDDEN
 62
     7
370
     0
100
AcDbCircle
 10
208.4229866049
 20
111.633336371
 30
0.0
 40
1.996627417412156
100
AcDbArc
 50
220.6521230896
 51
39.4428318764
  0
LINE
  5
199
330
1F
100
AcDbEntity
  8
0
  6
HIDDEN
 62
     7
370
     0
100
AcDbLine
 10
188.0854819968
 20
112.2646928972
 30
0.0
 11
188.0854819968
 21
99.7646927109
 31
0.0
  0
LINE
  5
19A
330
1F
100
AcDbEntity
  8
0
  6
HIDDEN
 62
     7
370
     0
100
AcDbLine
 10
190.5854814752
 20
112.2646928972
 30
0.0
 11
190.5854814752
 21
99.7646927109
 31
0.0
  0
LINE
  5
19B
330
1F
100
AcDbEntity
  8
0
  6
HIDDEN
 62
     7
370
     0
100
AcDbLine
 10
183.2354818537
 20
111.5146927742
 30
0.0
 11
183.2354818537
 21
100.5146928338
 31
0.0
  0
LINE
  5
19C
330
1F
100
AcDbEntity
  8
0
  6
HIDDEN
 62
     7
370
     0
100
AcDbLine
 10
182.7354827031
 20
100.0146927519
 30
0.0
 11
182.7354827031
 21
112.0012939183
 31
0.0
  0
ARC
  5
19D
330
1F
100
AcDbEntity
  8
0
  6
HIDDEN
 62
     7
370
     0
100
AcDbCircle
 10
220.3197931297
 20
108.8522036994
 30
0.0
 40
2.096394830114674
100
AcDbArc
 50
4.262019046
 51
183.0481891584
  0
CIRCLE
  5
19E
330
1F
100
AcDbEntity
  8
0
  6
HIDDEN
 62
     7
370
     0
100
AcDbCircle
 10
214.7994145335
 20
104.1689301069
 30
0.0
 40
3.069919128196671
  0
LINE
  5
19F
330
1F
100
AcDbEntity
  8
0
  6
HIDDEN
 62
     7
370
     0
100
AcDbLine
 10
189.7807042181
 20
89.1146935729
 30
0.0
 11
187.2354825094
 21
89.1146935729
 31
0.0
  0
LINE
  5
1A0
330
1F
100
AcDbEntity
  8
0
  6
HIDDEN
 62
     7
370
     0
100
AcDbLine
 10
189.7454825296
 20
88.9018137215
 30
0.0
 11
189.7454825296
 21
88.5855701027
 31
0.0
  0
LINE
  5
1A1
330
1F
100
AcDbEntity
  8
0
  6
HIDDEN
 62
     7
370
     0
100
AcDbLine
 10
182.7354827031
 20
86.0397085754
 30
0.0
 11
182.7354827031
 21
89.1146935729
 31
0.0
  0
LINE
  5
1A2
330
1F
100
AcDbEntity
  8
0
  6
HIDDEN
 62
     7
370
     0
100
AcDbLine
 10
187.2354825094
 20
89.1146935729
 30
0.0
 11
182.7354827031
 21
89.1146935729
 31
0.0
  0
LINE
  5
1A3
330
1F
100
AcDbEntity
  8
0
  6
HIDDEN
 62
     7
370
     0
100
AcDbLine
 10
194.7354828074
 20
89.1146935729
 30
0.0
 11
191.7902589842
 21
89.1146935729
 31
0.0
  0
LINE
  5
1A4
330
1F
100
AcDbEntity
  8
0
  6
HIDDEN
 62
     7
370
     0
100
AcDbLine
 10
191.825481604
 20
88.5855701027
 30
0.0
 11
191.825481604
 21
88.9018137215
 31
0.0
  0
LINE
  5
1A5
330
1F
100
AcDbEntity
  8
0
  6
HIDDEN
 62
     7
370
     0
100
AcDbLine
 10
194.7354828074
 20
89.1146935729
 30
0.0
 11
194.7354828074
 21
87.4106601087
 31
0.0
  0
LINE
  5
1A6
330
1F
100
AcDbEntity
  8
0
  6
HIDDEN
 62
     7
370
     0
100
AcDbLine
 10
188.0854819968
 20
100.5146928338
 30
0.0
 11
188.0854819968
 21
111.5012952333
 31
0.0
  0
LINE
  5
1A7
330
1F
100
AcDbEntity
  8
0
  6
HIDDEN
 62
     7
370
     0
100
AcDbLine
 10
222.7285229667
 20
103.0191624278
 30
0.0
 11
223.2614629968
 21
101.6957220828
 31
0.0
  0
LINE
  5
1A8
330
1F
100
AcDbEntity
  8
0
  6
HIDDEN
 62
     7
370
     0
100
AcDbLine
 10
222.4103906258
 20
109.0080029072
 30
0.0
 11
222.4135943755
 21
108.9476941826
 31
0.0
  0
LINE
  5
1A9
330
1F
100
AcDbEntity
  8
0
  6
HIDDEN
 62
     7
370
     0
100
AcDbLine
 10
222.592449288
 20
105.5807268395
 30
0.0
 11
222.7285229667
 21
103.0191624278
 31
0.0
  0
ELLIPSE
  5
1AA
330
1F
100
AcDbEntity
  8
0
  6
HIDDEN
 62
     7
370
     0
100
AcDbEllipse
 10
152.7797154984
 20
106.014692804
 30
0.0
 11
12.26424774976735
 21
0.0
 31
0.0
210
0.0
220
0.0
230
1.0
 40
0.8164965809
 41
4.884943637108984
 42
4.964202354313276
  0
LINE
  5
1AB
330
1F
100
AcDbEntity
  8
0
  6
HIDDEN
 62
     7
370
     0
100
AcDbLine
 10
154.8854825153
 20
95.0146928636
 30
0.0
 11
154.8854825153
 21
96.1496863721
 31
0.0
  0
ELLIPSE
  5
1AC
330
1F
100
AcDbEntity
  8
0
  6
HIDDEN
 62
     7
370
     0
100
AcDbEllipse
 10
152.7797154984
 20
106.014692804
 30
0.0
 11
12.26424774976735
 21
1.421085471520200E-14
 31
0.0
210
0.0
220
0.0
230
1.0
 40
0.8164965809
 41
1.318982952866321
 42
1.398241670070613
  0
LINE
  5
1AD
330
1F
100
AcDbEntity
  8
0
  6
HIDDEN
 62
     7
370
     0
100
AcDbLine
 10
154.8854825153
 20
117.0146927444
 30
0.0
 11
154.8854825153
 21
115.879699236
 31
0.0
  0
LINE
  5
1AE
330
1F
100
AcDbEntity
  8
0
  6
HIDDEN
 62
     7
370
     0
100
AcDbLine
 10
189.9938262134
 20
122.9146920351
 30
0.0
 11
187.2354825094
 21
122.9146920351
 31
0.0
  0
LINE
  5
1AF
330
1F
100
AcDbEntity
  8
0
  6
HIDDEN
 62
     7
370
     0
100
AcDbLine
 10
189.7454825296
 20
123.4172970263
 30
0.0
 11
189.7454825296
 21
123.7283699421
 31
0.0
  0
LINE
  5
1B0
330
1F
100
AcDbEntity
  8
0
  6
HIDDEN
 62
     7
370
     0
100
AcDbLine
 10
194.7355442747
 20
122.9146920351
 30
0.0
 11
191.5771369889
 21
122.9146920351
 31
0.0
  0
LINE
  5
1B1
330
1F
100
AcDbEntity
  8
0
  6
HIDDEN
 62
     7
370
     0
100
AcDbLine
 10
194.7354828074
 20
122.9262273965
 30
0.0
 11
194.7354828074
 21
124.885569906
 31
0.0
  0
LINE
  5
1B2
330
1F
100
AcDbEntity
  8
0
  6
HIDDEN
 62
     7
370
     0
100
AcDbLine
 10
191.825481604
 20
123.7283699421
 30
0.0
 11
191.825481604
 21
123.4172970263
 31
0.0
  0
LINE
  5
1B3
330
1F
100
AcDbEntity
  8
0
  6
HIDDEN
 62
     7
370
     0
100
AcDbLine
 10
187.2354825094
 20
122.9146920351
 30
0.0
 11
182.7354827031
 21
122.9146920351
 31
0.0
  0
LINE
  5
1B4
330
1F
100
AcDbEntity
  8
0
  6
HIDDEN
 62
     7
370
     0
100
AcDbLine
 10
227.8949306413
 20
96.5537537096
 30
0.0
 11
228.4278706714
 21
95.2303135974
 31
0.0
  0
LINE
  5
1B5
330
1F
100
AcDbEntity
  8
0
  6
HIDDEN
 62
     7
370
     0
100
AcDbLine
 10
155.8354818328
 20
117.0146927444
 30
0.0
 11
155.8354818328
 21
115.7125985457
 31
0.0
  0
LINE
  5
1B6
330
1F
100
AcDbEntity
  8
0
  6
HIDDEN
 62
     7
370
     0
100
AcDbLine
 10
160.9854823976
 20
95.0146928636
 30
0.0
 11
160.9854823976
 21
95.990502855
 31
0.0
  0
LINE
  5
1B7
330
1F
100
AcDbEntity
  8
0
  6
HIDDEN
 62
     7
370
     0
100
AcDbLine
 10
155.8354818328
 20
95.0146928636
 30
0.0
 11
155.8354818328
 21
96.3167870624
 31
0.0
  0
LINE
  5
1B8
330
1F
100
AcDbEntity
  8
0
  6
HIDDEN
 62
     7
370
     0
100
AcDbLine
 10
158.4854819878
 20
117.0146927444
 30
0.0
 11
158.4854819878
 21
116.0388827531
 31
0.0
  0
LINE
  5
1B9
330
1F
100
AcDbEntity
  8
0
  6
HIDDEN
 62
     7
370
     0
100
AcDbLine
 10
209.9648998185
 20
112.9018097391
 30
0.0
 11
208.0412344142
 21
115.1416707991
 31
0.0
  0
SPLINE
  5
1BA
330
1F
100
AcDbEntity
  8
0
  6
HIDDEN
 62
     7
370
     0
100
AcDbSpline
210
0.0
220
0.0
230
1.0
 70
     8
 71
     3
 72
    35
 73
    31
 74
     0
 42
0.00000001
 43
0.00000001
 12
1.0
 22
0.0
 32
0.0
 13
1.0
 23
0.0
 33
0.0
 40
-0.0968719547595006
 40
-0.0666583833390638
 40
-0.0343746550663528
 40
0.0
 40
0.0402441098602219
 40
0.0744787394150458
 40
0.1027010769228351
 40
0.1249180007539462
 40
0.1620538085088404
 40
0.2036866663220332
 40
0.2499064830388326
 40
0.2843401434852736
 40
0.3106265384480305
 40
0.3287516969918894
 40
0.3698185885315885
 40
0.4071583744141672
 40
0.4519491139953025
 40
0.5000414814625185
 40
0.5203027018300287
 40
0.5628788417857505
 40
0.5977565761193748
 40
0.6256573786661429
 40
0.6860513512461621
 40
0.7499481278641023
 40
0.7710338013047725
 40
0.8124324456481479
 40
0.8472054201757164
 40
0.8749589023494396
 40
0.9031280452404994
 40
0.9333416166609362
 40
0.9656253449336472
 40
1.0
 40
1.040244109860222
 40
1.074478739415046
 40
1.102701076922835
 10
166.6292755319744
 20
91.77384343832918
 30
0.0
 10
166.8679181790133
 20
91.81041395613035
 30
0.0
 10
167.2143046489095
 20
91.85082821655384
 30
0.0
 10
167.6190273566955
 20
91.88020228263224
 30
0.0
 10
167.9926454815931
 20
91.89740836114294
 30
0.0
 10
168.4013128745168
 20
91.90259872457518
 30
0.0
 10
168.8914091264866
 20
91.87767121695029
 30
0.0
 10
169.4897994787263
 20
91.81685349876037
 30
0.0
 10
170.0249256683173
 20
91.72934096075956
 30
0.0
 10
170.4191819773089
 20
91.64558408930989
 30
0.0
 10
170.6591110024917
 20
91.58770152942313
 30
0.0
 10
170.8728927511645
 20
91.52968866773199
 30
0.0
 10
171.0406605674289
 20
91.48315447325818
 30
0.0
 10
171.1111241884585
 20
91.46109353629804
 30
0.0
 10
171.021598996115
 20
91.48987027229686
 30
0.0
 10
170.7887625018495
 20
91.55143246157948
 30
0.0
 10
170.4693283493884
 20
91.63537313131492
 30
0.0
 10
170.1172368047907
 20
91.71036578091547
 30
0.0
 10
169.6695362465266
 20
91.78814047468067
 30
0.0
 10
169.1026627113515
 20
91.86502486530215
 30
0.0
 10
168.3498124994071
 20
91.91031407404772
 30
0.0
 10
167.6786410521028
 20
91.89284057672343
 30
0.0
 10
167.1938479622547
 20
91.84807145269797
 30
0.0
 10
166.8794912569157
 20
91.8125222844146
 30
0.0
 10
166.6446573051624
 20
91.7768363171889
 30
0.0
 10
166.5197134108417
 20
91.75405388542976
 30
0.0
 10
166.4728913808599
 20
91.74707372345947
 30
0.0
 10
166.5044195239474
 20
91.75403097643526
 30
0.0
 10
166.6292755319744
 20
91.77384343832918
 30
0.0
 10
166.8679181790133
 20
91.81041395613035
 30
0.0
 10
167.2143046489095
 20
91.85082821655384
 30
0.0
  0
SPLINE
  5
1BB
330
1F
100
AcDbEntity
  8
0
  6
HIDDEN
 62
     7
370
     0
100
AcDbSpline
210
0.0
220
0.0
230
1.0
 70
     8
 71
     3
 72
    35
 73
    31
 74
     0
 42
0.00000001
 43
0.00000001
 12
1.0
 22
0.0
 32
0.0
 13
1.0
 23
0.0
 33
0.0
 40
-0.124319719241942
 40
-0.1014876450686309
 40
-0.0608470324374216
 40
0.0
 40
0.0343752282034998
 40
0.06664410493777
 40
0.0968273219162002
 40
0.1249505624682888
 40
0.152666254694978
 40
0.1874715331004942
 40
0.2288808119705798
 40
0.2500285047284304
 40
0.3139875933197626
 40
0.3744837005593568
 40
0.4023317688239968
 40
0.4371113644499154
 40
0.4795885530026774
 40
0.4997904011186911
 40
0.5479907717246939
 40
0.5929884907782013
 40
0.6398024291144516
 40
0.6945156081854151
 40
0.728510232295924
 40
0.7625225324122133
 40
0.7965529092023899
 40
0.8145533850530493
 40
0.833722924435114
 40
0.8540905233807928
 40
0.875680280758058
 40
0.898512354931369
 40
0.9391529675625784
 40
1.0
 40
1.0343752282035
 40
1.06664410493777
 40
1.0968273219162
 10
167.3848407313567
 20
120.1608786920013
 30
0.0
 10
166.9133794985647
 20
120.2117623948758
 30
0.0
 10
166.629457739762
 20
120.2554767577584
 30
0.0
 10
166.5045146941955
 20
120.2752823211453
 30
0.0
 10
166.4729172308675
 20
120.2822687911448
 30
0.0
 10
166.5194063478635
 20
120.2753274787713
 30
0.0
 10
166.6438614282364
 20
120.2525448014966
 30
0.0
 10
166.8782111482449
 20
120.2168734582278
 30
0.0
 10
167.1925043635725
 20
120.1813233714843
 30
0.0
 10
167.6774300454858
 20
120.1365524025201
 30
0.0
 10
168.3493845294682
 20
120.1190669614556
 30
0.0
 10
169.102661872261
 20
120.1643046788701
 30
0.0
 10
169.6691459192711
 20
120.2410363398449
 30
0.0
 10
170.1157394063229
 20
120.3186482608341
 30
0.0
 10
170.4671272290886
 20
120.3934724271971
 30
0.0
 10
170.7870191565169
 20
120.4774298094009
 30
0.0
 10
171.0210886189428
 20
120.5390177090784
 30
0.0
 10
171.1178531004361
 20
120.5704196855085
 30
0.0
 10
171.0123870775495
 20
120.5363983228923
 30
0.0
 10
170.7129535406081
 20
120.4536431388586
 30
0.0
 10
170.3135077181331
 20
120.3638526745773
 30
0.0
 10
169.9127423541424
 20
120.2906994558614
 30
0.0
 10
169.5327936850359
 20
120.2234638793098
 30
0.0
 10
169.2018080014784
 20
120.1757250354006
 30
0.0
 10
168.9267240450225
 20
120.1509518960336
 30
0.0
 10
168.6314893757889
 20
120.1346418843698
 30
0.0
 10
168.3207547949083
 20
120.1278804620571
 30
0.0
 10
167.92422047633
 20
120.1299029806533
 30
0.0
 10
167.3848407313567
 20
120.1608786920013
 30
0.0
 10
166.9133794985647
 20
120.2117623948758
 30
0.0
 10
166.629457739762
 20
120.2554767577584
 30
0.0
  0
LINE
  5
1BC
330
1F
100
AcDbEntity
  8
0
  6
HIDDEN
 62
     7
370
     0
100
AcDbLine
 10
199.8854824408
 20
108.5146927481
 30
0.0
 11
199.8854824408
 21
103.5146928599
 31
0.0
  0
SPLINE
  5
1BD
330
1F
100
AcDbEntity
  8
0
  6
HIDDEN
 62
     7
370
     0
100
AcDbSpline
210
0.0
220
0.0
230
1.0
 70
     8
 71
     3
 72
    36
 73
    32
 74
     0
 42
0.00000001
 43
0.00000001
 12
1.0
 22
0.0
 32
0.0
 13
1.0
 23
0.0
 33
0.0
 40
0.0
 40
0.0
 40
0.0
 40
0.0
 40
0.0625000000000001
 40
0.0625000000000001
 40
0.1250000000000002
 40
0.1250000000000002
 40
0.1875000000000002
 40
0.1875000000000002
 40
0.2500000000000003
 40
0.2500000000000003
 40
0.3125000000000003
 40
0.3125000000000003
 40
0.3750000000000003
 40
0.3750000000000003
 40
0.4375000000000002
 40
0.4375000000000002
 40
0.5000000000000002
 40
0.5000000000000002
 40
0.6250000000000001
 40
0.6250000000000001
 40
0.6875000000000001
 40
0.6875000000000001
 40
0.7500000000000001
 40
0.7500000000000001
 40
0.8125000000000001
 40
0.8125000000000001
 40
0.875
 40
0.875
 40
0.9375
 40
0.9375
 40
1.0
 40
1.0
 40
1.0
 40
1.0
 10
199.8854822381547
 20
108.1106572500352
 30
0.0
 10
199.7366007446419
 20
108.105618968878
 30
0.0
 10
199.5894733472768
 20
108.0956736799024
 30
0.0
 10
199.3005533621654
 20
108.0593694164631
 30
0.0
 10
199.1569338229887
 20
108.0324364494291
 30
0.0
 10
198.8902626756001
 20
107.953359065054
 30
0.0
 10
198.7653136931012
 20
107.9004320502197
 30
0.0
 10
198.5436549137958
 20
107.7636635150635
 30
0.0
 10
198.4485658778602
 20
107.6815529605087
 30
0.0
 10
198.2829309264444
 20
107.4874586752721
 30
0.0
 10
198.2150380225465
 20
107.3787569284457
 30
0.0
 10
198.1011538293918
 20
107.1402900328169
 30
0.0
 10
198.0555587290228
 20
107.0107271549107
 30
0.0
 10
197.9844373092954
 20
106.7410536332069
 30
0.0
 10
197.9581991846377
 20
106.5979855687899
 30
0.0
 10
197.9238453614402
 20
106.3076984391522
 30
0.0
 10
197.9155148187661
 20
106.1608268011996
 30
0.0
 10
197.9158005069236
 20
105.715018095367
 30
0.0
 10
197.9493066751914
 20
105.419250507287
 30
0.0
 10
198.0574729774262
 20
105.0125780977313
 30
0.0
 10
198.1025798526355
 20
104.8856112758369
 30
0.0
 10
198.216161859873
 20
104.6487850462045
 30
0.0
 10
198.2856024247031
 20
104.5384409466972
 30
0.0
 10
198.4489697366566
 20
104.3477216310255
 30
0.0
 10
198.54391334521
 20
104.2654021555214
 30
0.0
 10
198.7673220656713
 20
104.127876462747
 30
0.0
 10
198.8903114184839
 20
104.075978871718
 30
0.0
 10
199.1577464600769
 20
103.9967415075786
 30
0.0
 10
199.3011510204308
 20
103.9699274793789
 30
0.0
 10
199.5895513196575
 20
103.9337157758586
 30
0.0
 10
199.7365807168871
 20
103.9237673169253
 30
0.0
 10
199.8854822381549
 20
103.9187283580112
 30
0.0
  0
LINE
  5
1BE
330
1F
100
AcDbEntity
  8
0
  6
HIDDEN
 62
     7
370
     0
100
AcDbLine
 10
190.5854814752
 20
103.5146928599
 30
0.0
 11
190.5854814752
 21
108.5146927481
 31
0.0
  0
SPLINE
  5
1BF
330
1F
100
AcDbEntity
  8
0
  6
HIDDEN
 62
     7
370
     0
100
AcDbSpline
210
0.0
220
0.0
230
1.0
 70
     8
 71
     3
 72
    40
 73
    36
 74
     0
 42
0.00000001
 43
0.00000001
 12
1.0
 22
0.0
 32
0.0
 13
1.0
 23
0.0
 33
0.0
 40
0.0
 40
0.0
 40
0.0
 40
0.0
 40
0.0625
 40
0.0625
 40
0.125
 40
0.125
 40
0.1875
 40
0.1875
 40
0.25
 40
0.25
 40
0.3125
 40
0.3125
 40
0.375
 40
0.375
 40
0.4375
 40
0.4375
 40
0.46875
 40
0.46875
 40
0.5
 40
0.5
 40
0.5625
 40
0.5625
 40
0.625
 40
0.625
 40
0.6875
 40
0.6875
 40
0.75
 40
0.75
 40
0.8125
 40
0.8125
 40
0.875
 40
0.875
 40
0.9375
 40
0.9375
 40
1.0
 40
1.0
 40
1.0
 40
1.0
 10
199.8854822381547
 20
103.9187283580112
 30
0.0
 10
199.9268487287361
 20
103.9099252853934
 30
0.0
 10
199.9695105952594
 20
103.9154673464209
 30
0.0
 10
200.0588652390889
 20
103.9548752588948
 30
0.0
 10
200.1061109490157
 20
103.98944970975
 30
0.0
 10
200.2028378143098
 20
104.0856825191989
 30
0.0
 10
200.2525287762766
 20
104.1471295609619
 30
0.0
 10
200.3568596959232
 20
104.2978437810317
 30
0.0
 10
200.4112077427138
 20
104.3869911632597
 30
0.0
 10
200.5214347618504
 20
104.5842901631152
 30
0.0
 10
200.5786606769623
 20
104.6947258879599
 30
0.0
 10
200.6949718102099
 20
104.9311374134679
 30
0.0
 10
200.7532812835101
 20
105.0550851153513
 30
0.0
 10
200.8693334262707
 20
105.3138804148218
 30
0.0
 10
200.9274687607127
 20
105.4479721482389
 30
0.0
 10
201.001650734243
 20
105.651925966305
 30
0.0
 10
201.024234964585
 20
105.7207421657872
 30
0.0
 10
201.0583968676156
 20
105.8621175631685
 30
0.0
 10
201.069481546806
 20
105.9358470768389
 30
0.0
 10
201.0711769950724
 20
106.1534540892122
 30
0.0
 10
201.0302519251161
 20
106.297001430395
 30
0.0
 10
200.932045242279
 20
106.5705055369739
 30
0.0
 10
200.8746613729103
 20
106.703226326426
 30
0.0
 10
200.7576071715282
 20
106.9650200201134
 30
0.0
 10
200.6989476913167
 20
107.0898577503783
 30
0.0
 10
200.5836021209101
 20
107.3249019591384
 30
0.0
 10
200.5258037585064
 20
107.4369064400467
 30
0.0
 10
200.4141945187588
 20
107.6373935423177
 30
0.0
 10
200.360584722838
 20
107.7257030153771
 30
0.0
 10
200.2554320408987
 20
107.8784917671922
 30
0.0
 10
200.2046208193086
 20
107.9416656953014
 30
0.0
 10
200.1074205589456
 20
108.03888821689
 30
0.0
 10
200.0600837393446
 20
108.0738055188535
 30
0.0
 10
199.9699364445325
 20
108.1138948601742
 30
0.0
 10
199.9270129020873
 20
108.119495259867
 30
0.0
 10
199.8854822381547
 20
108.1106572500352
 30
0.0
  0
LINE
  5
1C0
330
1F
100
AcDbEntity
  8
0
  6
HIDDEN
 62
     7
370
     0
100
AcDbLine
 10
219.7727696105
 20
88.3387956975
 30
0.0
 11
219.2398295804
 21
89.662236741
 31
0.0
  0
CIRCLE
  5
1C1
330
1F
100
AcDbEntity
  8
0
  6
HIDDEN
 62
     7
370
     0
100
AcDbCircle
 10
214.789687705
 20
104.2346476363
 30
0.0
 40
2.483445107429415
  0
SPLINE
  5
1C2
330
1F
100
AcDbEntity
  8
0
  6
HIDDEN
 62
     7
370
     0
100
AcDbSpline
210
0.0
220
0.0
230
1.0
 70
     8
 71
     3
 72
    64
 73
    60
 74
     0
 42
0.00000001
 43
0.00000001
 12
1.0
 22
0.0
 32
0.0
 13
1.0
 23
0.0
 33
0.0
 40
-0.0312499999999998
 40
-0.0312499999999998
 40
0.0
 40
0.0
 40
0.0312500000000003
 40
0.0312500000000003
 40
0.0625000000000007
 40
0.0625000000000007
 40
0.1250000000000014
 40
0.1250000000000014
 40
0.1875000000000021
 40
0.1875000000000021
 40
0.2187500000000022
 40
0.2187500000000022
 40
0.2500000000000022
 40
0.2500000000000022
 40
0.2812500000000022
 40
0.2812500000000022
 40
0.3125000000000021
 40
0.3125000000000021
 40
0.3437500000000021
 40
0.3437500000000021
 40
0.3750000000000021
 40
0.3750000000000021
 40
0.406250000000002
 40
0.406250000000002
 40
0.4375000000000019
 40
0.4375000000000019
 40
0.4687500000000019
 40
0.4687500000000019
 40
0.5000000000000019
 40
0.5000000000000019
 40
0.5312500000000019
 40
0.5312500000000019
 40
0.5625000000000019
 40
0.5625000000000019
 40
0.5937500000000019
 40
0.5937500000000019
 40
0.6250000000000019
 40
0.6250000000000019
 40
0.656250000000002
 40
0.656250000000002
 40
0.687500000000002
 40
0.687500000000002
 40
0.718750000000002
 40
0.718750000000002
 40
0.750000000000002
 40
0.750000000000002
 40
0.8125000000000016
 40
0.8125000000000016
 40
0.8750000000000011
 40
0.8750000000000011
 40
0.9062500000000009
 40
0.9062500000000009
 40
0.9375000000000006
 40
0.9375000000000006
 40
0.9531250000000003
 40
0.9531250000000003
 40
0.9687500000000002
 40
0.9687500000000002
 40
1.0
 40
1.0
 40
1.03125
 40
1.03125
 10
211.8965241676212
 20
105.8624216867878
 30
0.0
 10
211.9682542104678
 20
106.1669639212586
 30
0.0
 10
212.0125646018307
 20
106.3081620622632
 30
0.0
 10
212.1122642937627
 20
106.575215084238
 30
0.0
 10
212.1679913293317
 20
106.7010362469409
 30
0.0
 10
212.3384084809156
 20
107.0444807627373
 30
0.0
 10
212.4607587431259
 20
107.2386348722898
 30
0.0
 10
212.6907712052284
 20
107.568712614083
 30
0.0
 10
212.8006221796078
 20
107.7060705348643
 30
0.0
 10
212.9298181882188
 20
107.8798628930866
 30
0.0
 10
212.9663399613478
 20
107.931874349936
 30
0.0
 10
213.0122434293851
 20
108.0206606512677
 30
0.0
 10
213.0213491528243
 20
108.0578247460198
 30
0.0
 10
212.9914149944403
 20
108.1071918566914
 30
0.0
 10
212.9503180211518
 20
108.1190309630939
 30
0.0
 10
212.8235156621685
 20
108.1072915491541
 30
0.0
 10
212.7376536304697
 20
108.0836840789174
 30
0.0
 10
212.5539701974592
 20
108.0049553504277
 30
0.0
 10
212.4538329362522
 20
107.9490068388266
 30
0.0
 10
212.2596101819508
 20
107.8105708878375
 30
0.0
 10
212.1645926486392
 20
107.7280268456023
 30
0.0
 10
211.9851785390942
 20
107.5347935542691
 30
0.0
 10
211.9025066464182
 20
107.4256474714922
 30
0.0
 10
211.7589414673164
 20
107.1871776882161
 30
0.0
 10
211.6966575104977
 20
107.0551132732544
 30
0.0
 10
211.6004270177594
 20
106.7768611007895
 30
0.0
 10
211.5663389707852
 20
106.6317698243344
 30
0.0
 10
211.5275149764547
 20
106.3293620401634
 30
0.0
 10
211.5234138714897
 20
106.1730499557114
 30
0.0
 10
211.5450519119238
 20
105.8653683712177
 30
0.0
 10
211.5710808197978
 20
105.7100060556208
 30
0.0
 10
211.6487214131626
 20
105.4114112039135
 30
0.0
 10
211.6999301890565
 20
105.2679417174627
 30
0.0
 10
211.8234574672151
 20
104.9917828782511
 30
0.0
 10
211.8943604865693
 20
104.8625533980638
 30
0.0
 10
212.0463281287482
 20
104.6230767280862
 30
0.0
 10
212.12880610438
 20
104.511195384683
 30
0.0
 10
212.2885156973598
 20
104.3134469398416
 30
0.0
 10
212.3672743208275
 20
104.2256031720833
 30
0.0
 10
212.4961113987583
 20
104.0816400044096
 30
0.0
 10
212.5451064798982
 20
104.0255738349794
 30
0.0
 10
212.5958510272849
 20
103.949297441374
 30
0.0
 10
212.5987068143899
 20
103.928105364305
 30
0.0
 10
212.5754061891655
 20
103.9108377510649
 30
0.0
 10
212.5501990508177
 20
103.9141393975014
 30
0.0
 10
212.4541974792181
 20
103.9509508290328
 30
0.0
 10
212.366937015446
 20
104.0092810632178
 30
0.0
 10
212.1915065551417
 20
104.1888707372448
 30
0.0
 10
212.1007687202108
 20
104.3120972906148
 30
0.0
 10
211.9859063986249
 20
104.5608607412791
 30
0.0
 10
211.9506222961901
 20
104.656036100972
 30
0.0
 10
211.8936190050787
 20
104.870212859925
 30
0.0
 10
211.8714152161822
 20
104.9910859823915
 30
0.0
 10
211.8538926190138
 20
105.1914797955203
 30
0.0
 10
211.850713399558
 20
105.2608075686639
 30
0.0
 10
211.8503758802757
 20
105.4050946322557
 30
0.0
 10
211.8533223030995
 20
105.4808047132805
 30
0.0
 10
211.8716216243419
 20
105.7078201611158
 30
0.0
 10
211.8965241676212
 20
105.8624216867878
 30
0.0
 10
211.9682542104678
 20
106.1669639212586
 30
0.0
  0
SPLINE
  5
1C3
330
1F
100
AcDbEntity
  8
0
  6
HIDDEN
 62
     7
370
     0
100
AcDbSpline
210
0.0
220
0.0
230
1.0
 70
     8
 71
     3
 72
    64
 73
    60
 74
     0
 42
0.00000001
 43
0.00000001
 12
1.0
 22
0.0
 32
0.0
 13
1.0
 23
0.0
 33
0.0
 40
-0.0312499999999998
 40
-0.0312499999999998
 40
0.0
 40
0.0
 40
0.0312500000000003
 40
0.0312500000000003
 40
0.0625000000000007
 40
0.0625000000000007
 40
0.1250000000000014
 40
0.1250000000000014
 40
0.1875000000000021
 40
0.1875000000000021
 40
0.2187500000000022
 40
0.2187500000000022
 40
0.2500000000000022
 40
0.2500000000000022
 40
0.2812500000000022
 40
0.2812500000000022
 40
0.3125000000000021
 40
0.3125000000000021
 40
0.3437500000000021
 40
0.3437500000000021
 40
0.3750000000000021
 40
0.3750000000000021
 40
0.406250000000002
 40
0.406250000000002
 40
0.4375000000000019
 40
0.4375000000000019
 40
0.4687500000000019
 40
0.4687500000000019
 40
0.5000000000000019
 40
0.5000000000000019
 40
0.5312500000000019
 40
0.5312500000000019
 40
0.5625000000000019
 40
0.5625000000000019
 40
0.5937500000000019
 40
0.5937500000000019
 40
0.6250000000000019
 40
0.6250000000000019
 40
0.656250000000002
 40
0.656250000000002
 40
0.687500000000002
 40
0.687500000000002
 40
0.718750000000002
 40
0.718750000000002
 40
0.750000000000002
 40
0.750000000000002
 40
0.8125000000000016
 40
0.8125000000000016
 40
0.8750000000000011
 40
0.8750000000000011
 40
0.9062500000000009
 40
0.9062500000000009
 40
0.9375000000000006
 40
0.9375000000000006
 40
0.9531250000000003
 40
0.9531250000000003
 40
0.9687500000000002
 40
0.9687500000000002
 40
1.0
 40
1.0
 40
1.03125
 40
1.03125
 10
211.8965241676212
 20
105.8624216867878
 30
0.0
 10
211.9682542104678
 20
106.1669639212586
 30
0.0
 10
212.0125646018307
 20
106.3081620622632
 30
0.0
 10
212.1122642937627
 20
106.575215084238
 30
0.0
 10
212.1679913293317
 20
106.7010362469409
 30
0.0
 10
212.3384084809156
 20
107.0444807627373
 30
0.0
 10
212.4607587431259
 20
107.2386348722898
 30
0.0
 10
212.6907712052284
 20
107.568712614083
 30
0.0
 10
212.8006221796078
 20
107.7060705348643
 30
0.0
 10
212.9298181882188
 20
107.8798628930866
 30
0.0
 10
212.9663399613478
 20
107.931874349936
 30
0.0
 10
213.0122434293851
 20
108.0206606512677
 30
0.0
 10
213.0213491528243
 20
108.0578247460198
 30
0.0
 10
212.9914149944403
 20
108.1071918566914
 30
0.0
 10
212.9503180211518
 20
108.1190309630939
 30
0.0
 10
212.8235156621685
 20
108.1072915491541
 30
0.0
 10
212.7376536304697
 20
108.0836840789174
 30
0.0
 10
212.5539701974592
 20
108.0049553504277
 30
0.0
 10
212.4538329362522
 20
107.9490068388266
 30
0.0
 10
212.2596101819508
 20
107.8105708878375
 30
0.0
 10
212.1645926486392
 20
107.7280268456023
 30
0.0
 10
211.9851785390942
 20
107.5347935542691
 30
0.0
 10
211.9025066464182
 20
107.4256474714922
 30
0.0
 10
211.7589414673164
 20
107.1871776882161
 30
0.0
 10
211.6966575104977
 20
107.0551132732544
 30
0.0
 10
211.6004270177594
 20
106.7768611007895
 30
0.0
 10
211.5663389707852
 20
106.6317698243344
 30
0.0
 10
211.5275149764547
 20
106.3293620401634
 30
0.0
 10
211.5234138714897
 20
106.1730499557114
 30
0.0
 10
211.5450519119238
 20
105.8653683712177
 30
0.0
 10
211.5710808197978
 20
105.7100060556208
 30
0.0
 10
211.6487214131626
 20
105.4114112039135
 30
0.0
 10
211.6999301890565
 20
105.2679417174627
 30
0.0
 10
211.8234574672151
 20
104.9917828782511
 30
0.0
 10
211.8943604865693
 20
104.8625533980638
 30
0.0
 10
212.0463281287482
 20
104.6230767280862
 30
0.0
 10
212.12880610438
 20
104.511195384683
 30
0.0
 10
212.2885156973598
 20
104.3134469398416
 30
0.0
 10
212.3672743208275
 20
104.2256031720833
 30
0.0
 10
212.4961113987583
 20
104.0816400044096
 30
0.0
 10
212.5451064798982
 20
104.0255738349794
 30
0.0
 10
212.5958510272849
 20
103.949297441374
 30
0.0
 10
212.5987068143899
 20
103.928105364305
 30
0.0
 10
212.5754061891655
 20
103.9108377510649
 30
0.0
 10
212.5501990508177
 20
103.9141393975014
 30
0.0
 10
212.4541974792181
 20
103.9509508290328
 30
0.0
 10
212.366937015446
 20
104.0092810632178
 30
0.0
 10
212.1915065551417
 20
104.1888707372448
 30
0.0
 10
212.1007687202108
 20
104.3120972906148
 30
0.0
 10
211.9859063986249
 20
104.5608607412791
 30
0.0
 10
211.9506222961901
 20
104.656036100972
 30
0.0
 10
211.8936190050787
 20
104.870212859925
 30
0.0
 10
211.8714152161822
 20
104.9910859823915
 30
0.0
 10
211.8538926190138
 20
105.1914797955203
 30
0.0
 10
211.850713399558
 20
105.2608075686639
 30
0.0
 10
211.8503758802757
 20
105.4050946322557
 30
0.0
 10
211.8533223030995
 20
105.4808047132805
 30
0.0
 10
211.8716216243419
 20
105.7078201611158
 30
0.0
 10
211.8965241676212
 20
105.8624216867878
 30
0.0
 10
211.9682542104678
 20
106.1669639212586
 30
0.0
  0
CIRCLE
  5
1C4
330
1F
100
AcDbEntity
  8
0
  6
HIDDEN
 62
     7
370
     0
100
AcDbCircle
 10
213.7684887748
 20
106.7705749583
 30
0.0
 40
2.483445087290651
  0
SPLINE
  5
1C5
330
1F
100
AcDbEntity
  8
0
  6
HIDDEN
 62
     7
370
     0
100
AcDbSpline
210
0.0
220
0.0
230
1.0
 70
     8
 71
     3
 72
    62
 73
    58
 74
     0
 42
0.00000001
 43
0.00000001
 12
1.0
 22
0.0
 32
0.0
 13
1.0
 23
0.0
 33
0.0
 40
-0.0312499999999999
 40
-0.0312499999999999
 40
0.0
 40
0.0
 40
0.03125
 40
0.03125
 40
0.0625
 40
0.0625
 40
0.0937500000000001
 40
0.0937500000000001
 40
0.1250000000000001
 40
0.1250000000000001
 40
0.1562500000000001
 40
0.1562500000000001
 40
0.1875000000000001
 40
0.1875000000000001
 40
0.2187500000000001
 40
0.2187500000000001
 40
0.2500000000000001
 40
0.2500000000000001
 40
0.2812500000000001
 40
0.2812500000000001
 40
0.3125000000000001
 40
0.3125000000000001
 40
0.3749999999999998
 40
0.3749999999999998
 40
0.4062499999999997
 40
0.4062499999999997
 40
0.4374999999999995
 40
0.4374999999999995
 40
0.4999999999999997
 40
0.4999999999999997
 40
0.5312499999999996
 40
0.5312499999999996
 40
0.5624999999999994
 40
0.5624999999999994
 40
0.5937499999999994
 40
0.5937499999999994
 40
0.6249999999999993
 40
0.6249999999999993
 40
0.6562499999999992
 40
0.6562499999999992
 40
0.6874999999999991
 40
0.6874999999999991
 40
0.749999999999999
 40
0.749999999999999
 40
0.7812499999999993
 40
0.7812499999999993
 40
0.8124999999999996
 40
0.8124999999999996
 40
0.8437499999999998
 40
0.8437499999999998
 40
0.875
 40
0.875
 40
0.9375000000000001
 40
0.9375000000000001
 40
0.9687500000000001
 40
0.9687500000000001
 40
1.0
 40
1.0
 40
1.03125
 40
1.03125
 10
216.6539351424229
 20
106.1708243809733
 30
0.0
 10
216.6779256111431
 20
105.8585612270732
 30
0.0
 10
216.6746698929252
 20
105.7049702425515
 30
0.0
 10
216.6379650483144
 20
105.4027399512199
 30
0.0
 10
216.6038420016243
 20
105.2535156090162
 30
0.0
 10
216.5093901391786
 20
104.9756931224282
 30
0.0
 10
216.4481936862949
 20
104.843763701741
 30
0.0
 10
216.3044583892133
 20
104.6023827601935
 30
0.0
 10
216.222993586723
 20
104.4940773808967
 30
0.0
 10
216.04512970355
 20
104.3007786843102
 30
0.0
 10
215.9492258766722
 20
104.216827557898
 30
0.0
 10
215.7568593647126
 20
104.0788081011191
 30
0.0
 10
215.658144418027
 20
104.0232197052381
 30
0.0
 10
215.4754633729869
 20
103.9445073863921
 30
0.0
 10
215.3915503750309
 20
103.9214779701188
 30
0.0
 10
215.2666819232511
 20
103.9105362705754
 30
0.0
 10
215.2274701153274
 20
103.9225609307105
 30
0.0
 10
215.1985103269584
 20
103.9728782559627
 30
0.0
 10
215.2076015814865
 20
104.0096619431467
 30
0.0
 10
215.2534153848119
 20
104.0995596280323
 30
0.0
 10
215.2892671940633
 20
104.151389241941
 30
0.0
 10
215.4161527381856
 20
104.324924216959
 30
0.0
 10
215.5270464877539
 20
104.465851771432
 30
0.0
 10
215.698181926688
 20
104.7153455577608
 30
0.0
 10
215.7565067323529
 20
104.805101490409
 30
0.0
 10
215.8734417072703
 20
105.0015386546472
 30
0.0
 10
215.9324277147489
 20
105.1089713635609
 30
0.0
 10
216.1013676454961
 20
105.4560610733969
 30
0.0
 10
216.2072136154886
 20
105.7280165058536
 30
0.0
 10
216.3098321112311
 20
106.1831936417049
 30
0.0
 10
216.3333736245858
 20
106.3388071083397
 30
0.0
 10
216.3545084730646
 20
106.6422293228506
 30
0.0
 10
216.3519065696758
 20
106.7879204395243
 30
0.0
 10
216.3256214148175
 20
107.0524420199253
 30
0.0
 10
216.3023399909965
 20
107.1714453322795
 30
0.0
 10
216.2428060836591
 20
107.3846005589646
 30
0.0
 10
216.2072708904406
 20
107.4768149551039
 30
0.0
 10
216.1292413559247
 20
107.6407036822281
 30
0.0
 10
216.0863803177808
 20
107.7125712729759
 30
0.0
 10
215.998960922352
 20
107.8362536189542
 30
0.0
 10
215.9542080726823
 20
107.8885417165675
 30
0.0
 10
215.8212753393543
 20
108.0214804488443
 30
0.0
 10
215.7318507281502
 20
108.0797501709013
 30
0.0
 10
215.6352334582566
 20
108.1153940314456
 30
0.0
 10
215.6093754396163
 20
108.1185163284032
 30
0.0
 10
215.586024951135
 20
108.1005787083619
 30
0.0
 10
215.5890799737445
 20
108.0793435062833
 30
0.0
 10
215.641480714874
 20
108.0021393663347
 30
0.0
 10
215.6914566083794
 20
107.9459959843653
 30
0.0
 10
215.8225712434105
 20
107.8016561250121
 30
0.0
 10
215.9026165710025
 20
107.7135217553923
 30
0.0
 10
216.1445977658941
 20
107.4174734297312
 30
0.0
 10
216.3098621050033
 20
107.1734379754631
 30
0.0
 10
216.4956145935031
 20
106.7642682898674
 30
0.0
 10
216.5486047533839
 20
106.6184129458872
 30
0.0
 10
216.6273726868311
 20
106.3220241540742
 30
0.0
 10
216.6539351424229
 20
106.1708243809733
 30
0.0
 10
216.6779256111431
 20
105.8585612270732
 30
0.0
  0
LINE
  5
1C6
330
1F
100
AcDbEntity
  8
0
  6
HIDDEN
 62
     7
370
     0
100
AcDbLine
 10
182.7354827031
 20
89.1146935729
 30
0.0
 11
187.2354825094
 21
89.1146935729
 31
0.0
  0
CIRCLE
  5
1C7
330
1F
100
AcDbEntity
  8
0
  6
HIDDEN
 62
     7
370
     0
100
AcDbCircle
 10
223.7317479423
 20
94.1252177935
 30
0.0
 40
2.38410696039405
  0
LINE
  5
1C8
330
1F
100
AcDbEntity
  8
0
  6
HIDDEN
 62
     7
370
     0
100
AcDbLine
 10
228.4093299016
 20
81.4736928997
 30
0.0
 11
228.690306197
 21
81.5808136223
 31
0.0
  0
LINE
  5
1C9
330
1F
100
AcDbEntity
  8
0
  6
HIDDEN
 62
     7
370
     0
100
AcDbLine
 10
228.4093299016
 20
81.4736928997
 30
0.0
 11
223.8974929853
 21
87.1199514924
 31
0.0
  0
ARC
  5
1CA
330
1F
100
AcDbEntity
  8
0
  6
HIDDEN
 62
     7
370
     0
100
AcDbCircle
 10
218.5423051852
 20
82.8304923689
 30
0.0
 40
6.861304245274021
100
AcDbArc
 50
38.6944258767
 51
68.7272807883
  0
LINE
  5
1CB
330
1F
100
AcDbEntity
  8
0
  6
HIDDEN
 62
     7
370
     0
100
AcDbLine
 10
219.7059900566
 20
89.5959452001
 30
0.0
 11
219.2398295804
 21
89.662236741
 31
0.0
  0
LINE
  5
1CC
330
1F
100
AcDbEntity
  8
0
  6
HIDDEN
 62
     7
370
     0
100
AcDbLine
 10
227.8949306413
 20
96.5537537096
 30
0.0
 11
222.7285229667
 21
103.0191624278
 31
0.0
  0
LINE
  5
1CD
330
1F
100
AcDbEntity
  8
0
  6
HIDDEN
 62
     7
370
     0
100
AcDbLine
 10
227.8949306413
 20
96.5537537096
 30
0.0
 11
228.690306197
 21
81.5808136223
 31
0.0
  0
LINE
  5
1CE
330
1F
100
AcDbEntity
  8
0
  6
HIDDEN
 62
     7
370
     0
100
AcDbLine
 10
218.2263643547
 20
108.740726134
 30
0.0
 11
219.2398295804
 21
89.662236741
 31
0.0
  0
LINE
  5
1CF
330
1F
100
AcDbEntity
  8
0
  6
HIDDEN
 62
     7
370
     0
100
AcDbLine
 10
160.9854823976
 20
95.0146928636
 30
0.0
 11
160.9854823976
 21
92.411116345
 31
0.0
  0
LINE
  5
1D0
330
1F
100
AcDbEntity
  8
0
  6
HIDDEN
 62
     7
370
     0
100
AcDbLine
 10
158.4854819878
 20
117.0146927444
 30
0.0
 11
158.4854819878
 21
119.5722172243
 31
0.0
  0
LINE
  5
1D1
330
1F
100
AcDbEntity
  8
0
  6
HIDDEN
 62
     7
370
     0
100
AcDbLine
 10
191.825481604
 20
123.4172970263
 30
0.0
 11
191.825481604
 21
88.9018137215
 31
0.0
  0
SPLINE
  5
1D2
330
1F
100
AcDbEntity
  8
0
  6
HIDDEN
 62
     7
370
     0
100
AcDbSpline
210
0.0
220
0.0
230
1.0
 70
     8
 71
     3
 72
    10
 73
     6
 74
     0
 42
0.00000001
 43
0.00000001
 12
1.0
 22
0.0
 32
0.0
 13
1.0
 23
0.0
 33
0.0
 40
0.0
 40
0.0
 40
0.0
 40
0.0
 40
0.5
 40
0.5
 40
1.0
 40
1.0
 40
1.0
 40
1.0
 10
191.5771378524048
 20
122.9146928040232
 30
0.0
 10
191.6545658569534
 20
122.9726521104103
 30
0.0
 10
191.7177454738399
 20
123.0496367655283
 30
0.0
 10
191.8030406531011
 20
123.2232068984008
 30
0.0
 10
191.8254822381547
 20
123.3201081608825
 30
0.0
 10
191.8254822381547
 20
123.4172967758431
 30
0.0
  0
SPLINE
  5
1D3
330
1F
100
AcDbEntity
  8
0
  6
HIDDEN
 62
     7
370
     0
100
AcDbSpline
210
0.0
220
0.0
230
1.0
 70
     8
 71
     3
 72
    10
 73
     6
 74
     0
 42
0.00000001
 43
0.00000001
 12
1.0
 22
0.0
 32
0.0
 13
1.0
 23
0.0
 33
0.0
 40
0.0
 40
0.0
 40
0.0
 40
0.0
 40
0.5
 40
0.5
 40
1.0
 40
1.0
 40
1.0
 40
1.0
 10
191.7902598375734
 20
89.11469280402324
 30
0.0
 10
191.8019719545365
 20
89.08034946682925
 30
0.0
 10
191.8107700244086
 20
89.04525692909102
 30
0.0
 10
191.8225835821807
 20
88.9735851537003
 30
0.0
 10
191.8254822381547
 20
88.93764149933503
 30
0.0
 10
191.8254822381547
 20
88.90181388199493
 30
0.0
  0
SPLINE
  5
1D4
330
1F
100
AcDbEntity
  8
0
  6
HIDDEN
 62
     7
370
     0
100
AcDbSpline
210
0.0
220
0.0
230
1.0
 70
    24
 71
     3
 72
    14
 73
    10
 74
     0
 42
0.00000001
 43
0.00000001
 12
1.0
 22
0.0
 32
0.0
 13
1.0
 23
0.0
 33
0.0
 40
0.0
 40
0.0
 40
0.0
 40
0.0
 40
0.1249999999999989
 40
0.1249999999999989
 40
0.2499999999999978
 40
0.2499999999999978
 40
0.4999999999999957
 40
0.4999999999999957
 40
1.0
 40
1.0
 40
1.0
 40
1.0
 10
191.2254822381548
 20
122.9146928040232
 30
0.0
 10
191.2509234692392
 20
122.9146928040232
 30
0.0
 10
191.2765377718666
 20
122.9146928040232
 30
0.0
 10
191.3220142123938
 20
122.9146928040232
 30
0.0
 10
191.3420174141332
 20
122.9146928040232
 30
0.0
 10
191.397162606106
 20
122.9146928040232
 30
0.0
 10
191.4265968246282
 20
122.9146928040232
 30
0.0
 10
191.5045098372069
 20
122.9146928040232
 30
0.0
 10
191.5430859377275
 20
122.9146928040232
 30
0.0
 10
191.5771378524055
 20
122.9146928040232
 30
0.0
  0
SPLINE
  5
1D5
330
1F
100
AcDbEntity
  8
0
  6
HIDDEN
 62
     7
370
     0
100
AcDbSpline
210
0.0
220
0.0
230
1.0
 70
    24
 71
     3
 72
    16
 73
    12
 74
     0
 42
0.00000001
 43
0.00000001
 12
1.0
 22
0.0
 32
0.0
 13
1.0
 23
0.0
 33
0.0
 40
0.0
 40
0.0
 40
0.0
 40
0.0
 40
0.0624999999999983
 40
0.0624999999999983
 40
0.1249999999999966
 40
0.1249999999999966
 40
0.2499999999999971
 40
0.2499999999999971
 40
0.4999999999999982
 40
0.4999999999999982
 40
1.0
 40
1.0
 40
1.0
 40
1.0
 10
191.2254822381547
 20
89.11469280402324
 30
0.0
 10
191.2597700616148
 20
89.11469280402322
 30
0.0
 10
191.2936539709364
 20
89.11469280402324
 30
0.0
 10
191.3499901637532
 20
89.11469280402324
 30
0.0
 10
191.3742520199202
 20
89.11469280402324
 30
0.0
 10
191.4385451379673
 20
89.11469280402322
 30
0.0
 10
191.472108927394
 20
89.11469280402324
 30
0.0
 10
191.5600252996166
 20
89.11469280402324
 30
0.0
 10
191.6027818423332
 20
89.11469280402324
 30
0.0
 10
191.7133265839834
 20
89.11469280402324
 30
0.0
 10
191.7603059977456
 20
89.11469280402324
 30
0.0
 10
191.7902598375734
 20
89.11469280402324
 30
0.0
  0
SPLINE
  5
1D6
330
1F
100
AcDbEntity
  8
0
  6
HIDDEN
 62
     7
370
     0
100
AcDbSpline
210
0.0
220
0.0
230
1.0
 70
     8
 71
     3
 72
    10
 73
     6
 74
     0
 42
0.00000001
 43
0.00000001
 12
1.0
 22
0.0
 32
0.0
 13
1.0
 23
0.0
 33
0.0
 40
0.0
 40
0.0
 40
0.0
 40
0.0
 40
0.5
 40
0.5
 40
1.0
 40
1.0
 40
1.0
 40
1.0
 10
189.7454822381548
 20
123.4172967758431
 30
0.0
 10
189.7454822381548
 20
123.3203617106114
 30
0.0
 10
189.7679318740002
 20
123.2233024318722
 30
0.0
 10
189.8529275322683
 20
123.0501183444652
 30
0.0
 10
189.9157836161987
 20
122.9731124755797
 30
0.0
 10
189.9938266239047
 20
122.9146928040232
 30
0.0
  0
LINE
  5
1D7
330
1F
100
AcDbEntity
  8
0
  6
HIDDEN
 62
     7
370
     0
100
AcDbLine
 10
189.7454825296
 20
123.4172970263
 30
0.0
 11
189.7454825296
 21
88.9018137215
 31
0.0
  0
SPLINE
  5
1D8
330
1F
100
AcDbEntity
  8
0
  6
HIDDEN
 62
     7
370
     0
100
AcDbSpline
210
0.0
220
0.0
230
1.0
 70
     8
 71
     3
 72
    10
 73
     6
 74
     0
 42
0.00000001
 43
0.00000001
 12
1.0
 22
0.0
 32
0.0
 13
1.0
 23
0.0
 33
0.0
 40
0.0
 40
0.0
 40
0.0
 40
0.0
 40
0.5
 40
0.5
 40
1.0
 40
1.0
 40
1.0
 40
1.0
 10
189.7454822381548
 20
88.90181388199493
 30
0.0
 10
189.7454822381548
 20
88.93803637143569
 30
0.0
 10
189.7484519674522
 20
88.97422956869424
 30
0.0
 10
189.7603309498001
 20
89.04586806010911
 30
0.0
 10
189.7691261776408
 20
89.08074138475082
 30
0.0
 10
189.7807046387361
 20
89.11469280402324
 30
0.0
  0
SPLINE
  5
1D9
330
1F
100
AcDbEntity
  8
0
  6
HIDDEN
 62
     7
370
     0
100
AcDbSpline
210
0.0
220
0.0
230
1.0
 70
    24
 71
     3
 72
    12
 73
     8
 74
     0
 42
0.00000001
 43
0.00000001
 12
1.0
 22
0.0
 32
0.0
 13
1.0
 23
0.0
 33
0.0
 40
0.0
 40
0.0
 40
0.0
 40
0.0
 40
0.4999999999999997
 40
0.4999999999999997
 40
0.7499999999999998
 40
0.7499999999999998
 40
1.0
 40
1.0
 40
1.0
 40
1.0
 10
189.9938266239047
 20
122.9146928040232
 30
0.0
 10
190.0277779493805
 20
122.9146928040232
 30
0.0
 10
190.0665238075827
 20
122.9146928040232
 30
0.0
 10
190.1447191545905
 20
122.9146928040232
 30
0.0
 10
190.1742278462752
 20
122.9146928040232
 30
0.0
 10
190.2471030076809
 20
122.9146928040232
 30
0.0
 10
190.2938996418152
 20
122.9146928040232
 30
0.0
 10
190.3454822381547
 20
122.9146928040232
 30
0.0
  0
SPLINE
  5
1DA
330
1F
100
AcDbEntity
  8
0
  6
HIDDEN
 62
     7
370
     0
100
AcDbSpline
210
0.0
220
0.0
230
1.0
 70
    24
 71
     3
 72
    16
 73
    12
 74
     0
 42
0.00000001
 43
0.00000001
 12
1.0
 22
0.0
 32
0.0
 13
1.0
 23
0.0
 33
0.0
 40
0.0
 40
0.0
 40
0.0
 40
0.0
 40
0.5000000000000011
 40
0.5000000000000011
 40
0.7500000000000012
 40
0.7500000000000012
 40
0.8750000000000006
 40
0.8750000000000006
 40
0.9375000000000003
 40
0.9375000000000003
 40
1.0
 40
1.0
 40
1.0
 40
1.0
 10
189.7807046387361
 20
89.11469280402324
 30
0.0
 10
189.8104820444263
 20
89.11469280402322
 30
0.0
 10
189.8574552902901
 20
89.11469280402324
 30
0.0
 10
189.9677727496453
 20
89.11469280402324
 30
0.0
 10
190.0109172201068
 20
89.11469280402322
 30
0.0
 10
190.0995790197767
 20
89.11469280402322
 30
0.0
 10
190.1326302269062
 20
89.11469280402322
 30
0.0
 10
190.1969758113919
 20
89.11469280402324
 30
0.0
 10
190.2211209248255
 20
89.11469280402324
 30
0.0
 10
190.2777398454509
 20
89.11469280402324
 30
0.0
 10
190.3113423923292
 20
89.11469280402324
 30
0.0
 10
190.3454822381549
 20
89.11469280402324
 30
0.0
  0
LINE
  5
1DB
330
1F
100
AcDbEntity
  8
0
  6
HIDDEN
 62
     7
370
     0
100
AcDbLine
 10
155.8354818328
 20
117.0146927444
 30
0.0
 11
155.8354818328
 21
118.8874334304
 31
0.0
  0
LINE
  5
1DC
330
1F
100
AcDbEntity
  8
0
  6
HIDDEN
 62
     7
370
     0
100
AcDbLine
 10
155.8354818328
 20
95.0146928636
 30
0.0
 11
155.8354818328
 21
93.199606633
 31
0.0
  0
LINE
  5
1DD
330
1F
100
AcDbEntity
  8
0
  6
HIDDEN
 62
     7
370
     0
100
AcDbLine
 10
154.8854825153
 20
117.0146927444
 30
0.0
 11
154.8854825153
 21
117.9391654415
 31
0.0
  0
LINE
  5
1DE
330
1F
100
AcDbEntity
  8
0
  6
HIDDEN
 62
     7
370
     0
100
AcDbLine
 10
154.8854825153
 20
95.0146928636
 30
0.0
 11
154.8854825153
 21
94.1488692744
 31
0.0
  0
LINE
  5
1DF
330
1F
100
AcDbEntity
  8
0
  6
HIDDEN
 62
     7
370
     0
100
AcDbLine
 10
154.8854825153
 20
115.879699236
 30
0.0
 11
154.8854825153
 21
96.1496863721
 31
0.0
  0
LINE
  5
1E0
330
1F
100
AcDbEntity
  8
0
  6
HIDDEN
 62
     7
370
     0
100
AcDbLine
 10
190.3454824417
 20
122.9146920351
 30
0.0
 11
191.2254826232
 21
122.9146920351
 31
0.0
  0
LINE
  5
1E1
330
1F
100
AcDbEntity
  8
0
  6
HIDDEN
 62
     7
370
     0
100
AcDbLine
 10
190.3454824417
 20
89.1146935729
 30
0.0
 11
191.2254826232
 21
89.1146935729
 31
0.0
  0
SPLINE
  5
1E2
330
1F
100
AcDbEntity
  8
0
  6
HIDDEN
 62
     7
370
     0
100
AcDbSpline
210
0.0
220
0.0
230
1.0
 70
     8
 71
     3
 72
     8
 73
     4
 74
     0
 42
0.00000001
 43
0.00000001
 12
1.0
 22
0.0
 32
0.0
 13
1.0
 23
0.0
 33
0.0
 40
0.0
 40
0.0
 40
0.0
 40
0.0
 40
1.0
 40
1.0
 40
1.0
 40
1.0
 10
188.7503225392613
 20
125.5018680739283
 30
0.0
 10
189.082680635651
 20
124.9110578602563
 30
0.0
 10
189.4144619071351
 20
124.3199251960111
 30
0.0
 10
189.7454822381548
 20
123.7283694995534
 30
0.0
  0
SPLINE
  5
1E3
330
1F
100
AcDbEntity
  8
0
  6
HIDDEN
 62
     7
370
     0
100
AcDbSpline
210
0.0
220
0.0
230
1.0
 70
     8
 71
     3
 72
     8
 73
     4
 74
     0
 42
0.00000001
 43
0.00000001
 12
1.0
 22
0.0
 32
0.0
 13
1.0
 23
0.0
 33
0.0
 40
0.0
 40
0.0
 40
0.0
 40
0.0
 40
1.0
 40
1.0
 40
1.0
 40
1.0
 10
191.8254822381547
 20
123.7283694995535
 30
0.0
 10
192.1565025691744
 20
124.3199251960112
 30
0.0
 10
192.4882838406585
 20
124.9110578602563
 30
0.0
 10
192.8206419370482
 20
125.5018680739283
 30
0.0
  0
SPLINE
  5
1E4
330
1F
100
AcDbEntity
  8
0
  6
HIDDEN
 62
     7
370
     0
100
AcDbSpline
210
0.0
220
0.0
230
1.0
 70
     8
 71
     3
 72
    10
 73
     6
 74
     0
 42
0.00000001
 43
0.00000001
 12
1.0
 22
0.0
 32
0.0
 13
1.0
 23
0.0
 33
0.0
 40
0.0
 40
0.0
 40
0.0
 40
0.0
 40
0.5
 40
0.5
 40
1.0
 40
1.0
 40
1.0
 40
1.0
 10
194.1354822381547
 20
125.5018680739283
 30
0.0
 10
194.2959044627542
 20
125.5018680739283
 30
0.0
 10
194.4523872634215
 20
125.4332826714225
 30
0.0
 10
194.6730408739888
 20
125.2035094021028
 30
0.0
 10
194.7354822381548
 20
125.0450112004352
 30
0.0
 10
194.7354822381548
 20
124.8855698371661
 30
0.0
  0
LINE
  5
1E5
330
1F
100
AcDbEntity
  8
0
  6
HIDDEN
 62
     7
370
     0
100
AcDbLine
 10
192.8206426158
 20
125.5018688945
 30
0.0
 11
194.135481964
 21
125.5018688945
 31
0.0
  0
LINE
  5
1E6
330
1F
100
AcDbEntity
  8
0
  6
HIDDEN
 62
     7
370
     0
100
AcDbLine
 10
194.7354828074
 20
124.885569906
 30
0.0
 11
194.7354828074
 21
87.4106601087
 31
0.0
  0
SPLINE
  5
1E7
330
1F
100
AcDbEntity
  8
0
  6
HIDDEN
 62
     7
370
     0
100
AcDbSpline
210
0.0
220
0.0
230
1.0
 70
     8
 71
     3
 72
    12
 73
     8
 74
     0
 42
0.00000001
 43
0.00000001
 12
1.0
 22
0.0
 32
0.0
 13
1.0
 23
0.0
 33
0.0
 40
0.0
 40
0.0
 40
0.0
 40
0.0
 40
0.2499999999999962
 40
0.2499999999999962
 40
0.4999999999999925
 40
0.4999999999999925
 40
1.0
 40
1.0
 40
1.0
 40
1.0
 10
194.1354822381547
 20
86.78580828099382
 30
0.0
 10
194.215247718625
 20
86.78580828099382
 30
0.0
 10
194.2956690022821
 20
86.80278387735191
 30
0.0
 10
194.4423509189446
 20
86.86725937481111
 30
0.0
 10
194.5087047285085
 20
86.91437300660571
 30
0.0
 10
194.6749088092351
 20
87.09098292059319
 30
0.0
 10
194.7354822381547
 20
87.25083179640136
 30
0.0
 10
194.7354822381548
 20
87.41066098293639
 30
0.0
  0
LINE
  5
1E8
330
1F
100
AcDbEntity
  8
0
  6
HIDDEN
 62
     7
370
     0
100
AcDbLine
 10
192.8206426158
 20
125.5018688945
 30
0.0
 11
192.8206426158
 21
86.7858078537
 31
0.0
  0
LINE
  5
1E9
330
1F
100
AcDbEntity
  8
0
  6
HIDDEN
 62
     7
370
     0
100
AcDbLine
 10
189.7454825296
 20
123.7283699421
 30
0.0
 11
189.7454825296
 21
88.5855701027
 31
0.0
  0
LINE
  5
1EA
330
1F
100
AcDbEntity
  8
0
  6
HIDDEN
 62
     7
370
     0
100
AcDbLine
 10
191.825481604
 20
123.7283699421
 30
0.0
 11
191.825481604
 21
88.5855701027
 31
0.0
  0
CIRCLE
  5
1EB
330
1F
100
AcDbEntity
  8
0
  6
HIDDEN
 62
     7
370
     0
100
AcDbCircle
 10
223.6889414243
 20
94.2470300603
 30
0.0
 40
1.637334693694008
  0
CIRCLE
  5
1EC
330
1F
100
AcDbEntity
  8
0
  6
HIDDEN
 62
     7
370
     0
100
AcDbCircle
 10
222.9739388742
 20
96.0225870421
 30
0.0
 40
1.637333570854002
  0
SPLINE
  5
1ED
330
1F
100
AcDbEntity
  8
0
  6
HIDDEN
 62
     7
370
     0
100
AcDbSpline
210
0.0
220
0.0
230
1.0
 70
     8
 71
     3
 72
     8
 73
     4
 74
     0
 42
0.00000001
 43
0.00000001
 12
1.0
 22
0.0
 32
0.0
 13
1.0
 23
0.0
 33
0.0
 40
0.0
 40
0.0
 40
0.0
 40
0.0
 40
1.0
 40
1.0
 40
1.0
 40
1.0
 10
188.7503225392613
 20
86.78580828099382
 30
0.0
 10
189.0830278109667
 20
87.38517995421748
 30
0.0
 10
189.4148436115402
 20
87.98504906492252
 30
0.0
 10
189.7454822381548
 20
88.58556941603352
 30
0.0
  0
SPLINE
  5
1EE
330
1F
100
AcDbEntity
  8
0
  6
HIDDEN
 62
     7
370
     0
100
AcDbSpline
210
0.0
220
0.0
230
1.0
 70
     8
 71
     3
 72
     8
 73
     4
 74
     0
 42
0.00000001
 43
0.00000001
 12
1.0
 22
0.0
 32
0.0
 13
1.0
 23
0.0
 33
0.0
 40
0.0
 40
0.0
 40
0.0
 40
0.0
 40
1.0
 40
1.0
 40
1.0
 40
1.0
 10
191.8254822381547
 20
88.58556941603351
 30
0.0
 10
192.1561208647693
 20
87.9850490649225
 30
0.0
 10
192.4879366653429
 20
87.38517995421748
 30
0.0
 10
192.8206419370482
 20
86.78580828099382
 30
0.0
  0
LINE
  5
1EF
330
1F
100
AcDbEntity
  8
0
  6
HIDDEN
 62
     7
370
     0
100
AcDbLine
 10
192.8206426158
 20
86.7858078537
 30
0.0
 11
194.135481964
 21
86.7858078537
 31
0.0
  0
SPLINE
  5
1F0
330
1F
100
AcDbEntity
  8
0
  6
HIDDEN
 62
     7
370
     0
100
AcDbSpline
210
0.0
220
0.0
230
1.0
 70
     8
 71
     3
 72
    12
 73
     8
 74
     0
 42
0.00000001
 43
0.00000001
 12
1.0
 22
0.0
 32
0.0
 13
1.0
 23
0.0
 33
0.0
 40
0.0
 40
0.0
 40
0.0
 40
0.0
 40
0.25
 40
0.25
 40
0.5
 40
0.5
 40
1.0
 40
1.0
 40
1.0
 40
1.0
 10
209.9840810764649
 20
89.77197887789818
 30
0.0
 10
210.0252564283645
 20
89.93207331242851
 30
0.0
 10
210.0858479030608
 20
90.09240486879105
 30
0.0
 10
210.2419499498332
 20
90.4134944353677
 30
0.0
 10
210.3375678095747
 20
90.5744376731153
 30
0.0
 10
210.666957813913
 20
91.05547143588873
 30
0.0
 10
210.9428474575063
 20
91.3743835706897
 30
0.0
 10
211.2536890418975
 20
91.69219241802644
 30
0.0
  0
LINE
  5
1F1
330
1F
100
AcDbEntity
  8
0
  6
HIDDEN
 62
     7
370
     0
100
AcDbLine
 10
154.8854825153
 20
94.196220508
 30
0.0
 11
154.8854825153
 21
94.4671794979
 31
0.0
  0
LINE
  5
1F2
330
1F
100
AcDbEntity
  8
0
  6
HIDDEN
 62
     7
370
     0
100
AcDbLine
 10
154.8854825153
 20
117.8886067329
 30
0.0
 11
154.8854825153
 21
117.7929245142
 31
0.0
  0
SPLINE
  5
1F3
330
1F
100
AcDbEntity
  8
0
  6
HIDDEN
 62
     7
370
     0
100
AcDbSpline
210
0.0
220
0.0
230
1.0
 70
     8
 71
     3
 72
    26
 73
    22
 74
     0
 42
0.00000001
 43
0.00000001
 12
1.0
 22
0.0
 32
0.0
 13
1.0
 23
0.0
 33
0.0
 40
0.0
 40
0.0
 40
0.0
 40
0.0
 40
0.2499999999999973
 40
0.2499999999999973
 40
0.3749999999999957
 40
0.3749999999999957
 40
0.437499999999995
 40
0.437499999999995
 40
0.4687499999999955
 40
0.4687499999999955
 40
0.499999999999996
 40
0.499999999999996
 40
0.5312499999999966
 40
0.5312499999999966
 40
0.5624999999999971
 40
0.5624999999999971
 40
0.6249999999999972
 40
0.6249999999999972
 40
0.7499999999999977
 40
0.7499999999999977
 40
1.0
 40
1.0
 40
1.0
 40
1.0
 10
155.6454522845426
 20
118.4027733836361
 30
0.0
 10
155.5980641751141
 20
118.267117641613
 30
0.0
 10
155.5404228732097
 20
118.1231562432838
 30
0.0
 10
155.4183750606664
 20
117.8803836700294
 30
0.0
 10
155.3723260528899
 20
117.79534402958
 30
0.0
 10
155.2816727687243
 20
117.6549680565397
 30
0.0
 10
155.2473202684387
 20
117.6050566792009
 30
0.0
 10
155.1848850960482
 20
117.5285214143466
 30
0.0
 10
155.1615910772501
 20
117.5021169353597
 30
0.0
 10
155.1125385401236
 20
117.4545221700987
 30
0.0
 10
155.0881070904668
 20
117.4350795562468
 30
0.0
 10
155.047477494847
 20
117.4101717785788
 30
0.0
 10
155.0313152129958
 20
117.4041019472678
 30
0.0
 10
155.0043331688927
 20
117.398413075674
 30
0.0
 10
154.9935836460698
 20
117.3988035837547
 30
0.0
 10
154.9655476719127
 20
117.4049459305432
 30
0.0
 10
154.9526864398801
 20
117.4156099369612
 30
0.0
 10
154.9216835787198
 20
117.4546227273214
 30
0.0
 10
154.9108240966506
 20
117.4906747177257
 30
0.0
 10
154.8875468407126
 20
117.6083541152248
 30
0.0
 10
154.8854822381546
 20
117.6996840155578
 30
0.0
 10
154.8854822381547
 20
117.792924268464
 30
0.0
  0
SPLINE
  5
1F4
330
1F
100
AcDbEntity
  8
0
  6
HIDDEN
 62
     7
370
     0
100
AcDbSpline
210
0.0
220
0.0
230
1.0
 70
     8
 71
     3
 72
    24
 73
    20
 74
     0
 42
0.00000001
 43
0.00000001
 12
1.0
 22
0.0
 32
0.0
 13
1.0
 23
0.0
 33
0.0
 40
0.0
 40
0.0
 40
0.0
 40
0.0
 40
0.2500000000000043
 40
0.2500000000000043
 40
0.3750000000000067
 40
0.3750000000000067
 40
0.4375000000000077
 40
0.4375000000000077
 40
0.5000000000000087
 40
0.5000000000000087
 40
0.531250000000009
 40
0.531250000000009
 40
0.5625000000000093
 40
0.5625000000000093
 40
0.625000000000009
 40
0.625000000000009
 40
0.7500000000000063
 40
0.7500000000000063
 40
1.0
 40
1.0
 40
1.0
 40
1.0
 10
154.8854822381547
 20
94.46717960280185
 30
0.0
 10
154.8854822381547
 20
94.55208855647142
 30
0.0
 10
154.8882068665871
 20
94.63441825251832
 30
0.0
 10
154.9145641877051
 20
94.73683063993731
 30
0.0
 10
154.9267779059772
 20
94.7676477363217
 30
0.0
 10
154.9613885561097
 20
94.79674525239865
 30
0.0
 10
154.9757752664771
 20
94.80370289303727
 30
0.0
 10
155.0170237495795
 20
94.8025931517604
 30
0.0
 10
155.0455632995103
 20
94.79429974615165
 30
0.0
 10
155.1064859650216
 20
94.7497163122904
 30
0.0
 10
155.1295519351615
 20
94.72925459903311
 30
0.0
 10
155.1734478151677
 20
94.68464198075279
 30
0.0
 10
155.1943278507279
 20
94.66076590254639
 30
0.0
 10
155.251538114021
 20
94.59086880538439
 30
0.0
 10
155.2838847377974
 20
94.5452912165999
 30
0.0
 10
155.3700506812892
 20
94.41640772898106
 30
0.0
 10
155.4157147013293
 20
94.33657455184898
 30
0.0
 10
155.5362622647804
 20
94.11079374273666
 30
0.0
 10
155.5953223534816
 20
93.97596235776534
 30
0.0
 10
155.6454522845426
 20
93.84770721909781
 30
0.0
  0
LINE
  5
1F5
330
1F
100
AcDbEntity
  8
0
  6
HIDDEN
 62
     7
370
     0
100
AcDbLine
 10
154.8854825153
 20
117.7929245142
 30
0.0
 11
154.8854825153
 21
94.4671794979
 31
0.0
  0
LINE
  5
1F6
330
1F
100
AcDbEntity
  8
0
  6
HIDDEN
 62
     7
370
     0
100
AcDbLine
 10
228.1614118322
 20
82.0893511383
 30
0.0
 11
228.4093299016
 21
81.4736928997
 31
0.0
  0
LINE
  5
1F7
330
1F
100
AcDbEntity
  8
0
  6
HIDDEN
 62
     7
370
     0
100
AcDbLine
 10
228.690306197
 20
81.5808136223
 30
0.0
 11
228.4314357742
 21
82.2236702053
 31
0.0
  0
LWPOLYLINE
  5
1F8
330
1F
100
AcDbEntity
  8
0
  6
HIDDEN
 62
     7
370
     0
100
AcDbPolyline
 90
       29
 70
   128
 43
0.0
 10
219.1632376119
 20
106.014692804
 10
219.1369109853
 20
105.54739885
 10
219.0592535838
 20
105.103536972
 10
218.9341583355
 20
104.7053642079
 10
218.7679023548
 20
104.3728466585
 10
218.5688153907
 20
104.1226581411
 10
218.3468849464
 20
103.9673442693
 10
218.1132347389
 20
103.9146928789
 10
217.8795882567
 20
103.9673442693
 10
217.6576578125
 20
104.1226581411
 10
217.4585708483
 20
104.3728466585
 10
217.2923148676
 20
104.7053642079
 10
217.1672196194
 20
105.103536972
 10
217.0895622178
 20
105.54739885
 10
217.0632355913
 20
106.014692804
 10
217.0895622178
 20
106.481986758
 10
217.1672196194
 20
106.925848636
 10
217.2923148676
 20
107.3240214001
 10
217.4585708483
 20
107.6565389495
 10
217.6576578125
 20
107.9067274669
 10
217.8795882567
 20
108.0620413387
 10
218.1132347389
 20
108.1146927291
 10
218.3468849464
 20
108.0620413387
 10
218.5688153907
 20
107.9067274669
 10
218.7679023548
 20
107.6565389495
 10
218.9341583355
 20
107.3240214001
 10
219.0592535838
 20
106.925848636
 10
219.1369109853
 20
106.481986758
 10
219.1632376119
 20
106.014692804
  0
ELLIPSE
  5
1F9
330
1F
100
AcDbEntity
  8
0
  6
HIDDEN
 62
     7
370
     0
100
AcDbEllipse
 10
227.2303459668
 20
106.014692804
 30
0.0
 11
5.000000000000028
 21
0.0
 31
0.0
210
0.0
220
0.0
230
1.0
 40
0.5
 41
3.141592653589782
 42
4.610925882330055
  0
LWPOLYLINE
  5
1FA
330
1F
100
AcDbEntity
  8
0
  6
HIDDEN
 62
     7
370
     0
100
AcDbPolyline
 90
       31
 70
   128
 43
0.0
 10
219.571380417
 20
106.014692804
 10
219.5440665885
 20
105.4949135843
 10
219.4633134707
 20
104.9978511847
 10
219.3326526388
 20
104.5452296941
 10
219.1577949627
 20
104.1568306947
 10
218.946381013
 20
103.8496292869
 10
218.7076532348
 20
103.6370514167
 10
218.452042441
 20
103.5283879584
 10
218.1907207771
 20
103.5283879584
 10
217.9351099833
 20
103.6370514167
 10
217.6963822051
 20
103.8496292869
 10
217.4849682554
 20
104.1568306947
 10
217.3101105794
 20
104.5452296941
 10
217.1794497474
 20
104.9978511847
 10
217.0986966296
 20
105.4949135843
 10
217.0713790759
 20
106.014692804
 10
217.0986966296
 20
106.5344720238
 10
217.1794497474
 20
107.0315344233
 10
217.3101105794
 20
107.484155914
 10
217.4849682554
 20
107.8725549133
 10
217.6963822051
 20
108.1797563212
 10
217.9351099833
 20
108.3923341913
 10
218.1907207771
 20
108.5009976497
 10
218.452042441
 20
108.5009976497
 10
218.7076532348
 20
108.3923341913
 10
218.946381013
 20
108.1797563212
 10
219.1577949627
 20
107.8725549133
 10
219.3326526388
 20
107.484155914
 10
219.4633134707
 20
107.0315344233
 10
219.5440665885
 20
106.5344720238
 10
219.571380417
 20
106.014692804
  0
ELLIPSE
  5
1FB
330
1F
100
AcDbEntity
  8
0
  6
HIDDEN
 62
     7
370
     0
100
AcDbEllipse
 10
226.5872042902
 20
106.014692804
 30
0.0
 11
-0.1550615558896027
 21
2.499978779294395
 31
0.0
210
0.0
220
0.0
230
1.0
 40
0.0664293271
 41
3.036009289950419
 42
5.366476193669929
  0
ELLIPSE
  5
1FC
330
1F
100
AcDbEntity
  8
0
  6
HIDDEN
 62
     7
370
     0
100
AcDbEllipse
 10
268.0343353813
 20
95.014692804
 30
0.0
 11
45.58191207516307
 21
16.73571065544465
 31
0.0
210
0.0
220
0.0
230
1.0
 40
0.0655076801
 41
2.599075142129301
 42
2.611154031805586
  0
ELLIPSE
  5
1FD
330
1F
100
AcDbEntity
  8
0
  6
HIDDEN
 62
     7
370
     0
100
AcDbEllipse
 10
217.2938692876
 20
95.014692804
 30
0.0
 11
-13.34858959604989
 21
16.99094675269532
 31
0.0
210
0.0
220
0.0
230
1.0
 40
0.041557407
 41
3.815955076626401
 42
4.306229289189313
  0
SPLINE
  5
1FE
330
1F
100
AcDbEntity
  8
0
  6
HIDDEN
 62
     7
370
     0
100
AcDbSpline
210
0.0
220
0.0
230
1.0
 70
     8
 71
     3
 72
     8
 73
     4
 74
     0
 42
0.00000001
 43
0.00000001
 12
1.0
 22
0.0
 32
0.0
 13
1.0
 23
0.0
 33
0.0
 40
0.0
 40
0.0
 40
0.0
 40
0.0
 40
1.0
 40
1.0
 40
1.0
 40
1.0
 10
210.789878192174
 20
95.01469280402323
 30
0.0
 10
210.9533567506231
 20
93.8916208286576
 30
0.0
 10
211.1072549103555
 20
92.78416932329468
 30
0.0
 10
211.2536890418975
 20
91.69219241802644
 30
0.0
  0
SPLINE
  5
1FF
330
1F
100
AcDbEntity
  8
0
  6
HIDDEN
 62
     7
370
     0
100
AcDbSpline
210
0.0
220
0.0
230
1.0
 70
     8
 71
     3
 72
    18
 73
    14
 74
     0
 42
0.00000001
 43
0.00000001
 12
1.0
 22
0.0
 32
0.0
 13
1.0
 23
0.0
 33
0.0
 40
0.0
 40
0.0
 40
0.0
 40
0.0
 40
0.25
 40
0.25
 40
0.375
 40
0.375
 40
0.5
 40
0.5
 40
0.625
 40
0.625
 40
0.75
 40
0.75
 40
1.0
 40
1.0
 40
1.0
 40
1.0
 10
217.5936724945891
 20
91.69219241802644
 30
0.0
 10
218.1511595893219
 20
91.69219241802644
 30
0.0
 10
218.6965812108636
 20
91.62348747436862
 30
0.0
 10
219.4975315453587
 20
91.42334536421684
 30
0.0
 10
219.7633643022924
 20
91.33954024126082
 30
0.0
 10
220.279523081239
 20
91.1419408033557
 30
0.0
 10
220.5292553688693
 20
91.02866888153552
 30
0.0
 10
221.0126720770629
 20
90.77476658296733
 30
0.0
 10
221.2463521059454
 20
90.63412767168394
 30
0.0
 10
221.6977077154426
 20
90.32611906723702
 30
0.0
 10
221.9160115649002
 20
90.15797053224928
 30
0.0
 10
222.5316883917187
 20
89.62716754200787
 30
0.0
 10
222.8954926750299
 20
89.23521216823137
 30
0.0
 10
223.2163432362086
 20
88.81143770529862
 30
0.0
  0
LINE
  5
200
330
1F
100
AcDbEntity
  8
0
  6
HIDDEN
 62
     7
370
     0
100
AcDbLine
 10
211.2536900743
 20
91.6921921281
 30
0.0
 11
217.5936722263
 21
91.6921921281
 31
0.0
  0
ELLIPSE
  5
201
330
1F
100
AcDbEntity
  8
0
  6
HIDDEN
 62
     7
370
     0
100
AcDbEllipse
 10
228.2833135884
 20
95.014692804
 30
0.0
 11
-1.089830700520509
 21
16.99987633509008
 31
0.0
210
0.0
220
0.0
230
1.0
 40
0.0594980694
 41
1.566982033863023
 42
2.418699914707263
  0
CIRCLE
  5
202
330
1F
100
AcDbEntity
  8
0
  6
HIDDEN
 62
     7
370
     0
100
AcDbCircle
 10
181.7854822382
 20
106.014692804
 30
0.0
 40
5.0
  0
SPLINE
  5
203
330
1F
100
AcDbEntity
  8
0
  6
HIDDEN
 62
     7
370
     0
100
AcDbSpline
210
0.0
220
0.0
230
1.0
 70
     8
 71
     3
 72
     8
 73
     4
 74
     0
 42
0.00000001
 43
0.00000001
 12
1.0
 22
0.0
 32
0.0
 13
1.0
 23
0.0
 33
0.0
 40
0.0
 40
0.0
 40
0.0
 40
0.0
 40
1.0
 40
1.0
 40
1.0
 40
1.0
 10
209.9840810764649
 20
103.1409633944373
 30
0.0
 10
210.1052926695288
 20
100.426944641674
 30
0.0
 10
210.3962312554917
 20
97.71898532391494
 30
0.0
 10
210.789878192174
 20
95.01469280402323
 30
0.0
  0
LINE
  5
204
330
1F
100
AcDbEntity
  8
0
  6
HIDDEN
 62
     7
370
     0
100
AcDbLine
 10
226.7239005371
 20
103.5275502337
 30
0.0
 11
227.2677035137
 21
95.0146928636
 31
0.0
  0
LINE
  5
205
330
1F
100
AcDbEntity
  8
0
  6
HIDDEN
 62
     7
370
     0
100
AcDbLine
 10
174.7854822382
 20
89.8074913977
 30
0.0
 11
174.8796430104
 21
90.4774811326
 31
0.0
  0
LINE
  5
206
330
1F
100
AcDbEntity
  8
0
  6
HIDDEN
 62
     7
370
     0
100
AcDbLine
 10
174.8796430104
 20
121.5519044755
 30
0.0
 11
174.7854822382
 21
122.2218942104
 31
0.0
  0
ARC
  5
207
330
1F
100
AcDbEntity
  8
0
  6
HIDDEN
 62
     7
370
     0
100
AcDbCircle
 10
174.2854754855
 20
90.5609856506
 30
0.0
 40
0.6000067526677242
100
AcDbArc
 50
352.0
 51
0.0
  0
ARC
  5
208
330
1F
100
AcDbEntity
  8
0
  6
HIDDEN
 62
     7
370
     0
100
AcDbCircle
 10
174.2854754855
 20
90.5609856506
 30
0.0
 40
0.6000067526677242
100
AcDbArc
 50
0.0
 51
33.5571153394
  0
ARC
  5
209
330
1F
100
AcDbEntity
  8
0
  6
HIDDEN
 62
     7
370
     0
100
AcDbCircle
 10
174.2854754855
 20
121.4683999575
 30
0.0
 40
0.6000067526677042
100
AcDbArc
 50
348.75
 51
8.0
  0
LWPOLYLINE
  5
20A
330
1F
100
AcDbEntity
  8
0
  6
HIDDEN
 62
     7
370
     0
100
AcDbPolyline
 90
        3
 70
   128
 43
0.0
 10
174.8739532771
 20
121.3513441591
 10
174.8398094453
 20
121.2387873067
 10
174.7854822382
 20
121.1367357729
  0
LINE
  5
20B
330
1F
100
AcDbEntity
  8
0
  6
HIDDEN
 62
     7
370
     0
100
AcDbLine
 10
174.8854822356
 20
90.5609853772
 30
0.0
 11
174.8854822356
 21
121.4684002308
 31
0.0
  0
LINE
  5
20C
330
1F
100
AcDbEntity
  8
0
  6
HIDDEN
 62
     7
370
     0
100
AcDbLine
 10
174.8854822356
 20
90.5609853772
 30
0.0
 11
174.8854822356
 21
121.4684002308
 31
0.0
  0
LINE
  5
20D
330
1F
100
AcDbEntity
  8
0
  6
HIDDEN
 62
     7
370
     0
100
AcDbLine
 10
164.3181103348
 20
93.2646930424
 30
0.0
 11
166.516256991
 21
93.2646930424
 31
0.0
  0
LINE
  5
20E
330
1F
100
AcDbEntity
  8
0
  6
HIDDEN
 62
     7
370
     0
100
AcDbLine
 10
166.516256991
 20
118.7646925656
 30
0.0
 11
164.3181103348
 21
118.7646925656
 31
0.0
  0
ARC
  5
20F
330
1F
100
AcDbEntity
  8
0
  6
HIDDEN
 62
     7
370
     0
100
AcDbCircle
 10
164.3181101823
 20
93.664692804
 30
0.0
 40
0.4000000000000057
100
AcDbArc
 50
210.0
 51
270.0
  0
ARC
  5
210
330
1F
100
AcDbEntity
  8
0
  6
HIDDEN
 62
     7
370
     0
100
AcDbCircle
 10
164.3181101823
 20
118.364692804
 30
0.0
 40
0.3999999999999915
100
AcDbArc
 50
90.0
 51
150.0
  0
ARC
  5
211
330
1F
100
AcDbEntity
  8
0
  6
HIDDEN
 62
     7
370
     0
100
AcDbCircle
 10
170.609658966
 20
98.264692804
 30
0.0
 40
5.000000000000013
100
AcDbArc
 50
275.4127746517
 51
326.6329870308
  0
ARC
  5
212
330
1F
100
AcDbEntity
  8
0
  6
HIDDEN
 62
     7
370
     0
100
AcDbCircle
 10
170.609658966
 20
113.764692804
 30
0.0
 40
5.00000000000001
100
AcDbArc
 50
33.3670129692
 51
84.5892628036
  0
LINE
  5
213
330
1F
100
AcDbEntity
  8
0
  6
HIDDEN
 62
     7
370
     0
100
AcDbLine
 10
163.9717002466
 20
118.5646929054
 30
0.0
 11
162.7881317466
 21
116.5146926625
 31
0.0
  0
LINE
  5
214
330
1F
100
AcDbEntity
  8
0
  6
HIDDEN
 62
     7
370
     0
100
AcDbLine
 10
162.7881317466
 20
95.5146929456
 30
0.0
 11
163.9717002466
 21
93.4646927027
 31
0.0
  0
ARC
  5
215
330
1F
100
AcDbEntity
  8
0
  6
HIDDEN
 62
     7
370
     0
100
AcDbCircle
 10
181.7354822382
 20
96.139692804
 30
0.0
 40
1.00000000000001
100
AcDbArc
 50
218.6821874535
 51
0.0
  0
ARC
  5
216
330
1F
100
AcDbEntity
  8
0
  6
HIDDEN
 62
     7
370
     0
100
AcDbCircle
 10
181.7354822382
 20
115.889692804
 30
0.0
 40
1.00000000000001
100
AcDbArc
 50
0.0
 51
141.3178125465
  0
LINE
  5
217
330
1F
100
AcDbEntity
  8
0
  6
HIDDEN
 62
     7
370
     0
100
AcDbLine
 10
160.9854823976
 20
95.5146929456
 30
0.0
 11
162.7881317466
 21
95.5146929456
 31
0.0
  0
LINE
  5
218
330
1F
100
AcDbEntity
  8
0
  6
HIDDEN
 62
     7
370
     0
100
AcDbLine
 10
162.7881317466
 20
116.5146926625
 30
0.0
 11
158.4854819878
 21
116.5146926625
 31
0.0
  0
LINE
  5
219
330
1F
100
AcDbEntity
  8
0
  6
HIDDEN
 62
     7
370
     0
100
AcDbLine
 10
174.7854822382
 20
95.5146929456
 30
0.0
 11
180.9548572703
 21
95.5146929456
 31
0.0
  0
LINE
  5
21A
330
1F
100
AcDbEntity
  8
0
  6
HIDDEN
 62
     7
370
     0
100
AcDbLine
 10
180.9548572703
 20
116.5146926625
 30
0.0
 11
174.7854822382
 21
116.5146926625
 31
0.0
  0
LINE
  5
21B
330
1F
100
AcDbEntity
  8
0
  6
HIDDEN
 62
     7
370
     0
100
AcDbLine
 10
204.6576519563
 20
113.1099826863
 30
0.0
 11
204.9018000319
 21
112.5036944842
 31
0.0
  0
LINE
  5
21C
330
1F
100
AcDbEntity
  8
0
  6
HIDDEN
 62
     7
370
     0
100
AcDbLine
 10
210.5359160408
 20
111.7580045221
 30
0.0
 11
210.2917716905
 21
112.3642922586
 31
0.0
  0
LINE
  5
21D
330
1F
100
AcDbEntity
  8
0
  6
HIDDEN
 62
     7
370
     0
100
AcDbLine
 10
188.0854819968
 20
99.7646927109
 30
0.0
 11
190.5854814752
 21
99.7646927109
 31
0.0
  0
LINE
  5
21E
330
1F
100
AcDbEntity
  8
0
  6
HIDDEN
 62
     7
370
     0
100
AcDbLine
 10
190.5854814752
 20
112.2646928972
 30
0.0
 11
188.0854819968
 21
112.2646928972
 31
0.0
  0
LINE
  5
21F
330
1F
100
AcDbEntity
  8
0
  6
HIDDEN
 62
     7
370
     0
100
AcDbLine
 10
182.7354827031
 20
100.0146927519
 30
0.0
 11
183.2354818537
 21
100.5146928338
 31
0.0
  0
LINE
  5
220
330
1F
100
AcDbEntity
  8
0
  6
HIDDEN
 62
     7
370
     0
100
AcDbLine
 10
183.2354818537
 20
111.5146927742
 30
0.0
 11
182.7354827031
 21
112.0146928562
 31
0.0
  0
LINE
  5
221
330
1F
100
AcDbEntity
  8
0
  6
HIDDEN
 62
     7
370
     0
100
AcDbLine
 10
222.7993034824
 20
108.3353637924
 30
0.0
 11
222.2663634523
 21
109.6588043703
 31
0.0
  0
LINE
  5
222
330
1F
100
AcDbEntity
  8
0
  6
HIDDEN
 62
     7
370
     0
100
AcDbLine
 10
218.0033871039
 20
104.6160850648
 30
0.0
 11
217.7243628605
 21
105.3089858007
 31
0.0
  0
LINE
  5
223
330
1F
100
AcDbEntity
  8
0
  6
HIDDEN
 62
     7
370
     0
100
AcDbLine
 10
211.9731628402
 20
102.9930206688
 30
0.0
 11
212.2521870836
 21
102.3001199329
 31
0.0
  0
LINE
  5
224
330
1F
100
AcDbEntity
  8
0
  6
HIDDEN
 62
     7
370
     0
100
AcDbLine
 10
183.2354818537
 20
100.5146928338
 30
0.0
 11
188.0854819968
 21
100.5146928338
 31
0.0
  0
LINE
  5
225
330
1F
100
AcDbEntity
  8
0
  6
HIDDEN
 62
     7
370
     0
100
AcDbLine
 10
188.0854819968
 20
111.5146927742
 30
0.0
 11
183.2354818537
 21
111.5146927742
 31
0.0
  0
LINE
  5
226
330
1F
100
AcDbEntity
  8
0
  6
HIDDEN
 62
     7
370
     0
100
AcDbLine
 10
182.7354827031
 20
126.014692357
 30
0.0
 11
182.7354827031
 21
122.9146920351
 31
0.0
  0
LINE
  5
227
330
1F
100
AcDbEntity
  8
0
  6
HIDDEN
 62
     7
370
     0
100
AcDbLine
 10
171.5526615801
 20
90.9733880518
 30
0.0
 11
171.084732988
 21
91.4692251218
 31
0.0
  0
LINE
  5
228
330
1F
100
AcDbEntity
  8
0
  6
HIDDEN
 62
     7
370
     0
100
AcDbLine
 10
166.4868281289
 20
91.7490782423
 30
0.0
 11
165.9693545728
 21
91.2532532794
 31
0.0
  0
LINE
  5
229
330
1F
100
AcDbEntity
  8
0
  6
HIDDEN
 62
     7
370
     0
100
AcDbLine
 10
165.9687203421
 20
120.77618262
 30
0.0
 11
166.4864062398
 21
120.2802952586
 31
0.0
  0
LINE
  5
22A
330
1F
100
AcDbEntity
  8
0
  6
HIDDEN
 62
     7
370
     0
100
AcDbLine
 10
171.0840470689
 20
120.5599425567
 30
0.0
 11
171.551950981
 21
121.0558364374
 31
0.0
  0
LINE
  5
22B
330
1F
100
AcDbEntity
  8
0
  6
HIDDEN
 62
     7
370
     0
100
AcDbLine
 10
190.5854814752
 20
103.5146928599
 30
0.0
 11
199.8854824408
 21
103.5146928599
 31
0.0
  0
LINE
  5
22C
330
1F
100
AcDbEntity
  8
0
  6
HIDDEN
 62
     7
370
     0
100
AcDbLine
 10
199.8854824408
 20
108.5146927481
 30
0.0
 11
190.5854814752
 21
108.5146927481
 31
0.0
  0
LINE
  5
22D
330
1F
100
AcDbEntity
  8
0
  6
HIDDEN
 62
     7
370
     0
100
AcDbLine
 10
199.8854824408
 20
103.5146928599
 30
0.0
 11
200.4170161738
 21
104.3993130999
 31
0.0
  0
LINE
  5
22E
330
1F
100
AcDbEntity
  8
0
  6
HIDDEN
 62
     7
370
     0
100
AcDbLine
 10
200.4192476227
 20
107.6263589758
 30
0.0
 11
199.8854824408
 21
108.5146927481
 31
0.0
  0
LINE
  5
22F
330
1F
100
AcDbEntity
  8
0
  6
HIDDEN
 62
     7
370
     0
100
AcDbLine
 10
171.085482237
 20
91.4812801612
 30
0.0
 11
171.085482237
 21
93.2878382711
 31
0.0
  0
LINE
  5
230
330
1F
100
AcDbEntity
  8
0
  6
HIDDEN
 62
     7
370
     0
100
AcDbLine
 10
166.4854823678
 20
93.2701952962
 30
0.0
 11
166.4854823678
 21
91.756084582
 31
0.0
  0
LINE
  5
231
330
1F
100
AcDbEntity
  8
0
  6
HIDDEN
 62
     7
370
     0
100
AcDbLine
 10
171.085482237
 20
118.741547337
 30
0.0
 11
171.085482237
 21
120.5597320778
 31
0.0
  0
LINE
  5
232
330
1F
100
AcDbEntity
  8
0
  6
HIDDEN
 62
     7
370
     0
100
AcDbLine
 10
166.4854823678
 20
120.2791897787
 30
0.0
 11
166.4854823678
 21
118.7591903118
 31
0.0
  0
LINE
  5
233
330
1F
100
AcDbEntity
  8
0
  6
HIDDEN
 62
     7
370
     0
100
AcDbLine
 10
216.211146216
 20
107.4604869328
 30
0.0
 11
216.1214486762
 21
107.6832378723
 31
0.0
  0
LINE
  5
234
330
1F
100
AcDbEntity
  8
0
  6
HIDDEN
 62
     7
370
     0
100
AcDbLine
 10
217.1426476046
 20
105.1473106464
 30
0.0
 11
216.4814644559
 21
106.789212322
 31
0.0
  0
LINE
  5
235
330
1F
100
AcDbEntity
  8
0
  6
HIDDEN
 62
     7
370
     0
100
AcDbLine
 10
211.9904854401
 20
104.5562416522
 30
0.0
 11
212.5045829519
 21
103.2795970069
 31
0.0
  0
LINE
  5
236
330
1F
100
AcDbEntity
  8
0
  6
HIDDEN
 62
     7
370
     0
100
AcDbLine
 10
211.4833840235
 20
105.8155241018
 30
0.0
 11
211.720472674
 21
105.2267637543
 31
0.0
  0
LINE
  5
237
330
1F
100
AcDbEntity
  8
0
  6
HIDDEN
 62
     7
370
     0
100
AcDbLine
 10
212.901933591
 20
108.1146927291
 30
0.0
 11
199.9260210498
 21
108.1146927291
 31
0.0
  0
LINE
  5
238
330
1F
100
AcDbEntity
  8
0
  6
HIDDEN
 62
     7
370
     0
100
AcDbLine
 10
199.9265705302
 20
103.9146928789
 30
0.0
 11
212.5490442916
 21
103.9146928789
 31
0.0
  0
ARC
  5
239
330
1F
100
AcDbEntity
  8
0
  6
HIDDEN
 62
     7
370
     0
100
AcDbCircle
 10
160.0854822382
 20
92.293692804
 30
0.0
 40
0.8999999999999915
100
AcDbArc
 50
29.8499024808
 51
90.0
  0
ARC
  5
23A
330
1F
100
AcDbEntity
  8
0
  6
HIDDEN
 62
     7
370
     0
100
AcDbCircle
 10
157.5854822382
 20
119.794692804
 30
0.0
 40
0.8999999999999915
100
AcDbArc
 50
270.0
 51
311.1792132368
  0
LINE
  5
23B
330
1F
100
AcDbEntity
  8
0
  6
HIDDEN
 62
     7
370
     0
100
AcDbLine
 10
157.585481654
 20
118.8946930898
 30
0.0
 11
155.8354818328
 21
118.8946930898
 31
0.0
  0
LINE
  5
23C
330
1F
100
AcDbEntity
  8
0
  6
HIDDEN
 62
     7
370
     0
100
AcDbLine
 10
155.8354818328
 20
93.1936927346
 30
0.0
 11
160.0854820638
 21
93.1936927346
 31
0.0
  0
LINE
  5
23D
330
1F
100
AcDbEntity
  8
0
  6
HIDDEN
 62
     7
370
     0
100
AcDbLine
 10
155.8354818328
 20
118.8946930898
 30
0.0
 11
154.8854825153
 21
117.944692841
 31
0.0
  0
LINE
  5
23E
330
1F
100
AcDbEntity
  8
0
  6
HIDDEN
 62
     7
370
     0
100
AcDbLine
 10
154.8854825153
 20
94.1436929835
 30
0.0
 11
155.8354818328
 21
93.1936927346
 31
0.0
  0
LINE
  5
23F
330
1F
100
AcDbEntity
  8
0
  6
HIDDEN
 62
     7
370
     0
100
AcDbLine
 10
225.242564927
 20
94.8511358557
 30
0.0
 11
224.5275625094
 21
96.6266939623
 31
0.0
  0
LINE
  5
240
330
1F
100
AcDbEntity
  8
0
  6
HIDDEN
 62
     7
370
     0
100
AcDbLine
 10
221.4664393171
 20
95.3940028531
 30
0.0
 11
222.1814417347
 21
93.6184447465
 31
0.0
  0
LINE
  5
241
330
1F
100
AcDbEntity
  8
0
  6
HIDDEN
 62
     7
370
     0
100
AcDbLine
 10
218.1132347389
 20
108.1146927291
 30
0.0
 11
215.6234257921
 21
108.1146927291
 31
0.0
  0
LINE
  5
242
330
1F
100
AcDbEntity
  8
0
  6
HIDDEN
 62
     7
370
     0
100
AcDbLine
 10
215.3163799151
 20
103.9146928789
 30
0.0
 11
218.1132347389
 21
103.9146928789
 31
0.0
  0
LINE
  5
243
330
1F
100
AcDbEntity
  8
0
  6
HIDDEN
 62
     7
370
     0
100
AcDbLine
 10
226.0451787218
 20
108.5146927481
 30
0.0
 11
218.3213816091
 21
108.5146927481
 31
0.0
  0
LINE
  5
244
330
1F
100
AcDbEntity
  8
0
  6
HIDDEN
 62
     7
370
     0
100
AcDbLine
 10
218.3213816091
 20
103.5146928599
 30
0.0
 11
226.7415807649
 21
103.5146928599
 31
0.0
  0
LINE
  5
245
330
1F
100
AcDbEntity
  8
0
  6
HIDDEN
 62
     7
370
     0
100
AcDbLine
 10
217.1202921375
 20
106.7071729314
 30
0.0
 11
217.104321818
 21
106.596376104
 31
0.0
  0
LINE
  5
246
330
1F
100
AcDbEntity
  8
0
  6
HIDDEN
 62
     7
370
     0
100
AcDbLine
 10
217.104321818
 20
105.4330095041
 30
0.0
 11
217.1202921375
 21
105.3222126767
 31
0.0
  0
DIMENSION
  5
247
330
1F
100
AcDbEntity
  8
VERMASSUNG
100
AcDbDimension
  2
_D
 10
150.3782495435
 20
86.014692804
 30
0.0
 11
150.3782495435
 21
106.014692804
 31
0.0
 70
   160
  1
HSK %%c<>
 71
     2
 42
-1.0
  3
SLDDIMSTYLE0
100
AcDbAlignedDimension
 13
175.0854822382
 23
126.014692804
 33
0.0
 14
175.0854822382
 24
86.014692804
 34
0.0
 50
90.0
100
AcDbRotatedDimension
  0
DIMENSION
  5
254
330
1F
100
AcDbEntity
  8
VERMASSUNG
100
AcDbDimension
  2
_D_1
 10
229.7854822382
 20
138.3860211354
 30
0.0
 11
192.3354822382
 21
138.3860211354
 31
0.0
 70
   160
  1
<>
 71
     2
 42
-1.0
  3
SLDDIMSTYLE0
100
AcDbAlignedDimension
 13
154.8854822382
 23
117.944692804
 33
0.0
 14
229.7854822382
 24
79.014692804
 34
0.0
100
AcDbRotatedDimension
  0
DIMENSION
  5
25E
330
1F
100
AcDbEntity
  8
VERMASSUNG
100
AcDbDimension
  2
_D_2
 10
229.7854822382
 20
132.3860211354
 30
0.0
 11
202.2854822382
 21
132.3860211354
 31
0.0
 70
   160
  1
<>
 71
     2
 42
-1.0
  3
SLDDIMSTYLE0
100
AcDbAlignedDimension
 13
174.7854822382
 23
125.714692804
 33
0.0
 14
229.7854822382
 24
79.014692804
 34
0.0
100
AcDbRotatedDimension
  0
DIMENSION
  5
268
330
1F
100
AcDbEntity
  8
VERMASSUNG
100
AcDbDimension
  2
_D_3
 10
236.171166993
 20
106.014692804
 30
0.0
 11
236.171166993
 21
92.514692804
 31
0.0
 70
   160
  1
<>
 71
     2
 42
-1.0
  3
SLDDIMSTYLE0
100
AcDbAlignedDimension
 13
229.7854822382
 23
79.014692804
 33
0.0
 14
229.7318951613
 24
106.014692804
 34
0.0
 50
90.0
100
AcDbRotatedDimension
  0
DIMENSION
  5
272
330
1F
100
AcDbEntity
  8
VERMASSUNG
100
AcDbDimension
  2
_D_4
 10
228.4278718219
 20
95.2303137278
 30
0.0
 11
236.171166993
 21
112.9004159962
 31
0.0
 70
   162
  1
<>
 71
     1
 42
-1.0
  3
SLDDIMSTYLE1
100
AcDb2LineAngularDimension
 13
229.7854822382
 23
106.014692804
 33
0.0
 14
229.7854822382
 24
79.014692804
 34
0.0
 15
227.9483793505
 25
104.2567571067
 35
0.0
 16
228.6261174908
 26
113.3541471133
 36
0.0
  0
LINE
  5
27F
330
1F
100
AcDbEntity
  8
VERMASSUNG
  6
CENTERX2
370
     0
100
AcDbLine
 10
152.5310564516
 20
106.014692804
 30
0.0
 11
229.7318951613
 21
106.014692804
 31
0.0
  0
LINE
  5
280
330
1F
100
AcDbEntity
  8
0
  6
Continuous
 62
     7
370
    15
100
AcDbLine
 10
54.6804396279
 20
108.8871074581
 30
0.0
 11
54.4479666121
 21
108.7699759493
 31
0.0
  0
LINE
  5
281
330
1F
100
AcDbEntity
  8
0
  6
Continuous
 62
     7
370
    15
100
AcDbLine
 10
65.9802453435
 20
110.8799033074
 30
0.0
 11
65.8395583584
 21
110.8550961336
 31
0.0
  0
LINE
  5
282
330
1F
100
AcDbEntity
  8
0
  6
Continuous
 62
     7
370
    15
100
AcDbLine
 10
59.1035839013
 20
109.6673622934
 30
0.0
 11
54.6825444169
 21
108.8878136335
 31
0.0
  0
LINE
  5
283
330
1F
100
AcDbEntity
  8
0
  6
Continuous
 62
     7
370
    15
100
AcDbLine
 10
66.2214192405
 20
107.8761487707
 30
0.0
 11
66.5011899389
 21
107.9254799962
 31
0.0
  0
LINE
  5
284
330
1F
100
AcDbEntity
  8
0
  6
Continuous
 62
     7
370
    15
100
AcDbLine
 10
66.5032942622
 20
107.9261861715
 30
0.0
 11
66.7357677437
 21
108.0433177968
 31
0.0
  0
LINE
  5
285
330
1F
100
AcDbEntity
  8
0
  6
Continuous
 62
     7
370
    15
100
AcDbLine
 10
66.2409793428
 20
110.8494020274
 30
0.0
 11
65.9824646852
 21
110.8799591867
 31
0.0
  0
LINE
  5
286
330
1F
100
AcDbEntity
  8
0
  6
Continuous
 62
     7
370
    15
100
AcDbLine
 10
53.8897989161
 20
108.0770253876
 30
0.0
 11
53.0854156084
 21
106.9222502966
 31
0.0
  0
LINE
  5
287
330
1F
100
AcDbEntity
  8
0
  6
Continuous
 62
     7
370
    15
100
AcDbLine
 10
55.1640940673
 20
95.133485852
 30
0.0
 11
56.3149219222
 21
94.3234661801
 31
0.0
  0
LINE
  5
288
330
1F
100
AcDbEntity
  8
0
  6
Continuous
 62
     7
370
    15
100
AcDbLine
 10
56.3515228994
 20
94.3125212772
 30
0.0
 11
60.8621667913
 21
95.1078688933
 31
0.0
  0
LINE
  5
289
330
1F
100
AcDbEntity
  8
0
  6
Continuous
 62
     7
370
    15
100
AcDbLine
 10
58.431092634
 20
108.8951776011
 30
0.0
 11
53.920448742
 21
108.0998295193
 31
0.0
  0
LINE
  5
28A
330
1F
100
AcDbEntity
  8
0
  6
Continuous
 62
     7
370
    15
100
AcDbLine
 10
60.8805902145
 20
95.1169129668
 30
0.0
 11
61.974897965
 21
96.0377795828
 31
0.0
  0
LINE
  5
28B
330
1F
100
AcDbEntity
  8
0
  6
Continuous
 62
     7
370
    15
100
AcDbLine
 10
59.1998360894
 20
108.6194115898
 30
0.0
 11
58.4514979116
 21
108.8929806111
 31
0.0
  0
ARC
  5
28C
330
1F
100
AcDbEntity
  8
0
  6
Continuous
 62
     7
370
    15
100
AcDbCircle
 10
86.2091454079
 20
106.014692804
 30
0.0
 40
2.00000000000001
100
AcDbArc
 50
308.6502981697
 51
54.4157760812
  0
SPLINE
  5
28D
330
1F
100
AcDbEntity
  8
0
  6
Continuous
 62
     7
370
    15
100
AcDbSpline
210
0.0
220
0.0
230
1.0
 70
     8
 71
     3
 72
    11
 73
     7
 74
     0
 42
0.00000001
 43
0.00000001
 12
1.0
 22
0.0
 32
0.0
 13
1.0
 23
0.0
 33
0.0
 40
0.0
 40
0.0
 40
0.0
 40
0.0
 40
0.1493240460967787
 40
0.4472123217364283
 40
0.7311164659453385
 40
1.0
 40
1.0
 40
1.0
 40
1.0
 10
68.22600446933214
 20
99.47864257003327
 30
0.0
 10
68.2541613920687
 20
99.48814120878978
 30
0.0
 10
68.33848888733228
 20
99.51658879243536
 30
0.0
 10
68.43339617365594
 20
99.62053853846669
 30
0.0
 10
68.50379489871602
 20
99.73615260918442
 30
0.0
 10
68.52164318077809
 20
99.79593533398742
 30
0.0
 10
68.53032483079735
 20
99.82501447404881
 30
0.0
  0
SPLINE
  5
28E
330
1F
100
AcDbEntity
  8
0
  6
Continuous
 62
     7
370
    15
100
AcDbSpline
210
0.0
220
0.0
230
1.0
 70
     8
 71
     3
 72
    17
 73
    13
 74
     0
 42
0.00000001
 43
0.00000001
 12
1.0
 22
0.0
 32
0.0
 13
1.0
 23
0.0
 33
0.0
 40
0.0
 40
0.0
 40
0.0
 40
0.0
 40
0.0743000282592391
 40
0.2940262279693331
 40
0.4625366934686961
 40
0.5615873882772823
 40
0.6369147164060096
 40
0.7150641543929772
 40
0.7972469516780946
 40
0.8798459762944076
 40
0.9533788532424254
 40
0.9999999999999999
 40
0.9999999999999999
 40
0.9999999999999999
 40
0.9999999999999999
 10
67.50323482149545
 20
106.4680342652756
 30
0.0
 10
67.4922036265649
 20
106.5067359574315
 30
0.0
 10
67.44855006799416
 20
106.6598895002663
 30
0.0
 10
67.38676024525566
 20
106.8296704674606
 30
0.0
 10
67.31807855129072
 20
106.9851295689077
 30
0.0
 10
67.24300580858335
 20
107.1040582130367
 30
0.0
 10
67.13942993911292
 20
107.2125408690427
 30
0.0
 10
66.98091030390576
 20
107.3031803924718
 30
0.0
 10
66.77494554545763
 20
107.331814597425
 30
0.0
 10
66.57664334396134
 20
107.2761856252208
 30
0.0
 10
66.44173198124463
 20
107.1735683141611
 30
0.0
 10
66.3919348156794
 20
107.1044704538216
 30
0.0
 10
66.37261294120256
 20
107.0776596872058
 30
0.0
  0
SPLINE
  5
28F
330
1F
100
AcDbEntity
  8
0
  6
Continuous
 62
     7
370
    15
100
AcDbSpline
210
0.0
220
0.0
230
1.0
 70
     8
 71
     3
 72
    39
 73
    35
 74
     0
 42
0.00000001
 43
0.00000001
 12
1.0
 22
0.0
 32
0.0
 13
1.0
 23
0.0
 33
0.0
 40
0.0
 40
0.0
 40
0.0
 40
0.0
 40
0.0248548566304554
 40
0.0555024551395985
 40
0.0846444008846031
 40
0.1122932923275856
 40
0.138380074159047
 40
0.1627252379939214
 40
0.1851897033105709
 40
0.2064789185450605
 40
0.2288074589451572
 40
0.2550174798445872
 40
0.2931722699711893
 40
0.3342709599469083
 40
0.3724951878352388
 40
0.412533916441109
 40
0.4510407214977224
 40
0.4889056501915114
 40
0.5265515781991634
 40
0.5642385108352185
 40
0.6021727708409625
 40
0.6407230602433682
 40
0.6805881872720874
 40
0.723618402092842
 40
0.7623581150153893
 40
0.7910314587819466
 40
0.8142103944751298
 40
0.838947716044724
 40
0.8664977632116742
 40
0.8960970332027551
 40
0.9272657448053604
 40
0.9596350359675915
 40
0.9927658441998055
 40
1.0
 40
1.0
 40
1.0
 40
1.0
 10
51.16823220917288
 20
106.3307188425135
 30
0.0
 10
51.06180809440219
 20
106.267680266194
 30
0.0
 10
50.82415636525909
 20
106.1269111679749
 30
0.0
 10
50.51036722516573
 20
105.8436122449944
 30
0.0
 10
50.2283550221508
 20
105.5137892356178
 30
0.0
 10
50.00904482096874
 20
105.1670595689828
 30
0.0
 10
49.8475547999081
 20
104.8197167879055
 30
0.0
 10
49.73845718006775
 20
104.4858192607916
 30
0.0
 10
49.6725216044933
 20
104.1775144773853
 30
0.0
 10
49.6379759770335
 20
103.8972201990302
 30
0.0
 10
49.62433299661851
 20
103.6328550354297
 30
0.0
 10
49.62590533760748
 20
103.3388056964778
 30
0.0
 10
49.64487519603527
 20
102.9919008542269
 30
0.0
 10
49.68361708057584
 20
102.5688778816852
 30
0.0
 10
49.74000679517672
 20
102.0879653070303
 30
0.0
 10
49.81052600582372
 20
101.571049916669
 30
0.0
 10
49.89435539289289
 20
101.0207157035875
 30
0.0
 10
49.98706389127828
 20
100.4625693347242
 30
0.0
 10
50.08690463332965
 20
99.90518171236519
 30
0.0
 10
50.19178285875406
 20
99.35993331733107
 30
0.0
 10
50.29970867653763
 20
98.83793168740193
 30
0.0
 10
50.40944768829281
 20
98.34741761297266
 30
0.0
 10
50.52215651107009
 20
97.88856831909439
 30
0.0
 10
50.63459500181968
 20
97.48437789967446
 30
0.0
 10
50.74690837438688
 20
97.1419858892671
 30
0.0
 10
50.87204128856424
 20
96.83305395990041
 30
0.0
 10
51.01942564983011
 20
96.5415786457862
 30
0.0
 10
51.20743469893518
 20
96.24509376731294
 30
0.0
 10
51.45800925520152
 20
95.93747263024558
 30
0.0
 10
51.7760838241464
 20
95.64094158984535
 30
0.0
 10
52.15644160314525
 20
95.37741087137935
 30
0.0
 10
52.59113637410437
 20
95.17446940125423
 30
0.0
 10
52.93702714014132
 20
95.05725539462036
 30
0.0
 10
53.13657508627679
 20
95.03567059081428
 30
0.0
 10
53.17233780690734
 20
95.03180219064613
 30
0.0
  0
LINE
  5
290
330
1F
100
AcDbEntity
  8
0
  6
Continuous
 62
     7
370
    15
100
AcDbLine
 10
53.1872371055
 20
95.0238552151
 30
0.0
 11
55.1520539291
 21
95.3703053502
 31
0.0
  0
LINE
  5
291
330
1F
100
AcDbEntity
  8
0
  6
Continuous
 62
     7
370
    15
100
AcDbLine
 10
53.1551008887
 20
106.6955946127
 30
0.0
 11
51.1902822024
 21
106.3491442738
 31
0.0
  0
LINE
  5
292
330
1F
100
AcDbEntity
  8
0
  6
Continuous
 62
     7
370
    15
100
AcDbLine
 10
59.0583262808
 20
110.1601092352
 30
0.0
 11
59.2041266925
 21
108.5727032015
 31
0.0
  0
LINE
  5
293
330
1F
100
AcDbEntity
  8
0
  6
Continuous
 62
     7
370
    15
100
AcDbLine
 10
65.095368757
 20
117.2053661404
 30
0.0
 11
60.6544194586
 21
116.4223073257
 31
0.0
  0
LINE
  5
294
330
1F
100
AcDbEntity
  8
0
  6
Continuous
 62
     7
370
    15
100
AcDbLine
 10
72.9244006622
 20
79.014721906
 30
0.0
 11
77.6006667718
 21
79.8392739354
 31
0.0
  0
LINE
  5
295
330
1F
100
AcDbEntity
  8
0
  6
Continuous
 62
     7
370
    15
100
AcDbLine
 10
71.3922217098
 20
86.429744607
 30
0.0
 11
71.6796454351
 21
86.084238833
 31
0.0
  0
LINE
  5
296
330
1F
100
AcDbEntity
  8
0
  6
Continuous
 62
     7
370
    15
100
AcDbLine
 10
69.020373731
 20
99.4069679847
 30
0.0
 11
68.8836304314
 21
99.0262479728
 31
0.0
  0
LINE
  5
297
330
1F
100
AcDbEntity
  8
0
  6
Continuous
 62
     7
370
    15
100
AcDbLine
 10
67.9227807402
 20
106.5420114875
 30
0.0
 11
67.3680924653
 21
106.4442049511
 31
0.0
  0
LINE
  5
298
330
1F
100
AcDbEntity
  8
0
  6
Continuous
 62
     7
370
    15
100
AcDbLine
 10
77.5881772704
 20
80.0518259613
 30
0.0
 11
80.385278429
 21
80.5450301824
 31
0.0
  0
LINE
  5
299
330
1F
100
AcDbEntity
  8
0
  6
Continuous
 62
     7
370
    15
100
AcDbLine
 10
80.3874675027
 20
80.5466599969
 30
0.0
 11
80.628782495
 21
80.8930915056
 31
0.0
  0
LINE
  5
29A
330
1F
100
AcDbEntity
  8
0
  6
Continuous
 62
     7
370
    15
100
AcDbLine
 10
77.8080648586
 20
96.5537537096
 30
0.0
 11
70.3024614911
 21
95.2303135974
 31
0.0
  0
LINE
  5
29B
330
1F
100
AcDbEntity
  8
0
  6
Continuous
 62
     7
370
    15
100
AcDbLine
 10
70.3024614911
 20
95.2303135974
 30
0.0
 11
68.6768092989
 21
104.2567570668
 31
0.0
  0
LINE
  5
29C
330
1F
100
AcDbEntity
  8
0
  6
Continuous
 62
     7
370
    15
100
AcDbLine
 10
87.3193628929
 20
107.5439422831
 30
0.0
 11
68.6768092989
 21
104.2567570668
 31
0.0
  0
ELLIPSE
  5
29D
330
1F
100
AcDbEntity
  8
0
  6
Continuous
 62
     7
370
    15
100
AcDbEllipse
 10
89.5814209272
 20
106.014692804
 30
0.0
 11
2.770022597818837
 21
-0.3915547084308884
 31
0.0
210
0.0
220
0.0
230
1.0
 40
0.8913813907
 41
2.640654564777099
 42
4.971121468496728
  0
LINE
  5
29E
330
1F
100
AcDbEntity
  8
0
  6
Continuous
 62
     7
370
    15
100
AcDbLine
 10
89.9527398712
 20
103.5275502337
 30
0.0
 11
89.9527398712
 21
95.0146928636
 31
0.0
  0
ARC
  5
29F
330
1F
100
AcDbEntity
  8
0
  6
Continuous
 62
     7
370
    15
100
AcDbCircle
 10
72.9527389474
 20
95.014692804
 30
0.0
 40
17.0
100
AcDbArc
 50
311.2001600918
 51
0.0
  0
LINE
  5
2A0
330
1F
100
AcDbEntity
  8
0
  6
Continuous
 62
     7
370
    15
100
AcDbLine
 10
80.5184324115
 20
81.5832406489
 30
0.0
 11
84.1504959232
 21
82.2236702053
 31
0.0
  0
LINE
  5
2A1
330
1F
100
AcDbEntity
  8
0
  6
Continuous
 62
     7
370
    15
100
AcDbLine
 10
77.8080648586
 20
96.5537537096
 30
0.0
 11
77.9006448417
 21
96.0397036953
 31
0.0
  0
ARC
  5
2A2
330
1F
100
AcDbEntity
  8
0
  6
Continuous
 62
     7
370
    15
100
AcDbCircle
 10
72.9527389474
 20
95.014692804
 30
0.0
 40
17.0
100
AcDbArc
 50
310.5080906921
 51
311.2001600918
  0
LINE
  5
2A3
330
1F
100
AcDbEntity
  8
0
  6
Continuous
 62
     7
370
    15
100
AcDbLine
 10
83.9951811201
 20
82.0893511383
 30
0.0
 11
80.5370984442
 21
81.4795974849
 31
0.0
  0
ARC
  5
2A4
330
1F
100
AcDbEntity
  8
0
  6
Continuous
 62
     7
370
    15
100
AcDbCircle
 10
72.9527389474
 20
106.014692804
 30
0.0
 40
16.5
100
AcDbArc
 50
120.7283122155
 51
122.8460448006
  0
SPLINE
  5
2A5
330
1F
100
AcDbEntity
  8
0
  6
Continuous
 62
     7
370
    15
100
AcDbSpline
210
0.0
220
0.0
230
1.0
 70
     8
 71
     3
 72
    12
 73
     8
 74
     0
 42
0.00000001
 43
0.00000001
 12
1.0
 22
0.0
 32
0.0
 13
1.0
 23
0.0
 33
0.0
 40
0.0
 40
0.0
 40
0.0
 40
0.0
 40
0.2500000000000006
 40
0.2500000000000006
 40
0.5000000000000012
 40
0.5000000000000012
 40
1.0
 40
1.0
 40
1.0
 40
1.0
 10
64.52177116888109
 20
120.1980909271202
 30
0.0
 10
64.52759242507886
 20
120.2015512278893
 30
0.0
 10
64.53100505526214
 20
120.2176303968387
 30
0.0
 10
64.5333134951933
 20
120.2734525004383
 30
0.0
 10
64.53212331008793
 20
120.3132201986324
 30
0.0
 10
64.52210763095742
 20
120.4605716339625
 30
0.0
 10
64.50661432090311
 20
120.5986205950899
 30
0.0
 10
64.48494699776975
 20
120.755673080059
 30
0.0
  0
ARC
  5
2A6
330
1F
100
AcDbEntity
  8
0
  6
Continuous
 62
     7
370
    15
100
AcDbCircle
 10
72.9527389474
 20
106.014692804
 30
0.0
 40
17.0
100
AcDbArc
 50
118.3524293298
 51
119.8747338149
  0
LINE
  5
2A7
330
1F
100
AcDbEntity
  8
0
  6
Continuous
 62
     7
370
    15
100
AcDbLine
 10
68.6768092989
 20
104.2567570668
 30
0.0
 11
64.8795459262
 21
120.9754269777
 31
0.0
  0
LINE
  5
2A8
330
1F
100
AcDbEntity
  8
0
  6
Continuous
 62
     7
370
    15
100
AcDbLine
 10
67.7170087426
 20
107.6845625622
 30
0.0
 11
68.7955920427
 21
101.6957220828
 31
0.0
  0
LWPOLYLINE
  5
2A9
330
1F
100
AcDbEntity
  8
0
  6
Continuous
 62
     7
370
    15
100
AcDbPolyline
 90
       15
 70
   128
 43
0.0
 10
67.4670473515
 20
107.4172856726
 10
67.3874672345
 20
107.8799040962
 10
67.3181447043
 20
108.3260261195
 10
67.2625559225
 20
108.7332811413
 10
67.2234883375
 20
109.0812479353
 10
67.2029005206
 20
109.35247794
 10
67.2018253087
 20
109.5333703535
 10
67.2203162528
 20
109.6148547923
 10
67.2574466869
 20
109.5928450787
 10
67.3113544314
 20
109.4684450628
 10
67.3793363228
 20
109.2478922775
 10
67.4579832546
 20
108.942246644
 10
67.5433520071
 20
108.5668342395
 10
67.6311612903
 20
108.1404796543
 10
67.7170087426
 20
107.6845625622
  0
LINE
  5
2AA
330
1F
100
AcDbEntity
  8
0
  6
Continuous
 62
     7
370
    15
100
AcDbLine
 10
67.6338584005
 20
106.4910666875
 30
0.0
 11
67.4670473515
 21
107.4172856726
 31
0.0
  0
LINE
  5
2AB
330
1F
100
AcDbEntity
  8
0
  6
Continuous
 62
     7
370
    15
100
AcDbLine
 10
70.2330982155
 20
88.2728953121
 30
0.0
 11
70.7321688376
 21
88.3608941195
 31
0.0
  0
SPLINE
  5
2AC
330
1F
100
AcDbEntity
  8
0
  6
Continuous
 62
     7
370
    15
100
AcDbSpline
210
0.0
220
0.0
230
1.0
 70
     8
 71
     3
 72
     8
 73
     4
 74
     0
 42
0.00000001
 43
0.00000001
 12
1.0
 22
0.0
 32
0.0
 13
1.0
 23
0.0
 33
0.0
 40
0.0
 40
0.0
 40
0.0
 40
0.0
 40
1.0
 40
1.0
 40
1.0
 40
1.0
 10
70.08913289717903
 20
89.01298462193476
 30
0.0
 10
70.13711746184713
 20
88.76624443424622
 30
0.0
 10
70.18510609033905
 20
88.51954940345124
 30
0.0
 10
70.23309831935673
 20
88.272894381418
 30
0.0
  0
ARC
  5
2AD
330
1F
100
AcDbEntity
  8
0
  6
Continuous
 62
     7
370
    15
100
AcDbCircle
 10
33.6092776861
 20
105.188065107
 30
0.0
 40
33.20291297307102
100
AcDbArc
 50
8.8628368817
 51
12.0455153575
  0
LINE
  5
2AE
330
1F
100
AcDbEntity
  8
0
  6
Continuous
 62
     7
370
    15
100
AcDbLine
 10
68.7955920427
 20
101.6957220828
 30
0.0
 11
70.3024614911
 21
95.2303135974
 31
0.0
  0
ELLIPSE
  5
2AF
330
1F
100
AcDbEntity
  8
0
  6
Continuous
 62
     7
370
    15
100
AcDbEllipse
 10
90.3158087518
 20
106.014692804
 30
0.0
 11
2.988813227083724
 21
-1.544233910093183
 31
0.0
210
0.0
220
0.0
230
1.0
 40
0.6578019636
 41
2.071246044608406
 42
3.149191653956552
  0
ARC
  5
2B0
330
1F
100
AcDbEntity
  8
0
  6
Continuous
 62
     7
370
    15
100
AcDbCircle
 10
72.9527389474
 20
106.014692804
 30
0.0
 40
17.0
100
AcDbArc
 50
8.3403422977
 51
118.3524293298
  0
SPLINE
  5
2B1
330
1F
100
AcDbEntity
  8
0
  6
Continuous
 62
     7
370
    15
100
AcDbSpline
210
0.0
220
0.0
230
1.0
 70
     8
 71
     3
 72
    18
 73
    14
 74
     0
 42
0.00000001
 43
0.00000001
 12
1.0
 22
0.0
 32
0.0
 13
1.0
 23
0.0
 33
0.0
 40
0.0
 40
0.0
 40
0.0
 40
0.0
 40
0.1249999999999999
 40
0.1249999999999999
 40
0.2499999999999999
 40
0.2499999999999999
 40
0.3749999999999998
 40
0.3749999999999998
 40
0.4999999999999999
 40
0.4999999999999999
 40
0.7499999999999999
 40
0.7499999999999999
 40
1.0
 40
1.0
 40
1.0
 40
1.0
 10
89.95273894735877
 20
106.0146928040232
 30
0.0
 10
89.95273894735877
 20
106.2260200768317
 30
0.0
 10
89.9487769133904
 20
106.4291610287357
 30
0.0
 10
89.93502529563982
 20
106.8140931024168
 30
0.0
 10
89.92560863223945
 20
106.9873411594265
 30
0.0
 10
89.90489407251195
 20
107.2987437282285
 30
0.0
 10
89.89385393369362
 20
107.433583536931
 30
0.0
 10
89.87195079157604
 20
107.6744814841415
 30
0.0
 10
89.86108267388607
 20
107.7800198655625
 30
0.0
 10
89.83093136412117
 20
108.0544206233992
 30
0.0
 10
89.81366070709709
 20
108.1870571869748
 30
0.0
 10
89.78714800423161
 20
108.3837688488582
 30
0.0
 10
89.77806539612068
 20
108.4456670658996
 30
0.0
 10
89.77294527685444
 20
108.4805920382162
 30
0.0
  0
LINE
  5
2B2
330
1F
100
AcDbEntity
  8
0
  6
Continuous
 62
     7
370
    15
100
AcDbLine
 10
89.9527398712
 20
103.5275502337
 30
0.0
 11
89.9527398712
 21
106.014692804
 31
0.0
  0
SPLINE
  5
2B3
330
1F
100
AcDbEntity
  8
0
  6
Continuous
 62
     7
370
    15
100
AcDbSpline
210
0.0
220
0.0
230
1.0
 70
     8
 71
     3
 72
    18
 73
    14
 74
     0
 42
0.00000001
 43
0.00000001
 12
1.0
 22
0.0
 32
0.0
 13
1.0
 23
0.0
 33
0.0
 40
0.0
 40
0.0
 40
0.0
 40
0.0
 40
0.25
 40
0.25
 40
0.375
 40
0.375
 40
0.5
 40
0.5
 40
0.625
 40
0.625
 40
0.75
 40
0.75
 40
1.0
 40
1.0
 40
1.0
 40
1.0
 10
62.01842100216484
 20
118.371500283037
 30
0.0
 10
62.25943957404328
 20
118.5847733068412
 30
0.0
 10
62.4948354596158
 20
118.7804878890911
 30
0.0
 10
62.8344164559278
 20
119.0488927157027
 30
0.0
 10
62.94536733078936
 20
119.1341231961607
 30
0.0
 10
63.15357766830189
 20
119.2903614769485
 30
0.0
 10
63.25188913069029
 20
119.3622123741863
 30
0.0
 10
63.43558822380525
 20
119.4938102805722
 30
0.0
 10
63.52175461952159
 20
119.5540851244715
 30
0.0
 10
63.6746258877663
 20
119.6592971534481
 30
0.0
 10
63.74121731274462
 20
119.7041949686
 30
0.0
 10
63.91049984547584
 20
119.8170952535985
 30
0.0
 10
63.98235729189953
 20
119.8632624388372
 30
0.0
 10
64.00341049345936
 20
119.8768542597352
 30
0.0
  0
ARC
  5
2B4
330
1F
100
AcDbEntity
  8
0
  6
Continuous
 62
     7
370
    15
100
AcDbCircle
 10
72.9527389474
 20
106.014692804
 30
0.0
 40
16.50000000000001
100
AcDbArc
 50
221.5830872325
 51
230.0152998331
  0
ARC
  5
2B5
330
1F
100
AcDbEntity
  8
0
  6
Continuous
 62
     7
370
    15
100
AcDbCircle
 10
72.9527389474
 20
106.014692804
 30
0.0
 40
16.50000000000001
100
AcDbArc
 50
145.2937308134
 51
168.6686430431
  0
ARC
  5
2B6
330
1F
100
AcDbEntity
  8
0
  6
Continuous
 62
     7
370
    15
100
AcDbCircle
 10
72.9527389474
 20
106.014692804
 30
0.0
 40
16.5
100
AcDbArc
 50
131.5050406759
 51
142.0616185924
  0
SPLINE
  5
2B7
330
1F
100
AcDbEntity
  8
0
  6
Continuous
 62
     7
370
    15
100
AcDbSpline
210
0.0
220
0.0
230
1.0
 70
    24
 71
     3
 72
     9
 73
     5
 74
     0
 42
0.00000001
 43
0.00000001
 12
1.0
 22
0.0
 32
0.0
 13
1.0
 23
0.0
 33
0.0
 40
0.0
 40
0.0
 40
0.0
 40
0.0
 40
0.5
 40
1.0
 40
1.0
 40
1.0
 40
1.0
 10
68.45273894735875
 20
122.9146928040232
 30
0.0
 10
68.45273894735875
 20
122.9166156723571
 30
0.0
 10
68.45273894735875
 20
122.920460961346
 30
0.0
 10
68.45273894735875
 20
122.9243053556665
 30
0.0
 10
68.45273894735875
 20
122.926227329311
 30
0.0
  0
SPLINE
  5
2B8
330
1F
100
AcDbEntity
  8
0
  6
Continuous
 62
     7
370
    15
100
AcDbSpline
210
0.0
220
0.0
230
1.0
 70
    24
 71
     3
 72
     9
 73
     5
 74
     0
 42
0.00000001
 43
0.00000001
 12
1.0
 22
0.0
 32
0.0
 13
1.0
 23
0.0
 33
0.0
 40
0.0
 40
0.0
 40
0.0
 40
0.0
 40
0.6141698093593497
 40
1.0
 40
1.0
 40
1.0
 40
1.0
 10
77.45273875364367
 20
122.9146920351233
 30
0.0
 10
76.8611779698111
 20
122.9146920351233
 30
0.0
 10
75.89799030604489
 20
122.9146920351233
 30
0.0
 10
74.93614125446406
 20
122.9146920351233
 30
0.0
 10
74.56503085152511
 20
122.9146920351233
 30
0.0
  0
SPLINE
  5
2B9
330
1F
100
AcDbEntity
  8
0
  6
Continuous
 62
     7
370
    15
100
AcDbSpline
210
0.0
220
0.0
230
1.0
 70
    24
 71
     3
 72
     9
 73
     5
 74
     0
 42
0.00000001
 43
0.00000001
 12
1.0
 22
0.0
 32
0.0
 13
1.0
 23
0.0
 33
0.0
 40
0.0
 40
0.0
 40
0.0
 40
0.0
 40
0.1382402069274069
 40
1.0
 40
1.0
 40
1.0
 40
1.0
 10
71.35398009152416
 20
122.9146920351233
 30
0.0
 10
71.22022838406957
 20
122.9146920351233
 30
0.0
 10
70.25269722633037
 20
122.9146920351233
 30
0.0
 10
69.28589254403249
 20
122.9146920351233
 30
0.0
 10
68.45273914107386
 20
122.9146920351233
 30
0.0
  0
SPLINE
  5
2BA
330
1F
100
AcDbEntity
  8
0
  6
Continuous
 62
     7
370
    15
100
AcDbSpline
210
0.0
220
0.0
230
1.0
 70
    24
 71
     3
 72
     9
 73
     5
 74
     0
 42
0.00000001
 43
0.00000001
 12
1.0
 22
0.0
 32
0.0
 13
1.0
 23
0.0
 33
0.0
 40
0.0
 40
0.0
 40
0.0
 40
0.0
 40
0.5
 40
1.0
 40
1.0
 40
1.0
 40
1.0
 10
77.45273894735875
 20
122.926227329311
 30
0.0
 10
77.45273894735875
 20
122.9243042048279
 30
0.0
 10
77.45273894735875
 20
122.920458659983
 30
0.0
 10
77.45273894735875
 20
122.9166145218055
 30
0.0
 10
77.45273894735875
 20
122.9146928040232
 30
0.0
  0
SPLINE
  5
2BB
330
1F
100
AcDbEntity
  8
0
  6
Continuous
 62
     7
370
    15
100
AcDbSpline
210
0.0
220
0.0
230
1.0
 70
    24
 71
     3
 72
    12
 73
     8
 74
     0
 42
0.00000001
 43
0.00000001
 12
1.0
 22
0.0
 32
0.0
 13
1.0
 23
0.0
 33
0.0
 40
0.0
 40
0.0
 40
0.0
 40
0.0
 40
0.5
 40
0.5
 40
0.75
 40
0.75
 40
1.0
 40
1.0
 40
1.0
 40
1.0
 10
60.07533625892814
 20
117.8646928040232
 30
0.0
 10
60.25786296247585
 20
117.8646928040232
 30
0.0
 10
60.44245361781102
 20
117.8646928040232
 30
0.0
 10
60.70273493998553
 20
117.8646928040232
 30
0.0
 10
60.78728939279662
 20
117.8646928040232
 30
0.0
 10
60.95123734254084
 20
117.8646928040232
 30
0.0
 10
61.0306875665822
 20
117.8646928040232
 30
0.0
 10
61.10273894736056
 20
117.8646928040232
 30
0.0
  0
SPLINE
  5
2BC
330
1F
100
AcDbEntity
  8
0
  6
Continuous
 62
     7
370
    15
100
AcDbSpline
210
0.0
220
0.0
230
1.0
 70
    24
 71
     3
 72
    10
 73
     6
 74
     0
 42
0.00000001
 43
0.00000001
 12
1.0
 22
0.0
 32
0.0
 13
1.0
 23
0.0
 33
0.0
 40
0.0
 40
0.0
 40
0.0
 40
0.0
 40
0.5
 40
0.5
 40
1.0
 40
1.0
 40
1.0
 40
1.0
 10
61.10273894735875
 20
118.8920954924538
 30
0.0
 10
61.10273894735876
 20
118.7093867803189
 30
0.0
 10
61.10273894735875
 20
118.5258784905581
 30
0.0
 10
61.10273894735876
 20
118.1775745122374
 30
0.0
 10
61.10273894735875
 20
118.0093869296945
 30
0.0
 10
61.10273894735875
 20
117.8646928040218
 30
0.0
  0
SPLINE
  5
2BD
330
1F
100
AcDbEntity
  8
0
  6
Continuous
 62
     7
370
    15
100
AcDbSpline
210
0.0
220
0.0
230
1.0
 70
    24
 71
     3
 72
    10
 73
     6
 74
     0
 42
0.00000001
 43
0.00000001
 12
1.0
 22
0.0
 32
0.0
 13
1.0
 23
0.0
 33
0.0
 40
0.0
 40
0.0
 40
0.0
 40
0.0
 40
0.5
 40
0.5
 40
1.0
 40
1.0
 40
1.0
 40
1.0
 10
68.45273894735875
 20
124.8855698371661
 30
0.0
 10
68.45273894735875
 20
125.044004280054
 30
0.0
 10
68.45273894735875
 20
125.2030249748559
 30
0.0
 10
68.45273894735875
 20
125.4330327991116
 30
0.0
 10
68.45273894735875
 20
125.5018680739283
 30
0.0
 10
68.45273894735875
 20
125.5018680739283
 30
0.0
  0
ARC
  5
2BE
330
1F
100
AcDbEntity
  8
0
  6
Continuous
 62
     7
370
    15
100
AcDbCircle
 10
72.9527389474
 20
106.014692804
 30
0.0
 40
19.99999999999999
100
AcDbArc
 50
103.0028781629
 51
126.3346172154
  0
SPLINE
  5
2BF
330
1F
100
AcDbEntity
  8
0
  6
Continuous
 62
     7
370
    15
100
AcDbSpline
210
0.0
220
0.0
230
1.0
 70
    24
 71
     3
 72
    12
 73
     8
 74
     0
 42
0.00000001
 43
0.00000001
 12
1.0
 22
0.0
 32
0.0
 13
1.0
 23
0.0
 33
0.0
 40
0.0
 40
0.0
 40
0.0
 40
0.0
 40
0.2499999999999986
 40
0.2499999999999986
 40
0.4999999999999971
 40
0.4999999999999971
 40
1.0
 40
1.0
 40
1.0
 40
1.0
 10
61.10273894735875
 20
122.1261018051007
 30
0.0
 10
61.10273894735875
 20
122.1261018051007
 30
0.0
 10
61.10273894735875
 20
122.1004771724959
 30
0.0
 10
61.10273894735875
 20
122.0119337995641
 30
0.0
 10
61.10273894735876
 20
121.9490513164495
 30
0.0
 10
61.10273894735875
 20
121.7316901285159
 30
0.0
 10
61.10273894735875
 20
121.5530431185045
 30
0.0
 10
61.10273894735875
 20
121.3749499633289
 30
0.0
  0
ARC
  5
2C0
330
1F
100
AcDbEntity
  8
0
  6
Continuous
 62
     7
370
    15
100
AcDbCircle
 10
72.9527389474
 20
106.014692804
 30
0.0
 40
20.00000000000001
100
AcDbArc
 50
215.5996942068
 51
254.0379858372
  0
ARC
  5
2C1
330
1F
100
AcDbEntity
  8
0
  6
Continuous
 62
     7
370
    15
100
AcDbCircle
 10
72.9527389474
 20
106.014692804
 30
0.0
 40
20.00000000000001
100
AcDbArc
 50
143.6653827846
 51
178.1459682273
  0
SPLINE
  5
2C2
330
1F
100
AcDbEntity
  8
0
  6
Continuous
 62
     7
370
    15
100
AcDbSpline
210
0.0
220
0.0
230
1.0
 70
    24
 71
     3
 72
    10
 73
     6
 74
     0
 42
0.00000001
 43
0.00000001
 12
1.0
 22
0.0
 32
0.0
 13
1.0
 23
0.0
 33
0.0
 40
0.0
 40
0.0
 40
0.0
 40
0.0
 40
0.5
 40
0.5
 40
1.0
 40
1.0
 40
1.0
 40
1.0
 10
67.45273894735875
 20
87.4106609829367
 30
0.0
 10
67.45273894735875
 20
87.25102881403346
 30
0.0
 10
67.45273894735875
 20
87.0899791802694
 30
0.0
 10
67.45273894735875
 20
86.8569882965928
 30
0.0
 10
67.45273894735875
 20
86.7858082809938
 30
0.0
 10
67.45273894735875
 20
86.7858082809938
 30
0.0
  0
SPLINE
  5
2C3
330
1F
100
AcDbEntity
  8
0
  6
Continuous
 62
     7
370
    15
100
AcDbSpline
210
0.0
220
0.0
230
1.0
 70
    24
 71
     3
 72
    12
 73
     8
 74
     0
 42
0.00000001
 43
0.00000001
 12
1.0
 22
0.0
 32
0.0
 13
1.0
 23
0.0
 33
0.0
 40
0.0
 40
0.0
 40
0.0
 40
0.0
 40
0.25
 40
0.25
 40
0.5
 40
0.5
 40
1.0
 40
1.0
 40
1.0
 40
1.0
 10
56.84132994628129
 20
117.8646928040232
 30
0.0
 10
56.8413299462813
 20
117.8646928040232
 30
0.0
 10
56.86661009644575
 20
117.8646928040232
 30
0.0
 10
56.95622144194751
 20
117.8646928040232
 30
0.0
 10
57.01920707887352
 20
117.8646928040232
 30
0.0
 10
57.23549380063109
 20
117.8646928040232
 30
0.0
 10
57.41547355805145
 20
117.8646928040232
 30
0.0
 10
57.59248178805315
 20
117.8646928040232
 30
0.0
  0
SPLINE
  5
2C4
330
1F
100
AcDbEntity
  8
0
  6
Continuous
 62
     7
370
    15
100
AcDbSpline
210
0.0
220
0.0
230
1.0
 70
    24
 71
     3
 72
    10
 73
     6
 74
     0
 42
0.00000001
 43
0.00000001
 12
1.0
 22
0.0
 32
0.0
 13
1.0
 23
0.0
 33
0.0
 40
0.0
 40
0.0
 40
0.0
 40
0.0
 40
0.5
 40
0.5
 40
1.0
 40
1.0
 40
1.0
 40
1.0
 10
77.45273894735875
 20
125.5018680739283
 30
0.0
 10
77.45273894735875
 20
125.5018680739283
 30
0.0
 10
77.45273894735875
 20
125.4332826714225
 30
0.0
 10
77.45273894735875
 20
125.2035094021028
 30
0.0
 10
77.45273894735875
 20
125.0450112004352
 30
0.0
 10
77.45273894735875
 20
124.8855698371661
 30
0.0
  0
ARC
  5
2C5
330
1F
100
AcDbEntity
  8
0
  6
Continuous
 62
     7
370
    15
100
AcDbCircle
 10
72.9527389474
 20
106.014692804
 30
0.0
 40
20.0
100
AcDbArc
 50
328.2116693829
 51
76.9971218371
  0
LINE
  5
2C6
330
1F
100
AcDbEntity
  8
0
  6
Continuous
 62
     7
370
    15
100
AcDbLine
 10
77.4527387536
 20
124.885569906
 30
0.0
 11
77.4527387536
 21
122.9262273965
 31
0.0
  0
LINE
  5
2C7
330
1F
100
AcDbEntity
  8
0
  6
Continuous
 62
     7
370
    15
100
AcDbLine
 10
67.4527389772
 20
89.1146935729
 30
0.0
 11
67.4527389772
 21
87.4106601087
 31
0.0
  0
LINE
  5
2C8
330
1F
100
AcDbEntity
  8
0
  6
Continuous
 62
     7
370
    15
100
AcDbLine
 10
57.592481359
 20
117.8646931631
 30
0.0
 11
60.0753361202
 21
117.8646931631
 31
0.0
  0
LINE
  5
2C9
330
1F
100
AcDbEntity
  8
0
  6
Continuous
 62
     7
370
    15
100
AcDbLine
 10
68.4527391411
 20
122.9262273965
 30
0.0
 11
68.4527391411
 21
124.885569906
 31
0.0
  0
LINE
  5
2CA
330
1F
100
AcDbEntity
  8
0
  6
Continuous
 62
     7
370
    15
100
AcDbLine
 10
61.1027385882
 20
121.3749503924
 30
0.0
 11
61.1027385882
 21
118.8920956312
 31
0.0
  0
SPLINE
  5
2CB
330
1F
100
AcDbEntity
  8
0
  6
Continuous
 62
     7
370
    15
100
AcDbSpline
210
0.0
220
0.0
230
1.0
 70
     8
 71
     3
 72
    22
 73
    18
 74
     0
 42
0.00000001
 43
0.00000001
 12
1.0
 22
0.0
 32
0.0
 13
1.0
 23
0.0
 33
0.0
 40
0.0
 40
0.0
 40
0.0
 40
0.0
 40
0.2499999999999999
 40
0.2499999999999999
 40
0.3749999999999999
 40
0.3749999999999999
 40
0.4999999999999999
 40
0.4999999999999999
 40
0.6249999999999999
 40
0.6249999999999999
 40
0.7499999999999999
 40
0.7499999999999999
 40
0.8749999999999998
 40
0.8749999999999998
 40
0.9374999999999999
 40
0.9374999999999999
 40
1.0
 40
1.0
 40
1.0
 40
1.0
 10
56.8413299462813
 20
117.8646928040232
 30
0.0
 10
57.25532482444778
 20
118.4275654459212
 30
0.0
 10
57.69113462575672
 20
118.9581903296508
 30
0.0
 10
58.36787542874105
 20
119.7039013205723
 30
0.0
 10
58.59873055591573
 20
119.9455215469711
 30
0.0
 10
59.05876761107787
 20
120.404380322297
 30
0.0
 10
59.28473528785637
 20
120.6185589947668
 30
0.0
 10
59.7219268763571
 20
121.0157875539123
 30
0.0
 10
59.93497960064964
 20
121.2002323889321
 30
0.0
 10
60.31915573988317
 20
121.5213122368158
 30
0.0
 10
60.49327274867465
 20
121.6606630669218
 30
0.0
 10
60.78679049347518
 20
121.8899686013473
 30
0.0
 10
60.90158279807259
 20
121.9765046108237
 30
0.0
 10
61.02053737416857
 20
122.0653942151549
 30
0.0
 10
61.05135545715515
 20
122.0882027210166
 30
0.0
 10
61.09237466887377
 20
122.1184938837128
 30
0.0
 10
61.10273894735876
 20
122.1261018051007
 30
0.0
 10
61.10273894735876
 20
122.1261018051007
 30
0.0
  0
SPLINE
  5
2CC
330
1F
100
AcDbEntity
  8
0
  6
Continuous
 62
     7
370
    15
100
AcDbSpline
210
0.0
220
0.0
230
1.0
 70
     8
 71
     3
 72
    16
 73
    12
 74
     0
 42
0.00000001
 43
0.00000001
 12
1.0
 22
0.0
 32
0.0
 13
1.0
 23
0.0
 33
0.0
 40
0.0
 40
0.0
 40
0.0
 40
0.0
 40
0.1157116439666157
 40
0.2314354073135534
 40
0.3470151387651747
 40
0.4626131415865049
 40
0.5808932574793821
 40
0.6991751042084208
 40
0.8201566685182773
 40
0.9411219517542034
 40
1.0
 40
1.0
 40
1.0
 40
1.0
 10
67.45273897716109
 20
86.78580785374304
 30
0.0
 10
67.46480864602813
 20
86.78228752352865
 30
0.0
 10
67.4889492479125
 20
86.77524649438836
 30
0.0
 10
67.6765952313722
 20
86.72269010384146
 30
0.0
 10
67.97174240114256
 20
86.64375468036567
 30
0.0
 10
68.37515258735931
 20
86.54367989461554
 30
0.0
 10
68.87950384030806
 20
86.43142085389842
 30
0.0
 10
69.47519886220446
 20
86.31526976218336
 30
0.0
 10
70.15036664121934
 20
86.209610692435
 30
0.0
 10
70.75298221448675
 20
86.12858214379763
 30
0.0
 10
71.135521526142
 20
86.10170913473458
 30
0.0
 10
71.2607592420027
 20
86.09291130880972
 30
0.0
  0
SPLINE
  5
2CD
330
1F
100
AcDbEntity
  8
0
  6
Continuous
 62
     7
370
    15
100
AcDbSpline
210
0.0
220
0.0
230
1.0
 70
     8
 71
     3
 72
    38
 73
    34
 74
     0
 42
0.00000001
 43
0.00000001
 12
1.0
 22
0.0
 32
0.0
 13
1.0
 23
0.0
 33
0.0
 40
0.0
 40
0.0
 40
0.0
 40
0.0
 40
0.0625
 40
0.0625
 40
0.125
 40
0.125
 40
0.1875000000000001
 40
0.1875000000000001
 40
0.2500000000000001
 40
0.2500000000000001
 40
0.3125
 40
0.3125
 40
0.3749999999999999
 40
0.3749999999999999
 40
0.4375
 40
0.4375
 40
0.5
 40
0.5
 40
0.5625
 40
0.5625
 40
0.625
 40
0.625
 40
0.6875
 40
0.6875
 40
0.75
 40
0.75
 40
0.8125000000000001
 40
0.8125000000000001
 40
0.8750000000000001
 40
0.8750000000000001
 40
0.9375000000000001
 40
0.9375000000000001
 40
1.0
 40
1.0
 40
1.0
 40
1.0
 10
68.45273894735875
 20
125.5018680739283
 30
0.0
 10
68.45273894735875
 20
125.5018680739283
 30
0.0
 10
68.48209936993027
 20
125.5087136411845
 30
0.0
 10
68.59695296043758
 20
125.5346978006181
 30
0.0
 10
68.6839050431821
 20
125.554150719441
 30
0.0
 10
68.91001792706673
 20
125.6021828239804
 30
0.0
 10
69.04824325154044
 20
125.6305668409596
 30
0.0
 10
69.3746480867777
 20
125.6927228544385
 30
0.0
 10
69.56396986110298
 20
125.7266210301152
 30
0.0
 10
69.97753891461969
 20
125.793268462441
 30
0.0
 10
70.20338500454339
 20
125.8263658798539
 30
0.0
 10
70.69481549350613
 20
125.8883718505162
 30
0.0
 10
70.95517294865643
 20
125.9165378197638
 30
0.0
 10
71.4961177602146
 20
125.9634260887933
 30
0.0
 10
71.78066160212691
 20
125.9824380761132
 30
0.0
 10
72.36187477675426
 20
126.0080791126547
 30
0.0
 10
72.65443638461525
 20
126.0146362288602
 30
0.0
 10
73.24340637522498
 20
126.0147486504952
 30
0.0
 10
73.54263750856926
 20
126.0080831272631
 30
0.0
 10
74.12047985002943
 20
125.9826676165617
 30
0.0
 10
74.40145008317039
 20
125.96403672316
 30
0.0
 10
74.9474548827687
 20
125.9168583921206
 30
0.0
 10
75.20946718249209
 20
125.8884767388671
 30
0.0
 10
75.69596902068466
 20
125.8271837877664
 30
0.0
 10
75.92433861191765
 20
125.7938322045045
 30
0.0
 10
76.34208531080766
 20
125.7265443461452
 30
0.0
 10
76.52763695177781
 20
125.6933010499957
 30
0.0
 10
76.85356366326583
 20
125.6312950780212
 30
0.0
 10
76.9949855446764
 20
125.6022800205506
 30
0.0
 10
77.2208626908802
 20
125.5543051397013
 30
0.0
 10
77.30650345933776
 20
125.5351509023608
 30
0.0
 10
77.42272834252373
 20
125.5088648716396
 30
0.0
 10
77.45273894735875
 20
125.5018680739283
 30
0.0
 10
77.45273894735875
 20
125.5018680739283
 30
0.0
  0
ARC
  5
2CE
330
1F
100
AcDbEntity
  8
0
  6
Continuous
 62
     7
370
    15
100
AcDbCircle
 10
53.212002018
 20
108.0747058142
 30
0.0
 40
1.678185164098841
100
AcDbArc
 50
6.6427033061
 51
28.9532195651
  0
LWPOLYLINE
  5
2CF
330
1F
100
AcDbEntity
  8
0
  6
Continuous
 62
     7
370
    15
100
AcDbPolyline
 90
        9
 70
   128
 43
0.0
 10
54.4704692281
 20
108.1968130285
 10
54.457404635
 20
108.3086250557
 10
54.4350584812
 20
108.5584977383
 10
54.4329238898
 20
108.7166004555
 10
54.4511647738
 20
108.7707529051
 10
54.4883766986
 20
108.7167832276
 10
54.5416930533
 20
108.5588490797
 10
54.6070067055
 20
108.3091179581
 10
54.626961223
 20
108.2244067194
  0
ARC
  5
2D0
330
1F
100
AcDbEntity
  8
0
  6
Continuous
 62
     7
370
    15
100
AcDbCircle
 10
57.8300076499
 20
107.9196564021
 30
0.0
 40
8.671184244534937
100
AcDbArc
 50
0.0384800252
 51
19.961521974
  0
LWPOLYLINE
  5
2D1
330
1F
100
AcDbEntity
  8
0
  6
Continuous
 62
     7
370
    15
100
AcDbPolyline
 90
        7
 70
   128
 43
0.0
 10
54.4909639127
 20
108.2004267929
 10
54.4747384108
 20
108.4036439398
 10
54.4775212027
 20
108.5267191494
 10
54.500772602
 20
108.541861756
 10
54.542330078
 20
108.4476622028
 10
54.5983267791
 20
108.2528893577
 10
54.6064665384
 20
108.2207927221
  0
ARC
  5
2D2
330
1F
100
AcDbEntity
  8
0
  6
Continuous
 62
     7
370
    15
100
AcDbCircle
 10
58.5115453199
 20
108.0398297598
 30
0.0
 40
8.224223163412447
100
AcDbArc
 50
0.0243001443
 51
19.9757014733
  0
LWPOLYLINE
  5
2D3
330
1F
100
AcDbEntity
  8
0
  6
Continuous
 62
     7
370
    15
100
AcDbPolyline
 90
       30
 70
   128
 43
0.0
 10
55.0343142665
 20
95.3495443074
 10
55.0884464599
 20
95.2354293523
 10
55.1624251372
 20
95.1346909834
 10
55.2183994866
 20
95.1392078979
 10
55.2553729928
 20
95.2488981394
 10
55.2726862795
 20
95.4618049992
 10
55.2700264222
 20
95.7741296125
 10
55.2474455751
 20
96.1802970825
 10
55.2053442068
 20
96.673060788
 10
55.1444748259
 20
97.2436271815
 10
55.0659214921
 20
97.8818141131
 10
54.9710867769
 20
98.5762324391
 10
54.8616656876
 20
99.3144913783
 10
54.739606551
 20
100.0834164416
 10
54.6070905245
 20
100.8692855222
 10
54.4664831675
 20
101.658075696
 10
54.3202897377
 20
102.4357100224
 10
54.1711216635
 20
103.1883122606
 10
54.0216425277
 20
103.9024520406
 10
53.8745159126
 20
104.5653854936
 10
53.7323700107
 20
105.1652824364
 10
53.597739882
 20
105.6914378979
 10
53.4730283386
 20
106.1344625097
 10
53.3604612417
 20
106.4864504998
 10
53.2620483852
 20
106.7411206869
 10
53.179544381
 20
106.8939283697
 10
53.1144225813
 20
106.9421467811
 10
53.067843414
 20
106.8849154373
 10
53.0406394816
 20
106.7232556499
 10
53.0373593635
 20
106.6748338609
  0
LWPOLYLINE
  5
2D4
330
1F
100
AcDbEntity
  8
0
  6
Continuous
 62
     7
370
    15
100
AcDbPolyline
 90
       29
 70
   128
 43
0.0
 10
56.3149219222
 20
94.3234661801
 10
56.3240842737
 20
94.3178428544
 10
56.3826979912
 20
94.336085601
 10
56.4219252981
 20
94.4611752612
 10
56.4411515213
 20
94.691165371
 10
56.4400786377
 20
95.022480583
 10
56.4187252737
 20
95.449966958
 10
56.3774211175
 20
95.9669757841
 10
56.3168106444
 20
96.5654669536
 10
56.23783449
 20
97.2361328287
 10
56.1417220003
 20
97.9685425965
 10
56.0299688793
 20
98.7513052506
 10
55.9043111123
 20
99.572247008
 10
55.7667044766
 20
100.4186003676
 10
55.6192891515
 20
101.2772024816
 10
55.4643561906
 20
102.1346998142
 10
55.3043177194
 20
102.9777562918
 10
55.1416603691
 20
103.7932605224
 10
54.9789154745
 20
104.5685292894
 10
54.8186125077
 20
105.2915052252
 10
54.6632455505
 20
105.9509443704
 10
54.5152304537
 20
106.5365908408
 10
54.3768713094
 20
107.0393364618
 10
54.2503157473
 20
107.4513621835
 10
54.1375363089
 20
107.7662601575
 10
54.040285743
 20
107.9791329076
 10
53.9600746549
 20
108.0866696985
 10
53.8981510169
 20
108.0871982241
 10
53.8897989161
 20
108.0770253876
  0
SPLINE
  5
2D5
330
1F
100
AcDbEntity
  8
0
  6
Continuous
 62
     7
370
    15
100
AcDbSpline
210
0.0
220
0.0
230
1.0
 70
    11
 71
     3
 72
    26
 73
    22
 74
     0
 42
0.00000001
 43
0.00000001
 12
1.0
 22
0.0
 32
0.0
 13
1.0
 23
0.0
 33
0.0
 40
0.0
 40
0.0
 40
0.0
 40
0.0
 40
0.0456328702830966
 40
0.0911466123916534
 40
0.1396864039537672
 40
0.1952352472604099
 40
0.2567870097295833
 40
0.3195024123965446
 40
0.3782720556909508
 40
0.4320413341146619
 40
0.4825626575664409
 40
0.5316195474536122
 40
0.5803373767331304
 40
0.6295795530093762
 40
0.6804008247168981
 40
0.7342114547414784
 40
0.7923205802657448
 40
0.854491441785839
 40
0.916814743684294
 40
0.9638627959344573
 40
1.0
 40
1.0
 40
1.0
 40
1.0
 10
60.22769769945447
 20
96.64588386397024
 30
0.0
 10
60.21124800388423
 20
96.70951359361852
 30
0.0
 10
60.17839155595976
 20
96.83660694253255
 30
0.0
 10
60.00249663484536
 20
96.99615451583391
 30
0.0
 10
59.74855516622512
 20
97.11685607306536
 30
0.0
 10
59.40973801441578
 20
97.17984130475647
 30
0.0
 10
59.01431137187399
 20
97.15612515411117
 30
0.0
 10
58.62433789522662
 20
97.0286443764005
 30
0.0
 10
58.31243008566955
 20
96.81898517387621
 30
0.0
 10
58.11736098299952
 20
96.57529819195982
 30
0.0
 10
58.04162298257356
 20
96.3373926099623
 30
0.0
 10
58.07665312695574
 20
96.12965505476515
 30
0.0
 10
58.21270498472517
 20
95.96834228933804
 30
0.0
 10
58.43724990930713
 20
95.86373617390176
 30
0.0
 10
58.73436507611643
 20
95.82059866005983
 30
0.0
 10
59.08539546437333
 20
95.84089097300296
 30
0.0
 10
59.46425454700309
 20
95.92680214546375
 30
0.0
 10
59.82712113688977
 20
96.0786873794551
 30
0.0
 10
60.08979787063526
 20
96.2759258500248
 30
0.0
 10
60.22108885070099
 20
96.47584432883129
 30
0.0
 10
60.22569618762442
 20
96.59438682509848
 30
0.0
 10
60.22769769945447
 20
96.64588386397024
 30
0.0
  0
LWPOLYLINE
  5
2D6
330
1F
100
AcDbEntity
  8
0
  6
Continuous
 62
     7
370
    15
100
AcDbPolyline
 90
       27
 70
   128
 43
0.0
 10
60.8621667913
 20
95.1078688933
 10
60.8933418832
 20
95.1314341484
 10
60.9325682587
 20
95.2565238086
 10
60.951794482
 20
95.4865139184
 10
60.9507225297
 20
95.8178281991
 10
60.9293682344
 20
96.245314574
 10
60.8880650095
 20
96.7623243315
 10
60.827453605
 20
97.360815501
 10
60.748478382
 20
98.0314813761
 10
60.6523658923
 20
98.7638906782
 10
60.5406127713
 20
99.5466533324
 10
60.4149550042
 20
100.3675950898
 10
60.2773483686
 20
101.2139484493
 10
60.1299330435
 20
102.0725505633
 10
59.9750000826
 20
102.9300478959
 10
59.8149606801
 20
103.7731046064
 10
59.6523033298
 20
104.5886087205
 10
59.4895584352
 20
105.3638774293
 10
59.3292554683
 20
106.0868533724
 10
59.1738885111
 20
106.746292554
 10
59.0258743457
 20
107.331939039
 10
58.88751427
 20
107.8346846599
 10
58.7609596393
 20
108.2467104981
 10
58.6481802008
 20
108.5616083557
 10
58.5509287036
 20
108.7744812222
 10
58.4707176156
 20
108.8820180131
 10
58.431092634
 20
108.8951776011
  0
ARC
  5
2D7
330
1F
100
AcDbEntity
  8
0
  6
Continuous
 62
     7
370
    15
100
AcDbCircle
 10
87.0856438596
 20
105.8135792031
 30
0.0
 40
2.374366539709276
100
AcDbArc
 50
302.2656747782
 51
337.6101966029
  0
ARC
  5
2D8
330
1F
100
AcDbEntity
  8
0
  6
Continuous
 62
     7
370
    15
100
AcDbCircle
 10
86.8702085647
 20
106.0133875141
 30
0.0
 40
2.651658119600128
100
AcDbArc
 50
335.3908732625
 51
60.2372039087
  0
ARC
  5
2D9
330
1F
100
AcDbEntity
  8
0
  6
Continuous
 62
     7
370
    15
100
AcDbCircle
 10
87.2158651124
 20
105.7887452447
 30
0.0
 40
2.185154533539109
100
AcDbArc
 50
298.0383010395
 51
338.0256333874
  0
ARC
  5
2DA
330
1F
100
AcDbEntity
  8
0
  6
Continuous
 62
     7
370
    15
100
AcDbCircle
 10
86.9981175815
 20
106.0154047682
 30
0.0
 40
2.475245969055244
100
AcDbArc
 50
335.0448877114
 51
64.7499823129
  0
ARC
  5
2DB
330
1F
100
AcDbEntity
  8
0
  6
Continuous
 62
     7
370
    15
100
AcDbCircle
 10
87.2826053494
 20
105.7955502488
 30
0.0
 40
1.806962715833287
100
AcDbArc
 50
289.0539172983
 51
338.3969627001
  0
ARC
  5
2DC
330
1F
100
AcDbEntity
  8
0
  6
Continuous
 62
     7
370
    15
100
AcDbCircle
 10
87.1407620892
 20
106.0297904906
 30
0.0
 40
2.031840270902078
100
AcDbArc
 50
333.7230618785
 51
75.0218336256
  0
ARC
  5
2DD
330
1F
100
AcDbEntity
  8
0
  6
Continuous
 62
     7
370
    15
100
AcDbCircle
 10
36.2893954086
 20
99.7656449778
 30
0.0
 40
16.28016173799183
100
AcDbArc
 50
4.9794957192
 51
23.8390168852
  0
ARC
  5
2DE
330
1F
100
AcDbEntity
  8
0
  6
Continuous
 62
     7
370
    15
100
AcDbCircle
 10
32.1849452843
 20
95.856002979
 30
0.0
 40
21.00863597664416
100
AcDbArc
 50
357.7299879802
 51
14.6764278032
  0
ARC
  5
2DF
330
1F
100
AcDbEntity
  8
0
  6
Continuous
 62
     7
370
    15
100
AcDbCircle
 10
37.4799906381
 20
99.9471849549
 30
0.0
 40
17.06605151393053
100
AcDbArc
 50
5.3054436038
 51
23.2927249695
  0
ARC
  5
2E0
330
1F
100
AcDbEntity
  8
0
  6
Continuous
 62
     7
370
    15
100
AcDbCircle
 10
33.2957396654
 20
96.0736190322
 30
0.0
 40
21.86762729077754
100
AcDbArc
 50
358.1569168141
 51
14.4360453179
  0
LWPOLYLINE
  5
2E1
330
1F
100
AcDbEntity
  8
0
  6
Continuous
 62
     7
370
    15
100
AcDbPolyline
 90
       31
 70
   128
 43
0.0
 10
50.362790919
 20
100.5540714806
 10
50.267084486
 20
101.0593782386
 10
50.1694911934
 20
101.5332468061
 10
50.0742783613
 20
101.954967363
 10
49.985607139
 20
102.3061078714
 10
49.9073518283
 20
102.5713222308
 10
49.8429322458
 20
102.7390192004
 10
49.7951665736
 20
102.8018697372
 10
49.7661391116
 20
102.757127138
 10
49.7571183211
 20
102.6067462491
 10
49.7685028083
 20
102.3573001122
 10
49.7997896589
 20
102.0196905566
 10
49.8496154166
 20
101.6086722931
 10
49.9158007867
 20
101.142209137
 10
49.9954549439
 20
100.6406877397
 10
50.085092879
 20
100.1260272434
 10
50.1807993121
 20
99.6207204854
 10
50.2783926047
 20
99.1468519179
 10
50.3736054368
 20
98.725131361
 10
50.4622766591
 20
98.3739910854
 10
50.5405319698
 20
98.1087764932
 10
50.6049515522
 20
97.9410797564
 10
50.6527172244
 20
97.8782285212
 10
50.6817446865
 20
97.9229720516
 10
50.6907654769
 20
98.0733527077
 10
50.6793809898
 20
98.3227986118
 10
50.6480941392
 20
98.6604081673
 10
50.5982683814
 20
99.0714264309
 10
50.5320830114
 20
99.5378895869
 10
50.4524307168
 20
100.0394109843
 10
50.362790919
 20
100.5540714806
  0
LINE
  5
2E2
330
1F
100
AcDbEntity
  8
0
  6
Continuous
 62
     7
370
    15
100
AcDbLine
 10
50.5059836275
 20
99.0689086003
 30
0.0
 11
50.563742391
 21
99.2971012575
 31
0.0
  0
LINE
  5
2E3
330
1F
100
AcDbEntity
  8
0
  6
Continuous
 62
     7
370
    15
100
AcDbLine
 10
50.258108399
 20
101.0862785598
 30
0.0
 11
50.0942347414
 21
101.334788019
 31
0.0
  0
LINE
  5
2E4
330
1F
100
AcDbEntity
  8
0
  6
Continuous
 62
     7
370
    15
100
AcDbLine
 10
50.6067676313
 20
99.00277585
 30
0.0
 11
50.5059836275
 21
99.0689086003
 31
0.0
  0
LINE
  5
2E5
330
1F
100
AcDbEntity
  8
0
  6
Continuous
 62
     7
370
    15
100
AcDbLine
 10
50.0942347414
 20
101.334788019
 30
0.0
 11
50.1798791654
 21
101.4839882238
 31
0.0
  0
LINE
  5
2E6
330
1F
100
AcDbEntity
  8
0
  6
Continuous
 62
     7
370
    15
100
AcDbLine
 10
50.5964876927
 20
99.0848668126
 30
0.0
 11
50.5059836275
 21
99.0689086003
 31
0.0
  0
LINE
  5
2E7
330
1F
100
AcDbEntity
  8
0
  6
Continuous
 62
     7
370
    15
100
AcDbLine
 10
50.2072600491
 20
101.3547173908
 30
0.0
 11
50.0942347414
 21
101.334788019
 31
0.0
  0
ARC
  5
2E8
330
1F
100
AcDbEntity
  8
0
  6
Continuous
 62
     7
370
    15
100
AcDbCircle
 10
-275.7833530749
 20
29.2845474932
 30
0.0
 40
350.9174847820563
100
AcDbArc
 50
11.6734130918
 51
13.26942927
  0
SPLINE
  5
2E9
330
1F
100
AcDbEntity
  8
0
  6
Continuous
 62
     7
370
    15
100
AcDbSpline
210
0.0
220
0.0
230
1.0
 70
     8
 71
     3
 72
    10
 73
     6
 74
     0
 42
0.00000001
 43
0.00000001
 12
1.0
 22
0.0
 32
0.0
 13
1.0
 23
0.0
 33
0.0
 40
0.0
 40
0.0
 40
0.0
 40
0.0
 40
0.4116165717985646
 40
0.8227990618804694
 40
1.0
 40
1.0
 40
1.0
 40
1.0
 10
69.29798352823857
 20
98.31842884625453
 30
0.0
 10
69.01536417500816
 20
98.53023104332026
 30
0.0
 10
68.45042351265542
 20
98.95361207554744
 30
0.0
 10
68.03010873523559
 20
99.69168151621801
 30
0.0
 10
67.9116979900696
 20
100.1489739906698
 30
0.0
 10
67.87603672885601
 20
100.2866948230114
 30
0.0
  0
LWPOLYLINE
  5
2EA
330
1F
100
AcDbEntity
  8
0
  6
Continuous
 62
     7
370
    15
100
AcDbPolyline
 90
        9
 70
   128
 43
0.0
 10
70.4736024916
 20
92.334274782
 10
70.3279226861
 20
93.0964188857
 10
70.1817644137
 20
93.8551180271
 10
70.0351849507
 20
94.6100751145
 10
69.8882413405
 20
95.3609949185
 10
69.7409917909
 20
96.1075812785
 10
69.5934935781
 20
96.8495426906
 10
69.4458049099
 20
97.5865885822
 10
69.2979835282
 20
98.3184288463
  0
SPLINE
  5
2EB
330
1F
100
AcDbEntity
  8
0
  6
Continuous
 62
     7
370
    15
100
AcDbSpline
210
0.0
220
0.0
230
1.0
 70
     8
 71
     3
 72
    13
 73
     9
 74
     0
 42
0.00000001
 43
0.00000001
 12
1.0
 22
0.0
 32
0.0
 13
1.0
 23
0.0
 33
0.0
 40
0.0
 40
0.0
 40
0.0
 40
0.0
 40
0.1665844606525511
 40
0.337695120615288
 40
0.5044008280671506
 40
0.6769075647698821
 40
0.8353100125386794
 40
1.0
 40
1.0
 40
1.0
 40
1.0
 10
66.63836024993364
 20
93.91247539053818
 30
0.0
 10
66.79573124573014
 20
93.7323815125385
 30
0.0
 10
67.11474910128925
 20
93.3673004982894
 30
0.0
 10
67.69775720632559
 20
92.92181632658162
 30
0.0
 10
68.35222358216926
 20
92.56849387827776
 30
0.0
 10
69.04566924661322
 20
92.34797446104467
 30
0.0
 10
69.7672208485947
 20
92.2520172515809
 30
0.0
 10
70.23510684572943
 20
92.30650217067132
 30
0.0
 10
70.47360249155466
 20
92.33427478204626
 30
0.0
  0
SPLINE
  5
2EC
330
1F
100
AcDbEntity
  8
0
  6
Continuous
 62
     7
370
    15
100
AcDbSpline
210
0.0
220
0.0
230
1.0
 70
     8
 71
     3
 72
    15
 73
    11
 74
     0
 42
0.00000001
 43
0.00000001
 12
1.0
 22
0.0
 32
0.0
 13
1.0
 23
0.0
 33
0.0
 40
0.0
 40
0.0
 40
0.0
 40
0.0
 40
0.1220876998881333
 40
0.2441780674880429
 40
0.3704040000164815
 40
0.4966403440862884
 40
0.6208486673647633
 40
0.7450697892247529
 40
0.8725281675452117
 40
1.0
 40
1.0
 40
1.0
 40
1.0
 10
59.25366653421227
 20
108.6826467627581
 30
0.0
 10
59.36880186126894
 20
108.10520123333
 30
0.0
 10
59.5990750311793
 20
106.9502975568372
 30
0.0
 10
60.15856540164939
 20
105.1351406291501
 30
0.0
 10
60.87662782655702
 20
103.2708725600391
 30
0.0
 10
61.75818090814558
 20
101.3781845798227
 30
0.0
 10
62.77791772895822
 20
99.49445501655676
 30
0.0
 10
63.93272372769794
 20
97.6182482009738
 30
0.0
 10
65.21162761746096
 20
95.74813683276247
 30
0.0
 10
66.16276597342782
 20
94.52438406610497
 30
0.0
 10
66.63836024993364
 20
93.91247539053818
 30
0.0
  0
SPLINE
  5
2ED
330
1F
100
AcDbEntity
  8
0
  6
Continuous
 62
     7
370
    15
100
AcDbSpline
210
0.0
220
0.0
230
1.0
 70
     8
 71
     3
 72
    10
 73
     6
 74
     0
 42
0.00000001
 43
0.00000001
 12
1.0
 22
0.0
 32
0.0
 13
1.0
 23
0.0
 33
0.0
 40
0.0
 40
0.0
 40
0.0
 40
0.0
 40
0.3401611608708575
 40
0.6905227542531025
 40
1.0
 40
1.0
 40
1.0
 40
1.0
 10
59.04337575950925
 20
113.4178141338672
 30
0.0
 10
59.07825268316495
 20
113.7448191875985
 30
0.0
 10
59.14905238681413
 20
114.4086352146225
 30
0.0
 10
59.33059684789838
 20
115.176706240102
 30
0.0
 10
59.48544458210188
 20
115.5418597263382
 30
0.0
 10
59.55807118037049
 20
115.7131238115873
 30
0.0
  0
ARC
  5
2EE
330
1F
100
AcDbEntity
  8
0
  6
Continuous
 62
     7
370
    15
100
AcDbCircle
 10
77.729223019
 20
111.875407234
 30
0.0
 40
18.749397506312
100
AcDbArc
 50
175.2812677264
 51
189.8044498716
  0
SPLINE
  5
2EF
330
1F
100
AcDbEntity
  8
0
  6
Continuous
 62
     7
370
    15
100
AcDbSpline
210
0.0
220
0.0
230
1.0
 70
     8
 71
     3
 72
    13
 73
     9
 74
     0
 42
0.00000001
 43
0.00000001
 12
1.0
 22
0.0
 32
0.0
 13
1.0
 23
0.0
 33
0.0
 40
0.0
 40
0.0
 40
0.0
 40
0.0
 40
0.1235917417743187
 40
0.2993147119860087
 40
0.4722148235183523
 40
0.6451328072930445
 40
0.8225568722682023
 40
1.0
 40
1.0
 40
1.0
 40
1.0
 10
61.23513726809327
 20
95.41526681016346
 30
0.0
 10
61.39034015486696
 20
95.0676940521826
 30
0.0
 10
61.76621079708911
 20
94.22594169514248
 30
0.0
 10
62.52520190213992
 20
93.06495173386875
 30
0.0
 10
63.47332749052889
 20
91.91313124675078
 30
0.0
 10
64.54875708891824
 20
90.91389503809508
 30
0.0
 10
65.7352919102178
 20
90.04604502659004
 30
0.0
 10
66.6161370142725
 20
89.58805920292501
 30
0.0
 10
67.05658322491948
 20
89.35905399005075
 30
0.0
  0
LINE
  5
2F0
330
1F
100
AcDbEntity
  8
0
  6
Continuous
 62
     7
370
    15
100
AcDbLine
 10
61.6750428296
 20
95.6966333298
 30
0.0
 11
61.6001505248
 21
95.7224272398
 31
0.0
  0
LWPOLYLINE
  5
2F1
330
1F
100
AcDbEntity
  8
0
  6
Continuous
 62
     7
370
    15
100
AcDbPolyline
 90
       21
 70
   128
 43
0.0
 10
59.2169370345
 20
108.4496447558
 10
59.237526714
 20
108.3068865092
 10
59.3046070851
 20
107.9673073228
 10
59.4267928816
 20
107.4364709176
 10
59.586612492
 20
106.811080882
 10
59.7989531077
 20
106.0405943055
 10
60.0341772504
 20
105.2312824733
 10
60.3048521868
 20
104.3302725276
 10
60.5895584292
 20
103.3960304895
 10
60.8863383374
 20
102.4162416553
 10
61.1823731876
 20
101.4089836946
 10
61.4609448082
 20
100.4011087326
 10
61.706138759
 20
99.4149652516
 10
61.9007898338
 20
98.4796342647
 10
62.0268620394
 20
97.6483753158
 10
62.0793271653
 20
96.922857335
 10
62.0542866952
 20
96.3622197715
 10
61.9545662619
 20
95.9546869827
 10
61.8327725522
 20
95.7678003443
 10
61.6750428296
 20
95.6966333298
 10
61.6750428296
 20
95.6966333298
  0
SPLINE
  5
2F2
330
1F
100
AcDbEntity
  8
0
  6
Continuous
 62
     7
370
    15
100
AcDbSpline
210
0.0
220
0.0
230
1.0
 70
     8
 71
     3
 72
    13
 73
     9
 74
     0
 42
0.00000001
 43
0.00000001
 12
1.0
 22
0.0
 32
0.0
 13
1.0
 23
0.0
 33
0.0
 40
0.0
 40
0.0
 40
0.0
 40
0.0
 40
0.1665845772221545
 40
0.337694974425828
 40
0.5044006825696821
 40
0.6769073485111092
 40
0.8353099644414224
 40
1.0
 40
1.0
 40
1.0
 40
1.0
 10
67.05658322491948
 20
89.35905399005075
 30
0.0
 10
67.20305280164239
 20
89.29764731623865
 30
0.0
 10
67.49997128467605
 20
89.17316565360014
 30
0.0
 10
68.05319403925164
 20
89.05199350835447
 30
0.0
 10
68.68169676610138
 20
88.9813393514664
 30
0.0
 10
69.35580427216225
 20
88.97137419697125
 30
0.0
 10
70.06461923991327
 20
89.01407426124376
 30
0.0
 10
70.5308973421886
 20
89.08606983284933
 30
0.0
 10
70.76857330569331
 20
89.12276813964505
 30
0.0
  0
LINE
  5
2F3
330
1F
100
AcDbEntity
  8
0
  6
Continuous
 62
     7
370
    15
100
AcDbLine
 10
70.4736024916
 20
92.334274782
 30
0.0
 11
70.7685733057
 21
89.1227681396
 31
0.0
  0
ARC
  5
2F4
330
1F
100
AcDbEntity
  8
0
  6
Continuous
 62
     7
370
    15
100
AcDbCircle
 10
66.7160385405
 20
113.7009253721
 30
0.0
 40
1.818819645552558
100
AcDbArc
 50
154.6028620574
 51
193.0108203016
  0
LINE
  5
2F5
330
1F
100
AcDbEntity
  8
0
  6
Continuous
 62
     7
370
    15
100
AcDbLine
 10
65.7651540666
 20
109.8307975309
 30
0.0
 11
64.9439124233
 21
113.291445302
 31
0.0
  0
SPLINE
  5
2F6
330
1F
100
AcDbEntity
  8
0
  6
Continuous
 62
     7
370
    15
100
AcDbSpline
210
0.0
220
0.0
230
1.0
 70
     8
 71
     3
 72
    10
 73
     6
 74
     0
 42
0.00000001
 43
0.00000001
 12
1.0
 22
0.0
 32
0.0
 13
1.0
 23
0.0
 33
0.0
 40
0.0
 40
0.0
 40
0.0
 40
0.0
 40
0.1480671770436771
 40
0.9078070562225902
 40
1.0
 40
1.0
 40
1.0
 40
1.0
 10
65.78681383573715
 20
115.3215510977354
 30
0.0
 10
65.74105941393267
 20
115.2868935260826
 30
0.0
 10
65.46053683089436
 20
115.0744062704591
 30
0.0
 10
65.21973700162867
 20
114.7856896123365
 30
0.0
 10
65.08732474751325
 20
114.5107516875459
 30
0.0
 10
65.07299559482638
 20
114.4809989465322
 30
0.0
  0
LINE
  5
2F7
330
1F
100
AcDbEntity
  8
0
  6
Continuous
 62
     7
370
    15
100
AcDbLine
 10
66.1393077887
 20
111.4837579636
 30
0.0
 11
65.7868138357
 21
115.3215510977
 31
0.0
  0
SPLINE
  5
2F8
330
1F
100
AcDbEntity
  8
0
  6
Continuous
 62
     7
370
    15
100
AcDbSpline
210
0.0
220
0.0
230
1.0
 70
     8
 71
     3
 72
    10
 73
     6
 74
     0
 42
0.00000001
 43
0.00000001
 12
1.0
 22
0.0
 32
0.0
 13
1.0
 23
0.0
 33
0.0
 40
0.0
 40
0.0
 40
0.0
 40
0.0
 40
0.2473659863508341
 40
0.8575153837145597
 40
1.0
 40
1.0
 40
1.0
 40
1.0
 10
66.24888627150361
 20
111.2580449527051
 30
0.0
 10
66.2321819662145
 20
111.268463683994
 30
0.0
 10
66.17427506085946
 20
111.3045811085875
 30
0.0
 10
66.14966420449221
 20
111.395400578437
 30
0.0
 10
66.14095631871443
 20
111.4696932712641
 30
0.0
 10
66.13930778869693
 20
111.4837579635825
 30
0.0
  0
LINE
  5
2F9
330
1F
100
AcDbEntity
  8
0
  6
Continuous
 62
     7
370
    15
100
AcDbLine
 10
66.5302155382
 20
107.2277361501
 30
0.0
 11
66.4666876971
 21
107.9193962479
 31
0.0
  0
SPLINE
  5
2FA
330
1F
100
AcDbEntity
  8
0
  6
Continuous
 62
     7
370
    15
100
AcDbSpline
210
0.0
220
0.0
230
1.0
 70
     8
 71
     3
 72
     9
 73
     5
 74
     0
 42
0.00000001
 43
0.00000001
 12
1.0
 22
0.0
 32
0.0
 13
1.0
 23
0.0
 33
0.0
 40
0.0
 40
0.0
 40
0.0
 40
0.0
 40
0.8188410888799309
 40
1.0
 40
1.0
 40
1.0
 40
1.0
 10
65.5579301371545
 20
110.7040235048081
 30
0.0
 10
65.63150227330023
 20
110.7713521423853
 30
0.0
 10
65.72135137484733
 20
110.853576445112
 30
0.0
 10
65.81837194552686
 20
110.8403660225196
 30
0.0
 10
65.83594808646743
 20
110.8379728367474
 30
0.0
  0
SPLINE
  5
2FB
330
1F
100
AcDbEntity
  8
0
  6
Continuous
 62
     7
370
    15
100
AcDbSpline
210
0.0
220
0.0
230
1.0
 70
     8
 71
     3
 72
    10
 73
     6
 74
     0
 42
0.00000001
 43
0.00000001
 12
1.0
 22
0.0
 32
0.0
 13
1.0
 23
0.0
 33
0.0
 40
0.0
 40
0.0
 40
0.0
 40
0.0
 40
0.3955864494253112
 40
0.804243770459764
 40
1.0
 40
1.0
 40
1.0
 40
1.0
 10
59.55807118037049
 20
115.7131238115873
 30
0.0
 10
59.65487069861275
 20
115.8528306863578
 30
0.0
 10
59.85166816132399
 20
116.1368605966033
 30
0.0
 10
60.24486806927262
 20
116.3527789264575
 30
0.0
 10
60.55802211281705
 20
116.3839625018023
 30
0.0
 10
60.65944580653016
 20
116.3940621746626
 30
0.0
  0
ARC
  5
2FC
330
1F
100
AcDbEntity
  8
0
  6
Continuous
 62
     7
370
    15
100
AcDbCircle
 10
62.6532518339
 20
115.2401958078
 30
0.0
 40
3.134617919675109
100
AcDbArc
 50
1.4872109916
 51
38.8236170734
  0
LINE
  5
2FD
330
1F
100
AcDbEntity
  8
0
  6
Continuous
 62
     7
370
    15
100
AcDbLine
 10
67.4137458979
 20
106.0248269124
 30
0.0
 11
67.6738028257
 21
104.5808591854
 31
0.0
  0
LINE
  5
2FE
330
1F
100
AcDbEntity
  8
0
  6
Continuous
 62
     7
370
    15
100
AcDbLine
 10
68.0088358774
 20
102.7205852998
 30
0.0
 11
68.7107872061
 21
98.8229956685
 31
0.0
  0
LWPOLYLINE
  5
2FF
330
1F
100
AcDbEntity
  8
0
  6
Continuous
 62
     7
370
    15
100
AcDbPolyline
 90
        9
 70
   128
 43
0.0
 10
67.4164416111
 20
106.2966232104
 10
67.3951986089
 20
106.3800393578
 10
67.378159131
 20
106.4307304015
 10
67.3670130625
 20
106.4436657736
 10
67.3628677457
 20
106.4175618204
 10
67.366133894
 20
106.3550090449
 10
67.376487407
 20
106.2622152068
 10
67.3929010361
 20
106.1483891364
 10
67.4137458979
 20
106.0248269124
  0
LINE
  5
300
330
1F
100
AcDbEntity
  8
0
  6
Continuous
 62
     7
370
    15
100
AcDbLine
 10
70.1412991464
 20
94.6052890478
 30
0.0
 11
69.4416789181
 21
97.607095374
 31
0.0
  0
LINE
  5
301
330
1F
100
AcDbEntity
  8
0
  6
Continuous
 62
     7
370
    15
100
AcDbLine
 10
69.2703584052
 20
98.342166396
 30
0.0
 11
67.4164416111
 21
106.2966232104
 31
0.0
  0
ARC
  5
302
330
1F
100
AcDbEntity
  8
0
  6
Continuous
 62
     7
370
    15
100
AcDbCircle
 10
65.6790514278
 20
93.5829099906
 30
0.0
 40
4.57787217361596
100
AcDbArc
 50
10.0832979509
 51
12.9047323514
  0
LINE
  5
303
330
1F
100
AcDbEntity
  8
0
  6
Continuous
 62
     7
370
    15
100
AcDbLine
 10
72.8787472023
 20
79.4341001866
 30
0.0
 11
70.1862149715
 21
94.3844026161
 31
0.0
  0
LWPOLYLINE
  5
304
330
1F
100
AcDbEntity
  8
0
  6
Continuous
 62
     7
370
    15
100
AcDbPolyline
 90
        9
 70
   128
 43
0.0
 10
72.8760512854
 20
79.1623048691
 10
72.8972941858
 20
79.0788881687
 10
72.914334002
 20
79.028196281
 10
72.9254797049
 20
79.0152620731
 10
72.9296251963
 20
79.0413651822
 10
72.9263590808
 20
79.1039183943
 10
72.9160054823
 20
79.1967116503
 10
72.8995918969
 20
79.3105378954
 10
72.8787472023
 20
79.4341001866
  0
LINE
  5
305
330
1F
100
AcDbEntity
  8
0
  6
Continuous
 62
     7
370
    15
100
AcDbLine
 10
70.5612937297
 20
89.094053602
 30
0.0
 11
72.8760512854
 21
79.1623048691
 31
0.0
  0
LWPOLYLINE
  5
306
330
1F
100
AcDbEntity
  8
0
  6
Continuous
 62
     7
370
    15
100
AcDbPolyline
 90
        9
 70
   128
 43
0.0
 10
72.8749957914
 20
79.1746206788
 10
72.8951765475
 20
79.0953763036
 10
72.9113643708
 20
79.0472194759
 10
72.9219527882
 20
79.0349316059
 10
72.9258910057
 20
79.0597290007
 10
72.9227881954
 20
79.1191548316
 10
72.9129522794
 20
79.2073082386
 10
72.8973593711
 20
79.3154441027
 10
72.8775569139
 20
79.432828
  0
LINE
  5
307
330
1F
100
AcDbEntity
  8
0
  6
Continuous
 62
     7
370
    15
100
AcDbLine
 10
72.8775569139
 20
79.432828
 30
0.0
 11
70.1850247412
 21
94.3831294982
 31
0.0
  0
ARC
  5
308
330
1F
100
AcDbEntity
  8
0
  6
Continuous
 62
     7
370
    15
100
AcDbCircle
 10
65.9030494387
 20
93.6216777523
 30
0.0
 40
4.349151785460159
100
AcDbArc
 50
10.0833437692
 51
12.9046625219
  0
LINE
  5
309
330
1F
100
AcDbEntity
  8
0
  6
Continuous
 62
     7
370
    15
100
AcDbLine
 10
70.1423548005
 20
94.5929713754
 30
0.0
 11
69.453124174
 21
97.5501999466
 31
0.0
  0
LINE
  5
30A
330
1F
100
AcDbEntity
  8
0
  6
Continuous
 62
     7
370
    15
100
AcDbLine
 10
69.2680887721
 20
98.3441170512
 30
0.0
 11
67.4174972653
 21
106.2843061492
 31
0.0
  0
LWPOLYLINE
  5
30B
330
1F
100
AcDbEntity
  8
0
  6
Continuous
 62
     7
370
    15
100
AcDbPolyline
 90
        9
 70
   128
 43
0.0
 10
67.4174972653
 20
106.2843061492
 10
67.3973164364
 20
106.3635514848
 10
67.3811286531
 20
106.4117079633
 10
67.3705399811
 20
106.42399659
 10
67.3666018836
 20
106.3991978273
 10
67.3697045847
 20
106.3397726949
 10
67.3795407481
 20
106.2516185458
 10
67.3951334163
 20
106.1434837731
 10
67.4149361282
 20
106.0260996593
  0
LINE
  5
30C
330
1F
100
AcDbEntity
  8
0
  6
Continuous
 62
     7
370
    15
100
AcDbLine
 10
67.4149361282
 20
106.0260996593
 30
0.0
 11
67.6900874666
 21
104.4983200237
 31
0.0
  0
LINE
  5
30D
330
1F
100
AcDbEntity
  8
0
  6
Continuous
 62
     7
370
    15
100
AcDbLine
 10
67.994931697
 20
102.8056699989
 30
0.0
 11
68.7124668463
 21
98.8215525841
 31
0.0
  0
LINE
  5
30E
330
1F
100
AcDbEntity
  8
0
  6
Continuous
 62
     7
370
    15
100
AcDbLine
 10
70.5630522996
 20
89.0942976085
 30
0.0
 11
72.8749957914
 21
79.1746206788
 31
0.0
  0
LINE
  5
30F
330
1F
100
AcDbEntity
  8
0
  6
Continuous
 62
     7
370
    15
100
AcDbLine
 10
77.5550133392
 20
80.258652216
 30
0.0
 11
74.8624808464
 21
95.2089546455
 31
0.0
  0
LINE
  5
310
330
1F
100
AcDbEntity
  8
0
  6
Continuous
 62
     7
370
    15
100
AcDbLine
 10
71.287686688
 20
87.4724067954
 30
0.0
 11
70.5376432586
 21
91.6370289607
 31
0.0
  0
LWPOLYLINE
  5
311
330
1F
100
AcDbEntity
  8
0
  6
Continuous
 62
     7
370
    15
100
AcDbPolyline
 90
        7
 70
   128
 43
0.0
 10
69.01154619
 20
98.6660105383
 10
68.9584389172
 20
98.8745508922
 10
68.9158392913
 20
99.0012787489
 10
68.8879750512
 20
99.0336170627
 10
68.8776112936
 20
98.9683574272
 10
68.8857766643
 20
98.8119753284
 10
68.9006242744
 20
98.6692217385
  0
LWPOLYLINE
  5
312
330
1F
100
AcDbEntity
  8
0
  6
Continuous
 62
     7
370
    15
100
AcDbPolyline
 90
        9
 70
   128
 43
0.0
 10
71.2809469394
 20
86.7929175703
 10
71.3340542122
 20
86.5843758194
 10
71.3766537217
 20
86.457648894
 10
71.4045179618
 20
86.4253096489
 10
71.4148817194
 20
86.490571147
 10
71.4067164651
 20
86.6469513832
 10
71.3808324497
 20
86.8789363859
 10
71.3397984934
 20
87.1635019986
 10
71.287686688
 20
87.4724067954
  0
LINE
  5
313
330
1F
100
AcDbEntity
  8
0
  6
Continuous
 62
     7
370
    15
100
AcDbLine
 10
70.738895082
 20
89.1186572818
 30
0.0
 11
71.2809469394
 21
86.7929175703
 31
0.0
  0
ARC
  5
314
330
1F
100
AcDbEntity
  8
0
  6
Continuous
 62
     7
370
    15
100
AcDbCircle
 10
76.2971097305
 20
79.9095430383
 30
0.0
 40
1.305449618614115
100
AcDbArc
 50
356.9144195812
 51
15.5110653598
  0
ARC
  5
315
330
1F
100
AcDbEntity
  8
0
  6
Continuous
 62
     7
370
    15
100
AcDbCircle
 10
70.355181016
 20
94.4074366588
 30
0.0
 40
4.578010795500544
100
AcDbArc
 50
10.0833118232
 51
12.9046604831
  0
LINE
  5
316
330
1F
100
AcDbEntity
  8
0
  6
Continuous
 62
     7
370
    15
100
AcDbLine
 10
74.8175651376
 20
95.4298410771
 30
0.0
 11
74.6840047493
 21
96.0028978271
 31
0.0
  0
LINE
  5
317
330
1F
100
AcDbEntity
  8
0
  6
Continuous
 62
     7
370
    15
100
AcDbLine
 10
74.8401570442
 20
95.3329071609
 30
0.0
 11
74.6840047493
 21
96.0028978271
 31
0.0
  0
LINE
  5
318
330
1F
100
AcDbEntity
  8
0
  6
Continuous
 62
     7
370
    15
100
AcDbLine
 10
77.4988741457
 20
80.5703640191
 30
0.0
 11
74.8401570442
 21
95.3329071609
 31
0.0
  0
ARC
  5
319
330
1F
100
AcDbEntity
  8
0
  6
Continuous
 62
     7
370
    15
100
AcDbCircle
 10
78.7559162839
 20
80.6328757223
 30
0.0
 40
1.631728481933997
100
AcDbArc
 50
356.913939301
 51
15.51154564
  0
LINE
  5
31A
330
1F
100
AcDbEntity
  8
0
  6
Continuous
 62
     7
370
    15
100
AcDbLine
 10
77.669494304
 20
95.831796175
 30
0.0
 11
74.8401570442
 21
95.3329071609
 31
0.0
  0
LINE
  5
31B
330
1F
100
AcDbEntity
  8
0
  6
Continuous
 62
     7
370
    15
100
AcDbLine
 10
80.3282116383
 20
81.0692530332
 30
0.0
 11
77.669494304
 21
95.831796175
 31
0.0
  0
ARC
  5
31C
330
1F
100
AcDbEntity
  8
0
  6
Continuous
 62
     7
370
    15
100
AcDbCircle
 10
79.8004606017
 20
80.9050309221
 30
0.0
 40
0.8284079361524292
100
AcDbArc
 50
359.174196875
 51
13.7640218602
  0
LINE
  5
31D
330
1F
100
AcDbEntity
  8
0
  6
Continuous
 62
     7
370
    15
100
AcDbLine
 10
77.669494304
 20
95.831796175
 30
0.0
 11
77.9631053872
 21
95.7717072425
 31
0.0
  0
LINE
  5
31E
330
1F
100
AcDbEntity
  8
0
  6
Continuous
 62
     7
370
    15
100
AcDbLine
 10
77.9631053872
 20
95.7717072425
 30
0.0
 11
80.6050798699
 21
81.1021287201
 31
0.0
  0
LINE
  5
31F
330
1F
100
AcDbEntity
  8
0
  6
Continuous
 62
     7
370
    15
100
AcDbLine
 10
77.669494304
 20
95.831796175
 30
0.0
 11
77.5133422419
 21
96.5017868413
 31
0.0
  0
LINE
  5
320
330
1F
100
AcDbEntity
  8
0
  6
Continuous
 62
     7
370
    15
100
AcDbLine
 10
77.781911458
 20
96.5491427315
 30
0.0
 11
77.9631053872
 21
95.7717072425
 31
0.0
  0
INSERT
  5
32C
330
1F
100
AcDbEntity
  8
VERMASSUNG
100
AcDbBlockReference
  2
SW_CENTERMARKSYMBOL_0
 10
72.9527389474
 20
106.014692804
 30
0.0
  0
OLE2FRAME
  5
32D
330
1F
100
AcDbEntity
  8
0
100
AcDbOle2Frame
 70
     2
  3
Paintbrush-Bild
 10
13.8511154363
 20
38.264191557
 30
0.0
 11
51.6290888628
 21
31.9806341108
 31
0.0
 71
     2
 72
     0
 73
     1
 90
    12928
310
80552BED0767C5B32B40DDAF6807D121434000000000000000006FFBDDFB85D0
310
4940DDAF6807D121434000000000000000006FFBDDFB85D04940416F4BD60AFB
310
3F4000000000000000002BED0767C5B32B40416F4BD60AFB3F40000000000000
310
0000000000000100000000010000010000000100000000000100000000320000
310
D0CF11E0A1B11AE1000000000000000000000000000000003E000300FEFF0900
310
0600000000000000000000000100000001000000000000000010000002000000
310
01000000FEFFFFFF0000000000000000FFFFFFFFFFFFFFFFFFFFFFFFFFFFFFFF
310
FFFFFFFFFFFFFFFFFFFFFFFFFFFFFFFFFFFFFFFFFFFFFFFFFFFFFFFFFFFFFFFF
310
FFFFFFFFFFFFFFFFFFFFFFFFFFFFFFFFFFFFFFFFFFFFFFFFFFFFFFFFFFFFFFFF
310
FFFFFFFFFFFFFFFFFFFFFFFFFFFFFFFFFFFFFFFFFFFFFFFFFFFFFFFFFFFFFFFF
310
FFFFFFFFFFFFFFFFFFFFFFFFFFFFFFFFFFFFFFFFFFFFFFFFFFFFFFFFFFFFFFFF
310
FFFFFFFFFFFFFFFFFFFFFFFFFFFFFFFFFFFFFFFFFFFFFFFFFFFFFFFFFFFFFFFF
310
FFFFFFFFFFFFFFFFFFFFFFFFFFFFFFFFFFFFFFFFFFFFFFFFFFFFFFFFFFFFFFFF
310
FFFFFFFFFFFFFFFFFFFFFFFFFFFFFFFFFFFFFFFFFFFFFFFFFFFFFFFFFFFFFFFF
310
FFFFFFFFFFFFFFFFFFFFFFFFFFFFFFFFFFFFFFFFFFFFFFFFFFFFFFFFFFFFFFFF
310
FFFFFFFFFFFFFFFFFFFFFFFFFFFFFFFFFFFFFFFFFFFFFFFFFFFFFFFFFFFFFFFF
310
FFFFFFFFFFFFFFFFFFFFFFFFFFFFFFFFFFFFFFFFFFFFFFFFFFFFFFFFFFFFFFFF
310
FFFFFFFFFFFFFFFFFFFFFFFFFFFFFFFFFFFFFFFFFFFFFFFFFFFFFFFFFFFFFFFF
310
FFFFFFFFFFFFFFFFFFFFFFFFFFFFFFFFFFFFFFFFFFFFFFFFFFFFFFFFFFFFFFFF
310
FFFFFFFFFFFFFFFFFFFFFFFFFFFFFFFFFFFFFFFFFFFFFFFFFFFFFFFFFFFFFFFF
310
FDFFFFFFFEFFFFFFFEFFFFFFFEFFFFFF05000000060000000700000008000000
310
090000000A0000000B0000000C0000000D0000000E0000000F00000010000000
310
11000000120000001300000014000000150000001600000017000000FEFFFFFF
310
FFFFFFFFFFFFFFFFFFFFFFFFFFFFFFFFFFFFFFFFFFFFFFFFFFFFFFFFFFFFFFFF
310
FFFFFFFFFFFFFFFFFFFFFFFFFFFFFFFFFFFFFFFFFFFFFFFFFFFFFFFFFFFFFFFF
310
FFFFFFFFFFFFFFFFFFFFFFFFFFFFFFFFFFFFFFFFFFFFFFFFFFFFFFFFFFFFFFFF
310
FFFFFFFFFFFFFFFFFFFFFFFFFFFFFFFFFFFFFFFFFFFFFFFFFFFFFFFFFFFFFFFF
310
FFFFFFFFFFFFFFFFFFFFFFFFFFFFFFFFFFFFFFFFFFFFFFFFFFFFFFFFFFFFFFFF
310
FFFFFFFFFFFFFFFFFFFFFFFFFFFFFFFFFFFFFFFFFFFFFFFFFFFFFFFFFFFFFFFF
310
FFFFFFFFFFFFFFFFFFFFFFFFFFFFFFFFFFFFFFFFFFFFFFFFFFFFFFFFFFFFFFFF
310
FFFFFFFFFFFFFFFFFFFFFFFFFFFFFFFFFFFFFFFFFFFFFFFFFFFFFFFFFFFFFFFF
310
FFFFFFFFFFFFFFFFFFFFFFFFFFFFFFFFFFFFFFFFFFFFFFFFFFFFFFFFFFFFFFFF
310
FFFFFFFFFFFFFFFFFFFFFFFFFFFFFFFFFFFFFFFFFFFFFFFFFFFFFFFFFFFFFFFF
310
FFFFFFFFFFFFFFFFFFFFFFFFFFFFFFFFFFFFFFFFFFFFFFFFFFFFFFFFFFFFFFFF
310
FFFFFFFFFFFFFFFFFFFFFFFFFFFFFFFFFFFFFFFFFFFFFFFFFFFFFFFFFFFFFFFF
310
FFFFFFFFFFFFFFFFFFFFFFFFFFFFFFFFFFFFFFFFFFFFFFFFFFFFFFFFFFFFFFFF
310
52006F006F007400200045006E00740072007900000000000000000000000000
310
0000000000000000000000000000000000000000000000000000000000000000
310
16000500FFFFFFFFFFFFFFFF020000000A00030000000000C000000000000046
310
000000000000000000000000B0E1C27920B9CE0103000000C000000000000000
310
01004F006C006500000000000000000000000000000000000000000000000000
310
0000000000000000000000000000000000000000000000000000000000000000
310
0A000200FFFFFFFFFFFFFFFFFFFFFFFF00000000000000000000000000000000
310
0000000000000000000000000000000000000000000000001400000000000000
310
010043006F006D0070004F0062006A0000000000000000000000000000000000
310
0000000000000000000000000000000000000000000000000000000000000000
310
120002010100000003000000FFFFFFFF00000000000000000000000000000000
310
0000000000000000000000000000000000000000010000004D00000000000000
310
01004F006C006500310030004E00610074006900760065000000000000000000
310
0000000000000000000000000000000000000000000000000000000000000000
310
1A000200FFFFFFFFFFFFFFFFFFFFFFFF00000000000000000000000000000000
310
0000000000000000000000000000000000000000040000002426000000000000
310
FEFFFFFF02000000FEFFFFFFFFFFFFFFFFFFFFFFFFFFFFFFFFFFFFFFFFFFFFFF
310
FFFFFFFFFFFFFFFFFFFFFFFFFFFFFFFFFFFFFFFFFFFFFFFFFFFFFFFFFFFFFFFF
310
FFFFFFFFFFFFFFFFFFFFFFFFFFFFFFFFFFFFFFFFFFFFFFFFFFFFFFFFFFFFFFFF
310
FFFFFFFFFFFFFFFFFFFFFFFFFFFFFFFFFFFFFFFFFFFFFFFFFFFFFFFFFFFFFFFF
310
FFFFFFFFFFFFFFFFFFFFFFFFFFFFFFFFFFFFFFFFFFFFFFFFFFFFFFFFFFFFFFFF
310
FFFFFFFFFFFFFFFFFFFFFFFFFFFFFFFFFFFFFFFFFFFFFFFFFFFFFFFFFFFFFFFF
310
FFFFFFFFFFFFFFFFFFFFFFFFFFFFFFFFFFFFFFFFFFFFFFFFFFFFFFFFFFFFFFFF
310
FFFFFFFFFFFFFFFFFFFFFFFFFFFFFFFFFFFFFFFFFFFFFFFFFFFFFFFFFFFFFFFF
310
FFFFFFFFFFFFFFFFFFFFFFFFFFFFFFFFFFFFFFFFFFFFFFFFFFFFFFFFFFFFFFFF
310
FFFFFFFFFFFFFFFFFFFFFFFFFFFFFFFFFFFFFFFFFFFFFFFFFFFFFFFFFFFFFFFF
310
FFFFFFFFFFFFFFFFFFFFFFFFFFFFFFFFFFFFFFFFFFFFFFFFFFFFFFFFFFFFFFFF
310
FFFFFFFFFFFFFFFFFFFFFFFFFFFFFFFFFFFFFFFFFFFFFFFFFFFFFFFFFFFFFFFF
310
FFFFFFFFFFFFFFFFFFFFFFFFFFFFFFFFFFFFFFFFFFFFFFFFFFFFFFFFFFFFFFFF
310
FFFFFFFFFFFFFFFFFFFFFFFFFFFFFFFFFFFFFFFFFFFFFFFFFFFFFFFFFFFFFFFF
310
FFFFFFFFFFFFFFFFFFFFFFFFFFFFFFFFFFFFFFFFFFFFFFFFFFFFFFFFFFFFFFFF
310
FFFFFFFFFFFFFFFFFFFFFFFFFFFFFFFFFFFFFFFFFFFFFFFFFFFFFFFFFFFFFFFF
310
0100000200000000000000000000000000000000000000000000000000000000
310
0000000000000000000000000000000000000000000000000000000000000000
310
0100FEFF030A0000FFFFFFFF0A00030000000000C00000000000004607000000
310
5042727573680007000000504272757368000700000050427275736800F439B2
310
7100000000000000000000000000000000000000000000000000000000000000
310
0000000000000000000000000000000000000000000000000000000000000000
310
0000000000000000000000000000000000000000000000000000000000000000
310
0000000000000000000000000000000000000000000000000000000000000000
310
0000000000000000000000000000000000000000000000000000000000000000
310
0000000000000000000000000000000000000000000000000000000000000000
310
0000000000000000000000000000000000000000000000000000000000000000
310
0000000000000000000000000000000000000000000000000000000000000000
310
0000000000000000000000000000000000000000000000000000000000000000
310
0000000000000000000000000000000000000000000000000000000000000000
310
0000000000000000000000000000000000000000000000000000000000000000
310
0000000000000000000000000000000000000000000000000000000000000000
310
20260000424D0E260000000000003E00000028000000B40200006E0000000100
310
01000000000000000000130B0000130B00000200000002000000000000FFFFFF
310
FFFFFFFFFFFFFFFFFFFFFFFFFFFFFFFFFFFFFFFFFFFFFFFFFFFFFFFFFFFFFFFF
310
FFFFFFFFFFFFFFFFFFFFFFFFFFFFFFFFFFFFFFFFFFFFFFFFFFFFFFFFFFFFFFFF
310
FFFFFFFFFFFFFFFFFFFFFFFFFFFFFFFFFFFFFFFFFFFFFFFFF000FFFFFFFFFFFF
310
FFFFFFFFFFFFFFFFFFFFFFFFFFFFFFFFFFFFFFFFFFFFFFFFFFFFFFFFFFFFFFFF
310
FFFFFFFFFFFFFFFFFFFFFFFFFFFFFFFFFFFFFFFFFFFFFFFFFFFFFFFFFFFFFFFF
310
FFFFFFFFFFFFFFFFFFFFFFFFFFFFFFFFF000FFFFFFFFFFFFFFFFFFFFFFFFFFFF
310
FFFFFFFFFFFFFFFFFFFFFFFFFFFFFFFFFFFFFFFFFFFFFFFFFFFFFFFFFFFFFFFF
310
FFFFFFFFFFFFFFFFFFFFFFFFFFFFFFFFFFFFFFFFFFFFFFFFFFFFFFFFFFFFFFFF
310
FFFFFFFFFFFFFFFFF000FFFFFFFFFFFFFFFFFFFFFFFFFFFFFFFFFFFFFFFFFFFF
310
FFFFFFFFFFFFFFFFFFFFFFFFFFFFFFFFFFFFFFFFFFFFFFFFFFFFFFFFFFFFFFFF
310
FFFFFFFFFFFFFFFFFFFFFFFFFFFFFFFFFFFFFFFFFFFFFFFFFFFFFFFFFFFFFFFF
310
F000FFFFFFFFFFFFFFFFFFFFFFFFFFFFFFFFFFFFFFFFFFFFFFFFFFFFFFFFFFFF
310
FFFFFFFFFFFFFFFFFFFFFFFFFFFFFFFFFFFFFFFFFFFFFFFFFFFFFFFFFFFFFFFF
310
FFFFFFFFFFFFFFFFFFFFFFFFFFFFFFFFFFFFFFFFFFFFFFFFF000FFFFFFFFFFFF
310
FFFFFFFFFFFFFFFFFFFFFFFFFFFFFFFFFFFFFFFFFFFFFFFFFFFFFFFFFFFFFFFF
310
FFFFFFFFFFFFFFFFFFFFFFFFFFFFFFFFFFFFFFFFFFFFFFFFFFFFFFFFFFFFFFFF
310
FFFFFFFFFFFFFFFFFFFFFFFFFFFFFFFFF000FFFFFFFFFFFFFFFFFFFFFFFFFFFF
310
FFFFFFFFFFFFFFFFFFFFFFFFFFFFFFFFFFFFFFFFFFFFFFFFFFFFFFFFFFFFFFFF
310
FFFFFFFFFFFFFFFFFFFFFFFFFFFFFFFFFFFFFFFFFFFFFFFFFFFFFFFFFFFFFFFF
310
FFFFFFFFFFFFFFFFF000FFFFFFFFFFFFFFFFFFFFFFFFFFFFFFFFFFFFFFFFFFFF
310
FFFFFFFFFFFFFFFFFFFFFFFFFFFFFFFFFFFFFFFFFFFFFFFFFFFFFFFFFFFFFFFF
310
FFFFFFFFFFFFFFFFFFFFFFFFFFFFFFFFFFFFFFFFFFFFFFFFFFFFFFFFFFFFFFFF
310
F000FFFFFFFFFFFFFFFFFFFFFFFFFFFFFFFFFFFFFFFFFFFFFFFFFFFFFFFFFFFF
310
FFFFFFFFFFFFFFFFFFFFFFFFFFFFFFFFFFFFFFFFFFFFFFFFFFFFFFFFFFFFFFFF
310
FFFFFFFFFFFFFFFFFFFFFFFFFFFFFFFFFFFFFFFFFFFFFFFFF000FFFFFFFFFFFF
310
FFFFFFFFFFFFFFFFFFFFFFFFFFFFFFFFFFFFFFFFFFFFFFFFFFFFFFFFFFFFFFFF
310
FFFFFFFFFFFFFFFFFFFFFFFFFFFFFFFFFFFFFFFFFFFFFFFFFFFFFFFFFFFFFFFF
310
FFFFFFFFFFFFFFFFFFFFFFFFFFFFFFFFF000FFFFFFFFFFFFFFFFFFFFFFFFFFFF
310
FFFFFFFFFFFFFFFFFFFFFFFFFFFFFFFFFFFFFFFFFFFFFFFFFFFFFFFFFFFFFFFF
310
FFFFFFFFFFFFFFFFFFFFFFFFFFFFFFFFFFFFFFFFFFFFFFFFFFFFFFFFFFFFFFFF
310
FFFFFFFFFFFFFFFFF000FFFFFFFFFFFFFFFFFFFFFFFFFFFFFFFFFFFFFFFFFFFF
310
FFFFFFFFFFFFFFFFFFFFFFFFFFFFFFFFFFFFFFFFFFFFFFFFFFFFFFFFFFFFFFFF
310
FFFFFFFFFFFFFFFFFFFFFFFFFFFFFFFFFFFFFFFFFFFFFFFFFFFFFFFFFFFFFFFF
310
F000FFFFFFFFFFFFFFFFFFFFFFFFFFFFFFFFFFFFFFFFFFFFFFFFFFFFFFFFFFFF
310
FFFFFFFFFFFFFFFFFFFFFFFFFFFFFFFFFFFFFFFFFFFFFFFFFFFFFFFFFFFFFFFF
310
FFFFFFFFFFFFFFFFFFFFFFFFFFFFFFFFFFFFFFFFFFFFFFFFF000FFFFFFFFFFFF
310
FFFFFFFFFFFFFFFFFFFFFFFFFFFFFFFFFFFFFFFFFFFFFFFFFFFFFFFFFFFFFFFF
310
FFFFFFFFFFFFFFFFFFFFFFFFFFFFFFFFFFFFFFFFFFFFFFFFFFFFFFFFFFFFFFFF
310
FFFFFFFFFFFFFFFFFFFFFFFFFFFFFFFFF000FFFFFFFFFFFFFFFFFFFFFFFFFFFF
310
FFFFFFFFFFFFFFFFFFFFFFFFFFFFFFFFFFFFFFFFFFFFFFFFFFFFFFFFFFFFFFFF
310
FFFFFFFFFFFFFFFFFFFFFFFFFFFFFFFFFFFFFFFFFFFFFFFFFFFFFFFFFFFFFFFF
310
FFFFFFFFFFFFFFFFF000FFFFFFFFFFFFFFFFFFFFFFFFFFFFFFFFFFFFFFFFFFFF
310
FFFFFFFFFFFFFFFFFFFFFFFFFFFFFFFFFFFFFFFFFFFFFFFFFFFFFFFFFFFFFFFF
310
FFFFFFFFFFFFFFFFFFFFFFFFFFFFFFFFFFFFFFFFFFFFFFFFFFFFFFFFFFFFFFFF
310
F000FFFFFFFFFFFFFFFFFFFFFFFFFFFFFFFFFFFFFFFFFFFFFFFFFFFFFFFFFFFF
310
FFFFFFFFFFFFFFFFFFFFFFFFFFFFFFFFFFFFFFFFFFFFFFFFFFFFFFFFFFFFFFFF
310
FFFFFFFFFFFFFFFFFFFFFFFFFFFFFFFFFFFFFFFFFFFFFFFFF000FFFFFFFFFFFF
310
FFFFFFFFFFFFFFFFFFFFFFFFFFFFFFFFFFFFFFFFFFFFFFFFFFFFFFFFFFFFFFFF
310
FFFFFFFFFFFFFFFFFFFFFFFFFFFFFFFFFFFFFFFFFFFFFFFFFFFFFFFFFFFFFFFF
310
FFFFFFFFFFFFFFFFFFFFFFFFFFFFFFFFF000FFFFFFFFFFFFFFFFFFFFFFFFFFFF
310
FFFFFFFFFFFFFFFFFFFFFFFFFFFFFFFFFFFFFFFFFFFFFFFFFFFFFFFFFFFFFFFF
310
FFFFFFFFFFFFFFFFFFFFFFFFFFFFFFFFFFFFFFFFFFFFFFFFFFFFFFFFFFFFFFFF
310
FFFFFFFFFFFFFFFFF000FFFFF80003FFFFFFFFFFFFFFFFFFFFFFFFFFFFFFFFFF
310
FFFFF00007FFFFFFFFFF00007FFFFFF800000000000000007FFFFFFFFFFFFFFF
310
FFFFFFFC001FFFFFFFFFFFFFFC001FFFFFFFFFFFFFFFFFFFFFFFFFFE0007FFFF
310
F000FFFF8000007FFFFFFFF8000FFFFFC0007FFFFF80007FFFFF0000007FFFFF
310
FFF8000007FFFFF800000000000000007FFFFFF0001FFFFFFFFFFFC00001FFFF
310
FFFFFFFFC00001FFFFFFFF000000000003FFFFE000007FFFF000FFFE0000000F
310
FFFFFFF0000FFFFF80007FFFFF80007FFFFC0000001FFFFFFFC0000001FFFFF8
310
00000000000000007FFFFFF0001FFFFFFFFFFE0000003FFFFFFFFFFE0000003F
310
FFFFFF000000000003FFFF0000000FFFF000FFF800000003FFFFFFF00007FFFF
310
80007FFFFF80007FFFF000000007FFFFFF000000003FFFF80000000000000000
310
7FFFFFF0001FFFFFFFFFF80000000FFFFFFFFFF80000000FFFFFFF0000000000
310
03FFFC00000003FFF000FFE000000000FFFFFFF00007FFFF80003FFFFF80007F
310
FFC000000001FFFFFC000000001FFFF800000000000000007FFFFFF0001FFFFF
310
FFFFE000000003FFFFFFFFE000000003FFFFFF000000000003FFF000000000FF
310
F000FF80000000007FFFFFF00007FFFF80003FFFFF80007FFF8000000000FFFF
310
F80000000007FFF800000000000000007FFFFFF0001FFFFFFFFFC000000001FF
310
FFFFFFC000000001FFFFFF000000000003FFC0000000007FF000FF0000000000
310
3FFFFFE00007FFFF00003FFFFF80007FFE00000000003FFFF00000000003FFF8
310
00000000000000007FFFFFF0001FFFFFFFFF8000000000FFFFFFFF8000000000
310
FFFFFF000000000003FF80000000003FF000FE00000000001FFFFFE00003FFFF
310
00003FFFFF80007FFC00000000001FFFE00000000001FFF8000001FFFE000000
310
7FFFFFF0001FFFFFFFFE00000000003FFFFFFE00000000003FFFFF0000000000
310
03FF00000000001FF000FC00000000000FFFFFE00003FFFF00001FFFFF80007F
310
F800000000001FFFC00000000000FFF8000001FFFE0000007FFFFFF0001FFFFF
310
FFFC00000000001FFFFFFC00000000001FFFFF000000000003FE00000000000F
310
F000F8000000000007FFFFE00003FFFF00001FFFFF80007FF800000000000FFF
310
800000000000FFF8000001FFFE0000007FFFFFF0001FFFFFFFF800000000000F
310
FFFFF800000000000FFFFF000000000003FC000000000007F000F80000000000
310
03FFFFC00003FFFE00001FFFFF80007FF0000000000007FF0000000000007FF8
310
000001FFFE0000007FFFFFF0001FFFFFFFF0000000000007FFFFF00000000000
310
07FFFF000000000003F8000000000003F000F0000000000003FFFFC00001FFFE
310
00001FFFFF80007FE0000000000007FE0000000000003FF8000001FFFE000000
310
7FFFFFF0001FFFFFFFF0000000000007FFFFF0000000000007FFFF0000000000
310
03F800001F800003F000E00001FFF00001FFFFC00001FFFE00000FFFFF80007F
310
E00001FFE00003FE00001FFF00003FF8000001FFFE0000007FFFFFF0001FFFFF
310
FFE000003E000003FFFFE000003E000003FFFF000000000003F00001FFF80001
310
F000E00007FFFC0001FFFFC00001FFFE00000FFFFF80007FC0000FFFFC0003FC
310
0000FFFFC0001FF8000001FFFE0000007FFFFFF0001FFFFFFFC00003FFE00001
310
FFFFC00003FFE00001FFFF0001FFFFFFFFF00007FFFE0001F000E0000FFFFF00
310
00FFFF800001FFFC00000FFFFF80007FC0001FFFFE0001FC0001FFFFE0001FF8
310
000001FFFE0000007FFFFFF0001FFFFFFF80000FFFF80000FFFF80000FFFF800
310
00FFFF0003FFFFFFFFE0000FFFFF8000F000C0003FFFFF8000FFFF800000FFFC
310
000007FFFF80007F80003FFFFF0001FC0003FFFFF0001FF8000001FFFE000000
310
7FFFFFF0001FFFFFFF80003FFFFE0000FFFF80003FFFFE0000FFFF0003FFFFFF
310
FFE0003FFFFF8000F000C0003FFFFF8000FFFF800000FFFC000007FFFF80007F
310
80007FFFFF8001F80007FFFFF8000FF8000001FFFE0000007FFFFFF0001FFFFF
310
FF00007FFFFF00007FFF00007FFFFF00007FFF0003FFFFFFFFE0003FFFFFC000
310
F000C0007FFFFFC000FFFF000000FFFC000007FFFF80007F8000FFFFFF8000F8
310
000FFFFFF8000FF8000001FFFE0000007FFFFFF0001FFFFFFF0000FFFFFF8000
310
7FFF0000FFFFFF80007FFF0003FFFFFFFFC0007FFFFFC00070008000FFFFFFC0
310
00FFFF000000FFF8000007FFFF80007F8000FFFFFF8000F8000FFFFFF8000FF8
310
000001FFFE0000007FFFFFF0001FFFFFFE0001FFFFFFC0003FFE0001FFFFFFC0
310
003FFF0003FFFFFFFFC0007FFFFFE00070008000FFFFFFC0007FFF0000007FF8
310
000003FFFF80007F0001FFFFFF8000F8000FFFFFF8000FF8000001FFFE000000
310
7FFFFFF0001FFFFFFE0001FFFFFFC0003FFE0001FFFFFFC0003FFF0003FFFFFF
310
FFC000FFFFFFE00070008000FFFFFFC0007FFF0000007FF8000003FFFF80007F
310
0001FFFFFF8000F8001FFFFFF8000FF8000001FFFE0000007FFFFFF0001FFFFF
310
FE0003FFFFFFE0003FFE0003FFFFFFE0003FFF0003FFFFFFFFC000FFFFFFE000
310
70008000FFFFFFC0007FFE0000007FF8000003FFFF80007F0001FFFFFF8000F0
310
001FFFFFF8000FF8000001FFFE0000007FFFFFF0001FFFFFFC0003FFFFFFE000
310
1FFC0003FFFFFFE0001FFF0003FFFFFFFFC000FFFFFFC00070008000FFFFFF80
310
007FFE0000007FF0000003FFFF80007F0001FFFFFF0000F0001FFFFFF8000FF8
310
000001FFFE0000007FFFFFF0001FFFFFFC0007FFFFFFF0001FFC0007FFFFFFF0
310
001FFF0003FFFFFFFFC000FFFFFFC00070008001FFFFFF0000FFFE0000003FF0
310
000001FFFF80007F0001FFFFFF0000F8001FFFFFF0000FF8000001FFFE000000
310
7FFFFFF0001FFFFFFC0007FFFFFFF0001FFC0007FFFFFFF0001FFF0003FFFFFF
310
FFC001FFFFFF80007000FFFFFFFFFE0000FFFE0008003FF0008001FFFF80007F
310
FFFFFFFFFC0000FFFFFFFFFFE0000FF8000001FFFE0000007FFFFFF0001FFFFF
310
F8000FFFFFFFF8000FF8000FFFFFFFF8000FFF0003FFFFFFFFFFFFFFFFFF0000
310
7000FFFFFFFFFC0000FFFC0008003FF0008001FFFF80007FFFFFFFFFF80001FF
310
FFFFFFFF80000FF8000001FFFE0000007FFFFFF0001FFFFFF8000FFFFFFFF800
310
0FF8000FFFFFFFF8000FFF0003FFFFFFFFFFFFFFFFFE0000F000FFFFFFFFE000
310
00FFFC000C003FE000C001FFFF80007FFFFFFFFFC00001FFFFFFFFFE00001FF8
310
000001FFFE0000007FFFFFF0001FFFFFF8000FFFFFFFF8000FF8000FFFFFFFF8
310
000FFF0003FFFFFFFFFFFFFFFFF00000F000FFFFFFFE000001FFFC000C001FE0
310
00C000FFFF80007FFFFFFFFE000001FFFFFFFFE000001FF80FFFFFFFFFFFFFC0
310
7FFFFFF0001FFFFFF8000FFFFFFFF8000FF8000FFFFFFFF8000FFF0003FFFFFF
310
FFFFFFFFFF800000F000FFFFFFC0000001FFFC001C001FE001C000FFFF80007F
310
FFFFFF80000003FFFFFFF80000001FF80FFFFFFFFFFFFFC07FFFFFF0001FFFFF
310
F8001FFFFFFFFC000FF8001FFFFFFFFC000FFF0003FFFFFFFFFFFFFFF0000001
310
F000FFFFF800000001FFF8001C001FE001C000FFFF80007FFFFFF800000003FF
310
FFFF800000003FF80FFFFFFFFFFFFFC07FFFFFF0001FFFFFF8001FFFFFFFFC00
310
0FF8001FFFFFFFFC000FFF0003FFFFFFFFFFFFFE00000001F000FFFFC0000000
310
03FFF8001E001FC001E000FFFF80007FFFFF8000000007FFFFFC000000003FF8
310
0FFFFFFFFFFFFFC07FFFFFF0001FFFFFF8001FFFFFFFFC000FF8001FFFFFFFFC
310
000FFF0003FFFFFFFFFFFFE000000003F000FFFE0000000007FFF8001E000FC0
310
01E0007FFF80007FFFFE0000000007FFFFE0000000007FF80FFFFFFFFFFFFFC0
310
7FFFFFF0001FFFFFF0001FFFFFFFFC0007F0001FFFFFFFFC0007FF0003FFFFFF
310
FFFFFF0000000003F000FFF80000000007FFF8001E000FC003E0007FFF80007F
310
FFF0000000000FFFFF8000000000FFF80FFFFFFFFFFFFFC07FFFFFF0001FFFFF
310
F0001FFFFFFFFC0007F0001FFFFFFFFC0007FF0003FFFFFFFFFFFC0000000007
310
F000FFE0000000000FFFF0003E000FC003E0007FFF80007FFFC0000000001FFF
310
FE0000000001FFF80FFFFFFFFFFFFFC07FFFFFF0001FFFFFF0001FFFFFFFFC00
310
07F0001FFFFFFFFC0007FF0003FFFFFFFFFFF0000000000FF000FFC000000000
310
1FFFF0003F000F8003F0003FFF80007FFF80000000003FFFF80000000003FFF8
310
0FFFFFFFFFFFFFC07FFFFFF0001FFFFFF0001FFFFFFFFC0007F0001FFFFFFFFC
310
0007FF0003FFFFFFFFFFE0000000001FF000FF00000000007FFFF0003F000780
310
03F0003FFF80007FFF00000000007FFFF00000000007FFF80FFFFFFFFFFFFFC0
310
7FFFFFF0001FFFFFF0001FFFFFFFFC0007F0001FFFFFFFFC0007FF0003FFFFFF
310
FFFF80000000007FF000FE0000000000FFFFE0003F00078007F0003FFF80007F
310
FE0000000001FFFFE0000000001FFFF80FFFFFFFFFFFFFC07FFFFFF0001FFFFF
310
F0001FFFFFFFFC0007F0001FFFFFFFFC0007FF0003FFFFFFFFFF0000000000FF
310
F000FC0000000003FFFFE0007F00078007F0003FFF80007FFC0000000007FFFF
310
C0000000007FFFF80FFFFFFFFFFFFFC07FFFFFF0001FFFFFF8001FFFFFFFFC00
310
0FF8001FFFFFFFFC000FFF0003FFFFFFFFFE0000000003FFF000FC000000000F
310
FFFFE0007F80070007F8001FFF80007FF8000000001FFFFF8000000001FFFFF8
310
0FFFFFFFFFFFFFC07FFFFFF0001FFFFFF8001FFFFFFFFC000FF8001FFFFFFFFC
310
000FFF0003FFFFFFFFFC000000000FFFF000F8000000007FFFFFE0007F800700
310
07F8001FFF80007FF000000000FFFFFF800000000FFFFFF80FFFFFFFFFFFFFC0
310
7FFFFFF0001FFFFFF8000FFFFFFFF8000FF8000FFFFFFFF8000FFF0003FFFFFF
310
FFFC000000007FFFF000F800000007FFFFFFC0007F8003000FF8001FFF80007F
310
F000000007FFFFFF000000007FFFFFF80FFFFFFFFFFFFFC07FFFFFF0001FFFFF
310
F8000FFFFFFFF8000FF8000FFFFFFFF8000FFF0003FFFFFFFFF80000000FFFFF
310
F000F0000000FFFFFFFFC000FF8003000FF8001FFF80007FE0000000FFFFFFFF
310
0000000FFFFFFFF8000001FFFE0000007FFFFFF0001FFFFFF8000FFFFFFFF800
310
0FF8000FFFFFFFF8000FFF0003FFFFFFFFF8000000FFFFFFF000F000000FFFFF
310
FFFFC000FFC002000FF8000FFF80007FE000001FFFFFFFFE000001FFFFFFFFF8
310
000001FFFE0000007FFFFFF0001FFFFFF8000FFFFFFFF8000FF8000FFFFFFFF8
310
000FFF0003FFFFFFFFF000001FFFFFFFF000E00000FFFFFFFFFFC000FFC00200
310
0FFC000FFF80007FE00001FFFFFFFFFE00001FFFFFFFFFF8000001FFFE000000
310
7FFFFFF0001FFFFFFC000FFFFFFFF8001FFC000FFFFFFFF8001FFF0003FFFFFF
310
FFF00001FFFFFFFFF000E00007FFFFFFFFFF8000FFC000001FFC000FFF80007F
310
C0000FFFFFFFFFFE0000FFFFFFFFFFF8000001FFFE0000007FFFFFF0001FFFFF
310
FC0007FFFFFFF0001FFC0007FFFFFFF0001FFF0003FFFFFFFFF00007FFFFFFFF
310
F000E0001FFFFFFFFFFF8000FFC000001FFC000FFF80007FC0003FFFFFFFFFFE
310
0001FFFFFFFFFFF8000001FFFE0000007FFFFFF0001FFFFFFC0007FFFFFFF000
310
1FFC0007FFFFFFF0001FFF0003FFFFFFFFF0001FFFFFFFFFF000E0003FFFFF00
310
03FF8001FFE000001FFC0007FF80007FC0007FFFFF0007FC0003FFFFF0003FF8
310
000001FFFE0000007FFFFFF0001FFFFFFC0003FFFFFFE0001FFC0003FFFFFFE0
310
001FFF0003FFFFFFFFF0003FFFFFFFFFF000E0003FFFFF0001FF8001FFE00000
310
1FFE0007FF80007FC0007FFFFE0003FC0007FFFFE0003FF8000001FFFE000000
310
7FFFFFF0001FFFFFFE0003FFFFFFE0003FFE0003FFFFFFE0003FFF0003FFFFFF
310
FFF0003FFFFF8001F000E0003FFFFF0001FF0001FFE000001FFE0007FF80007F
310
C0007FFFFE0003FC0007FFFFE0003FF8000001FFFE0000007FFFFFF0001FFFFF
310
FE0001FFFFFFC0003FFE0001FFFFFFC0003FFF0003FFFFFFFFF0003FFFFF0001
310
F000E0003FFFFF0003FF0001FFE000003FFE0007FF80007FC0007FFFFE0003FC
310
0007FFFFE0003FF8000001FFFE0000007FFFFFF0001FFFFFFF0001FFFFFFC000
310
7FFF0001FFFFFFC0007FFF0003FFFFFFFFF0003FFFFF0001F000E0003FFFFE00
310
03FF0003FFF000003FFE0003FF80007FC0007FFFFC0003FE0007FFFFE0003FF8
310
000001FFFE0000007FFFFFF0001FFFFFFF0000FFFFFF80007FFF0000FFFFFF80
310
007FFF0003FFFFFFFFF0003FFFFF0001F000E0003FFFFE0003FF0003FFF00000
310
3FFF0003FF80007FC0007FFFFC0007FE0007FFFFC0003FF8000001FFFE000000
310
7FFFFFF0001FFFFFFF80007FFFFF0000FFFF80007FFFFF0000FFFF0003FFFFFF
310
FFF0003FFFFF0003F000E0003FFFFC0003FE0003FFF000003FFF0003FF80007F
310
E0003FFFF80007FE0003FFFFC0007FF8000001FFFE0000007FFFFFF0001FFFFF
310
FF80003FFFFE0000FFFF80003FFFFE0000FFFF0003FFFFFFFFF0001FFFFE0003
310
F000F0001FFFF80003FE0003FFF000007FFF0001FF80007FE0003FFFF00007FE
310
0001FFFF80007FF8000001FFFE0000007FFFFFF0001FFFFFFFC0000FFFF80001
310
FFFFC0000FFFF80001FFFF0003FFFFFFFFF0001FFFFC0003F000F0000FFFF000
310
07FE0007FFF800007FFF0001FF80007FE0001FFFE00007FF0000FFFE00007FF8
310
000001FFFE0000007FFFFFF0001FFFFFFFC00003FFE00001FFFFC00003FFE000
310
01FFFF0003FFFFFFFFF8000FFFF80003F000F00003FFC00007FC0007FFF80000
310
7FFF8001FF80007FF00007FF80000FFF00007FF80000FFF8000001FFFE000000
310
7F80000000000001FFE000003E000003FFFFE000003E000003FFFF0003FFFFFF
310
FFF80003FFE00007F000F800000000000FFC0007FFF800007FFF8001FF80007F
310
F000000000000FFF000000000000FFF8000001FFFE0000007F80000000000001
310
FFF0000000000007FFFFF0000000000007FFFF0003FFFFFFFFFC00007E000007
310
F000F800000000000FFC0007FFF80000FFFF8000FF80007FF800000000001FFF
310
800000000001FFF8000001FFFE0000007F80000000000001FFF800000000000F
310
FFFFF800000000000FFFFF0003FFFFFFFFFC00000000000FF000FC0000000000
310
1FFC0007FFFC0000FFFF8000FF80007FF800000000003FFFC00000000001FFF8
310
000001FFFE0000007F80000000000001FFF800000000000FFFFFF80000000000
310
0FFFFF0003FFFFFFFFFE00000000001FF000FE00000000003FF8000FFFFC0000
310
FFFF8000FF80007FFC00000000003FFFC00000000003FFF8000001FFFE000000
310
7F80000000000001FFFC00000000001FFFFFFC00000000001FFFFF0003FFFFFF
310
FFFF00000000001FF000FF00000000003FF8000FFFFC0000FFFFC000FF80007F
310
FE00000000007FFFE00000000007FFF8000001FFFE0000007F80000000000001
310
FFFE00000000003FFFFFFE00000000003FFFFF0003FFFFFFFFFF80000000003F
310
F000FF80000000007FF8000FFFFC0001FFFFC0007F80007FFF0000000000FFFF
310
F0000000000FFFF800000000000000007F80000000000001FFFF8000000000FF
310
FFFFFF8000000000FFFFFF0003FFFFFFFFFFC0000000007FF000FFC000000000
310
FFF8000FFFFE0001FFFFC0007F80007FFF8000000001FFFFF8000000001FFFF8
310
00000000000000007F80000000000001FFFFC000000001FFFFFFFFC000000001
310
FFFFFF0003FFFFFFFFFFE000000000FFF000FFE000000003FFF0001FFFFE0001
310
FFFFC0007F80007FFFC000000007FFFFFE000000003FFFF80000000000000000
310
7F80000000000001FFFFE000000003FFFFFFFFE000000003FFFFFF0003FFFFFF
310
FFFFF000000003FFF000FFF80000000FFFF0001FFFFE0001FFFFE0007F80007F
310
FFF00000000FFFFFFF00000000FFFFF800000000000000007F80000000000001
310
FFFFF80000000FFFFFFFFFF80000000FFFFFFF0003FFFFFFFFFFFC0000000FFF
310
F000FFFE0000003FFFF0001FFFFE0003FFFFE0003F80007FFFFC0000003FFFFF
310
FFC0000003FFFFF800000000000000007F80000000000001FFFFFE0000003FFF
310
FFFFFFFE0000003FFFFFFF0003FFFFFFFFFFFF0000003FFFF000FFFF800000FF
310
FFF0001FFFFF0003FFFFE0003F80007FFFFF000001FFFFFFFFF800001FFFFFF8
310
00000000000000007F80000000000001FFFFFFC00001FFFFFFFFFFFFC00001FF
310
FFFFFF0003FFFFFFFFFFFFC00000FFFFF000FFFFF8000FFFFFFFFFFFFFFFFFFF
310
FFFFFFFFFFFFFFFFFFFFF0001FFFFFFFFFFF0000FFFFFFF80000000000000000
310
7FFFFFFFFFFFFFFFFFFFFFFC001FFFFFFFFFFFFFFC001FFFFFFFFFFFFFFFFFFF
310
FFFFFFFC001FFFFFF000FFFFFFFFFFFFFFFFFFFFFFFFFFFFFFFFFFFFFFFFFFFF
310
FFFFFFFFFFFFFFFFFFFFFFFFFFFFFFFFFFFFFFFFFFFFFFFFFFFFFFFFFFFFFFFF
310
FFFFFFFFFFFFFFFFFFFFFFFFFFFFFFFFFFFFFFFFFFFFFFFFFFFFFFFFFFFFFFFF
310
F000FFFFFFFFFFFFFFFFFFFFFFFFFFFFFFFFFFFFFFFFFFFFFFFFFFFFFFFFFFFF
310
FFFFFFFFFFFFFFFFFFFFFFFFFFFFFFFFFFFFFFFFFFFFFFFFFFFFFFFFFFFFFFFF
310
FFFFFFFFFFFFFFFFFFFFFFFFFFFFFFFFFFFFFFFFFFFFFFFFF000FFFFFFFFFFFF
310
FFFFFFFFFFFFFFFFFFFFFFFFFFFFFFFFFFFFFFFFFFFFFFFFFFFFFFFFFFFFFFFF
310
FFFFFFFFFFFFFFFFFFFFFFFFFFFFFFFFFFFFFFFFFFFFFFFFFFFFFFFFFFFFFFFF
310
FFFFFFFFFFFFFFFFFFFFFFFFFFFFFFFFF000FFFFFFFFFFFFFFFFFFFFFFFFFFFF
310
FFFFFFFFFFFFFFFFFFFFFFFFFFFFFFFFFFFFFFFFFFFFFFFFFFFFFFFFFFFFFFFF
310
FFFFFFFFFFFFFFFFFFFFFFFFFFFFFFFFFFFFFFFFFFFFFFFFFFFFFFFFFFFFFFFF
310
FFFFFFFFFFFFFFFFF000FFFFFFFFFFFFFFFFFFFFFFFFFFFFFFFFFFFFFFFFFFFF
310
FFFFFFFFFFFFFFFFFFFFFFFFFFFFFFFFFFFFFFFFFFFFFFFFFFFFFFFFFFFFFFFF
310
FFFFFFFFFFFFFFFFFFFFFFFFFFFFFFFFFFFFFFFFFFFFFFFFFFFFFFFFFFFFFFFF
310
F000FFFFFFFFFFFFFFFFFFFFFFFFFFFFFFFFFFFFFFFFFFFFFFFFFFFFFFFFFFFF
310
FFFFFFFFFFFFFFFFFFFFFFFFFFFFFFFFFFFFFFFFFFFFFFFFFFFFFFFFFFFFFFFF
310
FFFFFFFFFFFFFFFFFFFFFFFFFFFFFFFFFFFFFFFFFFFFFFFFF000FFFFFFFFFFFF
310
FFFFFFFFFFFFFFFFFFFFFFFFFFFFFFFFFFFFFFFFFFFFFFFFFFFFFFFFFFFFFFFF
310
FFFFFFFFFFFFFFFFFFFFFFFFFFFFFFFFFFFFFFFFFFFFFFFFFFFFFFFFFFFFFFFF
310
FFFFFFFFFFFFFFFFFFFFFFFFFFFFFFFFF000FFFFFFFFFFFFFFFFFFFFFFFFFFFF
310
FFFFFFFFFFFFFFFFFFFFFFFFFFFFFFFFFFFFFFFFFFFFFFFFFFFFFFFFFFFFFFFF
310
FFFFFFFFFFFFFFFFFFFFFFFFFFFFFFFFFFFFFFFFFFFFFFFFFFFFFFFFFFFFFFFF
310
FFFFFFFFFFFFFFFFF000FFFFFFFFFFFFFFFFFFFFFFFFFFFFFFFFFFFFFFFFFFFF
310
FFFFFFFFFFFFFFFFFFFFFFFFFFFFFFFFFFFFFFFFFFFFFFFFFFFFFFFFFFFFFFFF
310
FFFFFFFFFFFFFFFFFFFFFFFFFFFFFFFFFFFFFFFFFFFFFFFFFFFFFFFFFFFFFFFF
310
F000FFFFFFFFFFFFFFFFFFFFFFFFFFFFFFFFFFFFFFFFFFFFFFFFFFFFFFFFFFFF
310
FFFFFFFFFFFFFFFFFFFFFFFFFFFFFFFFFFFFFFFFFFFFFFFFFFFFFFFFFFFFFFFF
310
FFFFFFFFFFFFFFFFFFFFFFFFFFFFFFFFFFFFFFFFFFFFFFFFF000FFFFFFFFFFFF
310
FFFFFFFFFFFFFFFFFFFFFFFFFFFFFFFFFFFFFFFFFFFFFFFFFFFFFFFFFFFFFFFF
310
FFFFFFFFFFFFFFFFFFFFFFFFFFFFFFFFFFFFFFFFFFFFFFFFFFFFFFFFFFFFFFFF
310
FFFFFFFFFFFFFFFFFFFFFFFFFFFFFFFFF000FFFFFFFFFFFFFFFFFFFFFFFFFFFF
310
FFFFFFFFFFFFFFFFFFFFFFFFFFFFFFFFFFFFFFFFFFFFFFFFFFFFFFFFFFFFFFFF
310
FFFFFFFFFFFFFFFFFFFFFFFFFFFFFFFFFFFFFFFFFFFFFFFFFFFFFFFFFFFFFFFF
310
FFFFFFFFFFFFFFFFF000FFFFFFFFFFFFFFFFFFFFFFFFFFFFFFFFFFFFFFFFFFFF
310
FFFFFFFFFFFFFFFFFFFFFFFFFFFFFFFFFFFFFFFFFFFFFFFFFFFFFFFFFFFFFFFF
310
FFFFFFFFFFFFFFFFFFFFFFFFFFFFFFFFFFFFFFFFFFFFFFFFFFFFFFFFFFFFFFFF
310
F000FFFFFFFFFFFFFFFFFFFFFFFFFFFFFFFFFFFFFFFFFFFFFFFFFFFFFFFFFFFF
310
FFFFFFFFFFFFFFFFFFFFFFFFFFFFFFFFFFFFFFFFFFFFFFFFFFFFFFFFFFFFFFFF
310
FFFFFFFFFFFFFFFFFFFFFFFFFFFFFFFFFFFFFFFFFFFFFFFFF000FFFFFFFFFFFF
310
FFFFFFFFFFFFFFFFFFFFFFFFFFFFFFFFFFFFFFFFFFFFFFFFFFFFFFFFFFFFFFFF
310
FFFFFFFFFFFFFFFFFFFFFFFFFFFFFFFFFFFFFFFFFFFFFFFFFFFFFFFFFFFFFFFF
310
FFFFFFFFFFFFFFFFFFFFFFFFFFFFFFFFF000FFFFFFFFFFFFFFFFFFFFFFFFFFFF
310
FFFFFFFFFFFFFFFFFFFFFFFFFFFFFFFFFFFFFFFFFFFFFFFFFFFFFFFFFFFFFFFF
310
FFFFFFFFFFFFFFFFFFFFFFFFFFFFFFFFFFFFFFFFFFFFFFFFFFFFFFFFFFFFFFFF
310
FFFFFFFFFFFFFFFFF000FFFFFFFFFFFFFFFFFFFFFFFFFFFFFFFFFFFFFFFFFFFF
310
FFFFFFFFFFFFFFFFFFFFFFFFFFFFFFFFFFFFFFFFFFFFFFFFFFFFFFFFFFFFFFFF
310
FFFFFFFFFFFFFFFFFFFFFFFFFFFFFFFFFFFFFFFFFFFFFFFFFFFFFFFFFFFFFFFF
310
F000FFFFFFFFFFFFFFFFFFFFFFFFFFFFFFFFFFFFFFFFFFFFFFFFFFFFFFFFFFFF
310
FFFFFFFFFFFFFFFFFFFFFFFFFFFFFFFFFFFFFFFFFFFFFFFFFFFFFFFFFFFFFFFF
310
FFFFFFFFFFFFFFFFFFFFFFFFFFFFFFFFFFFFFFFFFFFFFFFFF000FFFFFFFFFFFF
310
FFFFFFFFFFFFFFFFFFFFFFFFFFFFFFFFFFFFFFFFFFFFFFFFFFFFFFFFFFFFFFFF
310
FFFFFFFFFFFFFFFFFFFFFFFFFFFFFFFFFFFFFFFFFFFFFFFFFFFFFFFFFFFFFFFF
310
FFFFFFFFFFFFFFFFFFFFFFFFFFFFFFFFF000FFFFFFFFFFFFFFFFFFFFFFFFFFFF
310
FFFFFFFFFFFFFFFFFFFFFFFFFFFFFFFFFFFFFFFFFFFFFFFFFFFFFFFFFFFFFFFF
310
FFFFFFFFFFFFFFFFFFFFFFFFFFFFFFFFFFFFFFFFFFFFFFFFFFFFFFFFFFFFFFFF
310
FFFFFFFFFFFFFFFFF000FFFFFFFFFFFFFFFFFFFFFFFFFFFFFFFFFFFFFFFFFFFF
310
FFFFFFFFFFFFFFFFFFFFFFFFFFFFFFFFFFFFFFFFFFFFFFFFFFFFFFFFFFFFFFFF
310
FFFFFFFFFFFFFFFFFFFFFFFFFFFFFFFFFFFFFFFFFFFFFFFFFFFFFFFFFFFFFFFF
310
F000FFFFFFFFFFFFFFFFFFFFFFFFFFFFFFFFFFFFFFFFFFFFFFFFFFFFFFFFFFFF
310
FFFFFFFFFFFFFFFFFFFFFFFFFFFFFFFFFFFFFFFFFFFFFFFFFFFFFFFFFFFFFFFF
310
FFFFFFFFFFFFFFFFFFFFFFFFFFFFFFFFFFFFFFFFFFFFFFFFF000FFFFFFFFFFFF
310
FFFFFFFFFFFFFFFFFFFFFFFFFFFFFFFFFFFFFFFFFFFFFFFFFFFFFFFFFFFFFFFF
310
FFFFFFFFFFFFFFFFFFFFFFFFFFFFFFFFFFFFFFFFFFFFFFFFFFFFFFFFFFFFFFFF
310
FFFFFFFFFFFFFFFFFFFFFFFFFFFFFFFFF0000000000000000000000000000000
310
0000000000000000000000000000000000000000000000000000000000000000
310
0000000000000000000000000000000000000000000000000000000000000000
310
0000000000000000000000000000000000000000000000000000000000000000
310
0000000000000000000000000000000000000000000000000000000000000000
310
0000000000000000000000000000000000000000000000000000000000000000
310
0000000000000000000000000000000000000000000000000000000000000000
310
0000000000000000000000000000000000000000000000000000000000000000
310
0000000000000000000000000000000000000000000000000000000000000000
310
0000000000000000000000000000000000000000000000000000000000000000
310
0000000000000000000000000000000000000000000000000000000000000000
310
0000000000000000000000000000000000000000000000000000000000000000
310
0000000000000000000000000000000000000000000000000000000000000000
310
0000000000000000000000000000000000000000000000000000000000000000
310
0000000000000000000000000000000000000000000000000000000000000000
310
0000000000000000000000000000000000000000000000000000000000000000
  1
OLE
  0
ENDSEC
  0
SECTION
  2
OBJECTS
  0
DICTIONARY
  5
C
330
0
100
AcDbDictionary
281
     1
  3
ACAD_GROUP
350
D
  3
ACAD_LAYOUT
350
1A
  3
ACAD_MLINESTYLE
350
17
  3
ACAD_PLOTSETTINGS
350
19
  3
ACAD_PLOTSTYLENAME
350
E
  0
DICTIONARY
  5
D
102
{ACAD_REACTORS
330
C
102
}
330
C
100
AcDbDictionary
281
     1
  0
DICTIONARY
  5
1A
102
{ACAD_REACTORS
330
C
102
}
330
C
100
AcDbDictionary
281
     1
  3
Layout1
350
1E
  3
Layout2
350
26
  3
Model
350
22
  0
DICTIONARY
  5
17
102
{ACAD_REACTORS
330
C
102
}
330
C
100
AcDbDictionary
281
     1
  3
Standard
350
18
  0
DICTIONARY
  5
19
102
{ACAD_REACTORS
330
C
102
}
330
C
100
AcDbDictionary
281
     1
  0
ACDBDICTIONARYWDFLT
  5
E
102
{ACAD_REACTORS
330
C
102
}
330
C
100
AcDbDictionary
281
     1
  3
Normal
350
F
100
AcDbDictionaryWithDefault
340
F
  0
LAYOUT
  5
1E
102
{ACAD_REACTORS
330
1A
102
}
330
1A
100
AcDbPlotSettings
  1

  2
none_device
  4

  6

 40
0.0
 41
0.0
 42
0.0
 43
0.0
 44
0.0
 45
0.0
 46
0.0
 47
0.0
 48
0.0
 49
0.0
140
0.0
141
0.0
142
1.0
143
1.0
 70
   688
 72
     0
 73
     0
 74
     5
  7

 75
    16
147
1.0
148
0.0
149
0.0
100
AcDbLayout
  1
Layout1
 70
     1
 71
     1
 10
0.0
 20
0.0
 11
420.0
 21
297.0
 12
0.0
 22
0.0
 32
0.0
 14
1.0000000000E+20
 24
1.0000000000E+20
 34
1.0000000000E+20
 15
-1.0000000000E+20
 25
-1.0000000000E+20
 35
-1.0000000000E+20
146
0.0
 13
0.0
 23
0.0
 33
0.0
 16
1.0
 26
0.0
 36
0.0
 17
0.0
 27
1.0
 37
0.0
 76
     0
330
1B
  0
LAYOUT
  5
26
102
{ACAD_REACTORS
330
1A
102
}
330
1A
100
AcDbPlotSettings
  1

  2
none_device
  4

  6

 40
0.0
 41
0.0
 42
0.0
 43
0.0
 44
0.0
 45
0.0
 46
0.0
 47
0.0
 48
0.0
 49
0.0
140
0.0
141
0.0
142
1.0
143
1.0
 70
   688
 72
     0
 73
     0
 74
     5
  7

 75
    16
147
1.0
148
0.0
149
0.0
100
AcDbLayout
  1
Layout2
 70
     1
 71
     2
 10
0.0
 20
0.0
 11
0.0
 21
0.0
 12
0.0
 22
0.0
 32
0.0
 14
0.0
 24
0.0
 34
0.0
 15
0.0
 25
0.0
 35
0.0
146
0.0
 13
0.0
 23
0.0
 33
0.0
 16
1.0
 26
0.0
 36
0.0
 17
0.0
 27
1.0
 37
0.0
 76
     0
330
23
  0
LAYOUT
  5
22
102
{ACAD_REACTORS
330
1A
102
}
330
1A
100
AcDbPlotSettings
  1

  2
none_device
  4

  6

 40
0.0
 41
0.0
 42
0.0
 43
0.0
 44
0.0
 45
0.0
 46
0.0
 47
0.0
 48
0.0
 49
0.0
140
0.0
141
0.0
142
1.0
143
1.0
 70
  1712
 72
     0
 73
     0
 74
     0
  7

 75
     0
147
1.0
148
0.0
149
0.0
100
AcDbLayout
  1
Model
 70
     1
 71
     0
 10
0.0
 20
0.0
 11
297.0
 21
210.0
 12
0.0
 22
0.0
 32
0.0
 14
0.0
 24
0.0
 34
0.0
 15
297.0
 25
210.0
 35
0.0
146
0.0
 13
0.0
 23
0.0
 33
0.0
 16
1.0
 26
0.0
 36
0.0
 17
0.0
 27
1.0
 37
0.0
 76
     0
330
1F
331
29
  0
MLINESTYLE
  5
18
102
{ACAD_REACTORS
330
17
102
}
330
17
100
AcDbMlineStyle
  2
Standard
 70
     0
  3

 62
   256
 51
90.0
 52
90.0
 71
     2
 49
0.5
 62
   256
  6
BYLAYER
 49
-0.5
 62
   256
  6
BYLAYER
  0
ACDBPLACEHOLDER
  5
F
102
{ACAD_REACTORS
330
E
102
}
330
E
  0
ENDSEC
  0
EOF
