  0
SECTION
  2
HEADER
  9
$ACADVER
  1
AC1015
  9
$ACADMAINTVER
 70
     6
  9
$DWGCODEPAGE
  3
ANSI_1252
  9
$INSBASE
 10
0.0
 20
0.0
 30
0.0
  9
$EXTMIN
 10
0.0
 20
0.0
 30
0.0
  9
$EXTMAX
 10
297.0
 20
210.0
 30
0.0
  9
$LIMMIN
 10
0.0
 20
0.0
  9
$LIMMAX
 10
297.0
 20
210.0
  9
$ORTHOMODE
 70
     0
  9
$REGENMODE
 70
     1
  9
$FILLMODE
 70
     1
  9
$QTEXTMODE
 70
     0
  9
$MIRRTEXT
 70
     1
  9
$LTSCALE
 40
1.0
  9
$ATTMODE
 70
     1
  9
$TEXTSIZE
 40
2.0
  9
$TRACEWID
 40
1.0
  9
$TEXTSTYLE
  7
STANDARD
  9
$CLAYER
  8
0
  9
$CELTYPE
  6
ByLayer
  9
$CECOLOR
 62
   256
  9
$CELTSCALE
 40
1.0
  9
$DISPSILH
 70
     0
  9
$DIMSCALE
 40
1.0
  9
$DIMASZ
 40
3.0
  9
$DIMEXO
 40
0.0
  9
$DIMDLI
 40
3.75
  9
$DIMRND
 40
0.0
  9
$DIMDLE
 40
0.0
  9
$DIMEXE
 40
1.0
  9
$DIMTP
 40
0.0
  9
$DIMTM
 40
0.0
  9
$DIMTXT
 40
2.0
  9
$DIMCEN
 40
2.5
  9
$DIMTSZ
 40
0.0
  9
$DIMTOL
 70
     0
  9
$DIMLIM
 70
     0
  9
$DIMTIH
 70
     1
  9
$DIMTOH
 70
     1
  9
$DIMSE1
 70
     0
  9
$DIMSE2
 70
     0
  9
$DIMTAD
 70
     1
  9
$DIMZIN
 70
     0
  9
$DIMBLK
  1

  9
$DIMASO
 70
     1
  9
$DIMSHO
 70
     1
  9
$DIMPOST
  1

  9
$DIMAPOST
  1

  9
$DIMALT
 70
     0
  9
$DIMALTD
 70
     3
  9
$DIMALTF
 40
0.0393700787
  9
$DIMLFAC
 40
1.0
  9
$DIMTOFL
 70
     1
  9
$DIMTVP
 40
0.0
  9
$DIMTIX
 70
     0
  9
$DIMSOXD
 70
     0
  9
$DIMSAH
 70
     0
  9
$DIMBLK1
  1

  9
$DIMBLK2
  1

  9
$DIMSTYLE
  2
ISO-25
  9
$DIMCLRD
 70
     0
  9
$DIMCLRE
 70
     0
  9
$DIMCLRT
 70
     0
  9
$DIMTFAC
 40
1.0
  9
$DIMGAP
 40
1.524
  9
$DIMJUST
 70
     0
  9
$DIMSD1
 70
     0
  9
$DIMSD2
 70
     0
  9
$DIMTOLJ
 70
     0
  9
$DIMTZIN
 70
     0
  9
$DIMALTZ
 70
     0
  9
$DIMALTTZ
 70
     0
  9
$DIMUPT
 70
     0
  9
$DIMDEC
 70
     2
  9
$DIMTDEC
 70
     3
  9
$DIMALTU
 70
     2
  9
$DIMALTTD
 70
     3
  9
$DIMTXSTY
  7
STANDARD
  9
$DIMAUNIT
 70
     0
  9
$DIMADEC
 70
     2
  9
$DIMALTRND
 40
0.0
  9
$DIMAZIN
 70
     0
  9
$DIMDSEP
 70
    44
  9
$DIMATFIT
 70
     3
  9
$DIMFRAC
 70
     0
  9
$DIMLDRBLK
  1

  9
$DIMLUNIT
 70
     2
  9
$DIMLWD
 70
    -2
  9
$DIMLWE
 70
    -2
  9
$DIMTMOVE
 70
     0
  9
$LUNITS
 70
     2
  9
$LUPREC
 70
     2
  9
$SKETCHINC
 40
1.0
  9
$FILLETRAD
 40
10.0
  9
$AUNITS
 70
     0
  9
$AUPREC
 70
     2
  9
$MENU
  1
.
  9
$ELEVATION
 40
0.0
  9
$PELEVATION
 40
0.0
  9
$THICKNESS
 40
0.0
  9
$LIMCHECK
 70
     0
  9
$CHAMFERA
 40
10.0
  9
$CHAMFERB
 40
10.0
  9
$CHAMFERC
 40
20.0
  9
$CHAMFERD
 40
0.0
  9
$SKPOLY
 70
     0
  9
$TDCREATE
 40
2457070.456552709
  9
$TDUCREATE
 40
2457070.414886042
  9
$TDUPDATE
 40
2457070.456553437
  9
$TDUUPDATE
 40
2457070.414886771
  9
$TDINDWG
 40
0.0000000116
  9
$TDUSRTIMER
 40
0.0000000116
  9
$USRTIMER
 70
     1
  9
$ANGBASE
 50
0.0
  9
$ANGDIR
 70
     0
  9
$PDMODE
 70
     0
  9
$PDSIZE
 40
-1.0
  9
$PLINEWID
 40
0.0
  9
$SPLFRAME
 70
     0
  9
$SPLINETYPE
 70
     6
  9
$SPLINESEGS
 70
     8
  9
$HANDSEED
  5
32D
  9
$SURFTAB1
 70
     6
  9
$SURFTAB2
 70
     6
  9
$SURFTYPE
 70
     6
  9
$SURFU
 70
     6
  9
$SURFV
 70
     6
  9
$UCSBASE
  2

  9
$UCSNAME
  2

  9
$UCSORG
 10
0.0
 20
0.0
 30
0.0
  9
$UCSXDIR
 10
1.0
 20
0.0
 30
0.0
  9
$UCSYDIR
 10
0.0
 20
1.0
 30
0.0
  9
$UCSORTHOREF
  2

  9
$UCSORTHOVIEW
 70
     0
  9
$UCSORGTOP
 10
0.0
 20
0.0
 30
0.0
  9
$UCSORGBOTTOM
 10
0.0
 20
0.0
 30
0.0
  9
$UCSORGLEFT
 10
0.0
 20
0.0
 30
0.0
  9
$UCSORGRIGHT
 10
0.0
 20
0.0
 30
0.0
  9
$UCSORGFRONT
 10
0.0
 20
0.0
 30
0.0
  9
$UCSORGBACK
 10
0.0
 20
0.0
 30
0.0
  9
$PUCSBASE
  2

  9
$PUCSNAME
  2

  9
$PUCSORG
 10
0.0
 20
0.0
 30
0.0
  9
$PUCSXDIR
 10
1.0
 20
0.0
 30
0.0
  9
$PUCSYDIR
 10
0.0
 20
1.0
 30
0.0
  9
$PUCSORTHOREF
  2

  9
$PUCSORTHOVIEW
 70
     0
  9
$PUCSORGTOP
 10
0.0
 20
0.0
 30
0.0
  9
$PUCSORGBOTTOM
 10
0.0
 20
0.0
 30
0.0
  9
$PUCSORGLEFT
 10
0.0
 20
0.0
 30
0.0
  9
$PUCSORGRIGHT
 10
0.0
 20
0.0
 30
0.0
  9
$PUCSORGFRONT
 10
0.0
 20
0.0
 30
0.0
  9
$PUCSORGBACK
 10
0.0
 20
0.0
 30
0.0
  9
$USERI1
 70
     0
  9
$USERI2
 70
     0
  9
$USERI3
 70
     0
  9
$USERI4
 70
     0
  9
$USERI5
 70
     0
  9
$USERR1
 40
0.0
  9
$USERR2
 40
0.0
  9
$USERR3
 40
0.0
  9
$USERR4
 40
0.0
  9
$USERR5
 40
0.0
  9
$WORLDVIEW
 70
     1
  9
$SHADEDGE
 70
     3
  9
$SHADEDIF
 70
    70
  9
$TILEMODE
 70
     1
  9
$MAXACTVP
 70
    64
  9
$PINSBASE
 10
0.0
 20
0.0
 30
0.0
  9
$PLIMCHECK
 70
     0
  9
$PEXTMIN
 10
1.0000000000E+20
 20
1.0000000000E+20
 30
1.0000000000E+20
  9
$PEXTMAX
 10
-1.0000000000E+20
 20
-1.0000000000E+20
 30
-1.0000000000E+20
  9
$PLIMMIN
 10
0.0
 20
0.0
  9
$PLIMMAX
 10
420.0
 20
297.0
  9
$UNITMODE
 70
     0
  9
$VISRETAIN
 70
     1
  9
$PLINEGEN
 70
     0
  9
$PSLTSCALE
 70
     1
  9
$TREEDEPTH
 70
  3020
  9
$CMLSTYLE
  2
Standard
  9
$CMLJUST
 70
     0
  9
$CMLSCALE
 40
20.0
  9
$PROXYGRAPHICS
 70
     1
  9
$MEASUREMENT
 70
     1
  9
$CELWEIGHT
370
    -1
  9
$ENDCAPS
280
     0
  9
$JOINSTYLE
280
     0
  9
$LWDISPLAY
290
     1
  9
$INSUNITS
 70
     4
  9
$HYPERLINKBASE
  1

  9
$STYLESHEET
  1

  9
$XEDIT
290
     1
  9
$CEPSNTYPE
380
     0
  9
$PSTYLEMODE
290
     1
  9
$FINGERPRINTGUID
  2
{FCE8A6BE-4AEA-4E96-A4F5-C42E7507B69E}
  9
$VERSIONGUID
  2
{FAEB1C32-E019-11D5-929B-00C0DF256EC4}
  9
$EXTNAMES
290
     1
  9
$PSVPSCALE
 40
0.0
  9
$OLESTARTUP
290
     0
  0
ENDSEC
  0
SECTION
  2
CLASSES
  0
CLASS
  1
ACDBDICTIONARYWDFLT
  2
AcDbDictionaryWithDefault
  3
ObjectDBX Classes
 90
        0
280
     0
281
     0
  0
CLASS
  1
VISUALSTYLE
  2
AcDbVisualStyle
  3
ObjectDBX Classes
 90
     4095
280
     0
281
     0
  0
CLASS
  1
MATERIAL
  2
AcDbMaterial
  3
ObjectDBX Classes
 90
     1153
280
     0
281
     0
  0
CLASS
  1
ACDBPLACEHOLDER
  2
AcDbPlaceHolder
  3
ObjectDBX Classes
 90
        0
280
     0
281
     0
  0
CLASS
  1
LAYOUT
  2
AcDbLayout
  3
ObjectDBX Classes
 90
        0
280
     0
281
     0
  0
ENDSEC
  0
SECTION
  2
TABLES
  0
TABLE
  2
VPORT
  5
8
330
0
100
AcDbSymbolTable
 70
     1
  0
VPORT
  5
29
330
8
100
AcDbSymbolTableRecord
100
AcDbViewportTableRecord
  2
*Active
 70
     0
 10
0.0
 20
0.0
 11
1.0
 21
1.0
 12
148.5
 22
105.0
 13
0.0
 23
0.0
 14
10.0
 24
10.0
 15
10.0
 25
10.0
 16
0.0
 26
0.0
 36
1.0
 17
0.0
 27
0.0
 37
0.0
 40
210.0
 41
1.4142857143
 42
50.0
 43
0.0
 44
0.0
 50
0.0
 51
0.0
 71
     0
 72
  2000
 73
     1
 74
     3
 75
     0
 76
     0
 77
     0
 78
     0
281
     0
 65
     1
110
0.0
120
0.0
130
0.0
111
1.0
121
0.0
131
0.0
112
0.0
122
1.0
132
0.0
 79
     0
146
0.0
  0
ENDTAB
  0
TABLE
  2
LTYPE
  5
5
330
0
100
AcDbSymbolTable
 70
     8
  0
LTYPE
  5
14
330
5
100
AcDbSymbolTableRecord
100
AcDbLinetypeTableRecord
  2
ByBlock
 70
     0
  3

 72
    65
 73
     0
 40
0.0
  0
LTYPE
  5
15
330
5
100
AcDbSymbolTableRecord
100
AcDbLinetypeTableRecord
  2
ByLayer
 70
     0
  3

 72
    65
 73
     0
 40
0.0
  0
LTYPE
  5
16
330
5
100
AcDbSymbolTableRecord
100
AcDbLinetypeTableRecord
  2
Continuous
 70
     0
  3
Solid line
 72
    65
 73
     0
 40
0.0
  0
LTYPE
  5
3F
330
5
100
AcDbSymbolTableRecord
100
AcDbLinetypeTableRecord
  2
SLD-Durchgehend
 70
     0
  3
SolidWorks Line Style
 72
    65
 73
     0
 40
0.0
  0
LTYPE
  5
40
330
5
100
AcDbSymbolTableRecord
100
AcDbLinetypeTableRecord
  2
SLD-Gestrichelt
 70
     0
  3
SolidWorks Line Style
 72
    65
 73
     2
 40
1.905
 49
1.27
 74
     0
 49
-0.635
 74
     0
  0
LTYPE
  5
41
330
5
100
AcDbSymbolTableRecord
100
AcDbLinetypeTableRecord
  2
SLD-Phantom
 70
     0
  3
SolidWorks Line Style
 72
    65
 73
     6
 40
12.7
 49
6.35
 74
     0
 49
-1.27
 74
     0
 49
1.27
 74
     0
 49
-1.27
 74
     0
 49
1.27
 74
     0
 49
-1.27
 74
     0
  0
LTYPE
  5
42
330
5
100
AcDbSymbolTableRecord
100
AcDbLinetypeTableRecord
  2
SLD-Kette
 70
     0
  3
SolidWorks Line Style
 72
    65
 73
     4
 40
10.16
 49
6.35
 74
     0
 49
-1.27
 74
     0
 49
1.27
 74
     0
 49
-1.27
 74
     0
  0
LTYPE
  5
43
330
5
100
AcDbSymbolTableRecord
100
AcDbLinetypeTableRecord
  2
SLD-Punktstrich
 70
     0
  3
SolidWorks Line Style
 72
    65
 73
     4
 40
19.05
 49
15.24
 74
     0
 49
-1.27
 74
     0
 49
1.27
 74
     0
 49
-1.27
 74
     0
  0
LTYPE
  5
44
330
5
100
AcDbSymbolTableRecord
100
AcDbLinetypeTableRecord
  2
SLD-Naht
 70
     0
  3
SolidWorks Line Style
 72
    65
 73
     2
 40
0.635
 49
0.0
 74
     0
 49
-0.635
 74
     0
  0
LTYPE
  5
45
330
5
100
AcDbSymbolTableRecord
100
AcDbLinetypeTableRecord
  2
SLD-Dicke-Dünne-Kette
 70
     0
  3
SolidWorks Line Style
 72
    65
 73
     4
 40
10.16
 49
6.35
 74
     0
 49
-1.27
 74
     0
 49
1.27
 74
     0
 49
-1.27
 74
     0
  0
ENDTAB
  0
TABLE
  2
LAYER
  5
2
330
0
100
AcDbSymbolTable
 70
     5
  0
LAYER
  5
10
330
2
100
AcDbSymbolTableRecord
100
AcDbLayerTableRecord
  2
0
 70
     0
 62
     7
  6
Continuous
370
    -3
390
F
  0
LAYER
  5
46
330
2
100
AcDbSymbolTableRecord
100
AcDbLayerTableRecord
  2
FORMAT
 70
     0
 62
     7
  6
SLD-Durchgehend
370
    -3
390
F
  0
LAYER
  5
47
330
2
100
AcDbSymbolTableRecord
100
AcDbLayerTableRecord
  2
VERMASSUNG
 70
     0
 62
     7
  6
SLD-Durchgehend
370
    -3
390
F
  0
LAYER
  5
48
330
2
100
AcDbSymbolTableRecord
100
AcDbLayerTableRecord
  2
KOPF_DÜNN
 70
     0
 62
     7
  6
SLD-Durchgehend
370
    -3
390
F
  0
LAYER
  5
49
330
2
100
AcDbSymbolTableRecord
100
AcDbLayerTableRecord
  2
KOPF_DICK
 70
     0
 62
     7
  6
SLD-Durchgehend
370
    15
390
F
  0
ENDTAB
  0
TABLE
  2
STYLE
  5
3
330
0
100
AcDbSymbolTable
 70
     2
  0
STYLE
  5
11
330
3
100
AcDbSymbolTableRecord
100
AcDbTextStyleTableRecord
  2
STANDARD
 70
     0
 40
0.0
 41
1.0
 50
0.0
 71
     0
 42
2.0
  3
ISOCPEUR.TTF
  4

1001
ACAD
1000
ISOCPEUR
1071
       34
  0
STYLE
  5
4A
330
3
100
AcDbSymbolTableRecord
100
AcDbTextStyleTableRecord
  2
SLDTEXTSTYLE0
 70
     0
 40
0.0
 41
1.0
 50
0.0
 71
     0
 42
0.2
  3
ISOCPEUR.TTF
  4

1001
ACAD
1000
ISOCPEUR
1071
      290
  0
ENDTAB
  0
TABLE
  2
VIEW
  5
6
330
0
100
AcDbSymbolTable
 70
     0
  0
ENDTAB
  0
TABLE
  2
UCS
  5
7
330
0
100
AcDbSymbolTable
 70
     0
  0
ENDTAB
  0
TABLE
  2
APPID
  5
9
330
0
100
AcDbSymbolTable
 70
     1
  0
APPID
  5
12
330
9
100
AcDbSymbolTableRecord
100
AcDbRegAppTableRecord
  2
ACAD
 70
     0
  0
ENDTAB
  0
TABLE
  2
DIMSTYLE
  5
A
330
0
100
AcDbSymbolTable
 70
     3
100
AcDbDimStyleTable
  0
DIMSTYLE
105
27
330
A
100
AcDbSymbolTableRecord
100
AcDbDimStyleTableRecord
  2
ISO-25
 70
     0
 41
2.5
 42
0.625
 43
3.75
 44
1.25
 73
     0
 74
     0
 77
     1
 78
     8
140
2.5
141
2.5
143
0.0393700787
147
0.625
171
     3
172
     1
178
     0
271
     2
272
     2
274
     3
278
    44
283
     0
284
     8
340
11
  0
DIMSTYLE
105
24B
102
{ACAD_REACTORS
330
24A
102
}
330
A
100
AcDbSymbolTableRecord
100
AcDbDimStyleTableRecord
  2
SLDDIMSTYLE0
 70
     0
 41
3.0
 44
0.0
 73
     0
 74
     0
 77
     1
 78
    12
 79
     3
140
2.0
147
0.5
173
     1
178
     0
179
     2
272
     3
276
     2
284
    12
340
4A
  0
DIMSTYLE
105
255
102
{ACAD_REACTORS
330
254
330
25F
330
269
330
275
330
315
102
}
330
A
100
AcDbSymbolTableRecord
100
AcDbDimStyleTableRecord
  2
SLDDIMSTYLE1
 70
     0
 41
3.0
 44
0.0
 45
0.000000001
 73
     0
 74
     0
 77
     1
 78
    12
 79
     3
140
2.0
147
0.5
173
     1
178
     0
271
     2
272
     3
276
     2
284
    12
340
4A
  0
ENDTAB
  0
TABLE
  2
BLOCK_RECORD
  5
1
330
0
100
AcDbSymbolTable
 70
     8
  0
BLOCK_RECORD
  5
1F
330
1
100
AcDbSymbolTableRecord
100
AcDbBlockTableRecord
  2
*Model_Space
340
22
  0
BLOCK_RECORD
  5
1B
330
1
100
AcDbSymbolTableRecord
100
AcDbBlockTableRecord
  2
*Paper_Space
340
1E
  0
BLOCK_RECORD
  5
23
330
1
100
AcDbSymbolTableRecord
100
AcDbBlockTableRecord
  2
*Paper_Space0
340
26
  0
BLOCK_RECORD
  5
24C
330
1
100
AcDbSymbolTableRecord
100
AcDbBlockTableRecord
  2
_D
340
0
  0
BLOCK_RECORD
  5
256
330
1
100
AcDbSymbolTableRecord
100
AcDbBlockTableRecord
  2
_D_1
340
0
  0
BLOCK_RECORD
  5
260
330
1
100
AcDbSymbolTableRecord
100
AcDbBlockTableRecord
  2
_D_2
340
0
  0
BLOCK_RECORD
  5
26A
330
1
100
AcDbSymbolTableRecord
100
AcDbBlockTableRecord
  2
_D_3
340
0
  0
BLOCK_RECORD
  5
276
330
1
100
AcDbSymbolTableRecord
100
AcDbBlockTableRecord
  2
_D_4
340
0
  0
BLOCK_RECORD
  5
316
330
1
100
AcDbSymbolTableRecord
100
AcDbBlockTableRecord
  2
_D_5
340
0
  0
BLOCK_RECORD
  5
320
330
1
100
AcDbSymbolTableRecord
100
AcDbBlockTableRecord
  2
SW_CENTERMARKSYMBOL_0
340
0
102
{BLKREFS
331
32B
102
}
  0
ENDTAB
  0
ENDSEC
  0
SECTION
  2
BLOCKS
  0
BLOCK
  5
20
330
1F
100
AcDbEntity
  8
0
100
AcDbBlockBegin
  2
*Model_Space
 70
     0
 10
0.0
 20
0.0
 30
0.0
  3
*Model_Space
  1

  0
ENDBLK
  5
21
330
1F
100
AcDbEntity
  8
0
100
AcDbBlockEnd
  0
BLOCK
  5
1C
330
1B
100
AcDbEntity
 67
     1
  8
0
100
AcDbBlockBegin
  2
*Paper_Space
 70
     0
 10
0.0
 20
0.0
 30
0.0
  3
*Paper_Space
  1

  0
ENDBLK
  5
1D
330
1B
100
AcDbEntity
 67
     1
  8
0
100
AcDbBlockEnd
  0
BLOCK
  5
24
330
23
100
AcDbEntity
  8
0
100
AcDbBlockBegin
  2
*Paper_Space0
 70
     0
 10
0.0
 20
0.0
 30
0.0
  3
*Paper_Space0
  1

  0
ENDBLK
  5
25
330
23
100
AcDbEntity
  8
0
100
AcDbBlockEnd
  0
BLOCK
  5
24D
330
24C
100
AcDbEntity
  8
0
100
AcDbBlockBegin
  2
_D
 70
     0
 10
0.0
 20
0.0
 30
0.0
  3
_D
  1

  0
ARC
  5
24F
330
24C
100
AcDbEntity
  8
VERMASSUNG
100
AcDbCircle
 10
232.9116521276
 20
91.49266294
 30
0.0
 40
9.5624890620943
100
AcDbArc
 50
0.0
 51
116.2431646972
  0
SOLID
  5
250
330
24C
100
AcDbEntity
  8
VERMASSUNG
100
AcDbTrace
 10
242.4741411897
 20
91.49266294
 30
0.0
 11
242.464704747
 21
94.5262105255
 31
0.0
 12
241.5750816314
 22
94.3899361253
 32
0.0
 13
241.5750816314
 23
94.3899361253
 33
0.0
  0
SOLID
  5
251
330
24C
100
AcDbEntity
  8
VERMASSUNG
100
AcDbTrace
 10
228.6832945395
 20
100.0695032189
 30
0.0
 11
231.6794804148
 21
100.5442349332
 31
0.0
 12
231.4083333452
 22
101.4024186354
 32
0.0
 13
231.4083333452
 23
101.4024186354
 33
0.0
  0
LINE
  5
252
330
24C
100
AcDbEntity
  8
VERMASSUNG
100
AcDbLine
 10
236.130953704
 20
91.49266294
 30
0.0
 11
243.4741411897
 21
91.49266294
 31
0.0
  0
MTEXT
  5
253
330
24C
100
AcDbEntity
  8
VERMASSUNG
100
AcDbMText
 10
235.7683708608
 20
104.0387896002
 30
0.1
 40
2.0
 41
0.0
 71
     1
 72
     1
  1
117.5°
  7
SLDTEXTSTYLE0
 11
0.8491706811541775
 21
-0.5281185040009014
 31
0.0
 73
     1
 44
1.0
  0
ENDBLK
  5
24E
330
24C
100
AcDbEntity
  8
0
100
AcDbBlockEnd
  0
BLOCK
  5
257
330
256
100
AcDbEntity
  8
0
100
AcDbBlockBegin
  2
_D_1
 70
     0
 10
0.0
 20
0.0
 30
0.0
  3
_D_1
  1

  0
SOLID
  5
259
330
256
100
AcDbEntity
  8
VERMASSUNG
100
AcDbTrace
 10
233.0535774931
 20
153.7096120081
 30
0.0
 11
230.0535774931
 21
154.1596120081
 31
0.0
 12
230.0535774931
 22
153.2596120081
 32
0.0
 13
230.0535774931
 23
153.2596120081
 33
0.0
  0
SOLID
  5
25A
330
256
100
AcDbEntity
  8
VERMASSUNG
100
AcDbTrace
 10
158.1535774931
 20
153.7096120081
 30
0.0
 11
161.1535774931
 21
153.2596120081
 31
0.0
 12
161.1535774931
 22
154.1596120081
 32
0.0
 13
161.1535774931
 23
154.1596120081
 33
0.0
  0
LINE
  5
25B
330
256
100
AcDbEntity
  8
VERMASSUNG
100
AcDbLine
 10
233.0535774931
 20
90.7096120081
 30
0.0
 11
233.0535774931
 21
154.7096120081
 31
0.0
  0
LINE
  5
25C
330
256
100
AcDbEntity
  8
VERMASSUNG
100
AcDbLine
 10
158.1535774931
 20
129.6396120081
 30
0.0
 11
158.1535774931
 21
154.7096120081
 31
0.0
  0
LINE
  5
25D
330
256
100
AcDbEntity
  8
VERMASSUNG
100
AcDbLine
 10
233.0535774931
 20
153.7096120081
 30
0.0
 11
158.1535774931
 21
153.7096120081
 31
0.0
  0
MTEXT
  5
25E
330
256
100
AcDbEntity
  8
VERMASSUNG
100
AcDbMText
 10
193.1049288049
 20
156.3096118916
 30
0.0
 40
2.0
 41
0.0
 71
     1
 72
     1
  1
74.9
  7
SLDTEXTSTYLE0
 73
     1
 44
1.0
  0
ENDBLK
  5
258
330
256
100
AcDbEntity
  8
0
100
AcDbBlockEnd
  0
BLOCK
  5
261
330
260
100
AcDbEntity
  8
0
100
AcDbBlockBegin
  2
_D_2
 70
     0
 10
0.0
 20
0.0
 30
0.0
  3
_D_2
  1

  0
SOLID
  5
263
330
260
100
AcDbEntity
  8
VERMASSUNG
100
AcDbTrace
 10
178.0535774931
 20
147.7096120081
 30
0.0
 11
181.0535774931
 21
147.2596120081
 31
0.0
 12
181.0535774931
 22
148.1596120081
 32
0.0
 13
181.0535774931
 23
148.1596120081
 33
0.0
  0
SOLID
  5
264
330
260
100
AcDbEntity
  8
VERMASSUNG
100
AcDbTrace
 10
233.0535774931
 20
147.7096120081
 30
0.0
 11
230.0535774931
 21
148.1596120081
 31
0.0
 12
230.0535774931
 22
147.2596120081
 32
0.0
 13
230.0535774931
 23
147.2596120081
 33
0.0
  0
LINE
  5
265
330
260
100
AcDbEntity
  8
VERMASSUNG
100
AcDbLine
 10
178.0535774931
 20
137.4096120081
 30
0.0
 11
178.0535774931
 21
148.7096120081
 31
0.0
  0
LINE
  5
266
330
260
100
AcDbEntity
  8
VERMASSUNG
100
AcDbLine
 10
233.0535774931
 20
90.7096120081
 30
0.0
 11
233.0535774931
 21
148.7096120081
 31
0.0
  0
LINE
  5
267
330
260
100
AcDbEntity
  8
VERMASSUNG
100
AcDbLine
 10
178.0535774931
 20
147.7096120081
 30
0.0
 11
233.0535774931
 21
147.7096120081
 31
0.0
  0
MTEXT
  5
268
330
260
100
AcDbEntity
  8
VERMASSUNG
100
AcDbMText
 10
204.154698994
 20
150.3096118916
 30
0.0
 40
2.0
 41
0.0
 71
     1
 72
     1
  1
55
  7
SLDTEXTSTYLE0
 73
     1
 44
1.0
  0
ENDBLK
  5
262
330
260
100
AcDbEntity
  8
0
100
AcDbBlockEnd
  0
BLOCK
  5
26B
330
26A
100
AcDbEntity
  8
0
100
AcDbBlockBegin
  2
_D_3
 70
     0
 10
0.0
 20
0.0
 30
0.0
  3
_D_3
  1

  0
SOLID
  5
26D
330
26A
100
AcDbEntity
  8
VERMASSUNG
100
AcDbTrace
 10
153.4029922906
 20
137.7096120081
 30
0.0
 11
152.9529922906
 21
134.7096120081
 31
0.0
 12
153.8529922906
 22
134.7096120081
 32
0.0
 13
153.8529922906
 23
134.7096120081
 33
0.0
  0
SOLID
  5
26E
330
26A
100
AcDbEntity
  8
VERMASSUNG
100
AcDbTrace
 10
153.4029922906
 20
97.7096120081
 30
0.0
 11
153.8529922906
 21
100.7096120081
 31
0.0
 12
152.9529922906
 22
100.7096120081
 32
0.0
 13
152.9529922906
 23
100.7096120081
 33
0.0
  0
LINE
  5
26F
330
26A
100
AcDbEntity
  8
VERMASSUNG
100
AcDbLine
 10
178.3535774931
 20
137.7096120081
 30
0.0
 11
152.4029922906
 21
137.7096120081
 31
0.0
  0
LINE
  5
270
330
26A
100
AcDbEntity
  8
VERMASSUNG
100
AcDbLine
 10
178.3535774931
 20
97.7096120081
 30
0.0
 11
152.4029922906
 21
97.7096120081
 31
0.0
  0
LINE
  5
271
330
26A
100
AcDbEntity
  8
VERMASSUNG
100
AcDbLine
 10
153.4029922906
 20
137.7096120081
 30
0.0
 11
153.4029922906
 21
97.7096120081
 31
0.0
  0
MTEXT
  5
272
330
26A
100
AcDbEntity
  8
VERMASSUNG
100
AcDbMText
 10
150.6029922811
 20
111.4064515216
 30
0.0
 40
2.0
 41
0.0
 71
     1
 72
     1
  1
HSK 
  7
SLDTEXTSTYLE0
 11
-7.044195017643634E-15
 21
1.0
 31
0.0
 73
     1
 44
1.0
  0
MTEXT
  5
273
330
26A
100
AcDbEntity
  8
VERMASSUNG
100
AcDbMText
 10
150.8029922906
 20
117.4064515737
 30
0.0
 40
2.0
 41
0.0
 71
     1
 72
     1
  1
%%c
  7
SLDTEXTSTYLE0
 11
-7.044195017643634E-15
 21
1.0
 31
0.0
 73
     1
 44
1.0
  0
MTEXT
  5
274
330
26A
100
AcDbEntity
  8
VERMASSUNG
100
AcDbMText
 10
150.802992407
 20
121.0143940687
 30
0.0
 40
2.0
 41
0.0
 71
     1
 72
     1
  1
40
  7
SLDTEXTSTYLE0
 11
-7.044195017643634E-15
 21
1.0
 31
0.0
 73
     1
 44
1.0
  0
ENDBLK
  5
26C
330
26A
100
AcDbEntity
  8
0
100
AcDbBlockEnd
  0
BLOCK
  5
277
330
276
100
AcDbEntity
  8
0
100
AcDbBlockBegin
  2
_D_4
 70
     0
 10
0.0
 20
0.0
 30
0.0
  3
_D_4
  1

  0
SOLID
  5
279
330
276
100
AcDbEntity
  8
VERMASSUNG
100
AcDbTrace
 10
250.7846328882
 20
117.7096120081
 30
0.0
 11
250.3346328882
 21
114.7096120081
 31
0.0
 12
251.2346328882
 22
114.7096120081
 32
0.0
 13
251.2346328882
 23
114.7096120081
 33
0.0
  0
SOLID
  5
27A
330
276
100
AcDbEntity
  8
VERMASSUNG
100
AcDbTrace
 10
250.7846328882
 20
90.7096120081
 30
0.0
 11
251.2346328882
 21
93.7096120081
 31
0.0
 12
250.3346328882
 22
93.7096120081
 32
0.0
 13
250.3346328882
 23
93.7096120081
 33
0.0
  0
LINE
  5
27B
330
276
100
AcDbEntity
  8
VERMASSUNG
100
AcDbLine
 10
227.9951114714
 20
117.7096120081
 30
0.0
 11
251.7846328882
 21
117.7096120081
 31
0.0
  0
LINE
  5
27C
330
276
100
AcDbEntity
  8
VERMASSUNG
100
AcDbLine
 10
233.0535774931
 20
90.7096120081
 30
0.0
 11
251.7846328882
 21
90.7096120081
 31
0.0
  0
LINE
  5
27D
330
276
100
AcDbEntity
  8
VERMASSUNG
100
AcDbLine
 10
250.7846328882
 20
117.7096120081
 30
0.0
 11
250.7846328882
 21
90.7096120081
 31
0.0
  0
MTEXT
  5
27E
330
276
100
AcDbEntity
  8
VERMASSUNG
100
AcDbMText
 10
248.1846330046
 20
102.8107335089
 30
0.0
 40
2.0
 41
0.0
 71
     1
 72
     1
  1
27
  7
SLDTEXTSTYLE0
 11
-7.044195017643634E-15
 21
1.0
 31
0.0
 73
     1
 44
1.0
  0
ENDBLK
  5
278
330
276
100
AcDbEntity
  8
0
100
AcDbBlockEnd
  0
BLOCK
  5
317
330
316
100
AcDbEntity
  8
0
100
AcDbBlockBegin
  2
_D_5
 70
     0
 10
0.0
 20
0.0
 30
0.0
  3
_D_5
  1

  0
SOLID
  5
319
330
316
100
AcDbEntity
  8
VERMASSUNG
100
AcDbTrace
 10
63.2979143057
 20
90.7513200291
 30
0.0
 11
63.7479143057
 21
93.7513200291
 31
0.0
 12
62.8479143057
 22
93.7513200291
 32
0.0
 13
62.8479143057
 23
93.7513200291
 33
0.0
  0
SOLID
  5
31A
330
316
100
AcDbEntity
  8
VERMASSUNG
100
AcDbTrace
 10
63.2979143057
 20
140.7513200291
 30
0.0
 11
62.8479143057
 21
137.7513200291
 31
0.0
 12
63.7479143057
 22
137.7513200291
 32
0.0
 13
63.7479143057
 23
137.7513200291
 33
0.0
  0
LINE
  5
31B
330
316
100
AcDbEntity
  8
VERMASSUNG
100
AcDbLine
 10
92.742029823
 20
90.7513200291
 30
0.0
 11
62.2979143057
 21
90.7513200291
 31
0.0
  0
LINE
  5
31C
330
316
100
AcDbEntity
  8
VERMASSUNG
100
AcDbLine
 10
92.742029823
 20
140.7513200291
 30
0.0
 11
62.2979143057
 21
140.7513200291
 31
0.0
  0
LINE
  5
31D
330
316
100
AcDbEntity
  8
VERMASSUNG
100
AcDbLine
 10
63.2979143057
 20
90.7513200291
 30
0.0
 11
63.2979143057
 21
140.7513200291
 31
0.0
  0
MTEXT
  5
31E
330
316
100
AcDbEntity
  8
VERMASSUNG
100
AcDbMText
 10
60.6979143057
 20
112.5486725134
 30
0.0
 40
2.0
 41
0.0
 71
     1
 72
     1
  1
%%c
  7
SLDTEXTSTYLE0
 11
6.123233995736766E-17
 21
1.0
 31
0.0
 73
     1
 44
1.0
  0
MTEXT
  5
31F
330
316
100
AcDbEntity
  8
VERMASSUNG
100
AcDbMText
 10
60.6979144221
 20
116.1562105465
 30
0.0
 40
2.0
 41
0.0
 71
     1
 72
     1
  1
50
  7
SLDTEXTSTYLE0
 11
6.123233995736766E-17
 21
1.0
 31
0.0
 73
     1
 44
1.0
  0
ENDBLK
  5
318
330
316
100
AcDbEntity
  8
0
100
AcDbBlockEnd
  0
BLOCK
  5
321
330
320
100
AcDbEntity
  8
0
100
AcDbBlockBegin
  2
SW_CENTERMARKSYMBOL_0
 70
     0
 10
0.0
 20
0.0
 30
0.0
  3
SW_CENTERMARKSYMBOL_0
  1

  0
LINE
  5
323
330
320
100
AcDbEntity
  8
VERMASSUNG
 62
     0
100
AcDbLine
 10
0.0
 20
0.0
 30
0.0
 11
0.0
 21
2.5
 31
0.0
  0
LINE
  5
324
330
320
100
AcDbEntity
  8
VERMASSUNG
 62
     0
100
AcDbLine
 10
0.0
 20
0.0
 30
0.0
 11
-2.5
 21
0.0
 31
0.0
  0
LINE
  5
325
330
320
100
AcDbEntity
  8
VERMASSUNG
 62
     0
100
AcDbLine
 10
0.0
 20
0.0
 30
0.0
 11
0.0
 21
-2.5
 31
0.0
  0
LINE
  5
326
330
320
100
AcDbEntity
  8
VERMASSUNG
 62
     0
100
AcDbLine
 10
0.0
 20
0.0
 30
0.0
 11
2.5
 21
0.0
 31
0.0
  0
LINE
  5
327
330
320
100
AcDbEntity
  8
VERMASSUNG
 62
     0
100
AcDbLine
 10
0.0
 20
5.0
 30
0.0
 11
0.0
 21
22.5
 31
0.0
  0
LINE
  5
328
330
320
100
AcDbEntity
  8
VERMASSUNG
 62
     0
100
AcDbLine
 10
-5.0
 20
0.0
 30
0.0
 11
-22.5
 21
0.0
 31
0.0
  0
LINE
  5
329
330
320
100
AcDbEntity
  8
VERMASSUNG
 62
     0
100
AcDbLine
 10
0.0
 20
-5.0
 30
0.0
 11
0.0
 21
-29.3908634587
 31
0.0
  0
LINE
  5
32A
330
320
100
AcDbEntity
  8
VERMASSUNG
 62
     0
100
AcDbLine
 10
5.0
 20
0.0
 30
0.0
 11
22.5
 21
0.0
 31
0.0
  0
ENDBLK
  5
322
330
320
100
AcDbEntity
  8
0
100
AcDbBlockEnd
  0
ENDSEC
  0
SECTION
  2
ENTITIES
  0
MTEXT
  5
4B
330
1F
100
AcDbEntity
  8
KOPF_DÜNN
100
AcDbMText
 10
13.8892156294
 20
23.8770940835
 30
0.0
 40
3.0
 41
0.0
 71
     1
 72
     1
  1
HA4.KVD.LPA.055
  7
SLDTEXTSTYLE0
 73
     1
 44
1.0
  0
MTEXT
  5
4C
330
1F
100
AcDbEntity
  8
VERMASSUNG
100
AcDbMText
 10
13.9329988022
 20
28.9162328764
 30
0.0
 40
3.0
 41
0.0
 71
     1
 72
     1
  1
Klemmhalter links_Turning tool left 117.5° /35° /117.5°
  7
SLDTEXTSTYLE0
 73
     1
 44
1.0
  0
MTEXT
  5
4D
330
1F
100
AcDbEntity
  8
VERMASSUNG
100
AcDbMText
 10
98.8601118557
 20
13.8584013384
 30
0.0
 40
2.0
 41
0.0
 71
     1
 72
     1
  1
Datum: 25.11.2008
  7
SLDTEXTSTYLE0
 73
     1
 44
1.0
  0
MTEXT
  5
4E
330
1F
100
AcDbEntity
  8
VERMASSUNG
100
AcDbMText
 10
13.933048693
 20
18.0701447943
 30
0.0
 40
2.0
 41
0.0
 71
     1
 72
     1
  1
DIN 69893 HSK 40 A ICTM / VN.. 16 04..
  7
SLDTEXTSTYLE0
 73
     1
 44
1.0
  0
MTEXT
  5
4F
330
1F
100
AcDbEntity
  8
VERMASSUNG
100
AcDbMText
 10
13.9808475933
 20
13.9309618897
 30
0.0
 40
2.0
 41
0.0
 71
     1
 72
     1
  1
Gewicht: 373g
  7
SLDTEXTSTYLE0
 73
     1
 44
1.0
  0
LINE
  5
50
330
1F
100
AcDbEntity
  8
0
  6
SLD-Durchgehend
 62
     7
370
    15
100
AcDbLine
 10
214.6657156453
 20
118.6898302984
 30
0.0
 11
215.4920409128
 21
117.7154859905
 31
0.0
  0
LINE
  5
51
330
1F
100
AcDbEntity
  8
0
  6
SLD-Durchgehend
 62
     7
370
    15
100
AcDbLine
 10
217.7800210819
 20
119.6558875962
 30
0.0
 11
216.890041779
 21
120.7052841781
 31
0.0
  0
LINE
  5
52
330
1F
100
AcDbEntity
  8
0
  6
SLD-Durchgehend
 62
     7
370
    15
100
AcDbLine
 10
224.7180278107
 20
114.3695369827
 30
0.0
 11
224.3707338974
 21
114.7790432441
 31
0.0
  0
LINE
  5
53
330
1F
100
AcDbEntity
  8
0
  6
SLD-Durchgehend
 62
     7
370
    15
100
AcDbLine
 10
215.6001525626
 20
107.340837363
 30
0.0
 11
215.9474464759
 21
106.9313311017
 31
0.0
  0
LINE
  5
54
330
1F
100
AcDbEntity
  8
0
  6
SLD-Durchgehend
 62
     7
370
    15
100
AcDbLine
 10
225.1504073545
 20
115.7922968267
 30
0.0
 11
224.3531169996
 21
116.7324024717
 31
0.0
  0
LINE
  5
55
330
1F
100
AcDbEntity
  8
0
  6
SLD-Durchgehend
 62
     7
370
    15
100
AcDbLine
 10
213.6758873865
 20
107.6771947554
 30
0.0
 11
214.4731777415
 21
106.7370888776
 31
0.0
  0
LINE
  5
56
330
1F
100
AcDbEntity
  8
0
  6
SLD-Durchgehend
 62
     7
370
    15
100
AcDbLine
 10
221.2421792254
 20
125.0791968777
 30
0.0
 11
220.1311523721
 21
126.3892385176
 31
0.0
  0
LINE
  5
57
330
1F
100
AcDbEntity
  8
0
  6
SLD-Durchgehend
 62
     7
370
    15
100
AcDbLine
 10
216.060900192
 20
102.9258002526
 30
0.0
 11
216.9258790716
 21
101.9058800301
 31
0.0
  0
LINE
  5
58
330
1F
100
AcDbEntity
  8
0
  6
SLD-Durchgehend
 62
     7
370
    15
100
AcDbLine
 10
221.642308931
 20
97.5723206064
 30
0.0
 11
226.3570065305
 21
99.6371428481
 31
0.0
  0
LINE
  5
59
330
1F
100
AcDbEntity
  8
0
  6
SLD-Durchgehend
 62
     7
370
    15
100
AcDbLine
 10
218.8192615911
 20
98.2061135581
 30
0.0
 11
219.292347382
 21
97.6482830009
 31
0.0
  0
LINE
  5
5A
330
1F
100
AcDbEntity
  8
0
  6
SLD-Durchgehend
 62
     7
370
    15
100
AcDbLine
 10
178.3535775074
 20
97.7096124551
 30
0.0
 11
186.003577958
 21
97.7096124551
 31
0.0
  0
LINE
  5
5B
330
1F
100
AcDbEntity
  8
0
  6
SLD-Durchgehend
 62
     7
370
    15
100
AcDbLine
 10
186.019104968
 20
137.709611561
 30
0.0
 11
178.3535775074
 21
137.709611561
 31
0.0
  0
ARC
  5
5C
330
1F
100
AcDbEntity
  8
0
  6
SLD-Durchgehend
 62
     7
370
    15
100
AcDbCircle
 10
178.3535774931
 20
98.0096120081
 30
0.0
 40
0.3000000000000114
100
AcDbArc
 50
180.0
 51
270.0
  0
ARC
  5
5D
330
1F
100
AcDbEntity
  8
0
  6
SLD-Durchgehend
 62
     7
370
    15
100
AcDbCircle
 10
178.3535774931
 20
137.4096120081
 30
0.0
 40
0.2999999999999829
100
AcDbArc
 50
90.0
 51
180.0
  0
ARC
  5
5E
330
1F
100
AcDbEntity
  8
0
  6
SLD-Durchgehend
 62
     7
370
    15
100
AcDbCircle
 10
199.0035774931
 20
100.2096120081
 30
0.0
 40
1.000000000000015
100
AcDbArc
 50
90.0
 51
143.1137328946
  0
ARC
  5
5F
330
1F
100
AcDbEntity
  8
0
  6
SLD-Durchgehend
 62
     7
370
    15
100
AcDbCircle
 10
199.0035774931
 20
135.2096120081
 30
0.0
 40
1.0
100
AcDbArc
 50
216.8998129703
 51
270.0
  0
LINE
  5
60
330
1F
100
AcDbEntity
  8
0
  6
SLD-Durchgehend
 62
     7
370
    15
100
AcDbLine
 10
199.0035782263
 20
101.2096120975
 30
0.0
 11
212.286249797
 21
101.2096120975
 31
0.0
  0
LINE
  5
61
330
1F
100
AcDbEntity
  8
0
  6
SLD-Durchgehend
 62
     7
370
    15
100
AcDbLine
 10
212.286249797
 20
134.2096119186
 30
0.0
 11
199.0035782263
 21
134.2096119186
 31
0.0
  0
ARC
  5
62
330
1F
100
AcDbEntity
  8
0
  6
SLD-Durchgehend
 62
     7
370
    15
100
AcDbCircle
 10
177.5535707405
 20
102.2559048546
 30
0.0
 40
0.60000675266771
100
AcDbArc
 50
33.5571153394
 51
90.0
  0
ARC
  5
63
330
1F
100
AcDbEntity
  8
0
  6
SLD-Durchgehend
 62
     7
370
    15
100
AcDbCircle
 10
177.5535707405
 20
133.1633191615
 30
0.0
 40
0.6000067526677045
100
AcDbArc
 50
270.0
 51
326.4428846606
  0
LINE
  5
64
330
1F
100
AcDbEntity
  8
0
  6
SLD-Durchgehend
 62
     7
370
    15
100
AcDbLine
 10
169.2376444742
 20
132.4718329123
 30
0.0
 11
161.7535772428
 21
132.0968796498
 31
0.0
  0
LINE
  5
65
330
1F
100
AcDbEntity
  8
0
  6
SLD-Durchgehend
 62
     7
370
    15
100
AcDbLine
 10
176.0535773981
 20
132.8133125788
 30
0.0
 11
174.8188448299
 21
132.7514522708
 31
0.0
  0
LINE
  5
66
330
1F
100
AcDbEntity
  8
0
  6
SLD-Durchgehend
 62
     7
370
    15
100
AcDbLine
 10
174.8198408794
 20
102.6677223852
 30
0.0
 11
176.0535773981
 21
102.6059114373
 31
0.0
  0
LINE
  5
67
330
1F
100
AcDbEntity
  8
0
  6
SLD-Durchgehend
 62
     7
370
    15
100
AcDbLine
 10
164.2535776526
 20
103.1970935872
 30
0.0
 11
169.2381073415
 21
102.9473678208
 31
0.0
  0
LINE
  5
68
330
1F
100
AcDbEntity
  8
0
  6
SLD-Durchgehend
 62
     7
370
    15
100
AcDbLine
 10
176.0535773981
 20
102.6059114373
 30
0.0
 11
176.910289393
 21
102.8354666195
 31
0.0
  0
LINE
  5
69
330
1F
100
AcDbEntity
  8
0
  6
SLD-Durchgehend
 62
     7
370
    15
100
AcDbLine
 10
176.910289393
 20
132.5837573967
 30
0.0
 11
176.0535773981
 21
132.8133125788
 31
0.0
  0
ARC
  5
6A
330
1F
100
AcDbEntity
  8
0
  6
SLD-Durchgehend
 62
     7
370
    15
100
AcDbCircle
 10
177.0655825826
 20
102.2559048546
 30
0.0
 40
0.60000675266771
100
AcDbArc
 50
90.0
 51
105.0
  0
ARC
  5
6B
330
1F
100
AcDbEntity
  8
0
  6
SLD-Durchgehend
 62
     7
370
    15
100
AcDbCircle
 10
177.0655825826
 20
133.1633191615
 30
0.0
 40
0.6000067526677096
100
AcDbArc
 50
255.0
 51
270.0
  0
LINE
  5
6C
330
1F
100
AcDbEntity
  8
0
  6
SLD-Durchgehend
 62
     7
370
    15
100
AcDbLine
 10
177.0655825429
 20
102.8559119439
 30
0.0
 11
177.5535707173
 21
102.8559119439
 31
0.0
  0
LINE
  5
6D
330
1F
100
AcDbEntity
  8
0
  6
SLD-Durchgehend
 62
     7
370
    15
100
AcDbLine
 10
177.5535707173
 20
132.5633120722
 30
0.0
 11
177.0655825429
 21
132.5633120722
 31
0.0
  0
ARC
  5
6E
330
1F
100
AcDbEntity
  8
0
  6
SLD-Durchgehend
 62
     7
370
    15
100
AcDbCircle
 10
212.2862505051
 20
135.2096120081
 30
0.0
 40
1.0
100
AcDbArc
 50
270.0
 51
330.0
  0
ARC
  5
6F
330
1F
100
AcDbEntity
  8
0
  6
SLD-Durchgehend
 62
     7
370
    15
100
AcDbCircle
 10
212.2862505051
 20
100.2096120081
 30
0.0
 40
1.000000000000007
100
AcDbArc
 50
15.0
 51
90.0
  0
LINE
  5
70
330
1F
100
AcDbEntity
  8
0
  6
SLD-Durchgehend
 62
     7
370
    15
100
AcDbLine
 10
215.0616022453
 20
134.7096129319
 30
0.0
 11
213.1522754833
 21
134.7096129319
 31
0.0
  0
ARC
  5
71
330
1F
100
AcDbEntity
  8
0
  6
SLD-Durchgehend
 62
     7
370
    15
100
AcDbCircle
 10
160.8535774931
 20
131.4896120081
 30
0.0
 40
0.9000000000000057
100
AcDbArc
 50
270.0
 51
311.1792132368
  0
ARC
  5
72
330
1F
100
AcDbEntity
  8
0
  6
SLD-Durchgehend
 62
     7
370
    15
100
AcDbCircle
 10
163.3535774931
 20
103.9886120081
 30
0.0
 40
0.8999999999999915
100
AcDbArc
 50
29.8499024808
 51
90.0
  0
LINE
  5
73
330
1F
100
AcDbEntity
  8
0
  6
SLD-Durchgehend
 62
     7
370
    15
100
AcDbLine
 10
159.1035770878
 20
130.5896122939
 30
0.0
 11
158.1535777703
 21
129.639612045
 31
0.0
  0
LINE
  5
74
330
1F
100
AcDbEntity
  8
0
  6
SLD-Durchgehend
 62
     7
370
    15
100
AcDbLine
 10
160.853576909
 20
130.5896122939
 30
0.0
 11
159.1035770878
 21
130.5896122939
 31
0.0
  0
LINE
  5
75
330
1F
100
AcDbEntity
  8
0
  6
SLD-Durchgehend
 62
     7
370
    15
100
AcDbLine
 10
159.1035770878
 20
104.8886119387
 30
0.0
 11
163.3535773188
 21
104.8886119387
 31
0.0
  0
LINE
  5
76
330
1F
100
AcDbEntity
  8
0
  6
SLD-Durchgehend
 62
     7
370
    15
100
AcDbLine
 10
158.1535777703
 20
105.8386121875
 30
0.0
 11
159.1035770878
 21
104.8886119387
 31
0.0
  0
LINE
  5
77
330
1F
100
AcDbEntity
  8
0
  6
SLD-Durchgehend
 62
     7
370
    15
100
AcDbLine
 10
213.2521765932
 20
100.4684302023
 30
0.0
 11
213.3169295892
 21
100.2267650327
 31
0.0
  0
ARC
  5
78
330
1F
100
AcDbEntity
  8
0
  6
SLD-Durchgehend
 62
     7
370
    15
100
AcDbCircle
 10
216.6605937631
 20
118.6927356578
 30
0.0
 40
1.45280728475153
100
AcDbArc
 50
286.1043476744
 51
118.6735496824
  0
ARC
  5
79
330
1F
100
AcDbEntity
  8
0
  6
SLD-Durchgehend
 62
     7
370
    15
100
AcDbCircle
 10
216.6004101037
 20
118.6600428347
 30
0.0
 40
1.444800089450318
100
AcDbArc
 50
125.2748154102
 51
263.4183107101
  0
LINE
  5
7A
330
1F
100
AcDbEntity
  8
0
  6
SLD-Durchgehend
 62
     7
370
    15
100
AcDbLine
 10
215.8529507622
 20
119.7306830435
 30
0.0
 11
215.7660397395
 21
119.8395653627
 31
0.0
  0
ARC
  5
7B
330
1F
100
AcDbEntity
  8
0
  6
SLD-Durchgehend
 62
     7
370
    15
100
AcDbCircle
 10
216.6983105799
 20
118.6363800343
 30
0.0
 40
1.38226155804733
100
AcDbArc
 50
280.9619584899
 51
118.4152963499
  0
ARC
  5
7C
330
1F
100
AcDbEntity
  8
0
  6
SLD-Durchgehend
 62
     7
370
    15
100
AcDbCircle
 10
216.644236673
 20
118.6098558435
 30
0.0
 40
1.372001095080862
100
AcDbArc
 50
125.2214744658
 51
263.836036331
  0
LINE
  5
7D
330
1F
100
AcDbEntity
  8
0
  6
SLD-Durchgehend
 62
     7
370
    15
100
AcDbLine
 10
216.0405489311
 20
119.8521088807
 30
0.0
 11
215.9635099277
 21
119.9673819354
 31
0.0
  0
LINE
  5
7E
330
1F
100
AcDbEntity
  8
0
  6
SLD-Durchgehend
 62
     7
370
    15
100
AcDbLine
 10
215.9834514067
 20
119.5576013996
 30
0.0
 11
215.8529507622
 21
119.7306830435
 31
0.0
  0
ARC
  5
7F
330
1F
100
AcDbEntity
  8
0
  6
SLD-Durchgehend
 62
     7
370
    15
100
AcDbCircle
 10
216.685073886
 20
118.6248995295
 30
0.0
 40
1.169053085541531
100
AcDbArc
 50
264.0892659436
 51
117.7123331621
  0
ARC
  5
80
330
1F
100
AcDbEntity
  8
0
  6
SLD-Durchgehend
 62
     7
370
    15
100
AcDbCircle
 10
216.6480581481
 20
118.6132988936
 30
0.0
 40
1.154733451322769
100
AcDbArc
 50
125.1381522795
 51
263.9401163123
  0
LINE
  5
81
330
1F
100
AcDbEntity
  8
0
  6
SLD-Durchgehend
 62
     7
370
    15
100
AcDbLine
 10
216.1414260671
 20
119.6598546811
 30
0.0
 11
216.0405489311
 21
119.8521088807
 31
0.0
  0
LINE
  5
82
330
1F
100
AcDbEntity
  8
0
  6
SLD-Durchgehend
 62
     7
370
    15
100
AcDbLine
 10
215.9635099277
 20
119.9673819354
 30
0.0
 11
215.0994064912
 21
120.9862669929
 31
0.0
  0
LINE
  5
83
330
1F
100
AcDbEntity
  8
0
  6
SLD-Durchgehend
 62
     7
370
    15
100
AcDbLine
 10
215.0521660849
 20
120.9442287217
 30
0.0
 11
216.1414260671
 21
119.6598546811
 31
0.0
  0
LWPOLYLINE
  5
84
330
1F
100
AcDbEntity
  8
0
  6
SLD-Durchgehend
 62
     7
370
    15
100
AcDbPolyline
 90
        3
 70
   128
 43
0.0
 10
215.5193994448
 20
120.3933013602
 10
215.4893400773
 20
120.3562722074
 10
215.4047126576
 20
120.2656151726
  0
LINE
  5
85
330
1F
100
AcDbEntity
  8
0
  6
SLD-Durchgehend
 62
     7
370
    15
100
AcDbLine
 10
215.7660397395
 20
119.8395653627
 30
0.0
 11
214.9038436517
 21
120.8562045357
 31
0.0
  0
LWPOLYLINE
  5
86
330
1F
100
AcDbEntity
  8
0
  6
SLD-Durchgehend
 62
     7
370
    15
100
AcDbPolyline
 90
       47
 70
   128
 43
0.0
 10
216.4259227619
 20
114.5785516127
 10
215.9041548774
 20
113.9931224751
 10
215.4648835465
 20
113.3454251102
 10
215.1162895068
 20
112.6475255004
 10
214.8648696646
 20
111.9124237447
 10
214.7153067097
 20
111.1538130789
 10
214.670383434
 20
110.3858258574
 10
214.7309417531
 20
109.6227676606
 10
214.8958491787
 20
108.8788532651
 10
215.1620360717
 20
108.1679393536
 10
215.5245440707
 20
107.5032702646
 10
215.9766192242
 20
106.897226069
 10
216.5098386511
 20
106.3610981217
 10
217.1142744526
 20
105.9048720634
 10
217.7786613509
 20
105.5370462126
 10
218.4906276569
 20
105.2644732407
 10
219.2369076118
 20
105.0922316498
 10
220.0036021575
 20
105.0235279834
 10
220.7764285311
 20
105.0596428102
 10
221.5409884855
 20
105.1999037153
 10
222.2830402359
 20
105.4416974074
 10
222.9887629554
 20
105.7805200106
 10
223.6450100943
 20
106.2100599519
 10
224.2395552501
 20
106.7223162389
 10
224.7613231346
 20
107.3077456093
 10
225.2005944654
 20
107.9554422757
 10
225.5491847798
 20
108.6533428169
 10
225.8006046221
 20
109.3884441069
 10
225.9501713023
 20
110.1470547727
 10
225.9950908527
 20
110.9150419942
 10
225.9345362589
 20
111.6781001909
 10
225.7696251079
 20
112.4220150522
 10
225.503438215
 20
113.132928498
 10
225.1409339413
 20
113.797597587
 10
224.6888587877
 20
114.4036413169
 10
224.1556356356
 20
114.9397697298
 10
223.5512035593
 20
115.395996021
 10
222.8868129358
 20
115.7638215226
 10
222.1748466298
 20
116.0363941452
 10
221.4285666749
 20
116.208636551
 10
220.6618721291
 20
116.2773402174
 10
219.8890457556
 20
116.2412252742
 10
219.1244858012
 20
116.1009643691
 10
218.3824340507
 20
115.8591704442
 10
217.6767113313
 20
115.5203476081
 10
217.0204679176
 20
115.090807434
 10
216.4259227619
 20
114.5785516127
  0
LWPOLYLINE
  5
87
330
1F
100
AcDbEntity
  8
0
  6
SLD-Durchgehend
 62
     7
370
    15
100
AcDbPolyline
 90
       31
 70
   128
 43
0.0
 10
218.9814197525
 20
111.9488049297
 10
218.6479988202
 20
111.547125969
 10
218.4033850834
 20
111.0883597283
 10
218.2582738504
 20
110.5925566516
 10
218.2190055653
 20
110.081385821
 10
218.2872938618
 20
109.5771878025
 10
218.4601585075
 20
109.1019981539
 10
218.7300408885
 20
108.6765858343
 10
219.0851504609
 20
108.3195419049
 10
219.5099602148
 20
108.0464725381
 10
219.9859107539
 20
107.8693107701
 10
220.4921963319
 20
107.7957996166
 10
221.0066924497
 20
107.829153072
 10
221.5069095299
 20
107.967912685
 10
221.9709912941
 20
108.2060136831
 10
222.3786498114
 20
108.5330503991
 10
222.7120707437
 20
108.9347298256
 10
222.9566844806
 20
109.3934956005
 10
223.1017957136
 20
109.889299143
 10
223.1410639986
 20
110.4004695079
 10
223.0727757022
 20
110.904667992
 10
222.8999110565
 20
111.3798571749
 10
222.6300286755
 20
111.8052704258
 10
222.2749191031
 20
112.1623138896
 10
221.8501093492
 20
112.4353837221
 10
221.3741588101
 20
112.6125450245
 10
220.8678732321
 20
112.6860557123
 10
220.3533771142
 20
112.6527022569
 10
219.8531600341
 20
112.5139426439
 10
219.3890782699
 20
112.2758416458
 10
218.9814197525
 20
111.9488049297
  0
ARC
  5
88
330
1F
100
AcDbEntity
  8
0
  6
SLD-Durchgehend
 62
     7
370
    15
100
AcDbCircle
 10
227.7647079785
 20
103.0570618037
 30
0.0
 40
8.294401086796613
100
AcDbArc
 50
126.5173303244
 51
142.5187207883
  0
ARC
  5
89
330
1F
100
AcDbEntity
  8
0
  6
SLD-Durchgehend
 62
     7
370
    15
100
AcDbCircle
 10
239.0721364905
 20
114.8764242407
 30
0.0
 40
17.04102909505573
100
AcDbArc
 50
190.0630643978
 51
197.6022917956
  0
ARC
  5
8A
330
1F
100
AcDbEntity
  8
0
  6
SLD-Durchgehend
 62
     7
370
    15
100
AcDbCircle
 10
217.9302498376
 20
99.356262601
 30
0.0
 40
13.27973726331273
100
AcDbArc
 50
70.8193989193
 51
80.5473793969
  0
ARC
  5
8B
330
1F
100
AcDbEntity
  8
0
  6
SLD-Durchgehend
 62
     7
370
    15
100
AcDbCircle
 10
225.0469649617
 20
105.7896223725
 30
0.0
 40
8.294461141883154
100
AcDbArc
 50
126.517388632
 51
142.5186624807
  0
ARC
  5
8C
330
1F
100
AcDbEntity
  8
0
  6
SLD-Durchgehend
 62
     7
370
    15
100
AcDbCircle
 10
235.5195921369
 20
113.8823587994
 30
0.0
 40
17.32450280515398
100
AcDbArc
 50
190.1248284092
 51
197.5405220905
  0
ARC
  5
8D
330
1F
100
AcDbEntity
  8
0
  6
SLD-Durchgehend
 62
     7
370
    15
100
AcDbCircle
 10
216.7702600752
 20
95.3681283864
 30
0.0
 40
13.47877758258691
100
AcDbArc
 50
70.8914061169
 51
80.4753951583
  0
LINE
  5
8E
330
1F
100
AcDbEntity
  8
0
  6
SLD-Durchgehend
 62
     7
370
    15
100
AcDbLine
 10
222.341147314
 20
110.298313666
 30
0.0
 11
222.828992705
 21
109.7230804152
 31
0.0
  0
LINE
  5
8F
330
1F
100
AcDbEntity
  8
0
  6
SLD-Durchgehend
 62
     7
370
    15
100
AcDbLine
 10
222.341147314
 20
110.298313666
 30
0.0
 11
222.0732803151
 21
111.3861789926
 31
0.0
  0
LINE
  5
90
330
1F
100
AcDbEntity
  8
0
  6
SLD-Durchgehend
 62
     7
370
    15
100
AcDbLine
 10
222.0732803151
 20
111.3861789926
 30
0.0
 11
221.9176116094
 21
112.0183947495
 31
0.0
  0
LINE
  5
91
330
1F
100
AcDbEntity
  8
0
  6
SLD-Durchgehend
 62
     7
370
    15
100
AcDbLine
 10
218.8563580319
 20
109.1486415825
 30
0.0
 11
219.6037891015
 21
108.9578927493
 31
0.0
  0
LINE
  5
92
330
1F
100
AcDbEntity
  8
0
  6
SLD-Durchgehend
 62
     7
370
    15
100
AcDbLine
 10
219.6037891015
 20
108.9578927493
 30
0.0
 11
220.6948185965
 21
108.6794561705
 31
0.0
  0
LINE
  5
93
330
1F
100
AcDbEntity
  8
0
  6
SLD-Durchgehend
 62
     7
370
    15
100
AcDbLine
 10
220.6948185965
 20
108.6794561705
 30
0.0
 11
221.1826677129
 21
108.1042229197
 31
0.0
  0
ARC
  5
94
330
1F
100
AcDbEntity
  8
0
  6
SLD-Durchgehend
 62
     7
370
    15
100
AcDbCircle
 10
219.9402829027
 20
110.9078621992
 30
0.0
 40
5.617864144942113
100
AcDbArc
 50
133.4237759857
 51
219.4157744688
  0
ARC
  5
95
330
1F
100
AcDbEntity
  8
0
  6
SLD-Durchgehend
 62
     7
370
    15
100
AcDbCircle
 10
220.1276172714
 20
111.0328600932
 30
0.0
 40
5.660205552963052
100
AcDbArc
 50
41.4407947329
 51
135.6713703049
  0
LINE
  5
96
330
1F
100
AcDbEntity
  8
0
  6
SLD-Durchgehend
 62
     7
370
    15
100
AcDbLine
 10
220.6948185965
 20
108.6794561705
 30
0.0
 11
221.5179810926
 21
109.4888853839
 31
0.0
  0
LINE
  5
97
330
1F
100
AcDbEntity
  8
0
  6
SLD-Durchgehend
 62
     7
370
    15
100
AcDbLine
 10
221.5179810926
 20
109.4888853839
 30
0.0
 11
222.341147314
 21
110.298313666
 31
0.0
  0
ARC
  5
98
330
1F
100
AcDbEntity
  8
0
  6
SLD-Durchgehend
 62
     7
370
    15
100
AcDbCircle
 10
220.2584832271
 20
110.9413648574
 30
0.0
 40
1.868514941170313
100
AcDbArc
 50
13.7719251586
 51
37.3328350491
  0
ARC
  5
99
330
1F
100
AcDbEntity
  8
0
  6
SLD-Durchgehend
 62
     7
370
    15
100
AcDbCircle
 10
220.1262498544
 20
110.926125985
 30
0.0
 40
2.000643992511162
100
AcDbArc
 50
314.0783685136
 51
13.2942728842
  0
ARC
  5
9A
330
1F
100
AcDbEntity
  8
0
  6
SLD-Durchgehend
 62
     7
370
    15
100
AcDbCircle
 10
220.0885570773
 20
110.926099149
 30
0.0
 40
2.0270264975795
100
AcDbArc
 50
256.1634882978
 51
314.8443058666
  0
ARC
  5
9B
330
1F
100
AcDbEntity
  8
0
  6
SLD-Durchgehend
 62
     7
370
    15
100
AcDbCircle
 10
220.0658719524
 20
110.7825623432
 30
0.0
 40
1.88226982335295
100
AcDbArc
 50
225.4803734021
 51
255.7890677882
  0
ARC
  5
9C
330
1F
100
AcDbEntity
  8
0
  6
SLD-Durchgehend
 62
     7
370
    15
100
AcDbCircle
 10
219.6801141766
 20
110.8000452257
 30
0.0
 40
5.598097064524972
100
AcDbArc
 50
197.0829168092
 51
250.3826370693
  0
LWPOLYLINE
  5
9D
330
1F
100
AcDbEntity
  8
0
  6
SLD-Durchgehend
 62
     7
370
    15
100
AcDbPolyline
 90
       27
 70
   128
 43
0.0
 10
225.8009995028
 20
112.3118903487
 10
225.7433692619
 20
112.5889834947
 10
225.5151319012
 20
113.3311232551
 10
225.1882153258
 20
114.0327334868
 10
224.7684570655
 20
114.6812941878
 10
224.263344954
 20
115.2652318122
 10
223.6818941936
 20
115.774125792
 10
223.0344797179
 20
116.1988950333
 10
222.3326573774
 20
116.5319596183
 10
221.5889441475
 20
116.7673757299
 10
220.8166206881
 20
116.9009425792
 10
220.0294631228
 20
116.930276621
 10
219.2415195212
 20
116.8548543354
 10
218.4668528542
 20
116.6760216
 10
217.7192839488
 20
116.3969698826
 10
217.012156795
 20
116.0226786741
 10
216.3580852255
 20
115.5598273034
 10
215.7687443003
 20
115.0166753213
 10
215.2546505138
 20
114.402915351
 10
214.8249792561
 20
113.729499746
 10
214.4873971745
 20
113.00844606
 10
214.2479243383
 20
112.25262098
 10
214.1108411059
 20
111.4755123852
 10
214.0785875425
 20
110.6909881345
 10
214.1517447934
 20
109.9130478686
 10
214.3290015563
 20
109.1555743477
 10
214.3290015563
 20
109.1555743477
  0
LWPOLYLINE
  5
9E
330
1F
100
AcDbEntity
  8
0
  6
SLD-Durchgehend
 62
     7
370
    15
100
AcDbPolyline
 90
       43
 70
   128
 43
0.0
 10
214.7982428476
 20
115.7803629757
 10
214.248319219
 20
115.1038585229
 10
213.7849229082
 20
114.3676459322
 10
213.4152549013
 20
113.5831749997
 10
213.1450707719
 20
112.7626458182
 10
212.9785726473
 20
111.9188196025
 10
212.918345879
 20
111.0648205503
 10
212.9653292403
 20
110.2139297872
 10
213.1187888488
 20
109.3793814069
 10
213.3763442442
 20
108.5741533897
 10
213.7339832887
 20
107.810770627
 10
214.1861515745
 20
107.1011037564
 10
214.7258083031
 20
106.4561917445
 10
215.3445678458
 20
105.8860630727
 10
216.0328003272
 20
105.3995848632
 10
216.7798067138
 20
105.004324112
 10
217.5739678249
 20
104.7064266166
 10
218.4029343232
 20
104.5105266384
 10
219.2538092539
 20
104.4196705333
 10
220.1133641109
 20
104.4352701864
 10
220.9682288274
 20
104.5570843852
 10
221.8051041171
 20
104.7832188195
 10
222.6109849915
 20
105.1101549527
 10
223.3733283982
 20
105.5328096262
 10
224.0802804634
 20
106.0446086338
 10
224.7208478555
 20
106.637592893
 10
225.2850691482
 20
107.3025395161
 10
225.7641638324
 20
108.0291080287
 10
226.1506887779
 20
108.8059968314
 10
226.4386276409
 20
109.6211248076
 10
226.6235026225
 20
110.4618138632
 10
226.7024377987
 20
111.3149900919
 10
226.6742075488
 20
112.167383544
 10
226.5392514572
 20
113.0057382396
 10
226.2996668622
 20
113.8170156627
 10
225.9591790542
 20
114.5885982549
 10
225.523085396
 20
115.3084859251
 10
224.9981659159
 20
115.9654827787
 10
224.3925864503
 20
116.5493709267
 10
223.715764533
 20
117.0510695664
 10
222.9782241091
 20
117.46277599
 10
222.1914427981
 20
117.7780872166
 10
221.3676507279
 20
117.9920993453
  0
ARC
  5
9F
330
1F
100
AcDbEntity
  8
0
  6
SLD-Durchgehend
 62
     7
370
    15
100
AcDbCircle
 10
215.3751716714
 20
116.9878485379
 30
0.0
 40
1.338233257239177
100
AcDbArc
 50
244.4618294762
 51
11.4388573587
  0
ARC
  5
A0
330
1F
100
AcDbEntity
  8
0
  6
SLD-Durchgehend
 62
     7
370
    15
100
AcDbCircle
 10
220.2721716356
 20
110.6341350823
 30
0.0
 40
7.527775286974316
100
AcDbArc
 50
118.1659967533
 51
118.4428909919
  0
ARC
  5
A1
330
1F
100
AcDbEntity
  8
0
  6
SLD-Durchgehend
 62
     7
370
    15
100
AcDbCircle
 10
217.6614711685
 20
118.2042580792
 30
0.0
 40
1.326813231120956
100
AcDbArc
 50
224.7294908308
 51
352.484382675
  0
ARC
  5
A2
330
1F
100
AcDbEntity
  8
0
  6
SLD-Durchgehend
 62
     7
370
    15
100
AcDbCircle
 10
220.0784723324
 20
111.0518427039
 30
0.0
 40
7.065278468070404
100
AcDbArc
 50
98.6774731485
 51
98.9698947309
  0
LWPOLYLINE
  5
A3
330
1F
100
AcDbEntity
  8
0
  6
SLD-Durchgehend
 62
     7
370
    15
100
AcDbPolyline
 90
        8
 70
   128
 43
0.0
 10
219.0125184759
 20
118.0362469166
 10
219.5179844901
 20
117.5419555219
 10
219.8633822307
 20
117.3658403276
 10
220.253561686
 20
117.2875450282
 10
220.5780903503
 20
117.3208408289
 10
220.8493101105
 20
117.4297520191
 10
221.1852716908
 20
117.7128162002
 10
221.3676507279
 20
117.9920993453
  0
LINE
  5
A4
330
1F
100
AcDbEntity
  8
0
  6
SLD-Durchgehend
 62
     7
370
    15
100
AcDbLine
 10
214.0009524927
 20
116.7204685042
 30
0.0
 11
214.7982428476
 21
115.7803629757
 31
0.0
  0
ARC
  5
A5
330
1F
100
AcDbEntity
  8
0
  6
SLD-Durchgehend
 62
     7
370
    15
100
AcDbCircle
 10
213.8255914788
 20
118.1263160552
 30
0.0
 40
1.41674232725185
100
AcDbArc
 50
277.1101711951
 51
299.3413102386
  0
LINE
  5
A6
330
1F
100
AcDbEntity
  8
0
  6
SLD-Durchgehend
 62
     7
370
    15
100
AcDbLine
 10
216.6868234679
 20
117.2532497729
 30
0.0
 11
216.5131765112
 21
117.4580028163
 31
0.0
  0
LINE
  5
A7
330
1F
100
AcDbEntity
  8
0
  6
SLD-Durchgehend
 62
     7
370
    15
100
AcDbLine
 10
215.9215631589
 20
118.2106049963
 30
0.0
 11
216.7188535139
 21
117.2704993804
 31
0.0
  0
LINE
  5
A8
330
1F
100
AcDbEntity
  8
0
  6
SLD-Durchgehend
 62
     7
370
    15
100
AcDbLine
 10
218.1795957193
 20
118.9708212622
 30
0.0
 11
218.0873165533
 21
118.8979429424
 31
0.0
  0
LINE
  5
A9
330
1F
100
AcDbEntity
  8
0
  6
SLD-Durchgehend
 62
     7
370
    15
100
AcDbLine
 10
218.9768860742
 20
118.0307156463
 30
0.0
 11
218.1795957193
 21
118.9708212622
 31
0.0
  0
LINE
  5
AA
330
1F
100
AcDbEntity
  8
0
  6
SLD-Durchgehend
 62
     7
370
    15
100
AcDbLine
 10
218.215228121
 20
118.9763525034
 30
0.0
 11
219.0125184759
 21
118.0362469166
 31
0.0
  0
LWPOLYLINE
  5
AB
330
1F
100
AcDbEntity
  8
0
  6
SLD-Durchgehend
 62
     7
370
    15
100
AcDbPolyline
 90
        3
 70
   128
 43
0.0
 10
220.570360373
 20
118.932204903
 10
220.0143905982
 20
118.7257139244
 10
219.9672135219
 20
118.7154201324
  0
LWPOLYLINE
  5
AC
330
1F
100
AcDbEntity
  8
0
  6
SLD-Durchgehend
 62
     7
370
    15
100
AcDbPolyline
 90
        3
 70
   128
 43
0.0
 10
218.5651111111
 20
118.718401878
 10
218.521029751
 20
118.7316407448
 10
218.3497260019
 20
118.8525621545
  0
LINE
  5
AD
330
1F
100
AcDbEntity
  8
0
  6
SLD-Durchgehend
 62
     7
370
    15
100
AcDbLine
 10
221.3676507279
 20
117.9920993453
 30
0.0
 11
220.570360373
 21
118.932204903
 31
0.0
  0
ARC
  5
AE
330
1F
100
AcDbEntity
  8
0
  6
SLD-Durchgehend
 62
     7
370
    15
100
AcDbCircle
 10
218.9515715122
 20
112.015036778
 30
0.0
 40
6.830059766001099
100
AcDbArc
 50
136.4545469369
 51
219.4281734633
  0
ARC
  5
AF
330
1F
100
AcDbEntity
  8
0
  6
SLD-Durchgehend
 62
     7
370
    15
100
AcDbCircle
 10
219.3406365335
 20
112.4652899579
 30
0.0
 40
6.582796489963282
100
AcDbArc
 50
40.4076707005
 51
79.2333965125
  0
ARC
  5
B0
330
1F
100
AcDbEntity
  8
0
  6
SLD-Durchgehend
 62
     7
370
    15
100
AcDbCircle
 10
219.4762141992
 20
111.5717768317
 30
0.0
 40
7.530576566001792
100
AcDbArc
 50
118.1660885582
 51
118.4428799004
  0
ARC
  5
B1
330
1F
100
AcDbEntity
  8
0
  6
SLD-Durchgehend
 62
     7
370
    15
100
AcDbCircle
 10
219.2830388054
 20
111.9799498355
 30
0.0
 40
7.077419723967494
100
AcDbArc
 50
98.6776782937
 51
98.9695981919
  0
ARC
  5
B2
330
1F
100
AcDbEntity
  8
0
  6
SLD-Durchgehend
 62
     7
370
    15
100
AcDbCircle
 10
215.0242363958
 20
119.8163690495
 30
0.0
 40
8.146629267598229
100
AcDbArc
 50
23.7459811535
 51
51.3916224597
  0
ARC
  5
B3
330
1F
100
AcDbEntity
  8
0
  6
SLD-Durchgehend
 62
     7
370
    15
100
AcDbCircle
 10
213.7215947543
 20
117.9862303009
 30
0.0
 40
10.39033440867014
100
AcDbArc
 50
52.0758191375
 51
101.2393475476
  0
ARC
  5
B4
330
1F
100
AcDbEntity
  8
0
  6
SLD-Durchgehend
 62
     7
370
    15
100
AcDbCircle
 10
217.863343501
 20
120.6069297518
 30
0.0
 40
9.764280135810298
100
AcDbArc
 50
129.1666650862
 51
178.1307272223
  0
ARC
  5
B5
330
1F
100
AcDbEntity
  8
0
  6
SLD-Durchgehend
 62
     7
370
    15
100
AcDbCircle
 10
216.4981549823
 20
120.4438971817
 30
0.0
 40
8.40769643801971
100
AcDbArc
 50
176.7166929101
 51
203.4471678353
  0
ARC
  5
B6
330
1F
100
AcDbEntity
  8
0
  6
SLD-Durchgehend
 62
     7
370
    15
100
AcDbCircle
 10
229.3334613925
 20
128.1535509373
 30
0.0
 40
23.73177604967208
100
AcDbArc
 50
201.5604153766
 51
204.3859822708
  0
ARC
  5
B7
330
1F
100
AcDbEntity
  8
0
  6
SLD-Durchgehend
 62
     7
370
    15
100
AcDbCircle
 10
214.5610671772
 20
121.3118676821
 30
0.0
 40
7.536945248577814
100
AcDbArc
 50
42.3505100067
 51
194.4389131188
  0
ARC
  5
B8
330
1F
100
AcDbEntity
  8
0
  6
SLD-Durchgehend
 62
     7
370
    15
100
AcDbCircle
 10
-137.6669679406
 20
-34.0252157306
 30
0.0
 40
392.9300601818445
100
AcDbArc
 50
22.6722170755
 51
23.5702342068
  0
LWPOLYLINE
  5
B9
330
1F
100
AcDbEntity
  8
0
  6
SLD-Durchgehend
 62
     7
370
    15
100
AcDbPolyline
 90
        3
 70
   128
 43
0.0
 10
224.8994643494
 20
117.4330767825
 10
225.6832132742
 20
115.3716698753
 10
225.9044135615
 20
114.6504466886
  0
ARC
  5
BA
330
1F
100
AcDbEntity
  8
0
  6
SLD-Durchgehend
 62
     7
370
    15
100
AcDbCircle
 10
201.1562779216
 20
105.7817529902
 30
0.0
 40
26.2111090352472
100
AcDbArc
 50
349.9484336647
 51
12.9235029646
  0
ARC
  5
BB
330
1F
100
AcDbEntity
  8
0
  6
SLD-Durchgehend
 62
     7
370
    15
100
AcDbCircle
 10
242.28818768
 20
123.7055867741
 30
0.0
 40
33.41952811234635
100
AcDbArc
 50
201.5417211221
 51
229.2921897486
  0
ARC
  5
BC
330
1F
100
AcDbEntity
  8
0
  6
SLD-Durchgehend
 62
     7
370
    15
100
AcDbCircle
 10
-151.3977094475
 20
-40.0382821221
 30
0.0
 40
392.9673304024222
100
AcDbArc
 50
22.6722603114
 51
23.5701922469
  0
LWPOLYLINE
  5
BD
330
1F
100
AcDbEntity
  8
0
  6
SLD-Durchgehend
 62
     7
370
    15
100
AcDbPolyline
 90
        3
 70
   128
 43
0.0
 10
214.9777981147
 20
117.0622067292
 10
214.9969163045
 20
117.0800561084
 10
215.2425060675
 20
117.2442999958
  0
LWPOLYLINE
  5
BE
330
1F
100
AcDbEntity
  8
0
  6
SLD-Durchgehend
 62
     7
370
    15
100
AcDbPolyline
 90
        3
 70
   128
 43
0.0
 10
218.9101623997
 20
118.5569203807
 10
219.3087647364
 20
118.5914372908
 10
219.6404124305
 20
118.5635934233
  0
ARC
  5
BF
330
1F
100
AcDbEntity
  8
0
  6
SLD-Durchgehend
 62
     7
370
    15
100
AcDbCircle
 10
215.7951141508
 20
119.6786753726
 30
0.0
 40
1.478227835321712
100
AcDbArc
 50
38.7944085484
 51
206.1677288589
  0
LWPOLYLINE
  5
C0
330
1F
100
AcDbEntity
  8
0
  6
SLD-Durchgehend
 62
     7
370
    15
100
AcDbPolyline
 90
        3
 70
   128
 43
0.0
 10
214.7226790592
 20
118.6482674674
 10
214.6256128952
 20
118.7468094284
 10
214.4683944687
 20
119.0267762866
  0
LINE
  5
C1
330
1F
100
AcDbEntity
  8
0
  6
SLD-Durchgehend
 62
     7
370
    15
100
AcDbLine
 10
210.0520441934
 20
112.7917701377
 30
0.0
 11
208.3420893803
 21
116.9327447422
 31
0.0
  0
ARC
  5
C2
330
1F
100
AcDbEntity
  8
0
  6
SLD-Durchgehend
 62
     7
370
    15
100
AcDbCircle
 10
174.1994382824
 20
102.8221567221
 30
0.0
 40
36.94359644474913
100
AcDbArc
 50
22.4544912758
 51
24.8630782167
  0
ARC
  5
C3
330
1F
100
AcDbEntity
  8
0
  6
SLD-Durchgehend
 62
     7
370
    15
100
AcDbCircle
 10
222.8255511137
 20
100.5425097543
 30
0.0
 40
3.186956584414225
100
AcDbArc
 50
222.9249392075
 51
248.0919125924
  0
LWPOLYLINE
  5
C4
330
1F
100
AcDbEntity
  8
0
  6
SLD-Durchgehend
 62
     7
370
    15
100
AcDbPolyline
 90
        3
 70
   128
 43
0.0
 10
216.0613993809
 20
102.9262333176
 10
216.0300398871
 20
102.9622456989
 10
215.7499651119
 20
103.2975972629
  0
ARC
  5
C5
330
1F
100
AcDbEntity
  8
0
  6
SLD-Durchgehend
 62
     7
370
    15
100
AcDbCircle
 10
244.4763378301
 20
126.9945968513
 30
0.0
 40
37.23912296276118
100
AcDbArc
 50
202.4201379602
 51
219.5199515275
  0
ARC
  5
C6
330
1F
100
AcDbEntity
  8
0
  6
SLD-Durchgehend
 62
     7
370
    15
100
AcDbCircle
 10
224.8536651114
 20
101.140507096
 30
0.0
 40
2.11245649559489
100
AcDbArc
 50
315.143705313
 51
1.804094501
  0
LINE
  5
C7
330
1F
100
AcDbEntity
  8
0
  6
SLD-Durchgehend
 62
     7
370
    15
100
AcDbLine
 10
217.4921120211
 20
101.2747320345
 30
0.0
 11
219.2424173161
 21
97.7244018576
 31
0.0
  0
LINE
  5
C8
330
1F
100
AcDbEntity
  8
0
  6
SLD-Durchgehend
 62
     7
370
    15
100
AcDbLine
 10
233.0146516368
 20
91.28374001
 30
0.0
 11
227.2158982858
 21
103.0459827742
 31
0.0
  0
ARC
  5
C9
330
1F
100
AcDbEntity
  8
0
  6
SLD-Durchgehend
 62
     7
370
    15
100
AcDbCircle
 10
232.6479956173
 20
91.1140248813
 30
0.0
 40
0.4040295305367984
100
AcDbArc
 50
243.3530606241
 51
24.8381387079
  0
LINE
  5
CA
330
1F
100
AcDbEntity
  8
0
  6
SLD-Durchgehend
 62
     7
370
    15
100
AcDbLine
 10
219.4045494005
 20
97.5587754509
 30
0.0
 11
232.466791819
 21
90.7529084942
 31
0.0
  0
ARC
  5
CB
330
1F
100
AcDbEntity
  8
0
  6
SLD-Durchgehend
 62
     7
370
    15
100
AcDbCircle
 10
219.5761799502
 20
97.8889539505
 30
0.0
 40
0.3721221401796738
100
AcDbArc
 50
206.2442797634
 51
242.5340747838
  0
ARC
  5
CC
330
1F
100
AcDbEntity
  8
0
  6
SLD-Durchgehend
 62
     7
370
    15
100
AcDbCircle
 10
232.6485789468
 20
91.1133800791
 30
0.0
 40
0.3838266056026952
100
AcDbArc
 50
243.3531620863
 51
24.8382177548
  0
LINE
  5
CD
330
1F
100
AcDbEntity
  8
0
  6
SLD-Durchgehend
 62
     7
370
    15
100
AcDbLine
 10
232.9969006285
 20
91.2746093235
 30
0.0
 11
227.2110777602
 21
103.0106297693
 31
0.0
  0
LINE
  5
CE
330
1F
100
AcDbEntity
  8
0
  6
SLD-Durchgehend
 62
     7
370
    15
100
AcDbLine
 10
217.5433720157
 20
101.2158892116
 30
0.0
 11
219.2601645991
 21
97.7335306815
 31
0.0
  0
ARC
  5
CF
330
1F
100
AcDbEntity
  8
0
  6
SLD-Durchgehend
 62
     7
370
    15
100
AcDbCircle
 10
219.57727293
 20
97.8898925318
 30
0.0
 40
0.3535628964682344
100
AcDbArc
 50
206.2472861105
 51
242.5325924139
  0
LINE
  5
D0
330
1F
100
AcDbEntity
  8
0
  6
SLD-Durchgehend
 62
     7
370
    15
100
AcDbLine
 10
219.4141941771
 20
97.5761855951
 30
0.0
 11
232.4764365956
 21
90.7703205011
 31
0.0
  0
LINE
  5
D1
330
1F
100
AcDbEntity
  8
0
  6
SLD-Durchgehend
 62
     7
370
    15
100
AcDbLine
 10
219.7778793678
 20
98.2358171603
 30
0.0
 11
219.559316586
 21
97.9519258252
 31
0.0
  0
LINE
  5
D2
330
1F
100
AcDbEntity
  8
0
  6
SLD-Durchgehend
 62
     7
370
    15
100
AcDbLine
 10
227.6749211058
 20
97.5563633254
 30
0.0
 11
226.5440198287
 21
99.8502965084
 31
0.0
  0
ARC
  5
D3
330
1F
100
AcDbEntity
  8
0
  6
SLD-Durchgehend
 62
     7
370
    15
100
AcDbCircle
 10
226.7582839392
 20
97.1320744367
 30
0.0
 40
1.01007165903917
100
AcDbArc
 50
243.353170657
 51
24.8382623159
  0
LINE
  5
D4
330
1F
100
AcDbEntity
  8
0
  6
SLD-Durchgehend
 62
     7
370
    15
100
AcDbLine
 10
222.775300096
 20
98.068519961
 30
0.0
 11
226.3052771494
 21
96.229284536
 31
0.0
  0
LINE
  5
D5
330
1F
100
AcDbEntity
  8
0
  6
SLD-Durchgehend
 62
     7
370
    15
100
AcDbLine
 10
230.2667881057
 20
93.5674416831
 30
0.0
 11
232.6215590045
 21
91.1460588685
 31
0.0
  0
LINE
  5
D6
330
1F
100
AcDbEntity
  8
0
  6
SLD-Durchgehend
 62
     7
370
    15
100
AcDbLine
 10
230.2667881057
 20
93.5674416831
 30
0.0
 11
229.1167649135
 21
95.9001588634
 31
0.0
  0
LINE
  5
D7
330
1F
100
AcDbEntity
  8
0
  6
SLD-Durchgehend
 62
     7
370
    15
100
AcDbLine
 10
227.9532934234
 20
94.7728487662
 30
0.0
 11
230.2667881057
 21
93.5674416831
 31
0.0
  0
ARC
  5
D8
330
1F
100
AcDbEntity
  8
0
  6
SLD-Durchgehend
 62
     7
370
    15
100
AcDbCircle
 10
221.5217289973
 20
96.9009310784
 30
0.0
 40
2.196117570204426
100
AcDbArc
 50
127.5028883581
 51
142.5665821942
  0
ARC
  5
D9
330
1F
100
AcDbEntity
  8
0
  6
SLD-Durchgehend
 62
     7
370
    15
100
AcDbCircle
 10
226.5348158512
 20
97.3976883187
 30
0.0
 40
2.473823288771235
100
AcDbArc
 50
304.4302907902
 51
323.7608796147
  0
LWPOLYLINE
  5
DA
330
1F
100
AcDbEntity
  8
0
  6
SLD-Durchgehend
 62
     7
370
    15
100
AcDbPolyline
 90
        8
 70
   128
 43
0.0
 10
229.1167649135
 20
95.9001588634
 10
229.0245341763
 20
96.0454526356
 10
228.9490970477
 20
96.1149944923
 10
228.8816543922
 20
96.1468960157
 10
228.8182946548
 20
96.1534413508
 10
228.7555346891
 20
96.1390188894
 10
228.6705719933
 20
96.0884909144
 10
228.5300950214
 20
95.9352715871
  0
LWPOLYLINE
  5
DB
330
1F
100
AcDbEntity
  8
0
  6
SLD-Durchgehend
 62
     7
370
    15
100
AcDbPolyline
 90
        8
 70
   128
 43
0.0
 10
227.9335233077
 20
95.3572425059
 10
227.7971180782
 20
95.2451112679
 10
227.7365001544
 20
95.1659693381
 10
227.7097674713
 20
95.0969117692
 10
227.7093427882
 20
95.0232273898
 10
227.7305732176
 20
94.9645261279
 10
227.7955460057
 20
94.8814409784
 10
227.9532934234
 20
94.7728487662
  0
LINE
  5
DC
330
1F
100
AcDbEntity
  8
0
  6
SLD-Durchgehend
 62
     7
370
    15
100
AcDbLine
 10
186.003577958
 20
129.5596123672
 30
0.0
 11
192.0184177041
 21
129.5596123672
 31
0.0
  0
LINE
  5
DD
330
1F
100
AcDbEntity
  8
0
  6
SLD-Durchgehend
 62
     7
370
    15
100
AcDbLine
 10
192.0184177041
 20
98.4807270578
 30
0.0
 11
192.0184177041
 21
129.5596123672
 31
0.0
  0
LINE
  5
DE
330
1F
100
AcDbEntity
  8
0
  6
SLD-Durchgehend
 62
     7
370
    15
100
AcDbLine
 10
192.0184177041
 20
98.4807270578
 30
0.0
 11
190.5035777643
 21
98.4807270578
 31
0.0
  0
ARC
  5
DF
330
1F
100
AcDbEntity
  8
0
  6
SLD-Durchgehend
 62
     7
370
    15
100
AcDbCircle
 10
189.9692281464
 20
87.7599580527
 30
0.0
 40
10.73407739745365
100
AcDbArc
 50
87.1465980851
 51
111.6813871243
  0
LINE
  5
E0
330
1F
100
AcDbEntity
  8
0
  6
SLD-Durchgehend
 62
     7
370
    15
100
AcDbLine
 10
186.003577958
 20
97.7346277794
 30
0.0
 11
186.003577958
 21
97.7096124551
 31
0.0
  0
LWPOLYLINE
  5
E1
330
1F
100
AcDbEntity
  8
0
  6
SLD-Durchgehend
 62
     7
370
    15
100
AcDbPolyline
 90
       11
 70
   128
 43
0.0
 10
190.5035777643
 20
137.1967880985
 10
189.7695717096
 20
137.2106052003
 10
189.0355656549
 20
137.2520024887
 10
188.3636480823
 20
137.313929852
 10
187.7334202334
 20
137.3926955274
 10
187.1872852251
 20
137.4769541434
 10
186.720022063
 20
137.5606893561
 10
186.3668738559
 20
137.6310153863
 10
186.1238442987
 20
137.6828956416
 10
186.0135002688
 20
137.7073819748
 10
186.019104968
 20
137.7061246893
  0
LINE
  5
E2
330
1F
100
AcDbEntity
  8
0
  6
SLD-Durchgehend
 62
     7
370
    15
100
AcDbLine
 10
192.0184177041
 20
137.1967880985
 30
0.0
 11
190.5035777643
 21
137.1967880985
 31
0.0
  0
LINE
  5
E3
330
1F
100
AcDbEntity
  8
0
  6
SLD-Durchgehend
 62
     7
370
    15
100
AcDbLine
 10
192.0184177041
 20
133.8210212997
 30
0.0
 11
192.0184177041
 21
137.1967880985
 31
0.0
  0
LINE
  5
E4
330
1F
100
AcDbEntity
  8
0
  6
SLD-Durchgehend
 62
     7
370
    15
100
AcDbLine
 10
190.4972475648
 20
133.8210212997
 30
0.0
 11
192.0184177041
 21
133.8210212997
 31
0.0
  0
ARC
  5
E5
330
1F
100
AcDbEntity
  8
0
  6
SLD-Durchgehend
 62
     7
370
    15
100
AcDbCircle
 10
190.1733350539
 20
129.6625890094
 30
0.0
 40
4.171028461616016
100
AcDbArc
 50
85.5460566573
 51
181.4146934227
  0
LINE
  5
E6
330
1F
100
AcDbEntity
  8
0
  6
SLD-Durchgehend
 62
     7
370
    15
100
AcDbLine
 10
196.0887378707
 20
98.4807270578
 30
0.0
 11
196.0887378707
 21
129.5596123672
 31
0.0
  0
LWPOLYLINE
  5
E7
330
1F
100
AcDbEntity
  8
0
  6
SLD-Durchgehend
 62
     7
370
    15
100
AcDbPolyline
 90
        3
 70
   128
 43
0.0
 10
196.0887378707
 20
98.4807270578
 10
195.1494264111
 20
100.1790813169
 10
195.0935768589
 20
100.2804893068
  0
LINE
  5
E8
330
1F
100
AcDbEntity
  8
0
  6
SLD-Durchgehend
 62
     7
370
    15
100
AcDbLine
 10
195.0935768589
 20
100.2804893068
 30
0.0
 11
195.0935768589
 21
129.5596123672
 31
0.0
  0
LINE
  5
E9
330
1F
100
AcDbEntity
  8
0
  6
SLD-Durchgehend
 62
     7
370
    15
100
AcDbLine
 10
195.0935768589
 20
129.5596123672
 30
0.0
 11
196.0887378707
 21
129.5596123672
 31
0.0
  0
LINE
  5
EA
330
1F
100
AcDbEntity
  8
0
  6
SLD-Durchgehend
 62
     7
370
    15
100
AcDbLine
 10
178.0535774931
 20
98.0096119455
 30
0.0
 11
178.0535774931
 21
137.4096120706
 31
0.0
  0
LINE
  5
EB
330
1F
100
AcDbEntity
  8
0
  6
SLD-Durchgehend
 62
     7
370
    15
100
AcDbLine
 10
198.0035780624
 20
99.1055793128
 30
0.0
 11
198.0035780624
 21
129.5596123672
 31
0.0
  0
ARC
  5
EC
330
1F
100
AcDbEntity
  8
0
  6
SLD-Durchgehend
 62
     7
370
    15
100
AcDbCircle
 10
197.3923173572
 20
99.0920341305
 30
0.0
 40
0.6114107634496255
100
AcDbArc
 50
271.0552300829
 51
1.2694334473
  0
LINE
  5
ED
330
1F
100
AcDbEntity
  8
0
  6
SLD-Durchgehend
 62
     7
370
    15
100
AcDbLine
 10
197.4035772189
 20
129.5596123672
 30
0.0
 11
198.0035780624
 21
129.5596123672
 31
0.0
  0
LINE
  5
EE
330
1F
100
AcDbEntity
  8
0
  6
SLD-Durchgehend
 62
     7
370
    15
100
AcDbLine
 10
193.0135777846
 20
100.2804893068
 30
0.0
 11
193.0135777846
 21
129.5596123672
 31
0.0
  0
LWPOLYLINE
  5
EF
330
1F
100
AcDbEntity
  8
0
  6
SLD-Durchgehend
 62
     7
370
    15
100
AcDbPolyline
 90
        3
 70
   128
 43
0.0
 10
193.0135777846
 20
100.2804893068
 10
192.9577291638
 20
100.1790813169
 10
192.0184177041
 20
98.4807270578
  0
LINE
  5
F0
330
1F
100
AcDbEntity
  8
0
  6
SLD-Durchgehend
 62
     7
370
    15
100
AcDbLine
 10
192.0184177041
 20
129.5596123672
 30
0.0
 11
193.0135777846
 21
129.5596123672
 31
0.0
  0
LINE
  5
F1
330
1F
100
AcDbEntity
  8
0
  6
SLD-Durchgehend
 62
     7
370
    15
100
AcDbLine
 10
197.4035772189
 20
98.4807270578
 30
0.0
 11
196.0887378707
 21
98.4807270578
 31
0.0
  0
LINE
  5
F2
330
1F
100
AcDbEntity
  8
0
  6
SLD-Durchgehend
 62
     7
370
    15
100
AcDbLine
 10
196.0887378707
 20
129.5596123672
 30
0.0
 11
197.4035772189
 21
129.5596123672
 31
0.0
  0
LINE
  5
F3
330
1F
100
AcDbEntity
  8
0
  6
SLD-Durchgehend
 62
     7
370
    15
100
AcDbLine
 10
193.6135776967
 20
100.809612777
 30
0.0
 11
193.048799473
 21
100.809612777
 31
0.0
  0
LINE
  5
F4
330
1F
100
AcDbEntity
  8
0
  6
SLD-Durchgehend
 62
     7
370
    15
100
AcDbLine
 10
193.0135777846
 20
129.5596123672
 30
0.0
 11
193.6135776967
 21
129.5596123672
 31
0.0
  0
LINE
  5
F5
330
1F
100
AcDbEntity
  8
0
  6
SLD-Durchgehend
 62
     7
370
    15
100
AcDbLine
 10
195.0583542392
 20
100.809612777
 30
0.0
 11
194.4935778782
 21
100.809612777
 31
0.0
  0
LINE
  5
F6
330
1F
100
AcDbEntity
  8
0
  6
SLD-Durchgehend
 62
     7
370
    15
100
AcDbLine
 10
194.4935778782
 20
129.5596123672
 30
0.0
 11
195.0935768589
 21
129.5596123672
 31
0.0
  0
LINE
  5
F7
330
1F
100
AcDbEntity
  8
0
  6
SLD-Durchgehend
 62
     7
370
    15
100
AcDbLine
 10
198.0036395296
 20
134.6096112392
 30
0.0
 11
198.2035777226
 21
134.6096112392
 31
0.0
  0
LINE
  5
F8
330
1F
100
AcDbEntity
  8
0
  6
SLD-Durchgehend
 62
     7
370
    15
100
AcDbLine
 10
198.1168008104
 20
100.809612777
 30
0.0
 11
198.2035777226
 21
100.809612777
 31
0.0
  0
LINE
  5
F9
330
1F
100
AcDbEntity
  8
0
  6
SLD-Durchgehend
 62
     7
370
    15
100
AcDbLine
 10
198.0035780624
 20
129.5596123672
 30
0.0
 11
198.3327018723
 21
129.5596123672
 31
0.0
  0
ARC
  5
FA
330
1F
100
AcDbEntity
  8
0
  6
SLD-Durchgehend
 62
     7
370
    15
100
AcDbCircle
 10
199.7112223333
 20
130.5676331723
 30
0.0
 40
1.707754257787363
100
AcDbArc
 50
179.3497241651
 51
216.175534614
  0
LINE
  5
FB
330
1F
100
AcDbEntity
  8
0
  6
SLD-Durchgehend
 62
     7
370
    15
100
AcDbLine
 10
194.4935778782
 20
100.809612777
 30
0.0
 11
193.6135776967
 21
100.809612777
 31
0.0
  0
LINE
  5
FC
330
1F
100
AcDbEntity
  8
0
  6
SLD-Durchgehend
 62
     7
370
    15
100
AcDbLine
 10
193.6135776967
 20
129.5596123672
 30
0.0
 11
194.4935778782
 21
129.5596123672
 31
0.0
  0
ELLIPSE
  5
FD
330
1F
100
AcDbEntity
  8
0
  6
SLD-Durchgehend
 62
     7
370
    15
100
AcDbEllipse
 10
207.7990232699
 20
117.7096120081
 30
0.0
 11
0.9866501382952038
 21
16.49798690830704
 31
0.0
210
0.0
220
0.0
230
1.0
 40
0.2612235458
 41
0.9337167750331192
 42
2.657996926898138
  0
ARC
  5
FE
330
1F
100
AcDbEntity
  8
0
  6
SLD-Durchgehend
 62
     7
370
    15
100
AcDbCircle
 10
205.5407379182
 20
103.6075527584
 30
0.0
 40
0.728621663172185
100
AcDbArc
 50
211.8271039349
 51
271.1601437522
  0
ELLIPSE
  5
FF
330
1F
100
AcDbEntity
  8
0
  6
SLD-Durchgehend
 62
     7
370
    15
100
AcDbEllipse
 10
263.1623427381
 20
117.7096120081
 30
0.0
 11
93.57416870577492
 21
3.535495950221744
 31
0.0
210
0.0
220
0.0
230
1.0
 40
0.1722352441
 41
4.042715803238783
 42
4.131058200455125
  0
ELLIPSE
  5
100
330
1F
100
AcDbEntity
  8
0
  6
SLD-Durchgehend
 62
     7
370
    15
100
AcDbEllipse
 10
263.1623427381
 20
117.7096120081
 30
0.0
 11
93.57416870577492
 21
3.535495950221744
 31
0.0
210
0.0
220
0.0
230
1.0
 40
0.1722352441
 41
2.139112224073543
 42
2.227454621289891
  0
ARC
  5
101
330
1F
100
AcDbEntity
  8
0
  6
SLD-Durchgehend
 62
     7
370
    15
100
AcDbCircle
 10
205.6848301091
 20
127.5406051722
 30
0.0
 40
0.7864614085746456
100
AcDbArc
 50
99.4657469432
 51
166.0182536238
  0
LINE
  5
102
330
1F
100
AcDbEntity
  8
0
  6
SLD-Durchgehend
 62
     7
370
    15
100
AcDbLine
 10
164.2535776526
 20
103.1970935872
 30
0.0
 11
164.2535776526
 21
104.1060355491
 31
0.0
  0
ARC
  5
103
330
1F
100
AcDbEntity
  8
0
  6
SLD-Durchgehend
 62
     7
370
    15
100
AcDbCircle
 10
161.1150370473
 20
103.1390291574
 30
0.0
 40
3.284134359664609
100
AcDbArc
 50
17.1244326527
 51
29.8895177058
  0
LWPOLYLINE
  5
104
330
1F
100
AcDbEntity
  8
0
  6
SLD-Durchgehend
 62
     7
370
    15
100
AcDbPolyline
 90
        7
 70
   128
 43
0.0
 10
163.3535773188
 20
105.4257382637
 10
163.4168923527
 20
105.425285641
 10
163.4782665104
 20
105.4138452745
 10
163.5556696609
 20
105.3833779878
 10
163.6610329777
 20
105.3102710283
 10
163.8491061211
 20
105.0591892562
 10
163.9623419076
 20
104.7756089828
  0
LWPOLYLINE
  5
105
330
1F
100
AcDbEntity
  8
0
  6
SLD-Durchgehend
 62
     7
370
    15
100
AcDbPolyline
 90
        3
 70
   128
 43
0.0
 10
159.2637869224
 20
104.998431634
 10
161.5631143257
 20
105.264537502
 10
163.3535773188
 20
105.4257382637
  0
LINE
  5
106
330
1F
100
AcDbEntity
  8
0
  6
SLD-Durchgehend
 62
     7
370
    15
100
AcDbLine
 10
159.1035770878
 20
104.9790768883
 30
0.0
 11
159.2637869224
 21
104.998431634
 31
0.0
  0
LINE
  5
107
330
1F
100
AcDbEntity
  8
0
  6
SLD-Durchgehend
 62
     7
370
    15
100
AcDbLine
 10
159.0950610742
 20
105.0064344889
 30
0.0
 11
159.1035770878
 21
104.9790768883
 31
0.0
  0
ELLIPSE
  5
108
330
1F
100
AcDbEntity
  8
0
  6
SLD-Durchgehend
 62
     7
370
    15
100
AcDbEllipse
 10
145.6268352853
 20
117.0703143303
 30
0.0
 11
13.37355272666628
 21
-13.37146352987014
 31
0.0
210
0.0
220
0.0
230
1.0
 40
0.1761188775
 41
0.3023035477142424
 42
0.3822730435340302
  0
ELLIPSE
  5
109
330
1F
100
AcDbEntity
  8
0
  6
SLD-Durchgehend
 62
     7
370
    15
100
AcDbEllipse
 10
145.5474568546
 20
118.3487224594
 30
0.0
 11
13.36963611134306
 21
13.36754752639486
 31
0.0
210
0.0
220
0.0
230
1.0
 40
0.1761188775
 41
5.9330769318466
 42
5.976720052691193
  0
LINE
  5
10A
330
1F
100
AcDbEntity
  8
0
  6
SLD-Durchgehend
 62
     7
370
    15
100
AcDbLine
 10
159.1035770878
 20
130.5751926264
 30
0.0
 11
159.0044098601
 21
130.3830477408
 31
0.0
  0
LWPOLYLINE
  5
10B
330
1F
100
AcDbEntity
  8
0
  6
SLD-Durchgehend
 62
     7
370
    15
100
AcDbPolyline
 90
        3
 70
   128
 43
0.0
 10
160.853576909
 20
130.4904059506
 10
159.9899428591
 20
130.5490345693
 10
159.1035770878
 20
130.5751926264
  0
ARC
  5
10C
330
1F
100
AcDbEntity
  8
0
  6
SLD-Durchgehend
 62
     7
370
    15
100
AcDbCircle
 10
160.6986122643
 20
131.5797460423
 30
0.0
 40
1.100307173752291
100
AcDbArc
 50
278.0963186522
 51
343.4942707128
  0
LINE
  5
10D
330
1F
100
AcDbEntity
  8
0
  6
SLD-Durchgehend
 62
     7
370
    15
100
AcDbLine
 10
161.7535772428
 20
131.2671364284
 30
0.0
 11
161.7535772428
 21
132.0968796498
 31
0.0
  0
LINE
  5
10E
330
1F
100
AcDbEntity
  8
0
  6
SLD-Durchgehend
 62
     7
370
    15
100
AcDbLine
 10
176.0535773981
 20
102.6059114373
 30
0.0
 11
176.0535773981
 21
132.8133125788
 31
0.0
  0
LWPOLYLINE
  5
10F
330
1F
100
AcDbEntity
  8
0
  6
SLD-Durchgehend
 62
     7
370
    15
100
AcDbPolyline
 90
       18
 70
   128
 43
0.0
 10
169.23812038
 20
102.9476453549
 10
169.2367215335
 20
102.9474451205
 10
169.2920216054
 20
102.9559415764
 10
169.4530500725
 20
102.9788027516
 10
169.7168201834
 20
103.0120640061
 10
170.0673457861
 20
103.0492964199
 10
170.490221183
 20
103.0821069142
 10
170.9719473191
 20
103.1032330355
 10
171.5017371505
 20
103.1065466812
 10
172.0502642609
 20
103.0890583059
 10
172.5917943448
 20
103.0499222687
 10
173.1091035224
 20
102.9923227614
 10
173.5921237312
 20
102.9210663399
 10
174.0148352154
 20
102.8458946383
 10
174.3580485389
 20
102.7756496331
 10
174.6120607175
 20
102.7182261458
 10
174.768296133
 20
102.6804274878
 10
174.8198555477
 20
102.6680138892
  0
LWPOLYLINE
  5
110
330
1F
100
AcDbEntity
  8
0
  6
SLD-Durchgehend
 62
     7
370
    15
100
AcDbPolyline
 90
       18
 70
   128
 43
0.0
 10
174.8188567042
 20
132.7512110582
 10
174.7681857713
 20
132.7384957111
 10
174.6132714368
 20
132.7010574749
 10
174.3552897286
 20
132.6429550535
 10
174.0129748985
 20
132.572764065
 10
173.5911812328
 20
132.4977255425
 10
173.1100124933
 20
132.42684165
 10
172.5926390544
 20
132.3693511075
 10
172.0511993088
 20
132.330269087
 10
171.5019508891
 20
132.312749978
 10
170.9716744415
 20
132.3160328901
 10
170.4888712309
 20
132.3371748439
 10
170.0662458941
 20
132.3699872008
 10
169.715407367
 20
132.4073276481
 10
169.4525583342
 20
132.4405199847
 10
169.291480507
 20
132.4633401817
 10
169.2367420226
 20
132.4717844835
 10
169.2376547188
 20
132.4716410598
  0
LWPOLYLINE
  5
111
330
1F
100
AcDbEntity
  8
0
  6
SLD-Durchgehend
 62
     7
370
    15
100
AcDbPolyline
 90
       13
 70
   128
 43
0.0
 10
158.913548167
 20
130.0976923666
 10
158.7488251433
 20
129.7001247293
 10
158.6663397655
 20
129.5411423779
 10
158.5583752647
 20
129.3638893402
 10
158.5051390037
 20
129.2889756149
 10
158.440652366
 20
129.2102145961
 10
158.4018534675
 20
129.1700531727
 10
158.3624864623
 20
129.135979805
 10
158.3309705064
 20
129.1146087459
 10
158.2914041981
 20
129.0974835864
 10
158.2414257035
 20
129.0991785935
 10
158.1700975701
 20
129.2303423396
 10
158.1535777703
 20
129.4878437183
  0
LWPOLYLINE
  5
112
330
1F
100
AcDbEntity
  8
0
  6
SLD-Durchgehend
 62
     7
370
    15
100
AcDbPolyline
 90
       11
 70
   128
 43
0.0
 10
158.1535777703
 20
106.1620987019
 10
158.1785614297
 20
106.4140792003
 10
158.237108092
 20
106.4934846944
 10
158.2889082536
 20
106.4940975046
 10
158.3226593837
 20
106.4798193982
 10
158.3664743856
 20
106.4501893705
 10
158.4099615619
 20
106.4114845357
 10
158.4576899812
 20
106.3605942762
 10
158.5262222841
 20
106.2748176044
 10
158.6654307947
 20
106.0612411237
 10
158.913548167
 20
105.5426266974
  0
LINE
  5
113
330
1F
100
AcDbEntity
  8
0
  6
SLD-Durchgehend
 62
     7
370
    15
100
AcDbLine
 10
158.1535777703
 20
106.1620987019
 30
0.0
 11
158.1535777703
 21
129.4878437183
 31
0.0
  0
LINE
  5
114
330
1F
100
AcDbEntity
  8
0
  6
SLD-Durchgehend
 62
     7
370
    15
100
AcDbLine
 10
225.6154241666
 20
115.5499669256
 30
0.0
 11
225.6154241666
 21
120.5425572115
 31
0.0
  0
ARC
  5
115
330
1F
100
AcDbEntity
  8
0
  6
SLD-Durchgehend
 62
     7
370
    15
100
AcDbCircle
 10
211.0686979176
 20
110.2360950152
 30
0.0
 40
2.064373150507504
100
AcDbArc
 50
111.2709156515
 51
240.391966853
  0
LINE
  5
116
330
1F
100
AcDbEntity
  8
0
  6
SLD-Durchgehend
 62
     7
370
    15
100
AcDbLine
 10
213.182942073
 20
106.8082652053
 30
0.0
 11
210.048765938
 21
108.44127601
 31
0.0
  0
LINE
  5
117
330
1F
100
AcDbEntity
  8
0
  6
SLD-Durchgehend
 62
     7
370
    15
100
AcDbLine
 10
219.0208146974
 20
98.1296557
 30
0.0
 11
217.4418653056
 21
101.3324144295
 31
0.0
  0
ARC
  5
118
330
1F
100
AcDbEntity
  8
0
  6
SLD-Durchgehend
 62
     7
370
    15
100
AcDbCircle
 10
213.0999045865
 20
82.7864079354
 30
0.0
 40
16.44604598407799
100
AcDbArc
 50
68.8985583916
 51
87.688825547
  0
LINE
  5
119
330
1F
100
AcDbEntity
  8
0
  6
SLD-Durchgehend
 62
     7
370
    15
100
AcDbLine
 10
213.2521765932
 20
101.3778964988
 30
0.0
 11
213.7631187841
 21
99.2190758696
 31
0.0
  0
ARC
  5
11A
330
1F
100
AcDbEntity
  8
0
  6
SLD-Durchgehend
 62
     7
370
    15
100
AcDbCircle
 10
212.1485346103
 20
101.1873631317
 30
0.0
 40
1.119968120340646
100
AcDbArc
 50
9.7950241112
 51
82.9368350411
  0
ARC
  5
11B
330
1F
100
AcDbEntity
  8
0
  6
SLD-Durchgehend
 62
     7
370
    15
100
AcDbCircle
 10
212.037486883
 20
130.5817534368
 30
0.0
 40
1.217329411190893
100
AcDbArc
 50
281.7915306019
 51
336.3147110404
  0
ELLIPSE
  5
11C
330
1F
100
AcDbEntity
  8
0
  6
SLD-Durchgehend
 62
     7
370
    15
100
AcDbEllipse
 10
263.1623427381
 20
117.7096120081
 30
0.0
 11
96.40974957564691
 21
3.642632191137551
 31
0.0
210
0.0
220
0.0
230
1.0
 40
0.1722352441
 41
2.049312655737656
 42
2.109634006114878
  0
LINE
  5
11D
330
1F
100
AcDbEntity
  8
0
  6
SLD-Durchgehend
 62
     7
370
    15
100
AcDbLine
 10
225.6154241666
 20
120.5425572115
 30
0.0
 11
218.2123335704
 21
130.7723657227
 31
0.0
  0
LINE
  5
11E
330
1F
100
AcDbEntity
  8
0
  6
SLD-Durchgehend
 62
     7
370
    15
100
AcDbLine
 10
192.0184177041
 20
133.8210212997
 30
0.0
 11
193.0135777846
 21
131.6236997953
 31
0.0
  0
LINE
  5
11F
330
1F
100
AcDbEntity
  8
0
  6
SLD-Durchgehend
 62
     7
370
    15
100
AcDbLine
 10
193.0135777846
 20
131.6236997953
 30
0.0
 11
193.0135777846
 21
131.2254588118
 31
0.0
  0
LWPOLYLINE
  5
120
330
1F
100
AcDbEntity
  8
0
  6
SLD-Durchgehend
 62
     7
370
    15
100
AcDbPolyline
 90
        6
 70
   128
 43
0.0
 10
193.0135777846
 20
131.2254588118
 10
193.0585923299
 20
130.9207039884
 10
193.1830393776
 20
130.664511118
 10
193.3301501602
 20
130.5137560702
 10
193.4803557277
 20
130.4370942524
 10
193.6135776967
 20
130.4166228509
  0
LINE
  5
121
330
1F
100
AcDbEntity
  8
0
  6
SLD-Durchgehend
 62
     7
370
    15
100
AcDbLine
 10
193.6135776967
 20
130.4166228509
 30
0.0
 11
194.4935778782
 21
130.4166228509
 31
0.0
  0
ARC
  5
122
330
1F
100
AcDbEntity
  8
0
  6
SLD-Durchgehend
 62
     7
370
    15
100
AcDbCircle
 10
194.368035885
 20
131.136709853
 30
0.0
 40
0.7309487551174734
100
AcDbArc
 50
279.8897062559
 51
6.9738377009
  0
LINE
  5
123
330
1F
100
AcDbEntity
  8
0
  6
SLD-Durchgehend
 62
     7
370
    15
100
AcDbLine
 10
195.0935768589
 20
131.2254588118
 30
0.0
 11
195.0935768589
 21
131.6236997953
 31
0.0
  0
LINE
  5
124
330
1F
100
AcDbEntity
  8
0
  6
SLD-Durchgehend
 62
     7
370
    15
100
AcDbLine
 10
195.0935768589
 20
131.6236997953
 30
0.0
 11
196.0887378707
 21
133.8210212997
 31
0.0
  0
LINE
  5
125
330
1F
100
AcDbEntity
  8
0
  6
SLD-Durchgehend
 62
     7
370
    15
100
AcDbLine
 10
196.0887378707
 20
133.8210212997
 30
0.0
 11
197.4035772189
 21
133.8210212997
 31
0.0
  0
ARC
  5
126
330
1F
100
AcDbEntity
  8
0
  6
SLD-Durchgehend
 62
     7
370
    15
100
AcDbCircle
 10
197.3079985136
 20
133.1294669196
 30
0.0
 40
0.698128032379553
100
AcDbArc
 50
355.1028521375
 51
82.1310855252
  0
LINE
  5
127
330
1F
100
AcDbEntity
  8
0
  6
SLD-Durchgehend
 62
     7
370
    15
100
AcDbLine
 10
198.0035780624
 20
133.0698695964
 30
0.0
 11
198.0035780624
 21
130.5870148352
 31
0.0
  0
LINE
  5
128
330
1F
100
AcDbEntity
  8
0
  6
SLD-Durchgehend
 62
     7
370
    15
100
AcDbLine
 10
197.4035772189
 20
137.1967880985
 30
0.0
 11
196.0887378707
 21
137.1967880985
 31
0.0
  0
LINE
  5
129
330
1F
100
AcDbEntity
  8
0
  6
SLD-Durchgehend
 62
     7
370
    15
100
AcDbLine
 10
196.0887378707
 20
133.8210212997
 30
0.0
 11
196.0887378707
 21
137.1967880985
 31
0.0
  0
LWPOLYLINE
  5
12A
330
1F
100
AcDbEntity
  8
0
  6
SLD-Durchgehend
 62
     7
370
    15
100
AcDbPolyline
 90
        3
 70
   128
 43
0.0
 10
196.0887378707
 20
137.1967880985
 10
196.0226530835
 20
137.0792961678
 10
195.0935768589
 20
135.4232891461
  0
LINE
  5
12B
330
1F
100
AcDbEntity
  8
0
  6
SLD-Durchgehend
 62
     7
370
    15
100
AcDbLine
 10
195.0935768589
 20
131.6236997953
 30
0.0
 11
195.0935768589
 21
135.4232891461
 31
0.0
  0
LWPOLYLINE
  5
12C
330
1F
100
AcDbEntity
  8
0
  6
SLD-Durchgehend
 62
     7
370
    15
100
AcDbPolyline
 90
        3
 70
   128
 43
0.0
 10
193.0135777846
 20
135.4232891461
 10
192.08450156
 20
137.0792961678
 10
192.0184177041
 20
137.1967880985
  0
LINE
  5
12D
330
1F
100
AcDbEntity
  8
0
  6
SLD-Durchgehend
 62
     7
370
    15
100
AcDbLine
 10
193.0135777846
 20
131.6236997953
 30
0.0
 11
193.0135777846
 21
135.4232891461
 31
0.0
  0
ARC
  5
12E
330
1F
100
AcDbEntity
  8
0
  6
SLD-Durchgehend
 62
     7
370
    15
100
AcDbCircle
 10
197.3954729229
 20
136.588681775
 30
0.0
 40
0.6081603245704803
100
AcDbArc
 50
359.2281322855
 51
89.2364584066
  0
LINE
  5
12F
330
1F
100
AcDbEntity
  8
0
  6
SLD-Durchgehend
 62
     7
370
    15
100
AcDbLine
 10
198.0035780624
 20
133.0698695964
 30
0.0
 11
198.0035780624
 21
136.5804891101
 31
0.0
  0
LINE
  5
130
330
1F
100
AcDbEntity
  8
0
  6
SLD-Durchgehend
 62
     7
370
    15
100
AcDbLine
 10
194.8452322438
 20
134.6096112392
 30
0.0
 11
194.4935778782
 21
134.6096112392
 31
0.0
  0
ARC
  5
131
330
1F
100
AcDbEntity
  8
0
  6
SLD-Durchgehend
 62
     7
370
    15
100
AcDbCircle
 10
194.4663871851
 20
135.1094621106
 30
0.0
 40
0.6271957208092315
100
AcDbArc
 50
307.1590768283
 51
0.2515960212
  0
LINE
  5
132
330
1F
100
AcDbEntity
  8
0
  6
SLD-Durchgehend
 62
     7
370
    15
100
AcDbLine
 10
194.4935778782
 20
134.6096112392
 30
0.0
 11
193.6135776967
 21
134.6096112392
 31
0.0
  0
ARC
  5
133
330
1F
100
AcDbEntity
  8
0
  6
SLD-Durchgehend
 62
     7
370
    15
100
AcDbCircle
 10
193.6402814951
 20
135.1092212877
 30
0.0
 40
0.6267108666970073
100
AcDbArc
 50
179.726192355
 51
232.8629641269
  0
LINE
  5
134
330
1F
100
AcDbEntity
  8
0
  6
SLD-Durchgehend
 62
     7
370
    15
100
AcDbLine
 10
193.6135776967
 20
134.6096112392
 30
0.0
 11
193.2619214684
 21
134.6096112392
 31
0.0
  0
LINE
  5
135
330
1F
100
AcDbEntity
  8
0
  6
SLD-Durchgehend
 62
     7
370
    15
100
AcDbLine
 10
213.1522754833
 20
130.0927367991
 30
0.0
 11
213.1522754833
 21
134.7096129319
 31
0.0
  0
ELLIPSE
  5
136
330
1F
100
AcDbEntity
  8
0
  6
SLD-Durchgehend
 62
     7
370
    15
100
AcDbEllipse
 10
227.5078555326
 20
117.7096120081
 30
0.0
 11
-12.45031724442748
 21
16.99882645357427
 31
0.0
210
0.0
220
0.0
230
1.0
 40
0.0160435947
 41
5.576971883111001
 42
6.271435163618997
  0
LINE
  5
137
330
1F
100
AcDbEntity
  8
0
  6
SLD-Durchgehend
 62
     7
370
    15
100
AcDbLine
 10
158.1535777703
 20
105.8911397121
 30
0.0
 11
158.1535777703
 21
106.1620987019
 31
0.0
  0
LINE
  5
138
330
1F
100
AcDbEntity
  8
0
  6
SLD-Durchgehend
 62
     7
370
    15
100
AcDbLine
 10
158.1535777703
 20
129.5835259369
 30
0.0
 11
158.1535777703
 21
129.4878437183
 31
0.0
  0
LINE
  5
139
330
1F
100
AcDbEntity
  8
0
  6
SLD-Durchgehend
 62
     7
370
    15
100
AcDbLine
 10
212.3899097249
 20
108.0945343709
 30
0.0
 11
209.0227092311
 21
109.8489589057
 31
0.0
  0
LINE
  5
13A
330
1F
100
AcDbEntity
  8
0
  6
SLD-Durchgehend
 62
     7
370
    15
100
AcDbLine
 10
159.1035770878
 20
130.5896122939
 30
0.0
 11
159.1035770878
 21
130.5751926264
 31
0.0
  0
LINE
  5
13B
330
1F
100
AcDbEntity
  8
0
  6
SLD-Durchgehend
 62
     7
370
    15
100
AcDbLine
 10
158.1535777703
 20
129.639612045
 30
0.0
 11
158.1535777703
 21
129.5835259369
 31
0.0
  0
LINE
  5
13C
330
1F
100
AcDbEntity
  8
0
  6
SLD-Durchgehend
 62
     7
370
    15
100
AcDbLine
 10
159.1035770878
 20
104.8886119387
 30
0.0
 11
159.1035770878
 21
104.9790768883
 31
0.0
  0
LINE
  5
13D
330
1F
100
AcDbEntity
  8
0
  6
SLD-Durchgehend
 62
     7
370
    15
100
AcDbLine
 10
158.1535777703
 20
105.8386121875
 30
0.0
 11
158.1535777703
 21
105.8911397121
 31
0.0
  0
LWPOLYLINE
  5
13E
330
1F
100
AcDbEntity
  8
0
  6
SLD-Durchgehend
 62
     7
370
    15
100
AcDbPolyline
 90
        3
 70
   128
 43
0.0
 10
213.7631187841
 20
99.2190758696
 10
213.4308117136
 20
99.8860071412
 10
213.3358019099
 20
100.2318221143
  0
LINE
  5
13F
330
1F
100
AcDbEntity
  8
0
  6
SLD-Gestrichelt
 62
     7
370
     0
100
AcDbLine
 10
186.003577958
 20
97.7096124551
 30
0.0
 11
186.003577958
 21
97.7346277794
 31
0.0
  0
ARC
  5
140
330
1F
100
AcDbEntity
  8
0
  6
SLD-Gestrichelt
 62
     7
370
     0
100
AcDbCircle
 10
189.934800031
 20
87.9676067094
 30
0.0
 40
10.52849502866595
100
AcDbArc
 50
86.9032197167
 51
111.9247654927
  0
LINE
  5
141
330
1F
100
AcDbEntity
  8
0
  6
SLD-Gestrichelt
 62
     7
370
     0
100
AcDbLine
 10
190.5035777643
 20
98.4807270578
 30
0.0
 11
192.0184177041
 21
98.4807270578
 31
0.0
  0
LINE
  5
142
330
1F
100
AcDbEntity
  8
0
  6
SLD-Gestrichelt
 62
     7
370
     0
100
AcDbLine
 10
192.0184177041
 20
137.1967880985
 30
0.0
 11
192.0184177041
 21
98.4807270578
 31
0.0
  0
LINE
  5
143
330
1F
100
AcDbEntity
  8
0
  6
SLD-Gestrichelt
 62
     7
370
     0
100
AcDbLine
 10
190.5035777643
 20
137.1967880985
 30
0.0
 11
192.0184177041
 21
137.1967880985
 31
0.0
  0
ARC
  5
144
330
1F
100
AcDbEntity
  8
0
  6
SLD-Gestrichelt
 62
     7
370
     0
100
AcDbCircle
 10
190.5728265147
 20
157.8030126251
 30
0.0
 40
20.60634088398746
100
AcDbArc
 50
257.2330230875
 51
269.8074539958
  0
CIRCLE
  5
145
330
1F
100
AcDbEntity
  8
0
  6
SLD-Gestrichelt
 62
     7
370
     0
100
AcDbCircle
 10
185.05331691
 20
117.7096491485
 30
0.0
 40
4.999739322004633
  0
LINE
  5
146
330
1F
100
AcDbEntity
  8
0
  6
SLD-Gestrichelt
 62
     7
370
     0
100
AcDbLine
 10
178.0535774931
 20
137.4096120706
 30
0.0
 11
178.0535774931
 21
98.0096119455
 31
0.0
  0
LWPOLYLINE
  5
147
330
1F
100
AcDbEntity
  8
0
  6
SLD-Gestrichelt
 62
     7
370
     0
100
AcDbPolyline
 90
        3
 70
   128
 43
0.0
 10
193.048799473
 20
100.809612777
 10
193.021333839
 20
100.6977721116
 10
193.0135777846
 20
100.5967329255
  0
LINE
  5
148
330
1F
100
AcDbEntity
  8
0
  6
SLD-Gestrichelt
 62
     7
370
     0
100
AcDbLine
 10
193.0135777846
 20
100.5967329255
 30
0.0
 11
193.0135777846
 21
129.5596123672
 31
0.0
  0
LWPOLYLINE
  5
149
330
1F
100
AcDbEntity
  8
0
  6
SLD-Gestrichelt
 62
     7
370
     0
100
AcDbPolyline
 90
        3
 70
   128
 43
0.0
 10
195.0935768589
 20
100.5967329255
 10
195.0858208045
 20
100.6977721116
 10
195.0583542392
 20
100.809612777
  0
LINE
  5
14A
330
1F
100
AcDbEntity
  8
0
  6
SLD-Gestrichelt
 62
     7
370
     0
100
AcDbLine
 10
195.0935768589
 20
100.5967329255
 30
0.0
 11
195.0935768589
 21
129.5596123672
 31
0.0
  0
LINE
  5
14B
330
1F
100
AcDbEntity
  8
0
  6
SLD-Gestrichelt
 62
     7
370
     0
100
AcDbLine
 10
198.0036395296
 20
134.6096112392
 30
0.0
 11
198.0035780624
 21
134.6211466006
 31
0.0
  0
LINE
  5
14C
330
1F
100
AcDbEntity
  8
0
  6
SLD-Gestrichelt
 62
     7
370
     0
100
AcDbLine
 10
198.0036395296
 20
134.6096112392
 30
0.0
 11
198.2035777226
 21
134.6096112392
 31
0.0
  0
LINE
  5
14D
330
1F
100
AcDbEntity
  8
0
  6
SLD-Gestrichelt
 62
     7
370
     0
100
AcDbLine
 10
198.0035780624
 20
134.6211466006
 30
0.0
 11
198.0035780624
 21
100.809612777
 31
0.0
  0
LINE
  5
14E
330
1F
100
AcDbEntity
  8
0
  6
SLD-Gestrichelt
 62
     7
370
     0
100
AcDbLine
 10
198.0035780624
 20
100.809612777
 30
0.0
 11
198.2035777226
 21
100.809612777
 31
0.0
  0
LINE
  5
14F
330
1F
100
AcDbEntity
  8
0
  6
SLD-Gestrichelt
 62
     7
370
     0
100
AcDbLine
 10
198.1168008104
 20
100.809612777
 30
0.0
 11
198.0035780624
 21
100.809612777
 31
0.0
  0
LINE
  5
150
330
1F
100
AcDbEntity
  8
0
  6
SLD-Gestrichelt
 62
     7
370
     0
100
AcDbLine
 10
198.0035780624
 20
130.5870148352
 30
0.0
 11
198.0035780624
 21
134.6211466006
 31
0.0
  0
LINE
  5
151
330
1F
100
AcDbEntity
  8
0
  6
SLD-Gestrichelt
 62
     7
370
     0
100
AcDbLine
 10
198.0035780624
 20
100.809612777
 30
0.0
 11
198.0035780624
 21
129.5596123672
 31
0.0
  0
LINE
  5
152
330
1F
100
AcDbEntity
  8
0
  6
SLD-Gestrichelt
 62
     7
370
     0
100
AcDbLine
 10
186.003577958
 20
129.5596123672
 30
0.0
 11
190.4972475648
 21
129.5596123672
 31
0.0
  0
LINE
  5
153
330
1F
100
AcDbEntity
  8
0
  6
SLD-Gestrichelt
 62
     7
370
     0
100
AcDbLine
 10
178.0535774931
 20
101.5024106017
 30
0.0
 11
178.0535774931
 21
133.9168134144
 31
0.0
  0
LINE
  5
154
330
1F
100
AcDbEntity
  8
0
  6
SLD-Gestrichelt
 62
     7
370
     0
100
AcDbLine
 10
159.0950610742
 20
105.0064344889
 30
0.0
 11
159.1035770878
 21
104.9790768883
 31
0.0
  0
LINE
  5
155
330
1F
100
AcDbEntity
  8
0
  6
SLD-Gestrichelt
 62
     7
370
     0
100
AcDbLine
 10
159.1035770878
 20
104.9790768883
 30
0.0
 11
159.2637869224
 21
104.998431634
 31
0.0
  0
LWPOLYLINE
  5
156
330
1F
100
AcDbEntity
  8
0
  6
SLD-Gestrichelt
 62
     7
370
     0
100
AcDbPolyline
 90
        3
 70
   128
 43
0.0
 10
159.2637869224
 20
104.998431634
 10
161.5631143257
 20
105.264537502
 10
163.3535773188
 20
105.4257382637
  0
LWPOLYLINE
  5
157
330
1F
100
AcDbEntity
  8
0
  6
SLD-Gestrichelt
 62
     7
370
     0
100
AcDbPolyline
 90
        7
 70
   128
 43
0.0
 10
163.3535773188
 20
105.4257382637
 10
163.4168923527
 20
105.425285641
 10
163.4782665104
 20
105.4138452745
 10
163.5556696609
 20
105.3833779878
 10
163.6610329777
 20
105.3102710283
 10
163.8491061211
 20
105.0591892562
 10
163.9623419076
 20
104.7756089828
  0
ARC
  5
158
330
1F
100
AcDbEntity
  8
0
  6
SLD-Gestrichelt
 62
     7
370
     0
100
AcDbCircle
 10
161.1150370473
 20
103.1390291574
 30
0.0
 40
3.284134359664609
100
AcDbArc
 50
17.1244326527
 51
29.8895177058
  0
LINE
  5
159
330
1F
100
AcDbEntity
  8
0
  6
SLD-Gestrichelt
 62
     7
370
     0
100
AcDbLine
 10
164.2535776526
 20
104.1060355491
 30
0.0
 11
164.2535776526
 21
103.1970935872
 31
0.0
  0
LINE
  5
15A
330
1F
100
AcDbEntity
  8
0
  6
SLD-Gestrichelt
 62
     7
370
     0
100
AcDbLine
 10
161.7535772428
 20
132.0968796498
 30
0.0
 11
161.7535772428
 21
131.2671364284
 31
0.0
  0
ARC
  5
15B
330
1F
100
AcDbEntity
  8
0
  6
SLD-Gestrichelt
 62
     7
370
     0
100
AcDbCircle
 10
160.6986122643
 20
131.5797460423
 30
0.0
 40
1.100307173752291
100
AcDbArc
 50
278.0963186522
 51
343.4942707128
  0
LWPOLYLINE
  5
15C
330
1F
100
AcDbEntity
  8
0
  6
SLD-Gestrichelt
 62
     7
370
     0
100
AcDbPolyline
 90
        3
 70
   128
 43
0.0
 10
160.853576909
 20
130.4904059506
 10
159.9899428591
 20
130.5490345693
 10
159.1035770878
 20
130.5751926264
  0
LINE
  5
15D
330
1F
100
AcDbEntity
  8
0
  6
SLD-Gestrichelt
 62
     7
370
     0
100
AcDbLine
 10
159.1035770878
 20
130.5751926264
 30
0.0
 11
159.0044098601
 21
130.3830477408
 31
0.0
  0
ELLIPSE
  5
15E
330
1F
100
AcDbEntity
  8
0
  6
SLD-Gestrichelt
 62
     7
370
     0
100
AcDbEllipse
 10
145.5474568546
 20
118.3487224594
 30
0.0
 11
13.36963611134306
 21
13.36754752639483
 31
0.0
210
0.0
220
0.0
230
1.0
 40
0.1761188775
 41
5.9330769318466
 42
5.976720052691198
  0
ELLIPSE
  5
15F
330
1F
100
AcDbEntity
  8
0
  6
SLD-Gestrichelt
 62
     7
370
     0
100
AcDbEllipse
 10
145.6268352853
 20
117.0703143303
 30
0.0
 11
13.37355272666625
 21
-13.37146352987014
 31
0.0
210
0.0
220
0.0
230
1.0
 40
0.1761188775
 41
0.3023035477142394
 42
0.3822730435340296
  0
LINE
  5
160
330
1F
100
AcDbEntity
  8
0
  6
SLD-Gestrichelt
 62
     7
370
     0
100
AcDbLine
 10
176.0535773981
 20
132.8133125788
 30
0.0
 11
176.0535773981
 21
102.6059114373
 31
0.0
  0
ARC
  5
161
330
1F
100
AcDbEntity
  8
0
  6
SLD-Gestrichelt
 62
     7
370
     0
100
AcDbCircle
 10
172.3833281556
 20
81.5760568787
 30
0.0
 40
21.60178524906596
100
AcDbArc
 50
97.1287248107
 51
98.3719928051
  0
LWPOLYLINE
  5
162
330
1F
100
AcDbEntity
  8
0
  6
SLD-Gestrichelt
 62
     7
370
     0
100
AcDbPolyline
 90
       16
 70
   128
 43
0.0
 10
174.8198555477
 20
102.6680138892
 10
174.8213470608
 20
102.66765533
 10
174.7654122926
 20
102.681507822
 10
174.6043789361
 20
102.7198494411
 10
174.3417101141
 20
102.7786438352
 10
173.9936909333
 20
102.8500464744
 10
173.5742702775
 20
102.9246072284
 10
173.0951378748
 20
102.9942263848
 10
172.5697420232
 20
103.051398415
 10
172.0210184038
 20
103.090499062
 10
171.4795781925
 20
103.107316885
 10
170.9585069373
 20
103.1028884462
 10
170.4729456149
 20
103.0806000343
 10
170.06008147
 20
103.0485252848
 10
170.0471398115
 20
103.0475194565
 10
169.7025690854
 20
103.010857012
  0
LWPOLYLINE
  5
163
330
1F
100
AcDbEntity
  8
0
  6
SLD-Gestrichelt
 62
     7
370
     0
100
AcDbPolyline
 90
       16
 70
   128
 43
0.0
 10
169.7024508074
 20
132.408352103
 10
170.0478913888
 20
132.3717585764
 10
170.0542066872
 20
132.3712677694
 10
170.4739570312
 20
132.3386901057
 10
170.9596366316
 20
132.3163802734
 10
171.4814766936
 20
132.3119024745
 10
172.0225914076
 20
132.3287277481
 10
172.572386048
 20
132.3680211789
 10
173.0969837561
 20
132.425227668
 10
173.5764882222
 20
132.4949529952
 10
173.9950194649
 20
132.5693563557
 10
174.3427368972
 20
132.6406993902
 10
174.6046476226
 20
132.6993522233
 10
174.7653834216
 20
132.7376845291
 10
174.820029705
 20
132.7515062875
 10
174.8188567042
 20
132.7512110582
  0
ARC
  5
164
330
1F
100
AcDbEntity
  8
0
  6
SLD-Gestrichelt
 62
     7
370
     0
100
AcDbCircle
 10
170.9363908952
 20
143.2088299136
 30
0.0
 40
10.87073728310234
100
AcDbArc
 50
261.009721592
 51
263.4822940933
  0
ARC
  5
165
330
1F
100
AcDbEntity
  8
0
  6
SLD-Gestrichelt
 62
     7
370
     0
100
AcDbCircle
 10
172.0513882361
 20
92.4038306263
 30
0.0
 40
12.76430890823064
100
AcDbArc
 50
81.773666861
 51
100.2786770347
  0
ARC
  5
166
330
1F
100
AcDbEntity
  8
0
  6
SLD-Gestrichelt
 62
     7
370
     0
100
AcDbCircle
 10
172.0513882361
 20
143.0153933898
 30
0.0
 40
12.76430890823067
100
AcDbArc
 50
259.7213229653
 51
278.226333139
  0
LWPOLYLINE
  5
167
330
1F
100
AcDbEntity
  8
0
  6
SLD-Gestrichelt
 62
     7
370
     0
100
AcDbPolyline
 90
        6
 70
   128
 43
0.0
 10
173.8777543113
 20
130.382421892
 10
174.2361249097
 20
130.4260683245
 10
174.3485078376
 20
130.4364525712
 10
174.3533663146
 20
130.4369014687
 10
174.214643256
 20
130.4238992742
 10
173.8777543113
 20
130.382421892
  0
LWPOLYLINE
  5
168
330
1F
100
AcDbEntity
  8
0
  6
SLD-Gestrichelt
 62
     7
370
     0
100
AcDbPolyline
 90
        6
 70
   128
 43
0.0
 10
173.8777543113
 20
105.0368021241
 10
174.2361249097
 20
104.9931556916
 10
174.3484319348
 20
104.9827779642
 10
174.3533663146
 20
104.9823225475
 10
174.214643256
 20
104.9953247419
 10
173.8777543113
 20
105.0368021241
  0
LINE
  5
169
330
1F
100
AcDbEntity
  8
0
  6
SLD-Gestrichelt
 62
     7
370
     0
100
AcDbLine
 10
178.0535774931
 20
107.2096121496
 30
0.0
 11
178.0535774931
 21
128.2096118665
 31
0.0
  0
LWPOLYLINE
  5
16A
330
1F
100
AcDbEntity
  8
0
  6
SLD-Gestrichelt
 62
     7
370
     0
100
AcDbPolyline
 90
       35
 70
   128
 43
0.0
 10
217.5543690726
 20
110.894225072
 10
218.1153381869
 20
110.9664202666
 10
218.6572040126
 20
111.1394171602
 10
219.1615151867
 20
111.407324206
 10
219.6110943958
 20
111.7610177024
 10
219.9906381473
 20
112.1884537859
 10
220.2872159585
 20
112.6750763504
 10
220.4907285675
 20
113.2043143733
 10
220.5942469344
 20
113.7581444344
 10
220.5942469344
 20
114.3177074845
 10
220.4907285675
 20
114.8639477322
 10
220.2872159585
 20
115.3782636392
 10
219.9906381473
 20
115.8431408693
 10
219.6110943958
 20
116.2427485686
 10
219.1615151867
 20
116.5634787175
 10
218.6572040126
 20
116.7944090556
 10
218.1153381869
 20
116.9276756699
 10
217.5543690726
 20
116.9587402254
 10
216.993396233
 20
116.8865448561
 10
216.4515304074
 20
116.7135481954
 10
215.9472192332
 20
116.4456412661
 10
215.4976400241
 20
116.0919474204
 10
215.1180962726
 20
115.6645114532
 10
214.8215184614
 20
115.1778886559
 10
214.6180058524
 20
114.6486510987
 10
214.5144874856
 20
114.0948208048
 10
214.5144874856
 20
113.5352579876
 10
214.6180058524
 20
112.9890177398
 10
214.8215184614
 20
112.4747018329
 10
215.1180962726
 20
112.0098247192
 10
215.4976400241
 20
111.6102165541
 10
215.9472192332
 20
111.2894867546
 10
216.4515304074
 20
111.058556009
 10
216.993396233
 20
110.9252898021
 10
217.5543690726
 20
110.894225072
  0
LINE
  5
16B
330
1F
100
AcDbEntity
  8
0
  6
SLD-Gestrichelt
 62
     7
370
     0
100
AcDbLine
 10
225.6154241666
 20
109.1365325263
 30
0.0
 11
225.6154241666
 21
115.5499669256
 31
0.0
  0
ARC
  5
16C
330
1F
100
AcDbEntity
  8
0
  6
SLD-Gestrichelt
 62
     7
370
     0
100
AcDbCircle
 10
241.8979269247
 20
109.1261561511
 30
0.0
 40
16.28250606436943
100
AcDbArc
 50
179.9634870368
 51
195.6767256125
  0
LINE
  5
16D
330
1F
100
AcDbEntity
  8
0
  6
SLD-Gestrichelt
 62
     7
370
     0
100
AcDbLine
 10
212.0738188431
 20
112.0976819656
 30
0.0
 11
226.2211042151
 21
104.7264705411
 31
0.0
  0
ARC
  5
16E
330
1F
100
AcDbEntity
  8
0
  6
SLD-Gestrichelt
 62
     7
370
     0
100
AcDbCircle
 10
211.1304284173
 20
110.2555379311
 30
0.0
 40
2.069657009970356
100
AcDbArc
 50
62.8823127819
 51
113.0589811514
  0
LINE
  5
16F
330
1F
100
AcDbEntity
  8
0
  6
SLD-Gestrichelt
 62
     7
370
     0
100
AcDbLine
 10
215.2812826142
 20
105.714959558
 30
0.0
 11
213.182942073
 21
106.8082652053
 31
0.0
  0
LINE
  5
170
330
1F
100
AcDbEntity
  8
0
  6
SLD-Gestrichelt
 62
     7
370
     0
100
AcDbLine
 10
217.4418653056
 20
101.3324144295
 30
0.0
 11
215.2812826142
 21
105.714959558
 31
0.0
  0
LINE
  5
171
330
1F
100
AcDbEntity
  8
0
  6
SLD-Gestrichelt
 62
     7
370
     0
100
AcDbLine
 10
211.5824679539
 20
121.8607253394
 30
0.0
 11
210.4757214591
 21
124.5409194379
 31
0.0
  0
ARC
  5
172
330
1F
100
AcDbEntity
  8
0
  6
SLD-Gestrichelt
 62
     7
370
     0
100
AcDbCircle
 10
213.8400960996
 20
122.9178118389
 30
0.0
 40
2.49285312685713
100
AcDbArc
 50
205.0903466115
 51
22.2121008696
  0
LINE
  5
173
330
1F
100
AcDbEntity
  8
0
  6
SLD-Gestrichelt
 62
     7
370
     0
100
AcDbLine
 10
215.0412100062
 20
126.5403949654
 30
0.0
 11
216.1479565009
 21
123.8602008669
 31
0.0
  0
ARC
  5
174
330
1F
100
AcDbEntity
  8
0
  6
SLD-Gestrichelt
 62
     7
370
     0
100
AcDbCircle
 10
212.7806350821
 20
125.4900369717
 30
0.0
 40
2.492679462436972
100
AcDbArc
 50
24.9215588845
 51
202.3808885965
  0
LINE
  5
175
330
1F
100
AcDbEntity
  8
0
  6
SLD-Gestrichelt
 62
     7
370
     0
100
AcDbLine
 10
166.0562270015
 20
128.2096118665
 30
0.0
 11
166.0562270015
 21
107.2096121496
 31
0.0
  0
LINE
  5
176
330
1F
100
AcDbEntity
  8
0
  6
SLD-Gestrichelt
 62
     7
370
     0
100
AcDbLine
 10
190.4972475648
 20
129.5596123672
 30
0.0
 11
198.3327018723
 21
129.5596123672
 31
0.0
  0
LINE
  5
177
330
1F
100
AcDbEntity
  8
0
  6
SLD-Gestrichelt
 62
     7
370
     0
100
AcDbLine
 10
195.0935768589
 20
131.2254588118
 30
0.0
 11
195.0935768589
 21
135.1122162304
 31
0.0
  0
LINE
  5
178
330
1F
100
AcDbEntity
  8
0
  6
SLD-Gestrichelt
 62
     7
370
     0
100
AcDbLine
 10
193.0135777846
 20
131.2254588118
 30
0.0
 11
193.0135777846
 21
135.1122162304
 31
0.0
  0
LWPOLYLINE
  5
179
330
1F
100
AcDbEntity
  8
0
  6
SLD-Gestrichelt
 62
     7
370
     0
100
AcDbPolyline
 90
        3
 70
   128
 43
0.0
 10
213.2521765932
 20
101.1561057529
 10
213.2254327342
 20
100.7932866922
 10
213.2521765932
 20
100.5361988208
  0
LWPOLYLINE
  5
17A
330
1F
100
AcDbEntity
  8
0
  6
SLD-Gestrichelt
 62
     7
370
     0
100
AcDbPolyline
 90
        3
 70
   128
 43
0.0
 10
213.1522754833
 20
117.7096120081
 10
213.1525064513
 20
117.5933410485
 10
213.2521765932
 20
114.8358825593
  0
LINE
  5
17B
330
1F
100
AcDbEntity
  8
0
  6
SLD-Gestrichelt
 62
     7
370
     0
100
AcDbLine
 10
213.1522754833
 20
134.7096129319
 30
0.0
 11
213.1522754833
 21
117.7096120081
 31
0.0
  0
ARC
  5
17C
330
1F
100
AcDbEntity
  8
0
  6
SLD-Gestrichelt
 62
     7
370
     0
100
AcDbCircle
 10
222.1718139891
 20
117.5054833009
 30
0.0
 40
2.332772935733046
100
AcDbArc
 50
107.695749426
 51
174.979926798
  0
ELLIPSE
  5
17D
330
1F
100
AcDbEntity
  8
0
  6
SLD-Gestrichelt
 62
     7
370
     0
100
AcDbEllipse
 10
224.4480460052
 20
117.7096120081
 30
0.0
 11
-0.64229433609475
 21
16.99964005353307
 31
0.0
210
0.0
220
0.0
230
1.0
 40
0.1722352441
 41
1.098919130499701
 42
1.445286624573169
  0
ELLIPSE
  5
17E
330
1F
100
AcDbEntity
  8
0
  6
SLD-Gestrichelt
 62
     7
370
     0
100
AcDbEllipse
 10
227.5078555326
 20
117.7096120081
 30
0.0
 11
-12.45031724442748
 21
16.99882645357427
 31
0.0
210
0.0
220
0.0
230
1.0
 40
0.0160435947
 41
6.271435163618997
 42
7.376861735443173
  0
ARC
  5
17F
330
1F
100
AcDbEntity
  8
0
  6
SLD-Gestrichelt
 62
     7
370
     0
100
AcDbCircle
 10
212.6913860899
 20
125.5979517831
 30
0.0
 40
1.994262222154253
100
AcDbArc
 50
25.0653394634
 51
202.2370761098
  0
LINE
  5
180
330
1F
100
AcDbEntity
  8
0
  6
SLD-Gestrichelt
 62
     7
370
     0
100
AcDbLine
 10
158.1535777703
 20
107.8446055761
 30
0.0
 11
158.1535777703
 21
127.57461844
 31
0.0
  0
LINE
  5
181
330
1F
100
AcDbEntity
  8
0
  6
SLD-Gestrichelt
 62
     7
370
     0
100
AcDbLine
 10
210.8454453453
 20
124.8432435094
 30
0.0
 11
211.9521918401
 21
122.1630494109
 31
0.0
  0
LINE
  5
182
330
1F
100
AcDbEntity
  8
0
  6
SLD-Gestrichelt
 62
     7
370
     0
100
AcDbLine
 10
184.2229525253
 20
128.2096118665
 30
0.0
 11
184.2229525253
 21
107.2096121496
 31
0.0
  0
LINE
  5
183
330
1F
100
AcDbEntity
  8
0
  6
SLD-Gestrichelt
 62
     7
370
     0
100
AcDbLine
 10
186.003577958
 20
127.5846115312
 30
0.0
 11
186.003577958
 21
107.8346115536
 31
0.0
  0
ARC
  5
184
330
1F
100
AcDbEntity
  8
0
  6
SLD-Gestrichelt
 62
     7
370
     0
100
AcDbCircle
 10
212.0836175227
 20
126.3145886935
 30
0.0
 40
1.994260578165864
100
AcDbArc
 50
25.0653313261
 51
202.2371394552
  0
LINE
  5
185
330
1F
100
AcDbEntity
  8
0
  6
SLD-Gestrichelt
 62
     7
370
     0
100
AcDbLine
 10
215.604585658
 20
123.7626299261
 30
0.0
 11
214.4978391632
 21
126.4428240246
 31
0.0
  0
LINE
  5
186
330
1F
100
AcDbEntity
  8
0
  6
SLD-Gestrichelt
 62
     7
370
     0
100
AcDbLine
 10
159.1035770878
 20
108.0117062664
 30
0.0
 11
163.3535773188
 21
108.0117062664
 31
0.0
  0
LINE
  5
187
330
1F
100
AcDbEntity
  8
0
  6
SLD-Gestrichelt
 62
     7
370
     0
100
AcDbLine
 10
159.1035770878
 20
127.4075177497
 30
0.0
 11
159.1035770878
 21
108.0117062664
 31
0.0
  0
LINE
  5
188
330
1F
100
AcDbEntity
  8
0
  6
SLD-Gestrichelt
 62
     7
370
     0
100
AcDbLine
 10
160.853576909
 20
127.4075177497
 30
0.0
 11
159.1035770878
 21
127.4075177497
 31
0.0
  0
LWPOLYLINE
  5
189
330
1F
100
AcDbEntity
  8
0
  6
SLD-Gestrichelt
 62
     7
370
     0
100
AcDbPolyline
 90
        6
 70
   128
 43
0.0
 10
161.7535772428
 20
127.7338019571
 10
161.6977966085
 20
127.6311832479
 10
161.5366349623
 20
127.5319461709
 10
161.2881208464
 20
127.4531898087
 10
160.996378462
 20
127.4122414178
 10
160.853576909
 20
127.4075177497
  0
LINE
  5
18A
330
1F
100
AcDbEntity
  8
0
  6
SLD-Gestrichelt
 62
     7
370
     0
100
AcDbLine
 10
161.7535772428
 20
127.7338019571
 30
0.0
 11
161.7535772428
 21
128.2096118665
 31
0.0
  0
LWPOLYLINE
  5
18B
330
1F
100
AcDbEntity
  8
0
  6
SLD-Gestrichelt
 62
     7
370
     0
100
AcDbPolyline
 90
        6
 70
   128
 43
0.0
 10
161.7535772428
 20
127.7338019571
 10
161.6977966085
 20
127.6311832479
 10
161.5366349623
 20
127.5319461709
 10
161.2881208464
 20
127.4531898087
 10
160.996378462
 20
127.4122414178
 10
160.853576909
 20
127.4075177497
  0
LWPOLYLINE
  5
18C
330
1F
100
AcDbEntity
  8
0
  6
SLD-Gestrichelt
 62
     7
370
     0
100
AcDbPolyline
 90
        6
 70
   128
 43
0.0
 10
163.3535773188
 20
108.0117062664
 10
163.6356078714
 20
107.993016485
 10
163.8855636746
 20
107.9412833786
 10
164.0864238769
 20
107.863484416
 10
164.2179871604
 20
107.7670077792
 10
164.2535776526
 20
107.685422059
  0
LINE
  5
18D
330
1F
100
AcDbEntity
  8
0
  6
SLD-Gestrichelt
 62
     7
370
     0
100
AcDbLine
 10
164.2535776526
 20
107.685422059
 30
0.0
 11
164.2535776526
 21
107.2096121496
 31
0.0
  0
LWPOLYLINE
  5
18E
330
1F
100
AcDbEntity
  8
0
  6
SLD-Gestrichelt
 62
     7
370
     0
100
AcDbPolyline
 90
        6
 70
   128
 43
0.0
 10
163.3535773188
 20
108.0117062664
 10
163.6356078714
 20
107.993016485
 10
163.8855636746
 20
107.9412833786
 10
164.0864238769
 20
107.863484416
 10
164.2179871604
 20
107.7670077792
 10
164.2535776526
 20
107.685422059
  0
LINE
  5
18F
330
1F
100
AcDbEntity
  8
0
  6
SLD-Gestrichelt
 62
     7
370
     0
100
AcDbLine
 10
159.1035770878
 20
108.0117062664
 30
0.0
 11
159.1035770878
 21
127.4075177497
 31
0.0
  0
ARC
  5
190
330
1F
100
AcDbEntity
  8
0
  6
SLD-Gestrichelt
 62
     7
370
     0
100
AcDbCircle
 10
213.7586448536
 20
123.0079217892
 30
0.0
 40
1.994262225839498
100
AcDbArc
 50
205.0653437523
 51
22.2370718208
  0
LINE
  5
191
330
1F
100
AcDbEntity
  8
0
  6
SLD-Gestrichelt
 62
     7
370
     0
100
AcDbLine
 10
214.9968157217
 20
124.4792654178
 30
0.0
 11
213.8900692269
 21
127.1594599819
 31
0.0
  0
ARC
  5
192
330
1F
100
AcDbEntity
  8
0
  6
SLD-Gestrichelt
 62
     7
370
     0
100
AcDbCircle
 10
213.1508771654
 20
123.7245566006
 30
0.0
 40
1.994260402333154
100
AcDbArc
 50
205.0653319079
 51
22.2371143563
  0
ARC
  5
193
330
1F
100
AcDbEntity
  8
0
  6
SLD-Gestrichelt
 62
     7
370
     0
100
AcDbCircle
 10
209.7721604665
 20
111.8130012257
 30
0.0
 40
2.090305136874305
100
AcDbArc
 50
62.197048364
 51
239.8443836408
  0
LWPOLYLINE
  5
194
330
1F
100
AcDbEntity
  8
0
  6
SLD-Gestrichelt
 62
     7
370
     0
100
AcDbPolyline
 90
       37
 70
   128
 43
0.0
 10
216.298804681
 20
111.7443018592
 10
216.8597737953
 20
111.713237129
 10
217.4207429096
 20
111.7854327893
 10
217.9626124606
 20
111.9584292172
 10
218.4669199094
 20
112.226336263
 10
218.9165028438
 20
112.5800302251
 10
219.29604287
 20
113.0074663086
 10
219.5926206812
 20
113.4940888731
 10
219.7961370155
 20
114.0233264303
 10
219.8996553823
 20
114.5771567243
 10
219.8996553823
 20
115.1367195415
 10
219.7961370155
 20
115.6829597893
 10
219.5926206812
 20
116.1972756962
 10
219.29604287
 20
116.6621530427
 10
218.9165028438
 20
117.0617607421
 10
218.4669199094
 20
117.3824908909
 10
217.9626124606
 20
117.6134212582
 10
217.4207429096
 20
117.7466878433
 10
216.8597737953
 20
117.7777523916
 10
216.298804681
 20
117.7055570532
 10
215.7569388553
 20
117.5325603398
 10
215.337102364
 20
117.3178487514
 10
215.2526276812
 20
117.2646534686
 10
215.2351970479
 20
117.2532148192
 10
214.8030447468
 20
116.910959652
 10
214.4235047206
 20
116.4835235103
 10
214.1269269094
 20
115.9969009458
 10
213.9234143004
 20
115.4676631557
 10
213.8198922083
 20
114.9138328618
 10
213.8198922083
 20
114.3542700446
 10
213.9234143004
 20
113.8080297968
 10
214.1269269094
 20
113.2937138899
 10
214.4235047206
 20
112.8288367762
 10
214.8030447468
 20
112.4292290768
 10
215.2526276812
 20
112.1084988116
 10
215.7569388553
 20
111.8775685317
 10
216.298804681
 20
111.7443018592
  0
LINE
  5
195
330
1F
100
AcDbEntity
  8
0
  6
SLD-Gestrichelt
 62
     7
370
     0
100
AcDbLine
 10
213.9546098813
 20
107.2792732156
 30
0.0
 11
212.3899097249
 21
108.0945343709
 31
0.0
  0
LINE
  5
196
330
1F
100
AcDbEntity
  8
0
  6
SLD-Gestrichelt
 62
     7
370
     0
100
AcDbLine
 10
209.0227092311
 20
109.8489589057
 30
0.0
 11
208.7220950678
 21
110.0055892019
 31
0.0
  0
LINE
  5
197
330
1F
100
AcDbEntity
  8
0
  6
SLD-Gestrichelt
 62
     7
370
     0
100
AcDbLine
 10
213.9546098813
 20
107.2792732156
 30
0.0
 11
215.2812826142
 21
105.714959558
 31
0.0
  0
LINE
  5
198
330
1F
100
AcDbEntity
  8
0
  6
SLD-Gestrichelt
 62
     7
370
     0
100
AcDbLine
 10
210.2376791343
 20
125.5598790011
 30
0.0
 11
211.3444256291
 21
122.8796853683
 31
0.0
  0
LINE
  5
199
330
1F
100
AcDbEntity
  8
0
  6
SLD-Gestrichelt
 62
     7
370
     0
100
AcDbLine
 10
221.5481224164
 20
125.3384174778
 30
0.0
 11
225.6154241666
 21
120.5425572115
 31
0.0
  0
LINE
  5
19A
330
1F
100
AcDbEntity
  8
0
  6
SLD-Gestrichelt
 62
     7
370
     0
100
AcDbLine
 10
161.7535772428
 20
128.7096119485
 30
0.0
 11
161.7535772428
 21
131.2671364284
 31
0.0
  0
LINE
  5
19B
330
1F
100
AcDbEntity
  8
0
  6
SLD-Gestrichelt
 62
     7
370
     0
100
AcDbLine
 10
164.2535776526
 20
106.7096120677
 30
0.0
 11
164.2535776526
 21
104.1060355491
 31
0.0
  0
LINE
  5
19C
330
1F
100
AcDbEntity
  8
0
  6
SLD-Gestrichelt
 62
     7
370
     0
100
AcDbLine
 10
159.1035770878
 20
128.7096119485
 30
0.0
 11
159.1035770878
 21
130.5896122939
 31
0.0
  0
LINE
  5
19D
330
1F
100
AcDbEntity
  8
0
  6
SLD-Gestrichelt
 62
     7
370
     0
100
AcDbLine
 10
158.1535777703
 20
128.7096119485
 30
0.0
 11
158.1535777703
 21
129.639612045
 31
0.0
  0
LINE
  5
19E
330
1F
100
AcDbEntity
  8
0
  6
SLD-Gestrichelt
 62
     7
370
     0
100
AcDbLine
 10
159.1035770878
 20
106.7096120677
 30
0.0
 11
159.1035770878
 21
104.8886119387
 31
0.0
  0
LINE
  5
19F
330
1F
100
AcDbEntity
  8
0
  6
SLD-Gestrichelt
 62
     7
370
     0
100
AcDbLine
 10
158.1535777703
 20
106.7096120677
 30
0.0
 11
158.1535777703
 21
105.8386121875
 31
0.0
  0
LINE
  5
1A0
330
1F
100
AcDbEntity
  8
0
  6
SLD-Gestrichelt
 62
     7
370
     0
100
AcDbLine
 10
191.3535772517
 20
123.9596121012
 30
0.0
 11
191.3535772517
 21
111.4596119149
 31
0.0
  0
LINE
  5
1A1
330
1F
100
AcDbEntity
  8
0
  6
SLD-Gestrichelt
 62
     7
370
     0
100
AcDbLine
 10
193.8535767302
 20
123.9596121012
 30
0.0
 11
193.8535767302
 21
111.4596119149
 31
0.0
  0
LINE
  5
1A2
330
1F
100
AcDbEntity
  8
0
  6
SLD-Gestrichelt
 62
     7
370
     0
100
AcDbLine
 10
186.5035771087
 20
123.2096119783
 30
0.0
 11
186.5035771087
 21
112.2096120379
 31
0.0
  0
LINE
  5
1A3
330
1F
100
AcDbEntity
  8
0
  6
SLD-Gestrichelt
 62
     7
370
     0
100
AcDbLine
 10
186.003577958
 20
111.7096119559
 30
0.0
 11
186.003577958
 21
123.6962131223
 31
0.0
  0
LINE
  5
1A4
330
1F
100
AcDbEntity
  8
0
  6
SLD-Gestrichelt
 62
     7
370
     0
100
AcDbLine
 10
213.3358019099
 20
100.2318221143
 30
0.0
 11
213.2521765932
 21
100.5361988208
 31
0.0
  0
LINE
  5
1A5
330
1F
100
AcDbEntity
  8
0
  6
SLD-Gestrichelt
 62
     7
370
     0
100
AcDbLine
 10
193.048799473
 20
100.809612777
 30
0.0
 11
190.5035777643
 21
100.809612777
 31
0.0
  0
LINE
  5
1A6
330
1F
100
AcDbEntity
  8
0
  6
SLD-Gestrichelt
 62
     7
370
     0
100
AcDbLine
 10
193.0135777846
 20
100.5967329255
 30
0.0
 11
193.0135777846
 21
100.2804893068
 31
0.0
  0
LINE
  5
1A7
330
1F
100
AcDbEntity
  8
0
  6
SLD-Gestrichelt
 62
     7
370
     0
100
AcDbLine
 10
198.0035780624
 20
100.809612777
 30
0.0
 11
195.0583542392
 21
100.809612777
 31
0.0
  0
LINE
  5
1A8
330
1F
100
AcDbEntity
  8
0
  6
SLD-Gestrichelt
 62
     7
370
     0
100
AcDbLine
 10
195.0935768589
 20
100.2804893068
 30
0.0
 11
195.0935768589
 21
100.5967329255
 31
0.0
  0
LINE
  5
1A9
330
1F
100
AcDbEntity
  8
0
  6
SLD-Gestrichelt
 62
     7
370
     0
100
AcDbLine
 10
198.0035780624
 20
100.809612777
 30
0.0
 11
198.0035780624
 21
99.1055793128
 31
0.0
  0
LINE
  5
1AA
330
1F
100
AcDbEntity
  8
0
  6
SLD-Gestrichelt
 62
     7
370
     0
100
AcDbLine
 10
186.003577958
 20
97.7346277794
 30
0.0
 11
186.003577958
 21
100.809612777
 31
0.0
  0
LINE
  5
1AB
330
1F
100
AcDbEntity
  8
0
  6
SLD-Gestrichelt
 62
     7
370
     0
100
AcDbLine
 10
190.5035777643
 20
100.809612777
 30
0.0
 11
186.003577958
 21
100.809612777
 31
0.0
  0
LINE
  5
1AC
330
1F
100
AcDbEntity
  8
0
  6
SLD-Gestrichelt
 62
     7
370
     0
100
AcDbLine
 10
191.3535772517
 20
112.2096120379
 30
0.0
 11
191.3535772517
 21
123.1962144374
 31
0.0
  0
ELLIPSE
  5
1AD
330
1F
100
AcDbEntity
  8
0
  6
SLD-Gestrichelt
 62
     7
370
     0
100
AcDbEllipse
 10
156.0478107534
 20
117.7096120081
 30
0.0
 11
12.26424774976735
 21
0.0
 31
0.0
210
0.0
220
0.0
230
1.0
 40
0.8164965809
 41
4.884943637108984
 42
4.964202354313277
  0
LINE
  5
1AE
330
1F
100
AcDbEntity
  8
0
  6
SLD-Gestrichelt
 62
     7
370
     0
100
AcDbLine
 10
158.1535777703
 20
106.7096120677
 30
0.0
 11
158.1535777703
 21
107.8446055761
 31
0.0
  0
ELLIPSE
  5
1AF
330
1F
100
AcDbEntity
  8
0
  6
SLD-Gestrichelt
 62
     7
370
     0
100
AcDbEllipse
 10
156.0478107534
 20
117.7096120081
 30
0.0
 11
12.26424774976735
 21
0.0
 31
0.0
210
0.0
220
0.0
230
1.0
 40
0.8164965809
 41
1.318982952866322
 42
1.398241670070614
  0
LINE
  5
1B0
330
1F
100
AcDbEntity
  8
0
  6
SLD-Gestrichelt
 62
     7
370
     0
100
AcDbLine
 10
158.1535777703
 20
128.7096119485
 30
0.0
 11
158.1535777703
 21
127.57461844
 31
0.0
  0
LINE
  5
1B1
330
1F
100
AcDbEntity
  8
0
  6
SLD-Gestrichelt
 62
     7
370
     0
100
AcDbLine
 10
219.0208146974
 20
98.1296557
 30
0.0
 11
217.6941419646
 21
99.6939684263
 31
0.0
  0
LINE
  5
1B2
330
1F
100
AcDbEntity
  8
0
  6
SLD-Gestrichelt
 62
     7
370
     0
100
AcDbLine
 10
224.8944314823
 20
106.2907841987
 30
0.0
 11
226.2211042151
 21
104.7264705411
 31
0.0
  0
LINE
  5
1B3
330
1F
100
AcDbEntity
  8
0
  6
SLD-Gestrichelt
 62
     7
370
     0
100
AcDbLine
 10
198.0036395296
 20
134.6096112392
 30
0.0
 11
194.8452322438
 21
134.6096112392
 31
0.0
  0
LINE
  5
1B4
330
1F
100
AcDbEntity
  8
0
  6
SLD-Gestrichelt
 62
     7
370
     0
100
AcDbLine
 10
198.0035780624
 20
134.6211466006
 30
0.0
 11
198.0035780624
 21
136.5804891101
 31
0.0
  0
LINE
  5
1B5
330
1F
100
AcDbEntity
  8
0
  6
SLD-Gestrichelt
 62
     7
370
     0
100
AcDbLine
 10
195.0935768589
 20
135.4232891461
 30
0.0
 11
195.0935768589
 21
135.1122162304
 31
0.0
  0
LINE
  5
1B6
330
1F
100
AcDbEntity
  8
0
  6
SLD-Gestrichelt
 62
     7
370
     0
100
AcDbLine
 10
193.2619214684
 20
134.6096112392
 30
0.0
 11
190.5035777643
 21
134.6096112392
 31
0.0
  0
LINE
  5
1B7
330
1F
100
AcDbEntity
  8
0
  6
SLD-Gestrichelt
 62
     7
370
     0
100
AcDbLine
 10
193.0135777846
 20
135.1122162304
 30
0.0
 11
193.0135777846
 21
135.4232891461
 31
0.0
  0
LINE
  5
1B8
330
1F
100
AcDbEntity
  8
0
  6
SLD-Gestrichelt
 62
     7
370
     0
100
AcDbLine
 10
190.5035777643
 20
134.6096112392
 30
0.0
 11
186.003577958
 21
134.6096112392
 31
0.0
  0
LWPOLYLINE
  5
1B9
330
1F
100
AcDbEntity
  8
0
  6
SLD-Gestrichelt
 62
     7
370
     0
100
AcDbPolyline
 90
       31
 70
   128
 43
0.0
 10
216.7971702918
 20
112.3739425092
 10
217.3090549812
 20
112.4461456201
 10
217.798565577
 20
112.6220673321
 10
218.2443114623
 20
112.8940191119
 10
218.626809369
 20
113.2501158862
 10
218.9293439195
 20
113.6747933923
 10
219.1386903331
 20
114.1494922339
 10
219.2457030222
 20
114.6534653379
 10
219.2457030222
 20
115.1646866928
 10
219.1386903331
 20
115.6608134041
 10
218.9293439195
 20
116.1201625363
 10
218.626809369
 20
116.5226581505
 10
218.2443114623
 20
116.8507094843
 10
217.798565577
 20
117.089978943
 10
217.3090549812
 20
117.2300093166
 10
216.7971702918
 20
117.2646806516
 10
216.2852893278
 20
117.192477628
 10
215.795778732
 20
117.0165558577
 10
215.3500328466
 20
116.7446040198
 10
214.9675349399
 20
116.3885076529
 10
214.6650003895
 20
115.9638297976
 10
214.4556502506
 20
115.4891310724
 10
214.3486375615
 20
114.9851579683
 10
214.3486375615
 20
114.4739366135
 10
214.4556502506
 20
113.9778099022
 10
214.6650003895
 20
113.5184606536
 10
214.9675349399
 20
113.1159649229
 10
215.3500328466
 20
112.7879139966
 10
215.795778732
 20
112.5486441887
 10
216.2852893278
 20
112.408613786
 10
216.7971702918
 20
112.3739425092
  0
LINE
  5
1BA
330
1F
100
AcDbEntity
  8
0
  6
SLD-Gestrichelt
 62
     7
370
     0
100
AcDbLine
 10
164.2535776526
 20
106.7096120677
 30
0.0
 11
164.2535776526
 21
107.685422059
 31
0.0
  0
LINE
  5
1BB
330
1F
100
AcDbEntity
  8
0
  6
SLD-Gestrichelt
 62
     7
370
     0
100
AcDbLine
 10
161.7535772428
 20
128.7096119485
 30
0.0
 11
161.7535772428
 21
127.7338019571
 31
0.0
  0
LINE
  5
1BC
330
1F
100
AcDbEntity
  8
0
  6
SLD-Gestrichelt
 62
     7
370
     0
100
AcDbLine
 10
159.1035770878
 20
106.7096120677
 30
0.0
 11
159.1035770878
 21
108.0117062664
 31
0.0
  0
LINE
  5
1BD
330
1F
100
AcDbEntity
  8
0
  6
SLD-Gestrichelt
 62
     7
370
     0
100
AcDbLine
 10
159.1035770878
 20
128.7096119485
 30
0.0
 11
159.1035770878
 21
127.4075177497
 31
0.0
  0
LWPOLYLINE
  5
1BE
330
1F
100
AcDbEntity
  8
0
  6
SLD-Gestrichelt
 62
     7
370
     0
100
AcDbPolyline
 90
       16
 70
   128
 43
0.0
 10
215.7851951823
 20
119.788623182
 10
215.8686416849
 20
119.6932019665
 10
216.0675461099
 20
119.5053355767
 10
216.3903127119
 20
119.1641460172
 10
216.7881439134
 20
118.5628790989
 10
217.023489128
 20
117.8472360915
 10
217.0286449298
 20
117.1467080129
 10
216.8399142727
 20
116.5589147712
 10
216.5328274175
 20
116.1298033547
 10
216.5000150606
 20
116.0839544608
 10
216.0380045578
 20
115.7425097189
 10
215.8429595336
 20
115.6745778861
 10
215.6849289939
 20
115.6195378861
 10
215.5890996262
 20
115.6209474428
 10
215.4796170697
 20
115.6225581652
 10
215.3966548547
 20
115.6920453067
  0
ARC
  5
1BF
330
1F
100
AcDbEntity
  8
0
  6
SLD-Gestrichelt
 62
     7
370
     0
100
AcDbCircle
 10
214.3240612868
 20
117.7704525443
 30
0.0
 40
2.491570786313095
100
AcDbArc
 50
54.0958647851
 51
137.4065854076
  0
LWPOLYLINE
  5
1C0
330
1F
100
AcDbEntity
  8
0
  6
SLD-Gestrichelt
 62
     7
370
     0
100
AcDbPolyline
 90
       24
 70
   128
 43
0.0
 10
212.0226072773
 20
116.7038324055
 10
212.3593995973
 20
116.1896879783
 10
212.6334468529
 20
115.8782424171
 10
212.797590594
 20
115.7073711509
 10
212.866296123
 20
115.6243395525
 10
212.8230194256
 20
115.6424318905
 10
212.7968120083
 20
115.6774281989
 10
212.7232822284
 20
115.7756148603
 10
212.613211076
 20
116.0204024053
 10
212.5308970615
 20
116.3900867103
 10
212.5114547715
 20
116.8018405441
 10
212.5456678376
 20
117.2028118161
 10
212.62879024
 20
117.6252436634
 10
212.7773548171
 20
118.1076976935
 10
213.0342843637
 20
118.6979815828
 10
213.2394770786
 20
119.0743218175
 10
213.4233052537
 20
119.3856386234
 10
213.5402644679
 20
119.6335324783
 10
213.5179015502
 20
119.7628916706
 10
213.3841450021
 20
119.8085166978
 10
213.1564850613
 20
119.7852999902
 10
212.7143676087
 20
119.6077680214
 10
212.4898294613
 20
119.4567261262
 10
212.4898294613
 20
119.4567261262
  0
ARC
  5
1C1
330
1F
100
AcDbEntity
  8
0
  6
SLD-Gestrichelt
 62
     7
370
     0
100
AcDbCircle
 10
214.1818639038
 20
117.7727129012
 30
0.0
 40
2.409334906821468
100
AcDbArc
 50
206.3364429312
 51
300.2783791281
  0
LWPOLYLINE
  5
1C2
330
1F
100
AcDbEntity
  8
0
  6
SLD-Gestrichelt
 62
     7
370
     0
100
AcDbPolyline
 90
       53
 70
   128
 43
0.0
 10
169.909406516
 20
103.4704879856
 10
170.1379512131
 20
103.5037874243
 10
170.5180863544
 20
103.5461234859
 10
170.9197690405
 20
103.5752859897
 10
171.2913346171
 20
103.5912740043
 10
171.2915353171
 20
103.5912758669
 10
171.6013416342
 20
103.5940884611
 10
172.4276454814
 20
103.543923702
 10
172.8792130642
 20
103.4889449364
 10
173.1051658906
 20
103.4539812243
 10
173.3263396352
 20
103.4140358678
 10
173.7609818272
 20
103.3222121185
 10
173.912605799
 20
103.2843613065
 10
174.0067108229
 20
103.2608696258
 10
174.1805719838
 20
103.2138024456
 10
174.3121324733
 20
103.1763390637
 10
174.3150754526
 20
103.1760652548
 10
174.1899417873
 20
103.2109209335
 10
174.092717997
 20
103.2369411549
 10
174.0352241948
 20
103.2520984298
 10
174.0042460777
 20
103.2602149061
 10
173.9881989241
 20
103.264406789
 10
173.9800358817
 20
103.2665367237
 10
173.9759194359
 20
103.2676096073
 10
173.9738523655
 20
103.2681479117
 10
173.9728167348
 20
103.2684179953
 10
173.9722984537
 20
103.2685530371
 10
173.9720390804
 20
103.2686210236
 10
173.9719096266
 20
103.2686545512
 10
173.971844434
 20
103.268671315
 10
173.9718123034
 20
103.2686796969
 10
173.9717960052
 20
103.2686843536
 10
173.971788089
 20
103.2686862162
 10
173.9717797071
 20
103.2686880788
 10
173.911886818
 20
103.2845522276
 10
173.7969541617
 20
103.3134772441
 10
173.6128274977
 20
103.3554621971
 10
173.3424687453
 20
103.4105089492
 10
172.9011471078
 20
103.4860010258
 10
172.5172633931
 20
103.5367823205
 10
171.6449177518
 20
103.5919305867
 10
171.2044836648
 20
103.5911138168
 10
171.0616569661
 20
103.5866360179
 10
170.9220978126
 20
103.5800543612
 10
170.7865996912
 20
103.5713697782
 10
170.5441587299
 20
103.5501058212
 10
170.3561423972
 20
103.5307277924
 10
170.1480532691
 20
103.5055178216
 10
169.9139476448
 20
103.4711278042
 10
169.7998690113
 20
103.4514210186
 10
169.791963014
 20
103.4510019234
 10
169.7855285063
 20
103.4506610593
 10
169.909406516
 20
103.4704879856
  0
LWPOLYLINE
  5
1C3
330
1F
100
AcDbEntity
  8
0
  6
SLD-Gestrichelt
 62
     7
370
     0
100
AcDbPolyline
 90
       47
 70
   128
 43
0.0
 10
170.5144178748
 20
131.8726665339
 10
170.1379484192
 20
131.9153658113
 10
169.911797221
 20
131.9483309052
 10
169.909490335
 20
131.9486671126
 10
169.7856300205
 20
131.9685061461
 10
169.758229579
 20
131.9740633479
 10
169.7541876391
 20
131.9748829118
 10
169.7995151088
 20
131.9677964783
 10
169.8443135872
 20
131.9597973487
 10
169.9130573004
 20
131.948116701
 10
170.0118641064
 20
131.9327545351
 10
170.1468844593
 20
131.9137108511
 10
170.3787451304
 20
131.8858931771
 10
170.5823024429
 20
131.8653686902
 10
170.6682774864
 20
131.8575278855
 10
170.7366039671
 20
131.8516884929
 10
170.7855421744
 20
131.8478495813
 10
171.2035518765
 20
131.8280999547
 10
171.6443384692
 20
131.8272803909
 10
172.0882296257
 20
131.845391821
 10
172.5179404646
 20
131.8824333137
 10
172.7001742154
 20
131.9046667776
 10
172.9009920426
 20
131.9330628029
 10
173.1164409474
 20
131.9676213896
 10
173.341051738
 20
132.0083425379
 10
173.637185774
 20
132.0690033025
 10
173.8280491598
 20
132.113305386
 10
173.8939872637
 20
132.1299825794
 10
173.9403717846
 20
132.1421717292
 10
173.9694392934
 20
132.149870973
 10
174.188542708
 20
132.2077452204
 10
174.3145972185
 20
132.2427499107
 10
174.3527330153
 20
132.2546242735
 10
174.3535628237
 20
132.2548822499
 10
174.3165427513
 20
132.2435061446
 10
174.1945816364
 20
132.2082472033
 10
173.9691943556
 20
132.1491054258
 10
173.6749415912
 20
132.0806122384
 10
173.3275550112
 20
132.0124813354
 10
172.9317331381
 20
131.9428985006
 10
172.530282817
 20
131.8802447057
 10
172.1078130111
 20
131.8416488356
 10
171.6414155133
 20
131.8247453308
 10
171.2096785821
 20
131.8280347622
 10
171.2085358493
 20
131.8280906415
 10
170.8903299339
 20
131.8435561842
 10
170.5144178748
 20
131.8726665339
  0
LINE
  5
1C4
330
1F
100
AcDbEntity
  8
0
  6
SLD-Gestrichelt
 62
     7
370
     0
100
AcDbLine
 10
203.1535776958
 20
120.2096119522
 30
0.0
 11
203.1535776958
 21
115.2096120639
 31
0.0
  0
LWPOLYLINE
  5
1C5
330
1F
100
AcDbEntity
  8
0
  6
SLD-Gestrichelt
 62
     7
370
     0
100
AcDbPolyline
 90
       15
 70
   128
 43
0.0
 10
203.1535776958
 20
119.7140691801
 10
202.0447375879
 20
119.8072344995
 10
201.2894573316
 20
119.7765546384
 10
200.8016715452
 20
119.6589140453
 10
200.4076084748
 20
119.4198088486
 10
200.1397116736
 20
119.0794449065
 10
199.9387862787
 20
118.5633154235
 10
199.8417946205
 20
117.897248172
 10
199.8724556223
 20
117.1945506356
 10
200.0387563065
 20
116.5498897898
 10
200.3657753274
 20
116.0390607546
 10
200.7343853518
 20
115.7883954
 10
201.2025351331
 20
115.6554131302
 10
201.9529371217
 20
115.6101957894
 10
203.1535776958
 20
115.7051548361
  0
LINE
  5
1C6
330
1F
100
AcDbEntity
  8
0
  6
SLD-Gestrichelt
 62
     7
370
     0
100
AcDbLine
 10
193.8535767302
 20
115.2096120639
 30
0.0
 11
193.8535767302
 21
120.2096119522
 31
0.0
  0
LWPOLYLINE
  5
1C7
330
1F
100
AcDbEntity
  8
0
  6
SLD-Gestrichelt
 62
     7
370
     0
100
AcDbPolyline
 90
       10
 70
   128
 43
0.0
 10
203.1535776958
 20
115.7051548361
 10
203.4789296493
 20
116.0121603169
 10
203.8044809058
 20
116.4551450637
 10
204.1104240969
 20
116.9717233278
 10
204.3160973743
 20
117.4938802431
 10
204.3282213315
 20
117.8598564146
 10
204.1690676168
 20
118.3302115531
 10
203.8025810078
 20
118.9669653539
 10
203.430880855
 20
119.4624075432
 10
203.1535776958
 20
119.7140691801
  0
LWPOLYLINE
  5
1C8
330
1F
100
AcDbEntity
  8
0
  6
SLD-Gestrichelt
 62
     7
370
     0
100
AcDbPolyline
 90
       31
 70
   128
 43
0.0
 10
221.5031879649
 20
100.3676499239
 10
221.9945947334
 20
100.4369645378
 10
222.4645252034
 20
100.6058487109
 10
222.8924381241
 20
100.8669226429
 10
223.2596362635
 20
101.2087757698
 10
223.5500710711
 20
101.6164659521
 10
223.7510467574
 20
102.072176989
 10
223.853779088
 20
102.5559906846
 10
223.853779088
 20
103.0467632225
 10
223.7510467574
 20
103.5230453125
 10
223.5500710711
 20
103.9640200323
 10
223.2596362635
 20
104.3504164553
 10
222.8924381241
 20
104.6653459779
 10
222.4645252034
 20
104.8950445837
 10
221.9945947334
 20
105.0294735468
 10
221.5031879649
 20
105.0627580843
 10
221.011777471
 20
104.9934434703
 10
220.541847001
 20
104.824558366
 10
220.1139340803
 20
104.5634844339
 10
219.7467359409
 20
104.2216322383
 10
219.4563011333
 20
103.8139411247
 10
219.2553291723
 20
103.3582300878
 10
219.1525968417
 20
102.8744163922
 10
219.1525968417
 20
102.3836438543
 10
219.2553291723
 20
101.9073626957
 10
219.4563011333
 20
101.4663870445
 10
219.7467359409
 20
101.0799906215
 10
220.1139340803
 20
100.7650620303
 10
220.541847001
 20
100.5353624931
 10
221.011777471
 20
100.4009335301
 10
221.5031879649
 20
100.3676499239
  0
LINE
  5
1C9
330
1F
100
AcDbEntity
  8
0
  6
SLD-Gestrichelt
 62
     7
370
     0
100
AcDbLine
 10
225.9431416795
 20
103.5540089941
 30
0.0
 11
231.0674610242
 21
93.1597962043
 31
0.0
  0
LINE
  5
1CA
330
1F
100
AcDbEntity
  8
0
  6
SLD-Gestrichelt
 62
     7
370
     0
100
AcDbLine
 10
230.8515357479
 20
92.9505839011
 30
0.0
 11
231.0674610242
 21
93.1597962043
 31
0.0
  0
LINE
  5
1CB
330
1F
100
AcDbEntity
  8
0
  6
SLD-Gestrichelt
 62
     7
370
     0
100
AcDbLine
 10
230.8515357479
 20
92.9505839011
 30
0.0
 11
219.3224924311
 21
98.9576014689
 31
0.0
  0
ARC
  5
1CC
330
1F
100
AcDbEntity
  8
0
  6
SLD-Gestrichelt
 62
     7
370
     0
100
AcDbCircle
 10
240.2646577609
 20
110.6112147599
 30
0.0
 40
15.96590041594176
100
AcDbArc
 50
195.700189324
 51
206.2326701005
  0
ARC
  5
1CD
330
1F
100
AcDbEntity
  8
0
  6
SLD-Gestrichelt
 62
     7
370
     0
100
AcDbCircle
 10
211.8872820143
 20
84.6844901135
 30
0.0
 40
16.09360312995942
100
AcDbArc
 50
62.4838980727
 51
68.8495659584
  0
LINE
  5
1CE
330
1F
100
AcDbEntity
  8
0
  6
SLD-Gestrichelt
 62
     7
370
     0
100
AcDbLine
 10
213.9546098813
 20
107.2792732156
 30
0.0
 11
217.6941419646
 21
99.6939684263
 31
0.0
  0
LINE
  5
1CF
330
1F
100
AcDbEntity
  8
0
  6
SLD-Gestrichelt
 62
     7
370
     0
100
AcDbLine
 10
224.8944314823
 20
106.2907841987
 30
0.0
 11
210.7471461102
 21
113.6619951575
 31
0.0
  0
LWPOLYLINE
  5
1D0
330
1F
100
AcDbEntity
  8
0
  6
SLD-Gestrichelt
 62
     7
370
     0
100
AcDbPolyline
 90
        8
 70
   128
 43
0.0
 10
212.4898294613
 20
119.4567261262
 10
213.25078706
 20
119.4747989065
 10
213.9030108854
 20
119.5997173198
 10
214.4550616547
 20
119.7219623717
 10
214.467474322
 20
119.7247111703
 10
214.9820784733
 20
119.7906895539
 10
215.0499048337
 20
119.7993853128
 10
215.7851951823
 20
119.788623182
  0
LWPOLYLINE
  5
1D1
330
1F
100
AcDbEntity
  8
0
  6
SLD-Gestrichelt
 62
     7
370
     0
100
AcDbPolyline
 90
        7
 70
   128
 43
0.0
 10
215.3966548547
 20
115.6920453067
 10
214.7554802403
 20
115.8709948648
 10
214.1279513642
 20
116.1484717157
 10
213.4739170477
 20
116.5154690387
 10
213.0223783359
 20
116.6974201332
 10
212.4192016825
 20
116.7387860477
 10
212.0226072773
 20
116.7038324055
  0
LWPOLYLINE
  5
1D2
330
1F
100
AcDbEntity
  8
0
  6
SLD-Gestrichelt
 62
     7
370
     0
100
AcDbPolyline
 90
       29
 70
   128
 43
0.0
 10
217.429191868
 20
117.7096120081
 10
217.3989946648
 20
117.2423180541
 10
217.3099080726
 20
116.7984561761
 10
217.1664061651
 20
116.4002834119
 10
216.9756824776
 20
116.0677658626
 10
216.7472998306
 20
115.8175773452
 10
216.4927097663
 20
115.6622634734
 10
216.2246825799
 20
115.6096120829
 10
215.9566553935
 20
115.6622634734
 10
215.7020653293
 20
115.8175773452
 10
215.4736826822
 20
116.0677658626
 10
215.2829589948
 20
116.4002834119
 10
215.1394570872
 20
116.7984561761
 10
215.050370495
 20
117.2423180541
 10
215.0201732919
 20
117.7096120081
 10
215.050370495
 20
118.176905962
 10
215.1394570872
 20
118.6207678401
 10
215.2829589948
 20
119.0189406042
 10
215.4736826822
 20
119.3514581536
 10
215.7020653293
 20
119.6016466709
 10
215.9566553935
 20
119.7569605427
 10
216.2246825799
 20
119.8096119332
 10
216.4927097663
 20
119.7569605427
 10
216.7472998306
 20
119.6016466709
 10
216.9756824776
 20
119.3514581536
 10
217.1664061651
 20
119.0189406042
 10
217.3099080726
 20
118.6207678401
 10
217.3989946648
 20
118.176905962
 10
217.429191868
 20
117.7096120081
  0
LINE
  5
1D3
330
1F
100
AcDbEntity
  8
0
  6
SLD-Gestrichelt
 62
     7
370
     0
100
AcDbLine
 10
186.003577958
 20
100.809612777
 30
0.0
 11
190.5035777643
 21
100.809612777
 31
0.0
  0
LWPOLYLINE
  5
1D4
330
1F
100
AcDbEntity
  8
0
  6
SLD-Gestrichelt
 62
     7
370
     0
100
AcDbPolyline
 90
       25
 70
   128
 43
0.0
 10
221.372951816
 20
101.2548240832
 10
221.793514739
 20
101.3252376577
 10
222.1854152784
 20
101.5008385292
 10
222.5219505534
 20
101.7696610651
 10
222.7801839516
 20
102.1133861503
 10
222.9425134763
 20
102.5085900909
 10
222.997882466
 20
102.9283390379
 10
222.9425134763
 20
103.3440283498
 10
222.7801839516
 20
103.7273299879
 10
222.5219505534
 20
104.0521222165
 10
222.1854152784
 20
104.2962702921
 10
221.793514739
 20
104.4431361369
 10
221.372951816
 20
104.4827117583
 10
220.9523851678
 20
104.4123000464
 10
220.5604846284
 20
104.236699175
 10
220.2239493534
 20
103.9678757078
 10
219.9657159552
 20
103.6241506225
 10
219.8033864304
 20
103.2289466819
 10
219.7480174407
 20
102.8091977349
 10
219.8033864304
 20
102.393508423
 10
219.9657159552
 20
102.0102067849
 10
220.2239493534
 20
101.6854154876
 10
220.5604846284
 20
101.441267412
 10
220.9523851678
 20
101.2944015673
 10
221.372951816
 20
101.2548240832
  0
LINE
  5
1D5
330
1F
100
AcDbEntity
  8
0
  6
SLD-Gestrichelt
 62
     7
370
     0
100
AcDbLine
 10
161.7535772428
 20
128.7096119485
 30
0.0
 11
161.7535772428
 21
131.2671364284
 31
0.0
  0
LINE
  5
1D6
330
1F
100
AcDbEntity
  8
0
  6
SLD-Gestrichelt
 62
     7
370
     0
100
AcDbLine
 10
164.2535776526
 20
106.7096120677
 30
0.0
 11
164.2535776526
 21
104.1060355491
 31
0.0
  0
LWPOLYLINE
  5
1D7
330
1F
100
AcDbEntity
  8
0
  6
SLD-Gestrichelt
 62
     7
370
     0
100
AcDbPolyline
 90
       25
 70
   128
 43
0.0
 10
219.5062311992
 20
103.4559202379
 10
219.9267978474
 20
103.5263319499
 10
220.3186983868
 20
103.7019328213
 10
220.6552336618
 20
103.9707562885
 10
220.91346706
 20
104.3144813737
 10
221.0757965848
 20
104.7096853143
 10
221.1311655745
 20
105.1294342613
 10
221.0757965848
 20
105.5451235733
 10
220.91346706
 20
105.9284252113
 10
220.6552336618
 20
106.25321744
 10
220.3186983868
 20
106.4973655156
 10
219.9267978474
 20
106.6442313603
 10
219.5062311992
 20
106.6838069818
 10
219.0856682762
 20
106.6133952698
 10
218.6937677368
 20
106.4377943984
 10
218.3572324619
 20
106.1689709312
 10
218.0989990637
 20
105.8252458459
 10
217.9366695389
 20
105.4300419054
 10
217.8813005492
 20
105.0102929583
 10
217.9366695389
 20
104.5946036464
 10
218.0989990637
 20
104.2113020084
 10
218.3572324619
 20
103.886510711
 10
218.6937677368
 20
103.6423626355
 10
219.0856682762
 20
103.4954958594
 10
219.5062311992
 20
103.4559202379
  0
LINE
  5
1D8
330
1F
100
AcDbEntity
  8
0
  6
SLD-Gestrichelt
 62
     7
370
     0
100
AcDbLine
 10
195.0935768589
 20
135.1122162304
 30
0.0
 11
195.0935768589
 21
100.5967329255
 31
0.0
  0
ARC
  5
1D9
330
1F
100
AcDbEntity
  8
0
  6
SLD-Gestrichelt
 62
     7
370
     0
100
AcDbCircle
 10
194.4651608433
 20
135.1100680643
 30
0.0
 40
0.6284196872648536
100
AcDbArc
 50
307.2148147453
 51
0.1958581042
  0
LWPOLYLINE
  5
1DA
330
1F
100
AcDbEntity
  8
0
  6
SLD-Gestrichelt
 62
     7
370
     0
100
AcDbPolyline
 90
        3
 70
   128
 43
0.0
 10
195.0583542392
 20
100.809612777
 10
195.0858208045
 20
100.6977721116
 10
195.0935768589
 20
100.5967329255
  0
LINE
  5
1DB
330
1F
100
AcDbEntity
  8
0
  6
SLD-Gestrichelt
 62
     7
370
     0
100
AcDbLine
 10
194.4935778782
 20
134.6096112392
 30
0.0
 11
194.8452322438
 21
134.6096112392
 31
0.0
  0
LINE
  5
1DC
330
1F
100
AcDbEntity
  8
0
  6
SLD-Gestrichelt
 62
     7
370
     0
100
AcDbLine
 10
194.4935778782
 20
100.809612777
 30
0.0
 11
195.0583542392
 21
100.809612777
 31
0.0
  0
ARC
  5
1DD
330
1F
100
AcDbEntity
  8
0
  6
SLD-Gestrichelt
 62
     7
370
     0
100
AcDbCircle
 10
193.641337569
 20
135.1097431076
 30
0.0
 40
0.6277646558949662
100
AcDbArc
 50
179.774278685
 51
232.8148777969
  0
LINE
  5
1DE
330
1F
100
AcDbEntity
  8
0
  6
SLD-Gestrichelt
 62
     7
370
     0
100
AcDbLine
 10
193.0135777846
 20
135.1122162304
 30
0.0
 11
193.0135777846
 21
100.5967329255
 31
0.0
  0
LWPOLYLINE
  5
1DF
330
1F
100
AcDbEntity
  8
0
  6
SLD-Gestrichelt
 62
     7
370
     0
100
AcDbPolyline
 90
        3
 70
   128
 43
0.0
 10
193.0135777846
 20
100.5967329255
 10
193.021333839
 20
100.6977721116
 10
193.048799473
 20
100.809612777
  0
LINE
  5
1E0
330
1F
100
AcDbEntity
  8
0
  6
SLD-Gestrichelt
 62
     7
370
     0
100
AcDbLine
 10
193.2619214684
 20
134.6096112392
 30
0.0
 11
193.6135776967
 21
134.6096112392
 31
0.0
  0
LINE
  5
1E1
330
1F
100
AcDbEntity
  8
0
  6
SLD-Gestrichelt
 62
     7
370
     0
100
AcDbLine
 10
193.048799473
 20
100.809612777
 30
0.0
 11
193.6135776967
 21
100.809612777
 31
0.0
  0
LINE
  5
1E2
330
1F
100
AcDbEntity
  8
0
  6
SLD-Gestrichelt
 62
     7
370
     0
100
AcDbLine
 10
159.1035770878
 20
106.7096120677
 30
0.0
 11
159.1035770878
 21
104.894525837
 31
0.0
  0
LINE
  5
1E3
330
1F
100
AcDbEntity
  8
0
  6
SLD-Gestrichelt
 62
     7
370
     0
100
AcDbLine
 10
159.1035770878
 20
128.7096119485
 30
0.0
 11
159.1035770878
 21
130.5823526344
 31
0.0
  0
LINE
  5
1E4
330
1F
100
AcDbEntity
  8
0
  6
SLD-Gestrichelt
 62
     7
370
     0
100
AcDbLine
 10
158.1535777703
 20
128.7096119485
 30
0.0
 11
158.1535777703
 21
129.6340846455
 31
0.0
  0
LINE
  5
1E5
330
1F
100
AcDbEntity
  8
0
  6
SLD-Gestrichelt
 62
     7
370
     0
100
AcDbLine
 10
158.1535777703
 20
127.57461844
 30
0.0
 11
158.1535777703
 21
107.8446055761
 31
0.0
  0
LINE
  5
1E6
330
1F
100
AcDbEntity
  8
0
  6
SLD-Gestrichelt
 62
     7
370
     0
100
AcDbLine
 10
158.1535777703
 20
106.7096120677
 30
0.0
 11
158.1535777703
 21
105.8437884784
 31
0.0
  0
LINE
  5
1E7
330
1F
100
AcDbEntity
  8
0
  6
SLD-Gestrichelt
 62
     7
370
     0
100
AcDbLine
 10
193.6135776967
 20
134.6096112392
 30
0.0
 11
194.4935778782
 21
134.6096112392
 31
0.0
  0
LINE
  5
1E8
330
1F
100
AcDbEntity
  8
0
  6
SLD-Gestrichelt
 62
     7
370
     0
100
AcDbLine
 10
193.6135776967
 20
100.809612777
 30
0.0
 11
194.4935778782
 21
100.809612777
 31
0.0
  0
LINE
  5
1E9
330
1F
100
AcDbEntity
  8
0
  6
SLD-Gestrichelt
 62
     7
370
     0
100
AcDbLine
 10
198.0035780624
 20
136.5804891101
 30
0.0
 11
198.0035780624
 21
99.1055793128
 31
0.0
  0
ARC
  5
1EA
330
1F
100
AcDbEntity
  8
0
  6
SLD-Gestrichelt
 62
     7
370
     0
100
AcDbCircle
 10
197.3942884056
 20
136.5875285824
 30
0.0
 40
0.6093303209641313
100
AcDbArc
 50
359.3380584991
 51
89.126532193
  0
ARC
  5
1EB
330
1F
100
AcDbEntity
  8
0
  6
SLD-Gestrichelt
 62
     7
370
     0
100
AcDbCircle
 10
197.390706394
 20
99.093581023
 30
0.0
 40
0.6129891033281305
100
AcDbArc
 50
271.2031178686
 51
1.1215456616
  0
LWPOLYLINE
  5
1EC
330
1F
100
AcDbEntity
  8
0
  6
SLD-Gestrichelt
 62
     7
370
     0
100
AcDbPolyline
 90
        3
 70
   128
 43
0.0
 10
195.0935768589
 20
135.4232891461
 10
196.0226530835
 20
137.0792961678
 10
196.0887378707
 20
137.1967880985
  0
LINE
  5
1ED
330
1F
100
AcDbEntity
  8
0
  6
SLD-Gestrichelt
 62
     7
370
     0
100
AcDbLine
 10
196.0887378707
 20
137.1967880985
 30
0.0
 11
197.4035772189
 21
137.1967880985
 31
0.0
  0
LWPOLYLINE
  5
1EE
330
1F
100
AcDbEntity
  8
0
  6
SLD-Gestrichelt
 62
     7
370
     0
100
AcDbPolyline
 90
        3
 70
   128
 43
0.0
 10
192.0184177041
 20
137.1967880985
 10
192.08450156
 20
137.0792961678
 10
193.0135777846
 20
135.4232891461
  0
LINE
  5
1EF
330
1F
100
AcDbEntity
  8
0
  6
SLD-Gestrichelt
 62
     7
370
     0
100
AcDbLine
 10
196.0887378707
 20
137.1967880985
 30
0.0
 11
196.0887378707
 21
98.4807270578
 31
0.0
  0
LINE
  5
1F0
330
1F
100
AcDbEntity
  8
0
  6
SLD-Gestrichelt
 62
     7
370
     0
100
AcDbLine
 10
193.0135777846
 20
135.4232891461
 30
0.0
 11
193.0135777846
 21
100.2804893068
 31
0.0
  0
LINE
  5
1F1
330
1F
100
AcDbEntity
  8
0
  6
SLD-Gestrichelt
 62
     7
370
     0
100
AcDbLine
 10
195.0935768589
 20
135.4232891461
 30
0.0
 11
195.0935768589
 21
100.2804893068
 31
0.0
  0
ARC
  5
1F2
330
1F
100
AcDbEntity
  8
0
  6
SLD-Gestrichelt
 62
     7
370
     0
100
AcDbCircle
 10
215.330534942
 20
100.7552843426
 30
0.0
 40
2.116655670783385
100
AcDbArc
 50
111.7159930492
 51
169.0842462823
  0
LWPOLYLINE
  5
1F3
330
1F
100
AcDbEntity
  8
0
  6
SLD-Gestrichelt
 62
     7
370
     0
100
AcDbPolyline
 90
        3
 70
   128
 43
0.0
 10
192.0184177041
 20
98.4807270578
 10
192.9577291638
 20
100.1790813169
 10
193.0135777846
 20
100.2804893068
  0
LWPOLYLINE
  5
1F4
330
1F
100
AcDbEntity
  8
0
  6
SLD-Gestrichelt
 62
     7
370
     0
100
AcDbPolyline
 90
        3
 70
   128
 43
0.0
 10
195.0935768589
 20
100.2804893068
 10
195.1494264111
 20
100.1790813169
 10
196.0887378707
 20
98.4807270578
  0
LINE
  5
1F5
330
1F
100
AcDbEntity
  8
0
  6
SLD-Gestrichelt
 62
     7
370
     0
100
AcDbLine
 10
196.0887378707
 20
98.4807270578
 30
0.0
 11
197.4035772189
 21
98.4807270578
 31
0.0
  0
LINE
  5
1F6
330
1F
100
AcDbEntity
  8
0
  6
SLD-Gestrichelt
 62
     7
370
     0
100
AcDbLine
 10
158.1535777703
 20
105.8911397121
 30
0.0
 11
158.1535777703
 21
106.1620987019
 31
0.0
  0
LINE
  5
1F7
330
1F
100
AcDbEntity
  8
0
  6
SLD-Gestrichelt
 62
     7
370
     0
100
AcDbLine
 10
158.1535777703
 20
129.5835259369
 30
0.0
 11
158.1535777703
 21
129.4878437183
 31
0.0
  0
LWPOLYLINE
  5
1F8
330
1F
100
AcDbEntity
  8
0
  6
SLD-Gestrichelt
 62
     7
370
     0
100
AcDbPolyline
 90
       13
 70
   128
 43
0.0
 10
158.913548167
 20
130.0976923666
 10
158.7488251433
 20
129.7001247293
 10
158.6663397655
 20
129.5411423779
 10
158.5583752647
 20
129.3638893402
 10
158.5051390037
 20
129.2889756149
 10
158.440652366
 20
129.2102145961
 10
158.4018534675
 20
129.1700531727
 10
158.3624864623
 20
129.135979805
 10
158.3309705064
 20
129.1146087459
 10
158.2914041981
 20
129.0974835864
 10
158.2414257035
 20
129.0991785935
 10
158.1700975701
 20
129.2303423396
 10
158.1535777703
 20
129.4878437183
  0
LWPOLYLINE
  5
1F9
330
1F
100
AcDbEntity
  8
0
  6
SLD-Gestrichelt
 62
     7
370
     0
100
AcDbPolyline
 90
       11
 70
   128
 43
0.0
 10
158.1535777703
 20
106.1620987019
 10
158.1785614297
 20
106.4140792003
 10
158.237108092
 20
106.4934846944
 10
158.2889082536
 20
106.4940975046
 10
158.3226593837
 20
106.4798193982
 10
158.3664743856
 20
106.4501893705
 10
158.4099615619
 20
106.4114845357
 10
158.4576899812
 20
106.3605942762
 10
158.5262222841
 20
106.2748176044
 10
158.6654307947
 20
106.0612411237
 10
158.913548167
 20
105.5426266974
  0
LINE
  5
1FA
330
1F
100
AcDbEntity
  8
0
  6
SLD-Gestrichelt
 62
     7
370
     0
100
AcDbLine
 10
158.1535777703
 20
129.4878437183
 30
0.0
 11
158.1535777703
 21
106.1620987019
 31
0.0
  0
LINE
  5
1FB
330
1F
100
AcDbEntity
  8
0
  6
SLD-Gestrichelt
 62
     7
370
     0
100
AcDbLine
 10
231.0674610242
 20
93.1597962043
 30
0.0
 11
230.2751327559
 21
94.0940505824
 31
0.0
  0
LINE
  5
1FC
330
1F
100
AcDbEntity
  8
0
  6
SLD-Gestrichelt
 62
     7
370
     0
100
AcDbLine
 10
230.0987216338
 20
93.8382442108
 30
0.0
 11
230.8515357479
 21
92.9505839011
 31
0.0
  0
ELLIPSE
  5
1FD
330
1F
100
AcDbEntity
  8
0
  6
SLD-Gestrichelt
 62
     7
370
     0
100
AcDbEllipse
 10
224.2066044909
 20
117.7096120081
 30
0.0
 11
4.358616989052734
 21
2.842170943040401E-14
 31
0.0
210
0.0
220
0.0
230
1.0
 40
0.5735764364
 41
3.141592653589897
 42
4.068269337644494
  0
LWPOLYLINE
  5
1FE
330
1F
100
AcDbEntity
  8
0
  6
SLD-Gestrichelt
 62
     7
370
     0
100
AcDbPolyline
 90
       31
 70
   128
 43
0.0
 10
217.8555029139
 20
117.7096120081
 10
217.8241657719
 20
117.1898327883
 10
217.7315327033
 20
116.6927703888
 10
217.5816419229
 20
116.2401488981
 10
217.3810536668
 20
115.8517498987
 10
217.1385298178
 20
115.5445484909
 10
216.864672552
 20
115.3319706208
 10
216.5714475021
 20
115.2233071624
 10
216.2716733918
 20
115.2233071624
 10
215.9784483418
 20
115.3319706208
 10
215.7045910761
 20
115.5445484909
 10
215.4620672271
 20
115.8517498987
 10
215.2614789709
 20
116.2401488981
 10
215.1115919158
 20
116.6927703888
 10
215.0189551219
 20
117.1898327883
 10
214.9876179799
 20
117.7096120081
 10
215.0189551219
 20
118.2293912278
 10
215.1115919158
 20
118.7264536273
 10
215.2614789709
 20
119.179075118
 10
215.4620672271
 20
119.5674741174
 10
215.7045910761
 20
119.8746755252
 10
215.9784483418
 20
120.0872533953
 10
216.2716733918
 20
120.1959168537
 10
216.5714475021
 20
120.1959168537
 10
216.864672552
 20
120.0872533953
 10
217.1385298178
 20
119.8746755252
 10
217.3810536668
 20
119.5674741174
 10
217.5816419229
 20
119.179075118
 10
217.7315327033
 20
118.7264536273
 10
217.8241657719
 20
118.2293912278
 10
217.8555029139
 20
117.7096120081
  0
ELLIPSE
  5
1FF
330
1F
100
AcDbEntity
  8
0
  6
SLD-Gestrichelt
 62
     7
370
     0
100
AcDbEllipse
 10
221.805916217
 20
117.7096120081
 30
0.0
 11
-0.08476181922267756
 21
2.499949399079654
 31
0.0
210
0.0
220
0.0
230
1.0
 40
0.1876556925
 41
2.491110552769292
 42
6.90804518797411
  0
ELLIPSE
  5
200
330
1F
100
AcDbEntity
  8
0
  6
SLD-Gestrichelt
 62
     7
370
     0
100
AcDbEllipse
 10
252.263025496
 20
108.7096120081
 30
0.0
 11
24.85700249862001
 21
22.52634361167163
 31
0.0
210
0.0
220
0.0
230
1.0
 40
0.1868161121
 41
2.462696414988138
 42
2.47718751532239
  0
LWPOLYLINE
  5
201
330
1F
100
AcDbEntity
  8
0
  6
SLD-Gestrichelt
 62
     7
370
     0
100
AcDbPolyline
 90
        4
 70
   128
 43
0.0
 10
214.5473594472
 20
102.7217195368
 10
214.3330025181
 20
104.3921648523
 10
214.1161272928
 20
106.0958313754
 10
213.7865210578
 20
108.7096123955
  0
ELLIPSE
  5
202
330
1F
100
AcDbEntity
  8
0
  6
SLD-Gestrichelt
 62
     7
370
     0
100
AcDbEllipse
 10
224.0168950017
 20
108.7096120081
 30
0.0
 11
-11.87293857066288
 21
22.99037255572598
 31
0.0
210
0.0
220
0.0
230
1.0
 40
0.0560442098
 41
1.649445562936186
 42
2.230464553866768
  0
ELLIPSE
  5
203
330
1F
100
AcDbEntity
  8
0
  6
SLD-Gestrichelt
 62
     7
370
     0
100
AcDbEllipse
 10
199.6762642838
 20
108.7096120081
 30
0.0
 11
41.77736962349224
 21
-22.9145213730486
 31
0.0
210
0.0
220
0.0
230
1.0
 40
0.0474201264
 41
0.7814609849463332
 42
1.164311841617482
  0
LWPOLYLINE
  5
204
330
1F
100
AcDbEntity
  8
0
  6
SLD-Gestrichelt
 62
     7
370
     0
100
AcDbPolyline
 90
        3
 70
   128
 43
0.0
 10
223.6652346954
 20
106.2399479559
 10
223.0899604663
 20
107.4481899849
 10
222.6033630475
 20
108.7096123955
  0
LWPOLYLINE
  5
205
330
1F
100
AcDbEntity
  8
0
  6
SLD-Gestrichelt
 62
     7
370
     0
100
AcDbPolyline
 90
        3
 70
   128
 43
0.0
 10
214.5473594472
 20
102.7217195368
 10
215.3041000172
 20
102.4160734377
 10
217.1923826143
 20
101.4692685566
  0
CIRCLE
  5
206
330
1F
100
AcDbEntity
  8
0
  6
SLD-Gestrichelt
 62
     7
370
     0
100
AcDbCircle
 10
185.0535774931
 20
117.7096120081
 30
0.0
 40
5.0
  0
LWPOLYLINE
  5
207
330
1F
100
AcDbEntity
  8
0
  6
SLD-Gestrichelt
 62
     7
370
     0
100
AcDbPolyline
 90
        3
 70
   128
 43
0.0
 10
213.7865210578
 20
108.7096123955
 10
213.4580137834
 20
111.7650577797
 10
213.2521765932
 20
114.8358825593
  0
ELLIPSE
  5
208
330
1F
100
AcDbEntity
  8
0
  6
SLD-Gestrichelt
 62
     7
370
     0
100
AcDbEllipse
 10
238.9215227008
 20
113.8013361119
 30
0.0
 11
11.41467219094687
 21
-13.45933439009027
 31
-3.552713678800500E-15
210
1.302079541210947E-16
220
-1.535315570564775E-16
230
1.0
 40
0.9632873408
 41
4.02739751941682
 42
4.324727198359954
  0
LINE
  5
209
330
1F
100
AcDbEntity
  8
0
  6
SLD-Gestrichelt
 62
     7
370
     0
100
AcDbLine
 10
221.6592701778
 20
113.8013359158
 30
0.0
 11
221.5892794237
 21
115.7105402088
 31
0.0
  0
LINE
  5
20A
330
1F
100
AcDbEntity
  8
0
  6
SLD-Gestrichelt
 62
     7
370
     0
100
AcDbLine
 10
178.0535774931
 20
101.5024106017
 30
0.0
 11
178.1477382654
 21
102.1724003366
 31
0.0
  0
LINE
  5
20B
330
1F
100
AcDbEntity
  8
0
  6
SLD-Gestrichelt
 62
     7
370
     0
100
AcDbLine
 10
178.1477382654
 20
133.2468236795
 30
0.0
 11
178.0535774931
 21
133.9168134144
 31
0.0
  0
ARC
  5
20C
330
1F
100
AcDbEntity
  8
0
  6
SLD-Gestrichelt
 62
     7
370
     0
100
AcDbCircle
 10
177.5535707405
 20
102.2559048546
 30
0.0
 40
0.6000067526677242
100
AcDbArc
 50
352.0
 51
0.0
  0
ARC
  5
20D
330
1F
100
AcDbEntity
  8
0
  6
SLD-Gestrichelt
 62
     7
370
     0
100
AcDbCircle
 10
177.5535707405
 20
102.2559048546
 30
0.0
 40
0.6000067526677242
100
AcDbArc
 50
0.0
 51
33.5571153394
  0
ARC
  5
20E
330
1F
100
AcDbEntity
  8
0
  6
SLD-Gestrichelt
 62
     7
370
     0
100
AcDbCircle
 10
177.5535707405
 20
133.1633191615
 30
0.0
 40
0.6000067526677081
100
AcDbArc
 50
348.75
 51
8.0
  0
LWPOLYLINE
  5
20F
330
1F
100
AcDbEntity
  8
0
  6
SLD-Gestrichelt
 62
     7
370
     0
100
AcDbPolyline
 90
        3
 70
   128
 43
0.0
 10
178.142048532
 20
133.0462633631
 10
178.1079047003
 20
132.9337065107
 10
178.0535774931
 20
132.8316549769
  0
LINE
  5
210
330
1F
100
AcDbEntity
  8
0
  6
SLD-Gestrichelt
 62
     7
370
     0
100
AcDbLine
 10
178.1535774906
 20
102.2559045813
 30
0.0
 11
178.1535774906
 21
133.1633194348
 31
0.0
  0
LINE
  5
211
330
1F
100
AcDbEntity
  8
0
  6
SLD-Gestrichelt
 62
     7
370
     0
100
AcDbLine
 10
178.1535774906
 20
102.2559045813
 30
0.0
 11
178.1535774906
 21
133.1633194348
 31
0.0
  0
ARC
  5
212
330
1F
100
AcDbEntity
  8
0
  6
SLD-Gestrichelt
 62
     7
370
     0
100
AcDbCircle
 10
167.5862054373
 20
105.3596120081
 30
0.0
 40
0.3999999999999927
100
AcDbArc
 50
210.0
 51
270.0
  0
ARC
  5
213
330
1F
100
AcDbEntity
  8
0
  6
SLD-Gestrichelt
 62
     7
370
     0
100
AcDbCircle
 10
167.5862054373
 20
130.0596120081
 30
0.0
 40
0.4000000000000057
100
AcDbArc
 50
90.0
 51
150.0
  0
LINE
  5
214
330
1F
100
AcDbEntity
  8
0
  6
SLD-Gestrichelt
 62
     7
370
     0
100
AcDbLine
 10
167.5862055898
 20
104.9596122465
 30
0.0
 11
169.7843522459
 21
104.9596122465
 31
0.0
  0
LINE
  5
215
330
1F
100
AcDbEntity
  8
0
  6
SLD-Gestrichelt
 62
     7
370
     0
100
AcDbLine
 10
169.7843522459
 20
130.4596117696
 30
0.0
 11
167.5862055898
 21
130.4596117696
 31
0.0
  0
ARC
  5
216
330
1F
100
AcDbEntity
  8
0
  6
SLD-Gestrichelt
 62
     7
370
     0
100
AcDbCircle
 10
173.877754221
 20
109.9596120081
 30
0.0
 40
5.000000000000012
100
AcDbArc
 50
275.4126951807
 51
326.6329870308
  0
ARC
  5
217
330
1F
100
AcDbEntity
  8
0
  6
SLD-Gestrichelt
 62
     7
370
     0
100
AcDbCircle
 10
173.877754221
 20
125.4596120081
 30
0.0
 40
4.999999999999995
100
AcDbArc
 50
33.3670129692
 51
84.5895486445
  0
LINE
  5
218
330
1F
100
AcDbEntity
  8
0
  6
SLD-Gestrichelt
 62
     7
370
     0
100
AcDbLine
 10
167.2397955015
 20
130.2596121094
 30
0.0
 11
166.0562270015
 21
128.2096118665
 31
0.0
  0
LINE
  5
219
330
1F
100
AcDbEntity
  8
0
  6
SLD-Gestrichelt
 62
     7
370
     0
100
AcDbLine
 10
166.0562270015
 20
107.2096121496
 30
0.0
 11
167.2397955015
 21
105.1596119067
 31
0.0
  0
ARC
  5
21A
330
1F
100
AcDbEntity
  8
0
  6
SLD-Gestrichelt
 62
     7
370
     0
100
AcDbCircle
 10
185.0035774931
 20
107.8346120081
 30
0.0
 40
1.00000000000001
100
AcDbArc
 50
218.6821874535
 51
0.0
  0
ARC
  5
21B
330
1F
100
AcDbEntity
  8
0
  6
SLD-Gestrichelt
 62
     7
370
     0
100
AcDbCircle
 10
185.0035774931
 20
127.5846120081
 30
0.0
 40
1.000000000000001
100
AcDbArc
 50
0.0
 51
141.3178125465
  0
LINE
  5
21C
330
1F
100
AcDbEntity
  8
0
  6
SLD-Gestrichelt
 62
     7
370
     0
100
AcDbLine
 10
214.1969586417
 20
126.936635468
 30
0.0
 11
213.5891924307
 21
127.6532704941
 31
0.0
  0
LINE
  5
21D
330
1F
100
AcDbEntity
  8
0
  6
SLD-Gestrichelt
 62
     7
370
     0
100
AcDbLine
 10
164.2535776526
 20
107.2096121496
 30
0.0
 11
166.0562270015
 21
107.2096121496
 31
0.0
  0
LINE
  5
21E
330
1F
100
AcDbEntity
  8
0
  6
SLD-Gestrichelt
 62
     7
370
     0
100
AcDbLine
 10
166.0562270015
 20
128.2096118665
 30
0.0
 11
161.7535772428
 21
128.2096118665
 31
0.0
  0
LINE
  5
21F
330
1F
100
AcDbEntity
  8
0
  6
SLD-Gestrichelt
 62
     7
370
     0
100
AcDbLine
 10
178.0535774931
 20
107.2096121496
 30
0.0
 11
184.2229525253
 21
107.2096121496
 31
0.0
  0
LINE
  5
220
330
1F
100
AcDbEntity
  8
0
  6
SLD-Gestrichelt
 62
     7
370
     0
100
AcDbLine
 10
184.2229525253
 20
128.2096118665
 30
0.0
 11
178.0535774931
 21
128.2096118665
 31
0.0
  0
LINE
  5
221
330
1F
100
AcDbEntity
  8
0
  6
SLD-Gestrichelt
 62
     7
370
     0
100
AcDbLine
 10
211.6453024253
 20
122.3858743905
 30
0.0
 11
212.2530686364
 21
121.6692388988
 31
0.0
  0
LINE
  5
222
330
1F
100
AcDbEntity
  8
0
  6
SLD-Gestrichelt
 62
     7
370
     0
100
AcDbLine
 10
208.133035402
 20
110.47551129
 30
0.0
 11
209.4597081348
 21
108.9111980981
 31
0.0
  0
LINE
  5
223
330
1F
100
AcDbEntity
  8
0
  6
SLD-Gestrichelt
 62
     7
370
     0
100
AcDbLine
 10
219.9186096594
 20
115.9315643598
 30
0.0
 11
219.2240181074
 21
116.7505765332
 31
0.0
  0
LINE
  5
224
330
1F
100
AcDbEntity
  8
0
  6
SLD-Gestrichelt
 62
     7
370
     0
100
AcDbLine
 10
214.4955294833
 20
112.7404132857
 30
0.0
 11
215.1901247606
 21
111.921400763
 31
0.0
  0
LINE
  5
225
330
1F
100
AcDbEntity
  8
0
  6
SLD-Gestrichelt
 62
     7
370
     0
100
AcDbLine
 10
191.3535772517
 20
111.4596119149
 30
0.0
 11
193.8535767302
 21
111.4596119149
 31
0.0
  0
LINE
  5
226
330
1F
100
AcDbEntity
  8
0
  6
SLD-Gestrichelt
 62
     7
370
     0
100
AcDbLine
 10
193.8535767302
 20
123.9596121012
 30
0.0
 11
191.3535772517
 21
123.9596121012
 31
0.0
  0
LINE
  5
227
330
1F
100
AcDbEntity
  8
0
  6
SLD-Gestrichelt
 62
     7
370
     0
100
AcDbLine
 10
186.003577958
 20
111.7096119559
 30
0.0
 11
186.5035771087
 21
112.2096120379
 31
0.0
  0
LINE
  5
228
330
1F
100
AcDbEntity
  8
0
  6
SLD-Gestrichelt
 62
     7
370
     0
100
AcDbLine
 10
186.5035771087
 20
123.2096119783
 30
0.0
 11
186.003577958
 21
123.7096120602
 31
0.0
  0
LINE
  5
229
330
1F
100
AcDbEntity
  8
0
  6
SLD-Gestrichelt
 62
     7
370
     0
100
AcDbLine
 10
186.5035771087
 20
112.2096120379
 30
0.0
 11
191.3535772517
 21
112.2096120379
 31
0.0
  0
LINE
  5
22A
330
1F
100
AcDbEntity
  8
0
  6
SLD-Gestrichelt
 62
     7
370
     0
100
AcDbLine
 10
191.3535772517
 20
123.2096119783
 30
0.0
 11
186.5035771087
 21
123.2096119783
 31
0.0
  0
LINE
  5
22B
330
1F
100
AcDbEntity
  8
0
  6
SLD-Gestrichelt
 62
     7
370
     0
100
AcDbLine
 10
186.003577958
 20
137.709611561
 30
0.0
 11
186.003577958
 21
134.6096112392
 31
0.0
  0
LINE
  5
22C
330
1F
100
AcDbEntity
  8
0
  6
SLD-Gestrichelt
 62
     7
370
     0
100
AcDbLine
 10
218.7038185701
 20
116.4363130227
 30
0.0
 11
216.3769873485
 21
119.1799429943
 31
0.0
  0
LINE
  5
22D
330
1F
100
AcDbEntity
  8
0
  6
SLD-Gestrichelt
 62
     7
370
     0
100
AcDbLine
 10
212.7935896322
 20
115.6748582142
 30
0.0
 11
214.8905220136
 21
113.2023101671
 31
0.0
  0
LINE
  5
22E
330
1F
100
AcDbEntity
  8
0
  6
SLD-Gestrichelt
 62
     7
370
     0
100
AcDbLine
 10
212.3484025404
 20
116.199789103
 30
0.0
 11
212.4404395625
 21
116.0912688355
 31
0.0
  0
LINE
  5
22F
330
1F
100
AcDbEntity
  8
0
  6
SLD-Gestrichelt
 62
     7
370
     0
100
AcDbLine
 10
174.8207568351
 20
102.6683072558
 30
0.0
 11
174.352828243
 21
103.1641443259
 31
0.0
  0
LINE
  5
230
330
1F
100
AcDbEntity
  8
0
  6
SLD-Gestrichelt
 62
     7
370
     0
100
AcDbLine
 10
169.7549233839
 20
103.4439974463
 30
0.0
 11
169.2374498278
 21
102.9481724835
 31
0.0
  0
LINE
  5
231
330
1F
100
AcDbEntity
  8
0
  6
SLD-Gestrichelt
 62
     7
370
     0
100
AcDbLine
 10
169.2368155971
 20
132.4711018241
 30
0.0
 11
169.7545014948
 21
131.9752144626
 31
0.0
  0
LINE
  5
232
330
1F
100
AcDbEntity
  8
0
  6
SLD-Gestrichelt
 62
     7
370
     0
100
AcDbLine
 10
174.3521423239
 20
132.2548617608
 30
0.0
 11
174.820046236
 21
132.7507556415
 31
0.0
  0
LINE
  5
233
330
1F
100
AcDbEntity
  8
0
  6
SLD-Gestrichelt
 62
     7
370
     0
100
AcDbLine
 10
193.8535767302
 20
115.2096120639
 30
0.0
 11
203.1535776958
 21
115.2096120639
 31
0.0
  0
LINE
  5
234
330
1F
100
AcDbEntity
  8
0
  6
SLD-Gestrichelt
 62
     7
370
     0
100
AcDbLine
 10
203.1535776958
 20
120.2096119522
 30
0.0
 11
193.8535767302
 21
120.2096119522
 31
0.0
  0
LINE
  5
235
330
1F
100
AcDbEntity
  8
0
  6
SLD-Gestrichelt
 62
     7
370
     0
100
AcDbLine
 10
203.1535776958
 20
115.2096120639
 30
0.0
 11
204.6557283655
 21
117.7096120081
 31
0.0
  0
LINE
  5
236
330
1F
100
AcDbEntity
  8
0
  6
SLD-Gestrichelt
 62
     7
370
     0
100
AcDbLine
 10
204.6557283655
 20
117.7096120081
 30
0.0
 11
203.1535776958
 21
120.2096119522
 31
0.0
  0
LINE
  5
237
330
1F
100
AcDbEntity
  8
0
  6
SLD-Gestrichelt
 62
     7
370
     0
100
AcDbLine
 10
174.353577492
 20
103.1761993653
 30
0.0
 11
174.353577492
 21
104.9827574751
 31
0.0
  0
LINE
  5
238
330
1F
100
AcDbEntity
  8
0
  6
SLD-Gestrichelt
 62
     7
370
     0
100
AcDbLine
 10
169.7535776228
 20
104.9651145002
 30
0.0
 11
169.7535776228
 21
103.4510056487
 31
0.0
  0
LINE
  5
239
330
1F
100
AcDbEntity
  8
0
  6
SLD-Gestrichelt
 62
     7
370
     0
100
AcDbLine
 10
174.353577492
 20
130.436466541
 30
0.0
 11
174.353577492
 21
132.2546512819
 31
0.0
  0
LINE
  5
23A
330
1F
100
AcDbEntity
  8
0
  6
SLD-Gestrichelt
 62
     7
370
     0
100
AcDbLine
 10
169.7535776228
 20
131.974112708
 30
0.0
 11
169.7535776228
 21
130.4541095159
 31
0.0
  0
LINE
  5
23B
330
1F
100
AcDbEntity
  8
0
  6
SLD-Gestrichelt
 62
     7
370
     0
100
AcDbLine
 10
213.3441949889
 20
119.8096119332
 30
0.0
 11
201.8851517394
 21
119.8096119332
 31
0.0
  0
LINE
  5
23C
330
1F
100
AcDbEntity
  8
0
  6
SLD-Gestrichelt
 62
     7
370
     0
100
AcDbLine
 10
216.2246825799
 20
119.8096119332
 30
0.0
 11
215.3521190092
 21
119.8096119332
 31
0.0
  0
LINE
  5
23D
330
1F
100
AcDbEntity
  8
0
  6
SLD-Gestrichelt
 62
     7
370
     0
100
AcDbLine
 10
215.5890549228
 20
115.6096120829
 30
0.0
 11
216.2246825799
 21
115.6096120829
 31
0.0
  0
LINE
  5
23E
330
1F
100
AcDbEntity
  8
0
  6
SLD-Gestrichelt
 62
     7
370
     0
100
AcDbLine
 10
201.8769058093
 20
115.6096120829
 30
0.0
 11
212.8493274257
 21
115.6096120829
 31
0.0
  0
ARC
  5
23F
330
1F
100
AcDbEntity
  8
0
  6
SLD-Gestrichelt
 62
     7
370
     0
100
AcDbCircle
 10
160.8535774931
 20
131.4896120081
 30
0.0
 40
0.8999999999999773
100
AcDbArc
 50
270.0
 51
311.1792132368
  0
ARC
  5
240
330
1F
100
AcDbEntity
  8
0
  6
SLD-Gestrichelt
 62
     7
370
     0
100
AcDbCircle
 10
163.3535774931
 20
103.9886120081
 30
0.0
 40
0.8999999999999915
100
AcDbArc
 50
29.8499024808
 51
90.0
  0
LINE
  5
241
330
1F
100
AcDbEntity
  8
0
  6
SLD-Gestrichelt
 62
     7
370
     0
100
AcDbLine
 10
222.6313362524
 20
103.9359890855
 30
0.0
 11
220.7646193609
 21
106.1370843089
 31
0.0
  0
LINE
  5
242
330
1F
100
AcDbEntity
  8
0
  6
SLD-Gestrichelt
 62
     7
370
     0
100
AcDbLine
 10
218.2478430375
 20
104.0026429108
 30
0.0
 11
220.1145636544
 21
101.8015476874
 31
0.0
  0
LINE
  5
243
330
1F
100
AcDbEntity
  8
0
  6
SLD-Gestrichelt
 62
     7
370
     0
100
AcDbLine
 10
159.1035770878
 20
104.8886119387
 30
0.0
 11
163.3535773188
 21
104.8886119387
 31
0.0
  0
LINE
  5
244
330
1F
100
AcDbEntity
  8
0
  6
SLD-Gestrichelt
 62
     7
370
     0
100
AcDbLine
 10
160.853576909
 20
130.5896122939
 30
0.0
 11
159.1035770878
 21
130.5896122939
 31
0.0
  0
LINE
  5
245
330
1F
100
AcDbEntity
  8
0
  6
SLD-Gestrichelt
 62
     7
370
     0
100
AcDbLine
 10
159.1035770878
 20
130.5896122939
 30
0.0
 11
158.1535777703
 21
129.639612045
 31
0.0
  0
LINE
  5
246
330
1F
100
AcDbEntity
  8
0
  6
SLD-Gestrichelt
 62
     7
370
     0
100
AcDbLine
 10
158.1535777703
 20
105.8386121875
 30
0.0
 11
159.1035770878
 21
104.8886119387
 31
0.0
  0
LINE
  5
247
330
1F
100
AcDbEntity
  8
0
  6
SLD-Gestrichelt
 62
     7
370
     0
100
AcDbLine
 10
221.724142383
 20
120.2096119522
 30
0.0
 11
216.4215604469
 21
120.2096119522
 31
0.0
  0
LINE
  5
248
330
1F
100
AcDbEntity
  8
0
  6
SLD-Gestrichelt
 62
     7
370
     0
100
AcDbLine
 10
216.4215604469
 20
115.2096120639
 30
0.0
 11
221.8876900777
 21
115.2096120639
 31
0.0
  0
LINE
  5
249
330
1F
100
AcDbEntity
  8
VERMASSUNG
100
AcDbLine
 10
232.1060057022
 20
91.49266294
 30
0.0
 11
236.130953704
 21
91.49266294
 31
0.0
  0
DIMENSION
  5
24A
330
1F
100
AcDbEntity
  8
VERMASSUNG
100
AcDbDimension
  2
_D
 10
226.5214901708
 20
104.4545275217
 30
0.0
 11
237.9617795456
 21
99.6128482904
 31
0.0
 70
   162
  1
<>
 71
     1
 42
-1.0
  3
SLDDIMSTYLE0
100
AcDb2LineAngularDimension
 13
236.130953704
 23
91.49266294
 33
0.0
 14
232.1060057022
 24
91.49266294
 34
0.0
 15
233.0146506738
 25
91.2837397207
 35
0.0
 16
237.9617795456
 26
99.6128482904
 36
0.0
  0
DIMENSION
  5
254
330
1F
100
AcDbEntity
  8
VERMASSUNG
100
AcDbDimension
  2
_D_1
 10
158.1535774931
 20
153.7096120081
 30
0.0
 11
195.6035774931
 21
153.7096120081
 31
0.0
 70
   160
  1
<>
 71
     2
 42
-1.0
  3
SLDDIMSTYLE1
100
AcDbAlignedDimension
 13
233.0535774931
 23
90.7096120081
 33
0.0
 14
158.1535774931
 24
129.6396120081
 34
0.0
 50
0.0
100
AcDbRotatedDimension
  0
DIMENSION
  5
25F
330
1F
100
AcDbEntity
  8
VERMASSUNG
100
AcDbDimension
  2
_D_2
 10
233.0535774931
 20
147.7096120081
 30
0.0
 11
205.5535774931
 21
147.7096120081
 31
0.0
 70
   160
  1
<>
 71
     2
 42
-1.0
  3
SLDDIMSTYLE1
100
AcDbAlignedDimension
 13
178.0535774931
 23
137.4096120081
 33
0.0
 14
233.0535774931
 24
90.7096120081
 34
0.0
100
AcDbRotatedDimension
  0
DIMENSION
  5
269
330
1F
100
AcDbEntity
  8
VERMASSUNG
100
AcDbDimension
  2
_D_3
 10
153.4029922906
 20
97.7096120081
 30
0.0
 11
153.4029922906
 21
117.7096120081
 31
0.0
 70
   160
  1
HSK %%c<>
 71
     2
 42
-1.0
  3
SLDDIMSTYLE1
100
AcDbAlignedDimension
 13
178.3535774931
 23
137.7096120081
 33
0.0
 14
178.3535774931
 24
97.7096120081
 34
0.0
 50
90.0
100
AcDbRotatedDimension
  0
DIMENSION
  5
275
330
1F
100
AcDbEntity
  8
VERMASSUNG
100
AcDbDimension
  2
_D_4
 10
250.7846328882
 20
90.7096120081
 30
0.0
 11
250.7846328882
 21
104.2096120081
 31
0.0
 70
   160
  1
<>
 71
     2
 42
-1.0
  3
SLDDIMSTYLE1
100
AcDbAlignedDimension
 13
227.9951114714
 23
117.7096120081
 33
0.0
 14
233.0535774931
 24
90.7096120081
 34
0.0
 50
90.0
100
AcDbRotatedDimension
  0
LINE
  5
27F
330
1F
100
AcDbEntity
  8
VERMASSUNG
  6
SLD-Punktstrich
370
     0
100
AcDbLine
 10
156.5771250217
 20
117.7096120081
 30
0.0
 11
227.9951114714
 21
117.7096120081
 31
0.0
  0
LINE
  5
280
330
1F
100
AcDbEntity
  8
0
  6
SLD-Durchgehend
 62
     7
370
    15
100
AcDbLine
 10
71.6247132641
 20
120.1479893642
 30
0.0
 11
71.4001378637
 21
120.023685973
 31
0.0
  0
LINE
  5
281
330
1F
100
AcDbEntity
  8
0
  6
SLD-Durchgehend
 62
     7
370
    15
100
AcDbLine
 10
76.403478406
 20
121.1658942046
 30
0.0
 11
71.6377536428
 21
120.1529081444
 31
0.0
  0
ARC
  5
282
330
1F
100
AcDbEntity
  8
0
  6
SLD-Durchgehend
 62
     7
370
    15
100
AcDbCircle
 10
70.7323794879
 20
113.2173359275
 30
0.0
 40
3.666113269306919
100
AcDbArc
 50
124.627522127
 51
187.1124988006
  0
LWPOLYLINE
  5
283
330
1F
100
AcDbEntity
  8
0
  6
SLD-Durchgehend
 62
     7
370
    15
100
AcDbPolyline
 90
       19
 70
   128
 43
0.0
 10
67.0944771391
 20
112.7634053117
 10
67.1076479029
 20
112.4704326502
 10
67.1562033367
 20
111.8976376018
 10
67.2371278178
 20
111.2699890508
 10
67.3396217298
 20
110.655307304
 10
67.4615262669
 20
110.0470745003
 10
67.6013382744
 20
109.4477935693
 10
67.7577892911
 20
108.8639176449
 10
67.9314250719
 20
108.2991338334
 10
68.1277702224
 20
107.7490267343
 10
68.3677739125
 20
107.1886089629
 10
68.6324073594
 20
106.694842223
 10
68.8635672104
 20
106.350687798
 10
69.142280392
 20
106.0182261279
 10
69.4750140082
 20
105.709188152
 10
69.862703107
 20
105.4385169408
 10
70.3004042279
 20
105.2216761744
 10
70.776643477
 20
105.072677601
 10
71.0277354937
 20
105.0368095747
  0
LINE
  5
284
330
1F
100
AcDbEntity
  8
0
  6
SLD-Durchgehend
 62
     7
370
    15
100
AcDbLine
 10
71.1074753326
 20
105.0260853952
 30
0.0
 11
73.0340501886
 21
105.4355916566
 31
0.0
  0
LINE
  5
285
330
1F
100
AcDbEntity
  8
0
  6
SLD-Durchgehend
 62
     7
370
    15
100
AcDbLine
 10
70.6430657428
 20
116.6842887177
 30
0.0
 11
68.7164908868
 21
116.2747826892
 31
0.0
  0
LWPOLYLINE
  5
286
330
1F
100
AcDbEntity
  8
0
  6
SLD-Durchgehend
 62
     7
370
    15
100
AcDbPolyline
 90
       19
 70
   128
 43
0.0
 10
86.2193999473
 20
110.5702579952
 10
86.2565518018
 20
110.7625183648
 10
86.2812462855
 20
111.1296429298
 10
86.274514686
 20
111.5827956236
 10
86.2393232655
 20
112.0739737524
 10
86.1791169863
 20
112.601884175
 10
86.0960849222
 20
113.1581873632
 10
85.9924999658
 20
113.7312161735
 10
85.8709670265
 20
114.3078340682
 10
85.7344211672
 20
114.8743969387
 10
85.5861099098
 20
115.4171498491
 10
85.4292500425
 20
115.9234938676
 10
85.2667165581
 20
116.382421227
 10
85.1002324034
 20
116.7855537495
 10
84.9279810336
 20
117.1292116631
 10
84.7346319478
 20
117.4198561347
 10
84.5758572813
 20
117.5824078672
 10
84.4094448384
 20
117.6884170599
 10
84.3603334051
 20
117.7023135332
  0
LINE
  5
287
330
1F
100
AcDbEntity
  8
0
  6
SLD-Durchgehend
 62
     7
370
    15
100
AcDbLine
 10
70.8475487899
 20
117.4625782004
 30
0.0
 11
70.4309346747
 21
116.7986737563
 31
0.0
  0
LINE
  5
288
330
1F
100
AcDbEntity
  8
0
  6
SLD-Durchgehend
 62
     7
370
    15
100
AcDbLine
 10
72.8867838752
 20
105.2448139525
 30
0.0
 11
74.0247762423
 21
104.4803797266
 31
0.0
  0
LINE
  5
289
330
1F
100
AcDbEntity
  8
0
  6
SLD-Durchgehend
 62
     7
370
    15
100
AcDbLine
 10
74.2572269064
 20
104.4176598078
 30
0.0
 11
78.6800768819
 21
105.3577656856
 31
0.0
  0
LINE
  5
28A
330
1F
100
AcDbEntity
  8
0
  6
SLD-Durchgehend
 62
     7
370
    15
100
AcDbLine
 10
78.7935557436
 20
105.4190662688
 30
0.0
 11
80.0609972921
 21
106.5809358841
 31
0.0
  0
ARC
  5
28B
330
1F
100
AcDbEntity
  8
0
  6
SLD-Durchgehend
 62
     7
370
    15
100
AcDbCircle
 10
105.8968976318
 20
117.7096120081
 30
0.0
 40
1.999999999999999
100
AcDbArc
 50
293.08822277
 51
66.91177723
  0
LINE
  5
28C
330
1F
100
AcDbEntity
  8
0
  6
SLD-Durchgehend
 62
     7
370
    15
100
AcDbLine
 10
81.5807099115
 20
128.8743414915
 30
0.0
 11
78.8877413269
 21
128.301932942
 31
0.0
  0
LINE
  5
28D
330
1F
100
AcDbEntity
  8
0
  6
SLD-Durchgehend
 62
     7
370
    15
100
AcDbLine
 10
77.0825876516
 20
126.503553707
 30
0.0
 11
76.081283636
 21
121.4732225052
 31
0.0
  0
LINE
  5
28E
330
1F
100
AcDbEntity
  8
0
  6
SLD-Durchgehend
 62
     7
370
    15
100
AcDbLine
 10
92.6709621617
 20
90.709877666
 30
0.0
 11
97.2562099468
 21
91.684503015
 31
0.0
  0
LINE
  5
28F
330
1F
100
AcDbEntity
  8
0
  6
SLD-Durchgehend
 62
     7
370
    15
100
AcDbLine
 10
90.4002699662
 20
96.1574180982
 30
0.0
 11
90.8647363667
 21
95.6122833303
 31
0.0
  0
LINE
  5
290
330
1F
100
AcDbEntity
  8
0
  6
SLD-Durchgehend
 62
     7
370
    15
100
AcDbLine
 10
97.2785751928
 20
91.8349134734
 30
0.0
 11
99.9621988867
 21
92.4053355119
 31
0.0
  0
LINE
  5
291
330
1F
100
AcDbEntity
  8
0
  6
SLD-Durchgehend
 62
     7
370
    15
100
AcDbLine
 10
99.9755447392
 20
92.4161816946
 30
0.0
 11
100.1941498962
 21
92.7645447663
 31
0.0
  0
ARC
  5
292
330
1F
100
AcDbEntity
  8
0
  6
SLD-Durchgehend
 62
     7
370
    15
100
AcDbCircle
 10
69.4630535238
 20
118.3232676032
 30
0.0
 40
2.828848235211559
100
AcDbArc
 50
358.8053911872
 51
40.1687142346
  0
LINE
  5
293
330
1F
100
AcDbEntity
  8
0
  6
SLD-Durchgehend
 62
     7
370
    15
100
AcDbLine
 10
71.3268092495
 20
119.7306830435
 30
0.0
 11
71.3661520403
 21
119.7500908746
 31
0.0
  0
LWPOLYLINE
  5
294
330
1F
100
AcDbEntity
  8
0
  6
SLD-Durchgehend
 62
     7
370
    15
100
AcDbPolyline
 90
       10
 70
   128
 43
0.0
 10
71.334816761
 20
119.8521088807
 10
71.3713842105
 20
119.9922261293
 10
71.4339448732
 20
120.0277442111
 10
71.5176800859
 20
119.9559269006
 10
71.6161395084
 20
119.7823067194
 10
71.7217365872
 20
119.5202596717
 10
71.8263390135
 20
119.1899736876
 10
71.9218852591
 20
118.8168940133
 10
72.0010141503
 20
118.429762544
 10
72.036966927
 20
118.210233515
  0
ARC
  5
295
330
1F
100
AcDbEntity
  8
0
  6
SLD-Durchgehend
 62
     7
370
    15
100
AcDbCircle
 10
77.5906093533
 20
119.8887016963
 30
0.0
 40
6.265792977400656
100
AcDbArc
 50
181.445110287
 51
196.4588535797
  0
LINE
  5
296
330
1F
100
AcDbEntity
  8
0
  6
SLD-Durchgehend
 62
     7
370
    15
100
AcDbLine
 10
71.3871235621
 20
119.5576013996
 30
0.0
 11
71.3268092495
 21
119.7306830435
 31
0.0
  0
LWPOLYLINE
  5
297
330
1F
100
AcDbEntity
  8
0
  6
SLD-Durchgehend
 62
     7
370
    15
100
AcDbPolyline
 90
       10
 70
   128
 43
0.0
 10
71.3938682001
 20
119.6598546811
 10
71.4289976877
 20
119.7848955634
 10
71.4901762676
 20
119.802844012
 10
71.5717061084
 20
119.7120293508
 10
71.6659969312
 20
119.5209054275
 10
71.7642738145
 20
119.2472645779
 10
71.8573855829
 20
118.9165802206
 10
71.936667211
 20
118.5596364083
 10
71.9947351735
 20
118.2096616829
 10
71.9958359968
 20
118.2014906661
  0
ARC
  5
298
330
1F
100
AcDbEntity
  8
0
  6
SLD-Durchgehend
 62
     7
370
    15
100
AcDbCircle
 10
76.7632100368
 20
119.7028615725
 30
0.0
 40
5.378048558892644
100
AcDbArc
 50
181.547737443
 51
197.0924242285
  0
LINE
  5
299
330
1F
100
AcDbEntity
  8
0
  6
SLD-Durchgehend
 62
     7
370
    15
100
AcDbLine
 10
71.3938682001
 20
119.6598546811
 30
0.0
 11
71.334816761
 21
119.8521088807
 31
0.0
  0
LINE
  5
29A
330
1F
100
AcDbEntity
  8
0
  6
SLD-Durchgehend
 62
     7
370
    15
100
AcDbLine
 10
71.6272054833
 20
119.6086321723
 30
0.0
 11
71.3871235621
 21
119.5576013996
 31
0.0
  0
LINE
  5
29B
330
1F
100
AcDbEntity
  8
0
  6
SLD-Durchgehend
 62
     7
370
    15
100
AcDbLine
 10
71.5794547122
 20
119.699302595
 30
0.0
 11
71.3938682001
 21
119.6598546811
 31
0.0
  0
ARC
  5
29C
330
1F
100
AcDbEntity
  8
0
  6
SLD-Durchgehend
 62
     7
370
    15
100
AcDbCircle
 10
79.2364022753
 20
120.1848471443
 30
0.0
 40
4.408210712830332
100
AcDbArc
 50
0.5971324575
 51
31.4292605967
  0
LWPOLYLINE
  5
29D
330
1F
100
AcDbEntity
  8
0
  6
SLD-Durchgehend
 62
     7
370
    15
100
AcDbPolyline
 90
       26
 70
   128
 43
0.0
 10
71.0428452712
 20
105.0242823547
 10
71.048688389
 20
105.0235279834
 10
71.180325247
 20
105.0596428102
 10
71.2883363139
 20
105.1999037153
 10
71.3707080704
 20
105.4416974074
 10
71.4259075594
 20
105.7805200106
 10
71.4529047381
 20
106.2100599519
 10
71.4511985552
 20
106.7223162389
 10
71.4208188128
 20
107.3077456093
 10
71.3623317551
 20
107.9554422757
 10
71.2768270295
 20
108.6533428169
 10
71.1658990603
 20
109.3884441069
 10
71.0316135209
 20
110.1470547727
 10
70.8764700812
 20
110.9150419942
 10
70.7033614289
 20
111.6781001909
 10
70.5155099403
 20
112.4220150522
 10
70.3164155256
 20
113.132928498
 10
70.1097885739
 20
113.797597587
 10
69.8994754475
 20
114.4036413169
 10
69.6893970143
 20
114.9397697298
 10
69.4834629666
 20
115.395996021
 10
69.285512216
 20
115.7638215226
 10
69.0992328
 20
116.0363941452
 10
68.928091101
 20
116.208636551
 10
68.775279693
 20
116.2773402174
 10
68.6568266373
 20
116.2502117221
  0
LWPOLYLINE
  5
29E
330
1F
100
AcDbEntity
  8
0
  6
SLD-Durchgehend
 62
     7
370
    15
100
AcDbPolyline
 90
       25
 70
   128
 43
0.0
 10
73.0340501886
 20
105.4355916566
 10
73.106900103
 20
105.4691490716
 10
73.21491117
 20
105.6094099766
 10
73.2972829264
 20
105.8512036687
 10
73.3524824154
 20
106.190026272
 10
73.3794795942
 20
106.6195662132
 10
73.3777715486
 20
107.1318225003
 10
73.3473918062
 20
107.7172518707
 10
73.2889066112
 20
108.3649485371
 10
73.2034018856
 20
109.0628481469
 10
73.0924739164
 20
109.7979503682
 10
72.958188377
 20
110.5565605684
 10
72.8030449372
 20
111.3245482555
 10
72.629936285
 20
112.0876064523
 10
72.4420847964
 20
112.8315208478
 10
72.2429903817
 20
113.5424342936
 10
72.03636343
 20
114.2071038483
 10
71.8260503035
 20
114.8131473454
 10
71.6159718704
 20
115.3492759912
 10
71.4100378227
 20
115.8055021659
 10
71.2120870721
 20
116.1733275511
 10
71.025807656
 20
116.4459002901
 10
70.854665957
 20
116.618142696
 10
70.701854549
 20
116.6868463623
 10
70.6430657428
 20
116.6842887177
  0
LWPOLYLINE
  5
29F
330
1F
100
AcDbEntity
  8
0
  6
SLD-Durchgehend
 62
     7
370
    15
100
AcDbPolyline
 90
       31
 70
   128
 43
0.0
 10
67.3161859285
 20
111.9488049297
 10
67.3414601606
 20
111.547125969
 10
67.3948789608
 20
111.0883597283
 10
67.4741065722
 20
110.5925566516
 10
67.5756803375
 20
110.081385821
 10
67.6951615732
 20
109.5771878025
 10
67.8273274225
 20
109.1019981539
 10
67.9664018225
 20
108.6765858343
 10
68.106308825
 20
108.3195419049
 10
68.2409296405
 20
108.0464725381
 10
68.3643838983
 20
107.8693107701
 10
68.4712755155
 20
107.7957996166
 10
68.556932978
 20
107.829153072
 10
68.6176105064
 20
107.967912685
 10
68.6506594193
 20
108.2060136831
 10
68.6546324414
 20
108.5330503991
 10
68.6293582093
 20
108.9347298256
 10
68.5759394091
 20
109.3934956005
 10
68.4967117977
 20
109.889299143
 10
68.3951380324
 20
110.4004695079
 10
68.2756567966
 20
110.904667992
 10
68.1434909474
 20
111.3798571749
 10
68.0044146847
 20
111.8052704258
 10
67.8645095449
 20
112.1623138896
 10
67.7298868668
 20
112.4353837221
 10
67.6064326089
 20
112.6125450245
 10
67.4995409917
 20
112.6860557123
 10
67.4138853919
 20
112.6527022569
 10
67.3532060009
 20
112.5139426439
 10
67.3201589506
 20
112.2758416458
 10
67.3161859285
 20
111.9488049297
  0
LINE
  5
2A0
330
1F
100
AcDbEntity
  8
0
  6
SLD-Durchgehend
 62
     7
370
    15
100
AcDbLine
 10
67.6099716347
 20
112.4556842259
 30
0.0
 11
67.7140264433
 21
112.4294283799
 31
0.0
  0
ARC
  5
2A1
330
1F
100
AcDbEntity
  8
0
  6
SLD-Durchgehend
 62
     7
370
    15
100
AcDbCircle
 10
66.6223081427
 20
111.6166936759
 30
0.0
 40
1.29591061284272
100
AcDbArc
 50
323.0017454911
 51
40.3469039539
  0
ARC
  5
2A2
330
1F
100
AcDbEntity
  8
0
  6
SLD-Durchgehend
 62
     7
370
    15
100
AcDbCircle
 10
66.0165184607
 20
109.2555548855
 30
0.0
 40
2.278718696276407
100
AcDbArc
 50
344.8780624366
 51
43.9420335018
  0
LWPOLYLINE
  5
2A3
330
1F
100
AcDbEntity
  8
0
  6
SLD-Durchgehend
 62
     7
370
    15
100
AcDbPolyline
 90
        3
 70
   128
 43
0.0
 10
68.6463064175
 20
108.5102823562
 10
68.5523639094
 20
108.5726930759
 10
68.2163315486
 20
108.6610960773
  0
LINE
  5
2A4
330
1F
100
AcDbEntity
  8
0
  6
SLD-Durchgehend
 62
     7
370
    15
100
AcDbLine
 10
68.6438980174
 20
108.7519782594
 30
0.0
 11
68.2163315486
 21
108.6610960773
 31
0.0
  0
LINE
  5
2A5
330
1F
100
AcDbEntity
  8
0
  6
SLD-Durchgehend
 62
     7
370
    15
100
AcDbLine
 10
68.260018028
 20
110.9649399294
 30
0.0
 11
67.6572921347
 21
110.8368267304
 31
0.0
  0
LWPOLYLINE
  5
2A6
330
1F
100
AcDbEntity
  8
0
  6
SLD-Durchgehend
 62
     7
370
    15
100
AcDbPolyline
 90
       30
 70
   128
 43
0.0
 10
72.7429355156
 20
105.3737127221
 10
72.8487169963
 20
105.2727974019
 10
73.0069431138
 20
105.1911651156
 10
73.1443206441
 20
105.2142600528
 10
73.2583964836
 20
105.3416724316
 10
73.3471366238
 20
105.5711270309
 10
73.408954091
 20
105.8985297567
 10
73.442748062
 20
106.3180374912
 10
73.4479169023
 20
106.8221651948
 10
73.424365617
 20
107.4019162914
 10
73.372515164
 20
108.0469437874
 10
73.2932912778
 20
108.7457393295
 10
73.1881077063
 20
109.4858315772
 10
73.0588419956
 20
110.2540134451
 10
72.9078001004
 20
111.0365772619
 10
72.7376772683
 20
111.8195583111
 10
72.551509611
 20
112.5889834947
 10
72.3526200872
 20
113.3311232551
 10
72.1445551735
 20
114.0327334868
 10
71.9310327094
 20
114.6812941878
 10
71.7158580792
 20
115.2652318122
 10
71.5028720569
 20
115.774125792
 10
71.2958781641
 20
116.1988950333
 10
71.0985681635
 20
116.5319596183
 10
70.9144624543
 20
116.7673757299
 10
70.7468486052
 20
116.9009425792
 10
70.5987161618
 20
116.930276621
 10
70.4727063548
 20
116.8548543354
 10
70.3710729849
 20
116.6760216
 10
70.3519510698
 20
116.6224104817
  0
LWPOLYLINE
  5
2A7
330
1F
100
AcDbEntity
  8
0
  6
SLD-Durchgehend
 62
     7
370
    15
100
AcDbPolyline
 90
       26
 70
   128
 43
0.0
 10
74.0247762423
 20
104.4803797266
 10
74.1562137973
 20
104.4196705333
 10
74.3078461509
 20
104.4352701864
 10
74.4360576045
 20
104.5570843852
 10
74.538853265
 20
104.7832188195
 10
74.6146331203
 20
105.1101549527
 10
74.6622199785
 20
105.5328096262
 10
74.6808725071
 20
106.0446086338
 10
74.6703019958
 20
106.637592893
 10
74.6306742203
 20
107.3025395161
 10
74.5626019907
 20
108.0291080287
 10
74.4671470147
 20
108.8059968314
 10
74.3457919579
 20
109.6211248076
 10
74.2004236799
 20
110.4618138632
 10
74.0333052945
 20
111.3149900919
 10
73.8470351916
 20
112.167383544
 10
73.6445079219
 20
113.0057382396
 10
73.4288769435
 20
113.8170156627
 10
73.2034931552
 20
114.5885982549
 10
72.9718639177
 20
115.3084859251
 10
72.737589724
 20
115.9654827787
 10
72.5043139082
 20
116.5493709267
 10
72.2756667655
 20
117.0510695664
 10
72.0552040857
 20
117.46277599
 10
71.846351273
 20
117.7780872166
 10
71.6523586434
 20
117.9920993453
  0
LWPOLYLINE
  5
2A8
330
1F
100
AcDbEntity
  8
0
  6
SLD-Durchgehend
 62
     7
370
    15
100
AcDbPolyline
 90
        3
 70
   128
 43
0.0
 10
70.8488898944
 20
117.4617358191
 10
70.992801584
 20
117.6900989484
 10
71.2131767195
 20
118.0307156463
  0
ARC
  5
2A9
330
1F
100
AcDbEntity
  8
0
  6
SLD-Durchgehend
 62
     7
370
    15
100
AcDbCircle
 10
71.4861599216
 20
117.7769226447
 30
0.0
 40
0.3727341093499429
100
AcDbArc
 50
135.9141610679
 51
137.0863347325
  0
LWPOLYLINE
  5
2AA
330
1F
100
AcDbEntity
  8
0
  6
SLD-Durchgehend
 62
     7
370
    15
100
AcDbPolyline
 90
        8
 70
   128
 43
0.0
 10
71.2184256535
 20
118.0362469166
 10
70.9360747259
 20
117.5419555219
 10
70.861799888
 20
117.3658403276
 10
70.8748905581
 20
117.2875450282
 10
70.9673876535
 20
117.3208408289
 10
71.1108932864
 20
117.4297520191
 10
71.403023101
 20
117.7128162002
 10
71.6523586434
 20
117.9920993453
  0
LWPOLYLINE
  5
2AB
330
1F
100
AcDbEntity
  8
0
  6
SLD-Durchgehend
 62
     7
370
    15
100
AcDbPolyline
 90
       20
 70
   128
 43
0.0
 10
78.314188182
 20
105.5856910533
 10
78.2925163057
 20
105.6747264227
 10
78.175137065
 20
105.7427995837
 10
77.969346441
 20
105.7845777831
 10
77.6657669466
 20
105.7878318241
 10
77.2834450599
 20
105.7323967105
 10
76.8875109624
 20
105.613966938
 10
76.5566846948
 20
105.4595638997
 10
76.3284715485
 20
105.3048525936
 10
76.2065763247
 20
105.1725526339
 10
76.1882329952
 20
105.0753169692
 10
76.2696678412
 20
105.019582901
 10
76.4433986169
 20
105.0057574174
 10
76.6981805336
 20
105.0296570173
 10
77.0208223384
 20
105.0858530215
 10
77.3928866383
 20
105.1703342235
 10
77.7760681358
 20
105.2798205054
 10
78.0962559056
 20
105.4056542924
 10
78.2572806474
 20
105.5077766067
 10
78.314188182
 20
105.5856910533
  0
LWPOLYLINE
  5
2AC
330
1F
100
AcDbEntity
  8
0
  6
SLD-Durchgehend
 62
     7
370
    15
100
AcDbPolyline
 90
       25
 70
   128
 43
0.0
 10
78.6800768819
 20
105.3577656856
 10
78.7306961265
 20
105.3753760642
 10
78.8589066487
 20
105.497190263
 10
78.9617013779
 20
105.723323766
 10
79.0374812331
 20
106.0502608305
 10
79.0850680914
 20
106.4729145727
 10
79.1037215513
 20
106.9847145117
 10
79.0931519714
 20
107.5776987708
 10
79.0535223332
 20
108.2426453939
 10
78.9854510349
 20
108.9692129752
 10
78.8899951276
 20
109.7461027092
 10
78.7686400708
 20
110.5612302198
 10
78.6232727241
 20
111.4019192754
 10
78.4561543387
 20
112.2550955041
 10
78.2698833045
 20
113.1074894218
 10
78.0673569661
 20
113.9458438846
 10
77.8517259877
 20
114.7571213076
 10
77.6263421994
 20
115.5287036671
 10
77.3947129619
 20
116.2485914536
 10
77.1604387682
 20
116.9055883073
 10
76.9271629524
 20
117.4894765135
 10
76.6985158097
 20
117.9911751532
 10
76.4780531299
 20
118.4028816059
 10
76.2692003172
 20
118.7181927961
 10
76.0752076876
 20
118.932204903
  0
LINE
  5
2AD
330
1F
100
AcDbEntity
  8
0
  6
SLD-Durchgehend
 62
     7
370
    15
100
AcDbLine
 10
71.6523586434
 20
117.9920993453
 30
0.0
 11
76.0752076876
 21
118.932204903
 31
0.0
  0
LWPOLYLINE
  5
2AE
330
1F
100
AcDbEntity
  8
0
  6
SLD-Durchgehend
 62
     7
370
    15
100
AcDbPolyline
 90
        3
 70
   128
 43
0.0
 10
76.0752076876
 20
118.932204903
 10
76.7941011709
 20
118.7257139244
 10
76.8307785165
 20
118.7154201324
  0
LWPOLYLINE
  5
2AF
330
1F
100
AcDbEntity
  8
0
  6
SLD-Durchgehend
 62
     7
370
    15
100
AcDbPolyline
 90
        3
 70
   128
 43
0.0
 10
75.9279376488
 20
118.9009017543
 10
75.8526569825
 20
118.9196521881
 10
75.6412746977
 20
118.9763525034
  0
LINE
  5
2B0
330
1F
100
AcDbEntity
  8
0
  6
SLD-Durchgehend
 62
     7
370
    15
100
AcDbLine
 10
75.6412746977
 20
118.9763525034
 30
0.0
 11
71.2184256535
 21
118.0362469166
 31
0.0
  0
ARC
  5
2B1
330
1F
100
AcDbEntity
  8
0
  6
SLD-Durchgehend
 62
     7
370
    15
100
AcDbCircle
 10
107.0244307784
 20
117.3047082888
 30
0.0
 40
2.124375549994052
100
AcDbArc
 50
285.4348119504
 51
340.7433377396
  0
ARC
  5
2B2
330
1F
100
AcDbEntity
  8
0
  6
SLD-Durchgehend
 62
     7
370
    15
100
AcDbCircle
 10
106.6778713316
 20
117.7180987972
 30
0.0
 40
2.602554217459458
100
AcDbArc
 50
334.6564418855
 51
70.6199458199
  0
ARC
  5
2B3
330
1F
100
AcDbEntity
  8
0
  6
SLD-Durchgehend
 62
     7
370
    15
100
AcDbCircle
 10
107.1913758822
 20
117.2619414849
 30
0.0
 40
1.911297464055284
100
AcDbArc
 50
270.6488379958
 51
341.8322193356
  0
LWPOLYLINE
  5
2B4
330
1F
100
AcDbEntity
  8
0
  6
SLD-Durchgehend
 62
     7
370
    15
100
AcDbPolyline
 90
        3
 70
   128
 43
0.0
 10
105.341578148
 20
117.6232066208
 10
105.3573724475
 20
118.0227271687
 10
105.4037048143
 20
118.3091516722
  0
LWPOLYLINE
  5
2B5
330
1F
100
AcDbEntity
  8
0
  6
SLD-Durchgehend
 62
     7
370
    15
100
AcDbPolyline
 90
       11
 70
   128
 43
0.0
 10
107.0683396083
 20
120.0562871526
 10
107.4258575809
 20
120.0622695031
 10
107.8365829435
 20
119.9672773945
 10
108.2209779542
 20
119.7667194063
 10
108.5610690188
 20
119.4699732585
 10
108.8409538042
 20
119.0909146097
 10
109.0475453656
 20
118.647267809
 10
109.1711840254
 20
118.1597772519
 10
109.2060881328
 20
117.6512374658
 10
109.1506260108
 20
117.1454272115
 10
109.0073904615
 20
116.6659976587
  0
LWPOLYLINE
  5
2B6
330
1F
100
AcDbEntity
  8
0
  6
SLD-Durchgehend
 62
     7
370
    15
100
AcDbPolyline
 90
       28
 70
   128
 43
0.0
 10
108.7428948503
 20
116.8251930502
 10
108.5362120193
 20
116.4353485218
 10
108.2614541646
 20
116.1141997435
 10
107.9334349033
 20
115.8790602347
 10
107.5698372569
 20
115.7426061107
 10
107.1902627718
 20
115.7121937721
 10
106.8151753988
 20
115.7894629285
 10
106.4647941511
 20
115.9702476578
 10
106.1580099758
 20
116.2448020185
 10
105.9113612991
 20
116.5983247337
 10
105.7381446135
 20
117.0117571599
 10
105.6476982903
 20
117.4628111183
 10
105.6448987346
 20
117.9271701984
 10
105.7298958894
 20
118.3798006385
 10
105.8981085789
 20
118.7963010742
 10
106.1404675838
 20
119.1542177693
 10
106.4439083111
 20
119.434255408
 10
106.7920711484
 20
119.621317135
 10
107.1661862206
 20
119.7053182403
 10
107.5460866686
 20
119.6817304006
 10
107.9112899151
 20
119.5518251042
 10
108.2421096634
 20
119.3226056638
 10
108.5207092237
 20
119.0064292167
 10
108.7320710194
 20
118.6203411197
 10
108.8648012501
 20
118.1851553555
 10
108.9117399078
 20
117.7243328974
 10
108.8703631085
 20
117.2627168415
 10
108.7428948503
 20
116.8251930502
  0
ARC
  5
2B7
330
1F
100
AcDbEntity
  8
0
  6
SLD-Durchgehend
 62
     7
370
    15
100
AcDbCircle
 10
-118.241985166
 20
60.9616178676
 30
0.0
 40
210.4028382254381
100
AcDbArc
 50
12.9121540461
 51
15.9528937989
  0
ARC
  5
2B8
330
1F
100
AcDbEntity
  8
0
  6
SLD-Durchgehend
 62
     7
370
    15
100
AcDbCircle
 10
90.1091620679
 20
108.7258861782
 30
0.0
 40
3.353158051836647
100
AcDbArc
 50
192.8949604761
 51
237.7261907632
  0
ARC
  5
2B9
330
1F
100
AcDbEntity
  8
0
  6
SLD-Durchgehend
 62
     7
370
    15
100
AcDbCircle
 10
-135.7057196197
 20
56.7582233567
 30
0.0
 40
229.3489553534921
100
AcDbArc
 50
10.7900723501
 51
12.3701321787
  0
ARC
  5
2BA
330
1F
100
AcDbEntity
  8
0
  6
SLD-Durchgehend
 62
     7
370
    15
100
AcDbCircle
 10
88.9094565321
 20
103.4871882548
 30
0.0
 40
3.852567877330515
100
AcDbArc
 50
216.2890293953
 51
280.1484865684
  0
ARC
  5
2BB
330
1F
100
AcDbEntity
  8
0
  6
SLD-Durchgehend
 62
     7
370
    15
100
AcDbCircle
 10
118.5807514078
 20
127.7820514563
 30
0.0
 40
42.19644383838544
100
AcDbArc
 50
194.1970241603
 51
219.0348777242
  0
ARC
  5
2BC
330
1F
100
AcDbEntity
  8
0
  6
SLD-Durchgehend
 62
     7
370
    15
100
AcDbCircle
 10
107.048243275
 20
123.873704539
 30
0.0
 40
30.0985850269177
100
AcDbArc
 50
175.6008693456
 51
181.4789417894
  0
ARC
  5
2BD
330
1F
100
AcDbEntity
  8
0
  6
SLD-Durchgehend
 62
     7
370
    15
100
AcDbCircle
 10
104.3250429224
 20
123.6668485294
 30
0.0
 40
27.37129334934347
100
AcDbArc
 50
181.1932025329
 51
193.1645542779
  0
ARC
  5
2BE
330
1F
100
AcDbEntity
  8
0
  6
SLD-Durchgehend
 62
     7
370
    15
100
AcDbCircle
 10
97.1055481416
 20
115.6517707978
 30
0.0
 40
20.96148068418329
100
AcDbArc
 50
209.1862883355
 51
235.5231693188
  0
LWPOLYLINE
  5
2BF
330
1F
100
AcDbEntity
  8
0
  6
SLD-Durchgehend
 62
     7
370
    15
100
AcDbPolyline
 90
       15
 70
   128
 43
0.0
 10
78.3233831298
 20
114.6006865891
 10
78.3356961455
 20
114.5623135379
 10
78.6307177168
 20
113.6345607227
 10
78.9283767935
 20
112.6840836367
 10
79.2215003293
 20
111.7218765429
 10
79.4934381392
 20
110.7843681237
 10
79.7440784645
 20
109.84362429
 10
79.9448455345
 20
108.97312453
 10
80.0894473341
 20
108.1505971959
 10
80.1558143121
 20
107.4449368751
 10
80.1343948242
 20
106.861182954
 10
80.022274762
 20
106.4330837688
 10
79.8207356256
 20
106.1744629404
 10
79.5410026457
 20
106.0940627939
 10
79.5322854664
 20
106.0962625778
  0
LWPOLYLINE
  5
2C0
330
1F
100
AcDbEntity
  8
0
  6
SLD-Durchgehend
 62
     7
370
    15
100
AcDbPolyline
 90
        9
 70
   128
 43
0.0
 10
76.4030518603
 20
121.1508174891
 10
76.4117988419
 20
121.16264645
 10
76.4419010502
 20
121.0497140417
 10
76.4676726084
 20
120.7815229426
 10
76.4896816235
 20
120.3766285906
 10
76.5069669705
 20
119.8779141995
 10
76.5164087188
 20
119.3498026113
 10
76.5137693506
 20
118.8605210044
 10
76.5113274228
 20
118.8069365452
  0
ARC
  5
2C1
330
1F
100
AcDbEntity
  8
0
  6
SLD-Durchgehend
 62
     7
370
    15
100
AcDbCircle
 10
88.0211061041
 20
102.7397320292
 30
0.0
 40
5.178035535511274
100
AcDbArc
 50
237.5114361004
 51
283.0495827388
  0
LINE
  5
2C2
330
1F
100
AcDbEntity
  8
0
  6
SLD-Durchgehend
 62
     7
370
    15
100
AcDbLine
 10
89.5882782188
 20
99.6948960236
 30
0.0
 11
89.1902763523
 21
97.6954190991
 31
0.0
  0
ARC
  5
2C3
330
1F
100
AcDbEntity
  8
0
  6
SLD-Durchgehend
 62
     7
370
    15
100
AcDbCircle
 10
85.3027391709
 20
123.6379785953
 30
0.0
 40
2.533934188515375
100
AcDbArc
 50
163.5964609407
 51
196.1967573426
  0
LINE
  5
2C4
330
1F
100
AcDbEntity
  8
0
  6
SLD-Durchgehend
 62
     7
370
    15
100
AcDbLine
 10
84.0578165498
 20
118.7901969532
 30
0.0
 11
82.8693781641
 21
122.9311712085
 31
0.0
  0
ARC
  5
2C5
330
1F
100
AcDbEntity
  8
0
  6
SLD-Durchgehend
 62
     7
370
    15
100
AcDbCircle
 10
79.174305692
 20
126.1685582593
 30
0.0
 40
2.136019230412306
100
AcDbArc
 50
97.6107799979
 51
179.6291572341
  0
LINE
  5
2C6
330
1F
100
AcDbEntity
  8
0
  6
SLD-Durchgehend
 62
     7
370
    15
100
AcDbLine
 10
76.0252254676
 20
121.0854938252
 30
0.0
 11
76.1048814874
 21
121.4683011639
 31
0.0
  0
LWPOLYLINE
  5
2C7
330
1F
100
AcDbEntity
  8
0
  6
SLD-Durchgehend
 62
     7
370
    15
100
AcDbPolyline
 90
       10
 70
   128
 43
0.0
 10
83.4828366187
 20
125.3804028964
 10
83.2427016121
 20
126.1020232922
 10
83.0010885965
 20
126.7579267732
 10
82.7614760619
 20
127.3386678657
 10
82.5273154896
 20
127.8358851558
 10
82.3019773361
 20
128.2424167729
 10
82.0887081918
 20
128.5524102858
 10
81.8905767646
 20
128.7614018655
 10
81.7104384896
 20
128.8663814774
 10
81.5807099115
 20
128.8743414915
  0
ARC
  5
2C8
330
1F
100
AcDbEntity
  8
0
  6
SLD-Durchgehend
 62
     7
370
    15
100
AcDbCircle
 10
85.2019788558
 20
123.6625065572
 30
0.0
 40
2.430353444242508
100
AcDbArc
 50
135.0207692421
 51
163.480348968
  0
LINE
  5
2C9
330
1F
100
AcDbEntity
  8
0
  6
SLD-Durchgehend
 62
     7
370
    15
100
AcDbLine
 10
83.0072185617
 20
122.9910026303
 30
0.0
 11
83.4828366187
 21
125.3804028964
 31
0.0
  0
LWPOLYLINE
  5
2CA
330
1F
100
AcDbEntity
  8
0
  6
SLD-Durchgehend
 62
     7
370
    15
100
AcDbPolyline
 90
        7
 70
   128
 43
0.0
 10
83.1812091764
 20
122.9610717854
 10
83.149362601
 20
122.9354217647
 10
83.1023615446
 20
122.9041512123
 10
83.0584366467
 20
122.885274235
 10
83.0179203894
 20
122.8908440097
 10
83.0031114292
 20
122.9654764755
 10
83.0072185617
 20
122.9910026303
  0
LWPOLYLINE
  5
2CB
330
1F
100
AcDbEntity
  8
0
  6
SLD-Durchgehend
 62
     7
370
    15
100
AcDbPolyline
 90
        3
 70
   128
 43
0.0
 10
83.1240734678
 20
122.3205551504
 10
83.183408029
 20
122.3537502809
 10
83.2242996093
 20
122.3700842819
  0
ARC
  5
2CC
330
1F
100
AcDbEntity
  8
0
  6
SLD-Durchgehend
 62
     7
370
    15
100
AcDbCircle
 10
87.4657125849
 20
104.1069250401
 30
0.0
 40
1.227476512713202
100
AcDbArc
 50
16.4503472553
 51
21.6938394313
  0
LINE
  5
2CD
330
1F
100
AcDbEntity
  8
0
  6
SLD-Durchgehend
 62
     7
370
    15
100
AcDbLine
 10
92.6129780255
 20
91.28374001
 30
0.0
 11
88.6429429647
 21
104.4545271433
 31
0.0
  0
LWPOLYLINE
  5
2CE
330
1F
100
AcDbEntity
  8
0
  6
SLD-Durchgehend
 62
     7
370
    15
100
AcDbPolyline
 90
        9
 70
   128
 43
0.0
 10
92.6270493782
 20
90.7529084942
 10
92.6561978831
 20
90.7145119271
 10
92.6785583487
 20
90.7144858501
 10
92.6919117173
 20
90.7528302631
 10
92.6949328113
 20
90.8257397822
 10
92.6873218104
 20
90.9259817562
 10
92.6698340317
 20
91.0436040721
 10
92.6442049585
 20
91.166937258
 10
92.6129780255
 20
91.28374001
  0
LINE
  5
2CF
330
1F
100
AcDbEntity
  8
0
  6
SLD-Durchgehend
 62
     7
370
    15
100
AcDbLine
 10
88.825736906
 20
97.5587754509
 30
0.0
 11
92.6270493782
 21
90.7529084942
 31
0.0
  0
ARC
  5
2D0
330
1F
100
AcDbEntity
  8
0
  6
SLD-Durchgehend
 62
     7
370
    15
100
AcDbCircle
 10
89.3558958136
 20
97.8430010627
 30
0.0
 40
0.6015419067905793
100
AcDbArc
 50
200.3982960617
 51
208.1963820504
  0
LWPOLYLINE
  5
2D1
330
1F
100
AcDbEntity
  8
0
  6
SLD-Durchgehend
 62
     7
370
    15
100
AcDbPolyline
 90
        9
 70
   128
 43
0.0
 10
92.6250867833
 20
90.7703205011
 10
92.6527778629
 20
90.7338443211
 10
92.6740203049
 20
90.7338182441
 10
92.6867060061
 20
90.7702459952
 10
92.689576044
 20
90.8395103178
 10
92.6823455938
 20
90.934738051
 10
92.6657322033
 20
91.0464799962
 10
92.6413845863
 20
91.1636478266
 10
92.6117189938
 20
91.2746093235
  0
LINE
  5
2D2
330
1F
100
AcDbEntity
  8
0
  6
SLD-Durchgehend
 62
     7
370
    15
100
AcDbLine
 10
92.6117189938
 20
91.2746093235
 30
0.0
 11
88.6416842822
 21
104.4453973881
 31
0.0
  0
ARC
  5
2D3
330
1F
100
AcDbEntity
  8
0
  6
SLD-Durchgehend
 62
     7
370
    15
100
AcDbCircle
 10
87.4373975863
 20
104.0866320855
 30
0.0
 40
1.256590222952557
100
AcDbArc
 50
16.5891566825
 51
20.7759267591
  0
LINE
  5
2D4
330
1F
100
AcDbEntity
  8
0
  6
SLD-Durchgehend
 62
     7
370
    15
100
AcDbLine
 10
88.8237741437
 20
97.5761855951
 30
0.0
 11
92.6250867833
 21
90.7703205011
 31
0.0
  0
LINE
  5
2D5
330
1F
100
AcDbEntity
  8
0
  6
SLD-Durchgehend
 62
     7
370
    15
100
AcDbLine
 10
97.1982258033
 20
92.2583634964
 30
0.0
 11
93.2281908299
 21
105.429151561
 31
0.0
  0
ARC
  5
2D6
330
1F
100
AcDbEntity
  8
0
  6
SLD-Durchgehend
 62
     7
370
    15
100
AcDbCircle
 10
96.2905574439
 20
91.8767909957
 30
0.0
 40
0.9846113060654081
100
AcDbArc
 50
348.7381427521
 51
22.8012797056
  0
LINE
  5
2D7
330
1F
100
AcDbEntity
  8
0
  6
SLD-Durchgehend
 62
     7
370
    15
100
AcDbLine
 10
90.3171177615
 20
97.5563633254
 30
0.0
 11
89.4398151558
 21
100.4668581298
 31
0.0
  0
LWPOLYLINE
  5
2D8
330
1F
100
AcDbEntity
  8
0
  6
SLD-Durchgehend
 62
     7
370
    15
100
AcDbPolyline
 90
        9
 70
   128
 43
0.0
 10
90.3522961434
 20
96.229284536
 10
90.4251674783
 20
96.1332968435
 10
90.4810687188
 20
96.1332279256
 10
90.5144519765
 20
96.2290889582
 10
90.5220047698
 20
96.4113655499
 10
90.5029771511
 20
96.6619676909
 10
90.4592578426
 20
96.9560253433
 10
90.3951851778
 20
97.2643564454
 10
90.3171177615
 20
97.5563633254
  0
LINE
  5
2D9
330
1F
100
AcDbEntity
  8
0
  6
SLD-Durchgehend
 62
     7
370
    15
100
AcDbLine
 10
89.2804330342
 20
98.1483473441
 30
0.0
 11
90.3522961434
 21
96.229284536
 31
0.0
  0
ARC
  5
2DA
330
1F
100
AcDbEntity
  8
0
  6
SLD-Durchgehend
 62
     7
370
    15
100
AcDbCircle
 10
92.3686503508
 20
105.1901190517
 30
0.0
 40
0.8921582682400419
100
AcDbArc
 50
15.5408965042
 51
26.9732241705
  0
LINE
  5
2DB
330
1F
100
AcDbEntity
  8
0
  6
SLD-Durchgehend
 62
     7
370
    15
100
AcDbLine
 10
93.1637583835
 20
105.594778899
 30
0.0
 11
93.1386855209
 21
105.6396695784
 31
0.0
  0
LINE
  5
2DC
330
1F
100
AcDbEntity
  8
0
  6
SLD-Durchgehend
 62
     7
370
    15
100
AcDbLine
 10
93.1952751834
 20
105.5383509955
 30
0.0
 11
93.1386855209
 21
105.6396695784
 31
0.0
  0
LINE
  5
2DD
330
1F
100
AcDbEntity
  8
0
  6
SLD-Durchgehend
 62
     7
370
    15
100
AcDbLine
 10
97.1154507842
 20
92.5329732707
 30
0.0
 11
93.1952751834
 21
105.5383509955
 31
0.0
  0
ARC
  5
2DE
330
1F
100
AcDbEntity
  8
0
  6
SLD-Durchgehend
 62
     7
370
    15
100
AcDbCircle
 10
98.7551325085
 20
92.645696341
 30
0.0
 40
1.230765034277872
100
AcDbArc
 50
348.7381106143
 51
22.8012895223
  0
LINE
  5
2DF
330
1F
100
AcDbEntity
  8
0
  6
SLD-Durchgehend
 62
     7
370
    15
100
AcDbLine
 10
95.9695426408
 20
106.1280402354
 30
0.0
 11
93.1952751834
 21
105.5383509955
 31
0.0
  0
LINE
  5
2E0
330
1F
100
AcDbEntity
  8
0
  6
SLD-Durchgehend
 62
     7
370
    15
100
AcDbLine
 10
99.8897187073
 20
93.1226625106
 30
0.0
 11
95.9695426408
 21
106.1280402354
 31
0.0
  0
ARC
  5
2E1
330
1F
100
AcDbEntity
  8
0
  6
SLD-Durchgehend
 62
     7
370
    15
100
AcDbCircle
 10
99.615630775
 20
92.8376446484
 30
0.0
 40
0.5831191699318429
100
AcDbArc
 50
352.7984479653
 51
21.0547500688
  0
LINE
  5
2E2
330
1F
100
AcDbEntity
  8
0
  6
SLD-Durchgehend
 62
     7
370
    15
100
AcDbLine
 10
95.9695426408
 20
106.1280402354
 30
0.0
 11
96.2643302173
 21
105.9706150553
 31
0.0
  0
LINE
  5
2E3
330
1F
100
AcDbEntity
  8
0
  6
SLD-Durchgehend
 62
     7
370
    15
100
AcDbLine
 10
96.4984712318
 20
105.193839874
 30
0.0
 11
100.1598194834
 21
93.0471359751
 31
0.0
  0
LINE
  5
2E4
330
1F
100
AcDbEntity
  8
0
  6
SLD-Durchgehend
 62
     7
370
    15
100
AcDbLine
 10
95.9695426408
 20
106.1280402354
 30
0.0
 11
95.9129531529
 21
106.2293578869
 31
0.0
  0
LINE
  5
2E5
330
1F
100
AcDbEntity
  8
0
  6
SLD-Durchgehend
 62
     7
370
    15
100
AcDbLine
 10
96.0978607308
 20
106.2686615622
 30
0.0
 11
96.2643302173
 21
105.9706150553
 31
0.0
  0
ARC
  5
2E6
330
1F
100
AcDbEntity
  8
0
  6
SLD-Durchgehend
 62
     7
370
    15
100
AcDbCircle
 10
86.742029823
 20
108.7096120081
 30
0.0
 40
23.00000000000002
100
AcDbArc
 50
320.5459480096
 51
353.8358840069
  0
LINE
  5
2E7
330
1F
100
AcDbEntity
  8
0
  6
SLD-Durchgehend
 62
     7
370
    15
100
AcDbLine
 10
100.124652743
 20
93.163802754
 30
0.0
 11
104.501121923
 21
94.0940505824
 31
0.0
  0
ARC
  5
2E8
330
1F
100
AcDbEntity
  8
0
  6
SLD-Durchgehend
 62
     7
370
    15
100
AcDbCircle
 10
86.742029823
 20
108.7096120081
 30
0.0
 40
23.00000000000001
100
AcDbArc
 50
319.7156691199
 51
320.5459480096
  0
LINE
  5
2E9
330
1F
100
AcDbEntity
  8
0
  6
SLD-Durchgehend
 62
     7
370
    15
100
AcDbLine
 10
104.2874690738
 20
93.8382442108
 30
0.0
 11
100.1807146367
 21
92.9653267375
 31
0.0
  0
ARC
  5
2EA
330
1F
100
AcDbEntity
  8
0
  6
SLD-Durchgehend
 62
     7
370
    15
100
AcDbCircle
 10
178.4744687843
 20
127.9425886887
 30
0.0
 40
85.07390755901424
100
AcDbArc
 50
194.7443045672
 51
195.5096002673
  0
LINE
  5
2EB
330
1F
100
AcDbEntity
  8
0
  6
SLD-Durchgehend
 62
     7
370
    15
100
AcDbLine
 10
96.2019392882
 20
106.2907841987
 30
0.0
 11
88.8424238783
 21
104.7264705411
 31
0.0
  0
ARC
  5
2EC
330
1F
100
AcDbEntity
  8
0
  6
SLD-Durchgehend
 62
     7
370
    15
100
AcDbCircle
 10
180.5685369453
 20
128.8236066612
 30
0.0
 40
94.8385564398134
100
AcDbArc
 50
191.9808721583
 51
194.7194247896
  0
LINE
  5
2ED
330
1F
100
AcDbEntity
  8
0
  6
SLD-Durchgehend
 62
     7
370
    15
100
AcDbLine
 10
109.7420307469
 20
108.7096123955
 30
0.0
 11
109.7420307469
 21
113.8013359158
 31
0.0
  0
LWPOLYLINE
  5
2EE
330
1F
100
AcDbEntity
  8
0
  6
SLD-Durchgehend
 62
     7
370
    15
100
AcDbPolyline
 90
        3
 70
   128
 43
0.0
 10
109.6090527844
 20
106.2399479559
 10
109.7074134868
 20
107.4481899849
 10
109.7420307469
 20
108.7096123955
  0
LINE
  5
2EF
330
1F
100
AcDbEntity
  8
0
  6
SLD-Durchgehend
 62
     7
370
    15
100
AcDbLine
 10
87.795852929
 20
109.1365325263
 30
0.0
 11
85.3714274835
 21
120.5425572115
 31
0.0
  0
ARC
  5
2F0
330
1F
100
AcDbEntity
  8
0
  6
SLD-Durchgehend
 62
     7
370
    15
100
AcDbCircle
 10
92.742029823
 20
117.7096120081
 30
0.0
 40
16.50000000000004
100
AcDbArc
 50
134.9349512676
 51
138.6300794125
  0
ARC
  5
2F1
330
1F
100
AcDbEntity
  8
0
  6
SLD-Durchgehend
 62
     7
370
    15
100
AcDbCircle
 10
79.4629191834
 20
129.757110843
 30
0.0
 40
1.666026927243307
100
AcDbArc
 50
347.2743147772
 51
11.6219335424
  0
ARC
  5
2F2
330
1F
100
AcDbEntity
  8
0
  6
SLD-Durchgehend
 62
     7
370
    15
100
AcDbCircle
 10
92.742029823
 20
117.7096120081
 30
0.0
 40
17.00000000000004
100
AcDbArc
 50
129.7898149999
 51
133.245973791
  0
LINE
  5
2F3
330
1F
100
AcDbEntity
  8
0
  6
SLD-Durchgehend
 62
     7
370
    15
100
AcDbLine
 10
85.3714274835
 20
120.5425572115
 30
0.0
 11
81.8624871444
 21
130.7723657227
 31
0.0
  0
ARC
  5
2F4
330
1F
100
AcDbEntity
  8
0
  6
SLD-Durchgehend
 62
     7
370
    15
100
AcDbCircle
 10
70.5393997647
 20
120.2552271382
 30
0.0
 40
12.93087797630537
100
AcDbArc
 50
5.9388005068
 51
14.0084625619
  0
LINE
  5
2F5
330
1F
100
AcDbEntity
  8
0
  6
SLD-Durchgehend
 62
     7
370
    15
100
AcDbLine
 10
86.7089738731
 20
108.5461978799
 30
0.0
 11
88.0688678135
 21
106.1114449984
 31
0.0
  0
LINE
  5
2F6
330
1F
100
AcDbEntity
  8
0
  6
SLD-Durchgehend
 62
     7
370
    15
100
AcDbLine
 10
88.3999720808
 20
105.5186358279
 30
0.0
 11
88.8424238783
 21
104.7264705411
 31
0.0
  0
LINE
  5
2F7
330
1F
100
AcDbEntity
  8
0
  6
SLD-Durchgehend
 62
     7
370
    15
100
AcDbLine
 10
109.7420307469
 20
113.8013359158
 30
0.0
 11
109.7420307469
 21
115.7105402088
 31
0.0
  0
LINE
  5
2F8
330
1F
100
AcDbEntity
  8
0
  6
SLD-Durchgehend
 62
     7
370
    15
100
AcDbLine
 10
107.934176236
 20
125.3384174778
 30
0.0
 11
85.3714274835
 21
120.5425572115
 31
0.0
  0
ARC
  5
2F9
330
1F
100
AcDbEntity
  8
0
  6
SLD-Durchgehend
 62
     7
370
    15
100
AcDbCircle
 10
92.742029823
 20
117.7096120081
 30
0.0
 40
17.00000000000004
100
AcDbArc
 50
6.8183273019
 51
26.6637228728
  0
ELLIPSE
  5
2FA
330
1F
100
AcDbEntity
  8
0
  6
SLD-Durchgehend
 62
     7
370
    15
100
AcDbEllipse
 10
108.0610497967
 20
117.7096120081
 30
0.0
 11
2.707192194142195
 21
-0.3268354848599841
 31
0.0
210
0.0
220
0.0
230
1.0
 40
0.9155403312
 41
1.070683481281141
 42
5.487618116486036
  0
ARC
  5
2FB
330
1F
100
AcDbEntity
  8
0
  6
SLD-Durchgehend
 62
     7
370
    15
100
AcDbCircle
 10
92.742029823
 20
117.7096120081
 30
0.0
 40
17.00000000000004
100
AcDbArc
 50
26.6637228728
 51
129.7898149999
  0
ARC
  5
2FC
330
1F
100
AcDbEntity
  8
0
  6
SLD-Durchgehend
 62
     7
370
    15
100
AcDbCircle
 10
92.7411366361
 20
117.7095519799
 30
0.0
 40
17.00089411087879
100
AcDbArc
 50
0.0002023045
 51
6.8181704073
  0
LINE
  5
2FD
330
1F
100
AcDbEntity
  8
0
  6
SLD-Durchgehend
 62
     7
370
    15
100
AcDbLine
 10
109.7420307469
 20
117.7096120081
 30
0.0
 11
109.7420307469
 21
115.7105402088
 31
0.0
  0
LINE
  5
2FE
330
1F
100
AcDbEntity
  8
0
  6
SLD-Durchgehend
 62
     7
370
    15
100
AcDbLine
 10
88.2420300167
 20
134.6096112392
 30
0.0
 11
88.2420300167
 21
134.6211466006
 31
0.0
  0
LINE
  5
2FF
330
1F
100
AcDbEntity
  8
0
  6
SLD-Durchgehend
 62
     7
370
    15
100
AcDbLine
 10
97.2420296293
 20
134.6096112392
 30
0.0
 11
94.3513390502
 21
134.6096112392
 31
0.0
  0
LINE
  5
300
330
1F
100
AcDbEntity
  8
0
  6
SLD-Durchgehend
 62
     7
370
    15
100
AcDbLine
 10
91.3335237546
 20
134.6096112392
 30
0.0
 11
88.2420300167
 21
134.6096112392
 31
0.0
  0
LINE
  5
301
330
1F
100
AcDbEntity
  8
0
  6
SLD-Durchgehend
 62
     7
370
    15
100
AcDbLine
 10
97.2420296293
 20
134.6211466006
 30
0.0
 11
97.2420296293
 21
134.6096112392
 31
0.0
  0
LINE
  5
302
330
1F
100
AcDbEntity
  8
0
  6
SLD-Durchgehend
 62
     7
370
    15
100
AcDbLine
 10
79.8646269959
 20
129.5596123672
 30
0.0
 11
80.8920294639
 21
129.5596123672
 31
0.0
  0
LINE
  5
303
330
1F
100
AcDbEntity
  8
0
  6
SLD-Durchgehend
 62
     7
370
    15
100
AcDbLine
 10
80.8920294639
 20
130.5870148352
 30
0.0
 11
80.8920294639
 21
129.5596123672
 31
0.0
  0
LINE
  5
304
330
1F
100
AcDbEntity
  8
0
  6
SLD-Durchgehend
 62
     7
370
    15
100
AcDbLine
 10
88.2420300167
 20
136.5804891101
 30
0.0
 11
88.2420300167
 21
137.1967880985
 31
0.0
  0
ARC
  5
305
330
1F
100
AcDbEntity
  8
0
  6
SLD-Durchgehend
 62
     7
370
    15
100
AcDbCircle
 10
92.742029823
 20
117.7096120081
 30
0.0
 40
20.00000000000003
100
AcDbArc
 50
103.0028781629
 51
126.3346172154
  0
LINE
  5
306
330
1F
100
AcDbEntity
  8
0
  6
SLD-Durchgehend
 62
     7
370
    15
100
AcDbLine
 10
80.8920294639
 20
133.8210212997
 30
0.0
 11
80.8920294639
 21
133.0698695964
 31
0.0
  0
ARC
  5
307
330
1F
100
AcDbEntity
  8
0
  6
SLD-Durchgehend
 62
     7
370
    15
100
AcDbCircle
 10
92.742029823
 20
117.7096120081
 30
0.0
 40
20.00000000000001
100
AcDbArc
 50
219.2525981776
 51
239.7434419612
  0
ARC
  5
308
330
1F
100
AcDbEntity
  8
0
  6
SLD-Durchgehend
 62
     7
370
    15
100
AcDbCircle
 10
92.742029823
 20
117.7096120081
 30
0.0
 40
20.00000000000001
100
AcDbArc
 50
143.6653827846
 51
172.1909520282
  0
LINE
  5
309
330
1F
100
AcDbEntity
  8
0
  6
SLD-Durchgehend
 62
     7
370
    15
100
AcDbLine
 10
76.6306205314
 20
129.5596123672
 30
0.0
 11
77.3817722347
 21
129.5596123672
 31
0.0
  0
LINE
  5
30A
330
1F
100
AcDbEntity
  8
0
  6
SLD-Durchgehend
 62
     7
370
    15
100
AcDbLine
 10
97.2420296293
 20
137.1967880985
 30
0.0
 11
97.2420296293
 21
136.5804891101
 31
0.0
  0
ARC
  5
30B
330
1F
100
AcDbEntity
  8
0
  6
SLD-Durchgehend
 62
     7
370
    15
100
AcDbCircle
 10
92.742029823
 20
117.7096120081
 30
0.0
 40
20.00000000000003
100
AcDbArc
 50
327.9982804542
 51
76.9971218371
  0
LINE
  5
30C
330
1F
100
AcDbEntity
  8
0
  6
SLD-Durchgehend
 62
     7
370
    15
100
AcDbLine
 10
97.2420296293
 20
136.5804891101
 30
0.0
 11
97.2420296293
 21
134.6211466006
 31
0.0
  0
LINE
  5
30D
330
1F
100
AcDbEntity
  8
0
  6
SLD-Durchgehend
 62
     7
370
    15
100
AcDbLine
 10
77.3817722347
 20
129.5596123672
 30
0.0
 11
79.8646269959
 21
129.5596123672
 31
0.0
  0
LINE
  5
30E
330
1F
100
AcDbEntity
  8
0
  6
SLD-Durchgehend
 62
     7
370
    15
100
AcDbLine
 10
88.2420300167
 20
134.6211466006
 30
0.0
 11
88.2420300167
 21
136.5804891101
 31
0.0
  0
LINE
  5
30F
330
1F
100
AcDbEntity
  8
0
  6
SLD-Durchgehend
 62
     7
370
    15
100
AcDbLine
 10
80.8920294639
 20
133.0698695964
 30
0.0
 11
80.8920294639
 21
130.5870148352
 31
0.0
  0
ARC
  5
310
330
1F
100
AcDbEntity
  8
0
  6
SLD-Durchgehend
 62
     7
370
    15
100
AcDbCircle
 10
92.7382242571
 20
117.713417574
 30
0.0
 40
19.99468001395852
100
AcDbArc
 50
126.3322940084
 51
143.6677059916
  0
LWPOLYLINE
  5
311
330
1F
100
AcDbEntity
  8
0
  6
SLD-Durchgehend
 62
     7
370
    15
100
AcDbPolyline
 90
        3
 70
   128
 43
0.0
 10
89.2541613557
 20
98.0163640341
 10
89.2721659165
 20
98.01291069
 10
89.3642208666
 20
97.9983336291
  0
ARC
  5
312
330
1F
100
AcDbEntity
  8
0
  6
SLD-Durchgehend
 62
     7
370
    15
100
AcDbCircle
 10
92.742029823
 20
117.7075174587
 30
0.0
 40
20.00204160398591
100
AcDbArc
 50
76.9984728682
 51
103.0015271318
  0
CIRCLE
  5
313
330
1F
100
AcDbEntity
  8
VERMASSUNG
  6
SLD-Punktstrich
100
AcDbCircle
 10
92.742029823
 20
115.7513200291
 30
0.0
 40
25.0
  0
POINT
  5
314
330
1F
100
AcDbEntity
  8
VERMASSUNG
100
AcDbPoint
 10
92.6827414563
 20
90.7513903315
 30
0.0
  0
DIMENSION
  5
315
330
1F
100
AcDbEntity
  8
VERMASSUNG
100
AcDbDimension
  2
_D_5
 10
63.2979143057
 20
140.7513200291
 30
0.0
 11
63.2979143057
 21
115.7513200291
 31
0.0
 70
   160
  1
%%c<>
 71
     2
 42
-1.0
  3
SLDDIMSTYLE1
100
AcDbAlignedDimension
 13
92.742029823
 23
90.7513200291
 33
0.0
 14
92.742029823
 24
140.7513200291
 34
0.0
 50
90.0
100
AcDbRotatedDimension
  0
INSERT
  5
32B
330
1F
100
AcDbEntity
  8
VERMASSUNG
100
AcDbBlockReference
  2
SW_CENTERMARKSYMBOL_0
 10
92.742029823
 20
117.7096120081
 30
0.0
  0
OLE2FRAME
  5
32C
330
1F
100
AcDbEntity
  8
0
100
AcDbOle2Frame
 70
     2
  3
Paintbrush-Bild
 10
13.8511154363
 20
38.264191557
 30
0.0
 11
51.6290888628
 21
31.9806341108
 31
0.0
 71
     2
 72
     0
 73
     1
 90
    12928
310
80552BED0767C5B32B40DDAF6807D121434000000000000000006FFBDDFB85D0
310
4940DDAF6807D121434000000000000000006FFBDDFB85D04940416F4BD60AFB
310
3F4000000000000000002BED0767C5B32B40416F4BD60AFB3F40000000000000
310
0000000000000100000000010000010000000100000000000100000000320000
310
D0CF11E0A1B11AE1000000000000000000000000000000003E000300FEFF0900
310
0600000000000000000000000100000001000000000000000010000002000000
310
01000000FEFFFFFF0000000000000000FFFFFFFFFFFFFFFFFFFFFFFFFFFFFFFF
310
FFFFFFFFFFFFFFFFFFFFFFFFFFFFFFFFFFFFFFFFFFFFFFFFFFFFFFFFFFFFFFFF
310
FFFFFFFFFFFFFFFFFFFFFFFFFFFFFFFFFFFFFFFFFFFFFFFFFFFFFFFFFFFFFFFF
310
FFFFFFFFFFFFFFFFFFFFFFFFFFFFFFFFFFFFFFFFFFFFFFFFFFFFFFFFFFFFFFFF
310
FFFFFFFFFFFFFFFFFFFFFFFFFFFFFFFFFFFFFFFFFFFFFFFFFFFFFFFFFFFFFFFF
310
FFFFFFFFFFFFFFFFFFFFFFFFFFFFFFFFFFFFFFFFFFFFFFFFFFFFFFFFFFFFFFFF
310
FFFFFFFFFFFFFFFFFFFFFFFFFFFFFFFFFFFFFFFFFFFFFFFFFFFFFFFFFFFFFFFF
310
FFFFFFFFFFFFFFFFFFFFFFFFFFFFFFFFFFFFFFFFFFFFFFFFFFFFFFFFFFFFFFFF
310
FFFFFFFFFFFFFFFFFFFFFFFFFFFFFFFFFFFFFFFFFFFFFFFFFFFFFFFFFFFFFFFF
310
FFFFFFFFFFFFFFFFFFFFFFFFFFFFFFFFFFFFFFFFFFFFFFFFFFFFFFFFFFFFFFFF
310
FFFFFFFFFFFFFFFFFFFFFFFFFFFFFFFFFFFFFFFFFFFFFFFFFFFFFFFFFFFFFFFF
310
FFFFFFFFFFFFFFFFFFFFFFFFFFFFFFFFFFFFFFFFFFFFFFFFFFFFFFFFFFFFFFFF
310
FFFFFFFFFFFFFFFFFFFFFFFFFFFFFFFFFFFFFFFFFFFFFFFFFFFFFFFFFFFFFFFF
310
FFFFFFFFFFFFFFFFFFFFFFFFFFFFFFFFFFFFFFFFFFFFFFFFFFFFFFFFFFFFFFFF
310
FDFFFFFFFEFFFFFFFEFFFFFFFEFFFFFF05000000060000000700000008000000
310
090000000A0000000B0000000C0000000D0000000E0000000F00000010000000
310
11000000120000001300000014000000150000001600000017000000FEFFFFFF
310
FFFFFFFFFFFFFFFFFFFFFFFFFFFFFFFFFFFFFFFFFFFFFFFFFFFFFFFFFFFFFFFF
310
FFFFFFFFFFFFFFFFFFFFFFFFFFFFFFFFFFFFFFFFFFFFFFFFFFFFFFFFFFFFFFFF
310
FFFFFFFFFFFFFFFFFFFFFFFFFFFFFFFFFFFFFFFFFFFFFFFFFFFFFFFFFFFFFFFF
310
FFFFFFFFFFFFFFFFFFFFFFFFFFFFFFFFFFFFFFFFFFFFFFFFFFFFFFFFFFFFFFFF
310
FFFFFFFFFFFFFFFFFFFFFFFFFFFFFFFFFFFFFFFFFFFFFFFFFFFFFFFFFFFFFFFF
310
FFFFFFFFFFFFFFFFFFFFFFFFFFFFFFFFFFFFFFFFFFFFFFFFFFFFFFFFFFFFFFFF
310
FFFFFFFFFFFFFFFFFFFFFFFFFFFFFFFFFFFFFFFFFFFFFFFFFFFFFFFFFFFFFFFF
310
FFFFFFFFFFFFFFFFFFFFFFFFFFFFFFFFFFFFFFFFFFFFFFFFFFFFFFFFFFFFFFFF
310
FFFFFFFFFFFFFFFFFFFFFFFFFFFFFFFFFFFFFFFFFFFFFFFFFFFFFFFFFFFFFFFF
310
FFFFFFFFFFFFFFFFFFFFFFFFFFFFFFFFFFFFFFFFFFFFFFFFFFFFFFFFFFFFFFFF
310
FFFFFFFFFFFFFFFFFFFFFFFFFFFFFFFFFFFFFFFFFFFFFFFFFFFFFFFFFFFFFFFF
310
FFFFFFFFFFFFFFFFFFFFFFFFFFFFFFFFFFFFFFFFFFFFFFFFFFFFFFFFFFFFFFFF
310
FFFFFFFFFFFFFFFFFFFFFFFFFFFFFFFFFFFFFFFFFFFFFFFFFFFFFFFFFFFFFFFF
310
52006F006F007400200045006E00740072007900000000000000000000000000
310
0000000000000000000000000000000000000000000000000000000000000000
310
16000500FFFFFFFFFFFFFFFF020000000A00030000000000C000000000000046
310
00000000000000000000000090A3BCF7CE49D00103000000C000000000000000
310
01004F006C006500000000000000000000000000000000000000000000000000
310
0000000000000000000000000000000000000000000000000000000000000000
310
0A000200FFFFFFFFFFFFFFFFFFFFFFFF00000000000000000000000000000000
310
0000000000000000000000000000000000000000000000001400000000000000
310
010043006F006D0070004F0062006A0000000000000000000000000000000000
310
0000000000000000000000000000000000000000000000000000000000000000
310
120002010100000003000000FFFFFFFF00000000000000000000000000000000
310
0000000000000000000000000000000000000000010000004D00000000000000
310
01004F006C006500310030004E00610074006900760065000000000000000000
310
0000000000000000000000000000000000000000000000000000000000000000
310
1A000200FFFFFFFFFFFFFFFFFFFFFFFF00000000000000000000000000000000
310
0000000000000000000000000000000000000000040000002426000000000000
310
FEFFFFFF02000000FEFFFFFFFFFFFFFFFFFFFFFFFFFFFFFFFFFFFFFFFFFFFFFF
310
FFFFFFFFFFFFFFFFFFFFFFFFFFFFFFFFFFFFFFFFFFFFFFFFFFFFFFFFFFFFFFFF
310
FFFFFFFFFFFFFFFFFFFFFFFFFFFFFFFFFFFFFFFFFFFFFFFFFFFFFFFFFFFFFFFF
310
FFFFFFFFFFFFFFFFFFFFFFFFFFFFFFFFFFFFFFFFFFFFFFFFFFFFFFFFFFFFFFFF
310
FFFFFFFFFFFFFFFFFFFFFFFFFFFFFFFFFFFFFFFFFFFFFFFFFFFFFFFFFFFFFFFF
310
FFFFFFFFFFFFFFFFFFFFFFFFFFFFFFFFFFFFFFFFFFFFFFFFFFFFFFFFFFFFFFFF
310
FFFFFFFFFFFFFFFFFFFFFFFFFFFFFFFFFFFFFFFFFFFFFFFFFFFFFFFFFFFFFFFF
310
FFFFFFFFFFFFFFFFFFFFFFFFFFFFFFFFFFFFFFFFFFFFFFFFFFFFFFFFFFFFFFFF
310
FFFFFFFFFFFFFFFFFFFFFFFFFFFFFFFFFFFFFFFFFFFFFFFFFFFFFFFFFFFFFFFF
310
FFFFFFFFFFFFFFFFFFFFFFFFFFFFFFFFFFFFFFFFFFFFFFFFFFFFFFFFFFFFFFFF
310
FFFFFFFFFFFFFFFFFFFFFFFFFFFFFFFFFFFFFFFFFFFFFFFFFFFFFFFFFFFFFFFF
310
FFFFFFFFFFFFFFFFFFFFFFFFFFFFFFFFFFFFFFFFFFFFFFFFFFFFFFFFFFFFFFFF
310
FFFFFFFFFFFFFFFFFFFFFFFFFFFFFFFFFFFFFFFFFFFFFFFFFFFFFFFFFFFFFFFF
310
FFFFFFFFFFFFFFFFFFFFFFFFFFFFFFFFFFFFFFFFFFFFFFFFFFFFFFFFFFFFFFFF
310
FFFFFFFFFFFFFFFFFFFFFFFFFFFFFFFFFFFFFFFFFFFFFFFFFFFFFFFFFFFFFFFF
310
FFFFFFFFFFFFFFFFFFFFFFFFFFFFFFFFFFFFFFFFFFFFFFFFFFFFFFFFFFFFFFFF
310
0100000200000000000000000000000000000000000000000000000000000000
310
0000000000000000000000000000000000000000000000000000000000000000
310
0100FEFF030A0000FFFFFFFF0A00030000000000C00000000000004607000000
310
5042727573680007000000504272757368000700000050427275736800F439B2
310
7100000000000000000000000000000000000000000000000000000000000000
310
0000000000000000000000000000000000000000000000000000000000000000
310
0000000000000000000000000000000000000000000000000000000000000000
310
0000000000000000000000000000000000000000000000000000000000000000
310
0000000000000000000000000000000000000000000000000000000000000000
310
0000000000000000000000000000000000000000000000000000000000000000
310
0000000000000000000000000000000000000000000000000000000000000000
310
0000000000000000000000000000000000000000000000000000000000000000
310
0000000000000000000000000000000000000000000000000000000000000000
310
0000000000000000000000000000000000000000000000000000000000000000
310
0000000000000000000000000000000000000000000000000000000000000000
310
0000000000000000000000000000000000000000000000000000000000000000
310
20260000424D0E260000000000003E00000028000000B40200006E0000000100
310
01000000000000000000130B0000130B00000200000002000000000000FFFFFF
310
FFFFFFFFFFFFFFFFFFFFFFFFFFFFFFFFFFFFFFFFFFFFFFFFFFFFFFFFFFFFFFFF
310
FFFFFFFFFFFFFFFFFFFFFFFFFFFFFFFFFFFFFFFFFFFFFFFFFFFFFFFFFFFFFFFF
310
FFFFFFFFFFFFFFFFFFFFFFFFFFFFFFFFFFFFFFFFFFFFFFFFF000FFFFFFFFFFFF
310
FFFFFFFFFFFFFFFFFFFFFFFFFFFFFFFFFFFFFFFFFFFFFFFFFFFFFFFFFFFFFFFF
310
FFFFFFFFFFFFFFFFFFFFFFFFFFFFFFFFFFFFFFFFFFFFFFFFFFFFFFFFFFFFFFFF
310
FFFFFFFFFFFFFFFFFFFFFFFFFFFFFFFFF000FFFFFFFFFFFFFFFFFFFFFFFFFFFF
310
FFFFFFFFFFFFFFFFFFFFFFFFFFFFFFFFFFFFFFFFFFFFFFFFFFFFFFFFFFFFFFFF
310
FFFFFFFFFFFFFFFFFFFFFFFFFFFFFFFFFFFFFFFFFFFFFFFFFFFFFFFFFFFFFFFF
310
FFFFFFFFFFFFFFFFF000FFFFFFFFFFFFFFFFFFFFFFFFFFFFFFFFFFFFFFFFFFFF
310
FFFFFFFFFFFFFFFFFFFFFFFFFFFFFFFFFFFFFFFFFFFFFFFFFFFFFFFFFFFFFFFF
310
FFFFFFFFFFFFFFFFFFFFFFFFFFFFFFFFFFFFFFFFFFFFFFFFFFFFFFFFFFFFFFFF
310
F000FFFFFFFFFFFFFFFFFFFFFFFFFFFFFFFFFFFFFFFFFFFFFFFFFFFFFFFFFFFF
310
FFFFFFFFFFFFFFFFFFFFFFFFFFFFFFFFFFFFFFFFFFFFFFFFFFFFFFFFFFFFFFFF
310
FFFFFFFFFFFFFFFFFFFFFFFFFFFFFFFFFFFFFFFFFFFFFFFFF000FFFFFFFFFFFF
310
FFFFFFFFFFFFFFFFFFFFFFFFFFFFFFFFFFFFFFFFFFFFFFFFFFFFFFFFFFFFFFFF
310
FFFFFFFFFFFFFFFFFFFFFFFFFFFFFFFFFFFFFFFFFFFFFFFFFFFFFFFFFFFFFFFF
310
FFFFFFFFFFFFFFFFFFFFFFFFFFFFFFFFF000FFFFFFFFFFFFFFFFFFFFFFFFFFFF
310
FFFFFFFFFFFFFFFFFFFFFFFFFFFFFFFFFFFFFFFFFFFFFFFFFFFFFFFFFFFFFFFF
310
FFFFFFFFFFFFFFFFFFFFFFFFFFFFFFFFFFFFFFFFFFFFFFFFFFFFFFFFFFFFFFFF
310
FFFFFFFFFFFFFFFFF000FFFFFFFFFFFFFFFFFFFFFFFFFFFFFFFFFFFFFFFFFFFF
310
FFFFFFFFFFFFFFFFFFFFFFFFFFFFFFFFFFFFFFFFFFFFFFFFFFFFFFFFFFFFFFFF
310
FFFFFFFFFFFFFFFFFFFFFFFFFFFFFFFFFFFFFFFFFFFFFFFFFFFFFFFFFFFFFFFF
310
F000FFFFFFFFFFFFFFFFFFFFFFFFFFFFFFFFFFFFFFFFFFFFFFFFFFFFFFFFFFFF
310
FFFFFFFFFFFFFFFFFFFFFFFFFFFFFFFFFFFFFFFFFFFFFFFFFFFFFFFFFFFFFFFF
310
FFFFFFFFFFFFFFFFFFFFFFFFFFFFFFFFFFFFFFFFFFFFFFFFF000FFFFFFFFFFFF
310
FFFFFFFFFFFFFFFFFFFFFFFFFFFFFFFFFFFFFFFFFFFFFFFFFFFFFFFFFFFFFFFF
310
FFFFFFFFFFFFFFFFFFFFFFFFFFFFFFFFFFFFFFFFFFFFFFFFFFFFFFFFFFFFFFFF
310
FFFFFFFFFFFFFFFFFFFFFFFFFFFFFFFFF000FFFFFFFFFFFFFFFFFFFFFFFFFFFF
310
FFFFFFFFFFFFFFFFFFFFFFFFFFFFFFFFFFFFFFFFFFFFFFFFFFFFFFFFFFFFFFFF
310
FFFFFFFFFFFFFFFFFFFFFFFFFFFFFFFFFFFFFFFFFFFFFFFFFFFFFFFFFFFFFFFF
310
FFFFFFFFFFFFFFFFF000FFFFFFFFFFFFFFFFFFFFFFFFFFFFFFFFFFFFFFFFFFFF
310
FFFFFFFFFFFFFFFFFFFFFFFFFFFFFFFFFFFFFFFFFFFFFFFFFFFFFFFFFFFFFFFF
310
FFFFFFFFFFFFFFFFFFFFFFFFFFFFFFFFFFFFFFFFFFFFFFFFFFFFFFFFFFFFFFFF
310
F000FFFFFFFFFFFFFFFFFFFFFFFFFFFFFFFFFFFFFFFFFFFFFFFFFFFFFFFFFFFF
310
FFFFFFFFFFFFFFFFFFFFFFFFFFFFFFFFFFFFFFFFFFFFFFFFFFFFFFFFFFFFFFFF
310
FFFFFFFFFFFFFFFFFFFFFFFFFFFFFFFFFFFFFFFFFFFFFFFFF000FFFFFFFFFFFF
310
FFFFFFFFFFFFFFFFFFFFFFFFFFFFFFFFFFFFFFFFFFFFFFFFFFFFFFFFFFFFFFFF
310
FFFFFFFFFFFFFFFFFFFFFFFFFFFFFFFFFFFFFFFFFFFFFFFFFFFFFFFFFFFFFFFF
310
FFFFFFFFFFFFFFFFFFFFFFFFFFFFFFFFF000FFFFFFFFFFFFFFFFFFFFFFFFFFFF
310
FFFFFFFFFFFFFFFFFFFFFFFFFFFFFFFFFFFFFFFFFFFFFFFFFFFFFFFFFFFFFFFF
310
FFFFFFFFFFFFFFFFFFFFFFFFFFFFFFFFFFFFFFFFFFFFFFFFFFFFFFFFFFFFFFFF
310
FFFFFFFFFFFFFFFFF000FFFFFFFFFFFFFFFFFFFFFFFFFFFFFFFFFFFFFFFFFFFF
310
FFFFFFFFFFFFFFFFFFFFFFFFFFFFFFFFFFFFFFFFFFFFFFFFFFFFFFFFFFFFFFFF
310
FFFFFFFFFFFFFFFFFFFFFFFFFFFFFFFFFFFFFFFFFFFFFFFFFFFFFFFFFFFFFFFF
310
F000FFFFFFFFFFFFFFFFFFFFFFFFFFFFFFFFFFFFFFFFFFFFFFFFFFFFFFFFFFFF
310
FFFFFFFFFFFFFFFFFFFFFFFFFFFFFFFFFFFFFFFFFFFFFFFFFFFFFFFFFFFFFFFF
310
FFFFFFFFFFFFFFFFFFFFFFFFFFFFFFFFFFFFFFFFFFFFFFFFF000FFFFFFFFFFFF
310
FFFFFFFFFFFFFFFFFFFFFFFFFFFFFFFFFFFFFFFFFFFFFFFFFFFFFFFFFFFFFFFF
310
FFFFFFFFFFFFFFFFFFFFFFFFFFFFFFFFFFFFFFFFFFFFFFFFFFFFFFFFFFFFFFFF
310
FFFFFFFFFFFFFFFFFFFFFFFFFFFFFFFFF000FFFFFFFFFFFFFFFFFFFFFFFFFFFF
310
FFFFFFFFFFFFFFFFFFFFFFFFFFFFFFFFFFFFFFFFFFFFFFFFFFFFFFFFFFFFFFFF
310
FFFFFFFFFFFFFFFFFFFFFFFFFFFFFFFFFFFFFFFFFFFFFFFFFFFFFFFFFFFFFFFF
310
FFFFFFFFFFFFFFFFF000FFFFF80003FFFFFFFFFFFFFFFFFFFFFFFFFFFFFFFFFF
310
FFFFF00007FFFFFFFFFF00007FFFFFF800000000000000007FFFFFFFFFFFFFFF
310
FFFFFFFC001FFFFFFFFFFFFFFC001FFFFFFFFFFFFFFFFFFFFFFFFFFE0007FFFF
310
F000FFFF8000007FFFFFFFF8000FFFFFC0007FFFFF80007FFFFF0000007FFFFF
310
FFF8000007FFFFF800000000000000007FFFFFF0001FFFFFFFFFFFC00001FFFF
310
FFFFFFFFC00001FFFFFFFF000000000003FFFFE000007FFFF000FFFE0000000F
310
FFFFFFF0000FFFFF80007FFFFF80007FFFFC0000001FFFFFFFC0000001FFFFF8
310
00000000000000007FFFFFF0001FFFFFFFFFFE0000003FFFFFFFFFFE0000003F
310
FFFFFF000000000003FFFF0000000FFFF000FFF800000003FFFFFFF00007FFFF
310
80007FFFFF80007FFFF000000007FFFFFF000000003FFFF80000000000000000
310
7FFFFFF0001FFFFFFFFFF80000000FFFFFFFFFF80000000FFFFFFF0000000000
310
03FFFC00000003FFF000FFE000000000FFFFFFF00007FFFF80003FFFFF80007F
310
FFC000000001FFFFFC000000001FFFF800000000000000007FFFFFF0001FFFFF
310
FFFFE000000003FFFFFFFFE000000003FFFFFF000000000003FFF000000000FF
310
F000FF80000000007FFFFFF00007FFFF80003FFFFF80007FFF8000000000FFFF
310
F80000000007FFF800000000000000007FFFFFF0001FFFFFFFFFC000000001FF
310
FFFFFFC000000001FFFFFF000000000003FFC0000000007FF000FF0000000000
310
3FFFFFE00007FFFF00003FFFFF80007FFE00000000003FFFF00000000003FFF8
310
00000000000000007FFFFFF0001FFFFFFFFF8000000000FFFFFFFF8000000000
310
FFFFFF000000000003FF80000000003FF000FE00000000001FFFFFE00003FFFF
310
00003FFFFF80007FFC00000000001FFFE00000000001FFF8000001FFFE000000
310
7FFFFFF0001FFFFFFFFE00000000003FFFFFFE00000000003FFFFF0000000000
310
03FF00000000001FF000FC00000000000FFFFFE00003FFFF00001FFFFF80007F
310
F800000000001FFFC00000000000FFF8000001FFFE0000007FFFFFF0001FFFFF
310
FFFC00000000001FFFFFFC00000000001FFFFF000000000003FE00000000000F
310
F000F8000000000007FFFFE00003FFFF00001FFFFF80007FF800000000000FFF
310
800000000000FFF8000001FFFE0000007FFFFFF0001FFFFFFFF800000000000F
310
FFFFF800000000000FFFFF000000000003FC000000000007F000F80000000000
310
03FFFFC00003FFFE00001FFFFF80007FF0000000000007FF0000000000007FF8
310
000001FFFE0000007FFFFFF0001FFFFFFFF0000000000007FFFFF00000000000
310
07FFFF000000000003F8000000000003F000F0000000000003FFFFC00001FFFE
310
00001FFFFF80007FE0000000000007FE0000000000003FF8000001FFFE000000
310
7FFFFFF0001FFFFFFFF0000000000007FFFFF0000000000007FFFF0000000000
310
03F800001F800003F000E00001FFF00001FFFFC00001FFFE00000FFFFF80007F
310
E00001FFE00003FE00001FFF00003FF8000001FFFE0000007FFFFFF0001FFFFF
310
FFE000003E000003FFFFE000003E000003FFFF000000000003F00001FFF80001
310
F000E00007FFFC0001FFFFC00001FFFE00000FFFFF80007FC0000FFFFC0003FC
310
0000FFFFC0001FF8000001FFFE0000007FFFFFF0001FFFFFFFC00003FFE00001
310
FFFFC00003FFE00001FFFF0001FFFFFFFFF00007FFFE0001F000E0000FFFFF00
310
00FFFF800001FFFC00000FFFFF80007FC0001FFFFE0001FC0001FFFFE0001FF8
310
000001FFFE0000007FFFFFF0001FFFFFFF80000FFFF80000FFFF80000FFFF800
310
00FFFF0003FFFFFFFFE0000FFFFF8000F000C0003FFFFF8000FFFF800000FFFC
310
000007FFFF80007F80003FFFFF0001FC0003FFFFF0001FF8000001FFFE000000
310
7FFFFFF0001FFFFFFF80003FFFFE0000FFFF80003FFFFE0000FFFF0003FFFFFF
310
FFE0003FFFFF8000F000C0003FFFFF8000FFFF800000FFFC000007FFFF80007F
310
80007FFFFF8001F80007FFFFF8000FF8000001FFFE0000007FFFFFF0001FFFFF
310
FF00007FFFFF00007FFF00007FFFFF00007FFF0003FFFFFFFFE0003FFFFFC000
310
F000C0007FFFFFC000FFFF000000FFFC000007FFFF80007F8000FFFFFF8000F8
310
000FFFFFF8000FF8000001FFFE0000007FFFFFF0001FFFFFFF0000FFFFFF8000
310
7FFF0000FFFFFF80007FFF0003FFFFFFFFC0007FFFFFC00070008000FFFFFFC0
310
00FFFF000000FFF8000007FFFF80007F8000FFFFFF8000F8000FFFFFF8000FF8
310
000001FFFE0000007FFFFFF0001FFFFFFE0001FFFFFFC0003FFE0001FFFFFFC0
310
003FFF0003FFFFFFFFC0007FFFFFE00070008000FFFFFFC0007FFF0000007FF8
310
000003FFFF80007F0001FFFFFF8000F8000FFFFFF8000FF8000001FFFE000000
310
7FFFFFF0001FFFFFFE0001FFFFFFC0003FFE0001FFFFFFC0003FFF0003FFFFFF
310
FFC000FFFFFFE00070008000FFFFFFC0007FFF0000007FF8000003FFFF80007F
310
0001FFFFFF8000F8001FFFFFF8000FF8000001FFFE0000007FFFFFF0001FFFFF
310
FE0003FFFFFFE0003FFE0003FFFFFFE0003FFF0003FFFFFFFFC000FFFFFFE000
310
70008000FFFFFFC0007FFE0000007FF8000003FFFF80007F0001FFFFFF8000F0
310
001FFFFFF8000FF8000001FFFE0000007FFFFFF0001FFFFFFC0003FFFFFFE000
310
1FFC0003FFFFFFE0001FFF0003FFFFFFFFC000FFFFFFC00070008000FFFFFF80
310
007FFE0000007FF0000003FFFF80007F0001FFFFFF0000F0001FFFFFF8000FF8
310
000001FFFE0000007FFFFFF0001FFFFFFC0007FFFFFFF0001FFC0007FFFFFFF0
310
001FFF0003FFFFFFFFC000FFFFFFC00070008001FFFFFF0000FFFE0000003FF0
310
000001FFFF80007F0001FFFFFF0000F8001FFFFFF0000FF8000001FFFE000000
310
7FFFFFF0001FFFFFFC0007FFFFFFF0001FFC0007FFFFFFF0001FFF0003FFFFFF
310
FFC001FFFFFF80007000FFFFFFFFFE0000FFFE0008003FF0008001FFFF80007F
310
FFFFFFFFFC0000FFFFFFFFFFE0000FF8000001FFFE0000007FFFFFF0001FFFFF
310
F8000FFFFFFFF8000FF8000FFFFFFFF8000FFF0003FFFFFFFFFFFFFFFFFF0000
310
7000FFFFFFFFFC0000FFFC0008003FF0008001FFFF80007FFFFFFFFFF80001FF
310
FFFFFFFF80000FF8000001FFFE0000007FFFFFF0001FFFFFF8000FFFFFFFF800
310
0FF8000FFFFFFFF8000FFF0003FFFFFFFFFFFFFFFFFE0000F000FFFFFFFFE000
310
00FFFC000C003FE000C001FFFF80007FFFFFFFFFC00001FFFFFFFFFE00001FF8
310
000001FFFE0000007FFFFFF0001FFFFFF8000FFFFFFFF8000FF8000FFFFFFFF8
310
000FFF0003FFFFFFFFFFFFFFFFF00000F000FFFFFFFE000001FFFC000C001FE0
310
00C000FFFF80007FFFFFFFFE000001FFFFFFFFE000001FF80FFFFFFFFFFFFFC0
310
7FFFFFF0001FFFFFF8000FFFFFFFF8000FF8000FFFFFFFF8000FFF0003FFFFFF
310
FFFFFFFFFF800000F000FFFFFFC0000001FFFC001C001FE001C000FFFF80007F
310
FFFFFF80000003FFFFFFF80000001FF80FFFFFFFFFFFFFC07FFFFFF0001FFFFF
310
F8001FFFFFFFFC000FF8001FFFFFFFFC000FFF0003FFFFFFFFFFFFFFF0000001
310
F000FFFFF800000001FFF8001C001FE001C000FFFF80007FFFFFF800000003FF
310
FFFF800000003FF80FFFFFFFFFFFFFC07FFFFFF0001FFFFFF8001FFFFFFFFC00
310
0FF8001FFFFFFFFC000FFF0003FFFFFFFFFFFFFE00000001F000FFFFC0000000
310
03FFF8001E001FC001E000FFFF80007FFFFF8000000007FFFFFC000000003FF8
310
0FFFFFFFFFFFFFC07FFFFFF0001FFFFFF8001FFFFFFFFC000FF8001FFFFFFFFC
310
000FFF0003FFFFFFFFFFFFE000000003F000FFFE0000000007FFF8001E000FC0
310
01E0007FFF80007FFFFE0000000007FFFFE0000000007FF80FFFFFFFFFFFFFC0
310
7FFFFFF0001FFFFFF0001FFFFFFFFC0007F0001FFFFFFFFC0007FF0003FFFFFF
310
FFFFFF0000000003F000FFF80000000007FFF8001E000FC003E0007FFF80007F
310
FFF0000000000FFFFF8000000000FFF80FFFFFFFFFFFFFC07FFFFFF0001FFFFF
310
F0001FFFFFFFFC0007F0001FFFFFFFFC0007FF0003FFFFFFFFFFFC0000000007
310
F000FFE0000000000FFFF0003E000FC003E0007FFF80007FFFC0000000001FFF
310
FE0000000001FFF80FFFFFFFFFFFFFC07FFFFFF0001FFFFFF0001FFFFFFFFC00
310
07F0001FFFFFFFFC0007FF0003FFFFFFFFFFF0000000000FF000FFC000000000
310
1FFFF0003F000F8003F0003FFF80007FFF80000000003FFFF80000000003FFF8
310
0FFFFFFFFFFFFFC07FFFFFF0001FFFFFF0001FFFFFFFFC0007F0001FFFFFFFFC
310
0007FF0003FFFFFFFFFFE0000000001FF000FF00000000007FFFF0003F000780
310
03F0003FFF80007FFF00000000007FFFF00000000007FFF80FFFFFFFFFFFFFC0
310
7FFFFFF0001FFFFFF0001FFFFFFFFC0007F0001FFFFFFFFC0007FF0003FFFFFF
310
FFFF80000000007FF000FE0000000000FFFFE0003F00078007F0003FFF80007F
310
FE0000000001FFFFE0000000001FFFF80FFFFFFFFFFFFFC07FFFFFF0001FFFFF
310
F0001FFFFFFFFC0007F0001FFFFFFFFC0007FF0003FFFFFFFFFF0000000000FF
310
F000FC0000000003FFFFE0007F00078007F0003FFF80007FFC0000000007FFFF
310
C0000000007FFFF80FFFFFFFFFFFFFC07FFFFFF0001FFFFFF8001FFFFFFFFC00
310
0FF8001FFFFFFFFC000FFF0003FFFFFFFFFE0000000003FFF000FC000000000F
310
FFFFE0007F80070007F8001FFF80007FF8000000001FFFFF8000000001FFFFF8
310
0FFFFFFFFFFFFFC07FFFFFF0001FFFFFF8001FFFFFFFFC000FF8001FFFFFFFFC
310
000FFF0003FFFFFFFFFC000000000FFFF000F8000000007FFFFFE0007F800700
310
07F8001FFF80007FF000000000FFFFFF800000000FFFFFF80FFFFFFFFFFFFFC0
310
7FFFFFF0001FFFFFF8000FFFFFFFF8000FF8000FFFFFFFF8000FFF0003FFFFFF
310
FFFC000000007FFFF000F800000007FFFFFFC0007F8003000FF8001FFF80007F
310
F000000007FFFFFF000000007FFFFFF80FFFFFFFFFFFFFC07FFFFFF0001FFFFF
310
F8000FFFFFFFF8000FF8000FFFFFFFF8000FFF0003FFFFFFFFF80000000FFFFF
310
F000F0000000FFFFFFFFC000FF8003000FF8001FFF80007FE0000000FFFFFFFF
310
0000000FFFFFFFF8000001FFFE0000007FFFFFF0001FFFFFF8000FFFFFFFF800
310
0FF8000FFFFFFFF8000FFF0003FFFFFFFFF8000000FFFFFFF000F000000FFFFF
310
FFFFC000FFC002000FF8000FFF80007FE000001FFFFFFFFE000001FFFFFFFFF8
310
000001FFFE0000007FFFFFF0001FFFFFF8000FFFFFFFF8000FF8000FFFFFFFF8
310
000FFF0003FFFFFFFFF000001FFFFFFFF000E00000FFFFFFFFFFC000FFC00200
310
0FFC000FFF80007FE00001FFFFFFFFFE00001FFFFFFFFFF8000001FFFE000000
310
7FFFFFF0001FFFFFFC000FFFFFFFF8001FFC000FFFFFFFF8001FFF0003FFFFFF
310
FFF00001FFFFFFFFF000E00007FFFFFFFFFF8000FFC000001FFC000FFF80007F
310
C0000FFFFFFFFFFE0000FFFFFFFFFFF8000001FFFE0000007FFFFFF0001FFFFF
310
FC0007FFFFFFF0001FFC0007FFFFFFF0001FFF0003FFFFFFFFF00007FFFFFFFF
310
F000E0001FFFFFFFFFFF8000FFC000001FFC000FFF80007FC0003FFFFFFFFFFE
310
0001FFFFFFFFFFF8000001FFFE0000007FFFFFF0001FFFFFFC0007FFFFFFF000
310
1FFC0007FFFFFFF0001FFF0003FFFFFFFFF0001FFFFFFFFFF000E0003FFFFF00
310
03FF8001FFE000001FFC0007FF80007FC0007FFFFF0007FC0003FFFFF0003FF8
310
000001FFFE0000007FFFFFF0001FFFFFFC0003FFFFFFE0001FFC0003FFFFFFE0
310
001FFF0003FFFFFFFFF0003FFFFFFFFFF000E0003FFFFF0001FF8001FFE00000
310
1FFE0007FF80007FC0007FFFFE0003FC0007FFFFE0003FF8000001FFFE000000
310
7FFFFFF0001FFFFFFE0003FFFFFFE0003FFE0003FFFFFFE0003FFF0003FFFFFF
310
FFF0003FFFFF8001F000E0003FFFFF0001FF0001FFE000001FFE0007FF80007F
310
C0007FFFFE0003FC0007FFFFE0003FF8000001FFFE0000007FFFFFF0001FFFFF
310
FE0001FFFFFFC0003FFE0001FFFFFFC0003FFF0003FFFFFFFFF0003FFFFF0001
310
F000E0003FFFFF0003FF0001FFE000003FFE0007FF80007FC0007FFFFE0003FC
310
0007FFFFE0003FF8000001FFFE0000007FFFFFF0001FFFFFFF0001FFFFFFC000
310
7FFF0001FFFFFFC0007FFF0003FFFFFFFFF0003FFFFF0001F000E0003FFFFE00
310
03FF0003FFF000003FFE0003FF80007FC0007FFFFC0003FE0007FFFFE0003FF8
310
000001FFFE0000007FFFFFF0001FFFFFFF0000FFFFFF80007FFF0000FFFFFF80
310
007FFF0003FFFFFFFFF0003FFFFF0001F000E0003FFFFE0003FF0003FFF00000
310
3FFF0003FF80007FC0007FFFFC0007FE0007FFFFC0003FF8000001FFFE000000
310
7FFFFFF0001FFFFFFF80007FFFFF0000FFFF80007FFFFF0000FFFF0003FFFFFF
310
FFF0003FFFFF0003F000E0003FFFFC0003FE0003FFF000003FFF0003FF80007F
310
E0003FFFF80007FE0003FFFFC0007FF8000001FFFE0000007FFFFFF0001FFFFF
310
FF80003FFFFE0000FFFF80003FFFFE0000FFFF0003FFFFFFFFF0001FFFFE0003
310
F000F0001FFFF80003FE0003FFF000007FFF0001FF80007FE0003FFFF00007FE
310
0001FFFF80007FF8000001FFFE0000007FFFFFF0001FFFFFFFC0000FFFF80001
310
FFFFC0000FFFF80001FFFF0003FFFFFFFFF0001FFFFC0003F000F0000FFFF000
310
07FE0007FFF800007FFF0001FF80007FE0001FFFE00007FF0000FFFE00007FF8
310
000001FFFE0000007FFFFFF0001FFFFFFFC00003FFE00001FFFFC00003FFE000
310
01FFFF0003FFFFFFFFF8000FFFF80003F000F00003FFC00007FC0007FFF80000
310
7FFF8001FF80007FF00007FF80000FFF00007FF80000FFF8000001FFFE000000
310
7F80000000000001FFE000003E000003FFFFE000003E000003FFFF0003FFFFFF
310
FFF80003FFE00007F000F800000000000FFC0007FFF800007FFF8001FF80007F
310
F000000000000FFF000000000000FFF8000001FFFE0000007F80000000000001
310
FFF0000000000007FFFFF0000000000007FFFF0003FFFFFFFFFC00007E000007
310
F000F800000000000FFC0007FFF80000FFFF8000FF80007FF800000000001FFF
310
800000000001FFF8000001FFFE0000007F80000000000001FFF800000000000F
310
FFFFF800000000000FFFFF0003FFFFFFFFFC00000000000FF000FC0000000000
310
1FFC0007FFFC0000FFFF8000FF80007FF800000000003FFFC00000000001FFF8
310
000001FFFE0000007F80000000000001FFF800000000000FFFFFF80000000000
310
0FFFFF0003FFFFFFFFFE00000000001FF000FE00000000003FF8000FFFFC0000
310
FFFF8000FF80007FFC00000000003FFFC00000000003FFF8000001FFFE000000
310
7F80000000000001FFFC00000000001FFFFFFC00000000001FFFFF0003FFFFFF
310
FFFF00000000001FF000FF00000000003FF8000FFFFC0000FFFFC000FF80007F
310
FE00000000007FFFE00000000007FFF8000001FFFE0000007F80000000000001
310
FFFE00000000003FFFFFFE00000000003FFFFF0003FFFFFFFFFF80000000003F
310
F000FF80000000007FF8000FFFFC0001FFFFC0007F80007FFF0000000000FFFF
310
F0000000000FFFF800000000000000007F80000000000001FFFF8000000000FF
310
FFFFFF8000000000FFFFFF0003FFFFFFFFFFC0000000007FF000FFC000000000
310
FFF8000FFFFE0001FFFFC0007F80007FFF8000000001FFFFF8000000001FFFF8
310
00000000000000007F80000000000001FFFFC000000001FFFFFFFFC000000001
310
FFFFFF0003FFFFFFFFFFE000000000FFF000FFE000000003FFF0001FFFFE0001
310
FFFFC0007F80007FFFC000000007FFFFFE000000003FFFF80000000000000000
310
7F80000000000001FFFFE000000003FFFFFFFFE000000003FFFFFF0003FFFFFF
310
FFFFF000000003FFF000FFF80000000FFFF0001FFFFE0001FFFFE0007F80007F
310
FFF00000000FFFFFFF00000000FFFFF800000000000000007F80000000000001
310
FFFFF80000000FFFFFFFFFF80000000FFFFFFF0003FFFFFFFFFFFC0000000FFF
310
F000FFFE0000003FFFF0001FFFFE0003FFFFE0003F80007FFFFC0000003FFFFF
310
FFC0000003FFFFF800000000000000007F80000000000001FFFFFE0000003FFF
310
FFFFFFFE0000003FFFFFFF0003FFFFFFFFFFFF0000003FFFF000FFFF800000FF
310
FFF0001FFFFF0003FFFFE0003F80007FFFFF000001FFFFFFFFF800001FFFFFF8
310
00000000000000007F80000000000001FFFFFFC00001FFFFFFFFFFFFC00001FF
310
FFFFFF0003FFFFFFFFFFFFC00000FFFFF000FFFFF8000FFFFFFFFFFFFFFFFFFF
310
FFFFFFFFFFFFFFFFFFFFF0001FFFFFFFFFFF0000FFFFFFF80000000000000000
310
7FFFFFFFFFFFFFFFFFFFFFFC001FFFFFFFFFFFFFFC001FFFFFFFFFFFFFFFFFFF
310
FFFFFFFC001FFFFFF000FFFFFFFFFFFFFFFFFFFFFFFFFFFFFFFFFFFFFFFFFFFF
310
FFFFFFFFFFFFFFFFFFFFFFFFFFFFFFFFFFFFFFFFFFFFFFFFFFFFFFFFFFFFFFFF
310
FFFFFFFFFFFFFFFFFFFFFFFFFFFFFFFFFFFFFFFFFFFFFFFFFFFFFFFFFFFFFFFF
310
F000FFFFFFFFFFFFFFFFFFFFFFFFFFFFFFFFFFFFFFFFFFFFFFFFFFFFFFFFFFFF
310
FFFFFFFFFFFFFFFFFFFFFFFFFFFFFFFFFFFFFFFFFFFFFFFFFFFFFFFFFFFFFFFF
310
FFFFFFFFFFFFFFFFFFFFFFFFFFFFFFFFFFFFFFFFFFFFFFFFF000FFFFFFFFFFFF
310
FFFFFFFFFFFFFFFFFFFFFFFFFFFFFFFFFFFFFFFFFFFFFFFFFFFFFFFFFFFFFFFF
310
FFFFFFFFFFFFFFFFFFFFFFFFFFFFFFFFFFFFFFFFFFFFFFFFFFFFFFFFFFFFFFFF
310
FFFFFFFFFFFFFFFFFFFFFFFFFFFFFFFFF000FFFFFFFFFFFFFFFFFFFFFFFFFFFF
310
FFFFFFFFFFFFFFFFFFFFFFFFFFFFFFFFFFFFFFFFFFFFFFFFFFFFFFFFFFFFFFFF
310
FFFFFFFFFFFFFFFFFFFFFFFFFFFFFFFFFFFFFFFFFFFFFFFFFFFFFFFFFFFFFFFF
310
FFFFFFFFFFFFFFFFF000FFFFFFFFFFFFFFFFFFFFFFFFFFFFFFFFFFFFFFFFFFFF
310
FFFFFFFFFFFFFFFFFFFFFFFFFFFFFFFFFFFFFFFFFFFFFFFFFFFFFFFFFFFFFFFF
310
FFFFFFFFFFFFFFFFFFFFFFFFFFFFFFFFFFFFFFFFFFFFFFFFFFFFFFFFFFFFFFFF
310
F000FFFFFFFFFFFFFFFFFFFFFFFFFFFFFFFFFFFFFFFFFFFFFFFFFFFFFFFFFFFF
310
FFFFFFFFFFFFFFFFFFFFFFFFFFFFFFFFFFFFFFFFFFFFFFFFFFFFFFFFFFFFFFFF
310
FFFFFFFFFFFFFFFFFFFFFFFFFFFFFFFFFFFFFFFFFFFFFFFFF000FFFFFFFFFFFF
310
FFFFFFFFFFFFFFFFFFFFFFFFFFFFFFFFFFFFFFFFFFFFFFFFFFFFFFFFFFFFFFFF
310
FFFFFFFFFFFFFFFFFFFFFFFFFFFFFFFFFFFFFFFFFFFFFFFFFFFFFFFFFFFFFFFF
310
FFFFFFFFFFFFFFFFFFFFFFFFFFFFFFFFF000FFFFFFFFFFFFFFFFFFFFFFFFFFFF
310
FFFFFFFFFFFFFFFFFFFFFFFFFFFFFFFFFFFFFFFFFFFFFFFFFFFFFFFFFFFFFFFF
310
FFFFFFFFFFFFFFFFFFFFFFFFFFFFFFFFFFFFFFFFFFFFFFFFFFFFFFFFFFFFFFFF
310
FFFFFFFFFFFFFFFFF000FFFFFFFFFFFFFFFFFFFFFFFFFFFFFFFFFFFFFFFFFFFF
310
FFFFFFFFFFFFFFFFFFFFFFFFFFFFFFFFFFFFFFFFFFFFFFFFFFFFFFFFFFFFFFFF
310
FFFFFFFFFFFFFFFFFFFFFFFFFFFFFFFFFFFFFFFFFFFFFFFFFFFFFFFFFFFFFFFF
310
F000FFFFFFFFFFFFFFFFFFFFFFFFFFFFFFFFFFFFFFFFFFFFFFFFFFFFFFFFFFFF
310
FFFFFFFFFFFFFFFFFFFFFFFFFFFFFFFFFFFFFFFFFFFFFFFFFFFFFFFFFFFFFFFF
310
FFFFFFFFFFFFFFFFFFFFFFFFFFFFFFFFFFFFFFFFFFFFFFFFF000FFFFFFFFFFFF
310
FFFFFFFFFFFFFFFFFFFFFFFFFFFFFFFFFFFFFFFFFFFFFFFFFFFFFFFFFFFFFFFF
310
FFFFFFFFFFFFFFFFFFFFFFFFFFFFFFFFFFFFFFFFFFFFFFFFFFFFFFFFFFFFFFFF
310
FFFFFFFFFFFFFFFFFFFFFFFFFFFFFFFFF000FFFFFFFFFFFFFFFFFFFFFFFFFFFF
310
FFFFFFFFFFFFFFFFFFFFFFFFFFFFFFFFFFFFFFFFFFFFFFFFFFFFFFFFFFFFFFFF
310
FFFFFFFFFFFFFFFFFFFFFFFFFFFFFFFFFFFFFFFFFFFFFFFFFFFFFFFFFFFFFFFF
310
FFFFFFFFFFFFFFFFF000FFFFFFFFFFFFFFFFFFFFFFFFFFFFFFFFFFFFFFFFFFFF
310
FFFFFFFFFFFFFFFFFFFFFFFFFFFFFFFFFFFFFFFFFFFFFFFFFFFFFFFFFFFFFFFF
310
FFFFFFFFFFFFFFFFFFFFFFFFFFFFFFFFFFFFFFFFFFFFFFFFFFFFFFFFFFFFFFFF
310
F000FFFFFFFFFFFFFFFFFFFFFFFFFFFFFFFFFFFFFFFFFFFFFFFFFFFFFFFFFFFF
310
FFFFFFFFFFFFFFFFFFFFFFFFFFFFFFFFFFFFFFFFFFFFFFFFFFFFFFFFFFFFFFFF
310
FFFFFFFFFFFFFFFFFFFFFFFFFFFFFFFFFFFFFFFFFFFFFFFFF000FFFFFFFFFFFF
310
FFFFFFFFFFFFFFFFFFFFFFFFFFFFFFFFFFFFFFFFFFFFFFFFFFFFFFFFFFFFFFFF
310
FFFFFFFFFFFFFFFFFFFFFFFFFFFFFFFFFFFFFFFFFFFFFFFFFFFFFFFFFFFFFFFF
310
FFFFFFFFFFFFFFFFFFFFFFFFFFFFFFFFF000FFFFFFFFFFFFFFFFFFFFFFFFFFFF
310
FFFFFFFFFFFFFFFFFFFFFFFFFFFFFFFFFFFFFFFFFFFFFFFFFFFFFFFFFFFFFFFF
310
FFFFFFFFFFFFFFFFFFFFFFFFFFFFFFFFFFFFFFFFFFFFFFFFFFFFFFFFFFFFFFFF
310
FFFFFFFFFFFFFFFFF000FFFFFFFFFFFFFFFFFFFFFFFFFFFFFFFFFFFFFFFFFFFF
310
FFFFFFFFFFFFFFFFFFFFFFFFFFFFFFFFFFFFFFFFFFFFFFFFFFFFFFFFFFFFFFFF
310
FFFFFFFFFFFFFFFFFFFFFFFFFFFFFFFFFFFFFFFFFFFFFFFFFFFFFFFFFFFFFFFF
310
F000FFFFFFFFFFFFFFFFFFFFFFFFFFFFFFFFFFFFFFFFFFFFFFFFFFFFFFFFFFFF
310
FFFFFFFFFFFFFFFFFFFFFFFFFFFFFFFFFFFFFFFFFFFFFFFFFFFFFFFFFFFFFFFF
310
FFFFFFFFFFFFFFFFFFFFFFFFFFFFFFFFFFFFFFFFFFFFFFFFF000FFFFFFFFFFFF
310
FFFFFFFFFFFFFFFFFFFFFFFFFFFFFFFFFFFFFFFFFFFFFFFFFFFFFFFFFFFFFFFF
310
FFFFFFFFFFFFFFFFFFFFFFFFFFFFFFFFFFFFFFFFFFFFFFFFFFFFFFFFFFFFFFFF
310
FFFFFFFFFFFFFFFFFFFFFFFFFFFFFFFFF000FFFFFFFFFFFFFFFFFFFFFFFFFFFF
310
FFFFFFFFFFFFFFFFFFFFFFFFFFFFFFFFFFFFFFFFFFFFFFFFFFFFFFFFFFFFFFFF
310
FFFFFFFFFFFFFFFFFFFFFFFFFFFFFFFFFFFFFFFFFFFFFFFFFFFFFFFFFFFFFFFF
310
FFFFFFFFFFFFFFFFF000FFFFFFFFFFFFFFFFFFFFFFFFFFFFFFFFFFFFFFFFFFFF
310
FFFFFFFFFFFFFFFFFFFFFFFFFFFFFFFFFFFFFFFFFFFFFFFFFFFFFFFFFFFFFFFF
310
FFFFFFFFFFFFFFFFFFFFFFFFFFFFFFFFFFFFFFFFFFFFFFFFFFFFFFFFFFFFFFFF
310
F000FFFFFFFFFFFFFFFFFFFFFFFFFFFFFFFFFFFFFFFFFFFFFFFFFFFFFFFFFFFF
310
FFFFFFFFFFFFFFFFFFFFFFFFFFFFFFFFFFFFFFFFFFFFFFFFFFFFFFFFFFFFFFFF
310
FFFFFFFFFFFFFFFFFFFFFFFFFFFFFFFFFFFFFFFFFFFFFFFFF000FFFFFFFFFFFF
310
FFFFFFFFFFFFFFFFFFFFFFFFFFFFFFFFFFFFFFFFFFFFFFFFFFFFFFFFFFFFFFFF
310
FFFFFFFFFFFFFFFFFFFFFFFFFFFFFFFFFFFFFFFFFFFFFFFFFFFFFFFFFFFFFFFF
310
FFFFFFFFFFFFFFFFFFFFFFFFFFFFFFFFF0000000000000000000000000000000
310
0000000000000000000000000000000000000000000000000000000000000000
310
0000000000000000000000000000000000000000000000000000000000000000
310
0000000000000000000000000000000000000000000000000000000000000000
310
0000000000000000000000000000000000000000000000000000000000000000
310
0000000000000000000000000000000000000000000000000000000000000000
310
0000000000000000000000000000000000000000000000000000000000000000
310
0000000000000000000000000000000000000000000000000000000000000000
310
0000000000000000000000000000000000000000000000000000000000000000
310
0000000000000000000000000000000000000000000000000000000000000000
310
0000000000000000000000000000000000000000000000000000000000000000
310
0000000000000000000000000000000000000000000000000000000000000000
310
0000000000000000000000000000000000000000000000000000000000000000
310
0000000000000000000000000000000000000000000000000000000000000000
310
0000000000000000000000000000000000000000000000000000000000000000
310
0000000000000000000000000000000000000000000000000000000000000000
  1
OLE
  0
ENDSEC
  0
SECTION
  2
OBJECTS
  0
DICTIONARY
  5
C
330
0
100
AcDbDictionary
281
     1
  3
ACAD_GROUP
350
D
  3
ACAD_LAYOUT
350
1A
  3
ACAD_MLINESTYLE
350
17
  3
ACAD_PLOTSETTINGS
350
19
  3
ACAD_PLOTSTYLENAME
350
E
  0
DICTIONARY
  5
D
102
{ACAD_REACTORS
330
C
102
}
330
C
100
AcDbDictionary
281
     1
  0
DICTIONARY
  5
1A
102
{ACAD_REACTORS
330
C
102
}
330
C
100
AcDbDictionary
281
     1
  3
Layout1
350
1E
  3
Layout2
350
26
  3
Model
350
22
  0
DICTIONARY
  5
17
102
{ACAD_REACTORS
330
C
102
}
330
C
100
AcDbDictionary
281
     1
  3
Standard
350
18
  0
DICTIONARY
  5
19
102
{ACAD_REACTORS
330
C
102
}
330
C
100
AcDbDictionary
281
     1
  0
ACDBDICTIONARYWDFLT
  5
E
102
{ACAD_REACTORS
330
C
102
}
330
C
100
AcDbDictionary
281
     1
  3
Normal
350
F
100
AcDbDictionaryWithDefault
340
F
  0
LAYOUT
  5
1E
102
{ACAD_REACTORS
330
1A
102
}
330
1A
100
AcDbPlotSettings
  1

  2
none_device
  4

  6

 40
0.0
 41
0.0
 42
0.0
 43
0.0
 44
0.0
 45
0.0
 46
0.0
 47
0.0
 48
0.0
 49
0.0
140
0.0
141
0.0
142
1.0
143
1.0
 70
   688
 72
     0
 73
     0
 74
     5
  7

 75
    16
147
1.0
148
0.0
149
0.0
100
AcDbLayout
  1
Layout1
 70
     1
 71
     1
 10
0.0
 20
0.0
 11
420.0
 21
297.0
 12
0.0
 22
0.0
 32
0.0
 14
1.0000000000E+20
 24
1.0000000000E+20
 34
1.0000000000E+20
 15
-1.0000000000E+20
 25
-1.0000000000E+20
 35
-1.0000000000E+20
146
0.0
 13
0.0
 23
0.0
 33
0.0
 16
1.0
 26
0.0
 36
0.0
 17
0.0
 27
1.0
 37
0.0
 76
     0
330
1B
  0
LAYOUT
  5
26
102
{ACAD_REACTORS
330
1A
102
}
330
1A
100
AcDbPlotSettings
  1

  2
none_device
  4

  6

 40
0.0
 41
0.0
 42
0.0
 43
0.0
 44
0.0
 45
0.0
 46
0.0
 47
0.0
 48
0.0
 49
0.0
140
0.0
141
0.0
142
1.0
143
1.0
 70
   688
 72
     0
 73
     0
 74
     5
  7

 75
    16
147
1.0
148
0.0
149
0.0
100
AcDbLayout
  1
Layout2
 70
     1
 71
     2
 10
0.0
 20
0.0
 11
0.0
 21
0.0
 12
0.0
 22
0.0
 32
0.0
 14
0.0
 24
0.0
 34
0.0
 15
0.0
 25
0.0
 35
0.0
146
0.0
 13
0.0
 23
0.0
 33
0.0
 16
1.0
 26
0.0
 36
0.0
 17
0.0
 27
1.0
 37
0.0
 76
     0
330
23
  0
LAYOUT
  5
22
102
{ACAD_REACTORS
330
1A
102
}
330
1A
100
AcDbPlotSettings
  1

  2
none_device
  4

  6

 40
0.0
 41
0.0
 42
0.0
 43
0.0
 44
0.0
 45
0.0
 46
0.0
 47
0.0
 48
0.0
 49
0.0
140
0.0
141
0.0
142
1.0
143
1.0
 70
  1712
 72
     0
 73
     0
 74
     0
  7

 75
     0
147
1.0
148
0.0
149
0.0
100
AcDbLayout
  1
Model
 70
     1
 71
     0
 10
0.0
 20
0.0
 11
297.0
 21
210.0
 12
0.0
 22
0.0
 32
0.0
 14
0.0
 24
0.0
 34
0.0
 15
297.0
 25
210.0
 35
0.0
146
0.0
 13
0.0
 23
0.0
 33
0.0
 16
1.0
 26
0.0
 36
0.0
 17
0.0
 27
1.0
 37
0.0
 76
     0
330
1F
331
29
  0
MLINESTYLE
  5
18
102
{ACAD_REACTORS
330
17
102
}
330
17
100
AcDbMlineStyle
  2
Standard
 70
     0
  3

 62
   256
 51
90.0
 52
90.0
 71
     2
 49
0.5
 62
   256
  6
BYLAYER
 49
-0.5
 62
   256
  6
BYLAYER
  0
ACDBPLACEHOLDER
  5
F
102
{ACAD_REACTORS
330
E
102
}
330
E
  0
ENDSEC
  0
EOF
