  0
SECTION
  2
HEADER
  9
$ACADVER
  1
AC1015
  9
$ACADMAINTVER
 70
     6
  9
$DWGCODEPAGE
  3
ANSI_1252
  9
$INSBASE
 10
0.0
 20
0.0
 30
0.0
  9
$EXTMIN
 10
0.0
 20
0.0
 30
0.0
  9
$EXTMAX
 10
297.0
 20
210.0
 30
0.0
  9
$LIMMIN
 10
0.0
 20
0.0
  9
$LIMMAX
 10
297.0
 20
210.0
  9
$ORTHOMODE
 70
     0
  9
$REGENMODE
 70
     1
  9
$FILLMODE
 70
     1
  9
$QTEXTMODE
 70
     0
  9
$MIRRTEXT
 70
     1
  9
$LTSCALE
 40
1.0
  9
$ATTMODE
 70
     1
  9
$TEXTSIZE
 40
2.0
  9
$TRACEWID
 40
1.0
  9
$TEXTSTYLE
  7
STANDARD
  9
$CLAYER
  8
0
  9
$CELTYPE
  6
ByLayer
  9
$CECOLOR
 62
   256
  9
$CELTSCALE
 40
1.0
  9
$DISPSILH
 70
     0
  9
$DIMSCALE
 40
1.0
  9
$DIMASZ
 40
3.0
  9
$DIMEXO
 40
0.0
  9
$DIMDLI
 40
3.75
  9
$DIMRND
 40
0.0
  9
$DIMDLE
 40
0.0
  9
$DIMEXE
 40
1.0
  9
$DIMTP
 40
0.0
  9
$DIMTM
 40
0.0
  9
$DIMTXT
 40
2.0
  9
$DIMCEN
 40
2.5
  9
$DIMTSZ
 40
0.0
  9
$DIMTOL
 70
     0
  9
$DIMLIM
 70
     0
  9
$DIMTIH
 70
     1
  9
$DIMTOH
 70
     1
  9
$DIMSE1
 70
     0
  9
$DIMSE2
 70
     0
  9
$DIMTAD
 70
     1
  9
$DIMZIN
 70
     0
  9
$DIMBLK
  1

  9
$DIMASO
 70
     1
  9
$DIMSHO
 70
     1
  9
$DIMPOST
  1

  9
$DIMAPOST
  1

  9
$DIMALT
 70
     0
  9
$DIMALTD
 70
     3
  9
$DIMALTF
 40
0.0393700787
  9
$DIMLFAC
 40
1.0
  9
$DIMTOFL
 70
     1
  9
$DIMTVP
 40
0.0
  9
$DIMTIX
 70
     0
  9
$DIMSOXD
 70
     0
  9
$DIMSAH
 70
     0
  9
$DIMBLK1
  1

  9
$DIMBLK2
  1

  9
$DIMSTYLE
  2
ISO-25
  9
$DIMCLRD
 70
     0
  9
$DIMCLRE
 70
     0
  9
$DIMCLRT
 70
     0
  9
$DIMTFAC
 40
1.0
  9
$DIMGAP
 40
1.524
  9
$DIMJUST
 70
     0
  9
$DIMSD1
 70
     0
  9
$DIMSD2
 70
     0
  9
$DIMTOLJ
 70
     0
  9
$DIMTZIN
 70
     0
  9
$DIMALTZ
 70
     0
  9
$DIMALTTZ
 70
     0
  9
$DIMUPT
 70
     0
  9
$DIMDEC
 70
     2
  9
$DIMTDEC
 70
     2
  9
$DIMALTU
 70
     2
  9
$DIMALTTD
 70
     3
  9
$DIMTXSTY
  7
STANDARD
  9
$DIMAUNIT
 70
     0
  9
$DIMADEC
 70
     0
  9
$DIMALTRND
 40
0.0
  9
$DIMAZIN
 70
     0
  9
$DIMDSEP
 70
    44
  9
$DIMATFIT
 70
     3
  9
$DIMFRAC
 70
     0
  9
$DIMLDRBLK
  1

  9
$DIMLUNIT
 70
     2
  9
$DIMLWD
 70
    -2
  9
$DIMLWE
 70
    -2
  9
$DIMTMOVE
 70
     0
  9
$LUNITS
 70
     2
  9
$LUPREC
 70
     2
  9
$SKETCHINC
 40
1.0
  9
$FILLETRAD
 40
10.0
  9
$AUNITS
 70
     0
  9
$AUPREC
 70
     0
  9
$MENU
  1
.
  9
$ELEVATION
 40
0.0
  9
$PELEVATION
 40
0.0
  9
$THICKNESS
 40
0.0
  9
$LIMCHECK
 70
     0
  9
$CHAMFERA
 40
10.0
  9
$CHAMFERB
 40
10.0
  9
$CHAMFERC
 40
20.0
  9
$CHAMFERD
 40
0.0
  9
$SKPOLY
 70
     0
  9
$TDCREATE
 40
2454910.40503412
  9
$TDUCREATE
 40
2454910.363367454
  9
$TDUPDATE
 40
2454910.405034132
  9
$TDUUPDATE
 40
2454910.363367465
  9
$TDINDWG
 40
0.0000000116
  9
$TDUSRTIMER
 40
0.0000000116
  9
$USRTIMER
 70
     1
  9
$ANGBASE
 50
0.0
  9
$ANGDIR
 70
     0
  9
$PDMODE
 70
     0
  9
$PDSIZE
 40
-1.0
  9
$PLINEWID
 40
0.0
  9
$SPLFRAME
 70
     0
  9
$SPLINETYPE
 70
     6
  9
$SPLINESEGS
 70
     8
  9
$HANDSEED
  5
274
  9
$SURFTAB1
 70
     6
  9
$SURFTAB2
 70
     6
  9
$SURFTYPE
 70
     6
  9
$SURFU
 70
     6
  9
$SURFV
 70
     6
  9
$UCSBASE
  2

  9
$UCSNAME
  2

  9
$UCSORG
 10
0.0
 20
0.0
 30
0.0
  9
$UCSXDIR
 10
1.0
 20
0.0
 30
0.0
  9
$UCSYDIR
 10
0.0
 20
1.0
 30
0.0
  9
$UCSORTHOREF
  2

  9
$UCSORTHOVIEW
 70
     0
  9
$UCSORGTOP
 10
0.0
 20
0.0
 30
0.0
  9
$UCSORGBOTTOM
 10
0.0
 20
0.0
 30
0.0
  9
$UCSORGLEFT
 10
0.0
 20
0.0
 30
0.0
  9
$UCSORGRIGHT
 10
0.0
 20
0.0
 30
0.0
  9
$UCSORGFRONT
 10
0.0
 20
0.0
 30
0.0
  9
$UCSORGBACK
 10
0.0
 20
0.0
 30
0.0
  9
$PUCSBASE
  2

  9
$PUCSNAME
  2

  9
$PUCSORG
 10
0.0
 20
0.0
 30
0.0
  9
$PUCSXDIR
 10
1.0
 20
0.0
 30
0.0
  9
$PUCSYDIR
 10
0.0
 20
1.0
 30
0.0
  9
$PUCSORTHOREF
  2

  9
$PUCSORTHOVIEW
 70
     0
  9
$PUCSORGTOP
 10
0.0
 20
0.0
 30
0.0
  9
$PUCSORGBOTTOM
 10
0.0
 20
0.0
 30
0.0
  9
$PUCSORGLEFT
 10
0.0
 20
0.0
 30
0.0
  9
$PUCSORGRIGHT
 10
0.0
 20
0.0
 30
0.0
  9
$PUCSORGFRONT
 10
0.0
 20
0.0
 30
0.0
  9
$PUCSORGBACK
 10
0.0
 20
0.0
 30
0.0
  9
$USERI1
 70
     0
  9
$USERI2
 70
     0
  9
$USERI3
 70
     0
  9
$USERI4
 70
     0
  9
$USERI5
 70
     0
  9
$USERR1
 40
0.0
  9
$USERR2
 40
0.0
  9
$USERR3
 40
0.0
  9
$USERR4
 40
0.0
  9
$USERR5
 40
0.0
  9
$WORLDVIEW
 70
     1
  9
$SHADEDGE
 70
     3
  9
$SHADEDIF
 70
    70
  9
$TILEMODE
 70
     1
  9
$MAXACTVP
 70
    64
  9
$PINSBASE
 10
0.0
 20
0.0
 30
0.0
  9
$PLIMCHECK
 70
     0
  9
$PEXTMIN
 10
1.0000000000E+20
 20
1.0000000000E+20
 30
1.0000000000E+20
  9
$PEXTMAX
 10
-1.0000000000E+20
 20
-1.0000000000E+20
 30
-1.0000000000E+20
  9
$PLIMMIN
 10
0.0
 20
0.0
  9
$PLIMMAX
 10
420.0
 20
297.0
  9
$UNITMODE
 70
     0
  9
$VISRETAIN
 70
     1
  9
$PLINEGEN
 70
     0
  9
$PSLTSCALE
 70
     1
  9
$TREEDEPTH
 70
  3020
  9
$CMLSTYLE
  2
Standard
  9
$CMLJUST
 70
     0
  9
$CMLSCALE
 40
20.0
  9
$PROXYGRAPHICS
 70
     1
  9
$MEASUREMENT
 70
     1
  9
$CELWEIGHT
370
    -1
  9
$ENDCAPS
280
     0
  9
$JOINSTYLE
280
     0
  9
$LWDISPLAY
290
     1
  9
$INSUNITS
 70
     4
  9
$HYPERLINKBASE
  1

  9
$STYLESHEET
  1

  9
$XEDIT
290
     1
  9
$CEPSNTYPE
380
     0
  9
$PSTYLEMODE
290
     1
  9
$FINGERPRINTGUID
  2
{FD20F5C9-2AB4-4E99-AF92-893B8D1E69AE}
  9
$VERSIONGUID
  2
{FAEB1C32-E019-11D5-929B-00C0DF256EC4}
  9
$EXTNAMES
290
     1
  9
$PSVPSCALE
 40
0.0
  9
$OLESTARTUP
290
     0
  0
ENDSEC
  0
SECTION
  2
CLASSES
  0
CLASS
  1
ACDBDICTIONARYWDFLT
  2
AcDbDictionaryWithDefault
  3
ObjectDBX Classes
 90
        0
280
     0
281
     0
  0
CLASS
  1
VISUALSTYLE
  2
AcDbVisualStyle
  3
ObjectDBX Classes
 90
     4095
280
     0
281
     0
  0
CLASS
  1
SCALE
  2
AcDbScale
  3
ObjectDBX Classes
 90
     1153
280
     0
281
     0
  0
CLASS
  1
DICTIONARYVAR
  2
AcDbDictionaryVar
  3
ObjectDBX Classes
 90
        0
280
     0
281
     0
  0
CLASS
  1
ACDBPLACEHOLDER
  2
AcDbPlaceHolder
  3
ObjectDBX Classes
 90
        0
280
     0
281
     0
  0
CLASS
  1
LAYOUT
  2
AcDbLayout
  3
ObjectDBX Classes
 90
        0
280
     0
281
     0
  0
ENDSEC
  0
SECTION
  2
TABLES
  0
TABLE
  2
VPORT
  5
8
330
0
100
AcDbSymbolTable
 70
     1
  0
VPORT
  5
29
330
8
100
AcDbSymbolTableRecord
100
AcDbViewportTableRecord
  2
*Active
 70
     0
 10
0.0
 20
0.0
 11
1.0
 21
1.0
 12
148.5
 22
105.0
 13
0.0
 23
0.0
 14
10.0
 24
10.0
 15
10.0
 25
10.0
 16
0.0
 26
0.0
 36
1.0
 17
0.0
 27
0.0
 37
0.0
 40
210.0
 41
1.4142857143
 42
50.0
 43
0.0
 44
0.0
 50
0.0
 51
0.0
 71
     0
 72
  2000
 73
     1
 74
     3
 75
     0
 76
     0
 77
     0
 78
     0
281
     0
 65
     1
110
0.0
120
0.0
130
0.0
111
1.0
121
0.0
131
0.0
112
0.0
122
1.0
132
0.0
 79
     0
146
0.0
  0
ENDTAB
  0
TABLE
  2
LTYPE
  5
5
330
0
100
AcDbSymbolTable
 70
     8
  0
LTYPE
  5
14
330
5
100
AcDbSymbolTableRecord
100
AcDbLinetypeTableRecord
  2
ByBlock
 70
     0
  3

 72
    65
 73
     0
 40
0.0
  0
LTYPE
  5
15
330
5
100
AcDbSymbolTableRecord
100
AcDbLinetypeTableRecord
  2
ByLayer
 70
     0
  3

 72
    65
 73
     0
 40
0.0
  0
LTYPE
  5
16
330
5
100
AcDbSymbolTableRecord
100
AcDbLinetypeTableRecord
  2
Continuous
 70
     0
  3
Solid line
 72
    65
 73
     0
 40
0.0
  0
LTYPE
  5
5D
330
5
100
AcDbSymbolTableRecord
100
AcDbLinetypeTableRecord
  2
SLD-Durchgehend
 70
     0
  3
SolidWorks Line Style
 72
    65
 73
     0
 40
0.0
  0
LTYPE
  5
5E
330
5
100
AcDbSymbolTableRecord
100
AcDbLinetypeTableRecord
  2
SLD-Gestrichelt
 70
     0
  3
SolidWorks Line Style
 72
    65
 73
     2
 40
1.905
 49
1.27
 74
     0
 49
-0.635
 74
     0
  0
LTYPE
  5
5F
330
5
100
AcDbSymbolTableRecord
100
AcDbLinetypeTableRecord
  2
SLD-Phantom
 70
     0
  3
SolidWorks Line Style
 72
    65
 73
     6
 40
12.7
 49
6.35
 74
     0
 49
-1.27
 74
     0
 49
1.27
 74
     0
 49
-1.27
 74
     0
 49
1.27
 74
     0
 49
-1.27
 74
     0
  0
LTYPE
  5
60
330
5
100
AcDbSymbolTableRecord
100
AcDbLinetypeTableRecord
  2
SLD-Kette
 70
     0
  3
SolidWorks Line Style
 72
    65
 73
     4
 40
10.16
 49
6.35
 74
     0
 49
-1.27
 74
     0
 49
1.27
 74
     0
 49
-1.27
 74
     0
  0
LTYPE
  5
61
330
5
100
AcDbSymbolTableRecord
100
AcDbLinetypeTableRecord
  2
SLD-Punktstrich
 70
     0
  3
SolidWorks Line Style
 72
    65
 73
     4
 40
19.05
 49
15.24
 74
     0
 49
-1.27
 74
     0
 49
1.27
 74
     0
 49
-1.27
 74
     0
  0
LTYPE
  5
62
330
5
100
AcDbSymbolTableRecord
100
AcDbLinetypeTableRecord
  2
SLD-Naht
 70
     0
  3
SolidWorks Line Style
 72
    65
 73
     2
 40
0.635
 49
0.0
 74
     0
 49
-0.635
 74
     0
  0
LTYPE
  5
63
330
5
100
AcDbSymbolTableRecord
100
AcDbLinetypeTableRecord
  2
SLD-Dicke-Dünne-Kette
 70
     0
  3
SolidWorks Line Style
 72
    65
 73
     4
 40
10.16
 49
6.35
 74
     0
 49
-1.27
 74
     0
 49
1.27
 74
     0
 49
-1.27
 74
     0
  0
ENDTAB
  0
TABLE
  2
LAYER
  5
2
330
0
100
AcDbSymbolTable
 70
     5
  0
LAYER
  5
10
330
2
100
AcDbSymbolTableRecord
100
AcDbLayerTableRecord
  2
0
 70
     0
 62
     7
  6
Continuous
370
    -3
390
F
  0
LAYER
  5
64
330
2
100
AcDbSymbolTableRecord
100
AcDbLayerTableRecord
  2
FORMAT
 70
     0
 62
     7
  6
SLD-Durchgehend
370
    -3
390
F
  0
LAYER
  5
65
330
2
100
AcDbSymbolTableRecord
100
AcDbLayerTableRecord
  2
VERMASSUNG
 70
     0
 62
     7
  6
SLD-Durchgehend
370
    -3
390
F
  0
LAYER
  5
66
330
2
100
AcDbSymbolTableRecord
100
AcDbLayerTableRecord
  2
KOPF_DÜNN
 70
     0
 62
     7
  6
SLD-Durchgehend
370
    -3
390
F
  0
LAYER
  5
67
330
2
100
AcDbSymbolTableRecord
100
AcDbLayerTableRecord
  2
KOPF_DICK
 70
     0
 62
     7
  6
SLD-Durchgehend
370
    15
390
F
  0
ENDTAB
  0
TABLE
  2
STYLE
  5
3
330
0
100
AcDbSymbolTable
 70
     2
  0
STYLE
  5
11
330
3
100
AcDbSymbolTableRecord
100
AcDbTextStyleTableRecord
  2
STANDARD
 70
     0
 40
0.0
 41
1.0
 50
0.0
 71
     0
 42
2.5
  3
ISOCPEUR.TTF
  4

1001
ACAD
1000
ISOCPEUR
1071
       34
  0
STYLE
  5
68
330
3
100
AcDbSymbolTableRecord
100
AcDbTextStyleTableRecord
  2
SLDTEXTSTYLE0
 70
     0
 40
0.0
 41
1.0
 50
0.0
 71
     0
 42
0.2
  3
ISOCPEUR.TTF
  4

1001
ACAD
1000
ISOCPEUR
1071
      290
  0
ENDTAB
  0
TABLE
  2
VIEW
  5
6
330
0
100
AcDbSymbolTable
 70
     0
  0
ENDTAB
  0
TABLE
  2
UCS
  5
7
330
0
100
AcDbSymbolTable
 70
     0
  0
ENDTAB
  0
TABLE
  2
APPID
  5
9
330
0
100
AcDbSymbolTable
 70
     1
  0
APPID
  5
12
330
9
100
AcDbSymbolTableRecord
100
AcDbRegAppTableRecord
  2
ACAD
 70
     0
  0
ENDTAB
  0
TABLE
  2
DIMSTYLE
  5
A
330
0
100
AcDbSymbolTable
 70
     4
100
AcDbDimStyleTable
  0
DIMSTYLE
105
27
330
A
100
AcDbSymbolTableRecord
100
AcDbDimStyleTableRecord
  2
ISO-25
 70
     0
 41
2.5
 42
0.625
 43
3.75
 44
1.25
 73
     0
 74
     0
 77
     1
 78
     8
140
2.5
141
2.5
143
0.0393700787
147
0.625
171
     3
172
     1
271
     2
272
     2
274
     3
278
    44
283
     0
284
     8
340
11
  0
DIMSTYLE
105
1E3
102
{ACAD_REACTORS
330
1E2
330
1EF
330
1F9
330
203
102
}
330
A
100
AcDbSymbolTableRecord
100
AcDbDimStyleTableRecord
  2
SLDDIMSTYLE0
 70
     0
 41
3.0
 44
0.0
 45
0.000000001
 73
     0
 74
     0
 77
     1
 78
    12
140
2.0
147
0.5
173
     1
271
     2
272
     3
284
    12
340
68
  0
DIMSTYLE
105
20E
102
{ACAD_REACTORS
330
20D
102
}
330
A
100
AcDbSymbolTableRecord
100
AcDbDimStyleTableRecord
  2
SLDDIMSTYLE1
 70
     0
 41
3.0
 44
0.0
 73
     0
 74
     0
 77
     1
 78
    12
140
2.0
147
0.5
173
     1
179
     2
272
     3
284
    12
340
68
  0
DIMSTYLE
105
256
102
{ACAD_REACTORS
330
255
102
}
330
A
100
AcDbSymbolTableRecord
100
AcDbDimStyleTableRecord
  2
SLDDIMSTYLE2
 70
     0
 41
3.0
 44
0.0
 45
0.000000001
 73
     0
 74
     0
 77
     1
 78
    12
140
2.0
147
0.5
173
     1
271
     2
272
     3
284
    12
340
68
  0
ENDTAB
  0
TABLE
  2
BLOCK_RECORD
  5
1
330
0
100
AcDbSymbolTable
 70
     8
  0
BLOCK_RECORD
  5
1F
330
1
100
AcDbSymbolTableRecord
100
AcDbBlockTableRecord
  2
*Model_Space
340
22
  0
BLOCK_RECORD
  5
1B
330
1
100
AcDbSymbolTableRecord
100
AcDbBlockTableRecord
  2
*Paper_Space
340
1E
  0
BLOCK_RECORD
  5
23
330
1
100
AcDbSymbolTableRecord
100
AcDbBlockTableRecord
  2
*Paper_Space0
340
26
  0
BLOCK_RECORD
  5
1E4
330
1
100
AcDbSymbolTableRecord
100
AcDbBlockTableRecord
  2
*D1
340
0
  0
BLOCK_RECORD
  5
1F0
330
1
100
AcDbSymbolTableRecord
100
AcDbBlockTableRecord
  2
*D2
340
0
  0
BLOCK_RECORD
  5
1FA
330
1
100
AcDbSymbolTableRecord
100
AcDbBlockTableRecord
  2
*D3
340
0
  0
BLOCK_RECORD
  5
204
330
1
100
AcDbSymbolTableRecord
100
AcDbBlockTableRecord
  2
*D4
340
0
  0
BLOCK_RECORD
  5
20F
330
1
100
AcDbSymbolTableRecord
100
AcDbBlockTableRecord
  2
*D5
340
0
  0
BLOCK_RECORD
  5
257
330
1
100
AcDbSymbolTableRecord
100
AcDbBlockTableRecord
  2
*D6
340
0
  0
BLOCK_RECORD
  5
261
330
1
100
AcDbSymbolTableRecord
100
AcDbBlockTableRecord
  2
SW_CENTERMARKSYMBOL_0
340
0
102
{BLKREFS
331
26C
102
}
  0
ENDTAB
  0
ENDSEC
  0
SECTION
  2
BLOCKS
  0
BLOCK
  5
20
330
1F
100
AcDbEntity
  8
0
100
AcDbBlockBegin
  2
*Model_Space
 70
     0
 10
0.0
 20
0.0
 30
0.0
  3
*Model_Space
  1

  0
ENDBLK
  5
21
330
1F
100
AcDbEntity
  8
0
100
AcDbBlockEnd
  0
BLOCK
  5
1C
330
1B
100
AcDbEntity
 67
     1
  8
0
100
AcDbBlockBegin
  2
*Paper_Space
 70
     0
 10
0.0
 20
0.0
 30
0.0
  3
*Paper_Space
  1

  0
ENDBLK
  5
1D
330
1B
100
AcDbEntity
 67
     1
  8
0
100
AcDbBlockEnd
  0
BLOCK
  5
24
330
23
100
AcDbEntity
  8
0
100
AcDbBlockBegin
  2
*Paper_Space0
 70
     0
 10
0.0
 20
0.0
 30
0.0
  3
*Paper_Space0
  1

  0
ENDBLK
  5
25
330
23
100
AcDbEntity
  8
0
100
AcDbBlockEnd
  0
BLOCK
  5
1E5
330
1E4
100
AcDbEntity
  8
0
100
AcDbBlockBegin
  2
*D1
 70
     1
 10
0.0
 20
0.0
 30
0.0
  3
*D1
  1

  0
SOLID
  5
1E7
330
1E4
100
AcDbEntity
  8
VERMASSUNG
100
AcDbTrace
 10
151.7472981014
 20
123.7545475595
 30
0.0
 11
151.2972981014
 21
120.7545475595
 31
0.0
 12
152.1972981014
 22
120.7545475595
 32
0.0
 13
152.1972981014
 23
120.7545475595
 33
0.0
  0
SOLID
  5
1E8
330
1E4
100
AcDbEntity
  8
VERMASSUNG
100
AcDbTrace
 10
151.7472981014
 20
83.7545475595
 30
0.0
 11
152.1972981014
 21
86.7545475595
 31
0.0
 12
151.2972981014
 22
86.7545475595
 32
0.0
 13
151.2972981014
 23
86.7545475595
 33
0.0
  0
LINE
  5
1E9
330
1E4
100
AcDbEntity
  8
VERMASSUNG
100
AcDbLine
 10
176.4533452809
 20
123.7545475595
 30
0.0
 11
150.7472981014
 21
123.7545475595
 31
0.0
  0
LINE
  5
1EA
330
1E4
100
AcDbEntity
  8
VERMASSUNG
100
AcDbLine
 10
176.4533452809
 20
83.7545475595
 30
0.0
 11
150.7472981014
 21
83.7545475595
 31
0.0
  0
LINE
  5
1EB
330
1E4
100
AcDbEntity
  8
VERMASSUNG
100
AcDbLine
 10
151.7472981014
 20
123.7545475595
 30
0.0
 11
151.7472981014
 21
83.7545475595
 31
0.0
  0
MTEXT
  5
1EC
330
1E4
100
AcDbEntity
  8
VERMASSUNG
100
AcDbMText
 10
148.9472983248
 20
97.4512457356
 30
0.0
 40
2.0
 41
0.0
 71
     1
 72
     1
  1
HSK 
  7
SLDTEXTSTYLE0
 11
-7.044195017643634E-15
 21
1.0
 31
0.0
 73
     1
 44
1.0
  0
MTEXT
  5
1ED
330
1E4
100
AcDbEntity
  8
VERMASSUNG
100
AcDbMText
 10
149.1472982761
 20
103.4512457878
 30
0.0
 40
2.0
 41
0.0
 71
     1
 72
     1
  1
%%c
  7
SLDTEXTSTYLE0
 11
-7.044195017643634E-15
 21
1.0
 31
0.0
 73
     1
 44
1.0
  0
MTEXT
  5
1EE
330
1E4
100
AcDbEntity
  8
VERMASSUNG
100
AcDbMText
 10
149.147297985
 20
107.0587756569
 30
0.0
 40
2.0
 41
0.0
 71
     1
 72
     1
  1
40
  7
SLDTEXTSTYLE0
 11
-7.044195017643634E-15
 21
1.0
 31
0.0
 73
     1
 44
1.0
  0
ENDBLK
  5
1E6
330
1E4
100
AcDbEntity
  8
0
100
AcDbBlockEnd
  0
BLOCK
  5
1F1
330
1F0
100
AcDbEntity
  8
0
100
AcDbBlockBegin
  2
*D2
 70
     1
 10
0.0
 20
0.0
 30
0.0
  3
*D2
  1

  0
SOLID
  5
1F3
330
1F0
100
AcDbEntity
  8
VERMASSUNG
100
AcDbTrace
 10
156.2533452809
 20
139.6399229013
 30
0.0
 11
159.2533452809
 21
139.1899229013
 31
0.0
 12
159.2533452809
 22
140.0899229013
 32
0.0
 13
159.2533452809
 23
140.0899229013
 33
0.0
  0
SOLID
  5
1F4
330
1F0
100
AcDbEntity
  8
VERMASSUNG
100
AcDbTrace
 10
231.1533452809
 20
139.6399229013
 30
0.0
 11
228.1533452809
 21
140.0899229013
 31
0.0
 12
228.1533452809
 22
139.1899229013
 32
0.0
 13
228.1533452809
 23
139.1899229013
 33
0.0
  0
LINE
  5
1F5
330
1F0
100
AcDbEntity
  8
VERMASSUNG
100
AcDbLine
 10
156.2533452809
 20
115.6845475595
 30
0.0
 11
156.2533452809
 21
140.6399229013
 31
0.0
  0
LINE
  5
1F6
330
1F0
100
AcDbEntity
  8
VERMASSUNG
100
AcDbLine
 10
231.1533452809
 20
130.7545475595
 30
0.0
 11
231.1533452809
 21
140.6399229013
 31
0.0
  0
LINE
  5
1F7
330
1F0
100
AcDbEntity
  8
VERMASSUNG
100
AcDbLine
 10
156.2533452809
 20
139.6399229013
 30
0.0
 11
231.1533452809
 21
139.6399229013
 31
0.0
  0
MTEXT
  5
1F8
330
1F0
100
AcDbEntity
  8
VERMASSUNG
100
AcDbMText
 10
191.2041171755
 20
142.2399230177
 30
0.0
 40
2.0
 41
0.0
 71
     1
 72
     1
  1
74.9
  7
SLDTEXTSTYLE0
 73
     1
 44
1.0
  0
ENDBLK
  5
1F2
330
1F0
100
AcDbEntity
  8
0
100
AcDbBlockEnd
  0
BLOCK
  5
1FB
330
1FA
100
AcDbEntity
  8
0
100
AcDbBlockBegin
  2
*D3
 70
     1
 10
0.0
 20
0.0
 30
0.0
  3
*D3
  1

  0
SOLID
  5
1FD
330
1FA
100
AcDbEntity
  8
VERMASSUNG
100
AcDbTrace
 10
176.1533452809
 20
133.6399229013
 30
0.0
 11
179.1533452809
 21
133.1899229013
 31
0.0
 12
179.1533452809
 22
134.0899229013
 32
0.0
 13
179.1533452809
 23
134.0899229013
 33
0.0
  0
SOLID
  5
1FE
330
1FA
100
AcDbEntity
  8
VERMASSUNG
100
AcDbTrace
 10
231.1533452809
 20
133.6399229013
 30
0.0
 11
228.1533452809
 21
134.0899229013
 31
0.0
 12
228.1533452809
 22
133.1899229013
 32
0.0
 13
228.1533452809
 23
133.1899229013
 33
0.0
  0
LINE
  5
1FF
330
1FA
100
AcDbEntity
  8
VERMASSUNG
100
AcDbLine
 10
176.1533452809
 20
123.4545475595
 30
0.0
 11
176.1533452809
 21
134.6399229013
 31
0.0
  0
LINE
  5
200
330
1FA
100
AcDbEntity
  8
VERMASSUNG
100
AcDbLine
 10
231.1533452809
 20
130.7545475595
 30
0.0
 11
231.1533452809
 21
134.6399229013
 31
0.0
  0
LINE
  5
201
330
1FA
100
AcDbEntity
  8
VERMASSUNG
100
AcDbLine
 10
176.1533452809
 20
133.6399229013
 30
0.0
 11
231.1533452809
 21
133.6399229013
 31
0.0
  0
MTEXT
  5
202
330
1FA
100
AcDbEntity
  8
VERMASSUNG
100
AcDbMText
 10
202.2546060153
 20
136.2399230177
 30
0.0
 40
2.0
 41
0.0
 71
     1
 72
     1
  1
55
  7
SLDTEXTSTYLE0
 73
     1
 44
1.0
  0
ENDBLK
  5
1FC
330
1FA
100
AcDbEntity
  8
0
100
AcDbBlockEnd
  0
BLOCK
  5
205
330
204
100
AcDbEntity
  8
0
100
AcDbBlockBegin
  2
*D4
 70
     1
 10
0.0
 20
0.0
 30
0.0
  3
*D4
  1

  0
SOLID
  5
207
330
204
100
AcDbEntity
  8
VERMASSUNG
100
AcDbTrace
 10
236.6493542321
 20
130.7545475595
 30
0.0
 11
236.1993542321
 21
127.7545475595
 31
0.0
 12
237.0993542321
 22
127.7545475595
 32
0.0
 13
237.0993542321
 23
127.7545475595
 33
0.0
  0
SOLID
  5
208
330
204
100
AcDbEntity
  8
VERMASSUNG
100
AcDbTrace
 10
236.6493542321
 20
103.7545475595
 30
0.0
 11
237.0993542321
 21
106.7545475595
 31
0.0
 12
236.1993542321
 22
106.7545475595
 32
0.0
 13
236.1993542321
 23
106.7545475595
 33
0.0
  0
LINE
  5
209
330
204
100
AcDbEntity
  8
VERMASSUNG
100
AcDbLine
 10
231.1533452809
 20
130.7545475595
 30
0.0
 11
237.6493542321
 21
130.7545475595
 31
0.0
  0
LINE
  5
20A
330
204
100
AcDbEntity
  8
VERMASSUNG
100
AcDbLine
 10
231.236719044
 20
103.7545475595
 30
0.0
 11
237.6493542321
 21
103.7545475595
 31
0.0
  0
LINE
  5
20B
330
204
100
AcDbEntity
  8
VERMASSUNG
100
AcDbLine
 10
236.6493542321
 20
130.7545475595
 30
0.0
 11
236.6493542321
 21
103.7545475595
 31
0.0
  0
MTEXT
  5
20C
330
204
100
AcDbEntity
  8
VERMASSUNG
100
AcDbMText
 10
234.0493541157
 20
115.8558082938
 30
0.0
 40
2.0
 41
0.0
 71
     1
 72
     1
  1
27
  7
SLDTEXTSTYLE0
 11
-7.044195017643634E-15
 21
1.0
 31
0.0
 73
     1
 44
1.0
  0
ENDBLK
  5
206
330
204
100
AcDbEntity
  8
0
100
AcDbBlockEnd
  0
BLOCK
  5
210
330
20F
100
AcDbEntity
  8
0
100
AcDbBlockBegin
  2
*D5
 70
     1
 10
0.0
 20
0.0
 30
0.0
  3
*D5
  1

  0
ARC
  5
212
330
20F
100
AcDbEntity
  8
VERMASSUNG
100
AcDbCircle
 10
231.1533452809
 20
145.6299312783
 30
0.0
 40
46.97080291888099
100
AcDbArc
 50
267.0
 51
270.0
  0
ARC
  5
213
330
20F
100
AcDbEntity
  8
VERMASSUNG
100
AcDbCircle
 10
231.1533452809
 20
145.6299312783
 30
0.0
 40
46.970802918881
100
AcDbArc
 50
259.6947478198
 51
267.0
  0
ARC
  5
214
330
20F
100
AcDbEntity
  8
VERMASSUNG
100
AcDbCircle
 10
231.1533452809
 20
145.6299312783
 30
0.0
 40
46.97080291888098
100
AcDbArc
 50
270.0
 51
280.2364885336
  0
SOLID
  5
215
330
20F
100
AcDbEntity
  8
VERMASSUNG
100
AcDbTrace
 10
228.6950833947
 20
98.7235002124
 30
0.0
 11
225.7435927623
 21
99.4243590051
 31
0.0
 12
225.667856274
 22
98.5275513421
 32
0.0
 13
225.667856274
 23
98.5275513421
 33
0.0
  0
SOLID
  5
216
330
20F
100
AcDbEntity
  8
VERMASSUNG
100
AcDbTrace
 10
231.1533452809
 20
98.6591283594
 30
0.0
 11
234.1661685206
 21
98.3050152042
 31
0.0
 12
234.137471113
 22
99.2045575649
 32
0.0
 13
234.137471113
 23
99.2045575649
 33
0.0
  0
LINE
  5
217
330
20F
100
AcDbEntity
  8
VERMASSUNG
100
AcDbLine
 10
229.0077076684
 20
104.6887267113
 30
0.0
 11
228.6427474384
 21
97.7248706776
 31
0.0
  0
LINE
  5
218
330
20F
100
AcDbEntity
  8
VERMASSUNG
100
AcDbLine
 10
231.1533452809
 20
103.7545475595
 30
0.0
 11
231.1533452809
 21
97.6591283594
 31
0.0
  0
MTEXT
  5
219
330
20F
100
AcDbEntity
  8
VERMASSUNG
100
AcDbMText
 10
235.0547334782
 20
101.4118857503
 30
0.0
 40
2.0
 41
0.0
 71
     1
 72
     1
  1
3°
  7
SLDTEXTSTYLE0
 11
0.9931308486786795
 21
0.1170090483798829
 31
0.0
 73
     1
 44
1.0
  0
ENDBLK
  5
211
330
20F
100
AcDbEntity
  8
0
100
AcDbBlockEnd
  0
BLOCK
  5
258
330
257
100
AcDbEntity
  8
0
100
AcDbBlockBegin
  2
*D6
 70
     1
 10
0.0
 20
0.0
 30
0.0
  3
*D6
  1

  0
SOLID
  5
25A
330
257
100
AcDbEntity
  8
VERMASSUNG
100
AcDbTrace
 10
55.5233778029
 20
80.7816316307
 30
0.0
 11
55.9733778029
 21
83.7816316307
 31
0.0
 12
55.0733778029
 22
83.7816316307
 32
0.0
 13
55.0733778029
 23
83.7816316307
 33
0.0
  0
SOLID
  5
25B
330
257
100
AcDbEntity
  8
VERMASSUNG
100
AcDbTrace
 10
55.5233778029
 20
130.7816316307
 30
0.0
 11
55.0733778029
 21
127.7816316307
 31
0.0
 12
55.9733778029
 22
127.7816316307
 32
0.0
 13
55.9733778029
 23
127.7816316307
 33
0.0
  0
LINE
  5
25C
330
257
100
AcDbEntity
  8
VERMASSUNG
100
AcDbLine
 10
82.9164285714
 20
80.7816316307
 30
0.0
 11
54.5233778029
 21
80.7816316307
 31
0.0
  0
LINE
  5
25D
330
257
100
AcDbEntity
  8
VERMASSUNG
100
AcDbLine
 10
82.9164285714
 20
130.7816316307
 30
0.0
 11
54.5233778029
 21
130.7816316307
 31
0.0
  0
LINE
  5
25E
330
257
100
AcDbEntity
  8
VERMASSUNG
100
AcDbLine
 10
55.5233778029
 20
80.7816316307
 30
0.0
 11
55.5233778029
 21
130.7816316307
 31
0.0
  0
MTEXT
  5
25F
330
257
100
AcDbEntity
  8
VERMASSUNG
100
AcDbMText
 10
52.9233777447
 20
102.578201131
 30
0.0
 40
2.0
 41
0.0
 71
     1
 72
     1
  1
%%c
  7
SLDTEXTSTYLE0
 11
6.123233995736766E-17
 21
1.0
 31
0.0
 73
     1
 44
1.0
  0
MTEXT
  5
260
330
257
100
AcDbEntity
  8
VERMASSUNG
100
AcDbMText
 10
52.9233776865
 20
106.1875835992
 30
0.0
 40
2.0
 41
0.0
 71
     1
 72
     1
  1
50
  7
SLDTEXTSTYLE0
 11
6.123233995736766E-17
 21
1.0
 31
0.0
 73
     1
 44
1.0
  0
ENDBLK
  5
259
330
257
100
AcDbEntity
  8
0
100
AcDbBlockEnd
  0
BLOCK
  5
262
330
261
100
AcDbEntity
  8
0
100
AcDbBlockBegin
  2
SW_CENTERMARKSYMBOL_0
 70
     0
 10
0.0
 20
0.0
 30
0.0
  3
SW_CENTERMARKSYMBOL_0
  1

  0
LINE
  5
264
330
261
100
AcDbEntity
  8
VERMASSUNG
 62
     0
100
AcDbLine
 10
0.0
 20
0.0
 30
0.0
 11
0.0
 21
2.5
 31
0.0
  0
LINE
  5
265
330
261
100
AcDbEntity
  8
VERMASSUNG
 62
     0
100
AcDbLine
 10
0.0
 20
0.0
 30
0.0
 11
-2.5
 21
0.0
 31
0.0
  0
LINE
  5
266
330
261
100
AcDbEntity
  8
VERMASSUNG
 62
     0
100
AcDbLine
 10
0.0
 20
0.0
 30
0.0
 11
0.0
 21
-2.5
 31
0.0
  0
LINE
  5
267
330
261
100
AcDbEntity
  8
VERMASSUNG
 62
     0
100
AcDbLine
 10
0.0
 20
0.0
 30
0.0
 11
2.5
 21
0.0
 31
0.0
  0
LINE
  5
268
330
261
100
AcDbEntity
  8
VERMASSUNG
 62
     0
100
AcDbLine
 10
0.0
 20
5.0
 30
0.0
 11
0.0
 21
22.5
 31
0.0
  0
LINE
  5
269
330
261
100
AcDbEntity
  8
VERMASSUNG
 62
     0
100
AcDbLine
 10
-5.0
 20
0.0
 30
0.0
 11
-22.5
 21
0.0
 31
0.0
  0
LINE
  5
26A
330
261
100
AcDbEntity
  8
VERMASSUNG
 62
     0
100
AcDbLine
 10
0.0
 20
-5.0
 30
0.0
 11
0.0
 21
-22.5
 31
0.0
  0
LINE
  5
26B
330
261
100
AcDbEntity
  8
VERMASSUNG
 62
     0
100
AcDbLine
 10
5.0
 20
0.0
 30
0.0
 11
22.5
 21
0.0
 31
0.0
  0
ENDBLK
  5
263
330
261
100
AcDbEntity
  8
0
100
AcDbBlockEnd
  0
ENDSEC
  0
SECTION
  2
ENTITIES
  0
MTEXT
  5
69
330
1F
100
AcDbEntity
  8
KOPF_DÜNN
100
AcDbMText
 10
13.8892156294
 20
23.8770940835
 30
0.0
 40
3.0
 41
0.0
 71
     1
 72
     1
  1
HA4.KVB.RUA.055
  7
SLDTEXTSTYLE0
 73
     1
 44
1.0
  0
MTEXT
  5
6A
330
1F
100
AcDbEntity
  8
VERMASSUNG
100
AcDbMText
 10
13.9329988022
 20
28.9162328764
 30
0.0
 40
3.0
 41
0.0
 71
     1
 72
     1
  1
Klemmhalter rechts_Turning tool right 93° /35°
  7
SLDTEXTSTYLE0
 73
     1
 44
1.0
  0
MTEXT
  5
6B
330
1F
100
AcDbEntity
  8
VERMASSUNG
100
AcDbMText
 10
98.8601118557
 20
13.8584013966
 30
0.0
 40
2.0
 41
0.0
 71
     1
 72
     1
  1
Datum: 02.02.2009
  7
SLDTEXTSTYLE0
 73
     1
 44
1.0
  0
MTEXT
  5
6C
330
1F
100
AcDbEntity
  8
VERMASSUNG
100
AcDbMText
 10
13.933048693
 20
18.0701447943
 30
0.0
 40
2.0
 41
0.0
 71
     1
 72
     1
  1
DIN 69893 HSK 40 A ICTM / VC.. 16 04..
  7
SLDTEXTSTYLE0
 73
     1
 44
1.0
  0
MTEXT
  5
6D
330
1F
100
AcDbEntity
  8
VERMASSUNG
100
AcDbMText
 10
13.9808475933
 20
13.9309619479
 30
0.0
 40
2.0
 41
0.0
 71
     1
 72
     1
  1
Gewicht: 321g
  7
SLDTEXTSTYLE0
 73
     1
 44
1.0
  0
LINE
  5
6E
330
1F
100
AcDbEntity
  8
0
  6
SLD-Durchgehend
 62
     7
370
    15
100
AcDbLine
 10
176.4533452952
 20
83.7545480065
 30
0.0
 11
184.1033457458
 21
83.7545480065
 31
0.0
  0
LINE
  5
6F
330
1F
100
AcDbEntity
  8
0
  6
SLD-Durchgehend
 62
     7
370
    15
100
AcDbLine
 10
184.1188727558
 20
123.7545471124
 30
0.0
 11
176.4533452952
 21
123.7545471124
 31
0.0
  0
ARC
  5
70
330
1F
100
AcDbEntity
  8
0
  6
SLD-Durchgehend
 62
     7
370
    15
100
AcDbCircle
 10
176.4533452809
 20
84.0545475595
 30
0.0
 40
0.3000000000000114
100
AcDbArc
 50
180.0
 51
270.0
  0
ARC
  5
71
330
1F
100
AcDbEntity
  8
0
  6
SLD-Durchgehend
 62
     7
370
    15
100
AcDbCircle
 10
176.4533452809
 20
123.4545475595
 30
0.0
 40
0.3000000000000114
100
AcDbArc
 50
90.0
 51
180.0
  0
ARC
  5
72
330
1F
100
AcDbEntity
  8
0
  6
SLD-Durchgehend
 62
     7
370
    15
100
AcDbCircle
 10
197.1033452809
 20
86.2545475595
 30
0.0
 40
1.0
100
AcDbArc
 50
90.0
 51
143.1137328946
  0
ARC
  5
73
330
1F
100
AcDbEntity
  8
0
  6
SLD-Durchgehend
 62
     7
370
    15
100
AcDbCircle
 10
197.1033452809
 20
121.2545475595
 30
0.0
 40
1.0
100
AcDbArc
 50
216.8998129703
 51
270.0
  0
LINE
  5
74
330
1F
100
AcDbEntity
  8
0
  6
SLD-Durchgehend
 62
     7
370
    15
100
AcDbLine
 10
197.1033460141
 20
87.2545476489
 30
0.0
 11
206.7391427845
 21
87.2545476489
 31
0.0
  0
LINE
  5
75
330
1F
100
AcDbEntity
  8
0
  6
SLD-Durchgehend
 62
     7
370
    15
100
AcDbLine
 10
206.7320163042
 20
120.2545474701
 30
0.0
 11
197.1033460141
 21
120.2545474701
 31
0.0
  0
ARC
  5
76
330
1F
100
AcDbEntity
  8
0
  6
SLD-Durchgehend
 62
     7
370
    15
100
AcDbCircle
 10
175.6533385282
 20
88.300840406
 30
0.0
 40
0.60000675266771
100
AcDbArc
 50
33.5571153394
 51
90.0
  0
ARC
  5
77
330
1F
100
AcDbEntity
  8
0
  6
SLD-Durchgehend
 62
     7
370
    15
100
AcDbCircle
 10
175.6533385282
 20
119.2082547129
 30
0.0
 40
0.60000675266771
100
AcDbArc
 50
270.0
 51
326.4428846606
  0
LINE
  5
78
330
1F
100
AcDbEntity
  8
0
  6
SLD-Durchgehend
 62
     7
370
    15
100
AcDbLine
 10
174.1533451859
 20
88.6508469887
 30
0.0
 11
175.0100571808
 21
88.8804021709
 31
0.0
  0
LINE
  5
79
330
1F
100
AcDbEntity
  8
0
  6
SLD-Durchgehend
 62
     7
370
    15
100
AcDbLine
 10
175.0100571808
 20
118.6286929481
 30
0.0
 11
174.1533451859
 21
118.8582481302
 31
0.0
  0
LINE
  5
7A
330
1F
100
AcDbEntity
  8
0
  6
SLD-Durchgehend
 62
     7
370
    15
100
AcDbLine
 10
167.337412262
 20
118.5167684637
 30
0.0
 11
159.8533450306
 21
118.1418152012
 31
0.0
  0
LINE
  5
7B
330
1F
100
AcDbEntity
  8
0
  6
SLD-Durchgehend
 62
     7
370
    15
100
AcDbLine
 10
174.1533451859
 20
118.8582481302
 30
0.0
 11
172.9186126177
 21
118.7963878222
 31
0.0
  0
LINE
  5
7C
330
1F
100
AcDbEntity
  8
0
  6
SLD-Durchgehend
 62
     7
370
    15
100
AcDbLine
 10
172.9196086672
 20
88.7126579367
 30
0.0
 11
174.1533451859
 21
88.6508469887
 31
0.0
  0
LINE
  5
7D
330
1F
100
AcDbEntity
  8
0
  6
SLD-Durchgehend
 62
     7
370
    15
100
AcDbLine
 10
162.3533454404
 20
89.2420291387
 30
0.0
 11
167.3378751293
 21
88.9923033722
 31
0.0
  0
ARC
  5
7E
330
1F
100
AcDbEntity
  8
0
  6
SLD-Durchgehend
 62
     7
370
    15
100
AcDbCircle
 10
175.1653503704
 20
88.300840406
 30
0.0
 40
0.60000675266771
100
AcDbArc
 50
90.0
 51
105.0
  0
ARC
  5
7F
330
1F
100
AcDbEntity
  8
0
  6
SLD-Durchgehend
 62
     7
370
    15
100
AcDbCircle
 10
175.1653503704
 20
119.2082547129
 30
0.0
 40
0.600006752667717
100
AcDbArc
 50
255.0
 51
270.0
  0
LINE
  5
80
330
1F
100
AcDbEntity
  8
0
  6
SLD-Durchgehend
 62
     7
370
    15
100
AcDbLine
 10
175.1653503307
 20
88.9008474954
 30
0.0
 11
175.6533385051
 21
88.9008474954
 31
0.0
  0
LINE
  5
81
330
1F
100
AcDbEntity
  8
0
  6
SLD-Durchgehend
 62
     7
370
    15
100
AcDbLine
 10
175.6533385051
 20
118.6082476236
 30
0.0
 11
175.1653503307
 21
118.6082476236
 31
0.0
  0
ARC
  5
82
330
1F
100
AcDbEntity
  8
0
  6
SLD-Durchgehend
 62
     7
370
    15
100
AcDbCircle
 10
158.9533452809
 20
117.5345475595
 30
0.0
 40
0.9000000000000199
100
AcDbArc
 50
270.0
 51
311.1792132368
  0
ARC
  5
83
330
1F
100
AcDbEntity
  8
0
  6
SLD-Durchgehend
 62
     7
370
    15
100
AcDbCircle
 10
161.4533452809
 20
90.0335475595
 30
0.0
 40
0.9000000000000057
100
AcDbArc
 50
29.8499024808
 51
90.0
  0
LINE
  5
84
330
1F
100
AcDbEntity
  8
0
  6
SLD-Durchgehend
 62
     7
370
    15
100
AcDbLine
 10
157.2033448756
 20
116.6345478453
 30
0.0
 11
156.2533455581
 21
115.6845475964
 31
0.0
  0
LINE
  5
85
330
1F
100
AcDbEntity
  8
0
  6
SLD-Durchgehend
 62
     7
370
    15
100
AcDbLine
 10
158.9533446968
 20
116.6345478453
 30
0.0
 11
157.2033448756
 21
116.6345478453
 31
0.0
  0
LINE
  5
86
330
1F
100
AcDbEntity
  8
0
  6
SLD-Durchgehend
 62
     7
370
    15
100
AcDbLine
 10
157.2033448756
 20
90.9335474901
 30
0.0
 11
161.4533451066
 21
90.9335474901
 31
0.0
  0
LINE
  5
87
330
1F
100
AcDbEntity
  8
0
  6
SLD-Durchgehend
 62
     7
370
    15
100
AcDbLine
 10
156.2533455581
 20
91.8835477389
 30
0.0
 11
157.2033448756
 21
90.9335474901
 31
0.0
  0
LINE
  5
88
330
1F
100
AcDbEntity
  8
0
  6
SLD-Durchgehend
 62
     7
370
    15
100
AcDbLine
 10
230.4563655198
 20
130.6241407476
 30
0.0
 11
221.0723816097
 21
118.6131873585
 31
0.0
  0
LINE
  5
89
330
1F
100
AcDbEntity
  8
0
  6
SLD-Durchgehend
 62
     7
370
    15
100
AcDbLine
 10
230.3566357732
 20
115.1419478886
 30
0.0
 11
231.154347086
 21
130.3631767117
 31
0.0
  0
LINE
  5
8A
330
1F
100
AcDbEntity
  8
0
  6
SLD-Durchgehend
 62
     7
370
    15
100
AcDbLine
 10
220.8890302718
 20
102.9073454158
 30
0.0
 11
230.2730179072
 21
114.9182972916
 31
0.0
  0
LINE
  5
8B
330
1F
100
AcDbEntity
  8
0
  6
SLD-Durchgehend
 62
     7
370
    15
100
AcDbLine
 10
220.9887637437
 20
118.3895376928
 30
0.0
 11
220.1910524309
 21
103.1683093354
 31
0.0
  0
LINE
  5
8C
330
1F
100
AcDbEntity
  8
0
  6
SLD-Durchgehend
 62
     7
370
    15
100
AcDbLine
 10
230.3367129207
 20
115.1439334683
 30
0.0
 11
231.1328260839
 21
130.3346596144
 31
0.0
  0
ARC
  5
8D
330
1F
100
AcDbEntity
  8
0
  6
SLD-Durchgehend
 62
     7
370
    15
100
AcDbCircle
 10
230.7533452809
 20
130.3545475594
 30
0.0
 40
0.3800000000000096
100
AcDbArc
 50
357.0
 51
142.0
  0
LINE
  5
8E
330
1F
100
AcDbEntity
  8
0
  6
SLD-Durchgehend
 62
     7
370
    15
100
AcDbLine
 10
230.4538993776
 20
130.5884990327
 30
0.0
 11
221.088720733
 21
118.6016156755
 31
0.0
  0
ARC
  5
8F
330
1F
100
AcDbEntity
  8
0
  6
SLD-Durchgehend
 62
     7
370
    15
100
AcDbCircle
 10
221.388165626
 20
118.3676642262
 30
0.0
 40
0.3800000000000062
100
AcDbArc
 50
142.0
 51
177.0
  0
LINE
  5
90
330
1F
100
AcDbEntity
  8
0
  6
SLD-Durchgehend
 62
     7
370
    15
100
AcDbLine
 10
221.0086865962
 20
118.3875521131
 30
0.0
 11
220.212573433
 21
103.1968255013
 31
0.0
  0
ARC
  5
91
330
1F
100
AcDbEntity
  8
0
  6
SLD-Durchgehend
 62
     7
370
    15
100
AcDbCircle
 10
220.5920533919
 20
103.176937867
 30
0.0
 40
0.3800000000000062
100
AcDbArc
 50
177.0
 51
322.0
  0
LINE
  5
92
330
1F
100
AcDbEntity
  8
0
  6
SLD-Durchgehend
 62
     7
370
    15
100
AcDbLine
 10
220.891496414
 20
102.9429864905
 30
0.0
 11
230.2566787839
 21
114.9298699059
 31
0.0
  0
ARC
  5
93
330
1F
100
AcDbEntity
  8
0
  6
SLD-Durchgehend
 62
     7
370
    15
100
AcDbCircle
 10
229.9572330467
 20
115.1638212002
 30
0.0
 40
0.3800000000000096
100
AcDbArc
 50
322.0
 51
357.0
  0
ARC
  5
94
330
1F
100
AcDbEntity
  8
0
  6
SLD-Durchgehend
 62
     7
370
    15
100
AcDbCircle
 10
221.3851113508
 20
118.3688080358
 30
0.0
 40
0.396889335128219
100
AcDbArc
 50
141.9945314869
 51
177.0060607906
  0
ARC
  5
95
330
1F
100
AcDbEntity
  8
0
  6
SLD-Durchgehend
 62
     7
370
    15
100
AcDbCircle
 10
229.960279817
 20
115.1626796495
 30
0.0
 40
0.3968977826877311
100
AcDbArc
 50
321.9949283631
 51
357.0058204419
  0
ARC
  5
96
330
1F
100
AcDbEntity
  8
0
  6
SLD-Durchgehend
 62
     7
370
    15
100
AcDbCircle
 10
220.5777744335
 20
103.138748818
 30
0.0
 40
0.3878501404538701
100
AcDbArc
 50
175.6288866044
 51
323.3710128204
  0
ARC
  5
97
330
1F
100
AcDbEntity
  8
0
  6
SLD-Durchgehend
 62
     7
370
    15
100
AcDbCircle
 10
230.7676227866
 20
130.3927356323
 30
0.0
 40
0.3878523089152587
100
AcDbArc
 50
355.6291476534
 51
143.3709356269
  0
LINE
  5
98
330
1F
100
AcDbEntity
  8
0
  6
SLD-Durchgehend
 62
     7
370
    15
100
AcDbLine
 10
221.7632404208
 20
106.3094203312
 30
0.0
 11
220.5920538545
 21
103.1769378644
 31
0.0
  0
LINE
  5
99
330
1F
100
AcDbEntity
  8
0
  6
SLD-Durchgehend
 62
     7
370
    15
100
AcDbLine
 10
221.7632404208
 20
106.3094203312
 30
0.0
 11
222.5364840269
 21
107.2991282165
 31
0.0
  0
LINE
  5
9A
330
1F
100
AcDbEntity
  8
0
  6
SLD-Durchgehend
 62
     7
370
    15
100
AcDbLine
 10
229.8292650521
 20
115.2116657652
 30
0.0
 11
229.9572324992
 21
115.1638209306
 31
0.0
  0
LINE
  5
9B
330
1F
100
AcDbEntity
  8
0
  6
SLD-Durchgehend
 62
     7
370
    15
100
AcDbLine
 10
229.582159096
 20
127.2220659487
 30
0.0
 11
230.7533456624
 21
130.3545470767
 31
0.0
  0
LINE
  5
9C
330
1F
100
AcDbEntity
  8
0
  6
SLD-Durchgehend
 62
     7
370
    15
100
AcDbLine
 10
229.5164263487
 20
125.9678296231
 30
0.0
 11
229.582159096
 21
127.2220659487
 31
0.0
  0
LINE
  5
9D
330
1F
100
AcDbEntity
  8
0
  6
SLD-Durchgehend
 62
     7
370
    15
100
AcDbLine
 10
229.582159096
 20
127.2220659487
 30
0.0
 11
228.8089117647
 21
126.2323568992
 31
0.0
  0
LINE
  5
9E
330
1F
100
AcDbEntity
  8
0
  6
SLD-Durchgehend
 62
     7
370
    15
100
AcDbLine
 10
221.5161307395
 20
118.3198198162
 30
0.0
 11
221.3881670177
 21
118.3676646508
 31
0.0
  0
ARC
  5
9F
330
1F
100
AcDbEntity
  8
0
  6
SLD-Durchgehend
 62
     7
370
    15
100
AcDbCircle
 10
228.1678933619
 20
123.4394422852
 30
0.0
 40
1.000000000295391
100
AcDbArc
 50
357.0
 51
142.0
  0
ARC
  5
A0
330
1F
100
AcDbEntity
  8
0
  6
SLD-Durchgehend
 62
     7
370
    15
100
AcDbCircle
 10
228.1678933619
 20
123.4394422852
 30
0.0
 40
2.385640646055118
100
AcDbArc
 50
68.5810823052
 51
70.4189176948
  0
ARC
  5
A1
330
1F
100
AcDbEntity
  8
0
  6
SLD-Durchgehend
 62
     7
370
    15
100
AcDbCircle
 10
227.7769087288
 20
115.9790110589
 30
0.0
 40
0.9999999999999778
100
AcDbArc
 50
322.0
 51
357.0
  0
LINE
  5
A2
330
1F
100
AcDbEntity
  8
0
  6
SLD-Durchgehend
 62
     7
370
    15
100
AcDbLine
 10
228.7755368889
 20
115.926674702
 30
0.0
 11
229.1665247321
 21
123.3871068291
 31
0.0
  0
LINE
  5
A3
330
1F
100
AcDbEntity
  8
0
  6
SLD-Durchgehend
 62
     7
370
    15
100
AcDbLine
 10
223.9655165613
 20
109.476381582
 30
0.0
 11
228.5649201513
 21
115.3633493416
 31
0.0
  0
ARC
  5
A4
330
1F
100
AcDbEntity
  8
0
  6
SLD-Durchgehend
 62
     7
370
    15
100
AcDbCircle
 10
223.1775053109
 20
110.0920431411
 30
0.0
 40
1.0
100
AcDbArc
 50
177.0
 51
322.0
  0
LINE
  5
A5
330
1F
100
AcDbEntity
  8
0
  6
SLD-Durchgehend
 62
     7
370
    15
100
AcDbLine
 10
222.5698589027
 20
117.6048099481
 30
0.0
 11
222.1788747847
 21
110.1443792179
 31
0.0
  0
ARC
  5
A6
330
1F
100
AcDbEntity
  8
0
  6
SLD-Durchgehend
 62
     7
370
    15
100
AcDbCircle
 10
223.568489944
 20
117.5524743674
 30
0.0
 40
1.000000000000026
100
AcDbArc
 50
142.0
 51
177.0
  0
LINE
  5
A7
330
1F
100
AcDbEntity
  8
0
  6
SLD-Durchgehend
 62
     7
370
    15
100
AcDbLine
 10
227.3798829556
 20
124.0551035337
 30
0.0
 11
222.7804793656
 21
118.1681362398
 31
0.0
  0
CIRCLE
  5
A8
330
1F
100
AcDbEntity
  8
0
  6
SLD-Durchgehend
 62
     7
370
    15
100
AcDbCircle
 10
225.6726993364
 20
116.7657427132
 30
0.0
 40
3.04999999999999
  0
ARC
  5
A9
330
1F
100
AcDbEntity
  8
0
  6
SLD-Durchgehend
 62
     7
370
    15
100
AcDbCircle
 10
223.1775053109
 20
110.0920431411
 30
0.0
 40
2.385640646055103
100
AcDbArc
 50
248.5810823052
 51
250.4189176948
  0
LINE
  5
AA
330
1F
100
AcDbEntity
  8
0
  6
SLD-Durchgehend
 62
     7
370
    15
100
AcDbLine
 10
221.8289731682
 20
107.5636561912
 30
0.0
 11
221.7632404208
 21
106.3094203312
 31
0.0
  0
LWPOLYLINE
  5
AB
330
1F
100
AcDbEntity
  8
0
  6
SLD-Durchgehend
 62
     7
370
    15
100
AcDbPolyline
 90
        8
 70
   128
 43
0.0
 10
229.0390900016
 20
125.6603199475
 10
229.1790081799
 20
125.6202786647
 10
229.2862667382
 20
125.6180062376
 10
229.3605229497
 20
125.6411328398
 10
229.4226011873
 20
125.6884589277
 10
229.4734253228
 20
125.7671482347
 10
229.5118181646
 20
125.9142506354
 10
229.5164263487
 20
125.9678296231
  0
LWPOLYLINE
  5
AC
330
1F
100
AcDbEntity
  8
0
  6
SLD-Durchgehend
 62
     7
370
    15
100
AcDbPolyline
 90
        8
 70
   128
 43
0.0
 10
228.8089117647
 20
126.2323568992
 10
228.7305689097
 20
126.1071368538
 10
228.6985053361
 20
126.0009921573
 10
228.7007554114
 20
125.9219675742
 10
228.7302671612
 20
125.8482310407
 10
228.7916003406
 20
125.780022838
 10
228.9246304572
 20
125.7035687052
 10
228.9674191416
 20
125.6871178232
  0
LWPOLYLINE
  5
AD
330
1F
100
AcDbEntity
  8
0
  6
SLD-Durchgehend
 62
     7
370
    15
100
AcDbPolyline
 90
        8
 70
   128
 43
0.0
 10
222.5364840269
 20
107.2991282165
 10
222.6148306072
 20
107.4243484948
 10
222.6468904555
 20
107.5304941226
 10
222.6446441055
 20
107.6095177744
 10
222.6151323557
 20
107.6832550064
 10
222.553795451
 20
107.7514618121
 10
222.4207690597
 20
107.8279168762
 10
222.3779803753
 20
107.8443686895
  0
LWPOLYLINE
  5
AE
330
1F
100
AcDbEntity
  8
0
  6
SLD-Durchgehend
 62
     7
370
    15
100
AcDbPolyline
 90
        8
 70
   128
 43
0.0
 10
222.30630579
 20
107.8711660996
 10
222.1663913369
 20
107.9112073824
 10
222.0591327787
 20
107.9134784125
 10
221.9848765672
 20
107.890352276
 10
221.9227983296
 20
107.843026188
 10
221.8719741941
 20
107.7643378124
 10
221.8335813523
 20
107.6172351789
 10
221.8289731682
 20
107.5636561912
  0
LWPOLYLINE
  5
AF
330
1F
100
AcDbEntity
  8
0
  6
SLD-Durchgehend
 62
     7
370
    15
100
AcDbPolyline
 90
        5
 70
   128
 43
0.0
 10
229.8292650521
 20
115.2116657652
 10
229.6207419277
 20
115.2896305032
 10
229.4001600385
 20
115.3721019112
 10
229.1816494108
 20
115.4537993901
 10
229.1750258446
 20
115.4562767081
  0
LWPOLYLINE
  5
B0
330
1F
100
AcDbEntity
  8
0
  6
SLD-Durchgehend
 62
     7
370
    15
100
AcDbPolyline
 90
        5
 70
   128
 43
0.0
 10
221.5161307395
 20
118.3198198162
 10
221.7246575892
 20
118.2418550782
 10
221.9452357531
 20
118.1593836702
 10
222.1637463808
 20
118.0776861914
 10
222.1703736723
 20
118.0752088733
  0
ARC
  5
B1
330
1F
100
AcDbEntity
  8
0
  6
SLD-Durchgehend
 62
     7
370
    15
100
AcDbCircle
 10
225.6726993364
 20
116.7657427132
 30
0.0
 40
1.674999999999984
100
AcDbArc
 50
118.435577334
 51
177.0355104612
  0
ARC
  5
B2
330
1F
100
AcDbEntity
  8
0
  6
SLD-Durchgehend
 62
     7
370
    15
100
AcDbCircle
 10
225.6726993364
 20
116.7657427132
 30
0.0
 40
1.675000000000009
100
AcDbArc
 50
177.0355104612
 51
237.142352196
  0
ARC
  5
B3
330
1F
100
AcDbEntity
  8
0
  6
SLD-Durchgehend
 62
     7
370
    15
100
AcDbCircle
 10
225.6726993364
 20
116.7657427132
 30
0.0
 40
1.675000000000009
100
AcDbArc
 50
237.142352196
 51
295.7422853232
  0
LINE
  5
B4
330
1F
100
AcDbEntity
  8
0
  6
SLD-Durchgehend
 62
     7
370
    15
100
AcDbLine
 10
226.4757624507
 20
115.2958061032
 30
0.0
 11
226.4001912117
 21
115.2569755398
 31
0.0
  0
ARC
  5
B5
330
1F
100
AcDbEntity
  8
0
  6
SLD-Durchgehend
 62
     7
370
    15
100
AcDbCircle
 10
225.6726993364
 20
116.7657427132
 30
0.0
 40
1.67500000000001
100
AcDbArc
 50
298.648916095
 51
355.0926342613
  0
LINE
  5
B6
330
1F
100
AcDbEntity
  8
0
  6
SLD-Durchgehend
 62
     7
370
    15
100
AcDbLine
 10
227.3475325346
 20
116.74211374
 30
0.0
 11
227.3415608943
 21
116.6224546216
 31
0.0
  0
ARC
  5
B7
330
1F
100
AcDbEntity
  8
0
  6
SLD-Durchgehend
 62
     7
370
    15
100
AcDbCircle
 10
225.6726993364
 20
116.7657427132
 30
0.0
 40
1.675
100
AcDbArc
 50
359.1917261616
 51
54.9861364956
  0
LINE
  5
B8
330
1F
100
AcDbEntity
  8
0
  6
SLD-Durchgehend
 62
     7
370
    15
100
AcDbLine
 10
226.5332511306
 20
118.2027795769
 30
0.0
 11
226.6337706387
 21
118.1375897907
 31
0.0
  0
ARC
  5
B9
330
1F
100
AcDbEntity
  8
0
  6
SLD-Durchgehend
 62
     7
370
    15
100
AcDbCircle
 10
225.6726993364
 20
116.7657427132
 30
0.0
 40
1.675000000000004
100
AcDbArc
 50
59.0852283958
 51
115.5289465621
  0
LINE
  5
BA
330
1F
100
AcDbEntity
  8
0
  6
SLD-Durchgehend
 62
     7
370
    15
100
AcDbLine
 10
224.8751132429
 20
118.2386587791
 30
0.0
 11
224.9508297682
 21
118.2772090145
 31
0.0
  0
CIRCLE
  5
BB
330
1F
100
AcDbEntity
  8
0
  6
SLD-Durchgehend
 62
     7
370
    15
100
AcDbCircle
 10
225.6726993364
 20
116.7657427132
 30
0.0
 40
1.800000000000009
  0
ARC
  5
BC
330
1F
100
AcDbEntity
  8
0
  6
SLD-Durchgehend
 62
     7
370
    15
100
AcDbCircle
 10
226.4041702703
 20
117.8936431957
 30
0.0
 40
0.3350032398000589
100
AcDbArc
 50
67.336871992
 51
133.8449810301
  0
ARC
  5
BD
330
1F
100
AcDbEntity
  8
0
  6
SLD-Durchgehend
 62
     7
370
    15
100
AcDbCircle
 10
225.7660069467
 20
118.558064343
 30
0.0
 40
0.586250193601195
100
AcDbArc
 50
220.3325899586
 51
313.8452838745
  0
ARC
  5
BE
330
1F
100
AcDbEntity
  8
0
  6
SLD-Durchgehend
 62
     7
370
    15
100
AcDbCircle
 10
225.0637380682
 20
117.9618111284
 30
0.0
 40
0.334998672676633
100
AcDbArc
 50
40.3324363464
 51
109.6967002272
  0
ARC
  5
BF
330
1F
100
AcDbEntity
  8
0
  6
SLD-Durchgehend
 62
     7
370
    15
100
AcDbCircle
 10
227.0153576421
 20
116.6987196116
 30
0.0
 40
0.3349973277649509
100
AcDbArc
 50
7.4427656207
 51
73.8456439559
  0
ARC
  5
C0
330
1F
100
AcDbEntity
  8
0
  6
SLD-Durchgehend
 62
     7
370
    15
100
AcDbCircle
 10
227.2716767586
 20
117.5835907797
 30
0.0
 40
0.586249910301269
100
AcDbArc
 50
160.3325938333
 51
253.8452194989
  0
ARC
  5
C1
330
1F
100
AcDbEntity
  8
0
  6
SLD-Durchgehend
 62
     7
370
    15
100
AcDbCircle
 10
226.4041747224
 20
117.8936467563
 30
0.0
 40
0.3349962518920476
100
AcDbArc
 50
340.3322833777
 51
46.7353966816
  0
ARC
  5
C2
330
1F
100
AcDbEntity
  8
0
  6
SLD-Durchgehend
 62
     7
370
    15
100
AcDbCircle
 10
226.286119173
 20
115.5719465828
 30
0.0
 40
0.3349897569318864
100
AcDbArc
 50
304.4798692025
 51
13.8465418751
  0
ARC
  5
C3
330
1F
100
AcDbEntity
  8
0
  6
SLD-Durchgehend
 62
     7
370
    15
100
AcDbCircle
 10
227.1805939084
 20
115.7924056672
 30
0.0
 40
0.5862524807029074
100
AcDbArc
 50
100.3327428306
 51
193.8450650971
  0
ARC
  5
C4
330
1F
100
AcDbEntity
  8
0
  6
SLD-Durchgehend
 62
     7
370
    15
100
AcDbCircle
 10
227.015357582
 20
116.6987181654
 30
0.0
 40
0.334999595631003
100
AcDbArc
 50
280.3321269395
 51
346.8410876092
  0
ARC
  5
C5
330
1F
100
AcDbEntity
  8
0
  6
SLD-Durchgehend
 62
     7
370
    15
100
AcDbCircle
 10
224.1692545312
 20
117.741355285
 30
0.0
 40
0.5862515456552638
100
AcDbArc
 50
280.332667487
 51
13.8450725498
  0
ARC
  5
C6
330
1F
100
AcDbEntity
  8
0
  6
SLD-Durchgehend
 62
     7
370
    15
100
AcDbCircle
 10
224.334487888
 20
116.8350489537
 30
0.0
 40
0.334993931078472
100
AcDbArc
 50
100.3319482842
 51
177.0364488037
  0
ARC
  5
C7
330
1F
100
AcDbEntity
  8
0
  6
SLD-Durchgehend
 62
     7
370
    15
100
AcDbCircle
 10
225.0637305632
 20
117.9618139682
 30
0.0
 40
0.334991854879763
100
AcDbArc
 50
124.2670214901
 51
193.8464091382
  0
ARC
  5
C8
330
1F
100
AcDbEntity
  8
0
  6
SLD-Durchgehend
 62
     7
370
    15
100
AcDbCircle
 10
224.9456757878
 20
115.6401350373
 30
0.0
 40
0.3350168193307444
100
AcDbArc
 50
237.1443054697
 51
313.8430955396
  0
ARC
  5
C9
330
1F
100
AcDbEntity
  8
0
  6
SLD-Durchgehend
 62
     7
370
    15
100
AcDbCircle
 10
225.5838406504
 20
114.975698103
 30
0.0
 40
0.5862490661831764
100
AcDbArc
 50
40.3324728016
 51
133.8454010316
  0
ARC
  5
CA
330
1F
100
AcDbEntity
  8
0
  6
SLD-Durchgehend
 62
     7
370
    15
100
AcDbCircle
 10
226.2861074988
 20
115.5719461987
 30
0.0
 40
0.3349949395330115
100
AcDbArc
 50
220.3321987042
 51
289.9106023659
  0
CIRCLE
  5
CB
330
1F
100
AcDbEntity
  8
0
  6
SLD-Durchgehend
 62
     7
370
    15
100
AcDbCircle
 10
225.6726993364
 20
116.7657427132
 30
0.0
 40
2.625000000000003
  0
ARC
  5
CC
330
1F
100
AcDbEntity
  8
0
  6
SLD-Durchgehend
 62
     7
370
    15
100
AcDbCircle
 10
224.0781712761
 20
115.9501702893
 30
0.0
 40
0.586249509253247
100
AcDbArc
 50
340.332552158
 51
73.8452611742
  0
ARC
  5
CD
330
1F
100
AcDbEntity
  8
0
  6
SLD-Durchgehend
 62
     7
370
    15
100
AcDbCircle
 10
224.9456800153
 20
115.6401153847
 30
0.0
 40
0.3350026041974434
100
AcDbArc
 50
160.332914817
 51
237.1418745586
  0
ARC
  5
CE
330
1F
100
AcDbEntity
  8
0
  6
SLD-Durchgehend
 62
     7
370
    15
100
AcDbCircle
 10
224.33440823
 20
116.8349820827
 30
0.0
 40
0.3349178444610355
100
AcDbArc
 50
177.0243196611
 51
253.8562458317
  0
LINE
  5
CF
330
1F
100
AcDbEntity
  8
0
  6
SLD-Durchgehend
 62
     7
370
    15
100
AcDbLine
 10
194.1885056585
 20
84.5256626092
 30
0.0
 11
194.1885056585
 21
115.6045479186
 31
0.0
  0
LWPOLYLINE
  5
D0
330
1F
100
AcDbEntity
  8
0
  6
SLD-Durchgehend
 62
     7
370
    15
100
AcDbPolyline
 90
        3
 70
   128
 43
0.0
 10
194.1885056585
 20
84.5256626092
 10
193.2491941989
 20
86.2240168683
 10
193.1933446467
 20
86.3254248582
  0
LINE
  5
D1
330
1F
100
AcDbEntity
  8
0
  6
SLD-Durchgehend
 62
     7
370
    15
100
AcDbLine
 10
193.1933446467
 20
86.3254248582
 30
0.0
 11
193.1933446467
 21
115.6045479186
 31
0.0
  0
LINE
  5
D2
330
1F
100
AcDbEntity
  8
0
  6
SLD-Durchgehend
 62
     7
370
    15
100
AcDbLine
 10
193.1933446467
 20
115.6045479186
 30
0.0
 11
194.1885056585
 21
115.6045479186
 31
0.0
  0
LINE
  5
D3
330
1F
100
AcDbEntity
  8
0
  6
SLD-Durchgehend
 62
     7
370
    15
100
AcDbLine
 10
195.5033450067
 20
84.5256626092
 30
0.0
 11
194.1885056585
 21
84.5256626092
 31
0.0
  0
LINE
  5
D4
330
1F
100
AcDbEntity
  8
0
  6
SLD-Durchgehend
 62
     7
370
    15
100
AcDbLine
 10
194.1885056585
 20
115.6045479186
 30
0.0
 11
195.5033450067
 21
115.6045479186
 31
0.0
  0
LINE
  5
D5
330
1F
100
AcDbEntity
  8
0
  6
SLD-Durchgehend
 62
     7
370
    15
100
AcDbLine
 10
196.1033458501
 20
85.1505148642
 30
0.0
 11
196.1033458501
 21
115.6045479186
 31
0.0
  0
ARC
  5
D6
330
1F
100
AcDbEntity
  8
0
  6
SLD-Durchgehend
 62
     7
370
    15
100
AcDbCircle
 10
195.492085145
 20
85.1369696819
 30
0.0
 40
0.6114107634496497
100
AcDbArc
 50
271.0552300829
 51
1.2694334473
  0
LINE
  5
D7
330
1F
100
AcDbEntity
  8
0
  6
SLD-Durchgehend
 62
     7
370
    15
100
AcDbLine
 10
195.5033450067
 20
115.6045479186
 30
0.0
 11
196.1033458501
 21
115.6045479186
 31
0.0
  0
LINE
  5
D8
330
1F
100
AcDbEntity
  8
0
  6
SLD-Durchgehend
 62
     7
370
    15
100
AcDbLine
 10
191.1133455724
 20
86.3254248582
 30
0.0
 11
191.1133455724
 21
115.6045479186
 31
0.0
  0
LWPOLYLINE
  5
D9
330
1F
100
AcDbEntity
  8
0
  6
SLD-Durchgehend
 62
     7
370
    15
100
AcDbPolyline
 90
        3
 70
   128
 43
0.0
 10
191.1133455724
 20
86.3254248582
 10
191.0574969516
 20
86.2240168683
 10
190.1181854919
 20
84.5256626092
  0
LINE
  5
DA
330
1F
100
AcDbEntity
  8
0
  6
SLD-Durchgehend
 62
     7
370
    15
100
AcDbLine
 10
190.1181854919
 20
84.5256626092
 30
0.0
 11
190.1181854919
 21
115.6045479186
 31
0.0
  0
LINE
  5
DB
330
1F
100
AcDbEntity
  8
0
  6
SLD-Durchgehend
 62
     7
370
    15
100
AcDbLine
 10
190.1181854919
 20
115.6045479186
 30
0.0
 11
191.1133455724
 21
115.6045479186
 31
0.0
  0
LINE
  5
DC
330
1F
100
AcDbEntity
  8
0
  6
SLD-Durchgehend
 62
     7
370
    15
100
AcDbLine
 10
184.1033457458
 20
115.6045479186
 30
0.0
 11
190.1181854919
 21
115.6045479186
 31
0.0
  0
LINE
  5
DD
330
1F
100
AcDbEntity
  8
0
  6
SLD-Durchgehend
 62
     7
370
    15
100
AcDbLine
 10
190.1181854919
 20
84.5256626092
 30
0.0
 11
188.6033455521
 21
84.5256626092
 31
0.0
  0
ARC
  5
DE
330
1F
100
AcDbEntity
  8
0
  6
SLD-Durchgehend
 62
     7
370
    15
100
AcDbCircle
 10
188.0689959342
 20
73.8048936041
 30
0.0
 40
10.73407739745367
100
AcDbArc
 50
87.1465980851
 51
111.6813871243
  0
LINE
  5
DF
330
1F
100
AcDbEntity
  8
0
  6
SLD-Durchgehend
 62
     7
370
    15
100
AcDbLine
 10
184.1033457458
 20
83.7795633309
 30
0.0
 11
184.1033457458
 21
83.7545480065
 31
0.0
  0
LWPOLYLINE
  5
E0
330
1F
100
AcDbEntity
  8
0
  6
SLD-Durchgehend
 62
     7
370
    15
100
AcDbPolyline
 90
       11
 70
   128
 43
0.0
 10
188.6033455521
 20
123.24172365
 10
187.8693394974
 20
123.2555407517
 10
187.1353334427
 20
123.2969380401
 10
186.4634158701
 20
123.3588654034
 10
185.8331880212
 20
123.4376310788
 10
185.2870530129
 20
123.5218896948
 10
184.8197898507
 20
123.6056249075
 10
184.4666416437
 20
123.6759509377
 10
184.2236120865
 20
123.7278311931
 10
184.1132680565
 20
123.7523175262
 10
184.1188727558
 20
123.7510602407
  0
LINE
  5
E1
330
1F
100
AcDbEntity
  8
0
  6
SLD-Durchgehend
 62
     7
370
    15
100
AcDbLine
 10
190.1181854919
 20
123.24172365
 30
0.0
 11
188.6033455521
 21
123.24172365
 31
0.0
  0
LINE
  5
E2
330
1F
100
AcDbEntity
  8
0
  6
SLD-Durchgehend
 62
     7
370
    15
100
AcDbLine
 10
190.1181854919
 20
119.8659568511
 30
0.0
 11
190.1181854919
 21
123.24172365
 31
0.0
  0
LINE
  5
E3
330
1F
100
AcDbEntity
  8
0
  6
SLD-Durchgehend
 62
     7
370
    15
100
AcDbLine
 10
188.5970153526
 20
119.8659568511
 30
0.0
 11
190.1181854919
 21
119.8659568511
 31
0.0
  0
ARC
  5
E4
330
1F
100
AcDbEntity
  8
0
  6
SLD-Durchgehend
 62
     7
370
    15
100
AcDbCircle
 10
188.2731028417
 20
115.7075245608
 30
0.0
 40
4.171028461616025
100
AcDbArc
 50
85.5460566573
 51
181.4146934227
  0
LINE
  5
E5
330
1F
100
AcDbEntity
  8
0
  6
SLD-Durchgehend
 62
     7
370
    15
100
AcDbLine
 10
176.1533452809
 20
84.0545474969
 30
0.0
 11
176.1533452809
 21
123.4545476221
 31
0.0
  0
LINE
  5
E6
330
1F
100
AcDbEntity
  8
0
  6
SLD-Durchgehend
 62
     7
370
    15
100
AcDbLine
 10
193.158122027
 20
86.8545483284
 30
0.0
 11
192.593345666
 21
86.8545483284
 31
0.0
  0
LINE
  5
E7
330
1F
100
AcDbEntity
  8
0
  6
SLD-Durchgehend
 62
     7
370
    15
100
AcDbLine
 10
192.593345666
 20
115.6045479186
 30
0.0
 11
193.1933446467
 21
115.6045479186
 31
0.0
  0
LINE
  5
E8
330
1F
100
AcDbEntity
  8
0
  6
SLD-Durchgehend
 62
     7
370
    15
100
AcDbLine
 10
191.7133454845
 20
86.8545483284
 30
0.0
 11
191.1485672608
 21
86.8545483284
 31
0.0
  0
LINE
  5
E9
330
1F
100
AcDbEntity
  8
0
  6
SLD-Durchgehend
 62
     7
370
    15
100
AcDbLine
 10
191.1133455724
 20
115.6045479186
 30
0.0
 11
191.7133454845
 21
115.6045479186
 31
0.0
  0
LINE
  5
EA
330
1F
100
AcDbEntity
  8
0
  6
SLD-Durchgehend
 62
     7
370
    15
100
AcDbLine
 10
196.1034073174
 20
120.6545467906
 30
0.0
 11
196.3033455104
 21
120.6545467906
 31
0.0
  0
LINE
  5
EB
330
1F
100
AcDbEntity
  8
0
  6
SLD-Durchgehend
 62
     7
370
    15
100
AcDbLine
 10
196.2064264953
 20
86.8545483284
 30
0.0
 11
196.3033455104
 21
86.8545483284
 31
0.0
  0
LINE
  5
EC
330
1F
100
AcDbEntity
  8
0
  6
SLD-Durchgehend
 62
     7
370
    15
100
AcDbLine
 10
196.1033458501
 20
115.6045479186
 30
0.0
 11
196.4324696601
 21
115.6045479186
 31
0.0
  0
ARC
  5
ED
330
1F
100
AcDbEntity
  8
0
  6
SLD-Durchgehend
 62
     7
370
    15
100
AcDbCircle
 10
197.8109901211
 20
116.6125687237
 30
0.0
 40
1.70775425778739
100
AcDbArc
 50
179.3497241651
 51
216.175534614
  0
LINE
  5
EE
330
1F
100
AcDbEntity
  8
0
  6
SLD-Durchgehend
 62
     7
370
    15
100
AcDbLine
 10
192.593345666
 20
86.8545483284
 30
0.0
 11
191.7133454845
 21
86.8545483284
 31
0.0
  0
LINE
  5
EF
330
1F
100
AcDbEntity
  8
0
  6
SLD-Durchgehend
 62
     7
370
    15
100
AcDbLine
 10
191.7133454845
 20
115.6045479186
 30
0.0
 11
192.593345666
 21
115.6045479186
 31
0.0
  0
ARC
  5
F0
330
1F
100
AcDbEntity
  8
0
  6
SLD-Durchgehend
 62
     7
370
    15
100
AcDbCircle
 10
207.0701072879
 20
106.0661418222
 30
0.0
 40
14.23242216670197
100
AcDbArc
 50
85.3550884282
 51
100.9814744377
  0
ELLIPSE
  5
F1
330
1F
100
AcDbEntity
  8
0
  6
SLD-Durchgehend
 62
     7
370
    15
100
AcDbEllipse
 10
205.0729605232
 20
103.7545475595
 30
0.0
 11
0.0
 21
16.50000000000001
 31
0.0
210
0.0
220
0.0
230
1.0
 40
0.2679491924
 41
0.1622088096104347
 42
2.979383843979358
  0
ARC
  5
F2
330
1F
100
AcDbEntity
  8
0
  6
SLD-Durchgehend
 62
     7
370
    15
100
AcDbCircle
 10
207.1038237089
 20
102.0520656076
 30
0.0
 40
14.83703538693694
100
AcDbArc
 50
259.3387824987
 51
274.3246546354
  0
LINE
  5
F3
330
1F
100
AcDbEntity
  8
0
  6
SLD-Durchgehend
 62
     7
370
    15
100
AcDbLine
 10
208.2226521015
 20
87.2572745614
 30
0.0
 11
210.3860175848
 21
87.2572745614
 31
0.0
  0
LINE
  5
F4
330
1F
100
AcDbEntity
  8
0
  6
SLD-Durchgehend
 62
     7
370
    15
100
AcDbLine
 10
210.3282904864
 20
120.2518205576
 30
0.0
 11
208.2226521015
 21
120.2518205576
 31
0.0
  0
ELLIPSE
  5
F5
330
1F
100
AcDbEntity
  8
0
  6
SLD-Durchgehend
 62
     7
370
    15
100
AcDbEllipse
 10
202.7394431358
 20
111.1942502615
 30
0.0
 11
0.2199441409949543
 21
2.658240935926187
 31
0.0
210
0.0
220
0.0
230
0.9999999999999999
 40
0.2265727024
 41
0.0
 42
6.283185307179586
  0
LINE
  5
F6
330
1F
100
AcDbEntity
  8
0
  6
SLD-Durchgehend
 62
     7
370
    15
100
AcDbLine
 10
174.1533451859
 20
88.6508469887
 30
0.0
 11
174.1533451859
 21
118.8582481302
 31
0.0
  0
LINE
  5
F7
330
1F
100
AcDbEntity
  8
0
  6
SLD-Durchgehend
 62
     7
370
    15
100
AcDbLine
 10
162.3533454404
 20
89.2420291387
 30
0.0
 11
162.3533454404
 21
90.1509711005
 31
0.0
  0
ARC
  5
F8
330
1F
100
AcDbEntity
  8
0
  6
SLD-Durchgehend
 62
     7
370
    15
100
AcDbCircle
 10
159.2148048351
 20
89.1839647088
 30
0.0
 40
3.284134359664614
100
AcDbArc
 50
17.1244326527
 51
29.8895177058
  0
LWPOLYLINE
  5
F9
330
1F
100
AcDbEntity
  8
0
  6
SLD-Durchgehend
 62
     7
370
    15
100
AcDbPolyline
 90
        7
 70
   128
 43
0.0
 10
161.4533451066
 20
91.4706738152
 10
161.5166601405
 20
91.4702211924
 10
161.5780342982
 20
91.4587808259
 10
161.6554374487
 20
91.4283135392
 10
161.7608007655
 20
91.3552065797
 10
161.9488739088
 20
91.1041248076
 10
162.0621096954
 20
90.8205445342
  0
ARC
  5
FA
330
1F
100
AcDbEntity
  8
0
  6
SLD-Durchgehend
 62
     7
370
    15
100
AcDbCircle
 10
167.2084853891
 20
16.6021755201
 30
0.0
 40
75.08937126268323
100
AcDbArc
 50
94.395681249
 51
97.5337113535
  0
LINE
  5
FB
330
1F
100
AcDbEntity
  8
0
  6
SLD-Durchgehend
 62
     7
370
    15
100
AcDbLine
 10
157.2033448756
 20
91.0240124397
 30
0.0
 11
157.3635547102
 21
91.0433671855
 31
0.0
  0
LINE
  5
FC
330
1F
100
AcDbEntity
  8
0
  6
SLD-Durchgehend
 62
     7
370
    15
100
AcDbLine
 10
157.194828862
 20
91.0513700403
 30
0.0
 11
157.2033448756
 21
91.0240124397
 31
0.0
  0
ELLIPSE
  5
FD
330
1F
100
AcDbEntity
  8
0
  6
SLD-Durchgehend
 62
     7
370
    15
100
AcDbEllipse
 10
143.7266030731
 20
103.1152498817
 30
0.0
 11
13.37355272666628
 21
-13.37146352987014
 31
0.0
210
0.0
220
0.0
230
1.0
 40
0.1761188775
 41
0.3023035477142468
 42
0.3822730435340284
  0
ELLIPSE
  5
FE
330
1F
100
AcDbEntity
  8
0
  6
SLD-Durchgehend
 62
     7
370
    15
100
AcDbEllipse
 10
143.6472246424
 20
104.3936580108
 30
0.0
 11
13.36963611134303
 21
13.36754752639483
 31
0.0
210
0.0
220
0.0
230
0.9999999999999998
 40
0.1761188775
 41
5.933076931846596
 42
5.976720052691203
  0
LINE
  5
FF
330
1F
100
AcDbEntity
  8
0
  6
SLD-Durchgehend
 62
     7
370
    15
100
AcDbLine
 10
157.2033448756
 20
116.6201281779
 30
0.0
 11
157.1041776479
 21
116.4279832922
 31
0.0
  0
LWPOLYLINE
  5
100
330
1F
100
AcDbEntity
  8
0
  6
SLD-Durchgehend
 62
     7
370
    15
100
AcDbPolyline
 90
        3
 70
   128
 43
0.0
 10
158.9533446968
 20
116.535341502
 10
158.0897106469
 20
116.5939701207
 10
157.2033448756
 20
116.6201281779
  0
ARC
  5
101
330
1F
100
AcDbEntity
  8
0
  6
SLD-Durchgehend
 62
     7
370
    15
100
AcDbCircle
 10
158.7983800521
 20
117.6246815937
 30
0.0
 40
1.100307173752291
100
AcDbArc
 50
278.0963186522
 51
343.4942707128
  0
LINE
  5
102
330
1F
100
AcDbEntity
  8
0
  6
SLD-Durchgehend
 62
     7
370
    15
100
AcDbLine
 10
159.8533450306
 20
117.3120719798
 30
0.0
 11
159.8533450306
 21
118.1418152012
 31
0.0
  0
LWPOLYLINE
  5
103
330
1F
100
AcDbEntity
  8
0
  6
SLD-Durchgehend
 62
     7
370
    15
100
AcDbPolyline
 90
       18
 70
   128
 43
0.0
 10
167.3378881678
 20
88.9925809063
 10
167.3364893213
 20
88.992380672
 10
167.3917893932
 20
89.0008771278
 10
167.5528178603
 20
89.023738303
 10
167.8165879712
 20
89.0569995575
 10
168.1671135739
 20
89.0942319714
 10
168.5899889708
 20
89.1270424657
 10
169.0717151068
 20
89.1481685869
 10
169.6015049383
 20
89.1514822327
 10
170.1500320487
 20
89.1339938574
 10
170.6915621326
 20
89.0948578201
 10
171.2088713102
 20
89.0372583129
 10
171.691891519
 20
88.9660018914
 10
172.1146030031
 20
88.8908301897
 10
172.4578163266
 20
88.8205851846
 10
172.7118285053
 20
88.7631616972
 10
172.8680639208
 20
88.7253630392
 10
172.9196233355
 20
88.7129494406
  0
LWPOLYLINE
  5
104
330
1F
100
AcDbEntity
  8
0
  6
SLD-Durchgehend
 62
     7
370
    15
100
AcDbPolyline
 90
       18
 70
   128
 43
0.0
 10
172.918624492
 20
118.7961466096
 10
172.867953559
 20
118.7834312625
 10
172.7130392246
 20
118.7459930264
 10
172.4550575164
 20
118.6878906049
 10
172.1127426863
 20
118.6176996164
 10
171.6909490206
 20
118.5426610939
 10
171.2097802811
 20
118.4717772015
 10
170.6924068421
 20
118.4142866589
 10
170.1509670966
 20
118.3752046384
 10
169.6017186769
 20
118.3576855294
 10
169.0714422293
 20
118.3609684415
 10
168.5886390187
 20
118.3821103953
 10
168.1660136819
 20
118.4149227522
 10
167.8151751548
 20
118.4522631995
 10
167.552326122
 20
118.4854555361
 10
167.3912482947
 20
118.5082757331
 10
167.3365098104
 20
118.5167200349
 10
167.3374225065
 20
118.5165766113
  0
LWPOLYLINE
  5
105
330
1F
100
AcDbEntity
  8
0
  6
SLD-Durchgehend
 62
     7
370
    15
100
AcDbPolyline
 90
       13
 70
   128
 43
0.0
 10
157.0133159548
 20
116.142627918
 10
156.8485929311
 20
115.7450602807
 10
156.7661075533
 20
115.5860779293
 10
156.6581430525
 20
115.4088248916
 10
156.6049067915
 20
115.3339111663
 10
156.5404201538
 20
115.2551501475
 10
156.5016212553
 20
115.2149887241
 10
156.4622542501
 20
115.1809153564
 10
156.4307382942
 20
115.1595442973
 10
156.3911719859
 20
115.1424191378
 10
156.3411934913
 20
115.1441141449
 10
156.2698653579
 20
115.275277891
 10
156.2533455581
 20
115.5327792697
  0
LWPOLYLINE
  5
106
330
1F
100
AcDbEntity
  8
0
  6
SLD-Durchgehend
 62
     7
370
    15
100
AcDbPolyline
 90
       11
 70
   128
 43
0.0
 10
156.2533455581
 20
92.2070342533
 10
156.2783292175
 20
92.4590147518
 10
156.3368758798
 20
92.5384202458
 10
156.3886760414
 20
92.5390330561
 10
156.4224271715
 20
92.5247549497
 10
156.4662421733
 20
92.495124922
 10
156.5097293496
 20
92.4564200871
 10
156.5574577689
 20
92.4055298276
 10
156.6259900719
 20
92.3197531559
 10
156.7651985824
 20
92.1061766751
 10
157.0133159548
 20
91.5875622489
  0
LINE
  5
107
330
1F
100
AcDbEntity
  8
0
  6
SLD-Durchgehend
 62
     7
370
    15
100
AcDbLine
 10
156.2533455581
 20
92.2070342533
 30
0.0
 11
156.2533455581
 21
115.5327792697
 31
0.0
  0
ARC
  5
108
330
1F
100
AcDbEntity
  8
0
  6
SLD-Durchgehend
 62
     7
370
    15
100
AcDbCircle
 10
195.4952407107
 20
122.6336173264
 30
0.0
 40
0.6081603245705087
100
AcDbArc
 50
359.2281322855
 51
89.2364584066
  0
LINE
  5
109
330
1F
100
AcDbEntity
  8
0
  6
SLD-Durchgehend
 62
     7
370
    15
100
AcDbLine
 10
196.1033458501
 20
119.1148051478
 30
0.0
 11
196.1033458501
 21
122.6254246615
 31
0.0
  0
ARC
  5
10A
330
1F
100
AcDbEntity
  8
0
  6
SLD-Durchgehend
 62
     7
370
    15
100
AcDbCircle
 10
195.4077663014
 20
119.174402471
 30
0.0
 40
0.698128032379553
100
AcDbArc
 50
355.1028521375
 51
82.1310855252
  0
LINE
  5
10B
330
1F
100
AcDbEntity
  8
0
  6
SLD-Durchgehend
 62
     7
370
    15
100
AcDbLine
 10
190.1181854919
 20
119.8659568511
 30
0.0
 11
191.1133455724
 21
117.6686353467
 31
0.0
  0
LINE
  5
10C
330
1F
100
AcDbEntity
  8
0
  6
SLD-Durchgehend
 62
     7
370
    15
100
AcDbLine
 10
191.1133455724
 20
117.6686353467
 30
0.0
 11
191.1133455724
 21
117.2703943633
 31
0.0
  0
LWPOLYLINE
  5
10D
330
1F
100
AcDbEntity
  8
0
  6
SLD-Durchgehend
 62
     7
370
    15
100
AcDbPolyline
 90
        6
 70
   128
 43
0.0
 10
191.1133455724
 20
117.2703943633
 10
191.1583601177
 20
116.9656395398
 10
191.2828071654
 20
116.7094466694
 10
191.429917948
 20
116.5586916216
 10
191.5801235155
 20
116.4820298038
 10
191.7133454845
 20
116.4615584023
  0
LINE
  5
10E
330
1F
100
AcDbEntity
  8
0
  6
SLD-Durchgehend
 62
     7
370
    15
100
AcDbLine
 10
191.7133454845
 20
116.4615584023
 30
0.0
 11
192.593345666
 21
116.4615584023
 31
0.0
  0
ARC
  5
10F
330
1F
100
AcDbEntity
  8
0
  6
SLD-Durchgehend
 62
     7
370
    15
100
AcDbCircle
 10
192.4678036728
 20
117.1816454044
 30
0.0
 40
0.7309487551175022
100
AcDbArc
 50
279.8897062559
 51
6.9738377009
  0
LINE
  5
110
330
1F
100
AcDbEntity
  8
0
  6
SLD-Durchgehend
 62
     7
370
    15
100
AcDbLine
 10
193.1933446467
 20
117.2703943633
 30
0.0
 11
193.1933446467
 21
117.6686353467
 31
0.0
  0
LINE
  5
111
330
1F
100
AcDbEntity
  8
0
  6
SLD-Durchgehend
 62
     7
370
    15
100
AcDbLine
 10
193.1933446467
 20
117.6686353467
 30
0.0
 11
194.1885056585
 21
119.8659568511
 31
0.0
  0
LINE
  5
112
330
1F
100
AcDbEntity
  8
0
  6
SLD-Durchgehend
 62
     7
370
    15
100
AcDbLine
 10
194.1885056585
 20
119.8659568511
 30
0.0
 11
195.5033450067
 21
119.8659568511
 31
0.0
  0
LINE
  5
113
330
1F
100
AcDbEntity
  8
0
  6
SLD-Durchgehend
 62
     7
370
    15
100
AcDbLine
 10
196.1033458501
 20
119.1148051478
 30
0.0
 11
196.1033458501
 21
116.6319503866
 31
0.0
  0
ARC
  5
114
330
1F
100
AcDbEntity
  8
0
  6
SLD-Durchgehend
 62
     7
370
    15
100
AcDbCircle
 10
191.7400492829
 20
121.1541568391
 30
0.0
 40
0.6267108666969675
100
AcDbArc
 50
179.726192355
 51
232.8629641269
  0
LINE
  5
115
330
1F
100
AcDbEntity
  8
0
  6
SLD-Durchgehend
 62
     7
370
    15
100
AcDbLine
 10
191.7133454845
 20
120.6545467906
 30
0.0
 11
191.3616892562
 21
120.6545467906
 31
0.0
  0
LINE
  5
116
330
1F
100
AcDbEntity
  8
0
  6
SLD-Durchgehend
 62
     7
370
    15
100
AcDbLine
 10
192.593345666
 20
120.6545467906
 30
0.0
 11
191.7133454845
 21
120.6545467906
 31
0.0
  0
LWPOLYLINE
  5
117
330
1F
100
AcDbEntity
  8
0
  6
SLD-Durchgehend
 62
     7
370
    15
100
AcDbPolyline
 90
        3
 70
   128
 43
0.0
 10
191.1133455724
 20
121.4682246976
 10
190.1842693478
 20
123.1242317192
 10
190.1181854919
 20
123.24172365
  0
LINE
  5
118
330
1F
100
AcDbEntity
  8
0
  6
SLD-Durchgehend
 62
     7
370
    15
100
AcDbLine
 10
191.1133455724
 20
117.6686353467
 30
0.0
 11
191.1133455724
 21
121.4682246976
 31
0.0
  0
LINE
  5
119
330
1F
100
AcDbEntity
  8
0
  6
SLD-Durchgehend
 62
     7
370
    15
100
AcDbLine
 10
195.5033450067
 20
123.24172365
 30
0.0
 11
194.1885056585
 21
123.24172365
 31
0.0
  0
LINE
  5
11A
330
1F
100
AcDbEntity
  8
0
  6
SLD-Durchgehend
 62
     7
370
    15
100
AcDbLine
 10
194.1885056585
 20
119.8659568511
 30
0.0
 11
194.1885056585
 21
123.24172365
 31
0.0
  0
LWPOLYLINE
  5
11B
330
1F
100
AcDbEntity
  8
0
  6
SLD-Durchgehend
 62
     7
370
    15
100
AcDbPolyline
 90
        3
 70
   128
 43
0.0
 10
194.1885056585
 20
123.24172365
 10
194.1224208713
 20
123.1242317192
 10
193.1933446467
 20
121.4682246976
  0
LINE
  5
11C
330
1F
100
AcDbEntity
  8
0
  6
SLD-Durchgehend
 62
     7
370
    15
100
AcDbLine
 10
193.1933446467
 20
117.6686353467
 30
0.0
 11
193.1933446467
 21
121.4682246976
 31
0.0
  0
LINE
  5
11D
330
1F
100
AcDbEntity
  8
0
  6
SLD-Durchgehend
 62
     7
370
    15
100
AcDbLine
 10
192.9450000316
 20
120.6545467906
 30
0.0
 11
192.593345666
 21
120.6545467906
 31
0.0
  0
ARC
  5
11E
330
1F
100
AcDbEntity
  8
0
  6
SLD-Durchgehend
 62
     7
370
    15
100
AcDbCircle
 10
192.5661549728
 20
121.154397662
 30
0.0
 40
0.627195720809245
100
AcDbArc
 50
307.1590768283
 51
0.2515960212
  0
LINE
  5
11F
330
1F
100
AcDbEntity
  8
0
  6
SLD-Durchgehend
 62
     7
370
    15
100
AcDbLine
 10
156.2533455581
 20
91.9360752635
 30
0.0
 11
156.2533455581
 21
92.2070342533
 31
0.0
  0
LINE
  5
120
330
1F
100
AcDbEntity
  8
0
  6
SLD-Durchgehend
 62
     7
370
    15
100
AcDbLine
 10
156.2533455581
 20
115.6284614883
 30
0.0
 11
156.2533455581
 21
115.5327792697
 31
0.0
  0
LINE
  5
121
330
1F
100
AcDbEntity
  8
0
  6
SLD-Durchgehend
 62
     7
370
    15
100
AcDbLine
 10
157.2033448756
 20
116.6345478453
 30
0.0
 11
157.2033448756
 21
116.6201281779
 31
0.0
  0
LINE
  5
122
330
1F
100
AcDbEntity
  8
0
  6
SLD-Durchgehend
 62
     7
370
    15
100
AcDbLine
 10
156.2533455581
 20
115.6845475964
 30
0.0
 11
156.2533455581
 21
115.6284614883
 31
0.0
  0
LINE
  5
123
330
1F
100
AcDbEntity
  8
0
  6
SLD-Durchgehend
 62
     7
370
    15
100
AcDbLine
 10
157.2033448756
 20
90.9335474901
 30
0.0
 11
157.2033448756
 21
91.0240124397
 31
0.0
  0
LINE
  5
124
330
1F
100
AcDbEntity
  8
0
  6
SLD-Durchgehend
 62
     7
370
    15
100
AcDbLine
 10
156.2533455581
 20
91.8835477389
 30
0.0
 11
156.2533455581
 21
91.9360752635
 31
0.0
  0
LINE
  5
125
330
1F
100
AcDbEntity
  8
0
  6
SLD-Durchgehend
 62
     7
370
    15
100
AcDbLine
 10
212.1266296745
 20
119.604972326
 30
0.0
 11
215.2483372629
 21
117.1660275616
 31
0.0
  0
ARC
  5
126
330
1F
100
AcDbEntity
  8
0
  6
SLD-Durchgehend
 62
     7
370
    15
100
AcDbCircle
 10
217.7109837612
 20
120.3195062523
 30
0.0
 40
4.00113179344532
100
AcDbArc
 50
232.0126504826
 51
321.9837869645
  0
LINE
  5
127
330
1F
100
AcDbEntity
  8
0
  6
SLD-Durchgehend
 62
     7
370
    15
100
AcDbLine
 10
220.8632214606
 20
117.8552714594
 30
0.0
 11
220.9677754581
 21
117.9890941314
 31
0.0
  0
LINE
  5
128
330
1F
100
AcDbEntity
  8
0
  6
SLD-Durchgehend
 62
     7
370
    15
100
AcDbLine
 10
220.2193571866
 20
103.004559893
 30
0.0
 11
220.14721694
 21
101.6280715305
 31
0.0
  0
ARC
  5
129
330
1F
100
AcDbEntity
  8
0
  6
SLD-Durchgehend
 62
     7
370
    15
100
AcDbCircle
 10
222.1351473348
 20
101.5238884623
 30
0.0
 40
1.99065773936966
100
AcDbArc
 50
177.0
 51
357.0
  0
LINE
  5
12A
330
1F
100
AcDbEntity
  8
0
  6
SLD-Durchgehend
 62
     7
370
    15
100
AcDbLine
 10
224.1230777145
 20
101.4197055668
 30
0.0
 11
224.4391797722
 21
107.4513289098
 31
0.0
  0
LINE
  5
12B
330
1F
100
AcDbEntity
  8
0
  6
SLD-Durchgehend
 62
     7
370
    15
100
AcDbLine
 10
229.4913849473
 20
113.9178566121
 30
0.0
 11
228.0155404151
 21
85.7570480041
 31
0.0
  0
LINE
  5
12C
330
1F
100
AcDbEntity
  8
0
  6
SLD-Durchgehend
 62
     7
370
    15
100
AcDbLine
 10
228.0155404151
 20
85.7570480041
 30
0.0
 11
211.5552707255
 21
85.7570480041
 31
0.0
  0
LINE
  5
12D
330
1F
100
AcDbEntity
  8
0
  6
SLD-Durchgehend
 62
     7
370
    15
100
AcDbLine
 10
211.5552707255
 20
85.7570480041
 30
0.0
 11
211.351944381
 21
86.5159771822
 31
0.0
  0
ARC
  5
12E
330
1F
100
AcDbEntity
  8
0
  6
SLD-Durchgehend
 62
     7
370
    15
100
AcDbCircle
 10
210.3859634736
 20
86.257243429
 30
0.0
 40
1.000031133849453
100
AcDbArc
 50
14.994463013
 51
89.996899749
  0
ELLIPSE
  5
12F
330
1F
100
AcDbEntity
  8
0
  6
SLD-Durchgehend
 62
     7
370
    15
100
AcDbEllipse
 10
215.1533452809
 20
131.6266196728
 30
0.0
 11
3.410605131648481E-13
 21
12.42331416492098
 31
0.0
210
-7.262708952756231E-15
220
1.993850601788860E-28
230
1.0
 40
0.9659258263
 41
2.727796558331355
 42
2.886612552872694
  0
LINE
  5
130
330
1F
100
AcDbEntity
  8
0
  6
SLD-Durchgehend
 62
     7
370
    15
100
AcDbLine
 10
224.1808644176
 20
107.1207000826
 30
0.0
 11
223.8827480614
 21
101.4323005404
 31
0.0
  0
ARC
  5
131
330
1F
100
AcDbEntity
  8
0
  6
SLD-Durchgehend
 62
     7
370
    15
100
AcDbCircle
 10
222.1351473348
 20
101.5238884623
 30
0.0
 40
1.750000000000009
100
AcDbArc
 50
177.0
 51
357.0
  0
LINE
  5
132
330
1F
100
AcDbEntity
  8
0
  6
SLD-Durchgehend
 62
     7
370
    15
100
AcDbLine
 10
220.448373133
 20
102.7761068147
 30
0.0
 11
220.387546593
 21
101.615476324
 31
0.0
  0
LWPOLYLINE
  5
133
330
1F
100
AcDbEntity
  8
0
  6
SLD-Gestrichelt
 62
     7
370
     0
100
AcDbPolyline
 90
       29
 70
   128
 43
0.0
 10
199.589889744
 20
99.2144361556
 10
200.0229454279
 20
99.178760913
 10
200.4577203334
 20
99.239070569
 10
200.8724121988
 20
99.3923411191
 10
201.2462301791
 20
99.6308858924
 10
201.5604267508
 20
99.9427443788
 10
201.7992457986
 20
100.3122780424
 10
201.9507142395
 20
100.7209570564
 10
202.0072362066
 20
101.1482888319
 10
201.9659786165
 20
101.5728448004
 10
201.8290071428
 20
101.973336092
 10
201.6031930834
 20
102.3296803653
 10
201.2998575956
 20
102.624009149
 10
200.9342110396
 20
102.8415635413
 10
200.5245911569
 20
102.9714343206
 10
200.0915354729
 20
103.0071093303
 10
199.6567605675
 20
102.9467996744
 10
199.242068702
 20
102.7935295317
 10
198.8682507217
 20
102.5549844092
 10
198.55405415
 20
102.2431261556
 10
198.3152351022
 20
101.8735923756
 10
198.1637647987
 20
101.4649133615
 10
198.1072428316
 20
101.0375815861
 10
198.1485022843
 20
100.6130256176
 10
198.285473758
 20
100.2125343259
 10
198.5112878174
 20
99.8561900526
 10
198.8146233052
 20
99.5618613854
 10
199.1802698613
 20
99.3443067603
 10
199.589889744
 20
99.2144361556
  0
LWPOLYLINE
  5
134
330
1F
100
AcDbEntity
  8
0
  6
SLD-Gestrichelt
 62
     7
370
     0
100
AcDbPolyline
 90
       32
 70
   128
 43
0.0
 10
199.5193606854
 20
98.6450874664
 10
200.0125984341
 20
98.5991043456
 10
200.5097961665
 20
98.6520886839
 10
200.9905988962
 20
98.8018709652
 10
201.435324052
 20
99.0423188962
 10
201.825762415
 20
99.3635888629
 10
202.145930627
 20
99.7525277965
 10
202.3827193916
 20
100.1932131078
 10
202.5264355034
 20
100.6676022846
 10
202.5711948663
 20
101.1562742245
 10
202.5151665002
 20
101.6392222557
 10
202.3606433213
 20
102.0966749823
 10
202.1139490098
 20
102.5099038564
 10
201.7851884157
 20
102.8619913452
 10
201.3878172875
 20
103.1385229619
 10
200.9381039679
 20
103.3281774037
 10
200.4544607044
 20
103.4231902634
 10
199.9566892773
 20
103.4196716685
 10
199.4651670248
 20
103.317765683
 10
199.0000161022
 20
103.1216443119
 10
198.5802820564
 20
102.8393368654
 10
198.223145926
 20
102.4824009694
 10
197.9432313383
 20
102.0654497154
 10
197.7519972861
 20
101.605553082
 10
197.6572743297
 20
101.121539152
 10
197.6629367709
 20
100.6332236759
 10
197.7687573672
 20
100.1605984241
 10
197.9703998804
 20
99.7230123214
 10
198.2596109301
 20
99.3383807547
 10
198.624549681
 20
99.0224505261
 10
199.0502758563
 20
98.7881553777
 10
199.5193606854
 20
98.6450874664
  0
LWPOLYLINE
  5
135
330
1F
100
AcDbEntity
  8
0
  6
SLD-Gestrichelt
 62
     7
370
     0
100
AcDbPolyline
 90
       32
 70
   128
 43
0.0
 10
199.8232437909
 20
98.1990351759
 10
200.3164815396
 20
98.1530525208
 10
200.8136811346
 20
98.2060363934
 10
201.2944838643
 20
98.3558186747
 10
201.7392090202
 20
98.5962666057
 10
202.1296473831
 20
98.9175365724
 10
202.4498137325
 20
99.3064759716
 10
202.6866024971
 20
99.7471605845
 10
202.8303186089
 20
100.2215499941
 10
202.8750798345
 20
100.710221934
 10
202.8190514684
 20
101.1931701981
 10
202.6645264268
 20
101.6506228082
 10
202.417833978
 20
102.0638515659
 10
202.0890715212
 20
102.4159391129
 10
201.691700393
 20
102.6924706714
 10
201.2419889361
 20
102.8821251423
 10
200.7583456725
 20
102.9771380311
 10
200.2605742455
 20
102.9736194362
 10
199.7690501303
 20
102.8717134216
 10
199.3039010704
 20
102.6755920796
 10
198.8841651619
 20
102.3932845749
 10
198.5270308942
 20
102.0363486789
 10
198.2471163065
 20
101.6193974249
 10
198.0558822543
 20
101.1595007915
 10
197.9611574352
 20
100.6754868615
 10
197.9668217391
 20
100.1871713854
 10
198.0726404727
 20
99.7145461336
 10
198.274282986
 20
99.2769600309
 10
198.5634940356
 20
98.8923284642
 10
198.9284346491
 20
98.5763982356
 10
199.3541608244
 20
98.3421030872
 10
199.8232437909
 20
98.1990351759
  0
LWPOLYLINE
  5
136
330
1F
100
AcDbEntity
  8
0
  6
SLD-Gestrichelt
 62
     7
370
     0
100
AcDbPolyline
 90
       29
 70
   128
 43
0.0
 10
200.5403249204
 20
97.7939512998
 10
200.9776702762
 20
97.757923086
 10
201.4167516172
 20
97.8188301854
 10
201.8355524779
 20
97.9736183256
 10
202.2130715341
 20
98.2145263299
 10
202.5303805858
 20
98.5294735476
 10
202.771565193
 20
98.9026670761
 10
202.9245349258
 20
99.3153943166
 10
202.9816156864
 20
99.7469584875
 10
202.9399483145
 20
100.1757196102
 10
202.8016208351
 20
100.5801776376
 10
202.5735697389
 20
100.9400516234
 10
202.2672298044
 20
101.2372955632
 10
201.8979622662
 20
101.4570048031
 10
201.4842855424
 20
101.5881620299
 10
201.0469401867
 20
101.6241902437
 10
200.6078588456
 20
101.5632833771
 10
200.189057985
 20
101.4084950041
 10
199.8115389288
 20
101.1675872326
 10
199.4942317397
 20
100.8526400149
 10
199.2530452699
 20
100.4794462536
 10
199.100075537
 20
100.0667192459
 10
199.0429947764
 20
99.6351550751
 10
199.0846621484
 20
99.2063937195
 10
199.2229896277
 20
98.8019356921
 10
199.451040724
 20
98.4420619391
 10
199.7573806584
 20
98.1448177666
 10
200.1266481966
 20
97.9251085267
 10
200.5403249204
 20
97.7939512998
  0
LWPOLYLINE
  5
137
330
1F
100
AcDbEntity
  8
0
  6
SLD-Gestrichelt
 62
     7
370
     0
100
AcDbPolyline
 90
       29
 70
   128
 43
0.0
 10
199.8205019772
 20
98.8505344324
 10
200.257847333
 20
98.8145062186
 10
200.6969268114
 20
98.875413318
 10
201.115727672
 20
99.0302014582
 10
201.4932485909
 20
99.2711089969
 10
201.81055578
 20
99.5860562146
 10
202.0517422498
 20
99.9592502087
 10
202.20471012
 20
100.3719772164
 10
202.2617927432
 20
100.8035413873
 10
202.2201253712
 20
101.23230251
 10
202.0817978919
 20
101.6367607702
 10
201.853744933
 20
101.9966345232
 10
201.5474068612
 20
102.2938785793
 10
201.178139323
 20
102.5135877028
 10
200.7644607365
 20
102.6447448133
 10
200.3271172434
 20
102.6807732599
 10
199.8880359024
 20
102.6198662769
 10
199.4692350418
 20
102.4650779039
 10
199.0917159856
 20
102.2241701324
 10
198.7744069338
 20
101.9092229147
 10
198.5332223267
 20
101.5360291533
 10
198.3802525938
 20
101.1233021457
 10
198.3231699705
 20
100.691737742
 10
198.3648392052
 20
100.2629766192
 10
198.5031666845
 20
99.8585185919
 10
198.7312177807
 20
99.498644606
 10
199.0375577152
 20
99.2014008991
 10
199.4068252534
 20
98.9816916592
 10
199.8205019772
 20
98.8505344324
  0
LWPOLYLINE
  5
138
330
1F
100
AcDbEntity
  8
0
  6
SLD-Gestrichelt
 62
     7
370
     0
100
AcDbPolyline
 90
       32
 70
   128
 43
0.0
 10
199.9430621654
 20
98.0231632896
 10
200.4362999142
 20
97.9771801688
 10
200.9334976465
 20
98.030164507
 10
201.4143022389
 20
98.1799463227
 10
201.859025532
 20
98.4203947194
 10
202.249463895
 20
98.7416646861
 10
202.569632107
 20
99.1306036197
 10
202.8064208716
 20
99.5712886982
 10
202.9501369834
 20
100.045677875
 10
202.9948963464
 20
100.5343498148
 10
202.9388679803
 20
101.0172980789
 10
202.7843448013
 20
101.4747506891
 10
202.5376504898
 20
101.8879795631
 10
202.2088898957
 20
102.2400671102
 10
201.8115187675
 20
102.5165986687
 10
201.361805448
 20
102.7062530814
 10
200.8781621844
 20
102.8012659702
 10
200.3803907574
 20
102.7977473753
 10
199.8888685048
 20
102.6958413607
 10
199.4237175823
 20
102.4997200769
 10
199.0039835364
 20
102.2174125722
 10
198.6468474061
 20
101.8604766762
 10
198.3669328183
 20
101.4435253058
 10
198.1756987661
 20
100.9836286724
 10
198.0809758097
 20
100.4996147424
 10
198.086638251
 20
100.0112994991
 10
198.1924588472
 20
99.5386742473
 10
198.3941013605
 20
99.1010881446
 10
198.6833124101
 20
98.7164565779
 10
199.048251161
 20
98.4005263493
 10
199.4739773363
 20
98.1662312009
 10
199.9430621654
 20
98.0231632896
  0
LWPOLYLINE
  5
139
330
1F
100
AcDbEntity
  8
0
  6
SLD-Gestrichelt
 62
     7
370
     0
100
AcDbPolyline
 90
       31
 70
   128
 43
0.0
 10
199.9016537011
 20
98.3429328956
 10
200.3707254917
 20
98.3007872894
 10
200.8430196584
 20
98.3558331102
 10
201.297892505
 20
98.5056647517
 10
201.7154640198
 20
98.7437336192
 10
202.077487731
 20
99.0596354425
 10
202.3681367427
 20
99.4395628989
 10
202.5747115404
 20
99.8669121366
 10
202.6881820202
 20
100.3230054814
 10
202.7035916835
 20
100.7879098363
 10
202.6202643901
 20
101.2413063038
 10
202.4418416113
 20
101.6633793663
 10
202.1761222422
 20
102.0356826669
 10
201.8347217381
 20
102.3419446031
 10
201.432558024
 20
102.5687799741
 10
200.9872070194
 20
102.7062749675
 10
200.5181352288
 20
102.7484205736
 10
200.0458410621
 20
102.6933746364
 10
199.5909682155
 20
102.5435431114
 10
199.1733967007
 20
102.3054741275
 10
198.8113729894
 20
101.9895726534
 10
198.5207239777
 20
101.6096450806
 10
198.3141491801
 20
101.1822958428
 10
198.2006787002
 20
100.726202498
 10
198.1852690369
 20
100.2612981431
 10
198.2685963303
 20
99.8079019085
 10
198.4470191092
 20
99.3858283803
 10
198.7127384782
 20
99.0135251962
 10
199.0541389823
 20
98.7072634928
 10
199.4563026965
 20
98.4804282382
 10
199.9016537011
 20
98.3429328956
  0
LWPOLYLINE
  5
13A
330
1F
100
AcDbEntity
  8
0
  6
SLD-Gestrichelt
 62
     7
370
     0
100
AcDbPolyline
 90
       32
 70
   128
 43
0.0
 10
200.0628786773
 20
97.8472914033
 10
200.556116426
 20
97.8013082825
 10
201.053316021
 20
97.8542921551
 10
201.5341187507
 20
98.0040744364
 10
201.9788420439
 20
98.2445223674
 10
202.3692804069
 20
98.5657927997
 10
202.6894486189
 20
98.9547317334
 10
202.9262373835
 20
99.3954168119
 10
203.0699534953
 20
99.8698059887
 10
203.1147147209
 20
100.3584776957
 10
203.0586844921
 20
100.8414259598
 10
202.9041613132
 20
101.2988785699
 10
202.6574688644
 20
101.7121075604
 10
202.3287064076
 20
102.0641949911
 10
201.9313352794
 20
102.340726666
 10
201.4816219598
 20
102.5303810787
 10
200.9979805589
 20
102.6253939092
 10
200.5002072692
 20
102.6218753725
 10
200.0086850167
 20
102.5199693579
 10
199.5435340941
 20
102.3238480741
 10
199.1238000483
 20
102.0415405694
 10
198.7666657806
 20
101.6846046735
 10
198.4867511928
 20
101.2676534195
 10
198.2955171407
 20
100.8077565532
 10
198.2007923216
 20
100.3237428561
 10
198.2064566255
 20
99.8354271472
 10
198.3122753591
 20
99.3628018953
 10
198.5139178723
 20
98.9252162583
 10
198.803128922
 20
98.5405846916
 10
199.1680676729
 20
98.2246539973
 10
199.5937938482
 20
97.9903588489
 10
200.0628786773
 20
97.8472914033
  0
LWPOLYLINE
  5
13B
330
1F
100
AcDbEntity
  8
0
  6
SLD-Gestrichelt
 62
     7
370
     0
100
AcDbPolyline
 90
       31
 70
   128
 43
0.0
 10
200.021470213
 20
98.1670610093
 10
200.4905420035
 20
98.1249154031
 10
200.9628361702
 20
98.1799612239
 10
201.4177090168
 20
98.3297928654
 10
201.8352823943
 20
98.5678617328
 10
202.1973042429
 20
98.8837630905
 10
202.4879532546
 20
99.2636910126
 10
202.6945280522
 20
99.6910400175
 10
202.8080003947
 20
100.1471333623
 10
202.8234081954
 20
100.6120377172
 10
202.740080902
 20
101.0654341847
 10
202.5616581232
 20
101.48750748
 10
202.2959406168
 20
101.8598106641
 10
201.95453825
 20
102.1660724839
 10
201.5523745358
 20
102.3929078549
 10
201.1070235312
 20
102.5304029647
 10
200.6379517407
 20
102.5725484544
 10
200.1656594366
 20
102.5175026337
 10
199.71078659
 20
102.3676709922
 10
199.2932132125
 20
102.1296021247
 10
198.931191364
 20
101.8137006506
 10
198.6405404896
 20
101.4337729614
 10
198.433965692
 20
101.0064239565
 10
198.3204952121
 20
100.5503303789
 10
198.3050874114
 20
100.0854262568
 10
198.3884147048
 20
99.6320295565
 10
198.566835621
 20
99.209956494
 10
198.8325549901
 20
98.8376533099
 10
199.1739573568
 20
98.5313911408
 10
199.576121071
 20
98.3045558862
 10
200.021470213
 20
98.1670610093
  0
LWPOLYLINE
  5
13C
330
1F
100
AcDbEntity
  8
0
  6
SLD-Gestrichelt
 62
     7
370
     0
100
AcDbPolyline
 90
       32
 70
   128
 43
0.0
 10
200.1826970518
 20
97.6714190513
 10
200.6759348005
 20
97.6254363962
 10
201.1731325329
 20
97.6784202688
 10
201.6539352626
 20
97.8282025501
 10
202.0986604184
 20
98.0686504811
 10
202.4890987814
 20
98.3899204478
 10
202.8092651308
 20
98.778859847
 10
203.0460538954
 20
99.2195444599
 10
203.1897718698
 20
99.6939341024
 10
203.2345312327
 20
100.1826058094
 10
203.1785028667
 20
100.6655540735
 10
203.0239778251
 20
101.1230066836
 10
202.7772853762
 20
101.5362354413
 10
202.4485247821
 20
101.8883229883
 10
202.0511517912
 20
102.1648545468
 10
201.6014403344
 20
102.3545090759
 10
201.1177970708
 20
102.4495219065
 10
200.6200256437
 20
102.4460033698
 10
200.1285033912
 20
102.3440973552
 10
199.6633524686
 20
102.147975955
 10
199.2436165601
 20
101.8656685667
 10
198.8864822924
 20
101.5087325543
 10
198.6065677047
 20
101.0917813003
 10
198.4153336525
 20
100.6318846669
 10
198.3206106961
 20
100.1478707369
 10
198.3262731374
 20
99.6595552608
 10
198.4320918709
 20
99.186930009
 10
198.6337362469
 20
98.749344372
 10
198.9229472965
 20
98.3647123396
 10
199.2878860474
 20
98.048782111
 10
199.7136122227
 20
97.8144869626
 10
200.1826970518
 20
97.6714190513
  0
LWPOLYLINE
  5
13D
330
1F
100
AcDbEntity
  8
0
  6
SLD-Gestrichelt
 62
     7
370
     0
100
AcDbPolyline
 90
       31
 70
   128
 43
0.0
 10
200.1412885875
 20
97.991189123
 10
200.6103603781
 20
97.9490435168
 10
201.0826526821
 20
98.0040893376
 10
201.5375255287
 20
98.1539209791
 10
201.9550989062
 20
98.3919898465
 10
202.3171207547
 20
98.7078912042
 10
202.6077716291
 20
99.0878186606
 10
202.8143464268
 20
99.5151681311
 10
202.9278169066
 20
99.971261476
 10
202.9432265699
 20
100.436165598
 10
202.8598974139
 20
100.8895622984
 10
202.6814764977
 20
101.3116353609
 10
202.4157571286
 20
101.683938545
 10
202.0743566245
 20
101.9902004812
 10
201.6721910477
 20
102.2170358522
 10
201.2268419057
 20
102.354530962
 10
200.7577701152
 20
102.3966764517
 10
200.2854759485
 20
102.3416306309
 10
199.8306031019
 20
102.1917989895
 10
199.413031587
 20
101.953730122
 10
199.0510078758
 20
101.6378285315
 10
198.7603588641
 20
101.2579010751
 10
198.5537840665
 20
100.8305518374
 10
198.440311724
 20
100.3744584926
 10
198.4249039233
 20
99.9095541377
 10
198.5082312167
 20
99.4561576702
 10
198.6866539955
 20
99.0340846077
 10
198.952371502
 20
98.6617814235
 10
199.2937738687
 20
98.3555192545
 10
199.6959375829
 20
98.1286839999
 10
200.1412885875
 20
97.991189123
  0
LWPOLYLINE
  5
13E
330
1F
100
AcDbEntity
  8
0
  6
SLD-Gestrichelt
 62
     7
370
     0
100
AcDbPolyline
 90
       32
 70
   128
 43
0.0
 10
200.3025135637
 20
97.495547165
 10
200.7957513124
 20
97.4495640442
 10
201.2929490447
 20
97.5025483824
 10
201.7737536371
 20
97.6523306638
 10
202.2184769303
 20
97.8927785948
 10
202.6089152932
 20
98.2140485615
 10
202.9290835053
 20
98.6029874951
 10
203.1658722699
 20
99.0436725736
 10
203.3095883817
 20
99.5180617504
 10
203.3543477446
 20
100.0067336902
 10
203.2983193785
 20
100.4896819543
 10
203.1437961996
 20
100.9471345645
 10
202.8971037507
 20
101.360363555
 10
202.568341294
 20
101.7124509856
 10
202.1709701658
 20
101.9889825441
 10
201.7212568462
 20
102.1786370732
 10
201.2376154453
 20
102.2736499038
 10
200.7398421556
 20
102.2701312507
 10
200.248319903
 20
102.1682253525
 10
199.7831689805
 20
101.9721039523
 10
199.3634349346
 20
101.689796564
 10
199.0062988043
 20
101.332860668
 10
198.7263860792
 20
100.915909414
 10
198.535152027
 20
100.4560125478
 10
198.440427208
 20
99.9719988506
 10
198.4460915119
 20
99.4836833745
 10
198.5519102454
 20
99.0110581227
 10
198.7535527587
 20
98.57347202
 10
199.0427638084
 20
98.1888404533
 10
199.4077025593
 20
97.8729102247
 10
199.8334287346
 20
97.6386150763
 10
200.3025135637
 20
97.495547165
  0
LWPOLYLINE
  5
13F
330
1F
100
AcDbEntity
  8
0
  6
SLD-Gestrichelt
 62
     7
370
     0
100
AcDbPolyline
 90
       31
 70
   128
 43
0.0
 10
200.2611050994
 20
97.815316771
 10
200.7301768899
 20
97.7731711648
 10
201.2024710566
 20
97.8282174513
 10
201.6573439032
 20
97.9780486271
 10
202.0749154181
 20
98.2161174946
 10
202.4369391293
 20
98.5320193179
 10
202.727588141
 20
98.9119467743
 10
202.9341629386
 20
99.3392957792
 10
203.0476352811
 20
99.7953895897
 10
203.0630430818
 20
100.2602937117
 10
202.9797157884
 20
100.7136901792
 10
202.8012930096
 20
101.1357634746
 10
202.5355755031
 20
101.5080666587
 10
202.1941731364
 20
101.8143284785
 10
201.7920094222
 20
102.0411638495
 10
201.3466584176
 20
102.1786588429
 10
200.877586627
 20
102.220804449
 10
200.405294323
 20
102.1657585118
 10
199.9504214764
 20
102.0159269868
 10
199.5328480989
 20
101.7778580029
 10
199.1708262503
 20
101.4619566452
 10
198.880175376
 20
101.082028956
 10
198.6736005783
 20
100.6546797182
 10
198.5601300985
 20
100.1985863734
 10
198.5447204352
 20
99.7336820185
 10
198.6280495912
 20
99.2802857839
 10
198.8064705074
 20
98.8582122557
 10
199.0721898765
 20
98.4859090716
 10
199.4135903806
 20
98.1796473682
 10
199.8157559574
 20
97.9528121136
 10
200.2611050994
 20
97.815316771
  0
LWPOLYLINE
  5
140
330
1F
100
AcDbEntity
  8
0
  6
SLD-Gestrichelt
 62
     7
370
     0
100
AcDbPolyline
 90
       20
 70
   128
 43
0.0
 10
200.3980206937
 20
97.3553593688
 10
200.8912584424
 20
97.309376248
 10
201.3884561748
 20
97.3623605862
 10
201.8692589045
 20
97.5121424019
 10
202.3139840603
 20
97.7525907986
 10
202.7044224233
 20
98.0738607653
 10
203.0245887727
 20
98.4627996989
 10
203.2613793999
 20
98.9034847774
 10
203.4050955117
 20
99.3778739542
 10
203.4498548746
 20
99.866545894
 10
203.3938265086
 20
100.3494941581
 10
203.239301467
 20
100.8069467682
 10
202.9926090181
 20
101.2201755259
 10
202.663848424
 20
101.5722631894
 10
202.2664754331
 20
101.8487947479
 10
201.8167639762
 20
102.0384491606
 10
201.3331207127
 20
102.1334619911
 10
200.8353492856
 20
102.1299434545
 10
200.3438270331
 20
102.0280374399
 10
200.2968194574
 20
102.0129017018
  0
ARC
  5
141
330
1F
100
AcDbEntity
  8
0
  6
SLD-Gestrichelt
 62
     7
370
     0
100
AcDbCircle
 10
200.8886797723
 20
99.6675609343
 30
0.0
 40
2.363688306628799
100
AcDbArc
 50
127.1217051585
 51
258.0193128852
  0
LWPOLYLINE
  5
142
330
1F
100
AcDbEntity
  8
0
  6
SLD-Gestrichelt
 62
     7
370
     0
100
AcDbPolyline
 90
       31
 70
   128
 43
0.0
 10
200.4553696752
 20
97.4524725646
 10
200.9366771818
 20
97.4092275322
 10
201.4212908835
 20
97.4657094523
 10
201.8880306423
 20
97.6194498546
 10
202.3164967686
 20
97.8637292467
 10
202.6879640907
 20
98.1878714122
 10
202.9861959309
 20
98.5777100034
 10
203.1981593609
 20
99.0162074052
 10
203.3145895839
 20
99.4841993272
 10
203.3304015786
 20
99.9612313647
 10
203.2448987156
 20
100.4264556289
 10
203.0618230492
 20
100.8595394854
 10
202.7891727776
 20
101.2415549669
 10
202.4388651043
 20
101.5558062539
 10
202.0262091101
 20
101.7885588992
 10
201.5692407877
 20
101.9296408815
 10
201.0879332811
 20
101.972885914
 10
200.6033195794
 20
101.9164039938
 10
200.1365798205
 20
101.7626637079
 10
199.7081136942
 20
101.5183843158
 10
199.3366482348
 20
101.1942419175
 10
199.038414532
 20
100.8044030935
 10
198.8264511019
 20
100.3659059245
 10
198.7100208789
 20
99.8979142353
 10
198.6942107469
 20
99.420881965
 10
198.7797117472
 20
98.9556579337
 10
198.9627874136
 20
98.5225738444
 10
199.2354376853
 20
98.1405583628
 10
199.5857453585
 20
97.8263073087
 10
199.9984013528
 20
97.5935544305
 10
200.4553696752
 20
97.4524725646
  0
CIRCLE
  5
143
330
1F
100
AcDbEntity
  8
0
  6
SLD-Gestrichelt
 62
     7
370
     0
100
AcDbCircle
 10
225.6726993364
 20
116.7657427132
 30
0.0
 40
2.200000000000011
  0
LINE
  5
144
330
1F
100
AcDbEntity
  8
0
  6
SLD-Gestrichelt
 62
     7
370
     0
100
AcDbLine
 10
221.5676850319
 20
118.2686799623
 30
0.0
 11
220.8233459533
 21
104.0658614841
 31
0.0
  0
LINE
  5
145
330
1F
100
AcDbEntity
  8
0
  6
SLD-Gestrichelt
 62
     7
370
     0
100
AcDbLine
 10
230.3447185695
 20
129.5319266103
 30
0.0
 11
221.5885913611
 21
118.3245928444
 31
0.0
  0
LINE
  5
146
330
1F
100
AcDbEntity
  8
0
  6
SLD-Gestrichelt
 62
     7
370
     0
100
AcDbLine
 10
229.777714485
 20
115.2628056191
 30
0.0
 11
230.5220498383
 21
129.4656238936
 31
0.0
  0
LINE
  5
147
330
1F
100
AcDbEntity
  8
0
  6
SLD-Gestrichelt
 62
     7
370
     0
100
AcDbLine
 10
221.0006809473
 20
103.9995596696
 30
0.0
 11
229.7568081558
 21
115.206892737
 31
0.0
  0
ARC
  5
148
330
1F
100
AcDbEntity
  8
0
  6
SLD-Gestrichelt
 62
     7
370
     0
100
AcDbCircle
 10
220.9210113535
 20
104.0567769333
 30
0.0
 40
0.098086999438449
100
AcDbArc
 50
174.6858048938
 51
324.3147750304
  0
ARC
  5
149
330
1F
100
AcDbEntity
  8
0
  6
SLD-Gestrichelt
 62
     7
370
     0
100
AcDbCircle
 10
230.4243872054
 20
129.474712148
 30
0.0
 40
0.0980845871576355
100
AcDbArc
 50
354.6835010023
 51
144.315777764
  0
CIRCLE
  5
14A
330
1F
100
AcDbEntity
  8
0
  6
SLD-Gestrichelt
 62
     7
370
     0
100
AcDbCircle
 10
225.6726993364
 20
116.7657427132
 30
0.0
 40
1.999999999999995
  0
CIRCLE
  5
14B
330
1F
100
AcDbEntity
  8
0
  6
SLD-Gestrichelt
 62
     7
370
     0
100
AcDbCircle
 10
225.6726993364
 20
116.7657427132
 30
0.0
 40
1.899999999999994
  0
LINE
  5
14C
330
1F
100
AcDbEntity
  8
0
  6
SLD-Gestrichelt
 62
     7
370
     0
100
AcDbLine
 10
190.1181854919
 20
119.8659568511
 30
0.0
 11
190.1181854919
 21
115.6045479186
 31
0.0
  0
LINE
  5
14D
330
1F
100
AcDbEntity
  8
0
  6
SLD-Gestrichelt
 62
     7
370
     0
100
AcDbLine
 10
196.1033458501
 20
116.6319503866
 30
0.0
 11
196.1033458501
 21
115.6045479186
 31
0.0
  0
LWPOLYLINE
  5
14E
330
1F
100
AcDbEntity
  8
0
  6
SLD-Gestrichelt
 62
     7
370
     0
100
AcDbPolyline
 90
       20
 70
   128
 43
0.0
 10
201.1197565735
 20
97.1185221754
 10
200.2892291785
 20
97.2472672768
 10
199.5521506906
 20
97.62458703
 10
198.997471729
 20
98.208547239
 10
198.6785142362
 20
98.9417821586
 10
198.6295471579
 20
99.7481822454
 10
198.8575405121
 20
100.5361849859
 10
199.3384028465
 20
101.2129896738
 10
200.0179870665
 20
101.696461574
 10
200.8184532315
 20
101.9303265678
 10
201.6573960573
 20
101.8914712079
 10
202.4556251854
 20
101.5786315732
 10
203.1210533023
 20
101.0135399595
 10
203.5522482038
 20
100.2694339443
 10
203.6918515951
 20
99.4676604353
 10
203.552199775
 20
98.708746624
 10
203.1648571283
 20
98.0440319002
 10
202.5526485086
 20
97.5175980896
 10
201.7595546931
 20
97.1928198308
 10
201.1197565735
 20
97.1185221754
  0
LWPOLYLINE
  5
14F
330
1F
100
AcDbEntity
  8
0
  6
SLD-Gestrichelt
 62
     7
370
     0
100
AcDbPolyline
 90
        8
 70
   128
 43
0.0
 10
210.3282904864
 20
120.2518205576
 10
209.8293586314
 20
120.1928995036
 10
209.5078660786
 20
120.0494311236
 10
209.3548088014
 20
119.8009021066
 10
209.3823312462
 20
119.4555006407
 10
209.6058784664
 20
118.9996052019
 10
210.0346146763
 20
118.4716132887
 10
210.3860175848
 20
118.1414259084
  0
LINE
  5
150
330
1F
100
AcDbEntity
  8
0
  6
SLD-Gestrichelt
 62
     7
370
     0
100
AcDbLine
 10
167.8023368731
 20
89.0557925634
 30
0.0
 11
167.6033784315
 21
89.0301141374
 31
0.0
  0
LWPOLYLINE
  5
151
330
1F
100
AcDbEntity
  8
0
  6
SLD-Gestrichelt
 62
     7
370
     0
100
AcDbPolyline
 90
        3
 70
   128
 43
0.0
 10
168.1598492578
 20
89.0934608363
 10
168.1469075993
 20
89.0924550079
 10
167.8023368731
 20
89.0557925634
  0
LWPOLYLINE
  5
152
330
1F
100
AcDbEntity
  8
0
  6
SLD-Gestrichelt
 62
     7
370
     0
100
AcDbPolyline
 90
        3
 70
   128
 43
0.0
 10
167.8022185952
 20
118.4532876544
 10
168.1476591766
 20
118.4166941278
 10
168.153974475
 20
118.4162033208
  0
LWPOLYLINE
  5
153
330
1F
100
AcDbEntity
  8
0
  6
SLD-Gestrichelt
 62
     7
370
     0
100
AcDbPolyline
 90
        3
 70
   128
 43
0.0
 10
167.3881376773
 20
118.50860449
 10
167.5433742494
 20
118.4861689292
 10
167.8022185952
 20
118.4532876544
  0
LWPOLYLINE
  5
154
330
1F
100
AcDbEntity
  8
0
  6
SLD-Gestrichelt
 62
     7
370
     0
100
AcDbPolyline
 90
       25
 70
   128
 43
0.0
 10
198.0047694087
 20
102.0771825172
 10
197.5140574068
 20
102.1489753805
 10
196.8440397322
 20
102.4620492429
 10
196.2399447948
 20
102.9946740203
 10
195.8698167146
 20
103.5622140955
 10
195.6998019159
 20
104.084195704
 10
195.6852546573
 20
104.6196902355
 10
195.8104113728
 20
105.0520542961
 10
196.1380078137
 20
105.5119954001
 10
196.7839507997
 20
105.9207226101
 10
197.1742066235
 20
106.0424420469
 10
197.6223106176
 20
106.1153601807
 10
198.0419198662
 20
106.1338900074
 10
198.458001265
 20
106.104513998
 10
198.9201794058
 20
105.9908397913
 10
199.4500833243
 20
105.660693622
 10
199.8076161981
 20
105.1160224199
 10
199.9282969773
 20
104.5803448253
 10
199.8984238744
 20
103.9850739074
 10
199.7320375085
 20
103.4212856796
 10
199.4248314441
 20
102.8776470523
 10
198.9267359168
 20
102.381275636
 10
198.4926390142
 20
102.1572092034
 10
198.0986858398
 20
102.0799995352
 10
198.0047694087
 20
102.0771825172
  0
LWPOLYLINE
  5
155
330
1F
100
AcDbEntity
  8
0
  6
SLD-Gestrichelt
 62
     7
370
     0
100
AcDbPolyline
 90
       35
 70
   128
 43
0.0
 10
194.453209886
 20
106.255764975
 10
194.5495719701
 20
107.0835289031
 10
194.7678628058
 20
107.6026897829
 10
194.933092469
 20
107.8299853437
 10
195.1048469782
 20
107.9876386978
 10
195.294676596
 20
108.1008125514
 10
195.6589485199
 20
108.2148413591
 10
196.5518018842
 20
108.2195221864
 10
197.3048469663
 20
108.0177548759
 10
197.8265999496
 20
107.7525551848
 10
198.204159984
 20
107.4596689034
 10
198.4959284455
 20
107.1139133021
 10
198.6566337437
 20
106.7896586794
 10
198.7208037317
 20
106.3652829219
 10
198.5617207974
 20
105.8652020477
 10
198.3607860893
 20
105.6356398806
 10
198.1227195502
 20
105.5013813496
 10
198.017066592
 20
105.5278416209
 10
198.0012061686
 20
105.6319994571
 10
198.0401764304
 20
105.862014829
 10
198.1392691523
 20
106.4838849891
 10
198.1104894221
 20
107.2616210625
 10
197.931774208
 20
107.8728788018
 10
197.5977292896
 20
108.4105113007
 10
197.196407491
 20
108.754780744
 10
196.7466252536
 20
108.9411798351
 10
196.2294096738
 20
108.9724862434
 10
195.6289301306
 20
108.7990367271
 10
195.3177957475
 20
108.6279001504
 10
195.0785259396
 20
108.4698486559
 10
194.8886031896
 20
108.3390905008
 10
194.6749913186
 20
108.1916416481
 10
194.4356991589
 20
108.0143043257
 10
194.2338722438
 20
107.8337418333
 10
194.1667723149
 20
107.7620868057
  0
LWPOLYLINE
  5
156
330
1F
100
AcDbEntity
  8
0
  6
SLD-Gestrichelt
 62
     7
370
     0
100
AcDbPolyline
 90
       17
 70
   128
 43
0.0
 10
194.1667723149
 20
107.7620868057
 10
194.0886380762
 20
107.1414944202
 10
194.0844508499
 20
106.8375198122
 10
194.0983890236
 20
106.5761364482
 10
194.1288600356
 20
106.3317210831
 10
194.1909885645
 20
106.0755587135
 10
194.298891598
 20
105.8286157388
 10
194.4472233445
 20
105.6031225201
 10
194.6379600704
 20
105.3831636857
 10
194.9147547275
 20
105.1285366014
 10
195.2415055275
 20
104.8882639919
 10
195.3527948499
 20
104.8231027274
 10
195.4337174684
 20
104.7846066251
 10
195.517406115
 20
104.7548487734
 10
195.6200229615
 20
104.7324808499
 10
195.8846806228
 20
104.7325398725
 10
196.3854397327
 20
104.9167508211
  0
LWPOLYLINE
  5
157
330
1F
100
AcDbEntity
  8
0
  6
SLD-Gestrichelt
 62
     7
370
     0
100
AcDbPolyline
 90
        8
 70
   128
 43
0.0
 10
196.3854397327
 20
104.9167508211
 10
196.7220532388
 20
104.8722344169
 10
196.9123298914
 20
104.8253231168
 10
196.9627945364
 20
104.7676518977
 10
196.9347933919
 20
104.6838457881
 10
196.7659799993
 20
104.5329459778
 10
196.2297486753
 20
104.3408817098
 10
196.1011591047
 20
104.3307691182
  0
LWPOLYLINE
  5
158
330
1F
100
AcDbEntity
  8
0
  6
SLD-Gestrichelt
 62
     7
370
     0
100
AcDbPolyline
 90
       12
 70
   128
 43
0.0
 10
196.1011591047
 20
104.3307691182
 10
195.9502196551
 20
104.410000746
 10
195.7618596644
 20
104.5122749822
 10
195.5410710216
 20
104.6320212375
 10
195.4567192734
 20
104.6748447882
 10
195.3676885605
 20
104.7177933108
 10
195.2133367449
 20
104.7947494265
 10
194.731427604
 20
105.1916702602
 10
194.4568308682
 20
105.6693229077
 10
194.3927894026
 20
105.9230788563
 10
194.3954865128
 20
106.1042043332
 10
194.453209886
 20
106.255764975
  0
LWPOLYLINE
  5
159
330
1F
100
AcDbEntity
  8
0
  6
SLD-Gestrichelt
 62
     7
370
     0
100
AcDbPolyline
 90
       30
 70
   128
 43
0.0
 10
195.9438997001
 20
105.1021991482
 10
196.3884795696
 20
105.1699122366
 10
196.8122704566
 20
105.3293069311
 10
197.1954594046
 20
105.5729300899
 10
197.5201240421
 20
105.8893901248
 10
197.7710875362
 20
106.263890066
 10
197.9366133601
 20
106.6789181389
 10
198.0089640856
 20
107.115068375
 10
197.9847515613
 20
107.5519471381
 10
197.8651138634
 20
107.9691258676
 10
197.6556407899
 20
108.3470984779
 10
197.3661279917
 20
108.668190562
 10
197.0101150364
 20
108.9173891999
 10
196.604246521
 20
109.0830412179
 10
196.167500937
 20
109.1574012719
 10
195.7203003258
 20
109.136992269
 10
195.2835528791
 20
109.0227688149
 10
194.8776843638
 20
108.8200715788
 10
194.5216714084
 20
108.5383786306
 10
194.2321586103
 20
108.1908616655
 10
194.0226873994
 20
107.793769934
 10
193.9030478388
 20
107.3656712145
 10
193.8788371772
 20
106.9265828885
 10
193.9511860401
 20
106.4970359624
 10
194.1167118639
 20
106.0971160371
 10
194.3676753581
 20
105.7455226731
 10
194.6923418582
 20
105.4586959256
 10
195.0755289436
 20
105.2500475383
 10
195.4993198306
 20
105.1293338135
 10
195.9438997001
 20
105.1021991482
  0
LWPOLYLINE
  5
15A
330
1F
100
AcDbEntity
  8
0
  6
SLD-Gestrichelt
 62
     7
370
     0
100
AcDbPolyline
 90
        9
 70
   128
 43
0.0
 10
171.977522099
 20
91.0817376755
 10
171.4100672543
 20
91.1509032779
 10
170.6989396043
 20
91.2018512793
 10
169.9307875388
 20
91.2117391311
 10
169.197048308
 20
91.1773062728
 10
168.5662202217
 20
91.1136829712
 10
168.1044318393
 20
91.0474417217
 10
167.8735523165
 20
91.008177162
 10
167.8841200337
 20
91.0100565709
  0
ARC
  5
15B
330
1F
100
AcDbEntity
  8
0
  6
SLD-Gestrichelt
 62
     7
370
     0
100
AcDbCircle
 10
170.1518736189
 20
129.0865661792
 30
0.0
 40
12.79017428301061
100
AcDbArc
 50
259.7872147634
 51
278.2063343813
  0
LWPOLYLINE
  5
15C
330
1F
100
AcDbEntity
  8
0
  6
SLD-Gestrichelt
 62
     7
370
     0
100
AcDbPolyline
 90
        3
 70
   128
 43
0.0
 10
171.977522099
 20
116.4273574434
 10
172.3358926975
 20
116.4710038759
 10
172.4481885467
 20
116.481380672
  0
LWPOLYLINE
  5
15D
330
1F
100
AcDbEntity
  8
0
  6
SLD-Gestrichelt
 62
     7
370
     0
100
AcDbPolyline
 90
        4
 70
   128
 43
0.0
 10
172.448295416
 20
91.0277051337
 10
172.4531341024
 20
91.0272580989
 10
172.3144110438
 20
91.0402602933
 10
171.977522099
 20
91.0817376755
  0
LWPOLYLINE
  5
15E
330
1F
100
AcDbEntity
  8
0
  6
SLD-Gestrichelt
 62
     7
370
     0
100
AcDbPolyline
 90
        9
 70
   128
 43
0.0
 10
194.453209886
 20
106.255764975
 10
194.276729846
 20
106.5789585885
 10
194.1338873148
 20
106.881901291
 10
194.0298008412
 20
107.1537306018
 10
193.9682031662
 20
107.3846988332
 10
193.9513052494
 20
107.566524199
 10
193.9797105879
 20
107.6926869758
 10
194.0524003148
 20
107.7586632639
 10
194.1667723149
 20
107.7620868057
  0
LINE
  5
15F
330
1F
100
AcDbEntity
  8
0
  6
SLD-Gestrichelt
 62
     7
370
     0
100
AcDbLine
 10
164.1559947893
 20
93.254547701
 30
0.0
 11
164.1559947893
 21
114.2545474179
 31
0.0
  0
LWPOLYLINE
  5
160
330
1F
100
AcDbEntity
  8
0
  6
SLD-Gestrichelt
 62
     7
370
     0
100
AcDbPolyline
 90
        9
 70
   128
 43
0.0
 10
196.3854397327
 20
104.9167508211
 10
196.4426918567
 20
104.7275930944
 10
196.4732895285
 20
104.5663642765
 10
196.4765696466
 20
104.4365642777
 10
196.4524558425
 20
104.3410106979
 10
196.4014771074
 20
104.2817778255
 10
196.3247361273
 20
104.2601514094
 10
196.2238999695
 20
104.2766008361
 10
196.1011591047
 20
104.3307691182
  0
LINE
  5
161
330
1F
100
AcDbEntity
  8
0
  6
SLD-Gestrichelt
 62
     7
370
     0
100
AcDbLine
 10
182.3227203131
 20
93.254547701
 30
0.0
 11
182.3227203131
 21
114.2545474179
 31
0.0
  0
LINE
  5
162
330
1F
100
AcDbEntity
  8
0
  6
SLD-Gestrichelt
 62
     7
370
     0
100
AcDbLine
 10
184.1033457458
 20
93.879547105
 30
0.0
 11
184.1033457458
 21
113.6295470826
 31
0.0
  0
LWPOLYLINE
  5
163
330
1F
100
AcDbEntity
  8
0
  6
SLD-Gestrichelt
 62
     7
370
     0
100
AcDbPolyline
 90
        6
 70
   128
 43
0.0
 10
159.8533450306
 20
113.7787375085
 10
159.7975643963
 20
113.6761187993
 10
159.63640275
 20
113.5768817224
 10
159.3878886342
 20
113.4981253602
 10
159.0961462498
 20
113.4571769692
 10
158.9533446968
 20
113.4524533011
  0
LINE
  5
164
330
1F
100
AcDbEntity
  8
0
  6
SLD-Gestrichelt
 62
     7
370
     0
100
AcDbLine
 10
158.9533446968
 20
113.4524533011
 30
0.0
 11
157.2033448756
 21
113.4524533011
 31
0.0
  0
LINE
  5
165
330
1F
100
AcDbEntity
  8
0
  6
SLD-Gestrichelt
 62
     7
370
     0
100
AcDbLine
 10
157.2033448756
 20
94.0566418178
 30
0.0
 11
161.4533451066
 21
94.0566418178
 31
0.0
  0
LWPOLYLINE
  5
166
330
1F
100
AcDbEntity
  8
0
  6
SLD-Gestrichelt
 62
     7
370
     0
100
AcDbPolyline
 90
        6
 70
   128
 43
0.0
 10
161.4533451066
 20
94.0566418178
 10
161.7353756592
 20
94.0379520364
 10
161.9853314624
 20
93.98621893
 10
162.1861916647
 20
93.9084199674
 10
162.3177549482
 20
93.8119433306
 10
162.3533454404
 20
93.7303576104
  0
LINE
  5
167
330
1F
100
AcDbEntity
  8
0
  6
SLD-Gestrichelt
 62
     7
370
     0
100
AcDbLine
 10
157.2033448756
 20
94.0566418178
 30
0.0
 11
157.2033448756
 21
113.4524533011
 31
0.0
  0
LINE
  5
168
330
1F
100
AcDbEntity
  8
0
  6
SLD-Gestrichelt
 62
     7
370
     0
100
AcDbLine
 10
159.8533450306
 20
114.7545474999
 30
0.0
 11
159.8533450306
 21
117.3120719798
 31
0.0
  0
LINE
  5
169
330
1F
100
AcDbEntity
  8
0
  6
SLD-Gestrichelt
 62
     7
370
     0
100
AcDbLine
 10
162.3533454404
 20
92.7545476191
 30
0.0
 11
162.3533454404
 21
90.1509711005
 31
0.0
  0
LINE
  5
16A
330
1F
100
AcDbEntity
  8
0
  6
SLD-Gestrichelt
 62
     7
370
     0
100
AcDbLine
 10
157.2033448756
 20
114.7545474999
 30
0.0
 11
157.2033448756
 21
116.6201281779
 31
0.0
  0
LINE
  5
16B
330
1F
100
AcDbEntity
  8
0
  6
SLD-Gestrichelt
 62
     7
370
     0
100
AcDbLine
 10
157.2033448756
 20
92.7545476191
 30
0.0
 11
157.2033448756
 21
91.0240124397
 31
0.0
  0
LINE
  5
16C
330
1F
100
AcDbEntity
  8
0
  6
SLD-Gestrichelt
 62
     7
370
     0
100
AcDbLine
 10
189.4533450395
 20
97.5045474663
 30
0.0
 11
189.4533450395
 21
110.0045476526
 31
0.0
  0
LINE
  5
16D
330
1F
100
AcDbEntity
  8
0
  6
SLD-Gestrichelt
 62
     7
370
     0
100
AcDbLine
 10
191.953344518
 20
97.5045474663
 30
0.0
 11
191.953344518
 21
110.0045476526
 31
0.0
  0
LINE
  5
16E
330
1F
100
AcDbEntity
  8
0
  6
SLD-Gestrichelt
 62
     7
370
     0
100
AcDbLine
 10
184.6033448965
 20
98.2545475893
 30
0.0
 11
184.6033448965
 21
109.2545475297
 31
0.0
  0
LINE
  5
16F
330
1F
100
AcDbEntity
  8
0
  6
SLD-Gestrichelt
 62
     7
370
     0
100
AcDbLine
 10
184.1033457458
 20
83.7795633309
 30
0.0
 11
184.1033457458
 21
86.8545483284
 31
0.0
  0
LINE
  5
170
330
1F
100
AcDbEntity
  8
0
  6
SLD-Gestrichelt
 62
     7
370
     0
100
AcDbLine
 10
188.6033455521
 20
86.8545483284
 30
0.0
 11
184.1033457458
 21
86.8545483284
 31
0.0
  0
LINE
  5
171
330
1F
100
AcDbEntity
  8
0
  6
SLD-Gestrichelt
 62
     7
370
     0
100
AcDbLine
 10
191.1485672608
 20
86.8545483284
 30
0.0
 11
188.6033455521
 21
86.8545483284
 31
0.0
  0
LINE
  5
172
330
1F
100
AcDbEntity
  8
0
  6
SLD-Gestrichelt
 62
     7
370
     0
100
AcDbLine
 10
196.1033458501
 20
86.8545483284
 30
0.0
 11
193.158122027
 21
86.8545483284
 31
0.0
  0
ELLIPSE
  5
173
330
1F
100
AcDbEntity
  8
0
  6
SLD-Gestrichelt
 62
     7
370
     0
100
AcDbEllipse
 10
154.1475785412
 20
103.7545475595
 30
0.0
 11
12.26424774976735
 21
0.0
 31
0.0
210
0.0
220
0.0
230
1.0
 40
0.8164965809
 41
4.884943637108987
 42
4.964202354313276
  0
ELLIPSE
  5
174
330
1F
100
AcDbEntity
  8
0
  6
SLD-Gestrichelt
 62
     7
370
     0
100
AcDbEllipse
 10
154.1475785412
 20
103.7545475595
 30
0.0
 11
12.26424774976738
 21
0.0
 31
0.0
210
0.0
220
0.0
230
1.0
 40
0.8164965809
 41
1.318982952866322
 42
1.398241670070612
  0
LINE
  5
175
330
1F
100
AcDbEntity
  8
0
  6
SLD-Gestrichelt
 62
     7
370
     0
100
AcDbLine
 10
196.1034073174
 20
120.6545467906
 30
0.0
 11
192.9450000316
 21
120.6545467906
 31
0.0
  0
LINE
  5
176
330
1F
100
AcDbEntity
  8
0
  6
SLD-Gestrichelt
 62
     7
370
     0
100
AcDbLine
 10
191.3616892562
 20
120.6545467906
 30
0.0
 11
188.6033455521
 21
120.6545467906
 31
0.0
  0
LINE
  5
177
330
1F
100
AcDbEntity
  8
0
  6
SLD-Gestrichelt
 62
     7
370
     0
100
AcDbLine
 10
188.6033455521
 20
120.6545467906
 30
0.0
 11
184.1033457458
 21
120.6545467906
 31
0.0
  0
LINE
  5
178
330
1F
100
AcDbEntity
  8
0
  6
SLD-Gestrichelt
 62
     7
370
     0
100
AcDbLine
 10
157.2033448756
 20
114.7545474999
 30
0.0
 11
157.2033448756
 21
113.4524533011
 31
0.0
  0
LINE
  5
179
330
1F
100
AcDbEntity
  8
0
  6
SLD-Gestrichelt
 62
     7
370
     0
100
AcDbLine
 10
157.2033448756
 20
92.7545476191
 30
0.0
 11
157.2033448756
 21
94.0566418178
 31
0.0
  0
LINE
  5
17A
330
1F
100
AcDbEntity
  8
0
  6
SLD-Gestrichelt
 62
     7
370
     0
100
AcDbLine
 10
162.3533454404
 20
92.7545476191
 30
0.0
 11
162.3533454404
 21
93.7303576104
 31
0.0
  0
LINE
  5
17B
330
1F
100
AcDbEntity
  8
0
  6
SLD-Gestrichelt
 62
     7
370
     0
100
AcDbLine
 10
159.8533450306
 20
114.7545474999
 30
0.0
 11
159.8533450306
 21
113.7787375085
 31
0.0
  0
ARC
  5
17C
330
1F
100
AcDbEntity
  8
0
  6
SLD-Gestrichelt
 62
     7
370
     0
100
AcDbCircle
 10
169.5856916248
 20
79.4245134249
 30
0.0
 40
10.21355223330722
100
AcDbArc
 50
91.0920632565
 51
97.5839560477
  0
ARC
  5
17D
330
1F
100
AcDbEntity
  8
0
  6
SLD-Gestrichelt
 62
     7
370
     0
100
AcDbCircle
 10
169.5517013116
 20
79.480446728
 30
0.0
 40
10.15211760449532
100
AcDbArc
 50
73.3976150613
 51
99.410627507
  0
LINE
  5
17E
330
1F
100
AcDbEntity
  8
0
  6
SLD-Gestrichelt
 62
     7
370
     0
100
AcDbLine
 10
168.2377162069
 20
117.9603013627
 30
0.0
 11
168.0117754877
 21
117.9932310663
 31
0.0
  0
LWPOLYLINE
  5
17F
330
1F
100
AcDbEntity
  8
0
  6
SLD-Gestrichelt
 62
     7
370
     0
100
AcDbPolyline
 90
       28
 70
   128
 43
0.0
 10
167.858009474
 20
118.0189942427
 10
167.8539563582
 20
118.0198166005
 10
167.8992828965
 20
118.0127320297
 10
167.944081375
 20
118.0047329001
 10
168.0128250882
 20
117.9930522524
 10
168.1116318941
 20
117.9776900865
 10
168.246652247
 20
117.9586464025
 10
168.4785129182
 20
117.9308287285
 10
168.6820702307
 20
117.9103042416
 10
168.7680452742
 20
117.9024634369
 10
168.8363717549
 20
117.8966240443
 10
168.8853099622
 20
117.8927851327
 10
169.3033196643
 20
117.8730355062
 10
169.744106257
 20
117.8722159423
 10
170.1879974135
 20
117.8903273724
 10
170.6177082524
 20
117.9273688652
 10
170.7999420032
 20
117.949602329
 10
171.0007598304
 20
117.9779983543
 10
171.2162087351
 20
118.0125569411
 10
171.4408195257
 20
118.0532780893
 10
171.7369535618
 20
118.1139388539
 10
171.9278169476
 20
118.1582409374
 10
171.9937550515
 20
118.1749181308
 10
172.0401395724
 20
118.1871072806
 10
172.0692070812
 20
118.1948065244
 10
172.2883104958
 20
118.2526807718
 10
172.4143650063
 20
118.2876854621
 10
172.4525008031
 20
118.2995598249
  0
ARC
  5
180
330
1F
100
AcDbEntity
  8
0
  6
SLD-Gestrichelt
 62
     7
370
     0
100
AcDbCircle
 10
169.6880860866
 20
129.1418314229
 30
0.0
 40
11.27520231635064
100
AcDbArc
 50
262.6093594996
 51
268.0698675987
  0
LINE
  5
181
330
1F
100
AcDbEntity
  8
0
  6
SLD-Gestrichelt
 62
     7
370
     0
100
AcDbLine
 10
201.2533454836
 20
101.2545476154
 30
0.0
 11
201.2533454836
 21
106.2545475036
 31
0.0
  0
ARC
  5
182
330
1F
100
AcDbEntity
  8
0
  6
SLD-Gestrichelt
 62
     7
370
     0
100
AcDbCircle
 10
198.8137864863
 20
103.4341926657
 30
0.0
 40
2.085547194959307
100
AcDbArc
 50
260.8775100045
 51
332.9984584575
  0
LWPOLYLINE
  5
183
330
1F
100
AcDbEntity
  8
0
  6
SLD-Gestrichelt
 62
     7
370
     0
100
AcDbPolyline
 90
       19
 70
   128
 43
0.0
 10
200.6621996552
 20
103.8367195763
 10
200.3498918057
 20
104.3875288636
 10
199.7039488197
 20
105.006473623
 10
199.3061492831
 20
105.2361547666
 10
198.8655890018
 20
105.3878036512
 10
198.4459797532
 20
105.4314749966
 10
198.0298983544
 20
105.3631637663
 10
197.5677202136
 20
105.1324407056
 10
197.0378162951
 20
104.5965220149
 10
196.6802834213
 20
103.8852413806
 10
196.5596026421
 20
103.2898722517
 10
196.5894776076
 20
102.7095148059
 10
196.7558621109
 20
102.2270904107
 10
197.0630681753
 20
101.8245477647
 10
197.5611637026
 20
101.520734974
 10
197.9952606052
 20
101.4096363399
 10
198.3892137796
 20
101.3761911493
 10
198.4831320733
 20
101.3750242021
 10
198.4831320733
 20
101.3750242021
  0
LINE
  5
184
330
1F
100
AcDbEntity
  8
0
  6
SLD-Gestrichelt
 62
     7
370
     0
100
AcDbLine
 10
220.9677754581
 20
117.9890941314
 30
0.0
 11
221.0073156894
 21
118.0397003375
 31
0.0
  0
LINE
  5
185
330
1F
100
AcDbEntity
  8
0
  6
SLD-Gestrichelt
 62
     7
370
     0
100
AcDbLine
 10
221.0073156894
 20
118.0397003375
 30
0.0
 11
220.2193571866
 21
103.004559893
 31
0.0
  0
LINE
  5
186
330
1F
100
AcDbEntity
  8
0
  6
SLD-Gestrichelt
 62
     7
370
     0
100
AcDbLine
 10
224.4391797722
 20
107.4513289098
 30
0.0
 11
224.4425437093
 21
107.5154614121
 31
0.0
  0
LINE
  5
187
330
1F
100
AcDbEntity
  8
0
  6
SLD-Gestrichelt
 62
     7
370
     0
100
AcDbLine
 10
224.4425437093
 20
107.5154614121
 30
0.0
 11
229.4947451592
 21
113.9819884159
 31
0.0
  0
LINE
  5
188
330
1F
100
AcDbEntity
  8
0
  6
SLD-Gestrichelt
 62
     7
370
     0
100
AcDbLine
 10
229.4947451592
 20
113.9819884159
 30
0.0
 11
229.4913849473
 21
113.9178566121
 31
0.0
  0
LWPOLYLINE
  5
189
330
1F
100
AcDbEntity
  8
0
  6
SLD-Gestrichelt
 62
     7
370
     0
100
AcDbPolyline
 90
       12
 70
   128
 43
0.0
 10
220.181929195
 20
113.3114855222
 10
219.3644887448
 20
113.9501390465
 10
218.6143270374
 20
114.5362287246
 10
217.9341374576
 20
115.0676506989
 10
217.326363796
 20
115.5424966894
 10
216.7931853473
 20
115.9590614446
 10
216.3365169108
 20
116.3158483289
 10
215.9580013395
 20
116.611576774
 10
215.6589983642
 20
116.8451841407
 10
215.4405808688
 20
117.0158322387
 10
215.3035274387
 20
117.1229082577
 10
215.2483372629
 20
117.1660275616
  0
LWPOLYLINE
  5
18A
330
1F
100
AcDbEntity
  8
0
  6
SLD-Gestrichelt
 62
     7
370
     0
100
AcDbPolyline
 90
       10
 70
   128
 43
0.0
 10
226.8905996025
 20
113.1461701773
 10
226.5671177447
 20
112.7979384221
 10
225.7801054657
 20
112.2829962008
 10
225.1805684209
 20
112.0704479002
 10
224.5365141571
 20
111.9549480684
 10
223.66386863
 20
111.9425624095
 10
222.7762735129
 20
112.0747953139
 10
221.9143158436
 20
112.3357723884
 10
221.0804580391
 20
112.7206321292
 10
220.181929195
 20
113.3114855222
  0
LINE
  5
18B
330
1F
100
AcDbEntity
  8
0
  6
SLD-Gestrichelt
 62
     7
370
     0
100
AcDbLine
 10
224.2061852157
 20
107.6038315844
 30
0.0
 11
224.1808644176
 21
107.1207000826
 31
0.0
  0
LINE
  5
18C
330
1F
100
AcDbEntity
  8
0
  6
SLD-Gestrichelt
 62
     7
370
     0
100
AcDbLine
 10
224.2061852157
 20
107.6038315844
 30
0.0
 11
224.4425437093
 21
107.5154614121
 31
0.0
  0
LINE
  5
18D
330
1F
100
AcDbEntity
  8
0
  6
SLD-Gestrichelt
 62
     7
370
     0
100
AcDbLine
 10
224.2061852157
 20
107.6038315844
 30
0.0
 11
229.5167057455
 21
114.4009876482
 31
0.0
  0
LINE
  5
18E
330
1F
100
AcDbEntity
  8
0
  6
SLD-Gestrichelt
 62
     7
370
     0
100
AcDbLine
 10
229.4947451592
 20
113.9819884159
 30
0.0
 11
229.5167057455
 21
114.4009876482
 31
0.0
  0
LINE
  5
18F
330
1F
100
AcDbEntity
  8
0
  6
SLD-Gestrichelt
 62
     7
370
     0
100
AcDbLine
 10
211.5552707255
 20
85.7570480041
 30
0.0
 11
211.5552707255
 21
103.7545475595
 31
0.0
  0
LINE
  5
190
330
1F
100
AcDbEntity
  8
0
  6
SLD-Gestrichelt
 62
     7
370
     0
100
AcDbLine
 10
221.2564556539
 20
118.1952461086
 30
0.0
 11
220.448373133
 21
102.7761068147
 31
0.0
  0
ELLIPSE
  5
191
330
1F
100
AcDbEntity
  8
0
  6
SLD-Gestrichelt
 62
     7
370
     0
100
AcDbEllipse
 10
218.6868170308
 20
74.4657914837
 30
0.0
 11
2.600899602343304
 21
43.72988233931923
 31
0.0
210
0.0
220
0.0
230
0.9999999999999999
 40
0.0697175754
 41
0.0102098079963118
 42
0.0887331022046356
  0
ARC
  5
192
330
1F
100
AcDbEntity
  8
0
  6
SLD-Gestrichelt
 62
     7
370
     0
100
AcDbCircle
 10
207.9971561429
 20
115.2171220762
 30
0.0
 40
3.77600475260571
100
AcDbArc
 50
27.3209890687
 51
50.7546414468
  0
LWPOLYLINE
  5
193
330
1F
100
AcDbEntity
  8
0
  6
SLD-Gestrichelt
 62
     7
370
     0
100
AcDbPolyline
 90
        3
 70
   128
 43
0.0
 10
212.3901604355
 20
114.7944462903
 10
211.8084228278
 20
115.8745998003
 10
211.351944381
 20
116.950214044
  0
LWPOLYLINE
  5
194
330
1F
100
AcDbEntity
  8
0
  6
SLD-Gestrichelt
 62
     7
370
     0
100
AcDbPolyline
 90
       30
 70
   128
 43
0.0
 10
200.0697201729
 20
99.0461717777
 10
200.5143000424
 20
99.1138849825
 10
200.9380927921
 20
99.2732794441
 10
201.3212798775
 20
99.5169027194
 10
201.6459445149
 20
99.8333628707
 10
201.8969080091
 20
100.2078625791
 10
202.0624356956
 20
100.622890652
 10
202.1347845584
 20
101.0590411209
 10
202.1105738968
 20
101.4959196512
 10
201.9909343362
 20
101.9130984971
 10
201.7814612627
 20
102.291070991
 10
201.4919503272
 20
102.6121633079
 10
201.1359355092
 20
102.8613615966
 10
200.7300669939
 20
103.0270136728
 10
200.2933214099
 20
103.101373785
 10
199.8461207986
 20
103.0809649567
 10
199.4093752146
 20
102.9667415026
 10
199.0035066992
 20
102.7640443247
 10
198.6474918813
 20
102.4823513765
 10
198.3579809457
 20
102.134834295
 10
198.1485078723
 20
101.7377426799
 10
198.0288683117
 20
101.3096437275
 10
198.00465765
 20
100.8705554016
 10
198.0770065129
 20
100.4410084754
 10
198.2425323367
 20
100.0410885502
 10
198.4934958309
 20
99.6894949533
 10
198.818162331
 20
99.4026685551
 10
199.2013494164
 20
99.1940201677
 10
199.625142166
 20
99.0733063266
 10
200.0697201729
 20
99.0461717777
  0
LINE
  5
195
330
1F
100
AcDbEntity
  8
0
  6
SLD-Gestrichelt
 62
     7
370
     0
100
AcDbLine
 10
193.1933446467
 20
117.2703943633
 30
0.0
 11
193.1933446467
 21
115.6045479186
 31
0.0
  0
LINE
  5
196
330
1F
100
AcDbEntity
  8
0
  6
SLD-Gestrichelt
 62
     7
370
     0
100
AcDbLine
 10
191.1133455724
 20
117.2703943633
 30
0.0
 11
191.1133455724
 21
115.6045479186
 31
0.0
  0
LINE
  5
197
330
1F
100
AcDbEntity
  8
0
  6
SLD-Gestrichelt
 62
     7
370
     0
100
AcDbLine
 10
194.1885056585
 20
119.8659568511
 30
0.0
 11
194.1885056585
 21
115.6045479186
 31
0.0
  0
CIRCLE
  5
198
330
1F
100
AcDbEntity
  8
0
  6
SLD-Gestrichelt
 62
     7
370
     0
100
AcDbCircle
 10
225.6726993364
 20
116.7657427132
 30
0.0
 40
2.399999999999991
  0
LINE
  5
199
330
1F
100
AcDbEntity
  8
0
  6
SLD-Gestrichelt
 62
     7
370
     0
100
AcDbLine
 10
221.2240642548
 20
117.5772167228
 30
0.0
 11
230.2913910389
 21
129.1828650467
 31
0.0
  0
LINE
  5
19A
330
1F
100
AcDbEntity
  8
0
  6
SLD-Gestrichelt
 62
     7
370
     0
100
AcDbLine
 10
230.2913910389
 20
129.1828650467
 30
0.0
 11
229.5167057455
 21
114.4009876482
 31
0.0
  0
CIRCLE
  5
19B
330
1F
100
AcDbEntity
  8
0
  6
SLD-Gestrichelt
 62
     7
370
     0
100
AcDbCircle
 10
225.6726993364
 20
116.7657427132
 30
0.0
 40
1.649999999999991
  0
LWPOLYLINE
  5
19C
330
1F
100
AcDbEntity
  8
0
  6
SLD-Gestrichelt
 62
     7
370
     0
100
AcDbPolyline
 90
        3
 70
   128
 43
0.0
 10
156.2533455581
 20
92.2070342533
 10
156.2783292175
 20
92.4590147518
 10
156.3368758798
 20
92.5384202458
  0
LWPOLYLINE
  5
19D
330
1F
100
AcDbEntity
  8
0
  6
SLD-Gestrichelt
 62
     7
370
     0
100
AcDbPolyline
 90
       32
 70
   128
 43
0.0
 10
200.1114564628
 20
98.5985408954
 10
200.6070579082
 20
98.6705898725
 10
201.0823676974
 20
98.8385520361
 10
201.5179305017
 20
99.0955509663
 10
201.8959096313
 20
99.4310645804
 10
202.2008339554
 20
99.8313577332
 10
202.4202200264
 20
100.2800421741
 10
202.5450843066
 20
100.7587482639
 10
202.5703156978
 20
101.2478781816
 10
202.4948804319
 20
101.7274066292
 10
202.3218686372
 20
102.1777016761
 10
202.0583620906
 20
102.5803282576
 10
201.7151473701
 20
102.9188028372
 10
201.3062781334
 20
103.1792681499
 10
200.8484939725
 20
103.351060727
 10
200.3605349601
 20
103.4271473948
 10
199.8623779655
 20
103.4044131414
 10
199.3744189531
 20
103.2837886781
 10
198.9166329295
 20
103.0702124301
 10
198.5077636928
 20
102.7724282069
 10
198.1645508349
 20
102.4026272537
 10
197.9010442883
 20
101.9759494996
 10
197.7280324936
 20
101.5098629471
 10
197.6525972277
 20
101.0234492317
 10
197.6778286189
 20
100.5366224747
 10
197.8026928991
 20
100.0693129793
 10
198.0220771075
 20
99.6406526722
 10
198.3270014316
 20
99.2681911632
 10
198.7049824238
 20
98.9671769969
 10
199.1405452282
 20
98.7499334335
 10
199.6158550173
 20
98.6253546037
 10
200.1114564628
 20
98.5985408954
  0
ARC
  5
19E
330
1F
100
AcDbEntity
  8
0
  6
SLD-Gestrichelt
 62
     7
370
     0
100
AcDbCircle
 10
223.4388001741
 20
118.5110574494
 30
0.0
 40
3.282952227654905
100
AcDbArc
 50
291.8281133423
 51
352.1718533947
  0
CIRCLE
  5
19F
330
1F
100
AcDbEntity
  8
0
  6
SLD-Gestrichelt
 62
     7
370
     0
100
AcDbCircle
 10
183.1533452809
 20
103.7545475595
 30
0.0
 40
5.0
  0
ELLIPSE
  5
1A0
330
1F
100
AcDbEntity
  8
0
  6
SLD-Gestrichelt
 62
     7
370
     0
100
AcDbEllipse
 10
215.1533452809
 20
126.8839189668
 30
0.0
 11
0.0
 21
12.42331416492098
 31
3.552713678800501E-15
210
0.0
220
-2.859714913136545E-16
230
1.0
 40
0.9659258263
 41
2.90924221302934
 42
3.397657403661243
  0
LINE
  5
1A1
330
1F
100
AcDbEntity
  8
0
  6
SLD-Gestrichelt
 62
     7
370
     0
100
AcDbLine
 10
229.6350358665
 20
116.6588926174
 30
0.0
 11
226.8905996025
 21
113.1461701773
 31
0.0
  0
ARC
  5
1A2
330
1F
100
AcDbEntity
  8
0
  6
SLD-Gestrichelt
 62
     7
370
     0
100
AcDbCircle
 10
290.4965793627
 20
103.336148444
 30
0.0
 40
78.94241741399357
100
AcDbArc
 50
171.6541768903
 51
179.6963278236
  0
LINE
  5
1A3
330
1F
100
AcDbEntity
  8
0
  6
SLD-Gestrichelt
 62
     7
370
     0
100
AcDbLine
 10
198.0432442069
 20
99.6088931754
 30
0.0
 11
198.3471291751
 21
99.1628408849
 31
0.0
  0
LINE
  5
1A4
330
1F
100
AcDbEntity
  8
0
  6
SLD-Gestrichelt
 62
     7
370
     0
100
AcDbLine
 10
202.4793087185
 20
101.9779929377
 30
0.0
 11
202.175425613
 21
102.4240451118
 31
0.0
  0
LINE
  5
1A5
330
1F
100
AcDbEntity
  8
0
  6
SLD-Gestrichelt
 62
     7
370
     0
100
AcDbLine
 10
198.639609167
 20
99.6215787202
 30
0.0
 11
199.3594339729
 21
98.5649960533
 31
0.0
  0
LINE
  5
1A6
330
1F
100
AcDbEntity
  8
0
  6
SLD-Gestrichelt
 62
     7
370
     0
100
AcDbLine
 10
202.6651783526
 20
100.8171175093
 30
0.0
 11
201.9453535468
 21
101.8737005254
 31
0.0
  0
LINE
  5
1A7
330
1F
100
AcDbEntity
  8
0
  6
SLD-Gestrichelt
 62
     7
370
     0
100
AcDbLine
 10
198.8263970852
 20
98.459352874
 30
0.0
 11
198.9219042152
 21
98.3191646122
 31
0.0
  0
LINE
  5
1A8
330
1F
100
AcDbEntity
  8
0
  6
SLD-Gestrichelt
 62
     7
370
     0
100
AcDbLine
 10
203.0540856213
 20
101.1343168978
 30
0.0
 11
202.9585784912
 21
101.274504694
 31
0.0
  0
CIRCLE
  5
1A9
330
1F
100
AcDbEntity
  8
0
  6
SLD-Gestrichelt
 62
     7
370
     0
100
AcDbCircle
 10
200.5955497679
 20
100.3027855078
 30
0.0
 40
1.999999999999982
  0
CIRCLE
  5
1AA
330
1F
100
AcDbEntity
  8
0
  6
SLD-Gestrichelt
 62
     7
370
     0
100
AcDbCircle
 10
225.6726993364
 20
116.7657427132
 30
0.0
 40
1.809570484150196
  0
LINE
  5
1AB
330
1F
100
AcDbEntity
  8
0
  6
SLD-Gestrichelt
 62
     7
370
     0
100
AcDbLine
 10
176.1533452809
 20
87.5473461531
 30
0.0
 11
176.2475060532
 21
88.217335888
 31
0.0
  0
LINE
  5
1AC
330
1F
100
AcDbEntity
  8
0
  6
SLD-Gestrichelt
 62
     7
370
     0
100
AcDbLine
 10
176.2475060532
 20
119.2917592309
 30
0.0
 11
176.1533452809
 21
119.9617489658
 31
0.0
  0
ARC
  5
1AD
330
1F
100
AcDbEntity
  8
0
  6
SLD-Gestrichelt
 62
     7
370
     0
100
AcDbCircle
 10
175.6533385282
 20
88.300840406
 30
0.0
 40
0.6000067526677242
100
AcDbArc
 50
352.0
 51
0.0
  0
ARC
  5
1AE
330
1F
100
AcDbEntity
  8
0
  6
SLD-Gestrichelt
 62
     7
370
     0
100
AcDbCircle
 10
175.6533385282
 20
88.300840406
 30
0.0
 40
0.6000067526677242
100
AcDbArc
 50
0.0
 51
33.5571153394
  0
ARC
  5
1AF
330
1F
100
AcDbEntity
  8
0
  6
SLD-Gestrichelt
 62
     7
370
     0
100
AcDbCircle
 10
175.6533385282
 20
119.2082547129
 30
0.0
 40
0.6000067526677062
100
AcDbArc
 50
348.75
 51
8.0
  0
LWPOLYLINE
  5
1B0
330
1F
100
AcDbEntity
  8
0
  6
SLD-Gestrichelt
 62
     7
370
     0
100
AcDbPolyline
 90
        3
 70
   128
 43
0.0
 10
176.2418163198
 20
119.0911989145
 10
176.2076724881
 20
118.9786420621
 10
176.1533452809
 20
118.8765905283
  0
LINE
  5
1B1
330
1F
100
AcDbEntity
  8
0
  6
SLD-Gestrichelt
 62
     7
370
     0
100
AcDbLine
 10
176.2533452784
 20
88.3008401327
 30
0.0
 11
176.2533452784
 21
119.2082549863
 31
0.0
  0
LINE
  5
1B2
330
1F
100
AcDbEntity
  8
0
  6
SLD-Gestrichelt
 62
     7
370
     0
100
AcDbLine
 10
194.6439708263
 20
105.3089085219
 30
0.0
 11
196.0651243717
 21
103.2228907173
 31
0.0
  0
LINE
  5
1B3
330
1F
100
AcDbEntity
  8
0
  6
SLD-Gestrichelt
 62
     7
370
     0
100
AcDbLine
 10
194.2083838076
 20
105.9482795138
 30
0.0
 11
194.3853257835
 21
105.688558095
 31
0.0
  0
LINE
  5
1B4
330
1F
100
AcDbEntity
  8
0
  6
SLD-Gestrichelt
 62
     7
370
     0
100
AcDbLine
 10
197.737206021
 20
108.2281816237
 30
0.0
 11
197.6794155926
 21
108.3130074151
 31
0.0
  0
LINE
  5
1B5
330
1F
100
AcDbEntity
  8
0
  6
SLD-Gestrichelt
 62
     7
370
     0
100
AcDbLine
 10
199.6439045906
 20
105.42946171
 30
0.0
 11
198.4764433146
 21
107.1431014173
 31
0.0
  0
ARC
  5
1B6
330
1F
100
AcDbEntity
  8
0
  6
SLD-Gestrichelt
 62
     7
370
     0
100
AcDbCircle
 10
165.6859732251
 20
91.4045475595
 30
0.0
 40
0.3999999999999927
100
AcDbArc
 50
210.0
 51
270.0
  0
ARC
  5
1B7
330
1F
100
AcDbEntity
  8
0
  6
SLD-Gestrichelt
 62
     7
370
     0
100
AcDbCircle
 10
165.6859732251
 20
116.1045475595
 30
0.0
 40
0.4000000000000199
100
AcDbArc
 50
90.0
 51
150.0
  0
LINE
  5
1B8
330
1F
100
AcDbEntity
  8
0
  6
SLD-Gestrichelt
 62
     7
370
     0
100
AcDbLine
 10
165.6859733776
 20
91.0045477979
 30
0.0
 11
167.8841200337
 21
91.0045477979
 31
0.0
  0
LINE
  5
1B9
330
1F
100
AcDbEntity
  8
0
  6
SLD-Gestrichelt
 62
     7
370
     0
100
AcDbLine
 10
167.8841200337
 20
116.5045473211
 30
0.0
 11
165.6859733776
 21
116.5045473211
 31
0.0
  0
ARC
  5
1BA
330
1F
100
AcDbEntity
  8
0
  6
SLD-Gestrichelt
 62
     7
370
     0
100
AcDbCircle
 10
171.9775220088
 20
96.0045475595
 30
0.0
 40
5.00000000000001
100
AcDbArc
 50
275.4061844773
 51
326.6329870308
  0
ARC
  5
1BB
330
1F
100
AcDbEntity
  8
0
  6
SLD-Gestrichelt
 62
     7
370
     0
100
AcDbCircle
 10
171.9775220088
 20
111.5045475595
 30
0.0
 40
5.000000000000014
100
AcDbArc
 50
33.3670129692
 51
84.5889868109
  0
LINE
  5
1BC
330
1F
100
AcDbEntity
  8
0
  6
SLD-Gestrichelt
 62
     7
370
     0
100
AcDbLine
 10
194.8247107357
 20
108.2951940082
 30
0.0
 11
194.0239726246
 21
107.7439614058
 31
0.0
  0
LINE
  5
1BD
330
1F
100
AcDbEntity
  8
0
  6
SLD-Gestrichelt
 62
     7
370
     0
100
AcDbLine
 10
202.8459871799
 20
113.8170875095
 30
0.0
 11
194.8247107357
 21
108.2951940082
 31
0.0
  0
LINE
  5
1BE
330
1F
100
AcDbEntity
  8
0
  6
SLD-Gestrichelt
 62
     7
370
     0
100
AcDbLine
 10
198.3010436088
 20
105.5893377818
 30
0.0
 11
202.6329005748
 21
108.571413108
 31
0.0
  0
LINE
  5
1BF
330
1F
100
AcDbEntity
  8
0
  6
SLD-Gestrichelt
 62
     7
370
     0
100
AcDbLine
 10
165.3395632893
 20
116.3045476608
 30
0.0
 11
164.1559947893
 21
114.2545474179
 31
0.0
  0
LINE
  5
1C0
330
1F
100
AcDbEntity
  8
0
  6
SLD-Gestrichelt
 62
     7
370
     0
100
AcDbLine
 10
164.1559947893
 20
93.254547701
 30
0.0
 11
165.3395632893
 21
91.2045474581
 31
0.0
  0
LINE
  5
1C1
330
1F
100
AcDbEntity
  8
0
  6
SLD-Gestrichelt
 62
     7
370
     0
100
AcDbLine
 10
193.9562803746
 20
107.4614002321
 30
0.0
 11
194.2070240766
 21
105.320482184
 31
0.0
  0
LINE
  5
1C2
330
1F
100
AcDbEntity
  8
0
  6
SLD-Gestrichelt
 62
     7
370
     0
100
AcDbLine
 10
194.2070240766
 20
105.320482184
 30
0.0
 11
195.2398291469
 21
104.7807156758
 31
0.0
  0
LINE
  5
1C3
330
1F
100
AcDbEntity
  8
0
  6
SLD-Gestrichelt
 62
     7
370
     0
100
AcDbLine
 10
196.4055209101
 20
104.2844492079
 30
0.0
 11
196.7830641806
 21
104.5443521182
 31
0.0
  0
ARC
  5
1C4
330
1F
100
AcDbEntity
  8
0
  6
SLD-Gestrichelt
 62
     7
370
     0
100
AcDbCircle
 10
183.1033452809
 20
93.8795475595
 30
0.0
 40
1.00000000000001
100
AcDbArc
 50
218.6821874535
 51
0.0
  0
ARC
  5
1C5
330
1F
100
AcDbEntity
  8
0
  6
SLD-Gestrichelt
 62
     7
370
     0
100
AcDbCircle
 10
183.1033452809
 20
113.6295475595
 30
0.0
 40
1.00000000000001
100
AcDbArc
 50
0.0
 51
141.3178125465
  0
LINE
  5
1C6
330
1F
100
AcDbEntity
  8
0
  6
SLD-Gestrichelt
 62
     7
370
     0
100
AcDbLine
 10
162.3533454404
 20
93.254547701
 30
0.0
 11
164.1559947893
 21
93.254547701
 31
0.0
  0
LINE
  5
1C7
330
1F
100
AcDbEntity
  8
0
  6
SLD-Gestrichelt
 62
     7
370
     0
100
AcDbLine
 10
164.1559947893
 20
114.2545474179
 30
0.0
 11
159.8533450306
 21
114.2545474179
 31
0.0
  0
LINE
  5
1C8
330
1F
100
AcDbEntity
  8
0
  6
SLD-Gestrichelt
 62
     7
370
     0
100
AcDbLine
 10
176.1533452809
 20
93.254547701
 30
0.0
 11
182.3227203131
 21
93.254547701
 31
0.0
  0
LINE
  5
1C9
330
1F
100
AcDbEntity
  8
0
  6
SLD-Gestrichelt
 62
     7
370
     0
100
AcDbLine
 10
182.3227203131
 20
114.2545474179
 30
0.0
 11
176.1533452809
 21
114.2545474179
 31
0.0
  0
LINE
  5
1CA
330
1F
100
AcDbEntity
  8
0
  6
SLD-Gestrichelt
 62
     7
370
     0
100
AcDbLine
 10
189.4533450395
 20
97.5045474663
 30
0.0
 11
191.953344518
 21
97.5045474663
 31
0.0
  0
LINE
  5
1CB
330
1F
100
AcDbEntity
  8
0
  6
SLD-Gestrichelt
 62
     7
370
     0
100
AcDbLine
 10
191.953344518
 20
110.0045476526
 30
0.0
 11
189.4533450395
 21
110.0045476526
 31
0.0
  0
LINE
  5
1CC
330
1F
100
AcDbEntity
  8
0
  6
SLD-Gestrichelt
 62
     7
370
     0
100
AcDbLine
 10
184.1033457458
 20
97.7545475073
 30
0.0
 11
184.6033448965
 21
98.2545475893
 31
0.0
  0
LINE
  5
1CD
330
1F
100
AcDbEntity
  8
0
  6
SLD-Gestrichelt
 62
     7
370
     0
100
AcDbLine
 10
184.6033448965
 20
109.2545475297
 30
0.0
 11
184.1033457458
 21
109.7545476116
 31
0.0
  0
LINE
  5
1CE
330
1F
100
AcDbEntity
  8
0
  6
SLD-Gestrichelt
 62
     7
370
     0
100
AcDbLine
 10
184.6033448965
 20
98.2545475893
 30
0.0
 11
189.4533450395
 21
98.2545475893
 31
0.0
  0
LINE
  5
1CF
330
1F
100
AcDbEntity
  8
0
  6
SLD-Gestrichelt
 62
     7
370
     0
100
AcDbLine
 10
189.4533450395
 20
109.2545475297
 30
0.0
 11
184.6033448965
 21
109.2545475297
 31
0.0
  0
LINE
  5
1D0
330
1F
100
AcDbEntity
  8
0
  6
SLD-Gestrichelt
 62
     7
370
     0
100
AcDbLine
 10
184.1033457458
 20
123.7545471124
 30
0.0
 11
184.1033457458
 21
120.6545467906
 31
0.0
  0
LINE
  5
1D1
330
1F
100
AcDbEntity
  8
0
  6
SLD-Gestrichelt
 62
     7
370
     0
100
AcDbLine
 10
172.9205246229
 20
88.7132428072
 30
0.0
 11
172.4525960308
 21
89.2090798773
 31
0.0
  0
LINE
  5
1D2
330
1F
100
AcDbEntity
  8
0
  6
SLD-Gestrichelt
 62
     7
370
     0
100
AcDbLine
 10
167.8546911717
 20
89.4889329977
 30
0.0
 11
167.3372176156
 21
88.9931080349
 31
0.0
  0
LINE
  5
1D3
330
1F
100
AcDbEntity
  8
0
  6
SLD-Gestrichelt
 62
     7
370
     0
100
AcDbLine
 10
167.3365833849
 20
118.5160373755
 30
0.0
 11
167.8542692826
 21
118.020150014
 31
0.0
  0
LINE
  5
1D4
330
1F
100
AcDbEntity
  8
0
  6
SLD-Gestrichelt
 62
     7
370
     0
100
AcDbLine
 10
172.4519101117
 20
118.2997973122
 30
0.0
 11
172.9198140238
 21
118.7956911929
 31
0.0
  0
LINE
  5
1D5
330
1F
100
AcDbEntity
  8
0
  6
SLD-Gestrichelt
 62
     7
370
     0
100
AcDbLine
 10
201.2533454836
 20
101.2545476154
 30
0.0
 11
202.7554961533
 21
103.7545475595
 31
0.0
  0
LINE
  5
1D6
330
1F
100
AcDbEntity
  8
0
  6
SLD-Gestrichelt
 62
     7
370
     0
100
AcDbLine
 10
202.7554961533
 20
103.7545475595
 30
0.0
 11
201.2533454836
 21
106.2545475036
 31
0.0
  0
LINE
  5
1D7
330
1F
100
AcDbEntity
  8
0
  6
SLD-Gestrichelt
 62
     7
370
     0
100
AcDbLine
 10
191.953344518
 20
101.2545476154
 30
0.0
 11
201.2533454836
 21
101.2545476154
 31
0.0
  0
LINE
  5
1D8
330
1F
100
AcDbEntity
  8
0
  6
SLD-Gestrichelt
 62
     7
370
     0
100
AcDbLine
 10
201.2533454836
 20
106.2545475036
 30
0.0
 11
191.953344518
 21
106.2545475036
 31
0.0
  0
LINE
  5
1D9
330
1F
100
AcDbEntity
  8
0
  6
SLD-Gestrichelt
 62
     7
370
     0
100
AcDbLine
 10
172.4533452798
 20
116.4814020924
 30
0.0
 11
172.4533452798
 21
118.2995868333
 31
0.0
  0
LINE
  5
1DA
330
1F
100
AcDbEntity
  8
0
  6
SLD-Gestrichelt
 62
     7
370
     0
100
AcDbLine
 10
167.8533454106
 20
118.0190445341
 30
0.0
 11
167.8533454106
 21
116.4990450673
 31
0.0
  0
LINE
  5
1DB
330
1F
100
AcDbEntity
  8
0
  6
SLD-Gestrichelt
 62
     7
370
     0
100
AcDbLine
 10
172.4533452798
 20
89.2093238838
 30
0.0
 11
172.4533452798
 21
91.0276930265
 31
0.0
  0
LINE
  5
1DC
330
1F
100
AcDbEntity
  8
0
  6
SLD-Gestrichelt
 62
     7
370
     0
100
AcDbLine
 10
167.8533454106
 20
91.0100500517
 30
0.0
 11
167.8533454106
 21
89.4959393375
 31
0.0
  0
LINE
  5
1DD
330
1F
100
AcDbEntity
  8
0
  6
SLD-Gestrichelt
 62
     7
370
     0
100
AcDbLine
 10
196.8453081936
 20
102.0777089473
 30
0.0
 11
198.3342042804
 21
99.8922520269
 31
0.0
  0
LINE
  5
1DE
330
1F
100
AcDbEntity
  8
0
  6
SLD-Gestrichelt
 62
     7
370
     0
100
AcDbLine
 10
201.8052360654
 20
102.2569798118
 30
0.0
 11
200.4236879438
 21
104.2848678374
 31
0.0
  0
LINE
  5
1DF
330
1F
100
AcDbEntity
  8
0
  6
SLD-Gestrichelt
 62
     7
370
     0
100
AcDbLine
 10
198.0453657598
 20
99.6057792984
 30
0.0
 11
199.0132073552
 21
98.1851472937
 31
0.0
  0
LINE
  5
1E0
330
1F
100
AcDbEntity
  8
0
  6
SLD-Gestrichelt
 62
     7
370
     0
100
AcDbLine
 10
203.2725329191
 20
100.8136713829
 30
0.0
 11
202.1775471658
 21
102.4209313512
 31
0.0
  0
LINE
  5
1E1
330
1F
100
AcDbEntity
  8
VERMASSUNG
100
AcDbLine
 10
231.1533452809
 20
130.7545475595
 30
0.0
 11
231.1533452809
 21
103.7545475595
 31
0.0
  0
DIMENSION
  5
1E2
330
1F
100
AcDbEntity
  8
VERMASSUNG
100
AcDbDimension
  2
*D1
 10
151.7472981014
 20
83.7545475595
 30
0.0
 11
151.7472981014
 21
103.7545475595
 31
0.0
 70
   160
  1
HSK %%c<>
 71
     2
 42
-1.0
  3
SLDDIMSTYLE0
100
AcDbAlignedDimension
 13
176.4533452809
 23
123.7545475595
 33
0.0
 14
176.4533452809
 24
83.7545475595
 34
0.0
 50
90.0
100
AcDbRotatedDimension
  0
DIMENSION
  5
1EF
330
1F
100
AcDbEntity
  8
VERMASSUNG
100
AcDbDimension
  2
*D2
 10
231.1533452809
 20
139.6399229013
 30
0.0
 11
193.7033452809
 21
139.6399229013
 31
0.0
 70
   160
 71
     2
 42
-1.0
  3
SLDDIMSTYLE0
100
AcDbAlignedDimension
 13
156.2533452809
 23
115.6845475595
 33
0.0
 14
231.1533452809
 24
130.7545475595
 34
0.0
100
AcDbRotatedDimension
  0
DIMENSION
  5
1F9
330
1F
100
AcDbEntity
  8
VERMASSUNG
100
AcDbDimension
  2
*D3
 10
231.1533452809
 20
133.6399229013
 30
0.0
 11
203.6533452809
 21
133.6399229013
 31
0.0
 70
   160
 71
     2
 42
-1.0
  3
SLDDIMSTYLE0
100
AcDbAlignedDimension
 13
176.1533452809
 23
123.4545475595
 33
0.0
 14
231.1533452809
 24
130.7545475595
 34
0.0
100
AcDbRotatedDimension
  0
DIMENSION
  5
203
330
1F
100
AcDbEntity
  8
VERMASSUNG
100
AcDbDimension
  2
*D4
 10
236.6493542321
 20
103.7545475595
 30
0.0
 11
236.6493542321
 21
117.2545475595
 31
0.0
 70
   160
 71
     2
 42
-1.0
  3
SLDDIMSTYLE0
100
AcDbAlignedDimension
 13
231.1533452809
 23
130.7545475595
 33
0.0
 14
231.236719044
 24
103.7545475595
 34
0.0
 50
90.0
100
AcDbRotatedDimension
  0
DIMENSION
  5
20D
330
1F
100
AcDbEntity
  8
VERMASSUNG
100
AcDbDimension
  2
*D5
 10
230.2913910445
 20
129.1828646738
 30
0.0
 11
236.6493542321
 21
98.9817779123
 31
0.0
 70
   162
 71
     1
 42
-1.0
  3
SLDDIMSTYLE1
100
AcDb2LineAngularDimension
 13
231.1533452809
 23
103.7545475595
 33
0.0
 14
231.1533452809
 24
130.7545475595
 34
0.0
 15
229.0077076684
 25
104.6887267113
 35
0.0
 16
229.9237930009
 26
98.6752240804
 36
0.0
  0
LINE
  5
21A
330
1F
100
AcDbEntity
  8
VERMASSUNG
  6
SLD-Punktstrich
370
     0
100
AcDbLine
 10
154.7643572477
 20
103.7545475595
 30
0.0
 11
231.236719044
 21
103.7545475595
 31
0.0
  0
LWPOLYLINE
  5
21B
330
1F
100
AcDbEntity
  8
0
  6
SLD-Durchgehend
 62
     7
370
    15
100
AcDbPolyline
 90
        5
 70
   128
 43
0.0
 10
87.7271362151
 20
129.5538220041
 10
86.7729187048
 20
129.8717401408
 10
85.6272107957
 20
130.1425836466
 10
84.3115457137
 20
130.4124343626
 10
82.8787428217
 20
130.7942896567
  0
LINE
  5
21C
330
1F
100
AcDbEntity
  8
0
  6
SLD-Durchgehend
 62
     7
370
    15
100
AcDbLine
 10
83.4210434732
 20
125.3134600304
 30
0.0
 11
82.9164285713
 21
124.4394417338
 31
0.0
  0
LINE
  5
21D
330
1F
100
AcDbEntity
  8
0
  6
SLD-Durchgehend
 62
     7
370
    15
100
AcDbLine
 10
82.9164285713
 20
109.0920429163
 30
0.0
 11
83.2164285857
 21
108.5724277839
 31
0.0
  0
LINE
  5
21E
330
1F
100
AcDbEntity
  8
0
  6
SLD-Durchgehend
 62
     7
370
    15
100
AcDbLine
 10
82.8787428217
 20
102.7371960411
 30
0.0
 11
83.2164285857
 21
102.8333143516
 31
0.0
  0
LINE
  5
21F
330
1F
100
AcDbEntity
  8
0
  6
SLD-Durchgehend
 62
     7
370
    15
100
AcDbLine
 10
83.9164286189
 20
114.1407425933
 30
0.0
 11
84.8646923004
 21
114.6882233627
 31
0.0
  0
LINE
  5
220
330
1F
100
AcDbEntity
  8
0
  6
SLD-Durchgehend
 62
     7
370
    15
100
AcDbLine
 10
84.8646923004
 20
118.8432622187
 30
0.0
 11
83.9164286189
 21
119.3907420568
 31
0.0
  0
LINE
  5
221
330
1F
100
AcDbEntity
  8
0
  6
SLD-Durchgehend
 62
     7
370
    15
100
AcDbLine
 10
83.1918687072
 20
114.1407425933
 30
0.0
 11
83.9164286189
 21
114.1407425933
 31
0.0
  0
LINE
  5
222
330
1F
100
AcDbEntity
  8
0
  6
SLD-Durchgehend
 62
     7
370
    15
100
AcDbLine
 10
83.9164286189
 20
119.3907420568
 30
0.0
 11
83.1918687072
 21
119.3907420568
 31
0.0
  0
LINE
  5
223
330
1F
100
AcDbEntity
  8
0
  6
SLD-Durchgehend
 62
     7
370
    15
100
AcDbLine
 10
87.6764284948
 20
129.4656238936
 30
0.0
 11
87.6764284948
 21
129.5722025864
 31
0.0
  0
LINE
  5
224
330
1F
100
AcDbEntity
  8
0
  6
SLD-Durchgehend
 62
     7
370
    15
100
AcDbLine
 10
82.9164285714
 20
130.3631767117
 30
0.0
 11
82.9164285714
 21
130.7774066411
 31
0.0
  0
LINE
  5
225
330
1F
100
AcDbEntity
  8
0
  6
SLD-Durchgehend
 62
     7
370
    15
100
AcDbLine
 10
87.6764284948
 20
115.2628056191
 30
0.0
 11
87.6764284948
 21
129.4656238936
 31
0.0
  0
LINE
  5
226
330
1F
100
AcDbEntity
  8
0
  6
SLD-Durchgehend
 62
     7
370
    15
100
AcDbLine
 10
82.9164285714
 20
115.1419478886
 30
0.0
 11
82.9164285714
 21
130.3631767117
 31
0.0
  0
LINE
  5
227
330
1F
100
AcDbEntity
  8
0
  6
SLD-Durchgehend
 62
     7
370
    15
100
AcDbLine
 10
83.2700184
 20
123.3452382915
 30
0.0
 11
83.2698004705
 21
123.3461509876
 31
0.0
  0
LINE
  5
228
330
1F
100
AcDbEntity
  8
0
  6
SLD-Durchgehend
 62
     7
370
    15
100
AcDbLine
 10
87.6764284948
 20
115.2628056191
 30
0.0
 11
87.6764284948
 21
115.206892737
 31
0.0
  0
LINE
  5
229
330
1F
100
AcDbEntity
  8
0
  6
SLD-Durchgehend
 62
     7
370
    15
100
AcDbLine
 10
82.9164285714
 20
114.9182972916
 30
0.0
 11
82.9164285714
 21
115.1419478886
 31
0.0
  0
LINE
  5
22A
330
1F
100
AcDbEntity
  8
0
  6
SLD-Durchgehend
 62
     7
370
    15
100
AcDbLine
 10
87.6764284948
 20
114.935425245
 30
0.0
 11
87.6764284948
 21
115.206892737
 31
0.0
  0
LINE
  5
22B
330
1F
100
AcDbEntity
  8
0
  6
SLD-Durchgehend
 62
     7
370
    15
100
AcDbLine
 10
82.9164285714
 20
102.9073454158
 30
0.0
 11
82.9164285714
 21
114.9182972916
 31
0.0
  0
LINE
  5
22C
330
1F
100
AcDbEntity
  8
0
  6
SLD-Durchgehend
 62
     7
370
    15
100
AcDbLine
 10
83.2696770994
 20
108.997308784
 30
0.0
 11
83.2700184
 21
108.9838525698
 31
0.0
  0
LINE
  5
22D
330
1F
100
AcDbEntity
  8
0
  6
SLD-Durchgehend
 62
     7
370
    15
100
AcDbLine
 10
83.9149566636
 20
119.8157418005
 30
0.0
 11
83.9149566636
 21
119.3907420568
 31
0.0
  0
LINE
  5
22E
330
1F
100
AcDbEntity
  8
0
  6
SLD-Durchgehend
 62
     7
370
    15
100
AcDbLine
 10
82.9164285714
 20
102.9073454158
 30
0.0
 11
82.9164285714
 21
102.7517541263
 31
0.0
  0
ARC
  5
22F
330
1F
100
AcDbEntity
  8
0
  6
SLD-Durchgehend
 62
     7
370
    15
100
AcDbCircle
 10
82.9164285714
 20
103.7545475595
 30
0.0
 40
18.00000000000001
100
AcDbArc
 50
270.9549738738
 51
0.0
  0
LINE
  5
230
330
1F
100
AcDbEntity
  8
0
  6
SLD-Durchgehend
 62
     7
370
    15
100
AcDbLine
 10
83.2164285857
 20
113.9819884159
 30
0.0
 11
83.2164285857
 21
85.7570480041
 31
0.0
  0
LINE
  5
231
330
1F
100
AcDbEntity
  8
0
  6
SLD-Durchgehend
 62
     7
370
    15
100
AcDbLine
 10
83.2164285857
 20
113.9819884159
 30
0.0
 11
85.1764285507
 21
114.4009876482
 31
0.0
  0
LINE
  5
232
330
1F
100
AcDbEntity
  8
0
  6
SLD-Durchgehend
 62
     7
370
    15
100
AcDbLine
 10
85.1764285507
 20
114.4009876482
 30
0.0
 11
87.6764284948
 21
114.4009876482
 31
0.0
  0
LINE
  5
233
330
1F
100
AcDbEntity
  8
0
  6
SLD-Durchgehend
 62
     7
370
    15
100
AcDbLine
 10
87.6764284948
 20
115.2628056191
 30
0.0
 11
87.6764284948
 21
115.2251783244
 31
0.0
  0
LINE
  5
234
330
1F
100
AcDbEntity
  8
0
  6
SLD-Durchgehend
 62
     7
370
    15
100
AcDbLine
 10
87.6764284948
 20
114.935425245
 30
0.0
 11
87.6764284948
 21
114.4009876482
 31
0.0
  0
LINE
  5
235
330
1F
100
AcDbEntity
  8
0
  6
SLD-Durchgehend
 62
     7
370
    15
100
AcDbLine
 10
100.9164277966
 20
116.6588926174
 30
0.0
 11
100.9164277966
 21
103.7545475595
 31
0.0
  0
ELLIPSE
  5
236
330
1F
100
AcDbEntity
  8
0
  6
SLD-Durchgehend
 62
     7
370
    15
100
AcDbEllipse
 10
82.9164285714
 20
86.4526748169
 30
0.0
 11
-2.842170943040401E-14
 21
43.5264365595111
 31
0.0
210
0.0
220
0.0
230
1.0
 40
0.5743635817
 41
5.479382988246548
 42
6.091615723019924
  0
ARC
  5
237
330
1F
100
AcDbEntity
  8
0
  6
SLD-Durchgehend
 62
     7
370
    15
100
AcDbCircle
 10
82.8977727269
 20
103.9506855056
 30
0.0
 40
16.30342932876147
100
AcDbArc
 50
89.9344370215
 51
99.3404982179
  0
ARC
  5
238
330
1F
100
AcDbEntity
  8
0
  6
SLD-Durchgehend
 62
     7
370
    15
100
AcDbCircle
 10
82.9164628029
 20
103.754988367
 30
0.0
 40
16.50044060876226
100
AcDbArc
 50
260.7062494565
 51
271.0416521937
  0
ELLIPSE
  5
239
330
1F
100
AcDbEntity
  8
0
  6
SLD-Durchgehend
 62
     7
370
    15
100
AcDbEllipse
 10
74.2076231212
 20
111.1942502615
 30
0.0
 11
1.721753363541098
 21
2.368360820935991
 31
0.0
210
0.0
220
0.0
230
0.9999999999999999
 40
0.7016899908
 41
0.0
 42
6.283185307179586
  0
ARC
  5
23A
330
1F
100
AcDbEntity
  8
0
  6
SLD-Durchgehend
 62
     7
370
    15
100
AcDbCircle
 10
82.9164285714
 20
103.7545475595
 30
0.0
 40
16.5
100
AcDbArc
 50
99.2938801905
 51
260.7061198095
  0
LINE
  5
23B
330
1F
100
AcDbEntity
  8
0
  6
SLD-Durchgehend
 62
     7
370
    15
100
AcDbLine
 10
78.4164287651
 20
120.6545467906
 30
0.0
 11
78.4164287651
 21
120.666082152
 31
0.0
  0
LINE
  5
23C
330
1F
100
AcDbEntity
  8
0
  6
SLD-Durchgehend
 62
     7
370
    15
100
AcDbLine
 10
82.9164285714
 20
120.6545467906
 30
0.0
 11
78.4164287651
 21
120.6545467906
 31
0.0
  0
LINE
  5
23D
330
1F
100
AcDbEntity
  8
0
  6
SLD-Durchgehend
 62
     7
370
    15
100
AcDbLine
 10
83.2164285857
 20
86.8545483284
 30
0.0
 11
78.3733020107
 21
86.8545483284
 31
0.0
  0
LINE
  5
23E
330
1F
100
AcDbEntity
  8
0
  6
SLD-Durchgehend
 62
     7
370
    15
100
AcDbLine
 10
70.0390257443
 20
115.6045479186
 30
0.0
 11
71.0664282123
 21
115.6045479186
 31
0.0
  0
LINE
  5
23F
330
1F
100
AcDbEntity
  8
0
  6
SLD-Durchgehend
 62
     7
370
    15
100
AcDbLine
 10
71.0664282123
 20
116.6319503866
 30
0.0
 11
71.0664282123
 21
115.6045479186
 31
0.0
  0
LINE
  5
240
330
1F
100
AcDbEntity
  8
0
  6
SLD-Durchgehend
 62
     7
370
    15
100
AcDbLine
 10
78.4164287651
 20
122.6254246615
 30
0.0
 11
78.4164287651
 21
123.24172365
 31
0.0
  0
ARC
  5
241
330
1F
100
AcDbEntity
  8
0
  6
SLD-Durchgehend
 62
     7
370
    15
100
AcDbCircle
 10
82.9164285714
 20
103.7545475595
 30
0.0
 40
20.00000000000002
100
AcDbArc
 50
103.0028781629
 51
126.3346172154
  0
LINE
  5
242
330
1F
100
AcDbEntity
  8
0
  6
SLD-Durchgehend
 62
     7
370
    15
100
AcDbLine
 10
71.0664282123
 20
119.8659568511
 30
0.0
 11
71.0664282123
 21
119.1148051478
 31
0.0
  0
ARC
  5
243
330
1F
100
AcDbEntity
  8
0
  6
SLD-Durchgehend
 62
     7
370
    15
100
AcDbCircle
 10
82.9164285714
 20
103.7545475595
 30
0.0
 40
20.0
100
AcDbArc
 50
143.6653827846
 51
254.0379858372
  0
LINE
  5
244
330
1F
100
AcDbEntity
  8
0
  6
SLD-Durchgehend
 62
     7
370
    15
100
AcDbLine
 10
77.4164286012
 20
85.1505148642
 30
0.0
 11
77.4164286012
 21
84.5256626092
 31
0.0
  0
LINE
  5
245
330
1F
100
AcDbEntity
  8
0
  6
SLD-Durchgehend
 62
     7
370
    15
100
AcDbLine
 10
66.8050192798
 20
115.6045479186
 30
0.0
 11
67.5561709831
 21
115.6045479186
 31
0.0
  0
ARC
  5
246
330
1F
100
AcDbEntity
  8
0
  6
SLD-Durchgehend
 62
     7
370
    15
100
AcDbCircle
 10
82.9164285714
 20
103.7545475595
 30
0.0
 40
20.00000000000001
100
AcDbArc
 50
285.9620141628
 51
25.5564695139
  0
LINE
  5
247
330
1F
100
AcDbEntity
  8
0
  6
SLD-Durchgehend
 62
     7
370
    15
100
AcDbLine
 10
88.4164285416
 20
84.5256626092
 30
0.0
 11
88.4164285416
 21
85.1505148642
 31
0.0
  0
LINE
  5
248
330
1F
100
AcDbEntity
  8
0
  6
SLD-Durchgehend
 62
     7
370
    15
100
AcDbLine
 10
88.4164285416
 20
85.1505148642
 30
0.0
 11
88.4164285416
 21
86.6154107682
 31
0.0
  0
LINE
  5
249
330
1F
100
AcDbEntity
  8
0
  6
SLD-Durchgehend
 62
     7
370
    15
100
AcDbLine
 10
77.4164286012
 20
86.8545483284
 30
0.0
 11
77.4164286012
 21
85.1505148642
 31
0.0
  0
LINE
  5
24A
330
1F
100
AcDbEntity
  8
0
  6
SLD-Durchgehend
 62
     7
370
    15
100
AcDbLine
 10
78.3733020107
 20
86.8545483284
 30
0.0
 11
77.4164286012
 21
86.8545483284
 31
0.0
  0
LINE
  5
24B
330
1F
100
AcDbEntity
  8
0
  6
SLD-Durchgehend
 62
     7
370
    15
100
AcDbLine
 10
67.5561709831
 20
115.6045479186
 30
0.0
 11
70.0390257443
 21
115.6045479186
 31
0.0
  0
LINE
  5
24C
330
1F
100
AcDbEntity
  8
0
  6
SLD-Durchgehend
 62
     7
370
    15
100
AcDbLine
 10
78.4164287651
 20
120.666082152
 30
0.0
 11
78.4164287651
 21
122.6254246615
 31
0.0
  0
LINE
  5
24D
330
1F
100
AcDbEntity
  8
0
  6
SLD-Durchgehend
 62
     7
370
    15
100
AcDbLine
 10
71.0664282123
 20
119.1148051478
 30
0.0
 11
71.0664282123
 21
116.6319503866
 31
0.0
  0
ARC
  5
24E
330
1F
100
AcDbEntity
  8
0
  6
SLD-Durchgehend
 62
     7
370
    15
100
AcDbCircle
 10
82.9126230055
 20
103.7583531254
 30
0.0
 40
19.99468001396032
100
AcDbArc
 50
126.3322940084
 51
143.6677059916
  0
ARC
  5
24F
330
1F
100
AcDbEntity
  8
0
  6
SLD-Durchgehend
 62
     7
370
    15
100
AcDbCircle
 10
82.9174146461
 20
103.748614303
 30
0.0
 40
19.99402474853053
100
AcDbArc
 50
272.8640120614
 51
285.9639726697
  0
ARC
  5
250
330
1F
100
AcDbEntity
  8
0
  6
SLD-Durchgehend
 62
     7
370
    15
100
AcDbCircle
 10
82.9185156532
 20
103.7671496426
 30
0.0
 40
20.01269060333597
100
AcDbArc
 50
254.0421632182
 51
267.1298520507
  0
ARC
  5
251
330
1F
100
AcDbEntity
  8
0
  6
SLD-Durchgehend
 62
     7
370
    15
100
AcDbCircle
 10
82.8666782245
 20
104.057139482
 30
0.0
 40
19.69398359773389
100
AcDbArc
 50
89.8552609777
 51
103.0599241563
  0
ARC
  5
252
330
1F
100
AcDbEntity
  8
0
  6
SLD-Durchgehend
 62
     7
370
    15
100
AcDbCircle
 10
82.9164285714
 20
103.7545475595
 30
0.0
 40
19.99999999999999
100
AcDbArc
 50
267.1340160174
 51
272.8659839826
  0
CIRCLE
  5
253
330
1F
100
AcDbEntity
  8
VERMASSUNG
  6
SLD-Punktstrich
100
AcDbCircle
 10
82.9164285714
 20
105.7816316307
 30
0.0
 40
25.00000000000001
  0
POINT
  5
254
330
1F
100
AcDbEntity
  8
VERMASSUNG
100
AcDbPoint
 10
82.9164285714
 20
130.7816316307
 30
0.0
  0
DIMENSION
  5
255
330
1F
100
AcDbEntity
  8
VERMASSUNG
100
AcDbDimension
  2
*D6
 10
55.5233778029
 20
130.7816316307
 30
0.0
 11
55.5233778029
 21
105.7816316307
 31
0.0
 70
   160
  1
%%c<>
 71
     2
 42
-1.0
  3
SLDDIMSTYLE2
100
AcDbAlignedDimension
 13
82.9164285714
 23
80.7816316307
 33
0.0
 14
82.9164285714
 24
130.7816316307
 34
0.0
 50
90.0
100
AcDbRotatedDimension
  0
INSERT
  5
26C
330
1F
100
AcDbEntity
  8
VERMASSUNG
100
AcDbBlockReference
  2
SW_CENTERMARKSYMBOL_0
 10
82.9164285714
 20
103.7545475595
 30
0.0
  0
OLE2FRAME
  5
26D
330
1F
100
AcDbEntity
  8
0
100
AcDbOle2Frame
 70
     2
  3
Bitmap
 10
13.8511154363
 20
38.264191557
 30
0.0
 11
51.6290888628
 21
31.9806341108
 31
0.0
 71
     2
 72
     0
 73
     1
 90
    12928
310
80552BED0767C5B32B40DDAF6807D121434000000000000000006FFBDDFB85D0
310
4940DDAF6807D121434000000000000000006FFBDDFB85D04940416F4BD60AFB
310
3F4000000000000000002BED0767C5B32B40416F4BD60AFB3F40000000000000
310
0000000000000100000000010000010000000100000000000100000000320000
310
D0CF11E0A1B11AE1000000000000000000000000000000003E000300FEFF0900
310
0600000000000000000000000100000001000000000000000010000002000000
310
01000000FEFFFFFF0000000000000000FFFFFFFFFFFFFFFFFFFFFFFFFFFFFFFF
310
FFFFFFFFFFFFFFFFFFFFFFFFFFFFFFFFFFFFFFFFFFFFFFFFFFFFFFFFFFFFFFFF
310
FFFFFFFFFFFFFFFFFFFFFFFFFFFFFFFFFFFFFFFFFFFFFFFFFFFFFFFFFFFFFFFF
310
FFFFFFFFFFFFFFFFFFFFFFFFFFFFFFFFFFFFFFFFFFFFFFFFFFFFFFFFFFFFFFFF
310
FFFFFFFFFFFFFFFFFFFFFFFFFFFFFFFFFFFFFFFFFFFFFFFFFFFFFFFFFFFFFFFF
310
FFFFFFFFFFFFFFFFFFFFFFFFFFFFFFFFFFFFFFFFFFFFFFFFFFFFFFFFFFFFFFFF
310
FFFFFFFFFFFFFFFFFFFFFFFFFFFFFFFFFFFFFFFFFFFFFFFFFFFFFFFFFFFFFFFF
310
FFFFFFFFFFFFFFFFFFFFFFFFFFFFFFFFFFFFFFFFFFFFFFFFFFFFFFFFFFFFFFFF
310
FFFFFFFFFFFFFFFFFFFFFFFFFFFFFFFFFFFFFFFFFFFFFFFFFFFFFFFFFFFFFFFF
310
FFFFFFFFFFFFFFFFFFFFFFFFFFFFFFFFFFFFFFFFFFFFFFFFFFFFFFFFFFFFFFFF
310
FFFFFFFFFFFFFFFFFFFFFFFFFFFFFFFFFFFFFFFFFFFFFFFFFFFFFFFFFFFFFFFF
310
FFFFFFFFFFFFFFFFFFFFFFFFFFFFFFFFFFFFFFFFFFFFFFFFFFFFFFFFFFFFFFFF
310
FFFFFFFFFFFFFFFFFFFFFFFFFFFFFFFFFFFFFFFFFFFFFFFFFFFFFFFFFFFFFFFF
310
FFFFFFFFFFFFFFFFFFFFFFFFFFFFFFFFFFFFFFFFFFFFFFFFFFFFFFFFFFFFFFFF
310
FDFFFFFFFEFFFFFFFEFFFFFFFEFFFFFF05000000060000000700000008000000
310
090000000A0000000B0000000C0000000D0000000E0000000F00000010000000
310
11000000120000001300000014000000150000001600000017000000FEFFFFFF
310
FFFFFFFFFFFFFFFFFFFFFFFFFFFFFFFFFFFFFFFFFFFFFFFFFFFFFFFFFFFFFFFF
310
FFFFFFFFFFFFFFFFFFFFFFFFFFFFFFFFFFFFFFFFFFFFFFFFFFFFFFFFFFFFFFFF
310
FFFFFFFFFFFFFFFFFFFFFFFFFFFFFFFFFFFFFFFFFFFFFFFFFFFFFFFFFFFFFFFF
310
FFFFFFFFFFFFFFFFFFFFFFFFFFFFFFFFFFFFFFFFFFFFFFFFFFFFFFFFFFFFFFFF
310
FFFFFFFFFFFFFFFFFFFFFFFFFFFFFFFFFFFFFFFFFFFFFFFFFFFFFFFFFFFFFFFF
310
FFFFFFFFFFFFFFFFFFFFFFFFFFFFFFFFFFFFFFFFFFFFFFFFFFFFFFFFFFFFFFFF
310
FFFFFFFFFFFFFFFFFFFFFFFFFFFFFFFFFFFFFFFFFFFFFFFFFFFFFFFFFFFFFFFF
310
FFFFFFFFFFFFFFFFFFFFFFFFFFFFFFFFFFFFFFFFFFFFFFFFFFFFFFFFFFFFFFFF
310
FFFFFFFFFFFFFFFFFFFFFFFFFFFFFFFFFFFFFFFFFFFFFFFFFFFFFFFFFFFFFFFF
310
FFFFFFFFFFFFFFFFFFFFFFFFFFFFFFFFFFFFFFFFFFFFFFFFFFFFFFFFFFFFFFFF
310
FFFFFFFFFFFFFFFFFFFFFFFFFFFFFFFFFFFFFFFFFFFFFFFFFFFFFFFFFFFFFFFF
310
FFFFFFFFFFFFFFFFFFFFFFFFFFFFFFFFFFFFFFFFFFFFFFFFFFFFFFFFFFFFFFFF
310
FFFFFFFFFFFFFFFFFFFFFFFFFFFFFFFFFFFFFFFFFFFFFFFFFFFFFFFFFFFFFFFF
310
52006F006F007400200045006E00740072007900000000000000000000000000
310
0000000000000000000000000000000000000000000000000000000000000000
310
16000500FFFFFFFFFFFFFFFF020000000A00030000000000C000000000000046
310
000000000000000000000000203C5DBE6EA8C90103000000C000000000000000
310
01004F006C006500000000000000000000000000000000000000000000000000
310
0000000000000000000000000000000000000000000000000000000000000000
310
0A000200FFFFFFFFFFFFFFFFFFFFFFFF00000000000000000000000000000000
310
0000000000000000000000000000000000000000000000001400000000000000
310
010043006F006D0070004F0062006A0000000000000000000000000000000000
310
0000000000000000000000000000000000000000000000000000000000000000
310
120002010100000003000000FFFFFFFF00000000000000000000000000000000
310
0000000000000000000000000000000000000000010000004D00000000000000
310
01004F006C006500310030004E00610074006900760065000000000000000000
310
0000000000000000000000000000000000000000000000000000000000000000
310
1A000200FFFFFFFFFFFFFFFFFFFFFFFF00000000000000000000000000000000
310
0000000000000000000000000000000000000000040000002426000000000000
310
FEFFFFFF02000000FEFFFFFFFFFFFFFFFFFFFFFFFFFFFFFFFFFFFFFFFFFFFFFF
310
FFFFFFFFFFFFFFFFFFFFFFFFFFFFFFFFFFFFFFFFFFFFFFFFFFFFFFFFFFFFFFFF
310
FFFFFFFFFFFFFFFFFFFFFFFFFFFFFFFFFFFFFFFFFFFFFFFFFFFFFFFFFFFFFFFF
310
FFFFFFFFFFFFFFFFFFFFFFFFFFFFFFFFFFFFFFFFFFFFFFFFFFFFFFFFFFFFFFFF
310
FFFFFFFFFFFFFFFFFFFFFFFFFFFFFFFFFFFFFFFFFFFFFFFFFFFFFFFFFFFFFFFF
310
FFFFFFFFFFFFFFFFFFFFFFFFFFFFFFFFFFFFFFFFFFFFFFFFFFFFFFFFFFFFFFFF
310
FFFFFFFFFFFFFFFFFFFFFFFFFFFFFFFFFFFFFFFFFFFFFFFFFFFFFFFFFFFFFFFF
310
FFFFFFFFFFFFFFFFFFFFFFFFFFFFFFFFFFFFFFFFFFFFFFFFFFFFFFFFFFFFFFFF
310
FFFFFFFFFFFFFFFFFFFFFFFFFFFFFFFFFFFFFFFFFFFFFFFFFFFFFFFFFFFFFFFF
310
FFFFFFFFFFFFFFFFFFFFFFFFFFFFFFFFFFFFFFFFFFFFFFFFFFFFFFFFFFFFFFFF
310
FFFFFFFFFFFFFFFFFFFFFFFFFFFFFFFFFFFFFFFFFFFFFFFFFFFFFFFFFFFFFFFF
310
FFFFFFFFFFFFFFFFFFFFFFFFFFFFFFFFFFFFFFFFFFFFFFFFFFFFFFFFFFFFFFFF
310
FFFFFFFFFFFFFFFFFFFFFFFFFFFFFFFFFFFFFFFFFFFFFFFFFFFFFFFFFFFFFFFF
310
FFFFFFFFFFFFFFFFFFFFFFFFFFFFFFFFFFFFFFFFFFFFFFFFFFFFFFFFFFFFFFFF
310
FFFFFFFFFFFFFFFFFFFFFFFFFFFFFFFFFFFFFFFFFFFFFFFFFFFFFFFFFFFFFFFF
310
FFFFFFFFFFFFFFFFFFFFFFFFFFFFFFFFFFFFFFFFFFFFFFFFFFFFFFFFFFFFFFFF
310
0100000200000000000000000000000000000000780115000000000000000000
310
0000000000000000000000000000000000000000000000000000000000000000
310
0100FEFF030A0000FFFFFFFF0A00030000000000C00000000000004607000000
310
5042727573680007000000504272757368000700000050427275736800F439B2
310
710000000000000000000000000000004D006100630000000000000000000000
310
0000000000000000000000000000000000000000000000000000000000000000
310
000000000000000000000000000000006476000800000000000000001EFF1F20
310
270000001E0000000900000007000000000000000E0000002A0000002C010000
310
000000006000000060000000200002F01F002000000000274D00000040000000
310
00080000B2090000810300000000000000000000000000000000000000000000
310
00000000616C000800000000E40100007001000004000000270000000E000000
310
00000000000000002C010000000000A1030201225300740079006C0075007300
310
2000420054000000000000000000000000000000000000000000000000000000
310
00000000000000000000000000000000000000005300740079006C0075007300
310
2000420054000000000000000000000000000000000000000000000000000000
310
0000000000000000000000000000000000000000000000000000000000000000
310
20260000424D0E260000000000003E00000028000000B40200006E0000000100
310
01000000000000000000130B0000130B00000200000002000000000000FFFFFF
310
FFFFFFFFFFFFFFFFFFFFFFFFFFFFFFFFFFFFFFFFFFFFFFFFFFFFFFFFFFFFFFFF
310
FFFFFFFFFFFFFFFFFFFFFFFFFFFFFFFFFFFFFFFFFFFFFFFFFFFFFFFFFFFFFFFF
310
FFFFFFFFFFFFFFFFFFFFFFFFFFFFFFFFFFFFFFFFFFFFFFFFF000FFFFFFFFFFFF
310
FFFFFFFFFFFFFFFFFFFFFFFFFFFFFFFFFFFFFFFFFFFFFFFFFFFFFFFFFFFFFFFF
310
FFFFFFFFFFFFFFFFFFFFFFFFFFFFFFFFFFFFFFFFFFFFFFFFFFFFFFFFFFFFFFFF
310
FFFFFFFFFFFFFFFFFFFFFFFFFFFFFFFFF000FFFFFFFFFFFFFFFFFFFFFFFFFFFF
310
FFFFFFFFFFFFFFFFFFFFFFFFFFFFFFFFFFFFFFFFFFFFFFFFFFFFFFFFFFFFFFFF
310
FFFFFFFFFFFFFFFFFFFFFFFFFFFFFFFFFFFFFFFFFFFFFFFFFFFFFFFFFFFFFFFF
310
FFFFFFFFFFFFFFFFF000FFFFFFFFFFFFFFFFFFFFFFFFFFFFFFFFFFFFFFFFFFFF
310
FFFFFFFFFFFFFFFFFFFFFFFFFFFFFFFFFFFFFFFFFFFFFFFFFFFFFFFFFFFFFFFF
310
FFFFFFFFFFFFFFFFFFFFFFFFFFFFFFFFFFFFFFFFFFFFFFFFFFFFFFFFFFFFFFFF
310
F000FFFFFFFFFFFFFFFFFFFFFFFFFFFFFFFFFFFFFFFFFFFFFFFFFFFFFFFFFFFF
310
FFFFFFFFFFFFFFFFFFFFFFFFFFFFFFFFFFFFFFFFFFFFFFFFFFFFFFFFFFFFFFFF
310
FFFFFFFFFFFFFFFFFFFFFFFFFFFFFFFFFFFFFFFFFFFFFFFFF000FFFFFFFFFFFF
310
FFFFFFFFFFFFFFFFFFFFFFFFFFFFFFFFFFFFFFFFFFFFFFFFFFFFFFFFFFFFFFFF
310
FFFFFFFFFFFFFFFFFFFFFFFFFFFFFFFFFFFFFFFFFFFFFFFFFFFFFFFFFFFFFFFF
310
FFFFFFFFFFFFFFFFFFFFFFFFFFFFFFFFF000FFFFFFFFFFFFFFFFFFFFFFFFFFFF
310
FFFFFFFFFFFFFFFFFFFFFFFFFFFFFFFFFFFFFFFFFFFFFFFFFFFFFFFFFFFFFFFF
310
FFFFFFFFFFFFFFFFFFFFFFFFFFFFFFFFFFFFFFFFFFFFFFFFFFFFFFFFFFFFFFFF
310
FFFFFFFFFFFFFFFFF000FFFFFFFFFFFFFFFFFFFFFFFFFFFFFFFFFFFFFFFFFFFF
310
FFFFFFFFFFFFFFFFFFFFFFFFFFFFFFFFFFFFFFFFFFFFFFFFFFFFFFFFFFFFFFFF
310
FFFFFFFFFFFFFFFFFFFFFFFFFFFFFFFFFFFFFFFFFFFFFFFFFFFFFFFFFFFFFFFF
310
F000FFFFFFFFFFFFFFFFFFFFFFFFFFFFFFFFFFFFFFFFFFFFFFFFFFFFFFFFFFFF
310
FFFFFFFFFFFFFFFFFFFFFFFFFFFFFFFFFFFFFFFFFFFFFFFFFFFFFFFFFFFFFFFF
310
FFFFFFFFFFFFFFFFFFFFFFFFFFFFFFFFFFFFFFFFFFFFFFFFF000FFFFFFFFFFFF
310
FFFFFFFFFFFFFFFFFFFFFFFFFFFFFFFFFFFFFFFFFFFFFFFFFFFFFFFFFFFFFFFF
310
FFFFFFFFFFFFFFFFFFFFFFFFFFFFFFFFFFFFFFFFFFFFFFFFFFFFFFFFFFFFFFFF
310
FFFFFFFFFFFFFFFFFFFFFFFFFFFFFFFFF000FFFFFFFFFFFFFFFFFFFFFFFFFFFF
310
FFFFFFFFFFFFFFFFFFFFFFFFFFFFFFFFFFFFFFFFFFFFFFFFFFFFFFFFFFFFFFFF
310
FFFFFFFFFFFFFFFFFFFFFFFFFFFFFFFFFFFFFFFFFFFFFFFFFFFFFFFFFFFFFFFF
310
FFFFFFFFFFFFFFFFF000FFFFFFFFFFFFFFFFFFFFFFFFFFFFFFFFFFFFFFFFFFFF
310
FFFFFFFFFFFFFFFFFFFFFFFFFFFFFFFFFFFFFFFFFFFFFFFFFFFFFFFFFFFFFFFF
310
FFFFFFFFFFFFFFFFFFFFFFFFFFFFFFFFFFFFFFFFFFFFFFFFFFFFFFFFFFFFFFFF
310
F000FFFFFFFFFFFFFFFFFFFFFFFFFFFFFFFFFFFFFFFFFFFFFFFFFFFFFFFFFFFF
310
FFFFFFFFFFFFFFFFFFFFFFFFFFFFFFFFFFFFFFFFFFFFFFFFFFFFFFFFFFFFFFFF
310
FFFFFFFFFFFFFFFFFFFFFFFFFFFFFFFFFFFFFFFFFFFFFFFFF000FFFFFFFFFFFF
310
FFFFFFFFFFFFFFFFFFFFFFFFFFFFFFFFFFFFFFFFFFFFFFFFFFFFFFFFFFFFFFFF
310
FFFFFFFFFFFFFFFFFFFFFFFFFFFFFFFFFFFFFFFFFFFFFFFFFFFFFFFFFFFFFFFF
310
FFFFFFFFFFFFFFFFFFFFFFFFFFFFFFFFF000FFFFFFFFFFFFFFFFFFFFFFFFFFFF
310
FFFFFFFFFFFFFFFFFFFFFFFFFFFFFFFFFFFFFFFFFFFFFFFFFFFFFFFFFFFFFFFF
310
FFFFFFFFFFFFFFFFFFFFFFFFFFFFFFFFFFFFFFFFFFFFFFFFFFFFFFFFFFFFFFFF
310
FFFFFFFFFFFFFFFFF000FFFFFFFFFFFFFFFFFFFFFFFFFFFFFFFFFFFFFFFFFFFF
310
FFFFFFFFFFFFFFFFFFFFFFFFFFFFFFFFFFFFFFFFFFFFFFFFFFFFFFFFFFFFFFFF
310
FFFFFFFFFFFFFFFFFFFFFFFFFFFFFFFFFFFFFFFFFFFFFFFFFFFFFFFFFFFFFFFF
310
F000FFFFFFFFFFFFFFFFFFFFFFFFFFFFFFFFFFFFFFFFFFFFFFFFFFFFFFFFFFFF
310
FFFFFFFFFFFFFFFFFFFFFFFFFFFFFFFFFFFFFFFFFFFFFFFFFFFFFFFFFFFFFFFF
310
FFFFFFFFFFFFFFFFFFFFFFFFFFFFFFFFFFFFFFFFFFFFFFFFF000FFFFFFFFFFFF
310
FFFFFFFFFFFFFFFFFFFFFFFFFFFFFFFFFFFFFFFFFFFFFFFFFFFFFFFFFFFFFFFF
310
FFFFFFFFFFFFFFFFFFFFFFFFFFFFFFFFFFFFFFFFFFFFFFFFFFFFFFFFFFFFFFFF
310
FFFFFFFFFFFFFFFFFFFFFFFFFFFFFFFFF000FFFFFFFFFFFFFFFFFFFFFFFFFFFF
310
FFFFFFFFFFFFFFFFFFFFFFFFFFFFFFFFFFFFFFFFFFFFFFFFFFFFFFFFFFFFFFFF
310
FFFFFFFFFFFFFFFFFFFFFFFFFFFFFFFFFFFFFFFFFFFFFFFFFFFFFFFFFFFFFFFF
310
FFFFFFFFFFFFFFFFF000FFFFF80003FFFFFFFFFFFFFFFFFFFFFFFFFFFFFFFFFF
310
FFFFF00007FFFFFFFFFF00007FFFFFF800000000000000007FFFFFFFFFFFFFFF
310
FFFFFFFC001FFFFFFFFFFFFFFC001FFFFFFFFFFFFFFFFFFFFFFFFFFE0007FFFF
310
F000FFFF8000007FFFFFFFF8000FFFFFC0007FFFFF80007FFFFF0000007FFFFF
310
FFF8000007FFFFF800000000000000007FFFFFF0001FFFFFFFFFFFC00001FFFF
310
FFFFFFFFC00001FFFFFFFF000000000003FFFFE000007FFFF000FFFE0000000F
310
FFFFFFF0000FFFFF80007FFFFF80007FFFFC0000001FFFFFFFC0000001FFFFF8
310
00000000000000007FFFFFF0001FFFFFFFFFFE0000003FFFFFFFFFFE0000003F
310
FFFFFF000000000003FFFF0000000FFFF000FFF800000003FFFFFFF00007FFFF
310
80007FFFFF80007FFFF000000007FFFFFF000000003FFFF80000000000000000
310
7FFFFFF0001FFFFFFFFFF80000000FFFFFFFFFF80000000FFFFFFF0000000000
310
03FFFC00000003FFF000FFE000000000FFFFFFF00007FFFF80003FFFFF80007F
310
FFC000000001FFFFFC000000001FFFF800000000000000007FFFFFF0001FFFFF
310
FFFFE000000003FFFFFFFFE000000003FFFFFF000000000003FFF000000000FF
310
F000FF80000000007FFFFFF00007FFFF80003FFFFF80007FFF8000000000FFFF
310
F80000000007FFF800000000000000007FFFFFF0001FFFFFFFFFC000000001FF
310
FFFFFFC000000001FFFFFF000000000003FFC0000000007FF000FF0000000000
310
3FFFFFE00007FFFF00003FFFFF80007FFE00000000003FFFF00000000003FFF8
310
00000000000000007FFFFFF0001FFFFFFFFF8000000000FFFFFFFF8000000000
310
FFFFFF000000000003FF80000000003FF000FE00000000001FFFFFE00003FFFF
310
00003FFFFF80007FFC00000000001FFFE00000000001FFF8000001FFFE000000
310
7FFFFFF0001FFFFFFFFE00000000003FFFFFFE00000000003FFFFF0000000000
310
03FF00000000001FF000FC00000000000FFFFFE00003FFFF00001FFFFF80007F
310
F800000000001FFFC00000000000FFF8000001FFFE0000007FFFFFF0001FFFFF
310
FFFC00000000001FFFFFFC00000000001FFFFF000000000003FE00000000000F
310
F000F8000000000007FFFFE00003FFFF00001FFFFF80007FF800000000000FFF
310
800000000000FFF8000001FFFE0000007FFFFFF0001FFFFFFFF800000000000F
310
FFFFF800000000000FFFFF000000000003FC000000000007F000F80000000000
310
03FFFFC00003FFFE00001FFFFF80007FF0000000000007FF0000000000007FF8
310
000001FFFE0000007FFFFFF0001FFFFFFFF0000000000007FFFFF00000000000
310
07FFFF000000000003F8000000000003F000F0000000000003FFFFC00001FFFE
310
00001FFFFF80007FE0000000000007FE0000000000003FF8000001FFFE000000
310
7FFFFFF0001FFFFFFFF0000000000007FFFFF0000000000007FFFF0000000000
310
03F800001F800003F000E00001FFF00001FFFFC00001FFFE00000FFFFF80007F
310
E00001FFE00003FE00001FFF00003FF8000001FFFE0000007FFFFFF0001FFFFF
310
FFE000003E000003FFFFE000003E000003FFFF000000000003F00001FFF80001
310
F000E00007FFFC0001FFFFC00001FFFE00000FFFFF80007FC0000FFFFC0003FC
310
0000FFFFC0001FF8000001FFFE0000007FFFFFF0001FFFFFFFC00003FFE00001
310
FFFFC00003FFE00001FFFF0001FFFFFFFFF00007FFFE0001F000E0000FFFFF00
310
00FFFF800001FFFC00000FFFFF80007FC0001FFFFE0001FC0001FFFFE0001FF8
310
000001FFFE0000007FFFFFF0001FFFFFFF80000FFFF80000FFFF80000FFFF800
310
00FFFF0003FFFFFFFFE0000FFFFF8000F000C0003FFFFF8000FFFF800000FFFC
310
000007FFFF80007F80003FFFFF0001FC0003FFFFF0001FF8000001FFFE000000
310
7FFFFFF0001FFFFFFF80003FFFFE0000FFFF80003FFFFE0000FFFF0003FFFFFF
310
FFE0003FFFFF8000F000C0003FFFFF8000FFFF800000FFFC000007FFFF80007F
310
80007FFFFF8001F80007FFFFF8000FF8000001FFFE0000007FFFFFF0001FFFFF
310
FF00007FFFFF00007FFF00007FFFFF00007FFF0003FFFFFFFFE0003FFFFFC000
310
F000C0007FFFFFC000FFFF000000FFFC000007FFFF80007F8000FFFFFF8000F8
310
000FFFFFF8000FF8000001FFFE0000007FFFFFF0001FFFFFFF0000FFFFFF8000
310
7FFF0000FFFFFF80007FFF0003FFFFFFFFC0007FFFFFC00070008000FFFFFFC0
310
00FFFF000000FFF8000007FFFF80007F8000FFFFFF8000F8000FFFFFF8000FF8
310
000001FFFE0000007FFFFFF0001FFFFFFE0001FFFFFFC0003FFE0001FFFFFFC0
310
003FFF0003FFFFFFFFC0007FFFFFE00070008000FFFFFFC0007FFF0000007FF8
310
000003FFFF80007F0001FFFFFF8000F8000FFFFFF8000FF8000001FFFE000000
310
7FFFFFF0001FFFFFFE0001FFFFFFC0003FFE0001FFFFFFC0003FFF0003FFFFFF
310
FFC000FFFFFFE00070008000FFFFFFC0007FFF0000007FF8000003FFFF80007F
310
0001FFFFFF8000F8001FFFFFF8000FF8000001FFFE0000007FFFFFF0001FFFFF
310
FE0003FFFFFFE0003FFE0003FFFFFFE0003FFF0003FFFFFFFFC000FFFFFFE000
310
70008000FFFFFFC0007FFE0000007FF8000003FFFF80007F0001FFFFFF8000F0
310
001FFFFFF8000FF8000001FFFE0000007FFFFFF0001FFFFFFC0003FFFFFFE000
310
1FFC0003FFFFFFE0001FFF0003FFFFFFFFC000FFFFFFC00070008000FFFFFF80
310
007FFE0000007FF0000003FFFF80007F0001FFFFFF0000F0001FFFFFF8000FF8
310
000001FFFE0000007FFFFFF0001FFFFFFC0007FFFFFFF0001FFC0007FFFFFFF0
310
001FFF0003FFFFFFFFC000FFFFFFC00070008001FFFFFF0000FFFE0000003FF0
310
000001FFFF80007F0001FFFFFF0000F8001FFFFFF0000FF8000001FFFE000000
310
7FFFFFF0001FFFFFFC0007FFFFFFF0001FFC0007FFFFFFF0001FFF0003FFFFFF
310
FFC001FFFFFF80007000FFFFFFFFFE0000FFFE0008003FF0008001FFFF80007F
310
FFFFFFFFFC0000FFFFFFFFFFE0000FF8000001FFFE0000007FFFFFF0001FFFFF
310
F8000FFFFFFFF8000FF8000FFFFFFFF8000FFF0003FFFFFFFFFFFFFFFFFF0000
310
7000FFFFFFFFFC0000FFFC0008003FF0008001FFFF80007FFFFFFFFFF80001FF
310
FFFFFFFF80000FF8000001FFFE0000007FFFFFF0001FFFFFF8000FFFFFFFF800
310
0FF8000FFFFFFFF8000FFF0003FFFFFFFFFFFFFFFFFE0000F000FFFFFFFFE000
310
00FFFC000C003FE000C001FFFF80007FFFFFFFFFC00001FFFFFFFFFE00001FF8
310
000001FFFE0000007FFFFFF0001FFFFFF8000FFFFFFFF8000FF8000FFFFFFFF8
310
000FFF0003FFFFFFFFFFFFFFFFF00000F000FFFFFFFE000001FFFC000C001FE0
310
00C000FFFF80007FFFFFFFFE000001FFFFFFFFE000001FF80FFFFFFFFFFFFFC0
310
7FFFFFF0001FFFFFF8000FFFFFFFF8000FF8000FFFFFFFF8000FFF0003FFFFFF
310
FFFFFFFFFF800000F000FFFFFFC0000001FFFC001C001FE001C000FFFF80007F
310
FFFFFF80000003FFFFFFF80000001FF80FFFFFFFFFFFFFC07FFFFFF0001FFFFF
310
F8001FFFFFFFFC000FF8001FFFFFFFFC000FFF0003FFFFFFFFFFFFFFF0000001
310
F000FFFFF800000001FFF8001C001FE001C000FFFF80007FFFFFF800000003FF
310
FFFF800000003FF80FFFFFFFFFFFFFC07FFFFFF0001FFFFFF8001FFFFFFFFC00
310
0FF8001FFFFFFFFC000FFF0003FFFFFFFFFFFFFE00000001F000FFFFC0000000
310
03FFF8001E001FC001E000FFFF80007FFFFF8000000007FFFFFC000000003FF8
310
0FFFFFFFFFFFFFC07FFFFFF0001FFFFFF8001FFFFFFFFC000FF8001FFFFFFFFC
310
000FFF0003FFFFFFFFFFFFE000000003F000FFFE0000000007FFF8001E000FC0
310
01E0007FFF80007FFFFE0000000007FFFFE0000000007FF80FFFFFFFFFFFFFC0
310
7FFFFFF0001FFFFFF0001FFFFFFFFC0007F0001FFFFFFFFC0007FF0003FFFFFF
310
FFFFFF0000000003F000FFF80000000007FFF8001E000FC003E0007FFF80007F
310
FFF0000000000FFFFF8000000000FFF80FFFFFFFFFFFFFC07FFFFFF0001FFFFF
310
F0001FFFFFFFFC0007F0001FFFFFFFFC0007FF0003FFFFFFFFFFFC0000000007
310
F000FFE0000000000FFFF0003E000FC003E0007FFF80007FFFC0000000001FFF
310
FE0000000001FFF80FFFFFFFFFFFFFC07FFFFFF0001FFFFFF0001FFFFFFFFC00
310
07F0001FFFFFFFFC0007FF0003FFFFFFFFFFF0000000000FF000FFC000000000
310
1FFFF0003F000F8003F0003FFF80007FFF80000000003FFFF80000000003FFF8
310
0FFFFFFFFFFFFFC07FFFFFF0001FFFFFF0001FFFFFFFFC0007F0001FFFFFFFFC
310
0007FF0003FFFFFFFFFFE0000000001FF000FF00000000007FFFF0003F000780
310
03F0003FFF80007FFF00000000007FFFF00000000007FFF80FFFFFFFFFFFFFC0
310
7FFFFFF0001FFFFFF0001FFFFFFFFC0007F0001FFFFFFFFC0007FF0003FFFFFF
310
FFFF80000000007FF000FE0000000000FFFFE0003F00078007F0003FFF80007F
310
FE0000000001FFFFE0000000001FFFF80FFFFFFFFFFFFFC07FFFFFF0001FFFFF
310
F0001FFFFFFFFC0007F0001FFFFFFFFC0007FF0003FFFFFFFFFF0000000000FF
310
F000FC0000000003FFFFE0007F00078007F0003FFF80007FFC0000000007FFFF
310
C0000000007FFFF80FFFFFFFFFFFFFC07FFFFFF0001FFFFFF8001FFFFFFFFC00
310
0FF8001FFFFFFFFC000FFF0003FFFFFFFFFE0000000003FFF000FC000000000F
310
FFFFE0007F80070007F8001FFF80007FF8000000001FFFFF8000000001FFFFF8
310
0FFFFFFFFFFFFFC07FFFFFF0001FFFFFF8001FFFFFFFFC000FF8001FFFFFFFFC
310
000FFF0003FFFFFFFFFC000000000FFFF000F8000000007FFFFFE0007F800700
310
07F8001FFF80007FF000000000FFFFFF800000000FFFFFF80FFFFFFFFFFFFFC0
310
7FFFFFF0001FFFFFF8000FFFFFFFF8000FF8000FFFFFFFF8000FFF0003FFFFFF
310
FFFC000000007FFFF000F800000007FFFFFFC0007F8003000FF8001FFF80007F
310
F000000007FFFFFF000000007FFFFFF80FFFFFFFFFFFFFC07FFFFFF0001FFFFF
310
F8000FFFFFFFF8000FF8000FFFFFFFF8000FFF0003FFFFFFFFF80000000FFFFF
310
F000F0000000FFFFFFFFC000FF8003000FF8001FFF80007FE0000000FFFFFFFF
310
0000000FFFFFFFF8000001FFFE0000007FFFFFF0001FFFFFF8000FFFFFFFF800
310
0FF8000FFFFFFFF8000FFF0003FFFFFFFFF8000000FFFFFFF000F000000FFFFF
310
FFFFC000FFC002000FF8000FFF80007FE000001FFFFFFFFE000001FFFFFFFFF8
310
000001FFFE0000007FFFFFF0001FFFFFF8000FFFFFFFF8000FF8000FFFFFFFF8
310
000FFF0003FFFFFFFFF000001FFFFFFFF000E00000FFFFFFFFFFC000FFC00200
310
0FFC000FFF80007FE00001FFFFFFFFFE00001FFFFFFFFFF8000001FFFE000000
310
7FFFFFF0001FFFFFFC000FFFFFFFF8001FFC000FFFFFFFF8001FFF0003FFFFFF
310
FFF00001FFFFFFFFF000E00007FFFFFFFFFF8000FFC000001FFC000FFF80007F
310
C0000FFFFFFFFFFE0000FFFFFFFFFFF8000001FFFE0000007FFFFFF0001FFFFF
310
FC0007FFFFFFF0001FFC0007FFFFFFF0001FFF0003FFFFFFFFF00007FFFFFFFF
310
F000E0001FFFFFFFFFFF8000FFC000001FFC000FFF80007FC0003FFFFFFFFFFE
310
0001FFFFFFFFFFF8000001FFFE0000007FFFFFF0001FFFFFFC0007FFFFFFF000
310
1FFC0007FFFFFFF0001FFF0003FFFFFFFFF0001FFFFFFFFFF000E0003FFFFF00
310
03FF8001FFE000001FFC0007FF80007FC0007FFFFF0007FC0003FFFFF0003FF8
310
000001FFFE0000007FFFFFF0001FFFFFFC0003FFFFFFE0001FFC0003FFFFFFE0
310
001FFF0003FFFFFFFFF0003FFFFFFFFFF000E0003FFFFF0001FF8001FFE00000
310
1FFE0007FF80007FC0007FFFFE0003FC0007FFFFE0003FF8000001FFFE000000
310
7FFFFFF0001FFFFFFE0003FFFFFFE0003FFE0003FFFFFFE0003FFF0003FFFFFF
310
FFF0003FFFFF8001F000E0003FFFFF0001FF0001FFE000001FFE0007FF80007F
310
C0007FFFFE0003FC0007FFFFE0003FF8000001FFFE0000007FFFFFF0001FFFFF
310
FE0001FFFFFFC0003FFE0001FFFFFFC0003FFF0003FFFFFFFFF0003FFFFF0001
310
F000E0003FFFFF0003FF0001FFE000003FFE0007FF80007FC0007FFFFE0003FC
310
0007FFFFE0003FF8000001FFFE0000007FFFFFF0001FFFFFFF0001FFFFFFC000
310
7FFF0001FFFFFFC0007FFF0003FFFFFFFFF0003FFFFF0001F000E0003FFFFE00
310
03FF0003FFF000003FFE0003FF80007FC0007FFFFC0003FE0007FFFFE0003FF8
310
000001FFFE0000007FFFFFF0001FFFFFFF0000FFFFFF80007FFF0000FFFFFF80
310
007FFF0003FFFFFFFFF0003FFFFF0001F000E0003FFFFE0003FF0003FFF00000
310
3FFF0003FF80007FC0007FFFFC0007FE0007FFFFC0003FF8000001FFFE000000
310
7FFFFFF0001FFFFFFF80007FFFFF0000FFFF80007FFFFF0000FFFF0003FFFFFF
310
FFF0003FFFFF0003F000E0003FFFFC0003FE0003FFF000003FFF0003FF80007F
310
E0003FFFF80007FE0003FFFFC0007FF8000001FFFE0000007FFFFFF0001FFFFF
310
FF80003FFFFE0000FFFF80003FFFFE0000FFFF0003FFFFFFFFF0001FFFFE0003
310
F000F0001FFFF80003FE0003FFF000007FFF0001FF80007FE0003FFFF00007FE
310
0001FFFF80007FF8000001FFFE0000007FFFFFF0001FFFFFFFC0000FFFF80001
310
FFFFC0000FFFF80001FFFF0003FFFFFFFFF0001FFFFC0003F000F0000FFFF000
310
07FE0007FFF800007FFF0001FF80007FE0001FFFE00007FF0000FFFE00007FF8
310
000001FFFE0000007FFFFFF0001FFFFFFFC00003FFE00001FFFFC00003FFE000
310
01FFFF0003FFFFFFFFF8000FFFF80003F000F00003FFC00007FC0007FFF80000
310
7FFF8001FF80007FF00007FF80000FFF00007FF80000FFF8000001FFFE000000
310
7F80000000000001FFE000003E000003FFFFE000003E000003FFFF0003FFFFFF
310
FFF80003FFE00007F000F800000000000FFC0007FFF800007FFF8001FF80007F
310
F000000000000FFF000000000000FFF8000001FFFE0000007F80000000000001
310
FFF0000000000007FFFFF0000000000007FFFF0003FFFFFFFFFC00007E000007
310
F000F800000000000FFC0007FFF80000FFFF8000FF80007FF800000000001FFF
310
800000000001FFF8000001FFFE0000007F80000000000001FFF800000000000F
310
FFFFF800000000000FFFFF0003FFFFFFFFFC00000000000FF000FC0000000000
310
1FFC0007FFFC0000FFFF8000FF80007FF800000000003FFFC00000000001FFF8
310
000001FFFE0000007F80000000000001FFF800000000000FFFFFF80000000000
310
0FFFFF0003FFFFFFFFFE00000000001FF000FE00000000003FF8000FFFFC0000
310
FFFF8000FF80007FFC00000000003FFFC00000000003FFF8000001FFFE000000
310
7F80000000000001FFFC00000000001FFFFFFC00000000001FFFFF0003FFFFFF
310
FFFF00000000001FF000FF00000000003FF8000FFFFC0000FFFFC000FF80007F
310
FE00000000007FFFE00000000007FFF8000001FFFE0000007F80000000000001
310
FFFE00000000003FFFFFFE00000000003FFFFF0003FFFFFFFFFF80000000003F
310
F000FF80000000007FF8000FFFFC0001FFFFC0007F80007FFF0000000000FFFF
310
F0000000000FFFF800000000000000007F80000000000001FFFF8000000000FF
310
FFFFFF8000000000FFFFFF0003FFFFFFFFFFC0000000007FF000FFC000000000
310
FFF8000FFFFE0001FFFFC0007F80007FFF8000000001FFFFF8000000001FFFF8
310
00000000000000007F80000000000001FFFFC000000001FFFFFFFFC000000001
310
FFFFFF0003FFFFFFFFFFE000000000FFF000FFE000000003FFF0001FFFFE0001
310
FFFFC0007F80007FFFC000000007FFFFFE000000003FFFF80000000000000000
310
7F80000000000001FFFFE000000003FFFFFFFFE000000003FFFFFF0003FFFFFF
310
FFFFF000000003FFF000FFF80000000FFFF0001FFFFE0001FFFFE0007F80007F
310
FFF00000000FFFFFFF00000000FFFFF800000000000000007F80000000000001
310
FFFFF80000000FFFFFFFFFF80000000FFFFFFF0003FFFFFFFFFFFC0000000FFF
310
F000FFFE0000003FFFF0001FFFFE0003FFFFE0003F80007FFFFC0000003FFFFF
310
FFC0000003FFFFF800000000000000007F80000000000001FFFFFE0000003FFF
310
FFFFFFFE0000003FFFFFFF0003FFFFFFFFFFFF0000003FFFF000FFFF800000FF
310
FFF0001FFFFF0003FFFFE0003F80007FFFFF000001FFFFFFFFF800001FFFFFF8
310
00000000000000007F80000000000001FFFFFFC00001FFFFFFFFFFFFC00001FF
310
FFFFFF0003FFFFFFFFFFFFC00000FFFFF000FFFFF8000FFFFFFFFFFFFFFFFFFF
310
FFFFFFFFFFFFFFFFFFFFF0001FFFFFFFFFFF0000FFFFFFF80000000000000000
310
7FFFFFFFFFFFFFFFFFFFFFFC001FFFFFFFFFFFFFFC001FFFFFFFFFFFFFFFFFFF
310
FFFFFFFC001FFFFFF000FFFFFFFFFFFFFFFFFFFFFFFFFFFFFFFFFFFFFFFFFFFF
310
FFFFFFFFFFFFFFFFFFFFFFFFFFFFFFFFFFFFFFFFFFFFFFFFFFFFFFFFFFFFFFFF
310
FFFFFFFFFFFFFFFFFFFFFFFFFFFFFFFFFFFFFFFFFFFFFFFFFFFFFFFFFFFFFFFF
310
F000FFFFFFFFFFFFFFFFFFFFFFFFFFFFFFFFFFFFFFFFFFFFFFFFFFFFFFFFFFFF
310
FFFFFFFFFFFFFFFFFFFFFFFFFFFFFFFFFFFFFFFFFFFFFFFFFFFFFFFFFFFFFFFF
310
FFFFFFFFFFFFFFFFFFFFFFFFFFFFFFFFFFFFFFFFFFFFFFFFF000FFFFFFFFFFFF
310
FFFFFFFFFFFFFFFFFFFFFFFFFFFFFFFFFFFFFFFFFFFFFFFFFFFFFFFFFFFFFFFF
310
FFFFFFFFFFFFFFFFFFFFFFFFFFFFFFFFFFFFFFFFFFFFFFFFFFFFFFFFFFFFFFFF
310
FFFFFFFFFFFFFFFFFFFFFFFFFFFFFFFFF000FFFFFFFFFFFFFFFFFFFFFFFFFFFF
310
FFFFFFFFFFFFFFFFFFFFFFFFFFFFFFFFFFFFFFFFFFFFFFFFFFFFFFFFFFFFFFFF
310
FFFFFFFFFFFFFFFFFFFFFFFFFFFFFFFFFFFFFFFFFFFFFFFFFFFFFFFFFFFFFFFF
310
FFFFFFFFFFFFFFFFF000FFFFFFFFFFFFFFFFFFFFFFFFFFFFFFFFFFFFFFFFFFFF
310
FFFFFFFFFFFFFFFFFFFFFFFFFFFFFFFFFFFFFFFFFFFFFFFFFFFFFFFFFFFFFFFF
310
FFFFFFFFFFFFFFFFFFFFFFFFFFFFFFFFFFFFFFFFFFFFFFFFFFFFFFFFFFFFFFFF
310
F000FFFFFFFFFFFFFFFFFFFFFFFFFFFFFFFFFFFFFFFFFFFFFFFFFFFFFFFFFFFF
310
FFFFFFFFFFFFFFFFFFFFFFFFFFFFFFFFFFFFFFFFFFFFFFFFFFFFFFFFFFFFFFFF
310
FFFFFFFFFFFFFFFFFFFFFFFFFFFFFFFFFFFFFFFFFFFFFFFFF000FFFFFFFFFFFF
310
FFFFFFFFFFFFFFFFFFFFFFFFFFFFFFFFFFFFFFFFFFFFFFFFFFFFFFFFFFFFFFFF
310
FFFFFFFFFFFFFFFFFFFFFFFFFFFFFFFFFFFFFFFFFFFFFFFFFFFFFFFFFFFFFFFF
310
FFFFFFFFFFFFFFFFFFFFFFFFFFFFFFFFF000FFFFFFFFFFFFFFFFFFFFFFFFFFFF
310
FFFFFFFFFFFFFFFFFFFFFFFFFFFFFFFFFFFFFFFFFFFFFFFFFFFFFFFFFFFFFFFF
310
FFFFFFFFFFFFFFFFFFFFFFFFFFFFFFFFFFFFFFFFFFFFFFFFFFFFFFFFFFFFFFFF
310
FFFFFFFFFFFFFFFFF000FFFFFFFFFFFFFFFFFFFFFFFFFFFFFFFFFFFFFFFFFFFF
310
FFFFFFFFFFFFFFFFFFFFFFFFFFFFFFFFFFFFFFFFFFFFFFFFFFFFFFFFFFFFFFFF
310
FFFFFFFFFFFFFFFFFFFFFFFFFFFFFFFFFFFFFFFFFFFFFFFFFFFFFFFFFFFFFFFF
310
F000FFFFFFFFFFFFFFFFFFFFFFFFFFFFFFFFFFFFFFFFFFFFFFFFFFFFFFFFFFFF
310
FFFFFFFFFFFFFFFFFFFFFFFFFFFFFFFFFFFFFFFFFFFFFFFFFFFFFFFFFFFFFFFF
310
FFFFFFFFFFFFFFFFFFFFFFFFFFFFFFFFFFFFFFFFFFFFFFFFF000FFFFFFFFFFFF
310
FFFFFFFFFFFFFFFFFFFFFFFFFFFFFFFFFFFFFFFFFFFFFFFFFFFFFFFFFFFFFFFF
310
FFFFFFFFFFFFFFFFFFFFFFFFFFFFFFFFFFFFFFFFFFFFFFFFFFFFFFFFFFFFFFFF
310
FFFFFFFFFFFFFFFFFFFFFFFFFFFFFFFFF000FFFFFFFFFFFFFFFFFFFFFFFFFFFF
310
FFFFFFFFFFFFFFFFFFFFFFFFFFFFFFFFFFFFFFFFFFFFFFFFFFFFFFFFFFFFFFFF
310
FFFFFFFFFFFFFFFFFFFFFFFFFFFFFFFFFFFFFFFFFFFFFFFFFFFFFFFFFFFFFFFF
310
FFFFFFFFFFFFFFFFF000FFFFFFFFFFFFFFFFFFFFFFFFFFFFFFFFFFFFFFFFFFFF
310
FFFFFFFFFFFFFFFFFFFFFFFFFFFFFFFFFFFFFFFFFFFFFFFFFFFFFFFFFFFFFFFF
310
FFFFFFFFFFFFFFFFFFFFFFFFFFFFFFFFFFFFFFFFFFFFFFFFFFFFFFFFFFFFFFFF
310
F000FFFFFFFFFFFFFFFFFFFFFFFFFFFFFFFFFFFFFFFFFFFFFFFFFFFFFFFFFFFF
310
FFFFFFFFFFFFFFFFFFFFFFFFFFFFFFFFFFFFFFFFFFFFFFFFFFFFFFFFFFFFFFFF
310
FFFFFFFFFFFFFFFFFFFFFFFFFFFFFFFFFFFFFFFFFFFFFFFFF000FFFFFFFFFFFF
310
FFFFFFFFFFFFFFFFFFFFFFFFFFFFFFFFFFFFFFFFFFFFFFFFFFFFFFFFFFFFFFFF
310
FFFFFFFFFFFFFFFFFFFFFFFFFFFFFFFFFFFFFFFFFFFFFFFFFFFFFFFFFFFFFFFF
310
FFFFFFFFFFFFFFFFFFFFFFFFFFFFFFFFF000FFFFFFFFFFFFFFFFFFFFFFFFFFFF
310
FFFFFFFFFFFFFFFFFFFFFFFFFFFFFFFFFFFFFFFFFFFFFFFFFFFFFFFFFFFFFFFF
310
FFFFFFFFFFFFFFFFFFFFFFFFFFFFFFFFFFFFFFFFFFFFFFFFFFFFFFFFFFFFFFFF
310
FFFFFFFFFFFFFFFFF000FFFFFFFFFFFFFFFFFFFFFFFFFFFFFFFFFFFFFFFFFFFF
310
FFFFFFFFFFFFFFFFFFFFFFFFFFFFFFFFFFFFFFFFFFFFFFFFFFFFFFFFFFFFFFFF
310
FFFFFFFFFFFFFFFFFFFFFFFFFFFFFFFFFFFFFFFFFFFFFFFFFFFFFFFFFFFFFFFF
310
F000FFFFFFFFFFFFFFFFFFFFFFFFFFFFFFFFFFFFFFFFFFFFFFFFFFFFFFFFFFFF
310
FFFFFFFFFFFFFFFFFFFFFFFFFFFFFFFFFFFFFFFFFFFFFFFFFFFFFFFFFFFFFFFF
310
FFFFFFFFFFFFFFFFFFFFFFFFFFFFFFFFFFFFFFFFFFFFFFFFF000FFFFFFFFFFFF
310
FFFFFFFFFFFFFFFFFFFFFFFFFFFFFFFFFFFFFFFFFFFFFFFFFFFFFFFFFFFFFFFF
310
FFFFFFFFFFFFFFFFFFFFFFFFFFFFFFFFFFFFFFFFFFFFFFFFFFFFFFFFFFFFFFFF
310
FFFFFFFFFFFFFFFFFFFFFFFFFFFFFFFFF000FFFFFFFFFFFFFFFFFFFFFFFFFFFF
310
FFFFFFFFFFFFFFFFFFFFFFFFFFFFFFFFFFFFFFFFFFFFFFFFFFFFFFFFFFFFFFFF
310
FFFFFFFFFFFFFFFFFFFFFFFFFFFFFFFFFFFFFFFFFFFFFFFFFFFFFFFFFFFFFFFF
310
FFFFFFFFFFFFFFFFF000FFFFFFFFFFFFFFFFFFFFFFFFFFFFFFFFFFFFFFFFFFFF
310
FFFFFFFFFFFFFFFFFFFFFFFFFFFFFFFFFFFFFFFFFFFFFFFFFFFFFFFFFFFFFFFF
310
FFFFFFFFFFFFFFFFFFFFFFFFFFFFFFFFFFFFFFFFFFFFFFFFFFFFFFFFFFFFFFFF
310
F000FFFFFFFFFFFFFFFFFFFFFFFFFFFFFFFFFFFFFFFFFFFFFFFFFFFFFFFFFFFF
310
FFFFFFFFFFFFFFFFFFFFFFFFFFFFFFFFFFFFFFFFFFFFFFFFFFFFFFFFFFFFFFFF
310
FFFFFFFFFFFFFFFFFFFFFFFFFFFFFFFFFFFFFFFFFFFFFFFFF000FFFFFFFFFFFF
310
FFFFFFFFFFFFFFFFFFFFFFFFFFFFFFFFFFFFFFFFFFFFFFFFFFFFFFFFFFFFFFFF
310
FFFFFFFFFFFFFFFFFFFFFFFFFFFFFFFFFFFFFFFFFFFFFFFFFFFFFFFFFFFFFFFF
310
FFFFFFFFFFFFFFFFFFFFFFFFFFFFFFFFF0000000000000000000000000000000
310
0000000012020000AF0000804A20004000000000000000000100000000000000
310
616C000800000000E401000070010000020000004B0000001100000000000000
310
00000000BC02000000000000030201424200690063006B00680061006D002000
310
5300630072006900700074002000500072006F00200052006500670075006C00
310
610072000000000000000000000000004200690063006B00680061006D005300
310
63007200690070007400500072006F002D0042006F006C006400000000000000
310
0000000000000000000000000000000000000000000000000000000000000000
310
0000000000000000000000000000000000000000000000000000000000000000
310
0000000000000000000000000000000042006F006C0064000000000000000000
310
0000000000000000000000000000000000000000000000000000000000000000
310
0000000000000000000000000000000000006500730074006C00690063006800
310
0000F1FF01E6F1FF01E6F1FF01E6F1FF01E6F1FF01E6F1FF01E6F1FF01E6F1FF
310
01E6F1FF01E6F1FF01E6F1FF01E6F1FF647600080000000001E6F1FF20FF2020
310
4B00000029000000220000002B000000000000001100000064000000BC020000
310
000000006000000060000000200006FB200020000000004B00E6F1FF20002200
  1
OLE
  0
ENDSEC
  0
SECTION
  2
OBJECTS
  0
DICTIONARY
  5
C
330
0
100
AcDbDictionary
281
     1
  3
ACAD_GROUP
350
D
  3
ACAD_LAYOUT
350
1A
  3
ACAD_MLEADERSTYLE
350
271
  3
ACAD_MLINESTYLE
350
17
  3
ACAD_PLOTSETTINGS
350
19
  3
ACAD_PLOTSTYLENAME
350
E
  3
ACAD_SCALELIST
350
3B
  3
ACAD_TABLESTYLE
350
270
  3
ACAD_VISUALSTYLE
350
2A
  3
AcDbVariableDictionary
350
26E
  0
DICTIONARY
  5
D
102
{ACAD_REACTORS
330
C
102
}
330
C
100
AcDbDictionary
281
     1
  0
DICTIONARY
  5
1A
102
{ACAD_REACTORS
330
C
102
}
330
C
100
AcDbDictionary
281
     1
  3
Layout1
350
1E
  3
Layout2
350
26
  3
Model
350
22
  0
DICTIONARY
  5
271
102
{ACAD_REACTORS
330
C
102
}
330
C
100
AcDbDictionary
281
     1
  0
DICTIONARY
  5
17
102
{ACAD_REACTORS
330
C
102
}
330
C
100
AcDbDictionary
281
     1
  3
Standard
350
18
  0
DICTIONARY
  5
19
102
{ACAD_REACTORS
330
C
102
}
330
C
100
AcDbDictionary
281
     1
  0
ACDBDICTIONARYWDFLT
  5
E
102
{ACAD_REACTORS
330
C
102
}
330
C
100
AcDbDictionary
281
     1
  3
Normal
350
F
100
AcDbDictionaryWithDefault
340
F
  0
DICTIONARY
  5
3B
102
{ACAD_REACTORS
330
C
102
}
330
C
100
AcDbDictionary
281
     1
  3
A0
350
3C
  3
A1
350
3D
  3
A2
350
3E
  3
A3
350
3F
  3
A4
350
40
  3
A5
350
41
  3
A6
350
42
  3
A7
350
43
  3
A8
350
44
  3
A9
350
45
  3
B0
350
46
  3
B1
350
47
  3
B2
350
48
  3
B3
350
49
  3
B4
350
4A
  3
B5
350
4B
  3
B6
350
4C
  3
B7
350
4D
  3
B8
350
4E
  3
B9
350
4F
  3
C0
350
50
  3
C1
350
51
  3
C2
350
52
  3
C3
350
53
  3
C4
350
54
  3
C5
350
55
  3
C6
350
56
  3
C7
350
57
  3
C8
350
58
  3
C9
350
59
  3
D0
350
5A
  3
D1
350
5B
  3
D2
350
5C
  0
DICTIONARY
  5
270
102
{ACAD_REACTORS
330
C
102
}
330
C
100
AcDbDictionary
281
     1
  0
DICTIONARY
  5
2A
102
{ACAD_REACTORS
330
C
102
}
330
C
100
AcDbDictionary
281
     1
  3
2dWireframe
350
2F
  3
3D Hidden
350
31
  3
3dWireframe
350
30
  3
Basic
350
32
  3
Brighten
350
36
  3
ColorChange
350
3A
  3
Conceptual
350
34
  3
Dim
350
35
  3
Facepattern
350
39
  3
Flat
350
2B
  3
FlatWithEdges
350
2C
  3
Gouraud
350
2D
  3
GouraudWithEdges
350
2E
  3
Linepattern
350
38
  3
Realistic
350
33
  3
Thicken
350
37
  0
DICTIONARY
  5
26E
102
{ACAD_REACTORS
330
C
102
}
330
C
100
AcDbDictionary
281
     1
  3
CANNOSCALE
350
26F
  3
PSOLHEIGHT
350
273
  3
PSOLWIDTH
350
272
  0
LAYOUT
  5
1E
102
{ACAD_REACTORS
330
1A
102
}
330
1A
100
AcDbPlotSettings
  1

  2
none_device
  4

  6

 40
0.0
 41
0.0
 42
0.0
 43
0.0
 44
0.0
 45
0.0
 46
0.0
 47
0.0
 48
0.0
 49
0.0
140
0.0
141
0.0
142
1.0
143
1.0
 70
   688
 72
     0
 73
     0
 74
     5
  7

 75
    16
147
1.0
148
0.0
149
0.0
100
AcDbLayout
  1
Layout1
 70
     1
 71
     1
 10
0.0
 20
0.0
 11
420.0
 21
297.0
 12
0.0
 22
0.0
 32
0.0
 14
1.0000000000E+20
 24
1.0000000000E+20
 34
1.0000000000E+20
 15
-1.0000000000E+20
 25
-1.0000000000E+20
 35
-1.0000000000E+20
146
0.0
 13
0.0
 23
0.0
 33
0.0
 16
1.0
 26
0.0
 36
0.0
 17
0.0
 27
1.0
 37
0.0
 76
     0
330
1B
  0
LAYOUT
  5
26
102
{ACAD_REACTORS
330
1A
102
}
330
1A
100
AcDbPlotSettings
  1

  2
none_device
  4

  6

 40
0.0
 41
0.0
 42
0.0
 43
0.0
 44
0.0
 45
0.0
 46
0.0
 47
0.0
 48
0.0
 49
0.0
140
0.0
141
0.0
142
1.0
143
1.0
 70
   688
 72
     0
 73
     0
 74
     5
  7

 75
    16
147
1.0
148
0.0
149
0.0
100
AcDbLayout
  1
Layout2
 70
     1
 71
     2
 10
0.0
 20
0.0
 11
0.0
 21
0.0
 12
0.0
 22
0.0
 32
0.0
 14
0.0
 24
0.0
 34
0.0
 15
0.0
 25
0.0
 35
0.0
146
0.0
 13
0.0
 23
0.0
 33
0.0
 16
1.0
 26
0.0
 36
0.0
 17
0.0
 27
1.0
 37
0.0
 76
     0
330
23
  0
LAYOUT
  5
22
102
{ACAD_REACTORS
330
1A
102
}
330
1A
100
AcDbPlotSettings
  1

  2
none_device
  4

  6

 40
0.0
 41
0.0
 42
0.0
 43
0.0
 44
0.0
 45
0.0
 46
0.0
 47
0.0
 48
0.0
 49
0.0
140
0.0
141
0.0
142
1.0
143
1.0
 70
  1712
 72
     0
 73
     0
 74
     0
  7

 75
     0
147
1.0
148
0.0
149
0.0
100
AcDbLayout
  1
Model
 70
     1
 71
     0
 10
0.0
 20
0.0
 11
297.0
 21
210.0
 12
0.0
 22
0.0
 32
0.0
 14
0.0
 24
0.0
 34
0.0
 15
297.0
 25
210.0
 35
0.0
146
0.0
 13
0.0
 23
0.0
 33
0.0
 16
1.0
 26
0.0
 36
0.0
 17
0.0
 27
1.0
 37
0.0
 76
     0
330
1F
331
29
  0
MLINESTYLE
  5
18
102
{ACAD_REACTORS
330
17
102
}
330
17
100
AcDbMlineStyle
  2
Standard
 70
     0
  3

 62
   256
 51
90.0
 52
90.0
 71
     2
 49
0.5
 62
   256
  6
BYLAYER
 49
-0.5
 62
   256
  6
BYLAYER
  0
ACDBPLACEHOLDER
  5
F
102
{ACAD_REACTORS
330
E
102
}
330
E
  0
SCALE
  5
3C
102
{ACAD_REACTORS
330
3B
102
}
330
3B
100
AcDbScale
 70
     0
300
1:1
140
1.0
141
1.0
290
     1
  0
SCALE
  5
3D
102
{ACAD_REACTORS
330
3B
102
}
330
3B
100
AcDbScale
 70
     0
300
1:2
140
1.0
141
2.0
290
     0
  0
SCALE
  5
3E
102
{ACAD_REACTORS
330
3B
102
}
330
3B
100
AcDbScale
 70
     0
300
1:4
140
1.0
141
4.0
290
     0
  0
SCALE
  5
3F
102
{ACAD_REACTORS
330
3B
102
}
330
3B
100
AcDbScale
 70
     0
300
1:5
140
1.0
141
5.0
290
     0
  0
SCALE
  5
40
102
{ACAD_REACTORS
330
3B
102
}
330
3B
100
AcDbScale
 70
     0
300
1:8
140
1.0
141
8.0
290
     0
  0
SCALE
  5
41
102
{ACAD_REACTORS
330
3B
102
}
330
3B
100
AcDbScale
 70
     0
300
1:10
140
1.0
141
10.0
290
     0
  0
SCALE
  5
42
102
{ACAD_REACTORS
330
3B
102
}
330
3B
100
AcDbScale
 70
     0
300
1:16
140
1.0
141
16.0
290
     0
  0
SCALE
  5
43
102
{ACAD_REACTORS
330
3B
102
}
330
3B
100
AcDbScale
 70
     0
300
1:20
140
1.0
141
20.0
290
     0
  0
SCALE
  5
44
102
{ACAD_REACTORS
330
3B
102
}
330
3B
100
AcDbScale
 70
     0
300
1:30
140
1.0
141
30.0
290
     0
  0
SCALE
  5
45
102
{ACAD_REACTORS
330
3B
102
}
330
3B
100
AcDbScale
 70
     0
300
1:40
140
1.0
141
40.0
290
     0
  0
SCALE
  5
46
102
{ACAD_REACTORS
330
3B
102
}
330
3B
100
AcDbScale
 70
     0
300
1:50
140
1.0
141
50.0
290
     0
  0
SCALE
  5
47
102
{ACAD_REACTORS
330
3B
102
}
330
3B
100
AcDbScale
 70
     0
300
1:100
140
1.0
141
100.0
290
     0
  0
SCALE
  5
48
102
{ACAD_REACTORS
330
3B
102
}
330
3B
100
AcDbScale
 70
     0
300
2:1
140
2.0
141
1.0
290
     0
  0
SCALE
  5
49
102
{ACAD_REACTORS
330
3B
102
}
330
3B
100
AcDbScale
 70
     0
300
4:1
140
4.0
141
1.0
290
     0
  0
SCALE
  5
4A
102
{ACAD_REACTORS
330
3B
102
}
330
3B
100
AcDbScale
 70
     0
300
8:1
140
8.0
141
1.0
290
     0
  0
SCALE
  5
4B
102
{ACAD_REACTORS
330
3B
102
}
330
3B
100
AcDbScale
 70
     0
300
10:1
140
10.0
141
1.0
290
     0
  0
SCALE
  5
4C
102
{ACAD_REACTORS
330
3B
102
}
330
3B
100
AcDbScale
 70
     0
300
100:1
140
100.0
141
1.0
290
     0
  0
SCALE
  5
4D
102
{ACAD_REACTORS
330
3B
102
}
330
3B
100
AcDbScale
 70
     0
300
1/128" = 1'-0"
140
0.0078125
141
12.0
290
     0
  0
SCALE
  5
4E
102
{ACAD_REACTORS
330
3B
102
}
330
3B
100
AcDbScale
 70
     0
300
1/64" = 1'-0"
140
0.015625
141
12.0
290
     0
  0
SCALE
  5
4F
102
{ACAD_REACTORS
330
3B
102
}
330
3B
100
AcDbScale
 70
     0
300
1/32" = 1'-0"
140
0.03125
141
12.0
290
     0
  0
SCALE
  5
50
102
{ACAD_REACTORS
330
3B
102
}
330
3B
100
AcDbScale
 70
     0
300
1/16" = 1'-0"
140
0.0625
141
12.0
290
     0
  0
SCALE
  5
51
102
{ACAD_REACTORS
330
3B
102
}
330
3B
100
AcDbScale
 70
     0
300
3/32" = 1'-0"
140
0.09375
141
12.0
290
     0
  0
SCALE
  5
52
102
{ACAD_REACTORS
330
3B
102
}
330
3B
100
AcDbScale
 70
     0
300
1/8" = 1'-0"
140
0.125
141
12.0
290
     0
  0
SCALE
  5
53
102
{ACAD_REACTORS
330
3B
102
}
330
3B
100
AcDbScale
 70
     0
300
3/16" = 1'-0"
140
0.1875
141
12.0
290
     0
  0
SCALE
  5
54
102
{ACAD_REACTORS
330
3B
102
}
330
3B
100
AcDbScale
 70
     0
300
1/4" = 1'-0"
140
0.25
141
12.0
290
     0
  0
SCALE
  5
55
102
{ACAD_REACTORS
330
3B
102
}
330
3B
100
AcDbScale
 70
     0
300
3/8" = 1'-0"
140
0.375
141
12.0
290
     0
  0
SCALE
  5
56
102
{ACAD_REACTORS
330
3B
102
}
330
3B
100
AcDbScale
 70
     0
300
1/2" = 1'-0"
140
0.5
141
12.0
290
     0
  0
SCALE
  5
57
102
{ACAD_REACTORS
330
3B
102
}
330
3B
100
AcDbScale
 70
     0
300
3/4" = 1'-0"
140
0.75
141
12.0
290
     0
  0
SCALE
  5
58
102
{ACAD_REACTORS
330
3B
102
}
330
3B
100
AcDbScale
 70
     0
300
1" = 1'-0"
140
1.0
141
12.0
290
     0
  0
SCALE
  5
59
102
{ACAD_REACTORS
330
3B
102
}
330
3B
100
AcDbScale
 70
     0
300
1-1/2" = 1'-0"
140
1.5
141
12.0
290
     0
  0
SCALE
  5
5A
102
{ACAD_REACTORS
330
3B
102
}
330
3B
100
AcDbScale
 70
     0
300
3" = 1'-0"
140
3.0
141
12.0
290
     0
  0
SCALE
  5
5B
102
{ACAD_REACTORS
330
3B
102
}
330
3B
100
AcDbScale
 70
     0
300
6" = 1'-0"
140
6.0
141
12.0
290
     0
  0
SCALE
  5
5C
102
{ACAD_REACTORS
330
3B
102
}
330
3B
100
AcDbScale
 70
     0
300
1'-0" = 1'-0"
140
12.0
141
12.0
290
     0
  0
VISUALSTYLE
  5
2F
102
{ACAD_REACTORS
330
2A
102
}
330
2A
100
AcDbVisualStyle
  2
2dWireframe
 70
     4
 71
     0
 72
     2
 73
     0
 90
        0
 40
-0.6
 41
-30.0
 62
     5
 63
     7
 74
     1
 91
        4
 64
     7
 65
   257
 75
     1
175
     1
 42
1.0
 92
        0
 66
   257
 43
1.0
 76
     1
 77
     6
 78
     2
 67
     7
 79
     5
170
     0
171
     0
290
     0
174
     0
 93
        1
 44
0.0
173
     0
291
     0
 45
0.0
1001
ACAD
1000
AcDbSavedByObjectVersion
1070
     0
  0
VISUALSTYLE
  5
31
102
{ACAD_REACTORS
330
2A
102
}
330
2A
100
AcDbVisualStyle
  2
3D Hidden
 70
     6
 71
     1
 72
     2
 73
     2
 90
        0
 40
-0.6
 41
-30.0
 62
     5
 63
     7
 74
     2
 91
        2
 64
     7
 65
   257
 75
     2
175
     1
 42
40.0
 92
        0
 66
   257
 43
1.0
 76
     1
 77
     6
 78
     2
 67
     7
 79
     3
170
     0
171
     0
290
     0
174
     0
 93
        1
 44
0.0
173
     0
291
     0
 45
0.0
1001
ACAD
1000
AcDbSavedByObjectVersion
1070
     0
  0
VISUALSTYLE
  5
30
102
{ACAD_REACTORS
330
2A
102
}
330
2A
100
AcDbVisualStyle
  2
3dWireframe
 70
     5
 71
     0
 72
     2
 73
     0
 90
        0
 40
-0.6
 41
-30.0
 62
     5
 63
     7
 74
     1
 91
        4
 64
     7
 65
   257
 75
     1
175
     1
 42
1.0
 92
        0
 66
   257
 43
1.0
 76
     1
 77
     6
 78
     2
 67
     7
 79
     5
170
     0
171
     0
290
     0
174
     0
 93
        1
 44
0.0
173
     0
291
     0
 45
0.0
1001
ACAD
1000
AcDbSavedByObjectVersion
1070
     0
  0
VISUALSTYLE
  5
32
102
{ACAD_REACTORS
330
2A
102
}
330
2A
100
AcDbVisualStyle
  2
Basic
 70
     7
 71
     1
 72
     0
 73
     1
 90
        0
 40
-0.6
 41
-30.0
 62
     5
 63
     7
 74
     0
 91
        4
 64
     7
 65
   257
 75
     1
175
     1
 42
1.0
 92
        8
 66
     7
 43
1.0
 76
     1
 77
     6
 78
     2
 67
     7
 79
     5
170
     0
171
     0
290
     0
174
     0
 93
        1
 44
0.0
173
     0
291
     1
 45
0.0
1001
ACAD
1000
AcDbSavedByObjectVersion
1070
     0
  0
VISUALSTYLE
  5
36
102
{ACAD_REACTORS
330
2A
102
}
330
2A
100
AcDbVisualStyle
  2
Brighten
 70
    12
 71
     2
 72
     2
 73
     0
 90
        0
 40
-0.6
 41
-30.0
 62
     5
 63
     7
 74
     1
 91
        4
 64
     7
 65
   257
 75
     1
175
     1
 42
1.0
 92
        8
 66
     7
 43
1.0
 76
     1
 77
     6
 78
     2
 67
     7
 79
     5
170
     0
171
     0
290
     0
174
     0
 93
        1
 44
50.0
173
     0
291
     1
 45
0.0
1001
ACAD
1000
AcDbSavedByObjectVersion
1070
     0
  0
VISUALSTYLE
  5
3A
102
{ACAD_REACTORS
330
2A
102
}
330
2A
100
AcDbVisualStyle
  2
ColorChange
 70
    16
 71
     2
 72
     2
 73
     3
 90
        0
 40
-0.6
 41
-30.0
 62
     5
 63
     8
 74
     1
 91
        4
 64
     7
 65
   257
 75
     1
175
     1
 42
1.0
 92
        8
 66
     8
 43
1.0
 76
     1
 77
     6
 78
     2
 67
     7
 79
     5
170
     0
171
     0
290
     0
174
     0
 93
        1
 44
0.0
173
     0
291
     1
 45
0.0
1001
ACAD
1000
AcDbSavedByObjectVersion
1070
     0
  0
VISUALSTYLE
  5
34
102
{ACAD_REACTORS
330
2A
102
}
330
2A
100
AcDbVisualStyle
  2
Conceptual
 70
     9
 71
     3
 72
     2
 73
     0
 90
        0
 40
-0.6
 41
-30.0
 62
     5
 63
     7
 74
     2
 91
        2
 64
     7
 65
   257
 75
     1
175
     1
 42
40.0
 92
        8
 66
     7
 43
1.0
 76
     1
 77
     6
 78
     2
 67
     7
 79
     3
170
     0
171
     0
290
     0
174
     0
 93
        1
 44
0.0
173
     0
291
     0
 45
0.0
1001
ACAD
1000
AcDbSavedByObjectVersion
1070
     0
  0
VISUALSTYLE
  5
35
102
{ACAD_REACTORS
330
2A
102
}
330
2A
100
AcDbVisualStyle
  2
Dim
 70
    11
 71
     2
 72
     2
 73
     0
 90
        0
 40
-0.6
 41
-30.0
 62
     5
 63
     7
 74
     1
 91
        4
 64
     7
 65
   257
 75
     1
175
     1
 42
1.0
 92
        8
 66
     7
 43
1.0
 76
     1
 77
     6
 78
     2
 67
     7
 79
     5
170
     0
171
     0
290
     0
174
     0
 93
        1
 44
-50.0
173
     0
291
     1
 45
0.0
1001
ACAD
1000
AcDbSavedByObjectVersion
1070
     0
  0
VISUALSTYLE
  5
39
102
{ACAD_REACTORS
330
2A
102
}
330
2A
100
AcDbVisualStyle
  2
Facepattern
 70
    15
 71
     2
 72
     2
 73
     0
 90
        0
 40
-0.6
 41
-30.0
 62
     5
 63
     7
 74
     1
 91
        4
 64
     7
 65
   257
 75
     1
175
     1
 42
1.0
 92
        8
 66
     7
 43
1.0
 76
     1
 77
     6
 78
     2
 67
     7
 79
     5
170
     0
171
     0
290
     0
174
     0
 93
        1
 44
0.0
173
     0
291
     1
 45
0.0
1001
ACAD
1000
AcDbSavedByObjectVersion
1070
     0
  0
VISUALSTYLE
  5
2B
102
{ACAD_REACTORS
330
2A
102
}
330
2A
100
AcDbVisualStyle
  2
Flat
 70
     0
 71
     2
 72
     1
 73
     1
 90
        2
 40
-0.6
 41
30.0
 62
     5
 63
     7
 74
     0
 91
        4
 64
     7
 65
   257
 75
     1
175
     1
 42
1.0
 92
        8
 66
     7
 43
1.0
 76
     1
 77
     6
 78
     2
 67
     7
 79
     5
170
     0
171
     0
290
     0
174
     0
 93
       13
 44
0.0
173
     0
291
     1
 45
0.0
1001
ACAD
1000
AcDbSavedByObjectVersion
1070
     0
  0
VISUALSTYLE
  5
2C
102
{ACAD_REACTORS
330
2A
102
}
330
2A
100
AcDbVisualStyle
  2
FlatWithEdges
 70
     1
 71
     2
 72
     1
 73
     1
 90
        2
 40
-0.6
 41
30.0
 62
     5
 63
     7
 74
     1
 91
        4
 64
     7
 65
   257
 75
     1
175
     1
 42
1.0
 92
        0
 66
   257
 43
1.0
 76
     1
 77
     6
 78
     2
 67
     7
 79
     5
170
     0
171
     0
290
     0
174
     0
 93
       13
 44
0.0
173
     0
291
     1
 45
0.0
1001
ACAD
1000
AcDbSavedByObjectVersion
1070
     0
  0
VISUALSTYLE
  5
2D
102
{ACAD_REACTORS
330
2A
102
}
330
2A
100
AcDbVisualStyle
  2
Gouraud
 70
     2
 71
     2
 72
     2
 73
     1
 90
        2
 40
-0.6
 41
30.0
 62
     5
 63
     7
 74
     0
 91
        4
 64
     7
 65
   257
 75
     1
175
     1
 42
1.0
 92
        0
 66
     7
 43
1.0
 76
     1
 77
     6
 78
     2
 67
     7
 79
     5
170
     0
171
     0
290
     0
174
     0
 93
       13
 44
0.0
173
     0
291
     1
 45
0.0
1001
ACAD
1000
AcDbSavedByObjectVersion
1070
     0
  0
VISUALSTYLE
  5
2E
102
{ACAD_REACTORS
330
2A
102
}
330
2A
100
AcDbVisualStyle
  2
GouraudWithEdges
 70
     3
 71
     2
 72
     2
 73
     1
 90
        2
 40
-0.6
 41
30.0
 62
     5
 63
     7
 74
     1
 91
        4
 64
     7
 65
   257
 75
     1
175
     1
 42
1.0
 92
        0
 66
   257
 43
1.0
 76
     1
 77
     6
 78
     2
 67
     7
 79
     5
170
     0
171
     0
290
     0
174
     0
 93
       13
 44
0.0
173
     0
291
     1
 45
0.0
1001
ACAD
1000
AcDbSavedByObjectVersion
1070
     0
  0
VISUALSTYLE
  5
38
102
{ACAD_REACTORS
330
2A
102
}
330
2A
100
AcDbVisualStyle
  2
Linepattern
 70
    14
 71
     2
 72
     2
 73
     0
 90
        0
 40
-0.6
 41
-30.0
 62
     5
 63
     7
 74
     1
 91
        4
 64
     7
 65
   257
 75
     7
175
     7
 42
1.0
 92
        8
 66
     7
 43
1.0
 76
     1
 77
     6
 78
     2
 67
     7
 79
     5
170
     0
171
     0
290
     0
174
     0
 93
        1
 44
0.0
173
     0
291
     1
 45
0.0
1001
ACAD
1000
AcDbSavedByObjectVersion
1070
     0
  0
VISUALSTYLE
  5
33
102
{ACAD_REACTORS
330
2A
102
}
330
2A
100
AcDbVisualStyle
  2
Realistic
 70
     8
 71
     2
 72
     2
 73
     0
 90
        0
 40
-0.6
 41
-30.0
 62
     5
 63
     7
 74
     1
 91
        0
 64
     7
 65
   257
 75
     1
175
     1
 42
1.0
 92
        8
 66
     8
 43
1.0
 76
     1
 77
     6
 78
     2
 67
     7
 79
     5
170
     0
171
     0
290
     0
174
     0
 93
       13
 44
0.0
173
     0
291
     0
 45
0.0
1001
ACAD
1000
AcDbSavedByObjectVersion
1070
     0
  0
VISUALSTYLE
  5
37
102
{ACAD_REACTORS
330
2A
102
}
330
2A
100
AcDbVisualStyle
  2
Thicken
 70
    13
 71
     2
 72
     2
 73
     0
 90
        0
 40
-0.6
 41
-30.0
 62
     5
 63
     7
 74
     1
 91
        4
 64
     7
 65
   257
 75
     1
175
     1
 42
1.0
 92
       12
 66
     7
 43
1.0
 76
     1
 77
     6
 78
     2
 67
     7
 79
     5
170
     0
171
     0
290
     0
174
     0
 93
        1
 44
0.0
173
     0
291
     1
 45
0.0
1001
ACAD
1000
AcDbSavedByObjectVersion
1070
     0
  0
DICTIONARYVAR
  5
26F
102
{ACAD_REACTORS
330
26E
102
}
330
26E
100
DictionaryVariables
280
     0
  1
1:1
  0
DICTIONARYVAR
  5
273
102
{ACAD_REACTORS
330
26E
102
}
330
26E
100
DictionaryVariables
280
     0
  1
80.000000
  0
DICTIONARYVAR
  5
272
102
{ACAD_REACTORS
330
26E
102
}
330
26E
100
DictionaryVariables
280
     0
  1
5.000000
  0
ENDSEC
  0
EOF
