  0
SECTION
  2
HEADER
  9
$ACADVER
  1
AC1015
  9
$ACADMAINTVER
 70
     6
  9
$DWGCODEPAGE
  3
ANSI_1252
  9
$INSBASE
 10
0.0
 20
0.0
 30
0.0
  9
$EXTMIN
 10
0.0
 20
0.0
 30
0.0
  9
$EXTMAX
 10
297.0
 20
210.0
 30
0.0
  9
$LIMMIN
 10
0.0
 20
0.0
  9
$LIMMAX
 10
297.0
 20
210.0
  9
$ORTHOMODE
 70
     0
  9
$REGENMODE
 70
     1
  9
$FILLMODE
 70
     1
  9
$QTEXTMODE
 70
     0
  9
$MIRRTEXT
 70
     1
  9
$LTSCALE
 40
1.0
  9
$ATTMODE
 70
     1
  9
$TEXTSIZE
 40
2.0
  9
$TRACEWID
 40
1.0
  9
$TEXTSTYLE
  7
STANDARD
  9
$CLAYER
  8
0
  9
$CELTYPE
  6
ByLayer
  9
$CECOLOR
 62
   256
  9
$CELTSCALE
 40
1.0
  9
$DISPSILH
 70
     0
  9
$DIMSCALE
 40
1.0
  9
$DIMASZ
 40
3.0
  9
$DIMEXO
 40
0.0
  9
$DIMDLI
 40
3.75
  9
$DIMRND
 40
0.0
  9
$DIMDLE
 40
0.0
  9
$DIMEXE
 40
1.0
  9
$DIMTP
 40
0.0
  9
$DIMTM
 40
0.0
  9
$DIMTXT
 40
2.0
  9
$DIMCEN
 40
2.5
  9
$DIMTSZ
 40
0.0
  9
$DIMTOL
 70
     0
  9
$DIMLIM
 70
     0
  9
$DIMTIH
 70
     1
  9
$DIMTOH
 70
     1
  9
$DIMSE1
 70
     0
  9
$DIMSE2
 70
     0
  9
$DIMTAD
 70
     1
  9
$DIMZIN
 70
     0
  9
$DIMBLK
  1

  9
$DIMASO
 70
     1
  9
$DIMSHO
 70
     1
  9
$DIMPOST
  1

  9
$DIMAPOST
  1

  9
$DIMALT
 70
     0
  9
$DIMALTD
 70
     3
  9
$DIMALTF
 40
0.0393700787
  9
$DIMLFAC
 40
1.0
  9
$DIMTOFL
 70
     1
  9
$DIMTVP
 40
0.0
  9
$DIMTIX
 70
     0
  9
$DIMSOXD
 70
     0
  9
$DIMSAH
 70
     0
  9
$DIMBLK1
  1

  9
$DIMBLK2
  1

  9
$DIMSTYLE
  2
ISO-25
  9
$DIMCLRD
 70
     0
  9
$DIMCLRE
 70
     0
  9
$DIMCLRT
 70
     0
  9
$DIMTFAC
 40
1.0
  9
$DIMGAP
 40
1.524
  9
$DIMJUST
 70
     0
  9
$DIMSD1
 70
     0
  9
$DIMSD2
 70
     0
  9
$DIMTOLJ
 70
     0
  9
$DIMTZIN
 70
     0
  9
$DIMALTZ
 70
     0
  9
$DIMALTTZ
 70
     0
  9
$DIMUPT
 70
     0
  9
$DIMDEC
 70
     2
  9
$DIMTDEC
 70
     2
  9
$DIMALTU
 70
     2
  9
$DIMALTTD
 70
     3
  9
$DIMTXSTY
  7
STANDARD
  9
$DIMAUNIT
 70
     0
  9
$DIMADEC
 70
     0
  9
$DIMALTRND
 40
0.0
  9
$DIMAZIN
 70
     0
  9
$DIMDSEP
 70
    44
  9
$DIMATFIT
 70
     3
  9
$DIMFRAC
 70
     0
  9
$DIMLDRBLK
  1

  9
$DIMLUNIT
 70
     2
  9
$DIMLWD
 70
    -2
  9
$DIMLWE
 70
    -2
  9
$DIMTMOVE
 70
     0
  9
$LUNITS
 70
     2
  9
$LUPREC
 70
     2
  9
$SKETCHINC
 40
1.0
  9
$FILLETRAD
 40
10.0
  9
$AUNITS
 70
     0
  9
$AUPREC
 70
     0
  9
$MENU
  1
.
  9
$ELEVATION
 40
0.0
  9
$PELEVATION
 40
0.0
  9
$THICKNESS
 40
0.0
  9
$LIMCHECK
 70
     0
  9
$CHAMFERA
 40
10.0
  9
$CHAMFERB
 40
10.0
  9
$CHAMFERC
 40
20.0
  9
$CHAMFERD
 40
0.0
  9
$SKPOLY
 70
     0
  9
$TDCREATE
 40
2454910.403886065
  9
$TDUCREATE
 40
2454910.362219398
  9
$TDUPDATE
 40
2454910.403886077
  9
$TDUUPDATE
 40
2454910.36221941
  9
$TDINDWG
 40
0.0000000116
  9
$TDUSRTIMER
 40
0.0000000116
  9
$USRTIMER
 70
     1
  9
$ANGBASE
 50
0.0
  9
$ANGDIR
 70
     0
  9
$PDMODE
 70
     0
  9
$PDSIZE
 40
-1.0
  9
$PLINEWID
 40
0.0
  9
$SPLFRAME
 70
     0
  9
$SPLINETYPE
 70
     6
  9
$SPLINESEGS
 70
     8
  9
$HANDSEED
  5
303
  9
$SURFTAB1
 70
     6
  9
$SURFTAB2
 70
     6
  9
$SURFTYPE
 70
     6
  9
$SURFU
 70
     6
  9
$SURFV
 70
     6
  9
$UCSBASE
  2

  9
$UCSNAME
  2

  9
$UCSORG
 10
0.0
 20
0.0
 30
0.0
  9
$UCSXDIR
 10
1.0
 20
0.0
 30
0.0
  9
$UCSYDIR
 10
0.0
 20
1.0
 30
0.0
  9
$UCSORTHOREF
  2

  9
$UCSORTHOVIEW
 70
     0
  9
$UCSORGTOP
 10
0.0
 20
0.0
 30
0.0
  9
$UCSORGBOTTOM
 10
0.0
 20
0.0
 30
0.0
  9
$UCSORGLEFT
 10
0.0
 20
0.0
 30
0.0
  9
$UCSORGRIGHT
 10
0.0
 20
0.0
 30
0.0
  9
$UCSORGFRONT
 10
0.0
 20
0.0
 30
0.0
  9
$UCSORGBACK
 10
0.0
 20
0.0
 30
0.0
  9
$PUCSBASE
  2

  9
$PUCSNAME
  2

  9
$PUCSORG
 10
0.0
 20
0.0
 30
0.0
  9
$PUCSXDIR
 10
1.0
 20
0.0
 30
0.0
  9
$PUCSYDIR
 10
0.0
 20
1.0
 30
0.0
  9
$PUCSORTHOREF
  2

  9
$PUCSORTHOVIEW
 70
     0
  9
$PUCSORGTOP
 10
0.0
 20
0.0
 30
0.0
  9
$PUCSORGBOTTOM
 10
0.0
 20
0.0
 30
0.0
  9
$PUCSORGLEFT
 10
0.0
 20
0.0
 30
0.0
  9
$PUCSORGRIGHT
 10
0.0
 20
0.0
 30
0.0
  9
$PUCSORGFRONT
 10
0.0
 20
0.0
 30
0.0
  9
$PUCSORGBACK
 10
0.0
 20
0.0
 30
0.0
  9
$USERI1
 70
     0
  9
$USERI2
 70
     0
  9
$USERI3
 70
     0
  9
$USERI4
 70
     0
  9
$USERI5
 70
     0
  9
$USERR1
 40
0.0
  9
$USERR2
 40
0.0
  9
$USERR3
 40
0.0
  9
$USERR4
 40
0.0
  9
$USERR5
 40
0.0
  9
$WORLDVIEW
 70
     1
  9
$SHADEDGE
 70
     3
  9
$SHADEDIF
 70
    70
  9
$TILEMODE
 70
     1
  9
$MAXACTVP
 70
    64
  9
$PINSBASE
 10
0.0
 20
0.0
 30
0.0
  9
$PLIMCHECK
 70
     0
  9
$PEXTMIN
 10
1.0000000000E+20
 20
1.0000000000E+20
 30
1.0000000000E+20
  9
$PEXTMAX
 10
-1.0000000000E+20
 20
-1.0000000000E+20
 30
-1.0000000000E+20
  9
$PLIMMIN
 10
0.0
 20
0.0
  9
$PLIMMAX
 10
420.0
 20
297.0
  9
$UNITMODE
 70
     0
  9
$VISRETAIN
 70
     1
  9
$PLINEGEN
 70
     0
  9
$PSLTSCALE
 70
     1
  9
$TREEDEPTH
 70
  3020
  9
$CMLSTYLE
  2
Standard
  9
$CMLJUST
 70
     0
  9
$CMLSCALE
 40
20.0
  9
$PROXYGRAPHICS
 70
     1
  9
$MEASUREMENT
 70
     1
  9
$CELWEIGHT
370
    -1
  9
$ENDCAPS
280
     0
  9
$JOINSTYLE
280
     0
  9
$LWDISPLAY
290
     1
  9
$INSUNITS
 70
     4
  9
$HYPERLINKBASE
  1

  9
$STYLESHEET
  1

  9
$XEDIT
290
     1
  9
$CEPSNTYPE
380
     0
  9
$PSTYLEMODE
290
     1
  9
$FINGERPRINTGUID
  2
{F6F8CEB7-87B6-4A01-82E6-94585B9CD7D1}
  9
$VERSIONGUID
  2
{FAEB1C32-E019-11D5-929B-00C0DF256EC4}
  9
$EXTNAMES
290
     1
  9
$PSVPSCALE
 40
0.0
  9
$OLESTARTUP
290
     0
  0
ENDSEC
  0
SECTION
  2
CLASSES
  0
CLASS
  1
ACDBDICTIONARYWDFLT
  2
AcDbDictionaryWithDefault
  3
ObjectDBX Classes
 90
        0
280
     0
281
     0
  0
CLASS
  1
VISUALSTYLE
  2
AcDbVisualStyle
  3
ObjectDBX Classes
 90
     4095
280
     0
281
     0
  0
CLASS
  1
SCALE
  2
AcDbScale
  3
ObjectDBX Classes
 90
     1153
280
     0
281
     0
  0
CLASS
  1
DICTIONARYVAR
  2
AcDbDictionaryVar
  3
ObjectDBX Classes
 90
        0
280
     0
281
     0
  0
CLASS
  1
ACDBPLACEHOLDER
  2
AcDbPlaceHolder
  3
ObjectDBX Classes
 90
        0
280
     0
281
     0
  0
CLASS
  1
LAYOUT
  2
AcDbLayout
  3
ObjectDBX Classes
 90
        0
280
     0
281
     0
  0
ENDSEC
  0
SECTION
  2
TABLES
  0
TABLE
  2
VPORT
  5
8
330
0
100
AcDbSymbolTable
 70
     1
  0
VPORT
  5
29
330
8
100
AcDbSymbolTableRecord
100
AcDbViewportTableRecord
  2
*Active
 70
     0
 10
0.0
 20
0.0
 11
1.0
 21
1.0
 12
148.5
 22
105.0
 13
0.0
 23
0.0
 14
10.0
 24
10.0
 15
10.0
 25
10.0
 16
0.0
 26
0.0
 36
1.0
 17
0.0
 27
0.0
 37
0.0
 40
210.0
 41
1.4142857143
 42
50.0
 43
0.0
 44
0.0
 50
0.0
 51
0.0
 71
     0
 72
  2000
 73
     1
 74
     3
 75
     0
 76
     0
 77
     0
 78
     0
281
     0
 65
     1
110
0.0
120
0.0
130
0.0
111
1.0
121
0.0
131
0.0
112
0.0
122
1.0
132
0.0
 79
     0
146
0.0
  0
ENDTAB
  0
TABLE
  2
LTYPE
  5
5
330
0
100
AcDbSymbolTable
 70
     8
  0
LTYPE
  5
14
330
5
100
AcDbSymbolTableRecord
100
AcDbLinetypeTableRecord
  2
ByBlock
 70
     0
  3

 72
    65
 73
     0
 40
0.0
  0
LTYPE
  5
15
330
5
100
AcDbSymbolTableRecord
100
AcDbLinetypeTableRecord
  2
ByLayer
 70
     0
  3

 72
    65
 73
     0
 40
0.0
  0
LTYPE
  5
16
330
5
100
AcDbSymbolTableRecord
100
AcDbLinetypeTableRecord
  2
Continuous
 70
     0
  3
Solid line
 72
    65
 73
     0
 40
0.0
  0
LTYPE
  5
5D
330
5
100
AcDbSymbolTableRecord
100
AcDbLinetypeTableRecord
  2
SLD-Durchgehend
 70
     0
  3
SolidWorks Line Style
 72
    65
 73
     0
 40
0.0
  0
LTYPE
  5
5E
330
5
100
AcDbSymbolTableRecord
100
AcDbLinetypeTableRecord
  2
SLD-Gestrichelt
 70
     0
  3
SolidWorks Line Style
 72
    65
 73
     2
 40
1.905
 49
1.27
 74
     0
 49
-0.635
 74
     0
  0
LTYPE
  5
5F
330
5
100
AcDbSymbolTableRecord
100
AcDbLinetypeTableRecord
  2
SLD-Phantom
 70
     0
  3
SolidWorks Line Style
 72
    65
 73
     6
 40
12.7
 49
6.35
 74
     0
 49
-1.27
 74
     0
 49
1.27
 74
     0
 49
-1.27
 74
     0
 49
1.27
 74
     0
 49
-1.27
 74
     0
  0
LTYPE
  5
60
330
5
100
AcDbSymbolTableRecord
100
AcDbLinetypeTableRecord
  2
SLD-Kette
 70
     0
  3
SolidWorks Line Style
 72
    65
 73
     4
 40
10.16
 49
6.35
 74
     0
 49
-1.27
 74
     0
 49
1.27
 74
     0
 49
-1.27
 74
     0
  0
LTYPE
  5
61
330
5
100
AcDbSymbolTableRecord
100
AcDbLinetypeTableRecord
  2
SLD-Punktstrich
 70
     0
  3
SolidWorks Line Style
 72
    65
 73
     4
 40
19.05
 49
15.24
 74
     0
 49
-1.27
 74
     0
 49
1.27
 74
     0
 49
-1.27
 74
     0
  0
LTYPE
  5
62
330
5
100
AcDbSymbolTableRecord
100
AcDbLinetypeTableRecord
  2
SLD-Naht
 70
     0
  3
SolidWorks Line Style
 72
    65
 73
     2
 40
0.635
 49
0.0
 74
     0
 49
-0.635
 74
     0
  0
LTYPE
  5
63
330
5
100
AcDbSymbolTableRecord
100
AcDbLinetypeTableRecord
  2
SLD-Dicke-Dünne-Kette
 70
     0
  3
SolidWorks Line Style
 72
    65
 73
     4
 40
10.16
 49
6.35
 74
     0
 49
-1.27
 74
     0
 49
1.27
 74
     0
 49
-1.27
 74
     0
  0
ENDTAB
  0
TABLE
  2
LAYER
  5
2
330
0
100
AcDbSymbolTable
 70
     5
  0
LAYER
  5
10
330
2
100
AcDbSymbolTableRecord
100
AcDbLayerTableRecord
  2
0
 70
     0
 62
     7
  6
Continuous
370
    -3
390
F
  0
LAYER
  5
64
330
2
100
AcDbSymbolTableRecord
100
AcDbLayerTableRecord
  2
FORMAT
 70
     0
 62
     7
  6
SLD-Durchgehend
370
    -3
390
F
  0
LAYER
  5
65
330
2
100
AcDbSymbolTableRecord
100
AcDbLayerTableRecord
  2
VERMASSUNG
 70
     0
 62
     7
  6
SLD-Durchgehend
370
    -3
390
F
  0
LAYER
  5
66
330
2
100
AcDbSymbolTableRecord
100
AcDbLayerTableRecord
  2
KOPF_DÜNN
 70
     0
 62
     7
  6
SLD-Durchgehend
370
    -3
390
F
  0
LAYER
  5
67
330
2
100
AcDbSymbolTableRecord
100
AcDbLayerTableRecord
  2
KOPF_DICK
 70
     0
 62
     7
  6
SLD-Durchgehend
370
    15
390
F
  0
ENDTAB
  0
TABLE
  2
STYLE
  5
3
330
0
100
AcDbSymbolTable
 70
     2
  0
STYLE
  5
11
330
3
100
AcDbSymbolTableRecord
100
AcDbTextStyleTableRecord
  2
STANDARD
 70
     0
 40
0.0
 41
1.0
 50
0.0
 71
     0
 42
2.5
  3
ISOCPEUR.TTF
  4

1001
ACAD
1000
ISOCPEUR
1071
       34
  0
STYLE
  5
68
330
3
100
AcDbSymbolTableRecord
100
AcDbTextStyleTableRecord
  2
SLDTEXTSTYLE0
 70
     0
 40
0.0
 41
1.0
 50
0.0
 71
     0
 42
0.2
  3
ISOCPEUR.TTF
  4

1001
ACAD
1000
ISOCPEUR
1071
      290
  0
ENDTAB
  0
TABLE
  2
VIEW
  5
6
330
0
100
AcDbSymbolTable
 70
     0
  0
ENDTAB
  0
TABLE
  2
UCS
  5
7
330
0
100
AcDbSymbolTable
 70
     0
  0
ENDTAB
  0
TABLE
  2
APPID
  5
9
330
0
100
AcDbSymbolTable
 70
     1
  0
APPID
  5
12
330
9
100
AcDbSymbolTableRecord
100
AcDbRegAppTableRecord
  2
ACAD
 70
     0
  0
ENDTAB
  0
TABLE
  2
DIMSTYLE
  5
A
330
0
100
AcDbSymbolTable
 70
     4
100
AcDbDimStyleTable
  0
DIMSTYLE
105
27
330
A
100
AcDbSymbolTableRecord
100
AcDbDimStyleTableRecord
  2
ISO-25
 70
     0
 41
2.5
 42
0.625
 43
3.75
 44
1.25
 73
     0
 74
     0
 77
     1
 78
     8
140
2.5
141
2.5
143
0.0393700787
147
0.625
171
     3
172
     1
271
     2
272
     2
274
     3
278
    44
283
     0
284
     8
340
11
  0
DIMSTYLE
105
23A
102
{ACAD_REACTORS
330
239
330
246
330
250
330
25A
102
}
330
A
100
AcDbSymbolTableRecord
100
AcDbDimStyleTableRecord
  2
SLDDIMSTYLE0
 70
     0
 41
3.0
 44
0.0
 45
0.000000001
 73
     0
 74
     0
 77
     1
 78
    12
140
2.0
147
0.5
173
     1
271
     2
272
     3
284
    12
340
68
  0
DIMSTYLE
105
265
102
{ACAD_REACTORS
330
264
102
}
330
A
100
AcDbSymbolTableRecord
100
AcDbDimStyleTableRecord
  2
SLDDIMSTYLE1
 70
     0
 41
3.0
 44
0.0
 73
     0
 74
     0
 77
     1
 78
    12
140
2.0
147
0.5
173
     1
272
     3
284
    12
340
68
  0
DIMSTYLE
105
2E5
102
{ACAD_REACTORS
330
2E4
102
}
330
A
100
AcDbSymbolTableRecord
100
AcDbDimStyleTableRecord
  2
SLDDIMSTYLE2
 70
     0
 41
3.0
 44
0.0
 45
0.000000001
 73
     0
 74
     0
 77
     1
 78
    12
140
2.0
147
0.5
173
     1
271
     2
272
     3
284
    12
340
68
  0
ENDTAB
  0
TABLE
  2
BLOCK_RECORD
  5
1
330
0
100
AcDbSymbolTable
 70
     8
  0
BLOCK_RECORD
  5
1F
330
1
100
AcDbSymbolTableRecord
100
AcDbBlockTableRecord
  2
*Model_Space
340
22
  0
BLOCK_RECORD
  5
1B
330
1
100
AcDbSymbolTableRecord
100
AcDbBlockTableRecord
  2
*Paper_Space
340
1E
  0
BLOCK_RECORD
  5
23
330
1
100
AcDbSymbolTableRecord
100
AcDbBlockTableRecord
  2
*Paper_Space0
340
26
  0
BLOCK_RECORD
  5
23B
330
1
100
AcDbSymbolTableRecord
100
AcDbBlockTableRecord
  2
*D1
340
0
  0
BLOCK_RECORD
  5
247
330
1
100
AcDbSymbolTableRecord
100
AcDbBlockTableRecord
  2
*D2
340
0
  0
BLOCK_RECORD
  5
251
330
1
100
AcDbSymbolTableRecord
100
AcDbBlockTableRecord
  2
*D3
340
0
  0
BLOCK_RECORD
  5
25B
330
1
100
AcDbSymbolTableRecord
100
AcDbBlockTableRecord
  2
*D4
340
0
  0
BLOCK_RECORD
  5
266
330
1
100
AcDbSymbolTableRecord
100
AcDbBlockTableRecord
  2
*D5
340
0
  0
BLOCK_RECORD
  5
2E6
330
1
100
AcDbSymbolTableRecord
100
AcDbBlockTableRecord
  2
*D6
340
0
  0
BLOCK_RECORD
  5
2F0
330
1
100
AcDbSymbolTableRecord
100
AcDbBlockTableRecord
  2
SW_CENTERMARKSYMBOL_0
340
0
102
{BLKREFS
331
2FB
102
}
  0
ENDTAB
  0
ENDSEC
  0
SECTION
  2
BLOCKS
  0
BLOCK
  5
20
330
1F
100
AcDbEntity
  8
0
100
AcDbBlockBegin
  2
*Model_Space
 70
     0
 10
0.0
 20
0.0
 30
0.0
  3
*Model_Space
  1

  0
ENDBLK
  5
21
330
1F
100
AcDbEntity
  8
0
100
AcDbBlockEnd
  0
BLOCK
  5
1C
330
1B
100
AcDbEntity
 67
     1
  8
0
100
AcDbBlockBegin
  2
*Paper_Space
 70
     0
 10
0.0
 20
0.0
 30
0.0
  3
*Paper_Space
  1

  0
ENDBLK
  5
1D
330
1B
100
AcDbEntity
 67
     1
  8
0
100
AcDbBlockEnd
  0
BLOCK
  5
24
330
23
100
AcDbEntity
  8
0
100
AcDbBlockBegin
  2
*Paper_Space0
 70
     0
 10
0.0
 20
0.0
 30
0.0
  3
*Paper_Space0
  1

  0
ENDBLK
  5
25
330
23
100
AcDbEntity
  8
0
100
AcDbBlockEnd
  0
BLOCK
  5
23C
330
23B
100
AcDbEntity
  8
0
100
AcDbBlockBegin
  2
*D1
 70
     1
 10
0.0
 20
0.0
 30
0.0
  3
*D1
  1

  0
SOLID
  5
23E
330
23B
100
AcDbEntity
  8
VERMASSUNG
100
AcDbTrace
 10
159.9560879178
 20
125.0876247084
 30
0.0
 11
159.5060879178
 21
122.0876247084
 31
0.0
 12
160.4060879178
 22
122.0876247084
 32
0.0
 13
160.4060879178
 23
122.0876247084
 33
0.0
  0
SOLID
  5
23F
330
23B
100
AcDbEntity
  8
VERMASSUNG
100
AcDbTrace
 10
159.9560879178
 20
85.0876247084
 30
0.0
 11
160.4060879178
 21
88.0876247084
 31
0.0
 12
159.5060879178
 22
88.0876247084
 32
0.0
 13
159.5060879178
 23
88.0876247084
 33
0.0
  0
LINE
  5
240
330
23B
100
AcDbEntity
  8
VERMASSUNG
100
AcDbLine
 10
185.5438812781
 20
125.0876247084
 30
0.0
 11
158.9560879178
 21
125.0876247084
 31
0.0
  0
LINE
  5
241
330
23B
100
AcDbEntity
  8
VERMASSUNG
100
AcDbLine
 10
185.5438812781
 20
85.0876247084
 30
0.0
 11
158.9560879178
 21
85.0876247084
 31
0.0
  0
LINE
  5
242
330
23B
100
AcDbEntity
  8
VERMASSUNG
100
AcDbLine
 10
159.9560879178
 20
125.0876247084
 30
0.0
 11
159.9560879178
 21
85.0876247084
 31
0.0
  0
MTEXT
  5
243
330
23B
100
AcDbEntity
  8
VERMASSUNG
100
AcDbMText
 10
157.1560881411
 20
98.7845182568
 30
0.0
 40
2.0
 41
0.0
 71
     1
 72
     1
  1
HSK 
  7
SLDTEXTSTYLE0
 11
-7.044195017643634E-15
 21
1.0
 31
0.0
 73
     1
 44
1.0
  0
MTEXT
  5
244
330
23B
100
AcDbEntity
  8
VERMASSUNG
100
AcDbMText
 10
157.3560880924
 20
104.7845183089
 30
0.0
 40
2.0
 41
0.0
 71
     1
 72
     1
  1
%%c
  7
SLDTEXTSTYLE0
 11
-7.044195017643634E-15
 21
1.0
 31
0.0
 73
     1
 44
1.0
  0
MTEXT
  5
245
330
23B
100
AcDbEntity
  8
VERMASSUNG
100
AcDbMText
 10
157.3560878014
 20
108.3930909987
 30
0.0
 40
2.0
 41
0.0
 71
     1
 72
     1
  1
40
  7
SLDTEXTSTYLE0
 11
-7.044195017643634E-15
 21
1.0
 31
0.0
 73
     1
 44
1.0
  0
ENDBLK
  5
23D
330
23B
100
AcDbEntity
  8
0
100
AcDbBlockEnd
  0
BLOCK
  5
248
330
247
100
AcDbEntity
  8
0
100
AcDbBlockBegin
  2
*D2
 70
     1
 10
0.0
 20
0.0
 30
0.0
  3
*D2
  1

  0
SOLID
  5
24A
330
247
100
AcDbEntity
  8
VERMASSUNG
100
AcDbTrace
 10
165.3438812781
 20
138.3310509121
 30
0.0
 11
168.3438812781
 21
137.8810509121
 31
0.0
 12
168.3438812781
 22
138.7810509121
 32
0.0
 13
168.3438812781
 23
138.7810509121
 33
0.0
  0
SOLID
  5
24B
330
247
100
AcDbEntity
  8
VERMASSUNG
100
AcDbTrace
 10
240.2438812781
 20
138.3310509121
 30
0.0
 11
237.2438812781
 21
138.7810509121
 31
0.0
 12
237.2438812781
 22
137.8810509121
 32
0.0
 13
237.2438812781
 23
137.8810509121
 33
0.0
  0
LINE
  5
24C
330
247
100
AcDbEntity
  8
VERMASSUNG
100
AcDbLine
 10
165.3438812781
 20
117.0176247084
 30
0.0
 11
165.3438812781
 21
139.3310509121
 31
0.0
  0
LINE
  5
24D
330
247
100
AcDbEntity
  8
VERMASSUNG
100
AcDbLine
 10
240.2438812781
 20
78.0876247084
 30
0.0
 11
240.2438812781
 21
139.3310509121
 31
0.0
  0
LINE
  5
24E
330
247
100
AcDbEntity
  8
VERMASSUNG
100
AcDbLine
 10
165.3438812781
 20
138.3310509121
 30
0.0
 11
240.2438812781
 21
138.3310509121
 31
0.0
  0
MTEXT
  5
24F
330
247
100
AcDbEntity
  8
VERMASSUNG
100
AcDbMText
 10
200.2946262781
 20
140.9310510285
 30
0.0
 40
2.0
 41
0.0
 71
     1
 72
     1
  1
74.9
  7
SLDTEXTSTYLE0
 73
     1
 44
1.0
  0
ENDBLK
  5
249
330
247
100
AcDbEntity
  8
0
100
AcDbBlockEnd
  0
BLOCK
  5
252
330
251
100
AcDbEntity
  8
0
100
AcDbBlockBegin
  2
*D3
 70
     1
 10
0.0
 20
0.0
 30
0.0
  3
*D3
  1

  0
SOLID
  5
254
330
251
100
AcDbEntity
  8
VERMASSUNG
100
AcDbTrace
 10
185.2438812781
 20
132.3310509121
 30
0.0
 11
188.2438812781
 21
131.8810509121
 31
0.0
 12
188.2438812781
 22
132.7810509121
 32
0.0
 13
188.2438812781
 23
132.7810509121
 33
0.0
  0
SOLID
  5
255
330
251
100
AcDbEntity
  8
VERMASSUNG
100
AcDbTrace
 10
240.2438812781
 20
132.3310509121
 30
0.0
 11
237.2438812781
 21
132.7810509121
 31
0.0
 12
237.2438812781
 22
131.8810509121
 32
0.0
 13
237.2438812781
 23
131.8810509121
 33
0.0
  0
LINE
  5
256
330
251
100
AcDbEntity
  8
VERMASSUNG
100
AcDbLine
 10
185.2438812781
 20
124.7876247084
 30
0.0
 11
185.2438812781
 21
133.3310509121
 31
0.0
  0
LINE
  5
257
330
251
100
AcDbEntity
  8
VERMASSUNG
100
AcDbLine
 10
240.2438812781
 20
78.0876247084
 30
0.0
 11
240.2438812781
 21
133.3310509121
 31
0.0
  0
LINE
  5
258
330
251
100
AcDbEntity
  8
VERMASSUNG
100
AcDbLine
 10
185.2438812781
 20
132.3310509121
 30
0.0
 11
240.2438812781
 21
132.3310509121
 31
0.0
  0
MTEXT
  5
259
330
251
100
AcDbEntity
  8
VERMASSUNG
100
AcDbMText
 10
211.3440053104
 20
134.9310510285
 30
0.0
 40
2.0
 41
0.0
 71
     1
 72
     1
  1
55
  7
SLDTEXTSTYLE0
 73
     1
 44
1.0
  0
ENDBLK
  5
253
330
251
100
AcDbEntity
  8
0
100
AcDbBlockEnd
  0
BLOCK
  5
25C
330
25B
100
AcDbEntity
  8
0
100
AcDbBlockBegin
  2
*D4
 70
     1
 10
0.0
 20
0.0
 30
0.0
  3
*D4
  1

  0
SOLID
  5
25E
330
25B
100
AcDbEntity
  8
VERMASSUNG
100
AcDbTrace
 10
247.3949662649
 20
105.0876247084
 30
0.0
 11
246.9449662649
 21
102.0876247084
 31
0.0
 12
247.8449662649
 22
102.0876247084
 32
0.0
 13
247.8449662649
 23
102.0876247084
 33
0.0
  0
SOLID
  5
25F
330
25B
100
AcDbEntity
  8
VERMASSUNG
100
AcDbTrace
 10
247.3949662649
 20
78.0876247084
 30
0.0
 11
247.8449662649
 21
81.0876247084
 31
0.0
 12
246.9449662649
 22
81.0876247084
 32
0.0
 13
246.9449662649
 23
81.0876247084
 33
0.0
  0
LINE
  5
260
330
25B
100
AcDbEntity
  8
VERMASSUNG
100
AcDbLine
 10
240.165522824
 20
105.0876247084
 30
0.0
 11
248.3949662649
 21
105.0876247084
 31
0.0
  0
LINE
  5
261
330
25B
100
AcDbEntity
  8
VERMASSUNG
100
AcDbLine
 10
240.2438812781
 20
78.0876247084
 30
0.0
 11
248.3949662649
 21
78.0876247084
 31
0.0
  0
LINE
  5
262
330
25B
100
AcDbEntity
  8
VERMASSUNG
100
AcDbLine
 10
247.3949662649
 20
105.0876247084
 30
0.0
 11
247.3949662649
 21
78.0876247084
 31
0.0
  0
MTEXT
  5
263
330
25B
100
AcDbEntity
  8
VERMASSUNG
100
AcDbMText
 10
244.7949661485
 20
90.1877487406
 30
0.0
 40
2.0
 41
0.0
 71
     1
 72
     1
  1
27
  7
SLDTEXTSTYLE0
 11
-7.044195017643634E-15
 21
1.0
 31
0.0
 73
     1
 44
1.0
  0
ENDBLK
  5
25D
330
25B
100
AcDbEntity
  8
0
100
AcDbBlockEnd
  0
BLOCK
  5
267
330
266
100
AcDbEntity
  8
0
100
AcDbBlockBegin
  2
*D5
 70
     1
 10
0.0
 20
0.0
 30
0.0
  3
*D5
  1

  0
ARC
  5
269
330
266
100
AcDbEntity
  8
VERMASSUNG
100
AcDbCircle
 10
240.2438812781
 20
62.8119560725
 30
0.0
 40
47.72173890696354
100
AcDbArc
 50
90.0
 51
92.9927054514
  0
ARC
  5
26A
330
266
100
AcDbEntity
  8
VERMASSUNG
100
AcDbCircle
 10
240.2438812781
 20
62.8119560725
 30
0.0
 40
47.72173890696354
100
AcDbArc
 50
80.8668927759
 51
90.0
  0
ARC
  5
26B
330
266
100
AcDbEntity
  8
VERMASSUNG
100
AcDbCircle
 10
240.2438812781
 20
62.8119560725
 30
0.0
 40
47.72173890696354
100
AcDbArc
 50
92.9927054514
 51
100.1834226609
  0
SOLID
  5
26C
330
266
100
AcDbEntity
  8
VERMASSUNG
100
AcDbTrace
 10
240.2438812781
 20
110.5336949795
 30
0.0
 11
243.2282797272
 21
109.9897594159
 31
0.0
 12
243.2565269045
 22
110.8893160273
 32
0.0
 13
243.2565269045
 23
110.8893160273
 33
0.0
  0
SOLID
  5
26D
330
266
100
AcDbEntity
  8
VERMASSUNG
100
AcDbTrace
 10
237.7523857728
 20
110.4686115831
 30
0.0
 11
234.7252822694
 21
110.6664609688
 31
0.0
 12
234.8004557089
 22
109.7696059337
 32
0.0
 13
234.8004557089
 23
109.7696059337
 33
0.0
  0
LINE
  5
26E
330
266
100
AcDbEntity
  8
VERMASSUNG
100
AcDbLine
 10
240.2438812781
 20
105.0876247084
 30
0.0
 11
240.2438812781
 21
111.5336949795
 31
0.0
  0
LINE
  5
26F
330
266
100
AcDbEntity
  8
VERMASSUNG
100
AcDbLine
 10
238.0820451504
 20
104.1629757281
 30
0.0
 11
237.7001769564
 21
111.4672477728
 31
0.0
  0
MTEXT
  5
270
330
266
100
AcDbEntity
  8
VERMASSUNG
100
AcDbMText
 10
243.9230234543
 20
113.015846142
 30
0.0
 40
2.0
 41
0.0
 71
     1
 72
     1
  1
3°
  7
SLDTEXTSTYLE0
 11
0.9951059220864945
 21
-0.09881398599584751
 31
0.0
 73
     1
 44
1.0
  0
ENDBLK
  5
268
330
266
100
AcDbEntity
  8
0
100
AcDbBlockEnd
  0
BLOCK
  5
2E7
330
2E6
100
AcDbEntity
  8
0
100
AcDbBlockBegin
  2
*D6
 70
     1
 10
0.0
 20
0.0
 30
0.0
  3
*D6
  1

  0
SOLID
  5
2E9
330
2E6
100
AcDbEntity
  8
VERMASSUNG
100
AcDbTrace
 10
58.4632688555
 20
78.1104221681
 30
0.0
 11
58.9132688555
 21
81.1104221681
 31
0.0
 12
58.0132688555
 22
81.1104221681
 32
0.0
 13
58.0132688555
 23
81.1104221681
 33
0.0
  0
SOLID
  5
2EA
330
2E6
100
AcDbEntity
  8
VERMASSUNG
100
AcDbTrace
 10
58.4632688555
 20
128.1104221681
 30
0.0
 11
58.0132688555
 21
125.1104221681
 31
0.0
 12
58.9132688555
 22
125.1104221681
 32
0.0
 13
58.9132688555
 23
125.1104221681
 33
0.0
  0
LINE
  5
2EB
330
2E6
100
AcDbEntity
  8
VERMASSUNG
100
AcDbLine
 10
87.2765417798
 20
78.1104221681
 30
0.0
 11
57.4632688555
 21
78.1104221681
 31
0.0
  0
LINE
  5
2EC
330
2E6
100
AcDbEntity
  8
VERMASSUNG
100
AcDbLine
 10
87.2765417798
 20
128.1104221681
 30
0.0
 11
57.4632688555
 21
128.1104221681
 31
0.0
  0
LINE
  5
2ED
330
2E6
100
AcDbEntity
  8
VERMASSUNG
100
AcDbLine
 10
58.4632688555
 20
78.1104221681
 30
0.0
 11
58.4632688555
 21
128.1104221681
 31
0.0
  0
MTEXT
  5
2EE
330
2E6
100
AcDbEntity
  8
VERMASSUNG
100
AcDbMText
 10
55.8632687972
 20
99.9063430552
 30
0.0
 40
2.0
 41
0.0
 71
     1
 72
     1
  1
%%c
  7
SLDTEXTSTYLE0
 11
6.123233995736766E-17
 21
1.0
 31
0.0
 73
     1
 44
1.0
  0
MTEXT
  5
2EF
330
2E6
100
AcDbEntity
  8
VERMASSUNG
100
AcDbMText
 10
55.863268739
 20
103.5147493456
 30
0.0
 40
2.0
 41
0.0
 71
     1
 72
     1
  1
50
  7
SLDTEXTSTYLE0
 11
6.123233995736766E-17
 21
1.0
 31
0.0
 73
     1
 44
1.0
  0
ENDBLK
  5
2E8
330
2E6
100
AcDbEntity
  8
0
100
AcDbBlockEnd
  0
BLOCK
  5
2F1
330
2F0
100
AcDbEntity
  8
0
100
AcDbBlockBegin
  2
SW_CENTERMARKSYMBOL_0
 70
     0
 10
0.0
 20
0.0
 30
0.0
  3
SW_CENTERMARKSYMBOL_0
  1

  0
LINE
  5
2F3
330
2F0
100
AcDbEntity
  8
VERMASSUNG
 62
     0
100
AcDbLine
 10
0.0
 20
0.0
 30
0.0
 11
0.0
 21
2.5
 31
0.0
  0
LINE
  5
2F4
330
2F0
100
AcDbEntity
  8
VERMASSUNG
 62
     0
100
AcDbLine
 10
0.0
 20
0.0
 30
0.0
 11
-2.5
 21
0.0
 31
0.0
  0
LINE
  5
2F5
330
2F0
100
AcDbEntity
  8
VERMASSUNG
 62
     0
100
AcDbLine
 10
0.0
 20
0.0
 30
0.0
 11
0.0
 21
-2.5
 31
0.0
  0
LINE
  5
2F6
330
2F0
100
AcDbEntity
  8
VERMASSUNG
 62
     0
100
AcDbLine
 10
0.0
 20
0.0
 30
0.0
 11
2.5
 21
0.0
 31
0.0
  0
LINE
  5
2F7
330
2F0
100
AcDbEntity
  8
VERMASSUNG
 62
     0
100
AcDbLine
 10
0.0
 20
5.0
 30
0.0
 11
0.0
 21
22.5
 31
0.0
  0
LINE
  5
2F8
330
2F0
100
AcDbEntity
  8
VERMASSUNG
 62
     0
100
AcDbLine
 10
-5.0
 20
0.0
 30
0.0
 11
-22.5
 21
0.0
 31
0.0
  0
LINE
  5
2F9
330
2F0
100
AcDbEntity
  8
VERMASSUNG
 62
     0
100
AcDbLine
 10
0.0
 20
-5.0
 30
0.0
 11
0.0
 21
-22.5
 31
0.0
  0
LINE
  5
2FA
330
2F0
100
AcDbEntity
  8
VERMASSUNG
 62
     0
100
AcDbLine
 10
5.0
 20
0.0
 30
0.0
 11
22.5
 21
0.0
 31
0.0
  0
ENDBLK
  5
2F2
330
2F0
100
AcDbEntity
  8
0
100
AcDbBlockEnd
  0
ENDSEC
  0
SECTION
  2
ENTITIES
  0
MTEXT
  5
69
330
1F
100
AcDbEntity
  8
KOPF_DÜNN
100
AcDbMText
 10
13.8892156294
 20
23.8770940835
 30
0.0
 40
3.0
 41
0.0
 71
     1
 72
     1
  1
HA4.KVB.LUA.055
  7
SLDTEXTSTYLE0
 73
     1
 44
1.0
  0
MTEXT
  5
6A
330
1F
100
AcDbEntity
  8
VERMASSUNG
100
AcDbMText
 10
13.9329988022
 20
28.9162328764
 30
0.0
 40
3.0
 41
0.0
 71
     1
 72
     1
  1
Klemmhalter links_Turning tool left 93° /35°
  7
SLDTEXTSTYLE0
 73
     1
 44
1.0
  0
MTEXT
  5
6B
330
1F
100
AcDbEntity
  8
VERMASSUNG
100
AcDbMText
 10
98.8601118557
 20
13.8584013966
 30
0.0
 40
2.0
 41
0.0
 71
     1
 72
     1
  1
Datum: 26.02.2009
  7
SLDTEXTSTYLE0
 73
     1
 44
1.0
  0
MTEXT
  5
6C
330
1F
100
AcDbEntity
  8
VERMASSUNG
100
AcDbMText
 10
13.933048693
 20
18.0701447943
 30
0.0
 40
2.0
 41
0.0
 71
     1
 72
     1
  1
DIN 69893 HSK 40 A ICTM / VC.. 16 04..
  7
SLDTEXTSTYLE0
 73
     1
 44
1.0
  0
MTEXT
  5
6D
330
1F
100
AcDbEntity
  8
VERMASSUNG
100
AcDbMText
 10
13.9808475933
 20
13.9309619479
 30
0.0
 40
2.0
 41
0.0
 71
     1
 72
     1
  1
Gewicht: 326g
  7
SLDTEXTSTYLE0
 73
     1
 44
1.0
  0
LINE
  5
6E
330
1F
100
AcDbEntity
  8
0
  6
SLD-Durchgehend
 62
     7
370
    15
100
AcDbLine
 10
233.4613715935
 20
92.9351540601
 30
0.0
 11
233.53716635
 21
92.9351540601
 31
0.0
  0
LINE
  5
6F
330
1F
100
AcDbEntity
  8
0
  6
SLD-Durchgehend
 62
     7
370
    15
100
AcDbLine
 10
234.1703949202
 20
91.0671724325
 30
0.0
 11
234.0778140057
 21
91.0671724325
 31
0.0
  0
LINE
  5
70
330
1F
100
AcDbEntity
  8
0
  6
SLD-Durchgehend
 62
     7
370
    15
100
AcDbLine
 10
235.1938178468
 20
93.3027489429
 30
0.0
 11
235.2863615084
 21
93.3027489429
 31
0.0
  0
LINE
  5
71
330
1F
100
AcDbEntity
  8
0
  6
SLD-Durchgehend
 62
     7
370
    15
100
AcDbLine
 10
234.7167012919
 20
94.8104726469
 30
0.0
 11
234.6661602784
 21
94.8104726469
 31
0.0
  0
LINE
  5
72
330
1F
100
AcDbEntity
  8
0
  6
SLD-Durchgehend
 62
     7
370
    15
100
AcDbLine
 10
234.6661602784
 20
89.5604731834
 30
0.0
 11
234.7167012919
 21
89.5604731834
 31
0.0
  0
LINE
  5
73
330
1F
100
AcDbEntity
  8
0
  6
SLD-Durchgehend
 62
     7
370
    15
100
AcDbLine
 10
235.9234122265
 20
91.4347673153
 30
0.0
 11
235.8289612163
 21
91.4347673153
 31
0.0
  0
LINE
  5
74
330
1F
100
AcDbEntity
  8
0
  6
SLD-Durchgehend
 62
     7
370
    15
100
AcDbLine
 10
185.5438812924
 20
85.0876251554
 30
0.0
 11
193.193881743
 21
85.0876251554
 31
0.0
  0
LINE
  5
75
330
1F
100
AcDbEntity
  8
0
  6
SLD-Durchgehend
 62
     7
370
    15
100
AcDbLine
 10
193.209408753
 20
125.0876242613
 30
0.0
 11
185.5438812924
 21
125.0876242613
 31
0.0
  0
ARC
  5
76
330
1F
100
AcDbEntity
  8
0
  6
SLD-Durchgehend
 62
     7
370
    15
100
AcDbCircle
 10
185.5438812781
 20
85.3876247084
 30
0.0
 40
0.2999999999999972
100
AcDbArc
 50
180.0
 51
270.0
  0
ARC
  5
77
330
1F
100
AcDbEntity
  8
0
  6
SLD-Durchgehend
 62
     7
370
    15
100
AcDbCircle
 10
185.5438812781
 20
124.7876247084
 30
0.0
 40
0.2999999999999972
100
AcDbArc
 50
90.0
 51
180.0
  0
ARC
  5
78
330
1F
100
AcDbEntity
  8
0
  6
SLD-Durchgehend
 62
     7
370
    15
100
AcDbCircle
 10
206.1938812781
 20
87.5876247084
 30
0.0
 40
1.000000000000006
100
AcDbArc
 50
90.0
 51
143.1137328946
  0
ARC
  5
79
330
1F
100
AcDbEntity
  8
0
  6
SLD-Durchgehend
 62
     7
370
    15
100
AcDbCircle
 10
206.1938812781
 20
122.5876247084
 30
0.0
 40
1.0
100
AcDbArc
 50
216.8998129703
 51
270.0
  0
LINE
  5
7A
330
1F
100
AcDbEntity
  8
0
  6
SLD-Durchgehend
 62
     7
370
    15
100
AcDbLine
 10
206.1938820112
 20
88.5876247978
 30
0.0
 11
219.476553582
 21
88.5876247978
 31
0.0
  0
LINE
  5
7B
330
1F
100
AcDbEntity
  8
0
  6
SLD-Durchgehend
 62
     7
370
    15
100
AcDbLine
 10
219.476553582
 20
121.587624619
 30
0.0
 11
206.1938820112
 21
121.587624619
 31
0.0
  0
ARC
  5
7C
330
1F
100
AcDbEntity
  8
0
  6
SLD-Durchgehend
 62
     7
370
    15
100
AcDbCircle
 10
184.7438745254
 20
89.6339175549
 30
0.0
 40
0.6000067526677203
100
AcDbArc
 50
33.5571153394
 51
90.0
  0
ARC
  5
7D
330
1F
100
AcDbEntity
  8
0
  6
SLD-Durchgehend
 62
     7
370
    15
100
AcDbCircle
 10
184.7438745254
 20
120.5413318618
 30
0.0
 40
0.6000067526677203
100
AcDbArc
 50
270.0
 51
326.4428846606
  0
LINE
  5
7E
330
1F
100
AcDbEntity
  8
0
  6
SLD-Durchgehend
 62
     7
370
    15
100
AcDbLine
 10
183.2438811831
 20
89.9839241376
 30
0.0
 11
184.100593178
 21
90.2134793198
 31
0.0
  0
LINE
  5
7F
330
1F
100
AcDbEntity
  8
0
  6
SLD-Durchgehend
 62
     7
370
    15
100
AcDbLine
 10
184.100593178
 20
119.961770097
 30
0.0
 11
183.2438811831
 21
120.1913252791
 31
0.0
  0
LINE
  5
80
330
1F
100
AcDbEntity
  8
0
  6
SLD-Durchgehend
 62
     7
370
    15
100
AcDbLine
 10
176.4279482592
 20
119.8498456126
 30
0.0
 11
168.9438810278
 21
119.4748923501
 31
0.0
  0
LINE
  5
81
330
1F
100
AcDbEntity
  8
0
  6
SLD-Durchgehend
 62
     7
370
    15
100
AcDbLine
 10
183.2438811831
 20
120.1913252791
 30
0.0
 11
182.0091486148
 21
120.1294649711
 31
0.0
  0
LINE
  5
82
330
1F
100
AcDbEntity
  8
0
  6
SLD-Durchgehend
 62
     7
370
    15
100
AcDbLine
 10
182.0101446643
 20
90.0457350856
 30
0.0
 11
183.2438811831
 21
89.9839241376
 31
0.0
  0
LINE
  5
83
330
1F
100
AcDbEntity
  8
0
  6
SLD-Durchgehend
 62
     7
370
    15
100
AcDbLine
 10
171.4438814375
 20
90.5751062876
 30
0.0
 11
176.4284111265
 21
90.3253805211
 31
0.0
  0
ARC
  5
84
330
1F
100
AcDbEntity
  8
0
  6
SLD-Durchgehend
 62
     7
370
    15
100
AcDbCircle
 10
184.2558863676
 20
89.6339175549
 30
0.0
 40
0.600006752667717
100
AcDbArc
 50
90.0
 51
105.0
  0
ARC
  5
85
330
1F
100
AcDbEntity
  8
0
  6
SLD-Durchgehend
 62
     7
370
    15
100
AcDbCircle
 10
184.2558863676
 20
120.5413318618
 30
0.0
 40
0.60000675266771
100
AcDbArc
 50
255.0
 51
270.0
  0
LINE
  5
86
330
1F
100
AcDbEntity
  8
0
  6
SLD-Durchgehend
 62
     7
370
    15
100
AcDbLine
 10
184.2558863278
 20
90.2339246443
 30
0.0
 11
184.7438745023
 21
90.2339246443
 31
0.0
  0
LINE
  5
87
330
1F
100
AcDbEntity
  8
0
  6
SLD-Durchgehend
 62
     7
370
    15
100
AcDbLine
 10
184.7438745023
 20
119.9413247725
 30
0.0
 11
184.2558863278
 21
119.9413247725
 31
0.0
  0
ARC
  5
88
330
1F
100
AcDbEntity
  8
0
  6
SLD-Durchgehend
 62
     7
370
    15
100
AcDbCircle
 10
168.0438812781
 20
118.8676247084
 30
0.0
 40
0.9000000000000199
100
AcDbArc
 50
270.0
 51
311.1792132368
  0
ARC
  5
89
330
1F
100
AcDbEntity
  8
0
  6
SLD-Durchgehend
 62
     7
370
    15
100
AcDbCircle
 10
170.5438812781
 20
91.3666247084
 30
0.0
 40
0.9000000000000057
100
AcDbArc
 50
29.8499024808
 51
90.0
  0
LINE
  5
8A
330
1F
100
AcDbEntity
  8
0
  6
SLD-Durchgehend
 62
     7
370
    15
100
AcDbLine
 10
166.2938808728
 20
117.9676249942
 30
0.0
 11
165.3438815553
 21
117.0176247453
 31
0.0
  0
LINE
  5
8B
330
1F
100
AcDbEntity
  8
0
  6
SLD-Durchgehend
 62
     7
370
    15
100
AcDbLine
 10
168.043880694
 20
117.9676249942
 30
0.0
 11
166.2938808728
 21
117.9676249942
 31
0.0
  0
LINE
  5
8C
330
1F
100
AcDbEntity
  8
0
  6
SLD-Durchgehend
 62
     7
370
    15
100
AcDbLine
 10
166.2938808728
 20
92.266624639
 30
0.0
 11
170.5438811038
 21
92.266624639
 31
0.0
  0
LINE
  5
8D
330
1F
100
AcDbEntity
  8
0
  6
SLD-Durchgehend
 62
     7
370
    15
100
AcDbLine
 10
165.3438815553
 20
93.2166248878
 30
0.0
 11
166.2938808728
 21
92.266624639
 31
0.0
  0
ARC
  5
8E
330
1F
100
AcDbEntity
  8
0
  6
SLD-Durchgehend
 62
     7
370
    15
100
AcDbCircle
 10
219.4765542901
 20
122.5876247084
 30
0.0
 40
1.000000000000034
100
AcDbArc
 50
270.0
 51
345.0
  0
ARC
  5
8F
330
1F
100
AcDbEntity
  8
0
  6
SLD-Durchgehend
 62
     7
370
    15
100
AcDbCircle
 10
219.4765542901
 20
87.5876247084
 30
0.0
 40
0.9999999999999919
100
AcDbArc
 50
84.6274457982
 51
88.7003549532
  0
LINE
  5
90
330
1F
100
AcDbEntity
  8
0
  6
SLD-Durchgehend
 62
     7
370
    15
100
AcDbLine
 10
220.6458067227
 20
123.0876239335
 30
0.0
 11
220.4424803782
 21
122.3288065141
 31
0.0
  0
LINE
  5
91
330
1F
100
AcDbEntity
  8
0
  6
SLD-Durchgehend
 62
     7
370
    15
100
AcDbLine
 10
224.8089639176
 20
123.0876239335
 30
0.0
 11
220.6458067227
 21
123.0876239335
 31
0.0
  0
LWPOLYLINE
  5
92
330
1F
100
AcDbEntity
  8
0
  6
SLD-Durchgehend
 62
     7
370
    15
100
AcDbPolyline
 90
        3
 70
   128
 43
0.0
 10
227.2767154206
 20
92.4926612845
 10
227.4130126167
 20
92.4787147289
 10
227.4306406904
 20
92.4748562595
  0
LINE
  5
93
330
1F
100
AcDbEntity
  8
0
  6
SLD-Durchgehend
 62
     7
370
    15
100
AcDbLine
 10
229.7696983147
 20
91.1756733751
 30
0.0
 11
229.9017673064
 21
91.0021167567
 31
0.0
  0
LINE
  5
94
330
1F
100
AcDbEntity
  8
0
  6
SLD-Durchgehend
 62
     7
370
    15
100
AcDbLine
 10
229.9112295438
 20
91.0091063326
 30
0.0
 11
230.0867391456
 21
90.7839134654
 31
0.0
  0
ARC
  5
95
330
1F
100
AcDbEntity
  8
0
  6
SLD-Durchgehend
 62
     7
370
    15
100
AcDbCircle
 10
239.052118884
 20
93.6795361178
 30
0.0
 40
0.3975324536864636
100
AcDbArc
 50
2.9831168786
 51
37.9256773776
  0
LINE
  5
96
330
1F
100
AcDbEntity
  8
0
  6
SLD-Durchgehend
 62
     7
370
    15
100
AcDbLine
 10
240.2448793579
 20
78.4789955562
 30
0.0
 11
239.4491126466
 21
93.7002243793
 31
0.0
  0
ARC
  5
97
330
1F
100
AcDbEntity
  8
0
  6
SLD-Durchgehend
 62
     7
370
    15
100
AcDbCircle
 10
239.859199174
 20
78.4486758307
 30
0.0
 40
0.3868701202858605
100
AcDbArc
 50
216.5968125726
 51
4.4949855191
  0
LINE
  5
98
330
1F
100
AcDbEntity
  8
0
  6
SLD-Durchgehend
 62
     7
370
    15
100
AcDbLine
 10
230.1874747205
 20
90.2289849093
 30
0.0
 11
239.5486002494
 21
78.2180315202
 31
0.0
  0
ARC
  5
99
330
1F
100
AcDbEntity
  8
0
  6
SLD-Durchgehend
 62
     7
370
    15
100
AcDbCircle
 10
230.5010462768
 20
90.4733218003
 30
0.0
 40
0.3975269012085122
100
AcDbArc
 50
182.9830090388
 51
217.9259414604
  0
LINE
  5
9A
330
1F
100
AcDbEntity
  8
0
  6
SLD-Durchgehend
 62
     7
370
    15
100
AcDbLine
 10
229.3082913089
 20
105.6738629324
 30
0.0
 11
230.1040580202
 21
90.452634575
 31
0.0
  0
ARC
  5
9B
330
1F
100
AcDbEntity
  8
0
  6
SLD-Durchgehend
 62
     7
370
    15
100
AcDbCircle
 10
229.6939723261
 20
105.7041803316
 30
0.0
 40
0.3868707687382892
100
AcDbArc
 50
36.5971489098
 51
184.4946323825
  0
LINE
  5
9C
330
1F
100
AcDbEntity
  8
0
  6
SLD-Durchgehend
 62
     7
370
    15
100
AcDbLine
 10
239.3656959463
 20
93.9238749763
 30
0.0
 11
230.0045704175
 21
105.934826852
 31
0.0
  0
LINE
  5
9D
330
1F
100
AcDbEntity
  8
0
  6
SLD-Durchgehend
 62
     7
370
    15
100
AcDbLine
 10
230.2037728656
 20
90.2405565923
 30
0.0
 11
239.5461415578
 21
78.2536732351
 31
0.0
  0
ARC
  5
9E
330
1F
100
AcDbEntity
  8
0
  6
SLD-Durchgehend
 62
     7
370
    15
100
AcDbCircle
 10
239.8449718545
 20
78.4867944752
 30
0.0
 40
0.3790053545802334
100
AcDbArc
 50
217.9582370517
 51
3.1336131739
  0
LINE
  5
9F
330
1F
100
AcDbEntity
  8
0
  6
SLD-Durchgehend
 62
     7
370
    15
100
AcDbLine
 10
240.2234105099
 20
78.5075126534
 30
0.0
 11
239.4292382229
 21
93.6982387995
 31
0.0
  0
ARC
  5
A0
330
1F
100
AcDbEntity
  8
0
  6
SLD-Durchgehend
 62
     7
370
    15
100
AcDbCircle
 10
239.0491923029
 20
93.6784120919
 30
0.0
 40
0.3805627407720527
100
AcDbArc
 50
2.9863700894
 51
37.9221760699
  0
LINE
  5
A1
330
1F
100
AcDbEntity
  8
0
  6
SLD-Durchgehend
 62
     7
370
    15
100
AcDbLine
 10
239.3493978012
 20
93.912302362
 30
0.0
 11
230.0070291091
 21
105.8991857774
 31
0.0
  0
ARC
  5
A2
330
1F
100
AcDbEntity
  8
0
  6
SLD-Durchgehend
 62
     7
370
    15
100
AcDbCircle
 10
229.7081992117
 20
105.666063505
 30
0.0
 40
0.3790056746511491
100
AcDbArc
 50
37.9583972318
 51
183.1333925455
  0
LINE
  5
A3
330
1F
100
AcDbEntity
  8
0
  6
SLD-Durchgehend
 62
     7
370
    15
100
AcDbLine
 10
229.3297601569
 20
105.6453467665
 30
0.0
 11
230.1239324439
 21
90.4546201548
 31
0.0
  0
ARC
  5
A4
330
1F
100
AcDbEntity
  8
0
  6
SLD-Durchgehend
 62
     7
370
    15
100
AcDbCircle
 10
230.503978364
 20
90.4744468624
 30
0.0
 40
0.3805627407720264
100
AcDbArc
 50
182.9863700894
 51
217.9221760699
  0
LINE
  5
A5
330
1F
100
AcDbEntity
  8
0
  6
SLD-Durchgehend
 62
     7
370
    15
100
AcDbLine
 10
230.8208448518
 20
102.5327519366
 30
0.0
 11
229.6930132139
 21
105.6652344034
 31
0.0
  0
LINE
  5
A6
330
1F
100
AcDbEntity
  8
0
  6
SLD-Durchgehend
 62
     7
370
    15
100
AcDbLine
 10
230.8208448518
 20
102.5327519366
 30
0.0
 11
230.8864174116
 21
101.2785160767
 31
0.0
  0
LINE
  5
A7
330
1F
100
AcDbEntity
  8
0
  6
SLD-Durchgehend
 62
     7
370
    15
100
AcDbLine
 10
230.6095910896
 20
90.5223524516
 30
0.0
 11
230.4871855009
 21
90.474507617
 31
0.0
  0
LINE
  5
A8
330
1F
100
AcDbEntity
  8
0
  6
SLD-Durchgehend
 62
     7
370
    15
100
AcDbLine
 10
231.2912745107
 20
98.6977930499
 30
0.0
 11
231.6813049544
 21
91.2373623198
 31
0.0
  0
ARC
  5
A9
330
1F
100
AcDbEntity
  8
0
  6
SLD-Durchgehend
 62
     7
370
    15
100
AcDbCircle
 10
232.2871656275
 20
98.7523142549
 30
0.0
 40
0.9973824132909819
100
AcDbArc
 50
37.9582038495
 51
183.1335952564
  0
LINE
  5
AA
330
1F
100
AcDbEntity
  8
0
  6
SLD-Durchgehend
 62
     7
370
    15
100
AcDbLine
 10
237.6617593396
 20
93.4788229262
 30
0.0
 11
233.0735614229
 21
99.3657906858
 31
0.0
  0
ARC
  5
AB
330
1F
100
AcDbEntity
  8
0
  6
SLD-Durchgehend
 62
     7
370
    15
100
AcDbCircle
 10
236.8717994411
 20
92.8633425873
 30
0.0
 40
1.001425328646328
100
AcDbArc
 50
2.98535758
 51
37.9231755202
  0
LINE
  5
AC
330
1F
100
AcDbEntity
  8
0
  6
SLD-Durchgehend
 62
     7
370
    15
100
AcDbLine
 10
238.2618998814
 20
85.4550654387
 30
0.0
 11
237.8718657125
 21
92.9154975658
 31
0.0
  0
ARC
  5
AD
330
1F
100
AcDbEntity
  8
0
  6
SLD-Durchgehend
 62
     7
370
    15
100
AcDbCircle
 10
237.2660058214
 20
85.4005485563
 30
0.0
 40
0.9973851158138939
100
AcDbArc
 50
217.9583298149
 51
3.1333380743
  0
LINE
  5
AE
330
1F
100
AcDbEntity
  8
0
  6
SLD-Durchgehend
 62
     7
370
    15
100
AcDbLine
 10
231.8914113272
 20
90.674036028
 30
0.0
 11
236.4796092439
 21
84.7870687341
 31
0.0
  0
ARC
  5
AF
330
1F
100
AcDbEntity
  8
0
  6
SLD-Durchgehend
 62
     7
370
    15
100
AcDbCircle
 10
232.6813728552
 20
91.2895168885
 30
0.0
 40
1.001426934572772
100
AcDbArc
 50
182.9853293104
 51
217.923141759
  0
CIRCLE
  5
B0
330
1F
100
AcDbEntity
  8
0
  6
SLD-Durchgehend
 62
     7
370
    15
100
AcDbCircle
 10
234.7822641291
 20
92.0720676153
 30
0.0
 40
3.047177861030631
  0
LINE
  5
B1
330
1F
100
AcDbEntity
  8
0
  6
SLD-Durchgehend
 62
     7
370
    15
100
AcDbLine
 10
238.9024747241
 20
93.6305065026
 30
0.0
 11
239.0353781808
 21
93.6783513373
 31
0.0
  0
LINE
  5
B2
330
1F
100
AcDbEntity
  8
0
  6
SLD-Durchgehend
 62
     7
370
    15
100
AcDbLine
 10
231.5922071863
 20
101.5430440513
 30
0.0
 11
230.8208448518
 21
102.5327519366
 31
0.0
  0
LWPOLYLINE
  5
B3
330
1F
100
AcDbEntity
  8
0
  6
SLD-Durchgehend
 62
     7
370
    15
100
AcDbPolyline
 90
        8
 70
   128
 43
0.0
 10
230.8864174116
 20
101.2785160767
 10
230.9093875516
 20
101.132612521
 10
230.9547131587
 20
101.0314685611
 10
231.008126371
 20
100.9733042067
 10
231.0786014128
 20
100.9370152226
 10
231.1694165397
 20
100.9257778844
 10
231.3196090687
 20
100.9553506358
 10
231.3625877429
 20
100.9710061682
  0
ARC
  5
B4
330
1F
100
AcDbEntity
  8
0
  6
SLD-Durchgehend
 62
     7
370
    15
100
AcDbCircle
 10
232.2324844304
 20
98.758776124
 30
0.0
 40
2.377116323522308
100
AcDbArc
 50
109.6253262841
 51
111.465825122
  0
LINE
  5
B5
330
1F
100
AcDbEntity
  8
0
  6
SLD-Durchgehend
 62
     7
370
    15
100
AcDbLine
 10
238.6207161177
 20
81.6201063191
 30
0.0
 11
239.8295504678
 21
78.4876251912
 31
0.0
  0
LINE
  5
B6
330
1F
100
AcDbEntity
  8
0
  6
SLD-Durchgehend
 62
     7
370
    15
100
AcDbLine
 10
237.8493537832
 20
82.6098153686
 30
0.0
 11
238.6207161177
 21
81.6201063191
 31
0.0
  0
ARC
  5
B7
330
1F
100
AcDbEntity
  8
0
  6
SLD-Durchgehend
 62
     7
370
    15
100
AcDbCircle
 10
234.7014803161
 20
92.0764299428
 30
0.0
 40
3.050004350573609
100
AcDbArc
 50
270.102442219
 51
89.897557781
  0
LWPOLYLINE
  5
B8
330
1F
100
AcDbEntity
  8
0
  6
SLD-Durchgehend
 62
     7
370
    15
100
AcDbPolyline
 90
        8
 70
   128
 43
0.0
 10
231.4340872396
 20
100.9978035783
 10
231.5656346906
 20
101.0593779704
 10
231.6478704739
 20
101.1280313453
 10
231.688640051
 20
101.1942013485
 10
231.7044054795
 20
101.2706457024
 10
231.6911695231
 20
101.3633767927
 10
231.6238013733
 20
101.4995843491
 10
231.5922071863
 20
101.5430440513
  0
LINE
  5
B9
330
1F
100
AcDbEntity
  8
0
  6
SLD-Durchgehend
 62
     7
370
    15
100
AcDbLine
 10
238.6207161177
 20
81.6201063191
 30
0.0
 11
238.5551435579
 21
82.8743426448
 31
0.0
  0
ARC
  5
BA
330
1F
100
AcDbEntity
  8
0
  6
SLD-Durchgehend
 62
     7
370
    15
100
AcDbCircle
 10
240.2878065089
 20
65.6665459012
 30
0.0
 40
26.6735631848318
100
AcDbArc
 50
109.776048646
 51
111.2746662558
  0
LWPOLYLINE
  5
BB
330
1F
100
AcDbEntity
  8
0
  6
SLD-Durchgehend
 62
     7
370
    15
100
AcDbPolyline
 90
        8
 70
   128
 43
0.0
 10
238.0074737299
 20
83.1550544446
 10
237.8759300042
 20
83.0934809839
 10
237.7936904956
 20
83.024827609
 10
237.7529209185
 20
82.9586571401
 10
237.7371592153
 20
82.8822141832
 10
237.7503914464
 20
82.7894823944
 10
237.8177595962
 20
82.6532746052
 10
237.8493537832
 20
82.6098153686
  0
ARC
  5
BC
330
1F
100
AcDbEntity
  8
0
  6
SLD-Durchgehend
 62
     7
370
    15
100
AcDbCircle
 10
237.2066112015
 20
85.4006212322
 30
0.0
 40
2.384103812123028
100
AcDbArc
 50
289.6283488728
 51
291.4634569215
  0
LWPOLYLINE
  5
BD
330
1F
100
AcDbEntity
  8
0
  6
SLD-Durchgehend
 62
     7
370
    15
100
AcDbPolyline
 90
        8
 70
   128
 43
0.0
 10
238.5551435579
 20
82.8743426448
 10
238.5321771432
 20
83.020245502
 10
238.4868478108
 20
83.1213908588
 10
238.4334345985
 20
83.1795556789
 10
238.3629595566
 20
83.2158437317
 10
238.2721444298
 20
83.2270810699
 10
238.1219519008
 20
83.1975078529
 10
238.0789732266
 20
83.1818523204
  0
ARC
  5
BE
330
1F
100
AcDbEntity
  8
0
  6
SLD-Durchgehend
 62
     7
370
    15
100
AcDbCircle
 10
247.7104865721
 20
69.1643206293
 30
0.0
 40
26.00337139490486
100
AcDbArc
 50
109.7992597495
 51
111.3335675321
  0
CIRCLE
  5
BF
330
1F
100
AcDbEntity
  8
0
  6
SLD-Durchgehend
 62
     7
370
    15
100
AcDbCircle
 10
234.7199235887
 20
92.181077083
 30
0.0
 40
2.621207483794417
  0
CIRCLE
  5
C0
330
1F
100
AcDbEntity
  8
0
  6
SLD-Durchgehend
 62
     7
370
    15
100
AcDbCircle
 10
234.7381155147
 20
92.18226512
 30
0.0
 40
1.797213952478245
  0
ARC
  5
C1
330
1F
100
AcDbEntity
  8
0
  6
SLD-Durchgehend
 62
     7
370
    15
100
AcDbCircle
 10
234.7337562577
 20
92.1825818827
 30
0.0
 40
1.672465721923875
100
AcDbArc
 50
283.2373523888
 51
341.8494024089
  0
ARC
  5
C2
330
1F
100
AcDbEntity
  8
0
  6
SLD-Durchgehend
 62
     7
370
    15
100
AcDbCircle
 10
234.7288959715
 20
92.1854528778
 30
0.0
 40
1.677978964424934
100
AcDbArc
 50
341.8079467218
 51
41.7903671998
  0
ARC
  5
C3
330
1F
100
AcDbEntity
  8
0
  6
SLD-Durchgehend
 62
     7
370
    15
100
AcDbCircle
 10
234.7357877932
 20
92.1918310779
 30
0.0
 40
1.668590034527704
100
AcDbArc
 50
41.7847786932
 51
100.4908428069
  0
LINE
  5
C4
330
1F
100
AcDbEntity
  8
0
  6
SLD-Durchgehend
 62
     7
370
    15
100
AcDbLine
 10
234.349048667
 20
93.8149595952
 30
0.0
 11
234.4319736291
 21
93.8325289955
 31
0.0
  0
ARC
  5
C5
330
1F
100
AcDbEntity
  8
0
  6
SLD-Durchgehend
 62
     7
370
    15
100
AcDbCircle
 10
234.7379977201
 20
92.188501824
 30
0.0
 40
1.672317627478513
100
AcDbArc
 50
103.4490648663
 51
159.907626451
  0
LINE
  5
C6
330
1F
100
AcDbEntity
  8
0
  6
SLD-Durchgehend
 62
     7
370
    15
100
AcDbLine
 10
233.1302901436
 20
92.6491337215
 30
0.0
 11
233.1674573649
 21
92.7630009448
 31
0.0
  0
ARC
  5
C7
330
1F
100
AcDbEntity
  8
0
  6
SLD-Durchgehend
 62
     7
370
    15
100
AcDbCircle
 10
234.7430317686
 20
92.1854827475
 30
0.0
 40
1.678066677697545
100
AcDbArc
 50
163.9604584478
 51
219.6378300399
  0
LINE
  5
C8
330
1F
100
AcDbEntity
  8
0
  6
SLD-Durchgehend
 62
     7
370
    15
100
AcDbLine
 10
233.5303863216
 20
91.0256382396
 30
0.0
 11
233.4507656921
 21
91.1149893274
 31
0.0
  0
ARC
  5
C9
330
1F
100
AcDbEntity
  8
0
  6
SLD-Durchgehend
 62
     7
370
    15
100
AcDbCircle
 10
234.7360237676
 20
92.1789737386
 30
0.0
 40
1.668455700467598
100
AcDbArc
 50
223.7298752427
 51
280.2787466583
  0
LINE
  5
CA
330
1F
100
AcDbEntity
  8
0
  6
SLD-Durchgehend
 62
     7
370
    15
100
AcDbLine
 10
235.1167266894
 20
90.554553861
 30
0.0
 11
235.0337383974
 21
90.537294591
 31
0.0
  0
ARC
  5
CB
330
1F
100
AcDbEntity
  8
0
  6
SLD-Durchgehend
 62
     7
370
    15
100
AcDbCircle
 10
233.4622142325
 20
92.6019580533
 30
0.0
 40
0.335259816430524
100
AcDbArc
 50
171.9108496377
 51
237.9904048262
  0
ARC
  5
CC
330
1F
100
AcDbEntity
  8
0
  6
SLD-Durchgehend
 62
     7
370
    15
100
AcDbCircle
 10
232.9689271671
 20
91.8155231901
 30
0.0
 40
0.5930790639799
100
AcDbArc
 50
325.7459110176
 51
57.8523811878
  0
ARC
  5
CD
330
1F
100
AcDbEntity
  8
0
  6
SLD-Durchgehend
 62
     7
370
    15
100
AcDbCircle
 10
233.7387890052
 20
91.2918658314
 30
0.0
 40
0.3379981162545218
100
AcDbArc
 50
145.8304446324
 51
211.5542861407
  0
ARC
  5
CE
330
1F
100
AcDbEntity
  8
0
  6
SLD-Durchgehend
 62
     7
370
    15
100
AcDbCircle
 10
233.4599590595
 20
92.6069214977
 30
0.0
 40
0.3315388893960257
100
AcDbArc
 50
85.2509630056
 51
151.9155363034
  0
ARC
  5
CF
330
1F
100
AcDbEntity
  8
0
  6
SLD-Durchgehend
 62
     7
370
    15
100
AcDbCircle
 10
234.4613710256
 20
93.4947894275
 30
0.0
 40
0.3393011177916965
100
AcDbArc
 50
109.3319322703
 51
177.9525619155
  0
ARC
  5
D0
330
1F
100
AcDbEntity
  8
0
  6
SLD-Durchgehend
 62
     7
370
    15
100
AcDbCircle
 10
233.5336258115
 20
93.5244270267
 30
0.0
 40
0.5889212348082581
100
AcDbArc
 50
265.4988351067
 51
358.2956852113
  0
LWPOLYLINE
  5
D1
330
1F
100
AcDbEntity
  8
0
  6
SLD-Durchgehend
 62
     7
370
    15
100
AcDbPolyline
 90
        3
 70
   128
 43
0.0
 10
233.7980149019
 20
90.9957204333
 10
233.6926748682
 20
90.9593839517
 10
233.6905700792
 20
90.9590421563
  0
ARC
  5
D2
330
1F
100
AcDbEntity
  8
0
  6
SLD-Durchgehend
 62
     7
370
    15
100
AcDbCircle
 10
233.7342512422
 20
91.2840979977
 30
0.0
 40
0.3291843744872593
100
AcDbArc
 50
231.7347352434
 51
298.8321031715
  0
ARC
  5
D3
330
1F
100
AcDbEntity
  8
0
  6
SLD-Durchgehend
 62
     7
370
    15
100
AcDbCircle
 10
234.1717579665
 20
90.479641341
 30
0.0
 40
0.5865529796098178
100
AcDbArc
 50
25.1951896232
 51
118.3756325491
  0
ARC
  5
D4
330
1F
100
AcDbEntity
  8
0
  6
SLD-Durchgehend
 62
     7
370
    15
100
AcDbCircle
 10
235.0083163291
 20
90.8751163961
 30
0.0
 40
0.338776996763641
100
AcDbArc
 50
205.4869302507
 51
274.3035617447
  0
ARC
  5
D5
330
1F
100
AcDbEntity
  8
0
  6
SLD-Durchgehend
 62
     7
370
    15
100
AcDbCircle
 10
234.3610443021
 20
93.4993406184
 30
0.0
 40
0.3343499347700304
100
AcDbArc
 50
24.9885564429
 51
75.4624144052
  0
ARC
  5
D6
330
1F
100
AcDbEntity
  8
0
  6
SLD-Durchgehend
 62
     7
370
    15
100
AcDbCircle
 10
234.4592224035
 20
93.5043124978
 30
0.0
 40
0.3293456620168657
100
AcDbArc
 50
24.4412372437
 51
94.7458541019
  0
ARC
  5
D7
330
1F
100
AcDbEntity
  8
0
  6
SLD-Durchgehend
 62
     7
370
    15
100
AcDbCircle
 10
234.0778361218
 20
90.4835267427
 30
0.0
 40
0.5836456901964379
100
AcDbArc
 50
90.0021711094
 51
118.6486247476
  0
ARC
  5
D8
330
1F
100
AcDbEntity
  8
0
  6
SLD-Durchgehend
 62
     7
370
    15
100
AcDbCircle
 10
235.729609684
 20
93.0784262483
 30
0.0
 40
0.336776732099634
100
AcDbArc
 50
41.9762306729
 51
118.5678346349
  0
ARC
  5
D9
330
1F
100
AcDbEntity
  8
0
  6
SLD-Durchgehend
 62
     7
370
    15
100
AcDbCircle
 10
235.2877204124
 20
93.8839479376
 30
0.0
 40
0.5819920933509204
100
AcDbArc
 50
204.7184362151
 51
298.8523859573
  0
ARC
  5
DA
330
1F
100
AcDbEntity
  8
0
  6
SLD-Durchgehend
 62
     7
370
    15
100
AcDbCircle
 10
234.909833255
 20
90.8708281995
 30
0.0
 40
0.3345759910091576
100
AcDbArc
 50
276.5741783181
 51
358.6609788011
  0
ARC
  5
DB
330
1F
100
AcDbEntity
  8
0
  6
SLD-Durchgehend
 62
     7
370
    15
100
AcDbCircle
 10
235.0086692443
 20
90.8670282668
 30
0.0
 40
0.3306307090565497
100
AcDbArc
 50
289.0760070912
 51
359.3036063327
  0
ARC
  5
DC
330
1F
100
AcDbEntity
  8
0
  6
SLD-Durchgehend
 62
     7
370
    15
100
AcDbCircle
 10
235.1941286066
 20
93.8874532817
 30
0.0
 40
0.5847044213384213
100
AcDbArc
 50
204.9744897309
 51
269.9695483369
  0
ARC
  5
DD
330
1F
100
AcDbEntity
  8
0
  6
SLD-Durchgehend
 62
     7
370
    15
100
AcDbCircle
 10
235.920906982
 20
90.8533293402
 30
0.0
 40
0.5817120029460716
100
AcDbArc
 50
84.7480382371
 51
179.0464820808
  0
ARC
  5
DE
330
1F
100
AcDbEntity
  8
0
  6
SLD-Durchgehend
 62
     7
370
    15
100
AcDbCircle
 10
236.0039321737
 20
91.7674533751
 30
0.0
 40
0.336175603625998
100
AcDbArc
 50
264.9181933155
 51
341.6435833425
  0
LWPOLYLINE
  5
DF
330
1F
100
AcDbEntity
  8
0
  6
SLD-Durchgehend
 62
     7
370
    15
100
AcDbPolyline
 90
        3
 70
   128
 43
0.0
 10
233.8471365798
 20
89.69217244
 10
234.364575677
 20
89.5779401382
 10
234.6661602784
 20
89.5604731834
  0
ARC
  5
E0
330
1F
100
AcDbEntity
  8
0
  6
SLD-Durchgehend
 62
     7
370
    15
100
AcDbCircle
 10
234.6719084518
 20
92.1848731782
 30
0.0
 40
2.625605760857834
100
AcDbArc
 50
90.1254363263
 51
251.6919214847
  0
ARC
  5
E1
330
1F
100
AcDbEntity
  8
0
  6
SLD-Durchgehend
 62
     7
370
    15
100
AcDbCircle
 10
235.8296134359
 20
90.8493118581
 30
0.0
 40
0.5854558205365463
100
AcDbArc
 50
90.0638296495
 51
178.6593290537
  0
ARC
  5
E2
330
1F
100
AcDbEntity
  8
0
  6
SLD-Durchgehend
 62
     7
370
    15
100
AcDbCircle
 10
235.6327075216
 20
93.0800051691
 30
0.0
 40
0.3350916427266063
100
AcDbArc
 50
325.0870842796
 51
84.6599073795
  0
ARC
  5
E3
330
1F
100
AcDbEntity
  8
0
  6
SLD-Durchgehend
 62
     7
370
    15
100
AcDbCircle
 10
235.7313325608
 20
93.0819040489
 30
0.0
 40
0.33317295903385
100
AcDbArc
 50
324.4561344323
 51
41.7297664618
  0
ARC
  5
E4
330
1F
100
AcDbEntity
  8
0
  6
SLD-Durchgehend
 62
     7
370
    15
100
AcDbCircle
 10
236.0050546126
 20
91.7653986893
 30
0.0
 40
0.3344670137512991
100
AcDbArc
 50
341.9170977912
 51
59.0523048257
  0
ARC
  5
E5
330
1F
100
AcDbEntity
  8
0
  6
SLD-Durchgehend
 62
     7
370
    15
100
AcDbCircle
 10
236.4757259947
 20
92.5508663727
 30
0.0
 40
0.58122456762504
100
AcDbArc
 50
144.5197678819
 51
239.0784987707
  0
ARC
  5
E6
330
1F
100
AcDbEntity
  8
0
  6
SLD-Durchgehend
 62
     7
370
    15
100
AcDbCircle
 10
236.3891343225
 20
92.5526093152
 30
0.0
 40
0.587040672762879
100
AcDbArc
 50
145.1309698641
 51
238.4672967884
  0
ARC
  5
E7
330
1F
100
AcDbEntity
  8
0
  6
SLD-Durchgehend
 62
     7
370
    15
100
AcDbCircle
 10
235.9070226833
 20
91.7664151761
 30
0.0
 40
0.3352027664804221
100
AcDbArc
 50
281.6991359943
 51
58.5089963787
  0
LINE
  5
E8
330
1F
100
AcDbEntity
  8
0
  6
SLD-Durchgehend
 62
     7
370
    15
100
AcDbLine
 10
203.2790416557
 20
85.8587397581
 30
0.0
 11
203.2790416557
 21
116.9376250675
 31
0.0
  0
LWPOLYLINE
  5
E9
330
1F
100
AcDbEntity
  8
0
  6
SLD-Durchgehend
 62
     7
370
    15
100
AcDbPolyline
 90
        3
 70
   128
 43
0.0
 10
203.2790416557
 20
85.8587397581
 10
202.3397301961
 20
87.5570940172
 10
202.2838806439
 20
87.6585020071
  0
LINE
  5
EA
330
1F
100
AcDbEntity
  8
0
  6
SLD-Durchgehend
 62
     7
370
    15
100
AcDbLine
 10
202.2838806439
 20
87.6585020071
 30
0.0
 11
202.2838806439
 21
116.9376250675
 31
0.0
  0
LINE
  5
EB
330
1F
100
AcDbEntity
  8
0
  6
SLD-Durchgehend
 62
     7
370
    15
100
AcDbLine
 10
202.2838806439
 20
116.9376250675
 30
0.0
 11
203.2790416557
 21
116.9376250675
 31
0.0
  0
LINE
  5
EC
330
1F
100
AcDbEntity
  8
0
  6
SLD-Durchgehend
 62
     7
370
    15
100
AcDbLine
 10
204.5938810039
 20
85.8587397581
 30
0.0
 11
203.2790416557
 21
85.8587397581
 31
0.0
  0
LINE
  5
ED
330
1F
100
AcDbEntity
  8
0
  6
SLD-Durchgehend
 62
     7
370
    15
100
AcDbLine
 10
203.2790416557
 20
116.9376250675
 30
0.0
 11
204.5938810039
 21
116.9376250675
 31
0.0
  0
LINE
  5
EE
330
1F
100
AcDbEntity
  8
0
  6
SLD-Durchgehend
 62
     7
370
    15
100
AcDbLine
 10
193.193881743
 20
116.9376250675
 30
0.0
 11
199.2087214891
 21
116.9376250675
 31
0.0
  0
LINE
  5
EF
330
1F
100
AcDbEntity
  8
0
  6
SLD-Durchgehend
 62
     7
370
    15
100
AcDbLine
 10
199.2087214891
 20
85.8587397581
 30
0.0
 11
199.2087214891
 21
116.9376250675
 31
0.0
  0
LINE
  5
F0
330
1F
100
AcDbEntity
  8
0
  6
SLD-Durchgehend
 62
     7
370
    15
100
AcDbLine
 10
199.2087214891
 20
85.8587397581
 30
0.0
 11
197.6938815493
 21
85.8587397581
 31
0.0
  0
ARC
  5
F1
330
1F
100
AcDbEntity
  8
0
  6
SLD-Durchgehend
 62
     7
370
    15
100
AcDbCircle
 10
197.1595319314
 20
75.137970753
 30
0.0
 40
10.73407739745367
100
AcDbArc
 50
87.1465980851
 51
111.6813871243
  0
LINE
  5
F2
330
1F
100
AcDbEntity
  8
0
  6
SLD-Durchgehend
 62
     7
370
    15
100
AcDbLine
 10
193.193881743
 20
85.1126404798
 30
0.0
 11
193.193881743
 21
85.0876251554
 31
0.0
  0
LWPOLYLINE
  5
F3
330
1F
100
AcDbEntity
  8
0
  6
SLD-Durchgehend
 62
     7
370
    15
100
AcDbPolyline
 90
       11
 70
   128
 43
0.0
 10
197.6938815493
 20
124.5748007989
 10
196.9598754946
 20
124.5886179006
 10
196.2258694399
 20
124.630015189
 10
195.5539518673
 20
124.6919425523
 10
194.9237240184
 20
124.7707082277
 10
194.3775890101
 20
124.8549668437
 10
193.9103258479
 20
124.9387020564
 10
193.5571776409
 20
125.0090280866
 10
193.3141480837
 20
125.060908342
 10
193.2038040537
 20
125.0853946751
 10
193.209408753
 20
125.0841373896
  0
LINE
  5
F4
330
1F
100
AcDbEntity
  8
0
  6
SLD-Durchgehend
 62
     7
370
    15
100
AcDbLine
 10
199.2087214891
 20
124.5748007989
 30
0.0
 11
197.6938815493
 21
124.5748007989
 31
0.0
  0
LINE
  5
F5
330
1F
100
AcDbEntity
  8
0
  6
SLD-Durchgehend
 62
     7
370
    15
100
AcDbLine
 10
199.2087214891
 20
121.199034
 30
0.0
 11
199.2087214891
 21
124.5748007989
 31
0.0
  0
LINE
  5
F6
330
1F
100
AcDbEntity
  8
0
  6
SLD-Durchgehend
 62
     7
370
    15
100
AcDbLine
 10
197.6875513498
 20
121.199034
 30
0.0
 11
199.2087214891
 21
121.199034
 31
0.0
  0
ARC
  5
F7
330
1F
100
AcDbEntity
  8
0
  6
SLD-Durchgehend
 62
     7
370
    15
100
AcDbCircle
 10
197.3636388389
 20
117.0406017097
 30
0.0
 40
4.171028461616039
100
AcDbArc
 50
85.5460566573
 51
181.4146934227
  0
LINE
  5
F8
330
1F
100
AcDbEntity
  8
0
  6
SLD-Durchgehend
 62
     7
370
    15
100
AcDbLine
 10
205.1938818473
 20
86.4835920131
 30
0.0
 11
205.1938818473
 21
116.9376250675
 31
0.0
  0
ARC
  5
F9
330
1F
100
AcDbEntity
  8
0
  6
SLD-Durchgehend
 62
     7
370
    15
100
AcDbCircle
 10
204.5826211421
 20
86.4700468308
 30
0.0
 40
0.611410763449625
100
AcDbArc
 50
271.0552300829
 51
1.2694334473
  0
LINE
  5
FA
330
1F
100
AcDbEntity
  8
0
  6
SLD-Durchgehend
 62
     7
370
    15
100
AcDbLine
 10
204.5938810039
 20
116.9376250675
 30
0.0
 11
205.1938818473
 21
116.9376250675
 31
0.0
  0
LINE
  5
FB
330
1F
100
AcDbEntity
  8
0
  6
SLD-Durchgehend
 62
     7
370
    15
100
AcDbLine
 10
200.2038815696
 20
87.6585020071
 30
0.0
 11
200.2038815696
 21
116.9376250675
 31
0.0
  0
LWPOLYLINE
  5
FC
330
1F
100
AcDbEntity
  8
0
  6
SLD-Durchgehend
 62
     7
370
    15
100
AcDbPolyline
 90
        3
 70
   128
 43
0.0
 10
200.2038815696
 20
87.6585020071
 10
200.1480329487
 20
87.5570940172
 10
199.2087214891
 20
85.8587397581
  0
LINE
  5
FD
330
1F
100
AcDbEntity
  8
0
  6
SLD-Durchgehend
 62
     7
370
    15
100
AcDbLine
 10
199.2087214891
 20
116.9376250675
 30
0.0
 11
200.2038815696
 21
116.9376250675
 31
0.0
  0
LINE
  5
FE
330
1F
100
AcDbEntity
  8
0
  6
SLD-Durchgehend
 62
     7
370
    15
100
AcDbLine
 10
185.2438812781
 20
85.3876246458
 30
0.0
 11
185.2438812781
 21
124.787624771
 31
0.0
  0
LINE
  5
FF
330
1F
100
AcDbEntity
  8
0
  6
SLD-Durchgehend
 62
     7
370
    15
100
AcDbLine
 10
202.2486580241
 20
88.1876254773
 30
0.0
 11
201.6838816632
 21
88.1876254773
 31
0.0
  0
LINE
  5
100
330
1F
100
AcDbEntity
  8
0
  6
SLD-Durchgehend
 62
     7
370
    15
100
AcDbLine
 10
201.6838816632
 20
116.9376250675
 30
0.0
 11
202.2838806439
 21
116.9376250675
 31
0.0
  0
LINE
  5
101
330
1F
100
AcDbEntity
  8
0
  6
SLD-Durchgehend
 62
     7
370
    15
100
AcDbLine
 10
200.8038814817
 20
88.1876254773
 30
0.0
 11
200.239103258
 21
88.1876254773
 31
0.0
  0
LINE
  5
102
330
1F
100
AcDbEntity
  8
0
  6
SLD-Durchgehend
 62
     7
370
    15
100
AcDbLine
 10
200.2038815696
 20
116.9376250675
 30
0.0
 11
200.8038814817
 21
116.9376250675
 31
0.0
  0
LINE
  5
103
330
1F
100
AcDbEntity
  8
0
  6
SLD-Durchgehend
 62
     7
370
    15
100
AcDbLine
 10
205.1939433146
 20
121.9876239395
 30
0.0
 11
205.3938815076
 21
121.9876239395
 31
0.0
  0
LINE
  5
104
330
1F
100
AcDbEntity
  8
0
  6
SLD-Durchgehend
 62
     7
370
    15
100
AcDbLine
 10
205.3007268984
 20
88.1876254773
 30
0.0
 11
205.3938815076
 21
88.1876254773
 31
0.0
  0
LINE
  5
105
330
1F
100
AcDbEntity
  8
0
  6
SLD-Durchgehend
 62
     7
370
    15
100
AcDbLine
 10
205.1938818473
 20
116.9376250675
 30
0.0
 11
205.5230056573
 21
116.9376250675
 31
0.0
  0
ARC
  5
106
330
1F
100
AcDbEntity
  8
0
  6
SLD-Durchgehend
 62
     7
370
    15
100
AcDbCircle
 10
206.9015261183
 20
117.9456458726
 30
0.0
 40
1.707754257787362
100
AcDbArc
 50
179.3497241651
 51
216.175534614
  0
LINE
  5
107
330
1F
100
AcDbEntity
  8
0
  6
SLD-Durchgehend
 62
     7
370
    15
100
AcDbLine
 10
201.6838816632
 20
88.1876254773
 30
0.0
 11
200.8038814817
 21
88.1876254773
 31
0.0
  0
LINE
  5
108
330
1F
100
AcDbEntity
  8
0
  6
SLD-Durchgehend
 62
     7
370
    15
100
AcDbLine
 10
200.8038814817
 20
116.9376250675
 30
0.0
 11
201.6838816632
 21
116.9376250675
 31
0.0
  0
ELLIPSE
  5
109
330
1F
100
AcDbEntity
  8
0
  6
SLD-Durchgehend
 62
     7
370
    15
100
AcDbEllipse
 10
235.9432051702
 20
105.0876247084
 30
0.0
 11
235.9609932357709
 21
-2.842170943040401E-14
 31
0.0
210
0.0
220
0.0
230
1.0
 40
0.0699268119
 41
1.640638572740917
 42
1.650780813793311
  0
ARC
  5
10A
330
1F
100
AcDbEntity
  8
0
  6
SLD-Durchgehend
 62
     7
370
    15
100
AcDbCircle
 10
216.3409685797
 20
113.950515201
 30
0.0
 40
7.621264983625014
100
AcDbArc
 50
84.3589875048
 51
111.8425187306
  0
ELLIPSE
  5
10B
330
1F
100
AcDbEntity
  8
0
  6
SLD-Durchgehend
 62
     7
370
    15
100
AcDbEllipse
 10
214.6504578815
 20
105.0876247084
 30
0.0
 11
0.0
 21
16.5
 31
0.0
210
0.0
220
0.0
230
1.0
 40
0.2679491924
 41
0.2619752684826844
 42
2.879617385107108
  0
ARC
  5
10C
330
1F
100
AcDbEntity
  8
0
  6
SLD-Durchgehend
 62
     7
370
    15
100
AcDbCircle
 10
216.2260221146
 20
95.417154352
 30
0.0
 40
6.83164327507712
100
AcDbArc
 50
246.5321395745
 51
277.2663541902
  0
ELLIPSE
  5
10D
330
1F
100
AcDbEntity
  8
0
  6
SLD-Durchgehend
 62
     7
370
    15
100
AcDbEllipse
 10
235.9432051702
 20
105.0876247084
 30
0.0
 11
235.9609932357709
 21
-2.842170943040401E-14
 31
0.0
210
0.0
220
0.0
230
1.0
 40
0.0699268119
 41
4.632404493386278
 42
4.642546734438671
  0
ELLIPSE
  5
10E
330
1F
100
AcDbEntity
  8
0
  6
SLD-Durchgehend
 62
     7
370
    15
100
AcDbEllipse
 10
212.3605108944
 20
97.2827008225
 30
0.0
 11
-0.2199441409949259
 21
2.658240935926202
 31
0.0
210
0.0
220
0.0
230
0.9999999999999999
 40
0.2265727024
 41
0.0
 42
6.283185307179586
  0
LINE
  5
10F
330
1F
100
AcDbEntity
  8
0
  6
SLD-Durchgehend
 62
     7
370
    15
100
AcDbLine
 10
183.2438811831
 20
89.9839241376
 30
0.0
 11
183.2438811831
 21
120.1913252791
 31
0.0
  0
LINE
  5
110
330
1F
100
AcDbEntity
  8
0
  6
SLD-Durchgehend
 62
     7
370
    15
100
AcDbLine
 10
171.4438814375
 20
90.5751062876
 30
0.0
 11
171.4438814375
 21
91.4840482494
 31
0.0
  0
ARC
  5
111
330
1F
100
AcDbEntity
  8
0
  6
SLD-Durchgehend
 62
     7
370
    15
100
AcDbCircle
 10
168.3053408323
 20
90.5170418577
 30
0.0
 40
3.284134359664609
100
AcDbArc
 50
17.1244326527
 51
29.8895177058
  0
LWPOLYLINE
  5
112
330
1F
100
AcDbEntity
  8
0
  6
SLD-Durchgehend
 62
     7
370
    15
100
AcDbPolyline
 90
        7
 70
   128
 43
0.0
 10
170.5438811038
 20
92.8037509641
 10
170.6071961377
 20
92.8032983413
 10
170.6685702953
 20
92.7918579748
 10
170.7459734458
 20
92.7613906881
 10
170.8513367627
 20
92.6882837286
 10
171.039409906
 20
92.4372019565
 10
171.1526456926
 20
92.1536216831
  0
LWPOLYLINE
  5
113
330
1F
100
AcDbEntity
  8
0
  6
SLD-Durchgehend
 62
     7
370
    15
100
AcDbPolyline
 90
        3
 70
   128
 43
0.0
 10
166.4540907074
 20
92.3764443343
 10
168.7534181107
 20
92.6425502023
 10
170.5438811038
 20
92.8037509641
  0
LINE
  5
114
330
1F
100
AcDbEntity
  8
0
  6
SLD-Durchgehend
 62
     7
370
    15
100
AcDbLine
 10
166.2938808728
 20
92.3570895886
 30
0.0
 11
166.4540907074
 21
92.3764443343
 31
0.0
  0
LINE
  5
115
330
1F
100
AcDbEntity
  8
0
  6
SLD-Durchgehend
 62
     7
370
    15
100
AcDbLine
 10
166.2853648592
 20
92.3844471892
 30
0.0
 11
166.2938808728
 21
92.3570895886
 31
0.0
  0
ELLIPSE
  5
116
330
1F
100
AcDbEntity
  8
0
  6
SLD-Durchgehend
 62
     7
370
    15
100
AcDbEllipse
 10
152.8171390703
 20
104.4483270306
 30
0.0
 11
13.37355272666627
 21
-13.37146352987013
 31
0.0
210
0.0
220
0.0
230
1.0
 40
0.1761188775
 41
0.30230354771424
 42
0.3822730435340196
  0
ELLIPSE
  5
117
330
1F
100
AcDbEntity
  8
0
  6
SLD-Durchgehend
 62
     7
370
    15
100
AcDbEllipse
 10
152.7377606396
 20
105.7267351597
 30
0.0
 11
13.36963611134303
 21
13.36754752639482
 31
0.0
210
0.0
220
0.0
230
1.0
 40
0.1761188775
 41
5.933076931846599
 42
5.976720052691192
  0
LINE
  5
118
330
1F
100
AcDbEntity
  8
0
  6
SLD-Durchgehend
 62
     7
370
    15
100
AcDbLine
 10
166.2938808728
 20
117.9532053268
 30
0.0
 11
166.194713645
 21
117.7610604411
 31
0.0
  0
LWPOLYLINE
  5
119
330
1F
100
AcDbEntity
  8
0
  6
SLD-Durchgehend
 62
     7
370
    15
100
AcDbPolyline
 90
        3
 70
   128
 43
0.0
 10
168.043880694
 20
117.8684186509
 10
167.1802466441
 20
117.9270472696
 10
166.2938808728
 20
117.9532053268
  0
ARC
  5
11A
330
1F
100
AcDbEntity
  8
0
  6
SLD-Durchgehend
 62
     7
370
    15
100
AcDbCircle
 10
167.8889160493
 20
118.9577587426
 30
0.0
 40
1.100307173752264
100
AcDbArc
 50
278.0963186522
 51
343.4942707128
  0
LINE
  5
11B
330
1F
100
AcDbEntity
  8
0
  6
SLD-Durchgehend
 62
     7
370
    15
100
AcDbLine
 10
168.9438810278
 20
118.6451491287
 30
0.0
 11
168.9438810278
 21
119.4748923501
 31
0.0
  0
LWPOLYLINE
  5
11C
330
1F
100
AcDbEntity
  8
0
  6
SLD-Durchgehend
 62
     7
370
    15
100
AcDbPolyline
 90
       18
 70
   128
 43
0.0
 10
176.428424165
 20
90.3256580552
 10
176.4270253185
 20
90.3254578209
 10
176.4823253903
 20
90.3339542767
 10
176.6433538575
 20
90.3568154519
 10
176.9071239684
 20
90.3900767064
 10
177.2576495711
 20
90.4273091203
 10
177.680524968
 20
90.4601196146
 10
178.162251104
 20
90.4812457358
 10
178.6920409355
 20
90.4845593816
 10
179.2405680459
 20
90.4670710063
 10
179.7820981298
 20
90.427934969
 10
180.2994073074
 20
90.3703354618
 10
180.7824275162
 20
90.2990790402
 10
181.2051390003
 20
90.2239073386
 10
181.5483523238
 20
90.1536623334
 10
181.8023645025
 20
90.0962388461
 10
181.958599918
 20
90.0584401881
 10
182.0101593327
 20
90.0460265895
  0
LWPOLYLINE
  5
11D
330
1F
100
AcDbEntity
  8
0
  6
SLD-Durchgehend
 62
     7
370
    15
100
AcDbPolyline
 90
       18
 70
   128
 43
0.0
 10
182.0091604892
 20
120.1292237585
 10
181.9584895562
 20
120.1165084114
 10
181.8035752218
 20
120.0790701752
 10
181.5455935135
 20
120.0209677538
 10
181.2032786835
 20
119.9507767653
 10
180.7814850178
 20
119.8757382428
 10
180.3003162783
 20
119.8048543503
 10
179.7829428393
 20
119.7473638078
 10
179.2415030938
 20
119.7082817873
 10
178.6922546741
 20
119.6907626783
 10
178.1619782265
 20
119.6940455904
 10
177.6791750159
 20
119.7151875442
 10
177.2565496791
 20
119.7479999011
 10
176.905711152
 20
119.7853403484
 10
176.6428621191
 20
119.818532685
 10
176.4817842919
 20
119.841352882
 10
176.4270458076
 20
119.8497971838
 10
176.4279585037
 20
119.8496537602
  0
LWPOLYLINE
  5
11E
330
1F
100
AcDbEntity
  8
0
  6
SLD-Durchgehend
 62
     7
370
    15
100
AcDbPolyline
 90
       13
 70
   128
 43
0.0
 10
166.103851952
 20
117.4757050669
 10
165.9391289283
 20
117.0781374296
 10
165.8566435505
 20
116.9191550782
 10
165.7486790497
 20
116.7419020405
 10
165.6954427887
 20
116.6669883152
 10
165.630956151
 20
116.5882272964
 10
165.5921572525
 20
116.548065873
 10
165.5527902473
 20
116.5139925053
 10
165.5212742913
 20
116.4926214462
 10
165.4817079831
 20
116.4754962867
 10
165.4317294884
 20
116.4771912938
 10
165.3604013551
 20
116.6083550399
 10
165.3438815553
 20
116.8658564186
  0
LWPOLYLINE
  5
11F
330
1F
100
AcDbEntity
  8
0
  6
SLD-Durchgehend
 62
     7
370
    15
100
AcDbPolyline
 90
       11
 70
   128
 43
0.0
 10
165.3438815553
 20
93.5401114022
 10
165.3688652147
 20
93.7920919007
 10
165.427411877
 20
93.8714973947
 10
165.4792120386
 20
93.872110205
 10
165.5129631687
 20
93.8578320986
 10
165.5567781705
 20
93.8282020709
 10
165.6002653468
 20
93.789497236
 10
165.6479937661
 20
93.7386069765
 10
165.7165260691
 20
93.6528303048
 10
165.8557345796
 20
93.439253824
 10
166.103851952
 20
92.9206393978
  0
LINE
  5
120
330
1F
100
AcDbEntity
  8
0
  6
SLD-Durchgehend
 62
     7
370
    15
100
AcDbLine
 10
165.3438815553
 20
93.5401114022
 30
0.0
 11
165.3438815553
 21
116.8658564186
 31
0.0
  0
ARC
  5
121
330
1F
100
AcDbEntity
  8
0
  6
SLD-Durchgehend
 62
     7
370
    15
100
AcDbCircle
 10
200.8305852801
 20
122.487233988
 30
0.0
 40
0.6267108666969949
100
AcDbArc
 50
179.726192355
 51
232.8629641269
  0
LINE
  5
122
330
1F
100
AcDbEntity
  8
0
  6
SLD-Durchgehend
 62
     7
370
    15
100
AcDbLine
 10
200.8038814817
 20
121.9876239395
 30
0.0
 11
200.4522252534
 21
121.9876239395
 31
0.0
  0
LWPOLYLINE
  5
123
330
1F
100
AcDbEntity
  8
0
  6
SLD-Durchgehend
 62
     7
370
    15
100
AcDbPolyline
 90
        6
 70
   128
 43
0.0
 10
200.2038815696
 20
118.6034715122
 10
200.2488961149
 20
118.2987166887
 10
200.3733431626
 20
118.0425238183
 10
200.5204539452
 20
117.8917687705
 10
200.6706595126
 20
117.8151069527
 10
200.8038814817
 20
117.7946355512
  0
LINE
  5
124
330
1F
100
AcDbEntity
  8
0
  6
SLD-Durchgehend
 62
     7
370
    15
100
AcDbLine
 10
199.2087214891
 20
121.199034
 30
0.0
 11
200.2038815696
 21
119.0017124956
 31
0.0
  0
LINE
  5
125
330
1F
100
AcDbEntity
  8
0
  6
SLD-Durchgehend
 62
     7
370
    15
100
AcDbLine
 10
200.2038815696
 20
119.0017124956
 30
0.0
 11
200.2038815696
 21
118.6034715122
 31
0.0
  0
LINE
  5
126
330
1F
100
AcDbEntity
  8
0
  6
SLD-Durchgehend
 62
     7
370
    15
100
AcDbLine
 10
200.8038814817
 20
117.7946355512
 30
0.0
 11
201.6838816632
 21
117.7946355512
 31
0.0
  0
ARC
  5
127
330
1F
100
AcDbEntity
  8
0
  6
SLD-Durchgehend
 62
     7
370
    15
100
AcDbCircle
 10
201.5583396699
 20
118.5147225533
 30
0.0
 40
0.7309487551174594
100
AcDbArc
 50
279.8897062559
 51
6.9738377009
  0
LINE
  5
128
330
1F
100
AcDbEntity
  8
0
  6
SLD-Durchgehend
 62
     7
370
    15
100
AcDbLine
 10
202.2838806439
 20
118.6034715122
 30
0.0
 11
202.2838806439
 21
119.0017124956
 31
0.0
  0
LINE
  5
129
330
1F
100
AcDbEntity
  8
0
  6
SLD-Durchgehend
 62
     7
370
    15
100
AcDbLine
 10
202.2838806439
 20
119.0017124956
 30
0.0
 11
203.2790416557
 21
121.199034
 31
0.0
  0
LINE
  5
12A
330
1F
100
AcDbEntity
  8
0
  6
SLD-Durchgehend
 62
     7
370
    15
100
AcDbLine
 10
203.2790416557
 20
121.199034
 30
0.0
 11
204.5938810039
 21
121.199034
 31
0.0
  0
ARC
  5
12B
330
1F
100
AcDbEntity
  8
0
  6
SLD-Durchgehend
 62
     7
370
    15
100
AcDbCircle
 10
204.4983022986
 20
120.5074796199
 30
0.0
 40
0.6981280323795569
100
AcDbArc
 50
355.1028521375
 51
82.1310855252
  0
LINE
  5
12C
330
1F
100
AcDbEntity
  8
0
  6
SLD-Durchgehend
 62
     7
370
    15
100
AcDbLine
 10
205.1938818473
 20
120.4478822967
 30
0.0
 11
205.1938818473
 21
117.9650275355
 31
0.0
  0
LINE
  5
12D
330
1F
100
AcDbEntity
  8
0
  6
SLD-Durchgehend
 62
     7
370
    15
100
AcDbLine
 10
201.6838816632
 20
121.9876239395
 30
0.0
 11
200.8038814817
 21
121.9876239395
 31
0.0
  0
LINE
  5
12E
330
1F
100
AcDbEntity
  8
0
  6
SLD-Durchgehend
 62
     7
370
    15
100
AcDbLine
 10
204.5938810039
 20
124.5748007989
 30
0.0
 11
203.2790416557
 21
124.5748007989
 31
0.0
  0
LINE
  5
12F
330
1F
100
AcDbEntity
  8
0
  6
SLD-Durchgehend
 62
     7
370
    15
100
AcDbLine
 10
203.2790416557
 20
121.199034
 30
0.0
 11
203.2790416557
 21
124.5748007989
 31
0.0
  0
ARC
  5
130
330
1F
100
AcDbEntity
  8
0
  6
SLD-Durchgehend
 62
     7
370
    15
100
AcDbCircle
 10
204.5857767079
 20
123.9666944753
 30
0.0
 40
0.6081603245705234
100
AcDbArc
 50
359.2281322855
 51
89.2364584066
  0
LINE
  5
131
330
1F
100
AcDbEntity
  8
0
  6
SLD-Durchgehend
 62
     7
370
    15
100
AcDbLine
 10
205.1938818473
 20
120.4478822967
 30
0.0
 11
205.1938818473
 21
123.9585018104
 31
0.0
  0
LWPOLYLINE
  5
132
330
1F
100
AcDbEntity
  8
0
  6
SLD-Durchgehend
 62
     7
370
    15
100
AcDbPolyline
 90
        3
 70
   128
 43
0.0
 10
200.2038815696
 20
122.8013018465
 10
199.274805345
 20
124.4573088681
 10
199.2087214891
 20
124.5748007989
  0
LINE
  5
133
330
1F
100
AcDbEntity
  8
0
  6
SLD-Durchgehend
 62
     7
370
    15
100
AcDbLine
 10
200.2038815696
 20
119.0017124956
 30
0.0
 11
200.2038815696
 21
122.8013018465
 31
0.0
  0
LINE
  5
134
330
1F
100
AcDbEntity
  8
0
  6
SLD-Durchgehend
 62
     7
370
    15
100
AcDbLine
 10
202.0355360288
 20
121.9876239395
 30
0.0
 11
201.6838816632
 21
121.9876239395
 31
0.0
  0
ARC
  5
135
330
1F
100
AcDbEntity
  8
0
  6
SLD-Durchgehend
 62
     7
370
    15
100
AcDbCircle
 10
201.65669097
 20
122.4874748109
 30
0.0
 40
0.6271957208092315
100
AcDbArc
 50
307.1590768283
 51
0.2515960212
  0
LWPOLYLINE
  5
136
330
1F
100
AcDbEntity
  8
0
  6
SLD-Durchgehend
 62
     7
370
    15
100
AcDbPolyline
 90
        3
 70
   128
 43
0.0
 10
203.2790416557
 20
124.5748007989
 10
203.2129568685
 20
124.4573088681
 10
202.2838806439
 20
122.8013018465
  0
LINE
  5
137
330
1F
100
AcDbEntity
  8
0
  6
SLD-Durchgehend
 62
     7
370
    15
100
AcDbLine
 10
202.2838806439
 20
119.0017124956
 30
0.0
 11
202.2838806439
 21
122.8013018465
 31
0.0
  0
LINE
  5
138
330
1F
100
AcDbEntity
  8
0
  6
SLD-Durchgehend
 62
     7
370
    15
100
AcDbLine
 10
165.3438815553
 20
93.2691524124
 30
0.0
 11
165.3438815553
 21
93.5401114022
 31
0.0
  0
LINE
  5
139
330
1F
100
AcDbEntity
  8
0
  6
SLD-Durchgehend
 62
     7
370
    15
100
AcDbLine
 10
165.3438815553
 20
116.9615386372
 30
0.0
 11
165.3438815553
 21
116.8658564186
 31
0.0
  0
LINE
  5
13A
330
1F
100
AcDbEntity
  8
0
  6
SLD-Durchgehend
 62
     7
370
    15
100
AcDbLine
 10
166.2938808728
 20
117.9676249942
 30
0.0
 11
166.2938808728
 21
117.9532053268
 31
0.0
  0
LINE
  5
13B
330
1F
100
AcDbEntity
  8
0
  6
SLD-Durchgehend
 62
     7
370
    15
100
AcDbLine
 10
165.3438815553
 20
117.0176247453
 30
0.0
 11
165.3438815553
 21
116.9615386372
 31
0.0
  0
LINE
  5
13C
330
1F
100
AcDbEntity
  8
0
  6
SLD-Durchgehend
 62
     7
370
    15
100
AcDbLine
 10
166.2938808728
 20
92.266624639
 30
0.0
 11
166.2938808728
 21
92.3570895886
 31
0.0
  0
LINE
  5
13D
330
1F
100
AcDbEntity
  8
0
  6
SLD-Durchgehend
 62
     7
370
    15
100
AcDbLine
 10
165.3438815553
 20
93.2166248878
 30
0.0
 11
165.3438815553
 21
93.2691524124
 31
0.0
  0
LWPOLYLINE
  5
13E
330
1F
100
AcDbEntity
  8
0
  6
SLD-Durchgehend
 62
     7
370
    15
100
AcDbPolyline
 90
        3
 70
   128
 43
0.0
 10
219.476553582
 20
88.6278504824
 10
219.8085440028
 20
88.5693932271
 10
220.0192762244
 20
88.4647908008
  0
ARC
  5
13F
330
1F
100
AcDbEntity
  8
0
  6
SLD-Durchgehend
 62
     7
370
    15
100
AcDbCircle
 10
219.4700633342
 20
122.5536947457
 30
0.0
 40
1.006316741037587
100
AcDbArc
 50
270.3695321481
 51
345.0859718107
  0
LINE
  5
140
330
1F
100
AcDbEntity
  8
0
  6
SLD-Durchgehend
 62
     7
370
    15
100
AcDbLine
 10
220.6458067227
 20
123.055811817
 30
0.0
 11
220.4424803782
 21
122.2946996188
 31
0.0
  0
ELLIPSE
  5
141
330
1F
100
AcDbEntity
  8
0
  6
SLD-Durchgehend
 62
     7
370
    15
100
AcDbEllipse
 10
235.9432051702
 20
105.0876247084
 30
0.0
 11
257.4119926208411
 21
-4.263256414560600E-14
 31
0.0
210
0.0
220
0.0
230
1.0
 40
0.0699268119
 41
1.613808494185135
 42
1.630259052154666
  0
LINE
  5
142
330
1F
100
AcDbEntity
  8
0
  6
SLD-Durchgehend
 62
     7
370
    15
100
AcDbLine
 10
238.0820465911
 20
104.1629757003
 30
0.0
 11
224.8747711707
 21
123.0709774738
 31
0.0
  0
LINE
  5
143
330
1F
100
AcDbEntity
  8
0
  6
SLD-Durchgehend
 62
     7
370
    15
100
AcDbLine
 10
238.5635403622
 20
94.9530972486
 30
0.0
 11
238.0820465911
 21
104.1629757003
 31
0.0
  0
LINE
  5
144
330
1F
100
AcDbEntity
  8
0
  6
SLD-Durchgehend
 62
     7
370
    15
100
AcDbLine
 10
233.2147760022
 20
107.3275176661
 30
0.0
 11
233.5236398209
 21
101.4196247181
 31
0.0
  0
ARC
  5
145
330
1F
100
AcDbEntity
  8
0
  6
SLD-Durchgehend
 62
     7
370
    15
100
AcDbCircle
 10
231.2314921755
 20
107.2270716303
 30
0.0
 40
1.985825809001922
100
AcDbArc
 50
2.8993433362
 51
183.1152736078
  0
LINE
  5
146
330
1F
100
AcDbEntity
  8
0
  6
SLD-Durchgehend
 62
     7
370
    15
100
AcDbLine
 10
229.3189642657
 20
105.773254085
 30
0.0
 11
229.2486009825
 21
107.1191519352
 31
0.0
  0
LINE
  5
147
330
1F
100
AcDbEntity
  8
0
  6
SLD-Durchgehend
 62
     7
370
    15
100
AcDbLine
 10
229.9578999806
 20
90.9869008085
 30
0.0
 11
230.0846306313
 21
90.8242965436
 31
0.0
  0
ARC
  5
148
330
1F
100
AcDbEntity
  8
0
  6
SLD-Durchgehend
 62
     7
370
    15
100
AcDbCircle
 10
226.8135762507
 20
88.5382530703
 30
0.0
 40
3.985303936231771
100
AcDbArc
 50
37.9097392227
 51
128.0599906431
  0
LINE
  5
149
330
1F
100
AcDbEntity
  8
0
  6
SLD-Durchgehend
 62
     7
370
    15
100
AcDbLine
 10
220.4844494987
 20
88.6434296465
 30
0.0
 11
224.3566913236
 21
91.6761447063
 31
0.0
  0
ELLIPSE
  5
14A
330
1F
100
AcDbEntity
  8
0
  6
SLD-Durchgehend
 62
     7
370
    15
100
AcDbEllipse
 10
224.2438812781
 20
76.9159595618
 30
0.0
 11
2.954074802267002
 21
12.09634822969464
 31
0.0
210
0.0
220
0.0
230
1.0
 40
0.96150598
 41
0.5673810459484403
 42
0.6084904934667621
  0
LWPOLYLINE
  5
14B
330
1F
100
AcDbEntity
  8
0
  6
SLD-Durchgehend
 62
     7
370
    15
100
AcDbPolyline
 90
        3
 70
   128
 43
0.0
 10
220.0192762244
 20
88.4647908008
 10
219.7805260945
 20
88.5464398509
 10
219.5689519573
 20
88.575923661
  0
LINE
  5
14C
330
1F
100
AcDbEntity
  8
0
  6
SLD-Durchgehend
 62
     7
370
    15
100
AcDbLine
 10
220.6458067227
 20
123.055811817
 30
0.0
 11
220.6458067227
 21
123.0876239335
 31
0.0
  0
ELLIPSE
  5
14D
330
1F
100
AcDbEntity
  8
0
  6
SLD-Durchgehend
 62
     7
370
    15
100
AcDbEllipse
 10
237.4434763787
 20
105.0876247084
 30
0.0
 11
-12.66911446516156
 21
17.99023400451812
 31
0.0
210
0.0
220
0.0
230
1.0
 40
0.0467955262
 41
6.207230633124704
 42
6.25024280051498
  0
ARC
  5
14E
330
1F
100
AcDbEntity
  8
0
  6
SLD-Durchgehend
 62
     7
370
    15
100
AcDbCircle
 10
231.0947859937
 20
107.2267373748
 30
0.0
 40
1.745752076071636
100
AcDbArc
 50
2.8954843319
 51
183.1191382112
  0
LINE
  5
14F
330
1F
100
AcDbEntity
  8
0
  6
SLD-Durchgehend
 62
     7
370
    15
100
AcDbLine
 10
229.3516201604
 20
107.1317469088
 30
0.0
 11
229.4124243487
 21
105.968689799
 31
0.0
  0
LINE
  5
150
330
1F
100
AcDbEntity
  8
0
  6
SLD-Durchgehend
 62
     7
370
    15
100
AcDbLine
 10
235.7741659213
 20
83.8649681156
 30
0.0
 11
230.7267626453
 21
90.3411291858
 31
0.0
  0
LINE
  5
151
330
1F
100
AcDbEntity
  8
0
  6
SLD-Durchgehend
 62
     7
370
    15
100
AcDbLine
 10
232.8383093405
 20
107.3149226924
 30
0.0
 11
233.11940112
 21
101.9382912984
 31
0.0
  0
ARC
  5
152
330
1F
100
AcDbEntity
  8
0
  6
SLD-Durchgehend
 62
     7
370
    15
100
AcDbCircle
 10
230.9184861636
 20
107.2257235409
 30
0.0
 40
1.747708908996967
100
AcDbArc
 50
2.9255193951
 51
87.0717419834
  0
LINE
  5
153
330
1F
100
AcDbEntity
  8
0
  6
SLD-Durchgehend
 62
     7
370
    15
100
AcDbLine
 10
232.9324697781
 20
102.1781352667
 30
0.0
 11
232.6639173258
 21
107.3149226924
 31
0.0
  0
LWPOLYLINE
  5
154
330
1F
100
AcDbEntity
  8
0
  6
SLD-Gestrichelt
 62
     7
370
     0
100
AcDbPolyline
 90
       28
 70
   128
 43
0.0
 10
207.3129759807
 20
108.4788910432
 10
207.2113742758
 20
108.0507026838
 10
207.2142781395
 20
107.6064296851
 10
207.3215329725
 20
107.1700235682
 10
207.5273552615
 20
106.7650109382
 10
207.8206473667
 20
106.4132259546
 10
208.1856010187
 20
106.133633488
 10
208.6025410969
 20
105.9413065288
 10
209.0489891995
 20
105.8466134329
 10
209.5008762259
 20
105.8546591869
 10
209.9338425029
 20
105.9650099107
 10
210.3245453615
 20
106.1717166651
 10
210.6519220103
 20
106.4636358844
 10
210.8983257491
 20
106.8250300216
 10
211.0504703302
 20
107.2364161575
 10
211.1001563895
 20
107.6756167078
 10
211.0447017182
 20
108.1189537274
 10
210.8870977241
 20
108.5425273834
 10
210.6358417947
 20
108.923502112
 10
210.3044772226
 20
109.241340155
 10
209.9108686376
 20
109.4789061082
 10
209.4762371559
 20
109.6233928895
 10
209.0240129907
 20
109.6670118479
 10
208.5785744417
 20
109.6074104628
 10
208.1639347304
 20
109.4478022626
 10
207.8024511862
 20
109.1967922023
 10
207.5136070777
 20
108.8679117003
 10
207.3129759807
 20
108.4788910432
  0
LWPOLYLINE
  5
155
330
1F
100
AcDbEntity
  8
0
  6
SLD-Gestrichelt
 62
     7
370
     0
100
AcDbPolyline
 90
       31
 70
   128
 43
0.0
 10
206.8830979694
 20
108.7459876055
 10
206.7617857534
 20
108.2609126663
 10
206.7471230108
 20
107.7569530664
 10
206.8397486288
 20
107.2561341191
 10
207.0356169421
 20
106.7803443495
 10
207.326165371
 20
106.3503777461
 10
207.6986962635
 20
105.9850261283
 10
208.136930101
 20
105.7002569634
 10
208.6217095781
 20
105.5085160681
 10
209.1318526942
 20
105.4181834536
 10
209.6450598616
 20
105.4332071128
 10
210.13890297
 20
105.5529304051
 10
210.5917995501
 20
105.7721208983
 10
210.9839534093
 20
106.0811988629
 10
211.2982282121
 20
106.4666560471
 10
211.5208869506
 20
106.9116462806
 10
211.6421991665
 20
107.3967212198
 10
211.6568619091
 20
107.9006808197
 10
211.5642362911
 20
108.401499767
 10
211.3683679778
 20
108.877289653
 10
211.0778195489
 20
109.3072559072
 10
210.7052886564
 20
109.6726076996
 10
210.2670548189
 20
109.9573768062
 10
209.7822734792
 20
110.1491179636
 10
209.2721322257
 20
110.2394501997
 10
208.7589250583
 20
110.2244265696
 10
208.2650819499
 20
110.1047036556
 10
207.8121853698
 20
109.8855131624
 10
207.420029648
 20
109.5764351396
 10
207.1057567079
 20
109.1909779554
 10
206.8830979694
 20
108.7459876055
  0
LWPOLYLINE
  5
156
330
1F
100
AcDbEntity
  8
0
  6
SLD-Gestrichelt
 62
     7
370
     0
100
AcDbPolyline
 90
       31
 70
   128
 43
0.0
 10
207.1869810749
 20
109.1920396632
 10
207.065668859
 20
108.7069649568
 10
207.0510061163
 20
108.2030053569
 10
207.143633597
 20
107.7021864096
 10
207.3395000476
 20
107.2263965236
 10
207.6300503392
 20
106.7964300366
 10
208.0025812317
 20
106.4310783606
 10
208.4408132065
 20
106.1463092539
 10
208.9255945463
 20
105.9545683295
 10
209.4357376624
 20
105.8642357441
 10
209.9489448298
 20
105.8792593742
 10
210.4427879382
 20
105.9989826956
 10
210.8956826556
 20
106.2181731306
 10
211.2878383774
 20
106.527251037
 10
211.6021131802
 20
106.9127083376
 10
211.8247719187
 20
107.3576985711
 10
211.9460841346
 20
107.8427735103
 10
211.9607468773
 20
108.3467331102
 10
211.8681193966
 20
108.8475520575
 10
211.672252946
 20
109.3233417107
 10
211.3817026544
 20
109.7533081977
 10
211.0091717619
 20
110.1186599901
 10
210.5709397871
 20
110.4034290967
 10
210.0861584473
 20
110.5951702541
 10
209.5760171939
 20
110.6855024902
 10
209.0628081638
 20
110.6704788601
 10
208.5689650554
 20
110.5507559461
 10
208.116070338
 20
110.3315654529
 10
207.7239146162
 20
110.0224874301
 10
207.4096398134
 20
109.6370302459
 10
207.1869810749
 20
109.1920396632
  0
LWPOLYLINE
  5
157
330
1F
100
AcDbEntity
  8
0
  6
SLD-Gestrichelt
 62
     7
370
     0
100
AcDbPolyline
 90
       28
 70
   128
 43
0.0
 10
208.2498473752
 20
109.8879658004
 10
208.1472379792
 20
109.4555359652
 10
208.1501716454
 20
109.006862933
 10
208.2584881861
 20
108.5661343152
 10
208.4663482089
 20
108.1571100133
 10
208.7625479031
 20
107.801840719
 10
209.1311150867
 20
107.5194790812
 10
209.5521846492
 20
107.3252471017
 10
210.0030546714
 20
107.2296161057
 10
210.4594176341
 20
107.2377414295
 10
210.8966717202
 20
107.3491853515
 10
211.2912451554
 20
107.5579394439
 10
211.6218646694
 20
107.8527500706
 10
211.8707084734
 20
108.2177235132
 10
212.024361797
 20
108.6331846511
 10
212.0745377321
 20
109.0767349435
 10
212.0185335804
 20
109.5244636146
 10
211.8593686897
 20
109.9522321803
 10
211.6056242663
 20
110.336980628
 10
211.2709777135
 20
110.6579665413
 10
210.8734724749
 20
110.8978854811
 10
210.4345345575
 20
111.0438037051
 10
209.9778307307
 20
111.0878543315
 10
209.5279795755
 20
111.0276629535
 10
209.1092345942
 20
110.8664738333
 10
208.7441691834
 20
110.6129776074
 10
208.4524640519
 20
110.2808395719
 10
208.2498473752
 20
109.8879658004
  0
LWPOLYLINE
  5
158
330
1F
100
AcDbEntity
  8
0
  6
SLD-Gestrichelt
 62
     7
370
     0
100
AcDbPolyline
 90
       28
 70
   128
 43
0.0
 10
207.5300225694
 20
108.8313829007
 10
207.427415036
 20
108.3989532983
 10
207.4303487021
 20
107.9502800332
 10
207.5386652429
 20
107.5095514154
 10
207.7465252656
 20
107.1005271135
 10
208.0427230973
 20
106.7452577028
 10
208.4112921435
 20
106.462896065
 10
208.832361706
 20
106.2686640855
 10
209.2832298655
 20
106.1730330896
 10
209.7395928282
 20
106.1811585298
 10
210.1768469144
 20
106.2926023353
 10
210.5714203495
 20
106.5013564277
 10
210.9020417262
 20
106.7961670544
 10
211.1508855302
 20
107.1611406134
 10
211.3045369912
 20
107.5766015185
 10
211.3547147889
 20
108.0201522766
 10
211.2987106372
 20
108.467880482
 10
211.1395457465
 20
108.8956492806
 10
210.8858013231
 20
109.2803974954
 10
210.5511547703
 20
109.6013838744
 10
210.153647669
 20
109.8413028141
 10
209.7147116143
 20
109.9872205725
 10
209.2580059249
 20
110.0312716646
 10
208.8081566323
 20
109.9710798209
 10
208.389411651
 20
109.8098911663
 10
208.0243462402
 20
109.5563944748
 10
207.7326411087
 20
109.224256905
 10
207.5300225694
 20
108.8313829007
  0
LWPOLYLINE
  5
159
330
1F
100
AcDbEntity
  8
0
  6
SLD-Gestrichelt
 62
     7
370
     0
100
AcDbPolyline
 90
       31
 70
   128
 43
0.0
 10
207.3067994494
 20
109.3679120151
 10
207.1854872335
 20
108.8828368431
 10
207.1708244909
 20
108.3788772432
 10
207.2634501088
 20
107.8780585287
 10
207.4593184221
 20
107.4022686427
 10
207.749866851
 20
106.9723020393
 10
208.1223977435
 20
106.6069503633
 10
208.560631581
 20
106.3221812567
 10
209.0454110581
 20
106.1304403322
 10
209.5555541743
 20
106.0401077468
 10
210.0687613416
 20
106.0551313769
 10
210.5626044501
 20
106.1748547565
 10
211.0155010302
 20
106.3940451333
 10
211.4076548893
 20
106.7031231562
 10
211.7219296921
 20
107.0885803403
 10
211.9445884306
 20
107.5335704574
 10
212.0659006465
 20
108.0186456295
 10
212.0805633891
 20
108.5226052294
 10
211.9879377711
 20
109.0234241767
 10
211.7920694578
 20
109.499213597
 10
211.5015210289
 20
109.9291805496
 10
211.1289901365
 20
110.2945318764
 10
210.690756299
 20
110.5793014487
 10
210.2059749592
 20
110.7710421404
 10
209.6958337057
 20
110.8613748422
 10
209.1826265383
 20
110.8463512121
 10
208.6887834299
 20
110.7266278325
 10
208.2358868498
 20
110.5074373392
 10
207.8437329907
 20
110.1983593164
 10
207.5294581879
 20
109.8129021322
 10
207.3067994494
 20
109.3679120151
  0
LWPOLYLINE
  5
15A
330
1F
100
AcDbEntity
  8
0
  6
SLD-Gestrichelt
 62
     7
370
     0
100
AcDbPolyline
 90
       30
 70
   128
 43
0.0
 10
207.4037035633
 20
109.1644790342
 10
207.289983489
 20
108.7023963539
 10
207.2813352276
 20
108.2224653421
 10
207.3781611103
 20
107.7471266819
 10
207.5759386349
 20
107.2986068523
 10
207.8654160429
 20
106.8978780733
 10
208.2330593545
 20
106.5636780897
 10
208.6616763551
 20
106.3116335629
 10
209.1312287081
 20
106.1535300307
 10
209.6197576899
 20
106.096760099
 10
210.1044198204
 20
106.14397827
 10
210.5625560213
 20
106.292976727
 10
210.9727421481
 20
106.5367883623
 10
211.3157985438
 20
106.8640128562
 10
211.5756841082
 20
107.2593497431
 10
211.7402469445
 20
107.7043130847
 10
211.8017924655
 20
108.1780973675
 10
211.7574428845
 20
108.6585487558
 10
211.6092731882
 20
109.1232018864
 10
211.3642086912
 20
109.5503301678
 10
211.0337102491
 20
109.9199609218
 10
210.6332322288
 20
110.2148115953
 10
210.1814998019
 20
110.421094889
 10
209.6996353645
 20
110.5291650949
 10
209.2101694722
 20
110.5339693224
 10
208.7359903086
 20
110.4352826571
 10
208.2992708016
 20
110.2377193367
 10
207.9204292674
 20
109.9505176155
 10
207.6171794612
 20
109.5871066993
 10
207.4037035633
 20
109.1644790342
  0
LWPOLYLINE
  5
15B
330
1F
100
AcDbEntity
  8
0
  6
SLD-Gestrichelt
 62
     7
370
     0
100
AcDbPolyline
 90
       31
 70
   128
 43
0.0
 10
207.4266159613
 20
109.5437839014
 10
207.3053037453
 20
109.0587087294
 10
207.2906410027
 20
108.5547493624
 10
207.3832666207
 20
108.053930415
 10
207.579134934
 20
107.5781407619
 10
207.8696833629
 20
107.1481740421
 10
208.242216118
 20
106.7828223661
 10
208.6804480929
 20
106.4980532594
 10
209.1652294327
 20
106.3063123349
 10
209.6753706861
 20
106.2159797495
 10
210.1885797162
 20
106.2310033796
 10
210.6824228246
 20
106.3507267592
 10
211.135317542
 20
106.5699172525
 10
211.5274732638
 20
106.8789951589
 10
211.841746204
 20
107.2644524595
 10
212.0644049425
 20
107.7094425766
 10
212.1857171584
 20
108.1945175158
 10
212.2003817636
 20
108.6984771157
 10
212.107754283
 20
109.199296063
 10
211.9118859697
 20
109.675085949
 10
211.6213375408
 20
110.105052436
 10
211.2488066483
 20
110.4704042284
 10
210.8105746735
 20
110.755173335
 10
210.3257933337
 20
110.9469140267
 10
209.8156502176
 20
111.0372467285
 10
209.3024430502
 20
111.0222230984
 10
208.8085999418
 20
110.9024997188
 10
208.3557033617
 20
110.6833092255
 10
207.9635495026
 20
110.3742312027
 10
207.6492746998
 20
109.9887740185
 10
207.4266159613
 20
109.5437839014
  0
LWPOLYLINE
  5
15C
330
1F
100
AcDbEntity
  8
0
  6
SLD-Gestrichelt
 62
     7
370
     0
100
AcDbPolyline
 90
       30
 70
   128
 43
0.0
 10
207.5235219378
 20
109.3403509205
 10
207.4098000009
 20
108.878268473
 10
207.4011517394
 20
108.3983372284
 10
207.4979794849
 20
107.9229985682
 10
207.6957551468
 20
107.4744787386
 10
207.9852325547
 20
107.0737501925
 10
208.3528758664
 20
106.7395500924
 10
208.7814947296
 20
106.487505682
 10
209.25104522
 20
106.3294020334
 10
209.7395742018
 20
106.2726321017
 10
210.2242381949
 20
106.3198502727
 10
210.6823725332
 20
106.4688487297
 10
211.09255866
 20
106.712660365
 10
211.4356150556
 20
107.0398849754
 10
211.6955006201
 20
107.4352216294
 10
211.8600634564
 20
107.8801852038
 10
211.9216089774
 20
108.3539694866
 10
211.877261259
 20
108.8344208749
 10
211.7290897001
 20
109.2990737727
 10
211.4840270657
 20
109.7262020541
 10
211.1535286236
 20
110.0958332738
 10
210.7530506033
 20
110.3906839473
 10
210.3013181765
 20
110.596967241
 10
209.8194518764
 20
110.7050374469
 10
209.3299878467
 20
110.7098412087
 10
208.8558086831
 20
110.6111545434
 10
208.4190873135
 20
110.413591223
 10
208.0402457792
 20
110.1263895018
 10
207.7369978357
 20
109.7629785856
 10
207.5235219378
 20
109.3403509205
  0
LWPOLYLINE
  5
15D
330
1F
100
AcDbEntity
  8
0
  6
SLD-Gestrichelt
 62
     7
370
     0
100
AcDbPolyline
 90
       31
 70
   128
 43
0.0
 10
207.5464343358
 20
109.7196557878
 10
207.4251221199
 20
109.2345810814
 10
207.4104575146
 20
108.7306212487
 10
207.5030849952
 20
108.2298025342
 10
207.6989533085
 20
107.7540126482
 10
207.9895017374
 20
107.3240461612
 10
208.3620326299
 20
106.9586944852
 10
208.8002646048
 20
106.6739252621
 10
209.2850459445
 20
106.4821844541
 10
209.7951890606
 20
106.3918518687
 10
210.308396228
 20
106.4068754988
 10
210.8022393364
 20
106.526598762
 10
211.2551359165
 20
106.7457892552
 10
211.6472897757
 20
107.0548671616
 10
211.9615645785
 20
107.4403243458
 10
212.184223317
 20
107.8853146957
 10
212.3055355329
 20
108.3703896349
 10
212.3201982755
 20
108.8743492348
 10
212.2275726575
 20
109.3751679493
 10
212.0317043442
 20
109.8509578353
 10
211.7411559153
 20
110.2809243223
 10
211.3686231602
 20
110.6462761147
 10
210.9303911854
 20
110.9310452213
 10
210.4456098456
 20
111.1227863787
 10
209.9354685921
 20
111.2131186148
 10
209.4222595621
 20
111.1980949847
 10
208.9284164537
 20
111.0783716051
 10
208.4755217362
 20
110.8591815775
 10
208.0833660144
 20
110.5501035547
 10
207.7690930743
 20
110.1646463705
 10
207.5464343358
 20
109.7196557878
  0
LWPOLYLINE
  5
15E
330
1F
100
AcDbEntity
  8
0
  6
SLD-Gestrichelt
 62
     7
370
     0
100
AcDbPolyline
 90
       30
 70
   128
 43
0.0
 10
207.6433384497
 20
109.5162232725
 10
207.5296183754
 20
109.0541405922
 10
207.5209682513
 20
108.5742093476
 10
207.6177959967
 20
108.0988706874
 10
207.8155735213
 20
107.6503508577
 10
208.1050509293
 20
107.2496220788
 10
208.4726942409
 20
106.9154220952
 10
208.9013112415
 20
106.6633776847
 10
209.3708635945
 20
106.5052741526
 10
209.8593925763
 20
106.4485041045
 10
210.3440547068
 20
106.4957222754
 10
210.8021909077
 20
106.6447207324
 10
211.2123770345
 20
106.8885323677
 10
211.5554315675
 20
107.2157568617
 10
211.8153171319
 20
107.6110937485
 10
211.9798818309
 20
108.056057323
 10
212.0414273519
 20
108.5298413729
 10
211.9970777709
 20
109.010292994
 10
211.8489062119
 20
109.474945659
 10
211.6038435776
 20
109.9020739404
 10
211.2733451355
 20
110.2717051601
 10
210.8728671152
 20
110.5665558336
 10
210.4211346883
 20
110.7728391273
 10
209.9392702509
 20
110.8809093332
 10
209.4498043586
 20
110.8857135607
 10
208.975625195
 20
110.7870264297
 10
208.538905688
 20
110.589463575
 10
208.1600622911
 20
110.3022618538
 10
207.8568143476
 20
109.9388509376
 10
207.6433384497
 20
109.5162232725
  0
LWPOLYLINE
  5
15F
330
1F
100
AcDbEntity
  8
0
  6
SLD-Gestrichelt
 62
     7
370
     0
100
AcDbPolyline
 90
       31
 70
   128
 43
0.0
 10
207.6662508476
 20
109.8955281397
 10
207.5449386317
 20
109.4104529677
 10
207.5302758891
 20
108.9064933678
 10
207.6229015071
 20
108.4056746533
 10
207.8187698204
 20
107.9298847673
 10
208.1093182493
 20
107.4999180475
 10
208.4818491418
 20
107.1345664879
 10
208.9200829793
 20
106.8497972649
 10
209.404864319
 20
106.6580564568
 10
209.9150055725
 20
106.5677238714
 10
210.4282127399
 20
106.5827475015
 10
210.9220558483
 20
106.7024707647
 10
211.3749524284
 20
106.9216612579
 10
211.7671062875
 20
107.2307392808
 10
212.0813810904
 20
107.6161964649
 10
212.3040398288
 20
108.061186582
 10
212.4253520448
 20
108.5462615212
 10
212.4400147874
 20
109.0502211211
 10
212.3473891694
 20
109.5510403013
 10
212.1515208561
 20
110.0268297216
 10
211.8609724272
 20
110.4567966742
 10
211.4884415347
 20
110.822148001
 10
211.0502076972
 20
111.1069171077
 10
210.5654282201
 20
111.298658265
 10
210.055285104
 20
111.3889909668
 10
209.5420779366
 20
111.3739673367
 10
209.0482348282
 20
111.2542439571
 10
208.5953382481
 20
111.0350534638
 10
208.2031843889
 20
110.725975441
 10
207.8889095861
 20
110.3405182568
 10
207.6662508476
 20
109.8955281397
  0
LWPOLYLINE
  5
160
330
1F
100
AcDbEntity
  8
0
  6
SLD-Gestrichelt
 62
     7
370
     0
100
AcDbPolyline
 90
       30
 70
   128
 43
0.0
 10
207.7631568242
 20
109.6920951588
 10
207.6494348872
 20
109.2300124785
 10
207.6407866258
 20
108.7500814667
 10
207.7376143712
 20
108.2747428065
 10
207.9353900332
 20
107.8262229769
 10
208.2248674411
 20
107.4254941979
 10
208.5925107527
 20
107.0912942143
 10
209.021129616
 20
106.8392496875
 10
209.4906801064
 20
106.6811461553
 10
209.9792090882
 20
106.6243762236
 10
210.4638730813
 20
106.6715943946
 10
210.9220074195
 20
106.8205927351
 10
211.3321935464
 20
107.0644043704
 10
211.675249942
 20
107.3916289808
 10
211.9351355065
 20
107.7869658677
 10
212.0996983427
 20
108.2319292093
 10
212.1612438638
 20
108.7057134921
 10
212.1168942828
 20
109.1861648804
 10
211.9687245864
 20
109.650818011
 10
211.7236600894
 20
110.0779458268
 10
211.39316351
 20
110.4475770464
 10
210.9926854897
 20
110.7424277199
 10
210.5409512002
 20
110.9487110136
 10
210.0590867627
 20
111.0567812195
 10
209.5696208704
 20
111.061585447
 10
209.0954435695
 20
110.9628987817
 10
208.6587221999
 20
110.7653354613
 10
208.2798806656
 20
110.4781337401
 10
207.9766327221
 20
110.1147228239
 10
207.7631568242
 20
109.6920951588
  0
ARC
  5
161
330
1F
100
AcDbEntity
  8
0
  6
SLD-Gestrichelt
 62
     7
370
     0
100
AcDbCircle
 10
210.0844465395
 20
109.2223080475
 30
0.0
 40
2.460998689141004
100
AcDbArc
 50
160.6996940892
 51
229.9777988795
  0
LWPOLYLINE
  5
162
330
1F
100
AcDbEntity
  8
0
  6
SLD-Gestrichelt
 62
     7
370
     0
100
AcDbPolyline
 90
       25
 70
   128
 43
0.0
 10
209.4439947683
 20
106.8149210971
 10
209.5003695864
 20
106.798244253
 10
210.0105127025
 20
106.7079116676
 10
210.5237198699
 20
106.7229352977
 10
211.0175629783
 20
106.8426586773
 10
211.4704595584
 20
107.0618490541
 10
211.8626134176
 20
107.370927077
 10
212.1768882204
 20
107.7563842611
 10
212.3995469589
 20
108.2013746111
 10
212.5208591748
 20
108.6864495503
 10
212.5355219174
 20
109.1904089173
 10
212.4428962994
 20
109.6912280975
 10
212.2470279861
 20
110.1670179835
 10
211.9564795572
 20
110.5969844704
 10
211.5839468021
 20
110.9623357972
 10
211.1457148272
 20
111.2471053695
 10
210.6609334875
 20
111.4388460612
 10
210.150792234
 20
111.529178763
 10
209.6375850666
 20
111.5141551329
 10
209.1437400956
 20
111.3944317533
 10
208.6908453781
 20
111.17524126
 10
208.2986896563
 20
110.8661632372
 10
207.9844167162
 20
110.480706053
 10
207.7617579777
 20
110.0357159359
 10
207.7617579777
 20
110.0357159359
  0
LWPOLYLINE
  5
163
330
1F
100
AcDbEntity
  8
0
  6
SLD-Gestrichelt
 62
     7
370
     0
100
AcDbPolyline
 90
       31
 70
   128
 43
0.0
 10
207.9159253914
 20
110.0200385174
 10
207.801408105
 20
109.5621276965
 10
207.7875649262
 20
109.0863899646
 10
207.8750049401
 20
108.6136168653
 10
208.0599041361
 20
108.1644711869
 10
208.3341823596
 20
107.7585828809
 10
208.6858516265
 20
107.4136908485
 10
209.0995432515
 20
107.1448687782
 10
209.5571765382
 20
106.9638653045
 10
210.038750403
 20
106.8785913141
 10
210.5232188184
 20
106.8927737271
 10
210.9894072343
 20
107.0057925155
 10
211.4169401754
 20
107.2127081772
 10
211.7871353108
 20
107.5044778028
 10
212.0838099796
 20
107.8683494909
 10
212.2940001715
 20
108.2884202098
 10
212.4085174579
 20
108.7463310307
 10
212.4223606367
 20
109.2220687626
 10
212.3349206228
 20
109.6948420947
 10
212.1500214267
 20
110.1439873075
 10
211.8757432032
 20
110.5498758463
 10
211.5240739364
 20
110.8947678788
 10
211.1103823114
 20
111.163589949
 10
210.6527490247
 20
111.3445934227
 10
210.1711751599
 20
111.4298671802
 10
209.6867067445
 20
111.4156850001
 10
209.2205183286
 20
111.3026662117
 10
208.7929853875
 20
111.09575055
 10
208.422790252
 20
110.8039806915
 10
208.1261155832
 20
110.4401092363
 10
207.9159253914
 20
110.0200385174
  0
ARC
  5
164
330
1F
100
AcDbEntity
  8
0
  6
SLD-Gestrichelt
 62
     7
370
     0
100
AcDbCircle
 10
234.7078035095
 20
92.0662222521
 30
0.0
 40
3.039791909232075
100
AcDbArc
 50
217.9062369109
 51
269.9836030724
  0
ARC
  5
165
330
1F
100
AcDbEntity
  8
0
  6
SLD-Gestrichelt
 62
     7
370
     0
100
AcDbCircle
 10
234.713192631
 20
92.0762361302
 30
0.0
 40
3.050199709935243
100
AcDbArc
 50
90.117571782
 51
217.9924605391
  0
CIRCLE
  5
166
330
1F
100
AcDbEntity
  8
0
  6
SLD-Gestrichelt
 62
     7
370
     0
100
AcDbCircle
 10
234.6516471613
 20
92.0733223896
 30
0.0
 40
2.197918504105242
  0
CIRCLE
  5
167
330
1F
100
AcDbEntity
  8
0
  6
SLD-Gestrichelt
 62
     7
370
     0
100
AcDbCircle
 10
234.4485627328
 20
92.0733114323
 30
0.0
 40
2.197920401535414
  0
ARC
  5
168
330
1F
100
AcDbEntity
  8
0
  6
SLD-Gestrichelt
 62
     7
370
     0
100
AcDbCircle
 10
238.4402785549
 20
93.5741822785
 30
0.0
 40
0.0994173817243411
100
AcDbArc
 50
2.9891888174
 51
37.9194491969
  0
ARC
  5
169
330
1F
100
AcDbEntity
  8
0
  6
SLD-Gestrichelt
 62
     7
370
     0
100
AcDbCircle
 10
239.1846953807
 20
79.367246493
 30
0.0
 40
0.0978333600498185
100
AcDbArc
 50
215.635869477
 51
5.4558568874
  0
LINE
  5
16A
330
1F
100
AcDbEntity
  8
0
  6
SLD-Gestrichelt
 62
     7
370
     0
100
AcDbLine
 10
239.2820855308
 20
79.3765483743
 30
0.0
 11
238.5395606685
 21
93.5793666488
 31
0.0
  0
LINE
  5
16B
330
1F
100
AcDbEntity
  8
0
  6
SLD-Gestrichelt
 62
     7
370
     0
100
AcDbLine
 10
230.3703864742
 20
90.5175794234
 30
0.0
 11
239.1051826704
 21
79.3102456575
 31
0.0
  0
ARC
  5
16C
330
1F
100
AcDbEntity
  8
0
  6
SLD-Gestrichelt
 62
     7
370
     0
100
AcDbCircle
 10
230.4487345069
 20
90.5786468728
 30
0.0
 40
0.0993360336950065
100
AcDbArc
 50
182.9744256227
 51
217.9342123916
  0
LINE
  5
16D
330
1F
100
AcDbEntity
  8
0
  6
SLD-Gestrichelt
 62
     7
370
     0
100
AcDbLine
 10
238.5187064934
 20
93.6352795308
 30
0.0
 11
229.7839065719
 21
104.8426125983
 31
0.0
  0
ARC
  5
16E
330
1F
100
AcDbEntity
  8
0
  6
SLD-Gestrichelt
 62
     7
370
     0
100
AcDbCircle
 10
229.704394204
 20
104.785616448
 30
0.0
 40
0.0978303521692983
100
AcDbArc
 50
35.6337561861
 51
185.4582507716
  0
LINE
  5
16F
330
1F
100
AcDbEntity
  8
0
  6
SLD-Gestrichelt
 62
     7
370
     0
100
AcDbLine
 10
229.6070074368
 20
104.7763107838
 30
0.0
 11
230.3495322991
 21
90.5734923055
 31
0.0
  0
ARC
  5
170
330
1F
100
AcDbEntity
  8
0
  6
SLD-Gestrichelt
 62
     7
370
     0
100
AcDbCircle
 10
233.3644196297
 20
92.603443733
 30
0.0
 40
0.3350505161821827
100
AcDbArc
 50
85.2061330691
 51
238.5310552292
  0
ARC
  5
171
330
1F
100
AcDbEntity
  8
0
  6
SLD-Gestrichelt
 62
     7
370
     0
100
AcDbCircle
 10
233.6387398663
 20
91.2899366948
 30
0.0
 40
0.3349291963246652
100
AcDbArc
 50
145.0717672505
 51
278.9022834594
  0
ARC
  5
172
330
1F
100
AcDbEntity
  8
0
  6
SLD-Gestrichelt
 62
     7
370
     0
100
AcDbCircle
 10
233.4421206151
 20
93.5205609252
 30
0.0
 40
0.5853525149143
100
AcDbArc
 50
265.1293334101
 51
358.6638500229
  0
ARC
  5
173
330
1F
100
AcDbEntity
  8
0
  6
SLD-Gestrichelt
 62
     7
370
     0
100
AcDbCircle
 10
234.3615462471
 20
93.4992415004
 30
0.0
 40
0.3343202737693944
100
AcDbArc
 50
75.5499474877
 51
178.6853810679
  0
ARC
  5
174
330
1F
100
AcDbEntity
  8
0
  6
SLD-Gestrichelt
 62
     7
370
     0
100
AcDbCircle
 10
234.0774997527
 20
90.4824567716
 30
0.0
 40
0.5847157453905641
100
AcDbArc
 50
24.9751967933
 51
89.9692066221
  0
ARC
  5
175
330
1F
100
AcDbEntity
  8
0
  6
SLD-Gestrichelt
 62
     7
370
     0
100
AcDbCircle
 10
234.910343565
 20
90.8703239802
 30
0.0
 40
0.3340169642402266
100
AcDbArc
 50
204.966583041
 51
276.4971199614
  0
ARC
  5
176
330
1F
100
AcDbEntity
  8
0
  6
SLD-Gestrichelt
 62
     7
370
     0
100
AcDbCircle
 10
235.1937949897
 20
93.8864121237
 30
0.0
 40
0.5836631811845648
100
AcDbArc
 50
270.002243788
 51
298.6481863122
  0
ARC
  5
177
330
1F
100
AcDbEntity
  8
0
  6
SLD-Gestrichelt
 62
     7
370
     0
100
AcDbCircle
 10
234.6614336169
 20
92.1854729151
 30
0.0
 40
2.625003987267227
100
AcDbArc
 50
270.1031685667
 51
89.8968314333
  0
LINE
  5
178
330
1F
100
AcDbEntity
  8
0
  6
SLD-Gestrichelt
 62
     7
370
     0
100
AcDbLine
 10
235.8792116571
 20
91.4325991964
 30
0.0
 11
235.8289612163
 21
91.4347673153
 31
0.0
  0
LWPOLYLINE
  5
179
330
1F
100
AcDbEntity
  8
0
  6
SLD-Gestrichelt
 62
     7
370
     0
100
AcDbPolyline
 90
        3
 70
   128
 43
0.0
 10
235.4736206759
 20
93.3742009422
 10
235.5789569843
 20
93.4105374237
 10
235.6638936032
 20
93.4136424532
  0
LINE
  5
17A
330
1F
100
AcDbEntity
  8
0
  6
SLD-Gestrichelt
 62
     7
370
     0
100
AcDbLine
 10
235.974992596
 20
91.438175956
 30
0.0
 11
235.8792116571
 21
91.4325991964
 31
0.0
  0
ARC
  5
17B
330
1F
100
AcDbEntity
  8
0
  6
SLD-Gestrichelt
 62
     7
370
     0
100
AcDbCircle
 10
232.8825027635
 20
91.8173135273
 30
0.0
 40
0.587036685246467
100
AcDbArc
 50
325.130634934
 51
58.4676572714
  0
CIRCLE
  5
17C
330
1F
100
AcDbEntity
  8
0
  6
SLD-Gestrichelt
 62
     7
370
     0
100
AcDbCircle
 10
234.4733706876
 20
92.1821337848
 30
0.0
 40
1.997144353942625
  0
CIRCLE
  5
17D
330
1F
100
AcDbEntity
  8
0
  6
SLD-Gestrichelt
 62
     7
370
     0
100
AcDbCircle
 10
234.1176041515
 20
92.1821348954
 30
0.0
 40
1.997142659314082
  0
CIRCLE
  5
17E
330
1F
100
AcDbEntity
  8
0
  6
SLD-Gestrichelt
 62
     7
370
     0
100
AcDbCircle
 10
234.1104286326
 20
92.1820884886
 30
0.0
 40
1.897059807687563
  0
LINE
  5
17F
330
1F
100
AcDbEntity
  8
0
  6
SLD-Gestrichelt
 62
     7
370
     0
100
AcDbLine
 10
199.2087214891
 20
121.199034
 30
0.0
 11
199.2087214891
 21
116.9376250675
 31
0.0
  0
LINE
  5
180
330
1F
100
AcDbEntity
  8
0
  6
SLD-Gestrichelt
 62
     7
370
     0
100
AcDbLine
 10
205.1938818473
 20
117.9650275355
 30
0.0
 11
205.1938818473
 21
116.9376250675
 31
0.0
  0
LWPOLYLINE
  5
181
330
1F
100
AcDbEntity
  8
0
  6
SLD-Gestrichelt
 62
     7
370
     0
100
AcDbPolyline
 90
        8
 70
   128
 43
0.0
 10
219.476553582
 20
88.5888001269
 10
218.939880811
 20
88.6447036957
 10
218.5984020758
 20
88.7927411443
 10
218.4453447986
 20
89.0412701612
 10
218.4728672434
 20
89.3866716271
 10
218.6964144636
 20
89.8425670659
 10
219.1251506735
 20
90.3705589792
 10
219.476553582
 20
90.7007463595
  0
ARC
  5
182
330
1F
100
AcDbEntity
  8
0
  6
SLD-Gestrichelt
 62
     7
370
     0
100
AcDbCircle
 10
210.1645240248
 20
109.3417238177
 30
0.0
 40
2.448130682656858
100
AcDbArc
 50
155.3572842319
 51
271.0712243888
  0
LWPOLYLINE
  5
183
330
1F
100
AcDbEntity
  8
0
  6
SLD-Gestrichelt
 62
     7
370
     0
100
AcDbPolyline
 90
       13
 70
   128
 43
0.0
 10
207.9723728526
 20
110.4246292582
 10
208.4289388437
 20
111.0381119272
 10
209.1085230637
 20
111.4908408692
 10
209.9089892287
 20
111.7072271502
 10
210.7479320545
 20
111.6713926515
 10
211.5461611826
 20
111.3811753077
 10
212.2115892995
 20
110.849210838
 10
212.642784201
 20
110.133297587
 10
212.7823875923
 20
109.3417614086
 10
212.6427357722
 20
108.5726067742
 10
212.2553931255
 20
107.8823284099
 10
211.6431845058
 20
107.3241746837
 10
211.3086050082
 20
107.1766897423
  0
LINE
  5
184
330
1F
100
AcDbEntity
  8
0
  6
SLD-Gestrichelt
 62
     7
370
     0
100
AcDbLine
 10
210.5830041397
 20
106.9409472022
 30
0.0
 11
210.2102925707
 21
106.8940210009
 31
0.0
  0
LINE
  5
185
330
1F
100
AcDbEntity
  8
0
  6
SLD-Gestrichelt
 62
     7
370
     0
100
AcDbLine
 10
176.8928728703
 20
90.3888697123
 30
0.0
 11
176.6939144287
 21
90.3631912863
 31
0.0
  0
LWPOLYLINE
  5
186
330
1F
100
AcDbEntity
  8
0
  6
SLD-Gestrichelt
 62
     7
370
     0
100
AcDbPolyline
 90
        3
 70
   128
 43
0.0
 10
177.250385255
 20
90.4265379852
 10
177.2374435965
 20
90.4255321568
 10
176.8928728703
 20
90.3888697123
  0
LWPOLYLINE
  5
187
330
1F
100
AcDbEntity
  8
0
  6
SLD-Gestrichelt
 62
     7
370
     0
100
AcDbPolyline
 90
        3
 70
   128
 43
0.0
 10
176.8927545924
 20
119.7863648033
 10
177.2381951738
 20
119.7497712767
 10
177.2445104722
 20
119.7492804697
  0
LWPOLYLINE
  5
188
330
1F
100
AcDbEntity
  8
0
  6
SLD-Gestrichelt
 62
     7
370
     0
100
AcDbPolyline
 90
        3
 70
   128
 43
0.0
 10
176.4786736745
 20
119.8416816389
 10
176.6339102466
 20
119.8192460781
 10
176.8927545924
 20
119.7863648033
  0
LWPOLYLINE
  5
189
330
1F
100
AcDbEntity
  8
0
  6
SLD-Gestrichelt
 62
     7
370
     0
100
AcDbPolyline
 90
        7
 70
   128
 43
0.0
 10
205.2735527683
 20
104.5064057891
 10
205.0379039425
 20
104.3703406087
 10
204.9172008116
 20
104.284535357
 10
204.8777406741
 20
104.2326081281
 10
204.9087928314
 20
104.1964685048
 10
205.1887986887
 20
104.1067144453
 10
205.5267067332
 20
103.9324558426
  0
LWPOLYLINE
  5
18A
330
1F
100
AcDbEntity
  8
0
  6
SLD-Gestrichelt
 62
     7
370
     0
100
AcDbPolyline
 90
        7
 70
   128
 43
0.0
 10
205.5267067332
 20
103.9324558426
 10
205.8424623389
 20
103.9745402142
 10
206.0095695484
 20
104.0204369549
 10
206.0539154041
 20
104.0795946812
 10
206.02178105
 20
104.1633229672
 10
205.8417806107
 20
104.318674965
 10
205.2735527683
 20
104.5064057891
  0
LWPOLYLINE
  5
18B
330
1F
100
AcDbEntity
  8
0
  6
SLD-Gestrichelt
 62
     7
370
     0
100
AcDbPolyline
 90
       25
 70
   128
 43
0.0
 10
207.0953054059
 20
102.708101351
 10
206.604593404
 20
102.7390173024
 10
205.9345757294
 20
102.8983060589
 10
205.330480792
 20
103.238694681
 10
204.9603527117
 20
103.6747637756
 10
204.7903379131
 20
104.1340228023
 10
204.7757906545
 20
104.6640933984
 10
204.90094737
 20
105.1428327575
 10
205.2285438109
 20
105.7206060125
 10
205.8744867969
 20
106.3395507719
 10
206.2647426207
 20
106.5651296724
 10
206.7128466148
 20
106.7208808001
 10
207.1324558634
 20
106.7645521454
 10
207.5485372622
 20
106.6962409152
 10
208.010715403
 20
106.4655178545
 10
208.5406193215
 20
105.9295991638
 10
208.8981521953
 20
105.2183185295
 10
209.0188329745
 20
104.6229494006
 10
208.9889598716
 20
104.0425919548
 10
208.8225735057
 20
103.5601675596
 10
208.5153674412
 20
103.1576249136
 10
208.017271914
 20
102.8538121229
 10
207.5831750113
 20
102.7427134888
 10
207.189221837
 20
102.7092682982
 10
207.0953054059
 20
102.708101351
  0
LWPOLYLINE
  5
18C
330
1F
100
AcDbEntity
  8
0
  6
SLD-Gestrichelt
 62
     7
370
     0
100
AcDbPolyline
 90
       19
 70
   128
 43
0.0
 10
203.2790416557
 20
102.7168730127
 10
203.3801125068
 20
102.9909032715
 10
203.4917799462
 20
103.1769002641
 10
203.6429242868
 20
103.3703307241
 10
203.7918353159
 20
103.5296246029
 10
204.015419789
 20
103.7387793969
 10
204.1553491432
 20
103.863431452
 10
204.2032247115
 20
103.9115900259
 10
204.2169375051
 20
103.9359494664
 10
204.1995292235
 20
103.939628889
 10
204.1390156079
 20
103.9139851548
 10
203.9886833806
 20
103.8095274327
 10
203.7405492444
 20
103.5407050133
 10
203.5825466443
 20
103.2782671593
 10
203.4727958668
 20
102.9907146787
 10
203.4417381216
 20
102.8127594238
 10
203.4540036399
 20
102.651946325
 10
203.5417062867
 20
102.4875709174
 10
203.5417062867
 20
102.4875709174
  0
LWPOLYLINE
  5
18D
330
1F
100
AcDbEntity
  8
0
  6
SLD-Gestrichelt
 62
     7
370
     0
100
AcDbPolyline
 90
       35
 70
   128
 43
0.0
 10
203.5417062867
 20
102.4875709174
 10
203.6701617468
 20
101.6597827749
 10
203.8586167324
 20
101.239118105
 10
204.0342213292
 20
101.0004778711
 10
204.2070598978
 20
100.8459914794
 10
204.3962301392
 20
100.7362327857
 10
204.860319354
 20
100.6095794348
 10
205.3627585698
 20
100.593752539
 10
205.8984739412
 20
100.6706420651
 10
206.540654384
 20
100.8861063367
 10
207.0289263207
 20
101.1649112536
 10
207.3752125431
 20
101.4628783653
 10
207.6310058761
 20
101.8005198186
 10
207.769378059
 20
102.1236973667
 10
207.8037475873
 20
102.5631549621
 10
207.5850953985
 20
103.0698996821
 10
207.3938520331
 20
103.2511402938
 10
207.1855934042
 20
103.3451788446
 10
207.1099159945
 20
103.3177263655
 10
207.0909468163
 20
103.2269924965
 10
207.12144018
 20
103.0250720998
 10
207.2181524415
 20
102.4752520809
 10
207.2249846239
 20
101.7574638447
 10
207.078591891
 20
101.1104512347
 10
206.7616479177
 20
100.5220788849
 10
206.3680858988
 20
100.1406692287
 10
205.9291181792
 20
99.9257786518
 10
205.426339962
 20
99.8619318327
 10
204.8433990855
 20
99.9896636551
 10
204.45369833
 20
100.1863850599
 10
204.212496959
 20
100.3426847367
 10
204.0204899091
 20
100.474611236
 10
203.8408880759
 20
100.5981907567
 10
203.4933464307
 20
100.8546481227
 10
203.2839087475
 20
101.0507478697
  0
LWPOLYLINE
  5
18E
330
1F
100
AcDbEntity
  8
0
  6
SLD-Gestrichelt
 62
     7
370
     0
100
AcDbPolyline
 90
       29
 70
   128
 43
0.0
 10
205.0344356973
 20
99.6830848364
 10
205.4946301211
 20
99.7129402442
 10
205.9317500967
 20
99.8430134116
 10
206.3238722909
 20
100.0667813553
 10
206.6513383467
 20
100.3730244322
 10
206.8977271844
 20
100.7463851331
 10
207.0506801534
 20
101.1681424772
 10
207.1025324691
 20
101.617147526
 10
207.0506801534
 20
102.0708853232
 10
206.8977271844
 20
102.5066031927
 10
206.6513383467
 20
102.9024530055
 10
206.3238722909
 20
103.2385846686
 10
205.9317500967
 20
103.4981434552
 10
205.4946301211
 20
103.668114016
 10
205.0344356973
 20
103.7399731196
 10
204.5742412735
 20
103.7101175955
 10
204.1371231604
 20
103.5800444281
 10
203.7449991036
 20
103.3562762516
 10
203.4175330479
 20
103.0500334075
 10
203.1711460728
 20
102.6766724737
 10
203.0181912411
 20
102.2549151296
 10
202.9663389254
 20
101.8059100809
 10
203.0181912411
 20
101.3521725165
 10
203.1711460728
 20
100.9164544141
 10
203.4175330479
 20
100.5206046013
 10
203.7449991036
 20
100.1844730547
 10
204.1371231604
 20
99.9249143844
 10
204.5742412735
 20
99.7549438236
 10
205.0344356973
 20
99.6830848364
  0
LWPOLYLINE
  5
18F
330
1F
100
AcDbEntity
  8
0
  6
SLD-Gestrichelt
 62
     7
370
     0
100
AcDbPolyline
 90
        9
 70
   128
 43
0.0
 10
181.0680580962
 20
92.4148148244
 10
180.5006032515
 20
92.4839804267
 10
179.7894756015
 20
92.5349284282
 10
179.021323536
 20
92.54481628
 10
178.2875843052
 20
92.5103834217
 10
177.6567562189
 20
92.4467601201
 10
177.1949678365
 20
92.3805188706
 10
176.9640883136
 20
92.3412543109
 10
176.9746560309
 20
92.3431337198
  0
ARC
  5
190
330
1F
100
AcDbEntity
  8
0
  6
SLD-Gestrichelt
 62
     7
370
     0
100
AcDbCircle
 10
179.2424096161
 20
130.4196433281
 30
0.0
 40
12.79017428301058
100
AcDbArc
 50
259.7872147634
 51
278.2063343813
  0
LWPOLYLINE
  5
191
330
1F
100
AcDbEntity
  8
0
  6
SLD-Gestrichelt
 62
     7
370
     0
100
AcDbPolyline
 90
        3
 70
   128
 43
0.0
 10
181.0680580962
 20
117.7604345923
 10
181.4264286946
 20
117.8040810248
 10
181.5387925304
 20
117.8144634088
  0
LWPOLYLINE
  5
192
330
1F
100
AcDbEntity
  8
0
  6
SLD-Gestrichelt
 62
     7
370
     0
100
AcDbPolyline
 90
        4
 70
   128
 43
0.0
 10
181.5387636594
 20
92.3607878705
 10
181.5436700996
 20
92.3603352478
 10
181.404947041
 20
92.3733374422
 10
181.0680580962
 20
92.4148148244
  0
LWPOLYLINE
  5
193
330
1F
100
AcDbEntity
  8
0
  6
SLD-Gestrichelt
 62
     7
370
     0
100
AcDbPolyline
 90
        9
 70
   128
 43
0.0
 10
203.2839087475
 20
101.0507478697
 10
203.1769109596
 20
101.0585984534
 10
203.1085667837
 20
101.1241360886
 10
203.0811374713
 20
101.2451903282
 10
203.0955338556
 20
101.417753691
 10
203.151277237
 20
101.6361129789
 10
203.2465235967
 20
101.8930388002
 10
203.3781194765
 20
102.1800253859
 10
203.5417062867
 20
102.4875709174
  0
LINE
  5
194
330
1F
100
AcDbEntity
  8
0
  6
SLD-Gestrichelt
 62
     7
370
     0
100
AcDbLine
 10
173.2465307865
 20
94.5876248499
 30
0.0
 11
173.2465307865
 21
115.5876245668
 31
0.0
  0
LWPOLYLINE
  5
195
330
1F
100
AcDbEntity
  8
0
  6
SLD-Gestrichelt
 62
     7
370
     0
100
AcDbPolyline
 90
        9
 70
   128
 43
0.0
 10
205.2735527683
 20
104.5064057891
 10
205.3827577908
 20
104.5467300193
 10
205.4721461315
 20
104.5537374068
 10
205.5400134701
 20
104.5272942485
 10
205.5850634057
 20
104.4679052049
 10
205.6064353961
 20
104.3767037538
 10
205.6037215222
 20
104.2554304206
 10
205.5769758005
 20
104.1063996583
 10
205.5267067332
 20
103.9324558426
  0
LINE
  5
196
330
1F
100
AcDbEntity
  8
0
  6
SLD-Gestrichelt
 62
     7
370
     0
100
AcDbLine
 10
191.4132563103
 20
94.5876248499
 30
0.0
 11
191.4132563103
 21
115.5876245668
 31
0.0
  0
LINE
  5
197
330
1F
100
AcDbEntity
  8
0
  6
SLD-Gestrichelt
 62
     7
370
     0
100
AcDbLine
 10
193.193881743
 20
95.2126242539
 30
0.0
 11
193.193881743
 21
114.9626251629
 31
0.0
  0
LWPOLYLINE
  5
198
330
1F
100
AcDbEntity
  8
0
  6
SLD-Gestrichelt
 62
     7
370
     0
100
AcDbPolyline
 90
        6
 70
   128
 43
0.0
 10
168.9438810278
 20
115.1118146574
 10
168.8881003935
 20
115.0091959482
 10
168.7269387472
 20
114.9099588713
 10
168.4784246314
 20
114.8312025091
 10
168.186682247
 20
114.7902541181
 10
168.043880694
 20
114.78553045
  0
LINE
  5
199
330
1F
100
AcDbEntity
  8
0
  6
SLD-Gestrichelt
 62
     7
370
     0
100
AcDbLine
 10
168.043880694
 20
114.78553045
 30
0.0
 11
166.2938808728
 21
114.78553045
 31
0.0
  0
LINE
  5
19A
330
1F
100
AcDbEntity
  8
0
  6
SLD-Gestrichelt
 62
     7
370
     0
100
AcDbLine
 10
166.2938808728
 20
95.3897189667
 30
0.0
 11
170.5438811038
 21
95.3897189667
 31
0.0
  0
LWPOLYLINE
  5
19B
330
1F
100
AcDbEntity
  8
0
  6
SLD-Gestrichelt
 62
     7
370
     0
100
AcDbPolyline
 90
        6
 70
   128
 43
0.0
 10
170.5438811038
 20
95.3897189667
 10
170.8259116564
 20
95.3710291853
 10
171.0758674595
 20
95.3192960789
 10
171.2767276619
 20
95.2414971163
 10
171.4082909454
 20
95.1450204795
 10
171.4438814375
 20
95.0634347593
  0
LINE
  5
19C
330
1F
100
AcDbEntity
  8
0
  6
SLD-Gestrichelt
 62
     7
370
     0
100
AcDbLine
 10
166.2938808728
 20
95.3897189667
 30
0.0
 11
166.2938808728
 21
114.78553045
 31
0.0
  0
LINE
  5
19D
330
1F
100
AcDbEntity
  8
0
  6
SLD-Gestrichelt
 62
     7
370
     0
100
AcDbLine
 10
168.9438810278
 20
116.0876246488
 30
0.0
 11
168.9438810278
 21
118.6451491287
 31
0.0
  0
LINE
  5
19E
330
1F
100
AcDbEntity
  8
0
  6
SLD-Gestrichelt
 62
     7
370
     0
100
AcDbLine
 10
171.4438814375
 20
94.087624768
 30
0.0
 11
171.4438814375
 21
91.4840482494
 31
0.0
  0
LINE
  5
19F
330
1F
100
AcDbEntity
  8
0
  6
SLD-Gestrichelt
 62
     7
370
     0
100
AcDbLine
 10
166.2938808728
 20
116.0876246488
 30
0.0
 11
166.2938808728
 21
117.9532053268
 31
0.0
  0
LINE
  5
1A0
330
1F
100
AcDbEntity
  8
0
  6
SLD-Gestrichelt
 62
     7
370
     0
100
AcDbLine
 10
166.2938808728
 20
94.087624768
 30
0.0
 11
166.2938808728
 21
92.3570895886
 31
0.0
  0
LINE
  5
1A1
330
1F
100
AcDbEntity
  8
0
  6
SLD-Gestrichelt
 62
     7
370
     0
100
AcDbLine
 10
198.5438810367
 20
98.8376246152
 30
0.0
 11
198.5438810367
 21
111.3376248015
 31
0.0
  0
LINE
  5
1A2
330
1F
100
AcDbEntity
  8
0
  6
SLD-Gestrichelt
 62
     7
370
     0
100
AcDbLine
 10
201.0438805152
 20
98.8376246152
 30
0.0
 11
201.0438805152
 21
111.3376248015
 31
0.0
  0
LINE
  5
1A3
330
1F
100
AcDbEntity
  8
0
  6
SLD-Gestrichelt
 62
     7
370
     0
100
AcDbLine
 10
193.6938808937
 20
99.5876247382
 30
0.0
 11
193.6938808937
 21
110.5876246786
 31
0.0
  0
LINE
  5
1A4
330
1F
100
AcDbEntity
  8
0
  6
SLD-Gestrichelt
 62
     7
370
     0
100
AcDbLine
 10
193.193881743
 20
85.1126404798
 30
0.0
 11
193.193881743
 21
88.1876254773
 31
0.0
  0
LINE
  5
1A5
330
1F
100
AcDbEntity
  8
0
  6
SLD-Gestrichelt
 62
     7
370
     0
100
AcDbLine
 10
197.6938815493
 20
88.1876254773
 30
0.0
 11
193.193881743
 21
88.1876254773
 31
0.0
  0
LINE
  5
1A6
330
1F
100
AcDbEntity
  8
0
  6
SLD-Gestrichelt
 62
     7
370
     0
100
AcDbLine
 10
200.239103258
 20
88.1876254773
 30
0.0
 11
197.6938815493
 21
88.1876254773
 31
0.0
  0
LINE
  5
1A7
330
1F
100
AcDbEntity
  8
0
  6
SLD-Gestrichelt
 62
     7
370
     0
100
AcDbLine
 10
205.1938818473
 20
88.1876254773
 30
0.0
 11
202.2486580241
 21
88.1876254773
 31
0.0
  0
ELLIPSE
  5
1A8
330
1F
100
AcDbEntity
  8
0
  6
SLD-Gestrichelt
 62
     7
370
     0
100
AcDbEllipse
 10
163.2381145384
 20
105.0876247084
 30
0.0
 11
12.26424774976738
 21
-1.421085471520200E-14
 31
0.0
210
0.0
220
0.0
230
1.0
 40
0.8164965809
 41
1.318982952866321
 42
1.398241670070613
  0
ELLIPSE
  5
1A9
330
1F
100
AcDbEntity
  8
0
  6
SLD-Gestrichelt
 62
     7
370
     0
100
AcDbEllipse
 10
163.2381145384
 20
105.0876247084
 30
0.0
 11
12.26424774976738
 21
0.0
 31
0.0
210
0.0
220
0.0
230
1.0
 40
0.8164965809
 41
4.884943637108985
 42
4.964202354313278
  0
LINE
  5
1AA
330
1F
100
AcDbEntity
  8
0
  6
SLD-Gestrichelt
 62
     7
370
     0
100
AcDbLine
 10
205.1939433146
 20
121.9876239395
 30
0.0
 11
202.0355360288
 21
121.9876239395
 31
0.0
  0
LINE
  5
1AB
330
1F
100
AcDbEntity
  8
0
  6
SLD-Gestrichelt
 62
     7
370
     0
100
AcDbLine
 10
197.6938815493
 20
121.9876239395
 30
0.0
 11
193.193881743
 21
121.9876239395
 31
0.0
  0
LINE
  5
1AC
330
1F
100
AcDbEntity
  8
0
  6
SLD-Gestrichelt
 62
     7
370
     0
100
AcDbLine
 10
200.4522252534
 20
121.9876239395
 30
0.0
 11
197.6938815493
 21
121.9876239395
 31
0.0
  0
LINE
  5
1AD
330
1F
100
AcDbEntity
  8
0
  6
SLD-Gestrichelt
 62
     7
370
     0
100
AcDbLine
 10
166.2938808728
 20
94.087624768
 30
0.0
 11
166.2938808728
 21
95.3897189667
 31
0.0
  0
LINE
  5
1AE
330
1F
100
AcDbEntity
  8
0
  6
SLD-Gestrichelt
 62
     7
370
     0
100
AcDbLine
 10
166.2938808728
 20
116.0876246488
 30
0.0
 11
166.2938808728
 21
114.78553045
 31
0.0
  0
LINE
  5
1AF
330
1F
100
AcDbEntity
  8
0
  6
SLD-Gestrichelt
 62
     7
370
     0
100
AcDbLine
 10
168.9438810278
 20
116.0876246488
 30
0.0
 11
168.9438810278
 21
115.1118146574
 31
0.0
  0
LINE
  5
1B0
330
1F
100
AcDbEntity
  8
0
  6
SLD-Gestrichelt
 62
     7
370
     0
100
AcDbLine
 10
171.4438814375
 20
94.087624768
 30
0.0
 11
171.4438814375
 21
95.0634347593
 31
0.0
  0
LWPOLYLINE
  5
1B1
330
1F
100
AcDbEntity
  8
0
  6
SLD-Gestrichelt
 62
     7
370
     0
100
AcDbPolyline
 90
       36
 70
   128
 43
0.0
 10
181.5039426725
 20
90.5542111343
 10
181.5053792376
 20
90.5540779551
 10
181.3802455723
 20
90.5889336338
 10
181.283021782
 20
90.6149538552
 10
181.2255279798
 20
90.6301111301
 10
181.1945498627
 20
90.6382276064
 10
181.178502709
 20
90.6424194893
 10
181.1703396667
 20
90.644549424
 10
181.1662232209
 20
90.6456223076
 10
181.1641561504
 20
90.6461606121
 10
181.1631205197
 20
90.6464306956
 10
181.1626022387
 20
90.6465657374
 10
181.1623428654
 20
90.6466337239
 10
181.1622134115
 20
90.6466672515
 10
181.162148219
 20
90.6466840154
 10
181.1621160883
 20
90.6466923973
 10
181.1620997902
 20
90.6466970539
 10
181.162091874
 20
90.6466989165
 10
181.162083492
 20
90.6467007792
 10
181.1021906029
 20
90.6625649279
 10
180.9872579466
 20
90.6914899444
 10
180.8031312827
 20
90.7334748974
 10
180.5327725302
 20
90.7885216495
 10
180.0914508928
 20
90.8640137261
 10
179.7075671781
 20
90.9147950208
 10
178.8352215368
 20
90.969943287
 10
178.3947874498
 20
90.9691265171
 10
178.251960751
 20
90.9646487182
 10
178.1124015976
 20
90.9580670616
 10
177.9769034762
 20
90.9493824786
 10
177.7344625149
 20
90.9281185215
 10
177.5464461822
 20
90.9087404927
 10
177.3383570541
 20
90.8835305219
 10
177.1042514298
 20
90.8491405046
 10
176.9901727963
 20
90.8294337189
 10
176.9822742496
 20
90.8290127611
  0
LINE
  5
1B2
330
1F
100
AcDbEntity
  8
0
  6
SLD-Gestrichelt
 62
     7
370
     0
100
AcDbLine
 10
177.3282522041
 20
119.2933785116
 30
0.0
 11
177.1023114849
 21
119.3263082152
 31
0.0
  0
LWPOLYLINE
  5
1B3
330
1F
100
AcDbEntity
  8
0
  6
SLD-Gestrichelt
 62
     7
370
     0
100
AcDbPolyline
 90
       28
 70
   128
 43
0.0
 10
176.9485398833
 20
119.3520723229
 10
176.9444923554
 20
119.3528937494
 10
176.9898188937
 20
119.3458091786
 10
177.0346173722
 20
119.337810049
 10
177.1033610854
 20
119.3261294013
 10
177.2021678913
 20
119.3107672354
 10
177.3371882442
 20
119.2917235514
 10
177.5690489154
 20
119.2639058774
 10
177.7726062279
 20
119.2433813905
 10
177.8585812714
 20
119.2355405858
 10
177.9269077521
 20
119.2297011932
 10
177.9758459594
 20
119.2258622816
 10
178.3938556615
 20
119.2061126551
 10
178.8346422542
 20
119.2052930912
 10
179.2785334106
 20
119.2234045213
 10
179.7082442496
 20
119.2604460141
 10
179.8904780004
 20
119.2826794779
 10
180.0912958275
 20
119.3110755032
 10
180.3067447323
 20
119.34563409
 10
180.5313555229
 20
119.3863552382
 10
180.827489559
 20
119.4470160028
 10
181.0183529448
 20
119.4913180863
 10
181.0842910487
 20
119.5079952797
 10
181.1306755695
 20
119.5201844295
 10
181.1597430784
 20
119.5278836733
 10
181.378846493
 20
119.5857579207
 10
181.5049010035
 20
119.620762611
 10
181.5430368002
 20
119.6326369738
  0
ARC
  5
1B4
330
1F
100
AcDbEntity
  8
0
  6
SLD-Gestrichelt
 62
     7
370
     0
100
AcDbCircle
 10
178.7786220838
 20
130.4749085718
 30
0.0
 40
11.27520231635061
100
AcDbArc
 50
262.6093594996
 51
268.0698675987
  0
LWPOLYLINE
  5
1B5
330
1F
100
AcDbEntity
  8
0
  6
SLD-Gestrichelt
 62
     7
370
     0
100
AcDbPolyline
 90
       25
 70
   128
 43
0.0
 10
207.5736680705
 20
103.4102596661
 10
208.0643782098
 20
103.4820525294
 10
208.734397747
 20
103.7951263918
 10
209.3384908218
 20
104.3277511692
 10
209.708618902
 20
104.8952912444
 10
209.8786337007
 20
105.4172728529
 10
209.8931809593
 20
105.9527673844
 10
209.7680242438
 20
106.385131445
 10
209.4404278029
 20
106.845072549
 10
208.7944848169
 20
107.253799759
 10
208.3966852803
 20
107.3773145528
 10
207.956124999
 20
107.4484373296
 10
207.5365157504
 20
107.4669671563
 10
207.1204343516
 20
107.4375911469
 10
206.6582562108
 20
107.3239169402
 10
206.1283522922
 20
106.9937707709
 10
205.7708194185
 20
106.4490995688
 10
205.6501386393
 20
105.9134219742
 10
205.6800136048
 20
105.3181510563
 10
205.8463981081
 20
104.7543628285
 10
206.1536041725
 20
104.2107242012
 10
206.6516996998
 20
103.7143527849
 10
207.0857966024
 20
103.4902863523
 10
207.4797497768
 20
103.4130766841
 10
207.5736680705
 20
103.4102596661
  0
LINE
  5
1B6
330
1F
100
AcDbEntity
  8
0
  6
SLD-Gestrichelt
 62
     7
370
     0
100
AcDbLine
 10
210.3438814808
 20
102.5876247643
 30
0.0
 11
210.3438814808
 21
107.5876246525
 31
0.0
  0
LINE
  5
1B7
330
1F
100
AcDbEntity
  8
0
  6
SLD-Gestrichelt
 62
     7
370
     0
100
AcDbLine
 10
238.5683944154
 20
94.860183852
 30
0.0
 11
238.5635403622
 21
94.9530972486
 31
0.0
  0
LINE
  5
1B8
330
1F
100
AcDbEntity
  8
0
  6
SLD-Gestrichelt
 62
     7
370
     0
100
AcDbLine
 10
233.5284975994
 20
101.3267108558
 30
0.0
 11
238.5683944154
 21
94.860183852
 31
0.0
  0
LINE
  5
1B9
330
1F
100
AcDbEntity
  8
0
  6
SLD-Gestrichelt
 62
     7
370
     0
100
AcDbLine
 10
233.5236398209
 20
101.4196247181
 30
0.0
 11
233.5284975994
 21
101.3267108558
 31
0.0
  0
LINE
  5
1BA
330
1F
100
AcDbEntity
  8
0
  6
SLD-Gestrichelt
 62
     7
370
     0
100
AcDbLine
 10
230.1016403068
 20
90.8024719303
 30
0.0
 11
229.3189642657
 21
105.773254085
 31
0.0
  0
LINE
  5
1BB
330
1F
100
AcDbEntity
  8
0
  6
SLD-Gestrichelt
 62
     7
370
     0
100
AcDbLine
 10
230.0846306313
 20
90.8242965436
 30
0.0
 11
230.1016403068
 21
90.8024719303
 31
0.0
  0
ARC
  5
1BC
330
1F
100
AcDbEntity
  8
0
  6
SLD-Gestrichelt
 62
     7
370
     0
100
AcDbCircle
 10
216.958196861
 20
93.7300549887
 30
0.0
 40
3.939394794348441
100
AcDbArc
 50
309.7377814508
 51
332.1865880337
  0
LINE
  5
1BD
330
1F
100
AcDbEntity
  8
0
  6
SLD-Gestrichelt
 62
     7
370
     0
100
AcDbLine
 10
219.5689519573
 20
88.575923661
 30
0.0
 11
219.476553582
 21
88.5888001269
 31
0.0
  0
LINE
  5
1BE
330
1F
100
AcDbEntity
  8
0
  6
SLD-Gestrichelt
 62
     7
370
     0
100
AcDbLine
 10
220.6458067227
 20
123.055811817
 30
0.0
 11
220.6458067227
 21
105.0876247084
 31
0.0
  0
ARC
  5
1BF
330
1F
100
AcDbEntity
  8
0
  6
SLD-Gestrichelt
 62
     7
370
     0
100
AcDbCircle
 10
299.1967862262
 20
105.4765052762
 30
0.0
 40
78.55194210873348
100
AcDbArc
 50
180.2836506098
 51
188.3658446762
  0
LWPOLYLINE
  5
1C0
330
1F
100
AcDbEntity
  8
0
  6
SLD-Gestrichelt
 62
     7
370
     0
100
AcDbPolyline
 90
        3
 70
   128
 43
0.0
 10
221.4806964327
 20
94.0477259776
 10
220.8989588249
 20
92.9675724676
 10
220.4424803782
 20
91.8919582238
  0
ELLIPSE
  5
1C1
330
1F
100
AcDbEntity
  8
0
  6
SLD-Gestrichelt
 62
     7
370
     0
100
AcDbEllipse
 10
224.2438812781
 20
95.3339299489
 30
0.0
 11
11.89283468062945
 21
12.05870027414184
 31
0.0
210
0.0
220
0.0
230
1.0
 40
0.132696806
 41
4.259993295427368
 42
4.749246616429835
  0
ELLIPSE
  5
1C2
330
1F
100
AcDbEntity
  8
0
  6
SLD-Gestrichelt
 62
     7
370
     0
100
AcDbEllipse
 10
237.4434763787
 20
105.0876247084
 30
0.0
 11
-12.66911446516156
 21
17.99023400451812
 31
0.0
210
0.0
220
0.0
230
1.0
 40
0.0467955262
 41
6.25024280051498
 42
7.821039127309569
  0
LWPOLYLINE
  5
1C3
330
1F
100
AcDbEntity
  8
0
  6
SLD-Gestrichelt
 62
     7
370
     0
100
AcDbPolyline
 90
        9
 70
   128
 43
0.0
 10
234.9819643129
 20
95.9063748216
 10
234.681053989
 20
96.2624539008
 10
233.8780155111
 20
96.8374217248
 10
232.8168367673
 20
97.1702773442
 10
231.9846739698
 20
97.2238172164
 10
231.1290828217
 20
97.130884262
 10
230.3246771622
 20
96.9171410745
 10
229.5422097374
 20
96.5879911875
 10
228.4898040522
 20
95.9225714525
  0
LINE
  5
1C4
330
1F
100
AcDbEntity
  8
0
  6
SLD-Gestrichelt
 62
     7
370
     0
100
AcDbLine
 10
229.4124243487
 20
105.968689799
 30
0.0
 11
230.2134474445
 21
90.6469261592
 31
0.0
  0
ELLIPSE
  5
1C5
330
1F
100
AcDbEntity
  8
0
  6
SLD-Gestrichelt
 62
     7
370
     0
100
AcDbEllipse
 10
227.8077208643
 20
134.3763807842
 30
0.0
 11
-2.41593239987867
 21
43.73019818743691
 31
0.0
210
0.0
220
0.0
230
1.0
 40
0.0300080957
 41
3.055348248551508
 42
3.133871542759842
  0
ARC
  5
1C6
330
1F
100
AcDbEntity
  8
0
  6
SLD-Gestrichelt
 62
     7
370
     0
100
AcDbCircle
 10
233.8258185781
 20
92.1612372529
 30
0.0
 40
1.579317312361594
100
AcDbArc
 50
182.5695790996
 51
304.9020204347
  0
ARC
  5
1C7
330
1F
100
AcDbEntity
  8
0
  6
SLD-Gestrichelt
 62
     7
370
     0
100
AcDbCircle
 10
233.645214578
 20
92.439848296
 30
0.0
 40
1.392999143062489
100
AcDbArc
 50
132.5566138358
 51
172.8801140665
  0
ARC
  5
1C8
330
1F
100
AcDbEntity
  8
0
  6
SLD-Gestrichelt
 62
     7
370
     0
100
AcDbCircle
 10
231.3377773441
 20
90.3121998653
 30
0.0
 40
3.436600321683353
100
AcDbArc
 50
9.2733325743
 51
66.5911392311
  0
ELLIPSE
  5
1C9
330
1F
100
AcDbEntity
  8
0
  6
SLD-Gestrichelt
 62
     7
370
     0
100
AcDbEllipse
 10
228.1048489246
 20
133.9951455398
 30
0.0
 11
-2.279210912224244
 21
43.52634128984788
 31
0.0
210
0.0
220
0.0
230
1.0
 40
0.0399561943
 41
2.947930808548989
 42
3.048976810481649
  0
LINE
  5
1CA
330
1F
100
AcDbEntity
  8
0
  6
SLD-Gestrichelt
 62
     7
370
     0
100
AcDbLine
 10
239.051985525
 20
79.6593072211
 30
0.0
 11
235.7741659213
 21
83.8649681156
 31
0.0
  0
LINE
  5
1CB
330
1F
100
AcDbEntity
  8
0
  6
SLD-Gestrichelt
 62
     7
370
     0
100
AcDbLine
 10
230.7267626453
 20
90.3411291858
 30
0.0
 11
230.006745987
 21
91.264955545
 31
0.0
  0
ELLIPSE
  5
1CC
330
1F
100
AcDbEntity
  8
0
  6
SLD-Gestrichelt
 62
     7
370
     0
100
AcDbEllipse
 10
237.1500874122
 20
122.389497451
 30
0.0
 11
-2.279210912224272
 21
43.52634128984796
 31
0.0
210
0.0
220
0.0
230
0.9999999999999998
 40
0.0399561943
 41
2.326947025119451
 42
2.947930808548967
  0
ELLIPSE
  5
1CD
330
1F
100
AcDbEntity
  8
0
  6
SLD-Gestrichelt
 62
     7
370
     0
100
AcDbEllipse
 10
497.6558738989
 20
-211.8569115538
 30
0.0
 11
-357.8468134438272
 21
459.1414800433964
 31
-1.030286966852146E-13
210
-1.087998601982992E-16
220
1.395975231949447E-16
230
0.9999999999999999
 40
0.0429463735
 41
0.8032274291238155
 42
0.8132903696319945
  0
LINE
  5
1CE
330
1F
100
AcDbEntity
  8
0
  6
SLD-Gestrichelt
 62
     7
370
     0
100
AcDbLine
 10
233.5284975994
 20
101.3267108558
 30
0.0
 11
233.1559946466
 21
101.2383406835
 31
0.0
  0
LINE
  5
1CF
330
1F
100
AcDbEntity
  8
0
  6
SLD-Gestrichelt
 62
     7
370
     0
100
AcDbLine
 10
233.11940112
 20
101.9382912984
 30
0.0
 11
233.1559946466
 21
101.2383406835
 31
0.0
  0
LINE
  5
1D0
330
1F
100
AcDbEntity
  8
0
  6
SLD-Gestrichelt
 62
     7
370
     0
100
AcDbLine
 10
238.4535772432
 20
94.4411846196
 30
0.0
 11
238.5683944154
 21
94.860183852
 31
0.0
  0
LINE
  5
1D1
330
1F
100
AcDbEntity
  8
0
  6
SLD-Gestrichelt
 62
     7
370
     0
100
AcDbLine
 10
238.4535772432
 20
94.4411846196
 30
0.0
 11
233.1559946466
 21
101.2383406835
 31
0.0
  0
LINE
  5
1D2
330
1F
100
AcDbEntity
  8
0
  6
SLD-Gestrichelt
 62
     7
370
     0
100
AcDbLine
 10
236.8338210214
 20
104.1629757003
 30
0.0
 11
238.0820465911
 21
104.1629757003
 31
0.0
  0
LWPOLYLINE
  5
1D3
330
1F
100
AcDbEntity
  8
0
  6
SLD-Gestrichelt
 62
     7
370
     0
100
AcDbPolyline
 90
       29
 70
   128
 43
0.0
 10
209.1602561701
 20
105.7391120905
 10
209.6204524565
 20
105.7689676147
 10
210.0575705696
 20
105.8990407239
 10
210.4496946264
 20
106.1228089586
 10
210.7771588195
 20
106.4290518027
 10
211.0235476572
 20
106.8024127364
 10
211.1765024889
 20
107.224170197
 10
211.2283529419
 20
107.6731750129
 10
211.1765024889
 20
108.1269128101
 10
211.0235476572
 20
108.5626306796
 10
210.7771588195
 20
108.9584802596
 10
210.4496946264
 20
109.2946122719
 10
210.0575705696
 20
109.5541709421
 10
209.6204524565
 20
109.7241415029
 10
209.1602561701
 20
109.7960004901
 10
208.7000617463
 20
109.7661450824
 10
208.2629436333
 20
109.636071915
 10
207.8708195765
 20
109.4123035056
 10
207.5433535207
 20
109.1060608944
 10
207.2969665456
 20
108.7326999607
 10
207.1440117139
 20
108.3109426165
 10
207.0921612609
 20
107.8619375678
 10
207.1440117139
 20
107.4082000034
 10
207.2969665456
 20
106.972481901
 10
207.5433535207
 20
106.5766322046
 10
207.8708195765
 20
106.2405005416
 10
208.2629436333
 20
105.9809416967
 10
208.7000617463
 20
105.8109711941
 10
209.1602561701
 20
105.7391120905
  0
ARC
  5
1D4
330
1F
100
AcDbEntity
  8
0
  6
SLD-Gestrichelt
 62
     7
370
     0
100
AcDbCircle
 10
230.9227496786
 20
107.2251978987
 30
0.0
 40
1.748021312604032
100
AcDbArc
 50
87.2121872061
 51
183.0645513773
  0
LINE
  5
1D5
330
1F
100
AcDbEntity
  8
0
  6
SLD-Gestrichelt
 62
     7
370
     0
100
AcDbLine
 10
233.1559946466
 20
101.2383406835
 30
0.0
 11
232.9816026319
 21
101.2383406835
 31
0.0
  0
LINE
  5
1D6
330
1F
100
AcDbEntity
  8
0
  6
SLD-Gestrichelt
 62
     7
370
     0
100
AcDbLine
 10
232.9816026319
 20
101.2383406835
 30
0.0
 11
232.9324697781
 21
102.1781352667
 31
0.0
  0
LINE
  5
1D7
330
1F
100
AcDbEntity
  8
0
  6
SLD-Gestrichelt
 62
     7
370
     0
100
AcDbLine
 10
238.2791889537
 20
94.4411846196
 30
0.0
 11
232.9816026319
 21
101.2383406835
 31
0.0
  0
LINE
  5
1D8
330
1F
100
AcDbEntity
  8
0
  6
SLD-Gestrichelt
 62
     7
370
     0
100
AcDbLine
 10
238.2791889537
 20
94.4411846196
 30
0.0
 11
238.4535772432
 21
94.4411846196
 31
0.0
  0
LINE
  5
1D9
330
1F
100
AcDbEntity
  8
0
  6
SLD-Gestrichelt
 62
     7
370
     0
100
AcDbLine
 10
202.2838806439
 20
118.6034715122
 30
0.0
 11
202.2838806439
 21
116.9376250675
 31
0.0
  0
LINE
  5
1DA
330
1F
100
AcDbEntity
  8
0
  6
SLD-Gestrichelt
 62
     7
370
     0
100
AcDbLine
 10
200.2038815696
 20
118.6034715122
 30
0.0
 11
200.2038815696
 21
116.9376250675
 31
0.0
  0
CIRCLE
  5
1DB
330
1F
100
AcDbEntity
  8
0
  6
SLD-Gestrichelt
 62
     7
370
     0
100
AcDbCircle
 10
234.4081393039
 20
92.186239801
 30
0.0
 40
2.39841660474134
  0
LINE
  5
1DC
330
1F
100
AcDbEntity
  8
0
  6
SLD-Gestrichelt
 62
     7
370
     0
100
AcDbLine
 10
229.1772281457
 20
107.1317469088
 30
0.0
 11
230.006745987
 21
91.264955545
 31
0.0
  0
LINE
  5
1DD
330
1F
100
AcDbEntity
  8
0
  6
SLD-Gestrichelt
 62
     7
370
     0
100
AcDbLine
 10
238.2791889537
 20
94.4411846196
 30
0.0
 11
239.051985525
 21
79.6593072211
 31
0.0
  0
LINE
  5
1DE
330
1F
100
AcDbEntity
  8
0
  6
SLD-Gestrichelt
 62
     7
370
     0
100
AcDbLine
 10
232.7055772472
 20
92.1854729151
 30
0.0
 11
232.7341576744
 21
91.8793239018
 31
0.0
  0
ARC
  5
1DF
330
1F
100
AcDbEntity
  8
0
  6
SLD-Gestrichelt
 62
     7
370
     0
100
AcDbCircle
 10
234.3544448421
 20
92.1843580516
 30
0.0
 40
1.648867971804665
100
AcDbArc
 50
206.4467180455
 51
179.9612600989
  0
LINE
  5
1E0
330
1F
100
AcDbEntity
  8
0
  6
SLD-Gestrichelt
 62
     7
370
     0
100
AcDbLine
 10
203.2790416557
 20
121.199034
 30
0.0
 11
203.2790416557
 21
116.9376250675
 31
0.0
  0
ARC
  5
1E1
330
1F
100
AcDbEntity
  8
0
  6
SLD-Gestrichelt
 62
     7
370
     0
100
AcDbCircle
 10
233.7406361793
 20
92.1849465793
 30
0.0
 40
1.648462818267769
100
AcDbArc
 50
306.8590483871
 51
129.0054234183
  0
LWPOLYLINE
  5
1E2
330
1F
100
AcDbEntity
  8
0
  6
SLD-Gestrichelt
 62
     7
370
     0
100
AcDbPolyline
 90
        3
 70
   128
 43
0.0
 10
165.3438815553
 20
93.5401114022
 10
165.3688652147
 20
93.7920919007
 10
165.427411877
 20
93.8714973947
  0
LWPOLYLINE
  5
1E3
330
1F
100
AcDbEntity
  8
0
  6
SLD-Gestrichelt
 62
     7
370
     0
100
AcDbPolyline
 90
       31
 70
   128
 43
0.0
 10
209.20199246
 20
105.4140023682
 10
209.7138752866
 20
105.4434111777
 10
210.2033858824
 20
105.5770736623
 10
210.6491317678
 20
105.8091481884
 10
211.0316296745
 20
106.1294918966
 10
211.3341642249
 20
106.5241042145
 10
211.5435125012
 20
106.9757387361
 10
211.6505251903
 20
107.4646570107
 10
211.6505251903
 20
107.9694906568
 10
211.5435125012
 20
108.468176177
 10
211.3341642249
 20
108.9389187602
 10
211.0316296745
 20
109.3611445596
 10
210.6491317678
 20
109.7164003497
 10
210.2033858824
 20
109.9891595861
 10
209.7138752866
 20
110.1675013399
 10
209.20199246
 20
110.2436313724
 10
208.6901096333
 20
110.2142225338
 10
208.2005990375
 20
110.0805600492
 10
207.7548531521
 20
109.8484856395
 10
207.3723552454
 20
109.5281418731
 10
207.069820695
 20
109.1335297881
 10
206.8604724187
 20
108.6818951501
 10
206.7534597296
 20
108.1929768754
 10
206.7534597296
 20
107.6881432293
 10
206.8604724187
 20
107.1894577092
 10
207.069820695
 20
106.7187151259
 10
207.3723552454
 20
106.2964893265
 10
207.7548531521
 20
105.9412336528
 10
208.2005990375
 20
105.6684744164
 10
208.6901096333
 20
105.4901325462
 10
209.20199246
 20
105.4140023682
  0
CIRCLE
  5
1E4
330
1F
100
AcDbEntity
  8
0
  6
SLD-Gestrichelt
 62
     7
370
     0
100
AcDbCircle
 10
192.2438812781
 20
105.0876247084
 30
0.0
 40
5.000000000000014
  0
LINE
  5
1E5
330
1F
100
AcDbEntity
  8
0
  6
SLD-Gestrichelt
 62
     7
370
     0
100
AcDbLine
 10
237.4487137128
 20
92.4586819803
 30
0.0
 11
236.8338210214
 21
104.1629757003
 31
0.0
  0
LINE
  5
1E6
330
1F
100
AcDbEntity
  8
0
  6
SLD-Gestrichelt
 62
     7
370
     0
100
AcDbLine
 10
236.8338210214
 20
104.1629757003
 30
0.0
 11
236.184793495
 21
105.0876247084
 31
0.0
  0
LINE
  5
1E7
330
1F
100
AcDbEntity
  8
0
  6
SLD-Gestrichelt
 62
     7
370
     0
100
AcDbLine
 10
228.4898040522
 20
95.9225714525
 30
0.0
 11
226.2811874676
 21
94.2012153884
 31
0.0
  0
ELLIPSE
  5
1E8
330
1F
100
AcDbEntity
  8
0
  6
SLD-Gestrichelt
 62
     7
370
     0
100
AcDbEllipse
 10
224.2438812781
 20
81.9582533011
 30
0.0
 11
0.0
 21
-12.42331416492101
 31
3.552713678800501E-15
210
0.0
220
2.859714913136538E-16
230
1.0
 40
0.9659258263
 41
2.970990730468074
 42
3.373943094150258
  0
LINE
  5
1E9
330
1F
100
AcDbEntity
  8
0
  6
SLD-Gestrichelt
 62
     7
370
     0
100
AcDbLine
 10
211.268083163
 20
106.4212409167
 30
0.0
 11
211.5719662685
 21
106.8672930907
 31
0.0
  0
LINE
  5
1EA
330
1F
100
AcDbEntity
  8
0
  6
SLD-Gestrichelt
 62
     7
370
     0
100
AcDbLine
 10
207.4397867251
 20
109.6824452599
 30
0.0
 11
207.135901757
 21
109.2363929694
 31
0.0
  0
LINE
  5
1EB
330
1F
100
AcDbEntity
  8
0
  6
SLD-Gestrichelt
 62
     7
370
     0
100
AcDbLine
 10
211.0380110968
 20
106.9715856194
 30
0.0
 11
211.7578359026
 21
108.0281684028
 31
0.0
  0
LINE
  5
1EC
330
1F
100
AcDbEntity
  8
0
  6
SLD-Gestrichelt
 62
     7
370
     0
100
AcDbLine
 10
208.4520896602
 20
110.2802900916
 30
0.0
 11
207.732266717
 21
109.2237074247
 31
0.0
  0
LINE
  5
1ED
330
1F
100
AcDbEntity
  8
0
  6
SLD-Gestrichelt
 62
     7
370
     0
100
AcDbLine
 10
212.0512360413
 20
107.5707812181
 30
0.0
 11
212.1467431713
 21
107.7109690143
 31
0.0
  0
LINE
  5
1EE
330
1F
100
AcDbEntity
  8
0
  6
SLD-Gestrichelt
 62
     7
370
     0
100
AcDbLine
 10
208.0145617653
 20
110.5261210671
 30
0.0
 11
207.9190546352
 21
110.3859332709
 31
0.0
  0
CIRCLE
  5
1EF
330
1F
100
AcDbEntity
  8
0
  6
SLD-Gestrichelt
 62
     7
370
     0
100
AcDbCircle
 10
209.6882071096
 20
108.5425005454
 30
0.0
 40
2.000000000000012
  0
LINE
  5
1F0
330
1F
100
AcDbEntity
  8
0
  6
SLD-Gestrichelt
 62
     7
370
     0
100
AcDbLine
 10
234.7765853334
 20
95.1264294183
 30
0.0
 11
234.7069335807
 21
95.1264294183
 31
0.0
  0
LINE
  5
1F1
330
1F
100
AcDbEntity
  8
0
  6
SLD-Gestrichelt
 62
     7
370
     0
100
AcDbLine
 10
234.7069335807
 20
89.0264304673
 30
0.0
 11
234.7765853334
 21
89.0264304673
 31
0.0
  0
LINE
  5
1F2
330
1F
100
AcDbEntity
  8
0
  6
SLD-Gestrichelt
 62
     7
370
     0
100
AcDbLine
 10
234.647638135
 20
94.2764299309
 30
0.0
 11
234.4445464838
 21
94.2764299309
 31
0.0
  0
LINE
  5
1F3
330
1F
100
AcDbEntity
  8
0
  6
SLD-Gestrichelt
 62
     7
370
     0
100
AcDbLine
 10
234.4445464838
 20
89.8764299547
 30
0.0
 11
234.647638135
 21
89.8764299547
 31
0.0
  0
LINE
  5
1F4
330
1F
100
AcDbEntity
  8
0
  6
SLD-Gestrichelt
 62
     7
370
     0
100
AcDbLine
 10
233.4589836825
 20
92.9385608381
 30
0.0
 11
233.3637056578
 21
92.9385608381
 31
0.0
  0
LINE
  5
1F5
330
1F
100
AcDbEntity
  8
0
  6
SLD-Gestrichelt
 62
     7
370
     0
100
AcDbLine
 10
233.6381254423
 20
90.9548912516
 30
0.0
 11
233.734699868
 21
90.9548912516
 31
0.0
  0
LINE
  5
1F6
330
1F
100
AcDbEntity
  8
0
  6
SLD-Gestrichelt
 62
     7
370
     0
100
AcDbLine
 10
233.4426706362
 20
92.9351540601
 30
0.0
 11
233.4613715935
 21
92.9351540601
 31
0.0
  0
LINE
  5
1F7
330
1F
100
AcDbEntity
  8
0
  6
SLD-Gestrichelt
 62
     7
370
     0
100
AcDbLine
 10
234.4601554502
 20
93.8336307501
 30
0.0
 11
234.3613980044
 21
93.8336307501
 31
0.0
  0
LINE
  5
1F8
330
1F
100
AcDbEntity
  8
0
  6
SLD-Gestrichelt
 62
     7
370
     0
100
AcDbLine
 10
234.9102375735
 20
90.5362906253
 30
0.0
 11
235.0089950193
 21
90.5362906253
 31
0.0
  0
LINE
  5
1F9
330
1F
100
AcDbEntity
  8
0
  6
SLD-Gestrichelt
 62
     7
370
     0
100
AcDbLine
 10
235.7311648954
 20
93.4150301238
 30
0.0
 11
235.6335064102
 21
93.4150301238
 31
0.0
  0
ARC
  5
1FA
330
1F
100
AcDbEntity
  8
0
  6
SLD-Gestrichelt
 62
     7
370
     0
100
AcDbCircle
 10
234.5222136841
 20
92.182745275
 30
0.0
 40
1.803590920504421
100
AcDbArc
 50
323.1125849092
 51
252.1229292785
  0
ARC
  5
1FB
330
1F
100
AcDbEntity
  8
0
  6
SLD-Gestrichelt
 62
     7
370
     0
100
AcDbCircle
 10
234.5451375382
 20
92.0617224941
 30
0.0
 40
1.696473662541389
100
AcDbArc
 50
250.130971766
 51
313.2786446789
  0
LINE
  5
1FC
330
1F
100
AcDbEntity
  8
0
  6
SLD-Gestrichelt
 62
     7
370
     0
100
AcDbLine
 10
234.4708395827
 20
94.185473243
 30
0.0
 11
234.1150818098
 21
94.185473243
 31
0.0
  0
LINE
  5
1FD
330
1F
100
AcDbEntity
  8
0
  6
SLD-Gestrichelt
 62
     7
370
     0
100
AcDbLine
 10
234.1150818098
 20
90.1854725873
 30
0.0
 11
234.4708395827
 21
90.1854725873
 31
0.0
  0
LINE
  5
1FE
330
1F
100
AcDbEntity
  8
0
  6
SLD-Gestrichelt
 62
     7
370
     0
100
AcDbLine
 10
185.2438812781
 20
88.880423302
 30
0.0
 11
185.3380420504
 21
89.5504130369
 31
0.0
  0
LINE
  5
1FF
330
1F
100
AcDbEntity
  8
0
  6
SLD-Gestrichelt
 62
     7
370
     0
100
AcDbLine
 10
185.3380420504
 20
120.6248363798
 30
0.0
 11
185.2438812781
 21
121.2948261147
 31
0.0
  0
ARC
  5
200
330
1F
100
AcDbEntity
  8
0
  6
SLD-Gestrichelt
 62
     7
370
     0
100
AcDbCircle
 10
184.7438745254
 20
89.6339175549
 30
0.0
 40
0.6000067526677242
100
AcDbArc
 50
352.0
 51
0.0
  0
ARC
  5
201
330
1F
100
AcDbEntity
  8
0
  6
SLD-Gestrichelt
 62
     7
370
     0
100
AcDbCircle
 10
184.7438745254
 20
89.6339175549
 30
0.0
 40
0.6000067526677242
100
AcDbArc
 50
0.0
 51
33.5571153394
  0
ARC
  5
202
330
1F
100
AcDbEntity
  8
0
  6
SLD-Gestrichelt
 62
     7
370
     0
100
AcDbCircle
 10
184.7438745254
 20
120.5413318618
 30
0.0
 40
0.6000067526677042
100
AcDbArc
 50
348.75
 51
8.0
  0
LWPOLYLINE
  5
203
330
1F
100
AcDbEntity
  8
0
  6
SLD-Gestrichelt
 62
     7
370
     0
100
AcDbPolyline
 90
        3
 70
   128
 43
0.0
 10
185.332352317
 20
120.4242760634
 10
185.2982084853
 20
120.311719211
 10
185.2438812781
 20
120.2096676772
  0
LINE
  5
204
330
1F
100
AcDbEntity
  8
0
  6
SLD-Gestrichelt
 62
     7
370
     0
100
AcDbLine
 10
185.3438812756
 20
89.6339172816
 30
0.0
 11
185.3438812756
 21
120.5413321352
 31
0.0
  0
LINE
  5
205
330
1F
100
AcDbEntity
  8
0
  6
SLD-Gestrichelt
 62
     7
370
     0
100
AcDbLine
 10
207.5655562509
 20
101.6969825925
 30
0.0
 11
208.7331292856
 21
103.4107860962
 31
0.0
  0
LINE
  5
206
330
1F
100
AcDbEntity
  8
0
  6
SLD-Gestrichelt
 62
     7
370
     0
100
AcDbLine
 10
206.7699515898
 20
100.5291648528
 30
0.0
 11
206.8266430575
 21
100.6123794561
 31
0.0
  0
LINE
  5
207
330
1F
100
AcDbEntity
  8
0
  6
SLD-Gestrichelt
 62
     7
370
     0
100
AcDbLine
 10
203.4848397303
 20
103.1667933186
 30
0.0
 11
203.2989198048
 21
102.8938927541
 31
0.0
  0
LINE
  5
208
330
1F
100
AcDbEntity
  8
0
  6
SLD-Gestrichelt
 62
     7
370
     0
100
AcDbLine
 10
205.1547495354
 20
105.6179449863
 30
0.0
 11
203.7097820718
 21
103.4969711529
 31
0.0
  0
ARC
  5
209
330
1F
100
AcDbEntity
  8
0
  6
SLD-Gestrichelt
 62
     7
370
     0
100
AcDbCircle
 10
174.7765092223
 20
92.7376247084
 30
0.0
 40
0.3999999999999915
100
AcDbArc
 50
210.0
 51
270.0
  0
ARC
  5
20A
330
1F
100
AcDbEntity
  8
0
  6
SLD-Gestrichelt
 62
     7
370
     0
100
AcDbCircle
 10
174.7765092223
 20
117.4376247084
 30
0.0
 40
0.3999999999999915
100
AcDbArc
 50
90.0
 51
150.0
  0
LINE
  5
20B
330
1F
100
AcDbEntity
  8
0
  6
SLD-Gestrichelt
 62
     7
370
     0
100
AcDbLine
 10
174.7765093747
 20
92.3376249468
 30
0.0
 11
176.9746560309
 21
92.3376249468
 31
0.0
  0
LINE
  5
20C
330
1F
100
AcDbEntity
  8
0
  6
SLD-Gestrichelt
 62
     7
370
     0
100
AcDbLine
 10
176.9746560309
 20
117.83762447
 30
0.0
 11
174.7765093747
 21
117.83762447
 31
0.0
  0
ARC
  5
20D
330
1F
100
AcDbEntity
  8
0
  6
SLD-Gestrichelt
 62
     7
370
     0
100
AcDbCircle
 10
181.068058006
 20
97.3376247084
 30
0.0
 40
5.000000000000034
100
AcDbArc
 50
275.4128569173
 51
326.6329870308
  0
ARC
  5
20E
330
1F
100
AcDbEntity
  8
0
  6
SLD-Gestrichelt
 62
     7
370
     0
100
AcDbCircle
 10
181.068058006
 20
112.8376247084
 30
0.0
 40
5.000000000000026
100
AcDbArc
 50
33.3670129692
 51
84.5879826223
  0
LINE
  5
20F
330
1F
100
AcDbEntity
  8
0
  6
SLD-Gestrichelt
 62
     7
370
     0
100
AcDbLine
 10
212.2539682019
 20
99.9055382183
 30
0.0
 11
207.3849821169
 21
103.2573767791
 31
0.0
  0
LINE
  5
210
330
1F
100
AcDbEntity
  8
0
  6
SLD-Gestrichelt
 62
     7
370
     0
100
AcDbLine
 10
204.0842799175
 20
100.4306141606
 30
0.0
 11
212.467054807
 21
94.6598638168
 31
0.0
  0
LINE
  5
211
330
1F
100
AcDbEntity
  8
0
  6
SLD-Gestrichelt
 62
     7
370
     0
100
AcDbLine
 10
203.1536632854
 20
101.0712565241
 30
0.0
 11
204.0842799175
 21
100.4306141606
 31
0.0
  0
LINE
  5
212
330
1F
100
AcDbEntity
  8
0
  6
SLD-Gestrichelt
 62
     7
370
     0
100
AcDbLine
 10
174.4300992865
 20
117.6376248097
 30
0.0
 11
173.2465307865
 21
115.5876245668
 31
0.0
  0
LINE
  5
213
330
1F
100
AcDbEntity
  8
0
  6
SLD-Gestrichelt
 62
     7
370
     0
100
AcDbLine
 10
173.2465307865
 20
94.5876248499
 30
0.0
 11
174.4300992865
 21
92.537624607
 31
0.0
  0
LINE
  5
214
330
1F
100
AcDbEntity
  8
0
  6
SLD-Gestrichelt
 62
     7
370
     0
100
AcDbLine
 10
205.8719312478
 20
104.2989691107
 30
0.0
 11
205.5352115709
 21
104.5307688966
 31
0.0
  0
LINE
  5
215
330
1F
100
AcDbEntity
  8
0
  6
SLD-Gestrichelt
 62
     7
370
     0
100
AcDbLine
 10
204.1438622106
 20
103.9165686436
 30
0.0
 11
203.3367128748
 21
103.4947358623
 31
0.0
  0
LINE
  5
216
330
1F
100
AcDbEntity
  8
0
  6
SLD-Gestrichelt
 62
     7
370
     0
100
AcDbLine
 10
203.3367128748
 20
103.4947358623
 30
0.0
 11
203.0859710354
 21
101.3538179306
 31
0.0
  0
ARC
  5
217
330
1F
100
AcDbEntity
  8
0
  6
SLD-Gestrichelt
 62
     7
370
     0
100
AcDbCircle
 10
192.1938812781
 20
95.2126247084
 30
0.0
 40
1.0
100
AcDbArc
 50
218.6821874535
 51
0.0
  0
ARC
  5
218
330
1F
100
AcDbEntity
  8
0
  6
SLD-Gestrichelt
 62
     7
370
     0
100
AcDbCircle
 10
192.1938812781
 20
114.9626247084
 30
0.0
 40
1.0
100
AcDbArc
 50
0.0
 51
141.3178125465
  0
LINE
  5
219
330
1F
100
AcDbEntity
  8
0
  6
SLD-Gestrichelt
 62
     7
370
     0
100
AcDbLine
 10
171.4438814375
 20
94.5876248499
 30
0.0
 11
173.2465307865
 21
94.5876248499
 31
0.0
  0
LINE
  5
21A
330
1F
100
AcDbEntity
  8
0
  6
SLD-Gestrichelt
 62
     7
370
     0
100
AcDbLine
 10
173.2465307865
 20
115.5876245668
 30
0.0
 11
168.9438810278
 21
115.5876245668
 31
0.0
  0
LINE
  5
21B
330
1F
100
AcDbEntity
  8
0
  6
SLD-Gestrichelt
 62
     7
370
     0
100
AcDbLine
 10
185.2438812781
 20
94.5876248499
 30
0.0
 11
191.4132563103
 21
94.5876248499
 31
0.0
  0
LINE
  5
21C
330
1F
100
AcDbEntity
  8
0
  6
SLD-Gestrichelt
 62
     7
370
     0
100
AcDbLine
 10
191.4132563103
 20
115.5876245668
 30
0.0
 11
185.2438812781
 21
115.5876245668
 31
0.0
  0
LINE
  5
21D
330
1F
100
AcDbEntity
  8
0
  6
SLD-Gestrichelt
 62
     7
370
     0
100
AcDbLine
 10
198.5438810367
 20
98.8376246152
 30
0.0
 11
201.0438805152
 21
98.8376246152
 31
0.0
  0
LINE
  5
21E
330
1F
100
AcDbEntity
  8
0
  6
SLD-Gestrichelt
 62
     7
370
     0
100
AcDbLine
 10
201.0438805152
 20
111.3376248015
 30
0.0
 11
198.5438810367
 21
111.3376248015
 31
0.0
  0
LINE
  5
21F
330
1F
100
AcDbEntity
  8
0
  6
SLD-Gestrichelt
 62
     7
370
     0
100
AcDbLine
 10
193.193881743
 20
99.0876246562
 30
0.0
 11
193.6938808937
 21
99.5876247382
 31
0.0
  0
LINE
  5
220
330
1F
100
AcDbEntity
  8
0
  6
SLD-Gestrichelt
 62
     7
370
     0
100
AcDbLine
 10
193.6938808937
 20
110.5876246786
 30
0.0
 11
193.193881743
 21
111.0876247605
 31
0.0
  0
LINE
  5
221
330
1F
100
AcDbEntity
  8
0
  6
SLD-Gestrichelt
 62
     7
370
     0
100
AcDbLine
 10
193.6938808937
 20
99.5876247382
 30
0.0
 11
198.5438810367
 21
99.5876247382
 31
0.0
  0
LINE
  5
222
330
1F
100
AcDbEntity
  8
0
  6
SLD-Gestrichelt
 62
     7
370
     0
100
AcDbLine
 10
198.5438810367
 20
110.5876246786
 30
0.0
 11
193.6938808937
 21
110.5876246786
 31
0.0
  0
LINE
  5
223
330
1F
100
AcDbEntity
  8
0
  6
SLD-Gestrichelt
 62
     7
370
     0
100
AcDbLine
 10
193.193881743
 20
125.0876242613
 30
0.0
 11
193.193881743
 21
121.9876239395
 31
0.0
  0
LINE
  5
224
330
1F
100
AcDbEntity
  8
0
  6
SLD-Gestrichelt
 62
     7
370
     0
100
AcDbLine
 10
182.0110606201
 20
90.0463199561
 30
0.0
 11
181.543132028
 21
90.5421570262
 31
0.0
  0
LINE
  5
225
330
1F
100
AcDbEntity
  8
0
  6
SLD-Gestrichelt
 62
     7
370
     0
100
AcDbLine
 10
176.9452271689
 20
90.8220101466
 30
0.0
 11
176.4277536128
 21
90.3261851838
 31
0.0
  0
LINE
  5
226
330
1F
100
AcDbEntity
  8
0
  6
SLD-Gestrichelt
 62
     7
370
     0
100
AcDbLine
 10
176.4271193821
 20
119.8491145244
 30
0.0
 11
176.9448052797
 21
119.3532271629
 31
0.0
  0
LINE
  5
227
330
1F
100
AcDbEntity
  8
0
  6
SLD-Gestrichelt
 62
     7
370
     0
100
AcDbLine
 10
181.5424461089
 20
119.6328744611
 30
0.0
 11
182.010350021
 21
120.1287683418
 31
0.0
  0
LINE
  5
228
330
1F
100
AcDbEntity
  8
0
  6
SLD-Gestrichelt
 62
     7
370
     0
100
AcDbLine
 10
201.0438805152
 20
102.5876247643
 30
0.0
 11
210.3438814808
 21
102.5876247643
 31
0.0
  0
LINE
  5
229
330
1F
100
AcDbEntity
  8
0
  6
SLD-Gestrichelt
 62
     7
370
     0
100
AcDbLine
 10
210.3438814808
 20
107.5876246525
 30
0.0
 11
201.0438805152
 21
107.5876246525
 31
0.0
  0
LINE
  5
22A
330
1F
100
AcDbEntity
  8
0
  6
SLD-Gestrichelt
 62
     7
370
     0
100
AcDbLine
 10
210.3438814808
 20
102.5876247643
 30
0.0
 11
211.8460321505
 21
105.0876247084
 31
0.0
  0
LINE
  5
22B
330
1F
100
AcDbEntity
  8
0
  6
SLD-Gestrichelt
 62
     7
370
     0
100
AcDbLine
 10
211.8460321505
 20
105.0876247084
 30
0.0
 11
210.3438814808
 21
107.5876246525
 31
0.0
  0
LINE
  5
22C
330
1F
100
AcDbEntity
  8
0
  6
SLD-Gestrichelt
 62
     7
370
     0
100
AcDbLine
 10
181.543881277
 20
117.8144792413
 30
0.0
 11
181.543881277
 21
119.6326639822
 31
0.0
  0
LINE
  5
22D
330
1F
100
AcDbEntity
  8
0
  6
SLD-Gestrichelt
 62
     7
370
     0
100
AcDbLine
 10
176.9438814077
 20
119.352121683
 30
0.0
 11
176.9438814077
 21
117.8321222162
 31
0.0
  0
LINE
  5
22E
330
1F
100
AcDbEntity
  8
0
  6
SLD-Gestrichelt
 62
     7
370
     0
100
AcDbLine
 10
181.543881277
 20
90.5542120656
 30
0.0
 11
181.543881277
 21
92.3607701754
 31
0.0
  0
LINE
  5
22F
330
1F
100
AcDbEntity
  8
0
  6
SLD-Gestrichelt
 62
     7
370
     0
100
AcDbLine
 10
176.9438814077
 20
92.3431272006
 30
0.0
 11
176.9438814077
 21
90.8290164864
 31
0.0
  0
LWPOLYLINE
  5
230
330
1F
100
AcDbEntity
  8
0
  6
SLD-Gestrichelt
 62
     7
370
     0
100
AcDbPolyline
 90
        3
 70
   128
 43
0.0
 10
219.476553582
 20
88.5876247978
 10
219.4882733453
 20
88.5875558799
 10
219.4992368746
 20
88.5873677527
  0
LINE
  5
231
330
1F
100
AcDbEntity
  8
0
  6
SLD-Gestrichelt
 62
     7
370
     0
100
AcDbLine
 10
230.0867391456
 20
90.7839134654
 30
0.0
 11
230.1647318233
 21
90.6838456487
 31
0.0
  0
LINE
  5
232
330
1F
100
AcDbEntity
  8
0
  6
SLD-Gestrichelt
 62
     7
370
     0
100
AcDbLine
 10
209.5133131076
 20
104.5559678662
 30
0.0
 11
210.8957720626
 21
106.5851924561
 31
0.0
  0
LINE
  5
233
330
1F
100
AcDbEntity
  8
0
  6
SLD-Gestrichelt
 62
     7
370
     0
100
AcDbLine
 10
207.4247402776
 20
108.949920241
 30
0.0
 11
205.9345328886
 21
106.7625388589
 31
0.0
  0
LINE
  5
234
330
1F
100
AcDbEntity
  8
0
  6
SLD-Gestrichelt
 62
     7
370
     0
100
AcDbLine
 10
231.0949666131
 20
108.9733348547
 30
0.0
 11
230.9205745984
 21
108.9733348547
 31
0.0
  0
LINE
  5
235
330
1F
100
AcDbEntity
  8
0
  6
SLD-Gestrichelt
 62
     7
370
     0
100
AcDbLine
 10
234.3515557874
 20
93.8354729062
 30
0.0
 11
233.7411893237
 21
93.8354729062
 31
0.0
  0
LINE
  5
236
330
1F
100
AcDbEntity
  8
0
  6
SLD-Gestrichelt
 62
     7
370
     0
100
AcDbLine
 10
233.8474569548
 20
90.5354729241
 30
0.0
 11
234.3515557874
 21
90.5354729241
 31
0.0
  0
LINE
  5
237
330
1F
100
AcDbEntity
  8
0
  6
SLD-Gestrichelt
 62
     7
370
     0
100
AcDbLine
 10
211.268083163
 20
106.4212409167
 30
0.0
 11
212.3633948792
 21
108.0289781878
 31
0.0
  0
LINE
  5
238
330
1F
100
AcDbEntity
  8
0
  6
SLD-Gestrichelt
 62
     7
370
     0
100
AcDbLine
 10
208.1041773487
 20
110.6576610675
 30
0.0
 11
207.135901757
 21
109.2363929694
 31
0.0
  0
DIMENSION
  5
239
330
1F
100
AcDbEntity
  8
VERMASSUNG
100
AcDbDimension
  2
*D1
 10
159.9560879178
 20
85.0876247084
 30
0.0
 11
159.9560879178
 21
105.0876247084
 31
0.0
 70
   160
  1
HSK %%c<>
 71
     2
 42
-1.0
  3
SLDDIMSTYLE0
100
AcDbAlignedDimension
 13
185.5438812781
 23
125.0876247084
 33
0.0
 14
185.5438812781
 24
85.0876247084
 34
0.0
 50
90.0
100
AcDbRotatedDimension
  0
DIMENSION
  5
246
330
1F
100
AcDbEntity
  8
VERMASSUNG
100
AcDbDimension
  2
*D2
 10
240.2438812781
 20
138.3310509121
 30
0.0
 11
202.7938812781
 21
138.3310509121
 31
0.0
 70
   160
 71
     2
 42
-1.0
  3
SLDDIMSTYLE0
100
AcDbAlignedDimension
 13
165.3438812781
 23
117.0176247084
 33
0.0
 14
240.2438812781
 24
78.0876247084
 34
0.0
100
AcDbRotatedDimension
  0
DIMENSION
  5
250
330
1F
100
AcDbEntity
  8
VERMASSUNG
100
AcDbDimension
  2
*D3
 10
240.2438812781
 20
132.3310509121
 30
0.0
 11
212.7438812781
 21
132.3310509121
 31
0.0
 70
   160
 71
     2
 42
-1.0
  3
SLDDIMSTYLE0
100
AcDbAlignedDimension
 13
185.2438812781
 23
124.7876247084
 33
0.0
 14
240.2438812781
 24
78.0876247084
 34
0.0
100
AcDbRotatedDimension
  0
DIMENSION
  5
25A
330
1F
100
AcDbEntity
  8
VERMASSUNG
100
AcDbDimension
  2
*D4
 10
247.3949662649
 20
78.0876247084
 30
0.0
 11
247.3949662649
 21
91.5876247084
 31
0.0
 70
   160
 71
     2
 42
-1.0
  3
SLDDIMSTYLE0
100
AcDbAlignedDimension
 13
240.165522824
 23
105.0876247084
 33
0.0
 14
240.2438812781
 24
78.0876247084
 34
0.0
 50
90.0
100
AcDbRotatedDimension
  0
DIMENSION
  5
264
330
1F
100
AcDbEntity
  8
VERMASSUNG
100
AcDbDimension
  2
*D5
 10
238.568396213
 20
94.8601834891
 30
0.0
 11
244.9594565182
 21
110.3001410711
 31
0.0
 70
   162
 71
     1
 42
-1.0
  3
SLDDIMSTYLE1
100
AcDb2LineAngularDimension
 13
240.2438812781
 23
105.0876247084
 33
0.0
 14
240.2438812781
 24
78.0876247084
 34
0.0
 15
238.0820451504
 25
104.1629757281
 35
0.0
 16
238.9977085672
 26
110.5174213556
 36
0.0
  0
LINE
  5
271
330
1F
100
AcDbEntity
  8
VERMASSUNG
  6
SLD-Punktstrich
370
     0
100
AcDbLine
 10
163.2785017671
 20
105.0876247084
 30
0.0
 11
240.165522824
 21
105.0876247084
 31
0.0
  0
ARC
  5
272
330
1F
100
AcDbEntity
  8
0
  6
SLD-Durchgehend
 62
     7
370
    15
100
AcDbCircle
 10
130.5974803348
 20
-80.183527297
 30
0.0
 40
164.0648441464684
100
AcDbArc
 50
103.5890493361
 51
105.3240274879
  0
LINE
  5
273
330
1F
100
AcDbEntity
  8
0
  6
SLD-Durchgehend
 62
     7
370
    15
100
AcDbLine
 10
87.0845305911
 20
84.4100917077
 30
0.0
 11
87.2794704213
 21
84.0691121614
 31
0.0
  0
LINE
  5
274
330
1F
100
AcDbEntity
  8
0
  6
SLD-Durchgehend
 62
     7
370
    15
100
AcDbLine
 10
86.9048686003
 20
100.0374125635
 30
0.0
 11
86.7364187437
 21
99.7427672466
 31
0.0
  0
LINE
  5
275
330
1F
100
AcDbEntity
  8
0
  6
SLD-Durchgehend
 62
     7
370
    15
100
AcDbLine
 10
87.1154730415
 20
105.9517314627
 30
0.0
 11
86.5248863414
 21
106.1051899653
 31
0.0
  0
ARC
  5
276
330
1F
100
AcDbEntity
  8
0
  6
SLD-Durchgehend
 62
     7
370
    15
100
AcDbCircle
 10
93.6642149394
 20
92.1854729537
 30
0.0
 40
7.000000000000005
100
AcDbArc
 50
194.365394812
 51
199.4700948135
  0
ARC
  5
277
330
1F
100
AcDbEntity
  8
0
  6
SLD-Durchgehend
 62
     7
370
    15
100
AcDbCircle
 10
93.6642149394
 20
92.1854729537
 30
0.0
 40
7.000000000000017
100
AcDbArc
 50
160.8864415035
 51
165.634605188
  0
LINE
  5
278
330
1F
100
AcDbEntity
  8
0
  6
SLD-Durchgehend
 62
     7
370
    15
100
AcDbLine
 10
87.003066263
 20
91.0671724325
 30
0.0
 11
86.9495276132
 21
91.0671724325
 31
0.0
  0
LINE
  5
279
330
1F
100
AcDbEntity
  8
0
  6
SLD-Durchgehend
 62
     7
370
    15
100
AcDbLine
 10
86.8777390863
 20
92.9351540601
 30
0.0
 11
87.0205652612
 21
92.9351540601
 31
0.0
  0
ARC
  5
27A
330
1F
100
AcDbEntity
  8
0
  6
SLD-Durchgehend
 62
     7
370
    15
100
AcDbCircle
 10
82.6006845137
 20
93.6909810456
 30
0.0
 40
4.644982898219487
100
AcDbArc
 50
0.1140164279
 51
2.8739473919
  0
LINE
  5
27B
330
1F
100
AcDbEntity
  8
0
  6
SLD-Durchgehend
 62
     7
370
    15
100
AcDbLine
 10
87.301303707
 20
78.4789955562
 30
0.0
 11
87.245658215
 21
93.7002243793
 31
0.0
  0
LWPOLYLINE
  5
27C
330
1F
100
AcDbEntity
  8
0
  6
SLD-Durchgehend
 62
     7
370
    15
100
AcDbPolyline
 90
        9
 70
   128
 43
0.0
 10
87.2526151036
 20
78.2180315202
 10
87.2598617792
 20
78.123375619
 10
87.2688825878
 20
78.0695973283
 10
87.2782596201
 20
78.0640615469
 10
87.2868050904
 20
78.1031845456
 10
87.2937873645
 20
78.1791692918
 10
87.2987340643
 20
78.2846043205
 10
87.3011735177
 20
78.4117075002
 10
87.301303707
 20
78.4789955562
  0
LINE
  5
27D
330
1F
100
AcDbEntity
  8
0
  6
SLD-Durchgehend
 62
     7
370
    15
100
AcDbLine
 10
86.5980214733
 20
90.2289849093
 30
0.0
 11
87.2526151036
 21
78.2180315202
 31
0.0
  0
ARC
  5
27E
330
1F
100
AcDbEntity
  8
0
  6
SLD-Durchgehend
 62
     7
370
    15
100
AcDbCircle
 10
91.2370411458
 20
90.4618757217
 30
0.0
 40
4.644861854963222
100
AcDbArc
 50
180.1139924218
 51
182.8739838349
  0
LINE
  5
27F
330
1F
100
AcDbEntity
  8
0
  6
SLD-Durchgehend
 62
     7
370
    15
100
AcDbLine
 10
86.5365429493
 20
105.6738629324
 30
0.0
 11
86.5921884836
 21
90.452634575
 31
0.0
  0
LWPOLYLINE
  5
280
330
1F
100
AcDbEntity
  8
0
  6
SLD-Durchgehend
 62
     7
370
    15
100
AcDbPolyline
 90
        9
 70
   128
 43
0.0
 10
86.5852315622
 20
105.934826852
 10
86.577984883
 20
106.0294838591
 10
86.5689640926
 20
106.083261626
 10
86.5595870712
 20
106.0887977567
 10
86.5510416045
 20
106.0496738848
 10
86.5440593046
 20
105.9736900699
 10
86.5391125847
 20
105.8682546338
 10
86.5366731599
 20
105.7411515123
 10
86.5365429493
 20
105.6738629324
  0
LINE
  5
281
330
1F
100
AcDbEntity
  8
0
  6
SLD-Durchgehend
 62
     7
370
    15
100
AcDbLine
 10
87.2398252253
 20
93.9238749763
 30
0.0
 11
86.5852315622
 21
105.934826852
 31
0.0
  0
LINE
  5
282
330
1F
100
AcDbEntity
  8
0
  6
SLD-Durchgehend
 62
     7
370
    15
100
AcDbLine
 10
86.5991612375
 20
90.2405565923
 30
0.0
 11
87.2524431182
 21
78.2536732351
 31
0.0
  0
LWPOLYLINE
  5
283
330
1F
100
AcDbEntity
  8
0
  6
SLD-Durchgehend
 62
     7
370
    15
100
AcDbPolyline
 90
        9
 70
   128
 43
0.0
 10
87.2524431182
 20
78.2536732351
 10
87.258556476
 20
78.1721284931
 10
87.2661360848
 20
78.1218910908
 10
87.2744297433
 20
78.1079510545
 10
87.2826143898
 20
78.1316886043
 10
87.2898777819
 20
78.1907512194
 10
87.2954991031
 20
78.2792734301
 10
87.298920493
 20
78.3884728646
 10
87.2998024137
 20
78.5075126534
  0
LINE
  5
284
330
1F
100
AcDbEntity
  8
0
  6
SLD-Durchgehend
 62
     7
370
    15
100
AcDbLine
 10
87.2998024137
 20
78.5075126534
 30
0.0
 11
87.2442684307
 21
93.6982387995
 31
0.0
  0
ARC
  5
285
330
1F
100
AcDbEntity
  8
0
  6
SLD-Durchgehend
 62
     7
370
    15
100
AcDbCircle
 10
82.8952380827
 20
93.691916775
 30
0.0
 40
4.349034943031904
100
AcDbArc
 50
0.0832886963
 51
2.9046845256
  0
LINE
  5
286
330
1F
100
AcDbEntity
  8
0
  6
SLD-Durchgehend
 62
     7
370
    15
100
AcDbLine
 10
87.2386854611
 20
93.912302362
 30
0.0
 11
86.5854035658
 21
105.8991857774
 31
0.0
  0
LWPOLYLINE
  5
287
330
1F
100
AcDbEntity
  8
0
  6
SLD-Durchgehend
 62
     7
370
    15
100
AcDbPolyline
 90
        9
 70
   128
 43
0.0
 10
86.5854035658
 20
105.8991857774
 10
86.5792901898
 20
105.9807315089
 10
86.5717105629
 20
106.0309673978
 10
86.5634169025
 20
106.044907958
 10
86.5552322651
 20
106.0211698261
 10
86.5479688803
 20
105.9621087245
 10
86.5423475919
 20
105.8735858153
 10
86.5389262038
 20
105.7643862061
 10
86.5380442413
 20
105.6453467665
  0
LINE
  5
288
330
1F
100
AcDbEntity
  8
0
  6
SLD-Durchgehend
 62
     7
370
    15
100
AcDbLine
 10
86.5380442413
 20
105.6453467665
 30
0.0
 11
86.5935782497
 21
90.4546201548
 31
0.0
  0
ARC
  5
289
330
1F
100
AcDbEntity
  8
0
  6
SLD-Durchgehend
 62
     7
370
    15
100
AcDbCircle
 10
90.9424905578
 20
90.4609394698
 30
0.0
 40
4.348916899272853
100
AcDbArc
 50
180.0832552599
 51
182.9047276927
  0
LINE
  5
28A
330
1F
100
AcDbEntity
  8
0
  6
SLD-Durchgehend
 62
     7
370
    15
100
AcDbLine
 10
92.005601706
 20
79.3765483743
 30
0.0
 11
91.9536795412
 21
93.5793666488
 31
0.0
  0
LINE
  5
28B
330
1F
100
AcDbEntity
  8
0
  6
SLD-Durchgehend
 62
     7
370
    15
100
AcDbLine
 10
87.1626401498
 20
85.4550654387
 30
0.0
 11
87.1353664409
 21
92.9154975658
 31
0.0
  0
LWPOLYLINE
  5
28C
330
1F
100
AcDbEntity
  8
0
  6
SLD-Durchgehend
 62
     7
370
    15
100
AcDbPolyline
 90
        9
 70
   128
 43
0.0
 10
86.7998362231
 20
99.3657906858
 10
86.7837484405
 20
99.5803846365
 10
86.7638021303
 20
99.712584479
 10
86.7419767022
 20
99.7492702065
 10
86.7204381796
 20
99.6868012791
 10
86.7013239479
 20
99.5313775113
 10
86.686531053
 20
99.2984225361
 10
86.6775273756
 20
99.0110550394
 10
86.6752065197
 20
98.6977930499
  0
LINE
  5
28D
330
1F
100
AcDbEntity
  8
0
  6
SLD-Durchgehend
 62
     7
370
    15
100
AcDbLine
 10
87.1206744199
 20
93.4788229262
 30
0.0
 11
86.7998362231
 21
99.3657906858
 31
0.0
  0
ARC
  5
28E
330
1F
100
AcDbEntity
  8
0
  6
SLD-Durchgehend
 62
     7
370
    15
100
AcDbCircle
 10
75.6904387041
 20
92.8988580507
 30
0.0
 40
11.44493983268305
100
AcDbArc
 50
0.0833009469
 51
2.9046703793
  0
LWPOLYLINE
  5
28F
330
1F
100
AcDbEntity
  8
0
  6
SLD-Durchgehend
 62
     7
370
    15
100
AcDbPolyline
 90
        9
 70
   128
 43
0.0
 10
87.0380104173
 20
84.7870687341
 10
87.0540981999
 20
84.5724752491
 10
87.0740445392
 20
84.4402740097
 10
87.0958699528
 20
84.4035892134
 10
87.1174085044
 20
84.4660586065
 10
87.1365226925
 20
84.621481443
 10
87.1513156456
 20
84.8544368839
 10
87.1603193085
 20
85.1418039149
 10
87.1626401498
 20
85.4550654387
  0
LINE
  5
290
330
1F
100
AcDbEntity
  8
0
  6
SLD-Durchgehend
 62
     7
370
    15
100
AcDbLine
 10
86.7171722642
 20
90.674036028
 30
0.0
 11
87.0380104173
 21
84.7870687341
 31
0.0
  0
ARC
  5
291
330
1F
100
AcDbEntity
  8
0
  6
SLD-Durchgehend
 62
     7
370
    15
100
AcDbCircle
 10
98.1474190994
 20
91.2540011661
 30
0.0
 40
11.4449509511747
100
AcDbArc
 50
180.0832975177
 51
182.9046688708
  0
LINE
  5
292
330
1F
100
AcDbEntity
  8
0
  6
SLD-Durchgehend
 62
     7
370
    15
100
AcDbLine
 10
86.6752065197
 20
98.6977930499
 30
0.0
 11
86.7024802431
 21
91.2373623198
 31
0.0
  0
LWPOLYLINE
  5
293
330
1F
100
AcDbEntity
  8
0
  6
SLD-Durchgehend
 62
     7
370
    15
100
AcDbPolyline
 90
       35
 70
   128
 43
0.0
 10
86.7512683329
 20
90.1986619776
 10
86.7781917044
 20
89.789004842
 10
86.8099074872
 20
89.4572435265
 10
86.8453356673
 20
89.214674974
 10
86.8832698037
 20
89.0695600158
 10
86.9224180645
 20
89.0268402493
 10
86.9614473198
 20
89.0879722631
 10
86.9990284849
 20
89.2508698946
 10
87.0338817479
 20
89.5099908432
 10
87.0648202547
 20
89.8565080335
 10
87.0907904176
 20
90.2786216086
 10
87.1109078437
 20
90.7619575357
 10
87.1244874728
 20
91.2900565511
 10
87.1310668738
 20
91.8449338844
 10
87.1304219621
 20
92.4076957947
 10
87.1225747254
 20
92.9591756633
 10
87.1077923806
 20
93.4805952331
 10
87.0865783366
 20
93.9541969767
 10
87.0596549942
 20
94.3638541123
 10
87.0279392114
 20
94.6956154278
 10
86.9925110022
 20
94.9381839802
 10
86.9545768658
 20
95.0832989385
 10
86.915428605
 20
95.1260177737
 10
86.8763993497
 20
95.0648876226
 10
86.8388181846
 20
94.9019881284
 10
86.8039648925
 20
94.6428681111
 10
86.7730264147
 20
94.2963509208
 10
86.7470562519
 20
93.8742373457
 10
86.7269388112
 20
93.3909014186
 10
86.7133591967
 20
92.8628024032
 10
86.7067798102
 20
92.3079250699
 10
86.7074246929
 20
91.745164091
 10
86.7152719587
 20
91.193683291
 10
86.730054318
 20
90.6722646525
 10
86.7512683329
 20
90.1986619776
  0
LWPOLYLINE
  5
294
330
1F
100
AcDbEntity
  8
0
  6
SLD-Durchgehend
 62
     7
370
    15
100
AcDbPolyline
 90
        9
 70
   128
 43
0.0
 10
92.005601706
 20
79.3765483743
 10
92.00531579
 20
79.3401243484
 10
92.0041846987
 20
79.3071629798
 10
92.0024212394
 20
79.2835483646
 10
92.0003481154
 20
79.2711934393
 10
91.9981781338
 20
79.269546861
 10
91.9960486647
 20
79.2780777758
 10
91.9941045289
 20
79.2966762876
 10
91.9932318796
 20
79.3102456575
  0
ARC
  5
295
330
1F
100
AcDbEntity
  8
0
  6
SLD-Durchgehend
 62
     7
370
    15
100
AcDbCircle
 10
90.8008153086
 20
93.5772703977
 30
0.0
 40
1.152866138362153
100
AcDbArc
 50
0.1041807011
 51
2.8841879293
  0
LINE
  5
296
330
1F
100
AcDbEntity
  8
0
  6
SLD-Durchgehend
 62
     7
370
    15
100
AcDbLine
 10
91.95222109
 20
93.6352795308
 30
0.0
 11
91.9082994518
 21
94.4411846196
 31
0.0
  0
LWPOLYLINE
  5
297
330
1F
100
AcDbEntity
  8
0
  6
SLD-Durchgehend
 62
     7
370
    15
100
AcDbPolyline
 90
       27
 70
   128
 43
0.0
 10
86.8768074145
 20
90.475780735
 10
86.9064898873
 20
90.3907304948
 10
86.9367296403
 20
90.4099827951
 10
86.9657692677
 20
90.53242098
 10
86.9919211257
 20
90.7509288138
 10
87.0136653251
 20
91.0528058505
 10
87.0297381774
 20
91.4205106294
 10
87.0392056243
 20
91.8326711601
 10
87.0415173998
 20
92.2653366199
 10
87.0365391605
 20
92.6933594367
 10
87.0245602567
 20
93.0918667784
 10
87.0062768229
 20
93.4376966527
 10
86.9827514692
 20
93.710752981
 10
86.9553513479
 20
93.8951650953
 10
86.9256689042
 20
93.9802153354
 10
86.8954291512
 20
93.9609630352
 10
86.8663894947
 20
93.8385248503
 10
86.8402376366
 20
93.6200179478
 10
86.8184934373
 20
93.3181399798
 10
86.802420585
 20
92.9504352009
 10
86.7929531672
 20
92.5382746702
 10
86.7906413917
 20
92.1056092104
 10
86.7956196019
 20
91.6775863936
 10
86.8075985057
 20
91.2790799832
 10
86.8258819394
 20
90.9332491776
 10
86.8494073223
 20
90.6601928493
 10
86.8768074145
 20
90.475780735
  0
ARC
  5
298
330
1F
100
AcDbEntity
  8
0
  6
SLD-Durchgehend
 62
     7
370
    15
100
AcDbCircle
 10
80.5756243898
 20
91.5964273449
 30
0.0
 40
6.451763987456616
100
AcDbArc
 50
350.7068051828
 51
0.5786295856
  0
ARC
  5
299
330
1F
100
AcDbEntity
  8
0
  6
SLD-Durchgehend
 62
     7
370
    15
100
AcDbCircle
 10
66.3269133016
 20
92.1804262645
 30
0.0
 40
20.70664739167734
100
AcDbArc
 50
358.5641969793
 51
3.1095681467
  0
LWPOLYLINE
  5
29A
330
1F
100
AcDbEntity
  8
0
  6
SLD-Durchgehend
 62
     7
370
    15
100
AcDbPolyline
 90
        9
 70
   128
 43
0.0
 10
87.0030727531
 20
93.303670021
 10
86.9924178408
 20
93.4535459002
 10
86.9805168771
 20
93.582724998
 10
86.9675641882
 20
93.6890969371
 10
86.9537711554
 20
93.7709266638
 10
86.9393628967
 20
93.8268786615
 10
86.9245746001
 20
93.8560402339
 10
86.9096476529
 20
93.8579336127
 10
86.8948256833
 20
93.8325289955
  0
LINE
  5
29B
330
1F
100
AcDbEntity
  8
0
  6
SLD-Durchgehend
 62
     7
370
    15
100
AcDbLine
 10
86.889027007
 20
93.8149595952
 30
0.0
 11
86.8948256833
 21
93.8325289955
 31
0.0
  0
ARC
  5
29C
330
1F
100
AcDbEntity
  8
0
  6
SLD-Durchgehend
 62
     7
370
    15
100
AcDbCircle
 10
92.988617838
 20
92.8066503143
 30
0.0
 40
6.182369765046976
100
AcDbArc
 50
170.6134535544
 51
180.4045286065
  0
LINE
  5
29D
330
1F
100
AcDbEntity
  8
0
  6
SLD-Durchgehend
 62
     7
370
    15
100
AcDbLine
 10
86.803803017
 20
92.6491337215
 30
0.0
 11
86.8064021636
 21
92.7630009448
 31
0.0
  0
ARC
  5
29E
330
1F
100
AcDbEntity
  8
0
  6
SLD-Durchgehend
 62
     7
370
    15
100
AcDbCircle
 10
107.7519503728
 20
92.1878958353
 30
0.0
 40
20.95322452579025
100
AcDbArc
 50
178.7386610154
 51
182.9351047819
  0
LINE
  5
29F
330
1F
100
AcDbEntity
  8
0
  6
SLD-Durchgehend
 62
     7
370
    15
100
AcDbLine
 10
86.8317805292
 20
91.0256382396
 30
0.0
 11
86.8262128791
 21
91.1149893274
 31
0.0
  0
LWPOLYLINE
  5
2A0
330
1F
100
AcDbEntity
  8
0
  6
SLD-Durchgehend
 62
     7
370
    15
100
AcDbPolyline
 90
        9
 70
   128
 43
0.0
 10
86.8317805292
 20
91.0256382396
 10
86.842356541
 20
90.8859836256
 10
86.8540490631
 20
90.7660097202
 10
86.8666810278
 20
90.6675326025
 10
86.8800610772
 20
90.5920442512
 10
86.8939866198
 20
90.5406873992
 10
86.9082467692
 20
90.514240632
 10
86.9226255166
 20
90.5131034872
 10
86.9369051364
 20
90.537294591
  0
LINE
  5
2A1
330
1F
100
AcDbEntity
  8
0
  6
SLD-Durchgehend
 62
     7
370
    15
100
AcDbLine
 10
86.9427083529
 20
90.554553861
 30
0.0
 11
86.9369051364
 21
90.537294591
 31
0.0
  0
ARC
  5
2A2
330
1F
100
AcDbEntity
  8
0
  6
SLD-Durchgehend
 62
     7
370
    15
100
AcDbCircle
 10
81.6679792802
 20
91.6436448649
 30
0.0
 40
5.385989788828122
100
AcDbArc
 50
348.3338848761
 51
351.6663055222
  0
ARC
  5
2A3
330
1F
100
AcDbEntity
  8
0
  6
SLD-Durchgehend
 62
     7
370
    15
100
AcDbCircle
 10
86.6330184205
 20
93.6424860339
 30
0.0
 40
0.3235110046369033
100
AcDbArc
 50
359.6628672878
 51
35.9754774646
  0
ARC
  5
2A4
330
1F
100
AcDbEntity
  8
0
  6
SLD-Durchgehend
 62
     7
370
    15
100
AcDbCircle
 10
88.1191031532
 20
90.5233077034
 30
0.0
 40
1.184782875253415
100
AcDbArc
 50
169.985474032
 51
179.2618747215
  0
LINE
  5
2A5
330
1F
100
AcDbEntity
  8
0
  6
SLD-Durchgehend
 62
     7
370
    15
100
AcDbLine
 10
86.9359140345
 20
90.5378030932
 30
0.0
 11
86.9369051364
 21
90.537294591
 31
0.0
  0
LWPOLYLINE
  5
2A6
330
1F
100
AcDbEntity
  8
0
  6
SLD-Durchgehend
 62
     7
370
    15
100
AcDbPolyline
 90
        5
 70
   128
 43
0.0
 10
86.8317805292
 20
91.0256382396
 10
86.8429207479
 20
90.9754352963
 10
86.860496813
 20
90.954944337
 10
86.8824308275
 20
90.9715609943
 10
86.8955414047
 20
90.9957204333
  0
LWPOLYLINE
  5
2A7
330
1F
100
AcDbEntity
  8
0
  6
SLD-Durchgehend
 62
     7
370
    15
100
AcDbPolyline
 90
        6
 70
   128
 43
0.0
 10
86.8955414047
 20
90.9957204333
 10
86.9354151658
 20
91.0592664352
 10
86.9643766785
 20
91.0584198629
 10
86.9760852368
 20
90.9941120392
 10
86.9703407519
 20
90.876540946
 10
86.9523719887
 20
90.7293388938
  0
ARC
  5
2A8
330
1F
100
AcDbEntity
  8
0
  6
SLD-Durchgehend
 62
     7
370
    15
100
AcDbCircle
 10
88.306889016
 20
93.7649067813
 30
0.0
 40
1.418745206390853
100
AcDbArc
 50
177.9782062252
 51
190.4773857641
  0
LWPOLYLINE
  5
2A9
330
1F
100
AcDbEntity
  8
0
  6
SLD-Durchgehend
 62
     7
370
    15
100
AcDbPolyline
 90
        6
 70
   128
 43
0.0
 10
86.9117988917
 20
93.5069116151
 10
86.9361416265
 20
93.315296652
 10
86.9443429113
 20
93.145249257
 10
86.9329542914
 20
93.0193791484
 10
86.9043990973
 20
92.948928321
 10
86.8671796928
 20
92.937322179
  0
LWPOLYLINE
  5
2AA
330
1F
100
AcDbEntity
  8
0
  6
SLD-Durchgehend
 62
     7
370
    15
100
AcDbPolyline
 90
        5
 70
   128
 43
0.0
 10
86.8671796928
 20
92.937322179
 10
86.8431449638
 20
92.9281374758
 10
86.8233898657
 20
92.8818637824
 10
86.8099631919
 20
92.8041104546
 10
86.8064021636
 20
92.7630009448
  0
ARC
  5
2AB
330
1F
100
AcDbEntity
  8
0
  6
SLD-Durchgehend
 62
     7
370
    15
100
AcDbCircle
 10
88.4265825006
 20
91.1306821065
 30
0.0
 40
1.600446559177173
100
AcDbArc
 50
167.3305975304
 51
180.5618084602
  0
ARC
  5
2AC
330
1F
100
AcDbEntity
  8
0
  6
SLD-Durchgehend
 62
     7
370
    15
100
AcDbCircle
 10
87.7956042084
 20
92.6266530509
 30
0.0
 40
0.9920559378608481
100
AcDbArc
 50
178.7015270389
 51
198.1469926338
  0
ARC
  5
2AD
330
1F
100
AcDbEntity
  8
0
  6
SLD-Durchgehend
 62
     7
370
    15
100
AcDbCircle
 10
85.3741260589
 20
91.8779957108
 30
0.0
 40
1.542745918216399
100
AcDbArc
 50
345.115189003
 51
16.5585798145
  0
LINE
  5
2AE
330
1F
100
AcDbEntity
  8
0
  6
SLD-Durchgehend
 62
     7
370
    15
100
AcDbLine
 10
91.9354726505
 20
94.4411846196
 30
0.0
 11
89.4415623919
 21
94.4411846196
 31
0.0
  0
LINE
  5
2AF
330
1F
100
AcDbEntity
  8
0
  6
SLD-Durchgehend
 62
     7
370
    15
100
AcDbLine
 10
89.4415623919
 20
94.4411846196
 30
0.0
 11
87.4848051174
 21
94.860183852
 31
0.0
  0
LINE
  5
2B0
330
1F
100
AcDbEntity
  8
0
  6
SLD-Durchgehend
 62
     7
370
    15
100
AcDbLine
 10
87.4848051174
 20
94.860183852
 30
0.0
 11
87.4507961274
 21
104.1629757003
 31
0.0
  0
LINE
  5
2B1
330
1F
100
AcDbEntity
  8
0
  6
SLD-Durchgehend
 62
     7
370
    15
100
AcDbLine
 10
105.3012330961
 20
104.1629757003
 30
0.0
 11
87.4507961274
 21
104.1629757003
 31
0.0
  0
LINE
  5
2B2
330
1F
100
AcDbEntity
  8
0
  6
SLD-Durchgehend
 62
     7
370
    15
100
AcDbLine
 10
105.3012330961
 20
92.4586819803
 30
0.0
 11
105.3012330961
 21
104.1629757003
 31
0.0
  0
ELLIPSE
  5
2B3
330
1F
100
AcDbEntity
  8
0
  6
SLD-Durchgehend
 62
     7
370
    15
100
AcDbEllipse
 10
87.0848947291
 20
122.389497451
 30
0.0
 11
-0.236888580143102
 21
43.52622494556572
 31
0.0
210
0.0
220
0.0
230
0.9999999999999999
 40
0.5729530612
 41
3.330043988983089
 42
3.951027772412606
  0
LINE
  5
2B4
330
1F
100
AcDbEntity
  8
0
  6
SLD-Durchgehend
 62
     7
370
    15
100
AcDbLine
 10
91.9354726505
 20
94.4411846196
 30
0.0
 11
91.9374260996
 21
93.9067470228
 31
0.0
  0
LWPOLYLINE
  5
2B5
330
1F
100
AcDbEntity
  8
0
  6
SLD-Durchgehend
 62
     7
370
    15
100
AcDbPolyline
 90
        3
 70
   128
 43
0.0
 10
86.1497734152
 20
88.6278504824
 10
86.1729884931
 20
88.5693932271
 10
86.1877243445
 20
88.4647908008
  0
ARC
  5
2B6
330
1F
100
AcDbEntity
  8
0
  6
SLD-Durchgehend
 62
     7
370
    15
100
AcDbCircle
 10
87.301233871
 20
105.0876247084
 30
0.0
 40
16.5
100
AcDbArc
 50
265.4172264685
 51
265.9983340756
  0
ARC
  5
2B7
330
1F
100
AcDbEntity
  8
0
  6
SLD-Durchgehend
 62
     7
370
    15
100
AcDbCircle
 10
87.301233871
 20
105.0876247084
 30
0.0
 40
16.50000000000002
100
AcDbArc
 50
94.0016659244
 51
94.5827735315
  0
ARC
  5
2B8
330
1F
100
AcDbEntity
  8
0
  6
SLD-Durchgehend
 62
     7
370
    15
100
AcDbCircle
 10
83.820476209
 20
122.1346333888
 30
0.0
 40
2.402180213806334
100
AcDbArc
 50
345.8501383388
 51
3.8206624444
  0
LINE
  5
2B9
330
1F
100
AcDbEntity
  8
0
  6
SLD-Durchgehend
 62
     7
370
    15
100
AcDbLine
 10
86.2315355046
 20
123.055811817
 30
0.0
 11
86.217317585
 21
122.2946996188
 31
0.0
  0
ARC
  5
2BA
330
1F
100
AcDbEntity
  8
0
  6
SLD-Durchgehend
 62
     7
370
    15
100
AcDbCircle
 10
87.301233871
 20
105.0876247084
 30
0.0
 40
18.00000000000002
100
AcDbArc
 50
92.4644156592
 51
93.4069632015
  0
LINE
  5
2BB
330
1F
100
AcDbEntity
  8
0
  6
SLD-Durchgehend
 62
     7
370
    15
100
AcDbLine
 10
87.4507961274
 20
104.1629757003
 30
0.0
 11
86.5272535305
 21
123.0709774738
 31
0.0
  0
LINE
  5
2BC
330
1F
100
AcDbEntity
  8
0
  6
SLD-Durchgehend
 62
     7
370
    15
100
AcDbLine
 10
87.1104434776
 20
107.3275176661
 30
0.0
 11
87.1323811155
 21
101.3267108558
 31
0.0
  0
LWPOLYLINE
  5
2BD
330
1F
100
AcDbEntity
  8
0
  6
SLD-Durchgehend
 62
     7
370
    15
100
AcDbPolyline
 90
       14
 70
   128
 43
0.0
 10
86.833101552
 20
107.1191519352
 10
86.835391878
 20
107.5979218205
 10
86.8456081374
 20
108.0549222736
 10
86.8631566121
 20
108.4635938371
 10
86.8870174457
 20
108.8001861555
 10
86.915803928
 20
109.0451374968
 10
86.9478431126
 20
109.1842123626
 10
86.9812729946
 20
109.2093282698
 10
87.0141507479
 20
109.1190249046
 10
87.0445656186
 20
108.918551434
 10
87.0707500147
 20
108.6195580048
 10
87.0911821988
 20
108.2394212337
 10
87.1046747346
 20
107.8002330234
 10
87.1104434776
 20
107.3275176661
  0
LINE
  5
2BE
330
1F
100
AcDbEntity
  8
0
  6
SLD-Durchgehend
 62
     7
370
    15
100
AcDbLine
 10
86.8371049585
 20
106.0240628051
 30
0.0
 11
86.833101552
 21
107.1191519352
 31
0.0
  0
LWPOLYLINE
  5
2BF
330
1F
100
AcDbEntity
  8
0
  6
SLD-Durchgehend
 62
     7
370
    15
100
AcDbPolyline
 90
        3
 70
   128
 43
0.0
 10
86.4910258973
 20
91.6761447063
 10
86.5675776443
 20
92.2839314064
 10
86.5852439604
 20
92.3522262221
  0
LINE
  5
2C0
330
1F
100
AcDbEntity
  8
0
  6
SLD-Durchgehend
 62
     7
370
    15
100
AcDbLine
 10
86.2202522988
 20
88.6434296465
 30
0.0
 11
86.4910258973
 21
91.6761447063
 31
0.0
  0
ELLIPSE
  5
2C1
330
1F
100
AcDbEntity
  8
0
  6
SLD-Durchgehend
 62
     7
370
    15
100
AcDbEllipse
 10
86.4831374493
 20
76.9159595618
 30
0.0
 11
0.01525381186593222
 21
12.42534859476891
 31
0.0
210
0.0
220
0.0
230
1.0
 40
0.0675218954
 41
0.3368307052554805
 42
0.3779401527737931
  0
LINE
  5
2C2
330
1F
100
AcDbEntity
  8
0
  6
SLD-Durchgehend
 62
     7
370
    15
100
AcDbLine
 10
87.1323811155
 20
101.3267108558
 30
0.0
 11
87.4848051174
 21
94.860183852
 31
0.0
  0
LINE
  5
2C3
330
1F
100
AcDbEntity
  8
0
  6
SLD-Durchgehend
 62
     7
370
    15
100
AcDbLine
 10
105.3012330961
 20
104.1629757003
 30
0.0
 11
105.3012330961
 21
105.0876247084
 31
0.0
  0
ARC
  5
2C4
330
1F
100
AcDbEntity
  8
0
  6
SLD-Durchgehend
 62
     7
370
    15
100
AcDbCircle
 10
87.301233871
 20
105.0876247084
 30
0.0
 40
18.0
100
AcDbArc
 50
0.0
 51
92.4644156592
  0
ELLIPSE
  5
2C5
330
1F
100
AcDbEntity
  8
0
  6
SLD-Durchgehend
 62
     7
370
    15
100
AcDbEllipse
 10
155.2199387062
 20
95.3339299489
 30
0.0
 11
72.84549337103135
 21
9.694835270167562
 31
0.0
210
0.0
220
0.0
230
0.9999999999999998
 40
0.1007961311
 41
2.782641220802714
 42
2.801523068651929
  0
LINE
  5
2C6
330
1F
100
AcDbEntity
  8
0
  6
SLD-Durchgehend
 62
     7
370
    15
100
AcDbLine
 10
86.1877243445
 20
88.4647908008
 30
0.0
 11
86.6907929015
 21
88.5267479664
 31
0.0
  0
ARC
  5
2C7
330
1F
100
AcDbEntity
  8
0
  6
SLD-Durchgehend
 62
     7
370
    15
100
AcDbCircle
 10
87.3012162569
 20
105.087707201
 30
0.0
 40
16.49991569387873
100
AcDbArc
 50
94.5827355491
 51
105.0100922624
  0
ARC
  5
2C8
330
1F
100
AcDbEntity
  8
0
  6
SLD-Durchgehend
 62
     7
370
    15
100
AcDbCircle
 10
87.3011858322
 20
105.0873660096
 30
0.0
 40
16.49973762022672
100
AcDbArc
 50
254.9898513131
 51
265.4173208754
  0
ELLIPSE
  5
2C9
330
1F
100
AcDbEntity
  8
0
  6
SLD-Durchgehend
 62
     7
370
    15
100
AcDbEllipse
 10
78.7550353683
 20
97.2827008225
 30
0.0
 11
-1.721753363541098
 21
2.368360820936005
 31
0.0
210
0.0
220
0.0
230
1.0
 40
0.7016899908
 41
0.0
 42
6.283185307179586
  0
ARC
  5
2CA
330
1F
100
AcDbEntity
  8
0
  6
SLD-Durchgehend
 62
     7
370
    15
100
AcDbCircle
 10
87.301233871
 20
105.0876247084
 30
0.0
 40
16.50000000000004
100
AcDbArc
 50
105.0100772209
 51
254.9899227791
  0
LINE
  5
2CB
330
1F
100
AcDbEntity
  8
0
  6
SLD-Durchgehend
 62
     7
370
    15
100
AcDbLine
 10
82.8012340647
 20
121.9876239395
 30
0.0
 11
82.8012340647
 21
121.9991593009
 31
0.0
  0
LINE
  5
2CC
330
1F
100
AcDbEntity
  8
0
  6
SLD-Durchgehend
 62
     7
370
    15
100
AcDbLine
 10
86.2074797918
 20
121.9876239395
 30
0.0
 11
82.8012340647
 21
121.9876239395
 31
0.0
  0
LINE
  5
2CD
330
1F
100
AcDbEntity
  8
0
  6
SLD-Durchgehend
 62
     7
370
    15
100
AcDbLine
 10
86.709274998
 20
88.1876254773
 30
0.0
 11
82.7581073102
 21
88.1876254773
 31
0.0
  0
LINE
  5
2CE
330
1F
100
AcDbEntity
  8
0
  6
SLD-Durchgehend
 62
     7
370
    15
100
AcDbLine
 10
74.4238310438
 20
116.9376250675
 30
0.0
 11
75.4512335118
 21
116.9376250675
 31
0.0
  0
LINE
  5
2CF
330
1F
100
AcDbEntity
  8
0
  6
SLD-Durchgehend
 62
     7
370
    15
100
AcDbLine
 10
75.4512335118
 20
117.9650275355
 30
0.0
 11
75.4512335118
 21
116.9376250675
 31
0.0
  0
LINE
  5
2D0
330
1F
100
AcDbEntity
  8
0
  6
SLD-Durchgehend
 62
     7
370
    15
100
AcDbLine
 10
82.8012340647
 20
123.9585018104
 30
0.0
 11
82.8012340647
 21
124.5748007989
 31
0.0
  0
ARC
  5
2D1
330
1F
100
AcDbEntity
  8
0
  6
SLD-Durchgehend
 62
     7
370
    15
100
AcDbCircle
 10
87.301233871
 20
105.0876247084
 30
0.0
 40
20.00000000000001
100
AcDbArc
 50
103.0028781629
 51
126.3346172154
  0
LINE
  5
2D2
330
1F
100
AcDbEntity
  8
0
  6
SLD-Durchgehend
 62
     7
370
    15
100
AcDbLine
 10
75.4512335118
 20
121.199034
 30
0.0
 11
75.4512335118
 21
120.4478822967
 31
0.0
  0
LINE
  5
2D3
330
1F
100
AcDbEntity
  8
0
  6
SLD-Durchgehend
 62
     7
370
    15
100
AcDbLine
 10
81.8012339008
 20
86.4835920131
 30
0.0
 11
81.8012339008
 21
85.8587397581
 31
0.0
  0
ARC
  5
2D4
330
1F
100
AcDbEntity
  8
0
  6
SLD-Durchgehend
 62
     7
370
    15
100
AcDbCircle
 10
87.301233871
 20
105.0876247084
 30
0.0
 40
20.00000000000001
100
AcDbArc
 50
143.6653827846
 51
254.0379858372
  0
LINE
  5
2D5
330
1F
100
AcDbEntity
  8
0
  6
SLD-Durchgehend
 62
     7
370
    15
100
AcDbLine
 10
71.1898245793
 20
116.9376250675
 30
0.0
 11
71.9409762826
 21
116.9376250675
 31
0.0
  0
LINE
  5
2D6
330
1F
100
AcDbEntity
  8
0
  6
SLD-Durchgehend
 62
     7
370
    15
100
AcDbLine
 10
91.8012336773
 20
124.5748007989
 30
0.0
 11
91.8012336773
 21
123.9585018104
 31
0.0
  0
ARC
  5
2D7
330
1F
100
AcDbEntity
  8
0
  6
SLD-Durchgehend
 62
     7
370
    15
100
AcDbCircle
 10
87.301233871
 20
105.0876247084
 30
0.0
 40
20.00000000000003
100
AcDbArc
 50
334.463541785
 51
76.9971218371
  0
LINE
  5
2D8
330
1F
100
AcDbEntity
  8
0
  6
SLD-Durchgehend
 62
     7
370
    15
100
AcDbLine
 10
91.8012336773
 20
123.9585018104
 30
0.0
 11
91.8012336773
 21
122.5160489177
 31
0.0
  0
LINE
  5
2D9
330
1F
100
AcDbEntity
  8
0
  6
SLD-Durchgehend
 62
     7
370
    15
100
AcDbLine
 10
81.8012339008
 20
88.1876254773
 30
0.0
 11
81.8012339008
 21
86.4835920131
 31
0.0
  0
LINE
  5
2DA
330
1F
100
AcDbEntity
  8
0
  6
SLD-Durchgehend
 62
     7
370
    15
100
AcDbLine
 10
82.7581073102
 20
88.1876254773
 30
0.0
 11
81.8012339008
 21
88.1876254773
 31
0.0
  0
LINE
  5
2DB
330
1F
100
AcDbEntity
  8
0
  6
SLD-Durchgehend
 62
     7
370
    15
100
AcDbLine
 10
71.9409762826
 20
116.9376250675
 30
0.0
 11
74.4238310438
 21
116.9376250675
 31
0.0
  0
LINE
  5
2DC
330
1F
100
AcDbEntity
  8
0
  6
SLD-Durchgehend
 62
     7
370
    15
100
AcDbLine
 10
82.8012340647
 20
121.9991593009
 30
0.0
 11
82.8012340647
 21
123.9585018104
 31
0.0
  0
LINE
  5
2DD
330
1F
100
AcDbEntity
  8
0
  6
SLD-Durchgehend
 62
     7
370
    15
100
AcDbLine
 10
75.4512335118
 20
120.4478822967
 30
0.0
 11
75.4512335118
 21
117.9650275355
 31
0.0
  0
ARC
  5
2DE
330
1F
100
AcDbEntity
  8
0
  6
SLD-Durchgehend
 62
     7
370
    15
100
AcDbCircle
 10
87.297428305
 20
105.0914302743
 30
0.0
 40
19.99468001396028
100
AcDbArc
 50
126.3322940084
 51
143.6677059916
  0
ARC
  5
2DF
330
1F
100
AcDbEntity
  8
0
  6
SLD-Durchgehend
 62
     7
370
    15
100
AcDbCircle
 10
87.3033209527
 20
105.1002267915
 30
0.0
 40
20.0126906033361
100
AcDbArc
 50
254.0421632182
 51
267.1298520507
  0
ARC
  5
2E0
330
1F
100
AcDbEntity
  8
0
  6
SLD-Durchgehend
 62
     7
370
    15
100
AcDbCircle
 10
87.301233871
 20
105.0855301591
 30
0.0
 40
20.00204160398588
100
AcDbArc
 50
76.9984728682
 51
103.0015271318
  0
ARC
  5
2E1
330
1F
100
AcDbEntity
  8
0
  6
SLD-Durchgehend
 62
     7
370
    15
100
AcDbCircle
 10
87.301233871
 20
105.0876247084
 30
0.0
 40
20.00000000000002
100
AcDbArc
 50
267.1340160174
 51
268.7873766162
  0
CIRCLE
  5
2E2
330
1F
100
AcDbEntity
  8
VERMASSUNG
  6
SLD-Punktstrich
100
AcDbCircle
 10
87.2765417798
 20
103.1104221681
 30
0.0
 40
25.0
  0
POINT
  5
2E3
330
1F
100
AcDbEntity
  8
VERMASSUNG
100
AcDbPoint
 10
87.2765417798
 20
78.1104221681
 30
0.0
  0
DIMENSION
  5
2E4
330
1F
100
AcDbEntity
  8
VERMASSUNG
100
AcDbDimension
  2
*D6
 10
58.4632688555
 20
128.1104221681
 30
0.0
 11
58.4632688555
 21
103.1104221681
 31
0.0
 70
   160
  1
%%c<>
 71
     2
 42
-1.0
  3
SLDDIMSTYLE2
100
AcDbAlignedDimension
 13
87.2765417798
 23
78.1104221681
 33
0.0
 14
87.2765417798
 24
128.1104221681
 34
0.0
 50
90.0
100
AcDbRotatedDimension
  0
INSERT
  5
2FB
330
1F
100
AcDbEntity
  8
VERMASSUNG
100
AcDbBlockReference
  2
SW_CENTERMARKSYMBOL_0
 10
87.301233871
 20
105.0876247084
 30
0.0
  0
OLE2FRAME
  5
2FC
330
1F
100
AcDbEntity
  8
0
100
AcDbOle2Frame
 70
     2
  3
Bitmap
 10
13.8511154363
 20
38.264191557
 30
0.0
 11
51.6290888628
 21
31.9806341108
 31
0.0
 71
     2
 72
     0
 73
     1
 90
    12928
310
80552BED0767C5B32B40DDAF6807D121434000000000000000006FFBDDFB85D0
310
4940DDAF6807D121434000000000000000006FFBDDFB85D04940416F4BD60AFB
310
3F4000000000000000002BED0767C5B32B40416F4BD60AFB3F40000000000000
310
0000000000000100000000010000010000000100000000000100000000320000
310
D0CF11E0A1B11AE1000000000000000000000000000000003E000300FEFF0900
310
0600000000000000000000000100000001000000000000000010000002000000
310
01000000FEFFFFFF0000000000000000FFFFFFFFFFFFFFFFFFFFFFFFFFFFFFFF
310
FFFFFFFFFFFFFFFFFFFFFFFFFFFFFFFFFFFFFFFFFFFFFFFFFFFFFFFFFFFFFFFF
310
FFFFFFFFFFFFFFFFFFFFFFFFFFFFFFFFFFFFFFFFFFFFFFFFFFFFFFFFFFFFFFFF
310
FFFFFFFFFFFFFFFFFFFFFFFFFFFFFFFFFFFFFFFFFFFFFFFFFFFFFFFFFFFFFFFF
310
FFFFFFFFFFFFFFFFFFFFFFFFFFFFFFFFFFFFFFFFFFFFFFFFFFFFFFFFFFFFFFFF
310
FFFFFFFFFFFFFFFFFFFFFFFFFFFFFFFFFFFFFFFFFFFFFFFFFFFFFFFFFFFFFFFF
310
FFFFFFFFFFFFFFFFFFFFFFFFFFFFFFFFFFFFFFFFFFFFFFFFFFFFFFFFFFFFFFFF
310
FFFFFFFFFFFFFFFFFFFFFFFFFFFFFFFFFFFFFFFFFFFFFFFFFFFFFFFFFFFFFFFF
310
FFFFFFFFFFFFFFFFFFFFFFFFFFFFFFFFFFFFFFFFFFFFFFFFFFFFFFFFFFFFFFFF
310
FFFFFFFFFFFFFFFFFFFFFFFFFFFFFFFFFFFFFFFFFFFFFFFFFFFFFFFFFFFFFFFF
310
FFFFFFFFFFFFFFFFFFFFFFFFFFFFFFFFFFFFFFFFFFFFFFFFFFFFFFFFFFFFFFFF
310
FFFFFFFFFFFFFFFFFFFFFFFFFFFFFFFFFFFFFFFFFFFFFFFFFFFFFFFFFFFFFFFF
310
FFFFFFFFFFFFFFFFFFFFFFFFFFFFFFFFFFFFFFFFFFFFFFFFFFFFFFFFFFFFFFFF
310
FFFFFFFFFFFFFFFFFFFFFFFFFFFFFFFFFFFFFFFFFFFFFFFFFFFFFFFFFFFFFFFF
310
FDFFFFFFFEFFFFFFFEFFFFFFFEFFFFFF05000000060000000700000008000000
310
090000000A0000000B0000000C0000000D0000000E0000000F00000010000000
310
11000000120000001300000014000000150000001600000017000000FEFFFFFF
310
FFFFFFFFFFFFFFFFFFFFFFFFFFFFFFFFFFFFFFFFFFFFFFFFFFFFFFFFFFFFFFFF
310
FFFFFFFFFFFFFFFFFFFFFFFFFFFFFFFFFFFFFFFFFFFFFFFFFFFFFFFFFFFFFFFF
310
FFFFFFFFFFFFFFFFFFFFFFFFFFFFFFFFFFFFFFFFFFFFFFFFFFFFFFFFFFFFFFFF
310
FFFFFFFFFFFFFFFFFFFFFFFFFFFFFFFFFFFFFFFFFFFFFFFFFFFFFFFFFFFFFFFF
310
FFFFFFFFFFFFFFFFFFFFFFFFFFFFFFFFFFFFFFFFFFFFFFFFFFFFFFFFFFFFFFFF
310
FFFFFFFFFFFFFFFFFFFFFFFFFFFFFFFFFFFFFFFFFFFFFFFFFFFFFFFFFFFFFFFF
310
FFFFFFFFFFFFFFFFFFFFFFFFFFFFFFFFFFFFFFFFFFFFFFFFFFFFFFFFFFFFFFFF
310
FFFFFFFFFFFFFFFFFFFFFFFFFFFFFFFFFFFFFFFFFFFFFFFFFFFFFFFFFFFFFFFF
310
FFFFFFFFFFFFFFFFFFFFFFFFFFFFFFFFFFFFFFFFFFFFFFFFFFFFFFFFFFFFFFFF
310
FFFFFFFFFFFFFFFFFFFFFFFFFFFFFFFFFFFFFFFFFFFFFFFFFFFFFFFFFFFFFFFF
310
FFFFFFFFFFFFFFFFFFFFFFFFFFFFFFFFFFFFFFFFFFFFFFFFFFFFFFFFFFFFFFFF
310
FFFFFFFFFFFFFFFFFFFFFFFFFFFFFFFFFFFFFFFFFFFFFFFFFFFFFFFFFFFFFFFF
310
FFFFFFFFFFFFFFFFFFFFFFFFFFFFFFFFFFFFFFFFFFFFFFFFFFFFFFFFFFFFFFFF
310
52006F006F007400200045006E00740072007900000000000000000000000000
310
0000000000000000000000000000000000000000000000000000000000000000
310
16000500FFFFFFFFFFFFFFFF020000000A00030000000000C000000000000046
310
000000000000000000000000A04B3B836EA8C90103000000C000000000000000
310
01004F006C006500000000000000000000000000000000000000000000000000
310
0000000000000000000000000000000000000000000000000000000000000000
310
0A000200FFFFFFFFFFFFFFFFFFFFFFFF00000000000000000000000000000000
310
0000000000000000000000000000000000000000000000001400000000000000
310
010043006F006D0070004F0062006A0000000000000000000000000000000000
310
0000000000000000000000000000000000000000000000000000000000000000
310
120002010100000003000000FFFFFFFF00000000000000000000000000000000
310
0000000000000000000000000000000000000000010000004D00000000000000
310
01004F006C006500310030004E00610074006900760065000000000000000000
310
0000000000000000000000000000000000000000000000000000000000000000
310
1A000200FFFFFFFFFFFFFFFFFFFFFFFF00000000000000000000000000000000
310
0000000000000000000000000000000000000000040000002426000000000000
310
FEFFFFFF02000000FEFFFFFFFFFFFFFFFFFFFFFFFFFFFFFFFFFFFFFFFFFFFFFF
310
FFFFFFFFFFFFFFFFFFFFFFFFFFFFFFFFFFFFFFFFFFFFFFFFFFFFFFFFFFFFFFFF
310
FFFFFFFFFFFFFFFFFFFFFFFFFFFFFFFFFFFFFFFFFFFFFFFFFFFFFFFFFFFFFFFF
310
FFFFFFFFFFFFFFFFFFFFFFFFFFFFFFFFFFFFFFFFFFFFFFFFFFFFFFFFFFFFFFFF
310
FFFFFFFFFFFFFFFFFFFFFFFFFFFFFFFFFFFFFFFFFFFFFFFFFFFFFFFFFFFFFFFF
310
FFFFFFFFFFFFFFFFFFFFFFFFFFFFFFFFFFFFFFFFFFFFFFFFFFFFFFFFFFFFFFFF
310
FFFFFFFFFFFFFFFFFFFFFFFFFFFFFFFFFFFFFFFFFFFFFFFFFFFFFFFFFFFFFFFF
310
FFFFFFFFFFFFFFFFFFFFFFFFFFFFFFFFFFFFFFFFFFFFFFFFFFFFFFFFFFFFFFFF
310
FFFFFFFFFFFFFFFFFFFFFFFFFFFFFFFFFFFFFFFFFFFFFFFFFFFFFFFFFFFFFFFF
310
FFFFFFFFFFFFFFFFFFFFFFFFFFFFFFFFFFFFFFFFFFFFFFFFFFFFFFFFFFFFFFFF
310
FFFFFFFFFFFFFFFFFFFFFFFFFFFFFFFFFFFFFFFFFFFFFFFFFFFFFFFFFFFFFFFF
310
FFFFFFFFFFFFFFFFFFFFFFFFFFFFFFFFFFFFFFFFFFFFFFFFFFFFFFFFFFFFFFFF
310
FFFFFFFFFFFFFFFFFFFFFFFFFFFFFFFFFFFFFFFFFFFFFFFFFFFFFFFFFFFFFFFF
310
FFFFFFFFFFFFFFFFFFFFFFFFFFFFFFFFFFFFFFFFFFFFFFFFFFFFFFFFFFFFFFFF
310
FFFFFFFFFFFFFFFFFFFFFFFFFFFFFFFFFFFFFFFFFFFFFFFFFFFFFFFFFFFFFFFF
310
FFFFFFFFFFFFFFFFFFFFFFFFFFFFFFFFFFFFFFFFFFFFFFFFFFFFFFFFFFFFFFFF
310
010000020000000000000000000000000000000078011500E871070E78011500
310
0000420500000000000000000000000028000000410000000E114100A2105000
310
0100FEFF030A0000FFFFFFFF0A00030000000000C00000000000004607000000
310
5042727573680007000000504272757368000700000050427275736800F439B2
310
7100000000000000000000000000000028000000410000000E114100F2104F00
310
0000000000000000000000000000000000004205000000000000000000000000
310
28000000410000000E1141004410500000000000000000000000000000000000
310
0000420500000000000000000000000028000000410000000E114100C4104700
310
0000000000000000000000000000000000004205000000000000000000000000
310
28000000410000000E1141006A10110000000000000000000000000000000000
310
0000420500000000000000000000000028000000410000000E1141008C101400
310
0000000000000000000000000000000000004205000000000000000000000000
310
28000000410000000E1141002810120000000000000000000000000000000000
310
0000420500000000000000000000000028000000410000000E11410008101200
310
0000000000000000000000000000000000004205000000000000000000000000
310
28000000410000000E114100E8104D0000000000000000000000000000000000
310
20260000424D0E260000000000003E00000028000000B40200006E0000000100
310
01000000000000000000130B0000130B00000200000002000000000000FFFFFF
310
FFFFFFFFFFFFFFFFFFFFFFFFFFFFFFFFFFFFFFFFFFFFFFFFFFFFFFFFFFFFFFFF
310
FFFFFFFFFFFFFFFFFFFFFFFFFFFFFFFFFFFFFFFFFFFFFFFFFFFFFFFFFFFFFFFF
310
FFFFFFFFFFFFFFFFFFFFFFFFFFFFFFFFFFFFFFFFFFFFFFFFF000FFFFFFFFFFFF
310
FFFFFFFFFFFFFFFFFFFFFFFFFFFFFFFFFFFFFFFFFFFFFFFFFFFFFFFFFFFFFFFF
310
FFFFFFFFFFFFFFFFFFFFFFFFFFFFFFFFFFFFFFFFFFFFFFFFFFFFFFFFFFFFFFFF
310
FFFFFFFFFFFFFFFFFFFFFFFFFFFFFFFFF000FFFFFFFFFFFFFFFFFFFFFFFFFFFF
310
FFFFFFFFFFFFFFFFFFFFFFFFFFFFFFFFFFFFFFFFFFFFFFFFFFFFFFFFFFFFFFFF
310
FFFFFFFFFFFFFFFFFFFFFFFFFFFFFFFFFFFFFFFFFFFFFFFFFFFFFFFFFFFFFFFF
310
FFFFFFFFFFFFFFFFF000FFFFFFFFFFFFFFFFFFFFFFFFFFFFFFFFFFFFFFFFFFFF
310
FFFFFFFFFFFFFFFFFFFFFFFFFFFFFFFFFFFFFFFFFFFFFFFFFFFFFFFFFFFFFFFF
310
FFFFFFFFFFFFFFFFFFFFFFFFFFFFFFFFFFFFFFFFFFFFFFFFFFFFFFFFFFFFFFFF
310
F000FFFFFFFFFFFFFFFFFFFFFFFFFFFFFFFFFFFFFFFFFFFFFFFFFFFFFFFFFFFF
310
FFFFFFFFFFFFFFFFFFFFFFFFFFFFFFFFFFFFFFFFFFFFFFFFFFFFFFFFFFFFFFFF
310
FFFFFFFFFFFFFFFFFFFFFFFFFFFFFFFFFFFFFFFFFFFFFFFFF000FFFFFFFFFFFF
310
FFFFFFFFFFFFFFFFFFFFFFFFFFFFFFFFFFFFFFFFFFFFFFFFFFFFFFFFFFFFFFFF
310
FFFFFFFFFFFFFFFFFFFFFFFFFFFFFFFFFFFFFFFFFFFFFFFFFFFFFFFFFFFFFFFF
310
FFFFFFFFFFFFFFFFFFFFFFFFFFFFFFFFF000FFFFFFFFFFFFFFFFFFFFFFFFFFFF
310
FFFFFFFFFFFFFFFFFFFFFFFFFFFFFFFFFFFFFFFFFFFFFFFFFFFFFFFFFFFFFFFF
310
FFFFFFFFFFFFFFFFFFFFFFFFFFFFFFFFFFFFFFFFFFFFFFFFFFFFFFFFFFFFFFFF
310
FFFFFFFFFFFFFFFFF000FFFFFFFFFFFFFFFFFFFFFFFFFFFFFFFFFFFFFFFFFFFF
310
FFFFFFFFFFFFFFFFFFFFFFFFFFFFFFFFFFFFFFFFFFFFFFFFFFFFFFFFFFFFFFFF
310
FFFFFFFFFFFFFFFFFFFFFFFFFFFFFFFFFFFFFFFFFFFFFFFFFFFFFFFFFFFFFFFF
310
F000FFFFFFFFFFFFFFFFFFFFFFFFFFFFFFFFFFFFFFFFFFFFFFFFFFFFFFFFFFFF
310
FFFFFFFFFFFFFFFFFFFFFFFFFFFFFFFFFFFFFFFFFFFFFFFFFFFFFFFFFFFFFFFF
310
FFFFFFFFFFFFFFFFFFFFFFFFFFFFFFFFFFFFFFFFFFFFFFFFF000FFFFFFFFFFFF
310
FFFFFFFFFFFFFFFFFFFFFFFFFFFFFFFFFFFFFFFFFFFFFFFFFFFFFFFFFFFFFFFF
310
FFFFFFFFFFFFFFFFFFFFFFFFFFFFFFFFFFFFFFFFFFFFFFFFFFFFFFFFFFFFFFFF
310
FFFFFFFFFFFFFFFFFFFFFFFFFFFFFFFFF000FFFFFFFFFFFFFFFFFFFFFFFFFFFF
310
FFFFFFFFFFFFFFFFFFFFFFFFFFFFFFFFFFFFFFFFFFFFFFFFFFFFFFFFFFFFFFFF
310
FFFFFFFFFFFFFFFFFFFFFFFFFFFFFFFFFFFFFFFFFFFFFFFFFFFFFFFFFFFFFFFF
310
FFFFFFFFFFFFFFFFF000FFFFFFFFFFFFFFFFFFFFFFFFFFFFFFFFFFFFFFFFFFFF
310
FFFFFFFFFFFFFFFFFFFFFFFFFFFFFFFFFFFFFFFFFFFFFFFFFFFFFFFFFFFFFFFF
310
FFFFFFFFFFFFFFFFFFFFFFFFFFFFFFFFFFFFFFFFFFFFFFFFFFFFFFFFFFFFFFFF
310
F000FFFFFFFFFFFFFFFFFFFFFFFFFFFFFFFFFFFFFFFFFFFFFFFFFFFFFFFFFFFF
310
FFFFFFFFFFFFFFFFFFFFFFFFFFFFFFFFFFFFFFFFFFFFFFFFFFFFFFFFFFFFFFFF
310
FFFFFFFFFFFFFFFFFFFFFFFFFFFFFFFFFFFFFFFFFFFFFFFFF000FFFFFFFFFFFF
310
FFFFFFFFFFFFFFFFFFFFFFFFFFFFFFFFFFFFFFFFFFFFFFFFFFFFFFFFFFFFFFFF
310
FFFFFFFFFFFFFFFFFFFFFFFFFFFFFFFFFFFFFFFFFFFFFFFFFFFFFFFFFFFFFFFF
310
FFFFFFFFFFFFFFFFFFFFFFFFFFFFFFFFF000FFFFFFFFFFFFFFFFFFFFFFFFFFFF
310
FFFFFFFFFFFFFFFFFFFFFFFFFFFFFFFFFFFFFFFFFFFFFFFFFFFFFFFFFFFFFFFF
310
FFFFFFFFFFFFFFFFFFFFFFFFFFFFFFFFFFFFFFFFFFFFFFFFFFFFFFFFFFFFFFFF
310
FFFFFFFFFFFFFFFFF000FFFFFFFFFFFFFFFFFFFFFFFFFFFFFFFFFFFFFFFFFFFF
310
FFFFFFFFFFFFFFFFFFFFFFFFFFFFFFFFFFFFFFFFFFFFFFFFFFFFFFFFFFFFFFFF
310
FFFFFFFFFFFFFFFFFFFFFFFFFFFFFFFFFFFFFFFFFFFFFFFFFFFFFFFFFFFFFFFF
310
F000FFFFFFFFFFFFFFFFFFFFFFFFFFFFFFFFFFFFFFFFFFFFFFFFFFFFFFFFFFFF
310
FFFFFFFFFFFFFFFFFFFFFFFFFFFFFFFFFFFFFFFFFFFFFFFFFFFFFFFFFFFFFFFF
310
FFFFFFFFFFFFFFFFFFFFFFFFFFFFFFFFFFFFFFFFFFFFFFFFF000FFFFFFFFFFFF
310
FFFFFFFFFFFFFFFFFFFFFFFFFFFFFFFFFFFFFFFFFFFFFFFFFFFFFFFFFFFFFFFF
310
FFFFFFFFFFFFFFFFFFFFFFFFFFFFFFFFFFFFFFFFFFFFFFFFFFFFFFFFFFFFFFFF
310
FFFFFFFFFFFFFFFFFFFFFFFFFFFFFFFFF000FFFFFFFFFFFFFFFFFFFFFFFFFFFF
310
FFFFFFFFFFFFFFFFFFFFFFFFFFFFFFFFFFFFFFFFFFFFFFFFFFFFFFFFFFFFFFFF
310
FFFFFFFFFFFFFFFFFFFFFFFFFFFFFFFFFFFFFFFFFFFFFFFFFFFFFFFFFFFFFFFF
310
FFFFFFFFFFFFFFFFF000FFFFF80003FFFFFFFFFFFFFFFFFFFFFFFFFFFFFFFFFF
310
FFFFF00007FFFFFFFFFF00007FFFFFF800000000000000007FFFFFFFFFFFFFFF
310
FFFFFFFC001FFFFFFFFFFFFFFC001FFFFFFFFFFFFFFFFFFFFFFFFFFE0007FFFF
310
F000FFFF8000007FFFFFFFF8000FFFFFC0007FFFFF80007FFFFF0000007FFFFF
310
FFF8000007FFFFF800000000000000007FFFFFF0001FFFFFFFFFFFC00001FFFF
310
FFFFFFFFC00001FFFFFFFF000000000003FFFFE000007FFFF000FFFE0000000F
310
FFFFFFF0000FFFFF80007FFFFF80007FFFFC0000001FFFFFFFC0000001FFFFF8
310
00000000000000007FFFFFF0001FFFFFFFFFFE0000003FFFFFFFFFFE0000003F
310
FFFFFF000000000003FFFF0000000FFFF000FFF800000003FFFFFFF00007FFFF
310
80007FFFFF80007FFFF000000007FFFFFF000000003FFFF80000000000000000
310
7FFFFFF0001FFFFFFFFFF80000000FFFFFFFFFF80000000FFFFFFF0000000000
310
03FFFC00000003FFF000FFE000000000FFFFFFF00007FFFF80003FFFFF80007F
310
FFC000000001FFFFFC000000001FFFF800000000000000007FFFFFF0001FFFFF
310
FFFFE000000003FFFFFFFFE000000003FFFFFF000000000003FFF000000000FF
310
F000FF80000000007FFFFFF00007FFFF80003FFFFF80007FFF8000000000FFFF
310
F80000000007FFF800000000000000007FFFFFF0001FFFFFFFFFC000000001FF
310
FFFFFFC000000001FFFFFF000000000003FFC0000000007FF000FF0000000000
310
3FFFFFE00007FFFF00003FFFFF80007FFE00000000003FFFF00000000003FFF8
310
00000000000000007FFFFFF0001FFFFFFFFF8000000000FFFFFFFF8000000000
310
FFFFFF000000000003FF80000000003FF000FE00000000001FFFFFE00003FFFF
310
00003FFFFF80007FFC00000000001FFFE00000000001FFF8000001FFFE000000
310
7FFFFFF0001FFFFFFFFE00000000003FFFFFFE00000000003FFFFF0000000000
310
03FF00000000001FF000FC00000000000FFFFFE00003FFFF00001FFFFF80007F
310
F800000000001FFFC00000000000FFF8000001FFFE0000007FFFFFF0001FFFFF
310
FFFC00000000001FFFFFFC00000000001FFFFF000000000003FE00000000000F
310
F000F8000000000007FFFFE00003FFFF00001FFFFF80007FF800000000000FFF
310
800000000000FFF8000001FFFE0000007FFFFFF0001FFFFFFFF800000000000F
310
FFFFF800000000000FFFFF000000000003FC000000000007F000F80000000000
310
03FFFFC00003FFFE00001FFFFF80007FF0000000000007FF0000000000007FF8
310
000001FFFE0000007FFFFFF0001FFFFFFFF0000000000007FFFFF00000000000
310
07FFFF000000000003F8000000000003F000F0000000000003FFFFC00001FFFE
310
00001FFFFF80007FE0000000000007FE0000000000003FF8000001FFFE000000
310
7FFFFFF0001FFFFFFFF0000000000007FFFFF0000000000007FFFF0000000000
310
03F800001F800003F000E00001FFF00001FFFFC00001FFFE00000FFFFF80007F
310
E00001FFE00003FE00001FFF00003FF8000001FFFE0000007FFFFFF0001FFFFF
310
FFE000003E000003FFFFE000003E000003FFFF000000000003F00001FFF80001
310
F000E00007FFFC0001FFFFC00001FFFE00000FFFFF80007FC0000FFFFC0003FC
310
0000FFFFC0001FF8000001FFFE0000007FFFFFF0001FFFFFFFC00003FFE00001
310
FFFFC00003FFE00001FFFF0001FFFFFFFFF00007FFFE0001F000E0000FFFFF00
310
00FFFF800001FFFC00000FFFFF80007FC0001FFFFE0001FC0001FFFFE0001FF8
310
000001FFFE0000007FFFFFF0001FFFFFFF80000FFFF80000FFFF80000FFFF800
310
00FFFF0003FFFFFFFFE0000FFFFF8000F000C0003FFFFF8000FFFF800000FFFC
310
000007FFFF80007F80003FFFFF0001FC0003FFFFF0001FF8000001FFFE000000
310
7FFFFFF0001FFFFFFF80003FFFFE0000FFFF80003FFFFE0000FFFF0003FFFFFF
310
FFE0003FFFFF8000F000C0003FFFFF8000FFFF800000FFFC000007FFFF80007F
310
80007FFFFF8001F80007FFFFF8000FF8000001FFFE0000007FFFFFF0001FFFFF
310
FF00007FFFFF00007FFF00007FFFFF00007FFF0003FFFFFFFFE0003FFFFFC000
310
F000C0007FFFFFC000FFFF000000FFFC000007FFFF80007F8000FFFFFF8000F8
310
000FFFFFF8000FF8000001FFFE0000007FFFFFF0001FFFFFFF0000FFFFFF8000
310
7FFF0000FFFFFF80007FFF0003FFFFFFFFC0007FFFFFC00070008000FFFFFFC0
310
00FFFF000000FFF8000007FFFF80007F8000FFFFFF8000F8000FFFFFF8000FF8
310
000001FFFE0000007FFFFFF0001FFFFFFE0001FFFFFFC0003FFE0001FFFFFFC0
310
003FFF0003FFFFFFFFC0007FFFFFE00070008000FFFFFFC0007FFF0000007FF8
310
000003FFFF80007F0001FFFFFF8000F8000FFFFFF8000FF8000001FFFE000000
310
7FFFFFF0001FFFFFFE0001FFFFFFC0003FFE0001FFFFFFC0003FFF0003FFFFFF
310
FFC000FFFFFFE00070008000FFFFFFC0007FFF0000007FF8000003FFFF80007F
310
0001FFFFFF8000F8001FFFFFF8000FF8000001FFFE0000007FFFFFF0001FFFFF
310
FE0003FFFFFFE0003FFE0003FFFFFFE0003FFF0003FFFFFFFFC000FFFFFFE000
310
70008000FFFFFFC0007FFE0000007FF8000003FFFF80007F0001FFFFFF8000F0
310
001FFFFFF8000FF8000001FFFE0000007FFFFFF0001FFFFFFC0003FFFFFFE000
310
1FFC0003FFFFFFE0001FFF0003FFFFFFFFC000FFFFFFC00070008000FFFFFF80
310
007FFE0000007FF0000003FFFF80007F0001FFFFFF0000F0001FFFFFF8000FF8
310
000001FFFE0000007FFFFFF0001FFFFFFC0007FFFFFFF0001FFC0007FFFFFFF0
310
001FFF0003FFFFFFFFC000FFFFFFC00070008001FFFFFF0000FFFE0000003FF0
310
000001FFFF80007F0001FFFFFF0000F8001FFFFFF0000FF8000001FFFE000000
310
7FFFFFF0001FFFFFFC0007FFFFFFF0001FFC0007FFFFFFF0001FFF0003FFFFFF
310
FFC001FFFFFF80007000FFFFFFFFFE0000FFFE0008003FF0008001FFFF80007F
310
FFFFFFFFFC0000FFFFFFFFFFE0000FF8000001FFFE0000007FFFFFF0001FFFFF
310
F8000FFFFFFFF8000FF8000FFFFFFFF8000FFF0003FFFFFFFFFFFFFFFFFF0000
310
7000FFFFFFFFFC0000FFFC0008003FF0008001FFFF80007FFFFFFFFFF80001FF
310
FFFFFFFF80000FF8000001FFFE0000007FFFFFF0001FFFFFF8000FFFFFFFF800
310
0FF8000FFFFFFFF8000FFF0003FFFFFFFFFFFFFFFFFE0000F000FFFFFFFFE000
310
00FFFC000C003FE000C001FFFF80007FFFFFFFFFC00001FFFFFFFFFE00001FF8
310
000001FFFE0000007FFFFFF0001FFFFFF8000FFFFFFFF8000FF8000FFFFFFFF8
310
000FFF0003FFFFFFFFFFFFFFFFF00000F000FFFFFFFE000001FFFC000C001FE0
310
00C000FFFF80007FFFFFFFFE000001FFFFFFFFE000001FF80FFFFFFFFFFFFFC0
310
7FFFFFF0001FFFFFF8000FFFFFFFF8000FF8000FFFFFFFF8000FFF0003FFFFFF
310
FFFFFFFFFF800000F000FFFFFFC0000001FFFC001C001FE001C000FFFF80007F
310
FFFFFF80000003FFFFFFF80000001FF80FFFFFFFFFFFFFC07FFFFFF0001FFFFF
310
F8001FFFFFFFFC000FF8001FFFFFFFFC000FFF0003FFFFFFFFFFFFFFF0000001
310
F000FFFFF800000001FFF8001C001FE001C000FFFF80007FFFFFF800000003FF
310
FFFF800000003FF80FFFFFFFFFFFFFC07FFFFFF0001FFFFFF8001FFFFFFFFC00
310
0FF8001FFFFFFFFC000FFF0003FFFFFFFFFFFFFE00000001F000FFFFC0000000
310
03FFF8001E001FC001E000FFFF80007FFFFF8000000007FFFFFC000000003FF8
310
0FFFFFFFFFFFFFC07FFFFFF0001FFFFFF8001FFFFFFFFC000FF8001FFFFFFFFC
310
000FFF0003FFFFFFFFFFFFE000000003F000FFFE0000000007FFF8001E000FC0
310
01E0007FFF80007FFFFE0000000007FFFFE0000000007FF80FFFFFFFFFFFFFC0
310
7FFFFFF0001FFFFFF0001FFFFFFFFC0007F0001FFFFFFFFC0007FF0003FFFFFF
310
FFFFFF0000000003F000FFF80000000007FFF8001E000FC003E0007FFF80007F
310
FFF0000000000FFFFF8000000000FFF80FFFFFFFFFFFFFC07FFFFFF0001FFFFF
310
F0001FFFFFFFFC0007F0001FFFFFFFFC0007FF0003FFFFFFFFFFFC0000000007
310
F000FFE0000000000FFFF0003E000FC003E0007FFF80007FFFC0000000001FFF
310
FE0000000001FFF80FFFFFFFFFFFFFC07FFFFFF0001FFFFFF0001FFFFFFFFC00
310
07F0001FFFFFFFFC0007FF0003FFFFFFFFFFF0000000000FF000FFC000000000
310
1FFFF0003F000F8003F0003FFF80007FFF80000000003FFFF80000000003FFF8
310
0FFFFFFFFFFFFFC07FFFFFF0001FFFFFF0001FFFFFFFFC0007F0001FFFFFFFFC
310
0007FF0003FFFFFFFFFFE0000000001FF000FF00000000007FFFF0003F000780
310
03F0003FFF80007FFF00000000007FFFF00000000007FFF80FFFFFFFFFFFFFC0
310
7FFFFFF0001FFFFFF0001FFFFFFFFC0007F0001FFFFFFFFC0007FF0003FFFFFF
310
FFFF80000000007FF000FE0000000000FFFFE0003F00078007F0003FFF80007F
310
FE0000000001FFFFE0000000001FFFF80FFFFFFFFFFFFFC07FFFFFF0001FFFFF
310
F0001FFFFFFFFC0007F0001FFFFFFFFC0007FF0003FFFFFFFFFF0000000000FF
310
F000FC0000000003FFFFE0007F00078007F0003FFF80007FFC0000000007FFFF
310
C0000000007FFFF80FFFFFFFFFFFFFC07FFFFFF0001FFFFFF8001FFFFFFFFC00
310
0FF8001FFFFFFFFC000FFF0003FFFFFFFFFE0000000003FFF000FC000000000F
310
FFFFE0007F80070007F8001FFF80007FF8000000001FFFFF8000000001FFFFF8
310
0FFFFFFFFFFFFFC07FFFFFF0001FFFFFF8001FFFFFFFFC000FF8001FFFFFFFFC
310
000FFF0003FFFFFFFFFC000000000FFFF000F8000000007FFFFFE0007F800700
310
07F8001FFF80007FF000000000FFFFFF800000000FFFFFF80FFFFFFFFFFFFFC0
310
7FFFFFF0001FFFFFF8000FFFFFFFF8000FF8000FFFFFFFF8000FFF0003FFFFFF
310
FFFC000000007FFFF000F800000007FFFFFFC0007F8003000FF8001FFF80007F
310
F000000007FFFFFF000000007FFFFFF80FFFFFFFFFFFFFC07FFFFFF0001FFFFF
310
F8000FFFFFFFF8000FF8000FFFFFFFF8000FFF0003FFFFFFFFF80000000FFFFF
310
F000F0000000FFFFFFFFC000FF8003000FF8001FFF80007FE0000000FFFFFFFF
310
0000000FFFFFFFF8000001FFFE0000007FFFFFF0001FFFFFF8000FFFFFFFF800
310
0FF8000FFFFFFFF8000FFF0003FFFFFFFFF8000000FFFFFFF000F000000FFFFF
310
FFFFC000FFC002000FF8000FFF80007FE000001FFFFFFFFE000001FFFFFFFFF8
310
000001FFFE0000007FFFFFF0001FFFFFF8000FFFFFFFF8000FF8000FFFFFFFF8
310
000FFF0003FFFFFFFFF000001FFFFFFFF000E00000FFFFFFFFFFC000FFC00200
310
0FFC000FFF80007FE00001FFFFFFFFFE00001FFFFFFFFFF8000001FFFE000000
310
7FFFFFF0001FFFFFFC000FFFFFFFF8001FFC000FFFFFFFF8001FFF0003FFFFFF
310
FFF00001FFFFFFFFF000E00007FFFFFFFFFF8000FFC000001FFC000FFF80007F
310
C0000FFFFFFFFFFE0000FFFFFFFFFFF8000001FFFE0000007FFFFFF0001FFFFF
310
FC0007FFFFFFF0001FFC0007FFFFFFF0001FFF0003FFFFFFFFF00007FFFFFFFF
310
F000E0001FFFFFFFFFFF8000FFC000001FFC000FFF80007FC0003FFFFFFFFFFE
310
0001FFFFFFFFFFF8000001FFFE0000007FFFFFF0001FFFFFFC0007FFFFFFF000
310
1FFC0007FFFFFFF0001FFF0003FFFFFFFFF0001FFFFFFFFFF000E0003FFFFF00
310
03FF8001FFE000001FFC0007FF80007FC0007FFFFF0007FC0003FFFFF0003FF8
310
000001FFFE0000007FFFFFF0001FFFFFFC0003FFFFFFE0001FFC0003FFFFFFE0
310
001FFF0003FFFFFFFFF0003FFFFFFFFFF000E0003FFFFF0001FF8001FFE00000
310
1FFE0007FF80007FC0007FFFFE0003FC0007FFFFE0003FF8000001FFFE000000
310
7FFFFFF0001FFFFFFE0003FFFFFFE0003FFE0003FFFFFFE0003FFF0003FFFFFF
310
FFF0003FFFFF8001F000E0003FFFFF0001FF0001FFE000001FFE0007FF80007F
310
C0007FFFFE0003FC0007FFFFE0003FF8000001FFFE0000007FFFFFF0001FFFFF
310
FE0001FFFFFFC0003FFE0001FFFFFFC0003FFF0003FFFFFFFFF0003FFFFF0001
310
F000E0003FFFFF0003FF0001FFE000003FFE0007FF80007FC0007FFFFE0003FC
310
0007FFFFE0003FF8000001FFFE0000007FFFFFF0001FFFFFFF0001FFFFFFC000
310
7FFF0001FFFFFFC0007FFF0003FFFFFFFFF0003FFFFF0001F000E0003FFFFE00
310
03FF0003FFF000003FFE0003FF80007FC0007FFFFC0003FE0007FFFFE0003FF8
310
000001FFFE0000007FFFFFF0001FFFFFFF0000FFFFFF80007FFF0000FFFFFF80
310
007FFF0003FFFFFFFFF0003FFFFF0001F000E0003FFFFE0003FF0003FFF00000
310
3FFF0003FF80007FC0007FFFFC0007FE0007FFFFC0003FF8000001FFFE000000
310
7FFFFFF0001FFFFFFF80007FFFFF0000FFFF80007FFFFF0000FFFF0003FFFFFF
310
FFF0003FFFFF0003F000E0003FFFFC0003FE0003FFF000003FFF0003FF80007F
310
E0003FFFF80007FE0003FFFFC0007FF8000001FFFE0000007FFFFFF0001FFFFF
310
FF80003FFFFE0000FFFF80003FFFFE0000FFFF0003FFFFFFFFF0001FFFFE0003
310
F000F0001FFFF80003FE0003FFF000007FFF0001FF80007FE0003FFFF00007FE
310
0001FFFF80007FF8000001FFFE0000007FFFFFF0001FFFFFFFC0000FFFF80001
310
FFFFC0000FFFF80001FFFF0003FFFFFFFFF0001FFFFC0003F000F0000FFFF000
310
07FE0007FFF800007FFF0001FF80007FE0001FFFE00007FF0000FFFE00007FF8
310
000001FFFE0000007FFFFFF0001FFFFFFFC00003FFE00001FFFFC00003FFE000
310
01FFFF0003FFFFFFFFF8000FFFF80003F000F00003FFC00007FC0007FFF80000
310
7FFF8001FF80007FF00007FF80000FFF00007FF80000FFF8000001FFFE000000
310
7F80000000000001FFE000003E000003FFFFE000003E000003FFFF0003FFFFFF
310
FFF80003FFE00007F000F800000000000FFC0007FFF800007FFF8001FF80007F
310
F000000000000FFF000000000000FFF8000001FFFE0000007F80000000000001
310
FFF0000000000007FFFFF0000000000007FFFF0003FFFFFFFFFC00007E000007
310
F000F800000000000FFC0007FFF80000FFFF8000FF80007FF800000000001FFF
310
800000000001FFF8000001FFFE0000007F80000000000001FFF800000000000F
310
FFFFF800000000000FFFFF0003FFFFFFFFFC00000000000FF000FC0000000000
310
1FFC0007FFFC0000FFFF8000FF80007FF800000000003FFFC00000000001FFF8
310
000001FFFE0000007F80000000000001FFF800000000000FFFFFF80000000000
310
0FFFFF0003FFFFFFFFFE00000000001FF000FE00000000003FF8000FFFFC0000
310
FFFF8000FF80007FFC00000000003FFFC00000000003FFF8000001FFFE000000
310
7F80000000000001FFFC00000000001FFFFFFC00000000001FFFFF0003FFFFFF
310
FFFF00000000001FF000FF00000000003FF8000FFFFC0000FFFFC000FF80007F
310
FE00000000007FFFE00000000007FFF8000001FFFE0000007F80000000000001
310
FFFE00000000003FFFFFFE00000000003FFFFF0003FFFFFFFFFF80000000003F
310
F000FF80000000007FF8000FFFFC0001FFFFC0007F80007FFF0000000000FFFF
310
F0000000000FFFF800000000000000007F80000000000001FFFF8000000000FF
310
FFFFFF8000000000FFFFFF0003FFFFFFFFFFC0000000007FF000FFC000000000
310
FFF8000FFFFE0001FFFFC0007F80007FFF8000000001FFFFF8000000001FFFF8
310
00000000000000007F80000000000001FFFFC000000001FFFFFFFFC000000001
310
FFFFFF0003FFFFFFFFFFE000000000FFF000FFE000000003FFF0001FFFFE0001
310
FFFFC0007F80007FFFC000000007FFFFFE000000003FFFF80000000000000000
310
7F80000000000001FFFFE000000003FFFFFFFFE000000003FFFFFF0003FFFFFF
310
FFFFF000000003FFF000FFF80000000FFFF0001FFFFE0001FFFFE0007F80007F
310
FFF00000000FFFFFFF00000000FFFFF800000000000000007F80000000000001
310
FFFFF80000000FFFFFFFFFF80000000FFFFFFF0003FFFFFFFFFFFC0000000FFF
310
F000FFFE0000003FFFF0001FFFFE0003FFFFE0003F80007FFFFC0000003FFFFF
310
FFC0000003FFFFF800000000000000007F80000000000001FFFFFE0000003FFF
310
FFFFFFFE0000003FFFFFFF0003FFFFFFFFFFFF0000003FFFF000FFFF800000FF
310
FFF0001FFFFF0003FFFFE0003F80007FFFFF000001FFFFFFFFF800001FFFFFF8
310
00000000000000007F80000000000001FFFFFFC00001FFFFFFFFFFFFC00001FF
310
FFFFFF0003FFFFFFFFFFFFC00000FFFFF000FFFFF8000FFFFFFFFFFFFFFFFFFF
310
FFFFFFFFFFFFFFFFFFFFF0001FFFFFFFFFFF0000FFFFFFF80000000000000000
310
7FFFFFFFFFFFFFFFFFFFFFFC001FFFFFFFFFFFFFFC001FFFFFFFFFFFFFFFFFFF
310
FFFFFFFC001FFFFFF000FFFFFFFFFFFFFFFFFFFFFFFFFFFFFFFFFFFFFFFFFFFF
310
FFFFFFFFFFFFFFFFFFFFFFFFFFFFFFFFFFFFFFFFFFFFFFFFFFFFFFFFFFFFFFFF
310
FFFFFFFFFFFFFFFFFFFFFFFFFFFFFFFFFFFFFFFFFFFFFFFFFFFFFFFFFFFFFFFF
310
F000FFFFFFFFFFFFFFFFFFFFFFFFFFFFFFFFFFFFFFFFFFFFFFFFFFFFFFFFFFFF
310
FFFFFFFFFFFFFFFFFFFFFFFFFFFFFFFFFFFFFFFFFFFFFFFFFFFFFFFFFFFFFFFF
310
FFFFFFFFFFFFFFFFFFFFFFFFFFFFFFFFFFFFFFFFFFFFFFFFF000FFFFFFFFFFFF
310
FFFFFFFFFFFFFFFFFFFFFFFFFFFFFFFFFFFFFFFFFFFFFFFFFFFFFFFFFFFFFFFF
310
FFFFFFFFFFFFFFFFFFFFFFFFFFFFFFFFFFFFFFFFFFFFFFFFFFFFFFFFFFFFFFFF
310
FFFFFFFFFFFFFFFFFFFFFFFFFFFFFFFFF000FFFFFFFFFFFFFFFFFFFFFFFFFFFF
310
FFFFFFFFFFFFFFFFFFFFFFFFFFFFFFFFFFFFFFFFFFFFFFFFFFFFFFFFFFFFFFFF
310
FFFFFFFFFFFFFFFFFFFFFFFFFFFFFFFFFFFFFFFFFFFFFFFFFFFFFFFFFFFFFFFF
310
FFFFFFFFFFFFFFFFF000FFFFFFFFFFFFFFFFFFFFFFFFFFFFFFFFFFFFFFFFFFFF
310
FFFFFFFFFFFFFFFFFFFFFFFFFFFFFFFFFFFFFFFFFFFFFFFFFFFFFFFFFFFFFFFF
310
FFFFFFFFFFFFFFFFFFFFFFFFFFFFFFFFFFFFFFFFFFFFFFFFFFFFFFFFFFFFFFFF
310
F000FFFFFFFFFFFFFFFFFFFFFFFFFFFFFFFFFFFFFFFFFFFFFFFFFFFFFFFFFFFF
310
FFFFFFFFFFFFFFFFFFFFFFFFFFFFFFFFFFFFFFFFFFFFFFFFFFFFFFFFFFFFFFFF
310
FFFFFFFFFFFFFFFFFFFFFFFFFFFFFFFFFFFFFFFFFFFFFFFFF000FFFFFFFFFFFF
310
FFFFFFFFFFFFFFFFFFFFFFFFFFFFFFFFFFFFFFFFFFFFFFFFFFFFFFFFFFFFFFFF
310
FFFFFFFFFFFFFFFFFFFFFFFFFFFFFFFFFFFFFFFFFFFFFFFFFFFFFFFFFFFFFFFF
310
FFFFFFFFFFFFFFFFFFFFFFFFFFFFFFFFF000FFFFFFFFFFFFFFFFFFFFFFFFFFFF
310
FFFFFFFFFFFFFFFFFFFFFFFFFFFFFFFFFFFFFFFFFFFFFFFFFFFFFFFFFFFFFFFF
310
FFFFFFFFFFFFFFFFFFFFFFFFFFFFFFFFFFFFFFFFFFFFFFFFFFFFFFFFFFFFFFFF
310
FFFFFFFFFFFFFFFFF000FFFFFFFFFFFFFFFFFFFFFFFFFFFFFFFFFFFFFFFFFFFF
310
FFFFFFFFFFFFFFFFFFFFFFFFFFFFFFFFFFFFFFFFFFFFFFFFFFFFFFFFFFFFFFFF
310
FFFFFFFFFFFFFFFFFFFFFFFFFFFFFFFFFFFFFFFFFFFFFFFFFFFFFFFFFFFFFFFF
310
F000FFFFFFFFFFFFFFFFFFFFFFFFFFFFFFFFFFFFFFFFFFFFFFFFFFFFFFFFFFFF
310
FFFFFFFFFFFFFFFFFFFFFFFFFFFFFFFFFFFFFFFFFFFFFFFFFFFFFFFFFFFFFFFF
310
FFFFFFFFFFFFFFFFFFFFFFFFFFFFFFFFFFFFFFFFFFFFFFFFF000FFFFFFFFFFFF
310
FFFFFFFFFFFFFFFFFFFFFFFFFFFFFFFFFFFFFFFFFFFFFFFFFFFFFFFFFFFFFFFF
310
FFFFFFFFFFFFFFFFFFFFFFFFFFFFFFFFFFFFFFFFFFFFFFFFFFFFFFFFFFFFFFFF
310
FFFFFFFFFFFFFFFFFFFFFFFFFFFFFFFFF000FFFFFFFFFFFFFFFFFFFFFFFFFFFF
310
FFFFFFFFFFFFFFFFFFFFFFFFFFFFFFFFFFFFFFFFFFFFFFFFFFFFFFFFFFFFFFFF
310
FFFFFFFFFFFFFFFFFFFFFFFFFFFFFFFFFFFFFFFFFFFFFFFFFFFFFFFFFFFFFFFF
310
FFFFFFFFFFFFFFFFF000FFFFFFFFFFFFFFFFFFFFFFFFFFFFFFFFFFFFFFFFFFFF
310
FFFFFFFFFFFFFFFFFFFFFFFFFFFFFFFFFFFFFFFFFFFFFFFFFFFFFFFFFFFFFFFF
310
FFFFFFFFFFFFFFFFFFFFFFFFFFFFFFFFFFFFFFFFFFFFFFFFFFFFFFFFFFFFFFFF
310
F000FFFFFFFFFFFFFFFFFFFFFFFFFFFFFFFFFFFFFFFFFFFFFFFFFFFFFFFFFFFF
310
FFFFFFFFFFFFFFFFFFFFFFFFFFFFFFFFFFFFFFFFFFFFFFFFFFFFFFFFFFFFFFFF
310
FFFFFFFFFFFFFFFFFFFFFFFFFFFFFFFFFFFFFFFFFFFFFFFFF000FFFFFFFFFFFF
310
FFFFFFFFFFFFFFFFFFFFFFFFFFFFFFFFFFFFFFFFFFFFFFFFFFFFFFFFFFFFFFFF
310
FFFFFFFFFFFFFFFFFFFFFFFFFFFFFFFFFFFFFFFFFFFFFFFFFFFFFFFFFFFFFFFF
310
FFFFFFFFFFFFFFFFFFFFFFFFFFFFFFFFF000FFFFFFFFFFFFFFFFFFFFFFFFFFFF
310
FFFFFFFFFFFFFFFFFFFFFFFFFFFFFFFFFFFFFFFFFFFFFFFFFFFFFFFFFFFFFFFF
310
FFFFFFFFFFFFFFFFFFFFFFFFFFFFFFFFFFFFFFFFFFFFFFFFFFFFFFFFFFFFFFFF
310
FFFFFFFFFFFFFFFFF000FFFFFFFFFFFFFFFFFFFFFFFFFFFFFFFFFFFFFFFFFFFF
310
FFFFFFFFFFFFFFFFFFFFFFFFFFFFFFFFFFFFFFFFFFFFFFFFFFFFFFFFFFFFFFFF
310
FFFFFFFFFFFFFFFFFFFFFFFFFFFFFFFFFFFFFFFFFFFFFFFFFFFFFFFFFFFFFFFF
310
F000FFFFFFFFFFFFFFFFFFFFFFFFFFFFFFFFFFFFFFFFFFFFFFFFFFFFFFFFFFFF
310
FFFFFFFFFFFFFFFFFFFFFFFFFFFFFFFFFFFFFFFFFFFFFFFFFFFFFFFFFFFFFFFF
310
FFFFFFFFFFFFFFFFFFFFFFFFFFFFFFFFFFFFFFFFFFFFFFFFF000FFFFFFFFFFFF
310
FFFFFFFFFFFFFFFFFFFFFFFFFFFFFFFFFFFFFFFFFFFFFFFFFFFFFFFFFFFFFFFF
310
FFFFFFFFFFFFFFFFFFFFFFFFFFFFFFFFFFFFFFFFFFFFFFFFFFFFFFFFFFFFFFFF
310
FFFFFFFFFFFFFFFFFFFFFFFFFFFFFFFFF000FFFFFFFFFFFFFFFFFFFFFFFFFFFF
310
FFFFFFFFFFFFFFFFFFFFFFFFFFFFFFFFFFFFFFFFFFFFFFFFFFFFFFFFFFFFFFFF
310
FFFFFFFFFFFFFFFFFFFFFFFFFFFFFFFFFFFFFFFFFFFFFFFFFFFFFFFFFFFFFFFF
310
FFFFFFFFFFFFFFFFF000FFFFFFFFFFFFFFFFFFFFFFFFFFFFFFFFFFFFFFFFFFFF
310
FFFFFFFFFFFFFFFFFFFFFFFFFFFFFFFFFFFFFFFFFFFFFFFFFFFFFFFFFFFFFFFF
310
FFFFFFFFFFFFFFFFFFFFFFFFFFFFFFFFFFFFFFFFFFFFFFFFFFFFFFFFFFFFFFFF
310
F000FFFFFFFFFFFFFFFFFFFFFFFFFFFFFFFFFFFFFFFFFFFFFFFFFFFFFFFFFFFF
310
FFFFFFFFFFFFFFFFFFFFFFFFFFFFFFFFFFFFFFFFFFFFFFFFFFFFFFFFFFFFFFFF
310
FFFFFFFFFFFFFFFFFFFFFFFFFFFFFFFFFFFFFFFFFFFFFFFFF000FFFFFFFFFFFF
310
FFFFFFFFFFFFFFFFFFFFFFFFFFFFFFFFFFFFFFFFFFFFFFFFFFFFFFFFFFFFFFFF
310
FFFFFFFFFFFFFFFFFFFFFFFFFFFFFFFFFFFFFFFFFFFFFFFFFFFFFFFFFFFFFFFF
310
FFFFFFFFFFFFFFFFFFFFFFFFFFFFFFFFF0000000000000000000000000000000
310
00000000000000000000000042006F006C00640020004900740061006C006900
310
6300200053007500620068006500610064000000000000000000000000000000
310
0000000000000000000000000000000000000000000000000000000000000000
310
0000000000000000530077006900730073002000370032003100200042006F00
310
6C00640020004F007500740064760008000000002000420020FF002028000000
310
1C0000000C0000000800000000000000120000002F000000BC02000000000000
310
6000000060000000200006FB00002000FF00001B0000000021002200E8030000
310
D604000034020000870200600100000000000000000000009F01002000000000
310
616C000800000000E40100007001000002000000270000001000000000000000
310
000000002C0100000000000003020112410072006E006F002000500072006F00
310
20004C006900670068007400200044006900730070006C006100790000000000
310
00000000000000000000000000000000410072006E006F00500072006F002D00
310
4C00690067006800740044006900730070006C00610079000000000000000000
310
0000000000000000000000000000000000000000000000000000000000000000
310
0000000000000000000000000000000000000000000000000000000000000000
  1
OLE
  0
ENDSEC
  0
SECTION
  2
OBJECTS
  0
DICTIONARY
  5
C
330
0
100
AcDbDictionary
281
     1
  3
ACAD_GROUP
350
D
  3
ACAD_LAYOUT
350
1A
  3
ACAD_MLEADERSTYLE
350
300
  3
ACAD_MLINESTYLE
350
17
  3
ACAD_PLOTSETTINGS
350
19
  3
ACAD_PLOTSTYLENAME
350
E
  3
ACAD_SCALELIST
350
3B
  3
ACAD_TABLESTYLE
350
2FF
  3
ACAD_VISUALSTYLE
350
2A
  3
AcDbVariableDictionary
350
2FD
  0
DICTIONARY
  5
D
102
{ACAD_REACTORS
330
C
102
}
330
C
100
AcDbDictionary
281
     1
  0
DICTIONARY
  5
1A
102
{ACAD_REACTORS
330
C
102
}
330
C
100
AcDbDictionary
281
     1
  3
Layout1
350
1E
  3
Layout2
350
26
  3
Model
350
22
  0
DICTIONARY
  5
300
102
{ACAD_REACTORS
330
C
102
}
330
C
100
AcDbDictionary
281
     1
  0
DICTIONARY
  5
17
102
{ACAD_REACTORS
330
C
102
}
330
C
100
AcDbDictionary
281
     1
  3
Standard
350
18
  0
DICTIONARY
  5
19
102
{ACAD_REACTORS
330
C
102
}
330
C
100
AcDbDictionary
281
     1
  0
ACDBDICTIONARYWDFLT
  5
E
102
{ACAD_REACTORS
330
C
102
}
330
C
100
AcDbDictionary
281
     1
  3
Normal
350
F
100
AcDbDictionaryWithDefault
340
F
  0
DICTIONARY
  5
3B
102
{ACAD_REACTORS
330
C
102
}
330
C
100
AcDbDictionary
281
     1
  3
A0
350
3C
  3
A1
350
3D
  3
A2
350
3E
  3
A3
350
3F
  3
A4
350
40
  3
A5
350
41
  3
A6
350
42
  3
A7
350
43
  3
A8
350
44
  3
A9
350
45
  3
B0
350
46
  3
B1
350
47
  3
B2
350
48
  3
B3
350
49
  3
B4
350
4A
  3
B5
350
4B
  3
B6
350
4C
  3
B7
350
4D
  3
B8
350
4E
  3
B9
350
4F
  3
C0
350
50
  3
C1
350
51
  3
C2
350
52
  3
C3
350
53
  3
C4
350
54
  3
C5
350
55
  3
C6
350
56
  3
C7
350
57
  3
C8
350
58
  3
C9
350
59
  3
D0
350
5A
  3
D1
350
5B
  3
D2
350
5C
  0
DICTIONARY
  5
2FF
102
{ACAD_REACTORS
330
C
102
}
330
C
100
AcDbDictionary
281
     1
  0
DICTIONARY
  5
2A
102
{ACAD_REACTORS
330
C
102
}
330
C
100
AcDbDictionary
281
     1
  3
2dWireframe
350
2F
  3
3D Hidden
350
31
  3
3dWireframe
350
30
  3
Basic
350
32
  3
Brighten
350
36
  3
ColorChange
350
3A
  3
Conceptual
350
34
  3
Dim
350
35
  3
Facepattern
350
39
  3
Flat
350
2B
  3
FlatWithEdges
350
2C
  3
Gouraud
350
2D
  3
GouraudWithEdges
350
2E
  3
Linepattern
350
38
  3
Realistic
350
33
  3
Thicken
350
37
  0
DICTIONARY
  5
2FD
102
{ACAD_REACTORS
330
C
102
}
330
C
100
AcDbDictionary
281
     1
  3
CANNOSCALE
350
2FE
  3
PSOLHEIGHT
350
302
  3
PSOLWIDTH
350
301
  0
LAYOUT
  5
1E
102
{ACAD_REACTORS
330
1A
102
}
330
1A
100
AcDbPlotSettings
  1

  2
none_device
  4

  6

 40
0.0
 41
0.0
 42
0.0
 43
0.0
 44
0.0
 45
0.0
 46
0.0
 47
0.0
 48
0.0
 49
0.0
140
0.0
141
0.0
142
1.0
143
1.0
 70
   688
 72
     0
 73
     0
 74
     5
  7

 75
    16
147
1.0
148
0.0
149
0.0
100
AcDbLayout
  1
Layout1
 70
     1
 71
     1
 10
0.0
 20
0.0
 11
420.0
 21
297.0
 12
0.0
 22
0.0
 32
0.0
 14
1.0000000000E+20
 24
1.0000000000E+20
 34
1.0000000000E+20
 15
-1.0000000000E+20
 25
-1.0000000000E+20
 35
-1.0000000000E+20
146
0.0
 13
0.0
 23
0.0
 33
0.0
 16
1.0
 26
0.0
 36
0.0
 17
0.0
 27
1.0
 37
0.0
 76
     0
330
1B
  0
LAYOUT
  5
26
102
{ACAD_REACTORS
330
1A
102
}
330
1A
100
AcDbPlotSettings
  1

  2
none_device
  4

  6

 40
0.0
 41
0.0
 42
0.0
 43
0.0
 44
0.0
 45
0.0
 46
0.0
 47
0.0
 48
0.0
 49
0.0
140
0.0
141
0.0
142
1.0
143
1.0
 70
   688
 72
     0
 73
     0
 74
     5
  7

 75
    16
147
1.0
148
0.0
149
0.0
100
AcDbLayout
  1
Layout2
 70
     1
 71
     2
 10
0.0
 20
0.0
 11
0.0
 21
0.0
 12
0.0
 22
0.0
 32
0.0
 14
0.0
 24
0.0
 34
0.0
 15
0.0
 25
0.0
 35
0.0
146
0.0
 13
0.0
 23
0.0
 33
0.0
 16
1.0
 26
0.0
 36
0.0
 17
0.0
 27
1.0
 37
0.0
 76
     0
330
23
  0
LAYOUT
  5
22
102
{ACAD_REACTORS
330
1A
102
}
330
1A
100
AcDbPlotSettings
  1

  2
none_device
  4

  6

 40
0.0
 41
0.0
 42
0.0
 43
0.0
 44
0.0
 45
0.0
 46
0.0
 47
0.0
 48
0.0
 49
0.0
140
0.0
141
0.0
142
1.0
143
1.0
 70
  1712
 72
     0
 73
     0
 74
     0
  7

 75
     0
147
1.0
148
0.0
149
0.0
100
AcDbLayout
  1
Model
 70
     1
 71
     0
 10
0.0
 20
0.0
 11
297.0
 21
210.0
 12
0.0
 22
0.0
 32
0.0
 14
0.0
 24
0.0
 34
0.0
 15
297.0
 25
210.0
 35
0.0
146
0.0
 13
0.0
 23
0.0
 33
0.0
 16
1.0
 26
0.0
 36
0.0
 17
0.0
 27
1.0
 37
0.0
 76
     0
330
1F
331
29
  0
MLINESTYLE
  5
18
102
{ACAD_REACTORS
330
17
102
}
330
17
100
AcDbMlineStyle
  2
Standard
 70
     0
  3

 62
   256
 51
90.0
 52
90.0
 71
     2
 49
0.5
 62
   256
  6
BYLAYER
 49
-0.5
 62
   256
  6
BYLAYER
  0
ACDBPLACEHOLDER
  5
F
102
{ACAD_REACTORS
330
E
102
}
330
E
  0
SCALE
  5
3C
102
{ACAD_REACTORS
330
3B
102
}
330
3B
100
AcDbScale
 70
     0
300
1:1
140
1.0
141
1.0
290
     1
  0
SCALE
  5
3D
102
{ACAD_REACTORS
330
3B
102
}
330
3B
100
AcDbScale
 70
     0
300
1:2
140
1.0
141
2.0
290
     0
  0
SCALE
  5
3E
102
{ACAD_REACTORS
330
3B
102
}
330
3B
100
AcDbScale
 70
     0
300
1:4
140
1.0
141
4.0
290
     0
  0
SCALE
  5
3F
102
{ACAD_REACTORS
330
3B
102
}
330
3B
100
AcDbScale
 70
     0
300
1:5
140
1.0
141
5.0
290
     0
  0
SCALE
  5
40
102
{ACAD_REACTORS
330
3B
102
}
330
3B
100
AcDbScale
 70
     0
300
1:8
140
1.0
141
8.0
290
     0
  0
SCALE
  5
41
102
{ACAD_REACTORS
330
3B
102
}
330
3B
100
AcDbScale
 70
     0
300
1:10
140
1.0
141
10.0
290
     0
  0
SCALE
  5
42
102
{ACAD_REACTORS
330
3B
102
}
330
3B
100
AcDbScale
 70
     0
300
1:16
140
1.0
141
16.0
290
     0
  0
SCALE
  5
43
102
{ACAD_REACTORS
330
3B
102
}
330
3B
100
AcDbScale
 70
     0
300
1:20
140
1.0
141
20.0
290
     0
  0
SCALE
  5
44
102
{ACAD_REACTORS
330
3B
102
}
330
3B
100
AcDbScale
 70
     0
300
1:30
140
1.0
141
30.0
290
     0
  0
SCALE
  5
45
102
{ACAD_REACTORS
330
3B
102
}
330
3B
100
AcDbScale
 70
     0
300
1:40
140
1.0
141
40.0
290
     0
  0
SCALE
  5
46
102
{ACAD_REACTORS
330
3B
102
}
330
3B
100
AcDbScale
 70
     0
300
1:50
140
1.0
141
50.0
290
     0
  0
SCALE
  5
47
102
{ACAD_REACTORS
330
3B
102
}
330
3B
100
AcDbScale
 70
     0
300
1:100
140
1.0
141
100.0
290
     0
  0
SCALE
  5
48
102
{ACAD_REACTORS
330
3B
102
}
330
3B
100
AcDbScale
 70
     0
300
2:1
140
2.0
141
1.0
290
     0
  0
SCALE
  5
49
102
{ACAD_REACTORS
330
3B
102
}
330
3B
100
AcDbScale
 70
     0
300
4:1
140
4.0
141
1.0
290
     0
  0
SCALE
  5
4A
102
{ACAD_REACTORS
330
3B
102
}
330
3B
100
AcDbScale
 70
     0
300
8:1
140
8.0
141
1.0
290
     0
  0
SCALE
  5
4B
102
{ACAD_REACTORS
330
3B
102
}
330
3B
100
AcDbScale
 70
     0
300
10:1
140
10.0
141
1.0
290
     0
  0
SCALE
  5
4C
102
{ACAD_REACTORS
330
3B
102
}
330
3B
100
AcDbScale
 70
     0
300
100:1
140
100.0
141
1.0
290
     0
  0
SCALE
  5
4D
102
{ACAD_REACTORS
330
3B
102
}
330
3B
100
AcDbScale
 70
     0
300
1/128" = 1'-0"
140
0.0078125
141
12.0
290
     0
  0
SCALE
  5
4E
102
{ACAD_REACTORS
330
3B
102
}
330
3B
100
AcDbScale
 70
     0
300
1/64" = 1'-0"
140
0.015625
141
12.0
290
     0
  0
SCALE
  5
4F
102
{ACAD_REACTORS
330
3B
102
}
330
3B
100
AcDbScale
 70
     0
300
1/32" = 1'-0"
140
0.03125
141
12.0
290
     0
  0
SCALE
  5
50
102
{ACAD_REACTORS
330
3B
102
}
330
3B
100
AcDbScale
 70
     0
300
1/16" = 1'-0"
140
0.0625
141
12.0
290
     0
  0
SCALE
  5
51
102
{ACAD_REACTORS
330
3B
102
}
330
3B
100
AcDbScale
 70
     0
300
3/32" = 1'-0"
140
0.09375
141
12.0
290
     0
  0
SCALE
  5
52
102
{ACAD_REACTORS
330
3B
102
}
330
3B
100
AcDbScale
 70
     0
300
1/8" = 1'-0"
140
0.125
141
12.0
290
     0
  0
SCALE
  5
53
102
{ACAD_REACTORS
330
3B
102
}
330
3B
100
AcDbScale
 70
     0
300
3/16" = 1'-0"
140
0.1875
141
12.0
290
     0
  0
SCALE
  5
54
102
{ACAD_REACTORS
330
3B
102
}
330
3B
100
AcDbScale
 70
     0
300
1/4" = 1'-0"
140
0.25
141
12.0
290
     0
  0
SCALE
  5
55
102
{ACAD_REACTORS
330
3B
102
}
330
3B
100
AcDbScale
 70
     0
300
3/8" = 1'-0"
140
0.375
141
12.0
290
     0
  0
SCALE
  5
56
102
{ACAD_REACTORS
330
3B
102
}
330
3B
100
AcDbScale
 70
     0
300
1/2" = 1'-0"
140
0.5
141
12.0
290
     0
  0
SCALE
  5
57
102
{ACAD_REACTORS
330
3B
102
}
330
3B
100
AcDbScale
 70
     0
300
3/4" = 1'-0"
140
0.75
141
12.0
290
     0
  0
SCALE
  5
58
102
{ACAD_REACTORS
330
3B
102
}
330
3B
100
AcDbScale
 70
     0
300
1" = 1'-0"
140
1.0
141
12.0
290
     0
  0
SCALE
  5
59
102
{ACAD_REACTORS
330
3B
102
}
330
3B
100
AcDbScale
 70
     0
300
1-1/2" = 1'-0"
140
1.5
141
12.0
290
     0
  0
SCALE
  5
5A
102
{ACAD_REACTORS
330
3B
102
}
330
3B
100
AcDbScale
 70
     0
300
3" = 1'-0"
140
3.0
141
12.0
290
     0
  0
SCALE
  5
5B
102
{ACAD_REACTORS
330
3B
102
}
330
3B
100
AcDbScale
 70
     0
300
6" = 1'-0"
140
6.0
141
12.0
290
     0
  0
SCALE
  5
5C
102
{ACAD_REACTORS
330
3B
102
}
330
3B
100
AcDbScale
 70
     0
300
1'-0" = 1'-0"
140
12.0
141
12.0
290
     0
  0
VISUALSTYLE
  5
2F
102
{ACAD_REACTORS
330
2A
102
}
330
2A
100
AcDbVisualStyle
  2
2dWireframe
 70
     4
 71
     0
 72
     2
 73
     0
 90
        0
 40
-0.6
 41
-30.0
 62
     5
 63
     7
 74
     1
 91
        4
 64
     7
 65
   257
 75
     1
175
     1
 42
1.0
 92
        0
 66
   257
 43
1.0
 76
     1
 77
     6
 78
     2
 67
     7
 79
     5
170
     0
171
     0
290
     0
174
     0
 93
        1
 44
0.0
173
     0
291
     0
 45
0.0
1001
ACAD
1000
AcDbSavedByObjectVersion
1070
     0
  0
VISUALSTYLE
  5
31
102
{ACAD_REACTORS
330
2A
102
}
330
2A
100
AcDbVisualStyle
  2
3D Hidden
 70
     6
 71
     1
 72
     2
 73
     2
 90
        0
 40
-0.6
 41
-30.0
 62
     5
 63
     7
 74
     2
 91
        2
 64
     7
 65
   257
 75
     2
175
     1
 42
40.0
 92
        0
 66
   257
 43
1.0
 76
     1
 77
     6
 78
     2
 67
     7
 79
     3
170
     0
171
     0
290
     0
174
     0
 93
        1
 44
0.0
173
     0
291
     0
 45
0.0
1001
ACAD
1000
AcDbSavedByObjectVersion
1070
     0
  0
VISUALSTYLE
  5
30
102
{ACAD_REACTORS
330
2A
102
}
330
2A
100
AcDbVisualStyle
  2
3dWireframe
 70
     5
 71
     0
 72
     2
 73
     0
 90
        0
 40
-0.6
 41
-30.0
 62
     5
 63
     7
 74
     1
 91
        4
 64
     7
 65
   257
 75
     1
175
     1
 42
1.0
 92
        0
 66
   257
 43
1.0
 76
     1
 77
     6
 78
     2
 67
     7
 79
     5
170
     0
171
     0
290
     0
174
     0
 93
        1
 44
0.0
173
     0
291
     0
 45
0.0
1001
ACAD
1000
AcDbSavedByObjectVersion
1070
     0
  0
VISUALSTYLE
  5
32
102
{ACAD_REACTORS
330
2A
102
}
330
2A
100
AcDbVisualStyle
  2
Basic
 70
     7
 71
     1
 72
     0
 73
     1
 90
        0
 40
-0.6
 41
-30.0
 62
     5
 63
     7
 74
     0
 91
        4
 64
     7
 65
   257
 75
     1
175
     1
 42
1.0
 92
        8
 66
     7
 43
1.0
 76
     1
 77
     6
 78
     2
 67
     7
 79
     5
170
     0
171
     0
290
     0
174
     0
 93
        1
 44
0.0
173
     0
291
     1
 45
0.0
1001
ACAD
1000
AcDbSavedByObjectVersion
1070
     0
  0
VISUALSTYLE
  5
36
102
{ACAD_REACTORS
330
2A
102
}
330
2A
100
AcDbVisualStyle
  2
Brighten
 70
    12
 71
     2
 72
     2
 73
     0
 90
        0
 40
-0.6
 41
-30.0
 62
     5
 63
     7
 74
     1
 91
        4
 64
     7
 65
   257
 75
     1
175
     1
 42
1.0
 92
        8
 66
     7
 43
1.0
 76
     1
 77
     6
 78
     2
 67
     7
 79
     5
170
     0
171
     0
290
     0
174
     0
 93
        1
 44
50.0
173
     0
291
     1
 45
0.0
1001
ACAD
1000
AcDbSavedByObjectVersion
1070
     0
  0
VISUALSTYLE
  5
3A
102
{ACAD_REACTORS
330
2A
102
}
330
2A
100
AcDbVisualStyle
  2
ColorChange
 70
    16
 71
     2
 72
     2
 73
     3
 90
        0
 40
-0.6
 41
-30.0
 62
     5
 63
     8
 74
     1
 91
        4
 64
     7
 65
   257
 75
     1
175
     1
 42
1.0
 92
        8
 66
     8
 43
1.0
 76
     1
 77
     6
 78
     2
 67
     7
 79
     5
170
     0
171
     0
290
     0
174
     0
 93
        1
 44
0.0
173
     0
291
     1
 45
0.0
1001
ACAD
1000
AcDbSavedByObjectVersion
1070
     0
  0
VISUALSTYLE
  5
34
102
{ACAD_REACTORS
330
2A
102
}
330
2A
100
AcDbVisualStyle
  2
Conceptual
 70
     9
 71
     3
 72
     2
 73
     0
 90
        0
 40
-0.6
 41
-30.0
 62
     5
 63
     7
 74
     2
 91
        2
 64
     7
 65
   257
 75
     1
175
     1
 42
40.0
 92
        8
 66
     7
 43
1.0
 76
     1
 77
     6
 78
     2
 67
     7
 79
     3
170
     0
171
     0
290
     0
174
     0
 93
        1
 44
0.0
173
     0
291
     0
 45
0.0
1001
ACAD
1000
AcDbSavedByObjectVersion
1070
     0
  0
VISUALSTYLE
  5
35
102
{ACAD_REACTORS
330
2A
102
}
330
2A
100
AcDbVisualStyle
  2
Dim
 70
    11
 71
     2
 72
     2
 73
     0
 90
        0
 40
-0.6
 41
-30.0
 62
     5
 63
     7
 74
     1
 91
        4
 64
     7
 65
   257
 75
     1
175
     1
 42
1.0
 92
        8
 66
     7
 43
1.0
 76
     1
 77
     6
 78
     2
 67
     7
 79
     5
170
     0
171
     0
290
     0
174
     0
 93
        1
 44
-50.0
173
     0
291
     1
 45
0.0
1001
ACAD
1000
AcDbSavedByObjectVersion
1070
     0
  0
VISUALSTYLE
  5
39
102
{ACAD_REACTORS
330
2A
102
}
330
2A
100
AcDbVisualStyle
  2
Facepattern
 70
    15
 71
     2
 72
     2
 73
     0
 90
        0
 40
-0.6
 41
-30.0
 62
     5
 63
     7
 74
     1
 91
        4
 64
     7
 65
   257
 75
     1
175
     1
 42
1.0
 92
        8
 66
     7
 43
1.0
 76
     1
 77
     6
 78
     2
 67
     7
 79
     5
170
     0
171
     0
290
     0
174
     0
 93
        1
 44
0.0
173
     0
291
     1
 45
0.0
1001
ACAD
1000
AcDbSavedByObjectVersion
1070
     0
  0
VISUALSTYLE
  5
2B
102
{ACAD_REACTORS
330
2A
102
}
330
2A
100
AcDbVisualStyle
  2
Flat
 70
     0
 71
     2
 72
     1
 73
     1
 90
        2
 40
-0.6
 41
30.0
 62
     5
 63
     7
 74
     0
 91
        4
 64
     7
 65
   257
 75
     1
175
     1
 42
1.0
 92
        8
 66
     7
 43
1.0
 76
     1
 77
     6
 78
     2
 67
     7
 79
     5
170
     0
171
     0
290
     0
174
     0
 93
       13
 44
0.0
173
     0
291
     1
 45
0.0
1001
ACAD
1000
AcDbSavedByObjectVersion
1070
     0
  0
VISUALSTYLE
  5
2C
102
{ACAD_REACTORS
330
2A
102
}
330
2A
100
AcDbVisualStyle
  2
FlatWithEdges
 70
     1
 71
     2
 72
     1
 73
     1
 90
        2
 40
-0.6
 41
30.0
 62
     5
 63
     7
 74
     1
 91
        4
 64
     7
 65
   257
 75
     1
175
     1
 42
1.0
 92
        0
 66
   257
 43
1.0
 76
     1
 77
     6
 78
     2
 67
     7
 79
     5
170
     0
171
     0
290
     0
174
     0
 93
       13
 44
0.0
173
     0
291
     1
 45
0.0
1001
ACAD
1000
AcDbSavedByObjectVersion
1070
     0
  0
VISUALSTYLE
  5
2D
102
{ACAD_REACTORS
330
2A
102
}
330
2A
100
AcDbVisualStyle
  2
Gouraud
 70
     2
 71
     2
 72
     2
 73
     1
 90
        2
 40
-0.6
 41
30.0
 62
     5
 63
     7
 74
     0
 91
        4
 64
     7
 65
   257
 75
     1
175
     1
 42
1.0
 92
        0
 66
     7
 43
1.0
 76
     1
 77
     6
 78
     2
 67
     7
 79
     5
170
     0
171
     0
290
     0
174
     0
 93
       13
 44
0.0
173
     0
291
     1
 45
0.0
1001
ACAD
1000
AcDbSavedByObjectVersion
1070
     0
  0
VISUALSTYLE
  5
2E
102
{ACAD_REACTORS
330
2A
102
}
330
2A
100
AcDbVisualStyle
  2
GouraudWithEdges
 70
     3
 71
     2
 72
     2
 73
     1
 90
        2
 40
-0.6
 41
30.0
 62
     5
 63
     7
 74
     1
 91
        4
 64
     7
 65
   257
 75
     1
175
     1
 42
1.0
 92
        0
 66
   257
 43
1.0
 76
     1
 77
     6
 78
     2
 67
     7
 79
     5
170
     0
171
     0
290
     0
174
     0
 93
       13
 44
0.0
173
     0
291
     1
 45
0.0
1001
ACAD
1000
AcDbSavedByObjectVersion
1070
     0
  0
VISUALSTYLE
  5
38
102
{ACAD_REACTORS
330
2A
102
}
330
2A
100
AcDbVisualStyle
  2
Linepattern
 70
    14
 71
     2
 72
     2
 73
     0
 90
        0
 40
-0.6
 41
-30.0
 62
     5
 63
     7
 74
     1
 91
        4
 64
     7
 65
   257
 75
     7
175
     7
 42
1.0
 92
        8
 66
     7
 43
1.0
 76
     1
 77
     6
 78
     2
 67
     7
 79
     5
170
     0
171
     0
290
     0
174
     0
 93
        1
 44
0.0
173
     0
291
     1
 45
0.0
1001
ACAD
1000
AcDbSavedByObjectVersion
1070
     0
  0
VISUALSTYLE
  5
33
102
{ACAD_REACTORS
330
2A
102
}
330
2A
100
AcDbVisualStyle
  2
Realistic
 70
     8
 71
     2
 72
     2
 73
     0
 90
        0
 40
-0.6
 41
-30.0
 62
     5
 63
     7
 74
     1
 91
        0
 64
     7
 65
   257
 75
     1
175
     1
 42
1.0
 92
        8
 66
     8
 43
1.0
 76
     1
 77
     6
 78
     2
 67
     7
 79
     5
170
     0
171
     0
290
     0
174
     0
 93
       13
 44
0.0
173
     0
291
     0
 45
0.0
1001
ACAD
1000
AcDbSavedByObjectVersion
1070
     0
  0
VISUALSTYLE
  5
37
102
{ACAD_REACTORS
330
2A
102
}
330
2A
100
AcDbVisualStyle
  2
Thicken
 70
    13
 71
     2
 72
     2
 73
     0
 90
        0
 40
-0.6
 41
-30.0
 62
     5
 63
     7
 74
     1
 91
        4
 64
     7
 65
   257
 75
     1
175
     1
 42
1.0
 92
       12
 66
     7
 43
1.0
 76
     1
 77
     6
 78
     2
 67
     7
 79
     5
170
     0
171
     0
290
     0
174
     0
 93
        1
 44
0.0
173
     0
291
     1
 45
0.0
1001
ACAD
1000
AcDbSavedByObjectVersion
1070
     0
  0
DICTIONARYVAR
  5
2FE
102
{ACAD_REACTORS
330
2FD
102
}
330
2FD
100
DictionaryVariables
280
     0
  1
1:1
  0
DICTIONARYVAR
  5
302
102
{ACAD_REACTORS
330
2FD
102
}
330
2FD
100
DictionaryVariables
280
     0
  1
80.000000
  0
DICTIONARYVAR
  5
301
102
{ACAD_REACTORS
330
2FD
102
}
330
2FD
100
DictionaryVariables
280
     0
  1
5.000000
  0
ENDSEC
  0
EOF
