  0
SECTION
  2
HEADER
  9
$ACADVER
  1
AC1015
  9
$ACADMAINTVER
 70
     6
  9
$DWGCODEPAGE
  3
ANSI_1252
  9
$INSBASE
 10
0.0
 20
0.0
 30
0.0
  9
$EXTMIN
 10
0.0
 20
0.0
 30
0.0
  9
$EXTMAX
 10
297.0
 20
210.0
 30
0.0
  9
$LIMMIN
 10
0.0
 20
0.0
  9
$LIMMAX
 10
297.0
 20
210.0
  9
$ORTHOMODE
 70
     0
  9
$REGENMODE
 70
     1
  9
$FILLMODE
 70
     1
  9
$QTEXTMODE
 70
     0
  9
$MIRRTEXT
 70
     1
  9
$LTSCALE
 40
1.0
  9
$ATTMODE
 70
     1
  9
$TEXTSIZE
 40
2.0
  9
$TRACEWID
 40
1.0
  9
$TEXTSTYLE
  7
Standard
  9
$CLAYER
  8
0
  9
$CELTYPE
  6
ByLayer
  9
$CECOLOR
 62
   256
  9
$CELTSCALE
 40
1.0
  9
$DISPSILH
 70
     0
  9
$DIMSCALE
 40
1.0
  9
$DIMASZ
 40
3.0
  9
$DIMEXO
 40
0.0
  9
$DIMDLI
 40
3.75
  9
$DIMRND
 40
0.0
  9
$DIMDLE
 40
0.0
  9
$DIMEXE
 40
1.0
  9
$DIMTP
 40
0.0
  9
$DIMTM
 40
0.0
  9
$DIMTXT
 40
2.0
  9
$DIMCEN
 40
2.5
  9
$DIMTSZ
 40
0.0
  9
$DIMTOL
 70
     0
  9
$DIMLIM
 70
     0
  9
$DIMTIH
 70
     1
  9
$DIMTOH
 70
     1
  9
$DIMSE1
 70
     0
  9
$DIMSE2
 70
     0
  9
$DIMTAD
 70
     1
  9
$DIMZIN
 70
     0
  9
$DIMBLK
  1

  9
$DIMASO
 70
     1
  9
$DIMSHO
 70
     1
  9
$DIMPOST
  1

  9
$DIMAPOST
  1

  9
$DIMALT
 70
     0
  9
$DIMALTD
 70
     3
  9
$DIMALTF
 40
0.0393700787
  9
$DIMLFAC
 40
1.0
  9
$DIMTOFL
 70
     1
  9
$DIMTVP
 40
0.0
  9
$DIMTIX
 70
     0
  9
$DIMSOXD
 70
     0
  9
$DIMSAH
 70
     0
  9
$DIMBLK1
  1

  9
$DIMBLK2
  1

  9
$DIMSTYLE
  2
ISO-25
  9
$DIMCLRD
 70
     0
  9
$DIMCLRE
 70
     0
  9
$DIMCLRT
 70
     0
  9
$DIMTFAC
 40
1.0
  9
$DIMGAP
 40
1.524
  9
$DIMJUST
 70
     0
  9
$DIMSD1
 70
     0
  9
$DIMSD2
 70
     0
  9
$DIMTOLJ
 70
     0
  9
$DIMTZIN
 70
     0
  9
$DIMALTZ
 70
     0
  9
$DIMALTTZ
 70
     0
  9
$DIMUPT
 70
     0
  9
$DIMDEC
 70
     2
  9
$DIMTDEC
 70
     3
  9
$DIMALTU
 70
     2
  9
$DIMALTTD
 70
     3
  9
$DIMTXSTY
  7
Standard
  9
$DIMAUNIT
 70
     0
  9
$DIMADEC
 70
     2
  9
$DIMALTRND
 40
0.0
  9
$DIMAZIN
 70
     0
  9
$DIMDSEP
 70
    44
  9
$DIMATFIT
 70
     3
  9
$DIMFRAC
 70
     0
  9
$DIMLDRBLK
  1

  9
$DIMLUNIT
 70
     2
  9
$DIMLWD
 70
    -2
  9
$DIMLWE
 70
    -2
  9
$DIMTMOVE
 70
     0
  9
$LUNITS
 70
     2
  9
$LUPREC
 70
     2
  9
$SKETCHINC
 40
1.0
  9
$FILLETRAD
 40
10.0
  9
$AUNITS
 70
     0
  9
$AUPREC
 70
     2
  9
$MENU
  1
.
  9
$ELEVATION
 40
0.0
  9
$PELEVATION
 40
0.0
  9
$THICKNESS
 40
0.0
  9
$LIMCHECK
 70
     0
  9
$CHAMFERA
 40
10.0
  9
$CHAMFERB
 40
10.0
  9
$CHAMFERC
 40
20.0
  9
$CHAMFERD
 40
0.0
  9
$SKPOLY
 70
     0
  9
$TDCREATE
 40
2456043.683187928
  9
$TDUCREATE
 40
2456043.599854595
  9
$TDUPDATE
 40
2456043.683189363
  9
$TDUUPDATE
 40
2456043.59985603
  9
$TDINDWG
 40
0.0000000116
  9
$TDUSRTIMER
 40
0.0000000116
  9
$USRTIMER
 70
     1
  9
$ANGBASE
 50
0.0
  9
$ANGDIR
 70
     0
  9
$PDMODE
 70
     0
  9
$PDSIZE
 40
-1.0
  9
$PLINEWID
 40
0.0
  9
$SPLFRAME
 70
     0
  9
$SPLINETYPE
 70
     6
  9
$SPLINESEGS
 70
     8
  9
$HANDSEED
  5
285
  9
$SURFTAB1
 70
     6
  9
$SURFTAB2
 70
     6
  9
$SURFTYPE
 70
     6
  9
$SURFU
 70
     6
  9
$SURFV
 70
     6
  9
$UCSBASE
  2

  9
$UCSNAME
  2

  9
$UCSORG
 10
0.0
 20
0.0
 30
0.0
  9
$UCSXDIR
 10
1.0
 20
0.0
 30
0.0
  9
$UCSYDIR
 10
0.0
 20
1.0
 30
0.0
  9
$UCSORTHOREF
  2

  9
$UCSORTHOVIEW
 70
     0
  9
$UCSORGTOP
 10
0.0
 20
0.0
 30
0.0
  9
$UCSORGBOTTOM
 10
0.0
 20
0.0
 30
0.0
  9
$UCSORGLEFT
 10
0.0
 20
0.0
 30
0.0
  9
$UCSORGRIGHT
 10
0.0
 20
0.0
 30
0.0
  9
$UCSORGFRONT
 10
0.0
 20
0.0
 30
0.0
  9
$UCSORGBACK
 10
0.0
 20
0.0
 30
0.0
  9
$PUCSBASE
  2

  9
$PUCSNAME
  2

  9
$PUCSORG
 10
0.0
 20
0.0
 30
0.0
  9
$PUCSXDIR
 10
1.0
 20
0.0
 30
0.0
  9
$PUCSYDIR
 10
0.0
 20
1.0
 30
0.0
  9
$PUCSORTHOREF
  2

  9
$PUCSORTHOVIEW
 70
     0
  9
$PUCSORGTOP
 10
0.0
 20
0.0
 30
0.0
  9
$PUCSORGBOTTOM
 10
0.0
 20
0.0
 30
0.0
  9
$PUCSORGLEFT
 10
0.0
 20
0.0
 30
0.0
  9
$PUCSORGRIGHT
 10
0.0
 20
0.0
 30
0.0
  9
$PUCSORGFRONT
 10
0.0
 20
0.0
 30
0.0
  9
$PUCSORGBACK
 10
0.0
 20
0.0
 30
0.0
  9
$USERI1
 70
     0
  9
$USERI2
 70
     0
  9
$USERI3
 70
     0
  9
$USERI4
 70
     0
  9
$USERI5
 70
     0
  9
$USERR1
 40
0.0
  9
$USERR2
 40
0.0
  9
$USERR3
 40
0.0
  9
$USERR4
 40
0.0
  9
$USERR5
 40
0.0
  9
$WORLDVIEW
 70
     1
  9
$SHADEDGE
 70
     3
  9
$SHADEDIF
 70
    70
  9
$TILEMODE
 70
     1
  9
$MAXACTVP
 70
    64
  9
$PINSBASE
 10
0.0
 20
0.0
 30
0.0
  9
$PLIMCHECK
 70
     0
  9
$PEXTMIN
 10
1.0000000000E+20
 20
1.0000000000E+20
 30
1.0000000000E+20
  9
$PEXTMAX
 10
-1.0000000000E+20
 20
-1.0000000000E+20
 30
-1.0000000000E+20
  9
$PLIMMIN
 10
0.0
 20
0.0
  9
$PLIMMAX
 10
420.0
 20
297.0
  9
$UNITMODE
 70
     0
  9
$VISRETAIN
 70
     1
  9
$PLINEGEN
 70
     0
  9
$PSLTSCALE
 70
     1
  9
$TREEDEPTH
 70
  3020
  9
$CMLSTYLE
  2
Standard
  9
$CMLJUST
 70
     0
  9
$CMLSCALE
 40
20.0
  9
$PROXYGRAPHICS
 70
     1
  9
$MEASUREMENT
 70
     1
  9
$CELWEIGHT
370
    -1
  9
$ENDCAPS
280
     0
  9
$JOINSTYLE
280
     0
  9
$LWDISPLAY
290
     1
  9
$INSUNITS
 70
     4
  9
$HYPERLINKBASE
  1

  9
$STYLESHEET
  1

  9
$XEDIT
290
     1
  9
$CEPSNTYPE
380
     0
  9
$PSTYLEMODE
290
     1
  9
$FINGERPRINTGUID
  2
{D37DC036-AC9B-4B02-8AF7-9A5970E03FE6}
  9
$VERSIONGUID
  2
{FAEB1C32-E019-11D5-929B-00C0DF256EC4}
  9
$EXTNAMES
290
     1
  9
$PSVPSCALE
 40
0.0
  9
$OLESTARTUP
290
     0
  0
ENDSEC
  0
SECTION
  2
CLASSES
  0
CLASS
  1
ACDBDICTIONARYWDFLT
  2
AcDbDictionaryWithDefault
  3
ObjectDBX Classes
 90
        0
280
     0
281
     0
  0
CLASS
  1
VISUALSTYLE
  2
AcDbVisualStyle
  3
ObjectDBX Classes
 90
     4095
280
     0
281
     0
  0
CLASS
  1
MATERIAL
  2
AcDbMaterial
  3
ObjectDBX Classes
 90
     1153
280
     0
281
     0
  0
CLASS
  1
ACDBPLACEHOLDER
  2
AcDbPlaceHolder
  3
ObjectDBX Classes
 90
        0
280
     0
281
     0
  0
CLASS
  1
LAYOUT
  2
AcDbLayout
  3
ObjectDBX Classes
 90
        0
280
     0
281
     0
  0
ENDSEC
  0
SECTION
  2
TABLES
  0
TABLE
  2
VPORT
  5
8
330
0
100
AcDbSymbolTable
 70
     1
  0
VPORT
  5
29
330
8
100
AcDbSymbolTableRecord
100
AcDbViewportTableRecord
  2
*Active
 70
     0
 10
0.0
 20
0.0
 11
1.0
 21
1.0
 12
148.5
 22
105.0
 13
0.0
 23
0.0
 14
10.0
 24
10.0
 15
10.0
 25
10.0
 16
0.0
 26
0.0
 36
1.0
 17
0.0
 27
0.0
 37
0.0
 40
210.0
 41
1.4142857143
 42
50.0
 43
0.0
 44
0.0
 50
0.0
 51
0.0
 71
     0
 72
  2000
 73
     1
 74
     3
 75
     0
 76
     0
 77
     0
 78
     0
281
     0
 65
     1
110
0.0
120
0.0
130
0.0
111
1.0
121
0.0
131
0.0
112
0.0
122
1.0
132
0.0
 79
     0
146
0.0
  0
ENDTAB
  0
TABLE
  2
LTYPE
  5
5
330
0
100
AcDbSymbolTable
 70
     6
  0
LTYPE
  5
14
330
5
100
AcDbSymbolTableRecord
100
AcDbLinetypeTableRecord
  2
ByBlock
 70
     0
  3

 72
    65
 73
     0
 40
0.0
  0
LTYPE
  5
15
330
5
100
AcDbSymbolTableRecord
100
AcDbLinetypeTableRecord
  2
ByLayer
 70
     0
  3

 72
    65
 73
     0
 40
0.0
  0
LTYPE
  5
16
330
5
100
AcDbSymbolTableRecord
100
AcDbLinetypeTableRecord
  2
Continuous
 70
     0
  3
Solid line
 72
    65
 73
     0
 40
0.0
  0
LTYPE
  5
3F
330
5
100
AcDbSymbolTableRecord
100
AcDbLinetypeTableRecord
  2
HIDDEN
 70
     0
  3
Hidden __ __ __ __ __ __ __ __ __ __ __ __ __ __
 72
    65
 73
     2
 40
1.905
 49
1.27
 74
     0
 49
-0.635
 74
     0
  0
LTYPE
  5
40
330
5
100
AcDbSymbolTableRecord
100
AcDbLinetypeTableRecord
  2
PHANTOM
 70
     0
  3
Phantom ______  __  __  ______  __  __  ______
 72
    65
 73
     6
 40
12.7
 49
6.35
 74
     0
 49
-1.27
 74
     0
 49
1.27
 74
     0
 49
-1.27
 74
     0
 49
1.27
 74
     0
 49
-1.27
 74
     0
  0
LTYPE
  5
41
330
5
100
AcDbSymbolTableRecord
100
AcDbLinetypeTableRecord
  2
CENTER
 70
     0
  3
Center ____ _ ____ _ ____ _ ____ _ ____ _ ____
 72
    65
 73
     4
 40
10.16
 49
6.35
 74
     0
 49
-1.27
 74
     0
 49
1.27
 74
     0
 49
-1.27
 74
     0
  0
LTYPE
  5
42
330
5
100
AcDbSymbolTableRecord
100
AcDbLinetypeTableRecord
  2
CENTERX2
 70
     0
  3
Center (2x) ________  __  ________  __  _____
 72
    65
 73
     4
 40
20.32
 49
12.7
 74
     0
 49
-2.54
 74
     0
 49
2.54
 74
     0
 49
-2.54
 74
     0
  0
LTYPE
  5
43
330
5
100
AcDbSymbolTableRecord
100
AcDbLinetypeTableRecord
  2
DOT2
 70
     0
  3
Dot (.5x) ........................................
 72
    65
 73
     2
 40
0.635
 49
0.0
 74
     0
 49
-0.635
 74
     0
  0
ENDTAB
  0
TABLE
  2
LAYER
  5
2
330
0
100
AcDbSymbolTable
 70
     5
  0
LAYER
  5
10
330
2
100
AcDbSymbolTableRecord
100
AcDbLayerTableRecord
  2
0
 70
     0
 62
     7
  6
Continuous
370
    -3
390
F
  0
LAYER
  5
44
330
2
100
AcDbSymbolTableRecord
100
AcDbLayerTableRecord
  2
FORMAT
 70
     0
 62
     7
  6
Continuous
370
    -3
390
F
  0
LAYER
  5
45
330
2
100
AcDbSymbolTableRecord
100
AcDbLayerTableRecord
  2
VERMASSUNG
 70
     0
 62
     7
  6
Continuous
370
    -3
390
F
  0
LAYER
  5
46
330
2
100
AcDbSymbolTableRecord
100
AcDbLayerTableRecord
  2
KOPF_DÜNN
 70
     0
 62
     7
  6
Continuous
370
    -3
390
F
  0
LAYER
  5
47
330
2
100
AcDbSymbolTableRecord
100
AcDbLayerTableRecord
  2
KOPF_DICK
 70
     0
 62
     7
  6
Continuous
370
    15
390
F
  0
ENDTAB
  0
TABLE
  2
STYLE
  5
3
330
0
100
AcDbSymbolTable
 70
     3
  0
STYLE
  5
11
330
3
100
AcDbSymbolTableRecord
100
AcDbTextStyleTableRecord
  2
Standard
 70
     0
 40
0.0
 41
1.0
 50
0.0
 71
     0
 42
2.0
  3
txt
  4

  0
STYLE
  5
48
330
3
100
AcDbSymbolTableRecord
100
AcDbTextStyleTableRecord
  2
SLDTEXTSTYLE0
 70
     0
 40
0.0
 41
0.7
 50
0.0
 71
     0
 42
0.2
  3
TXT
  4

  0
STYLE
  5
4C
330
3
100
AcDbSymbolTableRecord
100
AcDbTextStyleTableRecord
  2
SLDTEXTSTYLE1
 70
     0
 40
0.0
 41
0.6526315789
 50
0.0
 71
     0
 42
0.2
  3
TXT
  4

  0
ENDTAB
  0
TABLE
  2
VIEW
  5
6
330
0
100
AcDbSymbolTable
 70
     0
  0
ENDTAB
  0
TABLE
  2
UCS
  5
7
330
0
100
AcDbSymbolTable
 70
     0
  0
ENDTAB
  0
TABLE
  2
APPID
  5
9
330
0
100
AcDbSymbolTable
 70
     1
  0
APPID
  5
12
330
9
100
AcDbSymbolTableRecord
100
AcDbRegAppTableRecord
  2
ACAD
 70
     0
  0
ENDTAB
  0
TABLE
  2
DIMSTYLE
  5
A
330
0
100
AcDbSymbolTable
 70
     3
100
AcDbDimStyleTable
  0
DIMSTYLE
105
27
330
A
100
AcDbSymbolTableRecord
100
AcDbDimStyleTableRecord
  2
ISO-25
 70
     0
 41
2.5
 42
0.625
 43
3.75
 44
1.25
 73
     0
 74
     0
 77
     1
 78
     8
140
2.5
141
2.5
143
0.0393700787
147
0.625
171
     3
172
     1
178
     0
271
     2
272
     2
274
     3
278
    44
283
     0
284
     8
340
11
  0
DIMSTYLE
105
205
102
{ACAD_REACTORS
330
204
330
20F
330
219
330
225
330
26D
102
}
330
A
100
AcDbSymbolTableRecord
100
AcDbDimStyleTableRecord
  2
SLDDIMSTYLE0
 70
     0
 41
3.0
 44
0.0
 45
0.000000001
 73
     0
 74
     0
 77
     1
 78
    12
 79
     3
140
2.0
147
0.5
173
     1
178
     0
271
     2
272
     3
276
     2
284
    12
340
48
  0
DIMSTYLE
105
230
102
{ACAD_REACTORS
330
22F
102
}
330
A
100
AcDbSymbolTableRecord
100
AcDbDimStyleTableRecord
  2
SLDDIMSTYLE1
 70
     0
 41
3.0
 44
0.0
 73
     0
 74
     0
 77
     1
 78
    12
 79
     3
140
2.0
147
0.5
173
     1
178
     0
179
     2
272
     3
276
     2
284
    12
340
48
  0
ENDTAB
  0
TABLE
  2
BLOCK_RECORD
  5
1
330
0
100
AcDbSymbolTable
 70
     8
  0
BLOCK_RECORD
  5
1F
330
1
100
AcDbSymbolTableRecord
100
AcDbBlockTableRecord
  2
*Model_Space
340
22
  0
BLOCK_RECORD
  5
1B
330
1
100
AcDbSymbolTableRecord
100
AcDbBlockTableRecord
  2
*Paper_Space
340
1E
  0
BLOCK_RECORD
  5
23
330
1
100
AcDbSymbolTableRecord
100
AcDbBlockTableRecord
  2
*Paper_Space0
340
26
  0
BLOCK_RECORD
  5
206
330
1
100
AcDbSymbolTableRecord
100
AcDbBlockTableRecord
  2
_D
340
0
  0
BLOCK_RECORD
  5
210
330
1
100
AcDbSymbolTableRecord
100
AcDbBlockTableRecord
  2
_D_1
340
0
  0
BLOCK_RECORD
  5
21A
330
1
100
AcDbSymbolTableRecord
100
AcDbBlockTableRecord
  2
_D_2
340
0
  0
BLOCK_RECORD
  5
226
330
1
100
AcDbSymbolTableRecord
100
AcDbBlockTableRecord
  2
_D_3
340
0
  0
BLOCK_RECORD
  5
231
330
1
100
AcDbSymbolTableRecord
100
AcDbBlockTableRecord
  2
_D_4
340
0
  0
BLOCK_RECORD
  5
26E
330
1
100
AcDbSymbolTableRecord
100
AcDbBlockTableRecord
  2
_D_5
340
0
  0
BLOCK_RECORD
  5
278
330
1
100
AcDbSymbolTableRecord
100
AcDbBlockTableRecord
  2
SW_CENTERMARKSYMBOL_0
340
0
102
{BLKREFS
331
283
102
}
  0
ENDTAB
  0
ENDSEC
  0
SECTION
  2
BLOCKS
  0
BLOCK
  5
20
330
1F
100
AcDbEntity
  8
0
100
AcDbBlockBegin
  2
*Model_Space
 70
     0
 10
0.0
 20
0.0
 30
0.0
  3
*Model_Space
  1

  0
ENDBLK
  5
21
330
1F
100
AcDbEntity
  8
0
100
AcDbBlockEnd
  0
BLOCK
  5
1C
330
1B
100
AcDbEntity
 67
     1
  8
0
100
AcDbBlockBegin
  2
*Paper_Space
 70
     0
 10
0.0
 20
0.0
 30
0.0
  3
*Paper_Space
  1

  0
ENDBLK
  5
1D
330
1B
100
AcDbEntity
 67
     1
  8
0
100
AcDbBlockEnd
  0
BLOCK
  5
24
330
23
100
AcDbEntity
  8
0
100
AcDbBlockBegin
  2
*Paper_Space0
 70
     0
 10
0.0
 20
0.0
 30
0.0
  3
*Paper_Space0
  1

  0
ENDBLK
  5
25
330
23
100
AcDbEntity
  8
0
100
AcDbBlockEnd
  0
BLOCK
  5
207
330
206
100
AcDbEntity
  8
0
100
AcDbBlockBegin
  2
_D
 70
     0
 10
0.0
 20
0.0
 30
0.0
  3
_D
  1

  0
SOLID
  5
209
330
206
100
AcDbEntity
  8
VERMASSUNG
100
AcDbTrace
 10
153.758910852
 20
143.5799696659
 30
0.0
 11
156.758910852
 21
143.1299696659
 31
0.0
 12
156.758910852
 22
144.0299696659
 32
0.0
 13
156.758910852
 23
144.0299696659
 33
0.0
  0
SOLID
  5
20A
330
206
100
AcDbEntity
  8
VERMASSUNG
100
AcDbTrace
 10
228.658910852
 20
143.5799696659
 30
0.0
 11
225.658910852
 21
144.0299696659
 31
0.0
 12
225.658910852
 22
143.1299696659
 32
0.0
 13
225.658910852
 23
143.1299696659
 33
0.0
  0
LINE
  5
20B
330
206
100
AcDbEntity
  8
VERMASSUNG
100
AcDbLine
 10
153.758910852
 20
117.4401282666
 30
0.0
 11
153.758910852
 21
144.5799696659
 31
0.0
  0
LINE
  5
20C
330
206
100
AcDbEntity
  8
VERMASSUNG
100
AcDbLine
 10
228.658910852
 20
132.5101282666
 30
0.0
 11
228.658910852
 21
144.5799696659
 31
0.0
  0
LINE
  5
20D
330
206
100
AcDbEntity
  8
VERMASSUNG
100
AcDbLine
 10
153.758910852
 20
143.5799696659
 30
0.0
 11
228.658910852
 21
143.5799696659
 31
0.0
  0
MTEXT
  5
20E
330
206
100
AcDbEntity
  8
VERMASSUNG
100
AcDbMText
 10
188.7098417153
 20
146.1581050291
 30
0.0
 40
2.0
 41
0.0
 71
     1
 72
     1
  1
74.9
  7
SLDTEXTSTYLE0
 73
     1
 44
1.0
  0
ENDBLK
  5
208
330
206
100
AcDbEntity
  8
0
100
AcDbBlockEnd
  0
BLOCK
  5
211
330
210
100
AcDbEntity
  8
0
100
AcDbBlockBegin
  2
_D_1
 70
     0
 10
0.0
 20
0.0
 30
0.0
  3
_D_1
  1

  0
SOLID
  5
213
330
210
100
AcDbEntity
  8
VERMASSUNG
100
AcDbTrace
 10
173.658910852
 20
137.5799696659
 30
0.0
 11
176.658910852
 21
137.1299696659
 31
0.0
 12
176.658910852
 22
138.0299696659
 32
0.0
 13
176.658910852
 23
138.0299696659
 33
0.0
  0
SOLID
  5
214
330
210
100
AcDbEntity
  8
VERMASSUNG
100
AcDbTrace
 10
228.658910852
 20
137.5799696659
 30
0.0
 11
225.658910852
 21
138.0299696659
 31
0.0
 12
225.658910852
 22
137.1299696659
 32
0.0
 13
225.658910852
 23
137.1299696659
 33
0.0
  0
LINE
  5
215
330
210
100
AcDbEntity
  8
VERMASSUNG
100
AcDbLine
 10
173.658910852
 20
125.2101282666
 30
0.0
 11
173.658910852
 21
138.5799696659
 31
0.0
  0
LINE
  5
216
330
210
100
AcDbEntity
  8
VERMASSUNG
100
AcDbLine
 10
228.658910852
 20
132.5101282666
 30
0.0
 11
228.658910852
 21
138.5799696659
 31
0.0
  0
LINE
  5
217
330
210
100
AcDbEntity
  8
VERMASSUNG
100
AcDbLine
 10
173.658910852
 20
137.5799696659
 30
0.0
 11
228.658910852
 21
137.5799696659
 31
0.0
  0
MTEXT
  5
218
330
210
100
AcDbEntity
  8
VERMASSUNG
100
AcDbMText
 10
199.7594321354
 20
140.158105029
 30
0.0
 40
2.0
 41
0.0
 71
     1
 72
     1
  1
55
  7
SLDTEXTSTYLE0
 73
     1
 44
1.0
  0
ENDBLK
  5
212
330
210
100
AcDbEntity
  8
0
100
AcDbBlockEnd
  0
BLOCK
  5
21B
330
21A
100
AcDbEntity
  8
0
100
AcDbBlockBegin
  2
_D_2
 70
     0
 10
0.0
 20
0.0
 30
0.0
  3
_D_2
  1

  0
SOLID
  5
21D
330
21A
100
AcDbEntity
  8
VERMASSUNG
100
AcDbTrace
 10
150.26749925
 20
125.5101282666
 30
0.0
 11
149.81749925
 21
122.5101282666
 31
0.0
 12
150.71749925
 22
122.5101282666
 32
0.0
 13
150.71749925
 23
122.5101282666
 33
0.0
  0
SOLID
  5
21E
330
21A
100
AcDbEntity
  8
VERMASSUNG
100
AcDbTrace
 10
150.26749925
 20
85.5101282666
 30
0.0
 11
150.71749925
 21
88.5101282666
 31
0.0
 12
149.81749925
 22
88.5101282666
 32
0.0
 13
149.81749925
 23
88.5101282666
 33
0.0
  0
LINE
  5
21F
330
21A
100
AcDbEntity
  8
VERMASSUNG
100
AcDbLine
 10
173.958910852
 20
125.5101282666
 30
0.0
 11
149.26749925
 21
125.5101282666
 31
0.0
  0
LINE
  5
220
330
21A
100
AcDbEntity
  8
VERMASSUNG
100
AcDbLine
 10
173.958910852
 20
85.5101282666
 30
0.0
 11
149.26749925
 21
85.5101282666
 31
0.0
  0
LINE
  5
221
330
21A
100
AcDbEntity
  8
VERMASSUNG
100
AcDbLine
 10
150.26749925
 20
125.5101282666
 30
0.0
 11
150.26749925
 21
85.5101282666
 31
0.0
  0
MTEXT
  5
222
330
21A
100
AcDbEntity
  8
VERMASSUNG
100
AcDbMText
 10
147.489363761
 20
99.2069205551
 30
0.0
 40
2.0
 41
0.0
 71
     1
 72
     1
  1
HSK
  7
SLDTEXTSTYLE0
 11
-7.044195017643634E-15
 21
1.0
 31
0.0
 73
     1
 44
1.0
  0
MTEXT
  5
223
330
21A
100
AcDbEntity
  8
VERMASSUNG
100
AcDbMText
 10
147.6893637705
 20
105.2069206072
 30
0.0
 40
2.0
 41
0.0
 71
     1
 72
     1
  1
%%c
  7
SLDTEXTSTYLE0
 11
-7.044195017643634E-15
 21
1.0
 31
0.0
 73
     1
 44
1.0
  0
MTEXT
  5
224
330
21A
100
AcDbEntity
  8
VERMASSUNG
100
AcDbMText
 10
147.6893638869
 20
108.8144530141
 30
0.0
 40
2.0
 41
0.0
 71
     1
 72
     1
  1
40
  7
SLDTEXTSTYLE0
 11
-7.044195017643634E-15
 21
1.0
 31
0.0
 73
     1
 44
1.0
  0
ENDBLK
  5
21C
330
21A
100
AcDbEntity
  8
0
100
AcDbBlockEnd
  0
BLOCK
  5
227
330
226
100
AcDbEntity
  8
0
100
AcDbBlockBegin
  2
_D_3
 70
     0
 10
0.0
 20
0.0
 30
0.0
  3
_D_3
  1

  0
SOLID
  5
229
330
226
100
AcDbEntity
  8
VERMASSUNG
100
AcDbTrace
 10
236.9534523914
 20
132.5101282666
 30
0.0
 11
236.5034523914
 21
129.5101282666
 31
0.0
 12
237.4034523914
 22
129.5101282666
 32
0.0
 13
237.4034523914
 23
129.5101282666
 33
0.0
  0
SOLID
  5
22A
330
226
100
AcDbEntity
  8
VERMASSUNG
100
AcDbTrace
 10
236.9534523914
 20
105.5101282666
 30
0.0
 11
237.4034523914
 21
108.5101282666
 31
0.0
 12
236.5034523914
 22
108.5101282666
 32
0.0
 13
236.5034523914
 23
108.5101282666
 33
0.0
  0
LINE
  5
22B
330
226
100
AcDbEntity
  8
VERMASSUNG
100
AcDbLine
 10
228.658910852
 20
132.5101282666
 30
0.0
 11
237.9534523914
 21
132.5101282666
 31
0.0
  0
LINE
  5
22C
330
226
100
AcDbEntity
  8
VERMASSUNG
100
AcDbLine
 10
228.658910852
 20
105.5101282666
 30
0.0
 11
237.9534523914
 21
105.5101282666
 31
0.0
  0
LINE
  5
22D
330
226
100
AcDbEntity
  8
VERMASSUNG
100
AcDbLine
 10
236.9534523914
 20
132.5101282666
 30
0.0
 11
236.9534523914
 21
105.5101282666
 31
0.0
  0
MTEXT
  5
22E
330
226
100
AcDbEntity
  8
VERMASSUNG
100
AcDbMText
 10
234.3753170283
 20
117.61064955
 30
0.0
 40
2.0
 41
0.0
 71
     1
 72
     1
  1
27
  7
SLDTEXTSTYLE0
 11
-7.044195017643634E-15
 21
1.0
 31
0.0
 73
     1
 44
1.0
  0
ENDBLK
  5
228
330
226
100
AcDbEntity
  8
0
100
AcDbBlockEnd
  0
BLOCK
  5
232
330
231
100
AcDbEntity
  8
0
100
AcDbBlockBegin
  2
_D_4
 70
     0
 10
0.0
 20
0.0
 30
0.0
  3
_D_4
  1

  0
ARC
  5
234
330
231
100
AcDbEntity
  8
VERMASSUNG
100
AcDbCircle
 10
228.658910852
 20
140.6484011613
 30
0.0
 40
28.37978743039612
100
AcDbArc
 50
265.0030304387
 51
270.0
  0
ARC
  5
235
330
231
100
AcDbEntity
  8
VERMASSUNG
100
AcDbCircle
 10
228.658910852
 20
140.6484011613
 30
0.0
 40
28.37978743039612
100
AcDbArc
 50
251.3176727999
 51
265.0030304387
  0
ARC
  5
236
330
231
100
AcDbEntity
  8
VERMASSUNG
100
AcDbCircle
 10
228.658910852
 20
140.6484011613
 30
0.0
 40
28.37978743039613
100
AcDbArc
 50
270.0
 51
282.0517540602
  0
SOLID
  5
237
330
231
100
AcDbEntity
  8
VERMASSUNG
100
AcDbTrace
 10
226.1869447302
 20
112.3764766055
 30
0.0
 11
223.2789810012
 21
113.2403324678
 31
0.0
 12
223.1535058023
 22
112.3491220693
 32
0.0
 13
223.1535058023
 23
112.3491220693
 33
0.0
  0
SOLID
  5
238
330
231
100
AcDbEntity
  8
VERMASSUNG
100
AcDbTrace
 10
228.658910852
 20
112.2686137309
 30
0.0
 11
231.6784379446
 21
111.9771413699
 31
0.0
 12
231.6310667848
 22
112.8758938237
 32
0.0
 13
231.6310667848
 23
112.8758938237
 33
0.0
  0
MTEXT
  5
239
330
231
100
AcDbEntity
  8
VERMASSUNG
100
AcDbMText
 10
221.6433703731
 20
115.7848498684
 30
0.0
 40
2.0
 41
0.0
 71
     1
 72
     1
  1
5°
  7
SLDTEXTSTYLE0
 11
0.9748634506373116
 21
-0.2228031701110059
 31
0.0
 73
     1
 44
1.0
  0
ENDBLK
  5
233
330
231
100
AcDbEntity
  8
0
100
AcDbBlockEnd
  0
BLOCK
  5
26F
330
26E
100
AcDbEntity
  8
0
100
AcDbBlockBegin
  2
_D_5
 70
     0
 10
0.0
 20
0.0
 30
0.0
  3
_D_5
  1

  0
SOLID
  5
271
330
26E
100
AcDbEntity
  8
VERMASSUNG
100
AcDbTrace
 10
58.1324265506
 20
82.4591941134
 30
0.0
 11
58.5824265506
 21
85.4591941134
 31
0.0
 12
57.6824265506
 22
85.4591941134
 32
0.0
 13
57.6824265506
 23
85.4591941134
 33
0.0
  0
SOLID
  5
272
330
26E
100
AcDbEntity
  8
VERMASSUNG
100
AcDbTrace
 10
58.1324265506
 20
132.4591941134
 30
0.0
 11
57.6824265506
 21
129.4591941134
 31
0.0
 12
58.5824265506
 22
129.4591941134
 32
0.0
 13
58.5824265506
 23
129.4591941134
 33
0.0
  0
LINE
  5
273
330
26E
100
AcDbEntity
  8
VERMASSUNG
100
AcDbLine
 10
88.1324265506
 20
82.4591941134
 30
0.0
 11
57.1324265506
 21
82.4591941134
 31
0.0
  0
LINE
  5
274
330
26E
100
AcDbEntity
  8
VERMASSUNG
100
AcDbLine
 10
88.1324265506
 20
132.4591941134
 30
0.0
 11
57.1324265506
 21
132.4591941134
 31
0.0
  0
LINE
  5
275
330
26E
100
AcDbEntity
  8
VERMASSUNG
100
AcDbLine
 10
58.1324265506
 20
82.4591941134
 30
0.0
 11
58.1324265506
 21
132.4591941134
 31
0.0
  0
MTEXT
  5
276
330
26E
100
AcDbEntity
  8
VERMASSUNG
100
AcDbMText
 10
55.5542910711
 20
104.2548321315
 30
0.0
 40
2.0
 41
0.0
 71
     1
 72
     1
  1
%%c
  7
SLDTEXTSTYLE0
 11
6.123233995736766E-17
 21
1.0
 31
0.0
 73
     1
 44
1.0
  0
MTEXT
  5
277
330
26E
100
AcDbEntity
  8
VERMASSUNG
100
AcDbMText
 10
55.5542911875
 20
107.8645986623
 30
0.0
 40
2.0
 41
0.0
 71
     1
 72
     1
  1
50
  7
SLDTEXTSTYLE0
 11
6.123233995736766E-17
 21
1.0
 31
0.0
 73
     1
 44
1.0
  0
ENDBLK
  5
270
330
26E
100
AcDbEntity
  8
0
100
AcDbBlockEnd
  0
BLOCK
  5
279
330
278
100
AcDbEntity
  8
0
100
AcDbBlockBegin
  2
SW_CENTERMARKSYMBOL_0
 70
     0
 10
0.0
 20
0.0
 30
0.0
  3
SW_CENTERMARKSYMBOL_0
  1

  0
LINE
  5
27B
330
278
100
AcDbEntity
  8
VERMASSUNG
 62
     0
100
AcDbLine
 10
0.0
 20
0.0
 30
0.0
 11
0.0
 21
2.5
 31
0.0
  0
LINE
  5
27C
330
278
100
AcDbEntity
  8
VERMASSUNG
 62
     0
100
AcDbLine
 10
0.0
 20
0.0
 30
0.0
 11
-2.5
 21
0.0
 31
0.0
  0
LINE
  5
27D
330
278
100
AcDbEntity
  8
VERMASSUNG
 62
     0
100
AcDbLine
 10
0.0
 20
0.0
 30
0.0
 11
0.0
 21
-2.5
 31
0.0
  0
LINE
  5
27E
330
278
100
AcDbEntity
  8
VERMASSUNG
 62
     0
100
AcDbLine
 10
0.0
 20
0.0
 30
0.0
 11
2.5
 21
0.0
 31
0.0
  0
LINE
  5
27F
330
278
100
AcDbEntity
  8
VERMASSUNG
 62
     0
100
AcDbLine
 10
0.0
 20
5.0
 30
0.0
 11
0.0
 21
22.5
 31
0.0
  0
LINE
  5
280
330
278
100
AcDbEntity
  8
VERMASSUNG
 62
     0
100
AcDbLine
 10
-5.0
 20
0.0
 30
0.0
 11
-22.5
 21
0.0
 31
0.0
  0
LINE
  5
281
330
278
100
AcDbEntity
  8
VERMASSUNG
 62
     0
100
AcDbLine
 10
0.0
 20
-5.0
 30
0.0
 11
0.0
 21
-22.5
 31
0.0
  0
LINE
  5
282
330
278
100
AcDbEntity
  8
VERMASSUNG
 62
     0
100
AcDbLine
 10
5.0
 20
0.0
 30
0.0
 11
22.5
 21
0.0
 31
0.0
  0
ENDBLK
  5
27A
330
278
100
AcDbEntity
  8
0
100
AcDbBlockEnd
  0
ENDSEC
  0
SECTION
  2
ENTITIES
  0
MTEXT
  5
49
330
1F
100
AcDbEntity
  8
KOPF_DÜNN
100
AcDbMText
 10
13.8892156294
 20
23.8442973028
 30
0.0
 40
3.0
 41
0.0
 71
     1
 72
     1
  1
HA4.KCC.RLA.055
  7
SLDTEXTSTYLE0
 73
     1
 44
1.0
  0
MTEXT
  5
4A
330
1F
100
AcDbEntity
  8
VERMASSUNG
100
AcDbMText
 10
13.9329988022
 20
28.8834360957
 30
0.0
 40
3.0
 41
0.0
 71
     1
 72
     1
  1
Klemmhalter rechts_Turning tool right 95° /80° /95°
  7
SLDTEXTSTYLE0
 73
     1
 44
1.0
  0
MTEXT
  5
4B
330
1F
100
AcDbEntity
  8
VERMASSUNG
100
AcDbMText
 10
98.8601118557
 20
13.8365368179
 30
0.0
 40
2.0
 41
0.0
 71
     1
 72
     1
  1
Datum: 12.11.2008
  7
SLDTEXTSTYLE0
 73
     1
 44
1.0
  0
MTEXT
  5
4D
330
1F
100
AcDbEntity
  8
VERMASSUNG
100
AcDbMText
 10
13.933048693
 20
18.0482802738
 30
0.0
 40
2.0
 41
0.0
 71
     1
 72
     1
  1
DIN 69893 HSK 40 A ICTM / CC.. 12 04..
  7
SLDTEXTSTYLE1
 73
     1
 44
1.0
  0
MTEXT
  5
4E
330
1F
100
AcDbEntity
  8
VERMASSUNG
100
AcDbMText
 10
13.9808475933
 20
13.9090973692
 30
0.0
 40
2.0
 41
0.0
 71
     1
 72
     1
  1
Gewicht: 345g
  7
SLDTEXTSTYLE0
 73
     1
 44
1.0
  0
LINE
  5
4F
330
1F
100
AcDbEntity
  8
0
  6
Continuous
 62
     7
370
    15
100
AcDbLine
 10
220.2621322983
 20
124.9681297461
 30
0.0
 11
220.2621322983
 21
125.0240836064
 31
0.0
  0
LINE
  5
50
330
1F
100
AcDbEntity
  8
0
  6
Continuous
 62
     7
370
    15
100
AcDbLine
 10
222.9996805006
 20
125.9463872532
 30
0.0
 11
222.9996805006
 21
125.8904687832
 31
0.0
  0
LINE
  5
51
330
1F
100
AcDbEntity
  8
0
  6
Continuous
 62
     7
370
    15
100
AcDbLine
 10
218.1337733679
 20
125.4718225221
 30
0.0
 11
218.1337733679
 21
125.4648413281
 31
0.0
  0
LINE
  5
52
330
1F
100
AcDbEntity
  8
0
  6
Continuous
 62
     7
370
    15
100
AcDbLine
 10
225.133776378
 20
125.4648413281
 30
0.0
 11
225.133776378
 21
125.4718225221
 31
0.0
  0
LINE
  5
53
330
1F
100
AcDbEntity
  8
0
  6
Continuous
 62
     7
370
    15
100
AcDbLine
 10
173.9589108662
 20
85.5101287136
 30
0.0
 11
181.6089113169
 21
85.5101287136
 31
0.0
  0
LINE
  5
54
330
1F
100
AcDbEntity
  8
0
  6
Continuous
 62
     7
370
    15
100
AcDbLine
 10
181.6244383269
 20
125.5101278196
 30
0.0
 11
173.9589108662
 21
125.5101278196
 31
0.0
  0
ARC
  5
55
330
1F
100
AcDbEntity
  8
0
  6
Continuous
 62
     7
370
    15
100
AcDbCircle
 10
173.958910852
 20
85.8101282666
 30
0.0
 40
0.2999999999999972
100
AcDbArc
 50
180.0
 51
270.0
  0
ARC
  5
56
330
1F
100
AcDbEntity
  8
0
  6
Continuous
 62
     7
370
    15
100
AcDbCircle
 10
173.958910852
 20
125.2101282666
 30
0.0
 40
0.2999999999999972
100
AcDbArc
 50
90.0
 51
180.0
  0
ARC
  5
57
330
1F
100
AcDbEntity
  8
0
  6
Continuous
 62
     7
370
    15
100
AcDbCircle
 10
194.608910852
 20
88.0101282666
 30
0.0
 40
0.9999999999999976
100
AcDbArc
 50
90.0
 51
143.1137328946
  0
ARC
  5
58
330
1F
100
AcDbEntity
  8
0
  6
Continuous
 62
     7
370
    15
100
AcDbCircle
 10
194.608910852
 20
123.0101282666
 30
0.0
 40
1.00000000000002
100
AcDbArc
 50
216.8998129703
 51
270.0
  0
LINE
  5
59
330
1F
100
AcDbEntity
  8
0
  6
Continuous
 62
     7
370
    15
100
AcDbLine
 10
194.6089115851
 20
89.010128356
 30
0.0
 11
207.8915831559
 21
89.010128356
 31
0.0
  0
LINE
  5
5A
330
1F
100
AcDbEntity
  8
0
  6
Continuous
 62
     7
370
    15
100
AcDbLine
 10
207.8915831559
 20
122.0101281772
 30
0.0
 11
194.6089115851
 21
122.0101281772
 31
0.0
  0
ARC
  5
5B
330
1F
100
AcDbEntity
  8
0
  6
Continuous
 62
     7
370
    15
100
AcDbCircle
 10
173.1589040993
 20
90.0564211131
 30
0.0
 40
0.6000067526676967
100
AcDbArc
 50
33.5571153394
 51
90.0
  0
ARC
  5
5C
330
1F
100
AcDbEntity
  8
0
  6
Continuous
 62
     7
370
    15
100
AcDbCircle
 10
173.1589040993
 20
120.9638354201
 30
0.0
 40
0.6000067526677242
100
AcDbArc
 50
270.0
 51
326.4428846606
  0
LINE
  5
5D
330
1F
100
AcDbEntity
  8
0
  6
Continuous
 62
     7
370
    15
100
AcDbLine
 10
171.658910757
 20
90.4064276958
 30
0.0
 11
172.5156227519
 21
90.635982878
 31
0.0
  0
LINE
  5
5E
330
1F
100
AcDbEntity
  8
0
  6
Continuous
 62
     7
370
    15
100
AcDbLine
 10
172.5156227519
 20
120.3842736552
 30
0.0
 11
171.658910757
 21
120.6138288374
 31
0.0
  0
LINE
  5
5F
330
1F
100
AcDbEntity
  8
0
  6
Continuous
 62
     7
370
    15
100
AcDbLine
 10
164.8429778331
 20
120.2723491708
 30
0.0
 11
157.3589106017
 21
119.8973959083
 31
0.0
  0
LINE
  5
60
330
1F
100
AcDbEntity
  8
0
  6
Continuous
 62
     7
370
    15
100
AcDbLine
 10
171.658910757
 20
120.6138288374
 30
0.0
 11
170.4241781887
 21
120.5519685293
 31
0.0
  0
LINE
  5
61
330
1F
100
AcDbEntity
  8
0
  6
Continuous
 62
     7
370
    15
100
AcDbLine
 10
170.4251742382
 20
90.4682386438
 30
0.0
 11
171.658910757
 21
90.4064276958
 31
0.0
  0
LINE
  5
62
330
1F
100
AcDbEntity
  8
0
  6
Continuous
 62
     7
370
    15
100
AcDbLine
 10
159.8589110114
 20
90.9976098458
 30
0.0
 11
164.8434407004
 21
90.7478840793
 31
0.0
  0
ARC
  5
63
330
1F
100
AcDbEntity
  8
0
  6
Continuous
 62
     7
370
    15
100
AcDbCircle
 10
172.6709159415
 20
90.0564211131
 30
0.0
 40
0.60000675266771
100
AcDbArc
 50
90.0
 51
105.0
  0
ARC
  5
64
330
1F
100
AcDbEntity
  8
0
  6
Continuous
 62
     7
370
    15
100
AcDbCircle
 10
172.6709159415
 20
120.9638354201
 30
0.0
 40
0.60000675266771
100
AcDbArc
 50
255.0
 51
270.0
  0
LINE
  5
65
330
1F
100
AcDbEntity
  8
0
  6
Continuous
 62
     7
370
    15
100
AcDbLine
 10
172.6709159017
 20
90.6564282025
 30
0.0
 11
173.1589040762
 21
90.6564282025
 31
0.0
  0
LINE
  5
66
330
1F
100
AcDbEntity
  8
0
  6
Continuous
 62
     7
370
    15
100
AcDbLine
 10
173.1589040762
 20
120.3638283307
 30
0.0
 11
172.6709159017
 21
120.3638283307
 31
0.0
  0
ARC
  5
67
330
1F
100
AcDbEntity
  8
0
  6
Continuous
 62
     7
370
    15
100
AcDbCircle
 10
156.458910852
 20
119.2901282666
 30
0.0
 40
0.9000000000000057
100
AcDbArc
 50
270.0
 51
311.1792132368
  0
ARC
  5
68
330
1F
100
AcDbEntity
  8
0
  6
Continuous
 62
     7
370
    15
100
AcDbCircle
 10
158.958910852
 20
91.7891282666
 30
0.0
 40
0.9000000000000057
100
AcDbArc
 50
29.8499024808
 51
90.0
  0
LINE
  5
69
330
1F
100
AcDbEntity
  8
0
  6
Continuous
 62
     7
370
    15
100
AcDbLine
 10
154.7089104467
 20
118.3901285524
 30
0.0
 11
153.7589111292
 21
117.4401283036
 31
0.0
  0
LINE
  5
6A
330
1F
100
AcDbEntity
  8
0
  6
Continuous
 62
     7
370
    15
100
AcDbLine
 10
156.4589102679
 20
118.3901285524
 30
0.0
 11
154.7089104467
 21
118.3901285524
 31
0.0
  0
LINE
  5
6B
330
1F
100
AcDbEntity
  8
0
  6
Continuous
 62
     7
370
    15
100
AcDbLine
 10
154.7089104467
 20
92.6891281972
 30
0.0
 11
158.9589106777
 21
92.6891281972
 31
0.0
  0
LINE
  5
6C
330
1F
100
AcDbEntity
  8
0
  6
Continuous
 62
     7
370
    15
100
AcDbLine
 10
153.7589111292
 20
93.6391284461
 30
0.0
 11
154.7089104467
 21
92.6891281972
 31
0.0
  0
ARC
  5
6D
330
1F
100
AcDbEntity
  8
0
  6
Continuous
 62
     7
370
    15
100
AcDbCircle
 10
207.891583864
 20
88.0101282666
 30
0.0
 40
1.000000000000016
100
AcDbArc
 50
15.0
 51
90.0
  0
LINE
  5
6E
330
1F
100
AcDbEntity
  8
0
  6
Continuous
 62
     7
370
    15
100
AcDbLine
 10
209.0608362966
 20
87.5101290415
 30
0.0
 11
211.1729157083
 21
87.5101290415
 31
0.0
  0
LINE
  5
6F
330
1F
100
AcDbEntity
  8
0
  6
Continuous
 62
     7
370
    15
100
AcDbLine
 10
208.8575099521
 20
88.2689464609
 30
0.0
 11
209.0608362966
 21
87.5101290415
 31
0.0
  0
LINE
  5
70
330
1F
100
AcDbEntity
  8
0
  6
Continuous
 62
     7
370
    15
100
AcDbLine
 10
215.2030241602
 20
118.6293629701
 30
0.0
 11
227.2406217568
 21
119.6818748261
 31
0.0
  0
ARC
  5
71
330
1F
100
AcDbEntity
  8
0
  6
Continuous
 62
     7
370
    15
100
AcDbCircle
 10
215.1680529841
 20
119.0277111853
 30
0.0
 40
0.3998803367259195
100
AcDbArc
 50
175.0178216697
 51
275.0171602952
  0
LINE
  5
72
330
1F
100
AcDbEntity
  8
0
  6
Continuous
 62
     7
370
    15
100
AcDbLine
 10
215.8228379601
 20
131.0927007119
 30
0.0
 11
214.7696834915
 21
119.0624391432
 31
0.0
  0
ARC
  5
73
330
1F
100
AcDbEntity
  8
0
  6
Continuous
 62
     7
370
    15
100
AcDbCircle
 10
216.2211849223
 20
131.0577272939
 30
0.0
 40
0.399879284675562
100
AcDbArc
 50
94.982852241
 51
174.9825040052
  0
LINE
  5
74
330
1F
100
AcDbEntity
  8
0
  6
Continuous
 62
     7
370
    15
100
AcDbLine
 10
228.2240499669
 20
132.5086071859
 30
0.0
 11
216.1864523702
 21
131.4560953299
 31
0.0
  0
ARC
  5
75
330
1F
100
AcDbEntity
  8
0
  6
Continuous
 62
     7
370
    15
100
AcDbCircle
 10
228.2590254746
 20
132.1102667317
 30
0.0
 40
0.3998729842778057
100
AcDbArc
 50
355.0166135721
 51
95.0178758373
  0
LINE
  5
76
330
1F
100
AcDbEntity
  8
0
  6
Continuous
 62
     7
370
    15
100
AcDbLine
 10
227.604236167
 20
120.0452685128
 30
0.0
 11
228.6573869102
 21
132.0755310128
 31
0.0
  0
ARC
  5
77
330
1F
100
AcDbEntity
  8
0
  6
Continuous
 62
     7
370
    15
100
AcDbCircle
 10
227.2058867549
 20
120.080245403
 30
0.0
 40
0.3998820288150107
100
AcDbArc
 50
274.9831703077
 51
354.9820390983
  0
ARC
  5
78
330
1F
100
AcDbEntity
  8
0
  6
Continuous
 62
     7
370
    15
100
AcDbCircle
 10
228.2590184946
 20
132.1102698775
 30
0.0
 40
0.3798813834508255
100
AcDbArc
 50
355.0168890322
 51
95.0176003304
  0
LINE
  5
79
330
1F
100
AcDbEntity
  8
0
  6
Continuous
 62
     7
370
    15
100
AcDbLine
 10
228.2257934027
 20
132.4886955092
 30
0.0
 11
216.1881958061
 21
131.4361836533
 31
0.0
  0
ARC
  5
7A
330
1F
100
AcDbEntity
  8
0
  6
Continuous
 62
     7
370
    15
100
AcDbCircle
 10
216.2211917184
 20
131.0577325661
 30
0.0
 40
0.379886766878103
100
AcDbArc
 50
94.9828313844
 51
174.9822467699
  0
LINE
  5
7B
330
1F
100
AcDbEntity
  8
0
  6
Continuous
 62
     7
370
    15
100
AcDbLine
 10
215.8427608126
 20
131.0909591387
 30
0.0
 11
214.7896100693
 21
119.0606975699
 31
0.0
  0
ARC
  5
7C
330
1F
100
AcDbEntity
  8
0
  6
Continuous
 62
     7
370
    15
100
AcDbCircle
 10
215.1680557821
 20
119.0277004282
 30
0.0
 40
0.3798815195136284
100
AcDbArc
 50
175.0169134894
 51
275.0175758732
  0
LINE
  5
7D
330
1F
100
AcDbEntity
  8
0
  6
Continuous
 62
     7
370
    15
100
AcDbLine
 10
215.2012807243
 20
118.6492746467
 30
0.0
 11
227.238878321
 21
119.7017865027
 31
0.0
  0
ARC
  5
7E
330
1F
100
AcDbEntity
  8
0
  6
Continuous
 62
     7
370
    15
100
AcDbCircle
 10
227.2058840884
 20
120.0802359091
 30
0.0
 40
0.3798849465496579
100
AcDbArc
 50
274.9826010122
 51
354.9824771421
  0
LINE
  5
7F
330
1F
100
AcDbEntity
  8
0
  6
Continuous
 62
     7
370
    15
100
AcDbLine
 10
227.5843133145
 20
120.0470110173
 30
0.0
 11
228.6374640577
 21
132.077272586
 31
0.0
  0
LINE
  5
80
330
1F
100
AcDbEntity
  8
0
  6
Continuous
 62
     7
370
    15
100
AcDbLine
 10
216.0871622079
 20
119.9215497593
 30
0.0
 11
215.1681628936
 21
119.0199419628
 31
0.0
  0
LINE
  5
81
330
1F
100
AcDbEntity
  8
0
  6
Continuous
 62
     7
370
    15
100
AcDbLine
 10
226.632062059
 20
120.6332748527
 30
0.0
 11
227.2057567649
 21
120.0724528874
 31
0.0
  0
LINE
  5
82
330
1F
100
AcDbEntity
  8
0
  6
Continuous
 62
     7
370
    15
100
AcDbLine
 10
216.7950083428
 20
130.4643355081
 30
0.0
 11
216.2213173621
 21
131.0502044628
 31
0.0
  0
LINE
  5
83
330
1F
100
AcDbEntity
  8
0
  6
Continuous
 62
     7
370
    15
100
AcDbLine
 10
218.1374837571
 20
120.9124192367
 30
0.0
 11
224.8744887226
 21
121.5014714519
 31
0.0
  0
LINE
  5
84
330
1F
100
AcDbEntity
  8
0
  6
Continuous
 62
     7
370
    15
100
AcDbLine
 10
227.3399119192
 20
131.1674412111
 30
0.0
 11
228.2589112335
 21
132.1027144561
 31
0.0
  0
ARC
  5
85
330
1F
100
AcDbEntity
  8
0
  6
Continuous
 62
     7
370
    15
100
AcDbCircle
 10
218.0500507738
 20
121.9082847285
 30
0.0
 40
0.9996962560607462
100
AcDbArc
 50
175.0175084507
 51
275.0174735142
  0
LINE
  5
86
330
1F
100
AcDbEntity
  8
0
  6
Continuous
 62
     7
370
    15
100
AcDbLine
 10
217.6435437911
 20
128.7280130903
 30
0.0
 11
217.0541320854
 21
121.9951096694
 31
0.0
  0
ARC
  5
87
330
1F
100
AcDbEntity
  8
0
  6
Continuous
 62
     7
370
    15
100
AcDbCircle
 10
218.6394095927
 20
128.6405789304
 30
0.0
 40
0.999696667530998
100
AcDbArc
 50
94.9826605143
 51
174.982460859
  0
LINE
  5
88
330
1F
100
AcDbEntity
  8
0
  6
Continuous
 62
     7
370
    15
100
AcDbLine
 10
225.28959037
 20
130.225549988
 30
0.0
 11
218.5525816792
 21
129.6364977727
 31
0.0
  0
ARC
  5
89
330
1F
100
AcDbEntity
  8
0
  6
Continuous
 62
     7
370
    15
100
AcDbCircle
 10
225.3770249186
 20
129.2296860624
 30
0.0
 40
0.9996948326577394
100
AcDbArc
 50
355.0174112275
 51
95.0175707373
  0
LINE
  5
8A
330
1F
100
AcDbEntity
  8
0
  6
Continuous
 62
     7
370
    15
100
AcDbLine
 10
225.7835303359
 20
122.409957997
 30
0.0
 11
226.3729420417
 21
129.1428595553
 31
0.0
  0
ARC
  5
8B
330
1F
100
AcDbEntity
  8
0
  6
Continuous
 62
     7
370
    15
100
AcDbCircle
 10
224.7876597739
 20
122.4973952343
 30
0.0
 40
0.9997016788674536
100
AcDbArc
 50
274.9826950251
 51
354.9823090193
  0
CIRCLE
  5
8C
330
1F
100
AcDbEntity
  8
0
  6
Continuous
 62
     7
370
    15
100
AcDbCircle
 10
221.7151230496
 20
125.5695019374
 30
0.0
 40
3.798448931264764
  0
ARC
  5
8D
330
1F
100
AcDbEntity
  8
0
  6
Continuous
 62
     7
370
    15
100
AcDbCircle
 10
221.7151388847
 20
125.5289565708
 30
0.0
 40
3.798397313010669
100
AcDbArc
 50
359.9984094885
 51
354.9993415799
  0
SPLINE
  5
8E
330
1F
100
AcDbEntity
  8
0
  6
Continuous
 62
     7
370
    15
100
AcDbSpline
210
0.0
220
0.0
230
1.0
 70
     8
 71
     3
 72
    11
 73
     7
 74
     0
 42
0.00000001
 43
0.00000001
 12
1.0
 22
0.0
 32
0.0
 13
1.0
 23
0.0
 33
0.0
 40
0.0
 40
0.0
 40
0.0
 40
0.0
 40
0.3367826675627506
 40
0.6790103349294032
 40
0.99237066969496
 40
1.0
 40
1.0
 40
1.0
 40
1.0
 10
216.0871622078871
 20
119.9215497593067
 30
0.0
 10
216.1426524954723
 20
119.976296954862
 30
0.0
 10
216.2545302207461
 20
120.0866764819898
 30
0.0
 10
216.4239773150165
 20
120.2572961124166
 30
0.0
 10
216.5280349451204
 20
120.3634129700156
 30
0.0
 10
216.5749759574075
 20
120.4116625750802
 30
0.0
 10
216.5760916583991
 20
120.4128093789003
 30
0.0
  0
SPLINE
  5
8F
330
1F
100
AcDbEntity
  8
0
  6
Continuous
 62
     7
370
    15
100
AcDbSpline
210
0.0
220
0.0
230
1.0
 70
     8
 71
     3
 72
    11
 73
     7
 74
     0
 42
0.00000001
 43
0.00000001
 12
1.0
 22
0.0
 32
0.0
 13
1.0
 23
0.0
 33
0.0
 40
0.0
 40
0.0
 40
0.0
 40
0.0
 40
0.0081164248813269
 40
0.326366913165795
 40
0.6627704327359056
 40
1.0
 40
1.0
 40
1.0
 40
1.0
 10
226.1414077990508
 20
121.1253763879321
 30
0.0
 10
226.1426003108609
 20
121.1241505845271
 30
0.0
 10
226.1905520142381
 20
121.0748602036904
 30
0.0
 10
226.2960355790026
 20
120.9673912247006
 30
0.0
 10
226.4674882707879
 20
120.7951261080149
 30
0.0
 10
226.5771593012649
 20
120.6872693578789
 30
0.0
 10
226.6320620589709
 20
120.633274852731
 30
0.0
  0
SPLINE
  5
90
330
1F
100
AcDbEntity
  8
0
  6
Continuous
 62
     7
370
    15
100
AcDbSpline
210
0.0
220
0.0
230
1.0
 70
     8
 71
     3
 72
    11
 73
     7
 74
     0
 42
0.00000001
 43
0.00000001
 12
1.0
 22
0.0
 32
0.0
 13
1.0
 23
0.0
 33
0.0
 40
0.0
 40
0.0
 40
0.0
 40
0.0
 40
0.3372320075204445
 40
0.6736331763957153
 40
0.9918833460658769
 40
1.0
 40
1.0
 40
1.0
 40
1.0
 10
216.7950083427882
 20
130.4643355081461
 30
0.0
 10
216.8499124829756
 20
130.4085889084162
 30
0.0
 10
216.9595854959962
 20
130.2972330518787
 30
0.0
 10
217.1310384226844
 20
130.1268028085738
 30
0.0
 10
217.2365235007266
 20
130.0234555466032
 30
0.0
 10
217.2844738167115
 20
129.9768810035001
 30
0.0
 10
217.2856663279986
 20
129.9757227073095
 30
0.0
  0
SPLINE
  5
91
330
1F
100
AcDbEntity
  8
0
  6
Continuous
 62
     7
370
    15
100
AcDbSpline
210
0.0
220
0.0
230
1.0
 70
     8
 71
     3
 72
    11
 73
     7
 74
     0
 42
0.00000001
 43
0.00000001
 12
1.0
 22
0.0
 32
0.0
 13
1.0
 23
0.0
 33
0.0
 40
0.0
 40
0.0
 40
0.0
 40
0.0
 40
0.0076289455189135
 40
0.320989585527049
 40
0.6632162410095636
 40
0.9999999999999999
 40
0.9999999999999999
 40
0.9999999999999999
 40
0.9999999999999999
 10
226.8509824686503
 20
130.6814417014502
 30
0.0
 10
226.8520981705112
 20
130.6825250611514
 30
0.0
 10
226.8990415753379
 20
130.7281076623904
 30
0.0
 10
227.0030951733996
 20
130.8299675335766
 30
0.0
 10
227.1725448890364
 20
130.9980405366631
 30
0.0
 10
227.2844218415369
 20
131.1112768843358
 30
0.0
 10
227.3399119191623
 20
131.1674412111423
 30
0.0
  0
CIRCLE
  5
92
330
1F
100
AcDbEntity
  8
0
  6
Continuous
 62
     7
370
    15
100
AcDbCircle
 10
221.6327569604
 20
125.4732932228
 30
0.0
 40
3.499157100740811
  0
CIRCLE
  5
93
330
1F
100
AcDbEntity
  8
0
  6
Continuous
 62
     7
370
    15
100
AcDbCircle
 10
221.6329919086
 20
125.4903652848
 30
0.0
 40
2.633324002093151
  0
CIRCLE
  5
94
330
1F
100
AcDbEntity
  8
0
  6
Continuous
 62
     7
370
    15
100
AcDbCircle
 10
221.6331598054
 20
125.4901021065
 30
0.0
 40
1.999498658307531
  0
SPLINE
  5
95
330
1F
100
AcDbEntity
  8
0
  6
Continuous
 62
     7
370
    15
100
AcDbSpline
210
0.0
220
0.0
230
1.0
 70
     8
 71
     3
 72
    15
 73
    11
 74
     0
 42
0.00000001
 43
0.00000001
 12
1.0
 22
0.0
 32
0.0
 13
1.0
 23
0.0
 33
0.0
 40
0.0
 40
0.0
 40
0.0
 40
0.0
 40
0.1262462844139582
 40
0.2533625184495443
 40
0.3794184894719134
 40
0.5042692189677955
 40
0.6284500809340001
 40
0.7526363406059687
 40
0.8774901768089889
 40
1.0
 40
1.0
 40
1.0
 40
1.0
 10
223.109211485908
 20
124.6232963869951
 30
0.0
 10
223.1535426551523
 20
124.6246599333027
 30
0.0
 10
223.242510474979
 20
124.6273964219695
 30
0.0
 10
223.365515355499
 20
124.6872945365723
 30
0.0
 10
223.4622896194915
 20
124.7814412727993
 30
0.0
 10
223.5219621892912
 20
124.9021768869649
 30
0.0
 10
223.5386111524039
 20
125.0348763216902
 30
0.0
 10
223.5104513163441
 20
125.1644836747727
 30
0.0
 10
223.4431350552829
 20
125.2793037789274
 30
0.0
 10
223.3729052691974
 20
125.3298849958588
 30
0.0
 10
223.3381231241679
 20
125.3549359510324
 30
0.0
  0
SPLINE
  5
96
330
1F
100
AcDbEntity
  8
0
  6
Continuous
 62
     7
370
    15
100
AcDbSpline
210
0.0
220
0.0
230
1.0
 70
     8
 71
     3
 72
    12
 73
     8
 74
     0
 42
0.00000001
 43
0.00000001
 12
1.0
 22
0.0
 32
0.0
 13
1.0
 23
0.0
 33
0.0
 40
0.0
 40
0.0
 40
0.0
 40
0.0
 40
0.2058765948842134
 40
0.4121003936591365
 40
0.614169403069169
 40
0.8132910396147464
 40
1.0
 40
1.0
 40
1.0
 40
1.0
 10
223.3381231241679
 20
125.3549359510324
 30
0.0
 10
223.2758354225744
 20
125.4000000802566
 30
0.0
 10
223.1511549732924
 20
125.4902043378296
 30
0.0
 10
223.0336914114554
 20
125.6951471713497
 30
0.0
 10
222.9881134144936
 20
125.92139738943
 30
0.0
 10
223.0142878295279
 20
126.1464354757833
 30
0.0
 10
223.0844269317763
 20
126.2731941984448
 30
0.0
 10
223.1183682494616
 20
126.3345345626257
 30
0.0
  0
SPLINE
  5
97
330
1F
100
AcDbEntity
  8
0
  6
Continuous
 62
     7
370
    15
100
AcDbSpline
210
0.0
220
0.0
230
1.0
 70
     8
 71
     3
 72
    15
 73
    11
 74
     0
 42
0.00000001
 43
0.00000001
 12
1.0
 22
0.0
 32
0.0
 13
1.0
 23
0.0
 33
0.0
 40
0.0
 40
0.0
 40
0.0
 40
0.0
 40
0.1268770280347517
 40
0.2539938424875213
 40
0.3800504216136377
 40
0.5049013354525276
 40
0.6290836529597884
 40
0.7532674350037133
 40
0.8781189894048784
 40
1.0
 40
1.0
 40
1.0
 40
1.0
 10
223.1183682494616
 20
126.3345345626257
 30
0.0
 10
223.1396452870835
 20
126.3739100248885
 30
0.0
 10
223.1822395740559
 20
126.4527353655727
 30
0.0
 10
223.192058022206
 20
126.5896513648143
 30
0.0
 10
223.1589243258889
 20
126.7205877469291
 30
0.0
 10
223.0840314904063
 20
126.8325266224859
 30
0.0
 10
222.9771277757435
 20
126.9130472069908
 30
0.0
 10
222.8503808451425
 20
126.9531004383676
 30
0.0
 10
222.7170173158849
 20
126.9517656458317
 30
0.0
 10
222.6378995334877
 20
126.9161013609952
 30
0.0
 10
222.5988169126963
 20
126.898483909168
 30
0.0
  0
SPLINE
  5
98
330
1F
100
AcDbEntity
  8
0
  6
Continuous
 62
     7
370
    15
100
AcDbSpline
210
0.0
220
0.0
230
1.0
 70
     8
 71
     3
 72
    12
 73
     8
 74
     0
 42
0.00000001
 43
0.00000001
 12
1.0
 22
0.0
 32
0.0
 13
1.0
 23
0.0
 33
0.0
 40
0.0
 40
0.0
 40
0.0
 40
0.0
 40
0.2057924752488945
 40
0.4119985369886632
 40
0.6140548992160447
 40
0.8131809230010082
 40
1.0
 40
1.0
 40
1.0
 40
1.0
 10
222.5988169126963
 20
126.898483909168
 30
0.0
 10
222.5283036841824
 20
126.8669163295494
 30
0.0
 10
222.387135514885
 20
126.8037177281262
 30
0.0
 10
222.1502912435058
 20
126.8041716461316
 30
0.0
 10
221.9314831031074
 20
126.8778329830027
 30
0.0
 10
221.750103980342
 20
127.0133412692489
 30
0.0
 10
221.6759565438921
 20
127.1378355951832
 30
0.0
 10
221.6400650256133
 20
127.1980978320024
 30
0.0
  0
SPLINE
  5
99
330
1F
100
AcDbEntity
  8
0
  6
Continuous
 62
     7
370
    15
100
AcDbSpline
210
0.0
220
0.0
230
1.0
 70
     8
 71
     3
 72
    15
 73
    11
 74
     0
 42
0.00000001
 43
0.00000001
 12
1.0
 22
0.0
 32
0.0
 13
1.0
 23
0.0
 33
0.0
 40
0.0
 40
0.0
 40
0.0
 40
0.0
 40
0.126802335806709
 40
0.2539248797166551
 40
0.3799848414432532
 40
0.5048417038807445
 40
0.629022505186087
 40
0.7532059422053128
 40
0.8780556505753985
 40
1.0
 40
1.0
 40
1.0
 40
1.0
 10
221.6400650256133
 20
127.1980978320024
 30
0.0
 10
221.6168012872637
 20
127.2362949411799
 30
0.0
 10
221.5702150637168
 20
127.3127856169369
 30
0.0
 10
221.4569632748578
 20
127.3900089209568
 30
0.0
 10
221.3272140399366
 20
127.4269845420738
 30
0.0
 10
221.1928512891172
 20
127.4182123099973
 30
0.0
 10
221.0695116848314
 20
127.3659108927022
 30
0.0
 10
220.9711309077122
 20
127.2760905577352
 30
0.0
 10
220.905130115293
 20
127.1597365787083
 30
0.0
 10
220.8960758754382
 20
127.0731776002005
 30
0.0
 10
220.8916020505881
 20
127.0304076145075
 30
0.0
  0
SPLINE
  5
9A
330
1F
100
AcDbEntity
  8
0
  6
Continuous
 62
     7
370
    15
100
AcDbSpline
210
0.0
220
0.0
230
1.0
 70
     8
 71
     3
 72
    12
 73
     8
 74
     0
 42
0.00000001
 43
0.00000001
 12
1.0
 22
0.0
 32
0.0
 13
1.0
 23
0.0
 33
0.0
 40
0.0
 40
0.0
 40
0.0
 40
0.0
 40
0.2058515472000417
 40
0.4120534873550052
 40
0.614107520143511
 40
0.8132433603089975
 40
1.0
 40
1.0
 40
1.0
 40
1.0
 10
220.8916020505881
 20
127.0304076145075
 30
0.0
 10
220.8833488038742
 20
126.9533722042573
 30
0.0
 10
220.8668282620724
 20
126.7991702569066
 30
0.0
 10
220.7474256978797
 20
126.5940827142275
 30
0.0
 10
220.5742221164125
 20
126.4415749334027
 30
0.0
 10
220.3667107696245
 20
126.3527142792275
 30
0.0
 10
220.2224308103507
 20
126.3511689440009
 30
0.0
 10
220.1526050382113
 20
126.3504210631035
 30
0.0
  0
SPLINE
  5
9B
330
1F
100
AcDbEntity
  8
0
  6
Continuous
 62
     7
370
    15
100
AcDbSpline
210
0.0
220
0.0
230
1.0
 70
     8
 71
     3
 72
    15
 73
    11
 74
     0
 42
0.00000001
 43
0.00000001
 12
1.0
 22
0.0
 32
0.0
 13
1.0
 23
0.0
 33
0.0
 40
0.0
 40
0.0
 40
0.0
 40
0.0
 40
0.1262568872738077
 40
0.2533823932253462
 40
0.3794477576941714
 40
0.5043018881255664
 40
0.6284826931439422
 40
0.7526645852206847
 40
0.8775128077545636
 40
1.0
 40
1.0
 40
1.0
 40
1.0
 10
220.1526050382113
 20
126.3504210631035
 30
0.0
 10
220.1082711177054
 20
126.3495241337148
 30
0.0
 10
220.0192982694007
 20
126.3477241042672
 30
0.0
 10
219.8962907501204
 20
126.2888410366963
 30
0.0
 10
219.7995109691592
 20
126.1953347505238
 30
0.0
 10
219.7398481485693
 20
126.0747933146111
 30
0.0
 10
219.723204809295
 20
125.9418600177016
 30
0.0
 10
219.7513732454516
 20
125.811597197254
 30
0.0
 10
219.8186901154972
 20
125.695771226818
 30
0.0
 10
219.8889132685012
 20
125.6442809017661
 30
0.0
 10
219.9236896746611
 20
125.6187814990662
 30
0.0
  0
SPLINE
  5
9C
330
1F
100
AcDbEntity
  8
0
  6
Continuous
 62
     7
370
    15
100
AcDbSpline
210
0.0
220
0.0
230
1.0
 70
     8
 71
     3
 72
    12
 73
     8
 74
     0
 42
0.00000001
 43
0.00000001
 12
1.0
 22
0.0
 32
0.0
 13
1.0
 23
0.0
 33
0.0
 40
0.0
 40
0.0
 40
0.0
 40
0.0
 40
0.2058714438277555
 40
0.4120935920170821
 40
0.6141695064099217
 40
0.8133068590588168
 40
1.0
 40
1.0
 40
1.0
 40
1.0
 10
219.9236896746611
 20
125.6187814990662
 30
0.0
 10
219.9859756516345
 20
125.5729158129407
 30
0.0
 10
220.110653710456
 20
125.4811063079685
 30
0.0
 10
220.2281231543141
 20
125.2748787285966
 30
0.0
 10
220.2737054915184
 20
125.0487181943719
 30
0.0
 10
220.2475242750128
 20
124.8250385454926
 30
0.0
 10
220.1773837087611
 20
124.6997882048163
 30
0.0
 10
220.1434445493674
 20
124.6391828874729
 30
0.0
  0
SPLINE
  5
9D
330
1F
100
AcDbEntity
  8
0
  6
Continuous
 62
     7
370
    15
100
AcDbSpline
210
0.0
220
0.0
230
1.0
 70
     8
 71
     3
 72
    15
 73
    11
 74
     0
 42
0.00000001
 43
0.00000001
 12
1.0
 22
0.0
 32
0.0
 13
1.0
 23
0.0
 33
0.0
 40
0.0
 40
0.0
 40
0.0
 40
0.0
 40
0.1268712715589519
 40
0.2539820514904402
 40
0.3800304208280447
 40
0.5048761918372149
 40
0.6290545253160507
 40
0.7532391562612125
 40
0.8780974078372313
 40
1.0
 40
1.0
 40
1.0
 40
1.0
 10
220.1434445493674
 20
124.6391828874729
 30
0.0
 10
220.1221694696849
 20
124.6002766386235
 30
0.0
 10
220.0795791470926
 20
124.522390693467
 30
0.0
 10
220.0697536947349
 20
124.3865045501719
 30
0.0
 10
220.1028867355123
 20
124.2562143829826
 30
0.0
 10
220.1777701807275
 20
124.1444782143873
 30
0.0
 10
220.2846682614051
 20
124.0637211535755
 30
0.0
 10
220.4114112731995
 20
124.0230002022663
 30
0.0
 10
220.5447821317721
 20
124.0233104527265
 30
0.0
 10
220.6239072169496
 20
124.0580646046359
 30
0.0
 10
220.6629958861327
 20
124.0752335409306
 30
0.0
  0
SPLINE
  5
9E
330
1F
100
AcDbEntity
  8
0
  6
Continuous
 62
     7
370
    15
100
AcDbSpline
210
0.0
220
0.0
230
1.0
 70
     8
 71
     3
 72
    12
 73
     8
 74
     0
 42
0.00000001
 43
0.00000001
 12
1.0
 22
0.0
 32
0.0
 13
1.0
 23
0.0
 33
0.0
 40
0.0
 40
0.0
 40
0.0
 40
0.0
 40
0.2058309421167732
 40
0.4120751176410447
 40
0.6141681901837275
 40
0.8133029213244518
 40
1.0
 40
1.0
 40
1.0
 40
1.0
 10
220.6629958861327
 20
124.0752335409306
 30
0.0
 10
220.7335202451986
 20
124.1060027575527
 30
0.0
 10
220.8747105505034
 20
124.1676029641537
 30
0.0
 10
221.1115882442504
 20
124.1658446287687
 30
0.0
 10
221.3304185805058
 20
124.0922412739775
 30
0.0
 10
221.5117620576834
 20
123.9580759328911
 30
0.0
 10
221.5858823135006
 20
123.8351171589938
 30
0.0
 10
221.6217477732157
 20
123.7756196180962
 30
0.0
  0
SPLINE
  5
9F
330
1F
100
AcDbEntity
  8
0
  6
Continuous
 62
     7
370
    15
100
AcDbSpline
210
0.0
220
0.0
230
1.0
 70
     8
 71
     3
 72
    15
 73
    11
 74
     0
 42
0.00000001
 43
0.00000001
 12
1.0
 22
0.0
 32
0.0
 13
1.0
 23
0.0
 33
0.0
 40
0.0
 40
0.0
 40
0.0
 40
0.0
 40
0.12678692289978
 40
0.2538936905717107
 40
0.3799406447618544
 40
0.5047846514106009
 40
0.628961308067617
 40
0.7531510100651464
 40
0.8780099454649788
 40
1.0
 40
1.0
 40
1.0
 40
1.0
 10
221.6217477732157
 20
123.7756196180962
 30
0.0
 10
221.6450092644043
 20
123.7378933810788
 30
0.0
 10
221.6915909284355
 20
123.6623457352439
 30
0.0
 10
221.8048322657738
 20
123.5861486071191
 30
0.0
 10
221.9345689521685
 20
123.5498101315802
 30
0.0
 10
222.0689235657995
 20
123.5587714566361
 30
0.0
 10
222.192261281937
 20
123.6108257078755
 30
0.0
 10
222.2906586214545
 20
123.699967938462
 30
0.0
 10
222.3566730270545
 20
123.8153160061105
 30
0.0
 10
222.3657332739318
 20
123.900977076973
 30
0.0
 10
222.3702107482409
 20
123.9433098355911
 30
0.0
  0
SPLINE
  5
A0
330
1F
100
AcDbEntity
  8
0
  6
Continuous
 62
     7
370
    15
100
AcDbSpline
210
0.0
220
0.0
230
1.0
 70
     8
 71
     3
 72
    12
 73
     8
 74
     0
 42
0.00000001
 43
0.00000001
 12
1.0
 22
0.0
 32
0.0
 13
1.0
 23
0.0
 33
0.0
 40
0.0
 40
0.0
 40
0.0
 40
0.0
 40
0.2058905234596809
 40
0.4121338433163272
 40
0.6142226104699422
 40
0.813346548709571
 40
0.9999999999999999
 40
0.9999999999999999
 40
0.9999999999999999
 40
0.9999999999999999
 10
222.3702107482409
 20
123.9433098355911
 30
0.0
 10
222.3784663758996
 20
124.0195547117553
 30
0.0
 10
222.3949917773547
 20
124.1721751107844
 30
0.0
 10
222.5144258351858
 20
124.3759965274787
 30
0.0
 10
222.6876718159542
 20
124.5285965371852
 30
0.0
 10
222.8951800112137
 20
124.6187752879932
 30
0.0
 10
223.0394218963408
 20
124.6218221849219
 30
0.0
 10
223.109211485908
 20
124.6232963869951
 30
0.0
  0
LWPOLYLINE
  5
A1
330
1F
100
AcDbEntity
  8
0
  6
Continuous
 62
     7
370
    15
100
AcDbPolyline
 90
        3
 70
   128
 43
0.0
 10
220.0756219142
 20
124.3607360641
 10
220.0889249258
 20
124.4621887575
 10
220.1434445494
 20
124.5816066633
  0
ARC
  5
A2
330
1F
100
AcDbEntity
  8
0
  6
Continuous
 62
     7
370
    15
100
AcDbCircle
 10
223.1377969062
 20
124.9584473541
 30
0.0
 40
0.393720941319197
100
AcDbArc
 50
0.0068292378
 51
59.4158990922
  0
ARC
  5
A3
330
1F
100
AcDbEntity
  8
0
  6
Continuous
 62
     7
370
    15
100
AcDbCircle
 10
219.5733512474
 20
124.9681463939
 30
0.0
 40
0.6887810510429522
100
AcDbArc
 50
325.861595205
 51
359.9986151648
  0
ARC
  5
A4
330
1F
100
AcDbEntity
  8
0
  6
Continuous
 62
     7
370
    15
100
AcDbCircle
 10
223.6887481207
 20
125.8905867479
 30
0.0
 40
0.689067630251942
100
AcDbArc
 50
180.0098087328
 51
239.4134234678
  0
ARC
  5
A5
330
1F
100
AcDbEntity
  8
0
  6
Continuous
 62
     7
370
    15
100
AcDbCircle
 10
220.1241990285
 20
125.8999737735
 30
0.0
 40
0.3939003713029128
100
AcDbArc
 50
85.8645419405
 51
179.9807507831
  0
ARC
  5
A6
330
1F
100
AcDbEntity
  8
0
  6
Continuous
 62
     7
370
    15
100
AcDbCircle
 10
222.7921986002
 20
126.4976408656
 30
0.0
 40
0.3940165574454276
100
AcDbArc
 50
6.7793418926
 51
119.392903301
  0
LINE
  5
A7
330
1F
100
AcDbEntity
  8
0
  6
Continuous
 62
     7
370
    15
100
AcDbLine
 10
220.8916020506
 20
126.9728444288
 30
0.0
 11
220.8916020506
 21
127.0304076145
 31
0.0
  0
ARC
  5
A8
330
1F
100
AcDbEntity
  8
0
  6
Continuous
 62
     7
370
    15
100
AcDbCircle
 10
220.2023141578
 20
126.9803830237
 30
0.0
 40
0.6893291155469448
100
AcDbArc
 50
265.8646792252
 51
359.3733932476
  0
ARC
  5
A9
330
1F
100
AcDbEntity
  8
0
  6
Continuous
 62
     7
370
    15
100
AcDbCircle
 10
221.2856080839
 20
126.9684361302
 30
0.0
 40
0.3940306934054524
100
AcDbArc
 50
25.8988127484
 51
179.3589784222
  0
ARC
  5
AA
330
1F
100
AcDbEntity
  8
0
  6
Continuous
 62
     7
370
    15
100
AcDbCircle
 10
222.2604274363
 20
127.4419045509
 30
0.0
 40
0.6896875011654876
100
AcDbArc
 50
205.9097637488
 51
299.3827700863
  0
ARC
  5
AB
330
1F
100
AcDbEntity
  8
0
  6
Continuous
 62
     7
370
    15
100
AcDbCircle
 10
221.6342650284
 20
125.4662105182
 30
0.0
 40
3.499511617418008
100
AcDbArc
 50
252.5720501369
 51
359.9775829239
  0
ARC
  5
AC
330
1F
100
AcDbEntity
  8
0
  6
Continuous
 62
     7
370
    15
100
AcDbCircle
 10
221.6318293113
 20
125.4654488151
 30
0.0
 40
3.498055996135563
100
AcDbArc
 50
180.009950225
 51
252.6063774113
  0
LINE
  5
AD
330
1F
100
AcDbEntity
  8
0
  6
Continuous
 62
     7
370
    15
100
AcDbLine
 10
193.6089114212
 20
86.9060955713
 30
0.0
 11
193.6089114212
 21
117.3601286257
 31
0.0
  0
SPLINE
  5
AE
330
1F
100
AcDbEntity
  8
0
  6
Continuous
 62
     7
370
    15
100
AcDbSpline
210
0.0
220
0.0
230
1.0
 70
     8
 71
     3
 72
    10
 73
     6
 74
     0
 42
0.00000001
 43
0.00000001
 12
1.0
 22
0.0
 32
0.0
 13
1.0
 23
0.0
 33
0.0
 40
0.0
 40
0.0
 40
0.0
 40
0.0
 40
0.5
 40
0.5
 40
1.0
 40
1.0
 40
1.0
 40
1.0
 10
193.6089108520007
 20
86.90609644552438
 30
0.0
 10
193.6089108520007
 20
86.74646427662114
 30
0.0
 10
193.5472743382954
 20
86.58541464285709
 30
0.0
 10
193.3282479720525
 20
86.3524237591805
 30
0.0
 10
193.1706310840051
 20
86.2812437435815
 30
0.0
 10
193.0089108520007
 20
86.2812437435815
 30
0.0
  0
SPLINE
  5
AF
330
1F
100
AcDbEntity
  8
0
  6
Continuous
 62
     7
370
    15
100
AcDbSpline
210
0.0
220
0.0
230
1.0
 70
    24
 71
     3
 72
    12
 73
     8
 74
     0
 42
0.00000001
 43
0.00000001
 12
1.0
 22
0.0
 32
0.0
 13
1.0
 23
0.0
 33
0.0
 40
0.0
 40
0.0
 40
0.0
 40
0.0
 40
0.2499999999999994
 40
0.2499999999999994
 40
0.4999999999999989
 40
0.4999999999999989
 40
1.0
 40
1.0
 40
1.0
 40
1.0
 10
193.0089108520007
 20
117.3601282666109
 30
0.0
 10
193.0970977173695
 20
117.3601282666109
 30
0.0
 10
193.1857851106708
 20
117.3601282666109
 30
0.0
 10
193.3400376037897
 20
117.3601282666109
 30
0.0
 10
193.4053835848656
 20
117.3601282666109
 30
0.0
 10
193.5597934548167
 20
117.3601282666109
 30
0.0
 10
193.6089108520007
 20
117.3601282666109
 30
0.0
 10
193.6089108520007
 20
117.3601282666109
 30
0.0
  0
LINE
  5
B0
330
1F
100
AcDbEntity
  8
0
  6
Continuous
 62
     7
370
    15
100
AcDbLine
 10
181.6089113169
 20
117.3601286257
 30
0.0
 11
187.623751063
 21
117.3601286257
 31
0.0
  0
LINE
  5
B1
330
1F
100
AcDbEntity
  8
0
  6
Continuous
 62
     7
370
    15
100
AcDbLine
 10
187.623751063
 20
86.2812433163
 30
0.0
 11
187.623751063
 21
117.3601286257
 31
0.0
  0
LINE
  5
B2
330
1F
100
AcDbEntity
  8
0
  6
Continuous
 62
     7
370
    15
100
AcDbLine
 10
187.623751063
 20
86.2812433163
 30
0.0
 11
186.1089111232
 21
86.2812433163
 31
0.0
  0
SPLINE
  5
B3
330
1F
100
AcDbEntity
  8
0
  6
Continuous
 62
     7
370
    15
100
AcDbSpline
210
0.0
220
0.0
230
1.0
 70
     8
 71
     3
 72
    22
 73
    18
 74
     0
 42
0.00000001
 43
0.00000001
 12
1.0
 22
0.0
 32
0.0
 13
1.0
 23
0.0
 33
0.0
 40
0.0
 40
0.0
 40
0.0
 40
0.0
 40
0.125
 40
0.125
 40
0.25
 40
0.25
 40
0.375
 40
0.375
 40
0.5
 40
0.5
 40
0.625
 40
0.625
 40
0.75
 40
0.75
 40
0.875
 40
0.875
 40
1.0
 40
1.0
 40
1.0
 40
1.0
 10
186.1089108520007
 20
86.28124374358151
 30
0.0
 10
185.8097864229601
 20
86.28124374358151
 30
0.0
 10
185.5159639747113
 20
86.2727296425151
 30
0.0
 10
184.9383996984649
 20
86.24028587363323
 30
0.0
 10
184.6515820206509
 20
86.21595198493118
 30
0.0
 10
184.1071194917517
 20
86.15549196017436
 30
0.0
 10
183.8491642211303
 20
86.11957853939585
 30
0.0
 10
183.3611062777704
 20
86.03986851332672
 30
0.0
 10
183.1314079791067
 20
85.99599021213739
 30
0.0
 10
182.7189889961541
 20
85.9077465897672
 30
0.0
 10
182.5334620532939
 20
85.86293824830624
 30
0.0
 10
182.2049420083931
 20
85.77561724038705
 30
0.0
 10
182.0665281214937
 20
85.7343264518114
 30
0.0
 10
181.8419359748777
 20
85.65998822851758
 30
0.0
 10
181.7548571627535
 20
85.6265781027829
 30
0.0
 10
181.6383553547984
 20
85.57155870125676
 30
0.0
 10
181.6089108520007
 20
85.55009693479052
 30
0.0
 10
181.6089108520007
 20
85.53514391117272
 30
0.0
  0
LINE
  5
B4
330
1F
100
AcDbEntity
  8
0
  6
Continuous
 62
     7
370
    15
100
AcDbLine
 10
181.6089113169
 20
85.535144038
 30
0.0
 11
181.6089113169
 21
85.5101287136
 31
0.0
  0
SPLINE
  5
B5
330
1F
100
AcDbEntity
  8
0
  6
Continuous
 62
     7
370
    15
100
AcDbSpline
210
0.0
220
0.0
230
1.0
 70
     8
 71
     3
 72
    17
 73
    13
 74
     0
 42
0.00000001
 43
0.00000001
 12
1.0
 22
0.0
 32
0.0
 13
1.0
 23
0.0
 33
0.0
 40
0.0
 40
0.0
 40
0.0
 40
0.0
 40
0.1039928149931941
 40
0.211050797947968
 40
0.315030024669631
 40
0.4219351868122974
 40
0.5275775927633417
 40
0.6362134531400181
 40
0.7429488821168505
 40
0.8528788227495517
 40
0.9578277247781112
 40
1.0
 40
1.0
 40
1.0
 40
1.0
 10
186.1089111232018
 20
124.9973043570898
 30
0.0
 10
185.8630940389768
 20
125.0000201916829
 30
0.0
 10
185.3642144598604
 20
125.0055319095645
 30
0.0
 10
184.6407309163357
 20
125.04861566834
 30
0.0
 10
183.9529355601279
 20
125.1124822805215
 30
0.0
 10
183.3281901879937
 20
125.1918177965464
 30
0.0
 10
182.7722393849314
 20
125.2787565883147
 30
0.0
 10
182.3102528783641
 20
125.3627161796337
 30
0.0
 10
181.9479877470924
 20
125.4358790487247
 30
0.0
 10
181.7162087763387
 20
125.4860160890163
 30
0.0
 10
181.6066428320555
 20
125.5106361863988
 30
0.0
 10
181.62047370742
 20
125.5075310383336
 30
0.0
 10
181.6244383268809
 20
125.5066409478567
 30
0.0
  0
LINE
  5
B6
330
1F
100
AcDbEntity
  8
0
  6
Continuous
 62
     7
370
    15
100
AcDbLine
 10
187.623751063
 20
124.9973043571
 30
0.0
 11
186.1089111232
 21
124.9973043571
 31
0.0
  0
LINE
  5
B7
330
1F
100
AcDbEntity
  8
0
  6
Continuous
 62
     7
370
    15
100
AcDbLine
 10
187.623751063
 20
121.6215375582
 30
0.0
 11
187.623751063
 21
124.9973043571
 31
0.0
  0
LINE
  5
B8
330
1F
100
AcDbEntity
  8
0
  6
Continuous
 62
     7
370
    15
100
AcDbLine
 10
186.1025809237
 20
121.6215375582
 30
0.0
 11
187.623751063
 21
121.6215375582
 31
0.0
  0
SPLINE
  5
B9
330
1F
100
AcDbEntity
  8
0
  6
Continuous
 62
     7
370
    15
100
AcDbSpline
210
0.0
220
0.0
230
1.0
 70
     8
 71
     3
 72
    22
 73
    18
 74
     0
 42
0.00000001
 43
0.00000001
 12
1.0
 22
0.0
 32
0.0
 13
1.0
 23
0.0
 33
0.0
 40
0.0
 40
0.0
 40
0.0
 40
0.0
 40
0.2499999999999999
 40
0.2499999999999999
 40
0.3749999999999999
 40
0.3749999999999999
 40
0.4999999999999999
 40
0.4999999999999999
 40
0.6249999999999999
 40
0.6249999999999999
 40
0.7499999999999998
 40
0.7499999999999998
 40
0.8749999999999998
 40
0.8749999999999998
 40
0.9374999999999999
 40
0.9374999999999999
 40
1.0
 40
1.0
 40
1.0
 40
1.0
 10
181.6089108520007
 20
117.3601282666109
 30
0.0
 10
181.6308918699873
 20
117.9230009085089
 30
0.0
 10
181.7098687533421
 20
118.4536257922385
 30
0.0
 10
181.9562666463744
 20
119.19933678316
 30
0.0
 10
182.0607912614654
 20
119.4409570095587
 30
0.0
 10
182.3226378567719
 20
119.8998157848847
 30
0.0
 10
182.4778544789377
 20
120.1139944573545
 30
0.0
 10
182.8464462320016
 20
120.5112230165
 30
0.0
 10
183.0625799244665
 20
120.6956678515198
 30
0.0
 10
183.5464744194534
 20
121.0167476994034
 30
0.0
 10
183.8169399644612
 20
121.1560985295094
 30
0.0
 10
184.4131665299713
 20
121.385404063935
 30
0.0
 10
184.7286597966913
 20
121.4719400734114
 30
0.0
 10
185.2293764447098
 20
121.5608296777426
 30
0.0
 10
185.402172879325
 20
121.5836381836043
 30
0.0
 10
185.750541652107
 20
121.6139293463005
 30
0.0
 10
185.9259426810175
 20
121.6215372676884
 30
0.0
 10
186.1025813267054
 20
121.6215372676884
 30
0.0
  0
LINE
  5
BA
330
1F
100
AcDbEntity
  8
0
  6
Continuous
 62
     7
370
    15
100
AcDbLine
 10
191.6940712296
 20
86.2812433163
 30
0.0
 11
191.6940712296
 21
117.3601286257
 31
0.0
  0
SPLINE
  5
BB
330
1F
100
AcDbEntity
  8
0
  6
Continuous
 62
     7
370
    15
100
AcDbSpline
210
0.0
220
0.0
230
1.0
 70
     8
 71
     3
 72
     8
 73
     4
 74
     0
 42
0.00000001
 43
0.00000001
 12
1.0
 22
0.0
 32
0.0
 13
1.0
 23
0.0
 33
0.0
 40
0.0
 40
0.0
 40
0.0
 40
0.0
 40
1.0
 40
1.0
 40
1.0
 40
1.0
 10
191.6940705508941
 20
86.2812437435815
 30
0.0
 10
191.3613652791888
 20
86.88061541680517
 30
0.0
 10
191.0295494786153
 20
87.4804845275102
 30
0.0
 10
190.6989108520007
 20
88.08100487862119
 30
0.0
  0
LINE
  5
BC
330
1F
100
AcDbEntity
  8
0
  6
Continuous
 62
     7
370
    15
100
AcDbLine
 10
190.6989102178
 20
88.0810055653
 30
0.0
 11
190.6989102178
 21
117.3601286257
 31
0.0
  0
SPLINE
  5
BD
330
1F
100
AcDbEntity
  8
0
  6
Continuous
 62
     7
370
    15
100
AcDbSpline
210
0.0
220
0.0
230
1.0
 70
    24
 71
     3
 72
     8
 73
     4
 74
     0
 42
0.00000001
 43
0.00000001
 12
1.0
 22
0.0
 32
0.0
 13
1.0
 23
0.0
 33
0.0
 40
0.0
 40
0.0
 40
0.0
 40
0.0
 40
1.0
 40
1.0
 40
1.0
 40
1.0
 10
190.6989108520007
 20
117.3601282666109
 30
0.0
 10
191.0225475076229
 20
117.3601282666109
 30
0.0
 10
191.3550377291395
 20
117.3601282666109
 30
0.0
 10
191.6940705508941
 20
117.3601282666109
 30
0.0
  0
LINE
  5
BE
330
1F
100
AcDbEntity
  8
0
  6
Continuous
 62
     7
370
    15
100
AcDbLine
 10
193.0089105778
 20
86.2812433163
 30
0.0
 11
191.6940712296
 21
86.2812433163
 31
0.0
  0
LINE
  5
BF
330
1F
100
AcDbEntity
  8
0
  6
Continuous
 62
     7
370
    15
100
AcDbLine
 10
191.6940712296
 20
117.3601286257
 30
0.0
 11
193.0089105778
 21
117.3601286257
 31
0.0
  0
LINE
  5
C0
330
1F
100
AcDbEntity
  8
0
  6
Continuous
 62
     7
370
    15
100
AcDbLine
 10
188.6189111435
 20
88.0810055653
 30
0.0
 11
188.6189111435
 21
117.3601286257
 31
0.0
  0
SPLINE
  5
C1
330
1F
100
AcDbEntity
  8
0
  6
Continuous
 62
     7
370
    15
100
AcDbSpline
210
0.0
220
0.0
230
1.0
 70
     8
 71
     3
 72
     8
 73
     4
 74
     0
 42
0.00000001
 43
0.00000001
 12
1.0
 22
0.0
 32
0.0
 13
1.0
 23
0.0
 33
0.0
 40
0.0
 40
0.0
 40
0.0
 40
0.0
 40
1.0
 40
1.0
 40
1.0
 40
1.0
 10
188.6189108520007
 20
88.0810048786212
 30
0.0
 10
188.2882722253861
 20
87.4804845275102
 30
0.0
 10
187.9564564248126
 20
86.88061541680517
 30
0.0
 10
187.6237511531072
 20
86.28124374358151
 30
0.0
  0
SPLINE
  5
C2
330
1F
100
AcDbEntity
  8
0
  6
Continuous
 62
     7
370
    15
100
AcDbSpline
210
0.0
220
0.0
230
1.0
 70
    24
 71
     3
 72
     8
 73
     4
 74
     0
 42
0.00000001
 43
0.00000001
 12
1.0
 22
0.0
 32
0.0
 13
1.0
 23
0.0
 33
0.0
 40
0.0
 40
0.0
 40
0.0
 40
0.0
 40
1.0
 40
1.0
 40
1.0
 40
1.0
 10
187.6237511531072
 20
117.3601282666109
 30
0.0
 10
187.9627839748618
 20
117.3601282666109
 30
0.0
 10
188.2952741963784
 20
117.3601282666109
 30
0.0
 10
188.6189108520007
 20
117.3601282666109
 30
0.0
  0
LINE
  5
C3
330
1F
100
AcDbEntity
  8
0
  6
Continuous
 62
     7
370
    15
100
AcDbLine
 10
173.658910852
 20
85.810128204
 30
0.0
 11
173.658910852
 21
125.2101283292
 31
0.0
  0
SPLINE
  5
C4
330
1F
100
AcDbEntity
  8
0
  6
Continuous
 62
     7
370
    15
100
AcDbSpline
210
0.0
220
0.0
230
1.0
 70
    24
 71
     3
 72
    16
 73
    12
 74
     0
 42
0.00000001
 43
0.00000001
 12
1.0
 22
0.0
 32
0.0
 13
1.0
 23
0.0
 33
0.0
 40
0.0
 40
0.0
 40
0.0
 40
0.0
 40
0.5000000000000016
 40
0.5000000000000016
 40
0.7500000000000016
 40
0.7500000000000016
 40
0.8750000000000008
 40
0.8750000000000008
 40
0.9375000000000004
 40
0.9375000000000004
 40
1.0
 40
1.0
 40
1.0
 40
1.0
 10
190.6636884514194
 20
88.61012826661091
 30
0.0
 10
190.6336520318928
 20
88.6101282666109
 30
0.0
 10
190.587017934688
 20
88.6101282666109
 30
0.0
 10
190.4766335231093
 20
88.61012826661091
 30
0.0
 10
190.4332958745887
 20
88.61012826661091
 30
0.0
 10
190.3448142402041
 20
88.6101282666109
 30
0.0
 10
190.3114387355874
 20
88.61012826661091
 30
0.0
 10
190.2469465261369
 20
88.61012826661091
 30
0.0
 10
190.2227421889503
 20
88.61012826661091
 30
0.0
 10
190.1669883791399
 20
88.6101282666109
 30
0.0
 10
190.1334043530716
 20
88.61012826661091
 30
0.0
 10
190.0989108520007
 20
88.61012826661091
 30
0.0
  0
SPLINE
  5
C5
330
1F
100
AcDbEntity
  8
0
  6
Continuous
 62
     7
370
    15
100
AcDbSpline
210
0.0
220
0.0
230
1.0
 70
    24
 71
     3
 72
    12
 73
     8
 74
     0
 42
0.00000001
 43
0.00000001
 12
1.0
 22
0.0
 32
0.0
 13
1.0
 23
0.0
 33
0.0
 40
0.0
 40
0.0
 40
0.0
 40
0.0
 40
0.25
 40
0.25
 40
0.5
 40
0.5
 40
1.0
 40
1.0
 40
1.0
 40
1.0
 10
190.0989108520007
 20
117.3601282666109
 30
0.0
 10
190.1915689415069
 20
117.3601282666109
 30
0.0
 10
190.2836323510646
 20
117.3601282666109
 30
0.0
 10
190.4377899015554
 20
117.3601282666109
 30
0.0
 10
190.5022788349201
 20
117.3601282666109
 30
0.0
 10
190.6523303838696
 20
117.3601282666109
 30
0.0
 10
190.6989108520007
 20
117.3601282666109
 30
0.0
 10
190.6989108520007
 20
117.3601282666109
 30
0.0
  0
SPLINE
  5
C6
330
1F
100
AcDbEntity
  8
0
  6
Continuous
 62
     7
370
    15
100
AcDbSpline
210
0.0
220
0.0
230
1.0
 70
    24
 71
     3
 72
    16
 73
    12
 74
     0
 42
0.00000001
 43
0.00000001
 12
1.0
 22
0.0
 32
0.0
 13
1.0
 23
0.0
 33
0.0
 40
0.0
 40
0.0
 40
0.0
 40
0.0
 40
0.0625000000000008
 40
0.0625000000000008
 40
0.1250000000000016
 40
0.1250000000000016
 40
0.2500000000000013
 40
0.2500000000000013
 40
0.5000000000000006
 40
0.5000000000000006
 40
1.0
 40
1.0
 40
1.0
 40
1.0
 10
189.2189108519741
 20
88.61012826661091
 30
0.0
 10
189.1844321847889
 20
88.6101282666109
 30
0.0
 10
189.150612007952
 20
88.61012826661091
 30
0.0
 10
189.0940899407684
 20
88.61012826661091
 30
0.0
 10
189.0697638612421
 20
88.61012826661091
 30
0.0
 10
189.0053109616908
 20
88.61012826661091
 30
0.0
 10
188.9716826863322
 20
88.6101282666109
 30
0.0
 10
188.8836053708074
 20
88.61012826661091
 30
0.0
 10
188.8407859175398
 20
88.61012826661091
 30
0.0
 10
188.7301292833427
 20
88.61012826661091
 30
0.0
 10
188.6838966973988
 20
88.61012826661091
 30
0.0
 10
188.654133252582
 20
88.61012826661091
 30
0.0
  0
SPLINE
  5
C7
330
1F
100
AcDbEntity
  8
0
  6
Continuous
 62
     7
370
    15
100
AcDbSpline
210
0.0
220
0.0
230
1.0
 70
    24
 71
     3
 72
    12
 73
     8
 74
     0
 42
0.00000001
 43
0.00000001
 12
1.0
 22
0.0
 32
0.0
 13
1.0
 23
0.0
 33
0.0
 40
0.0
 40
0.0
 40
0.0
 40
0.0
 40
0.5
 40
0.5
 40
0.75
 40
0.75
 40
1.0
 40
1.0
 40
1.0
 40
1.0
 10
188.6189108520007
 20
117.3601282666109
 30
0.0
 10
188.6189108520007
 20
117.3601282666109
 30
0.0
 10
188.665906949509
 20
117.3601282666109
 30
0.0
 10
188.8154128875092
 20
117.3601282666109
 30
0.0
 10
188.8799315100677
 20
117.3601282666109
 30
0.0
 10
189.0343712027966
 20
117.3601282666109
 30
0.0
 10
189.1253095907996
 20
117.3601282666109
 30
0.0
 10
189.2189108520007
 20
117.3601282666109
 30
0.0
  0
SPLINE
  5
C8
330
1F
100
AcDbEntity
  8
0
  6
Continuous
 62
     7
370
    15
100
AcDbSpline
210
0.0
220
0.0
230
1.0
 70
    24
 71
     3
 72
    14
 73
    10
 74
     0
 42
0.00000001
 43
0.00000001
 12
1.0
 22
0.0
 32
0.0
 13
1.0
 23
0.0
 33
0.0
 40
0.0
 40
0.0
 40
0.0
 40
0.0
 40
0.125
 40
0.125
 40
0.2500000000000001
 40
0.2500000000000001
 40
0.5000000000000001
 40
0.5000000000000001
 40
1.0
 40
1.0
 40
1.0
 40
1.0
 10
193.8089108519865
 20
122.4101282666109
 30
0.0
 10
193.8089110606241
 20
122.4101282666109
 30
0.0
 10
193.8065346874805
 20
122.4101282666109
 30
0.0
 10
193.7973867744598
 20
122.4101282666109
 30
0.0
 10
193.7906208701725
 20
122.4101282666109
 30
0.0
 10
193.7651814433754
 20
122.4101282666109
 30
0.0
 10
193.7412884091253
 20
122.4101282666109
 30
0.0
 10
193.6663542092396
 20
122.4101282666109
 30
0.0
 10
193.6111277398735
 20
122.4101282666109
 30
0.0
 10
193.608972975124
 20
122.4101282666109
 30
0.0
  0
SPLINE
  5
C9
330
1F
100
AcDbEntity
  8
0
  6
Continuous
 62
     7
370
    15
100
AcDbSpline
210
0.0
220
0.0
230
1.0
 70
    24
 71
     3
 72
    10
 73
     6
 74
     0
 42
0.00000001
 43
0.00000001
 12
1.0
 22
0.0
 32
0.0
 13
1.0
 23
0.0
 33
0.0
 40
0.0
 40
0.0
 40
0.0
 40
0.0
 40
0.0000106528673042
 40
0.8612726141677749
 40
1.0
 40
1.0
 40
1.0
 40
1.0
 10
193.8089110814786
 20
88.61012903551082
 30
0.0
 10
193.8089110814803
 20
88.61012903551082
 30
0.0
 10
193.8089112218109
 20
88.61012903558276
 30
0.0
 10
193.769378196289
 20
88.61012903550662
 30
0.0
 10
193.7190111012574
 20
88.61012903551031
 30
0.0
 10
193.7120237313962
 20
88.61012903551082
 30
0.0
  0
SPLINE
  5
CA
330
1F
100
AcDbEntity
  8
0
  6
Continuous
 62
     7
370
    15
100
AcDbSpline
210
0.0
220
0.0
230
1.0
 70
    24
 71
     3
 72
    12
 73
     8
 74
     0
 42
0.00000001
 43
0.00000001
 12
1.0
 22
0.0
 32
0.0
 13
1.0
 23
0.0
 33
0.0
 40
0.0
 40
0.0
 40
0.0
 40
0.0
 40
0.5
 40
0.5
 40
0.75
 40
0.75
 40
1.0
 40
1.0
 40
1.0
 40
1.0
 10
193.6089108520007
 20
117.3601282666109
 30
0.0
 10
193.6089108520007
 20
117.3601282666109
 30
0.0
 10
193.6361316001283
 20
117.3601282666109
 30
0.0
 10
193.7165780459012
 20
117.3601282666109
 30
0.0
 10
193.7500252743793
 20
117.3601282666109
 30
0.0
 10
193.8324348441535
 20
117.3601282666109
 30
0.0
 10
193.8817179410372
 20
117.3601282666109
 30
0.0
 10
193.9380345636738
 20
117.3601282666109
 30
0.0
  0
SPLINE
  5
CB
330
1F
100
AcDbEntity
  8
0
  6
Continuous
 62
     7
370
    15
100
AcDbSpline
210
0.0
220
0.0
230
1.0
 70
     8
 71
     3
 72
    10
 73
     6
 74
     0
 42
0.00000001
 43
0.00000001
 12
1.0
 22
0.0
 32
0.0
 13
1.0
 23
0.0
 33
0.0
 40
0.0
 40
0.0
 40
0.0
 40
0.0
 40
0.5
 40
0.5
 40
1.0
 40
1.0
 40
1.0
 40
1.0
 10
193.6089108520007
 20
118.3875309550415
 30
0.0
 10
193.6089108520007
 20
118.2048222429065
 30
0.0
 10
193.6358841857087
 20
118.0213139531458
 30
0.0
 10
193.7434745534945
 20
117.6730099748251
 30
0.0
 10
193.8249390978377
 20
117.5048223922822
 30
0.0
 10
193.9380345636735
 20
117.3601282666095
 30
0.0
  0
LINE
  5
CC
330
1F
100
AcDbEntity
  8
0
  6
Continuous
 62
     7
370
    15
100
AcDbLine
 10
190.098911237
 20
88.6101290355
 30
0.0
 11
189.2189110556
 21
88.6101290355
 31
0.0
  0
LINE
  5
CD
330
1F
100
AcDbEntity
  8
0
  6
Continuous
 62
     7
370
    15
100
AcDbLine
 10
189.2189110556
 20
117.3601286257
 30
0.0
 11
190.098911237
 21
117.3601286257
 31
0.0
  0
ELLIPSE
  5
CE
330
1F
100
AcDbEntity
  8
0
  6
Continuous
 62
     7
370
    15
100
AcDbEllipse
 10
202.7001619933
 20
114.5038379555
 30
0.0
 11
0.1866316782056857
 21
2.643744201837023
 31
0.0
210
0.0
220
0.0
230
1.0
 40
0.2269344014
 41
0.0
 42
6.283185307179586
  0
ELLIPSE
  5
CF
330
1F
100
AcDbEntity
  8
0
  6
Continuous
 62
     7
370
    15
100
AcDbEllipse
 10
204.8310109771
 20
105.5101282666
 30
0.0
 11
-0.1662137056450206
 21
16.49993997746708
 31
0.0
210
0.0
220
0.0
230
1.0
 40
0.2677607417
 41
0.1827824951153725
 42
2.883602375174765
  0
SPLINE
  5
D0
330
1F
100
AcDbEntity
  8
0
  6
Continuous
 62
     7
370
    15
100
AcDbSpline
210
0.0
220
0.0
230
1.0
 70
     8
 71
     3
 72
    16
 73
    12
 74
     0
 42
0.00000001
 43
0.00000001
 12
1.0
 22
0.0
 32
0.0
 13
1.0
 23
0.0
 33
0.0
 40
0.0
 40
0.0
 40
0.0
 40
0.0
 40
0.25
 40
0.25
 40
0.5
 40
0.5
 40
0.75
 40
0.75
 40
0.875
 40
0.875
 40
1.0
 40
1.0
 40
1.0
 40
1.0
 10
207.7282188039165
 20
122.009994299216
 30
0.0
 10
207.2857697005868
 20
122.009994299216
 30
0.0
 10
206.8554804047396
 20
122.0101690757237
 30
0.0
 10
206.0191568338425
 20
122.0053108553542
 30
0.0
 10
205.6340985075279
 20
122.0002811116025
 30
0.0
 10
204.9362639185557
 20
121.9707838188199
 30
0.0
 10
204.6386959715705
 20
121.9467053791573
 30
0.0
 10
204.2755134172311
 20
121.8844888013147
 30
0.0
 10
204.1699819800866
 20
121.8595374164079
 30
0.0
 10
203.992837753101
 20
121.8006456003118
 30
0.0
 10
203.920476918288
 20
121.7665888372172
 30
0.0
 10
203.8645154987602
 20
121.7271182804851
 30
0.0
  0
SPLINE
  5
D1
330
1F
100
AcDbEntity
  8
0
  6
Continuous
 62
     7
370
    15
100
AcDbSpline
210
0.0
220
0.0
230
1.0
 70
     8
 71
     3
 72
    14
 73
    10
 74
     0
 42
0.00000001
 43
0.00000001
 12
1.0
 22
0.0
 32
0.0
 13
1.0
 23
0.0
 33
0.0
 40
0.0
 40
0.0
 40
0.0
 40
0.0
 40
0.2500000000000015
 40
0.2500000000000015
 40
0.500000000000003
 40
0.500000000000003
 40
0.7500000000000014
 40
0.7500000000000014
 40
1.0
 40
1.0
 40
1.0
 40
1.0
 10
203.8645154987602
 20
89.54490393603113
 30
0.0
 10
203.9764328416099
 20
89.43681297113027
 30
0.0
 10
204.1524839048605
 20
89.35215813200976
 30
0.0
 10
204.6375988497765
 20
89.21778380548312
 30
0.0
 10
204.9340180072746
 20
89.17150219966668
 30
0.0
 10
205.6321263882258
 20
89.10426179159589
 30
0.0
 10
206.0175208534914
 20
89.08474520625148
 30
0.0
 10
206.8528552475449
 20
89.0599541446212
 30
0.0
 10
207.2857766084418
 20
89.0550931789691
 30
0.0
 10
207.7282188039165
 20
89.05509317896909
 30
0.0
  0
LINE
  5
D2
330
1F
100
AcDbEntity
  8
0
  6
Continuous
 62
     7
370
    15
100
AcDbLine
 10
207.7282180005
 20
89.0550926099
 30
0.0
 11
207.8915831559
 21
89.0550926099
 31
0.0
  0
LINE
  5
D3
330
1F
100
AcDbEntity
  8
0
  6
Continuous
 62
     7
370
    15
100
AcDbLine
 10
207.8915831559
 20
122.0099940668
 30
0.0
 11
207.8915831559
 21
122.0101281772
 31
0.0
  0
LINE
  5
D4
330
1F
100
AcDbEntity
  8
0
  6
Continuous
 62
     7
370
    15
100
AcDbLine
 10
207.8915831559
 20
122.0099940668
 30
0.0
 11
207.7282180005
 21
122.0099940668
 31
0.0
  0
LINE
  5
D5
330
1F
100
AcDbEntity
  8
0
  6
Continuous
 62
     7
370
    15
100
AcDbLine
 10
171.658910757
 20
90.4064276958
 30
0.0
 11
171.658910757
 21
120.6138288374
 31
0.0
  0
LINE
  5
D6
330
1F
100
AcDbEntity
  8
0
  6
Continuous
 62
     7
370
    15
100
AcDbLine
 10
159.8589110114
 20
90.9976098458
 30
0.0
 11
159.8589110114
 21
91.9065518076
 31
0.0
  0
SPLINE
  5
D7
330
1F
100
AcDbEntity
  8
0
  6
Continuous
 62
     7
370
    15
100
AcDbSpline
210
0.0
220
0.0
230
1.0
 70
     8
 71
     3
 72
    10
 73
     6
 74
     0
 42
0.00000001
 43
0.00000001
 12
1.0
 22
0.0
 32
0.0
 13
1.0
 23
0.0
 33
0.0
 40
0.0
 40
0.0
 40
0.0
 40
0.0
 40
0.5
 40
0.5
 40
1.0
 40
1.0
 40
1.0
 40
1.0
 10
159.5676756495154
 20
92.57612491940297
 30
0.0
 10
159.6055500524601
 20
92.44996281135032
 30
0.0
 10
159.6863410997859
 20
92.33200377036843
 30
0.0
 10
159.8114710423773
 20
92.10895778777945
 30
0.0
 10
159.8589108520007
 20
92.00416271428409
 30
0.0
 10
159.8589108520007
 20
91.90655208088668
 30
0.0
  0
SPLINE
  5
D8
330
1F
100
AcDbEntity
  8
0
  6
Continuous
 62
     7
370
    15
100
AcDbSpline
210
0.0
220
0.0
230
1.0
 70
     8
 71
     3
 72
    16
 73
    12
 74
     0
 42
0.00000001
 43
0.00000001
 12
1.0
 22
0.0
 32
0.0
 13
1.0
 23
0.0
 33
0.0
 40
0.0
 40
0.0
 40
0.0
 40
0.0
 40
0.0625
 40
0.0625
 40
0.125
 40
0.125
 40
0.2500000000000008
 40
0.2500000000000008
 40
0.5000000000000009
 40
0.5000000000000009
 40
1.0
 40
1.0
 40
1.0
 40
1.0
 10
158.9589108520009
 20
93.22625496805803
 30
0.0
 10
158.9902266513282
 20
93.22885958995009
 30
0.0
 10
159.0229409897538
 20
93.22709068949011
 30
0.0
 10
159.0842475432306
 20
93.2155557950401
 30
0.0
 10
159.1127584334486
 20
93.20602881769388
 30
0.0
 10
159.1886524068048
 20
93.17251521756896
 30
0.0
 10
159.2279919918379
 20
93.1441277032491
 30
0.0
 10
159.3294277728192
 20
93.05610675304122
 30
0.0
 10
159.3742531324251
 20
92.99447410083405
 30
0.0
 10
159.4885354873903
 20
92.81108590715891
 30
0.0
 10
159.5333493952331
 20
92.69046791269406
 30
0.0
 10
159.5676756495154
 20
92.57612491940297
 30
0.0
  0
SPLINE
  5
D9
330
1F
100
AcDbEntity
  8
0
  6
Continuous
 62
     7
370
    15
100
AcDbSpline
210
0.0
220
0.0
230
1.0
 70
     8
 71
     3
 72
    10
 73
     6
 74
     0
 42
0.00000001
 43
0.00000001
 12
1.0
 22
0.0
 32
0.0
 13
1.0
 23
0.0
 33
0.0
 40
0.0
 40
0.0
 40
0.0
 40
0.0
 40
0.5
 40
0.5
 40
1.0
 40
1.0
 40
1.0
 40
1.0
 10
154.869119417285
 20
92.79894800415975
 30
0.0
 10
155.5273774281875
 20
92.89187270947677
 30
0.0
 10
156.2047197367246
 20
92.96780782659935
 30
0.0
 10
157.5740657504058
 20
93.10662591213702
 30
0.0
 10
158.2653858312783
 20
93.1685725684235
 30
0.0
 10
158.9589108520013
 20
93.22625496805806
 30
0.0
  0
SPLINE
  5
DA
330
1F
100
AcDbEntity
  8
0
  6
Continuous
 62
     7
370
    15
100
AcDbSpline
210
0.0
220
0.0
230
1.0
 70
     8
 71
     3
 72
     8
 73
     4
 74
     0
 42
0.00000001
 43
0.00000001
 12
1.0
 22
0.0
 32
0.0
 13
1.0
 23
0.0
 33
0.0
 40
0.0000002108190109
 40
0.0000002108190109
 40
0.0000002108190109
 40
0.0000002108190109
 40
0.0001710235456397
 40
0.0001710235456397
 40
0.0001710235456397
 40
0.0001710235456397
 10
154.7089108520007
 20
92.77959271565152
 30
0.0
 10
154.7628990380906
 20
92.78522285825507
 30
0.0
 10
154.8164886981664
 20
92.7915182517166
 30
0.0
 10
154.8691194172851
 20
92.79894800415975
 30
0.0
  0
SPLINE
  5
DB
330
1F
100
AcDbEntity
  8
0
  6
Continuous
 62
     7
370
    15
100
AcDbSpline
210
0.0
220
0.0
230
1.0
 70
     8
 71
     3
 72
     8
 73
     4
 74
     0
 42
0.00000001
 43
0.00000001
 12
1.0
 22
0.0
 32
0.0
 13
1.0
 23
0.0
 33
0.0
 40
0.000003532078448
 40
0.000003532078448
 40
0.000003532078448
 40
0.000003532078448
 40
0.0000638548434643
 40
0.0000638548434643
 40
0.0000638548434643
 40
0.0000638548434643
 10
154.7003947024316
 20
92.80695056706733
 30
0.0
 10
154.7029438735538
 20
92.79778936372861
 30
0.0
 10
154.7057857963355
 20
92.78866836041988
 30
0.0
 10
154.7089108520007
 20
92.77959271565153
 30
0.0
  0
ELLIPSE
  5
DC
330
1F
100
AcDbEntity
  8
0
  6
Continuous
 62
     7
370
    15
100
AcDbEllipse
 10
141.2321686442
 20
104.8708305888
 30
0.0
 11
13.37355272666625
 21
-13.3714635298701
 31
0.0
210
0.0
220
0.0
230
1.0
 40
0.1761188775
 41
0.3023035477142418
 42
0.3822730435340268
  0
ELLIPSE
  5
DD
330
1F
100
AcDbEntity
  8
0
  6
Continuous
 62
     7
370
    15
100
AcDbEllipse
 10
141.1527902135
 20
106.1492387179
 30
0.0
 11
13.36963611134303
 21
13.36754752639483
 31
0.0
210
0.0
220
0.0
230
1.0
 40
0.1761188775
 41
5.933076931846599
 42
5.976720052691192
  0
SPLINE
  5
DE
330
1F
100
AcDbEntity
  8
0
  6
Continuous
 62
     7
370
    15
100
AcDbSpline
210
0.0
220
0.0
230
1.0
 70
     8
 71
     3
 72
     8
 73
     4
 74
     0
 42
0.00000001
 43
0.00000001
 12
1.0
 22
0.0
 32
0.0
 13
1.0
 23
0.0
 33
0.0
 40
0.0
 40
0.0
 40
0.0
 40
0.0
 40
1.0
 40
1.0
 40
1.0
 40
1.0
 10
154.7089108520007
 20
118.3757088135892
 30
0.0
 10
154.6631459443114
 20
118.3141884344304
 30
0.0
 10
154.6287588226814
 20
118.250293574681
 30
0.0
 10
154.6097435690085
 20
118.1835636296372
 30
0.0
  0
SPLINE
  5
DF
330
1F
100
AcDbEntity
  8
0
  6
Continuous
 62
     7
370
    15
100
AcDbSpline
210
0.0
220
0.0
230
1.0
 70
     8
 71
     3
 72
    12
 73
     8
 74
     0
 42
0.00000001
 43
0.00000001
 12
1.0
 22
0.0
 32
0.0
 13
1.0
 23
0.0
 33
0.0
 40
0.0
 40
0.0
 40
0.0
 40
0.0
 40
0.25
 40
0.25
 40
0.5
 40
0.5
 40
1.0
 40
1.0
 40
1.0
 40
1.0
 10
156.4589108520007
 20
118.2909221252701
 30
0.0
 10
156.3168684488115
 20
118.3067478534463
 30
0.0
 10
156.1727503423074
 20
118.3177689872216
 30
0.0
 10
155.8829958286348
 20
118.3363053490888
 30
0.0
 10
155.737253925276
 20
118.3435760548246
 30
0.0
 10
155.2985736860962
 20
118.3620369051526
 30
0.0
 10
155.004198070025
 20
118.3699157719761
 30
0.0
 10
154.7089108520007
 20
118.3757088135892
 30
0.0
  0
SPLINE
  5
E0
330
1F
100
AcDbEntity
  8
0
  6
Continuous
 62
     7
370
    15
100
AcDbSpline
210
0.0
220
0.0
230
1.0
 70
     8
 71
     3
 72
    20
 73
    16
 74
     0
 42
0.00000001
 43
0.00000001
 12
1.0
 22
0.0
 32
0.0
 13
1.0
 23
0.0
 33
0.0
 40
0.0
 40
0.0
 40
0.0
 40
0.0
 40
0.2500000000000003
 40
0.2500000000000003
 40
0.5000000000000007
 40
0.5000000000000007
 40
0.750000000000001
 40
0.750000000000001
 40
0.8750000000000002
 40
0.8750000000000002
 40
0.9374999999999996
 40
0.9374999999999996
 40
0.9687499999999999
 40
0.9687499999999999
 40
1.0
 40
1.0
 40
1.0
 40
1.0
 10
157.3589108520016
 20
119.0676523883588
 30
0.0
 10
157.3589108520016
 20
119.0070429886614
 30
0.0
 10
157.3335158324247
 20
118.9412170232578
 30
0.0
 10
157.2472226466428
 20
118.8071692539112
 30
0.0
 10
157.1865866679595
 20
118.7384738957694
 30
0.0
 10
157.0384848737382
 20
118.598075344115
 30
0.0
 10
156.9517152669596
 20
118.5263718395336
 30
0.0
 10
156.8030774716304
 20
118.4202084377848
 30
0.0
 10
156.7507882547442
 20
118.3846800891533
 30
0.0
 10
156.6600244264343
 20
118.3349761586378
 30
0.0
 10
156.6276584339823
 20
118.3187151606226
 30
0.0
 10
156.5699692783161
 20
118.2996025922767
 30
0.0
 10
156.5489822504286
 20
118.2942114501952
 30
0.0
 10
156.5036932714382
 20
118.2884740818027
 30
0.0
 10
156.4806790025997
 20
118.2884968154561
 30
0.0
 10
156.458910852
 20
118.2909221252689
 30
0.0
  0
LINE
  5
E1
330
1F
100
AcDbEntity
  8
0
  6
Continuous
 62
     7
370
    15
100
AcDbLine
 10
157.3589106017
 20
119.0676526869
 30
0.0
 11
157.3589106017
 21
119.8973959083
 31
0.0
  0
SPLINE
  5
E2
330
1F
100
AcDbEntity
  8
0
  6
Continuous
 62
     7
370
    15
100
AcDbSpline
210
0.0
220
0.0
230
1.0
 70
     8
 71
     3
 72
    24
 73
    20
 74
     0
 42
0.00000001
 43
0.00000001
 12
1.0
 22
0.0
 32
0.0
 13
1.0
 23
0.0
 33
0.0
 40
0.0
 40
0.0
 40
0.0
 40
0.0
 40
0.0016643193296813
 40
0.0648792890554526
 40
0.127882629835479
 40
0.1913652263153964
 40
0.2543782098387403
 40
0.3163193264594876
 40
0.3777469775702122
 40
0.4397082275190884
 40
0.5014189034197821
 40
0.562536076452263
 40
0.6237133677268287
 40
0.6863020174790898
 40
0.7490598999921412
 40
0.811592469235191
 40
0.8743360189604256
 40
0.9379727054607176
 40
1.0
 40
1.0
 40
1.0
 40
1.0
 10
164.8434537389135
 20
90.7481616134427
 30
0.0
 10
164.842976348088
 20
90.74809320260773
 30
0.0
 10
164.8243664714799
 20
90.74542637884555
 30
0.0
 10
164.8875070082891
 20
90.75514094168363
 30
0.0
 10
165.0395497653716
 20
90.77734564789161
 30
0.0
 10
165.3074752806365
 20
90.81178139942503
 30
0.0
 10
165.6567890578233
 20
90.85024441009426
 30
0.0
 10
166.0838401197474
 20
90.88447246304163
 30
0.0
 10
166.5712797481624
 20
90.90692502288175
 30
0.0
 10
167.1029301131036
 20
90.91051901061277
 30
0.0
 10
167.6540507156046
 20
90.89350538135955
 30
0.0
 10
168.2015087063913
 20
90.85355961591638
 30
0.0
 10
168.7261429361469
 20
90.79445200325974
 30
0.0
 10
169.2079313345468
 20
90.72208756583858
 30
0.0
 10
169.6328799265565
 20
90.64576689436043
 30
0.0
 10
169.9790962400173
 20
90.57378294836937
 30
0.0
 10
170.2341745521485
 20
90.51539592220567
 30
0.0
 10
170.3943699442859
 20
90.47573626589913
 30
0.0
 10
170.4150040066826
 20
90.47091159043539
 30
0.0
 10
170.4251889065659
 20
90.46853014776926
 30
0.0
  0
SPLINE
  5
E3
330
1F
100
AcDbEntity
  8
0
  6
Continuous
 62
     7
370
    15
100
AcDbSpline
210
0.0
220
0.0
230
1.0
 70
     8
 71
     3
 72
    24
 73
    20
 74
     0
 42
0.00000001
 43
0.00000001
 12
1.0
 22
0.0
 32
0.0
 13
1.0
 23
0.0
 33
0.0
 40
0.0
 40
0.0
 40
0.0
 40
0.0
 40
0.0629034706215385
 40
0.1256338688179741
 40
0.1890239793713884
 40
0.2513957684939822
 40
0.3139906836130308
 40
0.3762905044722344
 40
0.4374458894592898
 40
0.498543195540241
 40
0.5603281747675228
 40
0.6223344559749604
 40
0.6838864964282686
 40
0.7458035579052691
 40
0.8089499376965126
 40
0.8723245876864573
 40
0.9353799443000518
 40
0.9988635323362688
 40
1.0
 40
1.0
 40
1.0
 40
1.0
 10
170.4241900631046
 20
120.5517273167751
 30
0.0
 10
170.4147194368297
 20
120.5493045275065
 30
0.0
 10
170.3958042417333
 20
120.5444656150246
 30
0.0
 10
170.2337529453291
 20
120.5044940238472
 30
0.0
 10
169.9772277045834
 20
120.4461500282748
 30
0.0
 10
169.6311715682902
 20
120.3739149302865
 30
0.0
 10
169.2072721753968
 20
120.2977656787744
 30
0.0
 10
168.7262892145589
 20
120.2256463772619
 30
0.0
 10
168.2023056575788
 20
120.1667588639541
 30
0.0
 10
167.6547077723718
 20
120.1268473413499
 30
0.0
 10
167.1032314563157
 20
120.1098115937347
 30
0.0
 10
166.5707901765343
 20
120.1133750648264
 30
0.0
 10
166.0828079648483
 20
120.1358083297933
 30
0.0
 10
165.6552958112159
 20
120.1700983446703
 30
0.0
 10
165.3063942564435
 20
120.208602139457
 30
0.0
 10
165.0391396359528
 20
120.2430581674117
 30
0.0
 10
164.886205331432
 20
120.2651409547498
 30
0.0
 10
164.8250956802684
 20
120.2749696665004
 30
0.0
 10
164.8426788439565
 20
120.2722059241043
 30
0.0
 10
164.8429880776262
 20
120.2721573183916
 30
0.0
  0
SPLINE
  5
E4
330
1F
100
AcDbEntity
  8
0
  6
Continuous
 62
     7
370
    15
100
AcDbSpline
210
0.0
220
0.0
230
1.0
 70
     8
 71
     3
 72
    26
 73
    22
 74
     0
 42
0.00000001
 43
0.00000001
 12
1.0
 22
0.0
 32
0.0
 13
1.0
 23
0.0
 33
0.0
 40
0.0
 40
0.0
 40
0.0
 40
0.0
 40
0.2499999999999949
 40
0.2499999999999949
 40
0.3749999999999919
 40
0.3749999999999919
 40
0.4374999999999897
 40
0.4374999999999897
 40
0.4687499999999896
 40
0.4687499999999896
 40
0.4999999999999894
 40
0.4999999999999894
 40
0.5312499999999892
 40
0.5312499999999892
 40
0.5624999999999891
 40
0.5624999999999891
 40
0.6249999999999906
 40
0.6249999999999906
 40
0.7499999999999938
 40
0.7499999999999938
 40
1.0
 40
1.0
 40
1.0
 40
1.0
 10
154.5188808983885
 20
117.8982088462238
 30
0.0
 10
154.4714927889601
 20
117.7625531042007
 30
0.0
 10
154.4138514870557
 20
117.6185917058715
 30
0.0
 10
154.2918036745124
 20
117.3758191326171
 30
0.0
 10
154.2457546667358
 20
117.2907794921677
 30
0.0
 10
154.1551013825702
 20
117.1504035191274
 30
0.0
 10
154.1207488822846
 20
117.1004921417886
 30
0.0
 10
154.0583137098941
 20
117.0239568769343
 30
0.0
 10
154.0350196910961
 20
116.9975523979474
 30
0.0
 10
153.9859671539695
 20
116.9499576326864
 30
0.0
 10
153.9615357043127
 20
116.9305150188345
 30
0.0
 10
153.9209061086929
 20
116.9056072411664
 30
0.0
 10
153.9047438268417
 20
116.8995374098555
 30
0.0
 10
153.8777617827386
 20
116.8938485382617
 30
0.0
 10
153.8670122599158
 20
116.8942390463424
 30
0.0
 10
153.8389762857587
 20
116.9003813931308
 30
0.0
 10
153.826115053726
 20
116.9110453995489
 30
0.0
 10
153.7951121925657
 20
116.950058189909
 30
0.0
 10
153.7842527104965
 20
116.9861101803134
 30
0.0
 10
153.7609754545585
 20
117.1037895778124
 30
0.0
 10
153.7589108520006
 20
117.1951194781454
 30
0.0
 10
153.7589108520006
 20
117.2883597310517
 30
0.0
  0
SPLINE
  5
E5
330
1F
100
AcDbEntity
  8
0
  6
Continuous
 62
     7
370
    15
100
AcDbSpline
210
0.0
220
0.0
230
1.0
 70
     8
 71
     3
 72
    24
 73
    20
 74
     0
 42
0.00000001
 43
0.00000001
 12
1.0
 22
0.0
 32
0.0
 13
1.0
 23
0.0
 33
0.0
 40
0.0
 40
0.0
 40
0.0
 40
0.0
 40
0.2499999999999979
 40
0.2499999999999979
 40
0.3749999999999968
 40
0.3749999999999968
 40
0.437499999999997
 40
0.437499999999997
 40
0.4999999999999972
 40
0.4999999999999972
 40
0.5312499999999984
 40
0.5312499999999984
 40
0.5624999999999996
 40
0.5624999999999996
 40
0.6250000000000007
 40
0.6250000000000007
 40
0.7500000000000016
 40
0.7500000000000016
 40
1.0
 40
1.0
 40
1.0
 40
1.0
 10
153.7589108520007
 20
93.96261506538954
 30
0.0
 10
153.7589108520007
 20
94.04752401905911
 30
0.0
 10
153.761635480433
 20
94.129853715106
 30
0.0
 10
153.787992801551
 20
94.232266102525
 30
0.0
 10
153.8002065198232
 20
94.2630831989094
 30
0.0
 10
153.8348171699556
 20
94.29218071498634
 30
0.0
 10
153.849203880323
 20
94.29913835562496
 30
0.0
 10
153.8904523634254
 20
94.2980286143481
 30
0.0
 10
153.9189919133562
 20
94.28973520873934
 30
0.0
 10
153.9799145788675
 20
94.24515177487811
 30
0.0
 10
154.0029805490074
 20
94.22469006162082
 30
0.0
 10
154.0468764290137
 20
94.18007744334048
 30
0.0
 10
154.0677564645738
 20
94.15620136513411
 30
0.0
 10
154.1249667278669
 20
94.0863042679721
 30
0.0
 10
154.1573133516433
 20
94.04072667918761
 30
0.0
 10
154.2434792951351
 20
93.91184319156872
 30
0.0
 10
154.2891433151752
 20
93.83201001443666
 30
0.0
 10
154.4096908786264
 20
93.60622920532435
 30
0.0
 10
154.4687509673275
 20
93.47139782035302
 30
0.0
 10
154.5188808983885
 20
93.3431426816855
 30
0.0
  0
LINE
  5
E6
330
1F
100
AcDbEntity
  8
0
  6
Continuous
 62
     7
370
    15
100
AcDbLine
 10
153.7589111292
 20
93.9626149605
 30
0.0
 11
153.7589111292
 21
117.2883599768
 31
0.0
  0
SPLINE
  5
E7
330
1F
100
AcDbEntity
  8
0
  6
Continuous
 62
     7
370
    15
100
AcDbSpline
210
0.0
220
0.0
230
1.0
 70
     8
 71
     3
 72
    10
 73
     6
 74
     0
 42
0.00000001
 43
0.00000001
 12
1.0
 22
0.0
 32
0.0
 13
1.0
 23
0.0
 33
0.0
 40
0.0
 40
0.0
 40
0.0
 40
0.0
 40
0.5
 40
0.5
 40
1.0
 40
1.0
 40
1.0
 40
1.0
 10
188.8672552377507
 20
122.4101282666109
 30
0.0
 10
188.7899305058764
 20
122.4680102674726
 30
0.0
 10
188.7265506803399
 20
122.5450836121065
 30
0.0
 10
188.6409802315669
 20
122.7195866703003
 30
0.0
 10
188.6189108520007
 20
122.8163918737808
 30
0.0
 10
188.6189108520007
 20
122.9127322384308
 30
0.0
  0
SPLINE
  5
E8
330
1F
100
AcDbEntity
  8
0
  6
Continuous
 62
     7
370
    15
100
AcDbSpline
210
0.0
220
0.0
230
1.0
 70
    24
 71
     3
 72
    12
 73
     8
 74
     0
 42
0.00000001
 43
0.00000001
 12
1.0
 22
0.0
 32
0.0
 13
1.0
 23
0.0
 33
0.0
 40
0.0
 40
0.0
 40
0.0
 40
0.0
 40
0.25
 40
0.25
 40
0.5
 40
0.5
 40
1.0
 40
1.0
 40
1.0
 40
1.0
 10
189.2189108520007
 20
122.4101282666109
 30
0.0
 10
189.1673186517261
 20
122.4101282666109
 30
0.0
 10
189.1204136429315
 20
122.4101282666109
 30
0.0
 10
189.047079917055
 20
122.4101282666109
 30
0.0
 10
189.017850087606
 20
122.4101282666109
 30
0.0
 10
188.9396173075431
 20
122.4101282666109
 30
0.0
 10
188.9011831496355
 20
122.4101282666109
 30
0.0
 10
188.8672552377506
 20
122.4101282666109
 30
0.0
  0
SPLINE
  5
E9
330
1F
100
AcDbEntity
  8
0
  6
Continuous
 62
     7
370
    15
100
AcDbSpline
210
0.0
220
0.0
230
1.0
 70
     8
 71
     3
 72
    12
 73
     8
 74
     0
 42
0.00000001
 43
0.00000001
 12
1.0
 22
0.0
 32
0.0
 13
1.0
 23
0.0
 33
0.0
 40
0.0
 40
0.0
 40
0.0
 40
0.0
 40
0.4999999999999987
 40
0.4999999999999987
 40
0.7499999999999993
 40
0.7499999999999993
 40
1.0
 40
1.0
 40
1.0
 40
1.0
 10
188.6189108520007
 20
119.0259754468657
 30
0.0
 10
188.6189108520007
 20
118.8402093702876
 30
0.0
 10
188.6654565972572
 20
118.6550360582973
 30
0.0
 10
188.815557545647
 20
118.4206254549538
 30
0.0
 10
188.879494361941
 20
118.3505295575416
 30
0.0
 10
189.0348620936707
 20
118.2478490397376
 30
0.0
 10
189.1261053765886
 20
118.2171391267621
 30
0.0
 10
189.2189108520007
 20
118.2171391267621
 30
0.0
  0
SPLINE
  5
EA
330
1F
100
AcDbEntity
  8
0
  6
Continuous
 62
     7
370
    15
100
AcDbSpline
210
0.0
220
0.0
230
1.0
 70
     8
 71
     3
 72
     8
 73
     4
 74
     0
 42
0.00000001
 43
0.00000001
 12
1.0
 22
0.0
 32
0.0
 13
1.0
 23
0.0
 33
0.0
 40
0.0
 40
0.0
 40
0.0
 40
0.0
 40
1.0
 40
1.0
 40
1.0
 40
1.0
 10
188.6189108520007
 20
123.2238049621411
 30
0.0
 10
188.287890520981
 20
123.8153606585988
 30
0.0
 10
187.9561092494969
 20
124.406493322844
 30
0.0
 10
187.6237511531072
 20
124.997303536516
 30
0.0
  0
SPLINE
  5
EB
330
1F
100
AcDbEntity
  8
0
  6
Continuous
 62
     7
370
    15
100
AcDbSpline
210
0.0
220
0.0
230
1.0
 70
     8
 71
     3
 72
     8
 73
     4
 74
     0
 42
0.00000001
 43
0.00000001
 12
1.0
 22
0.0
 32
0.0
 13
1.0
 23
0.0
 33
0.0
 40
0.0
 40
0.0
 40
0.0
 40
0.0
 40
1.0
 40
1.0
 40
1.0
 40
1.0
 10
187.6237511531072
 20
121.6215372676884
 30
0.0
 10
187.9631741943889
 20
120.891746406169
 30
0.0
 10
188.2956849378839
 20
120.1595780507473
 30
0.0
 10
188.6189108520006
 20
119.4242161660664
 30
0.0
  0
LINE
  5
EC
330
1F
100
AcDbEntity
  8
0
  6
Continuous
 62
     7
370
    15
100
AcDbLine
 10
188.6189111435
 20
119.4242160539
 30
0.0
 11
188.6189111435
 21
123.2238054047
 31
0.0
  0
SPLINE
  5
ED
330
1F
100
AcDbEntity
  8
0
  6
Continuous
 62
     7
370
    15
100
AcDbSpline
210
0.0
220
0.0
230
1.0
 70
     8
 71
     3
 72
     8
 73
     4
 74
     0
 42
0.00000001
 43
0.00000001
 12
1.0
 22
0.0
 32
0.0
 13
1.0
 23
0.0
 33
0.0
 40
0.0
 40
0.0
 40
0.0
 40
0.0
 40
1.0
 40
1.0
 40
1.0
 40
1.0
 10
191.6940705508941
 20
124.997303536516
 30
0.0
 10
191.3617124545044
 20
124.406493322844
 30
0.0
 10
191.0299311830203
 20
123.8153606585988
 30
0.0
 10
190.6989108520007
 20
123.2238049621411
 30
0.0
  0
LINE
  5
EE
330
1F
100
AcDbEntity
  8
0
  6
Continuous
 62
     7
370
    15
100
AcDbLine
 10
191.6940712296
 20
121.6215375582
 30
0.0
 11
191.6940712296
 21
124.9973043571
 31
0.0
  0
SPLINE
  5
EF
330
1F
100
AcDbEntity
  8
0
  6
Continuous
 62
     7
370
    15
100
AcDbSpline
210
0.0
220
0.0
230
1.0
 70
     8
 71
     3
 72
     8
 73
     4
 74
     0
 42
0.00000001
 43
0.00000001
 12
1.0
 22
0.0
 32
0.0
 13
1.0
 23
0.0
 33
0.0
 40
0.0
 40
0.0
 40
0.0
 40
0.0
 40
1.0
 40
1.0
 40
1.0
 40
1.0
 10
190.6989108520007
 20
119.4242161660663
 30
0.0
 10
191.0224684102556
 20
120.1603325646889
 30
0.0
 10
191.3549627304725
 20
120.8924241601075
 30
0.0
 10
191.6940705508941
 20
121.6215372676884
 30
0.0
  0
LINE
  5
F0
330
1F
100
AcDbEntity
  8
0
  6
Continuous
 62
     7
370
    15
100
AcDbLine
 10
190.6989102178
 20
119.4242160539
 30
0.0
 11
190.6989102178
 21
123.2238054047
 31
0.0
  0
SPLINE
  5
F1
330
1F
100
AcDbEntity
  8
0
  6
Continuous
 62
     7
370
    15
100
AcDbSpline
210
0.0
220
0.0
230
1.0
 70
     8
 71
     3
 72
    10
 73
     6
 74
     0
 42
0.00000001
 43
0.00000001
 12
1.0
 22
0.0
 32
0.0
 13
1.0
 23
0.0
 33
0.0
 40
0.0
 40
0.0
 40
0.0
 40
0.0
 40
0.5
 40
0.5
 40
1.0
 40
1.0
 40
1.0
 40
1.0
 10
193.6089108520007
 20
124.3810052997538
 30
0.0
 10
193.6089108520007
 20
124.5394397426416
 30
0.0
 10
193.5467496355177
 20
124.6984604374436
 30
0.0
 10
193.3262402948461
 20
124.9284682616993
 30
0.0
 10
193.167325191901
 20
124.997303536516
 30
0.0
 10
193.0089108520007
 20
124.997303536516
 30
0.0
  0
LINE
  5
F2
330
1F
100
AcDbEntity
  8
0
  6
Continuous
 62
     7
370
    15
100
AcDbLine
 10
193.6089114212
 20
120.8703858549
 30
0.0
 11
193.6089114212
 21
124.3810053686
 31
0.0
  0
SPLINE
  5
F3
330
1F
100
AcDbEntity
  8
0
  6
Continuous
 62
     7
370
    15
100
AcDbSpline
210
0.0
220
0.0
230
1.0
 70
     8
 71
     3
 72
    12
 73
     8
 74
     0
 42
0.00000001
 43
0.00000001
 12
1.0
 22
0.0
 32
0.0
 13
1.0
 23
0.0
 33
0.0
 40
0.0
 40
0.0
 40
0.0
 40
0.0
 40
0.25
 40
0.25
 40
0.5
 40
0.5
 40
1.0
 40
1.0
 40
1.0
 40
1.0
 10
193.0089108520007
 20
121.6215372676884
 30
0.0
 10
193.0981992110444
 20
121.6215372676884
 30
0.0
 10
193.1862580419466
 20
121.5959126350836
 30
0.0
 10
193.3389117551958
 20
121.5073692621518
 30
0.0
 10
193.4047052485378
 20
121.4444867790372
 30
0.0
 10
193.5601458952538
 20
121.2271255911036
 30
0.0
 10
193.6089108520007
 20
121.0484785810922
 30
0.0
 10
193.6089108520007
 20
120.8703854259166
 30
0.0
  0
LINE
  5
F4
330
1F
100
AcDbEntity
  8
0
  6
Continuous
 62
     7
370
    15
100
AcDbLine
 10
189.2189110556
 20
118.2171391095
 30
0.0
 11
190.098911237
 21
118.2171391095
 31
0.0
  0
SPLINE
  5
F5
330
1F
100
AcDbEntity
  8
0
  6
Continuous
 62
     7
370
    15
100
AcDbSpline
210
0.0
220
0.0
230
1.0
 70
     8
 71
     3
 72
    12
 73
     8
 74
     0
 42
0.00000001
 43
0.00000001
 12
1.0
 22
0.0
 32
0.0
 13
1.0
 23
0.0
 33
0.0
 40
0.0
 40
0.0
 40
0.0
 40
0.0
 40
0.249999999999999
 40
0.249999999999999
 40
0.499999999999998
 40
0.499999999999998
 40
1.0
 40
1.0
 40
1.0
 40
1.0
 10
190.0989108520007
 20
118.2171391267622
 30
0.0
 10
190.1914528187225
 20
118.2171391267622
 30
0.0
 10
190.2836621958669
 20
118.2481724736784
 30
0.0
 10
190.4387991562437
 20
118.3509833395032
 30
0.0
 10
190.5026090537048
 20
118.4211561538489
 30
0.0
 10
190.6517354895059
 20
118.6540686373769
 30
0.0
 10
190.6989108520007
 20
118.8408639994468
 30
0.0
 10
190.6989108520007
 20
119.0259754468657
 30
0.0
  0
LINE
  5
F6
330
1F
100
AcDbEntity
  8
0
  6
Continuous
 62
     7
370
    15
100
AcDbLine
 10
190.6989102178
 20
119.0259750704
 30
0.0
 11
190.6989102178
 21
119.4242160539
 31
0.0
  0
LINE
  5
F7
330
1F
100
AcDbEntity
  8
0
  6
Continuous
 62
     7
370
    15
100
AcDbLine
 10
191.6940712296
 20
121.6215375582
 30
0.0
 11
193.0089105778
 21
121.6215375582
 31
0.0
  0
LINE
  5
F8
330
1F
100
AcDbEntity
  8
0
  6
Continuous
 62
     7
370
    15
100
AcDbLine
 10
193.6089114212
 20
120.8703858549
 30
0.0
 11
193.6089114212
 21
118.3875310938
 31
0.0
  0
LINE
  5
F9
330
1F
100
AcDbEntity
  8
0
  6
Continuous
 62
     7
370
    15
100
AcDbLine
 10
188.6189111435
 20
119.4242160539
 30
0.0
 11
188.6189111435
 21
119.0259750704
 31
0.0
  0
LINE
  5
FA
330
1F
100
AcDbEntity
  8
0
  6
Continuous
 62
     7
370
    15
100
AcDbLine
 10
193.0089105778
 20
124.9973043571
 30
0.0
 11
191.6940712296
 21
124.9973043571
 31
0.0
  0
LINE
  5
FB
330
1F
100
AcDbEntity
  8
0
  6
Continuous
 62
     7
370
    15
100
AcDbLine
 10
190.098911237
 20
122.4101274977
 30
0.0
 11
189.2189110556
 21
122.4101274977
 31
0.0
  0
SPLINE
  5
FC
330
1F
100
AcDbEntity
  8
0
  6
Continuous
 62
     7
370
    15
100
AcDbSpline
210
0.0
220
0.0
230
1.0
 70
    24
 71
     3
 72
    12
 73
     8
 74
     0
 42
0.00000001
 43
0.00000001
 12
1.0
 22
0.0
 32
0.0
 13
1.0
 23
0.0
 33
0.0
 40
0.0
 40
0.0
 40
0.0
 40
0.0
 40
0.4999999999999981
 40
0.4999999999999981
 40
0.749999999999999
 40
0.749999999999999
 40
1.0
 40
1.0
 40
1.0
 40
1.0
 10
190.4505664662507
 20
122.4101282666109
 30
0.0
 10
190.4164207179597
 20
122.4101282666109
 30
0.0
 10
190.3772275595547
 20
122.4101282666109
 30
0.0
 10
190.299379900901
 20
122.4101282666109
 30
0.0
 10
190.2699754421156
 20
122.4101282666109
 30
0.0
 10
190.1969679208098
 20
122.4101282666109
 30
0.0
 10
190.1500626030019
 20
122.4101282666109
 30
0.0
 10
190.0989108520007
 20
122.4101282666109
 30
0.0
  0
SPLINE
  5
FD
330
1F
100
AcDbEntity
  8
0
  6
Continuous
 62
     7
370
    15
100
AcDbSpline
210
0.0
220
0.0
230
1.0
 70
     8
 71
     3
 72
    10
 73
     6
 74
     0
 42
0.00000001
 43
0.00000001
 12
1.0
 22
0.0
 32
0.0
 13
1.0
 23
0.0
 33
0.0
 40
0.0
 40
0.0
 40
0.0
 40
0.0
 40
0.5
 40
0.5
 40
1.0
 40
1.0
 40
1.0
 40
1.0
 10
190.6989108520007
 20
122.9127322384296
 30
0.0
 10
190.6989108520005
 20
122.8161896909531
 30
0.0
 10
190.6769702294191
 20
122.719728490683
 30
0.0
 10
190.5908400440272
 20
122.5443258964387
 30
0.0
 10
190.5277577368836
 20
122.4679103640717
 30
0.0
 10
190.4505664662507
 20
122.4101282666109
 30
0.0
  0
LINE
  5
FE
330
1F
100
AcDbEntity
  8
0
  6
Continuous
 62
     7
370
    15
100
AcDbLine
 10
153.7589111292
 20
93.6916559706
 30
0.0
 11
153.7589111292
 21
93.9626149605
 31
0.0
  0
LINE
  5
FF
330
1F
100
AcDbEntity
  8
0
  6
Continuous
 62
     7
370
    15
100
AcDbLine
 10
153.7589111292
 20
117.3840421955
 30
0.0
 11
153.7589111292
 21
117.2883599768
 31
0.0
  0
LINE
  5
100
330
1F
100
AcDbEntity
  8
0
  6
Continuous
 62
     7
370
    15
100
AcDbLine
 10
154.7089104467
 20
118.3901285524
 30
0.0
 11
154.7089104467
 21
118.375708885
 31
0.0
  0
LINE
  5
101
330
1F
100
AcDbEntity
  8
0
  6
Continuous
 62
     7
370
    15
100
AcDbLine
 10
153.7589111292
 20
117.4401283036
 30
0.0
 11
153.7589111292
 21
117.3840421955
 31
0.0
  0
LINE
  5
102
330
1F
100
AcDbEntity
  8
0
  6
Continuous
 62
     7
370
    15
100
AcDbLine
 10
154.7089104467
 20
92.6891281972
 30
0.0
 11
154.7089104467
 21
92.7795931468
 31
0.0
  0
LINE
  5
103
330
1F
100
AcDbEntity
  8
0
  6
Continuous
 62
     7
370
    15
100
AcDbLine
 10
153.7589111292
 20
93.6391284461
 30
0.0
 11
153.7589111292
 21
93.6916559706
 31
0.0
  0
ARC
  5
104
330
1F
100
AcDbEntity
  8
0
  6
Continuous
 62
     7
370
    15
100
AcDbCircle
 10
215.649127665
 20
119.4969618962
 30
0.0
 40
2.099360028884934
100
AcDbArc
 50
107.4100957711
 51
342.6247897257
  0
LINE
  5
105
330
1F
100
AcDbEntity
  8
0
  6
Continuous
 62
     7
370
    15
100
AcDbLine
 10
226.7666567975
 20
119.6404337654
 30
0.0
 11
225.7833068185
 21
108.4075568481
 31
0.0
  0
LINE
  5
106
330
1F
100
AcDbEntity
  8
0
  6
Continuous
 62
     7
370
    15
100
AcDbLine
 10
225.7833068185
 20
108.4075568481
 30
0.0
 11
211.1732658856
 21
87.5549647729
 31
0.0
  0
LINE
  5
107
330
1F
100
AcDbEntity
  8
0
  6
Continuous
 62
     7
370
    15
100
AcDbLine
 10
211.1732658856
 20
87.5549647729
 30
0.0
 11
209.0608362966
 21
87.5549647729
 31
0.0
  0
LINE
  5
108
330
1F
100
AcDbEntity
  8
0
  6
Continuous
 62
     7
370
    15
100
AcDbLine
 10
209.0608362966
 20
87.5549647729
 30
0.0
 11
208.8575099521
 21
88.3138268958
 31
0.0
  0
SPLINE
  5
109
330
1F
100
AcDbEntity
  8
0
  6
Continuous
 62
     7
370
    15
100
AcDbSpline
210
0.0
220
0.0
230
1.0
 70
     8
 71
     3
 72
    10
 73
     6
 74
     0
 42
0.00000001
 43
0.00000001
 12
1.0
 22
0.0
 32
0.0
 13
1.0
 23
0.0
 33
0.0
 40
0.0
 40
0.0
 40
0.0
 40
0.0
 40
0.5
 40
0.5
 40
1.0
 40
1.0
 40
1.0
 40
1.0
 10
207.8915838640217
 20
89.05509317896906
 30
0.0
 10
208.1118011029114
 20
89.05509317896906
 30
0.0
 10
208.3259236824791
 20
88.98217722871168
 30
0.0
 10
208.6742148945769
 20
88.71508163992635
 30
0.0
 10
208.8005512557189
 20
88.52641591478275
 30
0.0
 10
208.8575096903108
 20
88.31382606980448
 30
0.0
  0
SPLINE
  5
10A
330
1F
100
AcDbEntity
  8
0
  6
Continuous
 62
     7
370
    15
100
AcDbSpline
210
0.0
220
0.0
230
1.0
 70
     8
 71
     3
 72
    10
 73
     6
 74
     0
 42
0.00000001
 43
0.00000001
 12
1.0
 22
0.0
 32
0.0
 13
1.0
 23
0.0
 33
0.0
 40
0.0
 40
0.0
 40
0.0
 40
0.0
 40
0.5
 40
0.5
 40
1.0
 40
1.0
 40
1.0
 40
1.0
 10
208.8575096903108
 20
122.7512614083806
 30
0.0
 10
208.8005510523446
 20
122.5386708043344
 30
0.0
 10
208.6748244578461
 20
122.350740309074
 30
0.0
 10
208.3268427522671
 20
122.0833492180488
 30
0.0
 10
208.1118019913325
 20
122.009994299216
 30
0.0
 10
207.8915838640217
 20
122.009994299216
 30
0.0
  0
LINE
  5
10B
330
1F
100
AcDbEntity
  8
0
  6
Continuous
 62
     7
370
    15
100
AcDbLine
 10
208.8575099521
 20
122.7512616436
 30
0.0
 11
210.9048028403
 21
130.3908765088
 31
0.0
  0
LINE
  5
10C
330
1F
100
AcDbEntity
  8
0
  6
Continuous
 62
     7
370
    15
100
AcDbLine
 10
210.9048028403
 20
130.3908765088
 30
0.0
 11
215.7988582664
 21
130.8187912921
 31
0.0
  0
ELLIPSE
  5
10D
330
1F
100
AcDbEntity
  8
0
  6
Continuous
 62
     7
370
    15
100
AcDbEllipse
 10
223.7689748674
 20
105.5101282666
 30
0.0
 11
12.60027787355529
 21
17.99881353300158
 31
0.0
210
0.0
220
0.0
230
1.0
 40
0.016401811
 41
3.082477686863033
 42
4.723870753545754
  0
LINE
  5
10E
330
1F
100
AcDbEntity
  8
0
  6
Continuous
 62
     7
370
    15
100
AcDbLine
 10
209.0608362966
 20
87.5549647729
 30
0.0
 11
209.0608362966
 21
87.5101290415
 31
0.0
  0
LINE
  5
10F
330
1F
100
AcDbEntity
  8
0
  6
Continuous
 62
     7
370
    15
100
AcDbLine
 10
225.7833068185
 20
108.4075568481
 30
0.0
 11
225.7833068185
 21
107.7600734546
 31
0.0
  0
LINE
  5
110
330
1F
100
AcDbEntity
  8
0
  6
Continuous
 62
     7
370
    15
100
AcDbLine
 10
225.7833068185
 20
107.7600734546
 30
0.0
 11
224.2088389509
 21
105.5101282666
 31
0.0
  0
LINE
  5
111
330
1F
100
AcDbEntity
  8
0
  6
Continuous
 62
     7
370
    15
100
AcDbLine
 10
226.822498899
 20
119.6453157584
 30
0.0
 11
225.7833068185
 21
107.7600734546
 31
0.0
  0
ARC
  5
112
330
1F
100
AcDbEntity
  8
0
  6
Continuous
 62
     7
370
    15
100
AcDbCircle
 10
215.6475465417
 20
119.3294691719
 30
0.0
 40
2.0988532323407
100
AcDbArc
 50
108.9237946205
 51
177.7020961323
  0
LINE
  5
113
330
1F
100
AcDbEntity
  8
0
  6
HIDDEN
 62
     7
370
     0
100
AcDbLine
 10
181.6089113169
 20
85.5101287136
 30
0.0
 11
181.6089113169
 21
85.535144038
 31
0.0
  0
SPLINE
  5
114
330
1F
100
AcDbEntity
  8
0
  6
HIDDEN
 62
     7
370
     0
100
AcDbSpline
210
0.0
220
0.0
230
1.0
 70
     8
 71
     3
 72
    22
 73
    18
 74
     0
 42
0.00000001
 43
0.00000001
 12
1.0
 22
0.0
 32
0.0
 13
1.0
 23
0.0
 33
0.0
 40
0.0
 40
0.0
 40
0.0
 40
0.0
 40
0.125
 40
0.125
 40
0.25
 40
0.25
 40
0.375
 40
0.375
 40
0.5
 40
0.5
 40
0.625
 40
0.625
 40
0.75
 40
0.75
 40
0.875
 40
0.875
 40
1.0
 40
1.0
 40
1.0
 40
1.0
 10
181.6089108520007
 20
85.53514391117272
 30
0.0
 10
181.6089108520007
 20
85.55009950378206
 30
0.0
 10
181.6383592731309
 20
85.57148770042842
 30
0.0
 10
181.7531971393547
 20
85.62586594704375
 30
0.0
 10
181.8400099778924
 20
85.65931211065211
 30
0.0
 10
182.0656573501884
 20
85.73407638604985
 30
0.0
 10
182.2034944918526
 20
85.77517487501079
 30
0.0
 10
182.528695451757
 20
85.86172780397456
 30
0.0
 10
182.717397731665
 20
85.90737870307245
 30
0.0
 10
183.1297294518972
 20
85.9956582582373
 30
0.0
 10
183.3548763782491
 20
86.03875960824456
 30
0.0
 10
183.8448522296064
 20
86.11896378809982
 30
0.0
 10
184.1055598717283
 20
86.15525863548937
 30
0.0
 10
184.6464172524439
 20
86.21543785463908
 30
0.0
 10
184.9301078784979
 20
86.23972519207018
 30
0.0
 10
185.5141902494274
 20
86.27272328638155
 30
0.0
 10
185.8097578044193
 20
86.28124374358148
 30
0.0
 10
186.1089108520007
 20
86.28124374358148
 30
0.0
  0
LINE
  5
115
330
1F
100
AcDbEntity
  8
0
  6
HIDDEN
 62
     7
370
     0
100
AcDbLine
 10
186.1089111232
 20
86.2812433163
 30
0.0
 11
187.623751063
 21
86.2812433163
 31
0.0
  0
LINE
  5
116
330
1F
100
AcDbEntity
  8
0
  6
HIDDEN
 62
     7
370
     0
100
AcDbLine
 10
187.623751063
 20
124.9973043571
 30
0.0
 11
187.623751063
 21
86.2812433163
 31
0.0
  0
LINE
  5
117
330
1F
100
AcDbEntity
  8
0
  6
HIDDEN
 62
     7
370
     0
100
AcDbLine
 10
186.1089111232
 20
124.9973043571
 30
0.0
 11
187.623751063
 21
124.9973043571
 31
0.0
  0
SPLINE
  5
118
330
1F
100
AcDbEntity
  8
0
  6
HIDDEN
 62
     7
370
     0
100
AcDbSpline
210
0.0
220
0.0
230
1.0
 70
     8
 71
     3
 72
    17
 73
    13
 74
     0
 42
0.00000001
 43
0.00000001
 12
1.0
 22
0.0
 32
0.0
 13
1.0
 23
0.0
 33
0.0
 40
0.0
 40
0.0
 40
0.0
 40
0.0
 40
0.0659340435969183
 40
0.1690661462905225
 40
0.2751488405985667
 40
0.379123145219446
 40
0.485986792297652
 40
0.5922065347858924
 40
0.7014821075588975
 40
0.8079660909051144
 40
0.9176704333646215
 40
1.0
 40
1.0
 40
1.0
 40
1.0
 10
181.6244383268809
 20
125.5066409478567
 30
0.0
 10
181.6230017816471
 20
125.5069603170813
 30
0.0
 10
181.6193182343718
 20
125.5077792343069
 30
0.0
 10
181.7531954551536
 20
125.4778521782811
 30
0.0
 10
182.0029135332308
 20
125.4244246987796
 30
0.0
 10
182.372307029149
 20
125.3508974118919
 30
0.0
 10
182.8418923408662
 20
125.2670448202153
 30
0.0
 10
183.410939835929
 20
125.1801053640369
 30
0.0
 10
184.0565778638588
 20
125.1010803739385
 30
0.0
 10
184.7693907158904
 20
125.0390272788532
 30
0.0
 10
185.4607341460094
 20
125.0030446634733
 30
0.0
 10
185.9144095427956
 20
124.9990268784117
 30
0.0
 10
186.1089111232018
 20
124.9973043570898
 30
0.0
  0
SPLINE
  5
119
330
1F
100
AcDbEntity
  8
0
  6
HIDDEN
 62
     7
370
     0
100
AcDbSpline
210
0.0
220
0.0
230
1.0
 70
     8
 71
     3
 72
    76
 73
    72
 74
     0
 42
0.00000001
 43
0.00000001
 12
1.0
 22
0.0
 32
0.0
 13
1.0
 23
0.0
 33
0.0
 40
-0.0312499999999999
 40
-0.0312499999999999
 40
0.0
 40
0.0
 40
0.0312499999999999
 40
0.0312499999999999
 40
0.0624999999999999
 40
0.0624999999999999
 40
0.0937499999999998
 40
0.0937499999999998
 40
0.1249999999999998
 40
0.1249999999999998
 40
0.1562499999999998
 40
0.1562499999999998
 40
0.1874999999999997
 40
0.1874999999999997
 40
0.2031249999999997
 40
0.2031249999999997
 40
0.2187499999999997
 40
0.2187499999999997
 40
0.2499999999999997
 40
0.2499999999999997
 40
0.2812499999999998
 40
0.2812499999999998
 40
0.3124999999999998
 40
0.3124999999999998
 40
0.3437499999999999
 40
0.3437499999999999
 40
0.3749999999999999
 40
0.3749999999999999
 40
0.40625
 40
0.40625
 40
0.4375000000000001
 40
0.4375000000000001
 40
0.4687500000000001
 40
0.4687500000000001
 40
0.4843750000000001
 40
0.4843750000000001
 40
0.5000000000000002
 40
0.5000000000000002
 40
0.5312500000000002
 40
0.5312500000000002
 40
0.5625000000000003
 40
0.5625000000000003
 40
0.5937500000000003
 40
0.5937500000000003
 40
0.6250000000000004
 40
0.6250000000000004
 40
0.6562500000000004
 40
0.6562500000000004
 40
0.6875000000000006
 40
0.6875000000000006
 40
0.7187500000000006
 40
0.7187500000000006
 40
0.7343750000000006
 40
0.7343750000000006
 40
0.7500000000000006
 40
0.7500000000000006
 40
0.7812500000000004
 40
0.7812500000000004
 40
0.8125000000000004
 40
0.8125000000000004
 40
0.8437500000000003
 40
0.8437500000000003
 40
0.8750000000000003
 40
0.8750000000000003
 40
0.9062500000000002
 40
0.9062500000000002
 40
0.9375000000000002
 40
0.9375000000000002
 40
0.9687500000000001
 40
0.9687500000000001
 40
1.0
 40
1.0
 40
1.03125
 40
1.03125
 10
175.6589108520007
 20
105.8418629106567
 30
0.0
 10
175.6589108520007
 20
105.1783936225652
 30
0.0
 10
175.6915957877187
 20
104.8524591600524
 30
0.0
 10
175.8194200297294
 20
104.2116383041096
 30
0.0
 10
175.9161983029851
 20
103.8933528620672
 30
0.0
 10
176.1676509769696
 20
103.2884465238172
 30
0.0
 10
176.3213311576644
 20
103.0017632070934
 30
0.0
 10
176.6841636809785
 20
102.4592467869434
 30
0.0
 10
176.8944266381355
 20
102.2034536983494
 30
0.0
 10
177.3537303185579
 20
101.7443322367949
 30
0.0
 10
177.6045711779335
 20
101.5378561791659
 30
0.0
 10
178.1506025703993
 20
101.1723493481176
 30
0.0
 10
178.4394736830988
 20
101.017913143499
 30
0.0
 10
178.8902231392482
 20
100.8305750518784
 30
0.0
 10
179.0437094549211
 20
100.7753630315176
 30
0.0
 10
179.3573383584858
 20
100.6797259615538
 30
0.0
 10
179.5184425426188
 20
100.6391474965653
 30
0.0
 10
180.002939410621
 20
100.5424137040048
 30
0.0
 10
180.3282204802369
 20
100.5103359817663
 30
0.0
 10
180.9832898531631
 20
100.5099225431257
 30
0.0
 10
181.3161111857972
 20
100.5427009694033
 30
0.0
 10
181.958419782523
 20
100.6708594405093
 30
0.0
 10
182.2707412639693
 20
100.7656632348544
 30
0.0
 10
182.8777205785224
 20
101.0173753119071
 30
0.0
 10
183.1682805970247
 20
101.1732354370156
 30
0.0
 10
183.7084701312315
 20
101.5344818870778
 30
0.0
 10
183.962474881179
 20
101.7426714010948
 30
0.0
 10
184.4256988930556
 20
102.2058016510701
 30
0.0
 10
184.6316655739225
 20
102.4567718682393
 30
0.0
 10
184.9937194806182
 20
102.9971221923462
 30
0.0
 10
185.1508654070791
 20
103.2899687302863
 30
0.0
 10
185.4016011209997
 20
103.8934486125158
 30
0.0
 10
185.4967710119107
 20
104.2051694964862
 30
0.0
 10
185.5936014945821
 20
104.6880696667155
 30
0.0
 10
185.6182267417724
 20
104.8525837345417
 30
0.0
 10
185.6507694459594
 20
105.180694382324
 30
0.0
 10
185.6588412138374
 20
105.3444835412469
 30
0.0
 10
185.6590487856703
 20
105.8350710882127
 30
0.0
 10
185.6274134668812
 20
106.1610968063477
 30
0.0
 10
185.4980730726468
 20
106.8110076907212
 30
0.0
 10
185.4025732189536
 20
107.1238127016009
 30
0.0
 10
185.1528330610381
 20
107.7261998553676
 30
0.0
 10
184.9963725646112
 20
108.018723255963
 30
0.0
 10
184.6332690606355
 20
108.5615377374
 30
0.0
 10
184.4273430104059
 20
108.8124306296812
 30
0.0
 10
183.9666283266519
 20
109.2738082393941
 30
0.0
 10
183.7108448480637
 20
109.4839519480925
 30
0.0
 10
183.1708716786065
 20
109.8455208178602
 30
0.0
 10
182.8842909659999
 20
109.9996893478613
 30
0.0
 10
182.2761522812772
 20
110.2528074159412
 30
0.0
 10
181.9614122465392
 20
110.3485155795617
 30
0.0
 10
181.4814374392056
 20
110.4447078263673
 30
0.0
 10
181.3197127906923
 20
110.4689930417332
 30
0.0
 10
180.9927144753167
 20
110.5016785469535
 30
0.0
 10
180.8264626743852
 20
110.510040899425
 30
0.0
 10
180.3316905318746
 20
110.5103009294224
 30
0.0
 10
180.006250891321
 20
110.4781494766117
 30
0.0
 10
179.3639628235363
 20
110.3506147474172
 30
0.0
 10
179.0447962635913
 20
110.2536753168817
 30
0.0
 10
178.4416202202205
 20
110.0034818891148
 30
0.0
 10
178.1544877089921
 20
109.8501032946926
 30
0.0
 10
177.6091434183945
 20
109.4858592842384
 30
0.0
 10
177.3553599749866
 20
109.2773339336528
 30
0.0
 10
176.8961671362089
 20
108.8187604105765
 30
0.0
 10
176.6873072087766
 20
108.5652719810706
 30
0.0
 10
176.3222950862628
 20
108.0203677602104
 30
0.0
 10
176.1686680575095
 20
107.7336351579203
 30
0.0
 10
175.9179775436419
 20
107.1317985829438
 30
0.0
 10
175.8205316329884
 20
106.8132258091247
 30
0.0
 10
175.6916049233895
 20
106.1688000239074
 30
0.0
 10
175.6589108520007
 20
105.8418629106567
 30
0.0
 10
175.6589108520007
 20
105.1783936225652
 30
0.0
  0
LINE
  5
11A
330
1F
100
AcDbEntity
  8
0
  6
HIDDEN
 62
     7
370
     0
100
AcDbLine
 10
173.658910852
 20
125.2101283292
 30
0.0
 11
173.658910852
 21
85.810128204
 31
0.0
  0
SPLINE
  5
11B
330
1F
100
AcDbEntity
  8
0
  6
HIDDEN
 62
     7
370
     0
100
AcDbSpline
210
0.0
220
0.0
230
1.0
 70
     8
 71
     3
 72
    10
 73
     6
 74
     0
 42
0.00000001
 43
0.00000001
 12
1.0
 22
0.0
 32
0.0
 13
1.0
 23
0.0
 33
0.0
 40
0.0
 40
0.0
 40
0.0
 40
0.0
 40
0.5
 40
0.5
 40
1.0
 40
1.0
 40
1.0
 40
1.0
 10
190.6989108520007
 20
88.39724934458262
 30
0.0
 10
190.6989108520007
 20
88.43347183402325
 30
0.0
 10
190.6959411227033
 20
88.4696650312817
 30
0.0
 10
190.6840621403554
 20
88.54130352269635
 30
0.0
 10
190.6752669125147
 20
88.57617684733795
 30
0.0
 10
190.6636884514196
 20
88.61012826661026
 30
0.0
  0
LINE
  5
11C
330
1F
100
AcDbEntity
  8
0
  6
HIDDEN
 62
     7
370
     0
100
AcDbLine
 10
190.6989102178
 20
88.3972491841
 30
0.0
 11
190.6989102178
 21
117.3601286257
 31
0.0
  0
SPLINE
  5
11D
330
1F
100
AcDbEntity
  8
0
  6
HIDDEN
 62
     7
370
     0
100
AcDbSpline
210
0.0
220
0.0
230
1.0
 70
     8
 71
     3
 72
    10
 73
     6
 74
     0
 42
0.00000001
 43
0.00000001
 12
1.0
 22
0.0
 32
0.0
 13
1.0
 23
0.0
 33
0.0
 40
0.0
 40
0.0
 40
0.0
 40
0.0
 40
0.5
 40
0.5
 40
1.0
 40
1.0
 40
1.0
 40
1.0
 10
188.654133252582
 20
88.61012826661091
 30
0.0
 10
188.6424211356189
 20
88.57578492941693
 30
0.0
 10
188.6336230657469
 20
88.5406923916787
 30
0.0
 10
188.6218095079747
 20
88.46902061628798
 30
0.0
 10
188.6189108520007
 20
88.43307696192271
 30
0.0
 10
188.6189108520007
 20
88.39724934458262
 30
0.0
  0
LINE
  5
11E
330
1F
100
AcDbEntity
  8
0
  6
HIDDEN
 62
     7
370
     0
100
AcDbLine
 10
188.6189111435
 20
88.3972491841
 30
0.0
 11
188.6189111435
 21
117.3601286257
 31
0.0
  0
SPLINE
  5
11F
330
1F
100
AcDbEntity
  8
0
  6
HIDDEN
 62
     7
370
     0
100
AcDbSpline
210
0.0
220
0.0
230
1.0
 70
     8
 71
     3
 72
     9
 73
     5
 74
     0
 42
0.00000001
 43
0.00000001
 12
1.0
 22
0.0
 32
0.0
 13
1.0
 23
0.0
 33
0.0
 40
0.0
 40
0.0
 40
0.0
 40
0.0
 40
0.5
 40
1.0
 40
1.0
 40
1.0
 40
1.0
 10
193.608972975124
 20
122.4101282666109
 30
0.0
 10
193.6089522624206
 20
122.4120511349448
 30
0.0
 10
193.6089212011023
 20
122.4158964239337
 30
0.0
 10
193.6089108520007
 20
122.4197408182542
 30
0.0
 10
193.6089108520007
 20
122.4216627918987
 30
0.0
  0
SPLINE
  5
120
330
1F
100
AcDbEntity
  8
0
  6
HIDDEN
 62
     7
370
     0
100
AcDbSpline
210
0.0
220
0.0
230
1.0
 70
    24
 71
     3
 72
    10
 73
     6
 74
     0
 42
0.00000001
 43
0.00000001
 12
1.0
 22
0.0
 32
0.0
 13
1.0
 23
0.0
 33
0.0
 40
0.0
 40
0.0
 40
0.0
 40
0.0
 40
0.5
 40
0.5
 40
1.0
 40
1.0
 40
1.0
 40
1.0
 10
193.608972975124
 20
122.4101282666109
 30
0.0
 10
193.6111262958553
 20
122.4101282666109
 30
0.0
 10
193.6663431659273
 20
122.4101282666109
 30
0.0
 10
193.7662881991726
 20
122.4101282666109
 30
0.0
 10
193.8089100095211
 20
122.4101282666109
 30
0.0
 10
193.8089108519865
 20
122.4101282666109
 30
0.0
  0
SPLINE
  5
121
330
1F
100
AcDbEntity
  8
0
  6
HIDDEN
 62
     7
370
     0
100
AcDbSpline
210
0.0
220
0.0
230
1.0
 70
     8
 71
     3
 72
     9
 73
     5
 74
     0
 42
0.00000001
 43
0.00000001
 12
1.0
 22
0.0
 32
0.0
 13
1.0
 23
0.0
 33
0.0
 40
0.0
 40
0.0
 40
0.0
 40
0.0
 40
0.5
 40
1.0
 40
1.0
 40
1.0
 40
1.0
 10
193.6089108520007
 20
122.4216627918987
 30
0.0
 10
193.6089108520007
 20
122.4197396674156
 30
0.0
 10
193.6089212134983
 20
122.4158941225707
 30
0.0
 10
193.6089522748142
 20
122.4120499843932
 30
0.0
 10
193.608972975124
 20
122.4101282666109
 30
0.0
  0
LINE
  5
122
330
1F
100
AcDbEntity
  8
0
  6
HIDDEN
 62
     7
370
     0
100
AcDbLine
 10
193.6089114212
 20
122.4216628591
 30
0.0
 11
193.6089114212
 21
88.6101290355
 31
0.0
  0
SPLINE
  5
123
330
1F
100
AcDbEntity
  8
0
  6
HIDDEN
 62
     7
370
     0
100
AcDbSpline
210
0.0
220
0.0
230
1.0
 70
    24
 71
     3
 72
    10
 73
     6
 74
     0
 42
0.00000001
 43
0.00000001
 12
1.0
 22
0.0
 32
0.0
 13
1.0
 23
0.0
 33
0.0
 40
0.0
 40
0.0
 40
0.0
 40
0.0
 40
0.5000000000000001
 40
0.5000000000000001
 40
1.0
 40
1.0
 40
1.0
 40
1.0
 10
193.6089108520007
 20
88.61012826661091
 30
0.0
 10
193.6089108520007
 20
88.61012826661091
 30
0.0
 10
193.6643581242369
 20
88.6101282666109
 30
0.0
 10
193.7654006699619
 20
88.61012826661091
 30
0.0
 10
193.8089100195102
 20
88.61012826661091
 30
0.0
 10
193.8089108519871
 20
88.61012826661091
 30
0.0
  0
SPLINE
  5
124
330
1F
100
AcDbEntity
  8
0
  6
HIDDEN
 62
     7
370
     0
100
AcDbSpline
210
0.0
220
0.0
230
1.0
 70
    24
 71
     3
 72
     9
 73
     5
 74
     0
 42
0.00000001
 43
0.00000001
 12
1.0
 22
0.0
 32
0.0
 13
1.0
 23
0.0
 33
0.0
 40
0.0
 40
0.0
 40
0.0
 40
0.0
 40
0.4273809500537754
 40
1.0
 40
1.0
 40
1.0
 40
1.0
 10
193.7120237313962
 20
88.61012903551082
 30
0.0
 10
193.6894956332168
 20
88.61012903551082
 30
0.0
 10
193.636783648332
 20
88.61012903551082
 30
0.0
 10
193.6190602034151
 20
88.61012903551082
 30
0.0
 10
193.608911421225
 20
88.61012903551082
 30
0.0
  0
LINE
  5
125
330
1F
100
AcDbEntity
  8
0
  6
HIDDEN
 62
     7
370
     0
100
AcDbLine
 10
193.6089114212
 20
118.3875310938
 30
0.0
 11
193.6089114212
 21
122.4216628591
 31
0.0
  0
LINE
  5
126
330
1F
100
AcDbEntity
  8
0
  6
HIDDEN
 62
     7
370
     0
100
AcDbLine
 10
193.6089114212
 20
88.6101290355
 30
0.0
 11
193.6089114212
 21
117.3601286257
 31
0.0
  0
LINE
  5
127
330
1F
100
AcDbEntity
  8
0
  6
HIDDEN
 62
     7
370
     0
100
AcDbLine
 10
181.6089113169
 20
117.3601286257
 30
0.0
 11
186.1025809237
 21
117.3601286257
 31
0.0
  0
SPLINE
  5
128
330
1F
100
AcDbEntity
  8
0
  6
HIDDEN
 62
     7
370
     0
100
AcDbSpline
210
0.0
220
0.0
230
1.0
 70
     8
 71
     3
 72
    64
 73
    60
 74
     0
 42
0.00000001
 43
0.00000001
 12
1.0
 22
0.0
 32
0.0
 13
1.0
 23
0.0
 33
0.0
 40
-0.0312500000000007
 40
-0.0312500000000007
 40
0.0
 40
0.0
 40
0.0312500000000001
 40
0.0312500000000001
 40
0.0625000000000002
 40
0.0625000000000002
 40
0.0937500000000002
 40
0.0937500000000002
 40
0.1250000000000003
 40
0.1250000000000003
 40
0.1875000000000002
 40
0.1875000000000002
 40
0.21875
 40
0.21875
 40
0.2499999999999998
 40
0.2499999999999998
 40
0.2812499999999996
 40
0.2812499999999996
 40
0.3124999999999994
 40
0.3124999999999994
 40
0.3437499999999991
 40
0.3437499999999991
 40
0.3749999999999988
 40
0.3749999999999988
 40
0.4062499999999986
 40
0.4062499999999986
 40
0.4374999999999983
 40
0.4374999999999983
 40
0.4687499999999981
 40
0.4687499999999981
 40
0.4999999999999978
 40
0.4999999999999978
 40
0.5624999999999972
 40
0.5624999999999972
 40
0.5937499999999973
 40
0.5937499999999973
 40
0.6249999999999974
 40
0.6249999999999974
 40
0.6562499999999974
 40
0.6562499999999974
 40
0.6874999999999976
 40
0.6874999999999976
 40
0.7187499999999977
 40
0.7187499999999977
 40
0.7499999999999977
 40
0.7499999999999977
 40
0.7812499999999978
 40
0.7812499999999978
 40
0.8124999999999979
 40
0.8124999999999979
 40
0.8437499999999981
 40
0.8437499999999981
 40
0.8749999999999982
 40
0.8749999999999982
 40
0.9374999999999988
 40
0.9374999999999988
 40
0.9687499999999993
 40
0.9687499999999993
 40
1.0
 40
1.0
 40
1.03125
 40
1.03125
 10
198.7919711145683
 20
98.87410282050453
 30
0.0
 10
198.4586722774539
 20
98.87410282050453
 30
0.0
 10
198.2947601401337
 20
98.88892312705944
 30
0.0
 10
197.9722642830214
 20
98.94752356245766
 30
0.0
 10
197.81197135955
 20
98.99203848805996
 30
0.0
 10
197.5067014652359
 20
99.10887590135368
 30
0.0
 10
197.36201840862
 20
99.18063252201767
 30
0.0
 10
197.0884607776348
 20
99.35112789509961
 30
0.0
 10
196.9591943189051
 20
99.45072383907056
 30
0.0
 10
196.6124668895482
 20
99.77846962014706
 30
0.0
 10
196.4269157290672
 20
100.0445589232461
 30
0.0
 10
196.2423394662679
 20
100.478637290496
 30
0.0
 10
196.1952768587238
 20
100.6312331366279
 30
0.0
 10
196.1336256293035
 20
100.9432638508257
 30
0.0
 10
196.1190598765512
 20
101.1008353559494
 30
0.0
 10
196.1218043019421
 20
101.4190988437372
 30
0.0
 10
196.1396665034579
 20
101.5811908427039
 30
0.0
 10
196.2066789402867
 20
101.8952174450475
 30
0.0
 10
196.2555736037853
 20
102.0485189120297
 30
0.0
 10
196.3847923108808
 20
102.3473540468423
 30
0.0
 10
196.4648170301647
 20
102.4912881140177
 30
0.0
 10
196.6498923494177
 20
102.7586741928469
 30
0.0
 10
196.7561716162422
 20
102.8842244282512
 30
0.0
 10
196.9938240504364
 20
103.1139601722014
 30
0.0
 10
197.1223599408926
 20
103.2156379709014
 30
0.0
 10
197.3983225016748
 20
103.3931330781077
 30
0.0
 10
197.5475468470678
 20
103.469485092689
 30
0.0
 10
197.854500912851
 20
103.5898302367712
 30
0.0
 10
198.0125785333945
 20
103.6345150805162
 30
0.0
 10
198.3379003106816
 20
103.6929361271106
 30
0.0
 10
198.5048646034184
 20
103.7061740155733
 30
0.0
 10
198.9981518874878
 20
103.6977168249636
 30
0.0
 10
199.3289943526858
 20
103.6272365336863
 30
0.0
 10
199.7833124025737
 20
103.4367411128789
 30
0.0
 10
199.9304933688429
 20
103.3581511192006
 30
0.0
 10
200.2056090642822
 20
103.1760464885953
 30
0.0
 10
200.3329775996684
 20
103.0733513112966
 30
0.0
 10
200.5674117270886
 20
102.8449621082265
 30
0.0
 10
200.675205373053
 20
102.7178332830826
 30
0.0
 10
200.8607707376553
 20
102.4500677368342
 30
0.0
 10
200.9396733569215
 20
102.3087268759639
 30
0.0
 10
201.0687336238903
 20
102.0108172302027
 30
0.0
 10
201.1182543978946
 20
101.8544673345704
 30
0.0
 10
201.1828100953054
 20
101.5410595981067
 30
0.0
 10
201.1987300335565
 20
101.3821666074152
 30
0.0
 10
201.1960723900872
 20
101.0601367933783
 30
0.0
 10
201.1775525141751
 20
100.9027670844032
 30
0.0
 10
201.1077621506388
 20
100.5948903377528
 30
0.0
 10
201.0555786700835
 20
100.4428028873211
 30
0.0
 10
200.9218158928926
 20
100.1562725656697
 30
0.0
 10
200.8405363898055
 20
100.0212070519313
 30
0.0
 10
200.6496707976581
 20
99.76682044656796
 30
0.0
 10
200.5403453550094
 20
99.6484706474367
 30
0.0
 10
200.1836262256553
 20
99.33053031049296
 30
0.0
 10
199.8993431062369
 20
99.16137641499611
 30
0.0
 10
199.4420521589402
 20
98.99124327615328
 30
0.0
 10
199.2818272476884
 20
98.94735516298532
 30
0.0
 10
198.9565865446395
 20
98.8889214711527
 30
0.0
 10
198.7919711145683
 20
98.87410282050453
 30
0.0
 10
198.4586722774539
 20
98.87410282050453
 30
0.0
  0
LINE
  5
129
330
1F
100
AcDbEntity
  8
0
  6
HIDDEN
 62
     7
370
     0
100
AcDbLine
 10
173.658910852
 20
89.3029268603
 30
0.0
 11
173.658910852
 21
121.717329673
 31
0.0
  0
LINE
  5
12A
330
1F
100
AcDbEntity
  8
0
  6
HIDDEN
 62
     7
370
     0
100
AcDbLine
 10
171.658910757
 20
120.6138288374
 30
0.0
 11
171.658910757
 21
90.4064276958
 31
0.0
  0
SPLINE
  5
12B
330
1F
100
AcDbEntity
  8
0
  6
HIDDEN
 62
     7
370
     0
100
AcDbSpline
210
0.0
220
0.0
230
1.0
 70
     8
 71
     3
 72
     8
 73
     4
 74
     0
 42
0.00000001
 43
0.00000001
 12
1.0
 22
0.0
 32
0.0
 13
1.0
 23
0.0
 33
0.0
 40
0.000003532078448
 40
0.000003532078448
 40
0.000003532078448
 40
0.000003532078448
 40
0.0000638548434643
 40
0.0000638548434643
 40
0.0000638548434643
 40
0.0000638548434643
 10
154.7003947024316
 20
92.80695056706733
 30
0.0
 10
154.7029438735538
 20
92.79778936372861
 30
0.0
 10
154.7057857963355
 20
92.78866836041988
 30
0.0
 10
154.7089108520007
 20
92.77959271565153
 30
0.0
  0
SPLINE
  5
12C
330
1F
100
AcDbEntity
  8
0
  6
HIDDEN
 62
     7
370
     0
100
AcDbSpline
210
0.0
220
0.0
230
1.0
 70
     8
 71
     3
 72
     8
 73
     4
 74
     0
 42
0.00000001
 43
0.00000001
 12
1.0
 22
0.0
 32
0.0
 13
1.0
 23
0.0
 33
0.0
 40
0.0000002108190109
 40
0.0000002108190109
 40
0.0000002108190109
 40
0.0000002108190109
 40
0.0001710235456397
 40
0.0001710235456397
 40
0.0001710235456397
 40
0.0001710235456397
 10
154.7089108520007
 20
92.77959271565153
 30
0.0
 10
154.7628990380905
 20
92.78522285825508
 30
0.0
 10
154.8164886981664
 20
92.79151825171661
 30
0.0
 10
154.869119417285
 20
92.79894800415975
 30
0.0
  0
SPLINE
  5
12D
330
1F
100
AcDbEntity
  8
0
  6
HIDDEN
 62
     7
370
     0
100
AcDbSpline
210
0.0
220
0.0
230
1.0
 70
     8
 71
     3
 72
    10
 73
     6
 74
     0
 42
0.00000001
 43
0.00000001
 12
1.0
 22
0.0
 32
0.0
 13
1.0
 23
0.0
 33
0.0
 40
0.0
 40
0.0
 40
0.0
 40
0.0
 40
0.5
 40
0.5
 40
1.0
 40
1.0
 40
1.0
 40
1.0
 10
154.869119417285
 20
92.79894800415975
 30
0.0
 10
155.5273774281874
 20
92.89187270947674
 30
0.0
 10
156.2047197367244
 20
92.96780782659931
 30
0.0
 10
157.5740657504054
 20
93.10662591213698
 30
0.0
 10
158.2653858312777
 20
93.16857256842343
 30
0.0
 10
158.9589108520007
 20
93.226254968058
 30
0.0
  0
SPLINE
  5
12E
330
1F
100
AcDbEntity
  8
0
  6
HIDDEN
 62
     7
370
     0
100
AcDbSpline
210
0.0
220
0.0
230
1.0
 70
     8
 71
     3
 72
    16
 73
    12
 74
     0
 42
0.00000001
 43
0.00000001
 12
1.0
 22
0.0
 32
0.0
 13
1.0
 23
0.0
 33
0.0
 40
0.0
 40
0.0
 40
0.0
 40
0.0
 40
0.0625000000000006
 40
0.0625000000000006
 40
0.1250000000000012
 40
0.1250000000000012
 40
0.2500000000000025
 40
0.2500000000000025
 40
0.5000000000000022
 40
0.5000000000000022
 40
1.0
 40
1.0
 40
1.0
 40
1.0
 10
158.9589108520007
 20
93.226254968058
 30
0.0
 10
158.9902266513279
 20
93.22885958995008
 30
0.0
 10
159.0229409897536
 20
93.22709068949013
 30
0.0
 10
159.0842475432304
 20
93.21555579504016
 30
0.0
 10
159.1127584334484
 20
93.20602881769393
 30
0.0
 10
159.1886524068047
 20
93.17251521756903
 30
0.0
 10
159.2279919918377
 20
93.14412770324915
 30
0.0
 10
159.3294277728191
 20
93.05610675304126
 30
0.0
 10
159.3742531324251
 20
92.99447410083413
 30
0.0
 10
159.4885354873904
 20
92.81108590715893
 30
0.0
 10
159.5333493952331
 20
92.69046791269409
 30
0.0
 10
159.5676756495154
 20
92.57612491940297
 30
0.0
  0
SPLINE
  5
12F
330
1F
100
AcDbEntity
  8
0
  6
HIDDEN
 62
     7
370
     0
100
AcDbSpline
210
0.0
220
0.0
230
1.0
 70
     8
 71
     3
 72
    10
 73
     6
 74
     0
 42
0.00000001
 43
0.00000001
 12
1.0
 22
0.0
 32
0.0
 13
1.0
 23
0.0
 33
0.0
 40
0.0
 40
0.0
 40
0.0
 40
0.0
 40
0.5
 40
0.5
 40
1.0
 40
1.0
 40
1.0
 40
1.0
 10
159.5676756495154
 20
92.57612491940297
 30
0.0
 10
159.6055500524601
 20
92.44996281135032
 30
0.0
 10
159.686341099786
 20
92.33200377036843
 30
0.0
 10
159.8114710423773
 20
92.10895778777945
 30
0.0
 10
159.8589108520007
 20
92.00416271428409
 30
0.0
 10
159.8589108520007
 20
91.90655208088668
 30
0.0
  0
LINE
  5
130
330
1F
100
AcDbEntity
  8
0
  6
HIDDEN
 62
     7
370
     0
100
AcDbLine
 10
159.8589110114
 20
91.9065518076
 30
0.0
 11
159.8589110114
 21
90.9976098458
 31
0.0
  0
LINE
  5
131
330
1F
100
AcDbEntity
  8
0
  6
HIDDEN
 62
     7
370
     0
100
AcDbLine
 10
157.3589106017
 20
119.8973959083
 30
0.0
 11
157.3589106017
 21
119.0676526869
 31
0.0
  0
SPLINE
  5
132
330
1F
100
AcDbEntity
  8
0
  6
HIDDEN
 62
     7
370
     0
100
AcDbSpline
210
0.0
220
0.0
230
1.0
 70
     8
 71
     3
 72
    20
 73
    16
 74
     0
 42
0.00000001
 43
0.00000001
 12
1.0
 22
0.0
 32
0.0
 13
1.0
 23
0.0
 33
0.0
 40
0.0
 40
0.0
 40
0.0
 40
0.0
 40
0.2499999999999999
 40
0.2499999999999999
 40
0.4999999999999998
 40
0.4999999999999998
 40
0.7499999999999997
 40
0.7499999999999997
 40
0.8749999999999983
 40
0.8749999999999983
 40
0.9374999999999991
 40
0.9374999999999991
 40
0.9687499999999996
 40
0.9687499999999996
 40
1.0
 40
1.0
 40
1.0
 40
1.0
 10
157.3589108520016
 20
119.0676523883588
 30
0.0
 10
157.3589108520016
 20
119.0070429886614
 30
0.0
 10
157.3335158324247
 20
118.9412170232578
 30
0.0
 10
157.2472226466428
 20
118.8071692539112
 30
0.0
 10
157.1865866679595
 20
118.7384738957694
 30
0.0
 10
157.0384848737382
 20
118.598075344115
 30
0.0
 10
156.9517152669596
 20
118.5263718395336
 30
0.0
 10
156.8030774716304
 20
118.4202084377848
 30
0.0
 10
156.7507882547442
 20
118.3846800891533
 30
0.0
 10
156.6600244264343
 20
118.3349761586378
 30
0.0
 10
156.6276584339823
 20
118.3187151606226
 30
0.0
 10
156.5699692783161
 20
118.2996025922767
 30
0.0
 10
156.5489822504286
 20
118.2942114501951
 30
0.0
 10
156.5036932714382
 20
118.2884740818026
 30
0.0
 10
156.4806790025997
 20
118.2884968154561
 30
0.0
 10
156.458910852
 20
118.2909221252689
 30
0.0
  0
SPLINE
  5
133
330
1F
100
AcDbEntity
  8
0
  6
HIDDEN
 62
     7
370
     0
100
AcDbSpline
210
0.0
220
0.0
230
1.0
 70
     8
 71
     3
 72
    12
 73
     8
 74
     0
 42
0.00000001
 43
0.00000001
 12
1.0
 22
0.0
 32
0.0
 13
1.0
 23
0.0
 33
0.0
 40
0.0
 40
0.0
 40
0.0
 40
0.0
 40
0.2499999999999986
 40
0.2499999999999986
 40
0.4999999999999971
 40
0.4999999999999971
 40
1.0
 40
1.0
 40
1.0
 40
1.0
 10
156.4589108520007
 20
118.2909221252701
 30
0.0
 10
156.3168684488115
 20
118.3067478534463
 30
0.0
 10
156.1727503423074
 20
118.3177689872216
 30
0.0
 10
155.8829958286348
 20
118.3363053490888
 30
0.0
 10
155.737253925276
 20
118.3435760548246
 30
0.0
 10
155.2985736860962
 20
118.3620369051526
 30
0.0
 10
155.004198070025
 20
118.3699157719761
 30
0.0
 10
154.7089108520007
 20
118.3757088135892
 30
0.0
  0
SPLINE
  5
134
330
1F
100
AcDbEntity
  8
0
  6
HIDDEN
 62
     7
370
     0
100
AcDbSpline
210
0.0
220
0.0
230
1.0
 70
     8
 71
     3
 72
     8
 73
     4
 74
     0
 42
0.00000001
 43
0.00000001
 12
1.0
 22
0.0
 32
0.0
 13
1.0
 23
0.0
 33
0.0
 40
0.0
 40
0.0
 40
0.0
 40
0.0
 40
1.0
 40
1.0
 40
1.0
 40
1.0
 10
154.7089108520007
 20
118.3757088135892
 30
0.0
 10
154.6631459443114
 20
118.3141884344304
 30
0.0
 10
154.6287588226814
 20
118.250293574681
 30
0.0
 10
154.6097435690085
 20
118.1835636296372
 30
0.0
  0
ELLIPSE
  5
135
330
1F
100
AcDbEntity
  8
0
  6
HIDDEN
 62
     7
370
     0
100
AcDbEllipse
 10
141.1527902135
 20
106.1492387179
 30
0.0
 11
13.36963611134306
 21
13.36754752639483
 31
0.0
210
0.0
220
0.0
230
1.0
 40
0.1761188775
 41
5.933076931846607
 42
5.976720052691187
  0
ELLIPSE
  5
136
330
1F
100
AcDbEntity
  8
0
  6
HIDDEN
 62
     7
370
     0
100
AcDbEllipse
 10
141.2321686442
 20
104.8708305888
 30
0.0
 11
13.37355272666627
 21
-13.37146352987013
 31
0.0
210
0.0
220
0.0
230
1.0
 40
0.1761188775
 41
0.3023035477142424
 42
0.3822730435340299
  0
SPLINE
  5
137
330
1F
100
AcDbEntity
  8
0
  6
HIDDEN
 62
     7
370
     0
100
AcDbSpline
210
0.0
220
0.0
230
1.0
 70
     8
 71
     3
 72
    11
 73
     7
 74
     0
 42
0.00000001
 43
0.00000001
 12
1.0
 22
0.0
 32
0.0
 13
1.0
 23
0.0
 33
0.0
 40
0.0
 40
0.0
 40
0.0
 40
0.0
 40
0.25946967059813
 40
0.3326084702733429
 40
0.6701731790694504
 40
1.0
 40
1.0
 40
1.0
 40
1.0
 10
165.3079024442291
 20
90.81137327054958
 30
0.0
 10
165.242342148443
 20
90.80288185469378
 30
0.0
 10
165.1583018456137
 20
90.79199689526193
 30
0.0
 10
164.9814281721758
 20
90.76938876216964
 30
0.0
 10
164.8795445190417
 20
90.7527932821462
 30
0.0
 10
164.8553906504903
 20
90.74969352324267
 30
0.0
 10
164.8434537389135
 20
90.7481616134427
 30
0.0
  0
SPLINE
  5
138
330
1F
100
AcDbEntity
  8
0
  6
HIDDEN
 62
     7
370
     0
100
AcDbSpline
210
0.0
220
0.0
230
1.0
 70
     8
 71
     3
 72
    22
 73
    18
 74
     0
 42
0.00000001
 43
0.00000001
 12
1.0
 22
0.0
 32
0.0
 13
1.0
 23
0.0
 33
0.0
 40
0.0
 40
0.0
 40
0.0
 40
0.0
 40
0.0022119868471047
 40
0.0799684029100432
 40
0.1575272209552896
 40
0.2358577835459358
 40
0.3136122147965963
 40
0.3900719927085506
 40
0.4660893518218608
 40
0.5423589988219177
 40
0.6186534337227994
 40
0.6937723094550358
 40
0.7691592430128827
 40
0.8459429920566703
 40
0.9207581226786524
 40
0.9231032778326366
 40
1.0
 40
1.0
 40
1.0
 40
1.0
 10
170.4251889065659
 20
90.46853014776926
 30
0.0
 10
170.4256990213672
 20
90.4684074514587
 30
0.0
 10
170.4441408425822
 20
90.46397169813993
 30
0.0
 10
170.3804939211675
 20
90.47976907225063
 30
0.0
 10
170.2280618232213
 20
90.51661561570891
 30
0.0
 10
169.9614774836547
 20
90.5769052272017
 30
0.0
 10
169.6146487576668
 20
90.64937087035716
 30
0.0
 10
169.1908516996436
 20
90.72574585341833
 30
0.0
 10
168.7075388950772
 20
90.79703954410994
 30
0.0
 10
168.1787894473951
 20
90.85491904994534
 30
0.0
 10
167.6295976232737
 20
90.89466806460673
 30
0.0
 10
167.0801143467496
 20
90.91150250963283
 30
0.0
 10
166.5545904036699
 20
90.9062492414845
 30
0.0
 10
166.0663579972153
 20
90.8835186083267
 30
0.0
 10
165.7991833554711
 20
90.85937348864677
 30
0.0
 10
165.5148343038097
 20
90.8374076310004
 30
0.0
 10
165.4098143466405
 20
90.82419493661389
 30
0.0
 10
165.3079024442291
 20
90.81137327054958
 30
0.0
  0
SPLINE
  5
139
330
1F
100
AcDbEntity
  8
0
  6
HIDDEN
 62
     7
370
     0
100
AcDbSpline
210
0.0
220
0.0
230
1.0
 70
     8
 71
     3
 72
    22
 73
    18
 74
     0
 42
0.00000001
 43
0.00000001
 12
1.0
 22
0.0
 32
0.0
 13
1.0
 23
0.0
 33
0.0
 40
0.0
 40
0.0
 40
0.0
 40
0.0
 40
0.0769496979898115
 40
0.0780938880527605
 40
0.1541394023339273
 40
0.230948519945297
 40
0.3064555519845071
 40
0.3815281636167389
 40
0.4579812553650078
 40
0.5341646018648127
 40
0.6102700516631084
 40
0.6865845638039152
 40
0.7642917144352694
 40
0.8424373723746879
 40
0.9199456372638479
 40
0.9982050360904
 40
0.9999999999999999
 40
0.9999999999999999
 40
0.9999999999999999
 40
0.9999999999999999
 10
165.3077841662621
 20
120.208868361511
 30
0.0
 10
165.4098914611184
 20
120.1960790810318
 30
0.0
 10
165.51351702252
 20
120.1830996325854
 30
0.0
 10
165.7975746417526
 20
120.1610881936017
 30
0.0
 10
166.0649827147254
 20
120.1369514547663
 30
0.0
 10
166.5558822967436
 20
120.1140479767399
 30
0.0
 10
167.0816092324102
 20
120.1087317377606
 30
0.0
 10
167.6316758989715
 20
120.1255928800954
 30
0.0
 10
168.1808929289029
 20
120.1654846450127
 30
0.0
 10
168.7097584541429
 20
120.2235102999293
 30
0.0
 10
169.1925876534236
 20
120.294780302377
 30
0.0
 10
169.6161111037996
 20
120.3710922954611
 30
0.0
 10
169.9623702437616
 20
120.4434275062719
 30
0.0
 10
170.2282184261647
 20
120.5036352778844
 30
0.0
 10
170.3816314472543
 20
120.5405467270701
 30
0.0
 10
170.4423913871176
 20
120.5563101989678
 30
0.0
 10
170.4245892199584
 20
120.5518278198394
 30
0.0
 10
170.4241900631046
 20
120.5517273167751
 30
0.0
  0
SPLINE
  5
13A
330
1F
100
AcDbEntity
  8
0
  6
HIDDEN
 62
     7
370
     0
100
AcDbSpline
210
0.0
220
0.0
230
1.0
 70
     8
 71
     3
 72
    10
 73
     6
 74
     0
 42
0.00000001
 43
0.00000001
 12
1.0
 22
0.0
 32
0.0
 13
1.0
 23
0.0
 33
0.0
 40
0.0
 40
0.0
 40
0.0
 40
0.0
 40
0.3343825542418548
 40
0.6655473131622539
 40
0.9999999999999999
 40
0.9999999999999999
 40
0.9999999999999999
 40
0.9999999999999999
 10
164.8429880776262
 20
120.2721573183916
 30
0.0
 10
164.8526947551316
 20
120.270583466309
 30
0.0
 10
164.8720147018557
 20
120.2674509074731
 30
0.0
 10
165.0295861460702
 20
120.2433955210166
 30
0.0
 10
165.2147466159009
 20
120.2204152529631
 30
0.0
 10
165.3077841662621
 20
120.208868361511
 30
0.0
  0
SPLINE
  5
13B
330
1F
100
AcDbEntity
  8
0
  6
HIDDEN
 62
     7
370
     0
100
AcDbSpline
210
0.0
220
0.0
230
1.0
 70
    11
 71
     3
 72
    50
 73
    46
 74
     0
 42
0.00000001
 43
0.00000001
 12
1.0
 22
0.0
 32
0.0
 13
1.0
 23
0.0
 33
0.0
 40
0.0
 40
0.0
 40
0.0
 40
0.0
 40
0.0624999999999999
 40
0.0624999999999999
 40
0.1249999999999999
 40
0.1249999999999999
 40
0.1562499999999998
 40
0.1562499999999998
 40
0.1874999999999998
 40
0.1874999999999998
 40
0.2187499999999998
 40
0.2187499999999998
 40
0.2499999999999998
 40
0.2499999999999998
 40
0.2812499999999997
 40
0.2812499999999997
 40
0.3124999999999997
 40
0.3124999999999997
 40
0.3749999999999996
 40
0.3749999999999996
 40
0.4374999999999996
 40
0.4374999999999996
 40
0.4999999999999994
 40
0.4999999999999994
 40
0.5312499999999994
 40
0.5312499999999994
 40
0.5624999999999994
 40
0.5624999999999994
 40
0.5937499999999993
 40
0.5937499999999993
 40
0.6249999999999993
 40
0.6249999999999993
 40
0.6562499999999993
 40
0.6562499999999993
 40
0.6874999999999993
 40
0.6874999999999993
 40
0.7499999999999994
 40
0.7499999999999994
 40
0.8124999999999996
 40
0.8124999999999996
 40
0.8749999999999998
 40
0.8749999999999998
 40
0.9374999999999999
 40
0.9374999999999999
 40
1.0
 40
1.0
 40
1.0
 40
1.0
 10
169.4830875798781
 20
92.83731797313102
 30
0.0
 10
169.3368327450765
 20
92.85837049895649
 30
0.0
 10
169.1653641081182
 20
92.88065172363851
 30
0.0
 10
168.7722195026082
 20
92.92149321398743
 30
0.0
 10
168.556975317043
 20
92.93925084890836
 30
0.0
 10
168.2142355304933
 20
92.95752414175196
 30
0.0
 10
168.0959891474378
 20
92.962234080766
 30
0.0
 10
167.8602101452595
 20
92.96823317582478
 30
0.0
 10
167.7416438355535
 20
92.96958900822062
 30
0.0
 10
167.503148754753
 20
92.9688945962099
 30
0.0
 10
167.3823563612311
 20
92.96679609321859
 30
0.0
 10
167.147290395766
 20
92.95941294369278
 30
0.0
 10
167.032234883266
 20
92.95415018042185
 30
0.0
 10
166.8070151285231
 20
92.94089641837333
 30
0.0
 10
166.6959329589208
 20
92.93281734369586
 30
0.0
 10
166.4846815119851
 20
92.91488161670084
 30
0.0
 10
166.3843232774844
 20
92.90504538148738
 30
0.0
 10
166.098679320461
 20
92.87402971306595
 30
0.0
 10
165.9284005768651
 20
92.85119801884727
 30
0.0
 10
165.6522494469448
 20
92.81050074451656
 30
0.0
 10
165.54255026056
 20
92.79217469494438
 30
0.0
 10
165.3970071793961
 20
92.76714709569944
 30
0.0
 10
165.3590005439388
 20
92.76014444633199
 30
0.0
 10
165.358866250581
 20
92.76012022086516
 30
0.0
 10
165.3679840058232
 20
92.76177480812132
 30
0.0
 10
165.4049025513368
 20
92.76835745139418
 30
0.0
 10
165.4328762063616
 20
92.77331369291686
 30
0.0
 10
165.5056477858139
 20
92.7858303656152
 30
0.0
 10
165.5505730239755
 20
92.79341490492862
 30
0.0
 10
165.6576163389311
 20
92.8107231603018
 30
0.0
 10
165.7201843798975
 20
92.82050745209455
 30
0.0
 10
165.858575282637
 20
92.84091265376061
 30
0.0
 10
165.9347587384114
 20
92.85159760868369
 30
0.0
 10
166.1011144722225
 20
92.87318134626108
 30
0.0
 10
166.1921427746672
 20
92.88416745526222
 30
0.0
 10
166.4787965913401
 20
92.91532453902833
 30
0.0
 10
166.6908486494577
 20
92.93402072606449
 30
0.0
 10
167.1440259254123
 20
92.96076800677996
 30
0.0
 10
167.3786555741522
 20
92.96847361348179
 30
0.0
 10
167.8600791236108
 20
92.96999162097998
 30
0.0
 10
168.0953844938793
 20
92.96380293274761
 30
0.0
 10
168.5552921455548
 20
92.93939759705479
 30
0.0
 10
168.769720657514
 20
92.92171444312947
 30
0.0
 10
169.1629198422794
 20
92.88094352609686
 30
0.0
 10
169.3368289139445
 20
92.85837105042546
 30
0.0
 10
169.4830875798781
 20
92.83731797313102
 30
0.0
  0
SPLINE
  5
13C
330
1F
100
AcDbEntity
  8
0
  6
HIDDEN
 62
     7
370
     0
100
AcDbSpline
210
0.0
220
0.0
230
1.0
 70
    11
 71
     3
 72
    50
 73
    46
 74
     0
 42
0.00000001
 43
0.00000001
 12
1.0
 22
0.0
 32
0.0
 13
1.0
 23
0.0
 33
0.0
 40
0.0
 40
0.0
 40
0.0
 40
0.0
 40
0.0625000000000001
 40
0.0625000000000001
 40
0.1250000000000001
 40
0.1250000000000001
 40
0.1562500000000002
 40
0.1562500000000002
 40
0.1875000000000002
 40
0.1875000000000002
 40
0.2187500000000002
 40
0.2187500000000002
 40
0.2500000000000003
 40
0.2500000000000003
 40
0.2812500000000003
 40
0.2812500000000003
 40
0.3125000000000003
 40
0.3125000000000003
 40
0.3750000000000004
 40
0.3750000000000004
 40
0.4375000000000005
 40
0.4375000000000005
 40
0.5000000000000006
 40
0.5000000000000006
 40
0.5312500000000006
 40
0.5312500000000006
 40
0.5625000000000007
 40
0.5625000000000007
 40
0.5937500000000007
 40
0.5937500000000007
 40
0.6250000000000007
 40
0.6250000000000007
 40
0.6562500000000008
 40
0.6562500000000008
 40
0.6875000000000008
 40
0.6875000000000008
 40
0.7500000000000006
 40
0.7500000000000006
 40
0.8125000000000004
 40
0.8125000000000004
 40
0.8750000000000003
 40
0.8750000000000003
 40
0.9375000000000001
 40
0.9375000000000001
 40
1.0
 40
1.0
 40
1.0
 40
1.0
 10
169.4830875798781
 20
118.1829385600908
 30
0.0
 10
169.3368327450765
 20
118.1618860342653
 30
0.0
 10
169.1653641081182
 20
118.1396048095833
 30
0.0
 10
168.7722195026082
 20
118.0987633192344
 30
0.0
 10
168.5569753170429
 20
118.0810056843135
 30
0.0
 10
168.2142355304933
 20
118.0627323914699
 30
0.0
 10
168.0959891474378
 20
118.0580224524558
 30
0.0
 10
167.8602101452595
 20
118.052023357397
 30
0.0
 10
167.7416438355535
 20
118.0506675250012
 30
0.0
 10
167.503148754753
 20
118.0513619370119
 30
0.0
 10
167.3823563612311
 20
118.0534604400032
 30
0.0
 10
167.147290395766
 20
118.060843589529
 30
0.0
 10
167.032234883266
 20
118.0661063528
 30
0.0
 10
166.8070151285231
 20
118.0793601148485
 30
0.0
 10
166.6959329589208
 20
118.087439189526
 30
0.0
 10
166.4846815119851
 20
118.105374916521
 30
0.0
 10
166.3843232774844
 20
118.1152111517344
 30
0.0
 10
166.098679320461
 20
118.1462268201559
 30
0.0
 10
165.9284005768651
 20
118.1690585143746
 30
0.0
 10
165.6522494469448
 20
118.2097557887053
 30
0.0
 10
165.54255026056
 20
118.2280818382774
 30
0.0
 10
165.3970071793961
 20
118.2531094375224
 30
0.0
 10
165.3590005439388
 20
118.2601120868898
 30
0.0
 10
165.358866250581
 20
118.2601363123567
 30
0.0
 10
165.3679840058232
 20
118.2584817251005
 30
0.0
 10
165.4049025513368
 20
118.2518990818276
 30
0.0
 10
165.4328762063616
 20
118.246942840305
 30
0.0
 10
165.5056477858139
 20
118.2344261676066
 30
0.0
 10
165.5505730239756
 20
118.2268416282932
 30
0.0
 10
165.6576163389311
 20
118.20953337292
 30
0.0
 10
165.7201843798975
 20
118.1997490811273
 30
0.0
 10
165.858575282637
 20
118.1793438794612
 30
0.0
 10
165.9347587384114
 20
118.1686589245381
 30
0.0
 10
166.1011144722225
 20
118.1470751869607
 30
0.0
 10
166.1921427746672
 20
118.1360890779596
 30
0.0
 10
166.4787965913401
 20
118.1049319941935
 30
0.0
 10
166.6908486494577
 20
118.0862358071573
 30
0.0
 10
167.1440259254123
 20
118.0594885264419
 30
0.0
 10
167.3786555741522
 20
118.05178291974
 30
0.0
 10
167.8600791236108
 20
118.0502649122419
 30
0.0
 10
168.0953844938793
 20
118.0564536004742
 30
0.0
 10
168.5552921455548
 20
118.080858936167
 30
0.0
 10
168.769720657514
 20
118.0985420900923
 30
0.0
 10
169.1629198422794
 20
118.139313007125
 30
0.0
 10
169.3368289139445
 20
118.1618854827964
 30
0.0
 10
169.4830875798781
 20
118.1829385600908
 30
0.0
  0
SPLINE
  5
13D
330
1F
100
AcDbEntity
  8
0
  6
HIDDEN
 62
     7
370
     0
100
AcDbSpline
210
0.0
220
0.0
230
1.0
 70
    11
 71
     3
 72
    14
 73
    10
 74
     0
 42
0.00000001
 43
0.00000001
 12
1.0
 22
0.0
 32
0.0
 13
1.0
 23
0.0
 33
0.0
 40
0.0
 40
0.0
 40
0.0
 40
0.0
 40
0.2499999999999999
 40
0.2499999999999999
 40
0.4999999999999999
 40
0.4999999999999999
 40
0.7499999999999998
 40
0.7499999999999998
 40
1.0
 40
1.0
 40
1.0
 40
1.0
 10
169.4830875798781
 20
118.1829385600908
 30
0.0
 10
169.636963475581
 20
118.2050880929428
 30
0.0
 10
169.75484404321
 20
118.2179001600164
 30
0.0
 10
169.9179078331227
 20
118.2342528688469
 30
0.0
 10
169.9588243517464
 20
118.2374286315647
 30
0.0
 10
169.9589970842626
 20
118.2374433337415
 30
0.0
 10
169.9180693260287
 20
118.234263782748
 30
0.0
 10
169.7557319605632
 20
118.2179944512705
 30
0.0
 10
169.6369616924571
 20
118.2050878362725
 30
0.0
 10
169.4830875798781
 20
118.1829385600908
 30
0.0
  0
SPLINE
  5
13E
330
1F
100
AcDbEntity
  8
0
  6
HIDDEN
 62
     7
370
     0
100
AcDbSpline
210
0.0
220
0.0
230
1.0
 70
    11
 71
     3
 72
    14
 73
    10
 74
     0
 42
0.00000001
 43
0.00000001
 12
1.0
 22
0.0
 32
0.0
 13
1.0
 23
0.0
 33
0.0
 40
0.0
 40
0.0
 40
0.0
 40
0.0
 40
0.2500000000000001
 40
0.2500000000000001
 40
0.5000000000000001
 40
0.5000000000000001
 40
0.7500000000000002
 40
0.7500000000000002
 40
1.0
 40
1.0
 40
1.0
 40
1.0
 10
169.4830875798781
 20
92.83731797313102
 30
0.0
 10
169.636963475581
 20
92.81516844027904
 30
0.0
 10
169.75484404321
 20
92.8023563732054
 30
0.0
 10
169.9179078331227
 20
92.78600366437495
 30
0.0
 10
169.9588243517464
 20
92.7828279016571
 30
0.0
 10
169.9589970842626
 20
92.78281319948037
 30
0.0
 10
169.9180693260287
 20
92.78599275047378
 30
0.0
 10
169.7557319605632
 20
92.80226208195127
 30
0.0
 10
169.6369616924571
 20
92.81516869694927
 30
0.0
 10
169.4830875798781
 20
92.83731797313102
 30
0.0
  0
LINE
  5
13F
330
1F
100
AcDbEntity
  8
0
  6
HIDDEN
 62
     7
370
     0
100
AcDbLine
 10
173.658910852
 20
95.0101284082
 30
0.0
 11
173.658910852
 21
115.997866332
 31
0.0
  0
SPLINE
  5
140
330
1F
100
AcDbEntity
  8
0
  6
HIDDEN
 62
     7
370
     0
100
AcDbSpline
210
0.0
220
0.0
230
1.0
 70
     8
 71
     3
 72
    26
 73
    22
 74
     0
 42
0.00000001
 43
0.00000001
 12
1.0
 22
0.0
 32
0.0
 13
1.0
 23
0.0
 33
0.0
 40
0.0
 40
0.0
 40
0.0
 40
0.0
 40
0.1249999999999989
 40
0.1249999999999989
 40
0.2499999999999978
 40
0.2499999999999978
 40
0.3749999999999968
 40
0.3749999999999968
 40
0.4999999999999957
 40
0.4999999999999957
 40
0.6249999999999946
 40
0.6249999999999946
 40
0.6874999999999954
 40
0.6874999999999954
 40
0.7499999999999963
 40
0.7499999999999963
 40
0.8124999999999973
 40
0.8124999999999973
 40
0.8749999999999982
 40
0.8749999999999982
 40
1.0
 40
1.0
 40
1.0
 40
1.0
 10
192.0472160761923
 20
107.8007089102725
 30
0.0
 10
192.0278797629786
 20
107.7549386997374
 30
0.0
 10
192.0134906768975
 20
107.7011471791955
 30
0.0
 10
192.0056350926462
 20
107.5613583822834
 30
0.0
 10
192.013277370809
 20
107.4739846443225
 30
0.0
 10
192.0659385019941
 20
107.2716476076019
 30
0.0
 10
192.1106791660075
 20
107.1592902543096
 30
0.0
 10
192.2269700145206
 20
106.9443701685379
 30
0.0
 10
192.2990065770951
 20
106.8401383952859
 30
0.0
 10
192.4603493945102
 20
106.6532934810593
 30
0.0
 10
192.549940009027
 20
106.5695527209116
 30
0.0
 10
192.7017060946284
 20
106.4545720613876
 30
0.0
 10
192.7552771676123
 20
106.418018091851
 30
0.0
 10
192.8679527120155
 20
106.3476608430048
 30
0.0
 10
192.9284546047544
 20
106.3130613218706
 30
0.0
 10
193.049664194947
 20
106.2469219266706
 30
0.0
 10
193.1113795651985
 20
106.2146783224642
 30
0.0
 10
193.2264431817558
 20
106.1551292882826
 30
0.0
 10
193.2811753610774
 20
106.1271407614904
 30
0.0
 10
193.4340902238958
 20
106.0493960955827
 30
0.0
 10
193.5249632558501
 20
106.0039298129779
 30
0.0
 10
193.6121343525633
 20
105.9612506779438
 30
0.0
  0
LWPOLYLINE
  5
141
330
1F
100
AcDbEntity
  8
0
  6
HIDDEN
 62
     7
370
     0
100
AcDbPolyline
 90
       23
 70
   128
 43
0.0
 10
192.0472157114
 20
107.8007089211
 10
191.8324843907
 20
108.1831060121
 10
191.6643694901
 20
108.5366053278
 10
191.551325556
 20
108.8434297829
 10
191.499039244
 20
109.0881492248
 10
191.5101387464
 20
109.2584571573
 10
191.5840652698
 20
109.3457886721
 10
191.7171009742
 20
109.3457521177
 10
191.9025589638
 20
109.2583493567
 10
192.1311073863
 20
109.087975766
 10
192.3912574463
 20
108.8431992805
 10
192.6699240618
 20
108.5363294235
 10
192.9530926906
 20
108.1827984429
 10
193.2265252732
 20
107.8003852865
 10
193.4764680379
 20
107.4083210672
 10
193.6903555804
 20
107.026322233
 10
193.8574292623
 20
106.6735992911
 10
193.9692866915
 20
106.3678904441
 10
194.0203026795
 20
106.1245694412
 10
194.0079142266
 20
105.9558726968
 10
193.9327415936
 20
105.8702838611
 10
193.7985659503
 20
105.8721070706
 10
193.6121337973
 20
105.9612506772
  0
SPLINE
  5
142
330
1F
100
AcDbEntity
  8
0
  6
HIDDEN
 62
     7
370
     0
100
AcDbSpline
210
0.0
220
0.0
230
1.0
 70
     8
 71
     3
 72
    50
 73
    46
 74
     0
 42
0.00000001
 43
0.00000001
 12
1.0
 22
0.0
 32
0.0
 13
1.0
 23
0.0
 33
0.0
 40
0.0
 40
0.0
 40
0.0
 40
0.0
 40
0.0312500000000001
 40
0.0312500000000001
 40
0.0625000000000002
 40
0.0625000000000002
 40
0.0937500000000002
 40
0.0937500000000002
 40
0.1250000000000003
 40
0.1250000000000003
 40
0.1875000000000005
 40
0.1875000000000005
 40
0.2500000000000007
 40
0.2500000000000007
 40
0.3125000000000009
 40
0.3125000000000009
 40
0.3437500000000012
 40
0.3437500000000012
 40
0.3750000000000015
 40
0.3750000000000015
 40
0.4375000000000021
 40
0.4375000000000021
 40
0.4687500000000022
 40
0.4687500000000022
 40
0.5000000000000022
 40
0.5000000000000022
 40
0.5625000000000024
 40
0.5625000000000024
 40
0.6250000000000026
 40
0.6250000000000026
 40
0.6875000000000028
 40
0.6875000000000028
 40
0.7500000000000029
 40
0.7500000000000029
 40
0.7812500000000024
 40
0.7812500000000024
 40
0.8125000000000019
 40
0.8125000000000019
 40
0.8437500000000014
 40
0.8437500000000014
 40
0.875000000000001
 40
0.875000000000001
 40
0.9375000000000004
 40
0.9375000000000004
 40
1.0
 40
1.0
 40
1.0
 40
1.0
 10
195.6240127997604
 20
107.5098160004399
 30
0.0
 10
195.6059445586561
 20
107.4262012909791
 30
0.0
 10
195.5886197333973
 20
107.3492233908757
 30
0.0
 10
195.572558030845
 20
107.2192124808681
 30
0.0
 10
195.5765066771827
 20
107.1696721395806
 30
0.0
 10
195.618689353461
 20
107.1194403160423
 30
0.0
 10
195.6547992421372
 20
107.1168493867111
 30
0.0
 10
195.7339580386773
 20
107.1340643424866
 30
0.0
 10
195.7775844528153
 20
107.1536157230801
 30
0.0
 10
195.9069256467639
 20
107.2293118185735
 30
0.0
 10
195.9904062307865
 20
107.30147733023
 30
0.0
 10
196.1344617717092
 20
107.4725395794652
 30
0.0
 10
196.1958894390586
 20
107.5731846819672
 30
0.0
 10
196.2817453872545
 20
107.7982901166718
 30
0.0
 10
196.3072584395669
 20
107.9245066110029
 30
0.0
 10
196.304713876212
 20
108.1341561146937
 30
0.0
 10
196.2970498888913
 20
108.2066901250102
 30
0.0
 10
196.2651665053136
 20
108.357906131152
 30
0.0
 10
196.2405237011019
 20
108.4374344311939
 30
0.0
 10
196.1388009262632
 20
108.6776975814797
 30
0.0
 10
196.0301230714381
 20
108.8455678146506
 30
0.0
 10
195.8170025643689
 20
109.0767480907908
 30
0.0
 10
195.7364260578547
 20
109.1519022559106
 30
0.0
 10
195.5667582569131
 20
109.2896529554912
 30
0.0
 10
195.4764655463494
 20
109.3535047465716
 30
0.0
 10
195.1966733468916
 20
109.5278441275874
 30
0.0
 10
195.0034330763689
 20
109.6187416649696
 30
0.0
 10
194.6155346794717
 20
109.7610257836093
 30
0.0
 10
194.4258437397297
 20
109.8107895939906
 30
0.0
 10
194.0508403698793
 20
109.8777761426287
 30
0.0
 10
193.8659544448394
 20
109.8945487710154
 30
0.0
 10
193.508382498492
 20
109.8946961545537
 30
0.0
 10
193.3346412589262
 20
109.8798282136323
 30
0.0
 10
193.0689827339841
 20
109.8164552440383
 30
0.0
 10
192.9784012959371
 20
109.7878270829058
 30
0.0
 10
192.7974500865345
 20
109.7041819956028
 30
0.0
 10
192.7060870312756
 20
109.6475281274881
 30
0.0
 10
192.5387815780623
 20
109.5004587926118
 30
0.0
 10
192.4673509297329
 20
109.4147862560743
 30
0.0
 10
192.3470073980518
 20
109.2364226530518
 30
0.0
 10
192.2972580772731
 20
109.1435378023809
 30
0.0
 10
192.1680790567092
 20
108.8542667709429
 30
0.0
 10
192.1113791365572
 20
108.6548392454346
 30
0.0
 10
192.0421895573818
 20
108.2378752122696
 30
0.0
 10
192.0311497596791
 20
108.0199350523568
 30
0.0
 10
192.0472160761923
 20
107.8007089102725
 30
0.0
  0
SPLINE
  5
143
330
1F
100
AcDbEntity
  8
0
  6
HIDDEN
 62
     7
370
     0
100
AcDbSpline
210
0.0
220
0.0
230
1.0
 70
     8
 71
     3
 72
    18
 73
    14
 74
     0
 42
0.00000001
 43
0.00000001
 12
1.0
 22
0.0
 32
0.0
 13
1.0
 23
0.0
 33
0.0
 40
0.0
 40
0.0
 40
0.0
 40
0.0
 40
0.25
 40
0.25
 40
0.5
 40
0.5
 40
0.625
 40
0.625
 40
0.75
 40
0.75
 40
0.875
 40
0.875
 40
1.0
 40
1.0
 40
1.0
 40
1.0
 10
193.6121343525633
 20
105.9612506779438
 30
0.0
 10
193.7469887302077
 20
105.957300020398
 30
0.0
 10
193.8757339003977
 20
105.9736049799941
 30
0.0
 10
194.1191813207299
 20
106.0381938538698
 30
0.0
 10
194.2352787006254
 20
106.0874104822628
 30
0.0
 10
194.3849829975355
 20
106.178363958075
 30
0.0
 10
194.4310029180955
 20
106.2116286978518
 30
0.0
 10
194.5085624141051
 20
106.2810634218813
 30
0.0
 10
194.5397741536642
 20
106.3168172489981
 30
0.0
 10
194.5735980161992
 20
106.384382973489
 30
0.0
 10
194.5739696342814
 20
106.4142444226908
 30
0.0
 10
194.5378481922634
 20
106.4589951906283
 30
0.0
 10
194.5029193054568
 20
106.4738972567561
 30
0.0
 10
194.4593029553732
 20
106.485151383608
 30
0.0
  0
SPLINE
  5
144
330
1F
100
AcDbEntity
  8
0
  6
HIDDEN
 62
     7
370
     0
100
AcDbSpline
210
0.0
220
0.0
230
1.0
 70
     8
 71
     3
 72
    12
 73
     8
 74
     0
 42
0.00000001
 43
0.00000001
 12
1.0
 22
0.0
 32
0.0
 13
1.0
 23
0.0
 33
0.0
 40
0.0
 40
0.0
 40
0.0
 40
0.0
 40
0.5000000000000001
 40
0.5000000000000001
 40
0.75
 40
0.75
 40
1.0
 40
1.0
 40
1.0
 40
1.0
 10
194.4593029553732
 20
106.485151383608
 30
0.0
 10
194.6389539045448
 20
106.6698425333592
 30
0.0
 10
194.8190860573379
 20
106.8560953596046
 30
0.0
 10
195.1095627071732
 20
107.1194394691922
 30
0.0
 10
195.2105362855529
 20
107.204953710761
 30
0.0
 10
195.4149511762687
 20
107.3645449711762
 30
0.0
 10
195.518815367117
 20
107.4391797085775
 30
0.0
 10
195.6240127997603
 20
107.5098160004399
 30
0.0
  0
LINE
  5
145
330
1F
100
AcDbEntity
  8
0
  6
HIDDEN
 62
     7
370
     0
100
AcDbLine
 10
161.6615603604
 20
116.010128125
 30
0.0
 11
161.6615603604
 21
95.0101284082
 31
0.0
  0
LINE
  5
146
330
1F
100
AcDbEntity
  8
0
  6
HIDDEN
 62
     7
370
     0
100
AcDbLine
 10
188.6189111435
 20
119.0259750704
 30
0.0
 11
188.6189111435
 21
122.9127324889
 31
0.0
  0
LINE
  5
147
330
1F
100
AcDbEntity
  8
0
  6
HIDDEN
 62
     7
370
     0
100
AcDbLine
 10
186.1025809237
 20
117.3601286257
 30
0.0
 11
193.9380352312
 21
117.3601286257
 31
0.0
  0
LINE
  5
148
330
1F
100
AcDbEntity
  8
0
  6
HIDDEN
 62
     7
370
     0
100
AcDbLine
 10
190.6989102178
 20
119.0259750704
 30
0.0
 11
190.6989102178
 21
122.9127324889
 31
0.0
  0
ARC
  5
149
330
1F
100
AcDbEntity
  8
0
  6
HIDDEN
 62
     7
370
     0
100
AcDbCircle
 10
193.6860371011
 20
108.5383825756
 30
0.0
 40
2.194013886821414
100
AcDbArc
 50
290.6368164405
 51
332.0431866659
  0
SPLINE
  5
14A
330
1F
100
AcDbEntity
  8
0
  6
HIDDEN
 62
     7
370
     0
100
AcDbSpline
210
0.0
220
0.0
230
1.0
 70
     8
 71
     3
 72
    64
 73
    60
 74
     0
 42
0.00000001
 43
0.00000001
 12
1.0
 22
0.0
 32
0.0
 13
1.0
 23
0.0
 33
0.0
 40
-0.03125
 40
-0.03125
 40
0.0
 40
0.0
 40
0.0624999999999997
 40
0.0624999999999997
 40
0.1249999999999995
 40
0.1249999999999995
 40
0.1874999999999992
 40
0.1874999999999992
 40
0.2187499999999993
 40
0.2187499999999993
 40
0.2499999999999993
 40
0.2499999999999993
 40
0.2812499999999994
 40
0.2812499999999994
 40
0.3124999999999994
 40
0.3124999999999994
 40
0.3437499999999994
 40
0.3437499999999994
 40
0.3749999999999994
 40
0.3749999999999994
 40
0.4062499999999995
 40
0.4062499999999995
 40
0.4374999999999996
 40
0.4374999999999996
 40
0.4687499999999996
 40
0.4687499999999996
 40
0.4999999999999997
 40
0.4999999999999997
 40
0.5312499999999998
 40
0.5312499999999998
 40
0.5624999999999999
 40
0.5624999999999999
 40
0.5937499999999999
 40
0.5937499999999999
 40
0.625
 40
0.625
 40
0.6562500000000001
 40
0.6562500000000001
 40
0.6875000000000002
 40
0.6875000000000002
 40
0.7187500000000002
 40
0.7187500000000002
 40
0.7500000000000001
 40
0.7500000000000001
 40
0.7812500000000001
 40
0.7812500000000001
 40
0.8125000000000001
 40
0.8125000000000001
 40
0.8437500000000001
 40
0.8437500000000001
 40
0.8750000000000001
 40
0.8750000000000001
 40
0.9062500000000001
 40
0.9062500000000001
 40
0.9375
 40
0.9375
 40
0.96875
 40
0.96875
 40
1.0
 40
1.0
 40
1.0625
 40
1.0625
 10
195.6605009876056
 20
103.8327632653644
 30
0.0
 10
195.2100003748663
 20
103.8327632653644
 30
0.0
 10
194.9265869658812
 20
103.91604813162
 30
0.0
 10
194.4177831357957
 20
104.1563342961183
 30
0.0
 10
194.1843873662864
 20
104.3174303009016
 30
0.0
 10
193.7695226851366
 20
104.7014166914737
 30
0.0
 10
193.5845127729018
 20
104.9287243999966
 30
0.0
 10
193.3717551156944
 20
105.3149640766256
 30
0.0
 10
193.3114187856045
 20
105.4525684663654
 30
0.0
 10
193.2222586365451
 20
105.733628856681
 30
0.0
 10
193.192498435294
 20
105.8811456919742
 30
0.0
 10
193.1703554963562
 20
106.1686764740555
 30
0.0
 10
193.177423382169
 20
106.311649075179
 30
0.0
 10
193.2271969533782
 20
106.5833941428194
 30
0.0
 10
193.2690871705552
 20
106.7101482015842
 30
0.0
 10
193.3815921506211
 20
106.9449514371742
 30
0.0
 10
193.4502509599806
 20
107.0494194963076
 30
0.0
 10
193.607758914971
 20
107.2384316335944
 30
0.0
 10
193.6973299316008
 20
107.3231397641172
 30
0.0
 10
193.8881144989074
 20
107.4704870746426
 30
0.0
 10
193.9900026304052
 20
107.5340837542996
 30
0.0
 10
194.2066213094894
 20
107.644960346852
 30
0.0
 10
194.3222483713838
 20
107.6924312691923
 30
0.0
 10
194.5621372786425
 20
107.7710126934742
 30
0.0
 10
194.686688640237
 20
107.8024616708091
 30
0.0
 10
194.9490417256422
 20
107.8516794508517
 30
0.0
 10
195.0892575162363
 20
107.8696994396278
 30
0.0
 10
195.3799803271865
 20
107.8901520037062
 30
0.0
 10
195.5319829381247
 20
107.8925869381445
 30
0.0
 10
195.8256109787906
 20
107.8791061087173
 30
0.0
 10
195.9685368566744
 20
107.8630213442414
 30
0.0
 10
196.2303899585305
 20
107.811926130981
 30
0.0
 10
196.3510737007819
 20
107.7769626549027
 30
0.0
 10
196.5753072896111
 20
107.6867433071238
 30
0.0
 10
196.6768999059343
 20
107.6324282695589
 30
0.0
 10
196.8645992393414
 20
107.5029239939253
 30
0.0
 10
196.9514183440499
 20
107.4267572293028
 30
0.0
 10
197.1054925492569
 20
107.2541975724493
 30
0.0
 10
197.1727863994192
 20
107.1582865813713
 30
0.0
 10
197.2878415154692
 20
106.9443201927425
 30
0.0
 10
197.3358570204641
 20
106.8245460339638
 30
0.0
 10
197.4055531285764
 20
106.5711429911801
 30
0.0
 10
197.4280736350807
 20
106.4357229825687
 30
0.0
 10
197.4456855926691
 20
106.1523325985775
 30
0.0
 10
197.4407278417142
 20
106.0084454120584
 30
0.0
 10
197.404019519905
 20
105.7164502775579
 30
0.0
 10
197.3719510204708
 20
105.5691368641432
 30
0.0
 10
197.2849541906201
 20
105.2859158470906
 30
0.0
 10
197.2290472996353
 20
105.1466872486585
 30
0.0
 10
197.0985000428694
 20
104.8850474223525
 30
0.0
 10
197.0238993069557
 20
104.7618340668457
 30
0.0
 10
196.8553614987222
 20
104.529872435633
 30
0.0
 10
196.7633977124814
 20
104.4238442420191
 30
0.0
 10
196.5628638547486
 20
104.2319894319362
 30
0.0
 10
196.4530071258687
 20
104.1451615152079
 30
0.0
 10
196.2151821160613
 20
103.9985932656926
 30
0.0
 10
196.0865076011278
 20
103.9383419013866
 30
0.0
 10
195.8082882875844
 20
103.8547728785877
 30
0.0
 10
195.6605009876056
 20
103.8327632653644
 30
0.0
 10
195.2100003748663
 20
103.8327632653644
 30
0.0
  0
LINE
  5
14B
330
1F
100
AcDbEntity
  8
0
  6
HIDDEN
 62
     7
370
     0
100
AcDbLine
 10
153.7589111292
 20
95.6451218347
 30
0.0
 11
153.7589111292
 21
115.3751346985
 31
0.0
  0
LINE
  5
14C
330
1F
100
AcDbEntity
  8
0
  6
HIDDEN
 62
     7
370
     0
100
AcDbLine
 10
179.8282858842
 20
116.010128125
 30
0.0
 11
179.8282858842
 21
95.0101284082
 31
0.0
  0
LINE
  5
14D
330
1F
100
AcDbEntity
  8
0
  6
HIDDEN
 62
     7
370
     0
100
AcDbLine
 10
181.6089113169
 20
115.3851277898
 30
0.0
 11
181.6089113169
 21
95.6351278121
 31
0.0
  0
LINE
  5
14E
330
1F
100
AcDbEntity
  8
0
  6
HIDDEN
 62
     7
370
     0
100
AcDbLine
 10
154.7089104467
 20
95.812222525
 30
0.0
 11
158.9589106777
 21
95.812222525
 31
0.0
  0
LINE
  5
14F
330
1F
100
AcDbEntity
  8
0
  6
HIDDEN
 62
     7
370
     0
100
AcDbLine
 10
154.7089104467
 20
115.2080340082
 30
0.0
 11
154.7089104467
 21
95.812222525
 31
0.0
  0
LINE
  5
150
330
1F
100
AcDbEntity
  8
0
  6
HIDDEN
 62
     7
370
     0
100
AcDbLine
 10
156.4589102679
 20
115.2080340082
 30
0.0
 11
154.7089104467
 21
115.2080340082
 31
0.0
  0
SPLINE
  5
151
330
1F
100
AcDbEntity
  8
0
  6
HIDDEN
 62
     7
370
     0
100
AcDbSpline
210
0.0
220
0.0
230
1.0
 70
     8
 71
     3
 72
    14
 73
    10
 74
     0
 42
0.00000001
 43
0.00000001
 12
1.0
 22
0.0
 32
0.0
 13
1.0
 23
0.0
 33
0.0
 40
0.0
 40
0.0
 40
0.0
 40
0.0
 40
0.2499999999999999
 40
0.2499999999999999
 40
0.4999999999999998
 40
0.4999999999999998
 40
0.7499999999999997
 40
0.7499999999999997
 40
1.0
 40
1.0
 40
1.0
 40
1.0
 10
157.3589108520007
 20
115.5343177600313
 30
0.0
 10
157.3589108520007
 20
115.4978458954975
 30
0.0
 10
157.3365402201966
 20
115.460110142985
 30
0.0
 10
157.2493246889484
 20
115.3849744212855
 30
0.0
 10
157.1853034828717
 20
115.3486021350635
 30
0.0
 10
157.0218181851305
 20
115.2843785959014
 30
0.0
 10
156.9225033109572
 20
115.2568556332789
 30
0.0
 10
156.7026770402522
 20
115.2186834663918
 30
0.0
 10
156.581673477943
 20
115.2080339683591
 30
0.0
 10
156.4589108520007
 20
115.2080339683591
 30
0.0
  0
LINE
  5
152
330
1F
100
AcDbEntity
  8
0
  6
HIDDEN
 62
     7
370
     0
100
AcDbLine
 10
157.3589106017
 20
115.5343182156
 30
0.0
 11
157.3589106017
 21
116.010128125
 31
0.0
  0
SPLINE
  5
153
330
1F
100
AcDbEntity
  8
0
  6
HIDDEN
 62
     7
370
     0
100
AcDbSpline
210
0.0
220
0.0
230
1.0
 70
     8
 71
     3
 72
    14
 73
    10
 74
     0
 42
0.00000001
 43
0.00000001
 12
1.0
 22
0.0
 32
0.0
 13
1.0
 23
0.0
 33
0.0
 40
0.0
 40
0.0
 40
0.0
 40
0.0
 40
0.25
 40
0.25
 40
0.5
 40
0.5
 40
0.75
 40
0.75
 40
1.0
 40
1.0
 40
1.0
 40
1.0
 10
157.3589108520007
 20
115.5343177600313
 30
0.0
 10
157.3589108520007
 20
115.4978458954975
 30
0.0
 10
157.3365402201966
 20
115.460110142985
 30
0.0
 10
157.2493246889484
 20
115.3849744212855
 30
0.0
 10
157.1853034828717
 20
115.3486021350635
 30
0.0
 10
157.0218181851305
 20
115.2843785959014
 30
0.0
 10
156.9225033109572
 20
115.2568556332789
 30
0.0
 10
156.7026770402522
 20
115.2186834663918
 30
0.0
 10
156.581673477943
 20
115.2080339683591
 30
0.0
 10
156.4589108520007
 20
115.2080339683591
 30
0.0
  0
SPLINE
  5
154
330
1F
100
AcDbEntity
  8
0
  6
HIDDEN
 62
     7
370
     0
100
AcDbSpline
210
0.0
220
0.0
230
1.0
 70
     8
 71
     3
 72
    14
 73
    10
 74
     0
 42
0.00000001
 43
0.00000001
 12
1.0
 22
0.0
 32
0.0
 13
1.0
 23
0.0
 33
0.0
 40
0.0
 40
0.0
 40
0.0
 40
0.0
 40
0.2500000000000003
 40
0.2500000000000003
 40
0.5000000000000007
 40
0.5000000000000007
 40
0.7500000000000003
 40
0.7500000000000003
 40
1.0
 40
1.0
 40
1.0
 40
1.0
 10
158.9589108520007
 20
95.81222256486271
 30
0.0
 10
159.0815162753872
 20
95.81222256486271
 30
0.0
 10
159.2018593774799
 20
95.80167922295273
 30
0.0
 10
159.4221593816589
 20
95.76349626232809
 30
0.0
 10
159.5218031279463
 20
95.7358549941873
 30
0.0
 10
159.6846912130073
 20
95.67192366939994
 30
0.0
 10
159.74933586981
 20
95.63520493043606
 30
0.0
 10
159.8360588347059
 20
95.56062828499043
 30
0.0
 10
159.8589108520007
 20
95.52237255111675
 30
0.0
 10
159.8589108520007
 20
95.4859387731905
 30
0.0
  0
LINE
  5
155
330
1F
100
AcDbEntity
  8
0
  6
HIDDEN
 62
     7
370
     0
100
AcDbLine
 10
159.8589110114
 20
95.4859383176
 30
0.0
 11
159.8589110114
 21
95.0101284082
 31
0.0
  0
SPLINE
  5
156
330
1F
100
AcDbEntity
  8
0
  6
HIDDEN
 62
     7
370
     0
100
AcDbSpline
210
0.0
220
0.0
230
1.0
 70
     8
 71
     3
 72
    14
 73
    10
 74
     0
 42
0.00000001
 43
0.00000001
 12
1.0
 22
0.0
 32
0.0
 13
1.0
 23
0.0
 33
0.0
 40
0.0
 40
0.0
 40
0.0
 40
0.0
 40
0.2500000000000003
 40
0.2500000000000003
 40
0.5000000000000002
 40
0.5000000000000002
 40
0.7500000000000001
 40
0.7500000000000001
 40
1.0
 40
1.0
 40
1.0
 40
1.0
 10
158.9589108520007
 20
95.81222256486272
 30
0.0
 10
159.0815162753872
 20
95.81222256486271
 30
0.0
 10
159.2018593774799
 20
95.80167922295273
 30
0.0
 10
159.4221593816589
 20
95.76349626232809
 30
0.0
 10
159.5218031279463
 20
95.7358549941873
 30
0.0
 10
159.6846912130073
 20
95.67192366939994
 30
0.0
 10
159.74933586981
 20
95.63520493043606
 30
0.0
 10
159.8360588347059
 20
95.56062828499043
 30
0.0
 10
159.8589108520007
 20
95.52237255111675
 30
0.0
 10
159.8589108520007
 20
95.4859387731905
 30
0.0
  0
LINE
  5
157
330
1F
100
AcDbEntity
  8
0
  6
HIDDEN
 62
     7
370
     0
100
AcDbLine
 10
154.7089104467
 20
95.812222525
 30
0.0
 11
154.7089104467
 21
115.2080340082
 31
0.0
  0
LINE
  5
158
330
1F
100
AcDbEntity
  8
0
  6
HIDDEN
 62
     7
370
     0
100
AcDbLine
 10
157.3589106017
 20
116.510128207
 30
0.0
 11
157.3589106017
 21
119.0676526869
 31
0.0
  0
LINE
  5
159
330
1F
100
AcDbEntity
  8
0
  6
HIDDEN
 62
     7
370
     0
100
AcDbLine
 10
159.8589110114
 20
94.5101283262
 30
0.0
 11
159.8589110114
 21
91.9065518076
 31
0.0
  0
LINE
  5
15A
330
1F
100
AcDbEntity
  8
0
  6
HIDDEN
 62
     7
370
     0
100
AcDbLine
 10
154.7089104467
 20
116.510128207
 30
0.0
 11
154.7089104467
 21
118.3901285524
 31
0.0
  0
LINE
  5
15B
330
1F
100
AcDbEntity
  8
0
  6
HIDDEN
 62
     7
370
     0
100
AcDbLine
 10
153.7589111292
 20
116.510128207
 30
0.0
 11
153.7589111292
 21
117.4401283036
 31
0.0
  0
LINE
  5
15C
330
1F
100
AcDbEntity
  8
0
  6
HIDDEN
 62
     7
370
     0
100
AcDbLine
 10
154.7089104467
 20
94.5101283262
 30
0.0
 11
154.7089104467
 21
92.6891281972
 31
0.0
  0
LINE
  5
15D
330
1F
100
AcDbEntity
  8
0
  6
HIDDEN
 62
     7
370
     0
100
AcDbLine
 10
153.7589111292
 20
94.5101283262
 30
0.0
 11
153.7589111292
 21
93.6391284461
 31
0.0
  0
LINE
  5
15E
330
1F
100
AcDbEntity
  8
0
  6
HIDDEN
 62
     7
370
     0
100
AcDbLine
 10
186.9589106106
 20
111.7601283597
 30
0.0
 11
186.9589106106
 21
99.2601281735
 31
0.0
  0
LINE
  5
15F
330
1F
100
AcDbEntity
  8
0
  6
HIDDEN
 62
     7
370
     0
100
AcDbLine
 10
189.4589100891
 20
111.7601283597
 30
0.0
 11
189.4589100891
 21
99.2601281735
 31
0.0
  0
LINE
  5
160
330
1F
100
AcDbEntity
  8
0
  6
HIDDEN
 62
     7
370
     0
100
AcDbLine
 10
182.1089104676
 20
111.0101282368
 30
0.0
 11
182.1089104676
 21
100.0101282964
 31
0.0
  0
LINE
  5
161
330
1F
100
AcDbEntity
  8
0
  6
HIDDEN
 62
     7
370
     0
100
AcDbLine
 10
181.6089113169
 20
99.5101282145
 30
0.0
 11
181.6089113169
 21
111.4978004018
 31
0.0
  0
LINE
  5
162
330
1F
100
AcDbEntity
  8
0
  6
HIDDEN
 62
     7
370
     0
100
AcDbLine
 10
186.9589106106
 20
100.0101282964
 30
0.0
 11
186.9589106106
 21
110.9978459547
 31
0.0
  0
LINE
  5
163
330
1F
100
AcDbEntity
  8
0
  6
HIDDEN
 62
     7
370
     0
100
AcDbLine
 10
193.6089114212
 20
88.6101290355
 30
0.0
 11
190.663687598
 21
88.6101290355
 31
0.0
  0
LINE
  5
164
330
1F
100
AcDbEntity
  8
0
  6
HIDDEN
 62
     7
370
     0
100
AcDbLine
 10
190.6989102178
 20
88.0810055653
 30
0.0
 11
190.6989102178
 21
88.3972491841
 31
0.0
  0
LINE
  5
165
330
1F
100
AcDbEntity
  8
0
  6
HIDDEN
 62
     7
370
     0
100
AcDbLine
 10
193.6089114212
 20
88.6101290355
 30
0.0
 11
193.6089114212
 21
86.9060955713
 31
0.0
  0
LINE
  5
166
330
1F
100
AcDbEntity
  8
0
  6
HIDDEN
 62
     7
370
     0
100
AcDbLine
 10
188.6541328319
 20
88.6101290355
 30
0.0
 11
186.1089111232
 21
88.6101290355
 31
0.0
  0
LINE
  5
167
330
1F
100
AcDbEntity
  8
0
  6
HIDDEN
 62
     7
370
     0
100
AcDbLine
 10
188.6189111435
 20
88.3972491841
 30
0.0
 11
188.6189111435
 21
88.0810055653
 31
0.0
  0
LINE
  5
168
330
1F
100
AcDbEntity
  8
0
  6
HIDDEN
 62
     7
370
     0
100
AcDbLine
 10
181.6089113169
 20
85.535144038
 30
0.0
 11
181.6089113169
 21
88.6101290355
 31
0.0
  0
LINE
  5
169
330
1F
100
AcDbEntity
  8
0
  6
HIDDEN
 62
     7
370
     0
100
AcDbLine
 10
186.1089111232
 20
88.6101290355
 30
0.0
 11
181.6089113169
 21
88.6101290355
 31
0.0
  0
ELLIPSE
  5
16A
330
1F
100
AcDbEntity
  8
0
  6
HIDDEN
 62
     7
370
     0
100
AcDbEllipse
 10
151.6531441123
 20
105.5101282666
 30
0.0
 11
12.26424774976735
 21
0.0
 31
0.0
210
0.0
220
0.0
230
1.0
 40
0.8164965809
 41
1.318982952866322
 42
1.398241670070612
  0
LINE
  5
16B
330
1F
100
AcDbEntity
  8
0
  6
HIDDEN
 62
     7
370
     0
100
AcDbLine
 10
153.7589111292
 20
116.510128207
 30
0.0
 11
153.7589111292
 21
115.3751346985
 31
0.0
  0
ELLIPSE
  5
16C
330
1F
100
AcDbEntity
  8
0
  6
HIDDEN
 62
     7
370
     0
100
AcDbEllipse
 10
151.6531441123
 20
105.5101282666
 30
0.0
 11
12.26424774976735
 21
0.0
 31
0.0
210
0.0
220
0.0
230
1.0
 40
0.8164965809
 41
4.884943637108987
 42
4.964202354313276
  0
LINE
  5
16D
330
1F
100
AcDbEntity
  8
0
  6
HIDDEN
 62
     7
370
     0
100
AcDbLine
 10
153.7589111292
 20
94.5101283262
 30
0.0
 11
153.7589111292
 21
95.6451218347
 31
0.0
  0
LINE
  5
16E
330
1F
100
AcDbEntity
  8
0
  6
HIDDEN
 62
     7
370
     0
100
AcDbLine
 10
193.6089728885
 20
122.4101274977
 30
0.0
 11
190.4505656027
 21
122.4101274977
 31
0.0
  0
LINE
  5
16F
330
1F
100
AcDbEntity
  8
0
  6
HIDDEN
 62
     7
370
     0
100
AcDbLine
 10
190.6989102178
 20
123.2238054047
 30
0.0
 11
190.6989102178
 21
122.9127324889
 31
0.0
  0
LINE
  5
170
330
1F
100
AcDbEntity
  8
0
  6
HIDDEN
 62
     7
370
     0
100
AcDbLine
 10
193.6089114212
 20
122.4216628591
 30
0.0
 11
193.6089114212
 21
124.3810053686
 31
0.0
  0
LINE
  5
171
330
1F
100
AcDbEntity
  8
0
  6
HIDDEN
 62
     7
370
     0
100
AcDbLine
 10
188.8672548272
 20
122.4101274977
 30
0.0
 11
186.1089111232
 21
122.4101274977
 31
0.0
  0
LINE
  5
172
330
1F
100
AcDbEntity
  8
0
  6
HIDDEN
 62
     7
370
     0
100
AcDbLine
 10
188.6189111435
 20
122.9127324889
 30
0.0
 11
188.6189111435
 21
123.2238054047
 31
0.0
  0
LINE
  5
173
330
1F
100
AcDbEntity
  8
0
  6
HIDDEN
 62
     7
370
     0
100
AcDbLine
 10
186.1089111232
 20
122.4101274977
 30
0.0
 11
181.6089113169
 21
122.4101274977
 31
0.0
  0
LINE
  5
174
330
1F
100
AcDbEntity
  8
0
  6
HIDDEN
 62
     7
370
     0
100
AcDbLine
 10
157.3589106017
 20
116.510128207
 30
0.0
 11
157.3589106017
 21
115.5343182156
 31
0.0
  0
LINE
  5
175
330
1F
100
AcDbEntity
  8
0
  6
HIDDEN
 62
     7
370
     0
100
AcDbLine
 10
154.7089104467
 20
116.510128207
 30
0.0
 11
154.7089104467
 21
115.2080340082
 31
0.0
  0
LINE
  5
176
330
1F
100
AcDbEntity
  8
0
  6
HIDDEN
 62
     7
370
     0
100
AcDbLine
 10
154.7089104467
 20
94.5101283262
 30
0.0
 11
154.7089104467
 21
95.812222525
 31
0.0
  0
LINE
  5
177
330
1F
100
AcDbEntity
  8
0
  6
HIDDEN
 62
     7
370
     0
100
AcDbLine
 10
159.8589110114
 20
94.5101283262
 30
0.0
 11
159.8589110114
 21
95.4859383176
 31
0.0
  0
SPLINE
  5
178
330
1F
100
AcDbEntity
  8
0
  6
HIDDEN
 62
     7
370
     0
100
AcDbSpline
210
0.0
220
0.0
230
1.0
 70
     8
 71
     3
 72
    35
 73
    31
 74
     0
 42
0.00000001
 43
0.00000001
 12
1.0
 22
0.0
 32
0.0
 13
1.0
 23
0.0
 33
0.0
 40
-0.0968719547595007
 40
-0.0666583833390638
 40
-0.0343746550663528
 40
0.0
 40
0.0402441098602218
 40
0.0744787394150458
 40
0.1027010769228351
 40
0.1249180007539461
 40
0.1620538085088404
 40
0.2036866663220331
 40
0.2499064830388325
 40
0.2843401434852736
 40
0.3106265384480305
 40
0.3287516969918893
 40
0.3698185885315885
 40
0.4071583744141672
 40
0.4519491139953025
 40
0.5000414814625185
 40
0.5203027018300286
 40
0.5628788417857505
 40
0.5977565761193748
 40
0.6256573786661429
 40
0.686051351246162
 40
0.7499481278641021
 40
0.7710338013047725
 40
0.8124324456481479
 40
0.8472054201757163
 40
0.8749589023494395
 40
0.9031280452404993
 40
0.9333416166609362
 40
0.9656253449336472
 40
1.0
 40
1.040244109860222
 40
1.074478739415046
 40
1.102701076922835
 10
165.5027041458203
 20
91.26927890091686
 30
0.0
 10
165.7413467928592
 20
91.30584941871803
 30
0.0
 10
166.0877332627554
 20
91.34626367914153
 30
0.0
 10
166.4924559705415
 20
91.37563774521992
 30
0.0
 10
166.866074095439
 20
91.39284382373062
 30
0.0
 10
167.2747414883628
 20
91.39803418716286
 30
0.0
 10
167.7648377403326
 20
91.37310667953798
 30
0.0
 10
168.3632280925723
 20
91.31228896134805
 30
0.0
 10
168.8983542821632
 20
91.22477642334725
 30
0.0
 10
169.2926105911548
 20
91.14101955189757
 30
0.0
 10
169.5325396163376
 20
91.08313699201081
 30
0.0
 10
169.7463213650104
 20
91.02512413031967
 30
0.0
 10
169.9140891812749
 20
90.97858993584587
 30
0.0
 10
169.9845528023045
 20
90.95652899888573
 30
0.0
 10
169.8950276099609
 20
90.98530573488453
 30
0.0
 10
169.6621911156954
 20
91.04686792416716
 30
0.0
 10
169.3427569632344
 20
91.1308085939026
 30
0.0
 10
168.9906654186366
 20
91.20580124350316
 30
0.0
 10
168.5429648603726
 20
91.28357593726835
 30
0.0
 10
167.9760913251975
 20
91.36046032788983
 30
0.0
 10
167.223241113253
 20
91.40574953663541
 30
0.0
 10
166.5520696659487
 20
91.38827603931112
 30
0.0
 10
166.0672765761006
 20
91.34350691528563
 30
0.0
 10
165.7529198707616
 20
91.30795774700229
 30
0.0
 10
165.5180859190083
 20
91.27227177977657
 30
0.0
 10
165.3931420246876
 20
91.24948934801743
 30
0.0
 10
165.3463199947058
 20
91.24250918604714
 30
0.0
 10
165.3778481377933
 20
91.24946643902294
 30
0.0
 10
165.5027041458203
 20
91.26927890091686
 30
0.0
 10
165.7413467928592
 20
91.30584941871803
 30
0.0
 10
166.0877332627554
 20
91.34626367914153
 30
0.0
  0
SPLINE
  5
179
330
1F
100
AcDbEntity
  8
0
  6
HIDDEN
 62
     7
370
     0
100
AcDbSpline
210
0.0
220
0.0
230
1.0
 70
     8
 71
     3
 72
    35
 73
    31
 74
     0
 42
0.00000001
 43
0.00000001
 12
1.0
 22
0.0
 32
0.0
 13
1.0
 23
0.0
 33
0.0
 40
-0.1243197192419421
 40
-0.1014876450686311
 40
-0.0608470324374216
 40
0.0
 40
0.0343752282034998
 40
0.06664410493777
 40
0.0968273219162002
 40
0.1249505624682888
 40
0.152666254694978
 40
0.1874715331004941
 40
0.2288808119705798
 40
0.2500285047284304
 40
0.3139875933197626
 40
0.3744837005593566
 40
0.4023317688239967
 40
0.4371113644499153
 40
0.4795885530026772
 40
0.499790401118691
 40
0.5479907717246938
 40
0.5929884907782011
 40
0.6398024291144514
 40
0.694515608185415
 40
0.7285102322959239
 40
0.7625225324122132
 40
0.7965529092023899
 40
0.8145533850530492
 40
0.8337229244351139
 40
0.8540905233807927
 40
0.8756802807580579
 40
0.8985123549313689
 40
0.9391529675625784
 40
1.0
 40
1.0343752282035
 40
1.06664410493777
 40
1.0968273219162
 10
166.2582693452026
 20
119.656314154589
 30
0.0
 10
165.7868081124106
 20
119.7071978574635
 30
0.0
 10
165.5028863536079
 20
119.7509122203461
 30
0.0
 10
165.3779433080415
 20
119.770717783733
 30
0.0
 10
165.3463458447134
 20
119.7777042537325
 30
0.0
 10
165.3928349617094
 20
119.770762941359
 30
0.0
 10
165.5172900420824
 20
119.7479802640842
 30
0.0
 10
165.7516397620907
 20
119.7123089208155
 30
0.0
 10
166.0659329774183
 20
119.676758834072
 30
0.0
 10
166.5508586593317
 20
119.6319878651078
 30
0.0
 10
167.2228131433141
 20
119.6145024240433
 30
0.0
 10
167.9760904861069
 20
119.6597401414578
 30
0.0
 10
168.542574533117
 20
119.7364718024326
 30
0.0
 10
168.9891680201688
 20
119.8140837234217
 30
0.0
 10
169.3405558429345
 20
119.8889078897848
 30
0.0
 10
169.6604477703629
 20
119.9728652719886
 30
0.0
 10
169.8945172327887
 20
120.0344531716661
 30
0.0
 10
169.9912817142821
 20
120.0658551480961
 30
0.0
 10
169.8858156913954
 20
120.03183378548
 30
0.0
 10
169.5863821544541
 20
119.9490786014463
 30
0.0
 10
169.186936331979
 20
119.859288137165
 30
0.0
 10
168.7861709679884
 20
119.7861349184491
 30
0.0
 10
168.4062222988819
 20
119.7188993418975
 30
0.0
 10
168.0752366153243
 20
119.6711604979883
 30
0.0
 10
167.8001526588684
 20
119.6463873586213
 30
0.0
 10
167.5049179896348
 20
119.6300773469574
 30
0.0
 10
167.1941834087542
 20
119.6233159246448
 30
0.0
 10
166.7976490901759
 20
119.625338443241
 30
0.0
 10
166.2582693452026
 20
119.656314154589
 30
0.0
 10
165.7868081124106
 20
119.7071978574635
 30
0.0
 10
165.5028863536079
 20
119.7509122203461
 30
0.0
  0
SPLINE
  5
17A
330
1F
100
AcDbEntity
  8
0
  6
HIDDEN
 62
     7
370
     0
100
AcDbSpline
210
0.0
220
0.0
230
1.0
 70
     8
 71
     3
 72
    64
 73
    60
 74
     0
 42
0.00000001
 43
0.00000001
 12
1.0
 22
0.0
 32
0.0
 13
1.0
 23
0.0
 33
0.0
 40
-0.03125
 40
-0.03125
 40
0.0
 40
0.0
 40
0.0624999999999997
 40
0.0624999999999997
 40
0.1249999999999994
 40
0.1249999999999994
 40
0.1874999999999991
 40
0.1874999999999991
 40
0.2187499999999991
 40
0.2187499999999991
 40
0.2499999999999991
 40
0.2499999999999991
 40
0.2812499999999991
 40
0.2812499999999991
 40
0.3124999999999991
 40
0.3124999999999991
 40
0.3437499999999991
 40
0.3437499999999991
 40
0.3749999999999991
 40
0.3749999999999991
 40
0.4062499999999991
 40
0.4062499999999991
 40
0.4374999999999991
 40
0.4374999999999991
 40
0.4687499999999991
 40
0.4687499999999991
 40
0.4999999999999991
 40
0.4999999999999991
 40
0.5312499999999992
 40
0.5312499999999992
 40
0.5624999999999992
 40
0.5624999999999992
 40
0.5937499999999993
 40
0.5937499999999993
 40
0.6249999999999993
 40
0.6249999999999993
 40
0.6562499999999994
 40
0.6562499999999994
 40
0.6874999999999994
 40
0.6874999999999994
 40
0.7187499999999996
 40
0.7187499999999996
 40
0.7499999999999996
 40
0.7499999999999996
 40
0.7812499999999997
 40
0.7812499999999997
 40
0.8124999999999998
 40
0.8124999999999998
 40
0.8437499999999998
 40
0.8437499999999998
 40
0.8749999999999999
 40
0.8749999999999999
 40
0.9062499999999999
 40
0.9062499999999999
 40
0.9375
 40
0.9375
 40
0.96875
 40
0.96875
 40
1.0
 40
1.0
 40
1.0625
 40
1.0625
 10
195.8385303530166
 20
103.1306047974433
 30
0.0
 10
196.2890309657559
 20
103.1306047974433
 30
0.0
 10
196.5724443747411
 20
103.1638202076958
 30
0.0
 10
197.0812482048266
 20
103.2842180440836
 30
0.0
 10
197.3146439743359
 20
103.3736629722205
 30
0.0
 10
197.7295086554856
 20
103.6223419238554
 30
0.0
 10
197.9145185677204
 20
103.7839767267354
 30
0.0
 10
198.1272762249279
 20
104.0932359641092
 30
0.0
 10
198.1876125550177
 20
104.2086353611739
 30
0.0
 10
198.2767727040771
 20
104.4567073081806
 30
0.0
 10
198.3065329053283
 20
104.5931002068854
 30
0.0
 10
198.3286758442661
 20
104.8723606301837
 30
0.0
 10
198.3216079584533
 20
105.0179851287024
 30
0.0
 10
198.271834387244
 20
105.3082791307229
 30
0.0
 10
198.2299441700671
 20
105.4506228196091
 30
0.0
 10
198.1174391900011
 20
105.7267629264002
 30
0.0
 10
198.0487803806417
 20
105.8562574126661
 30
0.0
 10
197.8912724256512
 20
106.1015435981018
 30
0.0
 10
197.8017014090214
 20
106.2177461326803
 30
0.0
 10
197.6109168417148
 20
106.4300952259615
 30
0.0
 10
197.509028710217
 20
106.527470010605
 30
0.0
 10
197.2924100311328
 20
106.706554414306
 30
0.0
 10
197.1767829692384
 20
106.7887289104953
 30
0.0
 10
196.9368940619797
 20
106.9329150293104
 30
0.0
 10
196.8123427003852
 20
106.9954722422901
 30
0.0
 10
196.54998961498
 20
107.0988154959932
 30
0.0
 10
196.4097738243859
 20
107.1402202475131
 30
0.0
 10
196.1190510134357
 20
107.1883670220616
 30
0.0
 10
195.9670484024976
 20
107.1944655241558
 30
0.0
 10
195.6734203618316
 20
107.1622196327872
 30
0.0
 10
195.5304944839478
 20
107.1238864659678
 30
0.0
 10
195.2686413820917
 20
107.0145086899187
 30
0.0
 10
195.1479576398403
 20
106.9438446659378
 30
0.0
 10
194.9237240510111
 20
106.7782800422916
 30
0.0
 10
194.8221314346879
 20
106.6849880099854
 30
0.0
 10
194.6344321012808
 20
106.4790118866439
 30
0.0
 10
194.5476129965723
 20
106.3649034243723
 30
0.0
 10
194.3935387913653
 20
106.1227244180847
 30
0.0
 10
194.326244941203
 20
105.9951330018437
 30
0.0
 10
194.211189825153
 20
105.7260712466813
 30
0.0
 10
194.1631743201581
 20
105.5827271767007
 30
0.0
 10
194.0934782120459
 20
105.2948664904323
 30
0.0
 10
194.0709577055416
 20
105.1481510331236
 30
0.0
 10
194.0533457479532
 20
104.8559381726037
 30
0.0
 10
194.058303498908
 20
104.7145500005128
 30
0.0
 10
194.0950118207172
 20
104.440892263385
 30
0.0
 10
194.1270803201514
 20
104.3095729672491
 30
0.0
 10
194.2140771500021
 20
104.0689778471071
 30
0.0
 10
194.269984040987
 20
103.9568597729621
 30
0.0
 10
194.4005312977528
 20
103.7566574900884
 30
0.0
 10
194.4751320336665
 20
103.6677945110397
 30
0.0
 10
194.6436698419001
 20
103.5096402722636
 30
0.0
 10
194.7356336281409
 20
103.4422319155835
 30
0.0
 10
194.9361674858736
 20
103.3275633939214
 30
0.0
 10
195.0460242147536
 20
103.2798323606281
 30
0.0
 10
195.283849224561
 20
103.2044449829182
 30
0.0
 10
195.4125237394944
 20
103.1764913712774
 30
0.0
 10
195.6907430530378
 20
103.1394263734713
 30
0.0
 10
195.8385303530166
 20
103.1306047974433
 30
0.0
 10
196.2890309657559
 20
103.1306047974433
 30
0.0
  0
LINE
  5
17B
330
1F
100
AcDbEntity
  8
0
  6
HIDDEN
 62
     7
370
     0
100
AcDbLine
 10
198.7589110547
 20
108.0101282107
 30
0.0
 11
198.7589110547
 21
103.0101283225
 31
0.0
  0
LINE
  5
17C
330
1F
100
AcDbEntity
  8
0
  6
HIDDEN
 62
     7
370
     0
100
AcDbLine
 10
189.4589100891
 20
103.0101283225
 30
0.0
 11
189.4589100891
 21
107.9973015706
 31
0.0
  0
LINE
  5
17D
330
1F
100
AcDbEntity
  8
0
  6
HIDDEN
 62
     7
370
     0
100
AcDbLine
 10
215.837042492
 20
130.8221291522
 30
0.0
 11
215.0209803992
 21
121.5001452486
 31
0.0
  0
LINE
  5
17E
330
1F
100
AcDbEntity
  8
0
  6
HIDDEN
 62
     7
370
     0
100
AcDbLine
 10
217.6526931041
 20
118.8700344185
 30
0.0
 11
226.7689925545
 21
119.6671217451
 31
0.0
  0
LINE
  5
17F
330
1F
100
AcDbEntity
  8
0
  6
HIDDEN
 62
     7
370
     0
100
AcDbLine
 10
226.7689925545
 20
119.6671217451
 30
0.0
 11
226.7666567975
 21
119.6404337654
 31
0.0
  0
LINE
  5
180
330
1F
100
AcDbEntity
  8
0
  6
HIDDEN
 62
     7
370
     0
100
AcDbLine
 10
215.7988582664
 20
130.8187912921
 30
0.0
 11
215.837042492
 21
130.8221291522
 31
0.0
  0
LINE
  5
181
330
1F
100
AcDbEntity
  8
0
  6
HIDDEN
 62
     7
370
     0
100
AcDbLine
 10
209.0608362966
 20
87.5101290415
 30
0.0
 11
209.0608362966
 21
105.5101282666
 31
0.0
  0
SPLINE
  5
182
330
1F
100
AcDbEntity
  8
0
  6
HIDDEN
 62
     7
370
     0
100
AcDbSpline
210
0.0
220
0.0
230
1.0
 70
     8
 71
     3
 72
    12
 73
     8
 74
     0
 42
0.00000001
 43
0.00000001
 12
1.0
 22
0.0
 32
0.0
 13
1.0
 23
0.0
 33
0.0
 40
0.0
 40
0.0
 40
0.0
 40
0.0
 40
0.5000000000000001
 40
0.5000000000000001
 40
0.7500000000000002
 40
0.7500000000000002
 40
1.0
 40
1.0
 40
1.0
 40
1.0
 10
210.8995603352943
 20
122.6603431235361
 30
0.0
 10
210.3747776853987
 20
119.8211344331775
 30
0.0
 10
209.9144355224076
 20
116.9762704589895
 30
0.0
 10
209.4190668685633
 20
112.6918486487128
 30
0.0
 10
209.2871768157771
 20
111.2607915388256
 30
0.0
 10
209.1079001909074
 20
108.3912613110272
 30
0.0
 10
209.0608346406474
 20
106.952760020307
 30
0.0
 10
209.0608346406474
 20
105.5101282666109
 30
0.0
  0
SPLINE
  5
183
330
1F
100
AcDbEntity
  8
0
  6
HIDDEN
 62
     7
370
     0
100
AcDbSpline
210
0.0
220
0.0
230
1.0
 70
     8
 71
     3
 72
    18
 73
    14
 74
     0
 42
0.00000001
 43
0.00000001
 12
1.0
 22
0.0
 32
0.0
 13
1.0
 23
0.0
 33
0.0
 40
0.0
 40
0.0
 40
0.0
 40
0.0
 40
0.2500000000000002
 40
0.2500000000000002
 40
0.3750000000000001
 40
0.3750000000000001
 40
0.5000000000000001
 40
0.5000000000000001
 40
0.75
 40
0.75
 40
0.8750000000000001
 40
0.8750000000000001
 40
1.0
 40
1.0
 40
1.0
 40
1.0
 10
210.8995603352943
 20
122.6603431235361
 30
0.0
 10
210.8991642905065
 20
123.8703494155624
 30
0.0
 10
210.8991035194197
 20
124.9453875676927
 30
0.0
 10
210.8993527598991
 20
126.3633040726556
 30
0.0
 10
210.899493338534
 20
126.8032576762828
 30
0.0
 10
210.8998701196345
 20
127.6161539750787
 30
0.0
 10
210.9001073291271
 20
127.9892888324678
 30
0.0
 10
210.9009183132519
 20
128.982478309183
 30
0.0
 10
210.9015919117742
 20
129.4872799718956
 30
0.0
 10
210.902719681987
 20
130.0095044935843
 30
0.0
 10
210.9031173305637
 20
130.1444168037951
 30
0.0
 10
210.9039408553118
 20
130.3304924028326
 30
0.0
 10
210.9043651478999
 20
130.3816526808829
 30
0.0
 10
210.9048011318306
 20
130.3908768961892
 30
0.0
  0
LINE
  5
184
330
1F
100
AcDbEntity
  8
0
  6
HIDDEN
 62
     7
370
     0
100
AcDbLine
 10
226.7689925545
 20
119.6671217451
 30
0.0
 11
226.7902900391
 21
119.8420101548
 31
0.0
  0
LINE
  5
185
330
1F
100
AcDbEntity
  8
0
  6
HIDDEN
 62
     7
370
     0
100
AcDbLine
 10
226.7902900391
 20
119.8420101548
 30
0.0
 11
226.7902900391
 21
119.7547619934
 31
0.0
  0
LINE
  5
186
330
1F
100
AcDbEntity
  8
0
  6
HIDDEN
 62
     7
370
     0
100
AcDbLine
 10
227.8114144617
 20
131.4191292743
 30
0.0
 11
226.7902900391
 21
119.7547619934
 31
0.0
  0
ELLIPSE
  5
187
330
1F
100
AcDbEntity
  8
0
  6
HIDDEN
 62
     7
370
     0
100
AcDbEllipse
 10
225.6254992559
 20
106.5841110946
 30
0.0
 11
2.211209241635032
 21
25.28871424468547
 31
0.0
210
0.0
220
0.0
230
1.0
 40
0.0029955906
 41
5.479927588425911
 42
6.093738971516653
  0
LINE
  5
188
330
1F
100
AcDbEntity
  8
0
  6
HIDDEN
 62
     7
370
     0
100
AcDbLine
 10
227.2154015415
 20
124.1389695326
 30
0.0
 11
226.822498899
 21
119.6453157584
 31
0.0
  0
ARC
  5
189
330
1F
100
AcDbEntity
  8
0
  6
HIDDEN
 62
     7
370
     0
100
AcDbCircle
 10
215.6492876838
 20
119.3300311712
 30
0.0
 40
2.098887076167203
100
AcDbArc
 50
269.9842423247
 51
108.9737310852
  0
ARC
  5
18A
330
1F
100
AcDbEntity
  8
0
  6
HIDDEN
 62
     7
370
     0
100
AcDbCircle
 10
215.6479855864
 20
119.3303989086
 30
0.0
 40
2.099254859349617
100
AcDbArc
 50
177.7279318548
 51
270.0197837375
  0
ELLIPSE
  5
18B
330
1F
100
AcDbEntity
  8
0
  6
HIDDEN
 62
     7
370
     0
100
AcDbEllipse
 10
215.6487090951
 20
119.2699952511
 30
0.0
 11
-1.524364985095275
 21
1.910935730384736
 31
0.0
210
0.0
220
0.0
230
1.0
 40
0.755863691
 41
5.653201984804995
 42
5.774420281969011
  0
LINE
  5
18C
330
1F
100
AcDbEntity
  8
0
  6
HIDDEN
 62
     7
370
     0
100
AcDbLine
 10
215.2679112666
 20
121.4056588481
 30
0.0
 11
215.2679112666
 21
121.4929070095
 31
0.0
  0
ARC
  5
18D
330
1F
100
AcDbEntity
  8
0
  6
HIDDEN
 62
     7
370
     0
100
AcDbCircle
 10
215.6492206368
 20
119.3412154262
 30
0.0
 40
2.09936263608254
100
AcDbArc
 50
349.5701175674
 51
100.4647763489
  0
LINE
  5
18E
330
1F
100
AcDbEntity
  8
0
  6
HIDDEN
 62
     7
370
     0
100
AcDbLine
 10
217.7138958984
 20
119.0484124939
 30
0.0
 11
217.7138958984
 21
118.9611634011
 31
0.0
  0
ELLIPSE
  5
18F
330
1F
100
AcDbEntity
  8
0
  6
HIDDEN
 62
     7
370
     0
100
AcDbEllipse
 10
215.6487090951
 20
119.2699952511
 30
0.0
 11
2.098614792028371
 21
0.1066102203084114
 31
0.0
210
0.0
220
0.0
230
1.0
 40
0.7153386092
 41
5.943302220492718
 42
6.064520517656729
  0
LINE
  5
190
330
1F
100
AcDbEntity
  8
0
  6
HIDDEN
 62
     7
370
     0
100
AcDbLine
 10
217.7138958984
 20
119.0484124939
 30
0.0
 11
226.7902900391
 21
119.8420101548
 31
0.0
  0
ELLIPSE
  5
191
330
1F
100
AcDbEntity
  8
0
  6
HIDDEN
 62
     7
370
     0
100
AcDbEllipse
 10
213.6991351981
 20
105.5413250667
 30
0.0
 11
2.171559574460815
 21
25.27937094423514
 31
0.0
210
0.0
220
0.0
230
1.0
 40
0.1239698459
 41
6.215454158134916
 42
6.293883544052376
  0
LINE
  5
192
330
1F
100
AcDbEntity
  8
0
  6
HIDDEN
 62
     7
370
     0
100
AcDbLine
 10
216.0778154545
 20
130.7445145915
 30
0.0
 11
215.2679112666
 21
121.4929070095
 31
0.0
  0
LWPOLYLINE
  5
193
330
1F
100
AcDbEntity
  8
0
  6
HIDDEN
 62
     7
370
     0
100
AcDbPolyline
 90
       30
 70
   128
 43
0.0
 10
197.575285744
 20
100.8017524848
 10
198.0198656135
 20
100.8694656896
 10
198.4436583631
 20
101.0288601513
 10
198.8268454485
 20
101.2724834266
 10
199.151510086
 20
101.5889435778
 10
199.4024735802
 20
101.9634432862
 10
199.5680012666
 20
102.3784713591
 10
199.6403501295
 20
102.814621828
 10
199.6161394679
 20
103.2515003583
 10
199.4964999073
 20
103.6686792043
 10
199.2870268338
 20
104.0466516982
 10
198.9975158983
 20
104.367744015
 10
198.6415010803
 20
104.6169423037
 10
198.2356325649
 20
104.7825943799
 10
197.7988869809
 20
104.8569544921
 10
197.3516863697
 20
104.8365456639
 10
196.9149407857
 20
104.7223222097
 10
196.5090722703
 20
104.5196250318
 10
196.1530574524
 20
104.2379320836
 10
195.8635465168
 20
103.8904150021
 10
195.6540734433
 20
103.4933233871
 10
195.5344338828
 20
103.0652244347
 10
195.5102232211
 20
102.6261361087
 10
195.582572084
 20
102.1965891826
 10
195.7480979078
 20
101.7966692573
 10
195.999061402
 20
101.4450756604
 10
196.3237279021
 20
101.1582492622
 10
196.7069149875
 20
100.9496008749
 10
197.1307077371
 20
100.8288870337
 10
197.575285744
 20
100.8017524848
  0
LINE
  5
194
330
1F
100
AcDbEntity
  8
0
  6
HIDDEN
 62
     7
370
     0
100
AcDbLine
 10
181.6089113169
 20
88.6101290355
 30
0.0
 11
186.1089111232
 21
88.6101290355
 31
0.0
  0
LINE
  5
195
330
1F
100
AcDbEntity
  8
0
  6
HIDDEN
 62
     7
370
     0
100
AcDbLine
 10
215.2679112666
 20
121.4056588481
 30
0.0
 11
216.054517489
 21
130.3911596308
 31
0.0
  0
ELLIPSE
  5
196
330
1F
100
AcDbEntity
  8
0
  6
HIDDEN
 62
     7
370
     0
100
AcDbEllipse
 10
213.8686058832
 20
105.5561427984
 30
0.0
 11
2.211209241635032
 21
25.28871424468547
 31
0.0
210
0.0
220
0.0
230
1.0
 40
0.0029955906
 41
6.09373897151637
 42
6.194334145092799
  0
LINE
  5
197
330
1F
100
AcDbEntity
  8
0
  6
HIDDEN
 62
     7
370
     0
100
AcDbLine
 10
157.3589106017
 20
116.510128207
 30
0.0
 11
157.3589106017
 21
119.0676526869
 31
0.0
  0
LINE
  5
198
330
1F
100
AcDbEntity
  8
0
  6
HIDDEN
 62
     7
370
     0
100
AcDbLine
 10
159.8589110114
 20
94.5101283262
 30
0.0
 11
159.8589110114
 21
91.9065518076
 31
0.0
  0
LINE
  5
199
330
1F
100
AcDbEntity
  8
0
  6
HIDDEN
 62
     7
370
     0
100
AcDbLine
 10
190.6989102178
 20
122.9127324889
 30
0.0
 11
190.6989102178
 21
88.3972491841
 31
0.0
  0
SPLINE
  5
19A
330
1F
100
AcDbEntity
  8
0
  6
HIDDEN
 62
     7
370
     0
100
AcDbSpline
210
0.0
220
0.0
230
1.0
 70
     8
 71
     3
 72
    10
 73
     6
 74
     0
 42
0.00000001
 43
0.00000001
 12
1.0
 22
0.0
 32
0.0
 13
1.0
 23
0.0
 33
0.0
 40
0.0
 40
0.0
 40
0.0
 40
0.0
 40
0.5
 40
0.5
 40
1.0
 40
1.0
 40
1.0
 40
1.0
 10
190.4505664662507
 20
122.4101282666109
 30
0.0
 10
190.5279944707993
 20
122.468087572998
 30
0.0
 10
190.5911740876858
 20
122.545072228116
 30
0.0
 10
190.676469266947
 20
122.7186423609885
 30
0.0
 10
190.6989108520007
 20
122.8155436234702
 30
0.0
 10
190.6989108520007
 20
122.9127322384308
 30
0.0
  0
SPLINE
  5
19B
330
1F
100
AcDbEntity
  8
0
  6
HIDDEN
 62
     7
370
     0
100
AcDbSpline
210
0.0
220
0.0
230
1.0
 70
     8
 71
     3
 72
    10
 73
     6
 74
     0
 42
0.00000001
 43
0.00000001
 12
1.0
 22
0.0
 32
0.0
 13
1.0
 23
0.0
 33
0.0
 40
0.0
 40
0.0
 40
0.0
 40
0.0
 40
0.5
 40
0.5
 40
1.0
 40
1.0
 40
1.0
 40
1.0
 10
190.6636884514193
 20
88.61012826661091
 30
0.0
 10
190.6754005683824
 20
88.57578492941693
 30
0.0
 10
190.6841986382545
 20
88.5406923916787
 30
0.0
 10
190.6960121960266
 20
88.46902061628798
 30
0.0
 10
190.6989108520007
 20
88.43307696192271
 30
0.0
 10
190.6989108520007
 20
88.39724934458262
 30
0.0
  0
SPLINE
  5
19C
330
1F
100
AcDbEntity
  8
0
  6
HIDDEN
 62
     7
370
     0
100
AcDbSpline
210
0.0
220
0.0
230
1.0
 70
    24
 71
     3
 72
    14
 73
    10
 74
     0
 42
0.00000001
 43
0.00000001
 12
1.0
 22
0.0
 32
0.0
 13
1.0
 23
0.0
 33
0.0
 40
0.0
 40
0.0
 40
0.0
 40
0.0
 40
0.1250000000000006
 40
0.1250000000000006
 40
0.2500000000000013
 40
0.2500000000000013
 40
0.4999999999999996
 40
0.4999999999999996
 40
1.0
 40
1.0
 40
1.0
 40
1.0
 10
190.0989108520007
 20
122.4101282666109
 30
0.0
 10
190.1243520830851
 20
122.4101282666109
 30
0.0
 10
190.1499663857125
 20
122.4101282666109
 30
0.0
 10
190.1954428262397
 20
122.4101282666109
 30
0.0
 10
190.2154460279792
 20
122.4101282666109
 30
0.0
 10
190.270591219952
 20
122.4101282666109
 30
0.0
 10
190.3000254384741
 20
122.4101282666109
 30
0.0
 10
190.3779384510528
 20
122.4101282666109
 30
0.0
 10
190.4165145515735
 20
122.4101282666109
 30
0.0
 10
190.4505664662514
 20
122.4101282666109
 30
0.0
  0
SPLINE
  5
19D
330
1F
100
AcDbEntity
  8
0
  6
HIDDEN
 62
     7
370
     0
100
AcDbSpline
210
0.0
220
0.0
230
1.0
 70
    24
 71
     3
 72
    16
 73
    12
 74
     0
 42
0.00000001
 43
0.00000001
 12
1.0
 22
0.0
 32
0.0
 13
1.0
 23
0.0
 33
0.0
 40
0.0
 40
0.0
 40
0.0
 40
0.0
 40
0.0625000000000004
 40
0.0625000000000004
 40
0.1250000000000008
 40
0.1250000000000008
 40
0.2500000000000016
 40
0.2500000000000016
 40
0.5000000000000004
 40
0.5000000000000004
 40
1.0
 40
1.0
 40
1.0
 40
1.0
 10
190.0989108520007
 20
88.61012826661091
 30
0.0
 10
190.1331986754607
 20
88.6101282666109
 30
0.0
 10
190.1670825847823
 20
88.61012826661091
 30
0.0
 10
190.2234187775992
 20
88.61012826661091
 30
0.0
 10
190.2476806337661
 20
88.61012826661091
 30
0.0
 10
190.3119737518133
 20
88.61012826661091
 30
0.0
 10
190.34553754124
 20
88.6101282666109
 30
0.0
 10
190.4334539134625
 20
88.61012826661091
 30
0.0
 10
190.4762104561791
 20
88.6101282666109
 30
0.0
 10
190.5867551978293
 20
88.6101282666109
 30
0.0
 10
190.6337346115915
 20
88.61012826661091
 30
0.0
 10
190.6636884514193
 20
88.61012826661091
 30
0.0
  0
SPLINE
  5
19E
330
1F
100
AcDbEntity
  8
0
  6
HIDDEN
 62
     7
370
     0
100
AcDbSpline
210
0.0
220
0.0
230
1.0
 70
     8
 71
     3
 72
    10
 73
     6
 74
     0
 42
0.00000001
 43
0.00000001
 12
1.0
 22
0.0
 32
0.0
 13
1.0
 23
0.0
 33
0.0
 40
0.0
 40
0.0
 40
0.0
 40
0.0
 40
0.5
 40
0.5
 40
1.0
 40
1.0
 40
1.0
 40
1.0
 10
188.6189108520007
 20
122.9127322384308
 30
0.0
 10
188.6189108520007
 20
122.8157971731991
 30
0.0
 10
188.6413604878462
 20
122.7187378944598
 30
0.0
 10
188.7263561461142
 20
122.5455538070529
 30
0.0
 10
188.7892122300446
 20
122.4685479381674
 30
0.0
 10
188.8672552377506
 20
122.4101282666109
 30
0.0
  0
LINE
  5
19F
330
1F
100
AcDbEntity
  8
0
  6
HIDDEN
 62
     7
370
     0
100
AcDbLine
 10
188.6189111435
 20
122.9127324889
 30
0.0
 11
188.6189111435
 21
88.3972491841
 31
0.0
  0
SPLINE
  5
1A0
330
1F
100
AcDbEntity
  8
0
  6
HIDDEN
 62
     7
370
     0
100
AcDbSpline
210
0.0
220
0.0
230
1.0
 70
     8
 71
     3
 72
    10
 73
     6
 74
     0
 42
0.00000001
 43
0.00000001
 12
1.0
 22
0.0
 32
0.0
 13
1.0
 23
0.0
 33
0.0
 40
0.0
 40
0.0
 40
0.0
 40
0.0
 40
0.5
 40
0.5
 40
1.0
 40
1.0
 40
1.0
 40
1.0
 10
188.6189108520007
 20
88.39724934458262
 30
0.0
 10
188.6189108520007
 20
88.43347183402336
 30
0.0
 10
188.6218805812981
 20
88.46966503128192
 30
0.0
 10
188.6337595636461
 20
88.54130352269681
 30
0.0
 10
188.6425547914868
 20
88.57617684733852
 30
0.0
 10
188.654133252582
 20
88.61012826661091
 30
0.0
  0
SPLINE
  5
1A1
330
1F
100
AcDbEntity
  8
0
  6
HIDDEN
 62
     7
370
     0
100
AcDbSpline
210
0.0
220
0.0
230
1.0
 70
    24
 71
     3
 72
    12
 73
     8
 74
     0
 42
0.00000001
 43
0.00000001
 12
1.0
 22
0.0
 32
0.0
 13
1.0
 23
0.0
 33
0.0
 40
0.0
 40
0.0
 40
0.0
 40
0.0
 40
0.5
 40
0.5
 40
0.75
 40
0.75
 40
1.0
 40
1.0
 40
1.0
 40
1.0
 10
188.8672552377506
 20
122.4101282666109
 30
0.0
 10
188.9012065632264
 20
122.4101282666109
 30
0.0
 10
188.9399524214287
 20
122.4101282666109
 30
0.0
 10
189.0181477684364
 20
122.4101282666109
 30
0.0
 10
189.0476564601211
 20
122.4101282666109
 30
0.0
 10
189.1205316215268
 20
122.4101282666109
 30
0.0
 10
189.1673282556611
 20
122.4101282666109
 30
0.0
 10
189.2189108520007
 20
122.4101282666109
 30
0.0
  0
SPLINE
  5
1A2
330
1F
100
AcDbEntity
  8
0
  6
HIDDEN
 62
     7
370
     0
100
AcDbSpline
210
0.0
220
0.0
230
1.0
 70
    24
 71
     3
 72
    16
 73
    12
 74
     0
 42
0.00000001
 43
0.00000001
 12
1.0
 22
0.0
 32
0.0
 13
1.0
 23
0.0
 33
0.0
 40
0.0
 40
0.0
 40
0.0
 40
0.0
 40
0.5000000000000002
 40
0.5000000000000002
 40
0.7500000000000008
 40
0.7500000000000008
 40
0.8750000000000004
 40
0.8750000000000004
 40
0.9375000000000002
 40
0.9375000000000002
 40
1.0
 40
1.0
 40
1.0
 40
1.0
 10
188.654133252582
 20
88.61012826661091
 30
0.0
 10
188.6839106582723
 20
88.6101282666109
 30
0.0
 10
188.730883904136
 20
88.6101282666109
 30
0.0
 10
188.8412013634913
 20
88.61012826661091
 30
0.0
 10
188.8843458339527
 20
88.61012826661091
 30
0.0
 10
188.9730076336226
 20
88.61012826661091
 30
0.0
 10
189.0060588407521
 20
88.6101282666109
 30
0.0
 10
189.0704044252378
 20
88.61012826661091
 30
0.0
 10
189.0945495386714
 20
88.6101282666109
 30
0.0
 10
189.1511684592968
 20
88.6101282666109
 30
0.0
 10
189.1847710061751
 20
88.6101282666109
 30
0.0
 10
189.2189108520008
 20
88.61012826661091
 30
0.0
  0
LINE
  5
1A3
330
1F
100
AcDbEntity
  8
0
  6
HIDDEN
 62
     7
370
     0
100
AcDbLine
 10
154.7089104467
 20
116.510128207
 30
0.0
 11
154.7089104467
 21
118.3828688929
 31
0.0
  0
LINE
  5
1A4
330
1F
100
AcDbEntity
  8
0
  6
HIDDEN
 62
     7
370
     0
100
AcDbLine
 10
154.7089104467
 20
94.5101283262
 30
0.0
 11
154.7089104467
 21
92.6950420956
 31
0.0
  0
LINE
  5
1A5
330
1F
100
AcDbEntity
  8
0
  6
HIDDEN
 62
     7
370
     0
100
AcDbLine
 10
153.7589111292
 20
94.5101283262
 30
0.0
 11
153.7589111292
 21
93.644304737
 31
0.0
  0
LINE
  5
1A6
330
1F
100
AcDbEntity
  8
0
  6
HIDDEN
 62
     7
370
     0
100
AcDbLine
 10
153.7589111292
 20
116.510128207
 30
0.0
 11
153.7589111292
 21
117.4346009041
 31
0.0
  0
LINE
  5
1A7
330
1F
100
AcDbEntity
  8
0
  6
HIDDEN
 62
     7
370
     0
100
AcDbLine
 10
153.7589111292
 20
115.3751346985
 30
0.0
 11
153.7589111292
 21
95.6451218347
 31
0.0
  0
LINE
  5
1A8
330
1F
100
AcDbEntity
  8
0
  6
HIDDEN
 62
     7
370
     0
100
AcDbLine
 10
189.2189110556
 20
122.4101274977
 30
0.0
 11
190.098911237
 21
122.4101274977
 31
0.0
  0
LINE
  5
1A9
330
1F
100
AcDbEntity
  8
0
  6
HIDDEN
 62
     7
370
     0
100
AcDbLine
 10
189.2189110556
 20
88.6101290355
 30
0.0
 11
190.098911237
 21
88.6101290355
 31
0.0
  0
CIRCLE
  5
1AA
330
1F
100
AcDbEntity
  8
0
  6
HIDDEN
 62
     7
370
     0
100
AcDbCircle
 10
221.6335617413
 20
125.3244703731
 30
0.0
 40
2.999493705780981
  0
LINE
  5
1AB
330
1F
100
AcDbEntity
  8
0
  6
HIDDEN
 62
     7
370
     0
100
AcDbLine
 10
226.7902900391
 20
119.7547619934
 30
0.0
 11
217.7138958984
 21
118.9611634011
 31
0.0
  0
LINE
  5
1AC
330
1F
100
AcDbEntity
  8
0
  6
HIDDEN
 62
     7
370
     0
100
AcDbLine
 10
216.054517489
 20
130.3911596308
 30
0.0
 11
227.8114144617
 21
131.4191292743
 31
0.0
  0
CIRCLE
  5
1AD
330
1F
100
AcDbEntity
  8
0
  6
HIDDEN
 62
     7
370
     0
100
AcDbCircle
 10
221.6332490185
 20
125.2925843729
 30
0.0
 40
2.099490876608301
  0
SPLINE
  5
1AE
330
1F
100
AcDbEntity
  8
0
  6
HIDDEN
 62
     7
370
     0
100
AcDbSpline
210
0.0
220
0.0
230
1.0
 70
     8
 71
     3
 72
     8
 73
     4
 74
     0
 42
0.00000001
 43
0.00000001
 12
1.0
 22
0.0
 32
0.0
 13
1.0
 23
0.0
 33
0.0
 40
0.0
 40
0.0
 40
0.0
 40
0.0
 40
1.0
 40
1.0
 40
1.0
 40
1.0
 10
190.6989108520007
 20
123.2238049621411
 30
0.0
 10
191.0299311830203
 20
123.8153606585988
 30
0.0
 10
191.3617124545044
 20
124.406493322844
 30
0.0
 10
191.6940705508941
 20
124.997303536516
 30
0.0
  0
SPLINE
  5
1AF
330
1F
100
AcDbEntity
  8
0
  6
HIDDEN
 62
     7
370
     0
100
AcDbSpline
210
0.0
220
0.0
230
1.0
 70
     8
 71
     3
 72
    10
 73
     6
 74
     0
 42
0.00000001
 43
0.00000001
 12
1.0
 22
0.0
 32
0.0
 13
1.0
 23
0.0
 33
0.0
 40
0.0
 40
0.0
 40
0.0
 40
0.0
 40
0.5
 40
0.5
 40
1.0
 40
1.0
 40
1.0
 40
1.0
 10
193.0089108520007
 20
124.997303536516
 30
0.0
 10
193.1693330766001
 20
124.997303536516
 30
0.0
 10
193.3258158772674
 20
124.9287181340102
 30
0.0
 10
193.5464694878347
 20
124.6989448646905
 30
0.0
 10
193.6089108520007
 20
124.5404466630228
 30
0.0
 10
193.6089108520007
 20
124.3810052997538
 30
0.0
  0
LINE
  5
1B0
330
1F
100
AcDbEntity
  8
0
  6
HIDDEN
 62
     7
370
     0
100
AcDbLine
 10
191.6940712296
 20
124.9973043571
 30
0.0
 11
193.0089105778
 21
124.9973043571
 31
0.0
  0
LINE
  5
1B1
330
1F
100
AcDbEntity
  8
0
  6
HIDDEN
 62
     7
370
     0
100
AcDbLine
 10
193.6089114212
 20
124.3810053686
 30
0.0
 11
193.6089114212
 21
86.9060955713
 31
0.0
  0
SPLINE
  5
1B2
330
1F
100
AcDbEntity
  8
0
  6
HIDDEN
 62
     7
370
     0
100
AcDbSpline
210
0.0
220
0.0
230
1.0
 70
     8
 71
     3
 72
    12
 73
     8
 74
     0
 42
0.00000001
 43
0.00000001
 12
1.0
 22
0.0
 32
0.0
 13
1.0
 23
0.0
 33
0.0
 40
0.0
 40
0.0
 40
0.0
 40
0.0
 40
0.2500000000000038
 40
0.2500000000000038
 40
0.5000000000000077
 40
0.5000000000000077
 40
1.0
 40
1.0
 40
1.0
 40
1.0
 10
193.0089108520007
 20
86.2812437435815
 30
0.0
 10
193.0886763324709
 20
86.2812437435815
 30
0.0
 10
193.169097616128
 20
86.2982193399396
 30
0.0
 10
193.3157795327905
 20
86.3626948373988
 30
0.0
 10
193.3821333423544
 20
86.40980846919338
 30
0.0
 10
193.5483374230811
 20
86.58641838318087
 30
0.0
 10
193.6089108520006
 20
86.74626725898902
 30
0.0
 10
193.6089108520007
 20
86.90609644552407
 30
0.0
  0
SPLINE
  5
1B3
330
1F
100
AcDbEntity
  8
0
  6
HIDDEN
 62
     7
370
     0
100
AcDbSpline
210
0.0
220
0.0
230
1.0
 70
     8
 71
     3
 72
     8
 73
     4
 74
     0
 42
0.00000001
 43
0.00000001
 12
1.0
 22
0.0
 32
0.0
 13
1.0
 23
0.0
 33
0.0
 40
0.0
 40
0.0
 40
0.0
 40
0.0
 40
1.0
 40
1.0
 40
1.0
 40
1.0
 10
187.6237511531072
 20
124.997303536516
 30
0.0
 10
187.9561092494969
 20
124.406493322844
 30
0.0
 10
188.287890520981
 20
123.8153606585988
 30
0.0
 10
188.6189108520007
 20
123.2238049621411
 30
0.0
  0
LINE
  5
1B4
330
1F
100
AcDbEntity
  8
0
  6
HIDDEN
 62
     7
370
     0
100
AcDbLine
 10
188.6189111435
 20
123.2238054047
 30
0.0
 11
188.6189111435
 21
88.0810055653
 31
0.0
  0
LINE
  5
1B5
330
1F
100
AcDbEntity
  8
0
  6
HIDDEN
 62
     7
370
     0
100
AcDbLine
 10
191.6940712296
 20
124.9973043571
 30
0.0
 11
191.6940712296
 21
86.2812433163
 31
0.0
  0
LINE
  5
1B6
330
1F
100
AcDbEntity
  8
0
  6
HIDDEN
 62
     7
370
     0
100
AcDbLine
 10
190.6989102178
 20
123.2238054047
 30
0.0
 11
190.6989102178
 21
88.0810055653
 31
0.0
  0
ELLIPSE
  5
1B7
330
1F
100
AcDbEntity
  8
0
  6
HIDDEN
 62
     7
370
     0
100
AcDbEllipse
 10
221.6337746497
 20
124.8521360817
 30
0.0
 11
0.0
 21
2.101280043027515
 31
0.0
210
0.0
220
0.0
230
1.0
 40
0.999390827
 41
2.277078861730614
 42
4.186747558972727
  0
SPLINE
  5
1B8
330
1F
100
AcDbEntity
  8
0
  6
HIDDEN
 62
     7
370
     0
100
AcDbSpline
210
0.0
220
0.0
230
1.0
 70
     8
 71
     3
 72
    44
 73
    40
 74
     0
 42
0.00000001
 43
0.00000001
 12
1.0
 22
0.0
 32
0.0
 13
1.0
 23
0.0
 33
0.0
 40
0.0
 40
0.0
 40
0.0
 40
0.0
 40
0.0624999999999991
 40
0.0624999999999991
 40
0.1249999999999982
 40
0.1249999999999982
 40
0.1874999999999973
 40
0.1874999999999973
 40
0.2499999999999964
 40
0.2499999999999964
 40
0.3124999999999956
 40
0.3124999999999956
 40
0.3749999999999947
 40
0.3749999999999947
 40
0.4374999999999938
 40
0.4374999999999938
 40
0.4687499999999936
 40
0.4687499999999936
 40
0.4999999999999934
 40
0.4999999999999934
 40
0.5312499999999932
 40
0.5312499999999932
 40
0.562499999999993
 40
0.562499999999993
 40
0.5937499999999928
 40
0.5937499999999928
 40
0.6249999999999926
 40
0.6249999999999926
 40
0.6874999999999938
 40
0.6874999999999938
 40
0.749999999999995
 40
0.749999999999995
 40
0.8124999999999962
 40
0.8124999999999962
 40
0.8749999999999974
 40
0.8749999999999974
 40
0.9374999999999987
 40
0.9374999999999987
 40
1.0
 40
1.0
 40
1.0
 40
1.0
 10
220.0361370705791
 20
123.4883841324828
 30
0.0
 10
219.9034592282361
 20
123.6498056114455
 30
0.0
 10
219.8019150307022
 20
123.8199646711487
 30
0.0
 10
219.6470142948323
 20
124.1713905727414
 30
0.0
 10
219.595379760349
 20
124.3499223798853
 30
0.0
 10
219.5356596627405
 20
124.7032509419574
 30
0.0
 10
219.5271786111735
 20
124.8792792349581
 30
0.0
 10
219.5501308643643
 20
125.2296105082107
 30
0.0
 10
219.5815403822212
 20
125.4013065405658
 30
0.0
 10
219.6826299724928
 20
125.7340670897916
 30
0.0
 10
219.7522035622028
 20
125.8958520775312
 30
0.0
 10
219.9370162357152
 20
126.2103993510013
 30
0.0
 10
220.0508482401182
 20
126.3609987833625
 30
0.0
 10
220.3351500417401
 20
126.6416437264502
 30
0.0
 10
220.5044452527715
 20
126.7714822070367
 30
0.0
 10
220.8199681934346
 20
126.9318656092907
 30
0.0
 10
220.9339751050325
 20
126.978452466749
 30
0.0
 10
221.1805590524434
 20
127.0515351162369
 30
0.0
 10
221.3118461134717
 20
127.0772058392047
 30
0.0
 10
221.577045427425
 20
127.1012437167409
 30
0.0
 10
221.7124390028321
 20
127.0995171520774
 30
0.0
 10
221.9679279307223
 20
127.0716399340156
 30
0.0
 10
222.0896464656311
 20
127.0457287071096
 30
0.0
 10
222.3134910979221
 20
126.9783727369865
 30
0.0
 10
222.41842430318
 20
126.9361628551123
 30
0.0
 10
222.6104785261983
 20
126.8418316485756
 30
0.0
 10
222.6982663118387
 20
126.7896193063824
 30
0.0
 10
222.9431450615525
 20
126.6207654478209
 30
0.0
 10
223.0819630093569
 20
126.4914666120378
 30
0.0
 10
223.315374470923
 20
126.2169520359041
 30
0.0
 10
223.4115930689298
 20
126.0702966961626
 30
0.0
 10
223.5687424917531
 20
125.7589514546353
 30
0.0
 10
223.6289866546554
 20
125.5945972928054
 30
0.0
 10
223.710675095038
 20
125.2570630670871
 30
0.0
 10
223.7327568684371
 20
125.0827464061346
 30
0.0
 10
223.7347247557152
 20
124.7222257228886
 30
0.0
 10
223.7142188062486
 20
124.5368945495562
 30
0.0
 10
223.6235456456811
 20
124.1676138993335
 30
0.0
 10
223.5529973559311
 20
123.9807802670571
 30
0.0
 10
223.4502794269509
 20
123.7977811256239
 30
0.0
  0
SPLINE
  5
1B9
330
1F
100
AcDbEntity
  8
0
  6
HIDDEN
 62
     7
370
     0
100
AcDbSpline
210
0.0
220
0.0
230
1.0
 70
     8
 71
     3
 72
     8
 73
     4
 74
     0
 42
0.00000001
 43
0.00000001
 12
1.0
 22
0.0
 32
0.0
 13
1.0
 23
0.0
 33
0.0
 40
0.0
 40
0.0
 40
0.0
 40
0.0
 40
1.0
 40
1.0
 40
1.0
 40
1.0
 10
187.6237511531072
 20
86.2812437435815
 30
0.0
 10
187.9564564248126
 20
86.88061541680516
 30
0.0
 10
188.2882722253861
 20
87.48048452751019
 30
0.0
 10
188.6189108520007
 20
88.08100487862119
 30
0.0
  0
SPLINE
  5
1BA
330
1F
100
AcDbEntity
  8
0
  6
HIDDEN
 62
     7
370
     0
100
AcDbSpline
210
0.0
220
0.0
230
1.0
 70
     8
 71
     3
 72
     8
 73
     4
 74
     0
 42
0.00000001
 43
0.00000001
 12
1.0
 22
0.0
 32
0.0
 13
1.0
 23
0.0
 33
0.0
 40
0.0
 40
0.0
 40
0.0
 40
0.0
 40
1.0
 40
1.0
 40
1.0
 40
1.0
 10
190.6989108520007
 20
88.08100487862119
 30
0.0
 10
191.0295494786153
 20
87.48048452751019
 30
0.0
 10
191.3613652791888
 20
86.88061541680516
 30
0.0
 10
191.6940705508941
 20
86.2812437435815
 30
0.0
  0
LINE
  5
1BB
330
1F
100
AcDbEntity
  8
0
  6
HIDDEN
 62
     7
370
     0
100
AcDbLine
 10
191.6940712296
 20
86.2812433163
 30
0.0
 11
193.0089105778
 21
86.2812433163
 31
0.0
  0
LINE
  5
1BC
330
1F
100
AcDbEntity
  8
0
  6
HIDDEN
 62
     7
370
     0
100
AcDbLine
 10
153.7589111292
 20
93.6916559706
 30
0.0
 11
153.7589111292
 21
93.9626149605
 31
0.0
  0
LINE
  5
1BD
330
1F
100
AcDbEntity
  8
0
  6
HIDDEN
 62
     7
370
     0
100
AcDbLine
 10
153.7589111292
 20
117.3840421955
 30
0.0
 11
153.7589111292
 21
117.2883599768
 31
0.0
  0
SPLINE
  5
1BE
330
1F
100
AcDbEntity
  8
0
  6
HIDDEN
 62
     7
370
     0
100
AcDbSpline
210
0.0
220
0.0
230
1.0
 70
     8
 71
     3
 72
    26
 73
    22
 74
     0
 42
0.00000001
 43
0.00000001
 12
1.0
 22
0.0
 32
0.0
 13
1.0
 23
0.0
 33
0.0
 40
0.0
 40
0.0
 40
0.0
 40
0.0
 40
0.2500000000000025
 40
0.2500000000000025
 40
0.3750000000000042
 40
0.3750000000000042
 40
0.4375000000000053
 40
0.4375000000000053
 40
0.4687500000000054
 40
0.4687500000000054
 40
0.5000000000000056
 40
0.5000000000000056
 40
0.5312500000000058
 40
0.5312500000000058
 40
0.562500000000006
 40
0.562500000000006
 40
0.6250000000000046
 40
0.6250000000000046
 40
0.7500000000000029
 40
0.7500000000000029
 40
1.0
 40
1.0
 40
1.0
 40
1.0
 10
154.5188808983885
 20
117.8982088462238
 30
0.0
 10
154.4714927889601
 20
117.7625531042007
 30
0.0
 10
154.4138514870557
 20
117.6185917058715
 30
0.0
 10
154.2918036745124
 20
117.3758191326171
 30
0.0
 10
154.2457546667358
 20
117.2907794921677
 30
0.0
 10
154.1551013825702
 20
117.1504035191274
 30
0.0
 10
154.1207488822846
 20
117.1004921417886
 30
0.0
 10
154.0583137098941
 20
117.0239568769343
 30
0.0
 10
154.0350196910961
 20
116.9975523979474
 30
0.0
 10
153.9859671539695
 20
116.9499576326864
 30
0.0
 10
153.9615357043127
 20
116.9305150188345
 30
0.0
 10
153.9209061086929
 20
116.9056072411664
 30
0.0
 10
153.9047438268417
 20
116.8995374098555
 30
0.0
 10
153.8777617827386
 20
116.8938485382617
 30
0.0
 10
153.8670122599158
 20
116.8942390463424
 30
0.0
 10
153.8389762857587
 20
116.9003813931309
 30
0.0
 10
153.826115053726
 20
116.9110453995489
 30
0.0
 10
153.7951121925657
 20
116.9500581899091
 30
0.0
 10
153.7842527104965
 20
116.9861101803134
 30
0.0
 10
153.7609754545585
 20
117.1037895778124
 30
0.0
 10
153.7589108520006
 20
117.1951194781455
 30
0.0
 10
153.7589108520006
 20
117.2883597310517
 30
0.0
  0
SPLINE
  5
1BF
330
1F
100
AcDbEntity
  8
0
  6
HIDDEN
 62
     7
370
     0
100
AcDbSpline
210
0.0
220
0.0
230
1.0
 70
     8
 71
     3
 72
    24
 73
    20
 74
     0
 42
0.00000001
 43
0.00000001
 12
1.0
 22
0.0
 32
0.0
 13
1.0
 23
0.0
 33
0.0
 40
0.0
 40
0.0
 40
0.0
 40
0.0
 40
0.2499999999999983
 40
0.2499999999999983
 40
0.3749999999999968
 40
0.3749999999999968
 40
0.4374999999999966
 40
0.4374999999999966
 40
0.4999999999999962
 40
0.4999999999999962
 40
0.5312499999999964
 40
0.5312499999999964
 40
0.5624999999999967
 40
0.5624999999999967
 40
0.6249999999999963
 40
0.6249999999999963
 40
0.749999999999997
 40
0.749999999999997
 40
1.0
 40
1.0
 40
1.0
 40
1.0
 10
153.7589108520007
 20
93.96261506538953
 30
0.0
 10
153.7589108520007
 20
94.04752401905911
 30
0.0
 10
153.761635480433
 20
94.129853715106
 30
0.0
 10
153.787992801551
 20
94.232266102525
 30
0.0
 10
153.8002065198232
 20
94.2630831989094
 30
0.0
 10
153.8348171699556
 20
94.29218071498634
 30
0.0
 10
153.849203880323
 20
94.29913835562495
 30
0.0
 10
153.8904523634254
 20
94.2980286143481
 30
0.0
 10
153.9189919133562
 20
94.28973520873933
 30
0.0
 10
153.9799145788676
 20
94.24515177487808
 30
0.0
 10
154.0029805490074
 20
94.2246900616208
 30
0.0
 10
154.0468764290137
 20
94.18007744334045
 30
0.0
 10
154.0677564645738
 20
94.15620136513408
 30
0.0
 10
154.1249667278669
 20
94.08630426797208
 30
0.0
 10
154.1573133516433
 20
94.0407266791876
 30
0.0
 10
154.2434792951351
 20
93.91184319156872
 30
0.0
 10
154.2891433151752
 20
93.83201001443666
 30
0.0
 10
154.4096908786264
 20
93.60622920532435
 30
0.0
 10
154.4687509673275
 20
93.47139782035302
 30
0.0
 10
154.5188808983885
 20
93.3431426816855
 30
0.0
  0
LINE
  5
1C0
330
1F
100
AcDbEntity
  8
0
  6
HIDDEN
 62
     7
370
     0
100
AcDbLine
 10
153.7589111292
 20
117.2883599768
 30
0.0
 11
153.7589111292
 21
93.9626149605
 31
0.0
  0
LWPOLYLINE
  5
1C1
330
1F
100
AcDbEntity
  8
0
  6
HIDDEN
 62
     7
370
     0
100
AcDbPolyline
 90
       32
 70
   128
 43
0.0
 10
197.6170220339
 20
100.3541216026
 10
198.1126234793
 20
100.4261705796
 10
198.5879332685
 20
100.5941327433
 10
199.0234960728
 20
100.8511316734
 10
199.4014752024
 20
101.1866452875
 10
199.7063995265
 20
101.5869384403
 10
199.9257855975
 20
102.0356228812
 10
200.0506498777
 20
102.514328971
 10
200.0758812689
 20
103.0034588887
 10
200.000446003
 20
103.4829873363
 10
199.8274342083
 20
103.9332823832
 10
199.5639276617
 20
104.3359089647
 10
199.2207129412
 20
104.6743835443
 10
198.8118437045
 20
104.9348488571
 10
198.3540595435
 20
105.1066414341
 10
197.8661005311
 20
105.1827281019
 10
197.3679435366
 20
105.1599938485
 10
196.8799845242
 20
105.0393693852
 10
196.4221985006
 20
104.8257931373
 10
196.0133292639
 20
104.5280089141
 10
195.670116406
 20
104.1582079609
 10
195.4066098594
 20
103.7315302067
 10
195.2335980647
 20
103.2654436542
 10
195.1581627988
 20
102.7790299388
 10
195.18339419
 20
102.2922031819
 10
195.3082584702
 20
101.8248936864
 10
195.5276426785
 20
101.3962333793
 10
195.8325670027
 20
101.0237718704
 10
196.2105479949
 20
100.7227577041
 10
196.6461107992
 20
100.5055141407
 10
197.1214205884
 20
100.3809353108
 10
197.6170220339
 20
100.3541216026
  0
CIRCLE
  5
1C2
330
1F
100
AcDbEntity
  8
0
  6
HIDDEN
 62
     7
370
     0
100
AcDbCircle
 10
180.658910852
 20
105.5101282666
 30
0.0
 40
5.0
  0
ELLIPSE
  5
1C3
330
1F
100
AcDbEntity
  8
0
  6
HIDDEN
 62
     7
370
     0
100
AcDbEllipse
 10
6123.8998423767
 20
622.3018976469
 30
0.0
 11
8187.872503842972
 21
715.9096438399924
 31
1.989519660128281E-13
210
6.421556184084598E-19
220
-2.852452905210820E-16
230
1.0
 40
0.0030416916
 41
2.375846561492493
 42
2.377458382852971
  0
ELLIPSE
  5
1C4
330
1F
100
AcDbEntity
  8
0
  6
HIDDEN
 62
     7
370
     0
100
AcDbEllipse
 10
6123.8998423767
 20
622.3018976469
 30
0.0
 11
8187.872503842972
 21
715.9096438399924
 31
1.989519660128281E-13
210
6.421556184084598E-19
220
-2.852452905210820E-16
230
1.0
 40
0.0030416916
 41
2.374581932066156
 42
2.37524495217484
  0
LINE
  5
1C5
330
1F
100
AcDbEntity
  8
0
  6
HIDDEN
 62
     7
370
     0
100
AcDbLine
 10
173.658910852
 20
89.3029268603
 30
0.0
 11
173.7530716243
 21
89.9729165951
 31
0.0
  0
LINE
  5
1C6
330
1F
100
AcDbEntity
  8
0
  6
HIDDEN
 62
     7
370
     0
100
AcDbLine
 10
173.7530716243
 20
121.0473399381
 30
0.0
 11
173.658910852
 21
121.717329673
 31
0.0
  0
ARC
  5
1C7
330
1F
100
AcDbEntity
  8
0
  6
HIDDEN
 62
     7
370
     0
100
AcDbCircle
 10
173.1589040993
 20
90.0564211131
 30
0.0
 40
0.6000067526677101
100
AcDbArc
 50
352.0
 51
0.0
  0
ARC
  5
1C8
330
1F
100
AcDbEntity
  8
0
  6
HIDDEN
 62
     7
370
     0
100
AcDbCircle
 10
173.1589040993
 20
90.0564211131
 30
0.0
 40
0.6000067526676967
100
AcDbArc
 50
0.0
 51
33.5571153394
  0
ARC
  5
1C9
330
1F
100
AcDbEntity
  8
0
  6
HIDDEN
 62
     7
370
     0
100
AcDbCircle
 10
173.1589040993
 20
120.9638354201
 30
0.0
 40
0.6000067526677081
100
AcDbArc
 50
348.75
 51
8.0
  0
LWPOLYLINE
  5
1CA
330
1F
100
AcDbEntity
  8
0
  6
HIDDEN
 62
     7
370
     0
100
AcDbPolyline
 90
        3
 70
   128
 43
0.0
 10
173.7473818909
 20
120.8467796216
 10
173.7132380592
 20
120.7342227692
 10
173.658910852
 20
120.6321712355
  0
LINE
  5
1CB
330
1F
100
AcDbEntity
  8
0
  6
HIDDEN
 62
     7
370
     0
100
AcDbLine
 10
173.7589108495
 20
90.0564208398
 30
0.0
 11
173.7589108495
 21
120.9638356934
 31
0.0
  0
LINE
  5
1CC
330
1F
100
AcDbEntity
  8
0
  6
HIDDEN
 62
     7
370
     0
100
AcDbLine
 10
173.7589108495
 20
90.0564208398
 30
0.0
 11
173.7589108495
 21
120.9638356934
 31
0.0
  0
LINE
  5
1CD
330
1F
100
AcDbEntity
  8
0
  6
HIDDEN
 62
     7
370
     0
100
AcDbLine
 10
163.1915389486
 20
92.760128505
 30
0.0
 11
165.3896856048
 21
92.760128505
 31
0.0
  0
LINE
  5
1CE
330
1F
100
AcDbEntity
  8
0
  6
HIDDEN
 62
     7
370
     0
100
AcDbLine
 10
165.3896856048
 20
118.2601280282
 30
0.0
 11
163.1915389486
 21
118.2601280282
 31
0.0
  0
ARC
  5
1CF
330
1F
100
AcDbEntity
  8
0
  6
HIDDEN
 62
     7
370
     0
100
AcDbCircle
 10
163.1915387962
 20
93.1601282666
 30
0.0
 40
0.4000000000000199
100
AcDbArc
 50
210.0
 51
270.0
  0
ARC
  5
1D0
330
1F
100
AcDbEntity
  8
0
  6
HIDDEN
 62
     7
370
     0
100
AcDbCircle
 10
163.1915387962
 20
117.8601282666
 30
0.0
 40
0.4000000000000057
100
AcDbArc
 50
90.0
 51
150.0
  0
ARC
  5
1D1
330
1F
100
AcDbEntity
  8
0
  6
HIDDEN
 62
     7
370
     0
100
AcDbCircle
 10
169.4830875799
 20
97.7601282666
 30
0.0
 40
5.00000000000001
100
AcDbArc
 50
275.4067237271
 51
326.6329870308
  0
ARC
  5
1D2
330
1F
100
AcDbEntity
  8
0
  6
HIDDEN
 62
     7
370
     0
100
AcDbCircle
 10
169.4830875799
 20
113.2601282666
 30
0.0
 40
5.00000000000001
100
AcDbArc
 50
33.3670129692
 51
84.5888075828
  0
LINE
  5
1D3
330
1F
100
AcDbEntity
  8
0
  6
HIDDEN
 62
     7
370
     0
100
AcDbLine
 10
191.5004976951
 20
109.0746166422
 30
0.0
 11
191.7517424487
 21
106.9094655807
 31
0.0
  0
LINE
  5
1D4
330
1F
100
AcDbEntity
  8
0
  6
HIDDEN
 62
     7
370
     0
100
AcDbLine
 10
191.7517424487
 20
106.9094655807
 30
0.0
 11
193.6916910969
 21
105.9156833337
 31
0.0
  0
LINE
  5
1D5
330
1F
100
AcDbEntity
  8
0
  6
HIDDEN
 62
     7
370
     0
100
AcDbLine
 10
202.7761300021
 20
117.1122869248
 30
0.0
 11
191.5625610315
 21
109.3339923075
 31
0.0
  0
LINE
  5
1D6
330
1F
100
AcDbEntity
  8
0
  6
HIDDEN
 62
     7
370
     0
100
AcDbLine
 10
195.8758511507
 20
107.214400615
 30
0.0
 11
202.6241940372
 21
111.8953889939
 31
0.0
  0
LINE
  5
1D7
330
1F
100
AcDbEntity
  8
0
  6
HIDDEN
 62
     7
370
     0
100
AcDbLine
 10
193.9563729727
 20
105.8829547376
 30
0.0
 11
194.3837196492
 21
106.1793837701
 31
0.0
  0
LINE
  5
1D8
330
1F
100
AcDbEntity
  8
0
  6
HIDDEN
 62
     7
370
     0
100
AcDbLine
 10
162.8451288604
 20
118.0601283679
 30
0.0
 11
161.6615603604
 21
116.010128125
 31
0.0
  0
LINE
  5
1D9
330
1F
100
AcDbEntity
  8
0
  6
HIDDEN
 62
     7
370
     0
100
AcDbLine
 10
161.6615603604
 20
95.0101284082
 30
0.0
 11
162.8451288604
 21
92.9601281653
 31
0.0
  0
LINE
  5
1DA
330
1F
100
AcDbEntity
  8
0
  6
HIDDEN
 62
     7
370
     0
100
AcDbLine
 10
192.2593262904
 20
106.9033360812
 30
0.0
 11
193.5706899428
 21
104.9784714244
 31
0.0
  0
LINE
  5
1DB
330
1F
100
AcDbEntity
  8
0
  6
HIDDEN
 62
     7
370
     0
100
AcDbLine
 10
197.1494701617
 20
107.1850424171
 30
0.0
 11
196.0593589508
 21
108.785146452
 31
0.0
  0
ARC
  5
1DC
330
1F
100
AcDbEntity
  8
0
  6
HIDDEN
 62
     7
370
     0
100
AcDbCircle
 10
180.608910852
 20
95.6351282666
 30
0.0
 40
1.000000000000028
100
AcDbArc
 50
218.6821874535
 51
0.0
  0
ARC
  5
1DD
330
1F
100
AcDbEntity
  8
0
  6
HIDDEN
 62
     7
370
     0
100
AcDbCircle
 10
180.608910852
 20
115.3851282666
 30
0.0
 40
1.000000000000028
100
AcDbArc
 50
0.0
 51
141.3178125465
  0
LINE
  5
1DE
330
1F
100
AcDbEntity
  8
0
  6
HIDDEN
 62
     7
370
     0
100
AcDbLine
 10
159.8589110114
 20
95.0101284082
 30
0.0
 11
161.6615603604
 21
95.0101284082
 31
0.0
  0
LINE
  5
1DF
330
1F
100
AcDbEntity
  8
0
  6
HIDDEN
 62
     7
370
     0
100
AcDbLine
 10
161.6615603604
 20
116.010128125
 30
0.0
 11
157.3589106017
 21
116.010128125
 31
0.0
  0
LINE
  5
1E0
330
1F
100
AcDbEntity
  8
0
  6
HIDDEN
 62
     7
370
     0
100
AcDbLine
 10
173.658910852
 20
95.0101284082
 30
0.0
 11
179.8282858842
 21
95.0101284082
 31
0.0
  0
LINE
  5
1E1
330
1F
100
AcDbEntity
  8
0
  6
HIDDEN
 62
     7
370
     0
100
AcDbLine
 10
179.8282858842
 20
116.010128125
 30
0.0
 11
173.658910852
 21
116.010128125
 31
0.0
  0
LINE
  5
1E2
330
1F
100
AcDbEntity
  8
0
  6
HIDDEN
 62
     7
370
     0
100
AcDbLine
 10
186.9589106106
 20
99.2601281735
 30
0.0
 11
189.4589100891
 21
99.2601281735
 31
0.0
  0
LINE
  5
1E3
330
1F
100
AcDbEntity
  8
0
  6
HIDDEN
 62
     7
370
     0
100
AcDbLine
 10
189.4589100891
 20
111.7601283597
 30
0.0
 11
186.9589106106
 21
111.7601283597
 31
0.0
  0
LINE
  5
1E4
330
1F
100
AcDbEntity
  8
0
  6
HIDDEN
 62
     7
370
     0
100
AcDbLine
 10
181.6089113169
 20
99.5101282145
 30
0.0
 11
182.1089104676
 21
100.0101282964
 31
0.0
  0
LINE
  5
1E5
330
1F
100
AcDbEntity
  8
0
  6
HIDDEN
 62
     7
370
     0
100
AcDbLine
 10
182.1089104676
 20
111.0101282368
 30
0.0
 11
181.6089113169
 21
111.5101283188
 31
0.0
  0
LINE
  5
1E6
330
1F
100
AcDbEntity
  8
0
  6
HIDDEN
 62
     7
370
     0
100
AcDbLine
 10
182.1089104676
 20
100.0101282964
 30
0.0
 11
186.9589106106
 21
100.0101282964
 31
0.0
  0
LINE
  5
1E7
330
1F
100
AcDbEntity
  8
0
  6
HIDDEN
 62
     7
370
     0
100
AcDbLine
 10
186.9589106106
 20
111.0101282368
 30
0.0
 11
182.1089104676
 21
111.0101282368
 31
0.0
  0
LINE
  5
1E8
330
1F
100
AcDbEntity
  8
0
  6
HIDDEN
 62
     7
370
     0
100
AcDbLine
 10
181.6089113169
 20
125.5101278196
 30
0.0
 11
181.6089113169
 21
122.4101274977
 31
0.0
  0
LINE
  5
1E9
330
1F
100
AcDbEntity
  8
0
  6
HIDDEN
 62
     7
370
     0
100
AcDbLine
 10
170.426090194
 20
90.4688235144
 30
0.0
 11
169.9581616019
 21
90.9646605844
 31
0.0
  0
LINE
  5
1EA
330
1F
100
AcDbEntity
  8
0
  6
HIDDEN
 62
     7
370
     0
100
AcDbLine
 10
165.3602567428
 20
91.2445137049
 30
0.0
 11
164.8427831867
 21
90.748688742
 31
0.0
  0
LINE
  5
1EB
330
1F
100
AcDbEntity
  8
0
  6
HIDDEN
 62
     7
370
     0
100
AcDbLine
 10
164.842148956
 20
120.2716180826
 30
0.0
 11
165.3598348536
 21
119.7757307212
 31
0.0
  0
LINE
  5
1EC
330
1F
100
AcDbEntity
  8
0
  6
HIDDEN
 62
     7
370
     0
100
AcDbLine
 10
169.9574756828
 20
120.0553780193
 30
0.0
 11
170.4253795949
 21
120.5512719
 31
0.0
  0
LINE
  5
1ED
330
1F
100
AcDbEntity
  8
0
  6
HIDDEN
 62
     7
370
     0
100
AcDbLine
 10
189.4589100891
 20
103.0101283225
 30
0.0
 11
198.7589110547
 21
103.0101283225
 31
0.0
  0
LINE
  5
1EE
330
1F
100
AcDbEntity
  8
0
  6
HIDDEN
 62
     7
370
     0
100
AcDbLine
 10
198.7589110547
 20
108.0101282107
 30
0.0
 11
189.4589100891
 21
108.0101282107
 31
0.0
  0
LINE
  5
1EF
330
1F
100
AcDbEntity
  8
0
  6
HIDDEN
 62
     7
370
     0
100
AcDbLine
 10
198.7589110547
 20
103.0101283225
 30
0.0
 11
200.2610617244
 21
105.5101282666
 31
0.0
  0
LINE
  5
1F0
330
1F
100
AcDbEntity
  8
0
  6
HIDDEN
 62
     7
370
     0
100
AcDbLine
 10
200.2610617244
 20
105.5101282666
 30
0.0
 11
198.7589110547
 21
108.0101282107
 31
0.0
  0
LINE
  5
1F1
330
1F
100
AcDbEntity
  8
0
  6
HIDDEN
 62
     7
370
     0
100
AcDbLine
 10
169.9589108509
 20
118.2369827996
 30
0.0
 11
169.9589108509
 21
120.0551675404
 31
0.0
  0
LINE
  5
1F2
330
1F
100
AcDbEntity
  8
0
  6
HIDDEN
 62
     7
370
     0
100
AcDbLine
 10
165.3589109816
 20
119.7746252413
 30
0.0
 11
165.3589109816
 21
118.2546257744
 31
0.0
  0
LINE
  5
1F3
330
1F
100
AcDbEntity
  8
0
  6
HIDDEN
 62
     7
370
     0
100
AcDbLine
 10
169.9589108509
 20
90.9649045909
 30
0.0
 11
169.9589108509
 21
92.7832737337
 31
0.0
  0
LINE
  5
1F4
330
1F
100
AcDbEntity
  8
0
  6
HIDDEN
 62
     7
370
     0
100
AcDbLine
 10
165.3589109816
 20
92.7656307588
 30
0.0
 11
165.3589109816
 21
91.2515200446
 31
0.0
  0
LINE
  5
1F5
330
1F
100
AcDbEntity
  8
0
  6
HIDDEN
 62
     7
370
     0
100
AcDbLine
 10
213.5487084203
 20
119.4973816867
 30
0.0
 11
213.5487084203
 21
119.3298646952
 31
0.0
  0
LINE
  5
1F6
330
1F
100
AcDbEntity
  8
0
  6
HIDDEN
 62
     7
370
     0
100
AcDbLine
 10
217.7487087362
 20
119.3298646952
 30
0.0
 11
217.7487087362
 21
119.3417306761
 31
0.0
  0
LINE
  5
1F7
330
1F
100
AcDbEntity
  8
0
  6
HIDDEN
 62
     7
370
     0
100
AcDbLine
 10
194.3508737647
 20
103.8332896544
 30
0.0
 11
195.8397698515
 21
101.647832734
 31
0.0
  0
LINE
  5
1F8
330
1F
100
AcDbEntity
  8
0
  6
HIDDEN
 62
     7
370
     0
100
AcDbLine
 10
199.3108016365
 20
104.0125605189
 30
0.0
 11
197.9292535149
 21
106.0404485445
 31
0.0
  0
ARC
  5
1F9
330
1F
100
AcDbEntity
  8
0
  6
HIDDEN
 62
     7
370
     0
100
AcDbCircle
 10
156.458910852
 20
119.2901282666
 30
0.0
 40
0.8999999999999915
100
AcDbArc
 50
270.0
 51
311.1792132368
  0
ARC
  5
1FA
330
1F
100
AcDbEntity
  8
0
  6
HIDDEN
 62
     7
370
     0
100
AcDbCircle
 10
158.958910852
 20
91.7891282666
 30
0.0
 40
0.9000000000000057
100
AcDbArc
 50
29.8499024808
 51
90.0
  0
LINE
  5
1FB
330
1F
100
AcDbEntity
  8
0
  6
HIDDEN
 62
     7
370
     0
100
AcDbLine
 10
156.4589102679
 20
118.3901285524
 30
0.0
 11
154.7089104467
 21
118.3901285524
 31
0.0
  0
LINE
  5
1FC
330
1F
100
AcDbEntity
  8
0
  6
HIDDEN
 62
     7
370
     0
100
AcDbLine
 10
154.7089104467
 20
92.6891281972
 30
0.0
 11
158.9589106777
 21
92.6891281972
 31
0.0
  0
LINE
  5
1FD
330
1F
100
AcDbEntity
  8
0
  6
HIDDEN
 62
     7
370
     0
100
AcDbLine
 10
153.7589111292
 20
93.6391284461
 30
0.0
 11
154.7089104467
 21
92.6891281972
 31
0.0
  0
LINE
  5
1FE
330
1F
100
AcDbEntity
  8
0
  6
HIDDEN
 62
     7
370
     0
100
AcDbLine
 10
154.7089104467
 20
118.3901285524
 30
0.0
 11
153.7589111292
 21
117.4401283036
 31
0.0
  0
LINE
  5
1FF
330
1F
100
AcDbEntity
  8
0
  6
HIDDEN
 62
     7
370
     0
100
AcDbLine
 10
219.533774715
 20
125.2917401264
 30
0.0
 11
219.533774715
 21
124.9054610501
 31
0.0
  0
LINE
  5
200
330
1F
100
AcDbEntity
  8
0
  6
HIDDEN
 62
     7
370
     0
100
AcDbLine
 10
223.7337750309
 20
124.8902097116
 30
0.0
 11
223.7337750309
 21
125.2917401264
 31
0.0
  0
LINE
  5
201
330
1F
100
AcDbEntity
  8
0
  6
HIDDEN
 62
     7
370
     0
100
AcDbLine
 10
195.5509313308
 20
101.3613600055
 30
0.0
 11
196.5187729263
 21
99.9407280008
 31
0.0
  0
LINE
  5
202
330
1F
100
AcDbEntity
  8
0
  6
HIDDEN
 62
     7
370
     0
100
AcDbLine
 10
200.7780984902
 20
102.56925209
 30
0.0
 11
199.6831127369
 21
104.1765120583
 31
0.0
  0
LINE
  5
203
330
1F
100
AcDbEntity
  8
VERMASSUNG
100
AcDbLine
 10
228.658910852
 20
132.5101282666
 30
0.0
 11
228.658910852
 21
111.7040815517
 31
0.0
  0
DIMENSION
  5
204
330
1F
100
AcDbEntity
  8
VERMASSUNG
100
AcDbDimension
  2
_D
 10
228.658910852
 20
143.5799696659
 30
0.0
 11
191.208910852
 21
143.5799696659
 31
0.0
 70
   160
  1
<>
 71
     2
 42
-1.0
  3
SLDDIMSTYLE0
100
AcDbAlignedDimension
 13
153.758910852
 23
117.4401282666
 33
0.0
 14
228.658910852
 24
132.5101282666
 34
0.0
100
AcDbRotatedDimension
  0
DIMENSION
  5
20F
330
1F
100
AcDbEntity
  8
VERMASSUNG
100
AcDbDimension
  2
_D_1
 10
228.658910852
 20
137.5799696659
 30
0.0
 11
201.158910852
 21
137.5799696659
 31
0.0
 70
   160
  1
<>
 71
     2
 42
-1.0
  3
SLDDIMSTYLE0
100
AcDbAlignedDimension
 13
173.658910852
 23
125.2101282666
 33
0.0
 14
228.658910852
 24
132.5101282666
 34
0.0
100
AcDbRotatedDimension
  0
DIMENSION
  5
219
330
1F
100
AcDbEntity
  8
VERMASSUNG
100
AcDbDimension
  2
_D_2
 10
150.26749925
 20
85.5101282666
 30
0.0
 11
150.26749925
 21
105.5101282666
 31
0.0
 70
   160
  1
HSK %%c<>
 71
     2
 42
-1.0
  3
SLDDIMSTYLE0
100
AcDbAlignedDimension
 13
173.958910852
 23
125.5101282666
 33
0.0
 14
173.958910852
 24
85.5101282666
 34
0.0
 50
90.0
100
AcDbRotatedDimension
  0
DIMENSION
  5
225
330
1F
100
AcDbEntity
  8
VERMASSUNG
100
AcDbDimension
  2
_D_3
 10
236.9534523914
 20
105.5101282666
 30
0.0
 11
236.9534523914
 21
119.0101282666
 31
0.0
 70
   160
  1
<>
 71
     2
 42
-1.0
  3
SLDDIMSTYLE0
100
AcDbAlignedDimension
 13
228.658910852
 23
132.5101282666
 33
0.0
 14
228.658910852
 24
105.5101282666
 34
0.0
 50
90.0
100
AcDbRotatedDimension
  0
DIMENSION
  5
22F
330
1F
100
AcDbEntity
  8
VERMASSUNG
100
AcDbDimension
  2
_D_4
 10
228.658910852
 20
132.5101282666
 30
0.0
 11
222.3358042454
 21
112.9819836585
 31
0.0
 70
   162
  1
<>
 71
     1
 42
-1.0
  3
SLDDIMSTYLE1
100
AcDb2LineAngularDimension
 13
225.78330783
 23
107.7600735373
 33
0.0
 14
227.2154026301
 24
124.1389695856
 34
0.0
 15
228.658910852
 25
105.5101282666
 35
0.0
 16
227.4217517164
 26
112.2955922728
 36
0.0
  0
LINE
  5
23A
330
1F
100
AcDbEntity
  8
VERMASSUNG
  6
CENTERX2
370
     0
100
AcDbLine
 10
152.8096040788
 20
105.5101282666
 30
0.0
 11
229.3338395924
 21
105.5101282666
 31
0.0
  0
LINE
  5
23B
330
1F
100
AcDbEntity
  8
0
  6
Continuous
 62
     7
370
    15
100
AcDbLine
 10
91.3742207344
 20
131.9966777931
 30
0.0
 11
88.1324265506
 21
132.510128967
 31
0.0
  0
LINE
  5
23C
330
1F
100
AcDbEntity
  8
0
  6
Continuous
 62
     7
370
    15
100
AcDbLine
 10
87.6476464332
 20
118.6278421203
 30
0.0
 11
87.9487492207
 21
118.6541855107
 31
0.0
  0
LWPOLYLINE
  5
23D
330
1F
100
AcDbEntity
  8
0
  6
Continuous
 62
     7
370
    15
100
AcDbPolyline
 90
        9
 70
   128
 43
0.0
 10
88.1172500754
 20
132.0755310128
 10
88.1202888709
 20
132.1625500689
 10
88.1232412844
 20
132.2470973949
 10
88.1259673461
 20
132.3251608531
 10
88.1283378203
 20
132.3930430929
 10
88.1302403268
 20
132.4475236009
 10
88.1315846717
 20
132.4860207508
 10
88.1323071226
 20
132.5067091505
 10
88.1324265506
 20
132.510128967
  0
LINE
  5
23E
330
1F
100
AcDbEntity
  8
0
  6
Continuous
 62
     7
370
    15
100
AcDbLine
 10
92.8684854302
 20
131.74146188
 30
0.0
 11
91.3742207344
 21
131.9966777931
 31
0.0
  0
LINE
  5
23F
330
1F
100
AcDbEntity
  8
0
  6
Continuous
 62
     7
370
    15
100
AcDbLine
 10
92.4614034016
 20
120.084147505
 30
0.0
 11
92.8684854302
 21
131.74146188
 31
0.0
  0
LINE
  5
240
330
1F
100
AcDbEntity
  8
0
  6
Continuous
 62
     7
370
    15
100
AcDbLine
 10
92.4614034016
 20
120.084147505
 30
0.0
 11
90.954114858
 21
119.9664162243
 31
0.0
  0
LINE
  5
241
330
1F
100
AcDbEntity
  8
0
  6
Continuous
 62
     7
370
    15
100
AcDbLine
 10
87.6971440744
 20
120.0452685128
 30
0.0
 11
88.1172500754
 21
132.0755310128
 31
0.0
  0
LWPOLYLINE
  5
242
330
1F
100
AcDbEntity
  8
0
  6
Continuous
 62
     7
370
    15
100
AcDbPolyline
 90
        9
 70
   128
 43
0.0
 10
87.6844540767
 20
119.6818748261
 10
87.6848766061
 20
119.6939745689
 10
87.6857088592
 20
119.7178080449
 10
87.6869255449
 20
119.7526488225
 10
87.688489672
 20
119.7974398504
 10
87.6903537433
 20
119.8508195351
 10
87.6924610643
 20
119.9111655126
 10
87.6947476941
 20
119.9766449402
 10
87.6971440744
 20
120.0452685128
  0
LINE
  5
243
330
1F
100
AcDbEntity
  8
0
  6
Continuous
 62
     7
370
    15
100
AcDbLine
 10
92.4607375059
 20
120.0650833319
 30
0.0
 11
92.4614034016
 21
120.084147505
 31
0.0
  0
LINE
  5
244
330
1F
100
AcDbEntity
  8
0
  6
Continuous
 62
     7
370
    15
100
AcDbLine
 10
87.6476995477
 20
118.6293629701
 30
0.0
 11
87.6844540767
 21
119.6818748261
 31
0.0
  0
LINE
  5
245
330
1F
100
AcDbEntity
  8
0
  6
Continuous
 62
     7
370
    15
100
AcDbLine
 10
87.6476464332
 20
118.6278421203
 30
0.0
 11
87.6476995477
 21
118.6293629701
 31
0.0
  0
LINE
  5
246
330
1F
100
AcDbEntity
  8
0
  6
Continuous
 62
     7
370
    15
100
AcDbLine
 10
87.590929063
 20
108.4075568481
 30
0.0
 11
106.1324257757
 21
107.7600734546
 31
0.0
  0
LINE
  5
247
330
1F
100
AcDbEntity
  8
0
  6
Continuous
 62
     7
370
    15
100
AcDbLine
 10
87.9841217397
 20
119.6671217451
 30
0.0
 11
87.590929063
 21
108.4075568481
 31
0.0
  0
LINE
  5
248
330
1F
100
AcDbEntity
  8
0
  6
Continuous
 62
     7
370
    15
100
AcDbLine
 10
87.9841217397
 20
119.6671217451
 30
0.0
 11
89.951423754
 21
119.8420101548
 31
0.0
  0
LINE
  5
249
330
1F
100
AcDbEntity
  8
0
  6
Continuous
 62
     7
370
    15
100
AcDbLine
 10
89.951423754
 20
119.8420101548
 30
0.0
 11
92.4499006364
 21
119.7547619934
 31
0.0
  0
LINE
  5
24A
330
1F
100
AcDbEntity
  8
0
  6
Continuous
 62
     7
370
    15
100
AcDbLine
 10
92.4607375059
 20
120.0650833319
 30
0.0
 11
92.4499006364
 21
119.7547619934
 31
0.0
  0
LINE
  5
24B
330
1F
100
AcDbEntity
  8
0
  6
Continuous
 62
     7
370
    15
100
AcDbLine
 10
106.1324257757
 20
124.1389695326
 30
0.0
 11
106.1324257757
 21
107.7600734546
 31
0.0
  0
ELLIPSE
  5
24C
330
1F
100
AcDbEntity
  8
0
  6
Continuous
 62
     7
370
    15
100
AcDbEllipse
 10
88.1231646037
 20
106.5841110946
 30
0.0
 11
0.8825756467374931
 21
25.27365976132823
 31
0.0
210
0.0
220
0.0
230
1.0
 40
0.9885695586
 41
5.514173564112507
 42
6.127984947200735
  0
ARC
  5
24D
330
1F
100
AcDbEntity
  8
0
  6
Continuous
 62
     7
370
    15
100
AcDbCircle
 10
88.1324265506
 20
105.5101282666
 30
0.0
 40
18.00000000000001
100
AcDbArc
 50
265.955104757
 51
0.0
  0
LINE
  5
24E
330
1F
100
AcDbEntity
  8
0
  6
Continuous
 62
     7
370
    15
100
AcDbLine
 10
87.590929063
 20
108.4075568481
 30
0.0
 11
86.8627405148
 21
87.5549647729
 31
0.0
  0
LINE
  5
24F
330
1F
100
AcDbEntity
  8
0
  6
Continuous
 62
     7
370
    15
100
AcDbLine
 10
106.1324257757
 20
107.7600734546
 30
0.0
 11
106.1324257757
 21
105.5101282666
 31
0.0
  0
SPLINE
  5
250
330
1F
100
AcDbEntity
  8
0
  6
Continuous
 62
     7
370
    15
100
AcDbSpline
210
0.0
220
0.0
230
1.0
 70
     8
 71
     3
 72
    12
 73
     8
 74
     0
 42
0.00000001
 43
0.00000001
 12
1.0
 22
0.0
 32
0.0
 13
1.0
 23
0.0
 33
0.0
 40
0.0
 40
0.0
 40
0.0
 40
0.0
 40
0.1311587793391472
 40
0.311893330806287
 40
0.4920036453527419
 40
0.6721087164854007
 40
1.0
 40
1.0
 40
1.0
 40
1.0
 10
87.76560032901881
 20
122.0056000868462
 30
0.0
 10
87.70331040200254
 20
122.0042465580094
 30
0.0
 10
87.55518602244767
 20
122.0010278896186
 30
0.0
 10
87.20525604546913
 20
121.9859814857437
 30
0.0
 10
86.74343194541345
 20
121.953542412544
 30
0.0
 10
86.06245047048711
 20
121.8886878567856
 30
0.0
 10
85.47117323326746
 20
121.7904964744519
 30
0.0
 10
85.08952747842824
 20
121.7271178732298
 30
0.0
  0
SPLINE
  5
251
330
1F
100
AcDbEntity
  8
0
  6
Continuous
 62
     7
370
    15
100
AcDbSpline
210
0.0
220
0.0
230
1.0
 70
     8
 71
     3
 72
    14
 73
    10
 74
     0
 42
0.00000001
 43
0.00000001
 12
1.0
 22
0.0
 32
0.0
 13
1.0
 23
0.0
 33
0.0
 40
0.0
 40
0.0
 40
0.0
 40
0.0
 40
0.2500000000000015
 40
0.2500000000000015
 40
0.500000000000003
 40
0.500000000000003
 40
0.7500000000000014
 40
0.7500000000000014
 40
1.0
 40
1.0
 40
1.0
 40
1.0
 10
83.96569976878718
 20
89.54490393603113
 30
0.0
 10
84.3798609540812
 20
89.43681297113027
 30
0.0
 10
84.76989177921801
 20
89.35215813200976
 30
0.0
 10
85.49687140616233
 20
89.21778380548312
 30
0.0
 10
85.81454499727333
 20
89.17150219966668
 30
0.0
 10
86.35174638429883
 20
89.10426179159589
 30
0.0
 10
86.55851349479863
 20
89.08474520625148
 30
0.0
 10
86.84317004276929
 20
89.0599541446212
 30
0.0
 10
86.91512615033695
 20
89.0550931789691
 30
0.0
 10
86.91512615033695
 20
89.05509317896909
 30
0.0
  0
ELLIPSE
  5
252
330
1F
100
AcDbEntity
  8
0
  6
Continuous
 62
     7
370
    15
100
AcDbEllipse
 10
80.4892097802
 20
114.5038379555
 30
0.0
 11
1.689113411873421
 21
2.358881820401507
 31
0.0
210
0.0
220
0.0
230
1.0
 40
0.7071815479
 41
0.0
 42
6.283185307179586
  0
ARC
  5
253
330
1F
100
AcDbEntity
  8
0
  6
Continuous
 62
     7
370
    15
100
AcDbCircle
 10
88.1324265506
 20
105.5101282666
 30
0.0
 40
16.50000000000001
100
AcDbArc
 50
100.6272098238
 51
255.3727901762
  0
SPLINE
  5
254
330
1F
100
AcDbEntity
  8
0
  6
Continuous
 62
     7
370
    15
100
AcDbSpline
210
0.0
220
0.0
230
1.0
 70
    24
 71
     3
 72
     9
 73
     5
 74
     0
 42
0.00000001
 43
0.00000001
 12
1.0
 22
0.0
 32
0.0
 13
1.0
 23
0.0
 33
0.0
 40
0.0
 40
0.0
 40
0.0
 40
0.0
 40
0.5
 40
1.0
 40
1.0
 40
1.0
 40
1.0
 10
83.6324265505985
 20
122.4101282666109
 30
0.0
 10
83.6324265505985
 20
122.4120511349448
 30
0.0
 10
83.6324265505985
 20
122.4158964239337
 30
0.0
 10
83.6324265505985
 20
122.4197408182542
 30
0.0
 10
83.6324265505985
 20
122.4216627918987
 30
0.0
  0
SPLINE
  5
255
330
1F
100
AcDbEntity
  8
0
  6
Continuous
 62
     7
370
    15
100
AcDbSpline
210
0.0
220
0.0
230
1.0
 70
    24
 71
     3
 72
    10
 73
     6
 74
     0
 42
0.00000001
 43
0.00000001
 12
1.0
 22
0.0
 32
0.0
 13
1.0
 23
0.0
 33
0.0
 40
0.0
 40
0.0
 40
0.0
 40
0.0
 40
0.3970344386390274
 40
0.6985904666459444
 40
1.0
 40
1.0
 40
1.0
 40
1.0
 10
87.77962028443409
 20
122.410127497711
 30
0.0
 10
87.23026473054476
 20
122.410127497711
 30
0.0
 10
86.26366204977577
 20
122.410127497711
 30
0.0
 10
84.88388303618432
 20
122.410127497711
 30
0.0
 10
84.0495112694736
 20
122.410127497711
 30
0.0
 10
83.63242674431359
 20
122.410127497711
 30
0.0
  0
SPLINE
  5
256
330
1F
100
AcDbEntity
  8
0
  6
Continuous
 62
     7
370
    15
100
AcDbSpline
210
0.0
220
0.0
230
1.0
 70
    24
 71
     3
 72
    10
 73
     6
 74
     0
 42
0.00000001
 43
0.00000001
 12
1.0
 22
0.0
 32
0.0
 13
1.0
 23
0.0
 33
0.0
 40
0.0
 40
0.0
 40
0.0
 40
0.0
 40
0.2316453984551279
 40
0.6159242754269546
 40
1.0
 40
1.0
 40
1.0
 40
1.0
 10
86.89958759395932
 20
88.61012903551082
 30
0.0
 10
86.64377495234486
 20
88.61012903551082
 30
0.0
 10
85.96359215146798
 20
88.61012903551082
 30
0.0
 10
84.86244059419616
 20
88.61012903551082
 30
0.0
 10
84.01360538082793
 20
88.61012903551082
 30
0.0
 10
83.58929998985087
 20
88.61012903551082
 30
0.0
  0
SPLINE
  5
257
330
1F
100
AcDbEntity
  8
0
  6
Continuous
 62
     7
370
    15
100
AcDbSpline
210
0.0
220
0.0
230
1.0
 70
    24
 71
     3
 72
    12
 73
     8
 74
     0
 42
0.00000001
 43
0.00000001
 12
1.0
 22
0.0
 32
0.0
 13
1.0
 23
0.0
 33
0.0
 40
0.0
 40
0.0
 40
0.0
 40
0.0
 40
0.5
 40
0.5
 40
0.75
 40
0.75
 40
1.0
 40
1.0
 40
1.0
 40
1.0
 10
75.25502386216789
 20
117.3601282666109
 30
0.0
 10
75.43755056571558
 20
117.3601282666109
 30
0.0
 10
75.62214122105075
 20
117.3601282666109
 30
0.0
 10
75.88242254322526
 20
117.3601282666109
 30
0.0
 10
75.96697699603635
 20
117.3601282666109
 30
0.0
 10
76.13092494578056
 20
117.3601282666109
 30
0.0
 10
76.21037516982194
 20
117.3601282666109
 30
0.0
 10
76.28242655060029
 20
117.3601282666109
 30
0.0
  0
SPLINE
  5
258
330
1F
100
AcDbEntity
  8
0
  6
Continuous
 62
     7
370
    15
100
AcDbSpline
210
0.0
220
0.0
230
1.0
 70
    24
 71
     3
 72
    10
 73
     6
 74
     0
 42
0.00000001
 43
0.00000001
 12
1.0
 22
0.0
 32
0.0
 13
1.0
 23
0.0
 33
0.0
 40
0.0
 40
0.0
 40
0.0
 40
0.0
 40
0.5
 40
0.5
 40
1.0
 40
1.0
 40
1.0
 40
1.0
 10
76.2824265505985
 20
118.3875309550415
 30
0.0
 10
76.2824265505985
 20
118.2048222429065
 30
0.0
 10
76.2824265505985
 20
118.0213139531458
 30
0.0
 10
76.2824265505985
 20
117.6730099748251
 30
0.0
 10
76.2824265505985
 20
117.5048223922822
 30
0.0
 10
76.2824265505985
 20
117.3601282666095
 30
0.0
  0
SPLINE
  5
259
330
1F
100
AcDbEntity
  8
0
  6
Continuous
 62
     7
370
    15
100
AcDbSpline
210
0.0
220
0.0
230
1.0
 70
    24
 71
     3
 72
    10
 73
     6
 74
     0
 42
0.00000001
 43
0.00000001
 12
1.0
 22
0.0
 32
0.0
 13
1.0
 23
0.0
 33
0.0
 40
0.0
 40
0.0
 40
0.0
 40
0.0
 40
0.5
 40
0.5
 40
1.0
 40
1.0
 40
1.0
 40
1.0
 10
83.6324265505985
 20
124.3810052997538
 30
0.0
 10
83.6324265505985
 20
124.5394397426416
 30
0.0
 10
83.6324265505985
 20
124.6984604374436
 30
0.0
 10
83.6324265505985
 20
124.9284682616993
 30
0.0
 10
83.6324265505985
 20
124.997303536516
 30
0.0
 10
83.63242655059851
 20
124.997303536516
 30
0.0
  0
ARC
  5
25A
330
1F
100
AcDbEntity
  8
0
  6
Continuous
 62
     7
370
    15
100
AcDbCircle
 10
88.1324265506
 20
105.5101282666
 30
0.0
 40
20.0
100
AcDbArc
 50
103.0028781629
 51
126.3346172154
  0
SPLINE
  5
25B
330
1F
100
AcDbEntity
  8
0
  6
Continuous
 62
     7
370
    15
100
AcDbSpline
210
0.0
220
0.0
230
1.0
 70
    24
 71
     3
 72
    12
 73
     8
 74
     0
 42
0.00000001
 43
0.00000001
 12
1.0
 22
0.0
 32
0.0
 13
1.0
 23
0.0
 33
0.0
 40
0.0
 40
0.0
 40
0.0
 40
0.0
 40
0.25
 40
0.25
 40
0.5
 40
0.5
 40
1.0
 40
1.0
 40
1.0
 40
1.0
 10
76.2824265505985
 20
121.6215372676884
 30
0.0
 10
76.2824265505985
 20
121.6215372676884
 30
0.0
 10
76.2824265505985
 20
121.5959126350836
 30
0.0
 10
76.2824265505985
 20
121.5073692621518
 30
0.0
 10
76.2824265505985
 20
121.4444867790372
 30
0.0
 10
76.2824265505985
 20
121.2271255911036
 30
0.0
 10
76.2824265505985
 20
121.0484785810922
 30
0.0
 10
76.2824265505985
 20
120.8703854259166
 30
0.0
  0
SPLINE
  5
25C
330
1F
100
AcDbEntity
  8
0
  6
Continuous
 62
     7
370
    15
100
AcDbSpline
210
0.0
220
0.0
230
1.0
 70
    24
 71
     3
 72
    10
 73
     6
 74
     0
 42
0.00000001
 43
0.00000001
 12
1.0
 22
0.0
 32
0.0
 13
1.0
 23
0.0
 33
0.0
 40
0.0
 40
0.0
 40
0.0
 40
0.0
 40
0.5
 40
0.5
 40
1.0
 40
1.0
 40
1.0
 40
1.0
 10
82.63242655059851
 20
86.90609644552438
 30
0.0
 10
82.63242655059851
 20
86.74646427662114
 30
0.0
 10
82.63242655059851
 20
86.58541464285709
 30
0.0
 10
82.63242655059851
 20
86.3524237591805
 30
0.0
 10
82.63242655059851
 20
86.2812437435815
 30
0.0
 10
82.63242655059851
 20
86.2812437435815
 30
0.0
  0
ARC
  5
25D
330
1F
100
AcDbEntity
  8
0
  6
Continuous
 62
     7
370
    15
100
AcDbCircle
 10
88.1324265506
 20
105.5101282666
 30
0.0
 40
20.0
100
AcDbArc
 50
143.6653827846
 51
254.0379858372
  0
SPLINE
  5
25E
330
1F
100
AcDbEntity
  8
0
  6
Continuous
 62
     7
370
    15
100
AcDbSpline
210
0.0
220
0.0
230
1.0
 70
    24
 71
     3
 72
    12
 73
     8
 74
     0
 42
0.00000001
 43
0.00000001
 12
1.0
 22
0.0
 32
0.0
 13
1.0
 23
0.0
 33
0.0
 40
0.0
 40
0.0
 40
0.0
 40
0.0
 40
0.2499999999999994
 40
0.2499999999999994
 40
0.4999999999999989
 40
0.4999999999999989
 40
1.0
 40
1.0
 40
1.0
 40
1.0
 10
72.02101754952103
 20
117.3601282666109
 30
0.0
 10
72.02101754952103
 20
117.3601282666109
 30
0.0
 10
72.04629769968551
 20
117.3601282666109
 30
0.0
 10
72.13590904518725
 20
117.3601282666109
 30
0.0
 10
72.19889468211325
 20
117.3601282666109
 30
0.0
 10
72.41518140387082
 20
117.3601282666109
 30
0.0
 10
72.59516116129119
 20
117.3601282666109
 30
0.0
 10
72.77216939129289
 20
117.3601282666109
 30
0.0
  0
ARC
  5
25F
330
1F
100
AcDbEntity
  8
0
  6
Continuous
 62
     7
370
    15
100
AcDbCircle
 10
88.1324265506
 20
105.5101282666
 30
0.0
 40
20.0
100
AcDbArc
 50
285.9620141628
 51
25.8419327632
  0
SPLINE
  5
260
330
1F
100
AcDbEntity
  8
0
  6
Continuous
 62
     7
370
    15
100
AcDbSpline
210
0.0
220
0.0
230
1.0
 70
    24
 71
     3
 72
    12
 73
     8
 74
     0
 42
0.00000001
 43
0.00000001
 12
1.0
 22
0.0
 32
0.0
 13
1.0
 23
0.0
 33
0.0
 40
0.0
 40
0.0
 40
0.0
 40
0.0
 40
0.2500000000000038
 40
0.2500000000000038
 40
0.5000000000000077
 40
0.5000000000000077
 40
1.0
 40
1.0
 40
1.0
 40
1.0
 10
93.6324265505985
 20
86.2812437435815
 30
0.0
 10
93.6324265505985
 20
86.2812437435815
 30
0.0
 10
93.6324265505985
 20
86.2982193399396
 30
0.0
 10
93.6324265505985
 20
86.3626948373988
 30
0.0
 10
93.6324265505985
 20
86.40980846919338
 30
0.0
 10
93.6324265505985
 20
86.58641838318087
 30
0.0
 10
93.6324265505985
 20
86.74626725898902
 30
0.0
 10
93.6324265505985
 20
86.90609644552407
 30
0.0
  0
LINE
  5
261
330
1F
100
AcDbEntity
  8
0
  6
Continuous
 62
     7
370
    15
100
AcDbLine
 10
93.6324265208
 20
86.9060955713
 30
0.0
 11
93.6324265208
 21
88.3709914754
 31
0.0
  0
LINE
  5
262
330
1F
100
AcDbEntity
  8
0
  6
Continuous
 62
     7
370
    15
100
AcDbLine
 10
82.6324265804
 20
88.6101290355
 30
0.0
 11
82.6324265804
 21
86.9060955713
 31
0.0
  0
LINE
  5
263
330
1F
100
AcDbEntity
  8
0
  6
Continuous
 62
     7
370
    15
100
AcDbLine
 10
83.5892999899
 20
88.6101290355
 30
0.0
 11
82.6324265804
 21
88.6101290355
 31
0.0
  0
LINE
  5
264
330
1F
100
AcDbEntity
  8
0
  6
Continuous
 62
     7
370
    15
100
AcDbLine
 10
72.7721689623
 20
117.3601286257
 30
0.0
 11
75.2550237235
 21
117.3601286257
 31
0.0
  0
LINE
  5
265
330
1F
100
AcDbEntity
  8
0
  6
Continuous
 62
     7
370
    15
100
AcDbLine
 10
83.6324267443
 20
122.4216628591
 30
0.0
 11
83.6324267443
 21
124.3810053686
 31
0.0
  0
LINE
  5
266
330
1F
100
AcDbEntity
  8
0
  6
Continuous
 62
     7
370
    15
100
AcDbLine
 10
76.2824261915
 20
120.8703858549
 30
0.0
 11
76.2824261915
 21
118.3875310938
 31
0.0
  0
SPLINE
  5
267
330
1F
100
AcDbEntity
  8
0
  6
Continuous
 62
     7
370
    15
100
AcDbSpline
210
0.0
220
0.0
230
1.0
 70
     8
 71
     3
 72
    22
 73
    18
 74
     0
 42
0.00000001
 43
0.00000001
 12
1.0
 22
0.0
 32
0.0
 13
1.0
 23
0.0
 33
0.0
 40
0.0
 40
0.0
 40
0.0
 40
0.0
 40
0.2499999999999999
 40
0.2499999999999999
 40
0.3749999999999999
 40
0.3749999999999999
 40
0.4999999999999999
 40
0.4999999999999999
 40
0.6249999999999999
 40
0.6249999999999999
 40
0.7499999999999998
 40
0.7499999999999998
 40
0.8749999999999998
 40
0.8749999999999998
 40
0.9374999999999999
 40
0.9374999999999999
 40
1.0
 40
1.0
 40
1.0
 40
1.0
 10
72.02101754952103
 20
117.3601282666109
 30
0.0
 10
72.43501242768751
 20
117.9230009085089
 30
0.0
 10
72.87082222899646
 20
118.4536257922385
 30
0.0
 10
73.54756303198079
 20
119.19933678316
 30
0.0
 10
73.77841815915548
 20
119.4409570095587
 30
0.0
 10
74.2384552143176
 20
119.8998157848847
 30
0.0
 10
74.4644228910961
 20
120.1139944573545
 30
0.0
 10
74.90161447959683
 20
120.5112230165
 30
0.0
 10
75.11466720388937
 20
120.6956678515198
 30
0.0
 10
75.4988433431229
 20
121.0167476994034
 30
0.0
 10
75.67296035191438
 20
121.1560985295094
 30
0.0
 10
75.96647809671492
 20
121.385404063935
 30
0.0
 10
76.08127040131232
 20
121.4719400734114
 30
0.0
 10
76.20022497740831
 20
121.5608296777426
 30
0.0
 10
76.23104306039488
 20
121.5836381836043
 30
0.0
 10
76.27206227211352
 20
121.6139293463005
 30
0.0
 10
76.2824265505985
 20
121.6215372676884
 30
0.0
 10
76.2824265505985
 20
121.6215372676884
 30
0.0
  0
SPLINE
  5
268
330
1F
100
AcDbEntity
  8
0
  6
Continuous
 62
     7
370
    15
100
AcDbSpline
210
0.0
220
0.0
230
1.0
 70
     8
 71
     3
 72
    22
 73
    18
 74
     0
 42
0.00000001
 43
0.00000001
 12
1.0
 22
0.0
 32
0.0
 13
1.0
 23
0.0
 33
0.0
 40
0.0
 40
0.0
 40
0.0
 40
0.0
 40
0.125
 40
0.125
 40
0.25
 40
0.25
 40
0.375
 40
0.375
 40
0.5
 40
0.5
 40
0.625
 40
0.625
 40
0.75
 40
0.75
 40
0.875
 40
0.875
 40
1.0
 40
1.0
 40
1.0
 40
1.0
 10
89.1324265505985
 20
85.53514391117272
 30
0.0
 10
89.43116427899615
 20
85.55009950378206
 30
0.0
 10
89.72436960383061
 20
85.57148770042842
 30
0.0
 10
90.30032468445819
 20
85.62586594704375
 30
0.0
 10
90.58606697827356
 20
85.65931211065211
 30
0.0
 10
91.12959611926725
 20
85.73407638604985
 30
0.0
 10
91.38708930748886
 20
85.77517487501079
 30
0.0
 10
91.87429430475414
 20
85.86172780397456
 30
0.0
 10
92.10443392694329
 20
85.90737870307245
 30
0.0
 10
92.51763958314677
 20
85.9956582582373
 30
0.0
 10
92.70347532384265
 20
86.03875960824456
 30
0.0
 10
93.03257190402609
 20
86.11896378809982
 30
0.0
 10
93.17253176084013
 20
86.15525863548937
 30
0.0
 10
93.39821812206979
 20
86.21543785463908
 30
0.0
 10
93.48548953040853
 20
86.23972519207018
 30
0.0
 10
93.60288974375939
 20
86.27272328638155
 30
0.0
 10
93.6324265505985
 20
86.28124374358148
 30
0.0
 10
93.6324265505985
 20
86.28124374358148
 30
0.0
  0
SPLINE
  5
269
330
1F
100
AcDbEntity
  8
0
  6
Continuous
 62
     7
370
    15
100
AcDbSpline
210
0.0
220
0.0
230
1.0
 70
     8
 71
     3
 72
    22
 73
    18
 74
     0
 42
0.00000001
 43
0.00000001
 12
1.0
 22
0.0
 32
0.0
 13
1.0
 23
0.0
 33
0.0
 40
0.0
 40
0.0
 40
0.0
 40
0.0
 40
0.125
 40
0.125
 40
0.25
 40
0.25
 40
0.375
 40
0.375
 40
0.5
 40
0.5
 40
0.625
 40
0.625
 40
0.75
 40
0.75
 40
0.875
 40
0.875
 40
1.0
 40
1.0
 40
1.0
 40
1.0
 10
82.63242655059851
 20
86.28124374358151
 30
0.0
 10
82.63242655059851
 20
86.28124374358151
 30
0.0
 10
82.66195244901841
 20
86.2727296425151
 30
0.0
 10
82.77735728230508
 20
86.24028587363323
 30
0.0
 10
82.86474008737092
 20
86.21595198493118
 30
0.0
 10
83.09141350667853
 20
86.15549196017436
 30
0.0
 10
83.22988935301109
 20
86.11957853939585
 30
0.0
 10
83.55669985017488
 20
86.03986851332672
 30
0.0
 10
83.74574468615486
 20
85.99599021213739
 30
0.0
 10
84.15861296863059
 20
85.9077465897672
 30
0.0
 10
84.3840848598819
 20
85.86293824830624
 30
0.0
 10
84.87494046442959
 20
85.77561724038705
 30
0.0
 10
85.13378062237166
 20
85.7343264518114
 30
0.0
 10
85.67353344816749
 20
85.65998822851758
 30
0.0
 10
85.95763653699655
 20
85.6265781027829
 30
0.0
 10
86.53908967213846
 20
85.57155870125676
 30
0.0
 10
86.83374013776674
 20
85.55009693479052
 30
0.0
 10
87.13242655059851
 20
85.53514391117272
 30
0.0
  0
SPLINE
  5
26A
330
1F
100
AcDbEntity
  8
0
  6
Continuous
 62
     7
370
    15
100
AcDbSpline
210
0.0
220
0.0
230
1.0
 70
     8
 71
     3
 72
    17
 73
    13
 74
     0
 42
0.00000001
 43
0.00000001
 12
1.0
 22
0.0
 32
0.0
 13
1.0
 23
0.0
 33
0.0
 40
0.0
 40
0.0
 40
0.0
 40
0.0
 40
0.1092953619825377
 40
0.2185988763882539
 40
0.3278076165692954
 40
0.4370274458289805
 40
0.5480008550894451
 40
0.6589716180482533
 40
0.7711856070990468
 40
0.8833862756050515
 40
0.993724574822016
 40
1.0
 40
1.0
 40
1.0
 40
1.0
 10
83.63242674431359
 20
124.9973043570898
 30
0.0
 10
83.64469310824177
 20
125.0002054687782
 30
0.0
 10
83.6692267510554
 20
125.0060079085512
 30
0.0
 10
83.86021723132116
 20
125.0489946387692
 30
0.0
 10
84.16109117765345
 20
125.1130209495052
 30
0.0
 10
84.57203266897633
 20
125.1925467296832
 30
0.0
 10
85.08471259638266
 20
125.2791512219181
 30
0.0
 10
85.68664991988834
 20
125.3634903785382
 30
0.0
 10
86.36307621929123
 20
125.4361588040379
 30
0.0
 10
87.0896582432078
 20
125.4857346944503
 30
0.0
 10
87.60780146854638
 20
125.5091105322992
 30
0.0
 10
87.87359245496663
 20
125.507753339522
 30
0.0
 10
87.8878956723359
 20
125.50768030385
 30
0.0
  0
ARC
  5
26B
330
1F
100
AcDbEntity
  8
0
  6
Continuous
 62
     7
370
    15
100
AcDbCircle
 10
88.1324265506
 20
105.5101282666
 30
0.0
 40
20.0
100
AcDbArc
 50
267.1340160174
 51
272.8659839826
  0
CIRCLE
  5
26C
330
1F
100
AcDbEntity
  8
VERMASSUNG
  6
CENTERX2
100
AcDbCircle
 10
88.1324265506
 20
107.4591941134
 30
0.0
 40
25.00000000000002
  0
DIMENSION
  5
26D
330
1F
100
AcDbEntity
  8
VERMASSUNG
100
AcDbDimension
  2
_D_5
 10
58.1324265506
 20
132.4591941134
 30
0.0
 11
58.1324265506
 21
107.4591941134
 31
0.0
 70
   160
  1
%%c<>
 71
     2
 42
-1.0
  3
SLDDIMSTYLE0
100
AcDbAlignedDimension
 13
88.1324265506
 23
82.4591941134
 33
0.0
 14
88.1324265506
 24
132.4591941134
 34
0.0
 50
90.0
100
AcDbRotatedDimension
  0
INSERT
  5
283
330
1F
100
AcDbEntity
  8
VERMASSUNG
100
AcDbBlockReference
  2
SW_CENTERMARKSYMBOL_0
 10
88.1324265506
 20
105.5101282666
 30
0.0
  0
OLE2FRAME
  5
284
330
1F
100
AcDbEntity
  8
0
100
AcDbOle2Frame
 70
     2
  3
Paintbrush-Bild
 10
13.8511154363
 20
38.264191557
 30
0.0
 11
51.6290888628
 21
31.9806341108
 31
0.0
 71
     2
 72
     0
 73
     1
 90
    12928
310
80552BED0767C5B32B40DDAF6807D121434000000000000000006FFBDDFB85D0
310
4940DDAF6807D121434000000000000000006FFBDDFB85D04940416F4BD60AFB
310
3F4000000000000000002BED0767C5B32B40416F4BD60AFB3F40000000000000
310
0000000000000100000000010000010000000100000000000100000000320000
310
D0CF11E0A1B11AE1000000000000000000000000000000003E000300FEFF0900
310
0600000000000000000000000100000001000000000000000010000002000000
310
01000000FEFFFFFF0000000000000000FFFFFFFFFFFFFFFFFFFFFFFFFFFFFFFF
310
FFFFFFFFFFFFFFFFFFFFFFFFFFFFFFFFFFFFFFFFFFFFFFFFFFFFFFFFFFFFFFFF
310
FFFFFFFFFFFFFFFFFFFFFFFFFFFFFFFFFFFFFFFFFFFFFFFFFFFFFFFFFFFFFFFF
310
FFFFFFFFFFFFFFFFFFFFFFFFFFFFFFFFFFFFFFFFFFFFFFFFFFFFFFFFFFFFFFFF
310
FFFFFFFFFFFFFFFFFFFFFFFFFFFFFFFFFFFFFFFFFFFFFFFFFFFFFFFFFFFFFFFF
310
FFFFFFFFFFFFFFFFFFFFFFFFFFFFFFFFFFFFFFFFFFFFFFFFFFFFFFFFFFFFFFFF
310
FFFFFFFFFFFFFFFFFFFFFFFFFFFFFFFFFFFFFFFFFFFFFFFFFFFFFFFFFFFFFFFF
310
FFFFFFFFFFFFFFFFFFFFFFFFFFFFFFFFFFFFFFFFFFFFFFFFFFFFFFFFFFFFFFFF
310
FFFFFFFFFFFFFFFFFFFFFFFFFFFFFFFFFFFFFFFFFFFFFFFFFFFFFFFFFFFFFFFF
310
FFFFFFFFFFFFFFFFFFFFFFFFFFFFFFFFFFFFFFFFFFFFFFFFFFFFFFFFFFFFFFFF
310
FFFFFFFFFFFFFFFFFFFFFFFFFFFFFFFFFFFFFFFFFFFFFFFFFFFFFFFFFFFFFFFF
310
FFFFFFFFFFFFFFFFFFFFFFFFFFFFFFFFFFFFFFFFFFFFFFFFFFFFFFFFFFFFFFFF
310
FFFFFFFFFFFFFFFFFFFFFFFFFFFFFFFFFFFFFFFFFFFFFFFFFFFFFFFFFFFFFFFF
310
FFFFFFFFFFFFFFFFFFFFFFFFFFFFFFFFFFFFFFFFFFFFFFFFFFFFFFFFFFFFFFFF
310
FDFFFFFFFEFFFFFFFEFFFFFFFEFFFFFF05000000060000000700000008000000
310
090000000A0000000B0000000C0000000D0000000E0000000F00000010000000
310
11000000120000001300000014000000150000001600000017000000FEFFFFFF
310
FFFFFFFFFFFFFFFFFFFFFFFFFFFFFFFFFFFFFFFFFFFFFFFFFFFFFFFFFFFFFFFF
310
FFFFFFFFFFFFFFFFFFFFFFFFFFFFFFFFFFFFFFFFFFFFFFFFFFFFFFFFFFFFFFFF
310
FFFFFFFFFFFFFFFFFFFFFFFFFFFFFFFFFFFFFFFFFFFFFFFFFFFFFFFFFFFFFFFF
310
FFFFFFFFFFFFFFFFFFFFFFFFFFFFFFFFFFFFFFFFFFFFFFFFFFFFFFFFFFFFFFFF
310
FFFFFFFFFFFFFFFFFFFFFFFFFFFFFFFFFFFFFFFFFFFFFFFFFFFFFFFFFFFFFFFF
310
FFFFFFFFFFFFFFFFFFFFFFFFFFFFFFFFFFFFFFFFFFFFFFFFFFFFFFFFFFFFFFFF
310
FFFFFFFFFFFFFFFFFFFFFFFFFFFFFFFFFFFFFFFFFFFFFFFFFFFFFFFFFFFFFFFF
310
FFFFFFFFFFFFFFFFFFFFFFFFFFFFFFFFFFFFFFFFFFFFFFFFFFFFFFFFFFFFFFFF
310
FFFFFFFFFFFFFFFFFFFFFFFFFFFFFFFFFFFFFFFFFFFFFFFFFFFFFFFFFFFFFFFF
310
FFFFFFFFFFFFFFFFFFFFFFFFFFFFFFFFFFFFFFFFFFFFFFFFFFFFFFFFFFFFFFFF
310
FFFFFFFFFFFFFFFFFFFFFFFFFFFFFFFFFFFFFFFFFFFFFFFFFFFFFFFFFFFFFFFF
310
FFFFFFFFFFFFFFFFFFFFFFFFFFFFFFFFFFFFFFFFFFFFFFFFFFFFFFFFFFFFFFFF
310
FFFFFFFFFFFFFFFFFFFFFFFFFFFFFFFFFFFFFFFFFFFFFFFFFFFFFFFFFFFFFFFF
310
52006F006F007400200045006E00740072007900000000000000000000000000
310
0000000000000000000000000000000000000000000000000000000000000000
310
16000500FFFFFFFFFFFFFFFF020000000A00030000000000C000000000000046
310
000000000000000000000000A0AB1C07EF22CD0103000000C000000000000000
310
01004F006C006500000000000000000000000000000000000000000000000000
310
0000000000000000000000000000000000000000000000000000000000000000
310
0A000200FFFFFFFFFFFFFFFFFFFFFFFF00000000000000000000000000000000
310
0000000000000000000000000000000000000000000000001400000000000000
310
010043006F006D0070004F0062006A0000000000000000000000000000000000
310
0000000000000000000000000000000000000000000000000000000000000000
310
120002010100000003000000FFFFFFFF00000000000000000000000000000000
310
0000000000000000000000000000000000000000010000004D00000000000000
310
01004F006C006500310030004E00610074006900760065000000000000000000
310
0000000000000000000000000000000000000000000000000000000000000000
310
1A000200FFFFFFFFFFFFFFFFFFFFFFFF00000000000000000000000000000000
310
0000000000000000000000000000000000000000040000002426000000000000
310
FEFFFFFF02000000FEFFFFFFFFFFFFFFFFFFFFFFFFFFFFFFFFFFFFFFFFFFFFFF
310
FFFFFFFFFFFFFFFFFFFFFFFFFFFFFFFFFFFFFFFFFFFFFFFFFFFFFFFFFFFFFFFF
310
FFFFFFFFFFFFFFFFFFFFFFFFFFFFFFFFFFFFFFFFFFFFFFFFFFFFFFFFFFFFFFFF
310
FFFFFFFFFFFFFFFFFFFFFFFFFFFFFFFFFFFFFFFFFFFFFFFFFFFFFFFFFFFFFFFF
310
FFFFFFFFFFFFFFFFFFFFFFFFFFFFFFFFFFFFFFFFFFFFFFFFFFFFFFFFFFFFFFFF
310
FFFFFFFFFFFFFFFFFFFFFFFFFFFFFFFFFFFFFFFFFFFFFFFFFFFFFFFFFFFFFFFF
310
FFFFFFFFFFFFFFFFFFFFFFFFFFFFFFFFFFFFFFFFFFFFFFFFFFFFFFFFFFFFFFFF
310
FFFFFFFFFFFFFFFFFFFFFFFFFFFFFFFFFFFFFFFFFFFFFFFFFFFFFFFFFFFFFFFF
310
FFFFFFFFFFFFFFFFFFFFFFFFFFFFFFFFFFFFFFFFFFFFFFFFFFFFFFFFFFFFFFFF
310
FFFFFFFFFFFFFFFFFFFFFFFFFFFFFFFFFFFFFFFFFFFFFFFFFFFFFFFFFFFFFFFF
310
FFFFFFFFFFFFFFFFFFFFFFFFFFFFFFFFFFFFFFFFFFFFFFFFFFFFFFFFFFFFFFFF
310
FFFFFFFFFFFFFFFFFFFFFFFFFFFFFFFFFFFFFFFFFFFFFFFFFFFFFFFFFFFFFFFF
310
FFFFFFFFFFFFFFFFFFFFFFFFFFFFFFFFFFFFFFFFFFFFFFFFFFFFFFFFFFFFFFFF
310
FFFFFFFFFFFFFFFFFFFFFFFFFFFFFFFFFFFFFFFFFFFFFFFFFFFFFFFFFFFFFFFF
310
FFFFFFFFFFFFFFFFFFFFFFFFFFFFFFFFFFFFFFFFFFFFFFFFFFFFFFFFFFFFFFFF
310
FFFFFFFFFFFFFFFFFFFFFFFFFFFFFFFFFFFFFFFFFFFFFFFFFFFFFFFFFFFFFFFF
310
0100000200000000000000000000000000000000000000000000000000000000
310
0000000000000000000000000000000000000000000000000000000000000000
310
0100FEFF030A0000FFFFFFFF0A00030000000000C00000000000004607000000
310
5042727573680007000000504272757368000700000050427275736800F439B2
310
7100000000000000000000000000000000000000000000000000000000000000
310
0000000000000000000000000000000000000000000000000000000000000000
310
0000000000000000000000000000000000000000000000000000000000000000
310
0000000000000000000000000000000000000000000000000000000000000000
310
0000000000000000000000000000000000000000000000000000000000000000
310
0000000000000000000000000000000000000000000000000000000000000000
310
0000000000000000000000000000000000000000000000000000000000000000
310
0000000000000000000000000000000000000000000000000000000000000000
310
0000000000000000000000000000000000000000000000000000000000000000
310
0000000000000000000000000000000000000000000000000000000000000000
310
0000000000000000000000000000000000000000000000000000000000000000
310
0000000000000000000000000000000000000000000000000000000000000000
310
20260000424D0E260000000000003E00000028000000B40200006E0000000100
310
01000000000000000000130B0000130B00000200000002000000000000FFFFFF
310
FFFFFFFFFFFFFFFFFFFFFFFFFFFFFFFFFFFFFFFFFFFFFFFFFFFFFFFFFFFFFFFF
310
FFFFFFFFFFFFFFFFFFFFFFFFFFFFFFFFFFFFFFFFFFFFFFFFFFFFFFFFFFFFFFFF
310
FFFFFFFFFFFFFFFFFFFFFFFFFFFFFFFFFFFFFFFFFFFFFFFFF000FFFFFFFFFFFF
310
FFFFFFFFFFFFFFFFFFFFFFFFFFFFFFFFFFFFFFFFFFFFFFFFFFFFFFFFFFFFFFFF
310
FFFFFFFFFFFFFFFFFFFFFFFFFFFFFFFFFFFFFFFFFFFFFFFFFFFFFFFFFFFFFFFF
310
FFFFFFFFFFFFFFFFFFFFFFFFFFFFFFFFF000FFFFFFFFFFFFFFFFFFFFFFFFFFFF
310
FFFFFFFFFFFFFFFFFFFFFFFFFFFFFFFFFFFFFFFFFFFFFFFFFFFFFFFFFFFFFFFF
310
FFFFFFFFFFFFFFFFFFFFFFFFFFFFFFFFFFFFFFFFFFFFFFFFFFFFFFFFFFFFFFFF
310
FFFFFFFFFFFFFFFFF000FFFFFFFFFFFFFFFFFFFFFFFFFFFFFFFFFFFFFFFFFFFF
310
FFFFFFFFFFFFFFFFFFFFFFFFFFFFFFFFFFFFFFFFFFFFFFFFFFFFFFFFFFFFFFFF
310
FFFFFFFFFFFFFFFFFFFFFFFFFFFFFFFFFFFFFFFFFFFFFFFFFFFFFFFFFFFFFFFF
310
F000FFFFFFFFFFFFFFFFFFFFFFFFFFFFFFFFFFFFFFFFFFFFFFFFFFFFFFFFFFFF
310
FFFFFFFFFFFFFFFFFFFFFFFFFFFFFFFFFFFFFFFFFFFFFFFFFFFFFFFFFFFFFFFF
310
FFFFFFFFFFFFFFFFFFFFFFFFFFFFFFFFFFFFFFFFFFFFFFFFF000FFFFFFFFFFFF
310
FFFFFFFFFFFFFFFFFFFFFFFFFFFFFFFFFFFFFFFFFFFFFFFFFFFFFFFFFFFFFFFF
310
FFFFFFFFFFFFFFFFFFFFFFFFFFFFFFFFFFFFFFFFFFFFFFFFFFFFFFFFFFFFFFFF
310
FFFFFFFFFFFFFFFFFFFFFFFFFFFFFFFFF000FFFFFFFFFFFFFFFFFFFFFFFFFFFF
310
FFFFFFFFFFFFFFFFFFFFFFFFFFFFFFFFFFFFFFFFFFFFFFFFFFFFFFFFFFFFFFFF
310
FFFFFFFFFFFFFFFFFFFFFFFFFFFFFFFFFFFFFFFFFFFFFFFFFFFFFFFFFFFFFFFF
310
FFFFFFFFFFFFFFFFF000FFFFFFFFFFFFFFFFFFFFFFFFFFFFFFFFFFFFFFFFFFFF
310
FFFFFFFFFFFFFFFFFFFFFFFFFFFFFFFFFFFFFFFFFFFFFFFFFFFFFFFFFFFFFFFF
310
FFFFFFFFFFFFFFFFFFFFFFFFFFFFFFFFFFFFFFFFFFFFFFFFFFFFFFFFFFFFFFFF
310
F000FFFFFFFFFFFFFFFFFFFFFFFFFFFFFFFFFFFFFFFFFFFFFFFFFFFFFFFFFFFF
310
FFFFFFFFFFFFFFFFFFFFFFFFFFFFFFFFFFFFFFFFFFFFFFFFFFFFFFFFFFFFFFFF
310
FFFFFFFFFFFFFFFFFFFFFFFFFFFFFFFFFFFFFFFFFFFFFFFFF000FFFFFFFFFFFF
310
FFFFFFFFFFFFFFFFFFFFFFFFFFFFFFFFFFFFFFFFFFFFFFFFFFFFFFFFFFFFFFFF
310
FFFFFFFFFFFFFFFFFFFFFFFFFFFFFFFFFFFFFFFFFFFFFFFFFFFFFFFFFFFFFFFF
310
FFFFFFFFFFFFFFFFFFFFFFFFFFFFFFFFF000FFFFFFFFFFFFFFFFFFFFFFFFFFFF
310
FFFFFFFFFFFFFFFFFFFFFFFFFFFFFFFFFFFFFFFFFFFFFFFFFFFFFFFFFFFFFFFF
310
FFFFFFFFFFFFFFFFFFFFFFFFFFFFFFFFFFFFFFFFFFFFFFFFFFFFFFFFFFFFFFFF
310
FFFFFFFFFFFFFFFFF000FFFFFFFFFFFFFFFFFFFFFFFFFFFFFFFFFFFFFFFFFFFF
310
FFFFFFFFFFFFFFFFFFFFFFFFFFFFFFFFFFFFFFFFFFFFFFFFFFFFFFFFFFFFFFFF
310
FFFFFFFFFFFFFFFFFFFFFFFFFFFFFFFFFFFFFFFFFFFFFFFFFFFFFFFFFFFFFFFF
310
F000FFFFFFFFFFFFFFFFFFFFFFFFFFFFFFFFFFFFFFFFFFFFFFFFFFFFFFFFFFFF
310
FFFFFFFFFFFFFFFFFFFFFFFFFFFFFFFFFFFFFFFFFFFFFFFFFFFFFFFFFFFFFFFF
310
FFFFFFFFFFFFFFFFFFFFFFFFFFFFFFFFFFFFFFFFFFFFFFFFF000FFFFFFFFFFFF
310
FFFFFFFFFFFFFFFFFFFFFFFFFFFFFFFFFFFFFFFFFFFFFFFFFFFFFFFFFFFFFFFF
310
FFFFFFFFFFFFFFFFFFFFFFFFFFFFFFFFFFFFFFFFFFFFFFFFFFFFFFFFFFFFFFFF
310
FFFFFFFFFFFFFFFFFFFFFFFFFFFFFFFFF000FFFFFFFFFFFFFFFFFFFFFFFFFFFF
310
FFFFFFFFFFFFFFFFFFFFFFFFFFFFFFFFFFFFFFFFFFFFFFFFFFFFFFFFFFFFFFFF
310
FFFFFFFFFFFFFFFFFFFFFFFFFFFFFFFFFFFFFFFFFFFFFFFFFFFFFFFFFFFFFFFF
310
FFFFFFFFFFFFFFFFF000FFFFFFFFFFFFFFFFFFFFFFFFFFFFFFFFFFFFFFFFFFFF
310
FFFFFFFFFFFFFFFFFFFFFFFFFFFFFFFFFFFFFFFFFFFFFFFFFFFFFFFFFFFFFFFF
310
FFFFFFFFFFFFFFFFFFFFFFFFFFFFFFFFFFFFFFFFFFFFFFFFFFFFFFFFFFFFFFFF
310
F000FFFFFFFFFFFFFFFFFFFFFFFFFFFFFFFFFFFFFFFFFFFFFFFFFFFFFFFFFFFF
310
FFFFFFFFFFFFFFFFFFFFFFFFFFFFFFFFFFFFFFFFFFFFFFFFFFFFFFFFFFFFFFFF
310
FFFFFFFFFFFFFFFFFFFFFFFFFFFFFFFFFFFFFFFFFFFFFFFFF000FFFFFFFFFFFF
310
FFFFFFFFFFFFFFFFFFFFFFFFFFFFFFFFFFFFFFFFFFFFFFFFFFFFFFFFFFFFFFFF
310
FFFFFFFFFFFFFFFFFFFFFFFFFFFFFFFFFFFFFFFFFFFFFFFFFFFFFFFFFFFFFFFF
310
FFFFFFFFFFFFFFFFFFFFFFFFFFFFFFFFF000FFFFFFFFFFFFFFFFFFFFFFFFFFFF
310
FFFFFFFFFFFFFFFFFFFFFFFFFFFFFFFFFFFFFFFFFFFFFFFFFFFFFFFFFFFFFFFF
310
FFFFFFFFFFFFFFFFFFFFFFFFFFFFFFFFFFFFFFFFFFFFFFFFFFFFFFFFFFFFFFFF
310
FFFFFFFFFFFFFFFFF000FFFFF80003FFFFFFFFFFFFFFFFFFFFFFFFFFFFFFFFFF
310
FFFFF00007FFFFFFFFFF00007FFFFFF800000000000000007FFFFFFFFFFFFFFF
310
FFFFFFFC001FFFFFFFFFFFFFFC001FFFFFFFFFFFFFFFFFFFFFFFFFFE0007FFFF
310
F000FFFF8000007FFFFFFFF8000FFFFFC0007FFFFF80007FFFFF0000007FFFFF
310
FFF8000007FFFFF800000000000000007FFFFFF0001FFFFFFFFFFFC00001FFFF
310
FFFFFFFFC00001FFFFFFFF000000000003FFFFE000007FFFF000FFFE0000000F
310
FFFFFFF0000FFFFF80007FFFFF80007FFFFC0000001FFFFFFFC0000001FFFFF8
310
00000000000000007FFFFFF0001FFFFFFFFFFE0000003FFFFFFFFFFE0000003F
310
FFFFFF000000000003FFFF0000000FFFF000FFF800000003FFFFFFF00007FFFF
310
80007FFFFF80007FFFF000000007FFFFFF000000003FFFF80000000000000000
310
7FFFFFF0001FFFFFFFFFF80000000FFFFFFFFFF80000000FFFFFFF0000000000
310
03FFFC00000003FFF000FFE000000000FFFFFFF00007FFFF80003FFFFF80007F
310
FFC000000001FFFFFC000000001FFFF800000000000000007FFFFFF0001FFFFF
310
FFFFE000000003FFFFFFFFE000000003FFFFFF000000000003FFF000000000FF
310
F000FF80000000007FFFFFF00007FFFF80003FFFFF80007FFF8000000000FFFF
310
F80000000007FFF800000000000000007FFFFFF0001FFFFFFFFFC000000001FF
310
FFFFFFC000000001FFFFFF000000000003FFC0000000007FF000FF0000000000
310
3FFFFFE00007FFFF00003FFFFF80007FFE00000000003FFFF00000000003FFF8
310
00000000000000007FFFFFF0001FFFFFFFFF8000000000FFFFFFFF8000000000
310
FFFFFF000000000003FF80000000003FF000FE00000000001FFFFFE00003FFFF
310
00003FFFFF80007FFC00000000001FFFE00000000001FFF8000001FFFE000000
310
7FFFFFF0001FFFFFFFFE00000000003FFFFFFE00000000003FFFFF0000000000
310
03FF00000000001FF000FC00000000000FFFFFE00003FFFF00001FFFFF80007F
310
F800000000001FFFC00000000000FFF8000001FFFE0000007FFFFFF0001FFFFF
310
FFFC00000000001FFFFFFC00000000001FFFFF000000000003FE00000000000F
310
F000F8000000000007FFFFE00003FFFF00001FFFFF80007FF800000000000FFF
310
800000000000FFF8000001FFFE0000007FFFFFF0001FFFFFFFF800000000000F
310
FFFFF800000000000FFFFF000000000003FC000000000007F000F80000000000
310
03FFFFC00003FFFE00001FFFFF80007FF0000000000007FF0000000000007FF8
310
000001FFFE0000007FFFFFF0001FFFFFFFF0000000000007FFFFF00000000000
310
07FFFF000000000003F8000000000003F000F0000000000003FFFFC00001FFFE
310
00001FFFFF80007FE0000000000007FE0000000000003FF8000001FFFE000000
310
7FFFFFF0001FFFFFFFF0000000000007FFFFF0000000000007FFFF0000000000
310
03F800001F800003F000E00001FFF00001FFFFC00001FFFE00000FFFFF80007F
310
E00001FFE00003FE00001FFF00003FF8000001FFFE0000007FFFFFF0001FFFFF
310
FFE000003E000003FFFFE000003E000003FFFF000000000003F00001FFF80001
310
F000E00007FFFC0001FFFFC00001FFFE00000FFFFF80007FC0000FFFFC0003FC
310
0000FFFFC0001FF8000001FFFE0000007FFFFFF0001FFFFFFFC00003FFE00001
310
FFFFC00003FFE00001FFFF0001FFFFFFFFF00007FFFE0001F000E0000FFFFF00
310
00FFFF800001FFFC00000FFFFF80007FC0001FFFFE0001FC0001FFFFE0001FF8
310
000001FFFE0000007FFFFFF0001FFFFFFF80000FFFF80000FFFF80000FFFF800
310
00FFFF0003FFFFFFFFE0000FFFFF8000F000C0003FFFFF8000FFFF800000FFFC
310
000007FFFF80007F80003FFFFF0001FC0003FFFFF0001FF8000001FFFE000000
310
7FFFFFF0001FFFFFFF80003FFFFE0000FFFF80003FFFFE0000FFFF0003FFFFFF
310
FFE0003FFFFF8000F000C0003FFFFF8000FFFF800000FFFC000007FFFF80007F
310
80007FFFFF8001F80007FFFFF8000FF8000001FFFE0000007FFFFFF0001FFFFF
310
FF00007FFFFF00007FFF00007FFFFF00007FFF0003FFFFFFFFE0003FFFFFC000
310
F000C0007FFFFFC000FFFF000000FFFC000007FFFF80007F8000FFFFFF8000F8
310
000FFFFFF8000FF8000001FFFE0000007FFFFFF0001FFFFFFF0000FFFFFF8000
310
7FFF0000FFFFFF80007FFF0003FFFFFFFFC0007FFFFFC00070008000FFFFFFC0
310
00FFFF000000FFF8000007FFFF80007F8000FFFFFF8000F8000FFFFFF8000FF8
310
000001FFFE0000007FFFFFF0001FFFFFFE0001FFFFFFC0003FFE0001FFFFFFC0
310
003FFF0003FFFFFFFFC0007FFFFFE00070008000FFFFFFC0007FFF0000007FF8
310
000003FFFF80007F0001FFFFFF8000F8000FFFFFF8000FF8000001FFFE000000
310
7FFFFFF0001FFFFFFE0001FFFFFFC0003FFE0001FFFFFFC0003FFF0003FFFFFF
310
FFC000FFFFFFE00070008000FFFFFFC0007FFF0000007FF8000003FFFF80007F
310
0001FFFFFF8000F8001FFFFFF8000FF8000001FFFE0000007FFFFFF0001FFFFF
310
FE0003FFFFFFE0003FFE0003FFFFFFE0003FFF0003FFFFFFFFC000FFFFFFE000
310
70008000FFFFFFC0007FFE0000007FF8000003FFFF80007F0001FFFFFF8000F0
310
001FFFFFF8000FF8000001FFFE0000007FFFFFF0001FFFFFFC0003FFFFFFE000
310
1FFC0003FFFFFFE0001FFF0003FFFFFFFFC000FFFFFFC00070008000FFFFFF80
310
007FFE0000007FF0000003FFFF80007F0001FFFFFF0000F0001FFFFFF8000FF8
310
000001FFFE0000007FFFFFF0001FFFFFFC0007FFFFFFF0001FFC0007FFFFFFF0
310
001FFF0003FFFFFFFFC000FFFFFFC00070008001FFFFFF0000FFFE0000003FF0
310
000001FFFF80007F0001FFFFFF0000F8001FFFFFF0000FF8000001FFFE000000
310
7FFFFFF0001FFFFFFC0007FFFFFFF0001FFC0007FFFFFFF0001FFF0003FFFFFF
310
FFC001FFFFFF80007000FFFFFFFFFE0000FFFE0008003FF0008001FFFF80007F
310
FFFFFFFFFC0000FFFFFFFFFFE0000FF8000001FFFE0000007FFFFFF0001FFFFF
310
F8000FFFFFFFF8000FF8000FFFFFFFF8000FFF0003FFFFFFFFFFFFFFFFFF0000
310
7000FFFFFFFFFC0000FFFC0008003FF0008001FFFF80007FFFFFFFFFF80001FF
310
FFFFFFFF80000FF8000001FFFE0000007FFFFFF0001FFFFFF8000FFFFFFFF800
310
0FF8000FFFFFFFF8000FFF0003FFFFFFFFFFFFFFFFFE0000F000FFFFFFFFE000
310
00FFFC000C003FE000C001FFFF80007FFFFFFFFFC00001FFFFFFFFFE00001FF8
310
000001FFFE0000007FFFFFF0001FFFFFF8000FFFFFFFF8000FF8000FFFFFFFF8
310
000FFF0003FFFFFFFFFFFFFFFFF00000F000FFFFFFFE000001FFFC000C001FE0
310
00C000FFFF80007FFFFFFFFE000001FFFFFFFFE000001FF80FFFFFFFFFFFFFC0
310
7FFFFFF0001FFFFFF8000FFFFFFFF8000FF8000FFFFFFFF8000FFF0003FFFFFF
310
FFFFFFFFFF800000F000FFFFFFC0000001FFFC001C001FE001C000FFFF80007F
310
FFFFFF80000003FFFFFFF80000001FF80FFFFFFFFFFFFFC07FFFFFF0001FFFFF
310
F8001FFFFFFFFC000FF8001FFFFFFFFC000FFF0003FFFFFFFFFFFFFFF0000001
310
F000FFFFF800000001FFF8001C001FE001C000FFFF80007FFFFFF800000003FF
310
FFFF800000003FF80FFFFFFFFFFFFFC07FFFFFF0001FFFFFF8001FFFFFFFFC00
310
0FF8001FFFFFFFFC000FFF0003FFFFFFFFFFFFFE00000001F000FFFFC0000000
310
03FFF8001E001FC001E000FFFF80007FFFFF8000000007FFFFFC000000003FF8
310
0FFFFFFFFFFFFFC07FFFFFF0001FFFFFF8001FFFFFFFFC000FF8001FFFFFFFFC
310
000FFF0003FFFFFFFFFFFFE000000003F000FFFE0000000007FFF8001E000FC0
310
01E0007FFF80007FFFFE0000000007FFFFE0000000007FF80FFFFFFFFFFFFFC0
310
7FFFFFF0001FFFFFF0001FFFFFFFFC0007F0001FFFFFFFFC0007FF0003FFFFFF
310
FFFFFF0000000003F000FFF80000000007FFF8001E000FC003E0007FFF80007F
310
FFF0000000000FFFFF8000000000FFF80FFFFFFFFFFFFFC07FFFFFF0001FFFFF
310
F0001FFFFFFFFC0007F0001FFFFFFFFC0007FF0003FFFFFFFFFFFC0000000007
310
F000FFE0000000000FFFF0003E000FC003E0007FFF80007FFFC0000000001FFF
310
FE0000000001FFF80FFFFFFFFFFFFFC07FFFFFF0001FFFFFF0001FFFFFFFFC00
310
07F0001FFFFFFFFC0007FF0003FFFFFFFFFFF0000000000FF000FFC000000000
310
1FFFF0003F000F8003F0003FFF80007FFF80000000003FFFF80000000003FFF8
310
0FFFFFFFFFFFFFC07FFFFFF0001FFFFFF0001FFFFFFFFC0007F0001FFFFFFFFC
310
0007FF0003FFFFFFFFFFE0000000001FF000FF00000000007FFFF0003F000780
310
03F0003FFF80007FFF00000000007FFFF00000000007FFF80FFFFFFFFFFFFFC0
310
7FFFFFF0001FFFFFF0001FFFFFFFFC0007F0001FFFFFFFFC0007FF0003FFFFFF
310
FFFF80000000007FF000FE0000000000FFFFE0003F00078007F0003FFF80007F
310
FE0000000001FFFFE0000000001FFFF80FFFFFFFFFFFFFC07FFFFFF0001FFFFF
310
F0001FFFFFFFFC0007F0001FFFFFFFFC0007FF0003FFFFFFFFFF0000000000FF
310
F000FC0000000003FFFFE0007F00078007F0003FFF80007FFC0000000007FFFF
310
C0000000007FFFF80FFFFFFFFFFFFFC07FFFFFF0001FFFFFF8001FFFFFFFFC00
310
0FF8001FFFFFFFFC000FFF0003FFFFFFFFFE0000000003FFF000FC000000000F
310
FFFFE0007F80070007F8001FFF80007FF8000000001FFFFF8000000001FFFFF8
310
0FFFFFFFFFFFFFC07FFFFFF0001FFFFFF8001FFFFFFFFC000FF8001FFFFFFFFC
310
000FFF0003FFFFFFFFFC000000000FFFF000F8000000007FFFFFE0007F800700
310
07F8001FFF80007FF000000000FFFFFF800000000FFFFFF80FFFFFFFFFFFFFC0
310
7FFFFFF0001FFFFFF8000FFFFFFFF8000FF8000FFFFFFFF8000FFF0003FFFFFF
310
FFFC000000007FFFF000F800000007FFFFFFC0007F8003000FF8001FFF80007F
310
F000000007FFFFFF000000007FFFFFF80FFFFFFFFFFFFFC07FFFFFF0001FFFFF
310
F8000FFFFFFFF8000FF8000FFFFFFFF8000FFF0003FFFFFFFFF80000000FFFFF
310
F000F0000000FFFFFFFFC000FF8003000FF8001FFF80007FE0000000FFFFFFFF
310
0000000FFFFFFFF8000001FFFE0000007FFFFFF0001FFFFFF8000FFFFFFFF800
310
0FF8000FFFFFFFF8000FFF0003FFFFFFFFF8000000FFFFFFF000F000000FFFFF
310
FFFFC000FFC002000FF8000FFF80007FE000001FFFFFFFFE000001FFFFFFFFF8
310
000001FFFE0000007FFFFFF0001FFFFFF8000FFFFFFFF8000FF8000FFFFFFFF8
310
000FFF0003FFFFFFFFF000001FFFFFFFF000E00000FFFFFFFFFFC000FFC00200
310
0FFC000FFF80007FE00001FFFFFFFFFE00001FFFFFFFFFF8000001FFFE000000
310
7FFFFFF0001FFFFFFC000FFFFFFFF8001FFC000FFFFFFFF8001FFF0003FFFFFF
310
FFF00001FFFFFFFFF000E00007FFFFFFFFFF8000FFC000001FFC000FFF80007F
310
C0000FFFFFFFFFFE0000FFFFFFFFFFF8000001FFFE0000007FFFFFF0001FFFFF
310
FC0007FFFFFFF0001FFC0007FFFFFFF0001FFF0003FFFFFFFFF00007FFFFFFFF
310
F000E0001FFFFFFFFFFF8000FFC000001FFC000FFF80007FC0003FFFFFFFFFFE
310
0001FFFFFFFFFFF8000001FFFE0000007FFFFFF0001FFFFFFC0007FFFFFFF000
310
1FFC0007FFFFFFF0001FFF0003FFFFFFFFF0001FFFFFFFFFF000E0003FFFFF00
310
03FF8001FFE000001FFC0007FF80007FC0007FFFFF0007FC0003FFFFF0003FF8
310
000001FFFE0000007FFFFFF0001FFFFFFC0003FFFFFFE0001FFC0003FFFFFFE0
310
001FFF0003FFFFFFFFF0003FFFFFFFFFF000E0003FFFFF0001FF8001FFE00000
310
1FFE0007FF80007FC0007FFFFE0003FC0007FFFFE0003FF8000001FFFE000000
310
7FFFFFF0001FFFFFFE0003FFFFFFE0003FFE0003FFFFFFE0003FFF0003FFFFFF
310
FFF0003FFFFF8001F000E0003FFFFF0001FF0001FFE000001FFE0007FF80007F
310
C0007FFFFE0003FC0007FFFFE0003FF8000001FFFE0000007FFFFFF0001FFFFF
310
FE0001FFFFFFC0003FFE0001FFFFFFC0003FFF0003FFFFFFFFF0003FFFFF0001
310
F000E0003FFFFF0003FF0001FFE000003FFE0007FF80007FC0007FFFFE0003FC
310
0007FFFFE0003FF8000001FFFE0000007FFFFFF0001FFFFFFF0001FFFFFFC000
310
7FFF0001FFFFFFC0007FFF0003FFFFFFFFF0003FFFFF0001F000E0003FFFFE00
310
03FF0003FFF000003FFE0003FF80007FC0007FFFFC0003FE0007FFFFE0003FF8
310
000001FFFE0000007FFFFFF0001FFFFFFF0000FFFFFF80007FFF0000FFFFFF80
310
007FFF0003FFFFFFFFF0003FFFFF0001F000E0003FFFFE0003FF0003FFF00000
310
3FFF0003FF80007FC0007FFFFC0007FE0007FFFFC0003FF8000001FFFE000000
310
7FFFFFF0001FFFFFFF80007FFFFF0000FFFF80007FFFFF0000FFFF0003FFFFFF
310
FFF0003FFFFF0003F000E0003FFFFC0003FE0003FFF000003FFF0003FF80007F
310
E0003FFFF80007FE0003FFFFC0007FF8000001FFFE0000007FFFFFF0001FFFFF
310
FF80003FFFFE0000FFFF80003FFFFE0000FFFF0003FFFFFFFFF0001FFFFE0003
310
F000F0001FFFF80003FE0003FFF000007FFF0001FF80007FE0003FFFF00007FE
310
0001FFFF80007FF8000001FFFE0000007FFFFFF0001FFFFFFFC0000FFFF80001
310
FFFFC0000FFFF80001FFFF0003FFFFFFFFF0001FFFFC0003F000F0000FFFF000
310
07FE0007FFF800007FFF0001FF80007FE0001FFFE00007FF0000FFFE00007FF8
310
000001FFFE0000007FFFFFF0001FFFFFFFC00003FFE00001FFFFC00003FFE000
310
01FFFF0003FFFFFFFFF8000FFFF80003F000F00003FFC00007FC0007FFF80000
310
7FFF8001FF80007FF00007FF80000FFF00007FF80000FFF8000001FFFE000000
310
7F80000000000001FFE000003E000003FFFFE000003E000003FFFF0003FFFFFF
310
FFF80003FFE00007F000F800000000000FFC0007FFF800007FFF8001FF80007F
310
F000000000000FFF000000000000FFF8000001FFFE0000007F80000000000001
310
FFF0000000000007FFFFF0000000000007FFFF0003FFFFFFFFFC00007E000007
310
F000F800000000000FFC0007FFF80000FFFF8000FF80007FF800000000001FFF
310
800000000001FFF8000001FFFE0000007F80000000000001FFF800000000000F
310
FFFFF800000000000FFFFF0003FFFFFFFFFC00000000000FF000FC0000000000
310
1FFC0007FFFC0000FFFF8000FF80007FF800000000003FFFC00000000001FFF8
310
000001FFFE0000007F80000000000001FFF800000000000FFFFFF80000000000
310
0FFFFF0003FFFFFFFFFE00000000001FF000FE00000000003FF8000FFFFC0000
310
FFFF8000FF80007FFC00000000003FFFC00000000003FFF8000001FFFE000000
310
7F80000000000001FFFC00000000001FFFFFFC00000000001FFFFF0003FFFFFF
310
FFFF00000000001FF000FF00000000003FF8000FFFFC0000FFFFC000FF80007F
310
FE00000000007FFFE00000000007FFF8000001FFFE0000007F80000000000001
310
FFFE00000000003FFFFFFE00000000003FFFFF0003FFFFFFFFFF80000000003F
310
F000FF80000000007FF8000FFFFC0001FFFFC0007F80007FFF0000000000FFFF
310
F0000000000FFFF800000000000000007F80000000000001FFFF8000000000FF
310
FFFFFF8000000000FFFFFF0003FFFFFFFFFFC0000000007FF000FFC000000000
310
FFF8000FFFFE0001FFFFC0007F80007FFF8000000001FFFFF8000000001FFFF8
310
00000000000000007F80000000000001FFFFC000000001FFFFFFFFC000000001
310
FFFFFF0003FFFFFFFFFFE000000000FFF000FFE000000003FFF0001FFFFE0001
310
FFFFC0007F80007FFFC000000007FFFFFE000000003FFFF80000000000000000
310
7F80000000000001FFFFE000000003FFFFFFFFE000000003FFFFFF0003FFFFFF
310
FFFFF000000003FFF000FFF80000000FFFF0001FFFFE0001FFFFE0007F80007F
310
FFF00000000FFFFFFF00000000FFFFF800000000000000007F80000000000001
310
FFFFF80000000FFFFFFFFFF80000000FFFFFFF0003FFFFFFFFFFFC0000000FFF
310
F000FFFE0000003FFFF0001FFFFE0003FFFFE0003F80007FFFFC0000003FFFFF
310
FFC0000003FFFFF800000000000000007F80000000000001FFFFFE0000003FFF
310
FFFFFFFE0000003FFFFFFF0003FFFFFFFFFFFF0000003FFFF000FFFF800000FF
310
FFF0001FFFFF0003FFFFE0003F80007FFFFF000001FFFFFFFFF800001FFFFFF8
310
00000000000000007F80000000000001FFFFFFC00001FFFFFFFFFFFFC00001FF
310
FFFFFF0003FFFFFFFFFFFFC00000FFFFF000FFFFF8000FFFFFFFFFFFFFFFFFFF
310
FFFFFFFFFFFFFFFFFFFFF0001FFFFFFFFFFF0000FFFFFFF80000000000000000
310
7FFFFFFFFFFFFFFFFFFFFFFC001FFFFFFFFFFFFFFC001FFFFFFFFFFFFFFFFFFF
310
FFFFFFFC001FFFFFF000FFFFFFFFFFFFFFFFFFFFFFFFFFFFFFFFFFFFFFFFFFFF
310
FFFFFFFFFFFFFFFFFFFFFFFFFFFFFFFFFFFFFFFFFFFFFFFFFFFFFFFFFFFFFFFF
310
FFFFFFFFFFFFFFFFFFFFFFFFFFFFFFFFFFFFFFFFFFFFFFFFFFFFFFFFFFFFFFFF
310
F000FFFFFFFFFFFFFFFFFFFFFFFFFFFFFFFFFFFFFFFFFFFFFFFFFFFFFFFFFFFF
310
FFFFFFFFFFFFFFFFFFFFFFFFFFFFFFFFFFFFFFFFFFFFFFFFFFFFFFFFFFFFFFFF
310
FFFFFFFFFFFFFFFFFFFFFFFFFFFFFFFFFFFFFFFFFFFFFFFFF000FFFFFFFFFFFF
310
FFFFFFFFFFFFFFFFFFFFFFFFFFFFFFFFFFFFFFFFFFFFFFFFFFFFFFFFFFFFFFFF
310
FFFFFFFFFFFFFFFFFFFFFFFFFFFFFFFFFFFFFFFFFFFFFFFFFFFFFFFFFFFFFFFF
310
FFFFFFFFFFFFFFFFFFFFFFFFFFFFFFFFF000FFFFFFFFFFFFFFFFFFFFFFFFFFFF
310
FFFFFFFFFFFFFFFFFFFFFFFFFFFFFFFFFFFFFFFFFFFFFFFFFFFFFFFFFFFFFFFF
310
FFFFFFFFFFFFFFFFFFFFFFFFFFFFFFFFFFFFFFFFFFFFFFFFFFFFFFFFFFFFFFFF
310
FFFFFFFFFFFFFFFFF000FFFFFFFFFFFFFFFFFFFFFFFFFFFFFFFFFFFFFFFFFFFF
310
FFFFFFFFFFFFFFFFFFFFFFFFFFFFFFFFFFFFFFFFFFFFFFFFFFFFFFFFFFFFFFFF
310
FFFFFFFFFFFFFFFFFFFFFFFFFFFFFFFFFFFFFFFFFFFFFFFFFFFFFFFFFFFFFFFF
310
F000FFFFFFFFFFFFFFFFFFFFFFFFFFFFFFFFFFFFFFFFFFFFFFFFFFFFFFFFFFFF
310
FFFFFFFFFFFFFFFFFFFFFFFFFFFFFFFFFFFFFFFFFFFFFFFFFFFFFFFFFFFFFFFF
310
FFFFFFFFFFFFFFFFFFFFFFFFFFFFFFFFFFFFFFFFFFFFFFFFF000FFFFFFFFFFFF
310
FFFFFFFFFFFFFFFFFFFFFFFFFFFFFFFFFFFFFFFFFFFFFFFFFFFFFFFFFFFFFFFF
310
FFFFFFFFFFFFFFFFFFFFFFFFFFFFFFFFFFFFFFFFFFFFFFFFFFFFFFFFFFFFFFFF
310
FFFFFFFFFFFFFFFFFFFFFFFFFFFFFFFFF000FFFFFFFFFFFFFFFFFFFFFFFFFFFF
310
FFFFFFFFFFFFFFFFFFFFFFFFFFFFFFFFFFFFFFFFFFFFFFFFFFFFFFFFFFFFFFFF
310
FFFFFFFFFFFFFFFFFFFFFFFFFFFFFFFFFFFFFFFFFFFFFFFFFFFFFFFFFFFFFFFF
310
FFFFFFFFFFFFFFFFF000FFFFFFFFFFFFFFFFFFFFFFFFFFFFFFFFFFFFFFFFFFFF
310
FFFFFFFFFFFFFFFFFFFFFFFFFFFFFFFFFFFFFFFFFFFFFFFFFFFFFFFFFFFFFFFF
310
FFFFFFFFFFFFFFFFFFFFFFFFFFFFFFFFFFFFFFFFFFFFFFFFFFFFFFFFFFFFFFFF
310
F000FFFFFFFFFFFFFFFFFFFFFFFFFFFFFFFFFFFFFFFFFFFFFFFFFFFFFFFFFFFF
310
FFFFFFFFFFFFFFFFFFFFFFFFFFFFFFFFFFFFFFFFFFFFFFFFFFFFFFFFFFFFFFFF
310
FFFFFFFFFFFFFFFFFFFFFFFFFFFFFFFFFFFFFFFFFFFFFFFFF000FFFFFFFFFFFF
310
FFFFFFFFFFFFFFFFFFFFFFFFFFFFFFFFFFFFFFFFFFFFFFFFFFFFFFFFFFFFFFFF
310
FFFFFFFFFFFFFFFFFFFFFFFFFFFFFFFFFFFFFFFFFFFFFFFFFFFFFFFFFFFFFFFF
310
FFFFFFFFFFFFFFFFFFFFFFFFFFFFFFFFF000FFFFFFFFFFFFFFFFFFFFFFFFFFFF
310
FFFFFFFFFFFFFFFFFFFFFFFFFFFFFFFFFFFFFFFFFFFFFFFFFFFFFFFFFFFFFFFF
310
FFFFFFFFFFFFFFFFFFFFFFFFFFFFFFFFFFFFFFFFFFFFFFFFFFFFFFFFFFFFFFFF
310
FFFFFFFFFFFFFFFFF000FFFFFFFFFFFFFFFFFFFFFFFFFFFFFFFFFFFFFFFFFFFF
310
FFFFFFFFFFFFFFFFFFFFFFFFFFFFFFFFFFFFFFFFFFFFFFFFFFFFFFFFFFFFFFFF
310
FFFFFFFFFFFFFFFFFFFFFFFFFFFFFFFFFFFFFFFFFFFFFFFFFFFFFFFFFFFFFFFF
310
F000FFFFFFFFFFFFFFFFFFFFFFFFFFFFFFFFFFFFFFFFFFFFFFFFFFFFFFFFFFFF
310
FFFFFFFFFFFFFFFFFFFFFFFFFFFFFFFFFFFFFFFFFFFFFFFFFFFFFFFFFFFFFFFF
310
FFFFFFFFFFFFFFFFFFFFFFFFFFFFFFFFFFFFFFFFFFFFFFFFF000FFFFFFFFFFFF
310
FFFFFFFFFFFFFFFFFFFFFFFFFFFFFFFFFFFFFFFFFFFFFFFFFFFFFFFFFFFFFFFF
310
FFFFFFFFFFFFFFFFFFFFFFFFFFFFFFFFFFFFFFFFFFFFFFFFFFFFFFFFFFFFFFFF
310
FFFFFFFFFFFFFFFFFFFFFFFFFFFFFFFFF000FFFFFFFFFFFFFFFFFFFFFFFFFFFF
310
FFFFFFFFFFFFFFFFFFFFFFFFFFFFFFFFFFFFFFFFFFFFFFFFFFFFFFFFFFFFFFFF
310
FFFFFFFFFFFFFFFFFFFFFFFFFFFFFFFFFFFFFFFFFFFFFFFFFFFFFFFFFFFFFFFF
310
FFFFFFFFFFFFFFFFF000FFFFFFFFFFFFFFFFFFFFFFFFFFFFFFFFFFFFFFFFFFFF
310
FFFFFFFFFFFFFFFFFFFFFFFFFFFFFFFFFFFFFFFFFFFFFFFFFFFFFFFFFFFFFFFF
310
FFFFFFFFFFFFFFFFFFFFFFFFFFFFFFFFFFFFFFFFFFFFFFFFFFFFFFFFFFFFFFFF
310
F000FFFFFFFFFFFFFFFFFFFFFFFFFFFFFFFFFFFFFFFFFFFFFFFFFFFFFFFFFFFF
310
FFFFFFFFFFFFFFFFFFFFFFFFFFFFFFFFFFFFFFFFFFFFFFFFFFFFFFFFFFFFFFFF
310
FFFFFFFFFFFFFFFFFFFFFFFFFFFFFFFFFFFFFFFFFFFFFFFFF000FFFFFFFFFFFF
310
FFFFFFFFFFFFFFFFFFFFFFFFFFFFFFFFFFFFFFFFFFFFFFFFFFFFFFFFFFFFFFFF
310
FFFFFFFFFFFFFFFFFFFFFFFFFFFFFFFFFFFFFFFFFFFFFFFFFFFFFFFFFFFFFFFF
310
FFFFFFFFFFFFFFFFFFFFFFFFFFFFFFFFF000FFFFFFFFFFFFFFFFFFFFFFFFFFFF
310
FFFFFFFFFFFFFFFFFFFFFFFFFFFFFFFFFFFFFFFFFFFFFFFFFFFFFFFFFFFFFFFF
310
FFFFFFFFFFFFFFFFFFFFFFFFFFFFFFFFFFFFFFFFFFFFFFFFFFFFFFFFFFFFFFFF
310
FFFFFFFFFFFFFFFFF000FFFFFFFFFFFFFFFFFFFFFFFFFFFFFFFFFFFFFFFFFFFF
310
FFFFFFFFFFFFFFFFFFFFFFFFFFFFFFFFFFFFFFFFFFFFFFFFFFFFFFFFFFFFFFFF
310
FFFFFFFFFFFFFFFFFFFFFFFFFFFFFFFFFFFFFFFFFFFFFFFFFFFFFFFFFFFFFFFF
310
F000FFFFFFFFFFFFFFFFFFFFFFFFFFFFFFFFFFFFFFFFFFFFFFFFFFFFFFFFFFFF
310
FFFFFFFFFFFFFFFFFFFFFFFFFFFFFFFFFFFFFFFFFFFFFFFFFFFFFFFFFFFFFFFF
310
FFFFFFFFFFFFFFFFFFFFFFFFFFFFFFFFFFFFFFFFFFFFFFFFF000FFFFFFFFFFFF
310
FFFFFFFFFFFFFFFFFFFFFFFFFFFFFFFFFFFFFFFFFFFFFFFFFFFFFFFFFFFFFFFF
310
FFFFFFFFFFFFFFFFFFFFFFFFFFFFFFFFFFFFFFFFFFFFFFFFFFFFFFFFFFFFFFFF
310
FFFFFFFFFFFFFFFFFFFFFFFFFFFFFFFFF0000000000000000000000000000000
310
0000000000000000000000000000000000000000000000000000000000000000
310
0000000000000000000000000000000000000000000000000000000000000000
310
0000000000000000000000000000000000000000000000000000000000000000
310
0000000000000000000000000000000000000000000000000000000000000000
310
0000000000000000000000000000000000000000000000000000000000000000
310
0000000000000000000000000000000000000000000000000000000000000000
310
0000000000000000000000000000000000000000000000000000000000000000
310
0000000000000000000000000000000000000000000000000000000000000000
310
0000000000000000000000000000000000000000000000000000000000000000
310
0000000000000000000000000000000000000000000000000000000000000000
310
0000000000000000000000000000000000000000000000000000000000000000
310
0000000000000000000000000000000000000000000000000000000000000000
310
0000000000000000000000000000000000000000000000000000000000000000
310
0000000000000000000000000000000000000000000000000000000000000000
310
0000000000000000000000000000000000000000000000000000000000000000
  1
OLE
  0
ENDSEC
  0
SECTION
  2
OBJECTS
  0
DICTIONARY
  5
C
330
0
100
AcDbDictionary
281
     1
  3
ACAD_GROUP
350
D
  3
ACAD_LAYOUT
350
1A
  3
ACAD_MLINESTYLE
350
17
  3
ACAD_PLOTSETTINGS
350
19
  3
ACAD_PLOTSTYLENAME
350
E
  0
DICTIONARY
  5
D
102
{ACAD_REACTORS
330
C
102
}
330
C
100
AcDbDictionary
281
     1
  0
DICTIONARY
  5
1A
102
{ACAD_REACTORS
330
C
102
}
330
C
100
AcDbDictionary
281
     1
  3
Layout1
350
1E
  3
Layout2
350
26
  3
Model
350
22
  0
DICTIONARY
  5
17
102
{ACAD_REACTORS
330
C
102
}
330
C
100
AcDbDictionary
281
     1
  3
Standard
350
18
  0
DICTIONARY
  5
19
102
{ACAD_REACTORS
330
C
102
}
330
C
100
AcDbDictionary
281
     1
  0
ACDBDICTIONARYWDFLT
  5
E
102
{ACAD_REACTORS
330
C
102
}
330
C
100
AcDbDictionary
281
     1
  3
Normal
350
F
100
AcDbDictionaryWithDefault
340
F
  0
LAYOUT
  5
1E
102
{ACAD_REACTORS
330
1A
102
}
330
1A
100
AcDbPlotSettings
  1

  2
none_device
  4

  6

 40
0.0
 41
0.0
 42
0.0
 43
0.0
 44
0.0
 45
0.0
 46
0.0
 47
0.0
 48
0.0
 49
0.0
140
0.0
141
0.0
142
1.0
143
1.0
 70
   688
 72
     0
 73
     0
 74
     5
  7

 75
    16
147
1.0
148
0.0
149
0.0
100
AcDbLayout
  1
Layout1
 70
     1
 71
     1
 10
0.0
 20
0.0
 11
420.0
 21
297.0
 12
0.0
 22
0.0
 32
0.0
 14
1.0000000000E+20
 24
1.0000000000E+20
 34
1.0000000000E+20
 15
-1.0000000000E+20
 25
-1.0000000000E+20
 35
-1.0000000000E+20
146
0.0
 13
0.0
 23
0.0
 33
0.0
 16
1.0
 26
0.0
 36
0.0
 17
0.0
 27
1.0
 37
0.0
 76
     0
330
1B
  0
LAYOUT
  5
26
102
{ACAD_REACTORS
330
1A
102
}
330
1A
100
AcDbPlotSettings
  1

  2
none_device
  4

  6

 40
0.0
 41
0.0
 42
0.0
 43
0.0
 44
0.0
 45
0.0
 46
0.0
 47
0.0
 48
0.0
 49
0.0
140
0.0
141
0.0
142
1.0
143
1.0
 70
   688
 72
     0
 73
     0
 74
     5
  7

 75
    16
147
1.0
148
0.0
149
0.0
100
AcDbLayout
  1
Layout2
 70
     1
 71
     2
 10
0.0
 20
0.0
 11
0.0
 21
0.0
 12
0.0
 22
0.0
 32
0.0
 14
0.0
 24
0.0
 34
0.0
 15
0.0
 25
0.0
 35
0.0
146
0.0
 13
0.0
 23
0.0
 33
0.0
 16
1.0
 26
0.0
 36
0.0
 17
0.0
 27
1.0
 37
0.0
 76
     0
330
23
  0
LAYOUT
  5
22
102
{ACAD_REACTORS
330
1A
102
}
330
1A
100
AcDbPlotSettings
  1

  2
none_device
  4

  6

 40
0.0
 41
0.0
 42
0.0
 43
0.0
 44
0.0
 45
0.0
 46
0.0
 47
0.0
 48
0.0
 49
0.0
140
0.0
141
0.0
142
1.0
143
1.0
 70
  1712
 72
     0
 73
     0
 74
     0
  7

 75
     0
147
1.0
148
0.0
149
0.0
100
AcDbLayout
  1
Model
 70
     1
 71
     0
 10
0.0
 20
0.0
 11
297.0
 21
210.0
 12
0.0
 22
0.0
 32
0.0
 14
0.0
 24
0.0
 34
0.0
 15
297.0
 25
210.0
 35
0.0
146
0.0
 13
0.0
 23
0.0
 33
0.0
 16
1.0
 26
0.0
 36
0.0
 17
0.0
 27
1.0
 37
0.0
 76
     0
330
1F
331
29
  0
MLINESTYLE
  5
18
102
{ACAD_REACTORS
330
17
102
}
330
17
100
AcDbMlineStyle
  2
Standard
 70
     0
  3

 62
   256
 51
90.0
 52
90.0
 71
     2
 49
0.5
 62
   256
  6
BYLAYER
 49
-0.5
 62
   256
  6
BYLAYER
  0
ACDBPLACEHOLDER
  5
F
102
{ACAD_REACTORS
330
E
102
}
330
E
  0
ENDSEC
  0
EOF
