  0
SECTION
  2
HEADER
  9
$ACADVER
  1
AC1015
  9
$ACADMAINTVER
 70
     6
  9
$DWGCODEPAGE
  3
ANSI_1252
  9
$INSBASE
 10
0.0
 20
0.0
 30
0.0
  9
$EXTMIN
 10
0.0
 20
0.0
 30
0.0
  9
$EXTMAX
 10
297.0
 20
210.0
 30
0.0
  9
$LIMMIN
 10
0.0
 20
0.0
  9
$LIMMAX
 10
297.0
 20
210.0
  9
$ORTHOMODE
 70
     0
  9
$REGENMODE
 70
     1
  9
$FILLMODE
 70
     1
  9
$QTEXTMODE
 70
     0
  9
$MIRRTEXT
 70
     1
  9
$LTSCALE
 40
1.0
  9
$ATTMODE
 70
     1
  9
$TEXTSIZE
 40
2.0
  9
$TRACEWID
 40
1.0
  9
$TEXTSTYLE
  7
Standard
  9
$CLAYER
  8
0
  9
$CELTYPE
  6
ByLayer
  9
$CECOLOR
 62
   256
  9
$CELTSCALE
 40
1.0
  9
$DISPSILH
 70
     0
  9
$DIMSCALE
 40
1.0
  9
$DIMASZ
 40
3.0
  9
$DIMEXO
 40
0.0
  9
$DIMDLI
 40
3.75
  9
$DIMRND
 40
0.0
  9
$DIMDLE
 40
0.0
  9
$DIMEXE
 40
1.0
  9
$DIMTP
 40
0.0
  9
$DIMTM
 40
0.0
  9
$DIMTXT
 40
2.0
  9
$DIMCEN
 40
2.5
  9
$DIMTSZ
 40
0.0
  9
$DIMTOL
 70
     0
  9
$DIMLIM
 70
     0
  9
$DIMTIH
 70
     1
  9
$DIMTOH
 70
     1
  9
$DIMSE1
 70
     0
  9
$DIMSE2
 70
     0
  9
$DIMTAD
 70
     1
  9
$DIMZIN
 70
     0
  9
$DIMBLK
  1

  9
$DIMASO
 70
     1
  9
$DIMSHO
 70
     1
  9
$DIMPOST
  1

  9
$DIMAPOST
  1

  9
$DIMALT
 70
     0
  9
$DIMALTD
 70
     3
  9
$DIMALTF
 40
0.0393700787
  9
$DIMLFAC
 40
1.0
  9
$DIMTOFL
 70
     1
  9
$DIMTVP
 40
0.0
  9
$DIMTIX
 70
     0
  9
$DIMSOXD
 70
     0
  9
$DIMSAH
 70
     0
  9
$DIMBLK1
  1

  9
$DIMBLK2
  1

  9
$DIMSTYLE
  2
ISO-25
  9
$DIMCLRD
 70
     0
  9
$DIMCLRE
 70
     0
  9
$DIMCLRT
 70
     0
  9
$DIMTFAC
 40
1.0
  9
$DIMGAP
 40
1.524
  9
$DIMJUST
 70
     0
  9
$DIMSD1
 70
     0
  9
$DIMSD2
 70
     0
  9
$DIMTOLJ
 70
     0
  9
$DIMTZIN
 70
     0
  9
$DIMALTZ
 70
     0
  9
$DIMALTTZ
 70
     0
  9
$DIMUPT
 70
     0
  9
$DIMDEC
 70
     2
  9
$DIMTDEC
 70
     3
  9
$DIMALTU
 70
     2
  9
$DIMALTTD
 70
     3
  9
$DIMTXSTY
  7
Standard
  9
$DIMAUNIT
 70
     0
  9
$DIMADEC
 70
     2
  9
$DIMALTRND
 40
0.0
  9
$DIMAZIN
 70
     0
  9
$DIMDSEP
 70
    44
  9
$DIMATFIT
 70
     3
  9
$DIMFRAC
 70
     0
  9
$DIMLDRBLK
  1

  9
$DIMLUNIT
 70
     2
  9
$DIMLWD
 70
    -2
  9
$DIMLWE
 70
    -2
  9
$DIMTMOVE
 70
     0
  9
$LUNITS
 70
     2
  9
$LUPREC
 70
     2
  9
$SKETCHINC
 40
1.0
  9
$FILLETRAD
 40
10.0
  9
$AUNITS
 70
     0
  9
$AUPREC
 70
     2
  9
$MENU
  1
.
  9
$ELEVATION
 40
0.0
  9
$PELEVATION
 40
0.0
  9
$THICKNESS
 40
0.0
  9
$LIMCHECK
 70
     0
  9
$CHAMFERA
 40
10.0
  9
$CHAMFERB
 40
10.0
  9
$CHAMFERC
 40
20.0
  9
$CHAMFERD
 40
0.0
  9
$SKPOLY
 70
     0
  9
$TDCREATE
 40
2456091.391919699
  9
$TDUCREATE
 40
2456091.308586366
  9
$TDUPDATE
 40
2456091.39192132
  9
$TDUUPDATE
 40
2456091.308587986
  9
$TDINDWG
 40
0.0000000116
  9
$TDUSRTIMER
 40
0.0000000116
  9
$USRTIMER
 70
     1
  9
$ANGBASE
 50
0.0
  9
$ANGDIR
 70
     0
  9
$PDMODE
 70
     0
  9
$PDSIZE
 40
-1.0
  9
$PLINEWID
 40
0.0
  9
$SPLFRAME
 70
     0
  9
$SPLINETYPE
 70
     6
  9
$SPLINESEGS
 70
     8
  9
$HANDSEED
  5
2B4
  9
$SURFTAB1
 70
     6
  9
$SURFTAB2
 70
     6
  9
$SURFTYPE
 70
     6
  9
$SURFU
 70
     6
  9
$SURFV
 70
     6
  9
$UCSBASE
  2

  9
$UCSNAME
  2

  9
$UCSORG
 10
0.0
 20
0.0
 30
0.0
  9
$UCSXDIR
 10
1.0
 20
0.0
 30
0.0
  9
$UCSYDIR
 10
0.0
 20
1.0
 30
0.0
  9
$UCSORTHOREF
  2

  9
$UCSORTHOVIEW
 70
     0
  9
$UCSORGTOP
 10
0.0
 20
0.0
 30
0.0
  9
$UCSORGBOTTOM
 10
0.0
 20
0.0
 30
0.0
  9
$UCSORGLEFT
 10
0.0
 20
0.0
 30
0.0
  9
$UCSORGRIGHT
 10
0.0
 20
0.0
 30
0.0
  9
$UCSORGFRONT
 10
0.0
 20
0.0
 30
0.0
  9
$UCSORGBACK
 10
0.0
 20
0.0
 30
0.0
  9
$PUCSBASE
  2

  9
$PUCSNAME
  2

  9
$PUCSORG
 10
0.0
 20
0.0
 30
0.0
  9
$PUCSXDIR
 10
1.0
 20
0.0
 30
0.0
  9
$PUCSYDIR
 10
0.0
 20
1.0
 30
0.0
  9
$PUCSORTHOREF
  2

  9
$PUCSORTHOVIEW
 70
     0
  9
$PUCSORGTOP
 10
0.0
 20
0.0
 30
0.0
  9
$PUCSORGBOTTOM
 10
0.0
 20
0.0
 30
0.0
  9
$PUCSORGLEFT
 10
0.0
 20
0.0
 30
0.0
  9
$PUCSORGRIGHT
 10
0.0
 20
0.0
 30
0.0
  9
$PUCSORGFRONT
 10
0.0
 20
0.0
 30
0.0
  9
$PUCSORGBACK
 10
0.0
 20
0.0
 30
0.0
  9
$USERI1
 70
     0
  9
$USERI2
 70
     0
  9
$USERI3
 70
     0
  9
$USERI4
 70
     0
  9
$USERI5
 70
     0
  9
$USERR1
 40
0.0
  9
$USERR2
 40
0.0
  9
$USERR3
 40
0.0
  9
$USERR4
 40
0.0
  9
$USERR5
 40
0.0
  9
$WORLDVIEW
 70
     1
  9
$SHADEDGE
 70
     3
  9
$SHADEDIF
 70
    70
  9
$TILEMODE
 70
     1
  9
$MAXACTVP
 70
    64
  9
$PINSBASE
 10
0.0
 20
0.0
 30
0.0
  9
$PLIMCHECK
 70
     0
  9
$PEXTMIN
 10
1.0000000000E+20
 20
1.0000000000E+20
 30
1.0000000000E+20
  9
$PEXTMAX
 10
-1.0000000000E+20
 20
-1.0000000000E+20
 30
-1.0000000000E+20
  9
$PLIMMIN
 10
0.0
 20
0.0
  9
$PLIMMAX
 10
420.0
 20
297.0
  9
$UNITMODE
 70
     0
  9
$VISRETAIN
 70
     1
  9
$PLINEGEN
 70
     0
  9
$PSLTSCALE
 70
     1
  9
$TREEDEPTH
 70
  3020
  9
$CMLSTYLE
  2
Standard
  9
$CMLJUST
 70
     0
  9
$CMLSCALE
 40
20.0
  9
$PROXYGRAPHICS
 70
     1
  9
$MEASUREMENT
 70
     1
  9
$CELWEIGHT
370
    -1
  9
$ENDCAPS
280
     0
  9
$JOINSTYLE
280
     0
  9
$LWDISPLAY
290
     1
  9
$INSUNITS
 70
     4
  9
$HYPERLINKBASE
  1

  9
$STYLESHEET
  1

  9
$XEDIT
290
     1
  9
$CEPSNTYPE
380
     0
  9
$PSTYLEMODE
290
     1
  9
$FINGERPRINTGUID
  2
{016A86F8-90FF-4EBE-A707-2386A5141653}
  9
$VERSIONGUID
  2
{FAEB1C32-E019-11D5-929B-00C0DF256EC4}
  9
$EXTNAMES
290
     1
  9
$PSVPSCALE
 40
0.0
  9
$OLESTARTUP
290
     0
  0
ENDSEC
  0
SECTION
  2
CLASSES
  0
CLASS
  1
ACDBDICTIONARYWDFLT
  2
AcDbDictionaryWithDefault
  3
ObjectDBX Classes
 90
        0
280
     0
281
     0
  0
CLASS
  1
VISUALSTYLE
  2
AcDbVisualStyle
  3
ObjectDBX Classes
 90
     4095
280
     0
281
     0
  0
CLASS
  1
MATERIAL
  2
AcDbMaterial
  3
ObjectDBX Classes
 90
     1153
280
     0
281
     0
  0
CLASS
  1
ACDBPLACEHOLDER
  2
AcDbPlaceHolder
  3
ObjectDBX Classes
 90
        0
280
     0
281
     0
  0
CLASS
  1
LAYOUT
  2
AcDbLayout
  3
ObjectDBX Classes
 90
        0
280
     0
281
     0
  0
ENDSEC
  0
SECTION
  2
TABLES
  0
TABLE
  2
VPORT
  5
8
330
0
100
AcDbSymbolTable
 70
     1
  0
VPORT
  5
29
330
8
100
AcDbSymbolTableRecord
100
AcDbViewportTableRecord
  2
*Active
 70
     0
 10
0.0
 20
0.0
 11
1.0
 21
1.0
 12
148.5
 22
105.0
 13
0.0
 23
0.0
 14
10.0
 24
10.0
 15
10.0
 25
10.0
 16
0.0
 26
0.0
 36
1.0
 17
0.0
 27
0.0
 37
0.0
 40
210.0
 41
1.4142857143
 42
50.0
 43
0.0
 44
0.0
 50
0.0
 51
0.0
 71
     0
 72
  2000
 73
     1
 74
     3
 75
     0
 76
     0
 77
     0
 78
     0
281
     0
 65
     1
110
0.0
120
0.0
130
0.0
111
1.0
121
0.0
131
0.0
112
0.0
122
1.0
132
0.0
 79
     0
146
0.0
  0
ENDTAB
  0
TABLE
  2
LTYPE
  5
5
330
0
100
AcDbSymbolTable
 70
     6
  0
LTYPE
  5
14
330
5
100
AcDbSymbolTableRecord
100
AcDbLinetypeTableRecord
  2
ByBlock
 70
     0
  3

 72
    65
 73
     0
 40
0.0
  0
LTYPE
  5
15
330
5
100
AcDbSymbolTableRecord
100
AcDbLinetypeTableRecord
  2
ByLayer
 70
     0
  3

 72
    65
 73
     0
 40
0.0
  0
LTYPE
  5
16
330
5
100
AcDbSymbolTableRecord
100
AcDbLinetypeTableRecord
  2
Continuous
 70
     0
  3
Solid line
 72
    65
 73
     0
 40
0.0
  0
LTYPE
  5
3F
330
5
100
AcDbSymbolTableRecord
100
AcDbLinetypeTableRecord
  2
HIDDEN
 70
     0
  3
Hidden __ __ __ __ __ __ __ __ __ __ __ __ __ __
 72
    65
 73
     2
 40
1.905
 49
1.27
 74
     0
 49
-0.635
 74
     0
  0
LTYPE
  5
40
330
5
100
AcDbSymbolTableRecord
100
AcDbLinetypeTableRecord
  2
PHANTOM
 70
     0
  3
Phantom ______  __  __  ______  __  __  ______
 72
    65
 73
     6
 40
12.7
 49
6.35
 74
     0
 49
-1.27
 74
     0
 49
1.27
 74
     0
 49
-1.27
 74
     0
 49
1.27
 74
     0
 49
-1.27
 74
     0
  0
LTYPE
  5
41
330
5
100
AcDbSymbolTableRecord
100
AcDbLinetypeTableRecord
  2
CENTER
 70
     0
  3
Center ____ _ ____ _ ____ _ ____ _ ____ _ ____
 72
    65
 73
     4
 40
10.16
 49
6.35
 74
     0
 49
-1.27
 74
     0
 49
1.27
 74
     0
 49
-1.27
 74
     0
  0
LTYPE
  5
42
330
5
100
AcDbSymbolTableRecord
100
AcDbLinetypeTableRecord
  2
CENTERX2
 70
     0
  3
Center (2x) ________  __  ________  __  _____
 72
    65
 73
     4
 40
20.32
 49
12.7
 74
     0
 49
-2.54
 74
     0
 49
2.54
 74
     0
 49
-2.54
 74
     0
  0
LTYPE
  5
43
330
5
100
AcDbSymbolTableRecord
100
AcDbLinetypeTableRecord
  2
DOT2
 70
     0
  3
Dot (.5x) ........................................
 72
    65
 73
     2
 40
0.635
 49
0.0
 74
     0
 49
-0.635
 74
     0
  0
ENDTAB
  0
TABLE
  2
LAYER
  5
2
330
0
100
AcDbSymbolTable
 70
     5
  0
LAYER
  5
10
330
2
100
AcDbSymbolTableRecord
100
AcDbLayerTableRecord
  2
0
 70
     0
 62
     7
  6
Continuous
370
    -3
390
F
  0
LAYER
  5
44
330
2
100
AcDbSymbolTableRecord
100
AcDbLayerTableRecord
  2
FORMAT
 70
     0
 62
     7
  6
Continuous
370
    -3
390
F
  0
LAYER
  5
45
330
2
100
AcDbSymbolTableRecord
100
AcDbLayerTableRecord
  2
VERMASSUNG
 70
     0
 62
     7
  6
Continuous
370
    -3
390
F
  0
LAYER
  5
46
330
2
100
AcDbSymbolTableRecord
100
AcDbLayerTableRecord
  2
KOPF_DÜNN
 70
     0
 62
     7
  6
Continuous
370
    -3
390
F
  0
LAYER
  5
47
330
2
100
AcDbSymbolTableRecord
100
AcDbLayerTableRecord
  2
KOPF_DICK
 70
     0
 62
     7
  6
Continuous
370
    15
390
F
  0
ENDTAB
  0
TABLE
  2
STYLE
  5
3
330
0
100
AcDbSymbolTable
 70
     3
  0
STYLE
  5
11
330
3
100
AcDbSymbolTableRecord
100
AcDbTextStyleTableRecord
  2
Standard
 70
     0
 40
0.0
 41
1.0
 50
0.0
 71
     0
 42
2.0
  3
txt
  4

  0
STYLE
  5
48
330
3
100
AcDbSymbolTableRecord
100
AcDbTextStyleTableRecord
  2
SLDTEXTSTYLE0
 70
     0
 40
0.0
 41
0.7
 50
0.0
 71
     0
 42
0.2
  3
TXT
  4

  0
STYLE
  5
4C
330
3
100
AcDbSymbolTableRecord
100
AcDbTextStyleTableRecord
  2
SLDTEXTSTYLE1
 70
     0
 40
0.0
 41
0.6470588235
 50
0.0
 71
     0
 42
0.2
  3
TXT
  4

  0
ENDTAB
  0
TABLE
  2
VIEW
  5
6
330
0
100
AcDbSymbolTable
 70
     0
  0
ENDTAB
  0
TABLE
  2
UCS
  5
7
330
0
100
AcDbSymbolTable
 70
     0
  0
ENDTAB
  0
TABLE
  2
APPID
  5
9
330
0
100
AcDbSymbolTable
 70
     1
  0
APPID
  5
12
330
9
100
AcDbSymbolTableRecord
100
AcDbRegAppTableRecord
  2
ACAD
 70
     0
  0
ENDTAB
  0
TABLE
  2
DIMSTYLE
  5
A
330
0
100
AcDbSymbolTable
 70
     5
100
AcDbDimStyleTable
  0
DIMSTYLE
105
27
330
A
100
AcDbSymbolTableRecord
100
AcDbDimStyleTableRecord
  2
ISO-25
 70
     0
 41
2.5
 42
0.625
 43
3.75
 44
1.25
 73
     0
 74
     0
 77
     1
 78
     8
140
2.5
141
2.5
143
0.0393700787
147
0.625
171
     3
172
     1
178
     0
271
     2
272
     2
274
     3
278
    44
283
     0
284
     8
340
11
  0
DIMSTYLE
105
21A
102
{ACAD_REACTORS
330
219
330
224
330
22E
330
242
330
24D
102
}
330
A
100
AcDbSymbolTableRecord
100
AcDbDimStyleTableRecord
  2
SLDDIMSTYLE0
 70
     0
 41
3.0
 44
0.0
 45
0.000000001
 73
     0
 74
     0
 77
     1
 78
    12
 79
     3
140
2.0
147
0.5
173
     1
178
     0
271
     2
272
     3
276
     2
284
    12
340
48
  0
DIMSTYLE
105
239
102
{ACAD_REACTORS
330
238
102
}
330
A
100
AcDbSymbolTableRecord
100
AcDbDimStyleTableRecord
  2
SLDDIMSTYLE1
 70
     0
 41
3.0
 44
0.0
 73
     0
 74
     0
 77
     1
 78
    12
 79
     3
140
2.0
147
0.5
173
     1
178
     0
179
     1
272
     3
276
     2
284
    12
340
48
  0
DIMSTYLE
105
28C
102
{ACAD_REACTORS
330
28B
102
}
330
A
100
AcDbSymbolTableRecord
100
AcDbDimStyleTableRecord
  2
SLDDIMSTYLE2
 70
     0
 41
3.0
 44
0.0
 45
0.000000001
 73
     0
 74
     0
 77
     1
 78
    12
 79
     3
140
2.0
147
0.5
172
     1
173
     1
178
     0
271
     2
272
     3
276
     2
284
    12
289
     0
340
48
  0
DIMSTYLE
105
29B
102
{ACAD_REACTORS
330
29A
102
}
330
A
100
AcDbSymbolTableRecord
100
AcDbDimStyleTableRecord
  2
SLDDIMSTYLE3
 70
     0
 41
3.0
 44
0.0
 73
     0
 74
     0
 77
     1
 78
    12
 79
     3
140
2.0
147
0.5
173
     1
178
     0
179
     2
272
     3
276
     2
284
    12
340
48
  0
ENDTAB
  0
TABLE
  2
BLOCK_RECORD
  5
1
330
0
100
AcDbSymbolTable
 70
    10
  0
BLOCK_RECORD
  5
1F
330
1
100
AcDbSymbolTableRecord
100
AcDbBlockTableRecord
  2
*Model_Space
340
22
  0
BLOCK_RECORD
  5
1B
330
1
100
AcDbSymbolTableRecord
100
AcDbBlockTableRecord
  2
*Paper_Space
340
1E
  0
BLOCK_RECORD
  5
23
330
1
100
AcDbSymbolTableRecord
100
AcDbBlockTableRecord
  2
*Paper_Space0
340
26
  0
BLOCK_RECORD
  5
21B
330
1
100
AcDbSymbolTableRecord
100
AcDbBlockTableRecord
  2
_D
340
0
  0
BLOCK_RECORD
  5
225
330
1
100
AcDbSymbolTableRecord
100
AcDbBlockTableRecord
  2
_D_1
340
0
  0
BLOCK_RECORD
  5
22F
330
1
100
AcDbSymbolTableRecord
100
AcDbBlockTableRecord
  2
_D_2
340
0
  0
BLOCK_RECORD
  5
23A
330
1
100
AcDbSymbolTableRecord
100
AcDbBlockTableRecord
  2
_D_3
340
0
  0
BLOCK_RECORD
  5
243
330
1
100
AcDbSymbolTableRecord
100
AcDbBlockTableRecord
  2
_D_4
340
0
  0
BLOCK_RECORD
  5
24E
330
1
100
AcDbSymbolTableRecord
100
AcDbBlockTableRecord
  2
_D_5
340
0
  0
BLOCK_RECORD
  5
28D
330
1
100
AcDbSymbolTableRecord
100
AcDbBlockTableRecord
  2
_D_6
340
0
  0
BLOCK_RECORD
  5
29C
330
1
100
AcDbSymbolTableRecord
100
AcDbBlockTableRecord
  2
_D_7
340
0
  0
BLOCK_RECORD
  5
2A7
330
1
100
AcDbSymbolTableRecord
100
AcDbBlockTableRecord
  2
SW_CENTERMARKSYMBOL_0
340
0
102
{BLKREFS
331
2B2
102
}
  0
ENDTAB
  0
ENDSEC
  0
SECTION
  2
BLOCKS
  0
BLOCK
  5
20
330
1F
100
AcDbEntity
  8
0
100
AcDbBlockBegin
  2
*Model_Space
 70
     0
 10
0.0
 20
0.0
 30
0.0
  3
*Model_Space
  1

  0
ENDBLK
  5
21
330
1F
100
AcDbEntity
  8
0
100
AcDbBlockEnd
  0
BLOCK
  5
1C
330
1B
100
AcDbEntity
 67
     1
  8
0
100
AcDbBlockBegin
  2
*Paper_Space
 70
     0
 10
0.0
 20
0.0
 30
0.0
  3
*Paper_Space
  1

  0
ENDBLK
  5
1D
330
1B
100
AcDbEntity
 67
     1
  8
0
100
AcDbBlockEnd
  0
BLOCK
  5
24
330
23
100
AcDbEntity
  8
0
100
AcDbBlockBegin
  2
*Paper_Space0
 70
     0
 10
0.0
 20
0.0
 30
0.0
  3
*Paper_Space0
  1

  0
ENDBLK
  5
25
330
23
100
AcDbEntity
  8
0
100
AcDbBlockEnd
  0
BLOCK
  5
21C
330
21B
100
AcDbEntity
  8
0
100
AcDbBlockBegin
  2
_D
 70
     0
 10
0.0
 20
0.0
 30
0.0
  3
_D
  1

  0
SOLID
  5
21E
330
21B
100
AcDbEntity
  8
VERMASSUNG
100
AcDbTrace
 10
141.0609377489
 20
145.9156854863
 30
0.0
 11
144.0609377489
 21
145.4656854863
 31
0.0
 12
144.0609377489
 22
146.3656854863
 32
0.0
 13
144.0609377489
 23
146.3656854863
 33
0.0
  0
SOLID
  5
21F
330
21B
100
AcDbEntity
  8
VERMASSUNG
100
AcDbTrace
 10
251.0609377489
 20
145.9156854863
 30
0.0
 11
248.0609377489
 21
146.3656854863
 31
0.0
 12
248.0609377489
 22
145.4656854863
 32
0.0
 13
248.0609377489
 23
145.4656854863
 33
0.0
  0
LINE
  5
220
330
21B
100
AcDbEntity
  8
VERMASSUNG
100
AcDbLine
 10
141.0609377489
 20
135.6156854863
 30
0.0
 11
141.0609377489
 21
146.9156854863
 31
0.0
  0
LINE
  5
221
330
21B
100
AcDbEntity
  8
VERMASSUNG
100
AcDbLine
 10
251.0609377489
 20
132.9156854863
 30
0.0
 11
251.0609377489
 21
146.9156854863
 31
0.0
  0
LINE
  5
222
330
21B
100
AcDbEntity
  8
VERMASSUNG
100
AcDbLine
 10
141.0609377489
 20
145.9156854863
 30
0.0
 11
251.0609377489
 21
145.9156854863
 31
0.0
  0
MTEXT
  5
223
330
21B
100
AcDbEntity
  8
VERMASSUNG
100
AcDbMText
 10
193.460937509
 20
148.4938208494
 30
0.1
 40
2.0
 41
0.0
 71
     1
 72
     1
  1
110
  7
SLDTEXTSTYLE0
 73
     1
 44
1.0
  0
ENDBLK
  5
21D
330
21B
100
AcDbEntity
  8
0
100
AcDbBlockEnd
  0
BLOCK
  5
226
330
225
100
AcDbEntity
  8
0
100
AcDbBlockBegin
  2
_D_1
 70
     0
 10
0.0
 20
0.0
 30
0.0
  3
_D_1
  1

  0
SOLID
  5
228
330
225
100
AcDbEntity
  8
VERMASSUNG
100
AcDbTrace
 10
251.0609377489
 20
154.5543627335
 30
0.0
 11
248.0609377489
 21
155.0043627335
 31
0.0
 12
248.0609377489
 22
154.1043627335
 32
0.0
 13
248.0609377489
 23
154.1043627335
 33
0.0
  0
SOLID
  5
229
330
225
100
AcDbEntity
  8
VERMASSUNG
100
AcDbTrace
 10
121.1609377489
 20
154.5543627335
 30
0.0
 11
124.1609377489
 21
154.1043627335
 31
0.0
 12
124.1609377489
 22
155.0043627335
 32
0.0
 13
124.1609377489
 23
155.0043627335
 33
0.0
  0
LINE
  5
22A
330
225
100
AcDbEntity
  8
VERMASSUNG
100
AcDbLine
 10
251.0609377489
 20
132.9156854863
 30
0.0
 11
251.0609377489
 21
155.5543627335
 31
0.0
  0
LINE
  5
22B
330
225
100
AcDbEntity
  8
VERMASSUNG
100
AcDbLine
 10
121.1609377489
 20
127.8456854863
 30
0.0
 11
121.1609377489
 21
155.5543627335
 31
0.0
  0
LINE
  5
22C
330
225
100
AcDbEntity
  8
VERMASSUNG
100
AcDbLine
 10
251.0609377489
 20
154.5543627335
 30
0.0
 11
121.1609377489
 21
154.5543627335
 31
0.0
  0
MTEXT
  5
22D
330
225
100
AcDbEntity
  8
VERMASSUNG
100
AcDbMText
 10
182.3109376848
 20
157.1324980967
 30
0.1
 40
2.0
 41
0.0
 71
     1
 72
     1
  1
129.9
  7
SLDTEXTSTYLE0
 73
     1
 44
1.0
  0
ENDBLK
  5
227
330
225
100
AcDbEntity
  8
0
100
AcDbBlockEnd
  0
BLOCK
  5
230
330
22F
100
AcDbEntity
  8
0
100
AcDbBlockBegin
  2
_D_2
 70
     0
 10
0.0
 20
0.0
 30
0.0
  3
_D_2
  1

  0
SOLID
  5
232
330
22F
100
AcDbEntity
  8
VERMASSUNG
100
AcDbTrace
 10
267.2085796028
 20
132.9156854863
 30
0.0
 11
266.7585796028
 21
129.9156854863
 31
0.0
 12
267.6585796028
 22
129.9156854863
 32
0.0
 13
267.6585796028
 23
129.9156854863
 33
0.0
  0
SOLID
  5
233
330
22F
100
AcDbEntity
  8
VERMASSUNG
100
AcDbTrace
 10
267.2085796028
 20
115.9156854863
 30
0.0
 11
267.6585796028
 21
118.9156854863
 31
0.0
 12
266.7585796028
 22
118.9156854863
 32
0.0
 13
266.7585796028
 23
118.9156854863
 33
0.0
  0
LINE
  5
234
330
22F
100
AcDbEntity
  8
VERMASSUNG
100
AcDbLine
 10
251.0609377489
 20
132.9156854863
 30
0.0
 11
268.2085796028
 21
132.9156854863
 31
0.0
  0
LINE
  5
235
330
22F
100
AcDbEntity
  8
VERMASSUNG
100
AcDbLine
 10
251.0609377489
 20
115.9156854863
 30
0.0
 11
268.2085796028
 21
115.9156854863
 31
0.0
  0
LINE
  5
236
330
22F
100
AcDbEntity
  8
VERMASSUNG
100
AcDbLine
 10
267.2085796028
 20
132.9156854863
 30
0.0
 11
267.2085796028
 21
115.9156854863
 31
0.0
  0
MTEXT
  5
237
330
22F
100
AcDbEntity
  8
VERMASSUNG
100
AcDbMText
 10
264.6304442397
 20
122.3156853283
 30
0.1
 40
2.0
 41
0.0
 71
     1
 72
     1
  1
17
  7
SLDTEXTSTYLE0
 11
-7.044195017643634E-15
 21
1.0
 31
0.0
 73
     1
 44
1.0
  0
ENDBLK
  5
231
330
22F
100
AcDbEntity
  8
0
100
AcDbBlockEnd
  0
BLOCK
  5
23B
330
23A
100
AcDbEntity
  8
0
100
AcDbBlockBegin
  2
_D_3
 70
     0
 10
0.0
 20
0.0
 30
0.0
  3
_D_3
  1

  0
ARC
  5
23D
330
23A
100
AcDbEntity
  8
VERMASSUNG
100
AcDbCircle
 10
251.2064689145
 20
132.9156854863
 30
0.0
 40
9.217629428655728
100
AcDbArc
 50
252.4598841946
 51
0.0
  0
SOLID
  5
23E
330
23A
100
AcDbEntity
  8
VERMASSUNG
100
AcDbTrace
 10
248.4285199169
 20
124.126618889
 30
0.0
 11
251.3286492896
 21
123.2368157528
 31
0.0
 12
251.4620821689
 22
124.1268694965
 32
0.0
 13
251.4620821689
 23
124.1268694965
 33
0.0
  0
SOLID
  5
23F
330
23A
100
AcDbEntity
  8
VERMASSUNG
100
AcDbTrace
 10
260.4240983432
 20
132.9156854863
 30
0.0
 11
259.5096241946
 21
130.0232406671
 31
0.0
 12
260.3985090674
 22
129.8822311535
 32
0.0
 13
260.3985090674
 23
129.8822311535
 33
0.0
  0
LINE
  5
240
330
23A
100
AcDbEntity
  8
VERMASSUNG
100
AcDbLine
 10
258.9346527381
 20
132.9156854863
 30
0.0
 11
261.4240983432
 21
132.9156854863
 31
0.0
  0
MTEXT
  5
241
330
23A
100
AcDbEntity
  8
VERMASSUNG
100
AcDbMText
 10
251.5813242936
 20
124.9594071678
 30
0.1
 40
2.0
 41
0.0
 71
     1
 72
     1
  1
107.5°
  7
SLDTEXTSTYLE0
 11
0.8066515584256987
 21
0.5910272948768032
 31
0.0
 73
     1
 44
1.0
  0
ENDBLK
  5
23C
330
23A
100
AcDbEntity
  8
0
100
AcDbBlockEnd
  0
BLOCK
  5
244
330
243
100
AcDbEntity
  8
0
100
AcDbBlockBegin
  2
_D_4
 70
     0
 10
0.0
 20
0.0
 30
0.0
  3
_D_4
  1

  0
SOLID
  5
246
330
243
100
AcDbEntity
  8
VERMASSUNG
100
AcDbTrace
 10
175.0617915739
 20
128.4156854863
 30
0.0
 11
174.6117915739
 21
125.4156854863
 31
0.0
 12
175.5117915739
 22
125.4156854863
 32
0.0
 13
175.5117915739
 23
125.4156854863
 33
0.0
  0
SOLID
  5
247
330
243
100
AcDbEntity
  8
VERMASSUNG
100
AcDbTrace
 10
175.0617915739
 20
103.4156854863
 30
0.0
 11
175.5117915739
 21
106.4156854863
 31
0.0
 12
174.6117915739
 22
106.4156854863
 32
0.0
 13
174.6117915739
 23
106.4156854863
 33
0.0
  0
LINE
  5
248
330
243
100
AcDbEntity
  8
VERMASSUNG
100
AcDbLine
 10
164.0109377489
 20
128.4156854863
 30
0.0
 11
176.0617915739
 21
128.4156854863
 31
0.0
  0
LINE
  5
249
330
243
100
AcDbEntity
  8
VERMASSUNG
100
AcDbLine
 10
164.0109377489
 20
103.4156854863
 30
0.0
 11
176.0617915739
 21
103.4156854863
 31
0.0
  0
LINE
  5
24A
330
243
100
AcDbEntity
  8
VERMASSUNG
100
AcDbLine
 10
175.0617915739
 20
128.4156854863
 30
0.0
 11
175.0617915739
 21
103.4156854863
 31
0.0
  0
MTEXT
  5
24B
330
243
100
AcDbEntity
  8
VERMASSUNG
100
AcDbMText
 10
172.4836560943
 20
105.2048650079
 30
0.1
 40
2.0
 41
0.0
 71
     1
 72
     1
  1
%%c
  7
SLDTEXTSTYLE0
 11
-7.044195017643634E-15
 21
1.0
 31
0.0
 73
     1
 44
1.0
  0
MTEXT
  5
24C
330
243
100
AcDbEntity
  8
VERMASSUNG
100
AcDbMText
 10
172.2836560848
 20
108.8148650222
 30
0.1
 40
2.0
 41
0.0
 71
     1
 72
     1
  1
25
  7
SLDTEXTSTYLE0
 11
-7.044195017643634E-15
 21
1.0
 31
0.0
 73
     1
 44
1.0
  0
ENDBLK
  5
245
330
243
100
AcDbEntity
  8
0
100
AcDbBlockEnd
  0
BLOCK
  5
24F
330
24E
100
AcDbEntity
  8
0
100
AcDbBlockBegin
  2
_D_5
 70
     0
 10
0.0
 20
0.0
 30
0.0
  3
_D_5
  1

  0
SOLID
  5
251
330
24E
100
AcDbEntity
  8
VERMASSUNG
100
AcDbTrace
 10
114.88384555
 20
135.9156854863
 30
0.0
 11
114.43384555
 21
132.9156854863
 31
0.0
 12
115.33384555
 22
132.9156854863
 32
0.0
 13
115.33384555
 23
132.9156854863
 33
0.0
  0
SOLID
  5
252
330
24E
100
AcDbEntity
  8
VERMASSUNG
100
AcDbTrace
 10
114.88384555
 20
95.9156854863
 30
0.0
 11
115.33384555
 21
98.9156854863
 31
0.0
 12
114.43384555
 22
98.9156854863
 32
0.0
 13
114.43384555
 23
98.9156854863
 33
0.0
  0
LINE
  5
253
330
24E
100
AcDbEntity
  8
VERMASSUNG
100
AcDbLine
 10
141.3609377489
 20
135.9156854863
 30
0.0
 11
113.88384555
 21
135.9156854863
 31
0.0
  0
LINE
  5
254
330
24E
100
AcDbEntity
  8
VERMASSUNG
100
AcDbLine
 10
141.3609377489
 20
95.9156854863
 30
0.0
 11
113.88384555
 21
95.9156854863
 31
0.0
  0
LINE
  5
255
330
24E
100
AcDbEntity
  8
VERMASSUNG
100
AcDbLine
 10
114.88384555
 20
135.9156854863
 30
0.0
 11
114.88384555
 21
95.9156854863
 31
0.0
  0
MTEXT
  5
256
330
24E
100
AcDbEntity
  8
VERMASSUNG
100
AcDbMText
 10
112.105710061
 20
107.9106848354
 30
0.1
 40
2.0
 41
0.0
 71
     1
 72
     1
  1
HSK T
  7
SLDTEXTSTYLE0
 11
-7.044195017643634E-15
 21
1.0
 31
0.0
 73
     1
 44
1.0
  0
MTEXT
  5
257
330
24E
100
AcDbEntity
  8
VERMASSUNG
100
AcDbMText
 10
112.3057100705
 20
115.5106849635
 30
0.1
 40
2.0
 41
0.0
 71
     1
 72
     1
  1
%%c
  7
SLDTEXTSTYLE0
 11
-7.044195017643634E-15
 21
1.0
 31
0.0
 73
     1
 44
1.0
  0
MTEXT
  5
258
330
24E
100
AcDbEntity
  8
VERMASSUNG
100
AcDbMText
 10
112.105710061
 20
119.1206849778
 30
0.1
 40
2.0
 41
0.0
 71
     1
 72
     1
  1
40
  7
SLDTEXTSTYLE0
 11
-7.044195017643634E-15
 21
1.0
 31
0.0
 73
     1
 44
1.0
  0
ENDBLK
  5
250
330
24E
100
AcDbEntity
  8
0
100
AcDbBlockEnd
  0
BLOCK
  5
28E
330
28D
100
AcDbEntity
  8
0
100
AcDbBlockBegin
  2
_D_6
 70
     0
 10
0.0
 20
0.0
 30
0.0
  3
_D_6
  1

  0
SOLID
  5
290
330
28D
100
AcDbEntity
  8
VERMASSUNG
100
AcDbTrace
 10
76.7298362179
 20
105.432627292
 30
0.0
 11
78.53295851
 21
102.9931088969
 31
0.0
 12
79.169354613
 22
103.6295049999
 32
0.0
 13
79.169354613
 23
103.6295049999
 33
0.0
  0
SOLID
  5
291
330
28D
100
AcDbEntity
  8
VERMASSUNG
100
AcDbTrace
 10
54.10241922
 20
128.0600442899
 30
0.0
 11
52.2992969279
 21
130.499562685
 31
0.0
 12
51.6629008249
 22
129.863166582
 32
0.0
 13
51.6629008249
 23
129.863166582
 33
0.0
  0
LINE
  5
292
330
28D
100
AcDbEntity
  8
VERMASSUNG
100
AcDbLine
 10
76.7298362179
 20
105.432627292
 30
0.0
 11
76.0227294368
 21
104.7255205108
 31
0.0
  0
LINE
  5
293
330
28D
100
AcDbEntity
  8
VERMASSUNG
100
AcDbLine
 10
54.10241922
 20
128.0600442899
 30
0.0
 11
53.3953124388
 21
127.3529375088
 31
0.0
  0
LINE
  5
294
330
28D
100
AcDbEntity
  8
VERMASSUNG
100
AcDbLine
 10
76.7298362179
 20
105.432627292
 30
0.0
 11
80.9724769051
 21
101.1899866049
 31
0.0
  0
LINE
  5
295
330
28D
100
AcDbEntity
  8
VERMASSUNG
100
AcDbLine
 10
76.7298362179
 20
105.432627292
 30
0.0
 11
54.10241922
 21
128.0600442899
 31
0.0
  0
LINE
  5
296
330
28D
100
AcDbEntity
  8
VERMASSUNG
100
AcDbLine
 10
54.10241922
 20
128.0600442899
 30
0.0
 11
40.9730687913
 21
141.1893947186
 31
0.0
  0
MTEXT
  5
297
330
28D
100
AcDbEntity
  8
VERMASSUNG
100
AcDbMText
 10
42.7960858717
 20
143.0124117991
 30
0.1
 40
2.0
 41
0.0
 71
     1
 72
     1
  1
%%c
  7
SLDTEXTSTYLE0
 11
0.7071067811865466
 21
-0.7071067811865485
 31
0.0
 73
     1
 44
1.0
  0
MTEXT
  5
298
330
28D
100
AcDbEntity
  8
VERMASSUNG
100
AcDbMText
 10
45.4901627248
 20
140.6011776718
 30
0.1
 40
2.0
 41
0.0
 71
     1
 72
     1
  1
32
  7
SLDTEXTSTYLE0
 11
0.7071067811865466
 21
-0.7071067811865485
 31
0.0
 73
     1
 44
1.0
  0
MTEXT
  5
299
330
28D
100
AcDbEntity
  8
VERMASSUNG
100
AcDbMText
 10
49.5825436224
 20
136.5087967742
 30
0.1
 40
2.0
 41
0.0
 71
     1
 72
     1
  1
min.
  7
SLDTEXTSTYLE0
 11
0.7071067811865466
 21
-0.7071067811865485
 31
0.0
 73
     1
 44
1.0
  0
ENDBLK
  5
28F
330
28D
100
AcDbEntity
  8
0
100
AcDbBlockEnd
  0
BLOCK
  5
29D
330
29C
100
AcDbEntity
  8
0
100
AcDbBlockBegin
  2
_D_7
 70
     0
 10
0.0
 20
0.0
 30
0.0
  3
_D_7
  1

  0
ARC
  5
29F
330
29C
100
AcDbEntity
  8
VERMASSUNG
100
AcDbCircle
 10
65.416127719
 20
128.6150093784
 30
0.0
 40
40.37854752326392
100
AcDbArc
 50
266.0
 51
270.0
  0
ARC
  5
2A0
330
29C
100
AcDbEntity
  8
VERMASSUNG
100
AcDbCircle
 10
65.416127719
 20
128.6150093784
 30
0.0
 40
40.37854752326392
100
AcDbArc
 50
251.0528115447
 51
266.0
  0
ARC
  5
2A1
330
29C
100
AcDbEntity
  8
VERMASSUNG
100
AcDbCircle
 10
65.416127719
 20
128.6150093784
 30
0.0
 40
40.37854752326392
100
AcDbArc
 50
270.0
 51
278.4923290341
  0
SOLID
  5
2A2
330
29C
100
AcDbEntity
  8
VERMASSUNG
100
AcDbTrace
 10
62.5994626288
 20
88.3348219675
 30
0.0
 11
59.6645961542
 21
89.1023236133
 31
0.0
 12
59.568575125
 22
88.2074605166
 32
0.0
 13
59.568575125
 23
88.2074605166
 33
0.0
  0
SOLID
  5
2A3
330
29C
100
AcDbEntity
  8
VERMASSUNG
100
AcDbTrace
 10
65.416127719
 20
88.2364618552
 30
0.0
 11
68.4307478474
 21
87.8979866257
 31
0.0
 12
68.3973832147
 22
88.7973679694
 32
0.0
 13
68.3973832147
 23
88.7973679694
 33
0.0
  0
LINE
  5
2A4
330
29C
100
AcDbEntity
  8
VERMASSUNG
100
AcDbLine
 10
63.6276992999
 20
103.039291434
 30
0.0
 11
62.5297061551
 21
87.3372579172
 31
0.0
  0
LINE
  5
2A5
330
29C
100
AcDbEntity
  8
VERMASSUNG
100
AcDbLine
 10
65.416127719
 20
93.4156854863
 30
0.0
 11
65.416127719
 21
87.2364618552
 31
0.0
  0
MTEXT
  5
2A6
330
29C
100
AcDbEntity
  8
VERMASSUNG
100
AcDbMText
 10
52.9811879941
 20
92.8444427943
 30
-45.0238209269
 40
2.0
 41
0.0
 71
     1
 72
     1
  1
4°
  7
SLDTEXTSTYLE0
 11
0.9627526953543261
 21
-0.2703835194459533
 31
0.0
 73
     1
 44
1.0
  0
ENDBLK
  5
29E
330
29C
100
AcDbEntity
  8
0
100
AcDbBlockEnd
  0
BLOCK
  5
2A8
330
2A7
100
AcDbEntity
  8
0
100
AcDbBlockBegin
  2
SW_CENTERMARKSYMBOL_0
 70
     0
 10
0.0
 20
0.0
 30
0.0
  3
SW_CENTERMARKSYMBOL_0
  1

  0
LINE
  5
2AA
330
2A7
100
AcDbEntity
  8
VERMASSUNG
 62
     0
100
AcDbLine
 10
0.0
 20
0.0
 30
0.0
 11
0.0
 21
2.5
 31
0.0
  0
LINE
  5
2AB
330
2A7
100
AcDbEntity
  8
VERMASSUNG
 62
     0
100
AcDbLine
 10
0.0
 20
0.0
 30
0.0
 11
-2.5
 21
0.0
 31
0.0
  0
LINE
  5
2AC
330
2A7
100
AcDbEntity
  8
VERMASSUNG
 62
     0
100
AcDbLine
 10
0.0
 20
0.0
 30
0.0
 11
0.0
 21
-2.5
 31
0.0
  0
LINE
  5
2AD
330
2A7
100
AcDbEntity
  8
VERMASSUNG
 62
     0
100
AcDbLine
 10
0.0
 20
0.0
 30
0.0
 11
2.5
 21
0.0
 31
0.0
  0
LINE
  5
2AE
330
2A7
100
AcDbEntity
  8
VERMASSUNG
 62
     0
100
AcDbLine
 10
0.0
 20
5.0
 30
0.0
 11
0.0
 21
22.5
 31
0.0
  0
LINE
  5
2AF
330
2A7
100
AcDbEntity
  8
VERMASSUNG
 62
     0
100
AcDbLine
 10
-5.0
 20
0.0
 30
0.0
 11
-22.5
 21
0.0
 31
0.0
  0
LINE
  5
2B0
330
2A7
100
AcDbEntity
  8
VERMASSUNG
 62
     0
100
AcDbLine
 10
0.0
 20
-5.0
 30
0.0
 11
0.0
 21
-22.5
 31
0.0
  0
LINE
  5
2B1
330
2A7
100
AcDbEntity
  8
VERMASSUNG
 62
     0
100
AcDbLine
 10
5.0
 20
0.0
 30
0.0
 11
22.5
 21
0.0
 31
0.0
  0
ENDBLK
  5
2A9
330
2A7
100
AcDbEntity
  8
0
100
AcDbBlockEnd
  0
ENDSEC
  0
SECTION
  2
ENTITIES
  0
MTEXT
  5
49
330
1F
100
AcDbEntity
  8
KOPF_DÜNN
100
AcDbMText
 10
13.8892156294
 20
23.8442973028
 30
0.0
 40
3.0
 41
0.0
 71
     1
 72
     1
  1
HA4.BDB.RLA.110
  7
SLDTEXTSTYLE0
 73
     1
 44
1.0
  0
MTEXT
  5
4A
330
1F
100
AcDbEntity
  8
VERMASSUNG
100
AcDbMText
 10
13.9329988022
 20
28.8834360957
 30
0.0
 40
3.0
 41
0.0
 71
     1
 72
     1
  1
Bohrstange rechts_Boring bar right
  7
SLDTEXTSTYLE0
 73
     1
 44
1.0
  0
MTEXT
  5
4B
330
1F
100
AcDbEntity
  8
VERMASSUNG
100
AcDbMText
 10
98.8601118557
 20
13.8365368179
 30
0.0
 40
2.0
 41
0.0
 71
     1
 72
     1
  1
Datum: 12.06.2012
  7
SLDTEXTSTYLE0
 73
     1
 44
1.0
  0
MTEXT
  5
4D
330
1F
100
AcDbEntity
  8
VERMASSUNG
100
AcDbMText
 10
13.933048693
 20
18.0482802738
 30
0.0
 40
2.0
 41
0.0
 71
     1
 72
     1
  1
DIN 69893 HSK T 40  / DC.. 11 T3..
  7
SLDTEXTSTYLE1
 73
     1
 44
1.0
  0
MTEXT
  5
4E
330
1F
100
AcDbEntity
  8
VERMASSUNG
100
AcDbMText
 10
13.9808475933
 20
13.9090973692
 30
0.0
 40
2.0
 41
0.0
 71
     1
 72
     1
  1
Gewicht: 470g
  7
SLDTEXTSTYLE0
 73
     1
 44
1.0
  0
LINE
  5
4F
330
1F
100
AcDbEntity
  8
0
  6
Continuous
 62
     7
370
    15
100
AcDbLine
 10
242.6843433459
 20
125.6147227825
 30
0.0
 11
242.6843433459
 21
125.7067631634
 31
0.0
  0
LINE
  5
50
330
1F
100
AcDbEntity
  8
0
  6
Continuous
 62
     7
370
    15
100
AcDbLine
 10
245.0975821997
 20
125.8015259216
 30
0.0
 11
245.0975821997
 21
125.7094555002
 31
0.0
  0
LINE
  5
51
330
1F
100
AcDbEntity
  8
0
  6
Continuous
 62
     7
370
    15
100
AcDbLine
 10
241.2646565447
 20
125.7426594302
 30
0.0
 11
241.2646565447
 21
125.6921166889
 31
0.0
  0
LINE
  5
52
330
1F
100
AcDbEntity
  8
0
  6
Continuous
 62
     7
370
    15
100
AcDbLine
 10
246.5146565447
 20
125.6921166889
 30
0.0
 11
246.5146565447
 21
125.7426594302
 31
0.0
  0
ARC
  5
53
330
1F
100
AcDbEntity
  8
0
  6
Continuous
 62
     7
370
    15
100
AcDbCircle
 10
141.3609377489
 20
96.2156854863
 30
0.0
 40
0.3000000000000256
100
AcDbArc
 50
180.0
 51
270.0
  0
ARC
  5
54
330
1F
100
AcDbEntity
  8
0
  6
Continuous
 62
     7
370
    15
100
AcDbCircle
 10
141.3609377489
 20
135.6156854863
 30
0.0
 40
0.3000000000000114
100
AcDbArc
 50
90.0
 51
180.0
  0
LINE
  5
55
330
1F
100
AcDbEntity
  8
0
  6
Continuous
 62
     7
370
    15
100
AcDbLine
 10
141.3609377489
 20
95.9156854863
 30
0.0
 11
149.0109377489
 21
95.9156854863
 31
0.0
  0
LINE
  5
56
330
1F
100
AcDbEntity
  8
0
  6
Continuous
 62
     7
370
    15
100
AcDbLine
 10
149.0136678845
 20
135.9156854863
 30
0.0
 11
141.3609377489
 21
135.9156854863
 31
0.0
  0
ARC
  5
57
330
1F
100
AcDbEntity
  8
0
  6
Continuous
 62
     7
370
    15
100
AcDbCircle
 10
140.5609309962
 20
100.4619783328
 30
0.0
 40
0.6000067526677124
100
AcDbArc
 50
33.5571153394
 51
90.0
  0
ARC
  5
58
330
1F
100
AcDbEntity
  8
0
  6
Continuous
 62
     7
370
    15
100
AcDbCircle
 10
140.5609309962
 20
131.3693926397
 30
0.0
 40
0.6000067526677045
100
AcDbArc
 50
270.0
 51
326.4428846606
  0
ARC
  5
59
330
1F
100
AcDbEntity
  8
0
  6
Continuous
 62
     7
370
    15
100
AcDbCircle
 10
164.0109377489
 20
100.4156854863
 30
0.0
 40
3.0
100
AcDbArc
 50
90.0
 51
180.0
  0
ARC
  5
5A
330
1F
100
AcDbEntity
  8
0
  6
Continuous
 62
     7
370
    15
100
AcDbCircle
 10
164.0109377489
 20
131.4156854863
 30
0.0
 40
3.0
100
AcDbArc
 50
180.0
 51
270.0
  0
LINE
  5
5B
330
1F
100
AcDbEntity
  8
0
  6
Continuous
 62
     7
370
    15
100
AcDbLine
 10
132.2967210568
 20
130.6804972752
 30
0.0
 11
124.7609377489
 21
130.3029530213
 31
0.0
  0
LINE
  5
5C
330
1F
100
AcDbEntity
  8
0
  6
Continuous
 62
     7
370
    15
100
AcDbLine
 10
139.0609377489
 20
131.0193858871
 30
0.0
 11
137.773629502
 21
130.9548914859
 31
0.0
  0
LINE
  5
5D
330
1F
100
AcDbEntity
  8
0
  6
Continuous
 62
     7
370
    15
100
AcDbLine
 10
137.7737176471
 20
100.8764750705
 30
0.0
 11
139.0609377489
 21
100.8119850855
 31
0.0
  0
LINE
  5
5E
330
1F
100
AcDbEntity
  8
0
  6
Continuous
 62
     7
370
    15
100
AcDbLine
 10
127.2609377489
 20
101.4031674502
 30
0.0
 11
132.2980432715
 21
101.1508074541
 31
0.0
  0
LINE
  5
5F
330
1F
100
AcDbEntity
  8
0
  6
Continuous
 62
     7
370
    15
100
AcDbLine
 10
139.0609377489
 20
100.8119850855
 30
0.0
 11
139.9176496636
 21
101.0415403512
 31
0.0
  0
LINE
  5
60
330
1F
100
AcDbEntity
  8
0
  6
Continuous
 62
     7
370
    15
100
AcDbLine
 10
139.9176496636
 20
130.7898306214
 30
0.0
 11
139.0609377489
 21
131.0193858871
 31
0.0
  0
ARC
  5
61
330
1F
100
AcDbEntity
  8
0
  6
Continuous
 62
     7
370
    15
100
AcDbCircle
 10
140.0729428384
 20
100.4619783328
 30
0.0
 40
0.6000067526676959
100
AcDbArc
 50
90.0
 51
105.0
  0
ARC
  5
62
330
1F
100
AcDbEntity
  8
0
  6
Continuous
 62
     7
370
    15
100
AcDbCircle
 10
140.0729428384
 20
131.3693926397
 30
0.0
 40
0.6000067526676958
100
AcDbArc
 50
255.0
 51
270.0
  0
LINE
  5
63
330
1F
100
AcDbEntity
  8
0
  6
Continuous
 62
     7
370
    15
100
AcDbLine
 10
140.0729428384
 20
101.0619850855
 30
0.0
 11
140.5609309962
 21
101.0619850855
 31
0.0
  0
LINE
  5
64
330
1F
100
AcDbEntity
  8
0
  6
Continuous
 62
     7
370
    15
100
AcDbLine
 10
140.5609309962
 20
130.7693858871
 30
0.0
 11
140.0729428384
 21
130.7693858871
 31
0.0
  0
LINE
  5
65
330
1F
100
AcDbEntity
  8
0
  6
Continuous
 62
     7
370
    15
100
AcDbLine
 10
225.1226900201
 20
128.4156854863
 30
0.0
 11
164.0109377489
 21
128.4156854863
 31
0.0
  0
LINE
  5
66
330
1F
100
AcDbEntity
  8
0
  6
Continuous
 62
     7
370
    15
100
AcDbLine
 10
226.6467241865
 20
128.4156854863
 30
0.0
 11
225.1226900201
 21
128.4156854863
 31
0.0
  0
LINE
  5
67
330
1F
100
AcDbEntity
  8
0
  6
Continuous
 62
     7
370
    15
100
AcDbLine
 10
164.0109377489
 20
103.4156854863
 30
0.0
 11
226.6467241865
 21
103.4156854863
 31
0.0
  0
ARC
  5
68
330
1F
100
AcDbEntity
  8
0
  6
Continuous
 62
     7
370
    15
100
AcDbCircle
 10
123.8609377489
 20
129.6956854863
 30
0.0
 40
0.9000000000000057
100
AcDbArc
 50
270.0
 51
311.221922679
  0
ARC
  5
69
330
1F
100
AcDbEntity
  8
0
  6
Continuous
 62
     7
370
    15
100
AcDbCircle
 10
126.3609377489
 20
102.1356854863
 30
0.0
 40
0.9000000000000057
100
AcDbArc
 50
34.6391318474
 51
90.0
  0
LINE
  5
6A
330
1F
100
AcDbEntity
  8
0
  6
Continuous
 62
     7
370
    15
100
AcDbLine
 10
122.1109377489
 20
128.7956854863
 30
0.0
 11
121.1609377489
 21
127.8456854863
 31
0.0
  0
LINE
  5
6B
330
1F
100
AcDbEntity
  8
0
  6
Continuous
 62
     7
370
    15
100
AcDbLine
 10
123.8609377489
 20
128.7956854863
 30
0.0
 11
122.1109377489
 21
128.7956854863
 31
0.0
  0
LINE
  5
6C
330
1F
100
AcDbEntity
  8
0
  6
Continuous
 62
     7
370
    15
100
AcDbLine
 10
122.1699377489
 20
103.0356854863
 30
0.0
 11
126.3609377489
 21
103.0356854863
 31
0.0
  0
LINE
  5
6D
330
1F
100
AcDbEntity
  8
0
  6
Continuous
 62
     7
370
    15
100
AcDbLine
 10
121.1609377489
 20
104.0446854863
 30
0.0
 11
122.1699377489
 21
103.0356854863
 31
0.0
  0
ARC
  5
6E
330
1F
100
AcDbEntity
  8
0
  6
Continuous
 62
     7
370
    15
100
AcDbCircle
 10
226.6467241865
 20
102.4156854863
 30
0.0
 40
1.000000000000028
100
AcDbArc
 50
45.0
 51
90.0
  0
LINE
  5
6F
330
1F
100
AcDbEntity
  8
0
  6
Continuous
 62
     7
370
    15
100
AcDbLine
 10
227.3538309677
 20
103.1227922675
 30
0.0
 11
227.5609377489
 21
102.9156854863
 31
0.0
  0
LINE
  5
70
330
1F
100
AcDbEntity
  8
0
  6
Continuous
 62
     7
370
    15
100
AcDbLine
 10
227.5609377489
 20
102.9156854863
 30
0.0
 11
241.3300438148
 21
102.9156854863
 31
0.0
  0
CIRCLE
  5
71
330
1F
100
AcDbEntity
  8
0
  6
Continuous
 62
     7
370
    15
100
AcDbCircle
 10
243.8943633896
 20
125.7434178145
 30
0.0
 40
2.620271270452995
  0
CIRCLE
  5
72
330
1F
100
AcDbEntity
  8
0
  6
Continuous
 62
     7
370
    15
100
AcDbCircle
 10
243.8929288122
 20
125.7625034616
 30
0.0
 40
1.796709960702908
  0
ARC
  5
73
330
1F
100
AcDbEntity
  8
0
  6
Continuous
 62
     7
370
    15
100
AcDbCircle
 10
243.8902661886
 20
125.7567298331
 30
0.0
 40
1.676079770631709
100
AcDbArc
 50
32.959120055
 51
91.4835394416
  0
ARC
  5
74
330
1F
100
AcDbEntity
  8
0
  6
Continuous
 62
     7
370
    15
100
AcDbCircle
 10
243.8887566099
 20
125.7573155907
 30
0.0
 40
1.675455792775002
100
AcDbArc
 50
91.4324520835
 51
151.4771823871
  0
ARC
  5
75
330
1F
100
AcDbEntity
  8
0
  6
Continuous
 62
     7
370
    15
100
AcDbCircle
 10
243.8821184376
 20
125.7618665963
 30
0.0
 40
1.66745037647834
100
AcDbArc
 50
151.5056628127
 51
210.2394749073
  0
LINE
  5
76
330
1F
100
AcDbEntity
  8
0
  6
Continuous
 62
     7
370
    15
100
AcDbLine
 10
242.4861112689
 20
124.8499415636
 30
0.0
 11
242.4415613143
 21
124.9221131013
 31
0.0
  0
ARC
  5
77
330
1F
100
AcDbEntity
  8
0
  6
Continuous
 62
     7
370
    15
100
AcDbCircle
 10
243.8889652546
 20
125.7669220873
 30
0.0
 40
1.675963181501149
100
AcDbArc
 50
213.1707815134
 51
269.54466835
  0
LINE
  5
78
330
1F
100
AcDbEntity
  8
0
  6
Continuous
 62
     7
370
    15
100
AcDbLine
 10
243.9954098444
 20
124.0942870076
 30
0.0
 11
243.8756464542
 21
124.0910118286
 31
0.0
  0
ARC
  5
79
330
1F
100
AcDbEntity
  8
0
  6
Continuous
 62
     7
370
    15
100
AcDbCircle
 10
243.8905922833
 20
125.7664991763
 30
0.0
 40
1.675494034138101
100
AcDbArc
 50
273.5867200808
 51
329.3229143897
  0
LINE
  5
7A
330
1F
100
AcDbEntity
  8
0
  6
Continuous
 62
     7
370
    15
100
AcDbLine
 10
245.3888457435
 20
125.016660937
 30
0.0
 11
245.3316116254
 21
124.9116638039
 31
0.0
  0
ARC
  5
7B
330
1F
100
AcDbEntity
  8
0
  6
Continuous
 62
     7
370
    15
100
AcDbCircle
 10
243.8972298082
 20
125.7618851572
 30
0.0
 40
1.667416335767378
100
AcDbArc
 50
333.4528899026
 51
30.026004067
  0
LINE
  5
7C
330
1F
100
AcDbEntity
  8
0
  6
Continuous
 62
     7
370
    15
100
AcDbLine
 10
245.2965959189
 20
126.6685851324
 30
0.0
 11
245.340876181
 21
126.5962486194
 31
0.0
  0
SPLINE
  5
7D
330
1F
100
AcDbEntity
  8
0
  6
Continuous
 62
     7
370
    15
100
AcDbSpline
210
0.0
220
0.0
230
1.0
 70
     8
 71
     3
 72
    11
 73
     7
 74
     0
 42
0.00000001
 43
0.00000001
 12
1.0
 22
0.0
 32
0.0
 13
1.0
 23
0.0
 33
0.0
 40
0.0
 40
0.0
 40
0.0
 40
0.0
 40
0.2431090893442786
 40
0.5182793655622265
 40
0.7947794085751941
 40
1.0
 40
1.0
 40
1.0
 40
1.0
 10
242.4861112689299
 20
124.8499415636423
 30
0.0
 10
242.5090810748977
 20
124.8260171075663
 30
0.0
 10
242.5580499410809
 20
124.7750130420666
 30
0.0
 10
242.6588092420409
 20
124.730696527709
 30
0.0
 10
242.7622018885934
 20
124.7182838698383
 30
0.0
 10
242.8250533006652
 20
124.7333853072622
 30
0.0
 10
242.8518289939512
 20
124.7398187578931
 30
0.0
  0
SPLINE
  5
7E
330
1F
100
AcDbEntity
  8
0
  6
Continuous
 62
     7
370
    15
100
AcDbSpline
210
0.0
220
0.0
230
1.0
 70
     8
 71
     3
 72
    12
 73
     8
 74
     0
 42
0.00000001
 43
0.00000001
 12
1.0
 22
0.0
 32
0.0
 13
1.0
 23
0.0
 33
0.0
 40
0.0
 40
0.0
 40
0.0
 40
0.0
 40
0.2058179564998804
 40
0.4120215045907222
 40
0.6140779969167753
 40
0.8132130006453917
 40
1.0
 40
1.0
 40
1.0
 40
1.0
 10
242.8518289939512
 20
124.7398187578931
 30
0.0
 10
242.915779819527
 20
124.7535603165002
 30
0.0
 10
243.0438012799559
 20
124.781069177967
 30
0.0
 10
243.2412247887692
 20
124.7403144859593
 30
0.0
 10
243.4116937886203
 20
124.6432997949209
 30
0.0
 10
243.5408851155894
 20
124.5025128509755
 30
0.0
 10
243.582439212489
 20
124.3886275450834
 30
0.0
 10
243.6025514761297
 20
124.3335068357478
 30
0.0
  0
SPLINE
  5
7F
330
1F
100
AcDbEntity
  8
0
  6
Continuous
 62
     7
370
    15
100
AcDbSpline
210
0.0
220
0.0
230
1.0
 70
     8
 71
     3
 72
    11
 73
     7
 74
     0
 42
0.00000001
 43
0.00000001
 12
1.0
 22
0.0
 32
0.0
 13
1.0
 23
0.0
 33
0.0
 40
0.0
 40
0.0
 40
0.0
 40
0.0
 40
0.2908641666076741
 40
0.5839560789892112
 40
0.8745988053617938
 40
1.0
 40
1.0
 40
1.0
 40
1.0
 10
243.6025514761297
 20
124.3335068357478
 30
0.0
 10
243.615645733384
 20
124.2986364871774
 30
0.0
 10
243.6419345375797
 20
124.2286287159842
 30
0.0
 10
243.723562345066
 20
124.1474484213233
 30
0.0
 10
243.8066292141549
 20
124.104557997327
 30
0.0
 10
243.8596617419901
 20
124.0941491839481
 30
0.0
 10
243.8756464542028
 20
124.0910118285715
 30
0.0
  0
SPLINE
  5
80
330
1F
100
AcDbEntity
  8
0
  6
Continuous
 62
     7
370
    15
100
AcDbSpline
210
0.0
220
0.0
230
1.0
 70
     8
 71
     3
 72
    12
 73
     8
 74
     0
 42
0.00000001
 43
0.00000001
 12
1.0
 22
0.0
 32
0.0
 13
1.0
 23
0.0
 33
0.0
 40
0.0
 40
0.0
 40
0.0
 40
0.0
 40
0.2058401281338154
 40
0.4120619935510096
 40
0.614138733096953
 40
0.8132772113524583
 40
0.9999999999999999
 40
0.9999999999999999
 40
0.9999999999999999
 40
0.9999999999999999
 10
244.2545039950015
 20
124.3507378401735
 30
0.0
 10
244.2739614559506
 20
124.4125213620144
 30
0.0
 10
244.3129124623497
 20
124.5362029852683
 30
0.0
 10
244.4460742393641
 20
124.6858401973175
 30
0.0
 10
244.6156235859662
 20
124.7846383854444
 30
0.0
 10
244.8034444681088
 20
124.8264123766255
 30
0.0
 10
244.9241861560159
 20
124.8060086846099
 30
0.0
 10
244.9826144736674
 20
124.7961350989493
 30
0.0
  0
SPLINE
  5
81
330
1F
100
AcDbEntity
  8
0
  6
Continuous
 62
     7
370
    15
100
AcDbSpline
210
0.0
220
0.0
230
1.0
 70
     8
 71
     3
 72
    11
 73
     7
 74
     0
 42
0.00000001
 43
0.00000001
 12
1.0
 22
0.0
 32
0.0
 13
1.0
 23
0.0
 33
0.0
 40
0.0
 40
0.0
 40
0.0
 40
0.0
 40
0.2928993220619608
 40
0.5864344719079566
 40
0.8775178868032886
 40
1.0
 40
1.0
 40
1.0
 40
1.0
 10
244.9826144736674
 20
124.7961350989493
 30
0.0
 10
245.0199852606954
 20
124.7901964513996
 30
0.0
 10
245.094807959503
 20
124.778306264645
 30
0.0
 10
245.2070017067821
 20
124.8089246902788
 30
0.0
 10
245.2857083121168
 20
124.8593907245238
 30
0.0
 10
245.3211231270456
 20
124.8997198706836
 30
0.0
 10
245.3316116254244
 20
124.9116638038927
 30
0.0
  0
SPLINE
  5
82
330
1F
100
AcDbEntity
  8
0
  6
Continuous
 62
     7
370
    15
100
AcDbSpline
210
0.0
220
0.0
230
1.0
 70
     8
 71
     3
 72
    11
 73
     7
 74
     0
 42
0.00000001
 43
0.00000001
 12
1.0
 22
0.0
 32
0.0
 13
1.0
 23
0.0
 33
0.0
 40
0.0
 40
0.0
 40
0.0
 40
0.0
 40
0.2669010467950321
 40
0.5546143410792421
 40
0.8439070439786245
 40
0.9999999999999999
 40
0.9999999999999999
 40
0.9999999999999999
 40
0.9999999999999999
 10
243.9954098444326
 20
124.0942870075642
 30
0.0
 10
244.0287491339665
 20
124.1043978465571
 30
0.0
 10
244.0980274238757
 20
124.1254079413961
 30
0.0
 10
244.1831734713237
 20
124.1968447911268
 30
0.0
 10
244.2347829246104
 20
124.2770420854521
 30
0.0
 10
244.2493860737707
 20
124.3316126578063
 30
0.0
 10
244.2545039950015
 20
124.3507378401735
 30
0.0
  0
ARC
  5
83
330
1F
100
AcDbEntity
  8
0
  6
Continuous
 62
     7
370
    15
100
AcDbCircle
 10
245.0718218832
 20
125.0234687131
 30
0.0
 40
0.3338578139058607
100
AcDbArc
 50
8.034635856
 51
48.3635142048
  0
SPLINE
  5
84
330
1F
100
AcDbEntity
  8
0
  6
Continuous
 62
     7
370
    15
100
AcDbSpline
210
0.0
220
0.0
230
1.0
 70
     8
 71
     3
 72
    11
 73
     7
 74
     0
 42
0.00000001
 43
0.00000001
 12
1.0
 22
0.0
 32
0.0
 13
1.0
 23
0.0
 33
0.0
 40
0.0
 40
0.0
 40
0.0
 40
0.0
 40
0.2657596322624916
 40
0.5530029385954117
 40
0.8418208483438431
 40
1.0
 40
1.0
 40
1.0
 40
1.0
 10
245.3888457435013
 20
125.0166609370282
 30
0.0
 10
245.3967077979137
 20
125.0503650547784
 30
0.0
 10
245.4130674653184
 20
125.120497888723
 30
0.0
 10
245.3933211401173
 20
125.2293782660814
 30
0.0
 10
245.3488660920059
 20
125.3140412887108
 30
0.0
 10
245.3080731867687
 20
125.3538760311466
 30
0.0
 10
245.2936377738742
 20
125.3679723783243
 30
0.0
  0
LWPOLYLINE
  5
85
330
1F
100
AcDbEntity
  8
0
  6
Continuous
 62
     7
370
    15
100
AcDbPolyline
 90
        3
 70
   128
 43
0.0
 10
242.416028453
 20
125.0151755682
 10
242.4458219552
 20
125.1089389051
 10
242.5108997753
 20
125.1994677521
  0
SPLINE
  5
86
330
1F
100
AcDbEntity
  8
0
  6
Continuous
 62
     7
370
    15
100
AcDbSpline
210
0.0
220
0.0
230
1.0
 70
     8
 71
     3
 72
    11
 73
     7
 74
     0
 42
0.00000001
 43
0.00000001
 12
1.0
 22
0.0
 32
0.0
 13
1.0
 23
0.0
 33
0.0
 40
0.0
 40
0.0
 40
0.0
 40
0.0
 40
0.2794069064556042
 40
0.5596240257155641
 40
0.8375007392219683
 40
1.0
 40
1.0
 40
1.0
 40
1.0
 10
242.5108997752862
 20
125.294425012941
 30
0.0
 10
242.4867232400357
 20
125.2657252529133
 30
0.0
 10
242.4383000633993
 20
125.2082425104588
 30
0.0
 10
242.4080810132229
 20
125.0973771050684
 30
0.0
 10
242.412180669608
 20
124.9984433365356
 30
0.0
 10
242.4336420422046
 20
124.9426871870531
 30
0.0
 10
242.4415613143399
 20
124.9221131012632
 30
0.0
  0
SPLINE
  5
87
330
1F
100
AcDbEntity
  8
0
  6
Continuous
 62
     7
370
    15
100
AcDbSpline
210
0.0
220
0.0
230
1.0
 70
     8
 71
     3
 72
    12
 73
     8
 74
     0
 42
0.00000001
 43
0.00000001
 12
1.0
 22
0.0
 32
0.0
 13
1.0
 23
0.0
 33
0.0
 40
0.0
 40
0.0
 40
0.0
 40
0.0
 40
0.2057904614204227
 40
0.4120344203360211
 40
0.6141302471428004
 40
0.813263324211301
 40
0.9999999999999999
 40
0.9999999999999999
 40
0.9999999999999999
 40
0.9999999999999999
 10
245.2936377738742
 20
125.3679723783243
 30
0.0
 10
245.2491494932484
 20
125.4153186294787
 30
0.0
 10
245.1600748938095
 20
125.5101154680438
 30
0.0
 10
245.0957869226604
 20
125.6994104046182
 30
0.0
 10
245.0948515286567
 20
125.8953350934255
 30
0.0
 10
245.1534989377951
 20
126.0790736668064
 30
0.0
 10
245.2326982753641
 20
126.1738269388461
 30
0.0
 10
245.2710257703616
 20
126.2196815592453
 30
0.0
  0
SPLINE
  5
88
330
1F
100
AcDbEntity
  8
0
  6
Continuous
 62
     7
370
    15
100
AcDbSpline
210
0.0
220
0.0
230
1.0
 70
     8
 71
     3
 72
    11
 73
     7
 74
     0
 42
0.00000001
 43
0.00000001
 12
1.0
 22
0.0
 32
0.0
 13
1.0
 23
0.0
 33
0.0
 40
0.0
 40
0.0
 40
0.0
 40
0.0
 40
0.2802371411013292
 40
0.5612869875923915
 40
0.8399906057824439
 40
1.0
 40
1.0
 40
1.0
 40
1.0
 10
245.2710257703616
 20
126.2196815592453
 30
0.0
 10
245.2952003627755
 20
126.2491747362533
 30
0.0
 10
245.3436196554464
 20
126.3082466223432
 30
0.0
 10
245.3738447670842
 20
126.4208377345615
 30
0.0
 10
245.3697559412535
 20
126.5203148488036
 30
0.0
 10
245.3485943370245
 20
126.5759552138362
 30
0.0
 10
245.3408761810145
 20
126.5962486194364
 30
0.0
  0
SPLINE
  5
89
330
1F
100
AcDbEntity
  8
0
  6
Continuous
 62
     7
370
    15
100
AcDbSpline
210
0.0
220
0.0
230
1.0
 70
     8
 71
     3
 72
    12
 73
     8
 74
     0
 42
0.00000001
 43
0.00000001
 12
1.0
 22
0.0
 32
0.0
 13
1.0
 23
0.0
 33
0.0
 40
0.0
 40
0.0
 40
0.0
 40
0.0
 40
0.0091735205189869
 40
0.2576775215525
 40
0.5061895192299302
 40
0.7560357430219028
 40
0.9999999999999999
 40
0.9999999999999999
 40
0.9999999999999999
 40
0.9999999999999999
 10
242.4166558827239
 20
126.5573603160723
 30
0.0
 10
242.4160077553319
 20
126.5561544198695
 30
0.0
 10
242.3978023281251
 20
126.5222816723091
 30
0.0
 10
242.3736878578082
 20
126.4486754135308
 30
0.0
 10
242.3760615415185
 20
126.3354290444904
 30
0.0
 10
242.4134096046128
 20
126.2277160795995
 30
0.0
 10
242.4635273734019
 20
126.1731113326373
 30
0.0
 10
242.4882877717736
 20
126.1461341682414
 30
0.0
  0
SPLINE
  5
8A
330
1F
100
AcDbEntity
  8
0
  6
Continuous
 62
     7
370
    15
100
AcDbSpline
210
0.0
220
0.0
230
1.0
 70
     8
 71
     3
 72
    12
 73
     8
 74
     0
 42
0.00000001
 43
0.00000001
 12
1.0
 22
0.0
 32
0.0
 13
1.0
 23
0.0
 33
0.0
 40
0.0
 40
0.0
 40
0.0
 40
0.0
 40
0.2057532787804131
 40
0.4119604088044371
 40
0.6140154573248989
 40
0.8131414684041033
 40
0.9999999999999999
 40
0.9999999999999999
 40
0.9999999999999999
 40
0.9999999999999999
 10
242.4882877717736
 20
126.1461341682414
 30
0.0
 10
242.5327704262288
 20
126.0974335183447
 30
0.0
 10
242.6218338551214
 20
125.9999247945011
 30
0.0
 10
242.6861257856938
 20
125.8084705278837
 30
0.0
 10
242.6870839115879
 20
125.6127356075384
 30
0.0
 10
242.6284639682663
 20
125.4312863519077
 30
0.0
 10
242.5492486241337
 20
125.3390684938177
 30
0.0
 10
242.5108997752862
 20
125.294425012941
 30
0.0
  0
ARC
  5
8B
330
1F
100
AcDbEntity
  8
0
  6
Continuous
 62
     7
370
    15
100
AcDbCircle
 10
242.1002350914
 20
125.6148434675
 30
0.0
 40
0.58410826701059
100
AcDbArc
 50
314.6732371703
 51
359.9881618794
  0
ARC
  5
8C
330
1F
100
AcDbEntity
  8
0
  6
Continuous
 62
     7
370
    15
100
AcDbCircle
 10
245.681756593
 20
125.7095902852
 30
0.0
 40
0.58417440887499
100
AcDbArc
 50
180.013219703
 51
228.3645622673
  0
ARC
  5
8D
330
1F
100
AcDbEntity
  8
0
  6
Continuous
 62
     7
370
    15
100
AcDbCircle
 10
245.0352968366
 20
126.3613825762
 30
0.0
 40
0.3349000092252016
100
AcDbArc
 50
6.5488627081
 51
108.3079664002
  0
SPLINE
  5
8E
330
1F
100
AcDbEntity
  8
0
  6
Continuous
 62
     7
370
    15
100
AcDbSpline
210
0.0
220
0.0
230
1.0
 70
     8
 71
     3
 72
    11
 73
     7
 74
     0
 42
0.00000001
 43
0.00000001
 12
1.0
 22
0.0
 32
0.0
 13
1.0
 23
0.0
 33
0.0
 40
0.0
 40
0.0
 40
0.0
 40
0.0
 40
0.2423611237745252
 40
0.5166847928458064
 40
0.7923341374633225
 40
0.9999999999999999
 40
0.9999999999999999
 40
0.9999999999999999
 40
0.9999999999999999
 10
245.2965959189406
 20
126.6685851324435
 30
0.0
 10
245.2737151940553
 20
126.6924567103525
 30
0.0
 10
245.2249362380356
 20
126.7433480459542
 30
0.0
 10
245.124342793041
 20
126.7867698711639
 30
0.0
 10
245.0205650497377
 20
126.7979128893399
 30
0.0
 10
244.9572857461654
 20
126.781388040048
 30
0.0
 10
244.9300965516966
 20
126.7742878142933
 30
0.0
  0
ARC
  5
8F
330
1F
100
AcDbEntity
  8
0
  6
Continuous
 62
     7
370
    15
100
AcDbCircle
 10
242.7110468128
 20
126.3000412535
 30
0.0
 40
0.3348382151423311
100
AcDbArc
 50
74.7160581937
 51
174.4606855982
  0
SPLINE
  5
90
330
1F
100
AcDbEntity
  8
0
  6
Continuous
 62
     7
370
    15
100
AcDbSpline
210
0.0
220
0.0
230
1.0
 70
     8
 71
     3
 72
    11
 73
     7
 74
     0
 42
0.00000001
 43
0.00000001
 12
1.0
 22
0.0
 32
0.0
 13
1.0
 23
0.0
 33
0.0
 40
0.0
 40
0.0
 40
0.0
 40
0.0
 40
0.2535086227484178
 40
0.5075674742604811
 40
0.7595056251924568
 40
1.0
 40
1.0
 40
1.0
 40
1.0
 10
242.7993110719804
 20
126.7179714276725
 30
0.0
 10
242.7619256189511
 20
126.7247121428378
 30
0.0
 10
242.6870735694925
 20
126.7382082035796
 30
0.0
 10
242.5750788857899
 20
126.7092398545539
 30
0.0
 10
242.4783251676126
 20
126.6490867097878
 30
0.0
 10
242.4368913470016
 20
126.5874583813684
 30
0.0
 10
242.4166558827239
 20
126.5573603160723
 30
0.0
  0
SPLINE
  5
91
330
1F
100
AcDbEntity
  8
0
  6
Continuous
 62
     7
370
    15
100
AcDbSpline
210
0.0
220
0.0
230
1.0
 70
     8
 71
     3
 72
    12
 73
     8
 74
     0
 42
0.00000001
 43
0.00000001
 12
1.0
 22
0.0
 32
0.0
 13
1.0
 23
0.0
 33
0.0
 40
0.0
 40
0.0
 40
0.0
 40
0.0
 40
0.2058585741214041
 40
0.4121026961457109
 40
0.614193784196728
 40
0.8133180967416298
 40
0.9999999999999999
 40
0.9999999999999999
 40
0.9999999999999999
 40
0.9999999999999999
 10
244.9300965516966
 20
126.7742878142933
 30
0.0
 10
244.8661357156402
 20
126.7591827179423
 30
0.0
 10
244.7380942527133
 20
126.7289442352443
 30
0.0
 10
244.5406447676317
 20
126.7675288783291
 30
0.0
 10
244.3701667227542
 20
126.864738654483
 30
0.0
 10
244.24101079496
 20
127.0078473763612
 30
0.0
 10
244.1994731088396
 20
127.1242671276342
 30
0.0
 10
244.1793740695181
 20
127.1805997108179
 30
0.0
  0
SPLINE
  5
92
330
1F
100
AcDbEntity
  8
0
  6
Continuous
 62
     7
370
    15
100
AcDbSpline
210
0.0
220
0.0
230
1.0
 70
     8
 71
     3
 72
    11
 73
     7
 74
     0
 42
0.00000001
 43
0.00000001
 12
1.0
 22
0.0
 32
0.0
 13
1.0
 23
0.0
 33
0.0
 40
0.0
 40
0.0
 40
0.0
 40
0.0
 40
0.2524782265335606
 40
0.5068902417933381
 40
0.759178611311716
 40
1.0
 40
1.0
 40
1.0
 40
1.0
 10
244.1793740695181
 20
127.1805997108179
 30
0.0
 10
244.1662785069133
 20
127.2162747617768
 30
0.0
 10
244.1399870797819
 20
127.2878981071037
 30
0.0
 10
244.0583968522789
 20
127.3706006819717
 30
0.0
 10
243.9574106495661
 20
127.4245779326563
 30
0.0
 10
243.8831431301147
 20
127.4297311147487
 30
0.0
 10
243.8468728943892
 20
127.4322477886677
 30
0.0
  0
SPLINE
  5
93
330
1F
100
AcDbEntity
  8
0
  6
Continuous
 62
     7
370
    15
100
AcDbSpline
210
0.0
220
0.0
230
1.0
 70
     8
 71
     3
 72
    12
 73
     8
 74
     0
 42
0.00000001
 43
0.00000001
 12
1.0
 22
0.0
 32
0.0
 13
1.0
 23
0.0
 33
0.0
 40
0.0
 40
0.0
 40
0.0
 40
0.0
 40
0.0091681771491521
 40
0.2573268097002651
 40
0.5054934687429378
 40
0.7549925359452873
 40
0.9999999999999999
 40
0.9999999999999999
 40
0.9999999999999999
 40
0.9999999999999999
 10
243.8468728943892
 20
127.4322477886677
 30
0.0
 10
243.8455008051011
 20
127.4322072539134
 30
0.0
 10
243.8069898390305
 20
127.4310695491303
 30
0.0
 10
243.7311187533419
 20
127.4151715513872
 30
0.0
 10
243.6343707267167
 20
127.356397151395
 30
0.0
 10
243.5599804754776
 20
127.2698188689279
 30
0.0
 10
243.5382086076268
 20
127.1986365643016
 30
0.0
 10
243.5274215506463
 20
127.1633686864483
 30
0.0
  0
SPLINE
  5
94
330
1F
100
AcDbEntity
  8
0
  6
Continuous
 62
     7
370
    15
100
AcDbSpline
210
0.0
220
0.0
230
1.0
 70
     8
 71
     3
 72
    12
 73
     8
 74
     0
 42
0.00000001
 43
0.00000001
 12
1.0
 22
0.0
 32
0.0
 13
1.0
 23
0.0
 33
0.0
 40
0.0
 40
0.0
 40
0.0
 40
0.0
 40
0.2058435564095173
 40
0.4120691620553205
 40
0.6141397217727115
 40
0.8132604579561349
 40
1.0
 40
1.0
 40
1.0
 40
1.0
 10
243.5274215506463
 20
127.1633686864483
 30
0.0
 10
243.5079638393639
 20
127.1002221736267
 30
0.0
 10
243.469012302947
 20
126.9738119469527
 30
0.0
 10
243.3358492239547
 20
126.8219844335022
 30
0.0
 10
243.1663027694526
 20
126.7233516478167
 30
0.0
 10
242.9784854274345
 20
126.6838902617418
 30
0.0
 10
242.8577444418471
 20
126.7068566820982
 30
0.0
 10
242.7993110719804
 20
126.7179714276725
 30
0.0
  0
ARC
  5
95
330
1F
100
AcDbEntity
  8
0
  6
Continuous
 62
     7
370
    15
100
AcDbCircle
 10
242.9535986433
 20
127.188651746
 30
0.0
 40
0.5862806905879684
100
AcDbArc
 50
254.7421546755
 51
348.1674797951
  0
ARC
  5
96
330
1F
100
AcDbEntity
  8
0
  6
Continuous
 62
     7
370
    15
100
AcDbCircle
 10
244.7461613484
 20
127.2361691755
 30
0.0
 40
0.5864310787172669
100
AcDbArc
 50
194.8717374618
 51
288.2794474723
  0
ARC
  5
97
330
1F
100
AcDbEntity
  8
0
  6
Continuous
 62
     7
370
    15
100
AcDbCircle
 10
243.8896565447
 20
125.6966546352
 30
0.0
 40
2.625003922464995
100
AcDbArc
 50
180.0990494898
 51
359.9009505102
  0
ARC
  5
98
330
1F
100
AcDbEntity
  8
0
  6
Continuous
 62
     7
370
    15
100
AcDbCircle
 10
243.855443125
 20
126.9996285656
 30
0.0
 40
0.3351601613412426
100
AcDbArc
 50
14.8732623077
 51
168.1534626332
  0
LINE
  5
99
330
1F
100
AcDbEntity
  8
0
  6
Continuous
 62
     7
370
    15
100
AcDbLine
 10
247.45804261
 20
122.367815275
 30
0.0
 11
247.5723108137
 21
122.0215897417
 31
0.0
  0
LINE
  5
9A
330
1F
100
AcDbEntity
  8
0
  6
Continuous
 62
     7
370
    15
100
AcDbLine
 10
237.4140252387
 20
118.8264966941
 30
0.0
 11
247.5723108137
 21
122.0215897417
 31
0.0
  0
LINE
  5
9B
330
1F
100
AcDbEntity
  8
0
  6
Continuous
 62
     7
370
    15
100
AcDbLine
 10
237.2997570349
 20
119.1727222277
 30
0.0
 11
237.4140252387
 21
118.8264966941
 31
0.0
  0
LINE
  5
9C
330
1F
100
AcDbEntity
  8
0
  6
Continuous
 62
     7
370
    15
100
AcDbLine
 10
238.7192441665
 20
120.5514200163
 30
0.0
 11
237.2997570349
 21
119.1727222277
 31
0.0
  0
LINE
  5
9D
330
1F
100
AcDbEntity
  8
0
  6
Continuous
 62
     7
370
    15
100
AcDbLine
 10
247.2822820334
 20
122.5342681919
 30
0.0
 11
247.45804261
 21
122.367815275
 31
0.0
  0
SPLINE
  5
9E
330
1F
100
AcDbEntity
  8
0
  6
Continuous
 62
     7
370
    15
100
AcDbSpline
210
0.0
220
0.0
230
1.0
 70
     8
 71
     3
 72
    10
 73
     6
 74
     0
 42
0.00000001
 43
0.00000001
 12
1.0
 22
0.0
 32
0.0
 13
1.0
 23
0.0
 33
0.0
 40
0.0
 40
0.0
 40
0.0
 40
0.0
 40
0.3518022785810345
 40
0.7034245935032388
 40
1.0
 40
1.0
 40
1.0
 40
1.0
 10
247.579809902471
 20
122.0030289360755
 30
0.0
 10
247.6209839600133
 20
122.0206555322343
 30
0.0
 10
247.7033110126019
 20
122.0558997077066
 30
0.0
 10
247.7933747023457
 20
122.1509917289805
 30
0.0
 10
247.8247196569866
 20
122.2269121677993
 30
0.0
 10
247.8390611801933
 20
122.2616486907152
 30
0.0
  0
LINE
  5
9F
330
1F
100
AcDbEntity
  8
0
  6
Continuous
 62
     7
370
    15
100
AcDbLine
 10
237.4117504343
 20
118.804861699
 30
0.0
 11
247.5798099025
 21
122.0030289361
 31
0.0
  0
SPLINE
  5
A0
330
1F
100
AcDbEntity
  8
0
  6
Continuous
 62
     7
370
    15
100
AcDbSpline
210
0.0
220
0.0
230
1.0
 70
     8
 71
     3
 72
    14
 73
    10
 74
     0
 42
0.00000001
 43
0.00000001
 12
1.0
 22
0.0
 32
0.0
 13
1.0
 23
0.0
 33
0.0
 40
0.0
 40
0.0
 40
0.0
 40
0.0
 40
0.1588501103508094
 40
0.3173321153184973
 40
0.472015355366081
 40
0.62364416359158
 40
0.7746618341644299
 40
0.9277417761107942
 40
1.0
 40
1.0
 40
1.0
 40
1.0
 10
236.9156567680691
 20
119.2997469060001
 30
0.0
 10
236.9061255241879
 20
119.2547603288004
 30
0.0
 10
236.8870851232984
 20
119.1648914223694
 30
0.0
 10
236.9175824415865
 20
119.0288826251995
 30
0.0
 10
236.9881445479523
 20
118.9132307077574
 30
0.0
 10
237.0927439072005
 20
118.8292730392584
 30
0.0
 10
237.2182621043342
 20
118.7851756643915
 30
0.0
 10
237.3289664926381
 20
118.7829324570512
 30
0.0
 10
237.3916499868883
 20
118.7995371448819
 30
0.0
 10
237.411750434342
 20
118.8048616989646
 30
0.0
  0
LINE
  5
A1
330
1F
100
AcDbEntity
  8
0
  6
Continuous
 62
     7
370
    15
100
AcDbLine
 10
240.1216336036
 20
129.4430374923
 30
0.0
 11
236.9156567681
 21
119.299746906
 31
0.0
  0
SPLINE
  5
A2
330
1F
100
AcDbEntity
  8
0
  6
Continuous
 62
     7
370
    15
100
AcDbSpline
210
0.0
220
0.0
230
1.0
 70
     8
 71
     3
 72
    13
 73
     9
 74
     0
 42
0.00000001
 43
0.00000001
 12
1.0
 22
0.0
 32
0.0
 13
1.0
 23
0.0
 33
0.0
 40
0.0
 40
0.0
 40
0.0
 40
0.0
 40
0.173438575104533
 40
0.3519090391369283
 40
0.5252484949918459
 40
0.7036433105306726
 40
0.8503205800979557
 40
1.0
 40
1.0
 40
1.0
 40
1.0
 10
240.380884881342
 20
129.7016572469492
 30
0.0
 10
240.3601877394638
 20
129.6940397920019
 30
0.0
 10
240.3181929796081
 20
129.6785838805961
 30
0.0
 10
240.2615413557735
 20
129.6426332208458
 30
0.0
 10
240.2109182815817
 20
129.5980269313621
 30
0.0
 10
240.1713372323998
 20
129.5484367198379
 30
0.0
 10
240.1409049215686
 20
129.4962363913419
 30
0.0
 10
240.1281006129733
 20
129.4608898145303
 30
0.0
 10
240.1216336036197
 20
129.4430374923095
 30
0.0
  0
LINE
  5
A3
330
1F
100
AcDbEntity
  8
0
  6
Continuous
 62
     7
370
    15
100
AcDbLine
 10
250.5489443495
 20
132.8998244841
 30
0.0
 11
240.3808848813
 21
129.7016572469
 31
0.0
  0
SPLINE
  5
A4
330
1F
100
AcDbEntity
  8
0
  6
Continuous
 62
     7
370
    15
100
AcDbSpline
210
0.0
220
0.0
230
1.0
 70
     8
 71
     3
 72
    20
 73
    16
 74
     0
 42
0.00000001
 43
0.00000001
 12
1.0
 22
0.0
 32
0.0
 13
1.0
 23
0.0
 33
0.0
 40
0.0
 40
0.0
 40
0.0
 40
0.0
 40
0.0783075311860437
 40
0.1588910126856407
 40
0.2369785693217663
 40
0.3174398160757271
 40
0.393661582474484
 40
0.4721830276909713
 40
0.5469240757152745
 40
0.6238523130449423
 40
0.6983189620749494
 40
0.7748908420225391
 40
0.8503894607879664
 40
0.9279814901989101
 40
0.9999999999999999
 40
0.9999999999999999
 40
0.9999999999999999
 40
0.9999999999999999
 10
251.0450380157439
 20
132.4049392770247
 30
0.0
 10
251.050804639429
 20
132.4267714185989
 30
0.0
 10
251.0625054894393
 20
132.4710702367495
 30
0.0
 10
251.0655782004658
 20
132.5396798125558
 30
0.0
 10
251.0576491563068
 20
132.6082682508026
 30
0.0
 10
251.038136897236
 20
132.6733385633503
 30
0.0
 10
251.0077075585766
 20
132.7341513052944
 30
0.0
 10
250.9682231751741
 20
132.7875599398455
 30
0.0
 10
250.9200721174295
 20
132.8335771999967
 30
0.0
 10
250.8657780344268
 20
132.870193748029
 30
0.0
 10
250.805654973607
 20
132.8974114233656
 30
0.0
 10
250.7422083601068
 20
132.9142677959381
 30
0.0
 10
250.6760320698648
 20
132.9203574277066
 30
0.0
 10
250.6108014140484
 20
132.9163289659159
 30
0.0
 10
250.5690448445611
 20
132.9051876266337
 30
0.0
 10
250.548944349471
 20
132.8998244840602
 30
0.0
  0
LINE
  5
A5
330
1F
100
AcDbEntity
  8
0
  6
Continuous
 62
     7
370
    15
100
AcDbLine
 10
247.8390611802
 20
122.2616486907
 30
0.0
 11
251.0450380157
 21
132.404939277
 31
0.0
  0
ARC
  5
A6
330
1F
100
AcDbEntity
  8
0
  6
Continuous
 62
     7
370
    15
100
AcDbCircle
 10
237.2994551696
 20
119.1883289193
 30
0.0
 40
0.379537692426571
100
AcDbArc
 50
162.5699396795
 51
287.56980009
  0
ARC
  5
A7
330
1F
100
AcDbEntity
  8
0
  6
Continuous
 62
     7
370
    15
100
AcDbCircle
 10
247.458622487
 20
122.3837006595
 30
0.0
 40
0.3795383411494097
100
AcDbArc
 50
287.4301999786
 51
342.430060169
  0
LINE
  5
A8
330
1F
100
AcDbEntity
  8
0
  6
Continuous
 62
     7
370
    15
100
AcDbLine
 10
247.8204550513
 20
122.269129512
 30
0.0
 11
251.0233501902
 21
132.4026700139
 31
0.0
  0
ARC
  5
A9
330
1F
100
AcDbEntity
  8
0
  6
Continuous
 62
     7
370
    15
100
AcDbCircle
 10
250.6612396142
 20
132.5163572637
 30
0.0
 40
0.3795376924266203
100
AcDbArc
 50
342.5699396795
 51
107.56980009
  0
LINE
  5
AA
330
1F
100
AcDbEntity
  8
0
  6
Continuous
 62
     7
370
    15
100
AcDbLine
 10
250.5466695451
 20
132.878189489
 30
0.0
 11
240.38838397
 21
129.6830964416
 31
0.0
  0
ARC
  5
AB
330
1F
100
AcDbEntity
  8
0
  6
Continuous
 62
     7
370
    15
100
AcDbCircle
 10
240.5020722959
 20
129.3209855249
 30
0.0
 40
0.3795383398849869
100
AcDbArc
 50
107.4301999099
 51
162.4300603206
  0
LINE
  5
AC
330
1F
100
AcDbEntity
  8
0
  6
Continuous
 62
     7
370
    15
100
AcDbLine
 10
240.1402397325
 20
129.435556671
 30
0.0
 11
236.9373445936
 21
119.3020161691
 31
0.0
  0
LINE
  5
AD
330
1F
100
AcDbEntity
  8
0
  6
Continuous
 62
     7
370
    15
100
AcDbLine
 10
237.2997570349
 20
119.1727222277
 30
0.0
 11
236.9373445936
 21
119.3020161691
 31
0.0
  0
LINE
  5
AE
330
1F
100
AcDbEntity
  8
0
  6
Continuous
 62
     7
370
    15
100
AcDbLine
 10
240.5026521738
 20
129.3062627297
 30
0.0
 11
240.1402397325
 21
129.435556671
 31
0.0
  0
LINE
  5
AF
330
1F
100
AcDbEntity
  8
0
  6
Continuous
 62
     7
370
    15
100
AcDbLine
 10
240.6784127504
 20
129.1220507813
 30
0.0
 11
240.5026521738
 21
129.3062627297
 31
0.0
  0
SPLINE
  5
B0
330
1F
100
AcDbEntity
  8
0
  6
Continuous
 62
     7
370
    15
100
AcDbSpline
210
0.0
220
0.0
230
1.0
 70
     8
 71
     3
 72
    11
 73
     7
 74
     0
 42
0.00000001
 43
0.00000001
 12
1.0
 22
0.0
 32
0.0
 13
1.0
 23
0.0
 33
0.0
 40
0.0
 40
0.0
 40
0.0
 40
0.0
 40
0.0072987238691225
 40
0.1268462096079032
 40
0.5874298328382924
 40
1.0
 40
1.0
 40
1.0
 40
1.0
 10
239.2054148255526
 20
121.0442250520121
 30
0.0
 10
239.2043541565027
 20
121.04310676486
 30
0.0
 10
239.1859205438554
 20
121.0236717938933
 30
0.0
 10
239.0986175758926
 20
120.9321265160825
 30
0.0
 10
238.9348247482956
 20
120.7634609485171
 30
0.0
 10
238.7884208479759
 20
120.6194608755741
 30
0.0
 10
238.7192441665107
 20
120.551420016313
 30
0.0
  0
LINE
  5
B1
330
1F
100
AcDbEntity
  8
0
  6
Continuous
 62
     7
370
    15
100
AcDbLine
 10
241.0000985003
 20
121.627986897
 30
0.0
 11
245.9890100979
 21
123.197152938
 31
0.0
  0
LINE
  5
B2
330
1F
100
AcDbEntity
  8
0
  6
Continuous
 62
     7
370
    15
100
AcDbLine
 10
246.9605962835
 20
130.0766992861
 30
0.0
 11
241.9716846859
 21
128.5075332451
 31
0.0
  0
ARC
  5
B3
330
1F
100
AcDbEntity
  8
0
  6
Continuous
 62
     7
370
    15
100
AcDbCircle
 10
247.2620964654
 20
129.1245092196
 30
0.0
 40
0.9987834011226239
100
AcDbArc
 50
342.5699396795
 51
107.56980009
  0
LINE
  5
B4
330
1F
100
AcDbEntity
  8
0
  6
Continuous
 62
     7
370
    15
100
AcDbLine
 10
246.6420212492
 20
123.8485733869
 30
0.0
 11
248.2150190337
 21
128.8253322466
 31
0.0
  0
ARC
  5
B5
330
1F
100
AcDbEntity
  8
0
  6
Continuous
 62
     7
370
    15
100
AcDbCircle
 10
245.6898302929
 20
124.150076403
 30
0.0
 40
0.9987851049599484
100
AcDbArc
 50
287.4301999098
 51
342.4300603206
  0
ARC
  5
B6
330
1F
100
AcDbEntity
  8
0
  6
Continuous
 62
     7
370
    15
100
AcDbCircle
 10
240.698598318
 20
122.5801769633
 30
0.0
 40
0.9987834011074176
100
AcDbArc
 50
162.5699396668
 51
287.5698001121
  0
LINE
  5
B7
330
1F
100
AcDbEntity
  8
0
  6
Continuous
 62
     7
370
    15
100
AcDbLine
 10
241.3186735346
 20
127.8561127962
 30
0.0
 11
239.7456757498
 21
122.8793539365
 31
0.0
  0
ARC
  5
B8
330
1F
100
AcDbEntity
  8
0
  6
Continuous
 62
     7
370
    15
100
AcDbCircle
 10
242.2708644909
 20
127.55460978
 30
0.0
 40
0.9987851049603098
100
AcDbArc
 50
107.4301999098
 51
162.4300603206
  0
CIRCLE
  5
B9
330
1F
100
AcDbEntity
  8
0
  6
Continuous
 62
     7
370
    15
100
AcDbCircle
 10
243.9752635397
 20
125.8486344002
 30
0.0
 40
3.04559626497425
  0
SPLINE
  5
BA
330
1F
100
AcDbEntity
  8
0
  6
Continuous
 62
     7
370
    15
100
AcDbSpline
210
0.0
220
0.0
230
1.0
 70
     8
 71
     3
 72
    11
 73
     7
 74
     0
 42
0.00000001
 43
0.00000001
 12
1.0
 22
0.0
 32
0.0
 13
1.0
 23
0.0
 33
0.0
 40
0.0
 40
0.0
 40
0.0
 40
0.0
 40
0.3277695037502206
 40
0.6551509568909822
 40
0.9907861901609698
 40
1.0
 40
1.0
 40
1.0
 40
1.0
 10
247.2822820334162
 20
122.5342681919252
 30
0.0
 10
247.2297226331575
 20
122.5846737822513
 30
0.0
 10
247.1246660584027
 20
122.6854252870646
 30
0.0
 10
246.9514374388036
 20
122.8591086666191
 30
0.0
 10
246.8421803005307
 20
122.9720546655531
 30
0.0
 10
246.7911830908414
 20
123.0258133908218
 30
0.0
 10
246.789820527709
 20
123.0272497371934
 30
0.0
  0
LINE
  5
BB
330
1F
100
AcDbEntity
  8
0
  6
Continuous
 62
     7
370
    15
100
AcDbLine
 10
247.45804261
 20
122.367815275
 30
0.0
 11
247.8204550513
 21
122.269129512
 31
0.0
  0
LWPOLYLINE
  5
BC
330
1F
100
AcDbEntity
  8
0
  6
Continuous
 62
     7
370
    15
100
AcDbPolyline
 90
        3
 70
   128
 43
0.0
 10
241.0715106921
 20
126.6976078404
 10
240.9423569605
 20
126.0524268805
 10
240.9303473919
 20
125.7826892897
  0
ARC
  5
BD
330
1F
100
AcDbEntity
  8
0
  6
Continuous
 62
     7
370
    15
100
AcDbCircle
 10
243.9797251421
 20
125.7763997301
 30
0.0
 40
3.050628733480721
100
AcDbArc
 50
0.1181282646
 51
162.4238434995
  0
LINE
  5
BE
330
1F
100
AcDbEntity
  8
0
  6
Continuous
 62
     7
370
    15
100
AcDbLine
 10
250.6609377489
 20
132.501355777
 30
0.0
 11
251.0233501902
 21
132.4026700139
 31
0.0
  0
LINE
  5
BF
330
1F
100
AcDbEntity
  8
0
  6
Continuous
 62
     7
370
    15
100
AcDbLine
 10
249.2414506173
 20
131.047994901
 30
0.0
 11
250.6609377489
 21
132.501355777
 31
0.0
  0
LINE
  5
C0
330
1F
100
AcDbEntity
  8
0
  6
Continuous
 62
     7
370
    15
100
AcDbLine
 10
240.5026521738
 20
129.3062627297
 30
0.0
 11
240.38838397
 21
129.6830964416
 31
0.0
  0
LINE
  5
C1
330
1F
100
AcDbEntity
  8
0
  6
Continuous
 62
     7
370
    15
100
AcDbLine
 10
250.6609377489
 20
132.501355777
 30
0.0
 11
250.5466695451
 21
132.878189489
 31
0.0
  0
SPLINE
  5
C2
330
1F
100
AcDbEntity
  8
0
  6
Continuous
 62
     7
370
    15
100
AcDbSpline
210
0.0
220
0.0
230
1.0
 70
     8
 71
     3
 72
    11
 73
     7
 74
     0
 42
0.00000001
 43
0.00000001
 12
1.0
 22
0.0
 32
0.0
 13
1.0
 23
0.0
 33
0.0
 40
0.0
 40
0.0
 40
0.0
 40
0.0
 40
0.0092138098390095
 40
0.3448490431109753
 40
0.6722304962507443
 40
1.0
 40
1.0
 40
1.0
 40
1.0
 10
241.170874256104
 20
128.6325085380882
 30
0.0
 10
241.1695116929716
 20
128.6337906797108
 30
0.0
 10
241.1185144832823
 20
128.6817779205412
 30
0.0
 10
241.0092573450082
 20
128.7868139083591
 30
0.0
 10
240.8360287254089
 20
128.9587438155812
 30
0.0
 10
240.7309721506541
 20
129.0675936352054
 30
0.0
 10
240.6784127503956
 20
129.1220507812819
 30
0.0
  0
SPLINE
  5
C3
330
1F
100
AcDbEntity
  8
0
  6
Continuous
 62
     7
370
    15
100
AcDbSpline
210
0.0
220
0.0
230
1.0
 70
     8
 71
     3
 72
    11
 73
     7
 74
     0
 42
0.00000001
 43
0.00000001
 12
1.0
 22
0.0
 32
0.0
 13
1.0
 23
0.0
 33
0.0
 40
0.0
 40
0.0
 40
0.0
 40
0.0
 40
0.4125701671612989
 40
0.8731537903910387
 40
0.9927012761302813
 40
1.0
 40
1.0
 40
1.0
 40
1.0
 10
249.2414506173021
 20
131.0479949010332
 30
0.0
 10
249.172273935837
 20
130.978019419203
 30
0.0
 10
249.0258700355174
 20
130.8299249565935
 30
0.0
 10
248.8620772079222
 20
130.6718028511583
 30
0.0
 10
248.7747742399567
 20
130.5891675243248
 30
0.0
 10
248.7563406273102
 20
130.5718250767057
 30
0.0
 10
248.7552799582603
 20
130.570827193231
 30
0.0
  0
LINE
  5
C4
330
1F
100
AcDbEntity
  8
0
  6
Continuous
 62
     7
370
    15
100
AcDbLine
 10
161.0109377489
 20
97.3116536652
 30
0.0
 11
161.0109377489
 21
127.7656854863
 31
0.0
  0
SPLINE
  5
C5
330
1F
100
AcDbEntity
  8
0
  6
Continuous
 62
     7
370
    15
100
AcDbSpline
210
0.0
220
0.0
230
1.0
 70
     8
 71
     3
 72
    10
 73
     6
 74
     0
 42
0.00000001
 43
0.00000001
 12
1.0
 22
0.0
 32
0.0
 13
1.0
 23
0.0
 33
0.0
 40
0.0
 40
0.0
 40
0.0
 40
0.0
 40
0.5
 40
0.5
 40
1.0
 40
1.0
 40
1.0
 40
1.0
 10
161.0109377489066
 20
97.31165366518557
 30
0.0
 10
161.0109377489066
 20
97.15058089845616
 30
0.0
 10
160.9491332390818
 20
96.99064738994508
 30
0.0
 10
160.7299177216228
 20
96.75774717598098
 30
0.0
 10
160.5708768815646
 20
96.68680096324267
 30
0.0
 10
160.4109377489066
 20
96.68680096324267
 30
0.0
  0
SPLINE
  5
C6
330
1F
100
AcDbEntity
  8
0
  6
Continuous
 62
     7
370
    15
100
AcDbSpline
210
0.0
220
0.0
230
1.0
 70
    24
 71
     3
 72
    12
 73
     8
 74
     0
 42
0.00000001
 43
0.00000001
 12
1.0
 22
0.0
 32
0.0
 13
1.0
 23
0.0
 33
0.0
 40
0.0
 40
0.0
 40
0.0
 40
0.0
 40
0.250000000000002
 40
0.250000000000002
 40
0.500000000000004
 40
0.500000000000004
 40
1.0
 40
1.0
 40
1.0
 40
1.0
 10
160.4109377489066
 20
127.7656854862721
 30
0.0
 10
160.5004001741963
 20
127.7656854862721
 30
0.0
 10
160.5882244183376
 20
127.7656854862721
 30
0.0
 10
160.741379737441
 20
127.7656854862721
 30
0.0
 10
160.807016917994
 20
127.7656854862721
 30
0.0
 10
160.9625273493373
 20
127.7656854862721
 30
0.0
 10
161.0109377489066
 20
127.7656854862721
 30
0.0
 10
161.0109377489066
 20
127.7656854862721
 30
0.0
  0
LINE
  5
C7
330
1F
100
AcDbEntity
  8
0
  6
Continuous
 62
     7
370
    15
100
AcDbLine
 10
160.4109377489
 20
96.6868009632
 30
0.0
 11
159.0960974478
 21
96.6868009632
 31
0.0
  0
LINE
  5
C8
330
1F
100
AcDbEntity
  8
0
  6
Continuous
 62
     7
370
    15
100
AcDbLine
 10
159.0960974478
 20
96.6868009632
 30
0.0
 11
159.0960974478
 21
127.7656854863
 31
0.0
  0
LINE
  5
C9
330
1F
100
AcDbEntity
  8
0
  6
Continuous
 62
     7
370
    15
100
AcDbLine
 10
159.0960974478
 20
127.7656854863
 30
0.0
 11
160.4109377489
 21
127.7656854863
 31
0.0
  0
SPLINE
  5
CA
330
1F
100
AcDbEntity
  8
0
  6
Continuous
 62
     7
370
    15
100
AcDbSpline
210
0.0
220
0.0
230
1.0
 70
     8
 71
     3
 72
     8
 73
     4
 74
     0
 42
0.00000001
 43
0.00000001
 12
1.0
 22
0.0
 32
0.0
 13
1.0
 23
0.0
 33
0.0
 40
0.0
 40
0.0
 40
0.0
 40
0.0
 40
1.0
 40
1.0
 40
1.0
 40
1.0
 10
159.0960974478
 20
96.6868009632427
 30
0.0
 10
158.7633921760947
 20
97.28617263646636
 30
0.0
 10
158.4315763755212
 20
97.88604174717139
 30
0.0
 10
158.1009377489066
 20
98.48656209828238
 30
0.0
  0
LINE
  5
CB
330
1F
100
AcDbEntity
  8
0
  6
Continuous
 62
     7
370
    15
100
AcDbLine
 10
158.1009377489
 20
98.4865620983
 30
0.0
 11
158.1009377489
 21
127.7656854863
 31
0.0
  0
SPLINE
  5
CC
330
1F
100
AcDbEntity
  8
0
  6
Continuous
 62
     7
370
    15
100
AcDbSpline
210
0.0
220
0.0
230
1.0
 70
    24
 71
     3
 72
     8
 73
     4
 74
     0
 42
0.00000001
 43
0.00000001
 12
1.0
 22
0.0
 32
0.0
 13
1.0
 23
0.0
 33
0.0
 40
0.0
 40
0.0
 40
0.0
 40
0.0
 40
1.0
 40
1.0
 40
1.0
 40
1.0
 10
158.1009377489066
 20
127.7656854862721
 30
0.0
 10
158.4245744045288
 20
127.7656854862721
 30
0.0
 10
158.7570646260455
 20
127.7656854862721
 30
0.0
 10
159.0960974478001
 20
127.7656854862721
 30
0.0
  0
LINE
  5
CD
330
1F
100
AcDbEntity
  8
0
  6
Continuous
 62
     7
370
    15
100
AcDbLine
 10
141.0609377489
 20
96.2156854863
 30
0.0
 11
141.0609377489
 21
135.6156854863
 31
0.0
  0
LINE
  5
CE
330
1F
100
AcDbEntity
  8
0
  6
Continuous
 62
     7
370
    15
100
AcDbLine
 10
149.0109377489
 20
127.7656854863
 30
0.0
 11
155.02577805
 21
127.7656854863
 31
0.0
  0
LINE
  5
CF
330
1F
100
AcDbEntity
  8
0
  6
Continuous
 62
     7
370
    15
100
AcDbLine
 10
155.02577805
 20
96.6868009632
 30
0.0
 11
155.02577805
 21
127.7656854863
 31
0.0
  0
LINE
  5
D0
330
1F
100
AcDbEntity
  8
0
  6
Continuous
 62
     7
370
    15
100
AcDbLine
 10
155.02577805
 20
96.6868009632
 30
0.0
 11
153.5109377489
 21
96.6868009632
 31
0.0
  0
SPLINE
  5
D1
330
1F
100
AcDbEntity
  8
0
  6
Continuous
 62
     7
370
    15
100
AcDbSpline
210
0.0
220
0.0
230
1.0
 70
     8
 71
     3
 72
    22
 73
    18
 74
     0
 42
0.00000001
 43
0.00000001
 12
1.0
 22
0.0
 32
0.0
 13
1.0
 23
0.0
 33
0.0
 40
0.0
 40
0.0
 40
0.0
 40
0.0
 40
0.125
 40
0.125
 40
0.2500000000000001
 40
0.2500000000000001
 40
0.3750000000000001
 40
0.3750000000000001
 40
0.5000000000000001
 40
0.5000000000000001
 40
0.6250000000000001
 40
0.6250000000000001
 40
0.7500000000000002
 40
0.7500000000000002
 40
0.8750000000000002
 40
0.8750000000000002
 40
1.0
 40
1.0
 40
1.0
 40
1.0
 10
153.5109377489066
 20
96.68680096324269
 30
0.0
 10
153.211813319866
 20
96.68680096324269
 30
0.0
 10
152.9179908716172
 20
96.67828686217631
 30
0.0
 10
152.3404265953708
 20
96.6458430932944
 30
0.0
 10
152.0536089175569
 20
96.62150920459239
 30
0.0
 10
151.5091463886576
 20
96.56104917983555
 30
0.0
 10
151.2511911180362
 20
96.52513575905705
 30
0.0
 10
150.7631331746763
 20
96.44542573298791
 30
0.0
 10
150.5334348760126
 20
96.40154743179858
 30
0.0
 10
150.12101589306
 20
96.3133038094284
 30
0.0
 10
149.9354889501999
 20
96.26849546796743
 30
0.0
 10
149.6069689052991
 20
96.18117446004825
 30
0.0
 10
149.4685550183996
 20
96.13988367147259
 30
0.0
 10
149.2439628717837
 20
96.06554544817877
 30
0.0
 10
149.1568840596594
 20
96.0321353224441
 30
0.0
 10
149.0403822517044
 20
95.97711592091795
 30
0.0
 10
149.0109377489066
 20
95.9556541544517
 30
0.0
 10
149.0109377489066
 20
95.9407011308339
 30
0.0
  0
LINE
  5
D2
330
1F
100
AcDbEntity
  8
0
  6
Continuous
 62
     7
370
    15
100
AcDbLine
 10
149.0109377489
 20
95.9407011308
 30
0.0
 11
149.0109377489
 21
95.9156854863
 31
0.0
  0
SPLINE
  5
D3
330
1F
100
AcDbEntity
  8
0
  6
Continuous
 62
     7
370
    15
100
AcDbSpline
210
0.0
220
0.0
230
1.0
 70
     8
 71
     3
 72
    23
 73
    19
 74
     0
 42
0.00000001
 43
0.00000001
 12
1.0
 22
0.0
 32
0.0
 13
1.0
 23
0.0
 33
0.0
 40
0.0
 40
0.0
 40
0.0
 40
0.0
 40
0.0520191979143751
 40
0.1572789805725378
 40
0.2110237891757133
 40
0.2630328936540878
 40
0.3153990702124316
 40
0.3683113852301986
 40
0.4219673248692931
 40
0.5279242118006173
 40
0.5816875188787911
 40
0.636217822199293
 40
0.7428912669123803
 40
0.7976660791250014
 40
0.8528629804744009
 40
0.9053629671741773
 40
0.9582418847645708
 40
1.0
 40
1.0
 40
1.0
 40
1.0
 10
153.5109377489066
 20
135.4028607561772
 30
0.0
 10
153.3880353951473
 20
135.4035621258804
 30
0.0
 10
153.0164426431591
 20
135.4056827028278
 30
0.0
 10
152.5222208097628
 20
135.425416281244
 30
0.0
 10
152.0450626566468
 20
135.4568367764438
 30
0.0
 10
151.697863249539
 20
135.486063725526
 30
0.0
 10
151.3651088592595
 20
135.5197490138766
 30
0.0
 10
151.0438585417539
 20
135.5575800667915
 30
0.0
 10
150.6375661058498
 20
135.6118356668345
 30
0.0
 10
150.2678402913083
 20
135.6696815712275
 30
0.0
 10
149.9436877347143
 20
135.726231603594
 30
0.0
 10
149.6521122268682
 20
135.780427144237
 30
0.0
 10
149.4123720386818
 20
135.8288137659904
 30
0.0
 10
149.2317395809231
 20
135.8670468927989
 30
0.0
 10
149.1272631398198
 20
135.8897754953977
 30
0.0
 10
149.0562215641605
 20
135.9055208350863
 30
0.0
 10
149.0162169761896
 20
135.9144963075784
 30
0.0
 10
149.0144483027602
 20
135.9148955470762
 30
0.0
 10
149.0136678844961
 20
135.9150717094986
 30
0.0
  0
LINE
  5
D4
330
1F
100
AcDbEntity
  8
0
  6
Continuous
 62
     7
370
    15
100
AcDbLine
 10
155.02577805
 20
135.4028607562
 30
0.0
 11
153.5109377489
 21
135.4028607562
 31
0.0
  0
LINE
  5
D5
330
1F
100
AcDbEntity
  8
0
  6
Continuous
 62
     7
370
    15
100
AcDbLine
 10
155.02577805
 20
132.0270944873
 30
0.0
 11
155.02577805
 21
135.4028607562
 31
0.0
  0
LINE
  5
D6
330
1F
100
AcDbEntity
  8
0
  6
Continuous
 62
     7
370
    15
100
AcDbLine
 10
153.5046082236
 20
132.0270944873
 30
0.0
 11
155.02577805
 21
132.0270944873
 31
0.0
  0
SPLINE
  5
D7
330
1F
100
AcDbEntity
  8
0
  6
Continuous
 62
     7
370
    15
100
AcDbSpline
210
0.0
220
0.0
230
1.0
 70
     8
 71
     3
 72
    22
 73
    18
 74
     0
 42
0.00000001
 43
0.00000001
 12
1.0
 22
0.0
 32
0.0
 13
1.0
 23
0.0
 33
0.0
 40
0.0
 40
0.0
 40
0.0
 40
0.0
 40
0.2499999999999997
 40
0.2499999999999997
 40
0.3749999999999998
 40
0.3749999999999998
 40
0.4999999999999999
 40
0.4999999999999999
 40
0.625
 40
0.625
 40
0.75
 40
0.75
 40
0.8750000000000001
 40
0.8750000000000001
 40
0.9375000000000001
 40
0.9375000000000001
 40
1.0
 40
1.0
 40
1.0
 40
1.0
 10
149.0109377489066
 20
127.7656854862721
 30
0.0
 10
149.0329187668933
 20
128.3285581281702
 30
0.0
 10
149.111895650248
 20
128.8591830118997
 30
0.0
 10
149.3582935432804
 20
129.6048940028213
 30
0.0
 10
149.4628181583713
 20
129.8465142292199
 30
0.0
 10
149.7246647536778
 20
130.3053730045459
 30
0.0
 10
149.8798813758437
 20
130.5195516770157
 30
0.0
 10
150.2484731289076
 20
130.9167802361612
 30
0.0
 10
150.4646068213725
 20
131.101225071181
 30
0.0
 10
150.9485013163594
 20
131.4223049190647
 30
0.0
 10
151.2189668613671
 20
131.5616557491707
 30
0.0
 10
151.8151934268773
 20
131.7909612835962
 30
0.0
 10
152.1306866935973
 20
131.8774972930725
 30
0.0
 10
152.6314033416158
 20
131.9663868974038
 30
0.0
 10
152.8041997762309
 20
131.9891954032654
 30
0.0
 10
153.1525685490129
 20
132.0194865659617
 30
0.0
 10
153.3279695779234
 20
132.0270944873496
 30
0.0
 10
153.5046082236113
 20
132.0270944873496
 30
0.0
  0
LINE
  5
D8
330
1F
100
AcDbEntity
  8
0
  6
Continuous
 62
     7
370
    15
100
AcDbLine
 10
156.0209377489
 20
98.4865620983
 30
0.0
 11
156.0209377489
 21
127.7656854863
 31
0.0
  0
SPLINE
  5
D9
330
1F
100
AcDbEntity
  8
0
  6
Continuous
 62
     7
370
    15
100
AcDbSpline
210
0.0
220
0.0
230
1.0
 70
     8
 71
     3
 72
     8
 73
     4
 74
     0
 42
0.00000001
 43
0.00000001
 12
1.0
 22
0.0
 32
0.0
 13
1.0
 23
0.0
 33
0.0
 40
0.0
 40
0.0
 40
0.0
 40
0.0
 40
1.0
 40
1.0
 40
1.0
 40
1.0
 10
156.0209377489066
 20
98.48656209828238
 30
0.0
 10
155.690299122292
 20
97.88604174717139
 30
0.0
 10
155.3584833217185
 20
97.28617263646635
 30
0.0
 10
155.0257780500132
 20
96.68680096324269
 30
0.0
  0
SPLINE
  5
DA
330
1F
100
AcDbEntity
  8
0
  6
Continuous
 62
     7
370
    15
100
AcDbSpline
210
0.0
220
0.0
230
1.0
 70
    24
 71
     3
 72
     8
 73
     4
 74
     0
 42
0.00000001
 43
0.00000001
 12
1.0
 22
0.0
 32
0.0
 13
1.0
 23
0.0
 33
0.0
 40
0.0
 40
0.0
 40
0.0
 40
0.0
 40
1.0
 40
1.0
 40
1.0
 40
1.0
 10
155.0257780500132
 20
127.7656854862721
 30
0.0
 10
155.3648108717678
 20
127.7656854862721
 30
0.0
 10
155.6973010932844
 20
127.7656854862721
 30
0.0
 10
156.0209377489066
 20
127.7656854862721
 30
0.0
  0
SPLINE
  5
DB
330
1F
100
AcDbEntity
  8
0
  6
Continuous
 62
     7
370
    15
100
AcDbSpline
210
0.0
220
0.0
230
1.0
 70
    24
 71
     3
 72
    16
 73
    12
 74
     0
 42
0.00000001
 43
0.00000001
 12
1.0
 22
0.0
 32
0.0
 13
1.0
 23
0.0
 33
0.0
 40
0.0
 40
0.0
 40
0.0
 40
0.0
 40
0.4999999999999987
 40
0.4999999999999987
 40
0.7499999999999988
 40
0.7499999999999988
 40
0.8749999999999974
 40
0.8749999999999974
 40
0.9374999999999987
 40
0.9374999999999987
 40
1.0
 40
1.0
 40
1.0
 40
1.0
 10
158.0657153483253
 20
99.01568548627212
 30
0.0
 10
158.0356789287987
 20
99.01568548627212
 30
0.0
 10
157.9890448315939
 20
99.01568548627212
 30
0.0
 10
157.8786604200152
 20
99.01568548627212
 30
0.0
 10
157.8353227714946
 20
99.0156854862721
 30
0.0
 10
157.74684113711
 20
99.0156854862721
 30
0.0
 10
157.7134656324933
 20
99.0156854862721
 30
0.0
 10
157.6489734230428
 20
99.01568548627212
 30
0.0
 10
157.6247690858562
 20
99.01568548627212
 30
0.0
 10
157.5690152760458
 20
99.01568548627212
 30
0.0
 10
157.5354312499776
 20
99.01568548627212
 30
0.0
 10
157.5009377489066
 20
99.01568548627212
 30
0.0
  0
SPLINE
  5
DC
330
1F
100
AcDbEntity
  8
0
  6
Continuous
 62
     7
370
    15
100
AcDbSpline
210
0.0
220
0.0
230
1.0
 70
    24
 71
     3
 72
    12
 73
     8
 74
     0
 42
0.00000001
 43
0.00000001
 12
1.0
 22
0.0
 32
0.0
 13
1.0
 23
0.0
 33
0.0
 40
0.0
 40
0.0
 40
0.0
 40
0.0
 40
0.25
 40
0.25
 40
0.5
 40
0.5
 40
1.0
 40
1.0
 40
1.0
 40
1.0
 10
157.5009377489066
 20
127.7656854862721
 30
0.0
 10
157.5935958384128
 20
127.7656854862721
 30
0.0
 10
157.6856592479706
 20
127.7656854862721
 30
0.0
 10
157.8398167984613
 20
127.7656854862721
 30
0.0
 10
157.904305731826
 20
127.7656854862721
 30
0.0
 10
158.0543572807755
 20
127.7656854862721
 30
0.0
 10
158.1009377489066
 20
127.7656854862721
 30
0.0
 10
158.1009377489066
 20
127.7656854862721
 30
0.0
  0
SPLINE
  5
DD
330
1F
100
AcDbEntity
  8
0
  6
Continuous
 62
     7
370
    15
100
AcDbSpline
210
0.0
220
0.0
230
1.0
 70
    24
 71
     3
 72
    16
 73
    12
 74
     0
 42
0.00000001
 43
0.00000001
 12
1.0
 22
0.0
 32
0.0
 13
1.0
 23
0.0
 33
0.0
 40
0.0
 40
0.0
 40
0.0
 40
0.0
 40
0.0624999999999986
 40
0.0624999999999986
 40
0.1249999999999973
 40
0.1249999999999973
 40
0.2499999999999966
 40
0.2499999999999966
 40
0.4999999999999979
 40
0.4999999999999979
 40
1.0
 40
1.0
 40
1.0
 40
1.0
 10
156.6209377489066
 20
99.0156854862721
 30
0.0
 10
156.5858312602925
 20
99.0156854862721
 30
0.0
 10
156.5527365752068
 20
99.01568548627212
 30
0.0
 10
156.4961368632808
 20
99.01568548627212
 30
0.0
 10
156.4718348091452
 20
99.01568548627212
 30
0.0
 10
156.4073068205042
 20
99.01568548627212
 30
0.0
 10
156.3737179949881
 20
99.01568548627212
 30
0.0
 10
156.285678580639
 20
99.01568548627212
 30
0.0
 10
156.2425708167665
 20
99.0156854862721
 30
0.0
 10
156.1321366025933
 20
99.01568548627212
 30
0.0
 10
156.0859565842159
 20
99.0156854862721
 30
0.0
 10
156.056160149488
 20
99.01568548627212
 30
0.0
  0
SPLINE
  5
DE
330
1F
100
AcDbEntity
  8
0
  6
Continuous
 62
     7
370
    15
100
AcDbSpline
210
0.0
220
0.0
230
1.0
 70
    24
 71
     3
 72
    14
 73
    10
 74
     0
 42
0.00000001
 43
0.00000001
 12
1.0
 22
0.0
 32
0.0
 13
1.0
 23
0.0
 33
0.0
 40
0.0
 40
0.0
 40
0.0
 40
0.0
 40
0.25
 40
0.25
 40
0.5
 40
0.5
 40
0.75
 40
0.75
 40
1.0
 40
1.0
 40
1.0
 40
1.0
 10
156.0209377489066
 20
127.7656854862721
 30
0.0
 10
156.0209377489066
 20
127.7656854862721
 30
0.0
 10
156.0328147601676
 20
127.7656854862721
 30
0.0
 10
156.0813432499475
 20
127.7656854862721
 30
0.0
 10
156.1177617061718
 20
127.7656854862721
 30
0.0
 10
156.2178890407003
 20
127.7656854862721
 30
0.0
 10
156.2810658521363
 20
127.7656854862721
 30
0.0
 10
156.4366363548222
 20
127.7656854862721
 30
0.0
 10
156.528512702577
 20
127.7656854862721
 30
0.0
 10
156.6209377489078
 20
127.7656854862721
 30
0.0
  0
LINE
  5
DF
330
1F
100
AcDbEntity
  8
0
  6
Continuous
 62
     7
370
    15
100
AcDbLine
 10
157.5009377489
 20
99.0156854863
 30
0.0
 11
156.6209377489
 21
99.0156854863
 31
0.0
  0
LINE
  5
E0
330
1F
100
AcDbEntity
  8
0
  6
Continuous
 62
     7
370
    15
100
AcDbLine
 10
156.6209377489
 20
127.7656854863
 30
0.0
 11
157.5009377489
 21
127.7656854863
 31
0.0
  0
LINE
  5
E1
330
1F
100
AcDbEntity
  8
0
  6
Continuous
 62
     7
370
    15
100
AcDbLine
 10
127.2609377489
 20
101.4031674502
 30
0.0
 11
127.2609377489
 21
102.2789387882
 31
0.0
  0
SPLINE
  5
E2
330
1F
100
AcDbEntity
  8
0
  6
Continuous
 62
     7
370
    15
100
AcDbSpline
210
0.0
220
0.0
230
1.0
 70
     8
 71
     3
 72
    12
 73
     8
 74
     0
 42
0.00000001
 43
0.00000001
 12
1.0
 22
0.0
 32
0.0
 13
1.0
 23
0.0
 33
0.0
 40
0.0
 40
0.0
 40
0.0
 40
0.0
 40
0.2499999999999999
 40
0.2499999999999999
 40
0.4999999999999998
 40
0.4999999999999998
 40
1.0
 40
1.0
 40
1.0
 40
1.0
 10
126.8932026560497
 20
102.9853096233874
 30
0.0
 10
126.9186268729437
 20
102.9184240303136
 30
0.0
 10
126.9592387125129
 20
102.85397554063
 30
0.0
 10
127.0438398587851
 20
102.7289748805521
 30
0.0
 10
127.0879366550706
 20
102.66845613536
 30
0.0
 10
127.2040057635567
 20
102.4922500792516
 30
0.0
 10
127.2609377489066
 20
102.3818556642798
 30
0.0
 10
127.2609377489066
 20
102.2789387881866
 30
0.0
  0
SPLINE
  5
E3
330
1F
100
AcDbEntity
  8
0
  6
Continuous
 62
     7
370
    15
100
AcDbSpline
210
0.0
220
0.0
230
1.0
 70
     8
 71
     3
 72
    14
 73
    10
 74
     0
 42
0.00000001
 43
0.00000001
 12
1.0
 22
0.0
 32
0.0
 13
1.0
 23
0.0
 33
0.0
 40
0.0
 40
0.0
 40
0.0
 40
0.0
 40
0.1250000000000007
 40
0.1250000000000007
 40
0.2500000000000014
 40
0.2500000000000014
 40
0.5000000000000003
 40
0.5000000000000003
 40
1.0
 40
1.0
 40
1.0
 40
1.0
 10
126.3609377489066
 20
103.475315438761
 30
0.0
 10
126.409950071718
 20
103.4798404979162
 30
0.0
 10
126.4627562967134
 20
103.4717211123617
 30
0.0
 10
126.5478233884429
 20
103.4413910372103
 30
0.0
 10
126.5824075737836
 20
103.4207360801338
 30
0.0
 10
126.6709632591209
 20
103.356199956807
 30
0.0
 10
126.7118989604421
 20
103.3089617767543
 30
0.0
 10
126.815779487345
 20
103.1691656754707
 30
0.0
 10
126.8590032867772
 20
103.0752807366014
 30
0.0
 10
126.8932026560497
 20
102.9853096233874
 30
0.0
  0
SPLINE
  5
E4
330
1F
100
AcDbEntity
  8
0
  6
Continuous
 62
     7
370
    15
100
AcDbSpline
210
0.0
220
0.0
230
1.0
 70
     8
 71
     3
 72
    10
 73
     6
 74
     0
 42
0.00000001
 43
0.00000001
 12
1.0
 22
0.0
 32
0.0
 13
1.0
 23
0.0
 33
0.0
 40
0.0
 40
0.0
 40
0.0
 40
0.0
 40
0.5
 40
0.5
 40
1.0
 40
1.0
 40
1.0
 40
1.0
 10
123.4401143572082
 20
103.1490633591945
 30
0.0
 10
123.9130187877978
 20
103.216096272318
 30
0.0
 10
124.3960237206422
 20
103.2739647734839
 30
0.0
 10
125.3718380989951
 20
103.3808059218441
 30
0.0
 10
125.8653123120192
 20
103.4295568561828
 30
0.0
 10
126.3609377489066
 20
103.4753154387611
 30
0.0
  0
SPLINE
  5
E5
330
1F
100
AcDbEntity
  8
0
  6
Continuous
 62
     7
370
    15
100
AcDbSpline
210
0.0
220
0.0
230
1.0
 70
     8
 71
     3
 72
    10
 73
     6
 74
     0
 42
0.00000001
 43
0.00000001
 12
1.0
 22
0.0
 32
0.0
 13
1.0
 23
0.0
 33
0.0
 40
0.0
 40
0.0
 40
0.0
 40
0.0
 40
0.5
 40
0.5
 40
1.0
 40
1.0
 40
1.0
 40
1.0
 10
122.1699377489066
 20
103.0646186087158
 30
0.0
 10
122.385296779464
 20
103.0716314396863
 30
0.0
 10
122.599738117788
 20
103.0804061633416
 30
0.0
 10
123.0247293364085
 20
103.1054593408894
 30
0.0
 10
123.2361020681312
 20
103.1201451736898
 30
0.0
 10
123.4401143572082
 20
103.1490633591945
 30
0.0
  0
SPLINE
  5
E6
330
1F
100
AcDbEntity
  8
0
  6
Continuous
 62
     7
370
    15
100
AcDbSpline
210
0.0
220
0.0
230
1.0
 70
     8
 71
     3
 72
     8
 73
     4
 74
     0
 42
0.00000001
 43
0.00000001
 12
1.0
 22
0.0
 32
0.0
 13
1.0
 23
0.0
 33
0.0
 40
0.0
 40
0.0
 40
0.0
 40
0.0
 40
1.0
 40
1.0
 40
1.0
 40
1.0
 10
122.1024215993375
 20
103.2125077867285
 30
0.0
 10
122.1165560439657
 20
103.1617114630953
 30
0.0
 10
122.1396134191143
 20
103.1124727125351
 30
0.0
 10
122.1699377489066
 20
103.0646186087158
 30
0.0
  0
ELLIPSE
  5
E7
330
1F
100
AcDbEntity
  8
0
  6
Continuous
 62
     7
370
    15
100
AcDbEllipse
 10
108.6341955411
 20
115.2763878085
 30
0.0
 11
13.37355272666621
 21
-13.37146352987016
 31
0.0
210
0.0
220
0.0
230
1.0
 40
0.1761188775
 41
0.3023035477142503
 42
0.3822730435340351
  0
ELLIPSE
  5
E8
330
1F
100
AcDbEntity
  8
0
  6
Continuous
 62
     7
370
    15
100
AcDbEllipse
 10
108.5548171104
 20
116.5547959376
 30
0.0
 11
13.36963611134298
 21
13.36754752639486
 31
0.0
210
0.0
220
0.0
230
1.0
 40
0.1761188775
 41
5.933076931846602
 42
5.976720052691196
  0
SPLINE
  5
E9
330
1F
100
AcDbEntity
  8
0
  6
Continuous
 62
     7
370
    15
100
AcDbSpline
210
0.0
220
0.0
230
1.0
 70
     8
 71
     3
 72
     8
 73
     4
 74
     0
 42
0.00000001
 43
0.00000001
 12
1.0
 22
0.0
 32
0.0
 13
1.0
 23
0.0
 33
0.0
 40
0.0
 40
0.0
 40
0.0
 40
0.0
 40
1.0
 40
1.0
 40
1.0
 40
1.0
 10
122.1109377489066
 20
128.7812660332504
 30
0.0
 10
122.0651728412173
 20
128.7197456540916
 30
0.0
 10
122.0307857195873
 20
128.6558507943422
 30
0.0
 10
122.0117704659144
 20
128.5891208492985
 30
0.0
  0
SPLINE
  5
EA
330
1F
100
AcDbEntity
  8
0
  6
Continuous
 62
     7
370
    15
100
AcDbSpline
210
0.0
220
0.0
230
1.0
 70
     8
 71
     3
 72
    12
 73
     8
 74
     0
 42
0.00000001
 43
0.00000001
 12
1.0
 22
0.0
 32
0.0
 13
1.0
 23
0.0
 33
0.0
 40
0.0
 40
0.0
 40
0.0
 40
0.0
 40
0.2499999999999985
 40
0.2499999999999985
 40
0.499999999999997
 40
0.499999999999997
 40
1.0
 40
1.0
 40
1.0
 40
1.0
 10
123.8609377489067
 20
128.6964793449314
 30
0.0
 10
123.7188953457174
 20
128.7123050731076
 30
0.0
 10
123.5747772392133
 20
128.7233262068829
 30
0.0
 10
123.2850227255408
 20
128.74186256875
 30
0.0
 10
123.139280822182
 20
128.7491332744858
 30
0.0
 10
122.7006005830022
 20
128.7675941248138
 30
0.0
 10
122.406224966931
 20
128.7754729916373
 30
0.0
 10
122.1109377489066
 20
128.7812660332505
 30
0.0
  0
SPLINE
  5
EB
330
1F
100
AcDbEntity
  8
0
  6
Continuous
 62
     7
370
    15
100
AcDbSpline
210
0.0
220
0.0
230
1.0
 70
     8
 71
     3
 72
    20
 73
    16
 74
     0
 42
0.00000001
 43
0.00000001
 12
1.0
 22
0.0
 32
0.0
 13
1.0
 23
0.0
 33
0.0
 40
0.0
 40
0.0
 40
0.0
 40
0.0
 40
0.2499999999999996
 40
0.2499999999999996
 40
0.4999999999999991
 40
0.4999999999999991
 40
0.7499999999999987
 40
0.7499999999999987
 40
0.874999999999998
 40
0.874999999999998
 40
0.9374999999999997
 40
0.9374999999999997
 40
0.9687499999999998
 40
0.9687499999999998
 40
1.0
 40
1.0
 40
1.0
 40
1.0
 10
124.7609377489075
 20
129.4732096080199
 30
0.0
 10
124.7609377489076
 20
129.4126002083226
 30
0.0
 10
124.7355427293306
 20
129.3467742429191
 30
0.0
 10
124.6492495435487
 20
129.2127264735724
 30
0.0
 10
124.5886135648654
 20
129.1440311154306
 30
0.0
 10
124.4405117706442
 20
129.0036325637762
 30
0.0
 10
124.3537421638655
 20
128.9319290591949
 30
0.0
 10
124.2051043685363
 20
128.825765657446
 30
0.0
 10
124.1528151516501
 20
128.7902373088145
 30
0.0
 10
124.0620513233402
 20
128.740533378299
 30
0.0
 10
124.0296853308882
 20
128.7242723802838
 30
0.0
 10
123.9719961752219
 20
128.705159811938
 30
0.0
 10
123.9510091473346
 20
128.6997686698564
 30
0.0
 10
123.9057201683441
 20
128.6940313014639
 30
0.0
 10
123.8827058995056
 20
128.6940540351173
 30
0.0
 10
123.860937748906
 20
128.6964793449302
 30
0.0
  0
LINE
  5
EC
330
1F
100
AcDbEntity
  8
0
  6
Continuous
 62
     7
370
    15
100
AcDbLine
 10
124.7609377489
 20
129.473209608
 30
0.0
 11
124.7609377489
 21
130.3029530213
 31
0.0
  0
LINE
  5
ED
330
1F
100
AcDbEntity
  8
0
  6
Continuous
 62
     7
370
    15
100
AcDbLine
 10
139.0609377489
 20
100.8119850855
 30
0.0
 11
139.0609377489
 21
131.0193858871
 31
0.0
  0
SPLINE
  5
EE
330
1F
100
AcDbEntity
  8
0
  6
Continuous
 62
     7
370
    15
100
AcDbSpline
210
0.0
220
0.0
230
1.0
 70
     8
 71
     3
 72
    18
 73
    14
 74
     0
 42
0.00000001
 43
0.00000001
 12
1.0
 22
0.0
 32
0.0
 13
1.0
 23
0.0
 33
0.0
 40
0.0
 40
0.0
 40
0.0
 40
0.0
 40
0.0647987051964543
 40
0.1911457418934267
 40
0.315945321993681
 40
0.3775977181148072
 40
0.439785648459474
 40
0.5017220926046698
 40
0.5630628839447032
 40
0.6866516283643237
 40
0.8118021582222664
 40
0.9380327414080996
 40
1.0
 40
1.0
 40
1.0
 40
1.0
 10
132.2985842055446
 20
101.161604496999
 30
0.0
 10
132.2879392501022
 20
101.1601697729355
 30
0.0
 10
132.2565383463451
 20
101.1559375680682
 30
0.0
 10
132.6754215418123
 20
101.2167536706822
 30
0.0
 10
133.3199849278454
 20
101.2823064221479
 30
0.0
 10
133.9736466550868
 20
101.3125084266295
 30
0.0
 10
134.5048314587463
 20
101.3160850442062
 30
0.0
 10
135.0562388851806
 20
101.2990038706744
 30
0.0
 10
135.7871406933938
 20
101.2459865016954
 30
0.0
 10
136.6490123636926
 20
101.128202370796
 30
0.0
 10
137.4153164871817
 20
100.9756598801338
 30
0.0
 10
137.8157959270449
 20
100.8764672142424
 30
0.0
 10
137.7845384562276
 20
100.8844130103063
 30
0.0
 10
137.7742464159003
 20
100.8870292953538
 30
0.0
  0
SPLINE
  5
EF
330
1F
100
AcDbEntity
  8
0
  6
Continuous
 62
     7
370
    15
100
AcDbSpline
210
0.0
220
0.0
230
1.0
 70
     8
 71
     3
 72
    18
 73
    14
 74
     0
 42
0.00000001
 43
0.00000001
 12
1.0
 22
0.0
 32
0.0
 13
1.0
 23
0.0
 33
0.0
 40
0.0
 40
0.0
 40
0.0
 40
0.0
 40
0.0628581874977816
 40
0.1888210925071265
 40
0.3136429531910562
 40
0.4369193488098619
 40
0.4982390280781183
 40
0.5602488697629606
 40
0.6224807882812036
 40
0.6842568515517151
 40
0.8091590186753603
 40
0.935452681076069
 40
1.0
 40
1.0
 40
1.0
 40
1.0
 10
137.7741666699989
 20
130.9441696122263
 30
0.0
 10
137.7848267035647
 20
130.9468131046043
 30
0.0
 10
137.8168486129481
 20
130.9547539495238
 30
0.0
 10
137.4113748214914
 20
130.8550605956375
 30
0.0
 10
136.6484378675473
 20
130.702642526086
 30
0.0
 10
135.78703527145
 20
130.585363321076
 30
0.0
 10
135.056908432878
 20
130.5324653755168
 30
0.0
 10
134.5051285607369
 20
130.5153598787606
 30
0.0
 10
133.9731611043618
 20
130.5189044439429
 30
0.0
 10
133.3185414718254
 20
130.5490955140594
 30
0.0
 10
132.6741353446389
 20
130.6147586754045
 30
0.0
 10
132.2567023529392
 20
130.6755838576661
 30
0.0
 10
132.2870153909457
 20
130.6710970666055
 30
0.0
 10
132.2972680385593
 20
130.6695795186893
 30
0.0
  0
SPLINE
  5
F0
330
1F
100
AcDbEntity
  8
0
  6
Continuous
 62
     7
370
    15
100
AcDbSpline
210
0.0
220
0.0
230
1.0
 70
     8
 71
     3
 72
    26
 73
    22
 74
     0
 42
0.00000001
 43
0.00000001
 12
1.0
 22
0.0
 32
0.0
 13
1.0
 23
0.0
 33
0.0
 40
0.0
 40
0.0
 40
0.0
 40
0.0
 40
0.2499999999999972
 40
0.2499999999999972
 40
0.3749999999999961
 40
0.3749999999999961
 40
0.4374999999999956
 40
0.4374999999999956
 40
0.4687499999999956
 40
0.4687499999999956
 40
0.4999999999999958
 40
0.4999999999999958
 40
0.5312499999999959
 40
0.5312499999999959
 40
0.562499999999996
 40
0.562499999999996
 40
0.6249999999999961
 40
0.6249999999999961
 40
0.7499999999999972
 40
0.7499999999999972
 40
1.0
 40
1.0
 40
1.0
 40
1.0
 10
121.9209077952945
 20
128.303766065885
 30
0.0
 10
121.873519685866
 20
128.168110323862
 30
0.0
 10
121.8158783839616
 20
128.0241489255327
 30
0.0
 10
121.6938305714183
 20
127.7813763522783
 30
0.0
 10
121.6477815636418
 20
127.6963367118289
 30
0.0
 10
121.5571282794761
 20
127.5559607387886
 30
0.0
 10
121.5227757791905
 20
127.5060493614498
 30
0.0
 10
121.4603406068001
 20
127.4295140965955
 30
0.0
 10
121.437046588002
 20
127.4031096176086
 30
0.0
 10
121.3879940508755
 20
127.3555148523476
 30
0.0
 10
121.3635626012186
 20
127.3360722384957
 30
0.0
 10
121.3229330055988
 20
127.3111644608276
 30
0.0
 10
121.3067707237477
 20
127.3050946295167
 30
0.0
 10
121.2797886796445
 20
127.2994057579229
 30
0.0
 10
121.2690391568217
 20
127.2997962660036
 30
0.0
 10
121.2410031826646
 20
127.3059386127921
 30
0.0
 10
121.2281419506319
 20
127.3166026192101
 30
0.0
 10
121.1971390894716
 20
127.3556154095702
 30
0.0
 10
121.1862796074025
 20
127.3916673999746
 30
0.0
 10
121.1630023514645
 20
127.5093467974736
 30
0.0
 10
121.1609377489065
 20
127.6006766978066
 30
0.0
 10
121.1609377489065
 20
127.6939169507129
 30
0.0
  0
SPLINE
  5
F1
330
1F
100
AcDbEntity
  8
0
  6
Continuous
 62
     7
370
    15
100
AcDbSpline
210
0.0
220
0.0
230
1.0
 70
     8
 71
     3
 72
    24
 73
    20
 74
     0
 42
0.00000001
 43
0.00000001
 12
1.0
 22
0.0
 32
0.0
 13
1.0
 23
0.0
 33
0.0
 40
0.0
 40
0.0
 40
0.0
 40
0.0
 40
0.2500000000000008
 40
0.2500000000000008
 40
0.3750000000000004
 40
0.3750000000000004
 40
0.4375000000000002
 40
0.4375000000000002
 40
0.5
 40
0.5
 40
0.5312499999999988
 40
0.5312499999999988
 40
0.5624999999999976
 40
0.5624999999999976
 40
0.6249999999999971
 40
0.6249999999999971
 40
0.7499999999999991
 40
0.7499999999999991
 40
1.0
 40
1.0
 40
1.0
 40
1.0
 10
121.1609377489066
 20
104.3681722850507
 30
0.0
 10
121.1609377489066
 20
104.4530812387203
 30
0.0
 10
121.163662377339
 20
104.5354109347672
 30
0.0
 10
121.190019698457
 20
104.6378233221862
 30
0.0
 10
121.2022334167291
 20
104.6686404185706
 30
0.0
 10
121.2368440668616
 20
104.6977379346475
 30
0.0
 10
121.251230777229
 20
104.7046955752862
 30
0.0
 10
121.2924792603314
 20
104.7035858340093
 30
0.0
 10
121.3210188102622
 20
104.6952924284005
 30
0.0
 10
121.3819414757735
 20
104.6507089945393
 30
0.0
 10
121.4050074459134
 20
104.630247281282
 30
0.0
 10
121.4489033259196
 20
104.5856346630016
 30
0.0
 10
121.4697833614798
 20
104.5617585847953
 30
0.0
 10
121.5269936247729
 20
104.4918614876333
 30
0.0
 10
121.5593402485492
 20
104.4462838988488
 30
0.0
 10
121.6455061920411
 20
104.3174004112299
 30
0.0
 10
121.6911702120811
 20
104.2375672340979
 30
0.0
 10
121.8117177755323
 20
104.0117864249855
 30
0.0
 10
121.8707778642335
 20
103.8769550400142
 30
0.0
 10
121.9209077952945
 20
103.7486999013467
 30
0.0
  0
LINE
  5
F2
330
1F
100
AcDbEntity
  8
0
  6
Continuous
 62
     7
370
    15
100
AcDbLine
 10
121.1609377489
 20
104.3681722851
 30
0.0
 11
121.1609377489
 21
127.6939169507
 31
0.0
  0
LINE
  5
F3
330
1F
100
AcDbEntity
  8
0
  6
Continuous
 62
     7
370
    15
100
AcDbLine
 10
225.3629187128
 20
128.4156777149
 30
0.0
 11
226.6467241865
 21
128.4156777149
 31
0.0
  0
SPLINE
  5
F4
330
1F
100
AcDbEntity
  8
0
  6
Continuous
 62
     7
370
    15
100
AcDbSpline
210
0.0
220
0.0
230
1.0
 70
     8
 71
     3
 72
    14
 73
    10
 74
     0
 42
0.00000001
 43
0.00000001
 12
1.0
 22
0.0
 32
0.0
 13
1.0
 23
0.0
 33
0.0
 40
0.0
 40
0.0
 40
0.0
 40
0.0
 40
0.25
 40
0.25
 40
0.5
 40
0.5
 40
0.75
 40
0.75
 40
1.0
 40
1.0
 40
1.0
 40
1.0
 10
222.4651412339763
 20
128.2101835978024
 30
0.0
 10
222.5486625099537
 20
128.2682988984162
 30
0.0
 10
222.6799879875513
 20
128.3103237069473
 30
0.0
 10
223.0426263749456
 20
128.3711950378801
 30
0.0
 10
223.2646106057036
 20
128.3885322225835
 30
0.0
 10
223.7879921491798
 20
128.4095822204419
 30
0.0
 10
224.07749260884
 20
128.4129253505965
 30
0.0
 10
224.7048993561834
 20
128.4159630904429
 30
0.0
 10
225.0303802259536
 20
128.4156777148559
 30
0.0
 10
225.3629187128435
 20
128.4156777148559
 30
0.0
  0
ELLIPSE
  5
F5
330
1F
100
AcDbEntity
  8
0
  6
Continuous
 62
     7
370
    15
100
AcDbEllipse
 10
223.2983032349
 20
115.9156854863
 30
0.0
 11
-0.2516063682710126
 21
12.499819213438
 31
0.0
210
0.0
220
0.0
230
1.0
 40
0.2671959542
 41
0.1762003290778134
 42
2.815009419910934
  0
SPLINE
  5
F6
330
1F
100
AcDbEntity
  8
0
  6
Continuous
 62
     7
370
    15
100
AcDbSpline
210
0.0
220
0.0
230
1.0
 70
     8
 71
     3
 72
    14
 73
    10
 74
     0
 42
0.00000001
 43
0.00000001
 12
1.0
 22
0.0
 32
0.0
 13
1.0
 23
0.0
 33
0.0
 40
0.0
 40
0.0
 40
0.0
 40
0.0
 40
0.25
 40
0.25
 40
0.5
 40
0.5
 40
0.75
 40
0.75
 40
1.0
 40
1.0
 40
1.0
 40
1.0
 10
225.3629187128435
 20
103.539282204835
 30
0.0
 10
225.0303795231898
 20
103.539282204835
 30
0.0
 10
224.7070101333227
 20
103.5465011735422
 30
0.0
 10
224.078584463723
 20
103.5794898487081
 30
0.0
 10
223.7896384098136
 20
103.6045392641353
 30
0.0
 10
223.2660667265739
 20
103.6820083006269
 30
0.0
 10
223.0434554069911
 20
103.7328849089282
 30
0.0
 10
222.6812136406786
 20
103.8697831427326
 30
0.0
 10
222.5486660659768
 20
103.9533827410033
 30
0.0
 10
222.4651412339763
 20
104.0549893408083
 30
0.0
  0
LINE
  5
F7
330
1F
100
AcDbEntity
  8
0
  6
Continuous
 62
     7
370
    15
100
AcDbLine
 10
226.6467241865
 20
103.5392822048
 30
0.0
 11
225.3629187128
 21
103.5392822048
 31
0.0
  0
ELLIPSE
  5
F8
330
1F
100
AcDbEntity
  8
0
  6
Continuous
 62
     7
370
    15
100
AcDbEllipse
 10
221.4309930059
 20
121.4909905933
 30
0.0
 11
0.07031259843782323
 21
2.263843720993506
 31
0.0
210
0.0
220
0.0
230
1.0
 40
0.2654103329
 41
0.0
 42
6.283185307179586
  0
SPLINE
  5
F9
330
1F
100
AcDbEntity
  8
0
  6
Continuous
 62
     7
370
    15
100
AcDbSpline
210
0.0
220
0.0
230
1.0
 70
     8
 71
     3
 72
    10
 73
     6
 74
     0
 42
0.00000001
 43
0.00000001
 12
1.0
 22
0.0
 32
0.0
 13
1.0
 23
0.0
 33
0.0
 40
0.0
 40
0.0
 40
0.0
 40
0.0
 40
0.5
 40
0.5
 40
1.0
 40
1.0
 40
1.0
 40
1.0
 10
161.0109377489066
 20
134.786562519415
 30
0.0
 10
161.0109377489066
 20
134.9462394743122
 30
0.0
 10
160.9487517398469
 20
135.1042299199488
 30
0.0
 10
160.7276102885507
 20
135.3345237027433
 30
0.0
 10
160.5704021565658
 20
135.4028607561772
 30
0.0
 10
160.4109377489066
 20
135.4028607561772
 30
0.0
  0
SPLINE
  5
FA
330
1F
100
AcDbEntity
  8
0
  6
Continuous
 62
     7
370
    15
100
AcDbSpline
210
0.0
220
0.0
230
1.0
 70
     8
 71
     3
 72
    12
 73
     8
 74
     0
 42
0.00000001
 43
0.00000001
 12
1.0
 22
0.0
 32
0.0
 13
1.0
 23
0.0
 33
0.0
 40
0.0
 40
0.0
 40
0.0
 40
0.0
 40
0.2500000000000014
 40
0.2500000000000014
 40
0.5000000000000028
 40
0.5000000000000028
 40
1.0
 40
1.0
 40
1.0
 40
1.0
 10
160.4109377489066
 20
132.0270944873496
 30
0.0
 10
160.4999877447906
 20
132.0270944873496
 30
0.0
 10
160.5878949062916
 20
132.0018315436095
 30
0.0
 10
160.7425874972706
 20
131.9118335403433
 30
0.0
 10
160.8076521472029
 20
131.848945075642
 30
0.0
 10
160.9618812137286
 20
131.6327125722393
 30
0.0
 10
161.0109377489066
 20
131.4523380351086
 30
0.0
 10
161.0109377489066
 20
131.2759426455778
 30
0.0
  0
LINE
  5
FB
330
1F
100
AcDbEntity
  8
0
  6
Continuous
 62
     7
370
    15
100
AcDbLine
 10
161.0109377489
 20
131.2759426456
 30
0.0
 11
161.0109377489
 21
134.7865625194
 31
0.0
  0
SPLINE
  5
FC
330
1F
100
AcDbEntity
  8
0
  6
Continuous
 62
     7
370
    15
100
AcDbSpline
210
0.0
220
0.0
230
1.0
 70
     8
 71
     3
 72
     8
 73
     4
 74
     0
 42
0.00000001
 43
0.00000001
 12
1.0
 22
0.0
 32
0.0
 13
1.0
 23
0.0
 33
0.0
 40
0.0
 40
0.0
 40
0.0
 40
0.0
 40
1.0
 40
1.0
 40
1.0
 40
1.0
 10
155.0257780500132
 20
132.0270944873496
 30
0.0
 10
155.3652010912948
 20
131.2973036258302
 30
0.0
 10
155.6977118347898
 20
130.5651352704085
 30
0.0
 10
156.0209377489066
 20
129.8297733857276
 30
0.0
  0
LINE
  5
FD
330
1F
100
AcDbEntity
  8
0
  6
Continuous
 62
     7
370
    15
100
AcDbLine
 10
156.0209377489
 20
129.8297733857
 30
0.0
 11
156.0209377489
 21
129.4315326665
 31
0.0
  0
SPLINE
  5
FE
330
1F
100
AcDbEntity
  8
0
  6
Continuous
 62
     7
370
    15
100
AcDbSpline
210
0.0
220
0.0
230
1.0
 70
     8
 71
     3
 72
    12
 73
     8
 74
     0
 42
0.00000001
 43
0.00000001
 12
1.0
 22
0.0
 32
0.0
 13
1.0
 23
0.0
 33
0.0
 40
0.0
 40
0.0
 40
0.0
 40
0.0
 40
0.4999999999999987
 40
0.4999999999999987
 40
0.7499999999999993
 40
0.7499999999999993
 40
1.0
 40
1.0
 40
1.0
 40
1.0
 10
156.0209377489066
 20
129.4315326665269
 30
0.0
 10
156.0209377489066
 20
129.2470934409004
 30
0.0
 10
156.0677804433591
 20
129.0601842213931
 30
0.0
 10
156.2173324660557
 20
128.8265488687722
 30
0.0
 10
156.2814374613599
 20
128.7562992369951
 30
0.0
 10
156.4356664166665
 20
128.6540584880339
 30
0.0
 10
156.5283429245995
 20
128.6226963464234
 30
0.0
 10
156.6209377489062
 20
128.6226963464234
 30
0.0
  0
LINE
  5
FF
330
1F
100
AcDbEntity
  8
0
  6
Continuous
 62
     7
370
    15
100
AcDbLine
 10
156.6209377489
 20
128.6226963464
 30
0.0
 11
157.5009377489
 21
128.6226963464
 31
0.0
  0
SPLINE
  5
100
330
1F
100
AcDbEntity
  8
0
  6
Continuous
 62
     7
370
    15
100
AcDbSpline
210
0.0
220
0.0
230
1.0
 70
     8
 71
     3
 72
    12
 73
     8
 74
     0
 42
0.00000001
 43
0.00000001
 12
1.0
 22
0.0
 32
0.0
 13
1.0
 23
0.0
 33
0.0
 40
0.0
 40
0.0
 40
0.0
 40
0.0
 40
0.2500000000000003
 40
0.2500000000000003
 40
0.5000000000000006
 40
0.5000000000000006
 40
1.0
 40
1.0
 40
1.0
 40
1.0
 10
157.5009377489066
 20
128.6226963464234
 30
0.0
 10
157.5934797156284
 20
128.6226963464234
 30
0.0
 10
157.6856890927728
 20
128.6537296933396
 30
0.0
 10
157.8408260531497
 20
128.7565405591645
 30
0.0
 10
157.9046359506107
 20
128.8267133735101
 30
0.0
 10
158.0537623864118
 20
129.0596258570381
 30
0.0
 10
158.1009377489066
 20
129.246421219108
 30
0.0
 10
158.1009377489066
 20
129.4315326665269
 30
0.0
  0
LINE
  5
101
330
1F
100
AcDbEntity
  8
0
  6
Continuous
 62
     7
370
    15
100
AcDbLine
 10
158.1009377489
 20
129.4315326665
 30
0.0
 11
158.1009377489
 21
129.8297733857
 31
0.0
  0
SPLINE
  5
102
330
1F
100
AcDbEntity
  8
0
  6
Continuous
 62
     7
370
    15
100
AcDbSpline
210
0.0
220
0.0
230
1.0
 70
     8
 71
     3
 72
     8
 73
     4
 74
     0
 42
0.00000001
 43
0.00000001
 12
1.0
 22
0.0
 32
0.0
 13
1.0
 23
0.0
 33
0.0
 40
0.0
 40
0.0
 40
0.0
 40
0.0
 40
1.0
 40
1.0
 40
1.0
 40
1.0
 10
158.1009377489066
 20
129.8297733857275
 30
0.0
 10
158.4244953071615
 20
130.5658897843501
 30
0.0
 10
158.7569896273785
 20
131.2979813797687
 30
0.0
 10
159.0960974478
 20
132.0270944873496
 30
0.0
  0
LINE
  5
103
330
1F
100
AcDbEntity
  8
0
  6
Continuous
 62
     7
370
    15
100
AcDbLine
 10
159.0960974478
 20
132.0270944873
 30
0.0
 11
160.4109377489
 21
132.0270944873
 31
0.0
  0
LINE
  5
104
330
1F
100
AcDbEntity
  8
0
  6
Continuous
 62
     7
370
    15
100
AcDbLine
 10
161.0109377489
 20
131.2759426456
 30
0.0
 11
161.0109377489
 21
127.7656854863
 31
0.0
  0
SPLINE
  5
105
330
1F
100
AcDbEntity
  8
0
  6
Continuous
 62
     7
370
    15
100
AcDbSpline
210
0.0
220
0.0
230
1.0
 70
    24
 71
     3
 72
    12
 73
     8
 74
     0
 42
0.00000001
 43
0.00000001
 12
1.0
 22
0.0
 32
0.0
 13
1.0
 23
0.0
 33
0.0
 40
0.0
 40
0.0
 40
0.0
 40
0.0
 40
0.5000000000000043
 40
0.5000000000000043
 40
0.7500000000000021
 40
0.7500000000000021
 40
1.0
 40
1.0
 40
1.0
 40
1.0
 10
157.8525933631566
 20
132.8156854862721
 30
0.0
 10
157.8184476148656
 20
132.8156854862721
 30
0.0
 10
157.7792544564606
 20
132.8156854862721
 30
0.0
 10
157.7014067978069
 20
132.8156854862721
 30
0.0
 10
157.6720023390216
 20
132.8156854862721
 30
0.0
 10
157.5989948177157
 20
132.8156854862721
 30
0.0
 10
157.5520894999079
 20
132.8156854862721
 30
0.0
 10
157.5009377489066
 20
132.8156854862721
 30
0.0
  0
SPLINE
  5
106
330
1F
100
AcDbEntity
  8
0
  6
Continuous
 62
     7
370
    15
100
AcDbSpline
210
0.0
220
0.0
230
1.0
 70
     8
 71
     3
 72
    10
 73
     6
 74
     0
 42
0.00000001
 43
0.00000001
 12
1.0
 22
0.0
 32
0.0
 13
1.0
 23
0.0
 33
0.0
 40
0.0
 40
0.0
 40
0.0
 40
0.0
 40
0.5
 40
0.5
 40
1.0
 40
1.0
 40
1.0
 40
1.0
 10
158.1009377489066
 20
133.3182894580908
 30
0.0
 10
158.1009377489064
 20
133.2217469106144
 30
0.0
 10
158.078997126325
 20
133.1252857103442
 30
0.0
 10
157.9928669409331
 20
132.9498831160999
 30
0.0
 10
157.9297846337895
 20
132.8734675837329
 30
0.0
 10
157.8525933631566
 20
132.8156854862721
 30
0.0
  0
SPLINE
  5
107
330
1F
100
AcDbEntity
  8
0
  6
Continuous
 62
     7
370
    15
100
AcDbSpline
210
0.0
220
0.0
230
1.0
 70
     8
 71
     3
 72
     8
 73
     4
 74
     0
 42
0.00000001
 43
0.00000001
 12
1.0
 22
0.0
 32
0.0
 13
1.0
 23
0.0
 33
0.0
 40
0.0
 40
0.0
 40
0.0
 40
0.0
 40
1.0
 40
1.0
 40
1.0
 40
1.0
 10
156.0209377489066
 20
133.6293621818023
 30
0.0
 10
155.6899174178869
 20
134.2209178782601
 30
0.0
 10
155.3581361464028
 20
134.8120505425053
 30
0.0
 10
155.0257780500132
 20
135.4028607561772
 30
0.0
  0
LINE
  5
108
330
1F
100
AcDbEntity
  8
0
  6
Continuous
 62
     7
370
    15
100
AcDbLine
 10
156.0209377489
 20
129.8297733857
 30
0.0
 11
156.0209377489
 21
133.6293621818
 31
0.0
  0
LINE
  5
109
330
1F
100
AcDbEntity
  8
0
  6
Continuous
 62
     7
370
    15
100
AcDbLine
 10
160.4109377489
 20
135.4028607562
 30
0.0
 11
159.0960974478
 21
135.4028607562
 31
0.0
  0
LINE
  5
10A
330
1F
100
AcDbEntity
  8
0
  6
Continuous
 62
     7
370
    15
100
AcDbLine
 10
159.0960974478
 20
132.0270944873
 30
0.0
 11
159.0960974478
 21
135.4028607562
 31
0.0
  0
SPLINE
  5
10B
330
1F
100
AcDbEntity
  8
0
  6
Continuous
 62
     7
370
    15
100
AcDbSpline
210
0.0
220
0.0
230
1.0
 70
     8
 71
     3
 72
    10
 73
     6
 74
     0
 42
0.00000001
 43
0.00000001
 12
1.0
 22
0.0
 32
0.0
 13
1.0
 23
0.0
 33
0.0
 40
0.0
 40
0.0
 40
0.0
 40
0.0
 40
0.5
 40
0.5
 40
1.0
 40
1.0
 40
1.0
 40
1.0
 10
156.2692821346566
 20
132.8156854862721
 30
0.0
 10
156.1919574027823
 20
132.8735674871338
 30
0.0
 10
156.1285775772458
 20
132.9506408317677
 30
0.0
 10
156.0430071284728
 20
133.1251438899615
 30
0.0
 10
156.0209377489066
 20
133.221949093442
 30
0.0
 10
156.0209377489066
 20
133.318289458092
 30
0.0
  0
SPLINE
  5
10C
330
1F
100
AcDbEntity
  8
0
  6
Continuous
 62
     7
370
    15
100
AcDbSpline
210
0.0
220
0.0
230
1.0
 70
    24
 71
     3
 72
    12
 73
     8
 74
     0
 42
0.00000001
 43
0.00000001
 12
1.0
 22
0.0
 32
0.0
 13
1.0
 23
0.0
 33
0.0
 40
0.0
 40
0.0
 40
0.0
 40
0.0
 40
0.25
 40
0.25
 40
0.5
 40
0.5
 40
1.0
 40
1.0
 40
1.0
 40
1.0
 10
156.6209377489064
 20
132.8156854862721
 30
0.0
 10
156.56964850387
 20
132.8156854862721
 30
0.0
 10
156.5224604781983
 20
132.8156854862721
 30
0.0
 10
156.4494442695033
 20
132.8156854862721
 30
0.0
 10
156.4199526619637
 20
132.8156854862721
 30
0.0
 10
156.3423706228692
 20
132.8156854862721
 30
0.0
 10
156.3032093101539
 20
132.8156854862721
 30
0.0
 10
156.2692821346558
 20
132.8156854862721
 30
0.0
  0
SPLINE
  5
10D
330
1F
100
AcDbEntity
  8
0
  6
Continuous
 62
     7
370
    15
100
AcDbSpline
210
0.0
220
0.0
230
1.0
 70
     8
 71
     3
 72
     8
 73
     4
 74
     0
 42
0.00000001
 43
0.00000001
 12
1.0
 22
0.0
 32
0.0
 13
1.0
 23
0.0
 33
0.0
 40
0.0
 40
0.0
 40
0.0
 40
0.0
 40
1.0
 40
1.0
 40
1.0
 40
1.0
 10
159.0960974478
 20
135.4028607561772
 30
0.0
 10
158.7637393514104
 20
134.8120505425053
 30
0.0
 10
158.4319580799263
 20
134.2209178782601
 30
0.0
 10
158.1009377489066
 20
133.6293621818023
 30
0.0
  0
LINE
  5
10E
330
1F
100
AcDbEntity
  8
0
  6
Continuous
 62
     7
370
    15
100
AcDbLine
 10
158.1009377489
 20
129.8297733857
 30
0.0
 11
158.1009377489
 21
133.6293621818
 31
0.0
  0
LINE
  5
10F
330
1F
100
AcDbEntity
  8
0
  6
Continuous
 62
     7
370
    15
100
AcDbLine
 10
157.5009377489
 20
132.8156854863
 30
0.0
 11
156.6209377489
 21
132.8156854863
 31
0.0
  0
LINE
  5
110
330
1F
100
AcDbEntity
  8
0
  6
Continuous
 62
     7
370
    15
100
AcDbLine
 10
121.1609377489
 20
104.0972132136
 30
0.0
 11
121.1609377489
 21
104.3681722851
 31
0.0
  0
LINE
  5
111
330
1F
100
AcDbEntity
  8
0
  6
Continuous
 62
     7
370
    15
100
AcDbLine
 10
121.1609377489
 20
127.7895996236
 30
0.0
 11
121.1609377489
 21
127.6939169507
 31
0.0
  0
LINE
  5
112
330
1F
100
AcDbEntity
  8
0
  6
Continuous
 62
     7
370
    15
100
AcDbLine
 10
122.1109377489
 20
128.7956854863
 30
0.0
 11
122.1109377489
 21
128.7812660333
 31
0.0
  0
LINE
  5
113
330
1F
100
AcDbEntity
  8
0
  6
Continuous
 62
     7
370
    15
100
AcDbLine
 10
121.1609377489
 20
127.8456854863
 30
0.0
 11
121.1609377489
 21
127.7895996236
 31
0.0
  0
LINE
  5
114
330
1F
100
AcDbEntity
  8
0
  6
Continuous
 62
     7
370
    15
100
AcDbLine
 10
122.1699377489
 20
103.0356854863
 30
0.0
 11
122.1699377489
 21
103.0646186087
 31
0.0
  0
LINE
  5
115
330
1F
100
AcDbEntity
  8
0
  6
Continuous
 62
     7
370
    15
100
AcDbLine
 10
121.1609377489
 20
104.0446854863
 30
0.0
 11
121.1609377489
 21
104.0972132136
 31
0.0
  0
SPLINE
  5
116
330
1F
100
AcDbEntity
  8
0
  6
Continuous
 62
     7
370
    15
100
AcDbSpline
210
0.0
220
0.0
230
1.0
 70
     8
 71
     3
 72
    10
 73
     6
 74
     0
 42
0.00000001
 43
0.00000001
 12
1.0
 22
0.0
 32
0.0
 13
1.0
 23
0.0
 33
0.0
 40
0.0
 40
0.0
 40
0.0
 40
0.0
 40
0.5
 40
0.5
 40
1.0
 40
1.0
 40
1.0
 40
1.0
 10
226.6467241865335
 20
128.4156777148559
 30
0.0
 10
226.7787754399556
 20
128.4156777148559
 30
0.0
 10
226.908361731276
 20
128.4416695258582
 30
0.0
 10
227.1503520441367
 20
128.5418944536996
 30
0.0
 10
227.2605700235623
 20
128.6153194108125
 30
0.0
 10
227.3538309677203
 20
128.7085770319148
 30
0.0
  0
SPLINE
  5
117
330
1F
100
AcDbEntity
  8
0
  6
Continuous
 62
     7
370
    15
100
AcDbSpline
210
0.0
220
0.0
230
1.0
 70
     8
 71
     3
 72
    10
 73
     6
 74
     0
 42
0.00000001
 43
0.00000001
 12
1.0
 22
0.0
 32
0.0
 13
1.0
 23
0.0
 33
0.0
 40
0.0
 40
0.0
 40
0.0
 40
0.0
 40
0.5
 40
0.5
 40
1.0
 40
1.0
 40
1.0
 40
1.0
 10
227.3538309677201
 20
103.2463828877759
 30
0.0
 10
227.2605714518517
 20
103.3396390806394
 30
0.0
 10
227.1506678372089
 20
103.4128841788106
 30
0.0
 10
226.9087032218272
 20
103.5131993174267
 30
0.0
 10
226.7787815158068
 20
103.5392822048352
 30
0.0
 10
226.6467241865335
 20
103.5392822048353
 30
0.0
  0
LINE
  5
118
330
1F
100
AcDbEntity
  8
0
  6
Continuous
 62
     7
370
    15
100
AcDbLine
 10
237.8067414989
 20
122.1190222236
 30
0.0
 11
235.6066808127
 21
121.4270355149
 31
0.0
  0
ARC
  5
119
330
1F
100
AcDbEntity
  8
0
  6
Continuous
 62
     7
370
    15
100
AcDbCircle
 10
236.0605936033
 20
119.9836409429
 30
0.0
 40
1.513084502519567
100
AcDbArc
 50
107.4571045453
 51
287.6231270656
  0
LINE
  5
11A
330
1F
100
AcDbEntity
  8
0
  6
Continuous
 62
     7
370
    15
100
AcDbLine
 10
236.5186869197
 20
118.5415677044
 30
0.0
 11
237.3122282276
 21
118.7911608367
 31
0.0
  0
LINE
  5
11B
330
1F
100
AcDbEntity
  8
0
  6
Continuous
 62
     7
370
    15
100
AcDbLine
 10
247.5514041863
 20
121.9940944652
 30
0.0
 11
241.5603839229
 21
103.039291434
 31
0.0
  0
LINE
  5
11C
330
1F
100
AcDbEntity
  8
0
  6
Continuous
 62
     7
370
    15
100
AcDbLine
 10
241.5603839229
 20
103.039291434
 30
0.0
 11
227.5609377489
 21
103.039291434
 31
0.0
  0
LINE
  5
11D
330
1F
100
AcDbEntity
  8
0
  6
Continuous
 62
     7
370
    15
100
AcDbLine
 10
227.5609377489
 20
103.039291434
 30
0.0
 11
227.3538309677
 21
103.2463828878
 31
0.0
  0
LINE
  5
11E
330
1F
100
AcDbEntity
  8
0
  6
Continuous
 62
     7
370
    15
100
AcDbLine
 10
227.3538309677
 20
128.7085770319
 30
0.0
 11
227.797012976
 21
129.1517075075
 31
0.0
  0
LINE
  5
11F
330
1F
100
AcDbEntity
  8
0
  6
Continuous
 62
     7
370
    15
100
AcDbLine
 10
227.797012976
 20
129.1517075075
 30
0.0
 11
235.5120950881
 21
129.1517075075
 31
0.0
  0
ELLIPSE
  5
120
330
1F
100
AcDbEntity
  8
0
  6
Continuous
 62
     7
370
    15
100
AcDbEllipse
 10
235.5120950881
 20
155.2831526437
 30
0.0
 11
1.989519660128280E-13
 21
26.1314451361938
 31
0.0
210
0.0
220
0.0
230
1.0
 40
0.9949698482
 41
3.141592653589815
 42
3.323309815865632
  0
LINE
  5
121
330
1F
100
AcDbEntity
  8
0
  6
Continuous
 62
     7
370
    15
100
AcDbLine
 10
227.5609377489
 20
103.039291434
 30
0.0
 11
227.5609377489
 21
102.9156854863
 31
0.0
  0
ELLIPSE
  5
122
330
1F
100
AcDbEntity
  8
0
  6
Continuous
 62
     7
370
    15
100
AcDbEllipse
 10
245.535692115
 20
115.9156854863
 30
0.0
 11
4.247080252762998
 21
12.99357047085403
 31
0.0
210
0.0
220
0.0
230
1.0
 40
0.0962569477
 41
3.173044837569576
 42
3.311053936035233
  0
ARC
  5
123
330
1F
100
AcDbEntity
  8
0
  6
Continuous
 62
     7
370
    15
100
AcDbCircle
 10
236.0607894821
 20
119.8323313061
 30
0.0
 40
1.247232286245944
100
AcDbArc
 50
107.448847496
 51
287.6313841149
  0
LINE
  5
124
330
1F
100
AcDbEntity
  8
0
  6
Continuous
 62
     7
370
    15
100
AcDbLine
 10
236.4385661156
 20
118.6436878814
 30
0.0
 11
237.0831492118
 21
118.8464290776
 31
0.0
  0
LINE
  5
125
330
1F
100
AcDbEntity
  8
0
  6
Continuous
 62
     7
370
    15
100
AcDbLine
 10
235.6868016169
 20
121.0221722419
 30
0.0
 11
237.6558068974
 21
121.6414849237
 31
0.0
  0
ARC
  5
126
330
1F
100
AcDbEntity
  8
0
  6
Continuous
 62
     7
370
    15
100
AcDbCircle
 10
236.0599129777
 20
119.7273875858
 30
0.0
 40
1.247264599098705
100
AcDbArc
 50
107.4061796926
 51
177.5542470864
  0
LINE
  5
127
330
1F
100
AcDbEntity
  8
0
  6
Continuous
 62
     7
370
    15
100
AcDbLine
 10
237.6190844368
 20
121.5252998704
 30
0.0
 11
235.6868016169
 21
120.9175375312
 31
0.0
  0
LINE
  5
128
330
1F
100
AcDbEntity
  8
0
  6
HIDDEN
 62
     7
370
     0
100
AcDbLine
 10
141.0609377489
 20
135.6156854862
 30
0.0
 11
141.0609377489
 21
96.2156854863
 31
0.0
  0
LINE
  5
129
330
1F
100
AcDbEntity
  8
0
  6
HIDDEN
 62
     7
370
     0
100
AcDbLine
 10
149.0109377489
 20
95.9156854863
 30
0.0
 11
149.0109377489
 21
95.9407011308
 31
0.0
  0
SPLINE
  5
12A
330
1F
100
AcDbEntity
  8
0
  6
HIDDEN
 62
     7
370
     0
100
AcDbSpline
210
0.0
220
0.0
230
1.0
 70
     8
 71
     3
 72
    22
 73
    18
 74
     0
 42
0.00000001
 43
0.00000001
 12
1.0
 22
0.0
 32
0.0
 13
1.0
 23
0.0
 33
0.0
 40
0.0
 40
0.0
 40
0.0
 40
0.0
 40
0.125
 40
0.125
 40
0.25
 40
0.25
 40
0.375
 40
0.375
 40
0.5
 40
0.5
 40
0.625
 40
0.625
 40
0.75
 40
0.75
 40
0.875
 40
0.875
 40
1.0
 40
1.0
 40
1.0
 40
1.0
 10
149.0109377489066
 20
95.94070113083392
 30
0.0
 10
149.0109377489066
 20
95.95565672344324
 30
0.0
 10
149.0403861700368
 20
95.97704492008963
 30
0.0
 10
149.1552240362607
 20
96.03142316670493
 30
0.0
 10
149.2420368747984
 20
96.06486933031331
 30
0.0
 10
149.4676842470944
 20
96.13963360571105
 30
0.0
 10
149.6055213887585
 20
96.18073209467198
 30
0.0
 10
149.9307223486629
 20
96.26728502363576
 30
0.0
 10
150.1194246285709
 20
96.31293592273366
 30
0.0
 10
150.5317563488032
 20
96.4012154778985
 30
0.0
 10
150.756903275155
 20
96.44431682790577
 30
0.0
 10
151.2468791265123
 20
96.52452100776101
 30
0.0
 10
151.5075867686342
 20
96.56081585515057
 30
0.0
 10
152.0484441493498
 20
96.62099507430028
 30
0.0
 10
152.3321347754039
 20
96.64528241173137
 30
0.0
 10
152.9162171463333
 20
96.67828050604274
 30
0.0
 10
153.2117847013252
 20
96.68680096324267
 30
0.0
 10
153.5109377489066
 20
96.68680096324267
 30
0.0
  0
LINE
  5
12B
330
1F
100
AcDbEntity
  8
0
  6
HIDDEN
 62
     7
370
     0
100
AcDbLine
 10
153.5109377489
 20
96.6868009632
 30
0.0
 11
155.02577805
 21
96.6868009632
 31
0.0
  0
LINE
  5
12C
330
1F
100
AcDbEntity
  8
0
  6
HIDDEN
 62
     7
370
     0
100
AcDbLine
 10
155.02577805
 20
135.4028607562
 30
0.0
 11
155.02577805
 21
96.6868009632
 31
0.0
  0
LINE
  5
12D
330
1F
100
AcDbEntity
  8
0
  6
HIDDEN
 62
     7
370
     0
100
AcDbLine
 10
153.5109377489
 20
135.4028607562
 30
0.0
 11
155.02577805
 21
135.4028607562
 31
0.0
  0
SPLINE
  5
12E
330
1F
100
AcDbEntity
  8
0
  6
HIDDEN
 62
     7
370
     0
100
AcDbSpline
210
0.0
220
0.0
230
1.0
 70
     8
 71
     3
 72
    24
 73
    20
 74
     0
 42
0.00000001
 43
0.00000001
 12
1.0
 22
0.0
 32
0.0
 13
1.0
 23
0.0
 33
0.0
 40
0.0
 40
0.0
 40
0.0
 40
0.0
 40
0.0117108479684155
 40
0.0659886652196444
 40
0.1175733135097369
 40
0.2219206899934063
 40
0.2751659214289718
 40
0.327170198890523
 40
0.3795264623521005
 40
0.4324220204275581
 40
0.4860528389495238
 40
0.5922069127842079
 40
0.6466606580976284
 40
0.7015149577857733
 40
0.8079331014439364
 40
0.8625917450474978
 40
0.9176759779605487
 40
0.9587469663700551
 40
1.0
 40
1.0
 40
1.0
 40
1.0
 10
149.0136678844961
 20
135.9150717094986
 30
0.0
 10
149.0128284090205
 20
135.9152604361048
 30
0.0
 10
149.0080981054364
 20
135.9163238788946
 30
0.0
 10
149.0309784079213
 20
135.9111729094921
 30
0.0
 10
149.1000189008861
 20
135.8957658075177
 30
0.0
 10
149.2321964322164
 20
135.8667514901382
 30
0.0
 10
149.420472318423
 20
135.8273437934347
 30
0.0
 10
149.5899077876906
 20
135.7931595353285
 30
0.0
 10
149.7850962069755
 20
135.7554918901002
 30
0.0
 10
150.0076688621995
 20
135.7148007092008
 30
0.0
 10
150.3377302051625
 20
135.6582662272044
 30
0.0
 10
150.7164393330638
 20
135.600401276974
 30
0.0
 10
151.1351023738792
 20
135.5462599399264
 30
0.0
 10
151.5775197463957
 20
135.4963066967921
 30
0.0
 10
152.0512100096468
 20
135.4548350278481
 30
0.0
 10
152.5444862758403
 20
135.4255619674393
 30
0.0
 10
152.8957005984741
 20
135.4116567895011
 30
0.0
 10
153.2189285834093
 20
135.4041295752996
 30
0.0
 10
153.4134579711335
 20
135.4032843189304
 30
0.0
 10
153.5109377489066
 20
135.4028607561772
 30
0.0
  0
SPLINE
  5
12F
330
1F
100
AcDbEntity
  8
0
  6
HIDDEN
 62
     7
370
     0
100
AcDbSpline
210
0.0
220
0.0
230
1.0
 70
     8
 71
     3
 72
    76
 73
    72
 74
     0
 42
0.00000001
 43
0.00000001
 12
1.0
 22
0.0
 32
0.0
 13
1.0
 23
0.0
 33
0.0
 40
-0.03125
 40
-0.03125
 40
0.0
 40
0.0
 40
0.03125
 40
0.03125
 40
0.0625
 40
0.0625
 40
0.0937499999999999
 40
0.0937499999999999
 40
0.1249999999999999
 40
0.1249999999999999
 40
0.1562499999999999
 40
0.1562499999999999
 40
0.1874999999999999
 40
0.1874999999999999
 40
0.2031249999999999
 40
0.2031249999999999
 40
0.2187499999999999
 40
0.2187499999999999
 40
0.25
 40
0.25
 40
0.2812500000000001
 40
0.2812500000000001
 40
0.3125000000000002
 40
0.3125000000000002
 40
0.3437500000000003
 40
0.3437500000000003
 40
0.3750000000000004
 40
0.3750000000000004
 40
0.4062500000000005
 40
0.4062500000000005
 40
0.4375000000000006
 40
0.4375000000000006
 40
0.4687500000000007
 40
0.4687500000000007
 40
0.4843750000000007
 40
0.4843750000000007
 40
0.5000000000000007
 40
0.5000000000000007
 40
0.5312500000000007
 40
0.5312500000000007
 40
0.5625000000000007
 40
0.5625000000000007
 40
0.5937500000000007
 40
0.5937500000000007
 40
0.6250000000000006
 40
0.6250000000000006
 40
0.6562500000000007
 40
0.6562500000000007
 40
0.6875000000000008
 40
0.6875000000000008
 40
0.7187500000000009
 40
0.7187500000000009
 40
0.7343750000000009
 40
0.7343750000000009
 40
0.7500000000000009
 40
0.7500000000000009
 40
0.7812500000000008
 40
0.7812500000000008
 40
0.8125000000000007
 40
0.8125000000000007
 40
0.8437500000000006
 40
0.8437500000000006
 40
0.8750000000000003
 40
0.8750000000000003
 40
0.9062500000000002
 40
0.9062500000000002
 40
0.9375000000000001
 40
0.9375000000000001
 40
0.96875
 40
0.96875
 40
1.0
 40
1.0
 40
1.03125
 40
1.03125
 10
143.0609377489066
 20
116.2474201303179
 30
0.0
 10
143.0609377489066
 20
115.5839508422263
 30
0.0
 10
143.0936226846246
 20
115.2580163797136
 30
0.0
 10
143.2214469266354
 20
114.6171955237708
 30
0.0
 10
143.318225199891
 20
114.2989100817284
 30
0.0
 10
143.5696778738755
 20
113.6940037434784
 30
0.0
 10
143.7233580545704
 20
113.4073204267546
 30
0.0
 10
144.0861905778845
 20
112.8648040066046
 30
0.0
 10
144.2964535350415
 20
112.6090109180106
 30
0.0
 10
144.7557572154638
 20
112.1498894564561
 30
0.0
 10
145.0065980748394
 20
111.9434133988271
 30
0.0
 10
145.5526294673053
 20
111.5779065677788
 30
0.0
 10
145.8415005800047
 20
111.4234703631602
 30
0.0
 10
146.2922500361542
 20
111.2361322715396
 30
0.0
 10
146.4457363518271
 20
111.1809202511788
 30
0.0
 10
146.7593652553917
 20
111.085283181215
 30
0.0
 10
146.9204694395247
 20
111.0447047162265
 30
0.0
 10
147.404966307527
 20
110.947970923666
 30
0.0
 10
147.7302473771428
 20
110.9158932014275
 30
0.0
 10
148.385316750069
 20
110.9154797627869
 30
0.0
 10
148.7181380827032
 20
110.9482581890644
 30
0.0
 10
149.3604466794289
 20
111.0764166601705
 30
0.0
 10
149.6727681608752
 20
111.1712204545156
 30
0.0
 10
150.2797474754283
 20
111.4229325315683
 30
0.0
 10
150.5703074939306
 20
111.5787926566768
 30
0.0
 10
151.1104970281374
 20
111.940039106739
 30
0.0
 10
151.3645017780849
 20
112.148228620756
 30
0.0
 10
151.8277257899615
 20
112.6113588707313
 30
0.0
 10
152.0336924708285
 20
112.8623290879005
 30
0.0
 10
152.3957463775242
 20
113.4026794120073
 30
0.0
 10
152.552892303985
 20
113.6955259499475
 30
0.0
 10
152.8036280179056
 20
114.299005832177
 30
0.0
 10
152.8987979088166
 20
114.6107267161474
 30
0.0
 10
152.995628391488
 20
115.0936268863767
 30
0.0
 10
153.0202536386783
 20
115.2581409542028
 30
0.0
 10
153.0527963428653
 20
115.5862516019852
 30
0.0
 10
153.0608681107434
 20
115.7500407609081
 30
0.0
 10
153.0610756825763
 20
116.2406283078738
 30
0.0
 10
153.0294403637872
 20
116.5666540260089
 30
0.0
 10
152.9000999695527
 20
117.2165649103824
 30
0.0
 10
152.8046001158596
 20
117.5293699212621
 30
0.0
 10
152.554859957944
 20
118.1317570750288
 30
0.0
 10
152.3983994615171
 20
118.4242804756242
 30
0.0
 10
152.0352959575414
 20
118.9670949570612
 30
0.0
 10
151.8293699073118
 20
119.2179878493424
 30
0.0
 10
151.3686552235579
 20
119.6793654590553
 30
0.0
 10
151.1128717449697
 20
119.8895091677537
 30
0.0
 10
150.5728985755124
 20
120.2510780375214
 30
0.0
 10
150.2863178629059
 20
120.4052465675225
 30
0.0
 10
149.6781791781832
 20
120.6583646356024
 30
0.0
 10
149.3634391434451
 20
120.7540727992229
 30
0.0
 10
148.8834643361116
 20
120.8502650460285
 30
0.0
 10
148.7217396875982
 20
120.8745502613944
 30
0.0
 10
148.3947413722227
 20
120.9072357666147
 30
0.0
 10
148.2284895712912
 20
120.9155981190861
 30
0.0
 10
147.7337174287806
 20
120.9158581490836
 30
0.0
 10
147.4082777882269
 20
120.8837066962729
 30
0.0
 10
146.7659897204422
 20
120.7561719670784
 30
0.0
 10
146.4468231604972
 20
120.6592325365429
 30
0.0
 10
145.8436471171264
 20
120.409039108776
 30
0.0
 10
145.556514605898
 20
120.2556605143538
 30
0.0
 10
145.0111703153005
 20
119.8914165038996
 30
0.0
 10
144.7573868718925
 20
119.682891153314
 30
0.0
 10
144.2981940331148
 20
119.2243176302377
 30
0.0
 10
144.0893341056825
 20
118.9708292007318
 30
0.0
 10
143.7243219831687
 20
118.4259249798716
 30
0.0
 10
143.5706949544154
 20
118.1391923775815
 30
0.0
 10
143.3200044405479
 20
117.5373558026051
 30
0.0
 10
143.2225585298943
 20
117.218783028786
 30
0.0
 10
143.0936318202955
 20
116.5743572435686
 30
0.0
 10
143.0609377489066
 20
116.2474201303179
 30
0.0
 10
143.0609377489066
 20
115.5839508422263
 30
0.0
  0
SPLINE
  5
130
330
1F
100
AcDbEntity
  8
0
  6
HIDDEN
 62
     7
370
     0
100
AcDbSpline
210
0.0
220
0.0
230
1.0
 70
     8
 71
     3
 72
    10
 73
     6
 74
     0
 42
0.00000001
 43
0.00000001
 12
1.0
 22
0.0
 32
0.0
 13
1.0
 23
0.0
 33
0.0
 40
0.0
 40
0.0
 40
0.0
 40
0.0
 40
0.5
 40
0.5
 40
1.0
 40
1.0
 40
1.0
 40
1.0
 10
158.1009377489066
 20
98.80280656424381
 30
0.0
 10
158.1009377489066
 20
98.83902905368444
 30
0.0
 10
158.0979680196092
 20
98.8752222509429
 30
0.0
 10
158.0860890372613
 20
98.94686074235754
 30
0.0
 10
158.0772938094207
 20
98.98173406699914
 30
0.0
 10
158.0657153483255
 20
99.01568548627147
 30
0.0
  0
LINE
  5
131
330
1F
100
AcDbEntity
  8
0
  6
HIDDEN
 62
     7
370
     0
100
AcDbLine
 10
158.1009377489
 20
98.8028065642
 30
0.0
 11
158.1009377489
 21
127.7656854863
 31
0.0
  0
SPLINE
  5
132
330
1F
100
AcDbEntity
  8
0
  6
HIDDEN
 62
     7
370
     0
100
AcDbSpline
210
0.0
220
0.0
230
1.0
 70
     8
 71
     3
 72
    10
 73
     6
 74
     0
 42
0.00000001
 43
0.00000001
 12
1.0
 22
0.0
 32
0.0
 13
1.0
 23
0.0
 33
0.0
 40
0.0
 40
0.0
 40
0.0
 40
0.0
 40
0.5
 40
0.5
 40
1.0
 40
1.0
 40
1.0
 40
1.0
 10
156.056160149488
 20
99.0156854862721
 30
0.0
 10
156.0444480325249
 20
98.98134214907813
 30
0.0
 10
156.0356499626528
 20
98.94624961133992
 30
0.0
 10
156.0238364048807
 20
98.8745778359492
 30
0.0
 10
156.0209377489066
 20
98.83863418158391
 30
0.0
 10
156.0209377489066
 20
98.80280656424381
 30
0.0
  0
LINE
  5
133
330
1F
100
AcDbEntity
  8
0
  6
HIDDEN
 62
     7
370
     0
100
AcDbLine
 10
156.0209377489
 20
98.8028065642
 30
0.0
 11
156.0209377489
 21
127.7656854863
 31
0.0
  0
LINE
  5
134
330
1F
100
AcDbEntity
  8
0
  6
HIDDEN
 62
     7
370
     0
100
AcDbLine
 10
149.0109377489
 20
127.7656854863
 30
0.0
 11
153.5046082236
 21
127.7656854863
 31
0.0
  0
LINE
  5
135
330
1F
100
AcDbEntity
  8
0
  6
HIDDEN
 62
     7
370
     0
100
AcDbLine
 10
141.0609377489
 20
99.7084848012
 30
0.0
 11
141.0609377489
 21
132.1050726991
 31
0.0
  0
LINE
  5
136
330
1F
100
AcDbEntity
  8
0
  6
HIDDEN
 62
     7
370
     0
100
AcDbLine
 10
161.0109377489
 20
100.4156854863
 30
0.0
 11
161.0109377489
 21
131.3975850022
 31
0.0
  0
SPLINE
  5
137
330
1F
100
AcDbEntity
  8
0
  6
HIDDEN
 62
     7
370
     0
100
AcDbSpline
210
0.0
220
0.0
230
1.0
 70
     8
 71
     3
 72
     8
 73
     4
 74
     0
 42
0.00000001
 43
0.00000001
 12
1.0
 22
0.0
 32
0.0
 13
1.0
 23
0.0
 33
0.0
 40
0.0
 40
0.0
 40
0.0
 40
0.0
 40
1.0
 40
1.0
 40
1.0
 40
1.0
 10
122.1024215993375
 20
103.2125077867285
 30
0.0
 10
122.1165560439657
 20
103.1617114630953
 30
0.0
 10
122.1396134191143
 20
103.1124727125351
 30
0.0
 10
122.1699377489066
 20
103.0646186087158
 30
0.0
  0
SPLINE
  5
138
330
1F
100
AcDbEntity
  8
0
  6
HIDDEN
 62
     7
370
     0
100
AcDbSpline
210
0.0
220
0.0
230
1.0
 70
     8
 71
     3
 72
    10
 73
     6
 74
     0
 42
0.00000001
 43
0.00000001
 12
1.0
 22
0.0
 32
0.0
 13
1.0
 23
0.0
 33
0.0
 40
0.0
 40
0.0
 40
0.0
 40
0.0
 40
0.5
 40
0.5
 40
1.0
 40
1.0
 40
1.0
 40
1.0
 10
122.1699377489066
 20
103.0646186087158
 30
0.0
 10
122.385296779464
 20
103.0716314396863
 30
0.0
 10
122.599738117788
 20
103.0804061633416
 30
0.0
 10
123.0247293364085
 20
103.1054593408894
 30
0.0
 10
123.2361020681312
 20
103.1201451736898
 30
0.0
 10
123.4401143572082
 20
103.1490633591945
 30
0.0
  0
SPLINE
  5
139
330
1F
100
AcDbEntity
  8
0
  6
HIDDEN
 62
     7
370
     0
100
AcDbSpline
210
0.0
220
0.0
230
1.0
 70
     8
 71
     3
 72
    10
 73
     6
 74
     0
 42
0.00000001
 43
0.00000001
 12
1.0
 22
0.0
 32
0.0
 13
1.0
 23
0.0
 33
0.0
 40
0.0
 40
0.0
 40
0.0
 40
0.0
 40
0.5
 40
0.5
 40
1.0
 40
1.0
 40
1.0
 40
1.0
 10
123.4401143572082
 20
103.1490633591945
 30
0.0
 10
123.9130187877978
 20
103.2160962723181
 30
0.0
 10
124.3960237206422
 20
103.2739647734839
 30
0.0
 10
125.3718380989951
 20
103.3808059218441
 30
0.0
 10
125.8653123120191
 20
103.4295568561828
 30
0.0
 10
126.3609377489065
 20
103.4753154387611
 30
0.0
  0
SPLINE
  5
13A
330
1F
100
AcDbEntity
  8
0
  6
HIDDEN
 62
     7
370
     0
100
AcDbSpline
210
0.0
220
0.0
230
1.0
 70
     8
 71
     3
 72
    14
 73
    10
 74
     0
 42
0.00000001
 43
0.00000001
 12
1.0
 22
0.0
 32
0.0
 13
1.0
 23
0.0
 33
0.0
 40
0.0
 40
0.0
 40
0.0
 40
0.0
 40
0.1250000000000018
 40
0.1250000000000018
 40
0.2500000000000037
 40
0.2500000000000037
 40
0.5000000000000029
 40
0.5000000000000029
 40
1.0
 40
1.0
 40
1.0
 40
1.0
 10
126.3609377489066
 20
103.475315438761
 30
0.0
 10
126.4099500717179
 20
103.4798404979162
 30
0.0
 10
126.4627562967133
 20
103.4717211123617
 30
0.0
 10
126.5478233884429
 20
103.4413910372103
 30
0.0
 10
126.5824075737836
 20
103.4207360801338
 30
0.0
 10
126.6709632591209
 20
103.356199956807
 30
0.0
 10
126.7118989604421
 20
103.3089617767544
 30
0.0
 10
126.815779487345
 20
103.1691656754707
 30
0.0
 10
126.8590032867772
 20
103.0752807366014
 30
0.0
 10
126.8932026560497
 20
102.9853096233874
 30
0.0
  0
SPLINE
  5
13B
330
1F
100
AcDbEntity
  8
0
  6
HIDDEN
 62
     7
370
     0
100
AcDbSpline
210
0.0
220
0.0
230
1.0
 70
     8
 71
     3
 72
    12
 73
     8
 74
     0
 42
0.00000001
 43
0.00000001
 12
1.0
 22
0.0
 32
0.0
 13
1.0
 23
0.0
 33
0.0
 40
0.0
 40
0.0
 40
0.0
 40
0.0
 40
0.2500000000000001
 40
0.2500000000000001
 40
0.5000000000000001
 40
0.5000000000000001
 40
1.0
 40
1.0
 40
1.0
 40
1.0
 10
126.8932026560497
 20
102.9853096233874
 30
0.0
 10
126.9186268729437
 20
102.9184240303136
 30
0.0
 10
126.9592387125129
 20
102.85397554063
 30
0.0
 10
127.0438398587851
 20
102.7289748805521
 30
0.0
 10
127.0879366550706
 20
102.66845613536
 30
0.0
 10
127.2040057635567
 20
102.4922500792516
 30
0.0
 10
127.2609377489066
 20
102.3818556642798
 30
0.0
 10
127.2609377489066
 20
102.2789387881866
 30
0.0
  0
LINE
  5
13C
330
1F
100
AcDbEntity
  8
0
  6
HIDDEN
 62
     7
370
     0
100
AcDbLine
 10
127.2609377489
 20
102.2789387882
 30
0.0
 11
127.2609377489
 21
101.4031674502
 31
0.0
  0
LINE
  5
13D
330
1F
100
AcDbEntity
  8
0
  6
HIDDEN
 62
     7
370
     0
100
AcDbLine
 10
124.7609377489
 20
130.3029530213
 30
0.0
 11
124.7609377489
 21
129.473209608
 31
0.0
  0
SPLINE
  5
13E
330
1F
100
AcDbEntity
  8
0
  6
HIDDEN
 62
     7
370
     0
100
AcDbSpline
210
0.0
220
0.0
230
1.0
 70
     8
 71
     3
 72
    20
 73
    16
 74
     0
 42
0.00000001
 43
0.00000001
 12
1.0
 22
0.0
 32
0.0
 13
1.0
 23
0.0
 33
0.0
 40
0.0
 40
0.0
 40
0.0
 40
0.0
 40
0.2500000000000009
 40
0.2500000000000009
 40
0.5000000000000019
 40
0.5000000000000019
 40
0.7500000000000029
 40
0.7500000000000029
 40
0.875000000000002
 40
0.875000000000002
 40
0.9375000000000028
 40
0.9375000000000028
 40
0.9687500000000014
 40
0.9687500000000014
 40
1.0
 40
1.0
 40
1.0
 40
1.0
 10
124.7609377489075
 20
129.4732096080199
 30
0.0
 10
124.7609377489075
 20
129.4126002083226
 30
0.0
 10
124.7355427293306
 20
129.3467742429191
 30
0.0
 10
124.6492495435487
 20
129.2127264735724
 30
0.0
 10
124.5886135648654
 20
129.1440311154306
 30
0.0
 10
124.4405117706442
 20
129.0036325637762
 30
0.0
 10
124.3537421638655
 20
128.9319290591949
 30
0.0
 10
124.2051043685363
 20
128.825765657446
 30
0.0
 10
124.1528151516501
 20
128.7902373088145
 30
0.0
 10
124.0620513233402
 20
128.740533378299
 30
0.0
 10
124.0296853308882
 20
128.7242723802839
 30
0.0
 10
123.9719961752219
 20
128.705159811938
 30
0.0
 10
123.9510091473346
 20
128.6997686698564
 30
0.0
 10
123.9057201683441
 20
128.6940313014639
 30
0.0
 10
123.8827058995056
 20
128.6940540351173
 30
0.0
 10
123.860937748906
 20
128.6964793449302
 30
0.0
  0
SPLINE
  5
13F
330
1F
100
AcDbEntity
  8
0
  6
HIDDEN
 62
     7
370
     0
100
AcDbSpline
210
0.0
220
0.0
230
1.0
 70
     8
 71
     3
 72
    12
 73
     8
 74
     0
 42
0.00000001
 43
0.00000001
 12
1.0
 22
0.0
 32
0.0
 13
1.0
 23
0.0
 33
0.0
 40
0.0
 40
0.0
 40
0.0
 40
0.0
 40
0.2499999999999987
 40
0.2499999999999987
 40
0.4999999999999973
 40
0.4999999999999973
 40
1.0
 40
1.0
 40
1.0
 40
1.0
 10
123.8609377489067
 20
128.6964793449313
 30
0.0
 10
123.7188953457174
 20
128.7123050731076
 30
0.0
 10
123.5747772392133
 20
128.7233262068829
 30
0.0
 10
123.2850227255408
 20
128.74186256875
 30
0.0
 10
123.139280822182
 20
128.7491332744858
 30
0.0
 10
122.7006005830022
 20
128.7675941248138
 30
0.0
 10
122.406224966931
 20
128.7754729916373
 30
0.0
 10
122.1109377489066
 20
128.7812660332505
 30
0.0
  0
SPLINE
  5
140
330
1F
100
AcDbEntity
  8
0
  6
HIDDEN
 62
     7
370
     0
100
AcDbSpline
210
0.0
220
0.0
230
1.0
 70
     8
 71
     3
 72
     8
 73
     4
 74
     0
 42
0.00000001
 43
0.00000001
 12
1.0
 22
0.0
 32
0.0
 13
1.0
 23
0.0
 33
0.0
 40
0.0
 40
0.0
 40
0.0
 40
0.0
 40
1.0
 40
1.0
 40
1.0
 40
1.0
 10
122.1109377489066
 20
128.7812660332504
 30
0.0
 10
122.0651728412173
 20
128.7197456540916
 30
0.0
 10
122.0307857195873
 20
128.6558507943422
 30
0.0
 10
122.0117704659144
 20
128.5891208492984
 30
0.0
  0
ELLIPSE
  5
141
330
1F
100
AcDbEntity
  8
0
  6
HIDDEN
 62
     7
370
     0
100
AcDbEllipse
 10
108.5548171104
 20
116.5547959376
 30
0.0
 11
13.369636111343
 21
13.36754752639486
 31
0.0
210
0.0
220
0.0
230
1.0
 40
0.1761188775
 41
5.933076931846601
 42
5.9767200526912
  0
ELLIPSE
  5
142
330
1F
100
AcDbEntity
  8
0
  6
HIDDEN
 62
     7
370
     0
100
AcDbEllipse
 10
108.6341955411
 20
115.2763878085
 30
0.0
 11
13.3735527266662
 21
-13.37146352987017
 31
0.0
210
0.0
220
0.0
230
1.0
 40
0.1761188775
 41
0.3023035477142536
 42
0.3822730435340378
  0
LINE
  5
143
330
1F
100
AcDbEntity
  8
0
  6
HIDDEN
 62
     7
370
     0
100
AcDbLine
 10
139.0609377489
 20
131.0193858871
 30
0.0
 11
139.0609377489
 21
100.8119850855
 31
0.0
  0
SPLINE
  5
144
330
1F
100
AcDbEntity
  8
0
  6
HIDDEN
 62
     7
370
     0
100
AcDbSpline
210
0.0
220
0.0
230
1.0
 70
     8
 71
     3
 72
    10
 73
     6
 74
     0
 42
0.00000001
 43
0.00000001
 12
1.0
 22
0.0
 32
0.0
 13
1.0
 23
0.0
 33
0.0
 40
0.0
 40
0.0
 40
0.0
 40
0.0
 40
0.3556499614363015
 40
0.6701422322688209
 40
1.0
 40
1.0
 40
1.0
 40
1.0
 10
132.7099288944967
 20
101.2169307815555
 30
0.0
 10
132.6420520708971
 20
101.2077604953248
 30
0.0
 10
132.5141534879685
 20
101.1904811567855
 30
0.0
 10
132.2434054415371
 20
101.1537801016181
 30
0.0
 10
132.2799011855523
 20
101.1589552289707
 30
0.0
 10
132.2985842055446
 20
101.161604496999
 30
0.0
  0
SPLINE
  5
145
330
1F
100
AcDbEntity
  8
0
  6
HIDDEN
 62
     7
370
     0
100
AcDbSpline
210
0.0
220
0.0
230
1.0
 70
     8
 71
     3
 72
    18
 73
    14
 74
     0
 42
0.00000001
 43
0.00000001
 12
1.0
 22
0.0
 32
0.0
 13
1.0
 23
0.0
 33
0.0
 40
0.0
 40
0.0
 40
0.0
 40
0.0
 40
0.0797648005083256
 40
0.2353261136654683
 40
0.389212212004578
 40
0.4654319170552207
 40
0.5419046188109699
 40
0.6184021209564244
 40
0.6937209707400183
 40
0.7693085706627674
 40
0.8460925071824874
 40
0.846296666292574
 40
1.0
 40
1.0
 40
1.0
 40
1.0
 10
137.7742464159003
 20
100.8870292953538
 30
0.0
 10
137.7846321530931
 20
100.8845962750817
 30
0.0
 10
137.8152726756738
 20
100.8774182566893
 30
0.0
 10
137.3962026629658
 20
100.978573256573
 30
0.0
 10
136.7574034552195
 20
101.1069580733445
 30
0.0
 10
136.1092015513438
 20
101.2026655717106
 30
0.0
 10
135.5810199398366
 20
101.2604369966407
 30
0.0
 10
135.0311777214009
 20
101.3003117360899
 30
0.0
 10
134.4837017035353
 20
101.3167602978942
 30
0.0
 10
133.9512207188213
 20
101.3129373803917
 30
0.0
 10
133.6426163497786
 20
101.2941182977947
 30
0.0
 10
133.1575465989679
 20
101.2718702311077
 30
0.0
 10
132.9335892063944
 20
101.2443822748713
 30
0.0
 10
132.7099288944967
 20
101.2169307815555
 30
0.0
  0
SPLINE
  5
146
330
1F
100
AcDbEntity
  8
0
  6
HIDDEN
 62
     7
370
     0
100
AcDbSpline
210
0.0
220
0.0
230
1.0
 70
     8
 71
     3
 72
    16
 73
    12
 74
     0
 42
0.00000001
 43
0.00000001
 12
1.0
 22
0.0
 32
0.0
 13
1.0
 23
0.0
 33
0.0
 40
0.0
 40
0.0
 40
0.0
 40
0.0
 40
0.1539091808618604
 40
0.2309802340482897
 40
0.3067446977525878
 40
0.382073327604136
 40
0.4587871252854875
 40
0.6108165472068912
 40
0.7646256181232659
 40
0.9200673128621495
 40
1.0
 40
1.0
 40
1.0
 40
1.0
 10
132.7098114642096
 20
130.6144257070527
 30
0.0
 10
132.9463667536305
 20
130.589112077063
 30
0.0
 10
133.3013786886549
 20
130.5511224773076
 30
0.0
 10
133.9578056627327
 20
130.5194514842023
 30
0.0
 10
134.4836170206859
 20
130.5143102689198
 30
0.0
 10
135.0338814038551
 20
130.5312176372216
 30
0.0
 10
135.7636049124826
 20
130.5838170898449
 30
0.0
 10
136.6353752792913
 20
130.6991447755595
 30
0.0
 10
137.3967954146239
 20
130.8529656411175
 30
0.0
 10
137.8153420606844
 20
130.954008634931
 30
0.0
 10
137.7846049377857
 20
130.9466638776612
 30
0.0
 10
137.7741666699989
 20
130.9441696122263
 30
0.0
  0
SPLINE
  5
147
330
1F
100
AcDbEntity
  8
0
  6
HIDDEN
 62
     7
370
     0
100
AcDbSpline
210
0.0
220
0.0
230
1.0
 70
     8
 71
     3
 72
     9
 73
     5
 74
     0
 42
0.00000001
 43
0.00000001
 12
1.0
 22
0.0
 32
0.0
 13
1.0
 23
0.0
 33
0.0
 40
0.0
 40
0.0
 40
0.0
 40
0.0
 40
0.3345275994154878
 40
1.0
 40
1.0
 40
1.0
 40
1.0
 10
132.2972680385593
 20
130.6695795186893
 30
0.0
 10
132.2850639802203
 20
130.6711931783883
 30
0.0
 10
132.2485825109475
 20
130.6760168751527
 30
0.0
 10
132.5255183239338
 20
130.6390356750569
 30
0.0
 10
132.7098114642096
 20
130.6144257070527
 30
0.0
  0
SPLINE
  5
148
330
1F
100
AcDbEntity
  8
0
  6
HIDDEN
 62
     7
370
     0
100
AcDbSpline
210
0.0
220
0.0
230
1.0
 70
    11
 71
     3
 72
    14
 73
    10
 74
     0
 42
0.00000001
 43
0.00000001
 12
1.0
 22
0.0
 32
0.0
 13
1.0
 23
0.0
 33
0.0
 40
0.0
 40
0.0
 40
0.0
 40
0.0
 40
0.25
 40
0.25
 40
0.5
 40
0.5
 40
0.7499999999999999
 40
0.7499999999999999
 40
1.0
 40
1.0
 40
1.0
 40
1.0
 10
136.8851144767841
 20
128.588495779752
 30
0.0
 10
137.0389903724869
 20
128.610645312604
 30
0.0
 10
137.156870940116
 20
128.6234573796776
 30
0.0
 10
137.3199347300286
 20
128.6398100885081
 30
0.0
 10
137.3608512486523
 20
128.6429858512259
 30
0.0
 10
137.3610239811685
 20
128.6430005534027
 30
0.0
 10
137.3200962229347
 20
128.6398210024092
 30
0.0
 10
137.1577588574692
 20
128.6235516709318
 30
0.0
 10
137.038988589363
 20
128.6106450559338
 30
0.0
 10
136.8851144767841
 20
128.588495779752
 30
0.0
  0
SPLINE
  5
149
330
1F
100
AcDbEntity
  8
0
  6
HIDDEN
 62
     7
370
     0
100
AcDbSpline
210
0.0
220
0.0
230
1.0
 70
    11
 71
     3
 72
    14
 73
    10
 74
     0
 42
0.00000001
 43
0.00000001
 12
1.0
 22
0.0
 32
0.0
 13
1.0
 23
0.0
 33
0.0
 40
0.0
 40
0.0
 40
0.0
 40
0.0
 40
0.2500000000000001
 40
0.2500000000000001
 40
0.5
 40
0.5
 40
0.75
 40
0.75
 40
1.0
 40
1.0
 40
1.0
 40
1.0
 10
136.8851144767841
 20
103.2428751927922
 30
0.0
 10
137.0389903724869
 20
103.2207256599402
 30
0.0
 10
137.156870940116
 20
103.2079135928666
 30
0.0
 10
137.3199347300286
 20
103.1915608840362
 30
0.0
 10
137.3608512486523
 20
103.1883851213183
 30
0.0
 10
137.3610239811685
 20
103.1883704191416
 30
0.0
 10
137.3200962229347
 20
103.191549970135
 30
0.0
 10
137.1577588574692
 20
103.2078193016125
 30
0.0
 10
137.038988589363
 20
103.2207259166105
 30
0.0
 10
136.8851144767841
 20
103.2428751927922
 30
0.0
  0
LINE
  5
14A
330
1F
100
AcDbEntity
  8
0
  6
HIDDEN
 62
     7
370
     0
100
AcDbLine
 10
141.0609377489
 20
105.4156854863
 30
0.0
 11
141.0609377489
 21
126.4156854863
 31
0.0
  0
SPLINE
  5
14B
330
1F
100
AcDbEntity
  8
0
  6
HIDDEN
 62
     7
370
     0
100
AcDbSpline
210
0.0
220
0.0
230
1.0
 70
    11
 71
     3
 72
    50
 73
    46
 74
     0
 42
0.00000001
 43
0.00000001
 12
1.0
 22
0.0
 32
0.0
 13
1.0
 23
0.0
 33
0.0
 40
0.0
 40
0.0
 40
0.0
 40
0.0
 40
0.0625
 40
0.0625
 40
0.125
 40
0.125
 40
0.15625
 40
0.15625
 40
0.1875
 40
0.1875
 40
0.21875
 40
0.21875
 40
0.25
 40
0.25
 40
0.28125
 40
0.28125
 40
0.3125
 40
0.3125
 40
0.375
 40
0.375
 40
0.4375
 40
0.4375
 40
0.5
 40
0.5
 40
0.53125
 40
0.53125
 40
0.5625
 40
0.5625
 40
0.59375
 40
0.59375
 40
0.625
 40
0.625
 40
0.65625
 40
0.65625
 40
0.6875
 40
0.6875
 40
0.75
 40
0.75
 40
0.8125
 40
0.8125
 40
0.875
 40
0.875
 40
0.9375
 40
0.9375
 40
1.0
 40
1.0
 40
1.0
 40
1.0
 10
136.8851144767841
 20
103.2428751927922
 30
0.0
 10
136.7388596419825
 20
103.2639277186177
 30
0.0
 10
136.5673910050241
 20
103.2862089432997
 30
0.0
 10
136.1742463995141
 20
103.3270504336486
 30
0.0
 10
135.9590022139489
 20
103.3448080685696
 30
0.0
 10
135.6162624273992
 20
103.3630813614132
 30
0.0
 10
135.4980160443437
 20
103.3677913004272
 30
0.0
 10
135.2622370421654
 20
103.373790395486
 30
0.0
 10
135.1436707324595
 20
103.3751462278818
 30
0.0
 10
134.9051756516589
 20
103.3744518158711
 30
0.0
 10
134.7843832581371
 20
103.3723533128798
 30
0.0
 10
134.5493172926719
 20
103.364970163354
 30
0.0
 10
134.4342617801719
 20
103.359707400083
 30
0.0
 10
134.209042025429
 20
103.3464536380345
 30
0.0
 10
134.0979598558267
 20
103.3383745633571
 30
0.0
 10
133.8867084088911
 20
103.320438836362
 30
0.0
 10
133.7863501743903
 20
103.3106026011486
 30
0.0
 10
133.5007062173669
 20
103.2795869327272
 30
0.0
 10
133.330427473771
 20
103.2567552385085
 30
0.0
 10
133.0542763438507
 20
103.2160579641778
 30
0.0
 10
132.944577157466
 20
103.1977319146056
 30
0.0
 10
132.7990340763021
 20
103.1727043153606
 30
0.0
 10
132.7610274408448
 20
103.1657016659932
 30
0.0
 10
132.7608931474869
 20
103.1656774405264
 30
0.0
 10
132.7700109027292
 20
103.1673320277825
 30
0.0
 10
132.8069294482428
 20
103.1739146710554
 30
0.0
 10
132.8349031032675
 20
103.178870912578
 30
0.0
 10
132.9076746827198
 20
103.1913875852764
 30
0.0
 10
132.9525999208815
 20
103.1989721245898
 30
0.0
 10
133.059643235837
 20
103.216280379963
 30
0.0
 10
133.1222112768035
 20
103.2260646717557
 30
0.0
 10
133.2606021795429
 20
103.2464698734218
 30
0.0
 10
133.3367856353173
 20
103.2571548283449
 30
0.0
 10
133.5031413691284
 20
103.2787385659223
 30
0.0
 10
133.5941696715732
 20
103.2897246749234
 30
0.0
 10
133.880823488246
 20
103.3208817586895
 30
0.0
 10
134.0928755463636
 20
103.3395779457257
 30
0.0
 10
134.5460528223182
 20
103.3663252264412
 30
0.0
 10
134.7806824710582
 20
103.374030833143
 30
0.0
 10
135.2621060205167
 20
103.3755488406412
 30
0.0
 10
135.4974113907852
 20
103.3693601524088
 30
0.0
 10
135.9573190424607
 20
103.344954816716
 30
0.0
 10
136.1717475544199
 20
103.3272716627907
 30
0.0
 10
136.5649467391853
 20
103.2865007457581
 30
0.0
 10
136.7388558108504
 20
103.2639282700867
 30
0.0
 10
136.8851144767841
 20
103.2428751927922
 30
0.0
  0
SPLINE
  5
14C
330
1F
100
AcDbEntity
  8
0
  6
HIDDEN
 62
     7
370
     0
100
AcDbSpline
210
0.0
220
0.0
230
1.0
 70
    11
 71
     3
 72
    50
 73
    46
 74
     0
 42
0.00000001
 43
0.00000001
 12
1.0
 22
0.0
 32
0.0
 13
1.0
 23
0.0
 33
0.0
 40
0.0
 40
0.0
 40
0.0
 40
0.0
 40
0.0625
 40
0.0625
 40
0.1250000000000001
 40
0.1250000000000001
 40
0.1562500000000001
 40
0.1562500000000001
 40
0.1875000000000001
 40
0.1875000000000001
 40
0.2187500000000001
 40
0.2187500000000001
 40
0.2500000000000001
 40
0.2500000000000001
 40
0.2812500000000001
 40
0.2812500000000001
 40
0.3125000000000001
 40
0.3125000000000001
 40
0.3750000000000002
 40
0.3750000000000002
 40
0.4375000000000003
 40
0.4375000000000003
 40
0.5000000000000004
 40
0.5000000000000004
 40
0.5312500000000006
 40
0.5312500000000006
 40
0.5625000000000007
 40
0.5625000000000007
 40
0.5937500000000007
 40
0.5937500000000007
 40
0.6250000000000008
 40
0.6250000000000008
 40
0.6562500000000007
 40
0.6562500000000007
 40
0.6875000000000006
 40
0.6875000000000006
 40
0.7500000000000004
 40
0.7500000000000004
 40
0.8125000000000003
 40
0.8125000000000003
 40
0.8750000000000002
 40
0.8750000000000002
 40
0.9375000000000002
 40
0.9375000000000002
 40
1.0
 40
1.0
 40
1.0
 40
1.0
 10
136.8851144767841
 20
128.588495779752
 30
0.0
 10
136.7388596419825
 20
128.5674432539265
 30
0.0
 10
136.5673910050241
 20
128.5451620292445
 30
0.0
 10
136.1742463995141
 20
128.5043205388956
 30
0.0
 10
135.9590022139489
 20
128.4865629039746
 30
0.0
 10
135.6162624273992
 20
128.4682896111311
 30
0.0
 10
135.4980160443437
 20
128.463579672117
 30
0.0
 10
135.2622370421654
 20
128.4575805770582
 30
0.0
 10
135.1436707324595
 20
128.4562247446624
 30
0.0
 10
134.9051756516589
 20
128.4569191566731
 30
0.0
 10
134.7843832581371
 20
128.4590176596645
 30
0.0
 10
134.5493172926719
 20
128.4664008091902
 30
0.0
 10
134.4342617801719
 20
128.4716635724612
 30
0.0
 10
134.209042025429
 20
128.4849173345097
 30
0.0
 10
134.0979598558267
 20
128.4929964091872
 30
0.0
 10
133.8867084088911
 20
128.5109321361822
 30
0.0
 10
133.7863501743903
 20
128.5207683713956
 30
0.0
 10
133.5007062173669
 20
128.5517840398171
 30
0.0
 10
133.330427473771
 20
128.5746157340357
 30
0.0
 10
133.0542763438507
 20
128.6153130083665
 30
0.0
 10
132.944577157466
 20
128.6336390579386
 30
0.0
 10
132.7990340763021
 20
128.6586666571836
 30
0.0
 10
132.7610274408448
 20
128.6656693065511
 30
0.0
 10
132.7608931474869
 20
128.6656935320179
 30
0.0
 10
132.7700109027292
 20
128.6640389447617
 30
0.0
 10
132.8069294482428
 20
128.6574563014888
 30
0.0
 10
132.8349031032676
 20
128.6525000599662
 30
0.0
 10
132.9076746827198
 20
128.6399833872678
 30
0.0
 10
132.9525999208815
 20
128.6323988479544
 30
0.0
 10
133.059643235837
 20
128.6150905925812
 30
0.0
 10
133.1222112768035
 20
128.6053063007885
 30
0.0
 10
133.2606021795429
 20
128.5849010991224
 30
0.0
 10
133.3367856353173
 20
128.5742161441993
 30
0.0
 10
133.5031413691284
 20
128.5526324066219
 30
0.0
 10
133.5941696715732
 20
128.5416462976208
 30
0.0
 10
133.880823488246
 20
128.5104892138547
 30
0.0
 10
134.0928755463636
 20
128.4917930268185
 30
0.0
 10
134.5460528223182
 20
128.465045746103
 30
0.0
 10
134.7806824710582
 20
128.4573401394013
 30
0.0
 10
135.2621060205167
 20
128.455822131903
 30
0.0
 10
135.4974113907852
 20
128.4620108201354
 30
0.0
 10
135.9573190424607
 20
128.4864161558282
 30
0.0
 10
136.1717475544199
 20
128.5040993097535
 30
0.0
 10
136.5649467391853
 20
128.5448702267861
 30
0.0
 10
136.7388558108504
 20
128.5674427024576
 30
0.0
 10
136.8851144767841
 20
128.588495779752
 30
0.0
  0
LINE
  5
14D
330
1F
100
AcDbEntity
  8
0
  6
HIDDEN
 62
     7
370
     0
100
AcDbLine
 10
129.0635874797
 20
126.4156854863
 30
0.0
 11
129.0635874797
 21
105.4156854863
 31
0.0
  0
SPLINE
  5
14E
330
1F
100
AcDbEntity
  8
0
  6
HIDDEN
 62
     7
370
     0
100
AcDbSpline
210
0.0
220
0.0
230
1.0
 70
     8
 71
     3
 72
    62
 73
    58
 74
     0
 42
0.00000001
 43
0.00000001
 12
1.0
 22
0.0
 32
0.0
 13
1.0
 23
0.0
 33
0.0
 40
-0.0312499999999997
 40
-0.0312499999999997
 40
0.0
 40
0.0
 40
0.0312500000000002
 40
0.0312500000000002
 40
0.0625000000000003
 40
0.0625000000000003
 40
0.0937500000000005
 40
0.0937500000000005
 40
0.1250000000000007
 40
0.1250000000000007
 40
0.187500000000001
 40
0.187500000000001
 40
0.2187500000000012
 40
0.2187500000000012
 40
0.2500000000000013
 40
0.2500000000000013
 40
0.2812500000000015
 40
0.2812500000000015
 40
0.3125000000000017
 40
0.3125000000000017
 40
0.3437500000000018
 40
0.3437500000000018
 40
0.375000000000002
 40
0.375000000000002
 40
0.4062500000000022
 40
0.4062500000000022
 40
0.4375000000000023
 40
0.4375000000000023
 40
0.4687500000000025
 40
0.4687500000000025
 40
0.5000000000000027
 40
0.5000000000000027
 40
0.562500000000003
 40
0.562500000000003
 40
0.5937500000000031
 40
0.5937500000000031
 40
0.6250000000000033
 40
0.6250000000000033
 40
0.6562500000000036
 40
0.6562500000000036
 40
0.6875000000000037
 40
0.6875000000000037
 40
0.750000000000003
 40
0.750000000000003
 40
0.7812500000000026
 40
0.7812500000000026
 40
0.8125000000000023
 40
0.8125000000000023
 40
0.8437500000000019
 40
0.8437500000000019
 40
0.8750000000000016
 40
0.8750000000000016
 40
0.9375000000000008
 40
0.9375000000000008
 40
0.9687500000000003
 40
0.9687500000000003
 40
1.0
 40
1.0
 40
1.03125
 40
1.03125
 10
208.8953272259938
 20
112.3577632516175
 30
0.0
 10
209.2265482718195
 20
112.3577632516175
 30
0.0
 10
209.3893055516685
 20
112.3737013511363
 30
0.0
 10
209.7093740374719
 20
112.4361045474491
 30
0.0
 10
209.8683725184475
 20
112.4833564233537
 30
0.0
 10
210.1709066970339
 20
112.6064405104964
 30
0.0
 10
210.3143284097089
 20
112.6817412340621
 30
0.0
 10
210.5857589207632
 20
112.8597830392449
 30
0.0
 10
210.7139403141865
 20
112.9632226076347
 30
0.0
 10
211.0588571947273
 20
113.3026128188155
 30
0.0
 10
211.2449917639015
 20
113.5769405845706
 30
0.0
 10
211.4322343547747
 20
114.023157187649
 30
0.0
 10
211.4804689195888
 20
114.179735868294
 30
0.0
 10
211.5448595896802
 20
114.5003012884923
 30
0.0
 10
211.5608404967504
 20
114.6618861127935
 30
0.0
 10
211.5610341245257
 20
114.9876419357261
 30
0.0
 10
211.5447037466407
 20
115.1534246880357
 30
0.0
 10
211.4807399948916
 20
115.4742497950719
 30
0.0
 10
211.4334186886183
 20
115.6305029340699
 30
0.0
 10
211.3078218025308
 20
115.9345808027019
 30
0.0
 10
211.2297345714216
 20
116.0809978001604
 30
0.0
 10
211.0489948722237
 20
116.3529963985633
 30
0.0
 10
210.9451988831495
 20
116.4806823087554
 30
0.0
 10
210.7128868129974
 20
116.71509194175
 30
0.0
 10
210.5871211946912
 20
116.8192596956038
 30
0.0
 10
210.3168054142282
 20
117.002244245461
 30
0.0
 10
210.1704593178477
 20
117.0816780897684
 30
0.0
 10
209.8683337534086
 20
117.2086681106219
 30
0.0
 10
209.7125139240902
 20
117.2567760475619
 30
0.0
 10
209.3912563988681
 20
117.3219937512966
 30
0.0
 10
209.2253247283417
 20
117.3386691398678
 30
0.0
 10
208.7352149755513
 20
117.3388713171644
 30
0.0
 10
208.4054349527621
 20
117.2722138624766
 30
0.0
 10
207.9538916281527
 20
117.0828662996437
 30
0.0
 10
207.8078940339687
 20
117.0039746451681
 30
0.0
 10
207.5357032980732
 20
116.8200808161032
 30
0.0
 10
207.4100943847031
 20
116.7159534862602
 30
0.0
 10
207.1794291469799
 20
116.4837096148398
 30
0.0
 10
207.0740008285661
 20
116.354486543618
 30
0.0
 10
206.8928696077774
 20
116.0822880880973
 30
0.0
 10
206.8158666957721
 20
115.9382889014178
 30
0.0
 10
206.6265556408822
 20
115.4819747597442
 30
0.0
 10
206.5611700110327
 20
115.1568906787533
 30
0.0
 10
206.5608225408675
 20
114.663533815727
 30
0.0
 10
206.5768992393787
 20
114.5018251267843
 30
0.0
 10
206.6404274293739
 20
114.1836835798366
 30
0.0
 10
206.6887229989842
 20
114.0256836647058
 30
0.0
 10
206.8138689532668
 20
113.7267763241354
 30
0.0
 10
206.8905314423371
 20
113.5849652173316
 30
0.0
 10
207.0721662289623
 20
113.3164273022313
 30
0.0
 10
207.1770930192014
 20
113.19050187975
 30
0.0
 10
207.5215502943382
 20
112.8511579586686
 30
0.0
 10
207.7996425017153
 20
112.6682999862185
 30
0.0
 10
208.2506094513731
 20
112.4843883863232
 30
0.0
 10
208.4091947809789
 20
112.436884276057
 30
0.0
 10
208.7318722234103
 20
112.3737040190988
 30
0.0
 10
208.8953272259938
 20
112.3577632516175
 30
0.0
 10
209.2265482718195
 20
112.3577632516175
 30
0.0
  0
LINE
  5
14F
330
1F
100
AcDbEntity
  8
0
  6
HIDDEN
 62
     7
370
     0
100
AcDbLine
 10
153.5046082236
 20
127.7656854863
 30
0.0
 11
161.0109377489
 21
127.7656854863
 31
0.0
  0
LINE
  5
150
330
1F
100
AcDbEntity
  8
0
  6
HIDDEN
 62
     7
370
     0
100
AcDbLine
 10
158.1009377489
 20
129.4315326665
 30
0.0
 11
158.1009377489
 21
133.3182894581
 31
0.0
  0
LINE
  5
151
330
1F
100
AcDbEntity
  8
0
  6
HIDDEN
 62
     7
370
     0
100
AcDbLine
 10
156.0209377489
 20
129.4315326665
 30
0.0
 11
156.0209377489
 21
133.3182894581
 31
0.0
  0
LWPOLYLINE
  5
152
330
1F
100
AcDbEntity
  8
0
  6
HIDDEN
 62
     7
370
     0
100
AcDbPolyline
 90
       25
 70
   128
 43
0.0
 10
206.4660778084
 20
117.9715261889
 10
206.5949546632
 20
117.9445277718
 10
206.7665349309
 20
117.7858399092
 10
206.9691256998
 20
117.5062769165
 10
207.1889207439
 20
117.1248905497
 10
207.410941394
 20
116.6676716594
 10
207.6200573099
 20
116.1657789575
 10
207.8020175873
 20
115.6534156022
 10
207.9444219342
 20
115.1654983093
 10
208.0375657295
 20
114.7352778362
 10
208.0751013777
 20
114.3920729969
 10
208.0544708862
 20
114.1592726343
 10
207.977080189
 20
114.0527417082
 10
207.8482033342
 20
114.0797401253
 10
207.6766230665
 20
114.238427988
 10
207.4740322976
 20
114.5179909807
 10
207.2542372535
 20
114.8993773474
 10
207.0322166034
 20
115.3565962377
 10
206.8231006876
 20
115.8584889396
 10
206.6411404101
 20
116.3708522949
 10
206.4987360632
 20
116.8587695878
 10
206.4055922679
 20
117.288990061
 10
206.3680566198
 20
117.6321949002
 10
206.3886871112
 20
117.8649952628
 10
206.4660778084
 20
117.9715261889
  0
SPLINE
  5
153
330
1F
100
AcDbEntity
  8
0
  6
HIDDEN
 62
     7
370
     0
100
AcDbSpline
210
0.0
220
0.0
230
1.0
 70
     8
 71
     3
 72
     8
 73
     4
 74
     0
 42
0.00000001
 43
0.00000001
 12
1.0
 22
0.0
 32
0.0
 13
1.0
 23
0.0
 33
0.0
 40
0.0
 40
0.0
 40
0.0
 40
0.0
 40
1.0
 40
1.0
 40
1.0
 40
1.0
 10
208.0657627942165
 20
118.5858514884235
 30
0.0
 10
208.2211808005432
 20
118.6478122863557
 30
0.0
 10
208.3771935300826
 20
118.7082712522073
 30
0.0
 10
208.5332748094632
 20
118.7685571117326
 30
0.0
  0
SPLINE
  5
154
330
1F
100
AcDbEntity
  8
0
  6
HIDDEN
 62
     7
370
     0
100
AcDbSpline
210
0.0
220
0.0
230
1.0
 70
     8
 71
     3
 72
    78
 73
    74
 74
     0
 42
0.00000001
 43
0.00000001
 12
1.0
 22
0.0
 32
0.0
 13
1.0
 23
0.0
 33
0.0
 40
0.0
 40
0.0
 40
0.0
 40
0.0
 40
0.0078124999999999
 40
0.0078124999999999
 40
0.0156249999999997
 40
0.0156249999999997
 40
0.0312500000000005
 40
0.0312500000000005
 40
0.0625000000000022
 40
0.0625000000000022
 40
0.1250000000000056
 40
0.1250000000000056
 40
0.1562500000000065
 40
0.1562500000000065
 40
0.1875000000000073
 40
0.1875000000000073
 40
0.2187500000000081
 40
0.2187500000000081
 40
0.250000000000009
 40
0.250000000000009
 40
0.2812500000000098
 40
0.2812500000000098
 40
0.3125000000000106
 40
0.3125000000000106
 40
0.3750000000000124
 40
0.3750000000000124
 40
0.4375000000000142
 40
0.4375000000000142
 40
0.4687500000000155
 40
0.4687500000000155
 40
0.5000000000000169
 40
0.5000000000000169
 40
0.5156250000000174
 40
0.5156250000000174
 40
0.5234375000000167
 40
0.5234375000000167
 40
0.531250000000016
 40
0.531250000000016
 40
0.5390625000000153
 40
0.5390625000000153
 40
0.5468750000000147
 40
0.5468750000000147
 40
0.5625000000000131
 40
0.5625000000000131
 40
0.6250000000000091
 40
0.6250000000000091
 40
0.6562500000000081
 40
0.6562500000000081
 40
0.6875000000000071
 40
0.6875000000000071
 40
0.7187500000000062
 40
0.7187500000000062
 40
0.7500000000000052
 40
0.7500000000000052
 40
0.7812500000000042
 40
0.7812500000000042
 40
0.8125000000000032
 40
0.8125000000000032
 40
0.8437500000000023
 40
0.8437500000000023
 40
0.8750000000000013
 40
0.8750000000000013
 40
0.9062500000000006
 40
0.9062500000000006
 40
0.9374999999999998
 40
0.9374999999999998
 40
0.9687499999999991
 40
0.9687499999999991
 40
0.9843749999999994
 40
0.9843749999999994
 40
0.9921874999999998
 40
0.9921874999999998
 40
1.0
 40
1.0
 40
1.0
 40
1.0
 10
208.5332748094619
 20
118.7685571117332
 30
0.0
 10
208.5109503340363
 20
118.7597090224339
 30
0.0
 10
208.4926129365725
 20
118.7512032163015
 30
0.0
 10
208.4782222078348
 20
118.7399368058168
 30
0.0
 10
208.4834684862904
 20
118.7377256456128
 30
0.0
 10
208.5205708499182
 20
118.7376332063624
 30
0.0
 10
208.5657984270919
 20
118.7433341367637
 30
0.0
 10
208.7039498922043
 20
118.7555426910125
 30
0.0
 10
208.8085085793452
 20
118.7601219710076
 30
0.0
 10
209.1259285550829
 20
118.7491242579588
 30
0.0
 10
209.3509642558696
 20
118.7116372247383
 30
0.0
 10
209.6970807545519
 20
118.5930357952751
 30
0.0
 10
209.8127087754905
 20
118.5435618384246
 30
0.0
 10
210.0443056221426
 20
118.420470418585
 30
0.0
 10
210.1615463050149
 20
118.3459234594957
 30
0.0
 10
210.3888930959591
 20
118.1696126842722
 30
0.0
 10
210.4993361326698
 20
118.0679594062081
 30
0.0
 10
210.7084246994432
 20
117.8308677230074
 30
0.0
 10
210.8033754397084
 20
117.6995837137124
 30
0.0
 10
210.9675397298899
 20
117.407845679947
 30
0.0
 10
211.0319977034783
 20
117.2558566012733
 30
0.0
 10
211.1247929544447
 20
116.9393261539739
 30
0.0
 10
211.150346132883
 20
116.7835634312778
 30
0.0
 10
211.1740666829883
 20
116.3323460324833
 30
0.0
 10
211.1197126429862
 20
116.0672927308089
 30
0.0
 10
210.9393302605469
 20
115.6192483070742
 30
0.0
 10
210.810908492815
 20
115.4309257648973
 30
0.0
 10
210.5880901264809
 20
115.2001312792311
 30
0.0
 10
210.508347969074
 20
115.1312665397424
 30
0.0
 10
210.3374605339315
 20
115.0072958917465
 30
0.0
 10
210.2467008062486
 20
114.9523735697309
 30
0.0
 10
210.0961555724245
 20
114.8772742745959
 30
0.0
 10
210.043858552707
 20
114.8535843184324
 30
0.0
 10
209.95412566222
 20
114.816324671267
 30
0.0
 10
209.9217134989061
 20
114.8033610347987
 30
0.0
 10
209.8498995606694
 20
114.7752971829389
 30
0.0
 10
209.8103501618239
 20
114.7600870855873
 30
0.0
 10
209.732714869878
 20
114.7310214196895
 30
0.0
 10
209.6960239808187
 20
114.7177447412139
 30
0.0
 10
209.624714050642
 20
114.6933402887395
 30
0.0
 10
209.5905502927542
 20
114.6823537881761
 30
0.0
 10
209.4893333912298
 20
114.6520435146582
 30
0.0
 10
209.4235802308884
 20
114.6353783677193
 30
0.0
 10
209.0935633546048
 20
114.5672130528758
 30
0.0
 10
208.8308737351253
 20
114.5609862831193
 30
0.0
 10
208.429797182146
 20
114.6344071196316
 30
0.0
 10
208.2982678991181
 20
114.6725148116671
 30
0.0
 10
208.0397235728266
 20
114.779362795069
 30
0.0
 10
207.9112140215895
 20
114.8492595740356
 30
0.0
 10
207.6702351740034
 20
115.0204433963821
 30
0.0
 10
207.5563570375687
 20
115.1223217741757
 30
0.0
 10
207.3498497380395
 20
115.3600525478797
 30
0.0
 10
207.2607128238016
 20
115.4915475840542
 30
0.0
 10
207.112629364873
 20
115.7815932942219
 30
0.0
 10
207.0552250588198
 20
115.9389884553992
 30
0.0
 10
206.9800405348278
 20
116.2584923098677
 30
0.0
 10
206.9614367250809
 20
116.4240343988984
 30
0.0
 10
206.9604591876929
 20
116.7450668730817
 30
0.0
 10
206.9778604457798
 20
116.9043595356167
 30
0.0
 10
207.0413204899612
 20
117.2053822545053
 30
0.0
 10
207.0877900873131
 20
117.3500284449925
 30
0.0
 10
207.2026634618649
 20
117.6199674879054
 30
0.0
 10
207.2705525870121
 20
117.7448280181743
 30
0.0
 10
207.4237646166917
 20
117.977139240063
 30
0.0
 10
207.509862135668
 20
118.0851977247145
 30
0.0
 10
207.6931976230574
 20
118.2799473020243
 30
0.0
 10
207.7913127638749
 20
118.3672452869821
 30
0.0
 10
207.9383917962558
 20
118.4809020055616
 30
0.0
 10
207.9886158685788
 20
118.5164063127585
 30
0.0
 10
208.0480730831757
 20
118.5588165432726
 30
0.0
 10
208.0652231263336
 20
118.5712770508856
 30
0.0
 10
208.0801085758064
 20
118.5862632329559
 30
0.0
 10
208.0764919769347
 20
118.5881000523252
 30
0.0
 10
208.0657627942092
 20
118.5858514884206
 30
0.0
  0
LINE
  5
155
330
1F
100
AcDbEntity
  8
0
  6
HIDDEN
 62
     7
370
     0
100
AcDbLine
 10
121.1609377489
 20
106.0506793432
 30
0.0
 11
121.1609377489
 21
125.7806916294
 31
0.0
  0
LINE
  5
156
330
1F
100
AcDbEntity
  8
0
  6
HIDDEN
 62
     7
370
     0
100
AcDbLine
 10
147.2303129991
 20
126.4156854863
 30
0.0
 11
147.2303129991
 21
105.4156854863
 31
0.0
  0
LINE
  5
157
330
1F
100
AcDbEntity
  8
0
  6
HIDDEN
 62
     7
370
     0
100
AcDbLine
 10
149.0109377489
 20
125.7906854863
 30
0.0
 11
149.0109377489
 21
106.0406854863
 31
0.0
  0
LINE
  5
158
330
1F
100
AcDbEntity
  8
0
  6
HIDDEN
 62
     7
370
     0
100
AcDbLine
 10
122.1699377489
 20
106.1935023981
 30
0.0
 11
126.3609377489
 21
106.1935023981
 31
0.0
  0
ARC
  5
159
330
1F
100
AcDbEntity
  8
0
  6
HIDDEN
 62
     7
370
     0
100
AcDbCircle
 10
126.1359377489
 20
115.9156854863
 30
0.0
 40
10.50000000000001
100
AcDbArc
 50
247.4596895365
 51
247.8078280674
  0
LINE
  5
15A
330
1F
100
AcDbEntity
  8
0
  6
HIDDEN
 62
     7
370
     0
100
AcDbLine
 10
122.1109377489
 20
125.613591188
 30
0.0
 11
122.1109377489
 21
106.2177797845
 31
0.0
  0
LINE
  5
15B
330
1F
100
AcDbEntity
  8
0
  6
HIDDEN
 62
     7
370
     0
100
AcDbLine
 10
123.8609377489
 20
125.613591188
 30
0.0
 11
122.1109377489
 21
125.613591188
 31
0.0
  0
SPLINE
  5
15C
330
1F
100
AcDbEntity
  8
0
  6
HIDDEN
 62
     7
370
     0
100
AcDbSpline
210
0.0
220
0.0
230
1.0
 70
     8
 71
     3
 72
    14
 73
    10
 74
     0
 42
0.00000001
 43
0.00000001
 12
1.0
 22
0.0
 32
0.0
 13
1.0
 23
0.0
 33
0.0
 40
0.0
 40
0.0
 40
0.0
 40
0.0
 40
0.25
 40
0.25
 40
0.5
 40
0.5
 40
0.75
 40
0.75
 40
1.0
 40
1.0
 40
1.0
 40
1.0
 10
124.7609377489066
 20
125.9398749796925
 30
0.0
 10
124.7609377489066
 20
125.9034031151587
 30
0.0
 10
124.7385671171025
 20
125.8656673626462
 30
0.0
 10
124.6513515858543
 20
125.7905316409468
 30
0.0
 10
124.5873303797776
 20
125.7541593547247
 30
0.0
 10
124.4238450820364
 20
125.6899358155626
 30
0.0
 10
124.3245302078632
 20
125.6624128529401
 30
0.0
 10
124.1047039371581
 20
125.624240686053
 30
0.0
 10
123.9837003748489
 20
125.6135911880203
 30
0.0
 10
123.8609377489066
 20
125.6135911880203
 30
0.0
  0
LINE
  5
15D
330
1F
100
AcDbEntity
  8
0
  6
HIDDEN
 62
     7
370
     0
100
AcDbLine
 10
124.7609377489
 20
125.9398749797
 30
0.0
 11
124.7609377489
 21
126.4156854863
 31
0.0
  0
SPLINE
  5
15E
330
1F
100
AcDbEntity
  8
0
  6
HIDDEN
 62
     7
370
     0
100
AcDbSpline
210
0.0
220
0.0
230
1.0
 70
     8
 71
     3
 72
    14
 73
    10
 74
     0
 42
0.00000001
 43
0.00000001
 12
1.0
 22
0.0
 32
0.0
 13
1.0
 23
0.0
 33
0.0
 40
0.0
 40
0.0
 40
0.0
 40
0.0
 40
0.2499999999999999
 40
0.2499999999999999
 40
0.4999999999999998
 40
0.4999999999999998
 40
0.7499999999999997
 40
0.7499999999999997
 40
1.0
 40
1.0
 40
1.0
 40
1.0
 10
124.7609377489066
 20
125.9398749796925
 30
0.0
 10
124.7609377489066
 20
125.9034031151587
 30
0.0
 10
124.7385671171026
 20
125.8656673626462
 30
0.0
 10
124.6513515858543
 20
125.7905316409468
 30
0.0
 10
124.5873303797776
 20
125.7541593547247
 30
0.0
 10
124.4238450820364
 20
125.6899358155626
 30
0.0
 10
124.3245302078632
 20
125.6624128529401
 30
0.0
 10
124.1047039371581
 20
125.624240686053
 30
0.0
 10
123.9837003748489
 20
125.6135911880203
 30
0.0
 10
123.8609377489066
 20
125.6135911880203
 30
0.0
  0
SPLINE
  5
15F
330
1F
100
AcDbEntity
  8
0
  6
HIDDEN
 62
     7
370
     0
100
AcDbSpline
210
0.0
220
0.0
230
1.0
 70
     8
 71
     3
 72
    14
 73
    10
 74
     0
 42
0.00000001
 43
0.00000001
 12
1.0
 22
0.0
 32
0.0
 13
1.0
 23
0.0
 33
0.0
 40
0.0
 40
0.0
 40
0.0
 40
0.0
 40
0.25
 40
0.25
 40
0.5
 40
0.5
 40
0.75
 40
0.75
 40
1.0
 40
1.0
 40
1.0
 40
1.0
 10
126.3609377489066
 20
106.1935023980969
 30
0.0
 10
126.4834058368255
 20
106.1935023980969
 30
0.0
 10
126.6036169156943
 20
106.183165378377
 30
0.0
 10
126.823823234947
 20
106.145698149799
 30
0.0
 10
126.923478687645
 20
106.1185669815098
 30
0.0
 10
127.0864660406008
 20
106.055799935303
 30
0.0
 10
127.1512034013472
 20
106.0197362413761
 30
0.0
 10
127.2380387514643
 20
105.946543571508
 30
0.0
 10
127.2609377489066
 20
105.909000785997
 30
0.0
 10
127.2609377489066
 20
105.8732931418155
 30
0.0
  0
LINE
  5
160
330
1F
100
AcDbEntity
  8
0
  6
HIDDEN
 62
     7
370
     0
100
AcDbLine
 10
127.2609377489
 20
105.8732931418
 30
0.0
 11
127.2609377489
 21
105.4156854863
 31
0.0
  0
SPLINE
  5
161
330
1F
100
AcDbEntity
  8
0
  6
HIDDEN
 62
     7
370
     0
100
AcDbSpline
210
0.0
220
0.0
230
1.0
 70
     8
 71
     3
 72
    14
 73
    10
 74
     0
 42
0.00000001
 43
0.00000001
 12
1.0
 22
0.0
 32
0.0
 13
1.0
 23
0.0
 33
0.0
 40
0.0
 40
0.0
 40
0.0
 40
0.0
 40
0.25
 40
0.25
 40
0.5
 40
0.5
 40
0.75
 40
0.75
 40
1.0
 40
1.0
 40
1.0
 40
1.0
 10
126.3609377489066
 20
106.1935023980969
 30
0.0
 10
126.4834058368255
 20
106.1935023980969
 30
0.0
 10
126.6036169156943
 20
106.183165378377
 30
0.0
 10
126.823823234947
 20
106.145698149799
 30
0.0
 10
126.923478687645
 20
106.1185669815098
 30
0.0
 10
127.0864660406008
 20
106.055799935303
 30
0.0
 10
127.1512034013472
 20
106.0197362413761
 30
0.0
 10
127.2380387514643
 20
105.946543571508
 30
0.0
 10
127.2609377489066
 20
105.909000785997
 30
0.0
 10
127.2609377489066
 20
105.8732931418155
 30
0.0
  0
LINE
  5
162
330
1F
100
AcDbEntity
  8
0
  6
HIDDEN
 62
     7
370
     0
100
AcDbLine
 10
122.1109377489
 20
106.2177797845
 30
0.0
 11
122.1109377489
 21
125.613591188
 31
0.0
  0
SPLINE
  5
163
330
1F
100
AcDbEntity
  8
0
  6
HIDDEN
 62
     7
370
     0
100
AcDbSpline
210
0.0
220
0.0
230
1.0
 70
     8
 71
     3
 72
    64
 73
    60
 74
     0
 42
0.00000001
 43
0.00000001
 12
1.0
 22
0.0
 32
0.0
 13
1.0
 23
0.0
 33
0.0
 40
-0.0625
 40
-0.0625
 40
0.0
 40
0.0
 40
0.03125
 40
0.03125
 40
0.0625
 40
0.0625
 40
0.09375
 40
0.09375
 40
0.125
 40
0.125
 40
0.15625
 40
0.15625
 40
0.1875
 40
0.1875
 40
0.2187499999999999
 40
0.2187499999999999
 40
0.2499999999999999
 40
0.2499999999999999
 40
0.2812499999999999
 40
0.2812499999999999
 40
0.3124999999999999
 40
0.3124999999999999
 40
0.3437499999999999
 40
0.3437499999999999
 40
0.3749999999999999
 40
0.3749999999999999
 40
0.4062499999999999
 40
0.4062499999999999
 40
0.4374999999999999
 40
0.4374999999999999
 40
0.4687499999999999
 40
0.4687499999999999
 40
0.4999999999999999
 40
0.4999999999999999
 40
0.5624999999999999
 40
0.5624999999999999
 40
0.5937499999999999
 40
0.5937499999999999
 40
0.6249999999999999
 40
0.6249999999999999
 40
0.6562499999999999
 40
0.6562499999999999
 40
0.6874999999999999
 40
0.6874999999999999
 40
0.7187499999999999
 40
0.7187499999999999
 40
0.7499999999999999
 40
0.7499999999999999
 40
0.7812499999999999
 40
0.7812499999999999
 40
0.8124999999999999
 40
0.8124999999999999
 40
0.8749999999999999
 40
0.8749999999999999
 40
0.90625
 40
0.90625
 40
0.9375
 40
0.9375
 40
1.0
 40
1.0
 40
1.03125
 40
1.03125
 10
211.1609377489066
 20
115.837309276066
 30
0.0
 10
211.1609377489066
 20
116.2817076266789
 30
0.0
 10
211.1453321503654
 20
116.4249359830433
 30
0.0
 10
211.0854027297865
 20
116.7024666833424
 30
0.0
 10
211.0405342828827
 20
116.8366828555833
 30
0.0
 10
210.9287133103587
 20
117.083135131538
 30
0.0
 10
210.8605336303302
 20
117.1985198380594
 30
0.0
 10
210.7071574310671
 20
117.4072687784777
 30
0.0
 10
210.622329919677
 20
117.5007745658553
 30
0.0
 10
210.4369614425273
 20
117.6696005752539
 30
0.0
 10
210.3355583533338
 20
117.7452977563733
 30
0.0
 10
210.1211888105322
 20
117.87593286933
 30
0.0
 10
210.0079196151218
 20
117.9314602204513
 30
0.0
 10
209.7645252516543
 20
118.0240600687594
 30
0.0
 10
209.6331292761467
 20
118.0612329457748
 30
0.0
 10
209.3572918396212
 20
118.1119834176089
 30
0.0
 10
209.2092748076456
 20
118.1257887127501
 30
0.0
 10
208.9168869918192
 20
118.1260457109248
 30
0.0
 10
208.7685083729795
 20
118.112446823536
 30
0.0
 10
208.4930347993776
 20
118.0622730762118
 30
0.0
 10
208.3615370363811
 20
118.0253742581389
 30
0.0
 10
208.117672053683
 20
117.9331438359069
 30
0.0
 10
208.0041162738567
 20
117.8777533459331
 30
0.0
 10
207.7890922752057
 20
117.747250715212
 30
0.0
 10
207.6877542026949
 20
117.6718504941949
 30
0.0
 10
207.5023155956428
 20
117.5036241092088
 30
0.0
 10
207.4173002606819
 20
117.4103353733819
 30
0.0
 10
207.2633221415821
 20
117.2016497855346
 30
0.0
 10
207.1951779360439
 20
117.0868068620849
 30
0.0
 10
207.0830388053593
 20
116.8411701106879
 30
0.0
 10
207.0378556420648
 20
116.70714591519
 30
0.0
 10
206.9772962112124
 20
116.43008715516
 30
0.0
 10
206.9614161585998
 20
116.2873953681054
 30
0.0
 10
206.9600124990394
 20
115.8457998839365
 30
0.0
 10
207.023879918892
 20
115.5493526553766
 30
0.0
 10
207.1911181032781
 20
115.1546043485891
 30
0.0
 10
207.2592128948016
 20
115.0292428258606
 30
0.0
 10
207.4121485085763
 20
114.7992265380081
 30
0.0
 10
207.4968394816264
 20
114.6941132617893
 30
0.0
 10
207.6821432140772
 20
114.5009463650818
 30
0.0
 10
207.78348723979
 20
114.412542095261
 30
0.0
 10
207.9975809262996
 20
114.2571877037782
 30
0.0
 10
208.1108120231661
 20
114.1894310018178
 30
0.0
 10
208.3544539670568
 20
114.0741838283121
 30
0.0
 10
208.4855475136822
 20
114.0267491273676
 30
0.0
 10
208.7613347736329
 20
113.9608503430333
 30
0.0
 10
208.9089999266511
 20
113.9423617835333
 30
0.0
 10
209.2013833295182
 20
113.9414568443912
 30
0.0
 10
209.3498789746629
 20
113.9591071314062
 30
0.0
 10
209.6270445222567
 20
114.0237823665889
 30
0.0
 10
209.7585293427588
 20
114.0707009633128
 30
0.0
 10
210.1242257259512
 20
114.2415880166687
 30
0.0
 10
210.3403909633
 20
114.3988712104546
 30
0.0
 10
210.6194649113206
 20
114.6875999567898
 30
0.0
 10
210.7060922052341
 20
114.7944226070416
 30
0.0
 10
210.8596966225253
 20
115.0241470955447
 30
0.0
 10
210.9268527048966
 20
115.1467769644045
 30
0.0
 10
211.0960747609552
 20
115.5421572763238
 30
0.0
 10
211.1609377489066
 20
115.837309276066
 30
0.0
 10
211.1609377489066
 20
116.2817076266789
 30
0.0
  0
ARC
  5
164
330
1F
100
AcDbEntity
  8
0
  6
HIDDEN
 62
     7
370
     0
100
AcDbCircle
 10
209.0601791181
 20
116.7308064229
 30
0.0
 40
2.104769825998074
100
AcDbArc
 50
104.4975265483
 51
118.1939996023
  0
LINE
  5
165
330
1F
100
AcDbEntity
  8
0
  6
HIDDEN
 62
     7
370
     0
100
AcDbLine
 10
124.7609377489
 20
126.9156854863
 30
0.0
 11
124.7609377489
 21
129.473209608
 31
0.0
  0
LINE
  5
166
330
1F
100
AcDbEntity
  8
0
  6
HIDDEN
 62
     7
370
     0
100
AcDbLine
 10
127.2609377489
 20
104.9156854863
 30
0.0
 11
127.2609377489
 21
102.2789387882
 31
0.0
  0
LINE
  5
167
330
1F
100
AcDbEntity
  8
0
  6
HIDDEN
 62
     7
370
     0
100
AcDbLine
 10
122.1109377489
 20
126.9156854863
 30
0.0
 11
122.1109377489
 21
128.7956854863
 31
0.0
  0
LINE
  5
168
330
1F
100
AcDbEntity
  8
0
  6
HIDDEN
 62
     7
370
     0
100
AcDbLine
 10
121.1609377489
 20
126.9156854863
 30
0.0
 11
121.1609377489
 21
127.8456854863
 31
0.0
  0
LINE
  5
169
330
1F
100
AcDbEntity
  8
0
  6
HIDDEN
 62
     7
370
     0
100
AcDbLine
 10
122.1699377489
 20
104.9156854863
 30
0.0
 11
122.1699377489
 21
103.0356854863
 31
0.0
  0
LINE
  5
16A
330
1F
100
AcDbEntity
  8
0
  6
HIDDEN
 62
     7
370
     0
100
AcDbLine
 10
121.1609377489
 20
104.9156854863
 30
0.0
 11
121.1609377489
 21
104.0446854863
 31
0.0
  0
LINE
  5
16B
330
1F
100
AcDbEntity
  8
0
  6
HIDDEN
 62
     7
370
     0
100
AcDbLine
 10
154.3609377489
 20
122.1656854863
 30
0.0
 11
154.3609377489
 21
109.6656854863
 31
0.0
  0
LINE
  5
16C
330
1F
100
AcDbEntity
  8
0
  6
HIDDEN
 62
     7
370
     0
100
AcDbLine
 10
156.8609377489
 20
122.1656854863
 30
0.0
 11
156.8609377489
 21
109.6656854863
 31
0.0
  0
LINE
  5
16D
330
1F
100
AcDbEntity
  8
0
  6
HIDDEN
 62
     7
370
     0
100
AcDbLine
 10
149.5109377489
 20
121.4156854863
 30
0.0
 11
149.5109377489
 21
110.4156854863
 31
0.0
  0
LINE
  5
16E
330
1F
100
AcDbEntity
  8
0
  6
HIDDEN
 62
     7
370
     0
100
AcDbLine
 10
149.0109377489
 20
109.9156854863
 30
0.0
 11
149.0109377489
 21
121.9156854863
 31
0.0
  0
LINE
  5
16F
330
1F
100
AcDbEntity
  8
0
  6
HIDDEN
 62
     7
370
     0
100
AcDbLine
 10
161.0109377489
 20
99.0156854863
 30
0.0
 11
158.0657153483
 21
99.0156854863
 31
0.0
  0
LINE
  5
170
330
1F
100
AcDbEntity
  8
0
  6
HIDDEN
 62
     7
370
     0
100
AcDbLine
 10
158.1009377489
 20
98.4865620983
 30
0.0
 11
158.1009377489
 21
98.8028065642
 31
0.0
  0
LINE
  5
171
330
1F
100
AcDbEntity
  8
0
  6
HIDDEN
 62
     7
370
     0
100
AcDbLine
 10
161.0109377489
 20
99.0156854863
 30
0.0
 11
161.0109377489
 21
97.3116536652
 31
0.0
  0
LINE
  5
172
330
1F
100
AcDbEntity
  8
0
  6
HIDDEN
 62
     7
370
     0
100
AcDbLine
 10
149.0109377489
 20
95.9407011308
 30
0.0
 11
149.0109377489
 21
99.0156854863
 31
0.0
  0
LINE
  5
173
330
1F
100
AcDbEntity
  8
0
  6
HIDDEN
 62
     7
370
     0
100
AcDbLine
 10
153.5109377489
 20
99.0156854863
 30
0.0
 11
149.0109377489
 21
99.0156854863
 31
0.0
  0
LINE
  5
174
330
1F
100
AcDbEntity
  8
0
  6
HIDDEN
 62
     7
370
     0
100
AcDbLine
 10
156.0561601495
 20
99.0156854863
 30
0.0
 11
153.5109377489
 21
99.0156854863
 31
0.0
  0
LINE
  5
175
330
1F
100
AcDbEntity
  8
0
  6
HIDDEN
 62
     7
370
     0
100
AcDbLine
 10
156.0209377489
 20
98.8028065642
 30
0.0
 11
156.0209377489
 21
98.4865620983
 31
0.0
  0
LINE
  5
176
330
1F
100
AcDbEntity
  8
0
  6
HIDDEN
 62
     7
370
     0
100
AcDbLine
 10
154.3609377489
 20
110.4156854863
 30
0.0
 11
154.3609377489
 21
121.397850681
 31
0.0
  0
ELLIPSE
  5
177
330
1F
100
AcDbEntity
  8
0
  6
HIDDEN
 62
     7
370
     0
100
AcDbEllipse
 10
119.0551710092
 20
115.9156854863
 30
0.0
 11
12.26424774976724
 21
0.0
 31
0.0
210
0.0
220
0.0
230
1.0
 40
0.8164965809
 41
4.884943637108982
 42
4.964202354313272
  0
LINE
  5
178
330
1F
100
AcDbEntity
  8
0
  6
HIDDEN
 62
     7
370
     0
100
AcDbLine
 10
121.1609377489
 20
104.9156854863
 30
0.0
 11
121.1609377489
 21
106.0506793432
 31
0.0
  0
ELLIPSE
  5
179
330
1F
100
AcDbEntity
  8
0
  6
HIDDEN
 62
     7
370
     0
100
AcDbEllipse
 10
119.0551710092
 20
115.9156854863
 30
0.0
 11
12.26424774976724
 21
0.0
 31
0.0
210
0.0
220
0.0
230
1.0
 40
0.8164965809
 41
1.318982952866325
 42
1.398241670070616
  0
LINE
  5
17A
330
1F
100
AcDbEntity
  8
0
  6
HIDDEN
 62
     7
370
     0
100
AcDbLine
 10
121.1609377489
 20
126.9156854863
 30
0.0
 11
121.1609377489
 21
125.7806916294
 31
0.0
  0
LINE
  5
17B
330
1F
100
AcDbEntity
  8
0
  6
HIDDEN
 62
     7
370
     0
100
AcDbLine
 10
161.0109377489
 20
132.8156854863
 30
0.0
 11
157.8525933632
 21
132.8156854863
 31
0.0
  0
LINE
  5
17C
330
1F
100
AcDbEntity
  8
0
  6
HIDDEN
 62
     7
370
     0
100
AcDbLine
 10
158.1009377489
 20
133.6293621818
 30
0.0
 11
158.1009377489
 21
133.3182894581
 31
0.0
  0
LINE
  5
17D
330
1F
100
AcDbEntity
  8
0
  6
HIDDEN
 62
     7
370
     0
100
AcDbLine
 10
161.0109377489
 20
132.8156854863
 30
0.0
 11
161.0109377489
 21
134.7865625194
 31
0.0
  0
LINE
  5
17E
330
1F
100
AcDbEntity
  8
0
  6
HIDDEN
 62
     7
370
     0
100
AcDbLine
 10
156.2692821347
 20
132.8156854863
 30
0.0
 11
153.5109377489
 21
132.8156854863
 31
0.0
  0
LINE
  5
17F
330
1F
100
AcDbEntity
  8
0
  6
HIDDEN
 62
     7
370
     0
100
AcDbLine
 10
156.0209377489
 20
133.3182894581
 30
0.0
 11
156.0209377489
 21
133.6293621818
 31
0.0
  0
LINE
  5
180
330
1F
100
AcDbEntity
  8
0
  6
HIDDEN
 62
     7
370
     0
100
AcDbLine
 10
153.5109377489
 20
132.8156854863
 30
0.0
 11
149.0109377489
 21
132.8156854863
 31
0.0
  0
LINE
  5
181
330
1F
100
AcDbEntity
  8
0
  6
HIDDEN
 62
     7
370
     0
100
AcDbLine
 10
122.1109377489
 20
126.9156854863
 30
0.0
 11
122.1109377489
 21
125.613591188
 31
0.0
  0
LINE
  5
182
330
1F
100
AcDbEntity
  8
0
  6
HIDDEN
 62
     7
370
     0
100
AcDbLine
 10
124.7609377489
 20
126.9156854863
 30
0.0
 11
124.7609377489
 21
125.9398749797
 31
0.0
  0
LINE
  5
183
330
1F
100
AcDbEntity
  8
0
  6
HIDDEN
 62
     7
370
     0
100
AcDbLine
 10
127.2609377489
 20
104.9156854863
 30
0.0
 11
127.2609377489
 21
105.8732931418
 31
0.0
  0
LINE
  5
184
330
1F
100
AcDbEntity
  8
0
  6
HIDDEN
 62
     7
370
     0
100
AcDbLine
 10
122.1699377489
 20
104.9156854863
 30
0.0
 11
122.1699377489
 21
106.1935023981
 31
0.0
  0
SPLINE
  5
185
330
1F
100
AcDbEntity
  8
0
  6
HIDDEN
 62
     7
370
     0
100
AcDbSpline
210
0.0
220
0.0
230
1.0
 70
     8
 71
     3
 72
    35
 73
    31
 74
     0
 42
0.00000001
 43
0.00000001
 12
1.0
 22
0.0
 32
0.0
 13
1.0
 23
0.0
 33
0.0
 40
-0.0968759714483648
 40
-0.0666637413368608
 40
-0.0343786692018837
 40
0.0
 40
0.0402501655237433
 40
0.0744868222973418
 40
0.102707132101208
 40
0.124917950876687
 40
0.1620537620852394
 40
0.2036866237676775
 40
0.2499064447776576
 40
0.2843401084202794
 40
0.3106265058260229
 40
0.3287516660583911
 40
0.3698185614122192
 40
0.4071583507675881
 40
0.451949094510117
 40
0.5000414664482354
 40
0.5203026886965173
 40
0.5628788326113868
 40
0.5977565701864994
 40
0.6256573753262467
 40
0.6860513535191518
 40
0.7499481360754525
 40
0.7710338114888533
 40
0.8124324596667043
 40
0.8472054374202816
 40
0.8749589221790491
 40
0.9031240285516352
 40
0.9333362586631392
 40
0.9656213307981163
 40
1.0
 40
1.040250165523743
 40
1.074486822297342
 40
1.102707132101208
 10
132.9047115298532
 20
101.6748395743229
 30
0.0
 10
133.14337431986
 20
101.7114070338172
 30
0.0
 10
133.4898086382831
 20
101.7518178363735
 30
0.0
 10
133.8945687248521
 20
101.7811916173204
 30
0.0
 10
134.2681671443672
 20
101.7983987978553
 30
0.0
 10
134.6767979293071
 20
101.8035915959059
 30
0.0
 10
135.1668646717761
 20
101.778663280352
 30
0.0
 10
135.7652549785131
 20
101.7178463779974
 30
0.0
 10
136.3003811813037
 20
101.6303336027886
 30
0.0
 10
136.6946374876397
 20
101.5465767785981
 30
0.0
 10
136.9345665132815
 20
101.4886942106174
 30
0.0
 10
137.1483482618697
 20
101.4306813505828
 30
0.0
 10
137.3161160781881
 20
101.3841471553158
 30
0.0
 10
137.3865796992081
 20
101.3620862186065
 30
0.0
 10
137.29705450687
 20
101.3908629545287
 30
0.0
 10
137.0642180126097
 20
101.4524251438267
 30
0.0
 10
136.7447838601481
 20
101.5363658135633
 30
0.0
 10
136.392692315552
 20
101.6113584631459
 30
0.0
 10
135.944991757278
 20
101.6891331569753
 30
0.0
 10
135.3781182221043
 20
101.7660175473526
 30
0.0
 10
134.6252680101475
 20
101.8113067581094
 30
0.0
 10
133.9540965628254
 20
101.7938332539534
 30
0.0
 10
133.469303472914
 20
101.7490641424753
 30
0.0
 10
133.1549467680118
 20
101.7135149084826
 30
0.0
 10
132.920112814943
 20
101.6778291604439
 30
0.0
 10
132.7951744888641
 20
101.6550471100764
 30
0.0
 10
132.7483501823466
 20
101.6480686591619
 30
0.0
 10
132.7798638145435
 20
101.6550272252112
 30
0.0
 10
132.9047115298532
 20
101.6748395743229
 30
0.0
 10
133.14337431986
 20
101.7114070338172
 30
0.0
 10
133.4898086382831
 20
101.7518178363735
 30
0.0
  0
SPLINE
  5
186
330
1F
100
AcDbEntity
  8
0
  6
HIDDEN
 62
     7
370
     0
100
AcDbSpline
210
0.0
220
0.0
230
1.0
 70
    11
 71
     3
 72
    49
 73
    45
 74
     0
 42
0.00000001
 43
0.00000001
 12
1.0
 22
0.0
 32
0.0
 13
1.0
 23
0.0
 33
0.0
 40
0.0
 40
0.0
 40
0.0
 40
0.0
 40
0.0292920231671114
 40
0.0609567193161941
 40
0.0636195794780546
 40
0.0958461239586711
 40
0.1221546707517019
 40
0.1259923369098714
 40
0.1540838790722199
 40
0.171762112577967
 40
0.1925948718235825
 40
0.216583541918253
 40
0.2615171967021353
 40
0.2691083896998419
 40
0.2749501186739369
 40
0.2790422652878959
 40
0.311618014599556
 40
0.3432616881781562
 40
0.3740268631144322
 40
0.4039718630802986
 40
0.4217562748297584
 40
0.4426233940305446
 40
0.4665767465933126
 40
0.493126174929418
 40
0.5126827200051433
 40
0.5201342849301162
 40
0.525662730935633
 40
0.5292679268570839
 40
0.5620277106351412
 40
0.5933047850419174
 40
0.6223602739400231
 40
0.6507789901444152
 40
0.6816716112988188
 40
0.7155883368735941
 40
0.7479385466304032
 40
0.7792460698518502
 40
0.8105687947022265
 40
0.8398946453374089
 40
0.8693714015223015
 40
0.901681482466294
 40
0.932669295609392
 40
0.957205842883736
 40
0.9894173301588676
 40
1.0
 40
1.0
 40
1.0
 40
1.0
 10
133.4218639718162
 20
130.0900720672809
 30
0.0
 10
133.3221457099371
 20
130.1008087321435
 30
0.0
 10
133.1146319419263
 20
130.1231517387253
 30
0.0
 10
133.0001989112514
 20
130.1426609286164
 30
0.0
 10
132.8498168336412
 20
130.1644443754044
 30
0.0
 10
132.7818122471647
 20
130.1763016852548
 30
0.0
 10
132.7749161016982
 20
130.1783031607543
 30
0.0
 10
132.7510223409387
 20
130.1830140714081
 30
0.0
 10
132.7924498124071
 20
130.176731608476
 30
0.0
 10
132.8702003108919
 20
130.16233754398
 30
0.0
 10
132.9825370070506
 20
130.1439575887342
 30
0.0
 10
133.1967078678668
 20
130.1126719742223
 30
0.0
 10
133.4481468931971
 20
130.0842779175186
 30
0.0
 10
133.6684983264207
 20
130.0641700167197
 30
0.0
 10
133.736845403398
 20
130.0582728146833
 30
0.0
 10
133.9062891620587
 20
130.0449337674809
 30
0.0
 10
134.2009219052562
 20
130.0312630487273
 30
0.0
 10
134.6449150651161
 20
130.0300561926954
 30
0.0
 10
135.0920224457537
 20
130.0479297605121
 30
0.0
 10
135.4700031234915
 20
130.0801226703205
 30
0.0
 10
135.7884165132436
 20
130.120659826438
 30
0.0
 10
136.0673009811065
 20
130.1628782942636
 30
0.0
 10
136.3640012586844
 20
130.2161002824883
 30
0.0
 10
136.6256726059084
 20
130.2698973080574
 30
0.0
 10
136.8003292142355
 20
130.3103581672159
 30
0.0
 10
136.8963353920001
 20
130.3346540150502
 30
0.0
 10
136.9427051743352
 20
130.3469078452775
 30
0.0
 10
137.0554505693897
 20
130.3768088963517
 30
0.0
 10
137.2017578310227
 20
130.4146232172078
 30
0.0
 10
137.3527761583147
 20
130.457590680217
 30
0.0
 10
137.3083362015241
 20
130.4449511350931
 30
0.0
 10
137.3538692395061
 20
130.4585052904658
 30
0.0
 10
137.20546778649
 20
130.4142906521067
 30
0.0
 10
136.9957825799358
 20
130.3589439268166
 30
0.0
 10
136.6961262542533
 20
130.287212312034
 30
0.0
 10
136.3430677089259
 20
130.2187738046197
 30
0.0
 10
135.9530171503191
 20
130.1511619028259
 30
0.0
 10
135.5403488051219
 20
130.0808759141444
 30
0.0
 10
135.1019973405083
 20
130.0429887727126
 30
0.0
 10
134.6526450759438
 20
130.0278636281487
 30
0.0
 10
134.2407209172641
 20
130.0304314309758
 30
0.0
 10
133.8626041717713
 20
130.0506947357904
 30
0.0
 10
133.585179435661
 20
130.0707350072118
 30
0.0
 10
133.454243446812
 20
130.0862382364956
 30
0.0
 10
133.4218639718162
 20
130.0900720672809
 30
0.0
  0
SPLINE
  5
187
330
1F
100
AcDbEntity
  8
0
  6
HIDDEN
 62
     7
370
     0
100
AcDbSpline
210
0.0
220
0.0
230
1.0
 70
     8
 71
     3
 72
    64
 73
    60
 74
     0
 42
0.00000001
 43
0.00000001
 12
1.0
 22
0.0
 32
0.0
 13
1.0
 23
0.0
 33
0.0
 40
-0.0625000000000001
 40
-0.0625000000000001
 40
0.0
 40
0.0
 40
0.03125
 40
0.03125
 40
0.0624999999999999
 40
0.0624999999999999
 40
0.0937499999999999
 40
0.0937499999999999
 40
0.1249999999999999
 40
0.1249999999999999
 40
0.1562499999999999
 40
0.1562499999999999
 40
0.1874999999999999
 40
0.1874999999999999
 40
0.2187499999999999
 40
0.2187499999999999
 40
0.2499999999999998
 40
0.2499999999999998
 40
0.2812499999999998
 40
0.2812499999999998
 40
0.3124999999999998
 40
0.3124999999999998
 40
0.3437499999999997
 40
0.3437499999999997
 40
0.3749999999999998
 40
0.3749999999999998
 40
0.4062499999999998
 40
0.4062499999999998
 40
0.4374999999999998
 40
0.4374999999999998
 40
0.4687499999999998
 40
0.4687499999999998
 40
0.4999999999999999
 40
0.4999999999999999
 40
0.5624999999999999
 40
0.5624999999999999
 40
0.5937499999999999
 40
0.5937499999999999
 40
0.6249999999999999
 40
0.6249999999999999
 40
0.6562499999999999
 40
0.6562499999999999
 40
0.6874999999999998
 40
0.6874999999999998
 40
0.7187499999999998
 40
0.7187499999999998
 40
0.7499999999999998
 40
0.7499999999999998
 40
0.7812499999999998
 40
0.7812499999999998
 40
0.8124999999999997
 40
0.8124999999999997
 40
0.8749999999999998
 40
0.8749999999999998
 40
0.9062499999999999
 40
0.9062499999999999
 40
0.9374999999999999
 40
0.9374999999999999
 40
1.0
 40
1.0
 40
1.03125
 40
1.03125
 10
211.1609377489066
 20
115.9940616964782
 30
0.0
 10
211.1609377489066
 20
115.5496633458653
 30
0.0
 10
211.1453321503654
 20
115.406434989501
 30
0.0
 10
211.0854027297865
 20
115.1289042892018
 30
0.0
 10
211.0405342828827
 20
114.9946881169609
 30
0.0
 10
210.9287133103587
 20
114.7482358410062
 30
0.0
 10
210.8605336303301
 20
114.6328511344849
 30
0.0
 10
210.7071574310671
 20
114.4241021940665
 30
0.0
 10
210.622329919677
 20
114.3305964066889
 30
0.0
 10
210.4369614425273
 20
114.1617703972904
 30
0.0
 10
210.3355583533338
 20
114.0860732161709
 30
0.0
 10
210.1211888105322
 20
113.9554381032143
 30
0.0
 10
210.0079196151218
 20
113.8999107520929
 30
0.0
 10
209.7645252516543
 20
113.8073109037849
 30
0.0
 10
209.6331292761468
 20
113.7701380267694
 30
0.0
 10
209.3572918396212
 20
113.7193875549353
 30
0.0
 10
209.2092748076456
 20
113.7055822597941
 30
0.0
 10
208.9168869918192
 20
113.7053252616195
 30
0.0
 10
208.7685083729795
 20
113.7189241490083
 30
0.0
 10
208.4930347993776
 20
113.7690978963324
 30
0.0
 10
208.3615370363811
 20
113.8059967144053
 30
0.0
 10
208.117672053683
 20
113.8982271366373
 30
0.0
 10
208.0041162738567
 20
113.9536176266111
 30
0.0
 10
207.7890922752057
 20
114.0841202573322
 30
0.0
 10
207.6877542026949
 20
114.1595204783493
 30
0.0
 10
207.5023155956428
 20
114.3277468633354
 30
0.0
 10
207.417300260682
 20
114.4210355991623
 30
0.0
 10
207.2633221415821
 20
114.6297211870096
 30
0.0
 10
207.1951779360439
 20
114.7445641104594
 30
0.0
 10
207.0830388053593
 20
114.9902008618563
 30
0.0
 10
207.0378556420648
 20
115.1242250573542
 30
0.0
 10
206.9772962112124
 20
115.4012838173842
 30
0.0
 10
206.9614161585998
 20
115.5439756044389
 30
0.0
 10
206.9600124990394
 20
115.9855710886077
 30
0.0
 10
207.023879918892
 20
116.2820183171677
 30
0.0
 10
207.1911181032781
 20
116.6767666239551
 30
0.0
 10
207.2592128948016
 20
116.8021281466836
 30
0.0
 10
207.4121485085763
 20
117.0321444345361
 30
0.0
 10
207.4968394816262
 20
117.1372577107549
 30
0.0
 10
207.6821432140772
 20
117.3304246074624
 30
0.0
 10
207.78348723979
 20
117.4188288772833
 30
0.0
 10
207.9975809262996
 20
117.574183268766
 30
0.0
 10
208.1108120231662
 20
117.6419399707264
 30
0.0
 10
208.3544539670568
 20
117.7571871442321
 30
0.0
 10
208.4855475136822
 20
117.8046218451767
 30
0.0
 10
208.7613347736329
 20
117.8705206295109
 30
0.0
 10
208.9089999266511
 20
117.889009189011
 30
0.0
 10
209.2013833295182
 20
117.889914128153
 30
0.0
 10
209.3498789746629
 20
117.872263841138
 30
0.0
 10
209.6270445222567
 20
117.8075886059553
 30
0.0
 10
209.7585293427588
 20
117.7606700092314
 30
0.0
 10
210.1242257259511
 20
117.5897829558755
 30
0.0
 10
210.3403909633
 20
117.4324997620896
 30
0.0
 10
210.6194649113206
 20
117.1437710157545
 30
0.0
 10
210.7060922052342
 20
117.0369483655026
 30
0.0
 10
210.8596966225253
 20
116.8072238769995
 30
0.0
 10
210.9268527048966
 20
116.6845940081397
 30
0.0
 10
211.0960747609552
 20
116.2892136962204
 30
0.0
 10
211.1609377489066
 20
115.9940616964782
 30
0.0
 10
211.1609377489066
 20
115.5496633458653
 30
0.0
  0
LINE
  5
188
330
1F
100
AcDbEntity
  8
0
  6
HIDDEN
 62
     7
370
     0
100
AcDbLine
 10
211.1609377489
 20
116.1335748431
 30
0.0
 11
211.1609377489
 21
113.4156854863
 31
0.0
  0
LINE
  5
189
330
1F
100
AcDbEntity
  8
0
  6
HIDDEN
 62
     7
370
     0
100
AcDbLine
 10
211.1609377489
 20
115.6977961294
 30
0.0
 11
211.1609377489
 21
118.4156854863
 31
0.0
  0
LINE
  5
18A
330
1F
100
AcDbEntity
  8
0
  6
HIDDEN
 62
     7
370
     0
100
AcDbLine
 10
156.8609377489
 20
113.4156854863
 30
0.0
 11
156.8609377489
 21
118.4156854863
 31
0.0
  0
LINE
  5
18B
330
1F
100
AcDbEntity
  8
0
  6
HIDDEN
 62
     7
370
     0
100
AcDbLine
 10
240.2107820141
 20
129.5819664657
 30
0.0
 11
237.8569724311
 21
122.1348213958
 31
0.0
  0
LINE
  5
18C
330
1F
100
AcDbEntity
  8
0
  6
HIDDEN
 62
     7
370
     0
100
AcDbLine
 10
237.8569724311
 20
122.1348213958
 30
0.0
 11
237.8067414989
 21
122.1190222236
 31
0.0
  0
LINE
  5
18D
330
1F
100
AcDbEntity
  8
0
  6
HIDDEN
 62
     7
370
     0
100
AcDbLine
 10
237.3122282276
 20
118.7911608367
 30
0.0
 11
247.5575817368
 21
122.0136394255
 31
0.0
  0
LINE
  5
18E
330
1F
100
AcDbEntity
  8
0
  6
HIDDEN
 62
     7
370
     0
100
AcDbLine
 10
247.5575817368
 20
122.0136394255
 30
0.0
 11
247.5514041863
 21
121.9940944652
 31
0.0
  0
LINE
  5
18F
330
1F
100
AcDbEntity
  8
0
  6
HIDDEN
 62
     7
370
     0
100
AcDbLine
 10
227.5609377489
 20
102.9156854863
 30
0.0
 11
227.5609377489
 21
115.9156854863
 31
0.0
  0
SPLINE
  5
190
330
1F
100
AcDbEntity
  8
0
  6
HIDDEN
 62
     7
370
     0
100
AcDbSpline
210
0.0
220
0.0
230
1.0
 70
     8
 71
     3
 72
    10
 73
     6
 74
     0
 42
0.00000001
 43
0.00000001
 12
1.0
 22
0.0
 32
0.0
 13
1.0
 23
0.0
 33
0.0
 40
0.0
 40
0.0
 40
0.0
 40
0.0
 40
0.5
 40
0.5
 40
1.0
 40
1.0
 40
1.0
 40
1.0
 10
227.5609377489066
 20
115.9156854862721
 30
0.0
 10
227.5609377489066
 20
116.2486654156845
 30
0.0
 10
227.5737499894751
 20
116.5820487899532
 30
0.0
 10
227.6249580598818
 20
117.2496211405586
 30
0.0
 10
227.6635782630173
 20
117.5848499252825
 30
0.0
 10
227.7138841868724
 20
117.9156854862721
 30
0.0
  0
SPLINE
  5
191
330
1F
100
AcDbEntity
  8
0
  6
HIDDEN
 62
     7
370
     0
100
AcDbSpline
210
0.0
220
0.0
230
1.0
 70
     8
 71
     3
 72
    16
 73
    12
 74
     0
 42
0.00000001
 43
0.00000001
 12
1.0
 22
0.0
 32
0.0
 13
1.0
 23
0.0
 33
0.0
 40
0.0
 40
0.0
 40
0.0
 40
0.0
 40
0.2500000000000001
 40
0.2500000000000001
 40
0.5000000000000003
 40
0.5000000000000003
 40
0.6250000000000002
 40
0.6250000000000002
 40
0.75
 40
0.75
 40
1.0
 40
1.0
 40
1.0
 40
1.0
 10
227.7138841868725
 20
117.9156854862721
 30
0.0
 10
227.8404170826231
 20
118.7478256864963
 30
0.0
 10
227.9816062276168
 20
119.566898247279
 30
0.0
 10
228.2889216894432
 20
121.1809493935455
 30
0.0
 10
228.455062613754
 20
121.9759191053903
 30
0.0
 10
228.7212542437844
 20
123.1505460469644
 30
0.0
 10
228.813197408926
 20
123.5405574088951
 30
0.0
 10
229.0001731387266
 20
124.3045639371759
 30
0.0
 10
229.0952958302998
 20
124.6790916890257
 30
0.0
 10
229.3851047466201
 20
125.7809358429652
 30
0.0
 10
229.5841928828024
 20
126.4866260650255
 30
0.0
 10
229.7884644782069
 20
127.1638117228163
 30
0.0
  0
SPLINE
  5
192
330
1F
100
AcDbEntity
  8
0
  6
HIDDEN
 62
     7
370
     0
100
AcDbSpline
210
0.0
220
0.0
230
1.0
 70
     8
 71
     3
 72
    18
 73
    14
 74
     0
 42
0.00000001
 43
0.00000001
 12
1.0
 22
0.0
 32
0.0
 13
1.0
 23
0.0
 33
0.0
 40
0.0
 40
0.0
 40
0.0
 40
0.0
 40
0.2500000000000013
 40
0.2500000000000013
 40
0.3750000000000012
 40
0.3750000000000012
 40
0.5000000000000011
 40
0.5000000000000011
 40
0.7500000000000004
 40
0.7500000000000004
 40
0.8750000000000002
 40
0.8750000000000002
 40
1.0
 40
1.0
 40
1.0
 40
1.0
 10
229.7884644782069
 20
127.1638117228163
 30
0.0
 10
229.3737390392552
 20
127.3157758273336
 30
0.0
 10
228.9948761095983
 20
127.4710190529041
 30
0.0
 10
228.5060006272003
 20
127.7111456314944
 30
0.0
 10
228.3563881221926
 20
127.792408126974
 30
0.0
 10
228.0896559542158
 20
127.9579041304058
 30
0.0
 10
227.973416980497
 20
128.0417197952655
 30
0.0
 10
227.6869569242367
 20
128.2937348125374
 30
0.0
 10
227.5776892889585
 20
128.4636217137455
 30
0.0
 10
227.5552468522237
 20
128.7217015677831
 30
0.0
 10
227.5714883317338
 20
128.8087172484657
 30
0.0
 10
227.6508206816823
 20
128.9814349634227
 30
0.0
 10
227.7134945169784
 20
129.0669523954349
 30
0.0
 10
227.7970129760201
 20
129.1517075075498
 30
0.0
  0
ELLIPSE
  5
193
330
1F
100
AcDbEntity
  8
0
  6
HIDDEN
 62
     7
370
     0
100
AcDbEllipse
 10
245.535692115
 20
115.9156854863
 30
0.0
 11
4.247080252762998
 21
12.99357047085403
 31
0.0
210
0.0
220
0.0
230
1.0
 40
0.0962569477
 41
1.602248510774565
 42
3.173044837569576
  0
LINE
  5
194
330
1F
100
AcDbEntity
  8
0
  6
HIDDEN
 62
     7
370
     0
100
AcDbLine
 10
237.0831492118
 20
118.8464290776
 30
0.0
 11
247.3451792616
 21
122.074152951
 31
0.0
  0
LINE
  5
195
330
1F
100
AcDbEntity
  8
0
  6
HIDDEN
 62
     7
370
     0
100
AcDbLine
 10
247.5575817368
 20
122.0136394255
 30
0.0
 11
247.3451792616
 21
122.074152951
 31
0.0
  0
LINE
  5
196
330
1F
100
AcDbEntity
  8
0
  6
HIDDEN
 62
     7
370
     0
100
AcDbLine
 10
237.8569724311
 20
122.1348213958
 30
0.0
 11
238.0693749064
 21
121.7715647743
 31
0.0
  0
LINE
  5
197
330
1F
100
AcDbEntity
  8
0
  6
HIDDEN
 62
     7
370
     0
100
AcDbLine
 10
237.6558068974
 20
121.6414849237
 30
0.0
 11
238.0693749064
 21
121.7715647743
 31
0.0
  0
ELLIPSE
  5
198
330
1F
100
AcDbEntity
  8
0
  6
HIDDEN
 62
     7
370
     0
100
AcDbEllipse
 10
235.5120950881
 20
182.6623469955
 30
0.0
 11
-21.39702621087628
 21
70.55389860331968
 31
0.0
210
0.0
220
0.0
230
1.0
 40
0.2093503934
 41
2.356703451171833
 42
2.364834494054949
  0
LINE
  5
199
330
1F
100
AcDbEntity
  8
0
  6
HIDDEN
 62
     7
370
     0
100
AcDbLine
 10
240.4185506583
 20
129.20404901
 30
0.0
 11
238.0693749064
 21
121.7715647743
 31
0.0
  0
LINE
  5
19A
330
1F
100
AcDbEntity
  8
0
  6
HIDDEN
 62
     7
370
     0
100
AcDbLine
 10
149.0109377489
 20
99.0156854863
 30
0.0
 11
153.5109377489
 21
99.0156854863
 31
0.0
  0
CIRCLE
  5
19B
330
1F
100
AcDbEntity
  8
0
  6
HIDDEN
 62
     7
370
     0
100
AcDbCircle
 10
209.0595615339
 20
115.3544198189
 30
0.0
 40
2.097255978029348
  0
ARC
  5
19C
330
1F
100
AcDbEntity
  8
0
  6
HIDDEN
 62
     7
370
     0
100
AcDbCircle
 10
236.0618941799
 20
119.7300415629
 30
0.0
 40
1.24913373877588
100
AcDbArc
 50
177.679747943
 51
287.5505145784
  0
LINE
  5
19D
330
1F
100
AcDbEntity
  8
0
  6
HIDDEN
 62
     7
370
     0
100
AcDbLine
 10
247.3451792616
 20
122.074152951
 30
0.0
 11
247.1307470609
 21
121.9020727223
 31
0.0
  0
LINE
  5
19E
330
1F
100
AcDbEntity
  8
0
  6
HIDDEN
 62
     7
370
     0
100
AcDbLine
 10
238.0693749064
 20
121.7715647743
 30
0.0
 11
238.0693749064
 21
121.6669300637
 31
0.0
  0
LINE
  5
19F
330
1F
100
AcDbEntity
  8
0
  6
HIDDEN
 62
     7
370
     0
100
AcDbLine
 10
238.0693749064
 20
121.6669300637
 30
0.0
 11
237.6190844368
 21
121.5252998704
 31
0.0
  0
LINE
  5
1A0
330
1F
100
AcDbEntity
  8
0
  6
HIDDEN
 62
     7
370
     0
100
AcDbLine
 10
240.356730861
 20
128.9038245618
 30
0.0
 11
238.0693749064
 21
121.6669300637
 31
0.0
  0
ELLIPSE
  5
1A1
330
1F
100
AcDbEntity
  8
0
  6
HIDDEN
 62
     7
370
     0
100
AcDbEllipse
 10
235.5120950881
 20
90.2252892392
 30
0.0
 11
25.84177378472336
 21
129.9623072976347
 31
0.0
210
0.0
220
0.0
230
1.0
 40
0.02203747
 41
1.270568719841662
 42
1.272989345452432
  0
CIRCLE
  5
1A2
330
1F
100
AcDbEntity
  8
0
  6
HIDDEN
 62
     7
370
     0
100
AcDbCircle
 10
243.8887169215
 20
125.4890068546
 30
0.0
 40
2.398220797439014
  0
LINE
  5
1A3
330
1F
100
AcDbEntity
  8
0
  6
HIDDEN
 62
     7
370
     0
100
AcDbLine
 10
243.2773851766
 20
129.6388706926
 30
0.0
 11
249.7820632747
 21
131.6847918879
 31
0.0
  0
LINE
  5
1A4
330
1F
100
AcDbEntity
  8
0
  6
HIDDEN
 62
     7
370
     0
100
AcDbLine
 10
250.1172202715
 20
131.3508826038
 30
0.0
 11
249.7820632747
 21
131.6847918879
 31
0.0
  0
LINE
  5
1A5
330
1F
100
AcDbEntity
  8
0
  6
HIDDEN
 62
     7
370
     0
100
AcDbLine
 10
236.4385661156
 20
118.5390531708
 30
0.0
 11
247.1307470609
 21
121.9020727223
 31
0.0
  0
ELLIPSE
  5
1A6
330
1F
100
AcDbEntity
  8
0
  6
HIDDEN
 62
     7
370
     0
100
AcDbEllipse
 10
235.5120950881
 20
154.5776247326
 30
0.0
 11
5.684341886080801E-14
 21
26.1314451361938
 31
0.0
210
0.0
220
0.0
230
1.0
 40
0.9949698482
 41
3.329020233137971
 42
3.444886158282745
  0
LINE
  5
1A7
330
1F
100
AcDbEntity
  8
0
  6
HIDDEN
 62
     7
370
     0
100
AcDbLine
 10
250.1172202715
 20
131.3508826038
 30
0.0
 11
247.1307470609
 21
121.9020727223
 31
0.0
  0
LINE
  5
1A8
330
1F
100
AcDbEntity
  8
0
  6
HIDDEN
 62
     7
370
     0
100
AcDbLine
 10
127.2609377489
 20
104.9156854863
 30
0.0
 11
127.2609377489
 21
102.2789387882
 31
0.0
  0
LINE
  5
1A9
330
1F
100
AcDbEntity
  8
0
  6
HIDDEN
 62
     7
370
     0
100
AcDbLine
 10
124.7609377489
 20
126.9156854863
 30
0.0
 11
124.7609377489
 21
129.473209608
 31
0.0
  0
CIRCLE
  5
1AA
330
1F
100
AcDbEntity
  8
0
  6
HIDDEN
 62
     7
370
     0
100
AcDbCircle
 10
243.8888949447
 20
125.4354270464
 30
0.0
 40
1.648785298621475
  0
LINE
  5
1AB
330
1F
100
AcDbEntity
  8
0
  6
HIDDEN
 62
     7
370
     0
100
AcDbLine
 10
249.7820632747
 20
131.6847918879
 30
0.0
 11
249.2009752061
 21
130.9012462471
 31
0.0
  0
LINE
  5
1AC
330
1F
100
AcDbEntity
  8
0
  6
HIDDEN
 62
     7
370
     0
100
AcDbLine
 10
249.4294616462
 20
130.4235011932
 30
0.0
 11
250.1172202715
 21
131.3508826038
 31
0.0
  0
LINE
  5
1AD
330
1F
100
AcDbEntity
  8
0
  6
HIDDEN
 62
     7
370
     0
100
AcDbLine
 10
158.1009377489
 20
133.3182894581
 30
0.0
 11
158.1009377489
 21
98.8028065642
 31
0.0
  0
SPLINE
  5
1AE
330
1F
100
AcDbEntity
  8
0
  6
HIDDEN
 62
     7
370
     0
100
AcDbSpline
210
0.0
220
0.0
230
1.0
 70
     8
 71
     3
 72
    10
 73
     6
 74
     0
 42
0.00000001
 43
0.00000001
 12
1.0
 22
0.0
 32
0.0
 13
1.0
 23
0.0
 33
0.0
 40
0.0
 40
0.0
 40
0.0
 40
0.0
 40
0.5
 40
0.5
 40
1.0
 40
1.0
 40
1.0
 40
1.0
 10
157.8525933631566
 20
132.8156854862721
 30
0.0
 10
157.9300213677052
 20
132.8736447926591
 30
0.0
 10
157.9932009845918
 20
132.9506294477773
 30
0.0
 10
158.0784961638529
 20
133.1241995806497
 30
0.0
 10
158.1009377489066
 20
133.2211008431314
 30
0.0
 10
158.1009377489066
 20
133.318289458092
 30
0.0
  0
SPLINE
  5
1AF
330
1F
100
AcDbEntity
  8
0
  6
HIDDEN
 62
     7
370
     0
100
AcDbSpline
210
0.0
220
0.0
230
1.0
 70
     8
 71
     3
 72
    10
 73
     6
 74
     0
 42
0.00000001
 43
0.00000001
 12
1.0
 22
0.0
 32
0.0
 13
1.0
 23
0.0
 33
0.0
 40
0.0
 40
0.0
 40
0.0
 40
0.0
 40
0.5
 40
0.5
 40
1.0
 40
1.0
 40
1.0
 40
1.0
 10
158.0657153483252
 20
99.01568548627209
 30
0.0
 10
158.0774274652884
 20
98.98134214907812
 30
0.0
 10
158.0862255351604
 20
98.9462496113399
 30
0.0
 10
158.0980390929325
 20
98.87457783594918
 30
0.0
 10
158.1009377489066
 20
98.8386341815839
 30
0.0
 10
158.1009377489066
 20
98.80280656424381
 30
0.0
  0
SPLINE
  5
1B0
330
1F
100
AcDbEntity
  8
0
  6
HIDDEN
 62
     7
370
     0
100
AcDbSpline
210
0.0
220
0.0
230
1.0
 70
    24
 71
     3
 72
    14
 73
    10
 74
     0
 42
0.00000001
 43
0.00000001
 12
1.0
 22
0.0
 32
0.0
 13
1.0
 23
0.0
 33
0.0
 40
0.0
 40
0.0
 40
0.0
 40
0.0
 40
0.1250000000000001
 40
0.1250000000000001
 40
0.2500000000000001
 40
0.2500000000000001
 40
0.4999999999999972
 40
0.4999999999999972
 40
1.0
 40
1.0
 40
1.0
 40
1.0
 10
157.5009377489066
 20
132.8156854862721
 30
0.0
 10
157.5263789799911
 20
132.8156854862721
 30
0.0
 10
157.5519932826185
 20
132.8156854862721
 30
0.0
 10
157.5974697231457
 20
132.8156854862721
 30
0.0
 10
157.6174729248852
 20
132.8156854862721
 30
0.0
 10
157.6726181168579
 20
132.8156854862721
 30
0.0
 10
157.7020523353801
 20
132.8156854862721
 30
0.0
 10
157.7799653479588
 20
132.8156854862721
 30
0.0
 10
157.8185414484794
 20
132.8156854862721
 30
0.0
 10
157.8525933631574
 20
132.8156854862721
 30
0.0
  0
SPLINE
  5
1B1
330
1F
100
AcDbEntity
  8
0
  6
HIDDEN
 62
     7
370
     0
100
AcDbSpline
210
0.0
220
0.0
230
1.0
 70
    24
 71
     3
 72
    16
 73
    12
 74
     0
 42
0.00000001
 43
0.00000001
 12
1.0
 22
0.0
 32
0.0
 13
1.0
 23
0.0
 33
0.0
 40
0.0
 40
0.0
 40
0.0
 40
0.0
 40
0.0625000000000014
 40
0.0625000000000014
 40
0.1250000000000028
 40
0.1250000000000028
 40
0.2500000000000016
 40
0.2500000000000016
 40
0.5000000000000004
 40
0.5000000000000004
 40
1.0
 40
1.0
 40
1.0
 40
1.0
 10
157.5009377489066
 20
99.01568548627212
 30
0.0
 10
157.5352255723666
 20
99.0156854862721
 30
0.0
 10
157.5691094816882
 20
99.01568548627212
 30
0.0
 10
157.6254456745051
 20
99.01568548627212
 30
0.0
 10
157.649707530672
 20
99.01568548627212
 30
0.0
 10
157.7140006487192
 20
99.01568548627212
 30
0.0
 10
157.7475644381459
 20
99.01568548627212
 30
0.0
 10
157.8354808103684
 20
99.01568548627212
 30
0.0
 10
157.878237353085
 20
99.01568548627212
 30
0.0
 10
157.9887820947353
 20
99.0156854862721
 30
0.0
 10
158.0357615084974
 20
99.0156854862721
 30
0.0
 10
158.0657153483252
 20
99.01568548627212
 30
0.0
  0
LINE
  5
1B2
330
1F
100
AcDbEntity
  8
0
  6
HIDDEN
 62
     7
370
     0
100
AcDbLine
 10
122.1699377489
 20
104.9156854863
 30
0.0
 11
122.1699377489
 21
103.0373943206
 31
0.0
  0
LINE
  5
1B3
330
1F
100
AcDbEntity
  8
0
  6
HIDDEN
 62
     7
370
     0
100
AcDbLine
 10
121.1609377489
 20
104.9156854863
 30
0.0
 11
121.1609377489
 21
104.0498624157
 31
0.0
  0
SPLINE
  5
1B4
330
1F
100
AcDbEntity
  8
0
  6
HIDDEN
 62
     7
370
     0
100
AcDbSpline
210
0.0
220
0.0
230
1.0
 70
     8
 71
     3
 72
    10
 73
     6
 74
     0
 42
0.00000001
 43
0.00000001
 12
1.0
 22
0.0
 32
0.0
 13
1.0
 23
0.0
 33
0.0
 40
0.0
 40
0.0
 40
0.0
 40
0.0
 40
0.5
 40
0.5
 40
1.0
 40
1.0
 40
1.0
 40
1.0
 10
156.0209377489066
 20
133.318289458092
 30
0.0
 10
156.0209377489066
 20
133.2213543928603
 30
0.0
 10
156.0433873847521
 20
133.1242951141211
 30
0.0
 10
156.1283830430201
 20
132.951111026714
 30
0.0
 10
156.1912391269506
 20
132.8741051578286
 30
0.0
 10
156.2692821346566
 20
132.8156854862721
 30
0.0
  0
LINE
  5
1B5
330
1F
100
AcDbEntity
  8
0
  6
HIDDEN
 62
     7
370
     0
100
AcDbLine
 10
156.0209377489
 20
133.3182894581
 30
0.0
 11
156.0209377489
 21
98.8028065642
 31
0.0
  0
SPLINE
  5
1B6
330
1F
100
AcDbEntity
  8
0
  6
HIDDEN
 62
     7
370
     0
100
AcDbSpline
210
0.0
220
0.0
230
1.0
 70
     8
 71
     3
 72
    10
 73
     6
 74
     0
 42
0.00000001
 43
0.00000001
 12
1.0
 22
0.0
 32
0.0
 13
1.0
 23
0.0
 33
0.0
 40
0.0
 40
0.0
 40
0.0
 40
0.0
 40
0.5
 40
0.5
 40
1.0
 40
1.0
 40
1.0
 40
1.0
 10
156.0209377489066
 20
98.80280656424381
 30
0.0
 10
156.0209377489066
 20
98.83902905368456
 30
0.0
 10
156.023907478204
 20
98.8752222509431
 30
0.0
 10
156.035786460552
 20
98.94686074235798
 30
0.0
 10
156.0445816883927
 20
98.98173406699969
 30
0.0
 10
156.0561601494879
 20
99.0156854862721
 30
0.0
  0
SPLINE
  5
1B7
330
1F
100
AcDbEntity
  8
0
  6
HIDDEN
 62
     7
370
     0
100
AcDbSpline
210
0.0
220
0.0
230
1.0
 70
    24
 71
     3
 72
    12
 73
     8
 74
     0
 42
0.00000001
 43
0.00000001
 12
1.0
 22
0.0
 32
0.0
 13
1.0
 23
0.0
 33
0.0
 40
0.0
 40
0.0
 40
0.0
 40
0.0
 40
0.5000000000000003
 40
0.5000000000000003
 40
0.7500000000000001
 40
0.7500000000000001
 40
1.0
 40
1.0
 40
1.0
 40
1.0
 10
156.2692821346565
 20
132.8156854862721
 30
0.0
 10
156.3029783783156
 20
132.8156854862721
 30
0.0
 10
156.3410152530837
 20
132.8156854862721
 30
0.0
 10
156.4195755744879
 20
132.8156854862721
 30
0.0
 10
156.4492040799135
 20
132.8156854862721
 30
0.0
 10
156.5221478226591
 20
132.8156854862721
 30
0.0
 10
156.5693003029159
 20
132.8156854862721
 30
0.0
 10
156.6209377489066
 20
132.8156854862721
 30
0.0
  0
SPLINE
  5
1B8
330
1F
100
AcDbEntity
  8
0
  6
HIDDEN
 62
     7
370
     0
100
AcDbSpline
210
0.0
220
0.0
230
1.0
 70
    24
 71
     3
 72
    16
 73
    12
 74
     0
 42
0.00000001
 43
0.00000001
 12
1.0
 22
0.0
 32
0.0
 13
1.0
 23
0.0
 33
0.0
 40
0.0
 40
0.0
 40
0.0
 40
0.0
 40
0.5000000000000007
 40
0.5000000000000007
 40
0.750000000000001
 40
0.750000000000001
 40
0.8750000000000004
 40
0.8750000000000004
 40
0.9375000000000002
 40
0.9375000000000002
 40
1.0
 40
1.0
 40
1.0
 40
1.0
 10
156.0561601494879
 20
99.01568548627212
 30
0.0
 10
156.0860165886086
 20
99.01568548627212
 30
0.0
 10
156.1329384624634
 20
99.01568548627212
 30
0.0
 10
156.2434058688835
 20
99.0156854862721
 30
0.0
 10
156.2866317210945
 20
99.01568548627212
 30
0.0
 10
156.3750496216217
 20
99.01568548627212
 30
0.0
 10
156.4079229622621
 20
99.01568548627212
 30
0.0
 10
156.472215093337
 20
99.0156854862721
 30
0.0
 10
156.4963692473443
 20
99.0156854862721
 30
0.0
 10
156.553104018002
 20
99.0156854862721
 30
0.0
 10
156.5864750741875
 20
99.0156854862721
 30
0.0
 10
156.6209377489066
 20
99.01568548627212
 30
0.0
  0
LINE
  5
1B9
330
1F
100
AcDbEntity
  8
0
  6
HIDDEN
 62
     7
370
     0
100
AcDbLine
 10
121.1609377489
 20
125.7806916294
 30
0.0
 11
121.1609377489
 21
106.0506793432
 31
0.0
  0
LINE
  5
1BA
330
1F
100
AcDbEntity
  8
0
  6
HIDDEN
 62
     7
370
     0
100
AcDbLine
 10
122.1109377489
 20
126.9156854863
 30
0.0
 11
122.1109377489
 21
128.7884260492
 31
0.0
  0
LINE
  5
1BB
330
1F
100
AcDbEntity
  8
0
  6
HIDDEN
 62
     7
370
     0
100
AcDbLine
 10
121.1609377489
 20
126.9156854863
 30
0.0
 11
121.1609377489
 21
127.8401578808
 31
0.0
  0
LINE
  5
1BC
330
1F
100
AcDbEntity
  8
0
  6
HIDDEN
 62
     7
370
     0
100
AcDbLine
 10
156.6209377489
 20
132.8156854863
 30
0.0
 11
157.5009377489
 21
132.8156854863
 31
0.0
  0
LINE
  5
1BD
330
1F
100
AcDbEntity
  8
0
  6
HIDDEN
 62
     7
370
     0
100
AcDbLine
 10
156.6209377489
 20
99.0156854863
 30
0.0
 11
157.5009377489
 21
99.0156854863
 31
0.0
  0
SPLINE
  5
1BE
330
1F
100
AcDbEntity
  8
0
  6
HIDDEN
 62
     7
370
     0
100
AcDbSpline
210
0.0
220
0.0
230
1.0
 70
     8
 71
     3
 72
    50
 73
    46
 74
     0
 42
0.00000001
 43
0.00000001
 12
1.0
 22
0.0
 32
0.0
 13
1.0
 23
0.0
 33
0.0
 40
-0.0625000000000023
 40
-0.0625000000000023
 40
0.0
 40
0.0
 40
0.0312499999999968
 40
0.0312499999999968
 40
0.0624999999999935
 40
0.0624999999999935
 40
0.1249999999999904
 40
0.1249999999999904
 40
0.15624999999999
 40
0.15624999999999
 40
0.1874999999999896
 40
0.1874999999999896
 40
0.2499999999999886
 40
0.2499999999999886
 40
0.3124999999999876
 40
0.3124999999999876
 40
0.3749999999999866
 40
0.3749999999999866
 40
0.4062499999999871
 40
0.4062499999999871
 40
0.4374999999999877
 40
0.4374999999999877
 40
0.4687499999999883
 40
0.4687499999999883
 40
0.4999999999999889
 40
0.4999999999999889
 40
0.5312499999999895
 40
0.5312499999999895
 40
0.5624999999999899
 40
0.5624999999999899
 40
0.6249999999999913
 40
0.6249999999999913
 40
0.6874999999999927
 40
0.6874999999999927
 40
0.7499999999999941
 40
0.7499999999999941
 40
0.8124999999999954
 40
0.8124999999999954
 40
0.8437499999999954
 40
0.8437499999999954
 40
0.8749999999999954
 40
0.8749999999999954
 40
0.9374999999999977
 40
0.9374999999999977
 40
1.0
 40
1.0
 40
1.031249999999997
 40
1.031249999999997
 10
244.1232546629216
 20
123.2232368297492
 30
0.0
 10
243.7728574855564
 20
123.2232368297492
 30
0.0
 10
243.6583440857583
 20
123.2358168254731
 30
0.0
 10
243.4336760145955
 20
123.28491146601
 30
0.0
 10
243.3225465072823
 20
123.3221148339439
 30
0.0
 10
243.0108429762997
 20
123.4645816271791
 30
0.0
 10
242.8248401229035
 20
123.6038451562099
 30
0.0
 10
242.6021060102341
 20
123.8524889780921
 30
0.0
 10
242.5358951538965
 20
123.9433515422017
 30
0.0
 10
242.4243865194687
 20
124.1321298332143
 30
0.0
 10
242.3784943422001
 20
124.2304305502339
 30
0.0
 10
242.2689745907968
 20
124.5361809827442
 30
0.0
 10
242.2357112199922
 20
124.7477008984681
 30
0.0
 10
242.2443344051255
 20
125.1713758940393
 30
0.0
 10
242.2853498804127
 20
125.3755875287158
 30
0.0
 10
242.4398328526255
 20
125.7678182418492
 30
0.0
 10
242.5492449783049
 20
125.9461170764883
 30
0.0
 10
242.7669812285885
 20
126.1846393891799
 30
0.0
 10
242.84761410072
 20
126.2577512389373
 30
0.0
 10
243.0229191242942
 20
126.3875216076075
 30
0.0
 10
243.1193184034683
 20
126.4452704473044
 30
0.0
 10
243.3234313160071
 20
126.539770310731
 30
0.0
 10
243.4299683048849
 20
126.5763151373469
 30
0.0
 10
243.652705815874
 20
126.626628301134
 30
0.0
 10
243.7700535987012
 20
126.6400412045746
 30
0.0
 10
244.0004619184355
 20
126.6406838303805
 30
0.0
 10
244.1162829907314
 20
126.6282537799243
 30
0.0
 10
244.3418701157866
 20
126.5786565155673
 30
0.0
 10
244.4493899304861
 20
126.5422683796796
 30
0.0
 10
244.7575696325162
 20
126.4010683969936
 30
0.0
 10
244.9369610494713
 20
126.2664070841044
 30
0.0
 10
245.2271649659443
 20
125.9500801796977
 30
0.0
 10
245.3397168355735
 20
125.7668808117206
 30
0.0
 10
245.4929659611324
 20
125.3784545705879
 30
0.0
 10
245.5350102515457
 20
125.1689912153281
 30
0.0
 10
245.5435644576036
 20
124.7503721563709
 30
0.0
 10
245.5098662435775
 20
124.5351996876438
 30
0.0
 10
245.4015180420532
 20
124.2322153174869
 30
0.0
 10
245.3559784220495
 20
124.1341610242962
 30
0.0
 10
245.2443553481768
 20
123.944692492514
 30
0.0
 10
245.178255144493
 20
123.8538704923436
 30
0.0
 10
244.9566017094554
 20
123.6058044497483
 30
0.0
 10
244.7700402615255
 20
123.4656718143442
 30
0.0
 10
244.3556687108937
 20
123.2755385507943
 30
0.0
 10
244.1232546629216
 20
123.2232368297492
 30
0.0
 10
243.7728574855564
 20
123.2232368297492
 30
0.0
  0
SPLINE
  5
1BF
330
1F
100
AcDbEntity
  8
0
  6
HIDDEN
 62
     7
370
     0
100
AcDbSpline
210
0.0
220
0.0
230
1.0
 70
     8
 71
     3
 72
     8
 73
     4
 74
     0
 42
0.00000001
 43
0.00000001
 12
1.0
 22
0.0
 32
0.0
 13
1.0
 23
0.0
 33
0.0
 40
0.0
 40
0.0
 40
0.0
 40
0.0
 40
1.0
 40
1.0
 40
1.0
 40
1.0
 10
158.1009377489066
 20
133.6293621818023
 30
0.0
 10
158.4319580799263
 20
134.2209178782601
 30
0.0
 10
158.7637393514104
 20
134.8120505425053
 30
0.0
 10
159.0960974478
 20
135.4028607561772
 30
0.0
  0
LINE
  5
1C0
330
1F
100
AcDbEntity
  8
0
  6
HIDDEN
 62
     7
370
     0
100
AcDbLine
 10
159.0960974478
 20
135.4028607562
 30
0.0
 11
160.4109377489
 21
135.4028607562
 31
0.0
  0
SPLINE
  5
1C1
330
1F
100
AcDbEntity
  8
0
  6
HIDDEN
 62
     7
370
     0
100
AcDbSpline
210
0.0
220
0.0
230
1.0
 70
     8
 71
     3
 72
    12
 73
     8
 74
     0
 42
0.00000001
 43
0.00000001
 12
1.0
 22
0.0
 32
0.0
 13
1.0
 23
0.0
 33
0.0
 40
0.0
 40
0.0
 40
0.0
 40
0.0
 40
0.249999999999998
 40
0.249999999999998
 40
0.499999999999996
 40
0.499999999999996
 40
1.0
 40
1.0
 40
1.0
 40
1.0
 10
160.4109377489066
 20
135.4028607561772
 30
0.0
 10
160.490420457835
 20
135.4028607561772
 30
0.0
 10
160.5712987466188
 20
135.3859631084225
 30
0.0
 10
160.7167428465442
 20
135.3230248632831
 30
0.0
 10
160.7836148637749
 20
135.2762726555643
 30
0.0
 10
160.9481038265629
 20
135.1047613790552
 30
0.0
 10
161.0109377489066
 20
134.9461003155537
 30
0.0
 10
161.0109377489066
 20
134.786562519415
 30
0.0
  0
SPLINE
  5
1C2
330
1F
100
AcDbEntity
  8
0
  6
HIDDEN
 62
     7
370
     0
100
AcDbSpline
210
0.0
220
0.0
230
1.0
 70
     8
 71
     3
 72
    10
 73
     6
 74
     0
 42
0.00000001
 43
0.00000001
 12
1.0
 22
0.0
 32
0.0
 13
1.0
 23
0.0
 33
0.0
 40
0.0
 40
0.0
 40
0.0
 40
0.0
 40
0.5
 40
0.5
 40
1.0
 40
1.0
 40
1.0
 40
1.0
 10
160.4109377489066
 20
96.6868009632427
 30
0.0
 10
160.5724156894594
 20
96.6868009632427
 30
0.0
 10
160.7303238116135
 20
96.75804269988286
 30
0.0
 10
160.949217522804
 20
96.99087315644606
 30
0.0
 10
161.0109377489067
 20
97.1516768172406
 30
0.0
 10
161.0109377489066
 20
97.31165366518574
 30
0.0
  0
LINE
  5
1C3
330
1F
100
AcDbEntity
  8
0
  6
HIDDEN
 62
     7
370
     0
100
AcDbLine
 10
161.0109377489
 20
134.7865625194
 30
0.0
 11
161.0109377489
 21
97.3116536652
 31
0.0
  0
SPLINE
  5
1C4
330
1F
100
AcDbEntity
  8
0
  6
HIDDEN
 62
     7
370
     0
100
AcDbSpline
210
0.0
220
0.0
230
1.0
 70
     8
 71
     3
 72
     8
 73
     4
 74
     0
 42
0.00000001
 43
0.00000001
 12
1.0
 22
0.0
 32
0.0
 13
1.0
 23
0.0
 33
0.0
 40
0.0
 40
0.0
 40
0.0
 40
0.0
 40
1.0
 40
1.0
 40
1.0
 40
1.0
 10
155.0257780500132
 20
135.4028607561772
 30
0.0
 10
155.3581361464028
 20
134.8120505425053
 30
0.0
 10
155.689917417887
 20
134.2209178782601
 30
0.0
 10
156.0209377489066
 20
133.6293621818023
 30
0.0
  0
LINE
  5
1C5
330
1F
100
AcDbEntity
  8
0
  6
HIDDEN
 62
     7
370
     0
100
AcDbLine
 10
159.0960974478
 20
135.4028607562
 30
0.0
 11
159.0960974478
 21
96.6868009632
 31
0.0
  0
LINE
  5
1C6
330
1F
100
AcDbEntity
  8
0
  6
HIDDEN
 62
     7
370
     0
100
AcDbLine
 10
158.1009377489
 20
133.6293621818
 30
0.0
 11
158.1009377489
 21
98.4865620983
 31
0.0
  0
LINE
  5
1C7
330
1F
100
AcDbEntity
  8
0
  6
HIDDEN
 62
     7
370
     0
100
AcDbLine
 10
156.0209377489
 20
133.6293621818
 30
0.0
 11
156.0209377489
 21
98.4865620983
 31
0.0
  0
SPLINE
  5
1C8
330
1F
100
AcDbEntity
  8
0
  6
HIDDEN
 62
     7
370
     0
100
AcDbSpline
210
0.0
220
0.0
230
1.0
 70
     8
 71
     3
 72
     8
 73
     4
 74
     0
 42
0.00000001
 43
0.00000001
 12
1.0
 22
0.0
 32
0.0
 13
1.0
 23
0.0
 33
0.0
 40
0.0
 40
0.0
 40
0.0
 40
0.0
 40
1.0
 40
1.0
 40
1.0
 40
1.0
 10
158.1009377489066
 20
98.48656209828235
 30
0.0
 10
158.4315763755212
 20
97.88604174717138
 30
0.0
 10
158.7633921760947
 20
97.28617263646633
 30
0.0
 10
159.0960974478
 20
96.68680096324267
 30
0.0
  0
LINE
  5
1C9
330
1F
100
AcDbEntity
  8
0
  6
HIDDEN
 62
     7
370
     0
100
AcDbLine
 10
159.0960974478
 20
96.6868009632
 30
0.0
 11
160.4109377489
 21
96.6868009632
 31
0.0
  0
SPLINE
  5
1CA
330
1F
100
AcDbEntity
  8
0
  6
HIDDEN
 62
     7
370
     0
100
AcDbSpline
210
0.0
220
0.0
230
1.0
 70
     8
 71
     3
 72
     8
 73
     4
 74
     0
 42
0.00000001
 43
0.00000001
 12
1.0
 22
0.0
 32
0.0
 13
1.0
 23
0.0
 33
0.0
 40
0.0
 40
0.0
 40
0.0
 40
0.0
 40
1.0
 40
1.0
 40
1.0
 40
1.0
 10
155.0257780500132
 20
96.68680096324267
 30
0.0
 10
155.3584833217185
 20
97.28617263646633
 30
0.0
 10
155.690299122292
 20
97.88604174717138
 30
0.0
 10
156.0209377489066
 20
98.48656209828236
 30
0.0
  0
LINE
  5
1CB
330
1F
100
AcDbEntity
  8
0
  6
HIDDEN
 62
     7
370
     0
100
AcDbLine
 10
121.1609377489
 20
104.0972132136
 30
0.0
 11
121.1609377489
 21
104.3681722851
 31
0.0
  0
LINE
  5
1CC
330
1F
100
AcDbEntity
  8
0
  6
HIDDEN
 62
     7
370
     0
100
AcDbLine
 10
121.1609377489
 20
127.7895996236
 30
0.0
 11
121.1609377489
 21
127.6939169507
 31
0.0
  0
SPLINE
  5
1CD
330
1F
100
AcDbEntity
  8
0
  6
HIDDEN
 62
     7
370
     0
100
AcDbSpline
210
0.0
220
0.0
230
1.0
 70
     8
 71
     3
 72
    26
 73
    22
 74
     0
 42
0.00000001
 43
0.00000001
 12
1.0
 22
0.0
 32
0.0
 13
1.0
 23
0.0
 33
0.0
 40
0.0
 40
0.0
 40
0.0
 40
0.0
 40
0.2499999999999984
 40
0.2499999999999984
 40
0.3749999999999975
 40
0.3749999999999975
 40
0.4374999999999973
 40
0.4374999999999973
 40
0.4687499999999979
 40
0.4687499999999979
 40
0.4999999999999987
 40
0.4999999999999987
 40
0.5312499999999993
 40
0.5312499999999993
 40
0.5625
 40
0.5625
 40
0.6249999999999999
 40
0.6249999999999999
 40
0.7500000000000001
 40
0.7500000000000001
 40
1.0
 40
1.0
 40
1.0
 40
1.0
 10
121.9209077952945
 20
128.303766065885
 30
0.0
 10
121.873519685866
 20
128.168110323862
 30
0.0
 10
121.8158783839616
 20
128.0241489255327
 30
0.0
 10
121.6938305714183
 20
127.7813763522783
 30
0.0
 10
121.6477815636418
 20
127.6963367118289
 30
0.0
 10
121.5571282794761
 20
127.5559607387886
 30
0.0
 10
121.5227757791905
 20
127.5060493614498
 30
0.0
 10
121.4603406068
 20
127.4295140965955
 30
0.0
 10
121.437046588002
 20
127.4031096176086
 30
0.0
 10
121.3879940508754
 20
127.3555148523476
 30
0.0
 10
121.3635626012186
 20
127.3360722384957
 30
0.0
 10
121.3229330055988
 20
127.3111644608276
 30
0.0
 10
121.3067707237476
 20
127.3050946295167
 30
0.0
 10
121.2797886796445
 20
127.2994057579229
 30
0.0
 10
121.2690391568217
 20
127.2997962660036
 30
0.0
 10
121.2410031826646
 20
127.3059386127921
 30
0.0
 10
121.2281419506319
 20
127.3166026192101
 30
0.0
 10
121.1971390894716
 20
127.3556154095702
 30
0.0
 10
121.1862796074025
 20
127.3916673999746
 30
0.0
 10
121.1630023514645
 20
127.5093467974736
 30
0.0
 10
121.1609377489065
 20
127.6006766978066
 30
0.0
 10
121.1609377489065
 20
127.6939169507129
 30
0.0
  0
SPLINE
  5
1CE
330
1F
100
AcDbEntity
  8
0
  6
HIDDEN
 62
     7
370
     0
100
AcDbSpline
210
0.0
220
0.0
230
1.0
 70
     8
 71
     3
 72
    24
 73
    20
 74
     0
 42
0.00000001
 43
0.00000001
 12
1.0
 22
0.0
 32
0.0
 13
1.0
 23
0.0
 33
0.0
 40
0.0
 40
0.0
 40
0.0
 40
0.0
 40
0.2499999999999921
 40
0.2499999999999921
 40
0.3749999999999883
 40
0.3749999999999883
 40
0.4374999999999862
 40
0.4374999999999862
 40
0.4999999999999841
 40
0.4999999999999841
 40
0.5312499999999846
 40
0.5312499999999846
 40
0.562499999999985
 40
0.562499999999985
 40
0.6249999999999886
 40
0.6249999999999886
 40
0.749999999999992
 40
0.749999999999992
 40
1.0
 40
1.0
 40
1.0
 40
1.0
 10
121.1609377489066
 20
104.3681722850507
 30
0.0
 10
121.1609377489066
 20
104.4530812387203
 30
0.0
 10
121.163662377339
 20
104.5354109347672
 30
0.0
 10
121.190019698457
 20
104.6378233221862
 30
0.0
 10
121.2022334167291
 20
104.6686404185706
 30
0.0
 10
121.2368440668616
 20
104.6977379346475
 30
0.0
 10
121.251230777229
 20
104.7046955752861
 30
0.0
 10
121.2924792603314
 20
104.7035858340093
 30
0.0
 10
121.3210188102622
 20
104.6952924284005
 30
0.0
 10
121.3819414757735
 20
104.6507089945392
 30
0.0
 10
121.4050074459134
 20
104.630247281282
 30
0.0
 10
121.4489033259196
 20
104.5856346630016
 30
0.0
 10
121.4697833614798
 20
104.5617585847953
 30
0.0
 10
121.5269936247729
 20
104.4918614876332
 30
0.0
 10
121.5593402485492
 20
104.4462838988488
 30
0.0
 10
121.6455061920411
 20
104.3174004112299
 30
0.0
 10
121.6911702120811
 20
104.2375672340979
 30
0.0
 10
121.8117177755323
 20
104.0117864249855
 30
0.0
 10
121.8707778642335
 20
103.8769550400142
 30
0.0
 10
121.9209077952945
 20
103.7486999013467
 30
0.0
  0
LINE
  5
1CF
330
1F
100
AcDbEntity
  8
0
  6
HIDDEN
 62
     7
370
     0
100
AcDbLine
 10
121.1609377489
 20
127.6939169507
 30
0.0
 11
121.1609377489
 21
104.3681722851
 31
0.0
  0
CIRCLE
  5
1D0
330
1F
100
AcDbEntity
  8
0
  6
HIDDEN
 62
     7
370
     0
100
AcDbCircle
 10
209.056448928
 20
115.3340386328
 30
0.0
 40
2.495603797189736
  0
ELLIPSE
  5
1D1
330
1F
100
AcDbEntity
  8
0
  6
HIDDEN
 62
     7
370
     0
100
AcDbEllipse
 10
266.6281849427
 20
117.9156854863
 30
0.0
 11
17.78422892287864
 21
-16.57047652107816
 31
0.0
210
0.0
220
0.0
230
1.0
 40
0.2135193148
 41
3.617851655321097
 42
3.660340201999734
  0
ELLIPSE
  5
1D2
330
1F
100
AcDbEntity
  8
0
  6
HIDDEN
 62
     7
370
     0
100
AcDbEllipse
 10
201.7796014722
 20
117.9156854863
 30
0.0
 11
54.31434441551295
 21
16.73983078825395
 31
0.0
210
0.0
220
0.0
230
1.0
 40
0.054548757
 41
5.564947578262785
 42
5.7568323884361
  0
SPLINE
  5
1D3
330
1F
100
AcDbEntity
  8
0
  6
HIDDEN
 62
     7
370
     0
100
AcDbSpline
210
0.0
220
0.0
230
1.0
 70
     8
 71
     3
 72
    12
 73
     8
 74
     0
 42
0.00000001
 43
0.00000001
 12
1.0
 22
0.0
 32
0.0
 13
1.0
 23
0.0
 33
0.0
 40
0.0
 40
0.0
 40
0.0
 40
0.0
 40
0.5000000000000026
 40
0.5000000000000026
 40
0.7500000000000012
 40
0.7500000000000012
 40
1.0
 40
1.0
 40
1.0
 40
1.0
 10
235.5120950881077
 20
127.1638117228163
 30
0.0
 10
236.8584097427949
 20
127.1638117228163
 30
0.0
 10
238.1813682335762
 20
127.284531628843
 30
0.0
 10
240.130606863887
 20
127.638326286852
 30
0.0
 10
240.7745518907898
 20
127.7852921046679
 30
0.0
 10
242.0489826993918
 20
128.1379975128037
 30
0.0
 10
242.6711424374278
 20
128.3414433081113
 30
0.0
 10
243.2773851766472
 20
128.5705352260743
 30
0.0
  0
LINE
  5
1D4
330
1F
100
AcDbEntity
  8
0
  6
HIDDEN
 62
     7
370
     0
100
AcDbLine
 10
229.7884644782
 20
127.1638117228
 30
0.0
 11
235.5120950881
 21
127.1638117228
 31
0.0
  0
ELLIPSE
  5
1D5
330
1F
100
AcDbEntity
  8
0
  6
HIDDEN
 62
     7
370
     0
100
AcDbEllipse
 10
246.6084567088
 20
117.9156854863
 30
0.0
 11
5.553874176690103
 21
16.99159215419374
 31
0.0
210
0.0
220
0.0
230
1.0
 40
0.0962569477
 41
0.7754693734149366
 42
1.602248510774582
  0
LINE
  5
1D6
330
1F
100
AcDbEntity
  8
0
  6
HIDDEN
 62
     7
370
     0
100
AcDbLine
 10
244.1520313352
 20
115.9156854863
 30
0.0
 11
244.7990541506
 21
117.9156854863
 31
0.0
  0
CIRCLE
  5
1D7
330
1F
100
AcDbEntity
  8
0
  6
HIDDEN
 62
     7
370
     0
100
AcDbCircle
 10
148.0609377489
 20
115.9156854863
 30
0.0
 40
5.0
  0
LINE
  5
1D8
330
1F
100
AcDbEntity
  8
0
  6
HIDDEN
 62
     7
370
     0
100
AcDbLine
 10
141.0609377489
 20
99.7084848012
 30
0.0
 11
141.1550985244
 21
100.3784735324
 31
0.0
  0
LINE
  5
1D9
330
1F
100
AcDbEntity
  8
0
  6
HIDDEN
 62
     7
370
     0
100
AcDbLine
 10
141.1550985244
 20
131.4528974401
 30
0.0
 11
141.0609377489
 21
132.1228861713
 31
0.0
  0
ARC
  5
1DA
330
1F
100
AcDbEntity
  8
0
  6
HIDDEN
 62
     7
370
     0
100
AcDbCircle
 10
140.5609309962
 20
100.4619783328
 30
0.0
 40
0.6000067526677042
100
AcDbArc
 50
352.0
 51
0.0
  0
ARC
  5
1DB
330
1F
100
AcDbEntity
  8
0
  6
HIDDEN
 62
     7
370
     0
100
AcDbCircle
 10
140.5609309962
 20
100.4619783328
 30
0.0
 40
0.6000067526677124
100
AcDbArc
 50
0.0
 51
33.5571153394
  0
ARC
  5
1DC
330
1F
100
AcDbEntity
  8
0
  6
HIDDEN
 62
     7
370
     0
100
AcDbCircle
 10
140.5609309962
 20
131.3693926397
 30
0.0
 40
0.6000067526677042
100
AcDbArc
 50
348.75
 51
8.0
  0
LWPOLYLINE
  5
1DD
330
1F
100
AcDbEntity
  8
0
  6
HIDDEN
 62
     7
370
     0
100
AcDbPolyline
 90
        3
 70
   128
 43
0.0
 10
141.1494087874
 20
131.2523371292
 10
141.1152649544
 20
131.1397799962
 10
141.0609377489
 20
131.0377281247
  0
LINE
  5
1DE
330
1F
100
AcDbEntity
  8
0
  6
HIDDEN
 62
     7
370
     0
100
AcDbLine
 10
141.1609377489
 20
100.4619783328
 30
0.0
 11
141.1609377489
 21
131.3693926397
 31
0.0
  0
LINE
  5
1DF
330
1F
100
AcDbEntity
  8
0
  6
HIDDEN
 62
     7
370
     0
100
AcDbLine
 10
141.1609377489
 20
100.4619783328
 30
0.0
 11
141.1609377489
 21
131.3693926397
 31
0.0
  0
ARC
  5
1E0
330
1F
100
AcDbEntity
  8
0
  6
HIDDEN
 62
     7
370
     0
100
AcDbCircle
 10
136.8851144768
 20
108.1656854863
 30
0.0
 40
5.000000000000018
100
AcDbArc
 50
275.441661805
 51
326.6329870308
  0
ARC
  5
1E1
330
1F
100
AcDbEntity
  8
0
  6
HIDDEN
 62
     7
370
     0
100
AcDbCircle
 10
136.8851144768
 20
123.6656854863
 30
0.0
 40
5.000000000000026
100
AcDbArc
 50
33.3670129692
 51
84.5413229894
  0
ARC
  5
1E2
330
1F
100
AcDbEntity
  8
0
  6
HIDDEN
 62
     7
370
     0
100
AcDbCircle
 10
130.5935656931
 20
103.5656854863
 30
0.0
 40
0.4000000000000199
100
AcDbArc
 50
210.0
 51
270.0
  0
ARC
  5
1E3
330
1F
100
AcDbEntity
  8
0
  6
HIDDEN
 62
     7
370
     0
100
AcDbCircle
 10
130.5935656931
 20
128.2656854863
 30
0.0
 40
0.4000000000000069
100
AcDbArc
 50
90.0
 51
150.0
  0
LINE
  5
1E4
330
1F
100
AcDbEntity
  8
0
  6
HIDDEN
 62
     7
370
     0
100
AcDbLine
 10
130.5935656931
 20
103.1656854863
 30
0.0
 11
132.7676811048
 21
103.1656854863
 31
0.0
  0
LINE
  5
1E5
330
1F
100
AcDbEntity
  8
0
  6
HIDDEN
 62
     7
370
     0
100
AcDbLine
 10
132.7676811048
 20
128.6656854863
 30
0.0
 11
130.5935656931
 21
128.6656854863
 31
0.0
  0
LINE
  5
1E6
330
1F
100
AcDbEntity
  8
0
  6
HIDDEN
 62
     7
370
     0
100
AcDbLine
 10
130.2471555316
 20
128.4656854863
 30
0.0
 11
129.0635874797
 21
126.4156854863
 31
0.0
  0
LINE
  5
1E7
330
1F
100
AcDbEntity
  8
0
  6
HIDDEN
 62
     7
370
     0
100
AcDbLine
 10
129.0635874797
 20
105.4156854863
 30
0.0
 11
130.2471555316
 21
103.3656854863
 31
0.0
  0
LINE
  5
1E8
330
1F
100
AcDbEntity
  8
0
  6
HIDDEN
 62
     7
370
     0
100
AcDbLine
 10
208.4110181738
 20
118.7214550346
 30
0.0
 11
206.4660778084
 21
117.9715261889
 31
0.0
  0
LINE
  5
1E9
330
1F
100
AcDbEntity
  8
0
  6
HIDDEN
 62
     7
370
     0
100
AcDbLine
 10
208.538665855
 20
118.7706733448
 30
0.0
 11
208.4110181738
 21
118.7214550346
 31
0.0
  0
LINE
  5
1EA
330
1F
100
AcDbEntity
  8
0
  6
HIDDEN
 62
     7
370
     0
100
AcDbLine
 10
221.434039469
 20
123.7428631463
 30
0.0
 11
208.538665855
 21
118.7706733448
 31
0.0
  0
LINE
  5
1EB
330
1F
100
AcDbEntity
  8
0
  6
HIDDEN
 62
     7
370
     0
100
AcDbLine
 10
207.977080189
 20
114.0527417082
 30
0.0
 11
221.4279465427
 21
119.2391180403
 31
0.0
  0
LINE
  5
1EC
330
1F
100
AcDbEntity
  8
0
  6
HIDDEN
 62
     7
370
     0
100
AcDbLine
 10
206.3749059242
 20
117.7976174262
 30
0.0
 11
206.0688606714
 21
115.5676695629
 31
0.0
  0
LINE
  5
1ED
330
1F
100
AcDbEntity
  8
0
  6
HIDDEN
 62
     7
370
     0
100
AcDbLine
 10
206.0688606714
 20
115.5676695629
 30
0.0
 11
207.7927555175
 21
114.1204246875
 31
0.0
  0
ARC
  5
1EE
330
1F
100
AcDbEntity
  8
0
  6
HIDDEN
 62
     7
370
     0
100
AcDbCircle
 10
148.0109377489
 20
106.0406854863
 30
0.0
 40
1.000000000000019
100
AcDbArc
 50
218.6821874535
 51
0.0
  0
ARC
  5
1EF
330
1F
100
AcDbEntity
  8
0
  6
HIDDEN
 62
     7
370
     0
100
AcDbCircle
 10
148.0109377489
 20
125.7906854863
 30
0.0
 40
1.000000000000001
100
AcDbArc
 50
0.0
 51
141.3178125465
  0
LINE
  5
1F0
330
1F
100
AcDbEntity
  8
0
  6
HIDDEN
 62
     7
370
     0
100
AcDbLine
 10
127.2609377489
 20
105.4156854863
 30
0.0
 11
129.0635874797
 21
105.4156854863
 31
0.0
  0
LINE
  5
1F1
330
1F
100
AcDbEntity
  8
0
  6
HIDDEN
 62
     7
370
     0
100
AcDbLine
 10
129.0635874797
 20
126.4156854863
 30
0.0
 11
124.7609377489
 21
126.4156854863
 31
0.0
  0
LINE
  5
1F2
330
1F
100
AcDbEntity
  8
0
  6
HIDDEN
 62
     7
370
     0
100
AcDbLine
 10
141.0609377489
 20
105.4156854863
 30
0.0
 11
147.2303129991
 21
105.4156854863
 31
0.0
  0
LINE
  5
1F3
330
1F
100
AcDbEntity
  8
0
  6
HIDDEN
 62
     7
370
     0
100
AcDbLine
 10
147.2303129991
 20
126.4156854863
 30
0.0
 11
141.0609377489
 21
126.4156854863
 31
0.0
  0
LINE
  5
1F4
330
1F
100
AcDbEntity
  8
0
  6
HIDDEN
 62
     7
370
     0
100
AcDbLine
 10
206.9609377489
 20
116.5913827876
 30
0.0
 11
206.9609377489
 21
116.1334765306
 31
0.0
  0
LINE
  5
1F5
330
1F
100
AcDbEntity
  8
0
  6
HIDDEN
 62
     7
370
     0
100
AcDbLine
 10
211.1609377489
 20
116.1335748431
 30
0.0
 11
211.1609377489
 21
116.5312137738
 31
0.0
  0
LINE
  5
1F6
330
1F
100
AcDbEntity
  8
0
  6
HIDDEN
 62
     7
370
     0
100
AcDbLine
 10
154.3609377489
 20
109.6656854863
 30
0.0
 11
156.8609377489
 21
109.6656854863
 31
0.0
  0
LINE
  5
1F7
330
1F
100
AcDbEntity
  8
0
  6
HIDDEN
 62
     7
370
     0
100
AcDbLine
 10
156.8609377489
 20
122.1656854863
 30
0.0
 11
154.3609377489
 21
122.1656854863
 31
0.0
  0
LINE
  5
1F8
330
1F
100
AcDbEntity
  8
0
  6
HIDDEN
 62
     7
370
     0
100
AcDbLine
 10
149.0109377489
 20
109.9156854863
 30
0.0
 11
149.5109377489
 21
110.4156854863
 31
0.0
  0
LINE
  5
1F9
330
1F
100
AcDbEntity
  8
0
  6
HIDDEN
 62
     7
370
     0
100
AcDbLine
 10
149.5109377489
 20
121.4156854863
 30
0.0
 11
149.0109377489
 21
121.9156854863
 31
0.0
  0
LINE
  5
1FA
330
1F
100
AcDbEntity
  8
0
  6
HIDDEN
 62
     7
370
     0
100
AcDbLine
 10
149.5109377489
 20
110.4156854863
 30
0.0
 11
154.3609377489
 21
110.4156854863
 31
0.0
  0
LINE
  5
1FB
330
1F
100
AcDbEntity
  8
0
  6
HIDDEN
 62
     7
370
     0
100
AcDbLine
 10
154.3609377489
 20
121.4156854863
 30
0.0
 11
149.5109377489
 21
121.4156854863
 31
0.0
  0
LINE
  5
1FC
330
1F
100
AcDbEntity
  8
0
  6
HIDDEN
 62
     7
370
     0
100
AcDbLine
 10
149.0109377489
 20
135.9156854863
 30
0.0
 11
149.0109377489
 21
132.8156854863
 31
0.0
  0
LINE
  5
1FD
330
1F
100
AcDbEntity
  8
0
  6
HIDDEN
 62
     7
370
     0
100
AcDbLine
 10
137.8281169933
 20
100.8743808728
 30
0.0
 11
137.3601884052
 21
101.3702173537
 31
0.0
  0
LINE
  5
1FE
330
1F
100
AcDbEntity
  8
0
  6
HIDDEN
 62
     7
370
     0
100
AcDbLine
 10
132.76228339
 20
101.6500710674
 30
0.0
 11
132.2448096741
 21
101.1542457547
 31
0.0
  0
LINE
  5
1FF
330
1F
100
AcDbEntity
  8
0
  6
HIDDEN
 62
     7
370
     0
100
AcDbLine
 10
132.2441754422
 20
130.6771751592
 30
0.0
 11
132.7618616903
 21
130.1812881126
 31
0.0
  0
LINE
  5
200
330
1F
100
AcDbEntity
  8
0
  6
HIDDEN
 62
     7
370
     0
100
AcDbLine
 10
137.3595025253
 20
130.4609356458
 30
0.0
 11
137.8274064215
 21
130.9568295184
 31
0.0
  0
LINE
  5
201
330
1F
100
AcDbEntity
  8
0
  6
HIDDEN
 62
     7
370
     0
100
AcDbLine
 10
211.1609377489
 20
118.4156854863
 30
0.0
 11
156.8609377489
 21
118.4156854863
 31
0.0
  0
LINE
  5
202
330
1F
100
AcDbEntity
  8
0
  6
HIDDEN
 62
     7
370
     0
100
AcDbLine
 10
156.8609377489
 20
113.4156854863
 30
0.0
 11
211.1609377489
 21
113.4156854863
 31
0.0
  0
LINE
  5
203
330
1F
100
AcDbEntity
  8
0
  6
HIDDEN
 62
     7
370
     0
100
AcDbLine
 10
211.1609377489
 20
113.4156854863
 30
0.0
 11
212.6630892965
 21
115.9156854863
 31
0.0
  0
LINE
  5
204
330
1F
100
AcDbEntity
  8
0
  6
HIDDEN
 62
     7
370
     0
100
AcDbLine
 10
212.6630892965
 20
115.9156854863
 30
0.0
 11
211.1609377489
 21
118.4156854863
 31
0.0
  0
LINE
  5
205
330
1F
100
AcDbEntity
  8
0
  6
HIDDEN
 62
     7
370
     0
100
AcDbLine
 10
137.3609377489
 20
128.6428979716
 30
0.0
 11
137.3609377489
 21
130.4492060642
 31
0.0
  0
LINE
  5
206
330
1F
100
AcDbEntity
  8
0
  6
HIDDEN
 62
     7
370
     0
100
AcDbLine
 10
132.7609377489
 20
130.1801857881
 30
0.0
 11
132.7609377489
 21
128.6644733772
 31
0.0
  0
LINE
  5
207
330
1F
100
AcDbEntity
  8
0
  6
HIDDEN
 62
     7
370
     0
100
AcDbLine
 10
137.3609377489
 20
101.3822728362
 30
0.0
 11
137.3609377489
 21
103.1885879619
 31
0.0
  0
LINE
  5
208
330
1F
100
AcDbEntity
  8
0
  6
HIDDEN
 62
     7
370
     0
100
AcDbLine
 10
132.7609377489
 20
103.1668975953
 30
0.0
 11
132.7609377489
 21
101.6570789421
 31
0.0
  0
LINE
  5
209
330
1F
100
AcDbEntity
  8
0
  6
HIDDEN
 62
     7
370
     0
100
AcDbLine
 10
206.9609377489
 20
115.697894442
 30
0.0
 11
206.9609377489
 21
115.3491731584
 31
0.0
  0
LINE
  5
20A
330
1F
100
AcDbEntity
  8
0
  6
HIDDEN
 62
     7
370
     0
100
AcDbLine
 10
211.1609377489
 20
115.3491731584
 30
0.0
 11
211.1609377489
 21
115.6977961294
 31
0.0
  0
LINE
  5
20B
330
1F
100
AcDbEntity
  8
0
  6
HIDDEN
 62
     7
370
     0
100
AcDbLine
 10
234.8126838662
 20
119.8329300616
 30
0.0
 11
234.8126838662
 21
119.728295351
 31
0.0
  0
ARC
  5
20C
330
1F
100
AcDbEntity
  8
0
  6
HIDDEN
 62
     7
370
     0
100
AcDbCircle
 10
126.3609377489
 20
102.1356854863
 30
0.0
 40
0.9000000000000199
100
AcDbArc
 50
34.6391318474
 51
90.0
  0
ARC
  5
20D
330
1F
100
AcDbEntity
  8
0
  6
HIDDEN
 62
     7
370
     0
100
AcDbCircle
 10
123.8609377489
 20
129.6956854863
 30
0.0
 40
0.9000000000000152
100
AcDbArc
 50
270.0
 51
311.221922679
  0
LINE
  5
20E
330
1F
100
AcDbEntity
  8
0
  6
HIDDEN
 62
     7
370
     0
100
AcDbLine
 10
122.1699377489
 20
103.0356854863
 30
0.0
 11
126.3609377489
 21
103.0356854863
 31
0.0
  0
LINE
  5
20F
330
1F
100
AcDbEntity
  8
0
  6
HIDDEN
 62
     7
370
     0
100
AcDbLine
 10
121.1609377489
 20
104.0446854863
 30
0.0
 11
122.1699377489
 21
103.0356854863
 31
0.0
  0
LINE
  5
210
330
1F
100
AcDbEntity
  8
0
  6
HIDDEN
 62
     7
370
     0
100
AcDbLine
 10
123.8609377489
 20
128.7956854863
 30
0.0
 11
122.1109377489
 21
128.7956854863
 31
0.0
  0
LINE
  5
211
330
1F
100
AcDbEntity
  8
0
  6
HIDDEN
 62
     7
370
     0
100
AcDbLine
 10
122.1109377489
 20
128.7956854863
 30
0.0
 11
121.1609377489
 21
127.8456854863
 31
0.0
  0
LINE
  5
212
330
1F
100
AcDbEntity
  8
0
  6
HIDDEN
 62
     7
370
     0
100
AcDbLine
 10
242.2396565447
 20
125.4326226066
 30
0.0
 11
242.2396565447
 21
124.9235604275
 31
0.0
  0
LINE
  5
213
330
1F
100
AcDbEntity
  8
0
  6
HIDDEN
 62
     7
370
     0
100
AcDbLine
 10
245.5396565447
 20
124.9235517101
 30
0.0
 11
245.5396565447
 21
125.4326226066
 31
0.0
  0
LINE
  5
214
330
1F
100
AcDbEntity
  8
0
  6
HIDDEN
 62
     7
370
     0
100
AcDbLine
 10
206.5609377489
 20
115.328225777
 30
0.0
 11
206.5609377489
 21
114.8220771922
 31
0.0
  0
LINE
  5
215
330
1F
100
AcDbEntity
  8
0
  6
HIDDEN
 62
     7
370
     0
100
AcDbLine
 10
211.5609377489
 20
114.8220771922
 30
0.0
 11
211.5609377489
 21
115.328225777
 31
0.0
  0
LINE
  5
216
330
1F
100
AcDbEntity
  8
VERMASSUNG
  6
CENTERX2
100
AcDbLine
 10
118.8555044786
 20
115.9156854863
 30
0.0
 11
251.0609377489
 21
115.9156854863
 31
0.0
  0
LINE
  5
217
330
1F
100
AcDbEntity
  8
VERMASSUNG
  6
CENTERX2
100
AcDbLine
 10
251.0609377489
 20
132.9156854863
 30
0.0
 11
251.0609377489
 21
115.9156854863
 31
0.0
  0
LINE
  5
218
330
1F
100
AcDbEntity
  8
VERMASSUNG
  6
CENTERX2
100
AcDbLine
 10
251.0609377489
 20
132.9156854863
 30
0.0
 11
258.9346527381
 21
132.9156854863
 31
0.0
  0
DIMENSION
  5
219
330
1F
100
AcDbEntity
  8
VERMASSUNG
100
AcDbDimension
  2
_D
 10
251.0609377489
 20
145.9156854863
 30
0.0
 11
196.0609377489
 21
145.9156854863
 31
0.0
 70
   160
  1
<>
 71
     2
 42
-1.0
  3
SLDDIMSTYLE0
100
AcDbAlignedDimension
 13
141.0609377489
 23
135.6156854863
 33
0.0
 14
251.0609377489
 24
132.9156854863
 34
0.0
100
AcDbRotatedDimension
  0
DIMENSION
  5
224
330
1F
100
AcDbEntity
  8
VERMASSUNG
100
AcDbDimension
  2
_D_1
 10
121.1609377489
 20
154.5543627335
 30
0.0
 11
186.1109377489
 21
154.5543627335
 31
0.0
 70
   160
  1
<>
 71
     2
 42
-1.0
  3
SLDDIMSTYLE0
100
AcDbAlignedDimension
 13
251.0609377489
 23
132.9156854863
 33
0.0
 14
121.1609377489
 24
127.8456854863
 34
0.0
100
AcDbRotatedDimension
  0
DIMENSION
  5
22E
330
1F
100
AcDbEntity
  8
VERMASSUNG
100
AcDbDimension
  2
_D_2
 10
267.2085796028
 20
115.9156854863
 30
0.0
 11
267.2085796028
 21
124.4156854863
 31
0.0
 70
   160
  1
<>
 71
     2
 42
-1.0
  3
SLDDIMSTYLE0
100
AcDbAlignedDimension
 13
251.0609377489
 23
132.9156854863
 33
0.0
 14
251.0609377489
 24
115.9156854863
 34
0.0
 50
90.0
100
AcDbRotatedDimension
  0
DIMENSION
  5
238
330
1F
100
AcDbEntity
  8
VERMASSUNG
100
AcDbDimension
  2
_D_3
 10
258.9346527381
 20
132.9156854863
 30
0.0
 11
256.6543395009
 21
125.4802703427
 31
0.0
 70
   162
  1
<>
 71
     1
 42
-1.0
  3
SLDDIMSTYLE1
100
AcDb2LineAngularDimension
 13
251.0450380157
 23
132.404939277
 33
0.0
 14
247.8390611802
 24
122.2616486907
 34
0.0
 15
251.0609377489
 25
132.9156854863
 35
0.0
 16
256.6543395009
 26
125.4802703427
 36
0.0
  0
DIMENSION
  5
242
330
1F
100
AcDbEntity
  8
VERMASSUNG
100
AcDbDimension
  2
_D_4
 10
175.0617915739
 20
103.4156854863
 30
0.0
 11
175.0617915739
 21
109.3098648333
 31
0.0
 70
   160
  1
%%c<>
 71
     2
 42
-1.0
  3
SLDDIMSTYLE0
100
AcDbAlignedDimension
 13
164.0109377489
 23
128.4156854863
 33
0.0
 14
164.0109377489
 24
103.4156854863
 34
0.0
 50
90.0
100
AcDbRotatedDimension
  0
DIMENSION
  5
24D
330
1F
100
AcDbEntity
  8
VERMASSUNG
100
AcDbDimension
  2
_D_5
 10
114.88384555
 20
95.9156854863
 30
0.0
 11
114.88384555
 21
115.9156854863
 31
0.0
 70
   160
  1
HSK T%%c<>
 71
     2
 42
-1.0
  3
SLDDIMSTYLE0
100
AcDbAlignedDimension
 13
141.3609377489
 23
135.9156854863
 33
0.0
 14
141.3609377489
 24
95.9156854863
 34
0.0
 50
90.0
100
AcDbRotatedDimension
  0
LINE
  5
259
330
1F
100
AcDbEntity
  8
0
  6
Continuous
 62
     7
370
    15
100
AcDbLine
 10
64.7673216727
 20
124.0893393422
 30
0.0
 11
64.7987756375
 21
124.0871395583
 31
0.0
  0
SPLINE
  5
25A
330
1F
100
AcDbEntity
  8
0
  6
Continuous
 62
     7
370
    15
100
AcDbSpline
210
0.0
220
0.0
230
1.0
 70
     8
 71
     3
 72
    10
 73
     6
 74
     0
 42
0.00000001
 43
0.00000001
 12
1.0
 22
0.0
 32
0.0
 13
1.0
 23
0.0
 33
0.0
 40
0.0
 40
0.0
 40
0.0
 40
0.0
 40
0.3321547475451333
 40
0.6673754999029625
 40
1.0
 40
1.0
 40
1.0
 40
1.0
 10
69.36595104259563
 20
132.0455144757779
 30
0.0
 10
68.92712350974102
 20
132.1516977961623
 30
0.0
 10
68.04541777988315
 20
132.3650445781867
 30
0.0
 10
66.6954361281156
 20
132.6183469028611
 30
0.0
 10
65.8100110829082
 20
132.826163213077
 30
0.0
 10
65.3690196077829
 20
132.9296674246342
 30
0.0
  0
LINE
  5
25B
330
1F
100
AcDbEntity
  8
0
  6
Continuous
 62
     7
370
    15
100
AcDbLine
 10
64.3796979412
 20
118.7817101034
 30
0.0
 11
64.7305668527
 21
118.8110320961
 31
0.0
  0
LINE
  5
25C
330
1F
100
AcDbEntity
  8
0
  6
Continuous
 62
     7
370
    15
100
AcDbLine
 10
76.0188114792
 20
126.6395100991
 30
0.0
 11
76.006531991
 21
126.6403687785
 31
0.0
  0
SPLINE
  5
25D
330
1F
100
AcDbEntity
  8
0
  6
Continuous
 62
     7
370
    15
100
AcDbSpline
210
0.0
220
0.0
230
1.0
 70
     8
 71
     3
 72
    13
 73
     9
 74
     0
 42
0.00000001
 43
0.00000001
 12
1.0
 22
0.0
 32
0.0
 13
1.0
 23
0.0
 33
0.0
 40
0.0
 40
0.0
 40
0.0
 40
0.0
 40
0.1940403324602607
 40
0.3876289971950106
 40
0.5765825012282725
 40
0.7617972970107281
 40
0.9462696279401069
 40
1.0
 40
1.0
 40
1.0
 40
1.0
 10
65.3804128661019
 20
132.4049397969992
 30
0.0
 10
65.38355955310104
 20
132.4499397072642
 30
0.0
 10
65.38984560255524
 20
132.5398347814928
 30
0.0
 10
65.39934263535072
 20
132.6756461051291
 30
0.0
 10
65.4074806111766
 20
132.7920261495186
 30
0.0
 10
65.41316540174985
 20
132.8733230328397
 30
0.0
 10
65.41603812450869
 20
132.9144042354066
 30
0.0
 10
65.41595333290437
 20
132.9131919659297
 30
0.0
 10
65.41593420682229
 20
132.9129185194523
 30
0.0
  0
SPLINE
  5
25E
330
1F
100
AcDbEntity
  8
0
  6
Continuous
 62
     7
370
    15
100
AcDbSpline
210
0.0
220
0.0
230
1.0
 70
     8
 71
     3
 72
    14
 73
    10
 74
     0
 42
0.00000001
 43
0.00000001
 12
1.0
 22
0.0
 32
0.0
 13
1.0
 23
0.0
 33
0.0
 40
0.0
 40
0.0
 40
0.0
 40
0.0
 40
0.1583236667565819
 40
0.3168025475126232
 40
0.4713905569006658
 40
0.6221437880096333
 40
0.7721382602034473
 40
0.9245999573026339
 40
1.0
 40
1.0
 40
1.0
 40
1.0
 10
69.33521274102044
 20
132.0489324296267
 30
0.0
 10
69.33538060696425
 20
132.0513325128039
 30
0.0
 10
69.33571650342068
 20
132.0561350321009
 30
0.0
 10
69.33519407670522
 20
132.0486594660126
 30
0.0
 10
69.33396482321076
 20
132.0310914541529
 30
0.0
 10
69.3321422851956
 20
132.0050159639281
 30
0.0
 10
69.32995479411255
 20
131.9737425452049
 30
0.0
 10
69.32800748962234
 20
131.9458887016119
 30
0.0
 10
69.32689561466715
 20
131.9299902330522
 30
0.0
 10
69.32652769235087
 20
131.9247293884308
 30
0.0
  0
LINE
  5
25F
330
1F
100
AcDbEntity
  8
0
  6
Continuous
 62
     7
370
    15
100
AcDbLine
 10
68.6482489537
 20
122.2248906868
 30
0.0
 11
69.3265276924
 21
131.9247293884
 31
0.0
  0
LINE
  5
260
330
1F
100
AcDbEntity
  8
0
  6
Continuous
 62
     7
370
    15
100
AcDbLine
 10
64.6711248983
 20
122.2616485918
 30
0.0
 11
65.3804128661
 21
132.404939797
 31
0.0
  0
SPLINE
  5
261
330
1F
100
AcDbEntity
  8
0
  6
Continuous
 62
     7
370
    15
100
AcDbSpline
210
0.0
220
0.0
230
1.0
 70
     8
 71
     3
 72
    10
 73
     6
 74
     0
 42
0.00000001
 43
0.00000001
 12
1.0
 22
0.0
 32
0.0
 13
1.0
 23
0.0
 33
0.0
 40
0.0
 40
0.0
 40
0.0
 40
0.0
 40
0.2657323886373173
 40
0.6165647905609284
 40
1.0
 40
1.0
 40
1.0
 40
1.0
 10
68.64824895371807
 20
122.2248906867952
 30
0.0
 10
68.64770389149697
 20
122.2170961672165
 30
0.0
 10
68.64643921248695
 20
122.1990109561656
 30
0.0
 10
68.64472769683037
 20
122.1745367546919
 30
0.0
 10
68.64407069985995
 20
122.165140707197
 30
0.0
 10
68.64372761544895
 20
122.1602340827139
 30
0.0
  0
SPLINE
  5
262
330
1F
100
AcDbEntity
  8
0
  6
Continuous
 62
     7
370
    15
100
AcDbSpline
210
0.0
220
0.0
230
1.0
 70
     8
 71
     3
 72
    10
 73
     6
 74
     0
 42
0.00000001
 43
0.00000001
 12
1.0
 22
0.0
 32
0.0
 13
1.0
 23
0.0
 33
0.0
 40
0.0
 40
0.0
 40
0.0
 40
0.0
 40
0.3518039577406555
 40
0.7034263912578217
 40
1.0
 40
1.0
 40
1.0
 40
1.0
 10
64.65304041837466
 20
122.0030291604252
 30
0.0
 10
64.65427300582348
 20
122.0206555542833
 30
0.0
 10
64.65673754472915
 20
122.0558992471118
 30
0.0
 10
64.66338694863094
 20
122.1509911176724
 30
0.0
 10
64.66869587061933
 20
122.2269119907871
 30
0.0
 10
64.6711248983362
 20
122.2616485918315
 30
0.0
  0
LINE
  5
263
330
1F
100
AcDbEntity
  8
0
  6
Continuous
 62
     7
370
    15
100
AcDbLine
 10
68.6406332962
 20
122.1159827562
 30
0.0
 11
68.6437276154
 21
122.1602340827
 31
0.0
  0
LINE
  5
264
330
1F
100
AcDbEntity
  8
0
  6
Continuous
 62
     7
370
    15
100
AcDbLine
 10
64.4294027434
 20
118.8048616184
 30
0.0
 11
64.6530404184
 21
122.0030291604
 31
0.0
  0
LINE
  5
265
330
1F
100
AcDbEntity
  8
0
  6
Continuous
 62
     7
370
    15
100
AcDbLine
 10
78.4161279872
 20
115.9156854863
 30
0.0
 11
78.4161279872
 21
117.9156855813
 31
0.0
  0
ARC
  5
266
330
1F
100
AcDbEntity
  8
0
  6
Continuous
 62
     7
370
    15
100
AcDbCircle
 10
65.416127719
 20
115.9156854863
 30
0.0
 40
13.00000000000003
100
AcDbArc
 50
262.0926611235
 51
0.0
  0
LINE
  5
267
330
1F
100
AcDbEntity
  8
0
  6
Continuous
 62
     7
370
    15
100
AcDbLine
 10
64.9545149782
 20
122.0136392529
 30
0.0
 11
63.6276993165
 21
103.0392912815
 31
0.0
  0
LINE
  5
268
330
1F
100
AcDbEntity
  8
0
  6
Continuous
 62
     7
370
    15
100
AcDbLine
 10
64.9545149782
 20
122.0136392529
 30
0.0
 11
67.1340454565
 21
122.0741528685
 31
0.0
  0
LINE
  5
269
330
1F
100
AcDbEntity
  8
0
  6
Continuous
 62
     7
370
    15
100
AcDbLine
 10
67.1340454565
 20
122.0741528685
 30
0.0
 11
68.6256753243
 21
121.902072862
 31
0.0
  0
LINE
  5
26A
330
1F
100
AcDbEntity
  8
0
  6
Continuous
 62
     7
370
    15
100
AcDbLine
 10
68.6406332962
 20
122.1159827562
 30
0.0
 11
68.6256753243
 21
121.902072862
 31
0.0
  0
LINE
  5
26B
330
1F
100
AcDbEntity
  8
0
  6
Continuous
 62
     7
370
    15
100
AcDbLine
 10
72.9293611794
 20
130.4235007281
 30
0.0
 11
69.2864002622
 21
131.3508828769
 31
0.0
  0
ARC
  5
26C
330
1F
100
AcDbEntity
  8
0
  6
Continuous
 62
     7
370
    15
100
AcDbCircle
 10
61.416127719
 20
117.9156854863
 30
0.0
 40
17.00000000000003
100
AcDbArc
 50
0.0
 51
47.3709551602
  0
LINE
  5
26D
330
1F
100
AcDbEntity
  8
0
  6
Continuous
 62
     7
370
    15
100
AcDbLine
 10
69.3097496833
 20
131.6847927535
 30
0.0
 11
72.3876913972
 21
130.9012459258
 31
0.0
  0
ARC
  5
26E
330
1F
100
AcDbEntity
  8
0
  6
Continuous
 62
     7
370
    15
100
AcDbCircle
 10
61.416127719
 20
117.9156854863
 30
0.0
 40
17.00000000000004
100
AcDbArc
 50
47.3709551602
 51
49.8053695625
  0
SPLINE
  5
26F
330
1F
100
AcDbEntity
  8
0
  6
Continuous
 62
     7
370
    15
100
AcDbSpline
210
0.0
220
0.0
230
1.0
 70
     8
 71
     3
 72
    10
 73
     6
 74
     0
 42
0.00000001
 43
0.00000001
 12
1.0
 22
0.0
 32
0.0
 13
1.0
 23
0.0
 33
0.0
 40
0.0
 40
0.0
 40
0.0
 40
0.0
 40
0.3757236128423611
 40
0.751631962793501
 40
1.0
 40
1.0
 40
1.0
 40
1.0
 10
63.15884696875823
 20
128.2101837585123
 30
0.0
 10
63.46949261288643
 20
128.2597935609559
 30
0.0
 10
64.09093664048679
 20
128.3590375581654
 30
0.0
 10
64.77824970322645
 20
128.402645187613
 30
0.0
 10
65.00917396305641
 20
128.4077794156445
 30
0.0
 10
65.10104706019287
 20
128.4098220656068
 30
0.0
  0
SPLINE
  5
270
330
1F
100
AcDbEntity
  8
0
  6
Continuous
 62
     7
370
    15
100
AcDbSpline
210
0.0
220
0.0
230
1.0
 70
     8
 71
     3
 72
    14
 73
    10
 74
     0
 42
0.00000001
 43
0.00000001
 12
1.0
 22
0.0
 32
0.0
 13
1.0
 23
0.0
 33
0.0
 40
0.0
 40
0.0
 40
0.0
 40
0.0
 40
0.25
 40
0.25
 40
0.5
 40
0.5
 40
0.75
 40
0.75
 40
1.0
 40
1.0
 40
1.0
 40
1.0
 10
63.66266206054536
 20
103.539282204835
 30
0.0
 10
63.66266206054536
 20
103.539282204835
 30
0.0
 10
63.60922682954997
 20
103.5465011735422
 30
0.0
 10
63.39625431248614
 20
103.5794898487081
 30
0.0
 10
63.24190141896055
 20
103.6045392641353
 30
0.0
 10
62.84149690583965
 20
103.6820083006269
 30
0.0
 10
62.60427928374933
 20
103.7328849089282
 30
0.0
 10
62.06599962292582
 20
103.8697831427326
 30
0.0
 10
61.77512636366068
 20
103.9533827410033
 30
0.0
 10
61.46975128671335
 20
104.0549893408083
 30
0.0
  0
ELLIPSE
  5
271
330
1F
100
AcDbEntity
  8
0
  6
Continuous
 62
     7
370
    15
100
AcDbEllipse
 10
58.8200770471
 20
121.4909905933
 30
0.0
 11
1.79152031458456
 21
1.69668010386475
 31
0.0
210
0.0
220
0.0
230
1.0
 40
0.8366473185
 41
0.0
 42
6.283185307179586
  0
ARC
  5
272
330
1F
100
AcDbEntity
  8
0
  6
Continuous
 62
     7
370
    15
100
AcDbCircle
 10
65.416127719
 20
115.9156854863
 30
0.0
 40
12.50000000000001
100
AcDbArc
 50
100.4036880773
 51
251.5963119227
  0
SPLINE
  5
273
330
1F
100
AcDbEntity
  8
0
  6
Continuous
 62
     7
370
    15
100
AcDbSpline
210
0.0
220
0.0
230
1.0
 70
    24
 71
     3
 72
    10
 73
     6
 74
     0
 42
0.00000001
 43
0.00000001
 12
1.0
 22
0.0
 32
0.0
 13
1.0
 23
0.0
 33
0.0
 40
0.0
 40
0.0
 40
0.0
 40
0.0
 40
0.5
 40
0.5
 40
1.0
 40
1.0
 40
1.0
 40
1.0
 10
59.91612771895838
 20
97.31165366518557
 30
0.0
 10
59.91612771895838
 20
97.15058089845616
 30
0.0
 10
59.91612771895838
 20
96.99064738994508
 30
0.0
 10
59.91612771895838
 20
96.75774717598098
 30
0.0
 10
59.91612771895838
 20
96.68680096324267
 30
0.0
 10
59.91612771895838
 20
96.68680096324267
 30
0.0
  0
ARC
  5
274
330
1F
100
AcDbEntity
  8
0
  6
Continuous
 62
     7
370
    15
100
AcDbCircle
 10
65.416127719
 20
115.9156854863
 30
0.0
 40
20.00000000000004
100
AcDbArc
 50
143.6653827846
 51
254.0379858372
  0
SPLINE
  5
275
330
1F
100
AcDbEntity
  8
0
  6
Continuous
 62
     7
370
    15
100
AcDbSpline
210
0.0
220
0.0
230
1.0
 70
    24
 71
     3
 72
    12
 73
     8
 74
     0
 42
0.00000001
 43
0.00000001
 12
1.0
 22
0.0
 32
0.0
 13
1.0
 23
0.0
 33
0.0
 40
0.0
 40
0.0
 40
0.0
 40
0.0
 40
0.250000000000002
 40
0.250000000000002
 40
0.500000000000004
 40
0.500000000000004
 40
1.0
 40
1.0
 40
1.0
 40
1.0
 10
49.30471871788093
 20
127.7656854862721
 30
0.0
 10
49.30471871788093
 20
127.7656854862721
 30
0.0
 10
49.33026761006406
 20
127.7656854862721
 30
0.0
 10
49.41918330304748
 20
127.7656854862721
 30
0.0
 10
49.4820544176044
 20
127.7656854862721
 30
0.0
 10
49.69985320507053
 20
127.7656854862721
 30
0.0
 10
49.87896047026209
 20
127.7656854862721
 30
0.0
 10
50.05587055965272
 20
127.7656854862721
 30
0.0
  0
SPLINE
  5
276
330
1F
100
AcDbEntity
  8
0
  6
Continuous
 62
     7
370
    15
100
AcDbSpline
210
0.0
220
0.0
230
1.0
 70
    24
 71
     3
 72
    10
 73
     6
 74
     0
 42
0.00000001
 43
0.00000001
 12
1.0
 22
0.0
 32
0.0
 13
1.0
 23
0.0
 33
0.0
 40
0.0
 40
0.0
 40
0.0
 40
0.0
 40
0.5
 40
0.5
 40
1.0
 40
1.0
 40
1.0
 40
1.0
 10
60.91612771895838
 20
134.786562519415
 30
0.0
 10
60.91612771895838
 20
134.9462394743122
 30
0.0
 10
60.91612771895838
 20
135.1042299199488
 30
0.0
 10
60.91612771895838
 20
135.3345237027433
 30
0.0
 10
60.91612771895838
 20
135.4028607561772
 30
0.0
 10
60.91612771895838
 20
135.4028607561772
 30
0.0
  0
SPLINE
  5
277
330
1F
100
AcDbEntity
  8
0
  6
Continuous
 62
     7
370
    15
100
AcDbSpline
210
0.0
220
0.0
230
1.0
 70
    24
 71
     3
 72
    12
 73
     8
 74
     0
 42
0.00000001
 43
0.00000001
 12
1.0
 22
0.0
 32
0.0
 13
1.0
 23
0.0
 33
0.0
 40
0.0
 40
0.0
 40
0.0
 40
0.0
 40
0.2500000000000014
 40
0.2500000000000014
 40
0.5000000000000028
 40
0.5000000000000028
 40
1.0
 40
1.0
 40
1.0
 40
1.0
 10
53.56612771895837
 20
132.0270944873496
 30
0.0
 10
53.56612771895838
 20
132.0270944873496
 30
0.0
 10
53.56612771895837
 20
132.0018315436095
 30
0.0
 10
53.56612771895838
 20
131.9118335403433
 30
0.0
 10
53.56612771895837
 20
131.848945075642
 30
0.0
 10
53.56612771895837
 20
131.6327125722393
 30
0.0
 10
53.56612771895837
 20
131.4523380351086
 30
0.0
 10
53.56612771895837
 20
131.2759426455778
 30
0.0
  0
ARC
  5
278
330
1F
100
AcDbEntity
  8
0
  6
Continuous
 62
     7
370
    15
100
AcDbCircle
 10
65.416127719
 20
115.9156854863
 30
0.0
 40
20.00000000000004
100
AcDbArc
 50
103.0028781629
 51
126.3346172154
  0
SPLINE
  5
279
330
1F
100
AcDbEntity
  8
0
  6
Continuous
 62
     7
370
    15
100
AcDbSpline
210
0.0
220
0.0
230
1.0
 70
    24
 71
     3
 72
    12
 73
     8
 74
     0
 42
0.00000001
 43
0.00000001
 12
1.0
 22
0.0
 32
0.0
 13
1.0
 23
0.0
 33
0.0
 40
0.0
 40
0.0
 40
0.0
 40
0.0
 40
0.249999999999998
 40
0.249999999999998
 40
0.499999999999996
 40
0.499999999999996
 40
1.0
 40
1.0
 40
1.0
 40
1.0
 10
69.9161277189584
 20
135.4028607561772
 30
0.0
 10
69.91612771895839
 20
135.4028607561772
 30
0.0
 10
69.9161277189584
 20
135.3859631084225
 30
0.0
 10
69.91612771895839
 20
135.3230248632831
 30
0.0
 10
69.9161277189584
 20
135.2762726555643
 30
0.0
 10
69.9161277189584
 20
135.1047613790552
 30
0.0
 10
69.9161277189584
 20
134.9461003155537
 30
0.0
 10
69.9161277189584
 20
134.786562519415
 30
0.0
  0
ARC
  5
27A
330
1F
100
AcDbEntity
  8
0
  6
Continuous
 62
     7
370
    15
100
AcDbCircle
 10
65.416127719
 20
115.9156854863
 30
0.0
 40
20.00000000000003
100
AcDbArc
 50
285.9620141628
 51
76.9971218371
  0
SPLINE
  5
27B
330
1F
100
AcDbEntity
  8
0
  6
Continuous
 62
     7
370
    15
100
AcDbSpline
210
0.0
220
0.0
230
1.0
 70
    24
 71
     3
 72
    10
 73
     6
 74
     0
 42
0.00000001
 43
0.00000001
 12
1.0
 22
0.0
 32
0.0
 13
1.0
 23
0.0
 33
0.0
 40
0.0
 40
0.0
 40
0.0
 40
0.0
 40
0.5
 40
0.5
 40
1.0
 40
1.0
 40
1.0
 40
1.0
 10
70.9161277189584
 20
96.6868009632427
 30
0.0
 10
70.91612771895839
 20
96.6868009632427
 30
0.0
 10
70.9161277189584
 20
96.75804269988286
 30
0.0
 10
70.9161277189584
 20
96.99087315644606
 30
0.0
 10
70.9161277189584
 20
97.1516768172406
 30
0.0
 10
70.9161277189584
 20
97.31165366518574
 30
0.0
  0
LINE
  5
27C
330
1F
100
AcDbEntity
  8
0
  6
Continuous
 62
     7
370
    15
100
AcDbLine
 10
69.9161275252
 20
132.8156847174
 30
0.0
 11
65.8716465251
 21
132.8156847174
 31
0.0
  0
LINE
  5
27D
330
1F
100
AcDbEntity
  8
0
  6
Continuous
 62
     7
370
    15
100
AcDbLine
 10
65.4091350376
 20
132.8156847174
 30
0.0
 11
60.9161279127
 21
132.8156847174
 31
0.0
  0
LINE
  5
27E
330
1F
100
AcDbEntity
  8
0
  6
Continuous
 62
     7
370
    15
100
AcDbLine
 10
70.9161276892
 20
99.0156862552
 30
0.0
 11
59.9161277488
 21
99.0156862552
 31
0.0
  0
LINE
  5
27F
330
1F
100
AcDbEntity
  8
0
  6
Continuous
 62
     7
370
    15
100
AcDbLine
 10
70.9161276892
 20
97.311652791
 30
0.0
 11
70.9161276892
 21
99.0156862552
 31
0.0
  0
LINE
  5
280
330
1F
100
AcDbEntity
  8
0
  6
Continuous
 62
     7
370
    15
100
AcDbLine
 10
69.9161275252
 20
134.7865625883
 30
0.0
 11
69.9161275252
 21
132.8156847174
 31
0.0
  0
LINE
  5
281
330
1F
100
AcDbEntity
  8
0
  6
Continuous
 62
     7
370
    15
100
AcDbLine
 10
53.5661273598
 20
131.2759430746
 30
0.0
 11
53.5661273598
 21
127.7656858454
 31
0.0
  0
LINE
  5
282
330
1F
100
AcDbEntity
  8
0
  6
Continuous
 62
     7
370
    15
100
AcDbLine
 10
60.9161279127
 20
132.8156847174
 30
0.0
 11
60.9161279127
 21
134.7865625883
 31
0.0
  0
LINE
  5
283
330
1F
100
AcDbEntity
  8
0
  6
Continuous
 62
     7
370
    15
100
AcDbLine
 10
59.9161277488
 20
99.0156862552
 30
0.0
 11
59.9161277488
 21
97.311652791
 31
0.0
  0
LINE
  5
284
330
1F
100
AcDbEntity
  8
0
  6
Continuous
 62
     7
370
    15
100
AcDbLine
 10
50.0558701306
 20
127.7656858454
 30
0.0
 11
53.5661273598
 21
127.7656858454
 31
0.0
  0
SPLINE
  5
285
330
1F
100
AcDbEntity
  8
0
  6
Continuous
 62
     7
370
    15
100
AcDbSpline
210
0.0
220
0.0
230
1.0
 70
     8
 71
     3
 72
    22
 73
    18
 74
     0
 42
0.00000001
 43
0.00000001
 12
1.0
 22
0.0
 32
0.0
 13
1.0
 23
0.0
 33
0.0
 40
0.0
 40
0.0
 40
0.0
 40
0.0
 40
0.2499999999999997
 40
0.2499999999999997
 40
0.3749999999999998
 40
0.3749999999999998
 40
0.4999999999999999
 40
0.4999999999999999
 40
0.625
 40
0.625
 40
0.75
 40
0.75
 40
0.8750000000000001
 40
0.8750000000000001
 40
0.9375000000000001
 40
0.9375000000000001
 40
1.0
 40
1.0
 40
1.0
 40
1.0
 10
49.30471871788089
 20
127.7656854862721
 30
0.0
 10
49.71871359604738
 20
128.3285581281702
 30
0.0
 10
50.15452339735634
 20
128.8591830118997
 30
0.0
 10
50.83126420034066
 20
129.6048940028213
 30
0.0
 10
51.06211932751535
 20
129.8465142292199
 30
0.0
 10
51.52215638267748
 20
130.3053730045459
 30
0.0
 10
51.74812405945599
 20
130.5195516770157
 30
0.0
 10
52.18531564795671
 20
130.9167802361612
 30
0.0
 10
52.39836837224926
 20
131.101225071181
 30
0.0
 10
52.78254451148279
 20
131.4223049190647
 30
0.0
 10
52.95666152027426
 20
131.5616557491707
 30
0.0
 10
53.25017926507478
 20
131.7909612835962
 30
0.0
 10
53.36497156967219
 20
131.8774972930725
 30
0.0
 10
53.48392614576817
 20
131.9663868974038
 30
0.0
 10
53.51474422875476
 20
131.9891954032654
 30
0.0
 10
53.55576344047337
 20
132.0194865659617
 30
0.0
 10
53.56612771895838
 20
132.0270944873496
 30
0.0
 10
53.56612771895838
 20
132.0270944873496
 30
0.0
  0
SPLINE
  5
286
330
1F
100
AcDbEntity
  8
0
  6
Continuous
 62
     7
370
    15
100
AcDbSpline
210
0.0
220
0.0
230
1.0
 70
     8
 71
     3
 72
    22
 73
    18
 74
     0
 42
0.00000001
 43
0.00000001
 12
1.0
 22
0.0
 32
0.0
 13
1.0
 23
0.0
 33
0.0
 40
0.0
 40
0.0
 40
0.0
 40
0.0
 40
0.125
 40
0.125
 40
0.25
 40
0.25
 40
0.375
 40
0.375
 40
0.5
 40
0.5
 40
0.625
 40
0.625
 40
0.75
 40
0.75
 40
0.875
 40
0.875
 40
1.0
 40
1.0
 40
1.0
 40
1.0
 10
66.41612771895838
 20
95.94070113083392
 30
0.0
 10
66.71486544735605
 20
95.95565672344324
 30
0.0
 10
67.0080707721905
 20
95.97704492008963
 30
0.0
 10
67.58402585281807
 20
96.03142316670493
 30
0.0
 10
67.86976814663345
 20
96.06486933031331
 30
0.0
 10
68.41329728762713
 20
96.13963360571105
 30
0.0
 10
68.67079047584875
 20
96.18073209467198
 30
0.0
 10
69.15799547311403
 20
96.26728502363576
 30
0.0
 10
69.38813509530318
 20
96.31293592273366
 30
0.0
 10
69.80134075150667
 20
96.4012154778985
 30
0.0
 10
69.98717649220254
 20
96.44431682790577
 30
0.0
 10
70.31627307238597
 20
96.52452100776101
 30
0.0
 10
70.45623292920001
 20
96.56081585515057
 30
0.0
 10
70.68191929042968
 20
96.62099507430028
 30
0.0
 10
70.76919069876841
 20
96.64528241173137
 30
0.0
 10
70.88659091211929
 20
96.67828050604274
 30
0.0
 10
70.9161277189584
 20
96.68680096324267
 30
0.0
 10
70.9161277189584
 20
96.68680096324267
 30
0.0
  0
SPLINE
  5
287
330
1F
100
AcDbEntity
  8
0
  6
Continuous
 62
     7
370
    15
100
AcDbSpline
210
0.0
220
0.0
230
1.0
 70
     8
 71
     3
 72
    22
 73
    18
 74
     0
 42
0.00000001
 43
0.00000001
 12
1.0
 22
0.0
 32
0.0
 13
1.0
 23
0.0
 33
0.0
 40
0.0
 40
0.0
 40
0.0
 40
0.0
 40
0.125
 40
0.125
 40
0.2500000000000001
 40
0.2500000000000001
 40
0.3750000000000001
 40
0.3750000000000001
 40
0.5000000000000001
 40
0.5000000000000001
 40
0.6250000000000001
 40
0.6250000000000001
 40
0.7500000000000002
 40
0.7500000000000002
 40
0.8750000000000002
 40
0.8750000000000002
 40
1.0
 40
1.0
 40
1.0
 40
1.0
 10
59.91612771895838
 20
96.68680096324269
 30
0.0
 10
59.91612771895838
 20
96.68680096324269
 30
0.0
 10
59.94565361737831
 20
96.67828686217631
 30
0.0
 10
60.06105845066497
 20
96.6458430932944
 30
0.0
 10
60.14844125573081
 20
96.62150920459239
 30
0.0
 10
60.37511467503842
 20
96.56104917983555
 30
0.0
 10
60.51359052137098
 20
96.52513575905705
 30
0.0
 10
60.84040101853476
 20
96.44542573298791
 30
0.0
 10
61.02944585451475
 20
96.40154743179858
 30
0.0
 10
61.44231413699047
 20
96.3133038094284
 30
0.0
 10
61.66778602824179
 20
96.26849546796743
 30
0.0
 10
62.15864163278948
 20
96.18117446004825
 30
0.0
 10
62.41748179073155
 20
96.13988367147259
 30
0.0
 10
62.95723461652737
 20
96.06554544817877
 30
0.0
 10
63.24133770535642
 20
96.0321353224441
 30
0.0
 10
63.82279084049834
 20
95.97711592091795
 30
0.0
 10
64.11744130612662
 20
95.9556541544517
 30
0.0
 10
64.41612771895838
 20
95.9407011308339
 30
0.0
  0
SPLINE
  5
288
330
1F
100
AcDbEntity
  8
0
  6
Continuous
 62
     7
370
    15
100
AcDbSpline
210
0.0
220
0.0
230
1.0
 70
     8
 71
     3
 72
    38
 73
    34
 74
     0
 42
0.00000001
 43
0.00000001
 12
1.0
 22
0.0
 32
0.0
 13
1.0
 23
0.0
 33
0.0
 40
0.0
 40
0.0
 40
0.0
 40
0.0
 40
0.0625
 40
0.0625
 40
0.125
 40
0.125
 40
0.1875
 40
0.1875
 40
0.25
 40
0.25
 40
0.3125
 40
0.3125
 40
0.375
 40
0.375
 40
0.4375
 40
0.4375
 40
0.5
 40
0.5
 40
0.5625
 40
0.5625
 40
0.625
 40
0.625
 40
0.6875
 40
0.6875
 40
0.75
 40
0.75
 40
0.8125
 40
0.8125
 40
0.875
 40
0.875
 40
0.9375
 40
0.9375
 40
1.0
 40
1.0
 40
1.0
 40
1.0
 10
60.91612771895838
 20
135.4028607561772
 30
0.0
 10
60.91612771895838
 20
135.4028607561772
 30
0.0
 10
60.94548814152989
 20
135.4097063234334
 30
0.0
 10
61.06034173203721
 20
135.435690482867
 30
0.0
 10
61.14729381478173
 20
135.4551434016899
 30
0.0
 10
61.37340669866636
 20
135.5031755062293
 30
0.0
 10
61.51163202314007
 20
135.5315595232085
 30
0.0
 10
61.83803685837732
 20
135.5937155366874
 30
0.0
 10
62.0273586327026
 20
135.6276137123641
 30
0.0
 10
62.44092768621933
 20
135.6942611446898
 30
0.0
 10
62.66677377614302
 20
135.7273585621028
 30
0.0
 10
63.15820426510577
 20
135.7893645327651
 30
0.0
 10
63.41856172025606
 20
135.8175305020127
 30
0.0
 10
63.95950653181423
 20
135.8644187710422
 30
0.0
 10
64.24405037372655
 20
135.8834307583621
 30
0.0
 10
64.8252635483539
 20
135.9090717949036
 30
0.0
 10
65.11782515621488
 20
135.9156289111091
 30
0.0
 10
65.70679514682459
 20
135.9157413327441
 30
0.0
 10
66.00602628016887
 20
135.909075809512
 30
0.0
 10
66.58386862162905
 20
135.8836602988106
 30
0.0
 10
66.86483885477003
 20
135.8650294054089
 30
0.0
 10
67.41084365436834
 20
135.8178510743695
 30
0.0
 10
67.67285595409173
 20
135.7894694211159
 30
0.0
 10
68.15935779228428
 20
135.7281764700153
 30
0.0
 10
68.38772738351729
 20
135.6948248867535
 30
0.0
 10
68.80547408240729
 20
135.627537028394
 30
0.0
 10
68.99102572337742
 20
135.5942937322446
 30
0.0
 10
69.31695243486547
 20
135.5322877602701
 30
0.0
 10
69.45837431627604
 20
135.5032727027995
 30
0.0
 10
69.68425146247982
 20
135.4552978219502
 30
0.0
 10
69.7698922309374
 20
135.4361435846097
 30
0.0
 10
69.88611711412335
 20
135.4098575538885
 30
0.0
 10
69.91612771895839
 20
135.4028607561772
 30
0.0
 10
69.91612771895839
 20
135.4028607561772
 30
0.0
  0
ARC
  5
289
330
1F
100
AcDbEntity
  8
0
  6
Continuous
 62
     7
370
    15
100
AcDbCircle
 10
65.416127719
 20
115.9156854863
 30
0.0
 40
20.00000000000003
100
AcDbArc
 50
267.1340160174
 51
272.8659839826
  0
CIRCLE
  5
28A
330
1F
100
AcDbEntity
  8
VERMASSUNG
  6
CENTERX2
100
AcDbCircle
 10
65.416127719
 20
116.746335791
 30
0.0
 40
15.99999999999999
  0
DIMENSION
  5
28B
330
1F
100
AcDbEntity
  8
VERMASSUNG
100
AcDbDimension
  2
_D_6
 10
54.10241922
 20
128.0600442899
 30
0.0
 11
45.8556409213
 21
136.3068225886
 31
0.0
 70
   160
  1
%%c<> min. 
 71
     2
 42
-1.0
  3
SLDDIMSTYLE2
100
AcDbAlignedDimension
 13
76.7298362179
 23
105.432627292
 33
0.0
 14
54.10241922
 24
128.0600442899
 34
0.0
 50
-45.0
100
AcDbRotatedDimension
  0
DIMENSION
  5
29A
330
1F
100
AcDbEntity
  8
VERMASSUNG
100
AcDbDimension
  2
_D_7
 10
65.416127719
 20
138.4156854863
 30
0.0
 11
54.4984339295
 21
89.7404539159
 31
0.0
 70
   162
  1
<>
 71
     1
 42
-1.0
  3
SLDDIMSTYLE3
100
AcDb2LineAngularDimension
 13
63.6276992999
 23
103.039291434
 33
0.0
 14
64.9545149637
 24
122.0136394255
 34
0.0
 15
65.416127719
 25
93.4156854863
 35
0.0
 16
64.0069367328
 26
88.2610593753
 36
0.0
  0
INSERT
  5
2B2
330
1F
100
AcDbEntity
  8
VERMASSUNG
100
AcDbBlockReference
  2
SW_CENTERMARKSYMBOL_0
 10
65.416127719
 20
115.9156854863
 30
0.0
  0
OLE2FRAME
  5
2B3
330
1F
100
AcDbEntity
  8
0
100
AcDbOle2Frame
 70
     2
  3
Paintbrush-Bild
 10
13.8511154363
 20
38.264191557
 30
0.0
 11
51.6290888628
 21
31.9806341108
 31
0.0
 71
     2
 72
     0
 73
     1
 90
    12928
310
80552BED0767C5B32B40DDAF6807D121434000000000000000006FFBDDFB85D0
310
4940DDAF6807D121434000000000000000006FFBDDFB85D04940416F4BD60AFB
310
3F4000000000000000002BED0767C5B32B40416F4BD60AFB3F40000000000000
310
0000000000000100000000010000010000000100000000000100000000320000
310
D0CF11E0A1B11AE1000000000000000000000000000000003E000300FEFF0900
310
0600000000000000000000000100000001000000000000000010000002000000
310
01000000FEFFFFFF0000000000000000FFFFFFFFFFFFFFFFFFFFFFFFFFFFFFFF
310
FFFFFFFFFFFFFFFFFFFFFFFFFFFFFFFFFFFFFFFFFFFFFFFFFFFFFFFFFFFFFFFF
310
FFFFFFFFFFFFFFFFFFFFFFFFFFFFFFFFFFFFFFFFFFFFFFFFFFFFFFFFFFFFFFFF
310
FFFFFFFFFFFFFFFFFFFFFFFFFFFFFFFFFFFFFFFFFFFFFFFFFFFFFFFFFFFFFFFF
310
FFFFFFFFFFFFFFFFFFFFFFFFFFFFFFFFFFFFFFFFFFFFFFFFFFFFFFFFFFFFFFFF
310
FFFFFFFFFFFFFFFFFFFFFFFFFFFFFFFFFFFFFFFFFFFFFFFFFFFFFFFFFFFFFFFF
310
FFFFFFFFFFFFFFFFFFFFFFFFFFFFFFFFFFFFFFFFFFFFFFFFFFFFFFFFFFFFFFFF
310
FFFFFFFFFFFFFFFFFFFFFFFFFFFFFFFFFFFFFFFFFFFFFFFFFFFFFFFFFFFFFFFF
310
FFFFFFFFFFFFFFFFFFFFFFFFFFFFFFFFFFFFFFFFFFFFFFFFFFFFFFFFFFFFFFFF
310
FFFFFFFFFFFFFFFFFFFFFFFFFFFFFFFFFFFFFFFFFFFFFFFFFFFFFFFFFFFFFFFF
310
FFFFFFFFFFFFFFFFFFFFFFFFFFFFFFFFFFFFFFFFFFFFFFFFFFFFFFFFFFFFFFFF
310
FFFFFFFFFFFFFFFFFFFFFFFFFFFFFFFFFFFFFFFFFFFFFFFFFFFFFFFFFFFFFFFF
310
FFFFFFFFFFFFFFFFFFFFFFFFFFFFFFFFFFFFFFFFFFFFFFFFFFFFFFFFFFFFFFFF
310
FFFFFFFFFFFFFFFFFFFFFFFFFFFFFFFFFFFFFFFFFFFFFFFFFFFFFFFFFFFFFFFF
310
FDFFFFFFFEFFFFFFFEFFFFFFFEFFFFFF05000000060000000700000008000000
310
090000000A0000000B0000000C0000000D0000000E0000000F00000010000000
310
11000000120000001300000014000000150000001600000017000000FEFFFFFF
310
FFFFFFFFFFFFFFFFFFFFFFFFFFFFFFFFFFFFFFFFFFFFFFFFFFFFFFFFFFFFFFFF
310
FFFFFFFFFFFFFFFFFFFFFFFFFFFFFFFFFFFFFFFFFFFFFFFFFFFFFFFFFFFFFFFF
310
FFFFFFFFFFFFFFFFFFFFFFFFFFFFFFFFFFFFFFFFFFFFFFFFFFFFFFFFFFFFFFFF
310
FFFFFFFFFFFFFFFFFFFFFFFFFFFFFFFFFFFFFFFFFFFFFFFFFFFFFFFFFFFFFFFF
310
FFFFFFFFFFFFFFFFFFFFFFFFFFFFFFFFFFFFFFFFFFFFFFFFFFFFFFFFFFFFFFFF
310
FFFFFFFFFFFFFFFFFFFFFFFFFFFFFFFFFFFFFFFFFFFFFFFFFFFFFFFFFFFFFFFF
310
FFFFFFFFFFFFFFFFFFFFFFFFFFFFFFFFFFFFFFFFFFFFFFFFFFFFFFFFFFFFFFFF
310
FFFFFFFFFFFFFFFFFFFFFFFFFFFFFFFFFFFFFFFFFFFFFFFFFFFFFFFFFFFFFFFF
310
FFFFFFFFFFFFFFFFFFFFFFFFFFFFFFFFFFFFFFFFFFFFFFFFFFFFFFFFFFFFFFFF
310
FFFFFFFFFFFFFFFFFFFFFFFFFFFFFFFFFFFFFFFFFFFFFFFFFFFFFFFFFFFFFFFF
310
FFFFFFFFFFFFFFFFFFFFFFFFFFFFFFFFFFFFFFFFFFFFFFFFFFFFFFFFFFFFFFFF
310
FFFFFFFFFFFFFFFFFFFFFFFFFFFFFFFFFFFFFFFFFFFFFFFFFFFFFFFFFFFFFFFF
310
FFFFFFFFFFFFFFFFFFFFFFFFFFFFFFFFFFFFFFFFFFFFFFFFFFFFFFFFFFFFFFFF
310
52006F006F007400200045006E00740072007900000000000000000000000000
310
0000000000000000000000000000000000000000000000000000000000000000
310
16000500FFFFFFFFFFFFFFFF020000000A00030000000000C000000000000046
310
00000000000000000000000020651B636C48CD0103000000C000000000000000
310
01004F006C006500000000000000000000000000000000000000000000000000
310
0000000000000000000000000000000000000000000000000000000000000000
310
0A000200FFFFFFFFFFFFFFFFFFFFFFFF00000000000000000000000000000000
310
0000000000000000000000000000000000000000000000001400000000000000
310
010043006F006D0070004F0062006A0000000000000000000000000000000000
310
0000000000000000000000000000000000000000000000000000000000000000
310
120002010100000003000000FFFFFFFF00000000000000000000000000000000
310
0000000000000000000000000000000000000000010000004D00000000000000
310
01004F006C006500310030004E00610074006900760065000000000000000000
310
0000000000000000000000000000000000000000000000000000000000000000
310
1A000200FFFFFFFFFFFFFFFFFFFFFFFF00000000000000000000000000000000
310
0000000000000000000000000000000000000000040000002426000000000000
310
FEFFFFFF02000000FEFFFFFFFFFFFFFFFFFFFFFFFFFFFFFFFFFFFFFFFFFFFFFF
310
FFFFFFFFFFFFFFFFFFFFFFFFFFFFFFFFFFFFFFFFFFFFFFFFFFFFFFFFFFFFFFFF
310
FFFFFFFFFFFFFFFFFFFFFFFFFFFFFFFFFFFFFFFFFFFFFFFFFFFFFFFFFFFFFFFF
310
FFFFFFFFFFFFFFFFFFFFFFFFFFFFFFFFFFFFFFFFFFFFFFFFFFFFFFFFFFFFFFFF
310
FFFFFFFFFFFFFFFFFFFFFFFFFFFFFFFFFFFFFFFFFFFFFFFFFFFFFFFFFFFFFFFF
310
FFFFFFFFFFFFFFFFFFFFFFFFFFFFFFFFFFFFFFFFFFFFFFFFFFFFFFFFFFFFFFFF
310
FFFFFFFFFFFFFFFFFFFFFFFFFFFFFFFFFFFFFFFFFFFFFFFFFFFFFFFFFFFFFFFF
310
FFFFFFFFFFFFFFFFFFFFFFFFFFFFFFFFFFFFFFFFFFFFFFFFFFFFFFFFFFFFFFFF
310
FFFFFFFFFFFFFFFFFFFFFFFFFFFFFFFFFFFFFFFFFFFFFFFFFFFFFFFFFFFFFFFF
310
FFFFFFFFFFFFFFFFFFFFFFFFFFFFFFFFFFFFFFFFFFFFFFFFFFFFFFFFFFFFFFFF
310
FFFFFFFFFFFFFFFFFFFFFFFFFFFFFFFFFFFFFFFFFFFFFFFFFFFFFFFFFFFFFFFF
310
FFFFFFFFFFFFFFFFFFFFFFFFFFFFFFFFFFFFFFFFFFFFFFFFFFFFFFFFFFFFFFFF
310
FFFFFFFFFFFFFFFFFFFFFFFFFFFFFFFFFFFFFFFFFFFFFFFFFFFFFFFFFFFFFFFF
310
FFFFFFFFFFFFFFFFFFFFFFFFFFFFFFFFFFFFFFFFFFFFFFFFFFFFFFFFFFFFFFFF
310
FFFFFFFFFFFFFFFFFFFFFFFFFFFFFFFFFFFFFFFFFFFFFFFFFFFFFFFFFFFFFFFF
310
FFFFFFFFFFFFFFFFFFFFFFFFFFFFFFFFFFFFFFFFFFFFFFFFFFFFFFFFFFFFFFFF
310
0100000200000000000000000000000000000000000000000000000000000000
310
0000000000000000000000000000000000000000000000000000000000000000
310
0100FEFF030A0000FFFFFFFF0A00030000000000C00000000000004607000000
310
5042727573680007000000504272757368000700000050427275736800F439B2
310
7100000000000000000000000000000000000000000000000000000000000000
310
0000000000000000000000000000000000000000000000000000000000000000
310
0000000000000000000000000000000000000000000000000000000000000000
310
0000000000000000000000000000000000000000000000000000000000000000
310
0000000000000000000000000000000000000000000000000000000000000000
310
0000000000000000000000000000000000000000000000000000000000000000
310
0000000000000000000000000000000000000000000000000000000000000000
310
0000000000000000000000000000000000000000000000000000000000000000
310
0000000000000000000000000000000000000000000000000000000000000000
310
0000000000000000000000000000000000000000000000000000000000000000
310
0000000000000000000000000000000000000000000000000000000000000000
310
0000000000000000000000000000000000000000000000000000000000000000
310
20260000424D0E260000000000003E00000028000000B40200006E0000000100
310
01000000000000000000130B0000130B00000200000002000000000000FFFFFF
310
FFFFFFFFFFFFFFFFFFFFFFFFFFFFFFFFFFFFFFFFFFFFFFFFFFFFFFFFFFFFFFFF
310
FFFFFFFFFFFFFFFFFFFFFFFFFFFFFFFFFFFFFFFFFFFFFFFFFFFFFFFFFFFFFFFF
310
FFFFFFFFFFFFFFFFFFFFFFFFFFFFFFFFFFFFFFFFFFFFFFFFF000FFFFFFFFFFFF
310
FFFFFFFFFFFFFFFFFFFFFFFFFFFFFFFFFFFFFFFFFFFFFFFFFFFFFFFFFFFFFFFF
310
FFFFFFFFFFFFFFFFFFFFFFFFFFFFFFFFFFFFFFFFFFFFFFFFFFFFFFFFFFFFFFFF
310
FFFFFFFFFFFFFFFFFFFFFFFFFFFFFFFFF000FFFFFFFFFFFFFFFFFFFFFFFFFFFF
310
FFFFFFFFFFFFFFFFFFFFFFFFFFFFFFFFFFFFFFFFFFFFFFFFFFFFFFFFFFFFFFFF
310
FFFFFFFFFFFFFFFFFFFFFFFFFFFFFFFFFFFFFFFFFFFFFFFFFFFFFFFFFFFFFFFF
310
FFFFFFFFFFFFFFFFF000FFFFFFFFFFFFFFFFFFFFFFFFFFFFFFFFFFFFFFFFFFFF
310
FFFFFFFFFFFFFFFFFFFFFFFFFFFFFFFFFFFFFFFFFFFFFFFFFFFFFFFFFFFFFFFF
310
FFFFFFFFFFFFFFFFFFFFFFFFFFFFFFFFFFFFFFFFFFFFFFFFFFFFFFFFFFFFFFFF
310
F000FFFFFFFFFFFFFFFFFFFFFFFFFFFFFFFFFFFFFFFFFFFFFFFFFFFFFFFFFFFF
310
FFFFFFFFFFFFFFFFFFFFFFFFFFFFFFFFFFFFFFFFFFFFFFFFFFFFFFFFFFFFFFFF
310
FFFFFFFFFFFFFFFFFFFFFFFFFFFFFFFFFFFFFFFFFFFFFFFFF000FFFFFFFFFFFF
310
FFFFFFFFFFFFFFFFFFFFFFFFFFFFFFFFFFFFFFFFFFFFFFFFFFFFFFFFFFFFFFFF
310
FFFFFFFFFFFFFFFFFFFFFFFFFFFFFFFFFFFFFFFFFFFFFFFFFFFFFFFFFFFFFFFF
310
FFFFFFFFFFFFFFFFFFFFFFFFFFFFFFFFF000FFFFFFFFFFFFFFFFFFFFFFFFFFFF
310
FFFFFFFFFFFFFFFFFFFFFFFFFFFFFFFFFFFFFFFFFFFFFFFFFFFFFFFFFFFFFFFF
310
FFFFFFFFFFFFFFFFFFFFFFFFFFFFFFFFFFFFFFFFFFFFFFFFFFFFFFFFFFFFFFFF
310
FFFFFFFFFFFFFFFFF000FFFFFFFFFFFFFFFFFFFFFFFFFFFFFFFFFFFFFFFFFFFF
310
FFFFFFFFFFFFFFFFFFFFFFFFFFFFFFFFFFFFFFFFFFFFFFFFFFFFFFFFFFFFFFFF
310
FFFFFFFFFFFFFFFFFFFFFFFFFFFFFFFFFFFFFFFFFFFFFFFFFFFFFFFFFFFFFFFF
310
F000FFFFFFFFFFFFFFFFFFFFFFFFFFFFFFFFFFFFFFFFFFFFFFFFFFFFFFFFFFFF
310
FFFFFFFFFFFFFFFFFFFFFFFFFFFFFFFFFFFFFFFFFFFFFFFFFFFFFFFFFFFFFFFF
310
FFFFFFFFFFFFFFFFFFFFFFFFFFFFFFFFFFFFFFFFFFFFFFFFF000FFFFFFFFFFFF
310
FFFFFFFFFFFFFFFFFFFFFFFFFFFFFFFFFFFFFFFFFFFFFFFFFFFFFFFFFFFFFFFF
310
FFFFFFFFFFFFFFFFFFFFFFFFFFFFFFFFFFFFFFFFFFFFFFFFFFFFFFFFFFFFFFFF
310
FFFFFFFFFFFFFFFFFFFFFFFFFFFFFFFFF000FFFFFFFFFFFFFFFFFFFFFFFFFFFF
310
FFFFFFFFFFFFFFFFFFFFFFFFFFFFFFFFFFFFFFFFFFFFFFFFFFFFFFFFFFFFFFFF
310
FFFFFFFFFFFFFFFFFFFFFFFFFFFFFFFFFFFFFFFFFFFFFFFFFFFFFFFFFFFFFFFF
310
FFFFFFFFFFFFFFFFF000FFFFFFFFFFFFFFFFFFFFFFFFFFFFFFFFFFFFFFFFFFFF
310
FFFFFFFFFFFFFFFFFFFFFFFFFFFFFFFFFFFFFFFFFFFFFFFFFFFFFFFFFFFFFFFF
310
FFFFFFFFFFFFFFFFFFFFFFFFFFFFFFFFFFFFFFFFFFFFFFFFFFFFFFFFFFFFFFFF
310
F000FFFFFFFFFFFFFFFFFFFFFFFFFFFFFFFFFFFFFFFFFFFFFFFFFFFFFFFFFFFF
310
FFFFFFFFFFFFFFFFFFFFFFFFFFFFFFFFFFFFFFFFFFFFFFFFFFFFFFFFFFFFFFFF
310
FFFFFFFFFFFFFFFFFFFFFFFFFFFFFFFFFFFFFFFFFFFFFFFFF000FFFFFFFFFFFF
310
FFFFFFFFFFFFFFFFFFFFFFFFFFFFFFFFFFFFFFFFFFFFFFFFFFFFFFFFFFFFFFFF
310
FFFFFFFFFFFFFFFFFFFFFFFFFFFFFFFFFFFFFFFFFFFFFFFFFFFFFFFFFFFFFFFF
310
FFFFFFFFFFFFFFFFFFFFFFFFFFFFFFFFF000FFFFFFFFFFFFFFFFFFFFFFFFFFFF
310
FFFFFFFFFFFFFFFFFFFFFFFFFFFFFFFFFFFFFFFFFFFFFFFFFFFFFFFFFFFFFFFF
310
FFFFFFFFFFFFFFFFFFFFFFFFFFFFFFFFFFFFFFFFFFFFFFFFFFFFFFFFFFFFFFFF
310
FFFFFFFFFFFFFFFFF000FFFFFFFFFFFFFFFFFFFFFFFFFFFFFFFFFFFFFFFFFFFF
310
FFFFFFFFFFFFFFFFFFFFFFFFFFFFFFFFFFFFFFFFFFFFFFFFFFFFFFFFFFFFFFFF
310
FFFFFFFFFFFFFFFFFFFFFFFFFFFFFFFFFFFFFFFFFFFFFFFFFFFFFFFFFFFFFFFF
310
F000FFFFFFFFFFFFFFFFFFFFFFFFFFFFFFFFFFFFFFFFFFFFFFFFFFFFFFFFFFFF
310
FFFFFFFFFFFFFFFFFFFFFFFFFFFFFFFFFFFFFFFFFFFFFFFFFFFFFFFFFFFFFFFF
310
FFFFFFFFFFFFFFFFFFFFFFFFFFFFFFFFFFFFFFFFFFFFFFFFF000FFFFFFFFFFFF
310
FFFFFFFFFFFFFFFFFFFFFFFFFFFFFFFFFFFFFFFFFFFFFFFFFFFFFFFFFFFFFFFF
310
FFFFFFFFFFFFFFFFFFFFFFFFFFFFFFFFFFFFFFFFFFFFFFFFFFFFFFFFFFFFFFFF
310
FFFFFFFFFFFFFFFFFFFFFFFFFFFFFFFFF000FFFFFFFFFFFFFFFFFFFFFFFFFFFF
310
FFFFFFFFFFFFFFFFFFFFFFFFFFFFFFFFFFFFFFFFFFFFFFFFFFFFFFFFFFFFFFFF
310
FFFFFFFFFFFFFFFFFFFFFFFFFFFFFFFFFFFFFFFFFFFFFFFFFFFFFFFFFFFFFFFF
310
FFFFFFFFFFFFFFFFF000FFFFF80003FFFFFFFFFFFFFFFFFFFFFFFFFFFFFFFFFF
310
FFFFF00007FFFFFFFFFF00007FFFFFF800000000000000007FFFFFFFFFFFFFFF
310
FFFFFFFC001FFFFFFFFFFFFFFC001FFFFFFFFFFFFFFFFFFFFFFFFFFE0007FFFF
310
F000FFFF8000007FFFFFFFF8000FFFFFC0007FFFFF80007FFFFF0000007FFFFF
310
FFF8000007FFFFF800000000000000007FFFFFF0001FFFFFFFFFFFC00001FFFF
310
FFFFFFFFC00001FFFFFFFF000000000003FFFFE000007FFFF000FFFE0000000F
310
FFFFFFF0000FFFFF80007FFFFF80007FFFFC0000001FFFFFFFC0000001FFFFF8
310
00000000000000007FFFFFF0001FFFFFFFFFFE0000003FFFFFFFFFFE0000003F
310
FFFFFF000000000003FFFF0000000FFFF000FFF800000003FFFFFFF00007FFFF
310
80007FFFFF80007FFFF000000007FFFFFF000000003FFFF80000000000000000
310
7FFFFFF0001FFFFFFFFFF80000000FFFFFFFFFF80000000FFFFFFF0000000000
310
03FFFC00000003FFF000FFE000000000FFFFFFF00007FFFF80003FFFFF80007F
310
FFC000000001FFFFFC000000001FFFF800000000000000007FFFFFF0001FFFFF
310
FFFFE000000003FFFFFFFFE000000003FFFFFF000000000003FFF000000000FF
310
F000FF80000000007FFFFFF00007FFFF80003FFFFF80007FFF8000000000FFFF
310
F80000000007FFF800000000000000007FFFFFF0001FFFFFFFFFC000000001FF
310
FFFFFFC000000001FFFFFF000000000003FFC0000000007FF000FF0000000000
310
3FFFFFE00007FFFF00003FFFFF80007FFE00000000003FFFF00000000003FFF8
310
00000000000000007FFFFFF0001FFFFFFFFF8000000000FFFFFFFF8000000000
310
FFFFFF000000000003FF80000000003FF000FE00000000001FFFFFE00003FFFF
310
00003FFFFF80007FFC00000000001FFFE00000000001FFF8000001FFFE000000
310
7FFFFFF0001FFFFFFFFE00000000003FFFFFFE00000000003FFFFF0000000000
310
03FF00000000001FF000FC00000000000FFFFFE00003FFFF00001FFFFF80007F
310
F800000000001FFFC00000000000FFF8000001FFFE0000007FFFFFF0001FFFFF
310
FFFC00000000001FFFFFFC00000000001FFFFF000000000003FE00000000000F
310
F000F8000000000007FFFFE00003FFFF00001FFFFF80007FF800000000000FFF
310
800000000000FFF8000001FFFE0000007FFFFFF0001FFFFFFFF800000000000F
310
FFFFF800000000000FFFFF000000000003FC000000000007F000F80000000000
310
03FFFFC00003FFFE00001FFFFF80007FF0000000000007FF0000000000007FF8
310
000001FFFE0000007FFFFFF0001FFFFFFFF0000000000007FFFFF00000000000
310
07FFFF000000000003F8000000000003F000F0000000000003FFFFC00001FFFE
310
00001FFFFF80007FE0000000000007FE0000000000003FF8000001FFFE000000
310
7FFFFFF0001FFFFFFFF0000000000007FFFFF0000000000007FFFF0000000000
310
03F800001F800003F000E00001FFF00001FFFFC00001FFFE00000FFFFF80007F
310
E00001FFE00003FE00001FFF00003FF8000001FFFE0000007FFFFFF0001FFFFF
310
FFE000003E000003FFFFE000003E000003FFFF000000000003F00001FFF80001
310
F000E00007FFFC0001FFFFC00001FFFE00000FFFFF80007FC0000FFFFC0003FC
310
0000FFFFC0001FF8000001FFFE0000007FFFFFF0001FFFFFFFC00003FFE00001
310
FFFFC00003FFE00001FFFF0001FFFFFFFFF00007FFFE0001F000E0000FFFFF00
310
00FFFF800001FFFC00000FFFFF80007FC0001FFFFE0001FC0001FFFFE0001FF8
310
000001FFFE0000007FFFFFF0001FFFFFFF80000FFFF80000FFFF80000FFFF800
310
00FFFF0003FFFFFFFFE0000FFFFF8000F000C0003FFFFF8000FFFF800000FFFC
310
000007FFFF80007F80003FFFFF0001FC0003FFFFF0001FF8000001FFFE000000
310
7FFFFFF0001FFFFFFF80003FFFFE0000FFFF80003FFFFE0000FFFF0003FFFFFF
310
FFE0003FFFFF8000F000C0003FFFFF8000FFFF800000FFFC000007FFFF80007F
310
80007FFFFF8001F80007FFFFF8000FF8000001FFFE0000007FFFFFF0001FFFFF
310
FF00007FFFFF00007FFF00007FFFFF00007FFF0003FFFFFFFFE0003FFFFFC000
310
F000C0007FFFFFC000FFFF000000FFFC000007FFFF80007F8000FFFFFF8000F8
310
000FFFFFF8000FF8000001FFFE0000007FFFFFF0001FFFFFFF0000FFFFFF8000
310
7FFF0000FFFFFF80007FFF0003FFFFFFFFC0007FFFFFC00070008000FFFFFFC0
310
00FFFF000000FFF8000007FFFF80007F8000FFFFFF8000F8000FFFFFF8000FF8
310
000001FFFE0000007FFFFFF0001FFFFFFE0001FFFFFFC0003FFE0001FFFFFFC0
310
003FFF0003FFFFFFFFC0007FFFFFE00070008000FFFFFFC0007FFF0000007FF8
310
000003FFFF80007F0001FFFFFF8000F8000FFFFFF8000FF8000001FFFE000000
310
7FFFFFF0001FFFFFFE0001FFFFFFC0003FFE0001FFFFFFC0003FFF0003FFFFFF
310
FFC000FFFFFFE00070008000FFFFFFC0007FFF0000007FF8000003FFFF80007F
310
0001FFFFFF8000F8001FFFFFF8000FF8000001FFFE0000007FFFFFF0001FFFFF
310
FE0003FFFFFFE0003FFE0003FFFFFFE0003FFF0003FFFFFFFFC000FFFFFFE000
310
70008000FFFFFFC0007FFE0000007FF8000003FFFF80007F0001FFFFFF8000F0
310
001FFFFFF8000FF8000001FFFE0000007FFFFFF0001FFFFFFC0003FFFFFFE000
310
1FFC0003FFFFFFE0001FFF0003FFFFFFFFC000FFFFFFC00070008000FFFFFF80
310
007FFE0000007FF0000003FFFF80007F0001FFFFFF0000F0001FFFFFF8000FF8
310
000001FFFE0000007FFFFFF0001FFFFFFC0007FFFFFFF0001FFC0007FFFFFFF0
310
001FFF0003FFFFFFFFC000FFFFFFC00070008001FFFFFF0000FFFE0000003FF0
310
000001FFFF80007F0001FFFFFF0000F8001FFFFFF0000FF8000001FFFE000000
310
7FFFFFF0001FFFFFFC0007FFFFFFF0001FFC0007FFFFFFF0001FFF0003FFFFFF
310
FFC001FFFFFF80007000FFFFFFFFFE0000FFFE0008003FF0008001FFFF80007F
310
FFFFFFFFFC0000FFFFFFFFFFE0000FF8000001FFFE0000007FFFFFF0001FFFFF
310
F8000FFFFFFFF8000FF8000FFFFFFFF8000FFF0003FFFFFFFFFFFFFFFFFF0000
310
7000FFFFFFFFFC0000FFFC0008003FF0008001FFFF80007FFFFFFFFFF80001FF
310
FFFFFFFF80000FF8000001FFFE0000007FFFFFF0001FFFFFF8000FFFFFFFF800
310
0FF8000FFFFFFFF8000FFF0003FFFFFFFFFFFFFFFFFE0000F000FFFFFFFFE000
310
00FFFC000C003FE000C001FFFF80007FFFFFFFFFC00001FFFFFFFFFE00001FF8
310
000001FFFE0000007FFFFFF0001FFFFFF8000FFFFFFFF8000FF8000FFFFFFFF8
310
000FFF0003FFFFFFFFFFFFFFFFF00000F000FFFFFFFE000001FFFC000C001FE0
310
00C000FFFF80007FFFFFFFFE000001FFFFFFFFE000001FF80FFFFFFFFFFFFFC0
310
7FFFFFF0001FFFFFF8000FFFFFFFF8000FF8000FFFFFFFF8000FFF0003FFFFFF
310
FFFFFFFFFF800000F000FFFFFFC0000001FFFC001C001FE001C000FFFF80007F
310
FFFFFF80000003FFFFFFF80000001FF80FFFFFFFFFFFFFC07FFFFFF0001FFFFF
310
F8001FFFFFFFFC000FF8001FFFFFFFFC000FFF0003FFFFFFFFFFFFFFF0000001
310
F000FFFFF800000001FFF8001C001FE001C000FFFF80007FFFFFF800000003FF
310
FFFF800000003FF80FFFFFFFFFFFFFC07FFFFFF0001FFFFFF8001FFFFFFFFC00
310
0FF8001FFFFFFFFC000FFF0003FFFFFFFFFFFFFE00000001F000FFFFC0000000
310
03FFF8001E001FC001E000FFFF80007FFFFF8000000007FFFFFC000000003FF8
310
0FFFFFFFFFFFFFC07FFFFFF0001FFFFFF8001FFFFFFFFC000FF8001FFFFFFFFC
310
000FFF0003FFFFFFFFFFFFE000000003F000FFFE0000000007FFF8001E000FC0
310
01E0007FFF80007FFFFE0000000007FFFFE0000000007FF80FFFFFFFFFFFFFC0
310
7FFFFFF0001FFFFFF0001FFFFFFFFC0007F0001FFFFFFFFC0007FF0003FFFFFF
310
FFFFFF0000000003F000FFF80000000007FFF8001E000FC003E0007FFF80007F
310
FFF0000000000FFFFF8000000000FFF80FFFFFFFFFFFFFC07FFFFFF0001FFFFF
310
F0001FFFFFFFFC0007F0001FFFFFFFFC0007FF0003FFFFFFFFFFFC0000000007
310
F000FFE0000000000FFFF0003E000FC003E0007FFF80007FFFC0000000001FFF
310
FE0000000001FFF80FFFFFFFFFFFFFC07FFFFFF0001FFFFFF0001FFFFFFFFC00
310
07F0001FFFFFFFFC0007FF0003FFFFFFFFFFF0000000000FF000FFC000000000
310
1FFFF0003F000F8003F0003FFF80007FFF80000000003FFFF80000000003FFF8
310
0FFFFFFFFFFFFFC07FFFFFF0001FFFFFF0001FFFFFFFFC0007F0001FFFFFFFFC
310
0007FF0003FFFFFFFFFFE0000000001FF000FF00000000007FFFF0003F000780
310
03F0003FFF80007FFF00000000007FFFF00000000007FFF80FFFFFFFFFFFFFC0
310
7FFFFFF0001FFFFFF0001FFFFFFFFC0007F0001FFFFFFFFC0007FF0003FFFFFF
310
FFFF80000000007FF000FE0000000000FFFFE0003F00078007F0003FFF80007F
310
FE0000000001FFFFE0000000001FFFF80FFFFFFFFFFFFFC07FFFFFF0001FFFFF
310
F0001FFFFFFFFC0007F0001FFFFFFFFC0007FF0003FFFFFFFFFF0000000000FF
310
F000FC0000000003FFFFE0007F00078007F0003FFF80007FFC0000000007FFFF
310
C0000000007FFFF80FFFFFFFFFFFFFC07FFFFFF0001FFFFFF8001FFFFFFFFC00
310
0FF8001FFFFFFFFC000FFF0003FFFFFFFFFE0000000003FFF000FC000000000F
310
FFFFE0007F80070007F8001FFF80007FF8000000001FFFFF8000000001FFFFF8
310
0FFFFFFFFFFFFFC07FFFFFF0001FFFFFF8001FFFFFFFFC000FF8001FFFFFFFFC
310
000FFF0003FFFFFFFFFC000000000FFFF000F8000000007FFFFFE0007F800700
310
07F8001FFF80007FF000000000FFFFFF800000000FFFFFF80FFFFFFFFFFFFFC0
310
7FFFFFF0001FFFFFF8000FFFFFFFF8000FF8000FFFFFFFF8000FFF0003FFFFFF
310
FFFC000000007FFFF000F800000007FFFFFFC0007F8003000FF8001FFF80007F
310
F000000007FFFFFF000000007FFFFFF80FFFFFFFFFFFFFC07FFFFFF0001FFFFF
310
F8000FFFFFFFF8000FF8000FFFFFFFF8000FFF0003FFFFFFFFF80000000FFFFF
310
F000F0000000FFFFFFFFC000FF8003000FF8001FFF80007FE0000000FFFFFFFF
310
0000000FFFFFFFF8000001FFFE0000007FFFFFF0001FFFFFF8000FFFFFFFF800
310
0FF8000FFFFFFFF8000FFF0003FFFFFFFFF8000000FFFFFFF000F000000FFFFF
310
FFFFC000FFC002000FF8000FFF80007FE000001FFFFFFFFE000001FFFFFFFFF8
310
000001FFFE0000007FFFFFF0001FFFFFF8000FFFFFFFF8000FF8000FFFFFFFF8
310
000FFF0003FFFFFFFFF000001FFFFFFFF000E00000FFFFFFFFFFC000FFC00200
310
0FFC000FFF80007FE00001FFFFFFFFFE00001FFFFFFFFFF8000001FFFE000000
310
7FFFFFF0001FFFFFFC000FFFFFFFF8001FFC000FFFFFFFF8001FFF0003FFFFFF
310
FFF00001FFFFFFFFF000E00007FFFFFFFFFF8000FFC000001FFC000FFF80007F
310
C0000FFFFFFFFFFE0000FFFFFFFFFFF8000001FFFE0000007FFFFFF0001FFFFF
310
FC0007FFFFFFF0001FFC0007FFFFFFF0001FFF0003FFFFFFFFF00007FFFFFFFF
310
F000E0001FFFFFFFFFFF8000FFC000001FFC000FFF80007FC0003FFFFFFFFFFE
310
0001FFFFFFFFFFF8000001FFFE0000007FFFFFF0001FFFFFFC0007FFFFFFF000
310
1FFC0007FFFFFFF0001FFF0003FFFFFFFFF0001FFFFFFFFFF000E0003FFFFF00
310
03FF8001FFE000001FFC0007FF80007FC0007FFFFF0007FC0003FFFFF0003FF8
310
000001FFFE0000007FFFFFF0001FFFFFFC0003FFFFFFE0001FFC0003FFFFFFE0
310
001FFF0003FFFFFFFFF0003FFFFFFFFFF000E0003FFFFF0001FF8001FFE00000
310
1FFE0007FF80007FC0007FFFFE0003FC0007FFFFE0003FF8000001FFFE000000
310
7FFFFFF0001FFFFFFE0003FFFFFFE0003FFE0003FFFFFFE0003FFF0003FFFFFF
310
FFF0003FFFFF8001F000E0003FFFFF0001FF0001FFE000001FFE0007FF80007F
310
C0007FFFFE0003FC0007FFFFE0003FF8000001FFFE0000007FFFFFF0001FFFFF
310
FE0001FFFFFFC0003FFE0001FFFFFFC0003FFF0003FFFFFFFFF0003FFFFF0001
310
F000E0003FFFFF0003FF0001FFE000003FFE0007FF80007FC0007FFFFE0003FC
310
0007FFFFE0003FF8000001FFFE0000007FFFFFF0001FFFFFFF0001FFFFFFC000
310
7FFF0001FFFFFFC0007FFF0003FFFFFFFFF0003FFFFF0001F000E0003FFFFE00
310
03FF0003FFF000003FFE0003FF80007FC0007FFFFC0003FE0007FFFFE0003FF8
310
000001FFFE0000007FFFFFF0001FFFFFFF0000FFFFFF80007FFF0000FFFFFF80
310
007FFF0003FFFFFFFFF0003FFFFF0001F000E0003FFFFE0003FF0003FFF00000
310
3FFF0003FF80007FC0007FFFFC0007FE0007FFFFC0003FF8000001FFFE000000
310
7FFFFFF0001FFFFFFF80007FFFFF0000FFFF80007FFFFF0000FFFF0003FFFFFF
310
FFF0003FFFFF0003F000E0003FFFFC0003FE0003FFF000003FFF0003FF80007F
310
E0003FFFF80007FE0003FFFFC0007FF8000001FFFE0000007FFFFFF0001FFFFF
310
FF80003FFFFE0000FFFF80003FFFFE0000FFFF0003FFFFFFFFF0001FFFFE0003
310
F000F0001FFFF80003FE0003FFF000007FFF0001FF80007FE0003FFFF00007FE
310
0001FFFF80007FF8000001FFFE0000007FFFFFF0001FFFFFFFC0000FFFF80001
310
FFFFC0000FFFF80001FFFF0003FFFFFFFFF0001FFFFC0003F000F0000FFFF000
310
07FE0007FFF800007FFF0001FF80007FE0001FFFE00007FF0000FFFE00007FF8
310
000001FFFE0000007FFFFFF0001FFFFFFFC00003FFE00001FFFFC00003FFE000
310
01FFFF0003FFFFFFFFF8000FFFF80003F000F00003FFC00007FC0007FFF80000
310
7FFF8001FF80007FF00007FF80000FFF00007FF80000FFF8000001FFFE000000
310
7F80000000000001FFE000003E000003FFFFE000003E000003FFFF0003FFFFFF
310
FFF80003FFE00007F000F800000000000FFC0007FFF800007FFF8001FF80007F
310
F000000000000FFF000000000000FFF8000001FFFE0000007F80000000000001
310
FFF0000000000007FFFFF0000000000007FFFF0003FFFFFFFFFC00007E000007
310
F000F800000000000FFC0007FFF80000FFFF8000FF80007FF800000000001FFF
310
800000000001FFF8000001FFFE0000007F80000000000001FFF800000000000F
310
FFFFF800000000000FFFFF0003FFFFFFFFFC00000000000FF000FC0000000000
310
1FFC0007FFFC0000FFFF8000FF80007FF800000000003FFFC00000000001FFF8
310
000001FFFE0000007F80000000000001FFF800000000000FFFFFF80000000000
310
0FFFFF0003FFFFFFFFFE00000000001FF000FE00000000003FF8000FFFFC0000
310
FFFF8000FF80007FFC00000000003FFFC00000000003FFF8000001FFFE000000
310
7F80000000000001FFFC00000000001FFFFFFC00000000001FFFFF0003FFFFFF
310
FFFF00000000001FF000FF00000000003FF8000FFFFC0000FFFFC000FF80007F
310
FE00000000007FFFE00000000007FFF8000001FFFE0000007F80000000000001
310
FFFE00000000003FFFFFFE00000000003FFFFF0003FFFFFFFFFF80000000003F
310
F000FF80000000007FF8000FFFFC0001FFFFC0007F80007FFF0000000000FFFF
310
F0000000000FFFF800000000000000007F80000000000001FFFF8000000000FF
310
FFFFFF8000000000FFFFFF0003FFFFFFFFFFC0000000007FF000FFC000000000
310
FFF8000FFFFE0001FFFFC0007F80007FFF8000000001FFFFF8000000001FFFF8
310
00000000000000007F80000000000001FFFFC000000001FFFFFFFFC000000001
310
FFFFFF0003FFFFFFFFFFE000000000FFF000FFE000000003FFF0001FFFFE0001
310
FFFFC0007F80007FFFC000000007FFFFFE000000003FFFF80000000000000000
310
7F80000000000001FFFFE000000003FFFFFFFFE000000003FFFFFF0003FFFFFF
310
FFFFF000000003FFF000FFF80000000FFFF0001FFFFE0001FFFFE0007F80007F
310
FFF00000000FFFFFFF00000000FFFFF800000000000000007F80000000000001
310
FFFFF80000000FFFFFFFFFF80000000FFFFFFF0003FFFFFFFFFFFC0000000FFF
310
F000FFFE0000003FFFF0001FFFFE0003FFFFE0003F80007FFFFC0000003FFFFF
310
FFC0000003FFFFF800000000000000007F80000000000001FFFFFE0000003FFF
310
FFFFFFFE0000003FFFFFFF0003FFFFFFFFFFFF0000003FFFF000FFFF800000FF
310
FFF0001FFFFF0003FFFFE0003F80007FFFFF000001FFFFFFFFF800001FFFFFF8
310
00000000000000007F80000000000001FFFFFFC00001FFFFFFFFFFFFC00001FF
310
FFFFFF0003FFFFFFFFFFFFC00000FFFFF000FFFFF8000FFFFFFFFFFFFFFFFFFF
310
FFFFFFFFFFFFFFFFFFFFF0001FFFFFFFFFFF0000FFFFFFF80000000000000000
310
7FFFFFFFFFFFFFFFFFFFFFFC001FFFFFFFFFFFFFFC001FFFFFFFFFFFFFFFFFFF
310
FFFFFFFC001FFFFFF000FFFFFFFFFFFFFFFFFFFFFFFFFFFFFFFFFFFFFFFFFFFF
310
FFFFFFFFFFFFFFFFFFFFFFFFFFFFFFFFFFFFFFFFFFFFFFFFFFFFFFFFFFFFFFFF
310
FFFFFFFFFFFFFFFFFFFFFFFFFFFFFFFFFFFFFFFFFFFFFFFFFFFFFFFFFFFFFFFF
310
F000FFFFFFFFFFFFFFFFFFFFFFFFFFFFFFFFFFFFFFFFFFFFFFFFFFFFFFFFFFFF
310
FFFFFFFFFFFFFFFFFFFFFFFFFFFFFFFFFFFFFFFFFFFFFFFFFFFFFFFFFFFFFFFF
310
FFFFFFFFFFFFFFFFFFFFFFFFFFFFFFFFFFFFFFFFFFFFFFFFF000FFFFFFFFFFFF
310
FFFFFFFFFFFFFFFFFFFFFFFFFFFFFFFFFFFFFFFFFFFFFFFFFFFFFFFFFFFFFFFF
310
FFFFFFFFFFFFFFFFFFFFFFFFFFFFFFFFFFFFFFFFFFFFFFFFFFFFFFFFFFFFFFFF
310
FFFFFFFFFFFFFFFFFFFFFFFFFFFFFFFFF000FFFFFFFFFFFFFFFFFFFFFFFFFFFF
310
FFFFFFFFFFFFFFFFFFFFFFFFFFFFFFFFFFFFFFFFFFFFFFFFFFFFFFFFFFFFFFFF
310
FFFFFFFFFFFFFFFFFFFFFFFFFFFFFFFFFFFFFFFFFFFFFFFFFFFFFFFFFFFFFFFF
310
FFFFFFFFFFFFFFFFF000FFFFFFFFFFFFFFFFFFFFFFFFFFFFFFFFFFFFFFFFFFFF
310
FFFFFFFFFFFFFFFFFFFFFFFFFFFFFFFFFFFFFFFFFFFFFFFFFFFFFFFFFFFFFFFF
310
FFFFFFFFFFFFFFFFFFFFFFFFFFFFFFFFFFFFFFFFFFFFFFFFFFFFFFFFFFFFFFFF
310
F000FFFFFFFFFFFFFFFFFFFFFFFFFFFFFFFFFFFFFFFFFFFFFFFFFFFFFFFFFFFF
310
FFFFFFFFFFFFFFFFFFFFFFFFFFFFFFFFFFFFFFFFFFFFFFFFFFFFFFFFFFFFFFFF
310
FFFFFFFFFFFFFFFFFFFFFFFFFFFFFFFFFFFFFFFFFFFFFFFFF000FFFFFFFFFFFF
310
FFFFFFFFFFFFFFFFFFFFFFFFFFFFFFFFFFFFFFFFFFFFFFFFFFFFFFFFFFFFFFFF
310
FFFFFFFFFFFFFFFFFFFFFFFFFFFFFFFFFFFFFFFFFFFFFFFFFFFFFFFFFFFFFFFF
310
FFFFFFFFFFFFFFFFFFFFFFFFFFFFFFFFF000FFFFFFFFFFFFFFFFFFFFFFFFFFFF
310
FFFFFFFFFFFFFFFFFFFFFFFFFFFFFFFFFFFFFFFFFFFFFFFFFFFFFFFFFFFFFFFF
310
FFFFFFFFFFFFFFFFFFFFFFFFFFFFFFFFFFFFFFFFFFFFFFFFFFFFFFFFFFFFFFFF
310
FFFFFFFFFFFFFFFFF000FFFFFFFFFFFFFFFFFFFFFFFFFFFFFFFFFFFFFFFFFFFF
310
FFFFFFFFFFFFFFFFFFFFFFFFFFFFFFFFFFFFFFFFFFFFFFFFFFFFFFFFFFFFFFFF
310
FFFFFFFFFFFFFFFFFFFFFFFFFFFFFFFFFFFFFFFFFFFFFFFFFFFFFFFFFFFFFFFF
310
F000FFFFFFFFFFFFFFFFFFFFFFFFFFFFFFFFFFFFFFFFFFFFFFFFFFFFFFFFFFFF
310
FFFFFFFFFFFFFFFFFFFFFFFFFFFFFFFFFFFFFFFFFFFFFFFFFFFFFFFFFFFFFFFF
310
FFFFFFFFFFFFFFFFFFFFFFFFFFFFFFFFFFFFFFFFFFFFFFFFF000FFFFFFFFFFFF
310
FFFFFFFFFFFFFFFFFFFFFFFFFFFFFFFFFFFFFFFFFFFFFFFFFFFFFFFFFFFFFFFF
310
FFFFFFFFFFFFFFFFFFFFFFFFFFFFFFFFFFFFFFFFFFFFFFFFFFFFFFFFFFFFFFFF
310
FFFFFFFFFFFFFFFFFFFFFFFFFFFFFFFFF000FFFFFFFFFFFFFFFFFFFFFFFFFFFF
310
FFFFFFFFFFFFFFFFFFFFFFFFFFFFFFFFFFFFFFFFFFFFFFFFFFFFFFFFFFFFFFFF
310
FFFFFFFFFFFFFFFFFFFFFFFFFFFFFFFFFFFFFFFFFFFFFFFFFFFFFFFFFFFFFFFF
310
FFFFFFFFFFFFFFFFF000FFFFFFFFFFFFFFFFFFFFFFFFFFFFFFFFFFFFFFFFFFFF
310
FFFFFFFFFFFFFFFFFFFFFFFFFFFFFFFFFFFFFFFFFFFFFFFFFFFFFFFFFFFFFFFF
310
FFFFFFFFFFFFFFFFFFFFFFFFFFFFFFFFFFFFFFFFFFFFFFFFFFFFFFFFFFFFFFFF
310
F000FFFFFFFFFFFFFFFFFFFFFFFFFFFFFFFFFFFFFFFFFFFFFFFFFFFFFFFFFFFF
310
FFFFFFFFFFFFFFFFFFFFFFFFFFFFFFFFFFFFFFFFFFFFFFFFFFFFFFFFFFFFFFFF
310
FFFFFFFFFFFFFFFFFFFFFFFFFFFFFFFFFFFFFFFFFFFFFFFFF000FFFFFFFFFFFF
310
FFFFFFFFFFFFFFFFFFFFFFFFFFFFFFFFFFFFFFFFFFFFFFFFFFFFFFFFFFFFFFFF
310
FFFFFFFFFFFFFFFFFFFFFFFFFFFFFFFFFFFFFFFFFFFFFFFFFFFFFFFFFFFFFFFF
310
FFFFFFFFFFFFFFFFFFFFFFFFFFFFFFFFF000FFFFFFFFFFFFFFFFFFFFFFFFFFFF
310
FFFFFFFFFFFFFFFFFFFFFFFFFFFFFFFFFFFFFFFFFFFFFFFFFFFFFFFFFFFFFFFF
310
FFFFFFFFFFFFFFFFFFFFFFFFFFFFFFFFFFFFFFFFFFFFFFFFFFFFFFFFFFFFFFFF
310
FFFFFFFFFFFFFFFFF000FFFFFFFFFFFFFFFFFFFFFFFFFFFFFFFFFFFFFFFFFFFF
310
FFFFFFFFFFFFFFFFFFFFFFFFFFFFFFFFFFFFFFFFFFFFFFFFFFFFFFFFFFFFFFFF
310
FFFFFFFFFFFFFFFFFFFFFFFFFFFFFFFFFFFFFFFFFFFFFFFFFFFFFFFFFFFFFFFF
310
F000FFFFFFFFFFFFFFFFFFFFFFFFFFFFFFFFFFFFFFFFFFFFFFFFFFFFFFFFFFFF
310
FFFFFFFFFFFFFFFFFFFFFFFFFFFFFFFFFFFFFFFFFFFFFFFFFFFFFFFFFFFFFFFF
310
FFFFFFFFFFFFFFFFFFFFFFFFFFFFFFFFFFFFFFFFFFFFFFFFF000FFFFFFFFFFFF
310
FFFFFFFFFFFFFFFFFFFFFFFFFFFFFFFFFFFFFFFFFFFFFFFFFFFFFFFFFFFFFFFF
310
FFFFFFFFFFFFFFFFFFFFFFFFFFFFFFFFFFFFFFFFFFFFFFFFFFFFFFFFFFFFFFFF
310
FFFFFFFFFFFFFFFFFFFFFFFFFFFFFFFFF000FFFFFFFFFFFFFFFFFFFFFFFFFFFF
310
FFFFFFFFFFFFFFFFFFFFFFFFFFFFFFFFFFFFFFFFFFFFFFFFFFFFFFFFFFFFFFFF
310
FFFFFFFFFFFFFFFFFFFFFFFFFFFFFFFFFFFFFFFFFFFFFFFFFFFFFFFFFFFFFFFF
310
FFFFFFFFFFFFFFFFF000FFFFFFFFFFFFFFFFFFFFFFFFFFFFFFFFFFFFFFFFFFFF
310
FFFFFFFFFFFFFFFFFFFFFFFFFFFFFFFFFFFFFFFFFFFFFFFFFFFFFFFFFFFFFFFF
310
FFFFFFFFFFFFFFFFFFFFFFFFFFFFFFFFFFFFFFFFFFFFFFFFFFFFFFFFFFFFFFFF
310
F000FFFFFFFFFFFFFFFFFFFFFFFFFFFFFFFFFFFFFFFFFFFFFFFFFFFFFFFFFFFF
310
FFFFFFFFFFFFFFFFFFFFFFFFFFFFFFFFFFFFFFFFFFFFFFFFFFFFFFFFFFFFFFFF
310
FFFFFFFFFFFFFFFFFFFFFFFFFFFFFFFFFFFFFFFFFFFFFFFFF000FFFFFFFFFFFF
310
FFFFFFFFFFFFFFFFFFFFFFFFFFFFFFFFFFFFFFFFFFFFFFFFFFFFFFFFFFFFFFFF
310
FFFFFFFFFFFFFFFFFFFFFFFFFFFFFFFFFFFFFFFFFFFFFFFFFFFFFFFFFFFFFFFF
310
FFFFFFFFFFFFFFFFFFFFFFFFFFFFFFFFF0000000000000000000000000000000
310
0000000000000000000000000000000000000000000000000000000000000000
310
0000000000000000000000000000000000000000000000000000000000000000
310
0000000000000000000000000000000000000000000000000000000000000000
310
0000000000000000000000000000000000000000000000000000000000000000
310
0000000000000000000000000000000000000000000000000000000000000000
310
0000000000000000000000000000000000000000000000000000000000000000
310
0000000000000000000000000000000000000000000000000000000000000000
310
0000000000000000000000000000000000000000000000000000000000000000
310
0000000000000000000000000000000000000000000000000000000000000000
310
0000000000000000000000000000000000000000000000000000000000000000
310
0000000000000000000000000000000000000000000000000000000000000000
310
0000000000000000000000000000000000000000000000000000000000000000
310
0000000000000000000000000000000000000000000000000000000000000000
310
0000000000000000000000000000000000000000000000000000000000000000
310
0000000000000000000000000000000000000000000000000000000000000000
  1
OLE
  0
ENDSEC
  0
SECTION
  2
OBJECTS
  0
DICTIONARY
  5
C
330
0
100
AcDbDictionary
281
     1
  3
ACAD_GROUP
350
D
  3
ACAD_LAYOUT
350
1A
  3
ACAD_MLINESTYLE
350
17
  3
ACAD_PLOTSETTINGS
350
19
  3
ACAD_PLOTSTYLENAME
350
E
  0
DICTIONARY
  5
D
102
{ACAD_REACTORS
330
C
102
}
330
C
100
AcDbDictionary
281
     1
  0
DICTIONARY
  5
1A
102
{ACAD_REACTORS
330
C
102
}
330
C
100
AcDbDictionary
281
     1
  3
Layout1
350
1E
  3
Layout2
350
26
  3
Model
350
22
  0
DICTIONARY
  5
17
102
{ACAD_REACTORS
330
C
102
}
330
C
100
AcDbDictionary
281
     1
  3
Standard
350
18
  0
DICTIONARY
  5
19
102
{ACAD_REACTORS
330
C
102
}
330
C
100
AcDbDictionary
281
     1
  0
ACDBDICTIONARYWDFLT
  5
E
102
{ACAD_REACTORS
330
C
102
}
330
C
100
AcDbDictionary
281
     1
  3
Normal
350
F
100
AcDbDictionaryWithDefault
340
F
  0
LAYOUT
  5
1E
102
{ACAD_REACTORS
330
1A
102
}
330
1A
100
AcDbPlotSettings
  1

  2
none_device
  4

  6

 40
0.0
 41
0.0
 42
0.0
 43
0.0
 44
0.0
 45
0.0
 46
0.0
 47
0.0
 48
0.0
 49
0.0
140
0.0
141
0.0
142
1.0
143
1.0
 70
   688
 72
     0
 73
     0
 74
     5
  7

 75
    16
147
1.0
148
0.0
149
0.0
100
AcDbLayout
  1
Layout1
 70
     1
 71
     1
 10
0.0
 20
0.0
 11
420.0
 21
297.0
 12
0.0
 22
0.0
 32
0.0
 14
1.0000000000E+20
 24
1.0000000000E+20
 34
1.0000000000E+20
 15
-1.0000000000E+20
 25
-1.0000000000E+20
 35
-1.0000000000E+20
146
0.0
 13
0.0
 23
0.0
 33
0.0
 16
1.0
 26
0.0
 36
0.0
 17
0.0
 27
1.0
 37
0.0
 76
     0
330
1B
  0
LAYOUT
  5
26
102
{ACAD_REACTORS
330
1A
102
}
330
1A
100
AcDbPlotSettings
  1

  2
none_device
  4

  6

 40
0.0
 41
0.0
 42
0.0
 43
0.0
 44
0.0
 45
0.0
 46
0.0
 47
0.0
 48
0.0
 49
0.0
140
0.0
141
0.0
142
1.0
143
1.0
 70
   688
 72
     0
 73
     0
 74
     5
  7

 75
    16
147
1.0
148
0.0
149
0.0
100
AcDbLayout
  1
Layout2
 70
     1
 71
     2
 10
0.0
 20
0.0
 11
0.0
 21
0.0
 12
0.0
 22
0.0
 32
0.0
 14
0.0
 24
0.0
 34
0.0
 15
0.0
 25
0.0
 35
0.0
146
0.0
 13
0.0
 23
0.0
 33
0.0
 16
1.0
 26
0.0
 36
0.0
 17
0.0
 27
1.0
 37
0.0
 76
     0
330
23
  0
LAYOUT
  5
22
102
{ACAD_REACTORS
330
1A
102
}
330
1A
100
AcDbPlotSettings
  1

  2
none_device
  4

  6

 40
0.0
 41
0.0
 42
0.0
 43
0.0
 44
0.0
 45
0.0
 46
0.0
 47
0.0
 48
0.0
 49
0.0
140
0.0
141
0.0
142
1.0
143
1.0
 70
  1712
 72
     0
 73
     0
 74
     0
  7

 75
     0
147
1.0
148
0.0
149
0.0
100
AcDbLayout
  1
Model
 70
     1
 71
     0
 10
0.0
 20
0.0
 11
297.0
 21
210.0
 12
0.0
 22
0.0
 32
0.0
 14
0.0
 24
0.0
 34
0.0
 15
297.0
 25
210.0
 35
0.0
146
0.0
 13
0.0
 23
0.0
 33
0.0
 16
1.0
 26
0.0
 36
0.0
 17
0.0
 27
1.0
 37
0.0
 76
     0
330
1F
331
29
  0
MLINESTYLE
  5
18
102
{ACAD_REACTORS
330
17
102
}
330
17
100
AcDbMlineStyle
  2
Standard
 70
     0
  3

 62
   256
 51
90.0
 52
90.0
 71
     2
 49
0.5
 62
   256
  6
BYLAYER
 49
-0.5
 62
   256
  6
BYLAYER
  0
ACDBPLACEHOLDER
  5
F
102
{ACAD_REACTORS
330
E
102
}
330
E
  0
ENDSEC
  0
EOF
