  0
SECTION
  2
HEADER
  9
$ACADVER
  1
AC1015
  9
$ACADMAINTVER
 70
     6
  9
$DWGCODEPAGE
  3
ANSI_1252
  9
$INSBASE
 10
0.0
 20
0.0
 30
0.0
  9
$EXTMIN
 10
0.0
 20
0.0
 30
0.0
  9
$EXTMAX
 10
297.0
 20
210.0
 30
0.0
  9
$LIMMIN
 10
0.0
 20
0.0
  9
$LIMMAX
 10
297.0
 20
210.0
  9
$ORTHOMODE
 70
     0
  9
$REGENMODE
 70
     1
  9
$FILLMODE
 70
     1
  9
$QTEXTMODE
 70
     0
  9
$MIRRTEXT
 70
     1
  9
$LTSCALE
 40
1.0
  9
$ATTMODE
 70
     1
  9
$TEXTSIZE
 40
2.0
  9
$TRACEWID
 40
1.0
  9
$TEXTSTYLE
  7
STANDARD
  9
$CLAYER
  8
0
  9
$CELTYPE
  6
ByLayer
  9
$CECOLOR
 62
   256
  9
$CELTSCALE
 40
1.0
  9
$DISPSILH
 70
     0
  9
$DIMSCALE
 40
1.0
  9
$DIMASZ
 40
3.0
  9
$DIMEXO
 40
0.0
  9
$DIMDLI
 40
3.75
  9
$DIMRND
 40
0.0
  9
$DIMDLE
 40
0.0
  9
$DIMEXE
 40
1.0
  9
$DIMTP
 40
0.0
  9
$DIMTM
 40
0.0
  9
$DIMTXT
 40
2.0
  9
$DIMCEN
 40
2.5
  9
$DIMTSZ
 40
0.0
  9
$DIMTOL
 70
     0
  9
$DIMLIM
 70
     0
  9
$DIMTIH
 70
     1
  9
$DIMTOH
 70
     1
  9
$DIMSE1
 70
     0
  9
$DIMSE2
 70
     0
  9
$DIMTAD
 70
     1
  9
$DIMZIN
 70
     0
  9
$DIMBLK
  1

  9
$DIMASO
 70
     1
  9
$DIMSHO
 70
     1
  9
$DIMPOST
  1

  9
$DIMAPOST
  1

  9
$DIMALT
 70
     0
  9
$DIMALTD
 70
     3
  9
$DIMALTF
 40
0.0393700787
  9
$DIMLFAC
 40
1.0
  9
$DIMTOFL
 70
     1
  9
$DIMTVP
 40
0.0
  9
$DIMTIX
 70
     0
  9
$DIMSOXD
 70
     0
  9
$DIMSAH
 70
     0
  9
$DIMBLK1
  1

  9
$DIMBLK2
  1

  9
$DIMSTYLE
  2
ISO-25
  9
$DIMCLRD
 70
     0
  9
$DIMCLRE
 70
     0
  9
$DIMCLRT
 70
     0
  9
$DIMTFAC
 40
1.0
  9
$DIMGAP
 40
1.524
  9
$DIMJUST
 70
     0
  9
$DIMSD1
 70
     0
  9
$DIMSD2
 70
     0
  9
$DIMTOLJ
 70
     0
  9
$DIMTZIN
 70
     0
  9
$DIMALTZ
 70
     0
  9
$DIMALTTZ
 70
     0
  9
$DIMUPT
 70
     0
  9
$DIMDEC
 70
     2
  9
$DIMTDEC
 70
     3
  9
$DIMALTU
 70
     2
  9
$DIMALTTD
 70
     3
  9
$DIMTXSTY
  7
STANDARD
  9
$DIMAUNIT
 70
     0
  9
$DIMADEC
 70
     2
  9
$DIMALTRND
 40
0.0
  9
$DIMAZIN
 70
     0
  9
$DIMDSEP
 70
    44
  9
$DIMATFIT
 70
     3
  9
$DIMFRAC
 70
     0
  9
$DIMLDRBLK
  1

  9
$DIMLUNIT
 70
     2
  9
$DIMLWD
 70
    -2
  9
$DIMLWE
 70
    -2
  9
$DIMTMOVE
 70
     0
  9
$LUNITS
 70
     2
  9
$LUPREC
 70
     2
  9
$SKETCHINC
 40
1.0
  9
$FILLETRAD
 40
10.0
  9
$AUNITS
 70
     0
  9
$AUPREC
 70
     2
  9
$MENU
  1
.
  9
$ELEVATION
 40
0.0
  9
$PELEVATION
 40
0.0
  9
$THICKNESS
 40
0.0
  9
$LIMCHECK
 70
     0
  9
$CHAMFERA
 40
10.0
  9
$CHAMFERB
 40
10.0
  9
$CHAMFERC
 40
20.0
  9
$CHAMFERD
 40
0.0
  9
$SKPOLY
 70
     0
  9
$TDCREATE
 40
2457070.604384688
  9
$TDUCREATE
 40
2457070.562718021
  9
$TDUPDATE
 40
2457070.604385776
  9
$TDUUPDATE
 40
2457070.562719109
  9
$TDINDWG
 40
0.0000000116
  9
$TDUSRTIMER
 40
0.0000000116
  9
$USRTIMER
 70
     1
  9
$ANGBASE
 50
0.0
  9
$ANGDIR
 70
     0
  9
$PDMODE
 70
     0
  9
$PDSIZE
 40
-1.0
  9
$PLINEWID
 40
0.0
  9
$SPLFRAME
 70
     0
  9
$SPLINETYPE
 70
     6
  9
$SPLINESEGS
 70
     8
  9
$HANDSEED
  5
2A8
  9
$SURFTAB1
 70
     6
  9
$SURFTAB2
 70
     6
  9
$SURFTYPE
 70
     6
  9
$SURFU
 70
     6
  9
$SURFV
 70
     6
  9
$UCSBASE
  2

  9
$UCSNAME
  2

  9
$UCSORG
 10
0.0
 20
0.0
 30
0.0
  9
$UCSXDIR
 10
1.0
 20
0.0
 30
0.0
  9
$UCSYDIR
 10
0.0
 20
1.0
 30
0.0
  9
$UCSORTHOREF
  2

  9
$UCSORTHOVIEW
 70
     0
  9
$UCSORGTOP
 10
0.0
 20
0.0
 30
0.0
  9
$UCSORGBOTTOM
 10
0.0
 20
0.0
 30
0.0
  9
$UCSORGLEFT
 10
0.0
 20
0.0
 30
0.0
  9
$UCSORGRIGHT
 10
0.0
 20
0.0
 30
0.0
  9
$UCSORGFRONT
 10
0.0
 20
0.0
 30
0.0
  9
$UCSORGBACK
 10
0.0
 20
0.0
 30
0.0
  9
$PUCSBASE
  2

  9
$PUCSNAME
  2

  9
$PUCSORG
 10
0.0
 20
0.0
 30
0.0
  9
$PUCSXDIR
 10
1.0
 20
0.0
 30
0.0
  9
$PUCSYDIR
 10
0.0
 20
1.0
 30
0.0
  9
$PUCSORTHOREF
  2

  9
$PUCSORTHOVIEW
 70
     0
  9
$PUCSORGTOP
 10
0.0
 20
0.0
 30
0.0
  9
$PUCSORGBOTTOM
 10
0.0
 20
0.0
 30
0.0
  9
$PUCSORGLEFT
 10
0.0
 20
0.0
 30
0.0
  9
$PUCSORGRIGHT
 10
0.0
 20
0.0
 30
0.0
  9
$PUCSORGFRONT
 10
0.0
 20
0.0
 30
0.0
  9
$PUCSORGBACK
 10
0.0
 20
0.0
 30
0.0
  9
$USERI1
 70
     0
  9
$USERI2
 70
     0
  9
$USERI3
 70
     0
  9
$USERI4
 70
     0
  9
$USERI5
 70
     0
  9
$USERR1
 40
0.0
  9
$USERR2
 40
0.0
  9
$USERR3
 40
0.0
  9
$USERR4
 40
0.0
  9
$USERR5
 40
0.0
  9
$WORLDVIEW
 70
     1
  9
$SHADEDGE
 70
     3
  9
$SHADEDIF
 70
    70
  9
$TILEMODE
 70
     1
  9
$MAXACTVP
 70
    64
  9
$PINSBASE
 10
0.0
 20
0.0
 30
0.0
  9
$PLIMCHECK
 70
     0
  9
$PEXTMIN
 10
1.0000000000E+20
 20
1.0000000000E+20
 30
1.0000000000E+20
  9
$PEXTMAX
 10
-1.0000000000E+20
 20
-1.0000000000E+20
 30
-1.0000000000E+20
  9
$PLIMMIN
 10
0.0
 20
0.0
  9
$PLIMMAX
 10
420.0
 20
297.0
  9
$UNITMODE
 70
     0
  9
$VISRETAIN
 70
     1
  9
$PLINEGEN
 70
     0
  9
$PSLTSCALE
 70
     1
  9
$TREEDEPTH
 70
  3020
  9
$CMLSTYLE
  2
Standard
  9
$CMLJUST
 70
     0
  9
$CMLSCALE
 40
20.0
  9
$PROXYGRAPHICS
 70
     1
  9
$MEASUREMENT
 70
     1
  9
$CELWEIGHT
370
    -1
  9
$ENDCAPS
280
     0
  9
$JOINSTYLE
280
     0
  9
$LWDISPLAY
290
     1
  9
$INSUNITS
 70
     4
  9
$HYPERLINKBASE
  1

  9
$STYLESHEET
  1

  9
$XEDIT
290
     1
  9
$CEPSNTYPE
380
     0
  9
$PSTYLEMODE
290
     1
  9
$FINGERPRINTGUID
  2
{A0521F36-684E-4091-9FF4-00544915900F}
  9
$VERSIONGUID
  2
{FAEB1C32-E019-11D5-929B-00C0DF256EC4}
  9
$EXTNAMES
290
     1
  9
$PSVPSCALE
 40
0.0
  9
$OLESTARTUP
290
     0
  0
ENDSEC
  0
SECTION
  2
CLASSES
  0
CLASS
  1
ACDBDICTIONARYWDFLT
  2
AcDbDictionaryWithDefault
  3
ObjectDBX Classes
 90
        0
280
     0
281
     0
  0
CLASS
  1
VISUALSTYLE
  2
AcDbVisualStyle
  3
ObjectDBX Classes
 90
     4095
280
     0
281
     0
  0
CLASS
  1
MATERIAL
  2
AcDbMaterial
  3
ObjectDBX Classes
 90
     1153
280
     0
281
     0
  0
CLASS
  1
ACDBPLACEHOLDER
  2
AcDbPlaceHolder
  3
ObjectDBX Classes
 90
        0
280
     0
281
     0
  0
CLASS
  1
LAYOUT
  2
AcDbLayout
  3
ObjectDBX Classes
 90
        0
280
     0
281
     0
  0
ENDSEC
  0
SECTION
  2
TABLES
  0
TABLE
  2
VPORT
  5
8
330
0
100
AcDbSymbolTable
 70
     1
  0
VPORT
  5
29
330
8
100
AcDbSymbolTableRecord
100
AcDbViewportTableRecord
  2
*Active
 70
     0
 10
0.0
 20
0.0
 11
1.0
 21
1.0
 12
148.5
 22
105.0
 13
0.0
 23
0.0
 14
10.0
 24
10.0
 15
10.0
 25
10.0
 16
0.0
 26
0.0
 36
1.0
 17
0.0
 27
0.0
 37
0.0
 40
210.0
 41
1.4142857143
 42
50.0
 43
0.0
 44
0.0
 50
0.0
 51
0.0
 71
     0
 72
  2000
 73
     1
 74
     3
 75
     0
 76
     0
 77
     0
 78
     0
281
     0
 65
     1
110
0.0
120
0.0
130
0.0
111
1.0
121
0.0
131
0.0
112
0.0
122
1.0
132
0.0
 79
     0
146
0.0
  0
ENDTAB
  0
TABLE
  2
LTYPE
  5
5
330
0
100
AcDbSymbolTable
 70
     8
  0
LTYPE
  5
14
330
5
100
AcDbSymbolTableRecord
100
AcDbLinetypeTableRecord
  2
ByBlock
 70
     0
  3

 72
    65
 73
     0
 40
0.0
  0
LTYPE
  5
15
330
5
100
AcDbSymbolTableRecord
100
AcDbLinetypeTableRecord
  2
ByLayer
 70
     0
  3

 72
    65
 73
     0
 40
0.0
  0
LTYPE
  5
16
330
5
100
AcDbSymbolTableRecord
100
AcDbLinetypeTableRecord
  2
Continuous
 70
     0
  3
Solid line
 72
    65
 73
     0
 40
0.0
  0
LTYPE
  5
3F
330
5
100
AcDbSymbolTableRecord
100
AcDbLinetypeTableRecord
  2
SLD-Durchgehend
 70
     0
  3
SolidWorks Line Style
 72
    65
 73
     0
 40
0.0
  0
LTYPE
  5
40
330
5
100
AcDbSymbolTableRecord
100
AcDbLinetypeTableRecord
  2
SLD-Gestrichelt
 70
     0
  3
SolidWorks Line Style
 72
    65
 73
     2
 40
1.905
 49
1.27
 74
     0
 49
-0.635
 74
     0
  0
LTYPE
  5
41
330
5
100
AcDbSymbolTableRecord
100
AcDbLinetypeTableRecord
  2
SLD-Phantom
 70
     0
  3
SolidWorks Line Style
 72
    65
 73
     6
 40
12.7
 49
6.35
 74
     0
 49
-1.27
 74
     0
 49
1.27
 74
     0
 49
-1.27
 74
     0
 49
1.27
 74
     0
 49
-1.27
 74
     0
  0
LTYPE
  5
42
330
5
100
AcDbSymbolTableRecord
100
AcDbLinetypeTableRecord
  2
SLD-Kette
 70
     0
  3
SolidWorks Line Style
 72
    65
 73
     4
 40
10.16
 49
6.35
 74
     0
 49
-1.27
 74
     0
 49
1.27
 74
     0
 49
-1.27
 74
     0
  0
LTYPE
  5
43
330
5
100
AcDbSymbolTableRecord
100
AcDbLinetypeTableRecord
  2
SLD-Punktstrich
 70
     0
  3
SolidWorks Line Style
 72
    65
 73
     4
 40
19.05
 49
15.24
 74
     0
 49
-1.27
 74
     0
 49
1.27
 74
     0
 49
-1.27
 74
     0
  0
LTYPE
  5
44
330
5
100
AcDbSymbolTableRecord
100
AcDbLinetypeTableRecord
  2
SLD-Naht
 70
     0
  3
SolidWorks Line Style
 72
    65
 73
     2
 40
0.635
 49
0.0
 74
     0
 49
-0.635
 74
     0
  0
LTYPE
  5
45
330
5
100
AcDbSymbolTableRecord
100
AcDbLinetypeTableRecord
  2
SLD-Dicke-Dünne-Kette
 70
     0
  3
SolidWorks Line Style
 72
    65
 73
     4
 40
10.16
 49
6.35
 74
     0
 49
-1.27
 74
     0
 49
1.27
 74
     0
 49
-1.27
 74
     0
  0
ENDTAB
  0
TABLE
  2
LAYER
  5
2
330
0
100
AcDbSymbolTable
 70
     5
  0
LAYER
  5
10
330
2
100
AcDbSymbolTableRecord
100
AcDbLayerTableRecord
  2
0
 70
     0
 62
     7
  6
Continuous
370
    -3
390
F
  0
LAYER
  5
46
330
2
100
AcDbSymbolTableRecord
100
AcDbLayerTableRecord
  2
FORMAT
 70
     0
 62
     7
  6
SLD-Durchgehend
370
    -3
390
F
  0
LAYER
  5
47
330
2
100
AcDbSymbolTableRecord
100
AcDbLayerTableRecord
  2
VERMASSUNG
 70
     0
 62
     7
  6
SLD-Durchgehend
370
    -3
390
F
  0
LAYER
  5
48
330
2
100
AcDbSymbolTableRecord
100
AcDbLayerTableRecord
  2
KOPF_DÜNN
 70
     0
 62
     7
  6
SLD-Durchgehend
370
    -3
390
F
  0
LAYER
  5
49
330
2
100
AcDbSymbolTableRecord
100
AcDbLayerTableRecord
  2
KOPF_DICK
 70
     0
 62
     7
  6
SLD-Durchgehend
370
    15
390
F
  0
ENDTAB
  0
TABLE
  2
STYLE
  5
3
330
0
100
AcDbSymbolTable
 70
     2
  0
STYLE
  5
11
330
3
100
AcDbSymbolTableRecord
100
AcDbTextStyleTableRecord
  2
STANDARD
 70
     0
 40
0.0
 41
1.0
 50
0.0
 71
     0
 42
2.0
  3
ISOCPEUR.TTF
  4

1001
ACAD
1000
ISOCPEUR
1071
       34
  0
STYLE
  5
4A
330
3
100
AcDbSymbolTableRecord
100
AcDbTextStyleTableRecord
  2
SLDTEXTSTYLE0
 70
     0
 40
0.0
 41
1.0
 50
0.0
 71
     0
 42
0.2
  3
ISOCPEUR.TTF
  4

1001
ACAD
1000
ISOCPEUR
1071
      290
  0
ENDTAB
  0
TABLE
  2
VIEW
  5
6
330
0
100
AcDbSymbolTable
 70
     0
  0
ENDTAB
  0
TABLE
  2
UCS
  5
7
330
0
100
AcDbSymbolTable
 70
     0
  0
ENDTAB
  0
TABLE
  2
APPID
  5
9
330
0
100
AcDbSymbolTable
 70
     1
  0
APPID
  5
12
330
9
100
AcDbSymbolTableRecord
100
AcDbRegAppTableRecord
  2
ACAD
 70
     0
  0
ENDTAB
  0
TABLE
  2
DIMSTYLE
  5
A
330
0
100
AcDbSymbolTable
 70
     5
100
AcDbDimStyleTable
  0
DIMSTYLE
105
27
330
A
100
AcDbSymbolTableRecord
100
AcDbDimStyleTableRecord
  2
ISO-25
 70
     0
 41
2.5
 42
0.625
 43
3.75
 44
1.25
 73
     0
 74
     0
 77
     1
 78
     8
140
2.5
141
2.5
143
0.0393700787
147
0.625
171
     3
172
     1
178
     0
271
     2
272
     2
274
     3
278
    44
283
     0
284
     8
340
11
  0
DIMSTYLE
105
211
102
{ACAD_REACTORS
330
210
330
224
330
22E
330
238
330
243
102
}
330
A
100
AcDbSymbolTableRecord
100
AcDbDimStyleTableRecord
  2
SLDDIMSTYLE0
 70
     0
 41
3.0
 44
0.0
 45
0.000000001
 73
     0
 74
     0
 77
     1
 78
    12
 79
     3
140
2.0
147
0.5
173
     1
178
     0
271
     2
272
     3
276
     2
284
    12
340
4A
  0
DIMSTYLE
105
21C
102
{ACAD_REACTORS
330
21B
102
}
330
A
100
AcDbSymbolTableRecord
100
AcDbDimStyleTableRecord
  2
SLDDIMSTYLE1
 70
     0
 41
3.0
 44
0.0
 73
     0
 74
     0
 77
     1
 78
    12
 79
     3
140
2.0
147
0.5
173
     1
178
     0
179
     1
272
     3
276
     2
284
    12
340
4A
  0
DIMSTYLE
105
280
102
{ACAD_REACTORS
330
27F
102
}
330
A
100
AcDbSymbolTableRecord
100
AcDbDimStyleTableRecord
  2
SLDDIMSTYLE2
 70
     0
 41
3.0
 44
0.0
 45
0.000000001
 73
     0
 74
     0
 77
     1
 78
    12
 79
     3
140
2.0
147
0.5
172
     1
173
     1
178
     0
271
     2
272
     3
276
     2
284
    12
289
     0
340
4A
  0
DIMSTYLE
105
28F
102
{ACAD_REACTORS
330
28E
102
}
330
A
100
AcDbSymbolTableRecord
100
AcDbDimStyleTableRecord
  2
SLDDIMSTYLE3
 70
     0
 41
3.0
 44
0.0
 73
     0
 74
     0
 77
     1
 78
    12
 79
     3
140
2.0
147
0.5
173
     1
178
     0
179
     2
272
     3
276
     2
284
    12
340
4A
  0
ENDTAB
  0
TABLE
  2
BLOCK_RECORD
  5
1
330
0
100
AcDbSymbolTable
 70
    10
  0
BLOCK_RECORD
  5
1F
330
1
100
AcDbSymbolTableRecord
100
AcDbBlockTableRecord
  2
*Model_Space
340
22
  0
BLOCK_RECORD
  5
1B
330
1
100
AcDbSymbolTableRecord
100
AcDbBlockTableRecord
  2
*Paper_Space
340
1E
  0
BLOCK_RECORD
  5
23
330
1
100
AcDbSymbolTableRecord
100
AcDbBlockTableRecord
  2
*Paper_Space0
340
26
  0
BLOCK_RECORD
  5
212
330
1
100
AcDbSymbolTableRecord
100
AcDbBlockTableRecord
  2
_D
340
0
  0
BLOCK_RECORD
  5
21D
330
1
100
AcDbSymbolTableRecord
100
AcDbBlockTableRecord
  2
_D_1
340
0
  0
BLOCK_RECORD
  5
225
330
1
100
AcDbSymbolTableRecord
100
AcDbBlockTableRecord
  2
_D_2
340
0
  0
BLOCK_RECORD
  5
22F
330
1
100
AcDbSymbolTableRecord
100
AcDbBlockTableRecord
  2
_D_3
340
0
  0
BLOCK_RECORD
  5
239
330
1
100
AcDbSymbolTableRecord
100
AcDbBlockTableRecord
  2
_D_4
340
0
  0
BLOCK_RECORD
  5
244
330
1
100
AcDbSymbolTableRecord
100
AcDbBlockTableRecord
  2
_D_5
340
0
  0
BLOCK_RECORD
  5
281
330
1
100
AcDbSymbolTableRecord
100
AcDbBlockTableRecord
  2
_D_6
340
0
  0
BLOCK_RECORD
  5
290
330
1
100
AcDbSymbolTableRecord
100
AcDbBlockTableRecord
  2
_D_7
340
0
  0
BLOCK_RECORD
  5
29B
330
1
100
AcDbSymbolTableRecord
100
AcDbBlockTableRecord
  2
SW_CENTERMARKSYMBOL_0
340
0
102
{BLKREFS
331
2A6
102
}
  0
ENDTAB
  0
ENDSEC
  0
SECTION
  2
BLOCKS
  0
BLOCK
  5
20
330
1F
100
AcDbEntity
  8
0
100
AcDbBlockBegin
  2
*Model_Space
 70
     0
 10
0.0
 20
0.0
 30
0.0
  3
*Model_Space
  1

  0
ENDBLK
  5
21
330
1F
100
AcDbEntity
  8
0
100
AcDbBlockEnd
  0
BLOCK
  5
1C
330
1B
100
AcDbEntity
 67
     1
  8
0
100
AcDbBlockBegin
  2
*Paper_Space
 70
     0
 10
0.0
 20
0.0
 30
0.0
  3
*Paper_Space
  1

  0
ENDBLK
  5
1D
330
1B
100
AcDbEntity
 67
     1
  8
0
100
AcDbBlockEnd
  0
BLOCK
  5
24
330
23
100
AcDbEntity
  8
0
100
AcDbBlockBegin
  2
*Paper_Space0
 70
     0
 10
0.0
 20
0.0
 30
0.0
  3
*Paper_Space0
  1

  0
ENDBLK
  5
25
330
23
100
AcDbEntity
  8
0
100
AcDbBlockEnd
  0
BLOCK
  5
213
330
212
100
AcDbEntity
  8
0
100
AcDbBlockBegin
  2
_D
 70
     0
 10
0.0
 20
0.0
 30
0.0
  3
_D
  1

  0
SOLID
  5
215
330
212
100
AcDbEntity
  8
VERMASSUNG
100
AcDbTrace
 10
277.0243621347
 20
102.7725177885
 30
0.0
 11
277.4743621347
 21
105.7725177885
 31
0.0
 12
276.5743621347
 22
105.7725177885
 32
0.0
 13
276.5743621347
 23
105.7725177885
 33
0.0
  0
SOLID
  5
216
330
212
100
AcDbEntity
  8
VERMASSUNG
100
AcDbTrace
 10
277.0243621347
 20
119.7725177885
 30
0.0
 11
276.5743621347
 21
116.7725177885
 31
0.0
 12
277.4743621347
 22
116.7725177885
 32
0.0
 13
277.4743621347
 23
116.7725177885
 33
0.0
  0
LINE
  5
217
330
212
100
AcDbEntity
  8
VERMASSUNG
100
AcDbLine
 10
262.2049227514
 20
102.7725177885
 30
0.0
 11
278.0243621347
 21
102.7725177885
 31
0.0
  0
LINE
  5
218
330
212
100
AcDbEntity
  8
VERMASSUNG
100
AcDbLine
 10
262.2049227514
 20
119.7725177885
 30
0.0
 11
278.0243621347
 21
119.7725177885
 31
0.0
  0
LINE
  5
219
330
212
100
AcDbEntity
  8
VERMASSUNG
100
AcDbLine
 10
277.0243621347
 20
102.7725177885
 30
0.0
 11
277.0243621347
 21
119.7725177885
 31
0.0
  0
MTEXT
  5
21A
330
212
100
AcDbEntity
  8
VERMASSUNG
100
AcDbMText
 10
274.4243622511
 20
109.1725176306
 30
0.1
 40
2.0
 41
0.0
 71
     1
 72
     1
  1
17
  7
SLDTEXTSTYLE0
 11
6.123233995736766E-17
 21
1.0
 31
0.0
 73
     1
 44
1.0
  0
ENDBLK
  5
214
330
212
100
AcDbEntity
  8
0
100
AcDbBlockEnd
  0
BLOCK
  5
21E
330
21D
100
AcDbEntity
  8
0
100
AcDbBlockBegin
  2
_D_1
 70
     0
 10
0.0
 20
0.0
 30
0.0
  3
_D_1
  1

  0
ARC
  5
220
330
21D
100
AcDbEntity
  8
VERMASSUNG
100
AcDbCircle
 10
262.350453917
 20
102.7725177885
 30
0.0
 40
8.457739607007712
100
AcDbArc
 50
0.0
 51
107.5401158054
  0
SOLID
  5
221
330
21D
100
AcDbEntity
  8
VERMASSUNG
100
AcDbTrace
 10
270.808193524
 20
102.7725177885
 30
0.0
 11
270.7428555987
 21
105.8053763338
 31
0.0
 12
269.8558948584
 22
105.6527308451
 32
0.0
 13
269.8558948584
 23
105.6527308451
 33
0.0
  0
SOLID
  5
222
330
21D
100
AcDbEntity
  8
VERMASSUNG
100
AcDbTrace
 10
259.8015155543
 20
110.837024747
 30
0.0
 11
262.8348140514
 21
110.7970219001
 31
0.0
 12
262.7130560286
 22
111.6887477458
 32
0.0
 13
262.7130560286
 23
111.6887477458
 33
0.0
  0
MTEXT
  5
223
330
21D
100
AcDbEntity
  8
VERMASSUNG
100
AcDbMText
 10
265.3366129377
 20
114.2927806646
 30
0.1
 40
2.0
 41
0.0
 71
     1
 72
     1
  1
107.5°
  7
SLDTEXTSTYLE0
 11
0.8066515584257051
 21
-0.5910272948767944
 31
0.0
 73
     1
 44
1.0
  0
ENDBLK
  5
21F
330
21D
100
AcDbEntity
  8
0
100
AcDbBlockEnd
  0
BLOCK
  5
226
330
225
100
AcDbEntity
  8
0
100
AcDbBlockBegin
  2
_D_2
 70
     0
 10
0.0
 20
0.0
 30
0.0
  3
_D_2
  1

  0
SOLID
  5
228
330
225
100
AcDbEntity
  8
VERMASSUNG
100
AcDbTrace
 10
122.2049227514
 20
89.7725177885
 30
0.0
 11
125.2049227514
 21
89.3225177885
 31
0.0
 12
125.2049227514
 22
90.2225177885
 32
0.0
 13
125.2049227514
 23
90.2225177885
 33
0.0
  0
SOLID
  5
229
330
225
100
AcDbEntity
  8
VERMASSUNG
100
AcDbTrace
 10
262.2049227514
 20
89.7725177885
 30
0.0
 11
259.2049227514
 21
90.2225177885
 31
0.0
 12
259.2049227514
 22
89.3225177885
 32
0.0
 13
259.2049227514
 23
89.3225177885
 33
0.0
  0
LINE
  5
22A
330
225
100
AcDbEntity
  8
VERMASSUNG
100
AcDbLine
 10
122.2049227514
 20
100.0725177885
 30
0.0
 11
122.2049227514
 21
88.7725177885
 31
0.0
  0
LINE
  5
22B
330
225
100
AcDbEntity
  8
VERMASSUNG
100
AcDbLine
 10
262.2049227514
 20
102.7725177885
 30
0.0
 11
262.2049227514
 21
88.7725177885
 31
0.0
  0
LINE
  5
22C
330
225
100
AcDbEntity
  8
VERMASSUNG
100
AcDbLine
 10
122.2049227514
 20
89.7725177885
 30
0.0
 11
262.2049227514
 21
89.7725177885
 31
0.0
  0
MTEXT
  5
22D
330
225
100
AcDbEntity
  8
VERMASSUNG
100
AcDbMText
 10
189.3049225554
 20
92.3725176721
 30
0.1
 40
2.0
 41
0.0
 71
     1
 72
     1
  1
140
  7
SLDTEXTSTYLE0
 73
     1
 44
1.0
  0
ENDBLK
  5
227
330
225
100
AcDbEntity
  8
0
100
AcDbBlockEnd
  0
BLOCK
  5
230
330
22F
100
AcDbEntity
  8
0
100
AcDbBlockBegin
  2
_D_3
 70
     0
 10
0.0
 20
0.0
 30
0.0
  3
_D_3
  1

  0
SOLID
  5
232
330
22F
100
AcDbEntity
  8
VERMASSUNG
100
AcDbTrace
 10
102.3049227514
 20
82.3983639573
 30
0.0
 11
105.3049227514
 21
81.9483639573
 31
0.0
 12
105.3049227514
 22
82.8483639573
 32
0.0
 13
105.3049227514
 23
82.8483639573
 33
0.0
  0
SOLID
  5
233
330
22F
100
AcDbEntity
  8
VERMASSUNG
100
AcDbTrace
 10
262.2049227514
 20
82.3983639573
 30
0.0
 11
259.2049227514
 21
82.8483639573
 31
0.0
 12
259.2049227514
 22
81.9483639573
 32
0.0
 13
259.2049227514
 23
81.9483639573
 33
0.0
  0
LINE
  5
234
330
22F
100
AcDbEntity
  8
VERMASSUNG
100
AcDbLine
 10
102.3049227514
 20
107.9015177885
 30
0.0
 11
102.3049227514
 21
81.3983639573
 31
0.0
  0
LINE
  5
235
330
22F
100
AcDbEntity
  8
VERMASSUNG
100
AcDbLine
 10
262.2049227514
 20
102.7725177885
 30
0.0
 11
262.2049227514
 21
81.3983639573
 31
0.0
  0
LINE
  5
236
330
22F
100
AcDbEntity
  8
VERMASSUNG
100
AcDbLine
 10
102.3049227514
 20
82.3983639573
 30
0.0
 11
262.2049227514
 21
82.3983639573
 31
0.0
  0
MTEXT
  5
237
330
22F
100
AcDbEntity
  8
VERMASSUNG
100
AcDbMText
 10
178.4549226873
 20
84.9983638409
 30
0.1
 40
2.0
 41
0.0
 71
     1
 72
     1
  1
159.9
  7
SLDTEXTSTYLE0
 73
     1
 44
1.0
  0
ENDBLK
  5
231
330
22F
100
AcDbEntity
  8
0
100
AcDbBlockEnd
  0
BLOCK
  5
23A
330
239
100
AcDbEntity
  8
0
100
AcDbBlockBegin
  2
_D_4
 70
     0
 10
0.0
 20
0.0
 30
0.0
  3
_D_4
  1

  0
SOLID
  5
23C
330
239
100
AcDbEntity
  8
VERMASSUNG
100
AcDbTrace
 10
169.3913644299
 20
107.2725255599
 30
0.0
 11
169.8413644299
 21
110.2725255599
 31
0.0
 12
168.9413644299
 22
110.2725255599
 32
0.0
 13
168.9413644299
 23
110.2725255599
 33
0.0
  0
SOLID
  5
23D
330
239
100
AcDbEntity
  8
VERMASSUNG
100
AcDbTrace
 10
169.3913644299
 20
132.2725177885
 30
0.0
 11
168.9413644299
 21
129.2725177885
 31
0.0
 12
169.8413644299
 22
129.2725177885
 32
0.0
 13
169.8413644299
 23
129.2725177885
 33
0.0
  0
LINE
  5
23E
330
239
100
AcDbEntity
  8
VERMASSUNG
100
AcDbLine
 10
236.5069037153
 20
107.2725255599
 30
0.0
 11
168.3913644299
 21
107.2725255599
 31
0.0
  0
LINE
  5
23F
330
239
100
AcDbEntity
  8
VERMASSUNG
100
AcDbLine
 10
238.2049227514
 20
132.2725177885
 30
0.0
 11
168.3913644299
 21
132.2725177885
 31
0.0
  0
LINE
  5
240
330
239
100
AcDbEntity
  8
VERMASSUNG
100
AcDbLine
 10
169.3913644299
 20
107.2725255599
 30
0.0
 11
169.3913644299
 21
132.2725177885
 31
0.0
  0
MTEXT
  5
241
330
239
100
AcDbEntity
  8
VERMASSUNG
100
AcDbMText
 10
166.7913644299
 20
109.0841079048
 30
0.1
 40
2.0
 41
0.0
 71
     1
 72
     1
  1
%%c
  7
SLDTEXTSTYLE0
 11
6.123233995736766E-17
 21
1.0
 31
0.0
 73
     1
 44
1.0
  0
MTEXT
  5
242
330
239
100
AcDbEntity
  8
VERMASSUNG
100
AcDbMText
 10
166.5913644204
 20
112.6941079191
 30
0.1
 40
2.0
 41
0.0
 71
     1
 72
     1
  1
25
  7
SLDTEXTSTYLE0
 11
6.123233995736766E-17
 21
1.0
 31
0.0
 73
     1
 44
1.0
  0
ENDBLK
  5
23B
330
239
100
AcDbEntity
  8
0
100
AcDbBlockEnd
  0
BLOCK
  5
245
330
244
100
AcDbEntity
  8
0
100
AcDbBlockBegin
  2
_D_5
 70
     0
 10
0.0
 20
0.0
 30
0.0
  3
_D_5
  1

  0
SOLID
  5
247
330
244
100
AcDbEntity
  8
VERMASSUNG
100
AcDbTrace
 10
92.1608337764
 20
139.7725177885
 30
0.0
 11
91.7108337764
 21
136.7725177885
 31
0.0
 12
92.6108337764
 22
136.7725177885
 32
0.0
 13
92.6108337764
 23
136.7725177885
 33
0.0
  0
SOLID
  5
248
330
244
100
AcDbEntity
  8
VERMASSUNG
100
AcDbTrace
 10
92.1608337764
 20
99.7725177885
 30
0.0
 11
92.6108337764
 21
102.7725177885
 31
0.0
 12
91.7108337764
 22
102.7725177885
 32
0.0
 13
91.7108337764
 23
102.7725177885
 33
0.0
  0
LINE
  5
249
330
244
100
AcDbEntity
  8
VERMASSUNG
100
AcDbLine
 10
122.5049227514
 20
139.7725177885
 30
0.0
 11
91.1608337764
 21
139.7725177885
 31
0.0
  0
LINE
  5
24A
330
244
100
AcDbEntity
  8
VERMASSUNG
100
AcDbLine
 10
122.5049227514
 20
99.7725177885
 30
0.0
 11
91.1608337764
 21
99.7725177885
 31
0.0
  0
LINE
  5
24B
330
244
100
AcDbEntity
  8
VERMASSUNG
100
AcDbLine
 10
92.1608337764
 20
139.7725177885
 30
0.0
 11
92.1608337764
 21
99.7725177885
 31
0.0
  0
MTEXT
  5
24C
330
244
100
AcDbEntity
  8
VERMASSUNG
100
AcDbMText
 10
89.3608337669
 20
111.7675171376
 30
0.1
 40
2.0
 41
0.0
 71
     1
 72
     1
  1
HSK T
  7
SLDTEXTSTYLE0
 11
-7.044195017643634E-15
 21
1.0
 31
0.0
 73
     1
 44
1.0
  0
MTEXT
  5
24D
330
244
100
AcDbEntity
  8
VERMASSUNG
100
AcDbMText
 10
89.5608337764
 20
119.3675172658
 30
0.1
 40
2.0
 41
0.0
 71
     1
 72
     1
  1
%%c
  7
SLDTEXTSTYLE0
 11
-7.044195017643634E-15
 21
1.0
 31
0.0
 73
     1
 44
1.0
  0
MTEXT
  5
24E
330
244
100
AcDbEntity
  8
VERMASSUNG
100
AcDbMText
 10
89.3608337669
 20
122.9775172801
 30
0.1
 40
2.0
 41
0.0
 71
     1
 72
     1
  1
40
  7
SLDTEXTSTYLE0
 11
-7.044195017643634E-15
 21
1.0
 31
0.0
 73
     1
 44
1.0
  0
ENDBLK
  5
246
330
244
100
AcDbEntity
  8
0
100
AcDbBlockEnd
  0
BLOCK
  5
282
330
281
100
AcDbEntity
  8
0
100
AcDbBlockBegin
  2
_D_6
 70
     0
 10
0.0
 20
0.0
 30
0.0
  3
_D_6
  1

  0
SOLID
  5
284
330
281
100
AcDbEntity
  8
VERMASSUNG
100
AcDbTrace
 10
55.8413717615
 20
131.6761151991
 30
0.0
 11
58.0158452855
 21
133.7913373844
 31
0.0
 12
57.299544098
 22
134.3362342635
 32
0.0
 13
57.299544098
 23
134.3362342635
 33
0.0
  0
SOLID
  5
285
330
281
100
AcDbEntity
  8
VERMASSUNG
100
AcDbTrace
 10
36.4672605052
 20
106.2076285337
 30
0.0
 11
34.2927869812
 21
104.0924063483
 31
0.0
 12
35.0090881686
 22
103.5475094692
 32
0.0
 13
35.0090881686
 23
103.5475094692
 33
0.0
  0
LINE
  5
286
330
281
100
AcDbEntity
  8
VERMASSUNG
100
AcDbLine
 10
55.8413717615
 20
131.6761151991
 30
0.0
 11
55.0454815532
 21
132.2815561759
 31
0.0
  0
LINE
  5
287
330
281
100
AcDbEntity
  8
VERMASSUNG
100
AcDbLine
 10
36.4672605052
 20
106.2076285337
 30
0.0
 11
35.6713702969
 21
106.8130695104
 31
0.0
  0
LINE
  5
288
330
281
100
AcDbEntity
  8
VERMASSUNG
100
AcDbLine
 10
55.8413717615
 20
131.6761151991
 30
0.0
 11
59.4740176221
 21
136.4514564489
 31
0.0
  0
LINE
  5
289
330
281
100
AcDbEntity
  8
VERMASSUNG
100
AcDbLine
 10
55.8413717615
 20
131.6761151991
 30
0.0
 11
36.4672605052
 21
106.2076285337
 31
0.0
  0
LINE
  5
28A
330
281
100
AcDbEntity
  8
VERMASSUNG
100
AcDbLine
 10
36.4672605052
 20
106.2076285337
 30
0.0
 11
25.2340355164
 21
91.4408484192
 31
0.0
  0
MTEXT
  5
28B
330
281
100
AcDbEntity
  8
VERMASSUNG
100
AcDbMText
 10
23.1647209748
 20
93.0149949588
 30
0.1
 40
2.0
 41
0.0
 71
     1
 72
     1
  1
%%c
  7
SLDTEXTSTYLE0
 11
0.6054409767603148
 21
0.7958902082947847
 31
0.0
 73
     1
 44
1.0
  0
MTEXT
  5
28C
330
281
100
AcDbEntity
  8
VERMASSUNG
100
AcDbMText
 10
25.1911848604
 20
96.0092468232
 30
0.1
 40
2.0
 41
0.0
 71
     1
 72
     1
  1
32
  7
SLDTEXTSTYLE0
 11
0.6054409767603148
 21
0.7958902082947847
 31
0.0
 73
     1
 44
1.0
  0
MTEXT
  5
28D
330
281
100
AcDbEntity
  8
VERMASSUNG
100
AcDbMText
 10
27.9762136972
 20
99.6703422332
 30
0.1
 40
2.0
 41
0.0
 71
     1
 72
     1
  1
 min.
  7
SLDTEXTSTYLE0
 11
0.6054409767603148
 21
0.7958902082947847
 31
0.0
 73
     1
 44
1.0
  0
ENDBLK
  5
283
330
281
100
AcDbEntity
  8
0
100
AcDbBlockEnd
  0
BLOCK
  5
291
330
290
100
AcDbEntity
  8
0
100
AcDbBlockBegin
  2
_D_7
 70
     0
 10
0.0
 20
0.0
 30
0.0
  3
_D_7
  1

  0
ARC
  5
293
330
290
100
AcDbEntity
  8
VERMASSUNG
100
AcDbCircle
 10
46.1661585241
 20
107.0731938964
 30
0.0
 40
38.25577483161625
100
AcDbArc
 50
90.0
 51
94.0
  0
ARC
  5
294
330
290
100
AcDbEntity
  8
VERMASSUNG
100
AcDbCircle
 10
46.1661585241
 20
107.0731938964
 30
0.0
 40
38.25577483161624
100
AcDbArc
 50
81.0390148638
 51
90.0
  0
ARC
  5
295
330
290
100
AcDbEntity
  8
VERMASSUNG
100
AcDbCircle
 10
46.1661585241
 20
107.0731938964
 30
0.0
 40
38.25577483161626
100
AcDbArc
 50
94.0
 51
106.030990449
  0
SOLID
  5
296
330
290
100
AcDbEntity
  8
VERMASSUNG
100
AcDbTrace
 10
46.1661585241
 20
145.328968728
 30
0.0
 11
49.1462582526
 21
144.7619540827
 31
0.0
 12
49.1814659845
 22
145.6612651611
 32
0.0
 13
49.1814659845
 23
145.6612651611
 33
0.0
  0
SOLID
  5
297
330
290
100
AcDbEntity
  8
VERMASSUNG
100
AcDbTrace
 10
43.4975705715
 20
145.2357795832
 30
0.0
 11
40.4664284211
 21
145.3569293432
 31
0.0
 12
40.5642831583
 22
144.4622649087
 32
0.0
 13
40.5642831583
 23
144.4622649087
 33
0.0
  0
LINE
  5
298
330
290
100
AcDbEntity
  8
VERMASSUNG
100
AcDbLine
 10
46.1661585241
 20
142.2725177885
 30
0.0
 11
46.1661585241
 21
146.328968728
 31
0.0
  0
LINE
  5
299
330
290
100
AcDbEntity
  8
VERMASSUNG
100
AcDbLine
 10
44.3777301051
 20
132.6489118408
 30
0.0
 11
43.4278140977
 21
146.2333436335
 31
0.0
  0
MTEXT
  5
29A
330
290
100
AcDbEntity
  8
VERMASSUNG
100
AcDbMText
 10
35.015724835
 20
146.4451656067
 30
-61.2812487234
 40
2.0
 41
0.0
 71
     1
 72
     1
  1
4°
  7
SLDTEXTSTYLE0
 11
0.9759532395730991
 21
0.2179799857022958
 31
0.0
 73
     1
 44
1.0
  0
ENDBLK
  5
292
330
290
100
AcDbEntity
  8
0
100
AcDbBlockEnd
  0
BLOCK
  5
29C
330
29B
100
AcDbEntity
  8
0
100
AcDbBlockBegin
  2
SW_CENTERMARKSYMBOL_0
 70
     0
 10
0.0
 20
0.0
 30
0.0
  3
SW_CENTERMARKSYMBOL_0
  1

  0
LINE
  5
29E
330
29B
100
AcDbEntity
  8
VERMASSUNG
 62
     0
100
AcDbLine
 10
0.0
 20
0.0
 30
0.0
 11
0.0
 21
2.5
 31
0.0
  0
LINE
  5
29F
330
29B
100
AcDbEntity
  8
VERMASSUNG
 62
     0
100
AcDbLine
 10
0.0
 20
0.0
 30
0.0
 11
-2.5
 21
0.0
 31
0.0
  0
LINE
  5
2A0
330
29B
100
AcDbEntity
  8
VERMASSUNG
 62
     0
100
AcDbLine
 10
0.0
 20
0.0
 30
0.0
 11
0.0
 21
-2.5
 31
0.0
  0
LINE
  5
2A1
330
29B
100
AcDbEntity
  8
VERMASSUNG
 62
     0
100
AcDbLine
 10
0.0
 20
0.0
 30
0.0
 11
2.5
 21
0.0
 31
0.0
  0
LINE
  5
2A2
330
29B
100
AcDbEntity
  8
VERMASSUNG
 62
     0
100
AcDbLine
 10
0.0
 20
5.0
 30
0.0
 11
0.0
 21
22.5
 31
0.0
  0
LINE
  5
2A3
330
29B
100
AcDbEntity
  8
VERMASSUNG
 62
     0
100
AcDbLine
 10
-5.0
 20
0.0
 30
0.0
 11
-22.5
 21
0.0
 31
0.0
  0
LINE
  5
2A4
330
29B
100
AcDbEntity
  8
VERMASSUNG
 62
     0
100
AcDbLine
 10
0.0
 20
-5.0
 30
0.0
 11
0.0
 21
-22.5
 31
0.0
  0
LINE
  5
2A5
330
29B
100
AcDbEntity
  8
VERMASSUNG
 62
     0
100
AcDbLine
 10
5.0
 20
0.0
 30
0.0
 11
22.5
 21
0.0
 31
0.0
  0
ENDBLK
  5
29D
330
29B
100
AcDbEntity
  8
0
100
AcDbBlockEnd
  0
ENDSEC
  0
SECTION
  2
ENTITIES
  0
MTEXT
  5
4B
330
1F
100
AcDbEntity
  8
KOPF_DÜNN
100
AcDbMText
 10
13.8892156294
 20
23.8770940835
 30
0.0
 40
3.0
 41
0.0
 71
     1
 72
     1
  1
HA4.BDB.LLA.140
  7
SLDTEXTSTYLE0
 73
     1
 44
1.0
  0
MTEXT
  5
4C
330
1F
100
AcDbEntity
  8
VERMASSUNG
100
AcDbMText
 10
13.9329988022
 20
28.9162328764
 30
0.0
 40
3.0
 41
0.0
 71
     1
 72
     1
  1
Bohrstange links_Boring bar left
  7
SLDTEXTSTYLE0
 73
     1
 44
1.0
  0
MTEXT
  5
4D
330
1F
100
AcDbEntity
  8
VERMASSUNG
100
AcDbMText
 10
98.8601118557
 20
13.8584013384
 30
0.0
 40
2.0
 41
0.0
 71
     1
 72
     1
  1
Datum: 12.06.2012
  7
SLDTEXTSTYLE0
 73
     1
 44
1.0
  0
MTEXT
  5
4E
330
1F
100
AcDbEntity
  8
VERMASSUNG
100
AcDbMText
 10
13.933048693
 20
18.0701447943
 30
0.0
 40
2.0
 41
0.0
 71
     1
 72
     1
  1
DIN 69893 HSK T 40  / DC.. 11 T3..
  7
SLDTEXTSTYLE0
 73
     1
 44
1.0
  0
MTEXT
  5
4F
330
1F
100
AcDbEntity
  8
VERMASSUNG
100
AcDbMText
 10
13.9808475933
 20
13.9309618897
 30
0.0
 40
2.0
 41
0.0
 71
     1
 72
     1
  1
Gewicht: 581g
  7
SLDTEXTSTYLE0
 73
     1
 44
1.0
  0
LINE
  5
50
330
1F
100
AcDbEntity
  8
0
  6
SLD-Durchgehend
 62
     7
370
    15
100
AcDbLine
 10
122.5049227656
 20
99.7725182355
 30
0.0
 11
130.1549232163
 21
99.7725182355
 31
0.0
  0
LINE
  5
51
330
1F
100
AcDbEntity
  8
0
  6
SLD-Durchgehend
 62
     7
370
    15
100
AcDbLine
 10
130.2090703108
 20
139.7725173415
 30
0.0
 11
122.5049227656
 21
139.7725173415
 31
0.0
  0
ARC
  5
52
330
1F
100
AcDbEntity
  8
0
  6
SLD-Durchgehend
 62
     7
370
    15
100
AcDbCircle
 10
122.5049227514
 20
100.0725177885
 30
0.0
 40
0.2999999999999972
100
AcDbArc
 50
180.0
 51
270.0
  0
ARC
  5
53
330
1F
100
AcDbEntity
  8
0
  6
SLD-Durchgehend
 62
     7
370
    15
100
AcDbCircle
 10
122.5049227514
 20
139.4725177885
 30
0.0
 40
0.2999999999999972
100
AcDbArc
 50
90.0
 51
180.0
  0
ARC
  5
54
330
1F
100
AcDbEntity
  8
0
  6
SLD-Durchgehend
 62
     7
370
    15
100
AcDbCircle
 10
121.7049227514
 20
104.3188173877
 30
0.0
 40
0.6000000000000085
100
AcDbArc
 50
33.5573097619
 51
90.0
  0
ARC
  5
55
330
1F
100
AcDbEntity
  8
0
  6
SLD-Durchgehend
 62
     7
370
    15
100
AcDbCircle
 10
121.7049227514
 20
135.2262181893
 30
0.0
 40
0.6000000000000227
100
AcDbArc
 50
270.0
 51
326.4426902381
  0
ARC
  5
56
330
1F
100
AcDbEntity
  8
0
  6
SLD-Durchgehend
 62
     7
370
    15
100
AcDbCircle
 10
145.1549227514
 20
104.2725177885
 30
0.0
 40
3.0
100
AcDbArc
 50
90.0
 51
180.0
  0
ARC
  5
57
330
1F
100
AcDbEntity
  8
0
  6
SLD-Durchgehend
 62
     7
370
    15
100
AcDbCircle
 10
145.1549227514
 20
135.2725177885
 30
0.0
 40
3.0
100
AcDbArc
 50
180.0
 51
270.0
  0
LINE
  5
58
330
1F
100
AcDbEntity
  8
0
  6
SLD-Durchgehend
 62
     7
370
    15
100
AcDbLine
 10
120.2049226564
 20
104.6688172177
 30
0.0
 11
121.0616355825
 21
104.8983733312
 31
0.0
  0
LINE
  5
59
330
1F
100
AcDbEntity
  8
0
  6
SLD-Durchgehend
 62
     7
370
    15
100
AcDbLine
 10
121.0616355825
 20
134.6466622458
 30
0.0
 11
120.2049226564
 21
134.8762183593
 31
0.0
  0
LINE
  5
5A
330
1F
100
AcDbEntity
  8
0
  6
SLD-Durchgehend
 62
     7
370
    15
100
AcDbLine
 10
113.4249173634
 20
134.5365389393
 30
0.0
 11
105.904922501
 21
134.1597854302
 31
0.0
  0
LINE
  5
5B
330
1F
100
AcDbEntity
  8
0
  6
SLD-Durchgehend
 62
     7
370
    15
100
AcDbLine
 10
120.2049226564
 20
134.8762183593
 30
0.0
 11
118.9361437287
 21
134.8126518683
 31
0.0
  0
LINE
  5
5C
330
1F
100
AcDbEntity
  8
0
  6
SLD-Durchgehend
 62
     7
370
    15
100
AcDbLine
 10
118.9362871524
 20
104.7323762582
 30
0.0
 11
120.2049226564
 21
104.6688172177
 31
0.0
  0
LINE
  5
5D
330
1F
100
AcDbEntity
  8
0
  6
SLD-Durchgehend
 62
     7
370
    15
100
AcDbLine
 10
108.4049229108
 20
105.2599993677
 30
0.0
 11
113.425381162
 21
105.0084733547
 31
0.0
  0
ARC
  5
5E
330
1F
100
AcDbEntity
  8
0
  6
SLD-Durchgehend
 62
     7
370
    15
100
AcDbCircle
 10
121.2169269518
 20
104.3188173877
 30
0.0
 40
0.6000000000000109
100
AcDbArc
 50
90.0
 51
105.0
  0
ARC
  5
5F
330
1F
100
AcDbEntity
  8
0
  6
SLD-Durchgehend
 62
     7
370
    15
100
AcDbCircle
 10
121.2169269518
 20
135.2262181893
 30
0.0
 40
0.6000000000000245
100
AcDbArc
 50
255.0
 51
270.0
  0
LINE
  5
60
330
1F
100
AcDbEntity
  8
0
  6
SLD-Durchgehend
 62
     7
370
    15
100
AcDbLine
 10
121.2169269862
 20
104.9188177244
 30
0.0
 11
121.7049227276
 21
104.9188177244
 31
0.0
  0
LINE
  5
61
330
1F
100
AcDbEntity
  8
0
  6
SLD-Durchgehend
 62
     7
370
    15
100
AcDbLine
 10
121.7049227276
 20
134.6262178526
 30
0.0
 11
121.2169269862
 21
134.6262178526
 31
0.0
  0
LINE
  5
62
330
1F
100
AcDbEntity
  8
0
  6
SLD-Durchgehend
 62
     7
370
    15
100
AcDbLine
 10
236.2647211708
 20
107.2725176022
 30
0.0
 11
238.2049194135
 21
107.2725176022
 31
0.0
  0
LINE
  5
63
330
1F
100
AcDbEntity
  8
0
  6
SLD-Durchgehend
 62
     7
370
    15
100
AcDbLine
 10
145.1549219497
 20
107.2725176022
 30
0.0
 11
236.2647211708
 21
107.2725176022
 31
0.0
  0
LINE
  5
64
330
1F
100
AcDbEntity
  8
0
  6
SLD-Durchgehend
 62
     7
370
    15
100
AcDbLine
 10
238.2049194135
 20
132.2725179748
 30
0.0
 11
145.1549219497
 21
132.2725179748
 31
0.0
  0
ARC
  5
65
330
1F
100
AcDbEntity
  8
0
  6
SLD-Durchgehend
 62
     7
370
    15
100
AcDbCircle
 10
105.0049227514
 20
133.5525177885
 30
0.0
 40
0.8999999999999885
100
AcDbArc
 50
270.0
 51
311.1792132368
  0
ARC
  5
66
330
1F
100
AcDbEntity
  8
0
  6
SLD-Durchgehend
 62
     7
370
    15
100
AcDbCircle
 10
107.5049227514
 20
106.0515177885
 30
0.0
 40
0.9000000000000057
100
AcDbArc
 50
30.4426030216
 51
90.0
  0
LINE
  5
67
330
1F
100
AcDbEntity
  8
0
  6
SLD-Durchgehend
 62
     7
370
    15
100
AcDbLine
 10
103.254922346
 20
132.6525180743
 30
0.0
 11
102.3049230285
 21
131.7025178255
 31
0.0
  0
LINE
  5
68
330
1F
100
AcDbEntity
  8
0
  6
SLD-Durchgehend
 62
     7
370
    15
100
AcDbLine
 10
105.0049221672
 20
132.6525180743
 30
0.0
 11
103.254922346
 21
132.6525180743
 31
0.0
  0
LINE
  5
69
330
1F
100
AcDbEntity
  8
0
  6
SLD-Durchgehend
 62
     7
370
    15
100
AcDbLine
 10
103.254922346
 20
106.9515177191
 30
0.0
 11
107.504922577
 21
106.9515177191
 31
0.0
  0
LINE
  5
6A
330
1F
100
AcDbEntity
  8
0
  6
SLD-Durchgehend
 62
     7
370
    15
100
AcDbLine
 10
102.3049230285
 20
107.901517968
 30
0.0
 11
103.254922346
 21
106.9515177191
 31
0.0
  0
LINE
  5
6B
330
1F
100
AcDbEntity
  8
0
  6
SLD-Durchgehend
 62
     7
370
    15
100
AcDbLine
 10
252.4354091443
 20
132.7725180567
 30
0.0
 11
238.7049204268
 21
132.7725180567
 31
0.0
  0
LINE
  5
6C
330
1F
100
AcDbEntity
  8
0
  6
SLD-Durchgehend
 62
     7
370
    15
100
AcDbLine
 10
238.7049204268
 20
132.7725180567
 30
0.0
 11
238.2049194135
 21
132.2725179748
 31
0.0
  0
LINE
  5
6D
330
1F
100
AcDbEntity
  8
0
  6
SLD-Durchgehend
 62
     7
370
    15
100
AcDbLine
 10
254.2032531061
 20
111.0291310729
 30
0.0
 11
254.2032531061
 21
111.1232365624
 31
0.0
  0
LINE
  5
6E
330
1F
100
AcDbEntity
  8
0
  6
SLD-Durchgehend
 62
     7
370
    15
100
AcDbLine
 10
256.1073532857
 20
110.6948188649
 30
0.0
 11
256.1073532857
 21
110.602069381
 31
0.0
  0
LINE
  5
6F
330
1F
100
AcDbEntity
  8
0
  6
SLD-Durchgehend
 62
     7
370
    15
100
AcDbLine
 10
253.9552977838
 20
109.2584763796
 30
0.0
 11
253.9552977838
 21
109.3512873308
 31
0.0
  0
LINE
  5
70
330
1F
100
AcDbEntity
  8
0
  6
SLD-Durchgehend
 62
     7
370
    15
100
AcDbLine
 10
255.8593979635
 20
108.9228705646
 30
0.0
 11
255.8593979635
 21
108.8287809075
 31
0.0
  0
LINE
  5
71
330
1F
100
AcDbEntity
  8
0
  6
SLD-Durchgehend
 62
     7
370
    15
100
AcDbLine
 10
257.6586386718
 20
109.9455437766
 30
0.0
 11
257.6586386718
 21
109.9960866527
 31
0.0
  0
LINE
  5
72
330
1F
100
AcDbEntity
  8
0
  6
SLD-Durchgehend
 62
     7
370
    15
100
AcDbLine
 10
252.4086466588
 20
109.9960866527
 30
0.0
 11
252.4086466588
 21
109.9455437766
 31
0.0
  0
LINE
  5
73
330
1F
100
AcDbEntity
  8
0
  6
SLD-Durchgehend
 62
     7
370
    15
100
AcDbLine
 10
130.1612524845
 20
131.6225181476
 30
0.0
 11
136.1697629623
 21
131.6225181476
 31
0.0
  0
LINE
  5
74
330
1F
100
AcDbEntity
  8
0
  6
SLD-Durchgehend
 62
     7
370
    15
100
AcDbLine
 10
136.1697629623
 20
100.5436328382
 30
0.0
 11
136.1697629623
 21
131.6225181476
 31
0.0
  0
LINE
  5
75
330
1F
100
AcDbEntity
  8
0
  6
SLD-Durchgehend
 62
     7
370
    15
100
AcDbLine
 10
136.1697629623
 20
100.5436328382
 30
0.0
 11
134.6549230226
 21
100.5436328382
 31
0.0
  0
ARC
  5
76
330
1F
100
AcDbEntity
  8
0
  6
SLD-Durchgehend
 62
     7
370
    15
100
AcDbCircle
 10
133.7618948423
 20
91.9861864742
 30
0.0
 40
8.603916991980206
100
AcDbArc
 50
84.0423571996
 51
114.7856280098
  0
LINE
  5
77
330
1F
100
AcDbEntity
  8
0
  6
SLD-Durchgehend
 62
     7
370
    15
100
AcDbLine
 10
130.1549232163
 20
99.7975335599
 30
0.0
 11
130.1549232163
 21
99.7725182355
 31
0.0
  0
ARC
  5
78
330
1F
100
AcDbEntity
  8
0
  6
SLD-Durchgehend
 62
     7
370
    15
100
AcDbCircle
 10
134.7252425516
 20
159.8701042207
 30
0.0
 40
20.61053030102916
100
AcDbArc
 50
257.3426687671
 51
269.8045164298
  0
LINE
  5
79
330
1F
100
AcDbEntity
  8
0
  6
SLD-Durchgehend
 62
     7
370
    15
100
AcDbLine
 10
136.1697629623
 20
139.259693879
 30
0.0
 11
134.6549230226
 21
139.259693879
 31
0.0
  0
LINE
  5
7A
330
1F
100
AcDbEntity
  8
0
  6
SLD-Durchgehend
 62
     7
370
    15
100
AcDbLine
 10
136.1697629623
 20
135.8839270801
 30
0.0
 11
136.1697629623
 21
139.259693879
 31
0.0
  0
LINE
  5
7B
330
1F
100
AcDbEntity
  8
0
  6
SLD-Durchgehend
 62
     7
370
    15
100
AcDbLine
 10
134.6549230226
 20
135.8839270801
 30
0.0
 11
136.1697629623
 21
135.8839270801
 31
0.0
  0
ARC
  5
7C
330
1F
100
AcDbEntity
  8
0
  6
SLD-Durchgehend
 62
     7
370
    15
100
AcDbCircle
 10
134.3912447034
 20
131.6619767139
 30
0.0
 40
4.230176255286756
100
AcDbArc
 50
86.4262824538
 51
180.5344557683
  0
LINE
  5
7D
330
1F
100
AcDbEntity
  8
0
  6
SLD-Durchgehend
 62
     7
370
    15
100
AcDbLine
 10
141.5549224772
 20
100.5436328382
 30
0.0
 11
140.240083129
 21
100.5436328382
 31
0.0
  0
LINE
  5
7E
330
1F
100
AcDbEntity
  8
0
  6
SLD-Durchgehend
 62
     7
370
    15
100
AcDbLine
 10
140.240083129
 20
100.5436328382
 30
0.0
 11
140.240083129
 21
131.6225181476
 31
0.0
  0
LINE
  5
7F
330
1F
100
AcDbEntity
  8
0
  6
SLD-Durchgehend
 62
     7
370
    15
100
AcDbLine
 10
140.240083129
 20
131.6225181476
 30
0.0
 11
141.5549224772
 21
131.6225181476
 31
0.0
  0
LWPOLYLINE
  5
80
330
1F
100
AcDbEntity
  8
0
  6
SLD-Durchgehend
 62
     7
370
    15
100
AcDbPolyline
 90
        3
 70
   128
 43
0.0
 10
140.240083129
 20
100.5436328382
 10
139.3007716693
 20
102.2419870974
 10
139.2449221172
 20
102.3433950872
  0
LINE
  5
81
330
1F
100
AcDbEntity
  8
0
  6
SLD-Durchgehend
 62
     7
370
    15
100
AcDbLine
 10
139.2449221172
 20
102.3433950872
 30
0.0
 11
139.2449221172
 21
131.6225181476
 31
0.0
  0
LINE
  5
82
330
1F
100
AcDbEntity
  8
0
  6
SLD-Durchgehend
 62
     7
370
    15
100
AcDbLine
 10
139.2449221172
 20
131.6225181476
 30
0.0
 11
140.240083129
 21
131.6225181476
 31
0.0
  0
LINE
  5
83
330
1F
100
AcDbEntity
  8
0
  6
SLD-Durchgehend
 62
     7
370
    15
100
AcDbLine
 10
137.1649230428
 20
102.3433950872
 30
0.0
 11
137.1649230428
 21
131.6225181476
 31
0.0
  0
LWPOLYLINE
  5
84
330
1F
100
AcDbEntity
  8
0
  6
SLD-Durchgehend
 62
     7
370
    15
100
AcDbPolyline
 90
        3
 70
   128
 43
0.0
 10
137.1649230428
 20
102.3433950872
 10
137.109074422
 20
102.2419870974
 10
136.1697629623
 20
100.5436328382
  0
LINE
  5
85
330
1F
100
AcDbEntity
  8
0
  6
SLD-Durchgehend
 62
     7
370
    15
100
AcDbLine
 10
136.1697629623
 20
131.6225181476
 30
0.0
 11
137.1649230428
 21
131.6225181476
 31
0.0
  0
LINE
  5
86
330
1F
100
AcDbEntity
  8
0
  6
SLD-Durchgehend
 62
     7
370
    15
100
AcDbLine
 10
142.1549233206
 20
101.1684850932
 30
0.0
 11
142.1549233206
 21
131.6225181476
 31
0.0
  0
ARC
  5
87
330
1F
100
AcDbEntity
  8
0
  6
SLD-Durchgehend
 62
     7
370
    15
100
AcDbCircle
 10
141.5436626154
 20
101.154939911
 30
0.0
 40
0.611410763449625
100
AcDbArc
 50
271.0552300829
 51
1.2694334473
  0
LINE
  5
88
330
1F
100
AcDbEntity
  8
0
  6
SLD-Durchgehend
 62
     7
370
    15
100
AcDbLine
 10
141.5549224772
 20
131.6225181476
 30
0.0
 11
142.1549233206
 21
131.6225181476
 31
0.0
  0
LINE
  5
89
330
1F
100
AcDbEntity
  8
0
  6
SLD-Durchgehend
 62
     7
370
    15
100
AcDbLine
 10
122.2049227514
 20
100.0725177259
 30
0.0
 11
122.2049227514
 21
139.4725178511
 31
0.0
  0
ARC
  5
8A
330
1F
100
AcDbEntity
  8
0
  6
SLD-Durchgehend
 62
     7
370
    15
100
AcDbCircle
 10
138.3713888716
 20
102.4505871691
 30
0.0
 40
0.8735337133099346
100
AcDbArc
 50
359.9407084121
 51
28.882614767
  0
LINE
  5
8B
330
1F
100
AcDbEntity
  8
0
  6
SLD-Durchgehend
 62
     7
370
    15
100
AcDbLine
 10
139.1362647124
 20
102.8725185574
 30
0.0
 11
138.4449234762
 21
102.8725185574
 31
0.0
  0
LINE
  5
8C
330
1F
100
AcDbEntity
  8
0
  6
SLD-Durchgehend
 62
     7
370
    15
100
AcDbLine
 10
138.4449234762
 20
131.6225181476
 30
0.0
 11
139.2449221172
 21
131.6225181476
 31
0.0
  0
LINE
  5
8D
330
1F
100
AcDbEntity
  8
0
  6
SLD-Durchgehend
 62
     7
370
    15
100
AcDbLine
 10
137.9649235465
 20
102.8725185574
 30
0.0
 11
137.2735804476
 21
102.8725185574
 31
0.0
  0
ARC
  5
8E
330
1F
100
AcDbEntity
  8
0
  6
SLD-Durchgehend
 62
     7
370
    15
100
AcDbCircle
 10
138.0390425447
 20
102.4504365169
 30
0.0
 40
0.8741198265173498
100
AcDbArc
 50
151.1272997695
 51
180.0493770514
  0
LINE
  5
8F
330
1F
100
AcDbEntity
  8
0
  6
SLD-Durchgehend
 62
     7
370
    15
100
AcDbLine
 10
137.1649230428
 20
131.6225181476
 30
0.0
 11
137.9649235465
 21
131.6225181476
 31
0.0
  0
LINE
  5
90
330
1F
100
AcDbEntity
  8
0
  6
SLD-Durchgehend
 62
     7
370
    15
100
AcDbLine
 10
138.4449234762
 20
102.8725185574
 30
0.0
 11
137.9649235465
 21
102.8725185574
 31
0.0
  0
LINE
  5
91
330
1F
100
AcDbEntity
  8
0
  6
SLD-Durchgehend
 62
     7
370
    15
100
AcDbLine
 10
137.9649235465
 20
131.6225181476
 30
0.0
 11
138.4449234762
 21
131.6225181476
 31
0.0
  0
LINE
  5
92
330
1F
100
AcDbEntity
  8
0
  6
SLD-Durchgehend
 62
     7
370
    15
100
AcDbLine
 10
120.2049226564
 20
104.6688172177
 30
0.0
 11
120.2049226564
 21
134.8762183593
 31
0.0
  0
LINE
  5
93
330
1F
100
AcDbEntity
  8
0
  6
SLD-Durchgehend
 62
     7
370
    15
100
AcDbLine
 10
108.4049229108
 20
105.2599993677
 30
0.0
 11
108.4049229108
 21
106.1689413295
 31
0.0
  0
LWPOLYLINE
  5
94
330
1F
100
AcDbEntity
  8
0
  6
SLD-Durchgehend
 62
     7
370
    15
100
AcDbPolyline
 90
        3
 70
   128
 43
0.0
 10
108.1136871658
 20
106.8385147632
 10
108.2449365936
 20
106.5694798858
 10
108.4049229108
 20
106.1689413295
  0
LWPOLYLINE
  5
95
330
1F
100
AcDbEntity
  8
0
  6
SLD-Durchgehend
 62
     7
370
    15
100
AcDbPolyline
 90
        7
 70
   128
 43
0.0
 10
107.504922577
 20
107.4886440442
 10
107.5682376109
 20
107.4881914214
 10
107.6296117686
 20
107.4767510549
 10
107.7070149191
 20
107.4462837682
 10
107.8123782359
 20
107.3731768088
 10
108.0004513793
 20
107.1220950366
 10
108.1136871658
 20
106.8385147632
  0
LWPOLYLINE
  5
96
330
1F
100
AcDbEntity
  8
0
  6
SLD-Durchgehend
 62
     7
370
    15
100
AcDbPolyline
 90
        3
 70
   128
 43
0.0
 10
103.4151321806
 20
107.0613374145
 10
105.4308755853
 20
107.2991469086
 10
107.504922577
 20
107.4886440442
  0
LINE
  5
97
330
1F
100
AcDbEntity
  8
0
  6
SLD-Durchgehend
 62
     7
370
    15
100
AcDbLine
 10
103.254922346
 20
107.0419826687
 30
0.0
 11
103.4151321806
 21
107.0613374145
 31
0.0
  0
LINE
  5
98
330
1F
100
AcDbEntity
  8
0
  6
SLD-Durchgehend
 62
     7
370
    15
100
AcDbLine
 10
103.2464063324
 20
107.0693402694
 30
0.0
 11
103.254922346
 21
107.0419826687
 31
0.0
  0
ELLIPSE
  5
99
330
1F
100
AcDbEntity
  8
0
  6
SLD-Durchgehend
 62
     7
370
    15
100
AcDbEllipse
 10
89.7781805435
 20
119.1332201107
 30
0.0
 11
13.37355272666618
 21
-13.37146352987012
 31
0.0
210
0.0
220
0.0
230
1.0
 40
0.1761188775
 41
0.3023035477142473
 42
0.3822730435340329
  0
ELLIPSE
  5
9A
330
1F
100
AcDbEntity
  8
0
  6
SLD-Durchgehend
 62
     7
370
    15
100
AcDbEllipse
 10
89.6988021128
 20
120.4116282398
 30
0.0
 11
13.369636111343
 21
13.36754752639486
 31
0.0
210
0.0
220
0.0
230
1.0
 40
0.1761188775
 41
5.933076931846598
 42
5.9767200526912
  0
LINE
  5
9B
330
1F
100
AcDbEntity
  8
0
  6
SLD-Durchgehend
 62
     7
370
    15
100
AcDbLine
 10
103.254922346
 20
132.6380984069
 30
0.0
 11
103.1557551183
 21
132.4459535212
 31
0.0
  0
LINE
  5
9C
330
1F
100
AcDbEntity
  8
0
  6
SLD-Durchgehend
 62
     7
370
    15
100
AcDbLine
 10
105.0049221672
 20
132.553311731
 30
0.0
 11
103.254922346
 21
132.6380984069
 31
0.0
  0
ARC
  5
9D
330
1F
100
AcDbEntity
  8
0
  6
SLD-Durchgehend
 62
     7
370
    15
100
AcDbCircle
 10
104.8499575225
 20
133.6426518228
 30
0.0
 40
1.100307173752336
100
AcDbArc
 50
278.0963186522
 51
343.4942707128
  0
LINE
  5
9E
330
1F
100
AcDbEntity
  8
0
  6
SLD-Durchgehend
 62
     7
370
    15
100
AcDbLine
 10
105.904922501
 20
133.3300422088
 30
0.0
 11
105.904922501
 21
134.1597854302
 31
0.0
  0
LWPOLYLINE
  5
9F
330
1F
100
AcDbEntity
  8
0
  6
SLD-Durchgehend
 62
     7
370
    15
100
AcDbPolyline
 90
       13
 70
   128
 43
0.0
 10
113.4254212089
 20
105.0092733608
 10
113.421284274
 20
105.0086959408
 10
113.6429232143
 20
105.0396000178
 10
114.2474381782
 20
105.1078287096
 10
114.6665775746
 20
105.1391453625
 10
115.1501346909
 20
105.1591110558
 10
115.6727570638
 20
105.1621965275
 10
116.2091262236
 20
105.1443030269
 10
116.7422976874
 20
105.1053690867
 10
117.2621642769
 20
105.0474482731
 10
118.1502623081
 20
104.9052939893
 10
118.736795063
 20
104.7805060775
 10
118.9363269665
 20
104.733169745
  0
LWPOLYLINE
  5
A0
330
1F
100
AcDbEntity
  8
0
  6
SLD-Durchgehend
 62
     7
370
    15
100
AcDbPolyline
 90
       13
 70
   128
 43
0.0
 10
118.9361854054
 20
134.8118164719
 10
118.7351442937
 20
134.7643795566
 10
118.1468164146
 20
134.6390607909
 10
117.2612064116
 20
134.4971821786
 10
116.7435004905
 20
134.4395975725
 10
116.2102419481
 20
134.4007660777
 10
115.6737763964
 20
134.3829182119
 10
115.1501225837
 20
134.3860176534
 10
114.6660793171
 20
134.4059758962
 10
114.2459182598
 20
134.4373214201
 10
113.6417693056
 20
134.5055454553
 10
113.4211622708
 20
134.5363368423
 10
113.424953685
 20
134.5358041258
  0
LWPOLYLINE
  5
A1
330
1F
100
AcDbEntity
  8
0
  6
SLD-Durchgehend
 62
     7
370
    15
100
AcDbPolyline
 90
       13
 70
   128
 43
0.0
 10
103.0648934253
 20
132.160598147
 10
102.9001704015
 20
131.7630305098
 10
102.8176850237
 20
131.6040481583
 10
102.7097205229
 20
131.4267951206
 10
102.6564842619
 20
131.3518813954
 10
102.5919976242
 20
131.2731203766
 10
102.5531987258
 20
131.2329589532
 10
102.5138317205
 20
131.1988855855
 10
102.4823157646
 20
131.1775145263
 10
102.4427494563
 20
131.1603893668
 10
102.3927709617
 20
131.1620843739
 10
102.3214428284
 20
131.2932481201
 10
102.3049230285
 20
131.5507494987
  0
LWPOLYLINE
  5
A2
330
1F
100
AcDbEntity
  8
0
  6
SLD-Durchgehend
 62
     7
370
    15
100
AcDbPolyline
 90
       11
 70
   128
 43
0.0
 10
102.3049230285
 20
108.2250044824
 10
102.3299066879
 20
108.4769849808
 10
102.3884533502
 20
108.5563904748
 10
102.4402535118
 20
108.5570032851
 10
102.4740046419
 20
108.5427251787
 10
102.5178196438
 20
108.513095151
 10
102.5613068201
 20
108.4743903161
 10
102.6090352394
 20
108.4235000567
 10
102.6775675424
 20
108.3377233849
 10
102.8167760529
 20
108.1241469042
 10
103.0648934253
 20
107.6055324779
  0
LINE
  5
A3
330
1F
100
AcDbEntity
  8
0
  6
SLD-Durchgehend
 62
     7
370
    15
100
AcDbLine
 10
102.3049230285
 20
108.2250044824
 30
0.0
 11
102.3049230285
 21
131.5507494987
 31
0.0
  0
ELLIPSE
  5
A4
330
1F
100
AcDbEntity
  8
0
  6
SLD-Durchgehend
 62
     7
370
    15
100
AcDbEllipse
 10
234.4422882373
 20
119.7725177885
 30
0.0
 11
0.2516063682710694
 21
12.499819213438
 31
0.0
210
0.0
220
0.0
230
1.0
 40
0.2671959542
 41
0.326583233678893
 42
2.965392324511984
  0
ELLIPSE
  5
A5
330
1F
100
AcDbEntity
  8
0
  6
SLD-Durchgehend
 62
     7
370
    15
100
AcDbEllipse
 10
232.5876840545
 20
114.2173134924
 30
0.0
 11
-0.0703125984377664
 21
2.263843720993521
 31
0.0
210
0.0
220
0.0
230
1.0
 40
0.2654103329
 41
0.0
 42
6.283185307179586
  0
ARC
  5
A6
330
1F
100
AcDbEntity
  8
0
  6
SLD-Durchgehend
 62
     7
370
    15
100
AcDbCircle
 10
235.8212979944
 20
127.6021453045
 30
0.0
 40
4.598176216902066
100
AcDbArc
 50
81.4250216906
 51
118.7571242499
  0
ARC
  5
A7
330
1F
100
AcDbEntity
  8
0
  6
SLD-Durchgehend
 62
     7
370
    15
100
AcDbCircle
 10
235.8026014285
 20
117.8751077737
 30
0.0
 40
10.62594844289767
100
AcDbArc
 50
258.08699077
 51
273.8004205128
  0
LINE
  5
A8
330
1F
100
AcDbEntity
  8
0
  6
SLD-Durchgehend
 62
     7
370
    15
100
AcDbLine
 10
236.5069022931
 20
107.2725259841
 30
0.0
 11
238.2049194135
 21
107.2725259841
 31
0.0
  0
LINE
  5
A9
330
1F
100
AcDbEntity
  8
0
  6
SLD-Durchgehend
 62
     7
370
    15
100
AcDbLine
 10
238.2049194135
 20
132.2725179748
 30
0.0
 11
238.2049194135
 21
132.1489212246
 31
0.0
  0
LINE
  5
AA
330
1F
100
AcDbEntity
  8
0
  6
SLD-Durchgehend
 62
     7
370
    15
100
AcDbLine
 10
238.2049194135
 20
132.1489212246
 30
0.0
 11
236.5069022931
 21
132.1489212246
 31
0.0
  0
LINE
  5
AB
330
1F
100
AcDbEntity
  8
0
  6
SLD-Durchgehend
 62
     7
370
    15
100
AcDbLine
 10
138.8562663056
 20
136.6725170196
 30
0.0
 11
138.4449234762
 21
136.6725170196
 31
0.0
  0
ARC
  5
AC
330
1F
100
AcDbEntity
  8
0
  6
SLD-Durchgehend
 62
     7
370
    15
100
AcDbCircle
 10
138.4109508159
 20
137.3776538922
 30
0.0
 40
0.8339807518488634
100
AcDbArc
 50
302.2736627564
 51
0.2727649904
  0
LWPOLYLINE
  5
AD
330
1F
100
AcDbEntity
  8
0
  6
SLD-Durchgehend
 62
     7
370
    15
100
AcDbPolyline
 90
        7
 70
   128
 43
0.0
 10
138.4449234762
 20
132.4795286314
 10
138.4857005038
 20
132.4809507609
 10
138.6805499502
 20
132.5280095593
 10
138.8557820179
 20
132.6343740479
 10
139.0557053097
 20
132.86428127
 10
139.2085036792
 20
133.2369472043
 10
139.2449221172
 20
133.5532336638
  0
LWPOLYLINE
  5
AE
330
1F
100
AcDbEntity
  8
0
  6
SLD-Durchgehend
 62
     7
370
    15
100
AcDbPolyline
 90
        3
 70
   128
 43
0.0
 10
137.1649230428
 20
137.4861949266
 10
136.2358468183
 20
139.1422019483
 10
136.1697629623
 20
139.259693879
  0
LINE
  5
AF
330
1F
100
AcDbEntity
  8
0
  6
SLD-Durchgehend
 62
     7
370
    15
100
AcDbLine
 10
137.1649230428
 20
133.6866055758
 30
0.0
 11
137.1649230428
 21
137.4861949266
 31
0.0
  0
LINE
  5
B0
330
1F
100
AcDbEntity
  8
0
  6
SLD-Durchgehend
 62
     7
370
    15
100
AcDbLine
 10
136.1697629623
 20
135.8839270801
 30
0.0
 11
137.1649230428
 21
133.6866055758
 31
0.0
  0
ARC
  5
B1
330
1F
100
AcDbEntity
  8
0
  6
SLD-Durchgehend
 62
     7
370
    15
100
AcDbCircle
 10
141.5468181811
 20
138.6515875554
 30
0.0
 40
0.6081603245705153
100
AcDbArc
 50
359.2281322855
 51
89.2364584066
  0
ARC
  5
B2
330
1F
100
AcDbEntity
  8
0
  6
SLD-Durchgehend
 62
     7
370
    15
100
AcDbCircle
 10
141.4593437718
 20
135.1923727
 30
0.0
 40
0.6981280323795389
100
AcDbArc
 50
355.1028521375
 51
82.1310855252
  0
LINE
  5
B3
330
1F
100
AcDbEntity
  8
0
  6
SLD-Durchgehend
 62
     7
370
    15
100
AcDbLine
 10
142.1549233206
 20
135.1327753768
 30
0.0
 11
142.1549233206
 21
138.6433948905
 31
0.0
  0
LWPOLYLINE
  5
B4
330
1F
100
AcDbEntity
  8
0
  6
SLD-Durchgehend
 62
     7
370
    15
100
AcDbPolyline
 90
        3
 70
   128
 43
0.0
 10
140.240083129
 20
139.259693879
 10
140.1739983417
 20
139.1422019483
 10
139.2449221172
 20
137.4861949266
  0
LINE
  5
B5
330
1F
100
AcDbEntity
  8
0
  6
SLD-Durchgehend
 62
     7
370
    15
100
AcDbLine
 10
140.240083129
 20
135.8839270801
 30
0.0
 11
140.240083129
 21
139.259693879
 31
0.0
  0
LINE
  5
B6
330
1F
100
AcDbEntity
  8
0
  6
SLD-Durchgehend
 62
     7
370
    15
100
AcDbLine
 10
139.2449221172
 20
133.6866055758
 30
0.0
 11
140.240083129
 21
135.8839270801
 31
0.0
  0
LINE
  5
B7
330
1F
100
AcDbEntity
  8
0
  6
SLD-Durchgehend
 62
     7
370
    15
100
AcDbLine
 10
139.2449221172
 20
133.6866055758
 30
0.0
 11
139.2449221172
 21
137.4861949266
 31
0.0
  0
ARC
  5
B8
330
1F
100
AcDbEntity
  8
0
  6
SLD-Durchgehend
 62
     7
370
    15
100
AcDbCircle
 10
138.1218134721
 20
133.4313111414
 30
0.0
 40
0.9646265573026465
100
AcDbArc
 50
172.7387644894
 51
260.6396510406
  0
LINE
  5
B9
330
1F
100
AcDbEntity
  8
0
  6
SLD-Durchgehend
 62
     7
370
    15
100
AcDbLine
 10
137.9649235465
 20
132.4795286314
 30
0.0
 11
138.4449234762
 21
132.4795286314
 31
0.0
  0
LINE
  5
BA
330
1F
100
AcDbEntity
  8
0
  6
SLD-Durchgehend
 62
     7
370
    15
100
AcDbLine
 10
140.240083129
 20
135.8839270801
 30
0.0
 11
141.5549224772
 21
135.8839270801
 31
0.0
  0
LINE
  5
BB
330
1F
100
AcDbEntity
  8
0
  6
SLD-Durchgehend
 62
     7
370
    15
100
AcDbLine
 10
137.1649230428
 20
133.6866055758
 30
0.0
 11
137.1649230428
 21
133.5532336638
 31
0.0
  0
LINE
  5
BC
330
1F
100
AcDbEntity
  8
0
  6
SLD-Durchgehend
 62
     7
370
    15
100
AcDbLine
 10
139.2449221172
 20
133.5532336638
 30
0.0
 11
139.2449221172
 21
133.6866055758
 31
0.0
  0
LINE
  5
BD
330
1F
100
AcDbEntity
  8
0
  6
SLD-Durchgehend
 62
     7
370
    15
100
AcDbLine
 10
142.1549233206
 20
135.1327753768
 30
0.0
 11
142.1549233206
 21
131.6225181476
 31
0.0
  0
LINE
  5
BE
330
1F
100
AcDbEntity
  8
0
  6
SLD-Durchgehend
 62
     7
370
    15
100
AcDbLine
 10
138.4449234762
 20
136.6725170196
 30
0.0
 11
137.9649235465
 21
136.6725170196
 31
0.0
  0
ARC
  5
BF
330
1F
100
AcDbEntity
  8
0
  6
SLD-Durchgehend
 62
     7
370
    15
100
AcDbCircle
 10
137.9982646193
 20
137.3773093292
 30
0.0
 40
0.83335274693729
100
AcDbArc
 50
179.7033393082
 51
237.7503486794
  0
LINE
  5
C0
330
1F
100
AcDbEntity
  8
0
  6
SLD-Durchgehend
 62
     7
370
    15
100
AcDbLine
 10
137.9649235465
 20
136.6725170196
 30
0.0
 11
137.5535797857
 21
136.6725170196
 31
0.0
  0
LINE
  5
C1
330
1F
100
AcDbEntity
  8
0
  6
SLD-Durchgehend
 62
     7
370
    15
100
AcDbLine
 10
141.5549224772
 20
139.259693879
 30
0.0
 11
140.240083129
 21
139.259693879
 31
0.0
  0
LINE
  5
C2
330
1F
100
AcDbEntity
  8
0
  6
SLD-Durchgehend
 62
     7
370
    15
100
AcDbLine
 10
102.3049230285
 20
107.9540454925
 30
0.0
 11
102.3049230285
 21
108.2250044824
 31
0.0
  0
LINE
  5
C3
330
1F
100
AcDbEntity
  8
0
  6
SLD-Durchgehend
 62
     7
370
    15
100
AcDbLine
 10
102.3049230285
 20
131.6464317174
 30
0.0
 11
102.3049230285
 21
131.5507494987
 31
0.0
  0
LINE
  5
C4
330
1F
100
AcDbEntity
  8
0
  6
SLD-Durchgehend
 62
     7
370
    15
100
AcDbLine
 10
103.254922346
 20
132.6525180743
 30
0.0
 11
103.254922346
 21
132.6380984069
 31
0.0
  0
LINE
  5
C5
330
1F
100
AcDbEntity
  8
0
  6
SLD-Durchgehend
 62
     7
370
    15
100
AcDbLine
 10
102.3049230285
 20
131.7025178255
 30
0.0
 11
102.3049230285
 21
131.6464317174
 31
0.0
  0
LINE
  5
C6
330
1F
100
AcDbEntity
  8
0
  6
SLD-Durchgehend
 62
     7
370
    15
100
AcDbLine
 10
103.254922346
 20
106.9515177191
 30
0.0
 11
103.254922346
 21
107.0419826687
 31
0.0
  0
LINE
  5
C7
330
1F
100
AcDbEntity
  8
0
  6
SLD-Durchgehend
 62
     7
370
    15
100
AcDbLine
 10
102.3049230285
 20
107.901517968
 30
0.0
 11
102.3049230285
 21
107.9540454925
 31
0.0
  0
LINE
  5
C8
330
1F
100
AcDbEntity
  8
0
  6
SLD-Durchgehend
 62
     7
370
    15
100
AcDbLine
 10
238.7049204268
 20
132.6489119933
 30
0.0
 11
238.7049204268
 21
132.7725180567
 31
0.0
  0
LINE
  5
C9
330
1F
100
AcDbEntity
  8
0
  6
SLD-Durchgehend
 62
     7
370
    15
100
AcDbLine
 10
252.6657512941
 20
132.6489119933
 30
0.0
 11
238.7049204268
 21
132.6489119933
 31
0.0
  0
ELLIPSE
  5
CA
330
1F
100
AcDbEntity
  8
0
  6
SLD-Durchgehend
 62
     7
370
    15
100
AcDbEllipse
 10
256.641054161
 20
119.7725177885
 30
0.0
 11
-4.247080252762999
 21
12.993570470854
 31
0.0
210
0.0
220
0.0
230
1.0
 40
0.0962569477
 41
6.11372402473437
 42
6.251733123200067
  0
LINE
  5
CB
330
1F
100
AcDbEntity
  8
0
  6
SLD-Durchgehend
 62
     7
370
    15
100
AcDbLine
 10
238.9409995236
 20
106.5364961655
 30
0.0
 11
238.2049194135
 21
107.2725259841
 31
0.0
  0
LINE
  5
CC
330
1F
100
AcDbEntity
  8
0
  6
SLD-Durchgehend
 62
     7
370
    15
100
AcDbLine
 10
238.2049194135
 20
132.1489212246
 30
0.0
 11
238.7049204268
 21
132.6489119933
 31
0.0
  0
LINE
  5
CD
330
1F
100
AcDbEntity
  8
0
  6
SLD-Durchgehend
 62
     7
370
    15
100
AcDbLine
 10
251.4125338353
 20
115.9847909262
 30
0.0
 11
250.709199027
 21
118.210055833
 31
0.0
  0
ARC
  5
CE
330
1F
100
AcDbEntity
  8
0
  6
SLD-Durchgehend
 62
     7
370
    15
100
AcDbCircle
 10
249.2635948446
 20
117.7530958046
 30
0.0
 40
1.516108149062616
100
AcDbArc
 50
17.5419092359
 51
197.378075392
  0
LINE
  5
CF
330
1F
100
AcDbEntity
  8
0
  6
SLD-Durchgehend
 62
     7
370
    15
100
AcDbLine
 10
247.8166899242
 20
117.3002712571
 30
0.0
 11
248.0468383588
 21
116.5720855028
 31
0.0
  0
ELLIPSE
  5
D0
330
1F
100
AcDbEntity
  8
0
  6
SLD-Durchgehend
 62
     7
370
    15
100
AcDbEllipse
 10
246.6560800906
 20
80.405050631
 30
0.0
 11
0.0
 21
26.13144513619375
 31
0.0
210
0.0
220
0.0
230
1.0
 40
0.9949698482
 41
6.101468144905017
 42
6.283185307179586
  0
LINE
  5
D1
330
1F
100
AcDbEntity
  8
0
  6
SLD-Durchgehend
 62
     7
370
    15
100
AcDbLine
 10
246.6560831823
 20
106.5364961655
 30
0.0
 11
238.9409995236
 21
106.5364961655
 31
0.0
  0
LINE
  5
D2
330
1F
100
AcDbEntity
  8
0
  6
SLD-Durchgehend
 62
     7
370
    15
100
AcDbLine
 10
252.6657512941
 20
132.6489119933
 30
0.0
 11
258.65250142
 21
113.7075980336
 31
0.0
  0
ARC
  5
D3
330
1F
100
AcDbEntity
  8
0
  6
SLD-Durchgehend
 62
     7
370
    15
100
AcDbCircle
 10
249.263546256
 20
117.904621866
 30
0.0
 40
1.249725502158995
100
AcDbArc
 50
17.5519346693
 51
197.3680279075
  0
LINE
  5
D4
330
1F
100
AcDbEntity
  8
0
  6
SLD-Durchgehend
 62
     7
370
    15
100
AcDbLine
 10
250.4550895252
 20
118.2815017787
 30
0.0
 11
251.1554441013
 21
116.065652543
 31
0.0
  0
LINE
  5
D5
330
1F
100
AcDbEntity
  8
0
  6
SLD-Durchgehend
 62
     7
370
    15
100
AcDbLine
 10
248.070799426
 20
117.5315684781
 30
0.0
 11
248.2798180141
 21
116.8702437685
 31
0.0
  0
LINE
  5
D6
330
1F
100
AcDbEntity
  8
0
  6
SLD-Durchgehend
 62
     7
370
    15
100
AcDbLine
 10
248.014040903
 20
117.9588525233
 30
0.0
 11
248.070799426
 21
117.6362032679
 31
0.0
  0
LINE
  5
D7
330
1F
100
AcDbEntity
  8
0
  6
SLD-Durchgehend
 62
     7
370
    15
100
AcDbLine
 10
248.070799426
 20
117.6362032679
 30
0.0
 11
248.3100822725
 21
116.87914209
 31
0.0
  0
LINE
  5
D8
330
1F
100
AcDbEntity
  8
0
  6
SLD-Durchgehend
 62
     7
370
    15
100
AcDbLine
 10
248.081334547
 20
116.3861869977
 30
0.0
 11
251.2842199363
 21
106.2526467399
 31
0.0
  0
LINE
  5
D9
330
1F
100
AcDbEntity
  8
0
  6
SLD-Durchgehend
 62
     7
370
    15
100
AcDbLine
 10
249.8632303037
 20
115.1367833049
 30
0.0
 11
248.4437456884
 21
116.5154811137
 31
0.0
  0
LINE
  5
DA
330
1F
100
AcDbEntity
  8
0
  6
SLD-Durchgehend
 62
     7
370
    15
100
AcDbLine
 10
251.8224051751
 20
106.5661522702
 30
0.0
 11
251.6466310777
 21
106.3819403903
 31
0.0
  0
ARC
  5
DB
330
1F
100
AcDbEntity
  8
0
  6
SLD-Durchgehend
 62
     7
370
    15
100
AcDbCircle
 10
251.6433969638
 20
106.3646102905
 30
0.0
 40
0.3962070500704835
100
AcDbArc
 50
197.5459654991
 51
252.5937556065
  0
LINE
  5
DC
330
1F
100
AcDbEntity
  8
0
  6
SLD-Durchgehend
 62
     7
370
    15
100
AcDbLine
 10
248.0596384563
 20
116.388456398
 30
0.0
 11
251.2656232871
 21
106.2451654256
 31
0.0
  0
LINE
  5
DD
330
1F
100
AcDbEntity
  8
0
  6
SLD-Durchgehend
 62
     7
370
    15
100
AcDbLine
 10
258.7237885751
 20
113.6851741144
 30
0.0
 11
248.5557428159
 21
116.8833416564
 31
0.0
  0
ARC
  5
DE
330
1F
100
AcDbEntity
  8
0
  6
SLD-Durchgehend
 62
     7
370
    15
100
AcDbCircle
 10
258.605304046
 20
113.3071493385
 30
0.0
 40
0.3961581941250266
100
AcDbArc
 50
17.5422049828
 51
72.5974129582
  0
LINE
  5
DF
330
1F
100
AcDbEntity
  8
0
  6
SLD-Durchgehend
 62
     7
370
    15
100
AcDbLine
 10
262.1890238084
 20
103.2832634778
 30
0.0
 11
258.9830389776
 21
113.426554683
 31
0.0
  0
ARC
  5
E0
330
1F
100
AcDbEntity
  8
0
  6
SLD-Durchgehend
 62
     7
370
    15
100
AcDbCircle
 10
261.8148781162
 20
103.1622293555
 30
0.0
 40
0.3932356262497059
100
AcDbArc
 50
251.9345286033
 51
17.9261157233
  0
LINE
  5
E1
330
1F
100
AcDbEntity
  8
0
  6
SLD-Durchgehend
 62
     7
370
    15
100
AcDbLine
 10
251.5248736896
 20
105.9865464599
 30
0.0
 11
261.6929343499
 21
102.7883791507
 31
0.0
  0
ARC
  5
E2
330
1F
100
AcDbEntity
  8
0
  6
SLD-Durchgehend
 62
     7
370
    15
100
AcDbCircle
 10
248.4434365902
 20
116.49988109
 30
0.0
 40
0.3795316012541664
100
AcDbArc
 50
72.4297293237
 51
197.4314317287
  0
ARC
  5
E3
330
1F
100
AcDbEntity
  8
0
  6
SLD-Durchgehend
 62
     7
370
    15
100
AcDbCircle
 10
251.6460656155
 20
106.3672329726
 30
0.0
 40
0.3795553982096098
100
AcDbArc
 50
197.5715131582
 51
252.5692927945
  0
LINE
  5
E4
330
1F
100
AcDbEntity
  8
0
  6
SLD-Durchgehend
 62
     7
370
    15
100
AcDbLine
 10
251.5323689737
 20
106.0051067875
 30
0.0
 11
261.6906544723
 21
102.8100137741
 31
0.0
  0
ARC
  5
E5
330
1F
100
AcDbEntity
  8
0
  6
SLD-Durchgehend
 62
     7
370
    15
100
AcDbCircle
 10
261.8052241214
 20
103.1718523225
 30
0.0
 40
0.3795435937879206
100
AcDbArc
 50
252.4305484967
 51
17.4289056418
  0
LINE
  5
E6
330
1F
100
AcDbEntity
  8
0
  6
SLD-Durchgehend
 62
     7
370
    15
100
AcDbLine
 10
262.1673426189
 20
103.2855340422
 30
0.0
 11
258.9644423284
 21
113.4190738344
 31
0.0
  0
ARC
  5
E7
330
1F
100
AcDbEntity
  8
0
  6
SLD-Durchgehend
 62
     7
370
    15
100
AcDbCircle
 10
258.602596218
 20
113.3044864882
 30
0.0
 40
0.3795561454090616
100
AcDbArc
 50
17.5716537465
 51
72.5692599882
  0
LINE
  5
E8
330
1F
100
AcDbEntity
  8
0
  6
SLD-Durchgehend
 62
     7
370
    15
100
AcDbLine
 10
258.716293291
 20
113.6666133211
 30
0.0
 11
248.5580077924
 21
116.8617065673
 31
0.0
  0
ARC
  5
E9
330
1F
100
AcDbEntity
  8
0
  6
SLD-Durchgehend
 62
     7
370
    15
100
AcDbCircle
 10
248.4337958296
 20
116.5094831858
 30
0.0
 40
0.3932444830243191
100
AcDbArc
 50
71.9344560393
 51
197.9245751354
  0
LINE
  5
EA
330
1F
100
AcDbEntity
  8
0
  6
SLD-Durchgehend
 62
     7
370
    15
100
AcDbLine
 10
258.4262719907
 20
113.1539351449
 30
0.0
 11
258.602031187
 21
113.3203881004
 31
0.0
  0
ARC
  5
EB
330
1F
100
AcDbEntity
  8
0
  6
SLD-Durchgehend
 62
     7
370
    15
100
AcDbCircle
 10
237.8972250696
 20
102.8457933398
 30
0.0
 40
17.15382510067283
100
AcDbArc
 50
43.4552168302
 51
45.7675781515
  0
ARC
  5
EC
330
1F
100
AcDbEntity
  8
0
  6
SLD-Durchgehend
 62
     7
370
    15
100
AcDbCircle
 10
251.8425793603
 20
113.1080333232
 30
0.0
 40
0.9987757538443692
100
AcDbArc
 50
72.4302415464
 51
197.4306160978
  0
LINE
  5
ED
330
1F
100
AcDbEntity
  8
0
  6
SLD-Durchgehend
 62
     7
370
    15
100
AcDbLine
 10
260.385431961
 20
104.6402079196
 30
0.0
 11
261.8049165763
 21
103.1868473769
 31
0.0
  0
LINE
  5
EE
330
1F
100
AcDbEntity
  8
0
  6
SLD-Durchgehend
 62
     7
370
    15
100
AcDbLine
 10
257.1330002107
 20
112.49105047
 30
0.0
 11
252.1440765418
 21
114.0602163182
 31
0.0
  0
LINE
  5
EF
330
1F
100
AcDbEntity
  8
0
  6
SLD-Durchgehend
 62
     7
370
    15
100
AcDbLine
 10
259.3590101756
 20
106.8628707112
 30
0.0
 11
257.7859988965
 21
111.8396294446
 31
0.0
  0
ARC
  5
F0
330
1F
100
AcDbEntity
  8
0
  6
SLD-Durchgehend
 62
     7
370
    15
100
AcDbCircle
 10
258.4060788611
 20
106.5637021859
 30
0.0
 40
0.998789215401511
100
AcDbArc
 50
252.4307293587
 51
17.4294476737
  0
LINE
  5
F1
330
1F
100
AcDbEntity
  8
0
  6
SLD-Durchgehend
 62
     7
370
    15
100
AcDbLine
 10
253.1156769552
 20
107.1806696386
 30
0.0
 11
258.1045857229
 21
105.6115037904
 31
0.0
  0
ARC
  5
F2
330
1F
100
AcDbEntity
  8
0
  6
SLD-Durchgehend
 62
     7
370
    15
100
AcDbCircle
 10
253.4147989602
 20
108.1335384559
 30
0.0
 40
0.9987156536608285
100
AcDbArc
 50
197.5678780976
 51
252.5720246805
  0
LINE
  5
F3
330
1F
100
AcDbEntity
  8
0
  6
SLD-Durchgehend
 62
     7
370
    15
100
AcDbLine
 10
250.8896669902
 20
112.8088493974
 30
0.0
 11
252.4626633682
 21
107.832090664
 31
0.0
  0
ARC
  5
F4
330
1F
100
AcDbEntity
  8
0
  6
SLD-Durchgehend
 62
     7
370
    15
100
AcDbCircle
 10
256.8338434501
 20
111.5381685927
 30
0.0
 40
0.998738524026658
100
AcDbArc
 50
17.5682485849
 51
72.570346746
  0
CIRCLE
  5
F5
330
1F
100
AcDbEntity
  8
0
  6
SLD-Durchgehend
 62
     7
370
    15
100
AcDbCircle
 10
255.1279604984
 20
109.8304114511
 30
0.0
 40
3.047350725151492
  0
ARC
  5
F6
330
1F
100
AcDbEntity
  8
0
  6
SLD-Durchgehend
 62
     7
370
    15
100
AcDbCircle
 10
267.9411006254
 20
103.1565420252
 30
0.0
 40
13.80144315423738
100
AcDbArc
 50
133.5832841757
 51
136.476387698
  0
ARC
  5
F7
330
1F
100
AcDbEntity
  8
0
  6
SLD-Durchgehend
 62
     7
370
    15
100
AcDbCircle
 10
255.1243385829
 20
109.9107995783
 30
0.0
 40
3.050004055940521
100
AcDbArc
 50
180.0992983632
 51
359.9007016368
  0
ARC
  5
F8
330
1F
100
AcDbEntity
  8
0
  6
SLD-Durchgehend
 62
     7
370
    15
100
AcDbCircle
 10
261.3525927639
 20
97.4717507604
 30
0.0
 40
13.17317783602305
100
AcDbArc
 50
133.3198859074
 51
136.3403865065
  0
ARC
  5
F9
330
1F
100
AcDbEntity
  8
0
  6
SLD-Durchgehend
 62
     7
370
    15
100
AcDbCircle
 10
248.8078335864
 20
93.3305516929
 30
0.0
 40
16.18484192354257
100
AcDbArc
 50
44.3292663011
 51
46.7409849546
  0
CIRCLE
  5
FA
330
1F
100
AcDbEntity
  8
0
  6
SLD-Durchgehend
 62
     7
370
    15
100
AcDbCircle
 10
255.0314274736
 20
109.9497761802
 30
0.0
 40
2.62261234155321
  0
CIRCLE
  5
FB
330
1F
100
AcDbEntity
  8
0
  6
SLD-Durchgehend
 62
     7
370
    15
100
AcDbCircle
 10
255.0319892863
 20
109.9292099124
 30
0.0
 40
1.798322061620461
  0
ARC
  5
FC
330
1F
100
AcDbEntity
  8
0
  6
SLD-Durchgehend
 62
     7
370
    15
100
AcDbCircle
 10
255.0373076808
 20
109.9278502167
 30
0.0
 40
1.671505182387013
100
AcDbArc
 50
293.3150681993
 51
351.9502005192
  0
ARC
  5
FD
330
1F
100
AcDbEntity
  8
0
  6
SLD-Durchgehend
 62
     7
370
    15
100
AcDbCircle
 10
255.0395530264
 20
109.9260730735
 30
0.0
 40
1.669033726470135
100
AcDbArc
 50
351.9998126679
 51
52.2045263024
  0
ARC
  5
FE
330
1F
100
AcDbEntity
  8
0
  6
SLD-Durchgehend
 62
     7
370
    15
100
AcDbCircle
 10
255.0336040382
 20
109.9190295166
 30
0.0
 40
1.678245418756254
100
AcDbArc
 50
52.1914060255
 51
110.6634328039
  0
LINE
  5
FF
330
1F
100
AcDbEntity
  8
0
  6
SLD-Durchgehend
 62
     7
370
    15
100
AcDbLine
 10
254.3626955308
 20
111.4573420168
 30
0.0
 11
254.4413885631
 21
111.4893124581
 31
0.0
  0
ARC
  5
100
330
1F
100
AcDbEntity
  8
0
  6
SLD-Durchgehend
 62
     7
370
    15
100
AcDbCircle
 10
255.0301164555
 20
109.9246521779
 30
0.0
 40
1.67170237572907
100
AcDbArc
 50
113.5310671291
 51
170.0034441236
  0
LINE
  5
101
330
1F
100
AcDbEntity
  8
0
  6
SLD-Durchgehend
 62
     7
370
    15
100
AcDbLine
 10
253.3673426666
 20
110.0964571492
 30
0.0
 11
253.3837935485
 21
110.2148412869
 31
0.0
  0
ARC
  5
102
330
1F
100
AcDbEntity
  8
0
  6
SLD-Durchgehend
 62
     7
370
    15
100
AcDbCircle
 10
255.0276471033
 20
109.9266092242
 30
0.0
 40
1.668969484565593
100
AcDbArc
 50
174.1590028824
 51
230.0452402319
  0
LINE
  5
103
330
1F
100
AcDbEntity
  8
0
  6
SLD-Durchgehend
 62
     7
370
    15
100
AcDbLine
 10
254.0502777852
 20
108.5736758218
 30
0.0
 11
253.9558640279
 21
108.6472577558
 31
0.0
  0
ARC
  5
104
330
1F
100
AcDbEntity
  8
0
  6
SLD-Durchgehend
 62
     7
370
    15
100
AcDbCircle
 10
255.0336728964
 20
109.9337059439
 30
0.0
 40
1.678316977674335
100
AcDbArc
 50
234.13048867
 51
290.4498434526
  0
LINE
  5
105
330
1F
100
AcDbEntity
  8
0
  6
SLD-Durchgehend
 62
     7
370
    15
100
AcDbLine
 10
255.6988677539
 20
108.3928362609
 30
0.0
 11
255.6200555124
 21
108.3611591862
 31
0.0
  0
ARC
  5
106
330
1F
100
AcDbEntity
  8
0
  6
SLD-Durchgehend
 62
     7
370
    15
100
AcDbCircle
 10
254.5235351061
 20
111.1680208144
 30
0.0
 40
0.3310228498294321
100
AcDbArc
 50
119.0705780063
 51
188.7204870939
  0
ARC
  5
107
330
1F
100
AcDbEntity
  8
0
  6
SLD-Durchgehend
 62
     7
370
    15
100
AcDbCircle
 10
253.6132826652
 20
111.0323667827
 30
0.0
 40
0.5892869679914516
100
AcDbArc
 50
275.6323128556
 51
8.3392087523
  0
ARC
  5
108
330
1F
100
AcDbEntity
  8
0
  6
SLD-Durchgehend
 62
     7
370
    15
100
AcDbCircle
 10
253.7060211257
 20
110.1083585806
 30
0.0
 40
0.3393658472207035
100
AcDbArc
 50
95.9032436941
 51
161.7134447678
  0
ARC
  5
109
330
1F
100
AcDbEntity
  8
0
  6
SLD-Durchgehend
 62
     7
370
    15
100
AcDbCircle
 10
255.8549393838
 20
110.9782856768
 30
0.0
 40
0.3378669713905899
100
AcDbArc
 50
52.1160476981
 51
128.0492798182
  0
ARC
  5
10A
330
1F
100
AcDbEntity
  8
0
  6
SLD-Durchgehend
 62
     7
370
    15
100
AcDbCircle
 10
255.2804916481
 20
111.710756975
 30
0.0
 40
0.5929954683754084
100
AcDbArc
 50
216.0092593108
 51
308.1377850114
  0
ARC
  5
10B
330
1F
100
AcDbEntity
  8
0
  6
SLD-Durchgehend
 62
     7
370
    15
100
AcDbCircle
 10
254.5286676071
 20
111.1645252191
 30
0.0
 40
0.3363099495048685
100
AcDbArc
 50
35.9836207449
 51
105.0415624276
  0
LINE
  5
10C
330
1F
100
AcDbEntity
  8
0
  6
SLD-Durchgehend
 62
     7
370
    15
100
AcDbLine
 10
256.1860910215
 20
111.0181777881
 30
0.0
 11
256.160997466
 21
110.9392239855
 31
0.0
  0
ARC
  5
10D
330
1F
100
AcDbEntity
  8
0
  6
SLD-Durchgehend
 62
     7
370
    15
100
AcDbCircle
 10
255.8609992504
 20
110.9829310589
 30
0.0
 40
0.3304850651526902
100
AcDbArc
 50
335.1964111564
 51
52.4506901104
  0
ARC
  5
10E
330
1F
100
AcDbEntity
  8
0
  6
SLD-Durchgehend
 62
     7
370
    15
100
AcDbCircle
 10
256.3573255561
 20
109.7400958388
 30
0.0
 40
0.3382035014399777
100
AcDbArc
 50
352.1293243633
 51
68.4257277184
  0
ARC
  5
10F
330
1F
100
AcDbEntity
  8
0
  6
SLD-Durchgehend
 62
     7
370
    15
100
AcDbCircle
 10
256.6941915183
 20
110.6008605652
 30
0.0
 40
0.5861344568268577
100
AcDbArc
 50
155.4609930167
 51
248.742790208
  0
ARC
  5
110
330
1F
100
AcDbEntity
  8
0
  6
SLD-Durchgehend
 62
     7
370
    15
100
AcDbCircle
 10
253.7012448311
 20
110.2083720764
 30
0.0
 40
0.3342002580549588
100
AcDbArc
 50
180.0371606562
 51
248.9058634571
  0
ARC
  5
111
330
1F
100
AcDbEntity
  8
0
  6
SLD-Durchgehend
 62
     7
370
    15
100
AcDbCircle
 10
253.6964422264
 20
110.1100477221
 30
0.0
 40
0.3293800600695695
100
AcDbArc
 50
182.3647563388
 51
249.4767500542
  0
ARC
  5
112
330
1F
100
AcDbEntity
  8
0
  6
SLD-Durchgehend
 62
     7
370
    15
100
AcDbCircle
 10
256.6900730987
 20
110.6950081155
 30
0.0
 40
0.5827198436880761
100
AcDbArc
 50
155.2224386131
 51
180.0186080193
  0
ARC
  5
113
330
1F
100
AcDbEntity
  8
0
  6
SLD-Durchgehend
 62
     7
370
    15
100
AcDbCircle
 10
253.3733019511
 20
109.2572847047
 30
0.0
 40
0.5825585266067564
100
AcDbArc
 50
335.087255256
 51
69.1165279687
  0
ARC
  5
114
330
1F
100
AcDbEntity
  8
0
  6
SLD-Durchgehend
 62
     7
370
    15
100
AcDbCircle
 10
254.2082943623
 20
108.8711325279
 30
0.0
 40
0.3374033006858844
100
AcDbArc
 50
155.343559999
 51
221.5690957717
  0
ARC
  5
115
330
1F
100
AcDbEntity
  8
0
  6
SLD-Durchgehend
 62
     7
370
    15
100
AcDbCircle
 10
256.3612011463
 20
109.8382331451
 30
0.0
 40
0.3344166718903458
100
AcDbArc
 50
275.2039807648
 51
353.931438048
  0
ARC
  5
116
330
1F
100
AcDbEntity
  8
0
  6
SLD-Durchgehend
 62
     7
370
    15
100
AcDbCircle
 10
256.365131562
 20
109.7396002145
 30
0.0
 40
0.3304036666253568
100
AcDbArc
 50
274.5832554475
 51
352.0290959455
  0
ARC
  5
117
330
1F
100
AcDbEntity
  8
0
  6
SLD-Durchgehend
 62
     7
370
    15
100
AcDbCircle
 10
256.440154992
 20
108.8310130698
 30
0.0
 40
0.5812770982652274
100
AcDbArc
 50
94.7981846197
 51
189.1733369881
  0
ARC
  5
118
330
1F
100
AcDbEntity
  8
0
  6
SLD-Durchgehend
 62
     7
370
    15
100
AcDbCircle
 10
255.5335487113
 20
108.6862837725
 30
0.0
 40
0.3368112645796705
100
AcDbArc
 50
299.3955342451
 51
8.8918824852
  0
ARC
  5
119
330
1F
100
AcDbEntity
  8
0
  6
SLD-Durchgehend
 62
     7
370
    15
100
AcDbCircle
 10
253.3704418846
 20
109.3509142939
 30
0.0
 40
0.5848560181427236
100
AcDbArc
 50
0.0365447893
 51
68.9023595597
  0
ARC
  5
11A
330
1F
100
AcDbEntity
  8
0
  6
SLD-Durchgehend
 62
     7
370
    15
100
AcDbCircle
 10
254.2059747457
 20
108.9679011105
 30
0.0
 40
0.3350463947479613
100
AcDbArc
 50
187.0279656242
 51
308.8079409369
  0
ARC
  5
11B
330
1F
100
AcDbEntity
  8
0
  6
SLD-Durchgehend
 62
     7
370
    15
100
AcDbCircle
 10
254.2041824255
 20
108.8700513455
 30
0.0
 40
0.333953723317951
100
AcDbArc
 50
242.5576303612
 51
309.3554393883
  0
ARC
  5
11C
330
1F
100
AcDbEntity
  8
0
  6
SLD-Durchgehend
 62
     7
370
    15
100
AcDbCircle
 10
256.4447035298
 20
108.9223091095
 30
0.0
 40
0.5853058356709527
100
AcDbArc
 50
95.2120334612
 51
179.9450389696
  0
ARC
  5
11D
330
1F
100
AcDbEntity
  8
0
  6
SLD-Durchgehend
 62
     7
370
    15
100
AcDbCircle
 10
254.7845025944
 20
108.1622536456
 30
0.0
 40
0.5813326199253452
100
AcDbArc
 50
34.8029213927
 51
129.3439991645
  0
ARC
  5
11E
330
1F
100
AcDbEntity
  8
0
  6
SLD-Durchgehend
 62
     7
370
    15
100
AcDbCircle
 10
255.5365151693
 20
108.6851956598
 30
0.0
 40
0.3346320743489557
100
AcDbArc
 50
214.8342442094
 51
284.4567039531
  0
ARC
  5
11F
330
1F
100
AcDbEntity
  8
0
  6
SLD-Durchgehend
 62
     7
370
    15
100
AcDbCircle
 10
255.5352119517
 20
108.7831591475
 30
0.0
 40
0.3352866230943575
100
AcDbArc
 50
215.3811136849
 51
342.461526382
  0
ARC
  5
120
330
1F
100
AcDbEntity
  8
0
  6
SLD-Durchgehend
 62
     7
370
    15
100
AcDbCircle
 10
255.0336426653
 20
109.9913770904
 30
0.0
 40
2.625000231249372
100
AcDbArc
 50
0.1027954912
 51
179.8972045088
  0
ARC
  5
121
330
1F
100
AcDbEntity
  8
0
  6
SLD-Durchgehend
 62
     7
370
    15
100
AcDbCircle
 10
254.7833292035
 20
108.2488557081
 30
0.0
 40
0.5871058511853737
100
AcDbArc
 50
35.4082546541
 51
128.736685667
  0
LINE
  5
122
330
1F
100
AcDbEntity
  8
0
  6
SLD-Gestrichelt
 62
     7
370
     0
100
AcDbLine
 10
130.1549232163
 20
99.7725182355
 30
0.0
 11
130.1549232163
 21
99.7975335599
 31
0.0
  0
ARC
  5
123
330
1F
100
AcDbEntity
  8
0
  6
SLD-Gestrichelt
 62
     7
370
     0
100
AcDbCircle
 10
133.8751131248
 20
91.3033252731
 30
0.0
 40
9.273154122198427
100
AcDbArc
 50
85.1761133395
 51
113.65187187
  0
LINE
  5
124
330
1F
100
AcDbEntity
  8
0
  6
SLD-Gestrichelt
 62
     7
370
     0
100
AcDbLine
 10
134.6549230226
 20
100.5436328382
 30
0.0
 11
136.1697629623
 21
100.5436328382
 31
0.0
  0
LINE
  5
125
330
1F
100
AcDbEntity
  8
0
  6
SLD-Gestrichelt
 62
     7
370
     0
100
AcDbLine
 10
136.1697629623
 20
139.259693879
 30
0.0
 11
136.1697629623
 21
100.5436328382
 31
0.0
  0
LINE
  5
126
330
1F
100
AcDbEntity
  8
0
  6
SLD-Gestrichelt
 62
     7
370
     0
100
AcDbLine
 10
134.6549230226
 20
139.259693879
 30
0.0
 11
136.1697629623
 21
139.259693879
 31
0.0
  0
LWPOLYLINE
  5
127
330
1F
100
AcDbEntity
  8
0
  6
SLD-Gestrichelt
 62
     7
370
     0
100
AcDbPolyline
 90
        7
 70
   128
 43
0.0
 10
130.2090703108
 20
139.7604511262
 10
130.179212109
 20
139.7670672418
 10
130.5703340627
 20
139.683164391
 10
131.4040884905
 20
139.5289839388
 10
132.6184223004
 20
139.3658162237
 10
134.0730615489
 20
139.2683775307
 10
134.6549230226
 20
139.259693879
  0
CIRCLE
  5
128
330
1F
100
AcDbEntity
  8
0
  6
SLD-Gestrichelt
 62
     7
370
     0
100
AcDbCircle
 10
129.2049226528
 20
119.7725185398
 30
0.0
 40
4.999999806490436
  0
LINE
  5
129
330
1F
100
AcDbEntity
  8
0
  6
SLD-Gestrichelt
 62
     7
370
     0
100
AcDbLine
 10
122.2049227514
 20
139.4725178511
 30
0.0
 11
122.2049227514
 21
100.0725177259
 31
0.0
  0
LINE
  5
12A
330
1F
100
AcDbEntity
  8
0
  6
SLD-Gestrichelt
 62
     7
370
     0
100
AcDbLine
 10
139.2449221172
 20
102.4496832074
 30
0.0
 11
139.2449221172
 21
131.6225181476
 31
0.0
  0
LINE
  5
12B
330
1F
100
AcDbEntity
  8
0
  6
SLD-Gestrichelt
 62
     7
370
     0
100
AcDbLine
 10
137.1649230428
 20
102.4496832074
 30
0.0
 11
137.1649230428
 21
131.6225181476
 31
0.0
  0
LINE
  5
12C
330
1F
100
AcDbEntity
  8
0
  6
SLD-Gestrichelt
 62
     7
370
     0
100
AcDbLine
 10
130.1612524845
 20
131.6225181476
 30
0.0
 11
134.6549230226
 21
131.6225181476
 31
0.0
  0
LINE
  5
12D
330
1F
100
AcDbEntity
  8
0
  6
SLD-Gestrichelt
 62
     7
370
     0
100
AcDbLine
 10
122.2049227514
 20
103.5653238327
 30
0.0
 11
122.2049227514
 21
135.9797117443
 31
0.0
  0
LINE
  5
12E
330
1F
100
AcDbEntity
  8
0
  6
SLD-Gestrichelt
 62
     7
370
     0
100
AcDbLine
 10
142.1549233206
 20
104.2725180418
 30
0.0
 11
142.1549233206
 21
135.2505494983
 31
0.0
  0
LINE
  5
12F
330
1F
100
AcDbEntity
  8
0
  6
SLD-Gestrichelt
 62
     7
370
     0
100
AcDbLine
 10
120.2049226564
 20
134.8762183593
 30
0.0
 11
120.2049226564
 21
104.6688172177
 31
0.0
  0
LINE
  5
130
330
1F
100
AcDbEntity
  8
0
  6
SLD-Gestrichelt
 62
     7
370
     0
100
AcDbLine
 10
103.2464063324
 20
107.0693402694
 30
0.0
 11
103.254922346
 21
107.0419826687
 31
0.0
  0
LINE
  5
131
330
1F
100
AcDbEntity
  8
0
  6
SLD-Gestrichelt
 62
     7
370
     0
100
AcDbLine
 10
103.254922346
 20
107.0419826687
 30
0.0
 11
103.4151321806
 21
107.0613374145
 31
0.0
  0
LWPOLYLINE
  5
132
330
1F
100
AcDbEntity
  8
0
  6
SLD-Gestrichelt
 62
     7
370
     0
100
AcDbPolyline
 90
        3
 70
   128
 43
0.0
 10
103.4151321806
 20
107.0613374145
 10
105.4308755853
 20
107.2991469086
 10
107.504922577
 20
107.4886440442
  0
LWPOLYLINE
  5
133
330
1F
100
AcDbEntity
  8
0
  6
SLD-Gestrichelt
 62
     7
370
     0
100
AcDbPolyline
 90
        7
 70
   128
 43
0.0
 10
107.504922577
 20
107.4886440442
 10
107.5682376109
 20
107.4881914214
 10
107.6296117686
 20
107.4767510549
 10
107.7070149191
 20
107.4462837682
 10
107.8123782359
 20
107.3731768088
 10
108.0004513793
 20
107.1220950366
 10
108.1136871658
 20
106.8385147632
  0
LWPOLYLINE
  5
134
330
1F
100
AcDbEntity
  8
0
  6
SLD-Gestrichelt
 62
     7
370
     0
100
AcDbPolyline
 90
        3
 70
   128
 43
0.0
 10
108.1136871658
 20
106.8385147632
 10
108.2449365936
 20
106.5694798858
 10
108.4049229108
 20
106.1689413295
  0
LINE
  5
135
330
1F
100
AcDbEntity
  8
0
  6
SLD-Gestrichelt
 62
     7
370
     0
100
AcDbLine
 10
108.4049229108
 20
106.1689413295
 30
0.0
 11
108.4049229108
 21
105.2599993677
 31
0.0
  0
LINE
  5
136
330
1F
100
AcDbEntity
  8
0
  6
SLD-Gestrichelt
 62
     7
370
     0
100
AcDbLine
 10
105.904922501
 20
134.1597854302
 30
0.0
 11
105.904922501
 21
133.3300422088
 31
0.0
  0
ARC
  5
137
330
1F
100
AcDbEntity
  8
0
  6
SLD-Gestrichelt
 62
     7
370
     0
100
AcDbCircle
 10
104.8499575225
 20
133.6426518228
 30
0.0
 40
1.100307173752336
100
AcDbArc
 50
278.0963186522
 51
343.4942707128
  0
LINE
  5
138
330
1F
100
AcDbEntity
  8
0
  6
SLD-Gestrichelt
 62
     7
370
     0
100
AcDbLine
 10
105.0049221672
 20
132.553311731
 30
0.0
 11
103.254922346
 21
132.6380984069
 31
0.0
  0
LINE
  5
139
330
1F
100
AcDbEntity
  8
0
  6
SLD-Gestrichelt
 62
     7
370
     0
100
AcDbLine
 10
103.254922346
 20
132.6380984069
 30
0.0
 11
103.1557551183
 21
132.4459535212
 31
0.0
  0
ELLIPSE
  5
13A
330
1F
100
AcDbEntity
  8
0
  6
SLD-Gestrichelt
 62
     7
370
     0
100
AcDbEllipse
 10
89.6988021128
 20
120.4116282398
 30
0.0
 11
13.369636111343
 21
13.36754752639486
 31
0.0
210
0.0
220
0.0
230
1.0
 40
0.1761188775
 41
5.933076931846598
 42
5.9767200526912
  0
ELLIPSE
  5
13B
330
1F
100
AcDbEntity
  8
0
  6
SLD-Gestrichelt
 62
     7
370
     0
100
AcDbEllipse
 10
89.7781805435
 20
119.1332201107
 30
0.0
 11
13.37355272666618
 21
-13.37146352987012
 31
0.0
210
0.0
220
0.0
230
1.0
 40
0.1761188775
 41
0.3023035477142473
 42
0.3822730435340329
  0
ARC
  5
13C
330
1F
100
AcDbEntity
  8
0
  6
SLD-Gestrichelt
 62
     7
370
     0
100
AcDbCircle
 10
116.8374726443
 20
80.1251194169
 30
0.0
 40
25.1169905144098
100
AcDbArc
 50
95.9873135999
 51
97.8075629322
  0
LWPOLYLINE
  5
13D
330
1F
100
AcDbEntity
  8
0
  6
SLD-Gestrichelt
 62
     7
370
     0
100
AcDbPolyline
 90
       11
 70
   128
 43
0.0
 10
118.9363269665
 20
104.733169745
 10
118.9404883486
 20
104.7321825431
 10
118.71895977
 20
104.7844753743
 10
118.1178080447
 20
104.9114844904
 10
117.2220675804
 20
105.0526860313
 10
116.7015965626
 20
105.1090962396
 10
116.1672735185
 20
105.1464674206
 10
115.632110887
 20
105.1627236561
 10
115.1113069214
 20
105.1581480683
 10
114.631629695
 20
105.1370610626
 10
114.2175632127
 20
105.1050971405
  0
LWPOLYLINE
  5
13E
330
1F
100
AcDbEntity
  8
0
  6
SLD-Gestrichelt
 62
     7
370
     0
100
AcDbPolyline
 90
       10
 70
   128
 43
0.0
 10
114.2174663551
 20
134.4399198101
 10
115.1123271853
 20
134.3869955422
 10
115.6330710806
 20
134.3824208857
 10
116.1694756307
 20
134.3986566321
 10
116.7032599047
 20
134.4359765903
 10
117.2247777291
 20
134.4926075221
 10
118.1193330854
 20
134.6338174448
 10
118.7193872471
 20
134.7605881424
 10
118.9405933552
 20
134.8128567592
 10
118.9361854054
 20
134.8118164719
  0
ARC
  5
13F
330
1F
100
AcDbEntity
  8
0
  6
SLD-Gestrichelt
 62
     7
370
     0
100
AcDbCircle
 10
116.5177831547
 20
156.7758489063
 30
0.0
 40
22.4540683612404
100
AcDbArc
 50
262.0828934845
 51
264.119993019
  0
LWPOLYLINE
  5
140
330
1F
100
AcDbEntity
  8
0
  6
SLD-Gestrichelt
 62
     7
370
     0
100
AcDbPolyline
 90
        6
 70
   128
 43
0.0
 10
118.0290995695
 20
132.4453276725
 10
118.3874701679
 20
132.4889741049
 10
118.4998055984
 20
132.4993546263
 10
118.5047115728
 20
132.4998072491
 10
118.3659885142
 20
132.4868050546
 10
118.0290995695
 20
132.4453276725
  0
LWPOLYLINE
  5
141
330
1F
100
AcDbEntity
  8
0
  6
SLD-Gestrichelt
 62
     7
370
     0
100
AcDbPolyline
 90
        6
 70
   128
 43
0.0
 10
118.0290995695
 20
107.0997079046
 10
118.3874701679
 20
107.0560614721
 10
118.4994856891
 20
107.045710753
 10
118.5047115728
 20
107.0452283279
 10
118.3659885142
 20
107.0582305224
 10
118.0290995695
 20
107.0997079046
  0
LINE
  5
142
330
1F
100
AcDbEntity
  8
0
  6
SLD-Gestrichelt
 62
     7
370
     0
100
AcDbLine
 10
122.2049227514
 20
109.2725179301
 30
0.0
 11
122.2049227514
 21
130.2509444908
 31
0.0
  0
ARC
  5
143
330
1F
100
AcDbEntity
  8
0
  6
SLD-Gestrichelt
 62
     7
370
     0
100
AcDbCircle
 10
116.2001853882
 20
145.1005511995
 30
0.0
 40
12.78669658677053
100
AcDbArc
 50
259.7350589451
 51
278.2233667104
  0
ARC
  5
144
330
1F
100
AcDbEntity
  8
0
  6
SLD-Gestrichelt
 62
     7
370
     0
100
AcDbCircle
 10
116.2001853882
 20
94.4444843775
 30
0.0
 40
12.7866965867705
100
AcDbArc
 50
81.7766332896
 51
100.2649410549
  0
LINE
  5
145
330
1F
100
AcDbEntity
  8
0
  6
SLD-Gestrichelt
 62
     7
370
     0
100
AcDbLine
 10
110.2075722598
 20
130.272517647
 30
0.0
 11
110.2075722598
 21
109.2725179301
 31
0.0
  0
CIRCLE
  5
146
330
1F
100
AcDbEntity
  8
0
  6
SLD-Gestrichelt
 62
     7
370
     0
100
AcDbCircle
 10
220.1978264329
 20
120.8413233828
 30
0.0
 40
2.49285556742023
  0
LINE
  5
147
330
1F
100
AcDbEntity
  8
0
  6
SLD-Gestrichelt
 62
     7
370
     0
100
AcDbLine
 10
238.2049194135
 20
107.2725259841
 30
0.0
 11
238.2049194135
 21
132.2725179748
 31
0.0
  0
LINE
  5
148
330
1F
100
AcDbEntity
  8
0
  6
SLD-Gestrichelt
 62
     7
370
     0
100
AcDbLine
 10
139.2449221172
 20
133.5532336638
 30
0.0
 11
139.2449221172
 21
137.3816241653
 31
0.0
  0
LINE
  5
149
330
1F
100
AcDbEntity
  8
0
  6
SLD-Gestrichelt
 62
     7
370
     0
100
AcDbLine
 10
134.6549230226
 20
131.6225181476
 30
0.0
 11
142.1549233206
 21
131.6225181476
 31
0.0
  0
LINE
  5
14A
330
1F
100
AcDbEntity
  8
0
  6
SLD-Gestrichelt
 62
     7
370
     0
100
AcDbLine
 10
137.1649230428
 20
133.5532336638
 30
0.0
 11
137.1649230428
 21
137.3816241653
 31
0.0
  0
LWPOLYLINE
  5
14B
330
1F
100
AcDbEntity
  8
0
  6
SLD-Gestrichelt
 62
     7
370
     0
100
AcDbPolyline
 90
       22
 70
   128
 43
0.0
 10
219.1210618772
 20
121.660461617
 10
219.2049554147
 20
121.5281235895
 10
219.2142611899
 20
121.2334438137
 10
219.1481521882
 20
120.802605958
 10
219.0125143685
 20
120.2738915713
 10
218.8193878688
 20
119.6942795036
 10
218.585938827
 20
119.1152707001
 10
218.3329022087
 20
118.5883127295
 10
218.0827787675
 20
118.1602279798
 10
217.8577712335
 20
117.8690538186
 10
217.6778918661
 20
117.7406622705
 10
217.5591147103
 20
117.7864614551
 10
217.511989788
 20
118.0023819584
 10
217.5407117762
 20
118.3692383024
 10
217.6427176751
 20
118.8544336733
 10
217.80896248
 20
119.414856334
 10
218.0246567883
 20
120.0007102711
 10
218.2706451573
 20
120.5599397913
 10
218.5250675835
 20
121.0428549352
 10
218.7653190054
 20
121.4065465287
 10
218.9700460591
 20
121.6186989009
 10
219.1210618772
 20
121.660461617
  0
LINE
  5
14C
330
1F
100
AcDbEntity
  8
0
  6
SLD-Gestrichelt
 62
     7
370
     0
100
AcDbLine
 10
219.832577423
 20
116.8856767149
 30
0.0
 11
219.0865284361
 21
117.1738877569
 31
0.0
  0
LWPOLYLINE
  5
14D
330
1F
100
AcDbEntity
  8
0
  6
SLD-Gestrichelt
 62
     7
370
     0
100
AcDbPolyline
 90
       33
 70
   128
 43
0.0
 10
219.0865284361
 20
117.1738877569
 10
219.0916395344
 20
117.1731468898
 10
219.0935915865
 20
117.1831774668
 10
219.0597212471
 20
117.2153572229
 10
218.9024320401
 20
117.3506162272
 10
218.4084585466
 20
117.9638410362
 10
218.152337388
 20
118.6421074349
 10
218.1104353227
 20
119.2557715371
 10
218.2524731912
 20
119.8828906022
 10
218.5250452318
 20
120.3635030801
 10
218.8912934222
 20
120.7266004899
 10
219.3681529321
 20
120.9898077327
 10
220.131859795
 20
121.1178814669
 10
220.4512363829
 20
121.0858919335
 10
220.7864752569
 20
121.0026780286
 10
220.9504178323
 20
120.9458690978
 10
221.0777035512
 20
120.8958293687
 10
221.2514436402
 20
120.8175733595
 10
221.7999255814
 20
120.425002035
 10
222.1728420414
 20
119.852182816
 10
222.2974008478
 20
119.3312877117
 10
222.2783571638
 20
118.8399225034
 10
222.1550947584
 20
118.4004457577
 10
221.9376644649
 20
117.9888456504
 10
221.6555333294
 20
117.6431830649
 10
221.155658976
 20
117.255035057
 10
220.3992685832
 20
116.9699881834
 10
220.0889146485
 20
116.9313781106
 10
219.8892390885
 20
116.9267855262
 10
219.7845509805
 20
116.9258746927
 10
219.7640842356
 20
116.918260665
 10
219.7916811861
 20
116.9006949899
 10
219.832577423
 20
116.8856767149
  0
LINE
  5
14E
330
1F
100
AcDbEntity
  8
0
  6
SLD-Gestrichelt
 62
     7
370
     0
100
AcDbLine
 10
102.3049230285
 20
109.9075113566
 30
0.0
 11
102.3049230285
 21
129.6375242204
 31
0.0
  0
LINE
  5
14F
330
1F
100
AcDbEntity
  8
0
  6
SLD-Gestrichelt
 62
     7
370
     0
100
AcDbLine
 10
128.3742977835
 20
130.272517647
 30
0.0
 11
128.3742977835
 21
109.2725179301
 31
0.0
  0
LINE
  5
150
330
1F
100
AcDbEntity
  8
0
  6
SLD-Gestrichelt
 62
     7
370
     0
100
AcDbLine
 10
130.1549232163
 20
129.6475173117
 30
0.0
 11
130.1549232163
 21
109.897517334
 31
0.0
  0
LINE
  5
151
330
1F
100
AcDbEntity
  8
0
  6
SLD-Gestrichelt
 62
     7
370
     0
100
AcDbLine
 10
103.254922346
 20
110.0746120469
 30
0.0
 11
107.504922577
 21
110.0746120469
 31
0.0
  0
LINE
  5
152
330
1F
100
AcDbEntity
  8
0
  6
SLD-Gestrichelt
 62
     7
370
     0
100
AcDbLine
 10
103.254922346
 20
129.4704235301
 30
0.0
 11
103.254922346
 21
110.0746120469
 31
0.0
  0
LINE
  5
153
330
1F
100
AcDbEntity
  8
0
  6
SLD-Gestrichelt
 62
     7
370
     0
100
AcDbLine
 10
105.0049221672
 20
129.4704235301
 30
0.0
 11
103.254922346
 21
129.4704235301
 31
0.0
  0
LWPOLYLINE
  5
154
330
1F
100
AcDbEntity
  8
0
  6
SLD-Gestrichelt
 62
     7
370
     0
100
AcDbPolyline
 90
        6
 70
   128
 43
0.0
 10
105.904922501
 20
129.7967077375
 10
105.8491418667
 20
129.6940890283
 10
105.6879802205
 20
129.5948519514
 10
105.4394661047
 20
129.5160955892
 10
105.1477237202
 20
129.4751471982
 10
105.0049221672
 20
129.4704235301
  0
LINE
  5
155
330
1F
100
AcDbEntity
  8
0
  6
SLD-Gestrichelt
 62
     7
370
     0
100
AcDbLine
 10
105.904922501
 20
129.7967077375
 30
0.0
 11
105.904922501
 21
130.272517647
 31
0.0
  0
LWPOLYLINE
  5
156
330
1F
100
AcDbEntity
  8
0
  6
SLD-Gestrichelt
 62
     7
370
     0
100
AcDbPolyline
 90
        6
 70
   128
 43
0.0
 10
105.904922501
 20
129.7967077375
 10
105.8491418667
 20
129.6940890283
 10
105.6879802205
 20
129.5948519514
 10
105.4394661047
 20
129.5160955892
 10
105.1477237202
 20
129.4751471982
 10
105.0049221672
 20
129.4704235301
  0
LWPOLYLINE
  5
157
330
1F
100
AcDbEntity
  8
0
  6
SLD-Gestrichelt
 62
     7
370
     0
100
AcDbPolyline
 90
        7
 70
   128
 43
0.0
 10
107.504922577
 20
110.0746120469
 10
107.6512603618
 20
110.0696499602
 10
107.9147911228
 20
110.0342159302
 10
108.1412636273
 20
109.9693819092
 10
108.3121873968
 20
109.8811484085
 10
108.3992548816
 20
109.7803243578
 10
108.4049229108
 20
109.7483278395
  0
LINE
  5
158
330
1F
100
AcDbEntity
  8
0
  6
SLD-Gestrichelt
 62
     7
370
     0
100
AcDbLine
 10
108.4049229108
 20
109.7483278395
 30
0.0
 11
108.4049229108
 21
109.2725179301
 31
0.0
  0
LWPOLYLINE
  5
159
330
1F
100
AcDbEntity
  8
0
  6
SLD-Gestrichelt
 62
     7
370
     0
100
AcDbPolyline
 90
        7
 70
   128
 43
0.0
 10
107.504922577
 20
110.0746120469
 10
107.6512603618
 20
110.0696499602
 10
107.9147911228
 20
110.0342159302
 10
108.1412636273
 20
109.9693819092
 10
108.3121873968
 20
109.8811484085
 10
108.3992548816
 20
109.7803243578
 10
108.4049229108
 20
109.7483278395
  0
LINE
  5
15A
330
1F
100
AcDbEntity
  8
0
  6
SLD-Gestrichelt
 62
     7
370
     0
100
AcDbLine
 10
103.254922346
 20
110.0746120469
 30
0.0
 11
103.254922346
 21
129.4704235301
 31
0.0
  0
LWPOLYLINE
  5
15B
330
1F
100
AcDbEntity
  8
0
  6
SLD-Gestrichelt
 62
     7
370
     0
100
AcDbPolyline
 90
       24
 70
   128
 43
0.0
 10
222.3049259342
 20
119.5546284257
 10
222.2220084228
 20
118.9786128493
 10
221.9948178686
 20
118.4826565118
 10
221.5130037226
 20
117.971689408
 10
220.8648181118
 20
117.6550083005
 10
220.446989552
 20
117.5743622848
 10
219.9954024114
 20
117.5713212838
 10
219.5429659046
 20
117.6556108662
 10
218.9306846418
 20
117.9474391651
 10
218.4338650264
 20
118.453951753
 10
218.1866622128
 20
118.9825997248
 10
218.1054955878
 20
119.603372103
 10
218.1906259217
 20
120.1524170724
 10
218.4033027448
 20
120.6508261643
 10
218.8756621041
 20
121.2265583131
 10
219.5118746318
 20
121.6145556795
 10
219.933748857
 20
121.7264479169
 10
220.3936955489
 20
121.7366945607
 10
220.767997817
 20
121.6599184231
 10
221.3504395046
 20
121.3711339192
 10
221.8467301287
 20
120.8912959232
 10
222.163186089
 20
120.3204344169
 10
222.2942790546
 20
119.7657531988
 10
222.3049259342
 20
119.5546284257
  0
ARC
  5
15C
330
1F
100
AcDbEntity
  8
0
  6
SLD-Gestrichelt
 62
     7
370
     0
100
AcDbCircle
 10
220.2042159549
 20
118.9573804696
 30
0.0
 40
2.104773537867774
100
AcDbArc
 50
237.9252590165
 51
259.8300014657
  0
LINE
  5
15D
330
1F
100
AcDbEntity
  8
0
  6
SLD-Gestrichelt
 62
     7
370
     0
100
AcDbLine
 10
105.904922501
 20
130.7725177289
 30
0.0
 11
105.904922501
 21
133.3300422088
 31
0.0
  0
LINE
  5
15E
330
1F
100
AcDbEntity
  8
0
  6
SLD-Gestrichelt
 62
     7
370
     0
100
AcDbLine
 10
108.4049229108
 20
108.7725178481
 30
0.0
 11
108.4049229108
 21
106.1689413295
 31
0.0
  0
LINE
  5
15F
330
1F
100
AcDbEntity
  8
0
  6
SLD-Gestrichelt
 62
     7
370
     0
100
AcDbLine
 10
103.254922346
 20
130.7725177289
 30
0.0
 11
103.254922346
 21
132.6525180743
 31
0.0
  0
LINE
  5
160
330
1F
100
AcDbEntity
  8
0
  6
SLD-Gestrichelt
 62
     7
370
     0
100
AcDbLine
 10
102.3049230285
 20
130.7725177289
 30
0.0
 11
102.3049230285
 21
131.7025178255
 31
0.0
  0
LINE
  5
161
330
1F
100
AcDbEntity
  8
0
  6
SLD-Gestrichelt
 62
     7
370
     0
100
AcDbLine
 10
103.254922346
 20
108.7725178481
 30
0.0
 11
103.254922346
 21
106.9515177191
 31
0.0
  0
LINE
  5
162
330
1F
100
AcDbEntity
  8
0
  6
SLD-Gestrichelt
 62
     7
370
     0
100
AcDbLine
 10
102.3049230285
 20
108.7725178481
 30
0.0
 11
102.3049230285
 21
107.901517968
 31
0.0
  0
LINE
  5
163
330
1F
100
AcDbEntity
  8
0
  6
SLD-Gestrichelt
 62
     7
370
     0
100
AcDbLine
 10
135.50492251
 20
126.0225178816
 30
0.0
 11
135.50492251
 21
113.5225176954
 31
0.0
  0
LINE
  5
164
330
1F
100
AcDbEntity
  8
0
  6
SLD-Gestrichelt
 62
     7
370
     0
100
AcDbLine
 10
138.0049219884
 20
126.0225178816
 30
0.0
 11
138.0049219884
 21
113.5225176954
 31
0.0
  0
LINE
  5
165
330
1F
100
AcDbEntity
  8
0
  6
SLD-Gestrichelt
 62
     7
370
     0
100
AcDbLine
 10
130.6549223669
 20
125.2725177587
 30
0.0
 11
130.6549223669
 21
114.2725178183
 31
0.0
  0
LINE
  5
166
330
1F
100
AcDbEntity
  8
0
  6
SLD-Gestrichelt
 62
     7
370
     0
100
AcDbLine
 10
130.1549232163
 20
113.7725177364
 30
0.0
 11
130.1549232163
 21
125.750902775
 31
0.0
  0
LINE
  5
167
330
1F
100
AcDbEntity
  8
0
  6
SLD-Gestrichelt
 62
     7
370
     0
100
AcDbLine
 10
135.50492251
 20
114.2725178183
 30
0.0
 11
135.50492251
 21
125.2503764958
 31
0.0
  0
LINE
  5
168
330
1F
100
AcDbEntity
  8
0
  6
SLD-Gestrichelt
 62
     7
370
     0
100
AcDbLine
 10
137.2735804476
 20
102.8725185574
 30
0.0
 11
134.6549230226
 21
102.8725185574
 31
0.0
  0
LINE
  5
169
330
1F
100
AcDbEntity
  8
0
  6
SLD-Gestrichelt
 62
     7
370
     0
100
AcDbLine
 10
137.1649230428
 20
102.4496832074
 30
0.0
 11
137.1649230428
 21
102.3433950872
 31
0.0
  0
LINE
  5
16A
330
1F
100
AcDbEntity
  8
0
  6
SLD-Gestrichelt
 62
     7
370
     0
100
AcDbLine
 10
130.1549232163
 20
99.7975335599
 30
0.0
 11
130.1549232163
 21
102.8725185574
 31
0.0
  0
LINE
  5
16B
330
1F
100
AcDbEntity
  8
0
  6
SLD-Gestrichelt
 62
     7
370
     0
100
AcDbLine
 10
134.6549230226
 20
102.8725185574
 30
0.0
 11
130.1549232163
 21
102.8725185574
 31
0.0
  0
LINE
  5
16C
330
1F
100
AcDbEntity
  8
0
  6
SLD-Gestrichelt
 62
     7
370
     0
100
AcDbLine
 10
142.1549233206
 20
102.8725185574
 30
0.0
 11
139.1362647124
 21
102.8725185574
 31
0.0
  0
LINE
  5
16D
330
1F
100
AcDbEntity
  8
0
  6
SLD-Gestrichelt
 62
     7
370
     0
100
AcDbLine
 10
139.2449221172
 20
102.3433950872
 30
0.0
 11
139.2449221172
 21
102.4496832074
 31
0.0
  0
LINE
  5
16E
330
1F
100
AcDbEntity
  8
0
  6
SLD-Gestrichelt
 62
     7
370
     0
100
AcDbLine
 10
142.1549233206
 20
102.8725185574
 30
0.0
 11
142.1549233206
 21
101.1684850932
 31
0.0
  0
ELLIPSE
  5
16F
330
1F
100
AcDbEntity
  8
0
  6
SLD-Gestrichelt
 62
     7
370
     0
100
AcDbEllipse
 10
100.1991560116
 20
119.7725177885
 30
0.0
 11
12.26424774976742
 21
0.0
 31
0.0
210
0.0
220
0.0
230
1.0
 40
0.8164965809
 41
4.884943637108996
 42
4.964202354313285
  0
LINE
  5
170
330
1F
100
AcDbEntity
  8
0
  6
SLD-Gestrichelt
 62
     7
370
     0
100
AcDbLine
 10
102.3049230285
 20
108.7725178481
 30
0.0
 11
102.3049230285
 21
109.9075113566
 31
0.0
  0
ELLIPSE
  5
171
330
1F
100
AcDbEntity
  8
0
  6
SLD-Gestrichelt
 62
     7
370
     0
100
AcDbEllipse
 10
100.1991560116
 20
119.7725177885
 30
0.0
 11
12.26424774976742
 21
0.0
 31
0.0
210
0.0
220
0.0
230
1.0
 40
0.8164965809
 41
1.318982952866312
 42
1.398241670070602
  0
LINE
  5
172
330
1F
100
AcDbEntity
  8
0
  6
SLD-Gestrichelt
 62
     7
370
     0
100
AcDbLine
 10
102.3049230285
 20
130.7725177289
 30
0.0
 11
102.3049230285
 21
129.6375242204
 31
0.0
  0
LINE
  5
173
330
1F
100
AcDbEntity
  8
0
  6
SLD-Gestrichelt
 62
     7
370
     0
100
AcDbLine
 10
137.5535797857
 20
136.6725170196
 30
0.0
 11
134.6549230226
 21
136.6725170196
 31
0.0
  0
LINE
  5
174
330
1F
100
AcDbEntity
  8
0
  6
SLD-Gestrichelt
 62
     7
370
     0
100
AcDbLine
 10
137.1649230428
 20
137.3816241653
 30
0.0
 11
137.1649230428
 21
137.4861949266
 31
0.0
  0
LINE
  5
175
330
1F
100
AcDbEntity
  8
0
  6
SLD-Gestrichelt
 62
     7
370
     0
100
AcDbLine
 10
134.6549230226
 20
136.6725170196
 30
0.0
 11
130.1549232163
 21
136.6725170196
 31
0.0
  0
LINE
  5
176
330
1F
100
AcDbEntity
  8
0
  6
SLD-Gestrichelt
 62
     7
370
     0
100
AcDbLine
 10
142.1549233206
 20
136.6725170196
 30
0.0
 11
138.8562663056
 21
136.6725170196
 31
0.0
  0
LINE
  5
177
330
1F
100
AcDbEntity
  8
0
  6
SLD-Gestrichelt
 62
     7
370
     0
100
AcDbLine
 10
139.2449221172
 20
137.4861949266
 30
0.0
 11
139.2449221172
 21
137.3816241653
 31
0.0
  0
LINE
  5
178
330
1F
100
AcDbEntity
  8
0
  6
SLD-Gestrichelt
 62
     7
370
     0
100
AcDbLine
 10
142.1549233206
 20
136.6725170196
 30
0.0
 11
142.1549233206
 21
138.6433948905
 31
0.0
  0
LINE
  5
179
330
1F
100
AcDbEntity
  8
0
  6
SLD-Gestrichelt
 62
     7
370
     0
100
AcDbLine
 10
108.4049229108
 20
108.7725178481
 30
0.0
 11
108.4049229108
 21
109.7483278395
 31
0.0
  0
LINE
  5
17A
330
1F
100
AcDbEntity
  8
0
  6
SLD-Gestrichelt
 62
     7
370
     0
100
AcDbLine
 10
103.254922346
 20
108.7725178481
 30
0.0
 11
103.254922346
 21
110.0746120469
 31
0.0
  0
LINE
  5
17B
330
1F
100
AcDbEntity
  8
0
  6
SLD-Gestrichelt
 62
     7
370
     0
100
AcDbLine
 10
103.254922346
 20
130.7725177289
 30
0.0
 11
103.254922346
 21
129.4704235301
 31
0.0
  0
LINE
  5
17C
330
1F
100
AcDbEntity
  8
0
  6
SLD-Gestrichelt
 62
     7
370
     0
100
AcDbLine
 10
105.904922501
 20
130.7725177289
 30
0.0
 11
105.904922501
 21
129.7967077375
 31
0.0
  0
LWPOLYLINE
  5
17D
330
1F
100
AcDbEntity
  8
0
  6
SLD-Gestrichelt
 62
     7
370
     0
100
AcDbPolyline
 90
       28
 70
   128
 43
0.0
 10
114.4647855841
 20
105.5681702823
 10
114.5686247915
 20
105.5803314925
 10
114.9675507628
 20
105.6132136987
 10
115.389416606
 20
105.6303314076
 10
116.1935736023
 20
105.6172686772
 10
116.9218003348
 20
105.5421519236
 10
117.3678381898
 20
105.4744848193
 10
117.8192050725
 20
105.3867467822
 10
118.1444266409
 20
105.3108905585
 10
118.3564187091
 20
105.256454754
 10
118.5048745543
 20
105.2118434713
 10
118.5031904903
 20
105.2123491795
 10
118.3670851466
 20
105.2531615974
 10
118.1623066373
 20
105.3061436073
 10
117.8462446265
 20
105.380674559
 10
117.3925620102
 20
105.4698105113
 10
116.9455378846
 20
105.5385942713
 10
116.2284544267
 20
105.6151070775
 10
115.4180501186
 20
105.6310541139
 10
114.9944231443
 20
105.6150111512
 10
114.5935334794
 20
105.5829559595
 10
114.235833899
 20
105.5418762521
 10
114.0276199736
 20
105.5124175877
 10
113.9049917989
 20
105.4883605943
 10
113.9067762129
 20
105.4887098403
 10
114.0201610111
 20
105.5109284029
 10
114.2223390348
 20
105.5397751884
 10
114.4647855841
 20
105.5681702823
  0
LWPOLYLINE
  5
17E
330
1F
100
AcDbEntity
  8
0
  6
SLD-Gestrichelt
 62
     7
370
     0
100
AcDbPolyline
 90
       28
 70
   128
 43
0.0
 10
114.9790525966
 20
133.9317548231
 10
114.5686219976
 20
133.9646342353
 10
114.465482679
 20
133.9767051072
 10
114.2222170316
 20
134.0051737757
 10
114.020137728
 20
134.0340168358
 10
113.9068060152
 20
134.0562586815
 10
113.904980623
 20
134.0566163094
 10
114.0270676993
 20
134.0326151953
 10
114.2349379666
 20
134.003185402
 10
114.5923302107
 20
133.9621345655
 10
114.9934704013
 20
133.9300681979
 10
115.4175844573
 20
133.9140084715
 10
116.2293857493
 20
133.9299098731
 10
116.9444845587
 20
134.0061414198
 10
117.3904059984
 20
134.0747323961
 10
117.8433165483
 20
134.163642037
 10
118.1608724006
 20
134.2384300337
 10
118.3665573195
 20
134.2916094841
 10
118.5031807114
 20
134.3326370374
 10
118.5048654739
 20
134.3331427456
 10
118.3370467339
 20
134.2848508761
 10
118.1073022604
 20
134.2261021168
 10
117.820377142
 20
134.1619712443
 10
117.0772562333
 20
134.0208712176
 10
116.3146846526
 20
133.9345217825
 10
115.8783097349
 20
133.9166990624
 10
115.4253898718
 20
133.915777053
 10
114.9790525966
 20
133.9317548231
  0
LINE
  5
17F
330
1F
100
AcDbEntity
  8
0
  6
SLD-Gestrichelt
 62
     7
370
     0
100
AcDbLine
 10
222.3049259342
 20
119.5546284257
 30
0.0
 11
222.3049259342
 21
122.2725177326
 31
0.0
  0
LINE
  5
180
330
1F
100
AcDbEntity
  8
0
  6
SLD-Gestrichelt
 62
     7
370
     0
100
AcDbLine
 10
222.3049259342
 20
119.9904071513
 30
0.0
 11
222.3049259342
 21
117.2725178444
 31
0.0
  0
LWPOLYLINE
  5
181
330
1F
100
AcDbEntity
  8
0
  6
SLD-Gestrichelt
 62
     7
370
     0
100
AcDbPolyline
 90
       24
 70
   128
 43
0.0
 10
222.3049259342
 20
119.9904071513
 10
222.2220084228
 20
120.5664227277
 10
221.9948178686
 20
121.0623790653
 10
221.5130037226
 20
121.573346169
 10
220.8648181118
 20
121.8900272765
 10
220.446989552
 20
121.9706732922
 10
219.9954024114
 20
121.9737142933
 10
219.5429659046
 20
121.8894247108
 10
218.9306846418
 20
121.5975964119
 10
218.4338650264
 20
121.091083824
 10
218.1866622128
 20
120.5624358522
 10
218.1054955878
 20
119.941663474
 10
218.1906259217
 20
119.3926185046
 10
218.4033027448
 20
118.8942094127
 10
218.8756621041
 20
118.318477264
 10
219.5118746318
 20
117.9304798975
 10
219.933748857
 20
117.8185876601
 10
220.3936955489
 20
117.8083410163
 10
220.767997817
 20
117.8851171539
 10
221.3504395046
 20
118.1739016579
 10
221.8467301287
 20
118.6537396538
 10
222.163186089
 20
119.2246011601
 10
222.2942790546
 20
119.7792823782
 10
222.3049259342
 20
119.9904071513
  0
LINE
  5
182
330
1F
100
AcDbEntity
  8
0
  6
SLD-Gestrichelt
 62
     7
370
     0
100
AcDbLine
 10
138.0049219884
 20
117.2725178444
 30
0.0
 11
138.0049219884
 21
122.2492325728
 31
0.0
  0
LINE
  5
183
330
1F
100
AcDbEntity
  8
0
  6
SLD-Gestrichelt
 62
     7
370
     0
100
AcDbLine
 10
238.7049204268
 20
132.7725180567
 30
0.0
 11
238.7049204268
 21
119.7725177885
 31
0.0
  0
ELLIPSE
  5
184
330
1F
100
AcDbEntity
  8
0
  6
SLD-Gestrichelt
 62
     7
370
     0
100
AcDbEllipse
 10
256.641054161
 20
119.7725177885
 30
0.0
 11
-4.247080252762999
 21
12.993570470854
 31
0.0
210
0.0
220
0.0
230
1.0
 40
0.0962569477
 41
6.251733123200067
 42
7.822529449994811
  0
LINE
  5
185
330
1F
100
AcDbEntity
  8
0
  6
SLD-Gestrichelt
 62
     7
370
     0
100
AcDbLine
 10
258.6586854019
 20
113.6880528324
 30
0.0
 11
251.4187178172
 21
115.9652459578
 31
0.0
  0
LINE
  5
186
330
1F
100
AcDbEntity
  8
0
  6
SLD-Gestrichelt
 62
     7
370
     0
100
AcDbLine
 10
251.4187178172
 20
115.9652459578
 30
0.0
 11
251.4125338353
 21
115.9847909262
 31
0.0
  0
LINE
  5
187
330
1F
100
AcDbEntity
  8
0
  6
SLD-Gestrichelt
 62
     7
370
     0
100
AcDbLine
 10
248.0468383588
 20
116.5720855028
 30
0.0
 11
251.3547620334
 21
106.1062372432
 31
0.0
  0
LINE
  5
188
330
1F
100
AcDbEntity
  8
0
  6
SLD-Gestrichelt
 62
     7
370
     0
100
AcDbLine
 10
258.65250142
 20
113.7075980336
 30
0.0
 11
258.6586854019
 21
113.6880528324
 31
0.0
  0
LINE
  5
189
330
1F
100
AcDbEntity
  8
0
  6
SLD-Gestrichelt
 62
     7
370
     0
100
AcDbLine
 10
238.8578659453
 20
117.7725176935
 30
0.0
 11
238.7049204268
 21
119.7725177885
 31
0.0
  0
LWPOLYLINE
  5
18A
330
1F
100
AcDbEntity
  8
0
  6
SLD-Gestrichelt
 62
     7
370
     0
100
AcDbPolyline
 90
        6
 70
   128
 43
0.0
 10
238.9409995236
 20
106.5364961655
 10
238.7099048652
 20
106.9426934377
 10
238.8661360897
 20
107.4032175497
 10
239.4549331226
 20
107.866026196
 10
240.1199346937
 20
108.1997935803
 10
240.9324503102
 20
108.5243911625
  0
ARC
  5
18B
330
1F
100
AcDbEntity
  8
0
  6
SLD-Gestrichelt
 62
     7
370
     0
100
AcDbCircle
 10
305.7044555681
 20
127.9111135543
 30
0.0
 40
67.61107653509791
100
AcDbArc
 50
188.6242989352
 51
196.6628161333
  0
LINE
  5
18C
330
1F
100
AcDbEntity
  8
0
  6
SLD-Gestrichelt
 62
     7
370
     0
100
AcDbLine
 10
251.4187178172
 20
115.9652459578
 30
0.0
 11
251.2063017644
 21
115.9047323422
 31
0.0
  0
LINE
  5
18D
330
1F
100
AcDbEntity
  8
0
  6
SLD-Gestrichelt
 62
     7
370
     0
100
AcDbLine
 10
251.1554441013
 20
116.065652543
 30
0.0
 11
251.2063017644
 21
115.9047323422
 31
0.0
  0
LINE
  5
18E
330
1F
100
AcDbEntity
  8
0
  6
SLD-Gestrichelt
 62
     7
370
     0
100
AcDbLine
 10
248.2798180141
 20
116.8702437685
 30
0.0
 11
251.5625289239
 21
106.4841539742
 31
0.0
  0
ELLIPSE
  5
18F
330
1F
100
AcDbEntity
  8
0
  6
SLD-Gestrichelt
 62
     7
370
     0
100
AcDbEllipse
 10
246.6560800906
 20
53.0258562793
 30
0.0
 11
21.39702621087625
 21
70.5538986033165
 31
0.0
210
0.0
220
0.0
230
1.0
 40
0.2093503934
 41
0.7767581595365101
 42
0.7848892024191928
  0
LINE
  5
190
330
1F
100
AcDbEntity
  8
0
  6
SLD-Gestrichelt
 62
     7
370
     0
100
AcDbLine
 10
258.4462842502
 20
113.6275392168
 30
0.0
 11
251.2063017644
 21
115.9047323422
 31
0.0
  0
LINE
  5
191
330
1F
100
AcDbEntity
  8
0
  6
SLD-Gestrichelt
 62
     7
370
     0
100
AcDbLine
 10
258.4462842502
 20
113.6275392168
 30
0.0
 11
258.6586854019
 21
113.6880528324
 31
0.0
  0
LINE
  5
192
330
1F
100
AcDbEntity
  8
0
  6
SLD-Gestrichelt
 62
     7
370
     0
100
AcDbLine
 10
130.1549232163
 20
102.8725185574
 30
0.0
 11
134.6549230226
 21
102.8725185574
 31
0.0
  0
CIRCLE
  5
193
330
1F
100
AcDbEntity
  8
0
  6
SLD-Gestrichelt
 62
     7
370
     0
100
AcDbCircle
 10
220.2034058266
 20
120.3236614986
 30
0.0
 40
2.097588162407522
  0
ARC
  5
194
330
1F
100
AcDbEntity
  8
0
  6
SLD-Gestrichelt
 62
     7
370
     0
100
AcDbCircle
 10
249.2632480092
 20
118.0086313213
 30
0.0
 40
1.25019851337712
100
AcDbArc
 50
17.5751320173
 51
182.2819329531
  0
LINE
  5
195
330
1F
100
AcDbEntity
  8
0
  6
SLD-Gestrichelt
 62
     7
370
     0
100
AcDbLine
 10
248.3100822725
 20
116.87914209
 30
0.0
 11
251.5007189073
 21
106.7843788446
 31
0.0
  0
ELLIPSE
  5
196
330
1F
100
AcDbEntity
  8
0
  6
SLD-Gestrichelt
 62
     7
370
     0
100
AcDbEllipse
 10
246.6560800906
 20
145.4629140354
 30
0.0
 11
-25.84177378472347
 21
129.962307297651
 31
0.0
210
0.0
220
0.0
230
1.0
 40
0.02203747
 41
1.86860330813553
 42
1.871023933746482
  0
LINE
  5
197
330
1F
100
AcDbEntity
  8
0
  6
SLD-Gestrichelt
 62
     7
370
     0
100
AcDbLine
 10
251.2063017644
 20
115.9047323422
 30
0.0
 11
251.2063017644
 21
116.0093671319
 31
0.0
  0
LINE
  5
198
330
1F
100
AcDbEntity
  8
0
  6
SLD-Gestrichelt
 62
     7
370
     0
100
AcDbLine
 10
258.2318416395
 20
113.7996196889
 30
0.0
 11
258.4462842502
 21
113.6275392168
 31
0.0
  0
LINE
  5
199
330
1F
100
AcDbEntity
  8
0
  6
SLD-Gestrichelt
 62
     7
370
     0
100
AcDbLine
 10
260.8831605472
 20
104.0168997974
 30
0.0
 11
261.2183174648
 21
104.3508096741
 31
0.0
  0
LINE
  5
19A
330
1F
100
AcDbEntity
  8
0
  6
SLD-Gestrichelt
 62
     7
370
     0
100
AcDbLine
 10
254.4213763036
 20
106.0493325026
 30
0.0
 11
260.8831605472
 21
104.0168997974
 31
0.0
  0
CIRCLE
  5
19B
330
1F
100
AcDbEntity
  8
0
  6
SLD-Gestrichelt
 62
     7
370
     0
100
AcDbCircle
 10
255.0326319429
 20
110.2073388896
 30
0.0
 40
2.398229751255158
  0
LINE
  5
19C
330
1F
100
AcDbEntity
  8
0
  6
SLD-Gestrichelt
 62
     7
370
     0
100
AcDbLine
 10
258.2318416395
 20
113.7996196889
 30
0.0
 11
251.2063017644
 21
116.0093671319
 31
0.0
  0
LINE
  5
19D
330
1F
100
AcDbEntity
  8
0
  6
SLD-Gestrichelt
 62
     7
370
     0
100
AcDbLine
 10
251.2063017644
 20
116.0093671319
 30
0.0
 11
250.4550895252
 21
118.386136452
 31
0.0
  0
ELLIPSE
  5
19E
330
1F
100
AcDbEntity
  8
0
  6
SLD-Gestrichelt
 62
     7
370
     0
100
AcDbEllipse
 10
246.6560800906
 20
81.1105785421
 30
0.0
 11
0.0
 21
26.13144513619373
 31
0.0
210
0.0
220
0.0
230
1.0
 40
0.9949698482
 41
5.979891802486661
 42
6.095757727633287
  0
LINE
  5
19F
330
1F
100
AcDbEntity
  8
0
  6
SLD-Gestrichelt
 62
     7
370
     0
100
AcDbLine
 10
261.2183174648
 20
104.3508096741
 30
0.0
 11
258.2318416395
 21
113.7996196889
 31
0.0
  0
LINE
  5
1A0
330
1F
100
AcDbEntity
  8
0
  6
SLD-Gestrichelt
 62
     7
370
     0
100
AcDbLine
 10
105.904922501
 20
130.7725177289
 30
0.0
 11
105.904922501
 21
133.3300422088
 31
0.0
  0
LINE
  5
1A1
330
1F
100
AcDbEntity
  8
0
  6
SLD-Gestrichelt
 62
     7
370
     0
100
AcDbLine
 10
108.4049229108
 20
108.7725178481
 30
0.0
 11
108.4049229108
 21
106.1689413295
 31
0.0
  0
CIRCLE
  5
1A2
330
1F
100
AcDbEntity
  8
0
  6
SLD-Gestrichelt
 62
     7
370
     0
100
AcDbCircle
 10
255.0328146502
 20
110.25839478
 30
0.0
 40
1.648795256667
  0
LINE
  5
1A3
330
1F
100
AcDbEntity
  8
0
  6
SLD-Gestrichelt
 62
     7
370
     0
100
AcDbLine
 10
260.2975151099
 20
104.8065914915
 30
0.0
 11
260.8831605472
 21
104.0168997974
 31
0.0
  0
LINE
  5
1A4
330
1F
100
AcDbEntity
  8
0
  6
SLD-Gestrichelt
 62
     7
370
     0
100
AcDbLine
 10
261.2183174648
 20
104.3508096741
 30
0.0
 11
260.526501254
 21
105.2836679996
 31
0.0
  0
LINE
  5
1A5
330
1F
100
AcDbEntity
  8
0
  6
SLD-Gestrichelt
 62
     7
370
     0
100
AcDbLine
 10
139.2449221172
 20
137.3816241653
 30
0.0
 11
139.2449221172
 21
102.4496832074
 31
0.0
  0
ARC
  5
1A6
330
1F
100
AcDbEntity
  8
0
  6
SLD-Gestrichelt
 62
     7
370
     0
100
AcDbCircle
 10
138.4118744838
 20
137.3771476373
 30
0.0
 40
0.8330596609757539
100
AcDbArc
 50
302.238541765
 51
0.3078859818
  0
ARC
  5
1A7
330
1F
100
AcDbEntity
  8
0
  6
SLD-Gestrichelt
 62
     7
370
     0
100
AcDbCircle
 10
138.3707471799
 20
102.4504222715
 30
0.0
 40
0.8741752496956423
100
AcDbArc
 50
359.9515597615
 51
28.8717634176
  0
LINE
  5
1A8
330
1F
100
AcDbEntity
  8
0
  6
SLD-Gestrichelt
 62
     7
370
     0
100
AcDbLine
 10
138.4449234762
 20
136.6725170196
 30
0.0
 11
138.8562663056
 21
136.6725170196
 31
0.0
  0
LINE
  5
1A9
330
1F
100
AcDbEntity
  8
0
  6
SLD-Gestrichelt
 62
     7
370
     0
100
AcDbLine
 10
138.4449234762
 20
102.8725185574
 30
0.0
 11
139.1362647124
 21
102.8725185574
 31
0.0
  0
ARC
  5
1AA
330
1F
100
AcDbEntity
  8
0
  6
SLD-Gestrichelt
 62
     7
370
     0
100
AcDbCircle
 10
137.9988938813
 20
137.3776542233
 30
0.0
 40
0.8339802874224709
100
AcDbArc
 50
179.7272576104
 51
237.7264303772
  0
LINE
  5
1AB
330
1F
100
AcDbEntity
  8
0
  6
SLD-Gestrichelt
 62
     7
370
     0
100
AcDbLine
 10
137.1649230428
 20
137.3816241653
 30
0.0
 11
137.1649230428
 21
102.4496832074
 31
0.0
  0
ARC
  5
1AC
330
1F
100
AcDbEntity
  8
0
  6
SLD-Gestrichelt
 62
     7
370
     0
100
AcDbCircle
 10
138.0384733852
 20
102.4505827757
 30
0.0
 40
0.8735508055815697
100
AcDbArc
 50
151.117674556
 51
180.0590022649
  0
LINE
  5
1AD
330
1F
100
AcDbEntity
  8
0
  6
SLD-Gestrichelt
 62
     7
370
     0
100
AcDbLine
 10
137.5535797857
 20
136.6725170196
 30
0.0
 11
137.9649235465
 21
136.6725170196
 31
0.0
  0
LINE
  5
1AE
330
1F
100
AcDbEntity
  8
0
  6
SLD-Gestrichelt
 62
     7
370
     0
100
AcDbLine
 10
137.2735804476
 20
102.8725185574
 30
0.0
 11
137.9649235465
 21
102.8725185574
 31
0.0
  0
LINE
  5
1AF
330
1F
100
AcDbEntity
  8
0
  6
SLD-Gestrichelt
 62
     7
370
     0
100
AcDbLine
 10
103.254922346
 20
130.7725177289
 30
0.0
 11
103.254922346
 21
132.6452584148
 31
0.0
  0
LINE
  5
1B0
330
1F
100
AcDbEntity
  8
0
  6
SLD-Gestrichelt
 62
     7
370
     0
100
AcDbLine
 10
103.254922346
 20
108.7725178481
 30
0.0
 11
103.254922346
 21
106.9574316175
 31
0.0
  0
LINE
  5
1B1
330
1F
100
AcDbEntity
  8
0
  6
SLD-Gestrichelt
 62
     7
370
     0
100
AcDbLine
 10
102.3049230285
 20
129.6375242204
 30
0.0
 11
102.3049230285
 21
109.9075113566
 31
0.0
  0
LINE
  5
1B2
330
1F
100
AcDbEntity
  8
0
  6
SLD-Gestrichelt
 62
     7
370
     0
100
AcDbLine
 10
102.3049230285
 20
130.7725177289
 30
0.0
 11
102.3049230285
 21
131.696990426
 31
0.0
  0
LINE
  5
1B3
330
1F
100
AcDbEntity
  8
0
  6
SLD-Gestrichelt
 62
     7
370
     0
100
AcDbLine
 10
102.3049230285
 20
108.7725178481
 30
0.0
 11
102.3049230285
 21
107.9066942589
 31
0.0
  0
LINE
  5
1B4
330
1F
100
AcDbEntity
  8
0
  6
SLD-Gestrichelt
 62
     7
370
     0
100
AcDbLine
 10
137.9649235465
 20
136.6725170196
 30
0.0
 11
138.4449234762
 21
136.6725170196
 31
0.0
  0
LINE
  5
1B5
330
1F
100
AcDbEntity
  8
0
  6
SLD-Gestrichelt
 62
     7
370
     0
100
AcDbLine
 10
137.9649235465
 20
102.8725185574
 30
0.0
 11
138.4449234762
 21
102.8725185574
 31
0.0
  0
LWPOLYLINE
  5
1B6
330
1F
100
AcDbEntity
  8
0
  6
SLD-Gestrichelt
 62
     7
370
     0
100
AcDbPolyline
 90
       22
 70
   128
 43
0.0
 10
254.6615085162
 20
109.0923051492
 10
255.0336352147
 20
109.0478344963
 10
255.5115601577
 20
109.1218150363
 10
255.9335461416
 20
109.3269080998
 10
256.2923363008
 20
109.6566782476
 10
256.5693190851
 20
110.1388155625
 10
256.6836258926
 20
110.7565161915
 10
256.560259179
 20
111.4115758942
 10
256.2109908618
 20
111.9574808658
 10
255.7716152229
 20
112.2761133269
 10
255.7281485357
 20
112.3076353365
 10
255.1993957319
 20
112.4564020106
 10
254.6794048108
 20
112.4254867577
 10
254.2059353151
 20
112.2364184962
 10
254.1507563152
 20
112.1905597069
 10
253.811382369
 20
111.9085119248
 10
253.5275450506
 20
111.4609518231
 10
253.390215949
 20
110.9168359221
 10
253.4419080772
 20
110.314182672
 10
253.7208131112
 20
109.7268729613
 10
254.2107483901
 20
109.2776504488
 10
254.6615085162
 20
109.0923051492
  0
ARC
  5
1B7
330
1F
100
AcDbEntity
  8
0
  6
SLD-Gestrichelt
 62
     7
370
     0
100
AcDbCircle
 10
141.5456336638
 20
138.6504343629
 30
0.0
 40
0.6093303209641313
100
AcDbArc
 50
359.3380584991
 51
89.126532193
  0
ARC
  5
1B8
330
1F
100
AcDbEntity
  8
0
  6
SLD-Gestrichelt
 62
     7
370
     0
100
AcDbCircle
 10
141.5420516523
 20
101.1564868034
 30
0.0
 40
0.6129891033281305
100
AcDbArc
 50
271.2031178686
 51
1.1215456616
  0
LINE
  5
1B9
330
1F
100
AcDbEntity
  8
0
  6
SLD-Gestrichelt
 62
     7
370
     0
100
AcDbLine
 10
142.1549233206
 20
138.6433948905
 30
0.0
 11
142.1549233206
 21
101.1684850932
 31
0.0
  0
LINE
  5
1BA
330
1F
100
AcDbEntity
  8
0
  6
SLD-Gestrichelt
 62
     7
370
     0
100
AcDbLine
 10
140.240083129
 20
139.259693879
 30
0.0
 11
141.5549224772
 21
139.259693879
 31
0.0
  0
LWPOLYLINE
  5
1BB
330
1F
100
AcDbEntity
  8
0
  6
SLD-Gestrichelt
 62
     7
370
     0
100
AcDbPolyline
 90
        3
 70
   128
 43
0.0
 10
139.2449221172
 20
137.4861949266
 10
140.1739983417
 20
139.1422019483
 10
140.240083129
 20
139.259693879
  0
LINE
  5
1BC
330
1F
100
AcDbEntity
  8
0
  6
SLD-Gestrichelt
 62
     7
370
     0
100
AcDbLine
 10
140.240083129
 20
139.259693879
 30
0.0
 11
140.240083129
 21
100.5436328382
 31
0.0
  0
LINE
  5
1BD
330
1F
100
AcDbEntity
  8
0
  6
SLD-Gestrichelt
 62
     7
370
     0
100
AcDbLine
 10
139.2449221172
 20
137.4861949266
 30
0.0
 11
139.2449221172
 21
102.3433950872
 31
0.0
  0
LWPOLYLINE
  5
1BE
330
1F
100
AcDbEntity
  8
0
  6
SLD-Gestrichelt
 62
     7
370
     0
100
AcDbPolyline
 90
        3
 70
   128
 43
0.0
 10
136.1697629623
 20
139.259693879
 10
136.2358468183
 20
139.1422019483
 10
137.1649230428
 20
137.4861949266
  0
LINE
  5
1BF
330
1F
100
AcDbEntity
  8
0
  6
SLD-Gestrichelt
 62
     7
370
     0
100
AcDbLine
 10
137.1649230428
 20
137.4861949266
 30
0.0
 11
137.1649230428
 21
102.3433950872
 31
0.0
  0
LWPOLYLINE
  5
1C0
330
1F
100
AcDbEntity
  8
0
  6
SLD-Gestrichelt
 62
     7
370
     0
100
AcDbPolyline
 90
        3
 70
   128
 43
0.0
 10
136.1697629623
 20
100.5436328382
 10
137.109074422
 20
102.2419870974
 10
137.1649230428
 20
102.3433950872
  0
LINE
  5
1C1
330
1F
100
AcDbEntity
  8
0
  6
SLD-Gestrichelt
 62
     7
370
     0
100
AcDbLine
 10
140.240083129
 20
100.5436328382
 30
0.0
 11
141.5549224772
 21
100.5436328382
 31
0.0
  0
LWPOLYLINE
  5
1C2
330
1F
100
AcDbEntity
  8
0
  6
SLD-Gestrichelt
 62
     7
370
     0
100
AcDbPolyline
 90
        3
 70
   128
 43
0.0
 10
139.2449221172
 20
102.3433950872
 10
139.3007716693
 20
102.2419870974
 10
140.240083129
 20
100.5436328382
  0
LINE
  5
1C3
330
1F
100
AcDbEntity
  8
0
  6
SLD-Gestrichelt
 62
     7
370
     0
100
AcDbLine
 10
102.3049230285
 20
107.9540454925
 30
0.0
 11
102.3049230285
 21
108.2250044824
 31
0.0
  0
LINE
  5
1C4
330
1F
100
AcDbEntity
  8
0
  6
SLD-Gestrichelt
 62
     7
370
     0
100
AcDbLine
 10
102.3049230285
 20
131.6464317174
 30
0.0
 11
102.3049230285
 21
131.5507494987
 31
0.0
  0
CIRCLE
  5
1C5
330
1F
100
AcDbEntity
  8
0
  6
SLD-Gestrichelt
 62
     7
370
     0
100
AcDbCircle
 10
220.2032726551
 20
120.3456676558
 30
0.0
 40
2.497124781360519
  0
LWPOLYLINE
  5
1C6
330
1F
100
AcDbEntity
  8
0
  6
SLD-Gestrichelt
 62
     7
370
     0
100
AcDbPolyline
 90
       13
 70
   128
 43
0.0
 10
103.0648934253
 20
132.160598147
 10
102.9001704015
 20
131.7630305098
 10
102.8176850237
 20
131.6040481583
 10
102.7097205229
 20
131.4267951206
 10
102.6564842619
 20
131.3518813954
 10
102.5919976242
 20
131.2731203766
 10
102.5531987258
 20
131.2329589532
 10
102.5138317205
 20
131.1988855855
 10
102.4823157646
 20
131.1775145263
 10
102.4427494563
 20
131.1603893668
 10
102.3927709617
 20
131.1620843739
 10
102.3214428284
 20
131.2932481201
 10
102.3049230285
 20
131.5507494987
  0
LWPOLYLINE
  5
1C7
330
1F
100
AcDbEntity
  8
0
  6
SLD-Gestrichelt
 62
     7
370
     0
100
AcDbPolyline
 90
       11
 70
   128
 43
0.0
 10
102.3049230285
 20
108.2250044824
 10
102.3299066879
 20
108.4769849808
 10
102.3884533502
 20
108.5563904748
 10
102.4402535118
 20
108.5570032851
 10
102.4740046419
 20
108.5427251787
 10
102.5178196438
 20
108.513095151
 10
102.5613068201
 20
108.4743903161
 10
102.6090352394
 20
108.4235000567
 10
102.6775675424
 20
108.3377233849
 10
102.8167760529
 20
108.1241469042
 10
103.0648934253
 20
107.6055324779
  0
LINE
  5
1C8
330
1F
100
AcDbEntity
  8
0
  6
SLD-Gestrichelt
 62
     7
370
     0
100
AcDbLine
 10
102.3049230285
 20
131.5507494987
 30
0.0
 11
102.3049230285
 21
108.2250044824
 31
0.0
  0
ELLIPSE
  5
1C9
330
1F
100
AcDbEntity
  8
0
  6
SLD-Gestrichelt
 62
     7
370
     0
100
AcDbEllipse
 10
277.7157439969
 20
117.7725177885
 30
0.0
 11
17.78422892288177
 21
16.57047652107806
 31
0.0
210
0.0
220
0.0
230
1.0
 40
0.2135193148
 41
2.621199279104919
 42
2.663545981739825
  0
ELLIPSE
  5
1CA
330
1F
100
AcDbEntity
  8
0
  6
SLD-Gestrichelt
 62
     7
370
     0
100
AcDbEllipse
 10
212.9235864747
 20
117.7725177885
 30
0.0
 11
54.31434441551181
 21
-16.73983078825387
 31
0.0
210
0.0
220
0.0
230
1.0
 40
0.054548757
 41
0.5281405888624254
 42
0.7182377289169402
  0
ARC
  5
1CB
330
1F
100
AcDbEntity
  8
0
  6
SLD-Gestrichelt
 62
     7
370
     0
100
AcDbCircle
 10
246.6788900968
 20
86.514210629
 30
0.0
 40
22.01019234977104
100
AcDbArc
 50
69.4044943918
 51
90.0593697757
  0
LINE
  5
1CC
330
1F
100
AcDbEntity
  8
0
  6
SLD-Gestrichelt
 62
     7
370
     0
100
AcDbLine
 10
246.6560831823
 20
108.5243911625
 30
0.0
 11
240.9324503102
 21
108.5243911625
 31
0.0
  0
ELLIPSE
  5
1CD
330
1F
100
AcDbEntity
  8
0
  6
SLD-Gestrichelt
 62
     7
370
     0
100
AcDbEllipse
 10
257.7138187548
 20
117.7725177885
 30
0.0
 11
-5.55387417669013
 21
16.99159215419371
 31
0.0
210
0.0
220
0.0
230
1.0
 40
0.0962569477
 41
1.539344142815212
 42
2.364477454099831
  0
LINE
  5
1CE
330
1F
100
AcDbEntity
  8
0
  6
SLD-Gestrichelt
 62
     7
370
     0
100
AcDbLine
 10
255.9044143714
 20
117.7725176935
 30
0.0
 11
255.2573910512
 21
119.7725177885
 31
0.0
  0
CIRCLE
  5
1CF
330
1F
100
AcDbEntity
  8
0
  6
SLD-Gestrichelt
 62
     7
370
     0
100
AcDbCircle
 10
129.2049227514
 20
119.7725177885
 30
0.0
 40
5.0
  0
LINE
  5
1D0
330
1F
100
AcDbEntity
  8
0
  6
SLD-Gestrichelt
 62
     7
370
     0
100
AcDbLine
 10
122.2049227514
 20
103.5653238327
 30
0.0
 11
122.2990835891
 21
104.2353135676
 31
0.0
  0
LINE
  5
1D1
330
1F
100
AcDbEntity
  8
0
  6
SLD-Gestrichelt
 62
     7
370
     0
100
AcDbLine
 10
122.2990835891
 20
135.3097220094
 30
0.0
 11
122.2049227514
 21
135.9797117443
 31
0.0
  0
ARC
  5
1D2
330
1F
100
AcDbEntity
  8
0
  6
SLD-Gestrichelt
 62
     7
370
     0
100
AcDbCircle
 10
121.7049227514
 20
104.3188173877
 30
0.0
 40
0.6000000000000085
100
AcDbArc
 50
352.0
 51
0.0
  0
ARC
  5
1D3
330
1F
100
AcDbEntity
  8
0
  6
SLD-Gestrichelt
 62
     7
370
     0
100
AcDbCircle
 10
121.7049227514
 20
104.3188173877
 30
0.0
 40
0.6000000000000085
100
AcDbArc
 50
0.0
 51
33.5573097619
  0
ARC
  5
1D4
330
1F
100
AcDbEntity
  8
0
  6
SLD-Gestrichelt
 62
     7
370
     0
100
AcDbCircle
 10
121.7049227514
 20
135.2262181893
 30
0.0
 40
0.6000000000000119
100
AcDbArc
 50
348.75
 51
8.0
  0
LWPOLYLINE
  5
1D5
330
1F
100
AcDbEntity
  8
0
  6
SLD-Gestrichelt
 62
     7
370
     0
100
AcDbPolyline
 90
        3
 70
   128
 43
0.0
 10
122.2933939212
 20
135.1091635556
 10
122.2592504715
 20
134.9966085658
 10
122.2049227514
 20
134.8945561008
  0
LINE
  5
1D6
330
1F
100
AcDbEntity
  8
0
  6
SLD-Gestrichelt
 62
     7
370
     0
100
AcDbLine
 10
122.3049227488
 20
104.3188178123
 30
0.0
 11
122.3049227488
 21
135.2262177647
 31
0.0
  0
LINE
  5
1D7
330
1F
100
AcDbEntity
  8
0
  6
SLD-Gestrichelt
 62
     7
370
     0
100
AcDbLine
 10
122.3049227488
 20
104.3188178123
 30
0.0
 11
122.3049227488
 21
135.2262177647
 31
0.0
  0
ARC
  5
1D8
330
1F
100
AcDbEntity
  8
0
  6
SLD-Gestrichelt
 62
     7
370
     0
100
AcDbCircle
 10
111.7375506955
 20
107.4225177885
 30
0.0
 40
0.3999999999999998
100
AcDbArc
 50
210.0
 51
270.0
  0
ARC
  5
1D9
330
1F
100
AcDbEntity
  8
0
  6
SLD-Gestrichelt
 62
     7
370
     0
100
AcDbCircle
 10
111.7375506955
 20
132.1225177885
 30
0.0
 40
0.3999999999999785
100
AcDbArc
 50
90.0
 51
150.0
  0
ARC
  5
1DA
330
1F
100
AcDbEntity
  8
0
  6
SLD-Gestrichelt
 62
     7
370
     0
100
AcDbCircle
 10
118.0290994792
 20
112.0225177885
 30
0.0
 40
4.99999999999999
100
AcDbArc
 50
275.3965815306
 51
326.6329870308
  0
ARC
  5
1DB
330
1F
100
AcDbEntity
  8
0
  6
SLD-Gestrichelt
 62
     7
370
     0
100
AcDbCircle
 10
118.0290994792
 20
127.5225177885
 30
0.0
 40
5.000000000000014
100
AcDbArc
 50
33.3670129692
 51
84.6018817954
  0
LINE
  5
1DC
330
1F
100
AcDbEntity
  8
0
  6
SLD-Gestrichelt
 62
     7
370
     0
100
AcDbLine
 10
111.737550848
 20
107.0225180269
 30
0.0
 11
113.934611582
 21
107.0225180269
 31
0.0
  0
LINE
  5
1DD
330
1F
100
AcDbEntity
  8
0
  6
SLD-Gestrichelt
 62
     7
370
     0
100
AcDbLine
 10
113.934611582
 20
132.5225175501
 30
0.0
 11
111.737550848
 21
132.5225175501
 31
0.0
  0
LINE
  5
1DE
330
1F
100
AcDbEntity
  8
0
  6
SLD-Gestrichelt
 62
     7
370
     0
100
AcDbLine
 10
111.3911407598
 20
132.3225178898
 30
0.0
 11
110.2075722598
 21
130.272517647
 31
0.0
  0
LINE
  5
1DF
330
1F
100
AcDbEntity
  8
0
  6
SLD-Gestrichelt
 62
     7
370
     0
100
AcDbLine
 10
110.2075722598
 20
109.2725179301
 30
0.0
 11
111.3911407598
 21
107.2225176872
 31
0.0
  0
LINE
  5
1E0
330
1F
100
AcDbEntity
  8
0
  6
SLD-Gestrichelt
 62
     7
370
     0
100
AcDbLine
 10
232.5846409954
 20
116.4691859999
 30
0.0
 11
219.1210618772
 21
121.660461617
 31
0.0
  0
LINE
  5
1E1
330
1F
100
AcDbEntity
  8
0
  6
SLD-Gestrichelt
 62
     7
370
     0
100
AcDbLine
 10
219.9103838362
 20
116.8547221136
 30
0.0
 11
232.5907281198
 21
111.9654408799
 31
0.0
  0
LINE
  5
1E2
330
1F
100
AcDbEntity
  8
0
  6
SLD-Gestrichelt
 62
     7
370
     0
100
AcDbLine
 10
217.6100617804
 20
117.7416771793
 30
0.0
 11
219.0448349871
 21
117.1884596956
 31
0.0
  0
LINE
  5
1E3
330
1F
100
AcDbEntity
  8
0
  6
SLD-Gestrichelt
 62
     7
370
     0
100
AcDbLine
 10
218.9367419638
 20
121.5927785638
 30
0.0
 11
217.212848977
 21
120.1455337254
 31
0.0
  0
LINE
  5
1E4
330
1F
100
AcDbEntity
  8
0
  6
SLD-Gestrichelt
 62
     7
370
     0
100
AcDbLine
 10
217.212848977
 20
120.1455337254
 30
0.0
 11
217.5188890256
 21
117.9155858376
 31
0.0
  0
ARC
  5
1E5
330
1F
100
AcDbEntity
  8
0
  6
SLD-Gestrichelt
 62
     7
370
     0
100
AcDbCircle
 10
129.1549227514
 20
109.8975177885
 30
0.0
 40
1.00000000000001
100
AcDbArc
 50
218.6821874535
 51
0.0
  0
ARC
  5
1E6
330
1F
100
AcDbEntity
  8
0
  6
SLD-Gestrichelt
 62
     7
370
     0
100
AcDbCircle
 10
129.1549227514
 20
129.6475177885
 30
0.0
 40
1.00000000000001
100
AcDbArc
 50
0.0
 51
141.3178125465
  0
LINE
  5
1E7
330
1F
100
AcDbEntity
  8
0
  6
SLD-Gestrichelt
 62
     7
370
     0
100
AcDbLine
 10
108.4049229108
 20
109.2725179301
 30
0.0
 11
110.2075722598
 21
109.2725179301
 31
0.0
  0
LINE
  5
1E8
330
1F
100
AcDbEntity
  8
0
  6
SLD-Gestrichelt
 62
     7
370
     0
100
AcDbLine
 10
110.2075722598
 20
130.272517647
 30
0.0
 11
105.904922501
 21
130.272517647
 31
0.0
  0
LINE
  5
1E9
330
1F
100
AcDbEntity
  8
0
  6
SLD-Gestrichelt
 62
     7
370
     0
100
AcDbLine
 10
122.2049227514
 20
109.2725179301
 30
0.0
 11
128.3742977835
 21
109.2725179301
 31
0.0
  0
LINE
  5
1EA
330
1F
100
AcDbEntity
  8
0
  6
SLD-Gestrichelt
 62
     7
370
     0
100
AcDbLine
 10
128.3742977835
 20
130.272517647
 30
0.0
 11
122.2049227514
 21
130.272517647
 31
0.0
  0
LINE
  5
1EB
330
1F
100
AcDbEntity
  8
0
  6
SLD-Gestrichelt
 62
     7
370
     0
100
AcDbLine
 10
222.3049259342
 20
119.1603784941
 30
0.0
 11
222.3049259342
 21
119.5546284257
 31
0.0
  0
LINE
  5
1EC
330
1F
100
AcDbEntity
  8
0
  6
SLD-Gestrichelt
 62
     7
370
     0
100
AcDbLine
 10
218.1049218931
 20
119.5551209644
 30
0.0
 11
218.1049218931
 21
119.0992065499
 31
0.0
  0
LINE
  5
1ED
330
1F
100
AcDbEntity
  8
0
  6
SLD-Gestrichelt
 62
     7
370
     0
100
AcDbLine
 10
135.50492251
 20
113.5225176954
 30
0.0
 11
138.0049219884
 21
113.5225176954
 31
0.0
  0
LINE
  5
1EE
330
1F
100
AcDbEntity
  8
0
  6
SLD-Gestrichelt
 62
     7
370
     0
100
AcDbLine
 10
138.0049219884
 20
126.0225178816
 30
0.0
 11
135.50492251
 21
126.0225178816
 31
0.0
  0
LINE
  5
1EF
330
1F
100
AcDbEntity
  8
0
  6
SLD-Gestrichelt
 62
     7
370
     0
100
AcDbLine
 10
130.1549232163
 20
113.7725177364
 30
0.0
 11
130.6549223669
 21
114.2725178183
 31
0.0
  0
LINE
  5
1F0
330
1F
100
AcDbEntity
  8
0
  6
SLD-Gestrichelt
 62
     7
370
     0
100
AcDbLine
 10
130.6549223669
 20
125.2725177587
 30
0.0
 11
130.1549232163
 21
125.7725178407
 31
0.0
  0
LINE
  5
1F1
330
1F
100
AcDbEntity
  8
0
  6
SLD-Gestrichelt
 62
     7
370
     0
100
AcDbLine
 10
130.6549223669
 20
114.2725178183
 30
0.0
 11
135.50492251
 21
114.2725178183
 31
0.0
  0
LINE
  5
1F2
330
1F
100
AcDbEntity
  8
0
  6
SLD-Gestrichelt
 62
     7
370
     0
100
AcDbLine
 10
135.50492251
 20
125.2725177587
 30
0.0
 11
130.6549223669
 21
125.2725177587
 31
0.0
  0
LINE
  5
1F3
330
1F
100
AcDbEntity
  8
0
  6
SLD-Gestrichelt
 62
     7
370
     0
100
AcDbLine
 10
130.1549232163
 20
139.7725173415
 30
0.0
 11
130.1549232163
 21
136.6725170196
 31
0.0
  0
LINE
  5
1F4
330
1F
100
AcDbEntity
  8
0
  6
SLD-Gestrichelt
 62
     7
370
     0
100
AcDbLine
 10
118.9405868359
 20
104.7321601913
 30
0.0
 11
118.5049290367
 21
105.2118257762
 31
0.0
  0
LINE
  5
1F5
330
1F
100
AcDbEntity
  8
0
  6
SLD-Gestrichelt
 62
     7
370
     0
100
AcDbLine
 10
113.9049266063
 20
105.4883494184
 30
0.0
 11
113.4212079056
 21
105.0086838336
 31
0.0
  0
LINE
  5
1F6
330
1F
100
AcDbEntity
  8
0
  6
SLD-Gestrichelt
 62
     7
370
     0
100
AcDbLine
 10
113.4210840397
 20
134.5363470868
 30
0.0
 11
113.9049191557
 21
134.0566274853
 31
0.0
  0
LINE
  5
1F7
330
1F
100
AcDbEntity
  8
0
  6
SLD-Gestrichelt
 62
     7
370
     0
100
AcDbLine
 10
118.5049225174
 20
134.3331604407
 30
0.0
 11
118.9406888157
 21
134.812879111
 31
0.0
  0
LINE
  5
1F8
330
1F
100
AcDbEntity
  8
0
  6
SLD-Gestrichelt
 62
     7
370
     0
100
AcDbLine
 10
222.3049259342
 20
117.2725178444
 30
0.0
 11
223.8070747413
 21
119.7725177885
 31
0.0
  0
LINE
  5
1F9
330
1F
100
AcDbEntity
  8
0
  6
SLD-Gestrichelt
 62
     7
370
     0
100
AcDbLine
 10
223.8070747413
 20
119.7725177885
 30
0.0
 11
222.3049259342
 21
122.2725177326
 31
0.0
  0
LINE
  5
1FA
330
1F
100
AcDbEntity
  8
0
  6
SLD-Gestrichelt
 62
     7
370
     0
100
AcDbLine
 10
138.0049219884
 20
117.2725178444
 30
0.0
 11
222.3049259342
 21
117.2725178444
 31
0.0
  0
LINE
  5
1FB
330
1F
100
AcDbEntity
  8
0
  6
SLD-Gestrichelt
 62
     7
370
     0
100
AcDbLine
 10
222.3049259342
 20
122.2725177326
 30
0.0
 11
138.0049219884
 21
122.2725177326
 31
0.0
  0
LINE
  5
1FC
330
1F
100
AcDbEntity
  8
0
  6
SLD-Gestrichelt
 62
     7
370
     0
100
AcDbLine
 10
118.5049227502
 20
105.2125913234
 30
0.0
 11
118.5049227502
 21
107.0456632556
 31
0.0
  0
LINE
  5
1FD
330
1F
100
AcDbEntity
  8
0
  6
SLD-Gestrichelt
 62
     7
370
     0
100
AcDbLine
 10
113.904922881
 20
107.0278181837
 30
0.0
 11
113.904922881
 21
105.4888923795
 31
0.0
  0
LINE
  5
1FE
330
1F
100
AcDbEntity
  8
0
  6
SLD-Gestrichelt
 62
     7
370
     0
100
AcDbLine
 10
118.5049227502
 20
132.4993723215
 30
0.0
 11
118.5049227502
 21
134.332326907
 31
0.0
  0
LINE
  5
1FF
330
1F
100
AcDbEntity
  8
0
  6
SLD-Gestrichelt
 62
     7
370
     0
100
AcDbLine
 10
113.904922881
 20
134.056127365
 30
0.0
 11
113.904922881
 21
132.5172173933
 31
0.0
  0
LINE
  5
200
330
1F
100
AcDbEntity
  8
0
  6
SLD-Gestrichelt
 62
     7
370
     0
100
AcDbLine
 10
222.3049259342
 20
119.9904071513
 30
0.0
 11
222.3049259342
 21
120.318082711
 31
0.0
  0
LINE
  5
201
330
1F
100
AcDbEntity
  8
0
  6
SLD-Gestrichelt
 62
     7
370
     0
100
AcDbLine
 10
218.1049218931
 20
120.318082711
 30
0.0
 11
218.1049218931
 21
119.9899146127
 31
0.0
  0
LINE
  5
202
330
1F
100
AcDbEntity
  8
0
  6
SLD-Gestrichelt
 62
     7
370
     0
100
AcDbLine
 10
248.0129382171
 20
118.0111699182
 30
0.0
 11
248.0129382171
 21
117.9065351284
 31
0.0
  0
ARC
  5
203
330
1F
100
AcDbEntity
  8
0
  6
SLD-Gestrichelt
 62
     7
370
     0
100
AcDbCircle
 10
105.0049227514
 20
133.5525177885
 30
0.0
 40
0.8999999999999911
100
AcDbArc
 50
270.0
 51
311.1792132368
  0
ARC
  5
204
330
1F
100
AcDbEntity
  8
0
  6
SLD-Gestrichelt
 62
     7
370
     0
100
AcDbCircle
 10
107.5049227514
 20
106.0515177885
 30
0.0
 40
0.9000000000000057
100
AcDbArc
 50
30.4426030216
 51
90.0
  0
LINE
  5
205
330
1F
100
AcDbEntity
  8
0
  6
SLD-Gestrichelt
 62
     7
370
     0
100
AcDbLine
 10
105.0049221672
 20
132.6525180743
 30
0.0
 11
103.254922346
 21
132.6525180743
 31
0.0
  0
LINE
  5
206
330
1F
100
AcDbEntity
  8
0
  6
SLD-Gestrichelt
 62
     7
370
     0
100
AcDbLine
 10
103.254922346
 20
106.9515177191
 30
0.0
 11
107.504922577
 21
106.9515177191
 31
0.0
  0
LINE
  5
207
330
1F
100
AcDbEntity
  8
0
  6
SLD-Gestrichelt
 62
     7
370
     0
100
AcDbLine
 10
103.254922346
 20
132.6525180743
 30
0.0
 11
102.3049230285
 21
131.7025178255
 31
0.0
  0
LINE
  5
208
330
1F
100
AcDbEntity
  8
0
  6
SLD-Gestrichelt
 62
     7
370
     0
100
AcDbLine
 10
102.3049230285
 20
107.901517968
 30
0.0
 11
103.254922346
 21
106.9515177191
 31
0.0
  0
LINE
  5
209
330
1F
100
AcDbEntity
  8
0
  6
SLD-Gestrichelt
 62
     7
370
     0
100
AcDbLine
 10
256.6836407937
 20
110.2555810616
 30
0.0
 11
256.6836407937
 21
110.7646317364
 31
0.0
  0
LINE
  5
20A
330
1F
100
AcDbEntity
  8
0
  6
SLD-Gestrichelt
 62
     7
370
     0
100
AcDbLine
 10
253.3836445369
 20
110.7645283596
 30
0.0
 11
253.3836445369
 21
110.2555810616
 31
0.0
  0
LINE
  5
20B
330
1F
100
AcDbEntity
  8
0
  6
SLD-Gestrichelt
 62
     7
370
     0
100
AcDbLine
 10
222.7049252548
 20
120.3390301348
 30
0.0
 11
222.7049252548
 21
120.8661261157
 31
0.0
  0
LINE
  5
20C
330
1F
100
AcDbEntity
  8
0
  6
SLD-Gestrichelt
 62
     7
370
     0
100
AcDbLine
 10
217.7049225725
 20
120.8661261157
 30
0.0
 11
217.7049225725
 21
120.3390301348
 31
0.0
  0
LINE
  5
20D
330
1F
100
AcDbEntity
  8
VERMASSUNG
  6
SLD-Punktstrich
100
AcDbLine
 10
262.2049227514
 20
102.7725177885
 30
0.0
 11
262.2049227514
 21
119.7725177885
 31
0.0
  0
LINE
  5
20E
330
1F
100
AcDbEntity
  8
VERMASSUNG
  6
SLD-Punktstrich
100
AcDbLine
 10
262.2049227514
 20
102.7725177885
 30
0.0
 11
272.865684222
 21
102.7725177885
 31
0.0
  0
LINE
  5
20F
330
1F
100
AcDbEntity
  8
VERMASSUNG
  6
SLD-Punktstrich
100
AcDbLine
 10
98.9046158793
 20
119.7725177885
 30
0.0
 11
262.2049227514
 21
119.7725177885
 31
0.0
  0
DIMENSION
  5
210
330
1F
100
AcDbEntity
  8
VERMASSUNG
100
AcDbDimension
  2
_D
 10
277.0243621347
 20
119.7725177885
 30
0.0
 11
277.0243621347
 21
111.2725177885
 31
0.0
 70
   160
  1
<>
 71
     2
 42
-1.0
  3
SLDDIMSTYLE0
100
AcDbAlignedDimension
 13
262.2049227514
 23
102.7725177885
 33
0.0
 14
262.2049227514
 24
119.7725177885
 34
0.0
 50
90.0
100
AcDbRotatedDimension
  0
DIMENSION
  5
21B
330
1F
100
AcDbEntity
  8
VERMASSUNG
100
AcDbDimension
  2
_D_1
 10
258.9830461827
 20
113.426554584
 30
0.0
 11
267.3492088777
 21
109.5949666233
 31
0.0
 70
   162
  1
<>
 71
     1
 42
-1.0
  3
SLDDIMSTYLE1
100
AcDb2LineAngularDimension
 13
262.2049227514
 23
102.7725177885
 33
0.0
 14
272.865684222
 24
102.7725177885
 34
0.0
 15
262.1890230182
 25
103.2832639977
 35
0.0
 16
267.3492088777
 26
109.5949666233
 36
0.0
  0
DIMENSION
  5
224
330
1F
100
AcDbEntity
  8
VERMASSUNG
100
AcDbDimension
  2
_D_2
 10
262.2049227514
 20
89.7725177885
 30
0.0
 11
192.2049227514
 21
89.7725177885
 31
0.0
 70
   160
  1
<>
 71
     2
 42
-1.0
  3
SLDDIMSTYLE0
100
AcDbAlignedDimension
 13
122.2049227514
 23
100.0725177885
 33
0.0
 14
262.2049227514
 24
102.7725177885
 34
0.0
100
AcDbRotatedDimension
  0
DIMENSION
  5
22E
330
1F
100
AcDbEntity
  8
VERMASSUNG
100
AcDbDimension
  2
_D_3
 10
262.2049227514
 20
82.3983639573
 30
0.0
 11
182.2549227514
 21
82.3983639573
 31
0.0
 70
   160
  1
<>
 71
     2
 42
-1.0
  3
SLDDIMSTYLE0
100
AcDbAlignedDimension
 13
102.3049227514
 23
107.9015177885
 33
0.0
 14
262.2049227514
 24
102.7725177885
 34
0.0
100
AcDbRotatedDimension
  0
DIMENSION
  5
238
330
1F
100
AcDbEntity
  8
VERMASSUNG
100
AcDbDimension
  2
_D_4
 10
169.3913644299
 20
132.2725177885
 30
0.0
 11
169.3913644299
 21
113.1891077301
 31
0.0
 70
   160
  1
%%c<>
 71
     2
 42
-1.0
  3
SLDDIMSTYLE0
100
AcDbAlignedDimension
 13
236.5069037153
 23
107.2725255599
 33
0.0
 14
238.2049227514
 24
132.2725177885
 34
0.0
 50
90.0
100
AcDbRotatedDimension
  0
DIMENSION
  5
243
330
1F
100
AcDbEntity
  8
VERMASSUNG
100
AcDbDimension
  2
_D_5
 10
92.1608337764
 20
99.7725177885
 30
0.0
 11
92.1608337764
 21
119.7725177885
 31
0.0
 70
   160
  1
HSK T%%c<>
 71
     2
 42
-1.0
  3
SLDDIMSTYLE0
100
AcDbAlignedDimension
 13
122.5049227514
 23
139.7725177885
 33
0.0
 14
122.5049227514
 24
99.7725177885
 34
0.0
 50
90.0
100
AcDbRotatedDimension
  0
LINE
  5
24F
330
1F
100
AcDbEntity
  8
0
  6
SLD-Durchgehend
 62
     7
370
    15
100
AcDbLine
 10
49.3897209044
 20
113.5857097947
 30
0.0
 11
49.3747626997
 21
113.7996196889
 31
0.0
  0
LINE
  5
250
330
1F
100
AcDbEntity
  8
0
  6
SLD-Durchgehend
 62
     7
370
    15
100
AcDbLine
 10
49.3747626997
 20
113.7996196889
 30
0.0
 11
47.8831329483
 21
113.6275392168
 31
0.0
  0
LINE
  5
251
330
1F
100
AcDbEntity
  8
0
  6
SLD-Durchgehend
 62
     7
370
    15
100
AcDbLine
 10
47.8831329483
 20
113.6275392168
 30
0.0
 11
45.7036025282
 21
113.6880528324
 31
0.0
  0
LINE
  5
252
330
1F
100
AcDbEntity
  8
0
  6
SLD-Durchgehend
 62
     7
370
    15
100
AcDbLine
 10
44.3777301216
 20
132.6489119933
 30
0.0
 11
45.7036025282
 21
113.6880528324
 31
0.0
  0
ARC
  5
253
330
1F
100
AcDbEntity
  8
0
  6
SLD-Durchgehend
 62
     7
370
    15
100
AcDbCircle
 10
46.1661585241
 20
119.7725177885
 30
0.0
 40
13.00000000000002
100
AcDbArc
 50
0.0
 51
97.9073388765
  0
LINE
  5
254
330
1F
100
AcDbEntity
  8
0
  6
SLD-Durchgehend
 62
     7
370
    15
100
AcDbLine
 10
59.1661587923
 20
117.7725176935
 30
0.0
 11
59.1661587923
 21
119.7725177885
 31
0.0
  0
ARC
  5
255
330
1F
100
AcDbEntity
  8
0
  6
SLD-Durchgehend
 62
     7
370
    15
100
AcDbCircle
 10
42.1661585241
 20
117.7725177885
 30
0.0
 40
17.00000000000001
100
AcDbArc
 50
312.7233437277
 51
0.0
  0
LINE
  5
256
330
1F
100
AcDbEntity
  8
0
  6
SLD-Durchgehend
 62
     7
370
    15
100
AcDbLine
 10
50.0354878704
 20
104.3508096741
 30
0.0
 11
53.6999621063
 21
105.2836679996
 31
0.0
  0
LINE
  5
257
330
1F
100
AcDbEntity
  8
0
  6
SLD-Durchgehend
 62
     7
370
    15
100
AcDbLine
 10
53.1609186537
 20
104.8065914915
 30
0.0
 11
50.0588370587
 21
104.0168997974
 31
0.0
  0
ARC
  5
258
330
1F
100
AcDbEntity
  8
0
  6
SLD-Durchgehend
 62
     7
370
    15
100
AcDbCircle
 10
42.1661585241
 20
117.7725177885
 30
0.0
 40
17.00000000000001
100
AcDbArc
 50
310.2970563905
 51
312.7233437277
  0
ARC
  5
259
330
1F
100
AcDbEntity
  8
0
  6
SLD-Durchgehend
 62
     7
370
    15
100
AcDbCircle
 10
46.1662867049
 20
119.7719653811
 30
0.0
 40
12.50056507422676
100
AcDbArc
 50
98.0641162399
 51
108.4034458165
  0
ARC
  5
25A
330
1F
100
AcDbEntity
  8
0
  6
SLD-Durchgehend
 62
     7
370
    15
100
AcDbCircle
 10
46.1043096724
 20
119.2128403815
 30
0.0
 40
11.93842292602421
100
AcDbArc
 50
259.4032084482
 51
268.7850092675
  0
ELLIPSE
  5
25B
330
1F
100
AcDbEntity
  8
0
  6
SLD-Durchgehend
 62
     7
370
    15
100
AcDbEllipse
 10
39.6162376705
 20
114.2173134924
 30
0.0
 11
1.791520314584552
 21
-1.696680103864793
 31
0.0
210
0.0
220
0.0
230
1.0
 40
0.8366473185
 41
0.0
 42
6.283185307179586
  0
ARC
  5
25C
330
1F
100
AcDbEntity
  8
0
  6
SLD-Durchgehend
 62
     7
370
    15
100
AcDbCircle
 10
46.1661585241
 20
119.7725177885
 30
0.0
 40
12.50000000000001
100
AcDbArc
 50
108.4036880773
 51
259.5963119227
  0
LINE
  5
25D
330
1F
100
AcDbEntity
  8
0
  6
SLD-Durchgehend
 62
     7
370
    15
100
AcDbLine
 10
41.6661587178
 20
138.6433948905
 30
0.0
 11
41.6661587178
 21
139.259693879
 31
0.0
  0
LINE
  5
25E
330
1F
100
AcDbEntity
  8
0
  6
SLD-Durchgehend
 62
     7
370
    15
100
AcDbLine
 10
34.316158165
 20
135.8839270801
 30
0.0
 11
34.316158165
 21
135.1327753768
 31
0.0
  0
ARC
  5
25F
330
1F
100
AcDbEntity
  8
0
  6
SLD-Durchgehend
 62
     7
370
    15
100
AcDbCircle
 10
46.1661585241
 20
119.7725177885
 30
0.0
 40
19.99999999999999
100
AcDbArc
 50
103.0028781629
 51
126.3346172154
  0
ARC
  5
260
330
1F
100
AcDbEntity
  8
0
  6
SLD-Durchgehend
 62
     7
370
    15
100
AcDbCircle
 10
46.1661585241
 20
119.7725177885
 30
0.0
 40
20.00000000000001
100
AcDbArc
 50
143.6653827846
 51
254.0379858372
  0
LINE
  5
261
330
1F
100
AcDbEntity
  8
0
  6
SLD-Durchgehend
 62
     7
370
    15
100
AcDbLine
 10
30.0547492325
 20
131.6225181476
 30
0.0
 11
30.8059009358
 21
131.6225181476
 31
0.0
  0
LINE
  5
262
330
1F
100
AcDbEntity
  8
0
  6
SLD-Durchgehend
 62
     7
370
    15
100
AcDbLine
 10
40.6661585539
 20
101.1684850932
 30
0.0
 11
40.6661585539
 21
100.5436328382
 31
0.0
  0
LINE
  5
263
330
1F
100
AcDbEntity
  8
0
  6
SLD-Durchgehend
 62
     7
370
    15
100
AcDbLine
 10
50.6661583304
 20
139.259693879
 30
0.0
 11
50.6661583304
 21
138.6433948905
 31
0.0
  0
ARC
  5
264
330
1F
100
AcDbEntity
  8
0
  6
SLD-Durchgehend
 62
     7
370
    15
100
AcDbCircle
 10
46.1661585241
 20
119.7725177885
 30
0.0
 40
20.00000000000001
100
AcDbArc
 50
285.9620141628
 51
76.9971218371
  0
LINE
  5
265
330
1F
100
AcDbEntity
  8
0
  6
SLD-Durchgehend
 62
     7
370
    15
100
AcDbLine
 10
51.6661584943
 20
100.5436328382
 30
0.0
 11
51.6661584943
 21
101.1684850932
 31
0.0
  0
LINE
  5
266
330
1F
100
AcDbEntity
  8
0
  6
SLD-Durchgehend
 62
     7
370
    15
100
AcDbLine
 10
50.6661583304
 20
136.6725170196
 30
0.0
 11
41.6661587178
 21
136.6725170196
 31
0.0
  0
LINE
  5
267
330
1F
100
AcDbEntity
  8
0
  6
SLD-Durchgehend
 62
     7
370
    15
100
AcDbLine
 10
51.6661584943
 20
102.8725185574
 30
0.0
 11
40.6661585539
 21
102.8725185574
 31
0.0
  0
LINE
  5
268
330
1F
100
AcDbEntity
  8
0
  6
SLD-Durchgehend
 62
     7
370
    15
100
AcDbLine
 10
30.8059009358
 20
131.6225181476
 30
0.0
 11
34.316158165
 21
131.6225181476
 31
0.0
  0
LINE
  5
269
330
1F
100
AcDbEntity
  8
0
  6
SLD-Durchgehend
 62
     7
370
    15
100
AcDbLine
 10
51.6661584943
 20
101.1684850932
 30
0.0
 11
51.6661584943
 21
102.8725185574
 31
0.0
  0
LINE
  5
26A
330
1F
100
AcDbEntity
  8
0
  6
SLD-Durchgehend
 62
     7
370
    15
100
AcDbLine
 10
50.6661583304
 20
138.6433948905
 30
0.0
 11
50.6661583304
 21
136.6725170196
 31
0.0
  0
LINE
  5
26B
330
1F
100
AcDbEntity
  8
0
  6
SLD-Durchgehend
 62
     7
370
    15
100
AcDbLine
 10
41.6661587178
 20
136.6725170196
 30
0.0
 11
41.6661587178
 21
138.6433948905
 31
0.0
  0
LINE
  5
26C
330
1F
100
AcDbEntity
  8
0
  6
SLD-Durchgehend
 62
     7
370
    15
100
AcDbLine
 10
40.6661585539
 20
102.8725185574
 30
0.0
 11
40.6661585539
 21
101.1684850932
 31
0.0
  0
LINE
  5
26D
330
1F
100
AcDbEntity
  8
0
  6
SLD-Durchgehend
 62
     7
370
    15
100
AcDbLine
 10
34.316158165
 20
135.1327753768
 30
0.0
 11
34.316158165
 21
131.6225181476
 31
0.0
  0
ARC
  5
26E
330
1F
100
AcDbEntity
  8
0
  6
SLD-Durchgehend
 62
     7
370
    15
100
AcDbCircle
 10
46.1925735455
 20
119.7461027671
 30
0.0
 40
20.03693129816491
100
AcDbArc
 50
126.3507116104
 51
143.6492883896
  0
ARC
  5
26F
330
1F
100
AcDbEntity
  8
0
  6
SLD-Durchgehend
 62
     7
370
    15
100
AcDbCircle
 10
46.1660463765
 20
119.7732083155
 30
0.0
 40
20.00069514654178
100
AcDbArc
 50
272.8662060956
 51
285.9617786355
  0
ARC
  5
270
330
1F
100
AcDbEntity
  8
0
  6
SLD-Durchgehend
 62
     7
370
    15
100
AcDbCircle
 10
46.1662077173
 20
119.7728286142
 30
0.0
 40
20.00031277226913
100
AcDbArc
 50
254.0380956334
 51
267.1339196355
  0
ARC
  5
271
330
1F
100
AcDbEntity
  8
0
  6
SLD-Durchgehend
 62
     7
370
    15
100
AcDbCircle
 10
46.1661585241
 20
119.7724563392
 30
0.0
 40
20.00006062963139
100
AcDbArc
 50
76.9971625155
 51
103.0028374845
  0
ARC
  5
272
330
1F
100
AcDbEntity
  8
0
  6
SLD-Durchgehend
 62
     7
370
    15
100
AcDbCircle
 10
46.1661585241
 20
119.7725177885
 30
0.0
 40
19.99999999999999
100
AcDbArc
 50
267.1340160174
 51
272.8659839826
  0
LINE
  5
273
330
1F
100
AcDbEntity
  8
0
  6
SLD-Durchgehend
 62
     7
370
    15
100
AcDbLine
 10
50.0765584975
 20
103.7634738864
 30
0.0
 11
49.3982797588
 21
113.463312588
 31
0.0
  0
LINE
  5
274
330
1F
100
AcDbEntity
  8
0
  6
SLD-Durchgehend
 62
     7
370
    15
100
AcDbLine
 10
46.1304436712
 20
103.2832634778
 30
0.0
 11
45.4211557035
 21
113.426554683
 31
0.0
  0
LWPOLYLINE
  5
275
330
1F
100
AcDbEntity
  8
0
  6
SLD-Durchgehend
 62
     7
370
    15
100
AcDbPolyline
 90
        4
 70
   128
 43
0.0
 10
50.0852435461
 20
103.6392708452
 10
49.0025857098
 20
103.3856810213
 10
47.8912347562
 20
103.1614408971
 10
46.1650494147
 20
102.7883791507
  0
LWPOLYLINE
  5
276
330
1F
100
AcDbEntity
  8
0
  6
SLD-Durchgehend
 62
     7
370
    15
100
AcDbPolyline
 90
        8
 70
   128
 43
0.0
 10
50.0765584975
 20
103.7634738864
 10
50.0789282478
 20
103.7295830579
 10
50.0812751807
 20
103.6960200549
 10
50.083269608
 20
103.6674992324
 10
50.0847019821
 20
103.6470157237
 10
50.0854665979
 20
103.636080134
 10
50.0855001255
 20
103.6356032969
 10
50.0852435461
 20
103.6392708452
  0
LWPOLYLINE
  5
277
330
1F
100
AcDbEntity
  8
0
  6
SLD-Durchgehend
 62
     7
370
    15
100
AcDbPolyline
 90
        8
 70
   128
 43
0.0
 10
46.1650494147
 20
102.7883791507
 10
46.166352808
 20
102.7697396607
 10
46.1644100984
 20
102.7975210131
 10
46.1595415368
 20
102.8671448262
 10
46.1524391803
 20
102.9687130035
 10
46.1438824013
 20
103.0910813392
 10
46.1346758957
 20
103.222740549
 10
46.1304436712
 20
103.2832634778
  0
LWPOLYLINE
  5
278
330
1F
100
AcDbEntity
  8
0
  6
SLD-Durchgehend
 62
     7
370
    15
100
AcDbPolyline
 90
        4
 70
   128
 43
0.0
 10
49.3937584206
 20
113.5279691921
 10
49.3944953296
 20
113.5174322085
 10
49.3960401609
 20
113.495338443
 10
49.3982797588
 20
113.463312588
  0
LWPOLYLINE
  5
279
330
1F
100
AcDbEntity
  8
0
  6
SLD-Durchgehend
 62
     7
370
    15
100
AcDbPolyline
 90
        4
 70
   128
 43
0.0
 10
45.4211557035
 20
113.426554683
 10
45.4128703086
 20
113.5450412662
 10
45.4064672331
 20
113.6366089017
 10
45.4030712235
 20
113.6851741144
  0
LINE
  5
27A
330
1F
100
AcDbEntity
  8
0
  6
SLD-Durchgehend
 62
     7
370
    15
100
AcDbLine
 10
45.4817166419
 20
116.8611687285
 30
0.0
 11
45.1794335486
 21
116.8833416564
 31
0.0
  0
LINE
  5
27B
330
1F
100
AcDbEntity
  8
0
  6
SLD-Durchgehend
 62
     7
370
    15
100
AcDbLine
 10
49.3937584206
 20
113.5279691921
 30
0.0
 11
49.3897209044
 21
113.5857097947
 31
0.0
  0
LINE
  5
27C
330
1F
100
AcDbEntity
  8
0
  6
SLD-Durchgehend
 62
     7
370
    15
100
AcDbLine
 10
45.4030712235
 20
113.6851741144
 30
0.0
 11
45.1794335486
 21
116.8833416564
 31
0.0
  0
LINE
  5
27D
330
1F
100
AcDbEntity
  8
0
  6
SLD-Durchgehend
 62
     7
370
    15
100
AcDbLine
 10
45.4211557035
 20
113.426554683
 30
0.0
 11
45.4030712235
 21
113.6851741144
 31
0.0
  0
CIRCLE
  5
27E
330
1F
100
AcDbEntity
  8
VERMASSUNG
  6
SLD-Punktstrich
100
AcDbCircle
 10
46.1543161333
 20
118.9418718664
 30
0.0
 40
16.0
  0
DIMENSION
  5
27F
330
1F
100
AcDbEntity
  8
VERMASSUNG
100
AcDbDimension
  2
_D_6
 10
36.4672605052
 20
106.2076285337
 30
0.0
 11
29.4146052948
 21
96.936470089
 31
0.0
 70
   160
  1
%%c<> min. 
 71
     2
 42
-1.0
  3
SLDDIMSTYLE2
100
AcDbAlignedDimension
 13
55.8413717615
 23
131.6761151991
 33
0.0
 14
36.4672605052
 24
106.2076285337
 34
0.0
 50
52.7394190912
100
AcDbRotatedDimension
  0
DIMENSION
  5
28E
330
1F
100
AcDbEntity
  8
VERMASSUNG
100
AcDbDimension
  2
_D_7
 10
46.1661585241
 20
97.2725177885
 30
0.0
 11
37.8271652733
 21
144.4090412757
 31
0.0
 70
   162
  1
<>
 71
     1
 42
-1.0
  3
SLDDIMSTYLE3
100
AcDb2LineAngularDimension
 13
44.3777301051
 23
132.6489118408
 33
0.0
 14
45.7036025188
 24
113.6880529529
 34
0.0
 15
46.1661585241
 25
142.2725177885
 35
0.0
 16
44.8310512365
 26
145.3056643436
 36
0.0
  0
INSERT
  5
2A6
330
1F
100
AcDbEntity
  8
VERMASSUNG
100
AcDbBlockReference
  2
SW_CENTERMARKSYMBOL_0
 10
46.1661585241
 20
119.7725177885
 30
0.0
  0
OLE2FRAME
  5
2A7
330
1F
100
AcDbEntity
  8
0
100
AcDbOle2Frame
 70
     2
  3
Paintbrush-Bild
 10
13.8511154363
 20
38.264191557
 30
0.0
 11
51.6290888628
 21
31.9806341108
 31
0.0
 71
     2
 72
     0
 73
     1
 90
    12928
310
80552BED0767C5B32B40DDAF6807D121434000000000000000006FFBDDFB85D0
310
4940DDAF6807D121434000000000000000006FFBDDFB85D04940416F4BD60AFB
310
3F4000000000000000002BED0767C5B32B40416F4BD60AFB3F40000000000000
310
0000000000000100000000010000010000000100000000000100000000320000
310
D0CF11E0A1B11AE1000000000000000000000000000000003E000300FEFF0900
310
0600000000000000000000000100000001000000000000000010000002000000
310
01000000FEFFFFFF0000000000000000FFFFFFFFFFFFFFFFFFFFFFFFFFFFFFFF
310
FFFFFFFFFFFFFFFFFFFFFFFFFFFFFFFFFFFFFFFFFFFFFFFFFFFFFFFFFFFFFFFF
310
FFFFFFFFFFFFFFFFFFFFFFFFFFFFFFFFFFFFFFFFFFFFFFFFFFFFFFFFFFFFFFFF
310
FFFFFFFFFFFFFFFFFFFFFFFFFFFFFFFFFFFFFFFFFFFFFFFFFFFFFFFFFFFFFFFF
310
FFFFFFFFFFFFFFFFFFFFFFFFFFFFFFFFFFFFFFFFFFFFFFFFFFFFFFFFFFFFFFFF
310
FFFFFFFFFFFFFFFFFFFFFFFFFFFFFFFFFFFFFFFFFFFFFFFFFFFFFFFFFFFFFFFF
310
FFFFFFFFFFFFFFFFFFFFFFFFFFFFFFFFFFFFFFFFFFFFFFFFFFFFFFFFFFFFFFFF
310
FFFFFFFFFFFFFFFFFFFFFFFFFFFFFFFFFFFFFFFFFFFFFFFFFFFFFFFFFFFFFFFF
310
FFFFFFFFFFFFFFFFFFFFFFFFFFFFFFFFFFFFFFFFFFFFFFFFFFFFFFFFFFFFFFFF
310
FFFFFFFFFFFFFFFFFFFFFFFFFFFFFFFFFFFFFFFFFFFFFFFFFFFFFFFFFFFFFFFF
310
FFFFFFFFFFFFFFFFFFFFFFFFFFFFFFFFFFFFFFFFFFFFFFFFFFFFFFFFFFFFFFFF
310
FFFFFFFFFFFFFFFFFFFFFFFFFFFFFFFFFFFFFFFFFFFFFFFFFFFFFFFFFFFFFFFF
310
FFFFFFFFFFFFFFFFFFFFFFFFFFFFFFFFFFFFFFFFFFFFFFFFFFFFFFFFFFFFFFFF
310
FFFFFFFFFFFFFFFFFFFFFFFFFFFFFFFFFFFFFFFFFFFFFFFFFFFFFFFFFFFFFFFF
310
FDFFFFFFFEFFFFFFFEFFFFFFFEFFFFFF05000000060000000700000008000000
310
090000000A0000000B0000000C0000000D0000000E0000000F00000010000000
310
11000000120000001300000014000000150000001600000017000000FEFFFFFF
310
FFFFFFFFFFFFFFFFFFFFFFFFFFFFFFFFFFFFFFFFFFFFFFFFFFFFFFFFFFFFFFFF
310
FFFFFFFFFFFFFFFFFFFFFFFFFFFFFFFFFFFFFFFFFFFFFFFFFFFFFFFFFFFFFFFF
310
FFFFFFFFFFFFFFFFFFFFFFFFFFFFFFFFFFFFFFFFFFFFFFFFFFFFFFFFFFFFFFFF
310
FFFFFFFFFFFFFFFFFFFFFFFFFFFFFFFFFFFFFFFFFFFFFFFFFFFFFFFFFFFFFFFF
310
FFFFFFFFFFFFFFFFFFFFFFFFFFFFFFFFFFFFFFFFFFFFFFFFFFFFFFFFFFFFFFFF
310
FFFFFFFFFFFFFFFFFFFFFFFFFFFFFFFFFFFFFFFFFFFFFFFFFFFFFFFFFFFFFFFF
310
FFFFFFFFFFFFFFFFFFFFFFFFFFFFFFFFFFFFFFFFFFFFFFFFFFFFFFFFFFFFFFFF
310
FFFFFFFFFFFFFFFFFFFFFFFFFFFFFFFFFFFFFFFFFFFFFFFFFFFFFFFFFFFFFFFF
310
FFFFFFFFFFFFFFFFFFFFFFFFFFFFFFFFFFFFFFFFFFFFFFFFFFFFFFFFFFFFFFFF
310
FFFFFFFFFFFFFFFFFFFFFFFFFFFFFFFFFFFFFFFFFFFFFFFFFFFFFFFFFFFFFFFF
310
FFFFFFFFFFFFFFFFFFFFFFFFFFFFFFFFFFFFFFFFFFFFFFFFFFFFFFFFFFFFFFFF
310
FFFFFFFFFFFFFFFFFFFFFFFFFFFFFFFFFFFFFFFFFFFFFFFFFFFFFFFFFFFFFFFF
310
FFFFFFFFFFFFFFFFFFFFFFFFFFFFFFFFFFFFFFFFFFFFFFFFFFFFFFFFFFFFFFFF
310
52006F006F007400200045006E00740072007900000000000000000000000000
310
0000000000000000000000000000000000000000000000000000000000000000
310
16000500FFFFFFFFFFFFFFFF020000000A00030000000000C000000000000046
310
0000000000000000000000003020DEB4EC49D00103000000C000000000000000
310
01004F006C006500000000000000000000000000000000000000000000000000
310
0000000000000000000000000000000000000000000000000000000000000000
310
0A000200FFFFFFFFFFFFFFFFFFFFFFFF00000000000000000000000000000000
310
0000000000000000000000000000000000000000000000001400000000000000
310
010043006F006D0070004F0062006A0000000000000000000000000000000000
310
0000000000000000000000000000000000000000000000000000000000000000
310
120002010100000003000000FFFFFFFF00000000000000000000000000000000
310
0000000000000000000000000000000000000000010000004D00000000000000
310
01004F006C006500310030004E00610074006900760065000000000000000000
310
0000000000000000000000000000000000000000000000000000000000000000
310
1A000200FFFFFFFFFFFFFFFFFFFFFFFF00000000000000000000000000000000
310
0000000000000000000000000000000000000000040000002426000000000000
310
FEFFFFFF02000000FEFFFFFFFFFFFFFFFFFFFFFFFFFFFFFFFFFFFFFFFFFFFFFF
310
FFFFFFFFFFFFFFFFFFFFFFFFFFFFFFFFFFFFFFFFFFFFFFFFFFFFFFFFFFFFFFFF
310
FFFFFFFFFFFFFFFFFFFFFFFFFFFFFFFFFFFFFFFFFFFFFFFFFFFFFFFFFFFFFFFF
310
FFFFFFFFFFFFFFFFFFFFFFFFFFFFFFFFFFFFFFFFFFFFFFFFFFFFFFFFFFFFFFFF
310
FFFFFFFFFFFFFFFFFFFFFFFFFFFFFFFFFFFFFFFFFFFFFFFFFFFFFFFFFFFFFFFF
310
FFFFFFFFFFFFFFFFFFFFFFFFFFFFFFFFFFFFFFFFFFFFFFFFFFFFFFFFFFFFFFFF
310
FFFFFFFFFFFFFFFFFFFFFFFFFFFFFFFFFFFFFFFFFFFFFFFFFFFFFFFFFFFFFFFF
310
FFFFFFFFFFFFFFFFFFFFFFFFFFFFFFFFFFFFFFFFFFFFFFFFFFFFFFFFFFFFFFFF
310
FFFFFFFFFFFFFFFFFFFFFFFFFFFFFFFFFFFFFFFFFFFFFFFFFFFFFFFFFFFFFFFF
310
FFFFFFFFFFFFFFFFFFFFFFFFFFFFFFFFFFFFFFFFFFFFFFFFFFFFFFFFFFFFFFFF
310
FFFFFFFFFFFFFFFFFFFFFFFFFFFFFFFFFFFFFFFFFFFFFFFFFFFFFFFFFFFFFFFF
310
FFFFFFFFFFFFFFFFFFFFFFFFFFFFFFFFFFFFFFFFFFFFFFFFFFFFFFFFFFFFFFFF
310
FFFFFFFFFFFFFFFFFFFFFFFFFFFFFFFFFFFFFFFFFFFFFFFFFFFFFFFFFFFFFFFF
310
FFFFFFFFFFFFFFFFFFFFFFFFFFFFFFFFFFFFFFFFFFFFFFFFFFFFFFFFFFFFFFFF
310
FFFFFFFFFFFFFFFFFFFFFFFFFFFFFFFFFFFFFFFFFFFFFFFFFFFFFFFFFFFFFFFF
310
FFFFFFFFFFFFFFFFFFFFFFFFFFFFFFFFFFFFFFFFFFFFFFFFFFFFFFFFFFFFFFFF
310
0100000200000000000000000000000000000000000000000000000000000000
310
0000000000000000000000000000000000000000000000000000000000000000
310
0100FEFF030A0000FFFFFFFF0A00030000000000C00000000000004607000000
310
5042727573680007000000504272757368000700000050427275736800F439B2
310
7100000000000000000000000000000000000000000000000000000000000000
310
0000000000000000000000000000000000000000000000000000000000000000
310
0000000000000000000000000000000000000000000000000000000000000000
310
0000000000000000000000000000000000000000000000000000000000000000
310
0000000000000000000000000000000000000000000000000000000000000000
310
0000000000000000000000000000000000000000000000000000000000000000
310
0000000000000000000000000000000000000000000000000000000000000000
310
0000000000000000000000000000000000000000000000000000000000000000
310
0000000000000000000000000000000000000000000000000000000000000000
310
0000000000000000000000000000000000000000000000000000000000000000
310
0000000000000000000000000000000000000000000000000000000000000000
310
0000000000000000000000000000000000000000000000000000000000000000
310
20260000424D0E260000000000003E00000028000000B40200006E0000000100
310
01000000000000000000130B0000130B00000200000002000000000000FFFFFF
310
FFFFFFFFFFFFFFFFFFFFFFFFFFFFFFFFFFFFFFFFFFFFFFFFFFFFFFFFFFFFFFFF
310
FFFFFFFFFFFFFFFFFFFFFFFFFFFFFFFFFFFFFFFFFFFFFFFFFFFFFFFFFFFFFFFF
310
FFFFFFFFFFFFFFFFFFFFFFFFFFFFFFFFFFFFFFFFFFFFFFFFF000FFFFFFFFFFFF
310
FFFFFFFFFFFFFFFFFFFFFFFFFFFFFFFFFFFFFFFFFFFFFFFFFFFFFFFFFFFFFFFF
310
FFFFFFFFFFFFFFFFFFFFFFFFFFFFFFFFFFFFFFFFFFFFFFFFFFFFFFFFFFFFFFFF
310
FFFFFFFFFFFFFFFFFFFFFFFFFFFFFFFFF000FFFFFFFFFFFFFFFFFFFFFFFFFFFF
310
FFFFFFFFFFFFFFFFFFFFFFFFFFFFFFFFFFFFFFFFFFFFFFFFFFFFFFFFFFFFFFFF
310
FFFFFFFFFFFFFFFFFFFFFFFFFFFFFFFFFFFFFFFFFFFFFFFFFFFFFFFFFFFFFFFF
310
FFFFFFFFFFFFFFFFF000FFFFFFFFFFFFFFFFFFFFFFFFFFFFFFFFFFFFFFFFFFFF
310
FFFFFFFFFFFFFFFFFFFFFFFFFFFFFFFFFFFFFFFFFFFFFFFFFFFFFFFFFFFFFFFF
310
FFFFFFFFFFFFFFFFFFFFFFFFFFFFFFFFFFFFFFFFFFFFFFFFFFFFFFFFFFFFFFFF
310
F000FFFFFFFFFFFFFFFFFFFFFFFFFFFFFFFFFFFFFFFFFFFFFFFFFFFFFFFFFFFF
310
FFFFFFFFFFFFFFFFFFFFFFFFFFFFFFFFFFFFFFFFFFFFFFFFFFFFFFFFFFFFFFFF
310
FFFFFFFFFFFFFFFFFFFFFFFFFFFFFFFFFFFFFFFFFFFFFFFFF000FFFFFFFFFFFF
310
FFFFFFFFFFFFFFFFFFFFFFFFFFFFFFFFFFFFFFFFFFFFFFFFFFFFFFFFFFFFFFFF
310
FFFFFFFFFFFFFFFFFFFFFFFFFFFFFFFFFFFFFFFFFFFFFFFFFFFFFFFFFFFFFFFF
310
FFFFFFFFFFFFFFFFFFFFFFFFFFFFFFFFF000FFFFFFFFFFFFFFFFFFFFFFFFFFFF
310
FFFFFFFFFFFFFFFFFFFFFFFFFFFFFFFFFFFFFFFFFFFFFFFFFFFFFFFFFFFFFFFF
310
FFFFFFFFFFFFFFFFFFFFFFFFFFFFFFFFFFFFFFFFFFFFFFFFFFFFFFFFFFFFFFFF
310
FFFFFFFFFFFFFFFFF000FFFFFFFFFFFFFFFFFFFFFFFFFFFFFFFFFFFFFFFFFFFF
310
FFFFFFFFFFFFFFFFFFFFFFFFFFFFFFFFFFFFFFFFFFFFFFFFFFFFFFFFFFFFFFFF
310
FFFFFFFFFFFFFFFFFFFFFFFFFFFFFFFFFFFFFFFFFFFFFFFFFFFFFFFFFFFFFFFF
310
F000FFFFFFFFFFFFFFFFFFFFFFFFFFFFFFFFFFFFFFFFFFFFFFFFFFFFFFFFFFFF
310
FFFFFFFFFFFFFFFFFFFFFFFFFFFFFFFFFFFFFFFFFFFFFFFFFFFFFFFFFFFFFFFF
310
FFFFFFFFFFFFFFFFFFFFFFFFFFFFFFFFFFFFFFFFFFFFFFFFF000FFFFFFFFFFFF
310
FFFFFFFFFFFFFFFFFFFFFFFFFFFFFFFFFFFFFFFFFFFFFFFFFFFFFFFFFFFFFFFF
310
FFFFFFFFFFFFFFFFFFFFFFFFFFFFFFFFFFFFFFFFFFFFFFFFFFFFFFFFFFFFFFFF
310
FFFFFFFFFFFFFFFFFFFFFFFFFFFFFFFFF000FFFFFFFFFFFFFFFFFFFFFFFFFFFF
310
FFFFFFFFFFFFFFFFFFFFFFFFFFFFFFFFFFFFFFFFFFFFFFFFFFFFFFFFFFFFFFFF
310
FFFFFFFFFFFFFFFFFFFFFFFFFFFFFFFFFFFFFFFFFFFFFFFFFFFFFFFFFFFFFFFF
310
FFFFFFFFFFFFFFFFF000FFFFFFFFFFFFFFFFFFFFFFFFFFFFFFFFFFFFFFFFFFFF
310
FFFFFFFFFFFFFFFFFFFFFFFFFFFFFFFFFFFFFFFFFFFFFFFFFFFFFFFFFFFFFFFF
310
FFFFFFFFFFFFFFFFFFFFFFFFFFFFFFFFFFFFFFFFFFFFFFFFFFFFFFFFFFFFFFFF
310
F000FFFFFFFFFFFFFFFFFFFFFFFFFFFFFFFFFFFFFFFFFFFFFFFFFFFFFFFFFFFF
310
FFFFFFFFFFFFFFFFFFFFFFFFFFFFFFFFFFFFFFFFFFFFFFFFFFFFFFFFFFFFFFFF
310
FFFFFFFFFFFFFFFFFFFFFFFFFFFFFFFFFFFFFFFFFFFFFFFFF000FFFFFFFFFFFF
310
FFFFFFFFFFFFFFFFFFFFFFFFFFFFFFFFFFFFFFFFFFFFFFFFFFFFFFFFFFFFFFFF
310
FFFFFFFFFFFFFFFFFFFFFFFFFFFFFFFFFFFFFFFFFFFFFFFFFFFFFFFFFFFFFFFF
310
FFFFFFFFFFFFFFFFFFFFFFFFFFFFFFFFF000FFFFFFFFFFFFFFFFFFFFFFFFFFFF
310
FFFFFFFFFFFFFFFFFFFFFFFFFFFFFFFFFFFFFFFFFFFFFFFFFFFFFFFFFFFFFFFF
310
FFFFFFFFFFFFFFFFFFFFFFFFFFFFFFFFFFFFFFFFFFFFFFFFFFFFFFFFFFFFFFFF
310
FFFFFFFFFFFFFFFFF000FFFFFFFFFFFFFFFFFFFFFFFFFFFFFFFFFFFFFFFFFFFF
310
FFFFFFFFFFFFFFFFFFFFFFFFFFFFFFFFFFFFFFFFFFFFFFFFFFFFFFFFFFFFFFFF
310
FFFFFFFFFFFFFFFFFFFFFFFFFFFFFFFFFFFFFFFFFFFFFFFFFFFFFFFFFFFFFFFF
310
F000FFFFFFFFFFFFFFFFFFFFFFFFFFFFFFFFFFFFFFFFFFFFFFFFFFFFFFFFFFFF
310
FFFFFFFFFFFFFFFFFFFFFFFFFFFFFFFFFFFFFFFFFFFFFFFFFFFFFFFFFFFFFFFF
310
FFFFFFFFFFFFFFFFFFFFFFFFFFFFFFFFFFFFFFFFFFFFFFFFF000FFFFFFFFFFFF
310
FFFFFFFFFFFFFFFFFFFFFFFFFFFFFFFFFFFFFFFFFFFFFFFFFFFFFFFFFFFFFFFF
310
FFFFFFFFFFFFFFFFFFFFFFFFFFFFFFFFFFFFFFFFFFFFFFFFFFFFFFFFFFFFFFFF
310
FFFFFFFFFFFFFFFFFFFFFFFFFFFFFFFFF000FFFFFFFFFFFFFFFFFFFFFFFFFFFF
310
FFFFFFFFFFFFFFFFFFFFFFFFFFFFFFFFFFFFFFFFFFFFFFFFFFFFFFFFFFFFFFFF
310
FFFFFFFFFFFFFFFFFFFFFFFFFFFFFFFFFFFFFFFFFFFFFFFFFFFFFFFFFFFFFFFF
310
FFFFFFFFFFFFFFFFF000FFFFF80003FFFFFFFFFFFFFFFFFFFFFFFFFFFFFFFFFF
310
FFFFF00007FFFFFFFFFF00007FFFFFF800000000000000007FFFFFFFFFFFFFFF
310
FFFFFFFC001FFFFFFFFFFFFFFC001FFFFFFFFFFFFFFFFFFFFFFFFFFE0007FFFF
310
F000FFFF8000007FFFFFFFF8000FFFFFC0007FFFFF80007FFFFF0000007FFFFF
310
FFF8000007FFFFF800000000000000007FFFFFF0001FFFFFFFFFFFC00001FFFF
310
FFFFFFFFC00001FFFFFFFF000000000003FFFFE000007FFFF000FFFE0000000F
310
FFFFFFF0000FFFFF80007FFFFF80007FFFFC0000001FFFFFFFC0000001FFFFF8
310
00000000000000007FFFFFF0001FFFFFFFFFFE0000003FFFFFFFFFFE0000003F
310
FFFFFF000000000003FFFF0000000FFFF000FFF800000003FFFFFFF00007FFFF
310
80007FFFFF80007FFFF000000007FFFFFF000000003FFFF80000000000000000
310
7FFFFFF0001FFFFFFFFFF80000000FFFFFFFFFF80000000FFFFFFF0000000000
310
03FFFC00000003FFF000FFE000000000FFFFFFF00007FFFF80003FFFFF80007F
310
FFC000000001FFFFFC000000001FFFF800000000000000007FFFFFF0001FFFFF
310
FFFFE000000003FFFFFFFFE000000003FFFFFF000000000003FFF000000000FF
310
F000FF80000000007FFFFFF00007FFFF80003FFFFF80007FFF8000000000FFFF
310
F80000000007FFF800000000000000007FFFFFF0001FFFFFFFFFC000000001FF
310
FFFFFFC000000001FFFFFF000000000003FFC0000000007FF000FF0000000000
310
3FFFFFE00007FFFF00003FFFFF80007FFE00000000003FFFF00000000003FFF8
310
00000000000000007FFFFFF0001FFFFFFFFF8000000000FFFFFFFF8000000000
310
FFFFFF000000000003FF80000000003FF000FE00000000001FFFFFE00003FFFF
310
00003FFFFF80007FFC00000000001FFFE00000000001FFF8000001FFFE000000
310
7FFFFFF0001FFFFFFFFE00000000003FFFFFFE00000000003FFFFF0000000000
310
03FF00000000001FF000FC00000000000FFFFFE00003FFFF00001FFFFF80007F
310
F800000000001FFFC00000000000FFF8000001FFFE0000007FFFFFF0001FFFFF
310
FFFC00000000001FFFFFFC00000000001FFFFF000000000003FE00000000000F
310
F000F8000000000007FFFFE00003FFFF00001FFFFF80007FF800000000000FFF
310
800000000000FFF8000001FFFE0000007FFFFFF0001FFFFFFFF800000000000F
310
FFFFF800000000000FFFFF000000000003FC000000000007F000F80000000000
310
03FFFFC00003FFFE00001FFFFF80007FF0000000000007FF0000000000007FF8
310
000001FFFE0000007FFFFFF0001FFFFFFFF0000000000007FFFFF00000000000
310
07FFFF000000000003F8000000000003F000F0000000000003FFFFC00001FFFE
310
00001FFFFF80007FE0000000000007FE0000000000003FF8000001FFFE000000
310
7FFFFFF0001FFFFFFFF0000000000007FFFFF0000000000007FFFF0000000000
310
03F800001F800003F000E00001FFF00001FFFFC00001FFFE00000FFFFF80007F
310
E00001FFE00003FE00001FFF00003FF8000001FFFE0000007FFFFFF0001FFFFF
310
FFE000003E000003FFFFE000003E000003FFFF000000000003F00001FFF80001
310
F000E00007FFFC0001FFFFC00001FFFE00000FFFFF80007FC0000FFFFC0003FC
310
0000FFFFC0001FF8000001FFFE0000007FFFFFF0001FFFFFFFC00003FFE00001
310
FFFFC00003FFE00001FFFF0001FFFFFFFFF00007FFFE0001F000E0000FFFFF00
310
00FFFF800001FFFC00000FFFFF80007FC0001FFFFE0001FC0001FFFFE0001FF8
310
000001FFFE0000007FFFFFF0001FFFFFFF80000FFFF80000FFFF80000FFFF800
310
00FFFF0003FFFFFFFFE0000FFFFF8000F000C0003FFFFF8000FFFF800000FFFC
310
000007FFFF80007F80003FFFFF0001FC0003FFFFF0001FF8000001FFFE000000
310
7FFFFFF0001FFFFFFF80003FFFFE0000FFFF80003FFFFE0000FFFF0003FFFFFF
310
FFE0003FFFFF8000F000C0003FFFFF8000FFFF800000FFFC000007FFFF80007F
310
80007FFFFF8001F80007FFFFF8000FF8000001FFFE0000007FFFFFF0001FFFFF
310
FF00007FFFFF00007FFF00007FFFFF00007FFF0003FFFFFFFFE0003FFFFFC000
310
F000C0007FFFFFC000FFFF000000FFFC000007FFFF80007F8000FFFFFF8000F8
310
000FFFFFF8000FF8000001FFFE0000007FFFFFF0001FFFFFFF0000FFFFFF8000
310
7FFF0000FFFFFF80007FFF0003FFFFFFFFC0007FFFFFC00070008000FFFFFFC0
310
00FFFF000000FFF8000007FFFF80007F8000FFFFFF8000F8000FFFFFF8000FF8
310
000001FFFE0000007FFFFFF0001FFFFFFE0001FFFFFFC0003FFE0001FFFFFFC0
310
003FFF0003FFFFFFFFC0007FFFFFE00070008000FFFFFFC0007FFF0000007FF8
310
000003FFFF80007F0001FFFFFF8000F8000FFFFFF8000FF8000001FFFE000000
310
7FFFFFF0001FFFFFFE0001FFFFFFC0003FFE0001FFFFFFC0003FFF0003FFFFFF
310
FFC000FFFFFFE00070008000FFFFFFC0007FFF0000007FF8000003FFFF80007F
310
0001FFFFFF8000F8001FFFFFF8000FF8000001FFFE0000007FFFFFF0001FFFFF
310
FE0003FFFFFFE0003FFE0003FFFFFFE0003FFF0003FFFFFFFFC000FFFFFFE000
310
70008000FFFFFFC0007FFE0000007FF8000003FFFF80007F0001FFFFFF8000F0
310
001FFFFFF8000FF8000001FFFE0000007FFFFFF0001FFFFFFC0003FFFFFFE000
310
1FFC0003FFFFFFE0001FFF0003FFFFFFFFC000FFFFFFC00070008000FFFFFF80
310
007FFE0000007FF0000003FFFF80007F0001FFFFFF0000F0001FFFFFF8000FF8
310
000001FFFE0000007FFFFFF0001FFFFFFC0007FFFFFFF0001FFC0007FFFFFFF0
310
001FFF0003FFFFFFFFC000FFFFFFC00070008001FFFFFF0000FFFE0000003FF0
310
000001FFFF80007F0001FFFFFF0000F8001FFFFFF0000FF8000001FFFE000000
310
7FFFFFF0001FFFFFFC0007FFFFFFF0001FFC0007FFFFFFF0001FFF0003FFFFFF
310
FFC001FFFFFF80007000FFFFFFFFFE0000FFFE0008003FF0008001FFFF80007F
310
FFFFFFFFFC0000FFFFFFFFFFE0000FF8000001FFFE0000007FFFFFF0001FFFFF
310
F8000FFFFFFFF8000FF8000FFFFFFFF8000FFF0003FFFFFFFFFFFFFFFFFF0000
310
7000FFFFFFFFFC0000FFFC0008003FF0008001FFFF80007FFFFFFFFFF80001FF
310
FFFFFFFF80000FF8000001FFFE0000007FFFFFF0001FFFFFF8000FFFFFFFF800
310
0FF8000FFFFFFFF8000FFF0003FFFFFFFFFFFFFFFFFE0000F000FFFFFFFFE000
310
00FFFC000C003FE000C001FFFF80007FFFFFFFFFC00001FFFFFFFFFE00001FF8
310
000001FFFE0000007FFFFFF0001FFFFFF8000FFFFFFFF8000FF8000FFFFFFFF8
310
000FFF0003FFFFFFFFFFFFFFFFF00000F000FFFFFFFE000001FFFC000C001FE0
310
00C000FFFF80007FFFFFFFFE000001FFFFFFFFE000001FF80FFFFFFFFFFFFFC0
310
7FFFFFF0001FFFFFF8000FFFFFFFF8000FF8000FFFFFFFF8000FFF0003FFFFFF
310
FFFFFFFFFF800000F000FFFFFFC0000001FFFC001C001FE001C000FFFF80007F
310
FFFFFF80000003FFFFFFF80000001FF80FFFFFFFFFFFFFC07FFFFFF0001FFFFF
310
F8001FFFFFFFFC000FF8001FFFFFFFFC000FFF0003FFFFFFFFFFFFFFF0000001
310
F000FFFFF800000001FFF8001C001FE001C000FFFF80007FFFFFF800000003FF
310
FFFF800000003FF80FFFFFFFFFFFFFC07FFFFFF0001FFFFFF8001FFFFFFFFC00
310
0FF8001FFFFFFFFC000FFF0003FFFFFFFFFFFFFE00000001F000FFFFC0000000
310
03FFF8001E001FC001E000FFFF80007FFFFF8000000007FFFFFC000000003FF8
310
0FFFFFFFFFFFFFC07FFFFFF0001FFFFFF8001FFFFFFFFC000FF8001FFFFFFFFC
310
000FFF0003FFFFFFFFFFFFE000000003F000FFFE0000000007FFF8001E000FC0
310
01E0007FFF80007FFFFE0000000007FFFFE0000000007FF80FFFFFFFFFFFFFC0
310
7FFFFFF0001FFFFFF0001FFFFFFFFC0007F0001FFFFFFFFC0007FF0003FFFFFF
310
FFFFFF0000000003F000FFF80000000007FFF8001E000FC003E0007FFF80007F
310
FFF0000000000FFFFF8000000000FFF80FFFFFFFFFFFFFC07FFFFFF0001FFFFF
310
F0001FFFFFFFFC0007F0001FFFFFFFFC0007FF0003FFFFFFFFFFFC0000000007
310
F000FFE0000000000FFFF0003E000FC003E0007FFF80007FFFC0000000001FFF
310
FE0000000001FFF80FFFFFFFFFFFFFC07FFFFFF0001FFFFFF0001FFFFFFFFC00
310
07F0001FFFFFFFFC0007FF0003FFFFFFFFFFF0000000000FF000FFC000000000
310
1FFFF0003F000F8003F0003FFF80007FFF80000000003FFFF80000000003FFF8
310
0FFFFFFFFFFFFFC07FFFFFF0001FFFFFF0001FFFFFFFFC0007F0001FFFFFFFFC
310
0007FF0003FFFFFFFFFFE0000000001FF000FF00000000007FFFF0003F000780
310
03F0003FFF80007FFF00000000007FFFF00000000007FFF80FFFFFFFFFFFFFC0
310
7FFFFFF0001FFFFFF0001FFFFFFFFC0007F0001FFFFFFFFC0007FF0003FFFFFF
310
FFFF80000000007FF000FE0000000000FFFFE0003F00078007F0003FFF80007F
310
FE0000000001FFFFE0000000001FFFF80FFFFFFFFFFFFFC07FFFFFF0001FFFFF
310
F0001FFFFFFFFC0007F0001FFFFFFFFC0007FF0003FFFFFFFFFF0000000000FF
310
F000FC0000000003FFFFE0007F00078007F0003FFF80007FFC0000000007FFFF
310
C0000000007FFFF80FFFFFFFFFFFFFC07FFFFFF0001FFFFFF8001FFFFFFFFC00
310
0FF8001FFFFFFFFC000FFF0003FFFFFFFFFE0000000003FFF000FC000000000F
310
FFFFE0007F80070007F8001FFF80007FF8000000001FFFFF8000000001FFFFF8
310
0FFFFFFFFFFFFFC07FFFFFF0001FFFFFF8001FFFFFFFFC000FF8001FFFFFFFFC
310
000FFF0003FFFFFFFFFC000000000FFFF000F8000000007FFFFFE0007F800700
310
07F8001FFF80007FF000000000FFFFFF800000000FFFFFF80FFFFFFFFFFFFFC0
310
7FFFFFF0001FFFFFF8000FFFFFFFF8000FF8000FFFFFFFF8000FFF0003FFFFFF
310
FFFC000000007FFFF000F800000007FFFFFFC0007F8003000FF8001FFF80007F
310
F000000007FFFFFF000000007FFFFFF80FFFFFFFFFFFFFC07FFFFFF0001FFFFF
310
F8000FFFFFFFF8000FF8000FFFFFFFF8000FFF0003FFFFFFFFF80000000FFFFF
310
F000F0000000FFFFFFFFC000FF8003000FF8001FFF80007FE0000000FFFFFFFF
310
0000000FFFFFFFF8000001FFFE0000007FFFFFF0001FFFFFF8000FFFFFFFF800
310
0FF8000FFFFFFFF8000FFF0003FFFFFFFFF8000000FFFFFFF000F000000FFFFF
310
FFFFC000FFC002000FF8000FFF80007FE000001FFFFFFFFE000001FFFFFFFFF8
310
000001FFFE0000007FFFFFF0001FFFFFF8000FFFFFFFF8000FF8000FFFFFFFF8
310
000FFF0003FFFFFFFFF000001FFFFFFFF000E00000FFFFFFFFFFC000FFC00200
310
0FFC000FFF80007FE00001FFFFFFFFFE00001FFFFFFFFFF8000001FFFE000000
310
7FFFFFF0001FFFFFFC000FFFFFFFF8001FFC000FFFFFFFF8001FFF0003FFFFFF
310
FFF00001FFFFFFFFF000E00007FFFFFFFFFF8000FFC000001FFC000FFF80007F
310
C0000FFFFFFFFFFE0000FFFFFFFFFFF8000001FFFE0000007FFFFFF0001FFFFF
310
FC0007FFFFFFF0001FFC0007FFFFFFF0001FFF0003FFFFFFFFF00007FFFFFFFF
310
F000E0001FFFFFFFFFFF8000FFC000001FFC000FFF80007FC0003FFFFFFFFFFE
310
0001FFFFFFFFFFF8000001FFFE0000007FFFFFF0001FFFFFFC0007FFFFFFF000
310
1FFC0007FFFFFFF0001FFF0003FFFFFFFFF0001FFFFFFFFFF000E0003FFFFF00
310
03FF8001FFE000001FFC0007FF80007FC0007FFFFF0007FC0003FFFFF0003FF8
310
000001FFFE0000007FFFFFF0001FFFFFFC0003FFFFFFE0001FFC0003FFFFFFE0
310
001FFF0003FFFFFFFFF0003FFFFFFFFFF000E0003FFFFF0001FF8001FFE00000
310
1FFE0007FF80007FC0007FFFFE0003FC0007FFFFE0003FF8000001FFFE000000
310
7FFFFFF0001FFFFFFE0003FFFFFFE0003FFE0003FFFFFFE0003FFF0003FFFFFF
310
FFF0003FFFFF8001F000E0003FFFFF0001FF0001FFE000001FFE0007FF80007F
310
C0007FFFFE0003FC0007FFFFE0003FF8000001FFFE0000007FFFFFF0001FFFFF
310
FE0001FFFFFFC0003FFE0001FFFFFFC0003FFF0003FFFFFFFFF0003FFFFF0001
310
F000E0003FFFFF0003FF0001FFE000003FFE0007FF80007FC0007FFFFE0003FC
310
0007FFFFE0003FF8000001FFFE0000007FFFFFF0001FFFFFFF0001FFFFFFC000
310
7FFF0001FFFFFFC0007FFF0003FFFFFFFFF0003FFFFF0001F000E0003FFFFE00
310
03FF0003FFF000003FFE0003FF80007FC0007FFFFC0003FE0007FFFFE0003FF8
310
000001FFFE0000007FFFFFF0001FFFFFFF0000FFFFFF80007FFF0000FFFFFF80
310
007FFF0003FFFFFFFFF0003FFFFF0001F000E0003FFFFE0003FF0003FFF00000
310
3FFF0003FF80007FC0007FFFFC0007FE0007FFFFC0003FF8000001FFFE000000
310
7FFFFFF0001FFFFFFF80007FFFFF0000FFFF80007FFFFF0000FFFF0003FFFFFF
310
FFF0003FFFFF0003F000E0003FFFFC0003FE0003FFF000003FFF0003FF80007F
310
E0003FFFF80007FE0003FFFFC0007FF8000001FFFE0000007FFFFFF0001FFFFF
310
FF80003FFFFE0000FFFF80003FFFFE0000FFFF0003FFFFFFFFF0001FFFFE0003
310
F000F0001FFFF80003FE0003FFF000007FFF0001FF80007FE0003FFFF00007FE
310
0001FFFF80007FF8000001FFFE0000007FFFFFF0001FFFFFFFC0000FFFF80001
310
FFFFC0000FFFF80001FFFF0003FFFFFFFFF0001FFFFC0003F000F0000FFFF000
310
07FE0007FFF800007FFF0001FF80007FE0001FFFE00007FF0000FFFE00007FF8
310
000001FFFE0000007FFFFFF0001FFFFFFFC00003FFE00001FFFFC00003FFE000
310
01FFFF0003FFFFFFFFF8000FFFF80003F000F00003FFC00007FC0007FFF80000
310
7FFF8001FF80007FF00007FF80000FFF00007FF80000FFF8000001FFFE000000
310
7F80000000000001FFE000003E000003FFFFE000003E000003FFFF0003FFFFFF
310
FFF80003FFE00007F000F800000000000FFC0007FFF800007FFF8001FF80007F
310
F000000000000FFF000000000000FFF8000001FFFE0000007F80000000000001
310
FFF0000000000007FFFFF0000000000007FFFF0003FFFFFFFFFC00007E000007
310
F000F800000000000FFC0007FFF80000FFFF8000FF80007FF800000000001FFF
310
800000000001FFF8000001FFFE0000007F80000000000001FFF800000000000F
310
FFFFF800000000000FFFFF0003FFFFFFFFFC00000000000FF000FC0000000000
310
1FFC0007FFFC0000FFFF8000FF80007FF800000000003FFFC00000000001FFF8
310
000001FFFE0000007F80000000000001FFF800000000000FFFFFF80000000000
310
0FFFFF0003FFFFFFFFFE00000000001FF000FE00000000003FF8000FFFFC0000
310
FFFF8000FF80007FFC00000000003FFFC00000000003FFF8000001FFFE000000
310
7F80000000000001FFFC00000000001FFFFFFC00000000001FFFFF0003FFFFFF
310
FFFF00000000001FF000FF00000000003FF8000FFFFC0000FFFFC000FF80007F
310
FE00000000007FFFE00000000007FFF8000001FFFE0000007F80000000000001
310
FFFE00000000003FFFFFFE00000000003FFFFF0003FFFFFFFFFF80000000003F
310
F000FF80000000007FF8000FFFFC0001FFFFC0007F80007FFF0000000000FFFF
310
F0000000000FFFF800000000000000007F80000000000001FFFF8000000000FF
310
FFFFFF8000000000FFFFFF0003FFFFFFFFFFC0000000007FF000FFC000000000
310
FFF8000FFFFE0001FFFFC0007F80007FFF8000000001FFFFF8000000001FFFF8
310
00000000000000007F80000000000001FFFFC000000001FFFFFFFFC000000001
310
FFFFFF0003FFFFFFFFFFE000000000FFF000FFE000000003FFF0001FFFFE0001
310
FFFFC0007F80007FFFC000000007FFFFFE000000003FFFF80000000000000000
310
7F80000000000001FFFFE000000003FFFFFFFFE000000003FFFFFF0003FFFFFF
310
FFFFF000000003FFF000FFF80000000FFFF0001FFFFE0001FFFFE0007F80007F
310
FFF00000000FFFFFFF00000000FFFFF800000000000000007F80000000000001
310
FFFFF80000000FFFFFFFFFF80000000FFFFFFF0003FFFFFFFFFFFC0000000FFF
310
F000FFFE0000003FFFF0001FFFFE0003FFFFE0003F80007FFFFC0000003FFFFF
310
FFC0000003FFFFF800000000000000007F80000000000001FFFFFE0000003FFF
310
FFFFFFFE0000003FFFFFFF0003FFFFFFFFFFFF0000003FFFF000FFFF800000FF
310
FFF0001FFFFF0003FFFFE0003F80007FFFFF000001FFFFFFFFF800001FFFFFF8
310
00000000000000007F80000000000001FFFFFFC00001FFFFFFFFFFFFC00001FF
310
FFFFFF0003FFFFFFFFFFFFC00000FFFFF000FFFFF8000FFFFFFFFFFFFFFFFFFF
310
FFFFFFFFFFFFFFFFFFFFF0001FFFFFFFFFFF0000FFFFFFF80000000000000000
310
7FFFFFFFFFFFFFFFFFFFFFFC001FFFFFFFFFFFFFFC001FFFFFFFFFFFFFFFFFFF
310
FFFFFFFC001FFFFFF000FFFFFFFFFFFFFFFFFFFFFFFFFFFFFFFFFFFFFFFFFFFF
310
FFFFFFFFFFFFFFFFFFFFFFFFFFFFFFFFFFFFFFFFFFFFFFFFFFFFFFFFFFFFFFFF
310
FFFFFFFFFFFFFFFFFFFFFFFFFFFFFFFFFFFFFFFFFFFFFFFFFFFFFFFFFFFFFFFF
310
F000FFFFFFFFFFFFFFFFFFFFFFFFFFFFFFFFFFFFFFFFFFFFFFFFFFFFFFFFFFFF
310
FFFFFFFFFFFFFFFFFFFFFFFFFFFFFFFFFFFFFFFFFFFFFFFFFFFFFFFFFFFFFFFF
310
FFFFFFFFFFFFFFFFFFFFFFFFFFFFFFFFFFFFFFFFFFFFFFFFF000FFFFFFFFFFFF
310
FFFFFFFFFFFFFFFFFFFFFFFFFFFFFFFFFFFFFFFFFFFFFFFFFFFFFFFFFFFFFFFF
310
FFFFFFFFFFFFFFFFFFFFFFFFFFFFFFFFFFFFFFFFFFFFFFFFFFFFFFFFFFFFFFFF
310
FFFFFFFFFFFFFFFFFFFFFFFFFFFFFFFFF000FFFFFFFFFFFFFFFFFFFFFFFFFFFF
310
FFFFFFFFFFFFFFFFFFFFFFFFFFFFFFFFFFFFFFFFFFFFFFFFFFFFFFFFFFFFFFFF
310
FFFFFFFFFFFFFFFFFFFFFFFFFFFFFFFFFFFFFFFFFFFFFFFFFFFFFFFFFFFFFFFF
310
FFFFFFFFFFFFFFFFF000FFFFFFFFFFFFFFFFFFFFFFFFFFFFFFFFFFFFFFFFFFFF
310
FFFFFFFFFFFFFFFFFFFFFFFFFFFFFFFFFFFFFFFFFFFFFFFFFFFFFFFFFFFFFFFF
310
FFFFFFFFFFFFFFFFFFFFFFFFFFFFFFFFFFFFFFFFFFFFFFFFFFFFFFFFFFFFFFFF
310
F000FFFFFFFFFFFFFFFFFFFFFFFFFFFFFFFFFFFFFFFFFFFFFFFFFFFFFFFFFFFF
310
FFFFFFFFFFFFFFFFFFFFFFFFFFFFFFFFFFFFFFFFFFFFFFFFFFFFFFFFFFFFFFFF
310
FFFFFFFFFFFFFFFFFFFFFFFFFFFFFFFFFFFFFFFFFFFFFFFFF000FFFFFFFFFFFF
310
FFFFFFFFFFFFFFFFFFFFFFFFFFFFFFFFFFFFFFFFFFFFFFFFFFFFFFFFFFFFFFFF
310
FFFFFFFFFFFFFFFFFFFFFFFFFFFFFFFFFFFFFFFFFFFFFFFFFFFFFFFFFFFFFFFF
310
FFFFFFFFFFFFFFFFFFFFFFFFFFFFFFFFF000FFFFFFFFFFFFFFFFFFFFFFFFFFFF
310
FFFFFFFFFFFFFFFFFFFFFFFFFFFFFFFFFFFFFFFFFFFFFFFFFFFFFFFFFFFFFFFF
310
FFFFFFFFFFFFFFFFFFFFFFFFFFFFFFFFFFFFFFFFFFFFFFFFFFFFFFFFFFFFFFFF
310
FFFFFFFFFFFFFFFFF000FFFFFFFFFFFFFFFFFFFFFFFFFFFFFFFFFFFFFFFFFFFF
310
FFFFFFFFFFFFFFFFFFFFFFFFFFFFFFFFFFFFFFFFFFFFFFFFFFFFFFFFFFFFFFFF
310
FFFFFFFFFFFFFFFFFFFFFFFFFFFFFFFFFFFFFFFFFFFFFFFFFFFFFFFFFFFFFFFF
310
F000FFFFFFFFFFFFFFFFFFFFFFFFFFFFFFFFFFFFFFFFFFFFFFFFFFFFFFFFFFFF
310
FFFFFFFFFFFFFFFFFFFFFFFFFFFFFFFFFFFFFFFFFFFFFFFFFFFFFFFFFFFFFFFF
310
FFFFFFFFFFFFFFFFFFFFFFFFFFFFFFFFFFFFFFFFFFFFFFFFF000FFFFFFFFFFFF
310
FFFFFFFFFFFFFFFFFFFFFFFFFFFFFFFFFFFFFFFFFFFFFFFFFFFFFFFFFFFFFFFF
310
FFFFFFFFFFFFFFFFFFFFFFFFFFFFFFFFFFFFFFFFFFFFFFFFFFFFFFFFFFFFFFFF
310
FFFFFFFFFFFFFFFFFFFFFFFFFFFFFFFFF000FFFFFFFFFFFFFFFFFFFFFFFFFFFF
310
FFFFFFFFFFFFFFFFFFFFFFFFFFFFFFFFFFFFFFFFFFFFFFFFFFFFFFFFFFFFFFFF
310
FFFFFFFFFFFFFFFFFFFFFFFFFFFFFFFFFFFFFFFFFFFFFFFFFFFFFFFFFFFFFFFF
310
FFFFFFFFFFFFFFFFF000FFFFFFFFFFFFFFFFFFFFFFFFFFFFFFFFFFFFFFFFFFFF
310
FFFFFFFFFFFFFFFFFFFFFFFFFFFFFFFFFFFFFFFFFFFFFFFFFFFFFFFFFFFFFFFF
310
FFFFFFFFFFFFFFFFFFFFFFFFFFFFFFFFFFFFFFFFFFFFFFFFFFFFFFFFFFFFFFFF
310
F000FFFFFFFFFFFFFFFFFFFFFFFFFFFFFFFFFFFFFFFFFFFFFFFFFFFFFFFFFFFF
310
FFFFFFFFFFFFFFFFFFFFFFFFFFFFFFFFFFFFFFFFFFFFFFFFFFFFFFFFFFFFFFFF
310
FFFFFFFFFFFFFFFFFFFFFFFFFFFFFFFFFFFFFFFFFFFFFFFFF000FFFFFFFFFFFF
310
FFFFFFFFFFFFFFFFFFFFFFFFFFFFFFFFFFFFFFFFFFFFFFFFFFFFFFFFFFFFFFFF
310
FFFFFFFFFFFFFFFFFFFFFFFFFFFFFFFFFFFFFFFFFFFFFFFFFFFFFFFFFFFFFFFF
310
FFFFFFFFFFFFFFFFFFFFFFFFFFFFFFFFF000FFFFFFFFFFFFFFFFFFFFFFFFFFFF
310
FFFFFFFFFFFFFFFFFFFFFFFFFFFFFFFFFFFFFFFFFFFFFFFFFFFFFFFFFFFFFFFF
310
FFFFFFFFFFFFFFFFFFFFFFFFFFFFFFFFFFFFFFFFFFFFFFFFFFFFFFFFFFFFFFFF
310
FFFFFFFFFFFFFFFFF000FFFFFFFFFFFFFFFFFFFFFFFFFFFFFFFFFFFFFFFFFFFF
310
FFFFFFFFFFFFFFFFFFFFFFFFFFFFFFFFFFFFFFFFFFFFFFFFFFFFFFFFFFFFFFFF
310
FFFFFFFFFFFFFFFFFFFFFFFFFFFFFFFFFFFFFFFFFFFFFFFFFFFFFFFFFFFFFFFF
310
F000FFFFFFFFFFFFFFFFFFFFFFFFFFFFFFFFFFFFFFFFFFFFFFFFFFFFFFFFFFFF
310
FFFFFFFFFFFFFFFFFFFFFFFFFFFFFFFFFFFFFFFFFFFFFFFFFFFFFFFFFFFFFFFF
310
FFFFFFFFFFFFFFFFFFFFFFFFFFFFFFFFFFFFFFFFFFFFFFFFF000FFFFFFFFFFFF
310
FFFFFFFFFFFFFFFFFFFFFFFFFFFFFFFFFFFFFFFFFFFFFFFFFFFFFFFFFFFFFFFF
310
FFFFFFFFFFFFFFFFFFFFFFFFFFFFFFFFFFFFFFFFFFFFFFFFFFFFFFFFFFFFFFFF
310
FFFFFFFFFFFFFFFFFFFFFFFFFFFFFFFFF000FFFFFFFFFFFFFFFFFFFFFFFFFFFF
310
FFFFFFFFFFFFFFFFFFFFFFFFFFFFFFFFFFFFFFFFFFFFFFFFFFFFFFFFFFFFFFFF
310
FFFFFFFFFFFFFFFFFFFFFFFFFFFFFFFFFFFFFFFFFFFFFFFFFFFFFFFFFFFFFFFF
310
FFFFFFFFFFFFFFFFF000FFFFFFFFFFFFFFFFFFFFFFFFFFFFFFFFFFFFFFFFFFFF
310
FFFFFFFFFFFFFFFFFFFFFFFFFFFFFFFFFFFFFFFFFFFFFFFFFFFFFFFFFFFFFFFF
310
FFFFFFFFFFFFFFFFFFFFFFFFFFFFFFFFFFFFFFFFFFFFFFFFFFFFFFFFFFFFFFFF
310
F000FFFFFFFFFFFFFFFFFFFFFFFFFFFFFFFFFFFFFFFFFFFFFFFFFFFFFFFFFFFF
310
FFFFFFFFFFFFFFFFFFFFFFFFFFFFFFFFFFFFFFFFFFFFFFFFFFFFFFFFFFFFFFFF
310
FFFFFFFFFFFFFFFFFFFFFFFFFFFFFFFFFFFFFFFFFFFFFFFFF000FFFFFFFFFFFF
310
FFFFFFFFFFFFFFFFFFFFFFFFFFFFFFFFFFFFFFFFFFFFFFFFFFFFFFFFFFFFFFFF
310
FFFFFFFFFFFFFFFFFFFFFFFFFFFFFFFFFFFFFFFFFFFFFFFFFFFFFFFFFFFFFFFF
310
FFFFFFFFFFFFFFFFFFFFFFFFFFFFFFFFF0000000000000000000000000000000
310
0000000000000000000000000000000000000000000000000000000000000000
310
0000000000000000000000000000000000000000000000000000000000000000
310
0000000000000000000000000000000000000000000000000000000000000000
310
0000000000000000000000000000000000000000000000000000000000000000
310
0000000000000000000000000000000000000000000000000000000000000000
310
0000000000000000000000000000000000000000000000000000000000000000
310
0000000000000000000000000000000000000000000000000000000000000000
310
0000000000000000000000000000000000000000000000000000000000000000
310
0000000000000000000000000000000000000000000000000000000000000000
310
0000000000000000000000000000000000000000000000000000000000000000
310
0000000000000000000000000000000000000000000000000000000000000000
310
0000000000000000000000000000000000000000000000000000000000000000
310
0000000000000000000000000000000000000000000000000000000000000000
310
0000000000000000000000000000000000000000000000000000000000000000
310
0000000000000000000000000000000000000000000000000000000000000000
  1
OLE
  0
ENDSEC
  0
SECTION
  2
OBJECTS
  0
DICTIONARY
  5
C
330
0
100
AcDbDictionary
281
     1
  3
ACAD_GROUP
350
D
  3
ACAD_LAYOUT
350
1A
  3
ACAD_MLINESTYLE
350
17
  3
ACAD_PLOTSETTINGS
350
19
  3
ACAD_PLOTSTYLENAME
350
E
  0
DICTIONARY
  5
D
102
{ACAD_REACTORS
330
C
102
}
330
C
100
AcDbDictionary
281
     1
  0
DICTIONARY
  5
1A
102
{ACAD_REACTORS
330
C
102
}
330
C
100
AcDbDictionary
281
     1
  3
Layout1
350
1E
  3
Layout2
350
26
  3
Model
350
22
  0
DICTIONARY
  5
17
102
{ACAD_REACTORS
330
C
102
}
330
C
100
AcDbDictionary
281
     1
  3
Standard
350
18
  0
DICTIONARY
  5
19
102
{ACAD_REACTORS
330
C
102
}
330
C
100
AcDbDictionary
281
     1
  0
ACDBDICTIONARYWDFLT
  5
E
102
{ACAD_REACTORS
330
C
102
}
330
C
100
AcDbDictionary
281
     1
  3
Normal
350
F
100
AcDbDictionaryWithDefault
340
F
  0
LAYOUT
  5
1E
102
{ACAD_REACTORS
330
1A
102
}
330
1A
100
AcDbPlotSettings
  1

  2
none_device
  4

  6

 40
0.0
 41
0.0
 42
0.0
 43
0.0
 44
0.0
 45
0.0
 46
0.0
 47
0.0
 48
0.0
 49
0.0
140
0.0
141
0.0
142
1.0
143
1.0
 70
   688
 72
     0
 73
     0
 74
     5
  7

 75
    16
147
1.0
148
0.0
149
0.0
100
AcDbLayout
  1
Layout1
 70
     1
 71
     1
 10
0.0
 20
0.0
 11
420.0
 21
297.0
 12
0.0
 22
0.0
 32
0.0
 14
1.0000000000E+20
 24
1.0000000000E+20
 34
1.0000000000E+20
 15
-1.0000000000E+20
 25
-1.0000000000E+20
 35
-1.0000000000E+20
146
0.0
 13
0.0
 23
0.0
 33
0.0
 16
1.0
 26
0.0
 36
0.0
 17
0.0
 27
1.0
 37
0.0
 76
     0
330
1B
  0
LAYOUT
  5
26
102
{ACAD_REACTORS
330
1A
102
}
330
1A
100
AcDbPlotSettings
  1

  2
none_device
  4

  6

 40
0.0
 41
0.0
 42
0.0
 43
0.0
 44
0.0
 45
0.0
 46
0.0
 47
0.0
 48
0.0
 49
0.0
140
0.0
141
0.0
142
1.0
143
1.0
 70
   688
 72
     0
 73
     0
 74
     5
  7

 75
    16
147
1.0
148
0.0
149
0.0
100
AcDbLayout
  1
Layout2
 70
     1
 71
     2
 10
0.0
 20
0.0
 11
0.0
 21
0.0
 12
0.0
 22
0.0
 32
0.0
 14
0.0
 24
0.0
 34
0.0
 15
0.0
 25
0.0
 35
0.0
146
0.0
 13
0.0
 23
0.0
 33
0.0
 16
1.0
 26
0.0
 36
0.0
 17
0.0
 27
1.0
 37
0.0
 76
     0
330
23
  0
LAYOUT
  5
22
102
{ACAD_REACTORS
330
1A
102
}
330
1A
100
AcDbPlotSettings
  1

  2
none_device
  4

  6

 40
0.0
 41
0.0
 42
0.0
 43
0.0
 44
0.0
 45
0.0
 46
0.0
 47
0.0
 48
0.0
 49
0.0
140
0.0
141
0.0
142
1.0
143
1.0
 70
  1712
 72
     0
 73
     0
 74
     0
  7

 75
     0
147
1.0
148
0.0
149
0.0
100
AcDbLayout
  1
Model
 70
     1
 71
     0
 10
0.0
 20
0.0
 11
297.0
 21
210.0
 12
0.0
 22
0.0
 32
0.0
 14
0.0
 24
0.0
 34
0.0
 15
297.0
 25
210.0
 35
0.0
146
0.0
 13
0.0
 23
0.0
 33
0.0
 16
1.0
 26
0.0
 36
0.0
 17
0.0
 27
1.0
 37
0.0
 76
     0
330
1F
331
29
  0
MLINESTYLE
  5
18
102
{ACAD_REACTORS
330
17
102
}
330
17
100
AcDbMlineStyle
  2
Standard
 70
     0
  3

 62
   256
 51
90.0
 52
90.0
 71
     2
 49
0.5
 62
   256
  6
BYLAYER
 49
-0.5
 62
   256
  6
BYLAYER
  0
ACDBPLACEHOLDER
  5
F
102
{ACAD_REACTORS
330
E
102
}
330
E
  0
ENDSEC
  0
EOF
