  0
SECTION
  2
HEADER
  9
$ACADVER
  1
AC1015
  9
$ACADMAINTVER
 70
     6
  9
$DWGCODEPAGE
  3
ANSI_1252
  9
$INSBASE
 10
0.0
 20
0.0
 30
0.0
  9
$EXTMIN
 10
0.0
 20
0.0
 30
0.0
  9
$EXTMAX
 10
297.0
 20
210.0
 30
0.0
  9
$LIMMIN
 10
0.0
 20
0.0
  9
$LIMMAX
 10
297.0
 20
210.0
  9
$ORTHOMODE
 70
     0
  9
$REGENMODE
 70
     1
  9
$FILLMODE
 70
     1
  9
$QTEXTMODE
 70
     0
  9
$MIRRTEXT
 70
     1
  9
$LTSCALE
 40
1.0
  9
$ATTMODE
 70
     1
  9
$TEXTSIZE
 40
2.0
  9
$TRACEWID
 40
1.0
  9
$TEXTSTYLE
  7
Standard
  9
$CLAYER
  8
0
  9
$CELTYPE
  6
ByLayer
  9
$CECOLOR
 62
   256
  9
$CELTSCALE
 40
1.0
  9
$DISPSILH
 70
     0
  9
$DIMSCALE
 40
1.0
  9
$DIMASZ
 40
3.0
  9
$DIMEXO
 40
0.0
  9
$DIMDLI
 40
3.75
  9
$DIMRND
 40
0.0
  9
$DIMDLE
 40
0.0
  9
$DIMEXE
 40
1.0
  9
$DIMTP
 40
0.0
  9
$DIMTM
 40
0.0
  9
$DIMTXT
 40
2.0
  9
$DIMCEN
 40
2.5
  9
$DIMTSZ
 40
0.0
  9
$DIMTOL
 70
     0
  9
$DIMLIM
 70
     0
  9
$DIMTIH
 70
     1
  9
$DIMTOH
 70
     1
  9
$DIMSE1
 70
     0
  9
$DIMSE2
 70
     0
  9
$DIMTAD
 70
     1
  9
$DIMZIN
 70
     0
  9
$DIMBLK
  1

  9
$DIMASO
 70
     1
  9
$DIMSHO
 70
     1
  9
$DIMPOST
  1

  9
$DIMAPOST
  1

  9
$DIMALT
 70
     0
  9
$DIMALTD
 70
     3
  9
$DIMALTF
 40
0.0393700787
  9
$DIMLFAC
 40
1.0
  9
$DIMTOFL
 70
     1
  9
$DIMTVP
 40
0.0
  9
$DIMTIX
 70
     0
  9
$DIMSOXD
 70
     0
  9
$DIMSAH
 70
     0
  9
$DIMBLK1
  1

  9
$DIMBLK2
  1

  9
$DIMSTYLE
  2
ISO-25
  9
$DIMCLRD
 70
     0
  9
$DIMCLRE
 70
     0
  9
$DIMCLRT
 70
     0
  9
$DIMTFAC
 40
1.0
  9
$DIMGAP
 40
1.524
  9
$DIMJUST
 70
     0
  9
$DIMSD1
 70
     0
  9
$DIMSD2
 70
     0
  9
$DIMTOLJ
 70
     0
  9
$DIMTZIN
 70
     0
  9
$DIMALTZ
 70
     0
  9
$DIMALTTZ
 70
     0
  9
$DIMUPT
 70
     0
  9
$DIMDEC
 70
     2
  9
$DIMTDEC
 70
     3
  9
$DIMALTU
 70
     2
  9
$DIMALTTD
 70
     3
  9
$DIMTXSTY
  7
Standard
  9
$DIMAUNIT
 70
     0
  9
$DIMADEC
 70
     2
  9
$DIMALTRND
 40
0.0
  9
$DIMAZIN
 70
     0
  9
$DIMDSEP
 70
    44
  9
$DIMATFIT
 70
     3
  9
$DIMFRAC
 70
     0
  9
$DIMLDRBLK
  1

  9
$DIMLUNIT
 70
     2
  9
$DIMLWD
 70
    -2
  9
$DIMLWE
 70
    -2
  9
$DIMTMOVE
 70
     0
  9
$LUNITS
 70
     2
  9
$LUPREC
 70
     2
  9
$SKETCHINC
 40
1.0
  9
$FILLETRAD
 40
10.0
  9
$AUNITS
 70
     0
  9
$AUPREC
 70
     2
  9
$MENU
  1
.
  9
$ELEVATION
 40
0.0
  9
$PELEVATION
 40
0.0
  9
$THICKNESS
 40
0.0
  9
$LIMCHECK
 70
     0
  9
$CHAMFERA
 40
10.0
  9
$CHAMFERB
 40
10.0
  9
$CHAMFERC
 40
20.0
  9
$CHAMFERD
 40
0.0
  9
$SKPOLY
 70
     0
  9
$TDCREATE
 40
2456091.385473889
  9
$TDUCREATE
 40
2456091.302140555
  9
$TDUPDATE
 40
2456091.385475509
  9
$TDUUPDATE
 40
2456091.302142176
  9
$TDINDWG
 40
0.0000000116
  9
$TDUSRTIMER
 40
0.0000000116
  9
$USRTIMER
 70
     1
  9
$ANGBASE
 50
0.0
  9
$ANGDIR
 70
     0
  9
$PDMODE
 70
     0
  9
$PDSIZE
 40
-1.0
  9
$PLINEWID
 40
0.0
  9
$SPLFRAME
 70
     0
  9
$SPLINETYPE
 70
     6
  9
$SPLINESEGS
 70
     8
  9
$HANDSEED
  5
297
  9
$SURFTAB1
 70
     6
  9
$SURFTAB2
 70
     6
  9
$SURFTYPE
 70
     6
  9
$SURFU
 70
     6
  9
$SURFV
 70
     6
  9
$UCSBASE
  2

  9
$UCSNAME
  2

  9
$UCSORG
 10
0.0
 20
0.0
 30
0.0
  9
$UCSXDIR
 10
1.0
 20
0.0
 30
0.0
  9
$UCSYDIR
 10
0.0
 20
1.0
 30
0.0
  9
$UCSORTHOREF
  2

  9
$UCSORTHOVIEW
 70
     0
  9
$UCSORGTOP
 10
0.0
 20
0.0
 30
0.0
  9
$UCSORGBOTTOM
 10
0.0
 20
0.0
 30
0.0
  9
$UCSORGLEFT
 10
0.0
 20
0.0
 30
0.0
  9
$UCSORGRIGHT
 10
0.0
 20
0.0
 30
0.0
  9
$UCSORGFRONT
 10
0.0
 20
0.0
 30
0.0
  9
$UCSORGBACK
 10
0.0
 20
0.0
 30
0.0
  9
$PUCSBASE
  2

  9
$PUCSNAME
  2

  9
$PUCSORG
 10
0.0
 20
0.0
 30
0.0
  9
$PUCSXDIR
 10
1.0
 20
0.0
 30
0.0
  9
$PUCSYDIR
 10
0.0
 20
1.0
 30
0.0
  9
$PUCSORTHOREF
  2

  9
$PUCSORTHOVIEW
 70
     0
  9
$PUCSORGTOP
 10
0.0
 20
0.0
 30
0.0
  9
$PUCSORGBOTTOM
 10
0.0
 20
0.0
 30
0.0
  9
$PUCSORGLEFT
 10
0.0
 20
0.0
 30
0.0
  9
$PUCSORGRIGHT
 10
0.0
 20
0.0
 30
0.0
  9
$PUCSORGFRONT
 10
0.0
 20
0.0
 30
0.0
  9
$PUCSORGBACK
 10
0.0
 20
0.0
 30
0.0
  9
$USERI1
 70
     0
  9
$USERI2
 70
     0
  9
$USERI3
 70
     0
  9
$USERI4
 70
     0
  9
$USERI5
 70
     0
  9
$USERR1
 40
0.0
  9
$USERR2
 40
0.0
  9
$USERR3
 40
0.0
  9
$USERR4
 40
0.0
  9
$USERR5
 40
0.0
  9
$WORLDVIEW
 70
     1
  9
$SHADEDGE
 70
     3
  9
$SHADEDIF
 70
    70
  9
$TILEMODE
 70
     1
  9
$MAXACTVP
 70
    64
  9
$PINSBASE
 10
0.0
 20
0.0
 30
0.0
  9
$PLIMCHECK
 70
     0
  9
$PEXTMIN
 10
1.0000000000E+20
 20
1.0000000000E+20
 30
1.0000000000E+20
  9
$PEXTMAX
 10
-1.0000000000E+20
 20
-1.0000000000E+20
 30
-1.0000000000E+20
  9
$PLIMMIN
 10
0.0
 20
0.0
  9
$PLIMMAX
 10
420.0
 20
297.0
  9
$UNITMODE
 70
     0
  9
$VISRETAIN
 70
     1
  9
$PLINEGEN
 70
     0
  9
$PSLTSCALE
 70
     1
  9
$TREEDEPTH
 70
  3020
  9
$CMLSTYLE
  2
Standard
  9
$CMLJUST
 70
     0
  9
$CMLSCALE
 40
20.0
  9
$PROXYGRAPHICS
 70
     1
  9
$MEASUREMENT
 70
     1
  9
$CELWEIGHT
370
    -1
  9
$ENDCAPS
280
     0
  9
$JOINSTYLE
280
     0
  9
$LWDISPLAY
290
     1
  9
$INSUNITS
 70
     4
  9
$HYPERLINKBASE
  1

  9
$STYLESHEET
  1

  9
$XEDIT
290
     1
  9
$CEPSNTYPE
380
     0
  9
$PSTYLEMODE
290
     1
  9
$FINGERPRINTGUID
  2
{6A97AE62-72CC-4052-83F8-C2CAA35A1CA4}
  9
$VERSIONGUID
  2
{FAEB1C32-E019-11D5-929B-00C0DF256EC4}
  9
$EXTNAMES
290
     1
  9
$PSVPSCALE
 40
0.0
  9
$OLESTARTUP
290
     0
  0
ENDSEC
  0
SECTION
  2
CLASSES
  0
CLASS
  1
ACDBDICTIONARYWDFLT
  2
AcDbDictionaryWithDefault
  3
ObjectDBX Classes
 90
        0
280
     0
281
     0
  0
CLASS
  1
VISUALSTYLE
  2
AcDbVisualStyle
  3
ObjectDBX Classes
 90
     4095
280
     0
281
     0
  0
CLASS
  1
MATERIAL
  2
AcDbMaterial
  3
ObjectDBX Classes
 90
     1153
280
     0
281
     0
  0
CLASS
  1
ACDBPLACEHOLDER
  2
AcDbPlaceHolder
  3
ObjectDBX Classes
 90
        0
280
     0
281
     0
  0
CLASS
  1
LAYOUT
  2
AcDbLayout
  3
ObjectDBX Classes
 90
        0
280
     0
281
     0
  0
ENDSEC
  0
SECTION
  2
TABLES
  0
TABLE
  2
VPORT
  5
8
330
0
100
AcDbSymbolTable
 70
     1
  0
VPORT
  5
29
330
8
100
AcDbSymbolTableRecord
100
AcDbViewportTableRecord
  2
*Active
 70
     0
 10
0.0
 20
0.0
 11
1.0
 21
1.0
 12
148.5
 22
105.0
 13
0.0
 23
0.0
 14
10.0
 24
10.0
 15
10.0
 25
10.0
 16
0.0
 26
0.0
 36
1.0
 17
0.0
 27
0.0
 37
0.0
 40
210.0
 41
1.4142857143
 42
50.0
 43
0.0
 44
0.0
 50
0.0
 51
0.0
 71
     0
 72
  2000
 73
     1
 74
     3
 75
     0
 76
     0
 77
     0
 78
     0
281
     0
 65
     1
110
0.0
120
0.0
130
0.0
111
1.0
121
0.0
131
0.0
112
0.0
122
1.0
132
0.0
 79
     0
146
0.0
  0
ENDTAB
  0
TABLE
  2
LTYPE
  5
5
330
0
100
AcDbSymbolTable
 70
     6
  0
LTYPE
  5
14
330
5
100
AcDbSymbolTableRecord
100
AcDbLinetypeTableRecord
  2
ByBlock
 70
     0
  3

 72
    65
 73
     0
 40
0.0
  0
LTYPE
  5
15
330
5
100
AcDbSymbolTableRecord
100
AcDbLinetypeTableRecord
  2
ByLayer
 70
     0
  3

 72
    65
 73
     0
 40
0.0
  0
LTYPE
  5
16
330
5
100
AcDbSymbolTableRecord
100
AcDbLinetypeTableRecord
  2
Continuous
 70
     0
  3
Solid line
 72
    65
 73
     0
 40
0.0
  0
LTYPE
  5
3F
330
5
100
AcDbSymbolTableRecord
100
AcDbLinetypeTableRecord
  2
HIDDEN
 70
     0
  3
Hidden __ __ __ __ __ __ __ __ __ __ __ __ __ __
 72
    65
 73
     2
 40
1.905
 49
1.27
 74
     0
 49
-0.635
 74
     0
  0
LTYPE
  5
40
330
5
100
AcDbSymbolTableRecord
100
AcDbLinetypeTableRecord
  2
PHANTOM
 70
     0
  3
Phantom ______  __  __  ______  __  __  ______
 72
    65
 73
     6
 40
12.7
 49
6.35
 74
     0
 49
-1.27
 74
     0
 49
1.27
 74
     0
 49
-1.27
 74
     0
 49
1.27
 74
     0
 49
-1.27
 74
     0
  0
LTYPE
  5
41
330
5
100
AcDbSymbolTableRecord
100
AcDbLinetypeTableRecord
  2
CENTER
 70
     0
  3
Center ____ _ ____ _ ____ _ ____ _ ____ _ ____
 72
    65
 73
     4
 40
10.16
 49
6.35
 74
     0
 49
-1.27
 74
     0
 49
1.27
 74
     0
 49
-1.27
 74
     0
  0
LTYPE
  5
42
330
5
100
AcDbSymbolTableRecord
100
AcDbLinetypeTableRecord
  2
CENTERX2
 70
     0
  3
Center (2x) ________  __  ________  __  _____
 72
    65
 73
     4
 40
20.32
 49
12.7
 74
     0
 49
-2.54
 74
     0
 49
2.54
 74
     0
 49
-2.54
 74
     0
  0
LTYPE
  5
43
330
5
100
AcDbSymbolTableRecord
100
AcDbLinetypeTableRecord
  2
DOT2
 70
     0
  3
Dot (.5x) ........................................
 72
    65
 73
     2
 40
0.635
 49
0.0
 74
     0
 49
-0.635
 74
     0
  0
ENDTAB
  0
TABLE
  2
LAYER
  5
2
330
0
100
AcDbSymbolTable
 70
     5
  0
LAYER
  5
10
330
2
100
AcDbSymbolTableRecord
100
AcDbLayerTableRecord
  2
0
 70
     0
 62
     7
  6
Continuous
370
    -3
390
F
  0
LAYER
  5
44
330
2
100
AcDbSymbolTableRecord
100
AcDbLayerTableRecord
  2
FORMAT
 70
     0
 62
     7
  6
Continuous
370
    -3
390
F
  0
LAYER
  5
45
330
2
100
AcDbSymbolTableRecord
100
AcDbLayerTableRecord
  2
VERMASSUNG
 70
     0
 62
     7
  6
Continuous
370
    -3
390
F
  0
LAYER
  5
46
330
2
100
AcDbSymbolTableRecord
100
AcDbLayerTableRecord
  2
KOPF_DÜNN
 70
     0
 62
     7
  6
Continuous
370
    -3
390
F
  0
LAYER
  5
47
330
2
100
AcDbSymbolTableRecord
100
AcDbLayerTableRecord
  2
KOPF_DICK
 70
     0
 62
     7
  6
Continuous
370
    15
390
F
  0
ENDTAB
  0
TABLE
  2
STYLE
  5
3
330
0
100
AcDbSymbolTable
 70
     3
  0
STYLE
  5
11
330
3
100
AcDbSymbolTableRecord
100
AcDbTextStyleTableRecord
  2
Standard
 70
     0
 40
0.0
 41
1.0
 50
0.0
 71
     0
 42
2.0
  3
txt
  4

  0
STYLE
  5
48
330
3
100
AcDbSymbolTableRecord
100
AcDbTextStyleTableRecord
  2
SLDTEXTSTYLE0
 70
     0
 40
0.0
 41
0.7
 50
0.0
 71
     0
 42
0.2
  3
TXT
  4

  0
STYLE
  5
4C
330
3
100
AcDbSymbolTableRecord
100
AcDbTextStyleTableRecord
  2
SLDTEXTSTYLE1
 70
     0
 40
0.0
 41
0.6470588235
 50
0.0
 71
     0
 42
0.2
  3
TXT
  4

  0
ENDTAB
  0
TABLE
  2
VIEW
  5
6
330
0
100
AcDbSymbolTable
 70
     0
  0
ENDTAB
  0
TABLE
  2
UCS
  5
7
330
0
100
AcDbSymbolTable
 70
     0
  0
ENDTAB
  0
TABLE
  2
APPID
  5
9
330
0
100
AcDbSymbolTable
 70
     1
  0
APPID
  5
12
330
9
100
AcDbSymbolTableRecord
100
AcDbRegAppTableRecord
  2
ACAD
 70
     0
  0
ENDTAB
  0
TABLE
  2
DIMSTYLE
  5
A
330
0
100
AcDbSymbolTable
 70
     5
100
AcDbDimStyleTable
  0
DIMSTYLE
105
27
330
A
100
AcDbSymbolTableRecord
100
AcDbDimStyleTableRecord
  2
ISO-25
 70
     0
 41
2.5
 42
0.625
 43
3.75
 44
1.25
 73
     0
 74
     0
 77
     1
 78
     8
140
2.5
141
2.5
143
0.0393700787
147
0.625
171
     3
172
     1
178
     0
271
     2
272
     2
274
     3
278
    44
283
     0
284
     8
340
11
  0
DIMSTYLE
105
212
102
{ACAD_REACTORS
330
211
102
}
330
A
100
AcDbSymbolTableRecord
100
AcDbDimStyleTableRecord
  2
SLDDIMSTYLE0
 70
     0
 41
3.0
 44
0.0
 73
     0
 74
     0
 77
     1
 78
    12
 79
     3
140
2.0
147
0.5
173
     1
178
     0
179
     1
272
     3
276
     2
284
    12
340
48
  0
DIMSTYLE
105
21B
102
{ACAD_REACTORS
330
21A
330
23E
102
}
330
A
100
AcDbSymbolTableRecord
100
AcDbDimStyleTableRecord
  2
SLDDIMSTYLE1
 70
     0
 41
3.0
 44
0.0
 45
0.000000001
 73
     0
 74
     0
 77
     1
 78
    12
 79
     3
140
2.0
147
0.5
173
     1
178
     0
271
     2
272
     3
276
     2
284
    12
340
48
  0
DIMSTYLE
105
226
102
{ACAD_REACTORS
330
225
330
232
102
}
330
A
100
AcDbSymbolTableRecord
100
AcDbDimStyleTableRecord
  2
SLDDIMSTYLE2
 70
     0
 41
3.0
 44
0.0
 45
0.000000001
 47
0.1
 48
0.1
 71
     1
 73
     0
 74
     0
 77
     1
 78
    12
 79
     3
140
2.0
147
0.5
173
     1
178
     0
271
     2
272
     1
276
     2
284
     8
340
48
  0
DIMSTYLE
105
27C
102
{ACAD_REACTORS
330
27B
102
}
330
A
100
AcDbSymbolTableRecord
100
AcDbDimStyleTableRecord
  2
SLDDIMSTYLE3
 70
     0
 41
3.0
 44
0.0
 45
0.000000001
 73
     0
 74
     0
 77
     1
 78
    12
 79
     3
140
2.0
147
0.5
172
     1
173
     1
178
     0
271
     2
272
     3
276
     2
284
    12
289
     0
340
48
  0
ENDTAB
  0
TABLE
  2
BLOCK_RECORD
  5
1
330
0
100
AcDbSymbolTable
 70
     8
  0
BLOCK_RECORD
  5
1F
330
1
100
AcDbSymbolTableRecord
100
AcDbBlockTableRecord
  2
*Model_Space
340
22
  0
BLOCK_RECORD
  5
1B
330
1
100
AcDbSymbolTableRecord
100
AcDbBlockTableRecord
  2
*Paper_Space
340
1E
  0
BLOCK_RECORD
  5
23
330
1
100
AcDbSymbolTableRecord
100
AcDbBlockTableRecord
  2
*Paper_Space0
340
26
  0
BLOCK_RECORD
  5
213
330
1
100
AcDbSymbolTableRecord
100
AcDbBlockTableRecord
  2
_D
340
0
  0
BLOCK_RECORD
  5
21C
330
1
100
AcDbSymbolTableRecord
100
AcDbBlockTableRecord
  2
_D_1
340
0
  0
BLOCK_RECORD
  5
227
330
1
100
AcDbSymbolTableRecord
100
AcDbBlockTableRecord
  2
_D_2
340
0
  0
BLOCK_RECORD
  5
233
330
1
100
AcDbSymbolTableRecord
100
AcDbBlockTableRecord
  2
_D_3
340
0
  0
BLOCK_RECORD
  5
23F
330
1
100
AcDbSymbolTableRecord
100
AcDbBlockTableRecord
  2
_D_4
340
0
  0
BLOCK_RECORD
  5
27D
330
1
100
AcDbSymbolTableRecord
100
AcDbBlockTableRecord
  2
_D_5
340
0
  0
BLOCK_RECORD
  5
28A
330
1
100
AcDbSymbolTableRecord
100
AcDbBlockTableRecord
  2
SW_CENTERMARKSYMBOL_0
340
0
102
{BLKREFS
331
295
102
}
  0
ENDTAB
  0
ENDSEC
  0
SECTION
  2
BLOCKS
  0
BLOCK
  5
20
330
1F
100
AcDbEntity
  8
0
100
AcDbBlockBegin
  2
*Model_Space
 70
     0
 10
0.0
 20
0.0
 30
0.0
  3
*Model_Space
  1

  0
ENDBLK
  5
21
330
1F
100
AcDbEntity
  8
0
100
AcDbBlockEnd
  0
BLOCK
  5
1C
330
1B
100
AcDbEntity
 67
     1
  8
0
100
AcDbBlockBegin
  2
*Paper_Space
 70
     0
 10
0.0
 20
0.0
 30
0.0
  3
*Paper_Space
  1

  0
ENDBLK
  5
1D
330
1B
100
AcDbEntity
 67
     1
  8
0
100
AcDbBlockEnd
  0
BLOCK
  5
24
330
23
100
AcDbEntity
  8
0
100
AcDbBlockBegin
  2
*Paper_Space0
 70
     0
 10
0.0
 20
0.0
 30
0.0
  3
*Paper_Space0
  1

  0
ENDBLK
  5
25
330
23
100
AcDbEntity
  8
0
100
AcDbBlockEnd
  0
BLOCK
  5
214
330
213
100
AcDbEntity
  8
0
100
AcDbBlockBegin
  2
_D
 70
     0
 10
0.0
 20
0.0
 30
0.0
  3
_D
  1

  0
ARC
  5
216
330
213
100
AcDbEntity
  8
VERMASSUNG
100
AcDbCircle
 10
250.432884448
 20
97.7258273053
 30
0.0
 40
9.633330439375271
100
AcDbArc
 50
0.0
 51
107.5401158054
  0
SOLID
  5
217
330
213
100
AcDbEntity
  8
VERMASSUNG
100
AcDbTrace
 10
260.0662148873
 20
97.7258273053
 30
0.0
 11
260.0599662951
 21
100.7593831323
 31
0.0
 12
259.1702004649
 22
100.6240436801
 32
0.0
 13
259.1702004649
 23
100.6240436801
 33
0.0
  0
SOLID
  5
218
330
213
100
AcDbEntity
  8
VERMASSUNG
100
AcDbTrace
 10
247.5296541928
 20
106.9112673841
 30
0.0
 11
250.5631563871
 21
106.9303576332
 31
0.0
 12
250.4240515719
 22
107.8195425692
 32
0.0
 13
250.4240515719
 23
107.8195425692
 33
0.0
  0
MTEXT
  5
219
330
213
100
AcDbEntity
  8
VERMASSUNG
100
AcDbMText
 10
254.1009272099
 20
110.176745309
 30
0.1
 40
2.0
 41
0.0
 71
     1
 72
     1
  1
107.5°
  7
SLDTEXTSTYLE0
 11
0.8066515584256998
 21
-0.5910272948768016
 31
0.0
 73
     1
 44
1.0
  0
ENDBLK
  5
215
330
213
100
AcDbEntity
  8
0
100
AcDbBlockEnd
  0
BLOCK
  5
21D
330
21C
100
AcDbEntity
  8
0
100
AcDbBlockBegin
  2
_D_1
 70
     0
 10
0.0
 20
0.0
 30
0.0
  3
_D_1
  1

  0
SOLID
  5
21F
330
21C
100
AcDbEntity
  8
VERMASSUNG
100
AcDbTrace
 10
120.3873532824
 20
150.7258273053
 30
0.0
 11
123.3873532824
 21
150.2758273053
 31
0.0
 12
123.3873532824
 22
151.1758273053
 32
0.0
 13
123.3873532824
 23
151.1758273053
 33
0.0
  0
SOLID
  5
220
330
21C
100
AcDbEntity
  8
VERMASSUNG
100
AcDbTrace
 10
250.2873532824
 20
150.7258273053
 30
0.0
 11
247.2873532824
 21
151.1758273053
 31
0.0
 12
247.2873532824
 22
150.2758273053
 32
0.0
 13
247.2873532824
 23
150.2758273053
 33
0.0
  0
LINE
  5
221
330
21C
100
AcDbEntity
  8
VERMASSUNG
100
AcDbLine
 10
120.3873532824
 20
126.6558273053
 30
0.0
 11
120.3873532824
 21
151.7258273053
 31
0.0
  0
LINE
  5
222
330
21C
100
AcDbEntity
  8
VERMASSUNG
100
AcDbLine
 10
250.2873532824
 20
114.7258273053
 30
0.0
 11
250.2873532824
 21
151.7258273053
 31
0.0
  0
LINE
  5
223
330
21C
100
AcDbEntity
  8
VERMASSUNG
100
AcDbLine
 10
120.3873532824
 20
150.7258273053
 30
0.0
 11
250.2873532824
 21
150.7258273053
 31
0.0
  0
MTEXT
  5
224
330
21C
100
AcDbEntity
  8
VERMASSUNG
100
AcDbMText
 10
181.5373532183
 20
153.3039626685
 30
0.1
 40
2.0
 41
0.0
 71
     1
 72
     1
  1
129.9
  7
SLDTEXTSTYLE0
 73
     1
 44
1.0
  0
ENDBLK
  5
21E
330
21C
100
AcDbEntity
  8
0
100
AcDbBlockEnd
  0
BLOCK
  5
228
330
227
100
AcDbEntity
  8
0
100
AcDbBlockBegin
  2
_D_2
 70
     0
 10
0.0
 20
0.0
 30
0.0
  3
_D_2
  1

  0
SOLID
  5
22A
330
227
100
AcDbEntity
  8
VERMASSUNG
100
AcDbTrace
 10
267.3094409289
 20
97.7258273053
 30
0.0
 11
267.7594409289
 21
100.7258273053
 31
0.0
 12
266.8594409289
 22
100.7258273053
 32
0.0
 13
266.8594409289
 23
100.7258273053
 33
0.0
  0
SOLID
  5
22B
330
227
100
AcDbEntity
  8
VERMASSUNG
100
AcDbTrace
 10
267.3094409289
 20
114.7258273053
 30
0.0
 11
266.8594409289
 21
111.7258273053
 31
0.0
 12
267.7594409289
 22
111.7258273053
 32
0.0
 13
267.7594409289
 23
111.7258273053
 33
0.0
  0
LINE
  5
22C
330
227
100
AcDbEntity
  8
VERMASSUNG
100
AcDbLine
 10
261.2659119196
 20
97.7258273053
 30
0.0
 11
268.3094409289
 21
97.7258273053
 31
0.0
  0
LINE
  5
22D
330
227
100
AcDbEntity
  8
VERMASSUNG
100
AcDbLine
 10
250.2873532824
 20
114.7258273053
 30
0.0
 11
268.3094409289
 21
114.7258273053
 31
0.0
  0
LINE
  5
22E
330
227
100
AcDbEntity
  8
VERMASSUNG
100
AcDbLine
 10
267.3094409289
 20
97.7258273053
 30
0.0
 11
267.3094409289
 21
114.7258273053
 31
0.0
  0
MTEXT
  5
22F
330
227
100
AcDbEntity
  8
VERMASSUNG
100
AcDbMText
 10
264.7313055657
 20
101.8758272443
 30
0.1
 40
2.0
 41
0.0
 71
     1
 72
     1
  1
17
  7
SLDTEXTSTYLE0
 11
6.123233995736766E-17
 21
1.0
 31
0.0
 73
     1
 44
1.0
  0
MTEXT
  5
230
330
227
100
AcDbEntity
  8
VERMASSUNG
100
AcDbMText
 10
264.7313055657
 20
107.2633275602
 30
0.1
 40
2.0
 41
0.0
 71
     1
 72
     1
  1

  7
SLDTEXTSTYLE0
 11
6.123233995736766E-17
 21
1.0
 31
0.0
 73
     1
 44
1.0
  0
MTEXT
  5
231
330
227
100
AcDbEntity
  8
VERMASSUNG
100
AcDbMText
 10
265.2258394285
 20
107.2758273843
 30
0.1
 40
1.5
 41
0.0
 71
     1
 72
     1
  1
±0.1
  7
SLDTEXTSTYLE0
 11
6.123233995736766E-17
 21
1.0
 31
0.0
 73
     1
 44
1.0
  0
ENDBLK
  5
229
330
227
100
AcDbEntity
  8
0
100
AcDbBlockEnd
  0
BLOCK
  5
234
330
233
100
AcDbEntity
  8
0
100
AcDbBlockBegin
  2
_D_3
 70
     0
 10
0.0
 20
0.0
 30
0.0
  3
_D_3
  1

  0
SOLID
  5
236
330
233
100
AcDbEntity
  8
VERMASSUNG
100
AcDbTrace
 10
140.2873532824
 20
144.7258273053
 30
0.0
 11
143.2873532824
 21
144.2758273053
 31
0.0
 12
143.2873532824
 22
145.1758273053
 32
0.0
 13
143.2873532824
 23
145.1758273053
 33
0.0
  0
SOLID
  5
237
330
233
100
AcDbEntity
  8
VERMASSUNG
100
AcDbTrace
 10
250.2873532824
 20
144.7258273053
 30
0.0
 11
247.2873532824
 21
145.1758273053
 31
0.0
 12
247.2873532824
 22
144.2758273053
 32
0.0
 13
247.2873532824
 23
144.2758273053
 33
0.0
  0
LINE
  5
238
330
233
100
AcDbEntity
  8
VERMASSUNG
100
AcDbLine
 10
140.2873532824
 20
134.4258273053
 30
0.0
 11
140.2873532824
 21
145.7258273053
 31
0.0
  0
LINE
  5
239
330
233
100
AcDbEntity
  8
VERMASSUNG
100
AcDbLine
 10
250.2873532824
 20
114.7258273053
 30
0.0
 11
250.2873532824
 21
145.7258273053
 31
0.0
  0
LINE
  5
23A
330
233
100
AcDbEntity
  8
VERMASSUNG
100
AcDbLine
 10
140.2873532824
 20
144.7258273053
 30
0.0
 11
250.2873532824
 21
144.7258273053
 31
0.0
  0
MTEXT
  5
23B
330
233
100
AcDbEntity
  8
VERMASSUNG
100
AcDbMText
 10
190.4373531393
 20
147.3039626685
 30
0.1
 40
2.0
 41
0.0
 71
     1
 72
     1
  1
110
  7
SLDTEXTSTYLE0
 73
     1
 44
1.0
  0
MTEXT
  5
23C
330
233
100
AcDbEntity
  8
VERMASSUNG
100
AcDbMText
 10
196.8248536191
 20
147.3039626685
 30
0.1
 40
2.0
 41
0.0
 71
     1
 72
     1
  1

  7
SLDTEXTSTYLE0
 73
     1
 44
1.0
  0
MTEXT
  5
23D
330
233
100
AcDbEntity
  8
VERMASSUNG
100
AcDbMText
 10
196.8373534433
 20
146.8094288057
 30
0.1
 40
1.5
 41
0.0
 71
     1
 72
     1
  1
±0.1
  7
SLDTEXTSTYLE0
 73
     1
 44
1.0
  0
ENDBLK
  5
235
330
233
100
AcDbEntity
  8
0
100
AcDbBlockEnd
  0
BLOCK
  5
240
330
23F
100
AcDbEntity
  8
0
100
AcDbBlockBegin
  2
_D_4
 70
     0
 10
0.0
 20
0.0
 30
0.0
  3
_D_4
  1

  0
SOLID
  5
242
330
23F
100
AcDbEntity
  8
VERMASSUNG
100
AcDbTrace
 10
113.6342960259
 20
134.7258273053
 30
0.0
 11
113.1842960259
 21
131.7258273053
 31
0.0
 12
114.0842960259
 22
131.7258273053
 32
0.0
 13
114.0842960259
 23
131.7258273053
 33
0.0
  0
SOLID
  5
243
330
23F
100
AcDbEntity
  8
VERMASSUNG
100
AcDbTrace
 10
113.6342960259
 20
94.7258273053
 30
0.0
 11
114.0842960259
 21
97.7258273053
 31
0.0
 12
113.1842960259
 22
97.7258273053
 32
0.0
 13
113.1842960259
 23
97.7258273053
 33
0.0
  0
LINE
  5
244
330
23F
100
AcDbEntity
  8
VERMASSUNG
100
AcDbLine
 10
140.5873532824
 20
134.7258273053
 30
0.0
 11
112.6342960259
 21
134.7258273053
 31
0.0
  0
LINE
  5
245
330
23F
100
AcDbEntity
  8
VERMASSUNG
100
AcDbLine
 10
140.5873532824
 20
94.7258273053
 30
0.0
 11
112.6342960259
 21
94.7258273053
 31
0.0
  0
LINE
  5
246
330
23F
100
AcDbEntity
  8
VERMASSUNG
100
AcDbLine
 10
113.6342960259
 20
134.7258273053
 30
0.0
 11
113.6342960259
 21
94.7258273053
 31
0.0
  0
MTEXT
  5
247
330
23F
100
AcDbEntity
  8
VERMASSUNG
100
AcDbMText
 10
110.8561605369
 20
106.7208266545
 30
0.1
 40
2.0
 41
0.0
 71
     1
 72
     1
  1
HSK T
  7
SLDTEXTSTYLE0
 11
-7.044195017643634E-15
 21
1.0
 31
0.0
 73
     1
 44
1.0
  0
MTEXT
  5
248
330
23F
100
AcDbEntity
  8
VERMASSUNG
100
AcDbMText
 10
111.0561605464
 20
114.3208267826
 30
0.1
 40
2.0
 41
0.0
 71
     1
 72
     1
  1
%%c
  7
SLDTEXTSTYLE0
 11
-7.044195017643634E-15
 21
1.0
 31
0.0
 73
     1
 44
1.0
  0
MTEXT
  5
249
330
23F
100
AcDbEntity
  8
VERMASSUNG
100
AcDbMText
 10
110.8561605369
 20
117.9308267969
 30
0.1
 40
2.0
 41
0.0
 71
     1
 72
     1
  1
40
  7
SLDTEXTSTYLE0
 11
-7.044195017643634E-15
 21
1.0
 31
0.0
 73
     1
 44
1.0
  0
ENDBLK
  5
241
330
23F
100
AcDbEntity
  8
0
100
AcDbBlockEnd
  0
BLOCK
  5
27E
330
27D
100
AcDbEntity
  8
0
100
AcDbBlockBegin
  2
_D_5
 70
     0
 10
0.0
 20
0.0
 30
0.0
  3
_D_5
  1

  0
SOLID
  5
280
330
27D
100
AcDbEntity
  8
VERMASSUNG
100
AcDbTrace
 10
53.5917031983
 20
101.1158384304
 30
0.0
 11
51.3931072967
 21
99.0257006212
 31
0.0
 12
52.1031103855
 22
98.4726223141
 32
0.0
 13
52.1031103855
 23
98.4726223141
 33
0.0
  0
SOLID
  5
281
330
27D
100
AcDbEntity
  8
VERMASSUNG
100
AcDbTrace
 10
73.256709675
 20
126.3603927
 30
0.0
 11
75.4553055766
 21
128.4505305092
 31
0.0
 12
74.7453024878
 22
129.0036088164
 32
0.0
 13
74.7453024878
 23
129.0036088164
 33
0.0
  0
LINE
  5
282
330
27D
100
AcDbEntity
  8
VERMASSUNG
100
AcDbLine
 10
53.5917031983
 20
101.1158384304
 30
0.0
 11
52.8028108774
 21
101.7303698828
 31
0.0
  0
LINE
  5
283
330
27D
100
AcDbEntity
  8
VERMASSUNG
100
AcDbLine
 10
73.256709675
 20
126.3603927
 30
0.0
 11
72.4678173541
 21
126.9749241524
 31
0.0
  0
LINE
  5
284
330
27D
100
AcDbEntity
  8
VERMASSUNG
100
AcDbLine
 10
53.5917031983
 20
101.1158384304
 30
0.0
 11
49.9045144839
 21
96.3824845049
 31
0.0
  0
LINE
  5
285
330
27D
100
AcDbEntity
  8
VERMASSUNG
100
AcDbLine
 10
53.5917031983
 20
101.1158384304
 30
0.0
 11
73.256709675
 21
126.3603927
 31
0.0
  0
LINE
  5
286
330
27D
100
AcDbEntity
  8
VERMASSUNG
100
AcDbLine
 10
73.256709675
 20
126.3603927
 30
0.0
 11
84.9422552791
 21
141.3614754874
 31
0.0
  0
MTEXT
  5
287
330
27D
100
AcDbEntity
  8
VERMASSUNG
100
AcDbMText
 10
74.4217049767
 20
132.0512183092
 30
0.1
 40
2.0
 41
0.0
 71
     1
 72
     1
  1
%%c
  7
SLDTEXTSTYLE0
 11
0.6145314523970875
 21
0.7888923209251857
 31
0.0
 73
     1
 44
1.0
  0
MTEXT
  5
288
330
27D
100
AcDbEntity
  8
VERMASSUNG
100
AcDbMText
 10
76.482385057
 20
135.0220258954
 30
0.1
 40
2.0
 41
0.0
 71
     1
 72
     1
  1
32
  7
SLDTEXTSTYLE0
 11
0.6145314523970875
 21
0.7888923209251857
 31
0.0
 73
     1
 44
1.0
  0
MTEXT
  5
289
330
27D
100
AcDbEntity
  8
VERMASSUNG
100
AcDbMText
 10
80.0389861866
 20
139.5877406506
 30
0.1
 40
2.0
 41
0.0
 71
     1
 72
     1
  1
min.
  7
SLDTEXTSTYLE0
 11
0.6145314523970875
 21
0.7888923209251857
 31
0.0
 73
     1
 44
1.0
  0
ENDBLK
  5
27F
330
27D
100
AcDbEntity
  8
0
100
AcDbBlockEnd
  0
BLOCK
  5
28B
330
28A
100
AcDbEntity
  8
0
100
AcDbBlockBegin
  2
SW_CENTERMARKSYMBOL_0
 70
     0
 10
0.0
 20
0.0
 30
0.0
  3
SW_CENTERMARKSYMBOL_0
  1

  0
LINE
  5
28D
330
28A
100
AcDbEntity
  8
VERMASSUNG
 62
     0
100
AcDbLine
 10
0.0
 20
0.0
 30
0.0
 11
0.0
 21
2.5
 31
0.0
  0
LINE
  5
28E
330
28A
100
AcDbEntity
  8
VERMASSUNG
 62
     0
100
AcDbLine
 10
0.0
 20
0.0
 30
0.0
 11
-2.5
 21
0.0
 31
0.0
  0
LINE
  5
28F
330
28A
100
AcDbEntity
  8
VERMASSUNG
 62
     0
100
AcDbLine
 10
0.0
 20
0.0
 30
0.0
 11
0.0
 21
-2.5
 31
0.0
  0
LINE
  5
290
330
28A
100
AcDbEntity
  8
VERMASSUNG
 62
     0
100
AcDbLine
 10
0.0
 20
0.0
 30
0.0
 11
2.5
 21
0.0
 31
0.0
  0
LINE
  5
291
330
28A
100
AcDbEntity
  8
VERMASSUNG
 62
     0
100
AcDbLine
 10
0.0
 20
5.0
 30
0.0
 11
0.0
 21
22.5
 31
0.0
  0
LINE
  5
292
330
28A
100
AcDbEntity
  8
VERMASSUNG
 62
     0
100
AcDbLine
 10
-5.0
 20
0.0
 30
0.0
 11
-22.5
 21
0.0
 31
0.0
  0
LINE
  5
293
330
28A
100
AcDbEntity
  8
VERMASSUNG
 62
     0
100
AcDbLine
 10
0.0
 20
-5.0
 30
0.0
 11
0.0
 21
-22.5
 31
0.0
  0
LINE
  5
294
330
28A
100
AcDbEntity
  8
VERMASSUNG
 62
     0
100
AcDbLine
 10
5.0
 20
0.0
 30
0.0
 11
22.5
 21
0.0
 31
0.0
  0
ENDBLK
  5
28C
330
28A
100
AcDbEntity
  8
0
100
AcDbBlockEnd
  0
ENDSEC
  0
SECTION
  2
ENTITIES
  0
MTEXT
  5
49
330
1F
100
AcDbEntity
  8
KOPF_DÜNN
100
AcDbMText
 10
13.8892156294
 20
23.8442973028
 30
0.0
 40
3.0
 41
0.0
 71
     1
 72
     1
  1
HA4.BDB.LLA.110
  7
SLDTEXTSTYLE0
 73
     1
 44
1.0
  0
MTEXT
  5
4A
330
1F
100
AcDbEntity
  8
VERMASSUNG
100
AcDbMText
 10
13.9329988022
 20
28.8834360957
 30
0.0
 40
3.0
 41
0.0
 71
     1
 72
     1
  1
Bohrstange_Boring bar
  7
SLDTEXTSTYLE0
 73
     1
 44
1.0
  0
MTEXT
  5
4B
330
1F
100
AcDbEntity
  8
VERMASSUNG
100
AcDbMText
 10
98.8601118557
 20
13.8365368179
 30
0.0
 40
2.0
 41
0.0
 71
     1
 72
     1
  1
Datum: 26.04.2012
  7
SLDTEXTSTYLE0
 73
     1
 44
1.0
  0
MTEXT
  5
4D
330
1F
100
AcDbEntity
  8
VERMASSUNG
100
AcDbMText
 10
13.933048693
 20
18.0482802738
 30
0.0
 40
2.0
 41
0.0
 71
     1
 72
     1
  1
DIN 69893 HSK T 40  / DC.. 11 T3..
  7
SLDTEXTSTYLE1
 73
     1
 44
1.0
  0
MTEXT
  5
4E
330
1F
100
AcDbEntity
  8
VERMASSUNG
100
AcDbMText
 10
13.9808475933
 20
13.9090973692
 30
0.0
 40
2.0
 41
0.0
 71
     1
 72
     1
  1
Gewicht: 470g
  7
SLDTEXTSTYLE0
 73
     1
 44
1.0
  0
LINE
  5
4F
330
1F
100
AcDbEntity
  8
0
  6
Continuous
 62
     7
370
    15
100
AcDbLine
 10
242.285682445
 20
105.9824405897
 30
0.0
 11
242.285682445
 21
106.0765460792
 31
0.0
  0
LINE
  5
50
330
1F
100
AcDbEntity
  8
0
  6
Continuous
 62
     7
370
    15
100
AcDbLine
 10
244.1897826246
 20
105.6481283817
 30
0.0
 11
244.1897826246
 21
105.5553788978
 31
0.0
  0
LINE
  5
51
330
1F
100
AcDbEntity
  8
0
  6
Continuous
 62
     7
370
    15
100
AcDbLine
 10
242.0377271227
 20
104.2117858965
 30
0.0
 11
242.0377271227
 21
104.3045968476
 31
0.0
  0
LINE
  5
52
330
1F
100
AcDbEntity
  8
0
  6
Continuous
 62
     7
370
    15
100
AcDbLine
 10
243.9418273024
 20
103.8761800814
 30
0.0
 11
243.9418273024
 21
103.7820904243
 31
0.0
  0
LINE
  5
53
330
1F
100
AcDbEntity
  8
0
  6
Continuous
 62
     7
370
    15
100
AcDbLine
 10
245.7410754613
 20
104.8988532934
 30
0.0
 11
245.7410754613
 21
104.9493961695
 31
0.0
  0
LINE
  5
54
330
1F
100
AcDbEntity
  8
0
  6
Continuous
 62
     7
370
    15
100
AcDbLine
 10
240.4910685472
 20
104.9493961695
 30
0.0
 11
240.4910685472
 21
104.8988532934
 31
0.0
  0
LINE
  5
55
330
1F
100
AcDbEntity
  8
0
  6
Continuous
 62
     7
370
    15
100
AcDbLine
 10
140.5873532966
 20
94.7258277524
 30
0.0
 11
148.2373537473
 21
94.7258277524
 31
0.0
  0
LINE
  5
56
330
1F
100
AcDbEntity
  8
0
  6
Continuous
 62
     7
370
    15
100
AcDbLine
 10
148.2915008418
 20
134.7258268583
 30
0.0
 11
140.5873532966
 21
134.7258268583
 31
0.0
  0
ARC
  5
57
330
1F
100
AcDbEntity
  8
0
  6
Continuous
 62
     7
370
    15
100
AcDbCircle
 10
140.5873532824
 20
95.0258273053
 30
0.0
 40
0.2999999999999972
100
AcDbArc
 50
180.0
 51
270.0
  0
ARC
  5
58
330
1F
100
AcDbEntity
  8
0
  6
Continuous
 62
     7
370
    15
100
AcDbCircle
 10
140.5873532824
 20
134.4258273053
 30
0.0
 40
0.3000000000000114
100
AcDbArc
 50
90.0
 51
180.0
  0
ARC
  5
59
330
1F
100
AcDbEntity
  8
0
  6
Continuous
 62
     7
370
    15
100
AcDbCircle
 10
139.7873532824
 20
99.2721269045
 30
0.0
 40
0.6000000000000099
100
AcDbArc
 50
33.5573097619
 51
90.0
  0
ARC
  5
5A
330
1F
100
AcDbEntity
  8
0
  6
Continuous
 62
     7
370
    15
100
AcDbCircle
 10
139.7873532824
 20
130.1795277061
 30
0.0
 40
0.6000000000000099
100
AcDbArc
 50
270.0
 51
326.4426902381
  0
ARC
  5
5B
330
1F
100
AcDbEntity
  8
0
  6
Continuous
 62
     7
370
    15
100
AcDbCircle
 10
163.2373532824
 20
99.2258273053
 30
0.0
 40
3.000000000000028
100
AcDbArc
 50
90.0
 51
180.0
  0
ARC
  5
5C
330
1F
100
AcDbEntity
  8
0
  6
Continuous
 62
     7
370
    15
100
AcDbCircle
 10
163.2373532824
 20
130.2258273053
 30
0.0
 40
3.000000000000028
100
AcDbArc
 50
180.0
 51
270.0
  0
LINE
  5
5D
330
1F
100
AcDbEntity
  8
0
  6
Continuous
 62
     7
370
    15
100
AcDbLine
 10
131.5073478944
 20
129.4898484561
 30
0.0
 11
123.987353032
 21
129.1130949471
 31
0.0
  0
LINE
  5
5E
330
1F
100
AcDbEntity
  8
0
  6
Continuous
 62
     7
370
    15
100
AcDbLine
 10
138.2873531874
 20
129.8295278761
 30
0.0
 11
137.0185742597
 21
129.7659613851
 31
0.0
  0
LINE
  5
5F
330
1F
100
AcDbEntity
  8
0
  6
Continuous
 62
     7
370
    15
100
AcDbLine
 10
137.0187176834
 20
99.685685775
 30
0.0
 11
138.2873531874
 21
99.6221267346
 31
0.0
  0
LINE
  5
60
330
1F
100
AcDbEntity
  8
0
  6
Continuous
 62
     7
370
    15
100
AcDbLine
 10
126.4873534418
 20
100.2133088845
 30
0.0
 11
131.507811693
 21
99.9617828715
 31
0.0
  0
LINE
  5
61
330
1F
100
AcDbEntity
  8
0
  6
Continuous
 62
     7
370
    15
100
AcDbLine
 10
138.2873531874
 20
99.6221267346
 30
0.0
 11
139.1440661135
 21
99.8516828481
 31
0.0
  0
LINE
  5
62
330
1F
100
AcDbEntity
  8
0
  6
Continuous
 62
     7
370
    15
100
AcDbLine
 10
139.1440661135
 20
129.5999717626
 30
0.0
 11
138.2873531874
 21
129.8295278761
 31
0.0
  0
ARC
  5
63
330
1F
100
AcDbEntity
  8
0
  6
Continuous
 62
     7
370
    15
100
AcDbCircle
 10
139.2993574828
 20
99.2721269045
 30
0.0
 40
0.5999999999999943
100
AcDbArc
 50
90.0
 51
105.0
  0
ARC
  5
64
330
1F
100
AcDbEntity
  8
0
  6
Continuous
 62
     7
370
    15
100
AcDbCircle
 10
139.2993574828
 20
130.1795277061
 30
0.0
 40
0.6000000000000227
100
AcDbArc
 50
255.0
 51
270.0
  0
LINE
  5
65
330
1F
100
AcDbEntity
  8
0
  6
Continuous
 62
     7
370
    15
100
AcDbLine
 10
139.2993575172
 20
99.8721272412
 30
0.0
 11
139.7873532586
 21
99.8721272412
 31
0.0
  0
LINE
  5
66
330
1F
100
AcDbEntity
  8
0
  6
Continuous
 62
     7
370
    15
100
AcDbLine
 10
139.7873532586
 20
129.5795273695
 30
0.0
 11
139.2993575172
 21
129.5795273695
 31
0.0
  0
LINE
  5
67
330
1F
100
AcDbEntity
  8
0
  6
Continuous
 62
     7
370
    15
100
AcDbLine
 10
224.4385467819
 20
102.2258271191
 30
0.0
 11
226.287356203
 21
102.2258271191
 31
0.0
  0
LINE
  5
68
330
1F
100
AcDbEntity
  8
0
  6
Continuous
 62
     7
370
    15
100
AcDbLine
 10
163.2373524807
 20
102.2258271191
 30
0.0
 11
224.4385467819
 21
102.2258271191
 31
0.0
  0
LINE
  5
69
330
1F
100
AcDbEntity
  8
0
  6
Continuous
 62
     7
370
    15
100
AcDbLine
 10
226.287356203
 20
127.2258274916
 30
0.0
 11
163.2373524807
 21
127.2258274916
 31
0.0
  0
ARC
  5
6A
330
1F
100
AcDbEntity
  8
0
  6
Continuous
 62
     7
370
    15
100
AcDbCircle
 10
123.0873532824
 20
128.5058273053
 30
0.0
 40
0.9000000000000199
100
AcDbArc
 50
270.0
 51
311.1792132368
  0
ARC
  5
6B
330
1F
100
AcDbEntity
  8
0
  6
Continuous
 62
     7
370
    15
100
AcDbCircle
 10
125.5873532824
 20
101.0048273053
 30
0.0
 40
0.9000000000000108
100
AcDbArc
 50
30.4426030216
 51
90.0
  0
LINE
  5
6C
330
1F
100
AcDbEntity
  8
0
  6
Continuous
 62
     7
370
    15
100
AcDbLine
 10
121.337352877
 20
127.6058275912
 30
0.0
 11
120.3873535595
 21
126.6558273423
 31
0.0
  0
LINE
  5
6D
330
1F
100
AcDbEntity
  8
0
  6
Continuous
 62
     7
370
    15
100
AcDbLine
 10
123.0873526982
 20
127.6058275912
 30
0.0
 11
121.337352877
 21
127.6058275912
 31
0.0
  0
LINE
  5
6E
330
1F
100
AcDbEntity
  8
0
  6
Continuous
 62
     7
370
    15
100
AcDbLine
 10
121.337352877
 20
101.904827236
 30
0.0
 11
125.587353108
 21
101.904827236
 31
0.0
  0
LINE
  5
6F
330
1F
100
AcDbEntity
  8
0
  6
Continuous
 62
     7
370
    15
100
AcDbLine
 10
120.3873535595
 20
102.8548274848
 30
0.0
 11
121.337352877
 21
101.904827236
 31
0.0
  0
LINE
  5
70
330
1F
100
AcDbEntity
  8
0
  6
Continuous
 62
     7
370
    15
100
AcDbLine
 10
240.5178384832
 20
127.7258275736
 30
0.0
 11
226.7873497657
 21
127.7258275736
 31
0.0
  0
LINE
  5
71
330
1F
100
AcDbEntity
  8
0
  6
Continuous
 62
     7
370
    15
100
AcDbLine
 10
226.7873497657
 20
127.7258275736
 30
0.0
 11
226.287356203
 21
127.2258274916
 31
0.0
  0
CIRCLE
  5
72
330
1F
100
AcDbEntity
  8
0
  6
Continuous
 62
     7
370
    15
100
AcDbCircle
 10
243.1140634655
 20
104.9035525439
 30
0.0
 40
2.623104339643131
  0
CIRCLE
  5
73
330
1F
100
AcDbEntity
  8
0
  6
Continuous
 62
     7
370
    15
100
AcDbCircle
 10
243.1145967026
 20
104.8828980617
 30
0.0
 40
1.798721698349175
  0
ARC
  5
74
330
1F
100
AcDbEntity
  8
0
  6
Continuous
 62
     7
370
    15
100
AcDbCircle
 10
243.119731097
 20
104.8811642564
 30
0.0
 40
1.671511680089502
100
AcDbArc
 50
293.3151932776
 51
351.9500754409
  0
ARC
  5
75
330
1F
100
AcDbEntity
  8
0
  6
Continuous
 62
     7
370
    15
100
AcDbCircle
 10
243.1219937218
 20
104.8793872022
 30
0.0
 40
1.669023122346396
100
AcDbArc
 50
351.9996016278
 51
52.2047373424
  0
ARC
  5
76
330
1F
100
AcDbEntity
  8
0
  6
Continuous
 62
     7
370
    15
100
AcDbCircle
 10
243.1160349118
 20
104.872349214
 30
0.0
 40
1.678236434632162
100
AcDbArc
 50
52.191234351
 51
110.6636044784
  0
LINE
  5
77
330
1F
100
AcDbEntity
  8
0
  6
Continuous
 62
     7
370
    15
100
AcDbLine
 10
242.4451248697
 20
106.4106515336
 30
0.0
 11
242.523817902
 21
106.442621975
 31
0.0
  0
ARC
  5
78
330
1F
100
AcDbEntity
  8
0
  6
Continuous
 62
     7
370
    15
100
AcDbCircle
 10
243.1125146078
 20
104.8779961368
 30
0.0
 40
1.671658346627488
100
AcDbArc
 50
113.5305584121
 51
170.0043768187
  0
LINE
  5
79
330
1F
100
AcDbEntity
  8
0
  6
Continuous
 62
     7
370
    15
100
AcDbLine
 10
241.449779456
 20
105.049766666
 30
0.0
 11
241.466230338
 21
105.1681508038
 31
0.0
  0
ARC
  5
7A
330
1F
100
AcDbEntity
  8
0
  6
Continuous
 62
     7
370
    15
100
AcDbCircle
 10
243.11005772
 20
104.8799081122
 30
0.0
 40
1.668944529319869
100
AcDbArc
 50
174.1585484419
 51
230.0456946724
  0
LINE
  5
7B
330
1F
100
AcDbEntity
  8
0
  6
Continuous
 62
     7
370
    15
100
AcDbLine
 10
242.1327071241
 20
103.5269853387
 30
0.0
 11
242.0383008174
 21
103.6005672726
 31
0.0
  0
ARC
  5
7C
330
1F
100
AcDbEntity
  8
0
  6
Continuous
 62
     7
370
    15
100
AcDbCircle
 10
243.1161077601
 20
104.8870357129
 30
0.0
 40
1.678336626323234
100
AcDbArc
 50
234.1307409351
 51
290.4496634927
  0
LINE
  5
7D
330
1F
100
AcDbEntity
  8
0
  6
Continuous
 62
     7
370
    15
100
AcDbLine
 10
243.7812970928
 20
103.3461457777
 30
0.0
 11
243.7024923018
 21
103.314468703
 31
0.0
  0
SPLINE
  5
7E
330
1F
100
AcDbEntity
  8
0
  6
Continuous
 62
     7
370
    15
100
AcDbSpline
210
0.0
220
0.0
230
1.0
 70
     8
 71
     3
 72
    11
 73
     7
 74
     0
 42
0.00000001
 43
0.00000001
 12
1.0
 22
0.0
 32
0.0
 13
1.0
 23
0.0
 33
0.0
 40
0.0
 40
0.0
 40
0.0
 40
0.0
 40
0.2431019703216125
 40
0.5182765786284673
 40
0.7947772936597265
 40
1.0
 40
1.0
 40
1.0
 40
1.0
 10
242.445124869728
 20
106.4106515336338
 30
0.0
 10
242.4177618250387
 20
106.3920405578325
 30
0.0
 10
242.3594257072208
 20
106.3523632452607
 30
0.0
 10
242.2996618407825
 20
106.2610360020373
 30
0.0
 10
242.2712326602446
 20
106.1620531915819
 30
0.0
 10
242.2765170588111
 20
106.0983017769938
 30
0.0
 10
242.2787683061599
 20
106.0711425456706
 30
0.0
  0
SPLINE
  5
7F
330
1F
100
AcDbEntity
  8
0
  6
Continuous
 62
     7
370
    15
100
AcDbSpline
210
0.0
220
0.0
230
1.0
 70
     8
 71
     3
 72
    12
 73
     8
 74
     0
 42
0.00000001
 43
0.00000001
 12
1.0
 22
0.0
 32
0.0
 13
1.0
 23
0.0
 33
0.0
 40
0.0
 40
0.0
 40
0.0
 40
0.0
 40
0.2058181504021311
 40
0.4120218938611573
 40
0.6140773041921065
 40
0.813214563219017
 40
1.0
 40
1.0
 40
1.0
 40
1.0
 10
242.2787683061599
 20
106.0711425456706
 30
0.0
 10
242.2825131335859
 20
106.0065247026044
 30
0.0
 10
242.2900098042404
 20
105.8771679572185
 30
0.0
 10
242.2183286077306
 20
105.6905193612495
 30
0.0
 10
242.0942891598637
 20
105.5386578893152
 30
0.0
 10
241.9326882520145
 20
105.4337180614235
 30
0.0
 10
241.8119779535333
 20
105.4104809695992
 30
0.0
 10
241.7535545281409
 20
105.3992342862788
 30
0.0
  0
SPLINE
  5
80
330
1F
100
AcDbEntity
  8
0
  6
Continuous
 62
     7
370
    15
100
AcDbSpline
210
0.0
220
0.0
230
1.0
 70
     8
 71
     3
 72
    11
 73
     7
 74
     0
 42
0.00000001
 43
0.00000001
 12
1.0
 22
0.0
 32
0.0
 13
1.0
 23
0.0
 33
0.0
 40
0.0
 40
0.0
 40
0.0
 40
0.0
 40
0.2908627375288056
 40
0.5839547434741985
 40
0.8745949530229681
 40
1.0
 40
1.0
 40
1.0
 40
1.0
 10
241.7535545281409
 20
105.3992342862788
 30
0.0
 10
241.7165300637994
 20
105.3917518045521
 30
0.0
 10
241.6421973673514
 20
105.3767294928787
 30
0.0
 10
241.5476461549927
 20
105.3090318152459
 30
0.0
 10
241.491128367262
 20
105.2339637872287
 30
0.0
 10
241.4719969587028
 20
105.1833937175351
 30
0.0
 10
241.4662303380011
 20
105.1681508037749
 30
0.0
  0
SPLINE
  5
81
330
1F
100
AcDbEntity
  8
0
  6
Continuous
 62
     7
370
    15
100
AcDbSpline
210
0.0
220
0.0
230
1.0
 70
     8
 71
     3
 72
    12
 73
     8
 74
     0
 42
0.00000001
 43
0.00000001
 12
1.0
 22
0.0
 32
0.0
 13
1.0
 23
0.0
 33
0.0
 40
0.0
 40
0.0
 40
0.0
 40
0.0
 40
0.0091740447156171
 40
0.2576708368141594
 40
0.5061864325492857
 40
0.7560252541538957
 40
1.0
 40
1.0
 40
1.0
 40
1.0
 10
244.1448407224654
 20
106.1982587638799
 30
0.0
 10
244.1437548226392
 20
106.1990947975603
 30
0.0
 10
244.1132552201645
 20
106.2225764247716
 30
0.0
 10
244.0445762805595
 20
106.2585258400234
 30
0.0
 10
243.9327606033516
 20
106.2752740665946
 30
0.0
 10
243.8209668886965
 20
106.2569557537501
 30
0.0
 10
243.7594977308235
 20
106.217267478861
 30
0.0
 10
243.7291281274794
 20
106.1976589921418
 30
0.0
  0
SPLINE
  5
82
330
1F
100
AcDbEntity
  8
0
  6
Continuous
 62
     7
370
    15
100
AcDbSpline
210
0.0
220
0.0
230
1.0
 70
     8
 71
     3
 72
    12
 73
     8
 74
     0
 42
0.00000001
 43
0.00000001
 12
1.0
 22
0.0
 32
0.0
 13
1.0
 23
0.0
 33
0.0
 40
0.0
 40
0.0
 40
0.0
 40
0.0
 40
0.2057516257972158
 40
0.4119608152719106
 40
0.6140104354506681
 40
0.8131396114498259
 40
1.0
 40
1.0
 40
1.0
 40
1.0
 10
243.7291281274794
 20
106.1976589921418
 30
0.0
 10
243.6743326493841
 20
106.1624645350195
 30
0.0
 10
243.5646198354906
 20
106.0919973530812
 30
0.0
 10
243.3658202573264
 20
106.0611263086478
 30
0.0
 10
243.1720374528359
 20
106.0922983255738
 30
0.0
 10
243.00111142205
 20
106.1788422077086
 30
0.0
 10
242.9216798620909
 20
106.2708791939468
 30
0.0
 10
242.8832264594077
 20
106.3154349762503
 30
0.0
  0
SPLINE
  5
83
330
1F
100
AcDbEntity
  8
0
  6
Continuous
 62
     7
370
    15
100
AcDbSpline
210
0.0
220
0.0
230
1.0
 70
     8
 71
     3
 72
    11
 73
     7
 74
     0
 42
0.00000001
 43
0.00000001
 12
1.0
 22
0.0
 32
0.0
 13
1.0
 23
0.0
 33
0.0
 40
0.0
 40
0.0
 40
0.0
 40
0.0
 40
0.2794110410323201
 40
0.5596212922463685
 40
0.8375037689473914
 40
1.0
 40
1.0
 40
1.0
 40
1.0
 10
242.8832264594077
 20
106.3154349762503
 30
0.0
 10
242.8584288165922
 20
106.3436100345655
 30
0.0
 10
242.8087626013065
 20
106.4000407414022
 30
0.0
 10
242.7032519463536
 20
106.4472826737621
 30
0.0
 10
242.6042709317439
 20
106.4591070340996
 30
0.0
 10
242.5455028539949
 20
106.4470652845308
 30
0.0
 10
242.5238179019927
 20
106.4426219749752
 30
0.0
  0
LINE
  5
84
330
1F
100
AcDbEntity
  8
0
  6
Continuous
 62
     7
370
    15
100
AcDbLine
 10
244.2685129098
 20
105.9714873049
 30
0.0
 11
244.2434342555
 21
105.8925335023
 31
0.0
  0
SPLINE
  5
85
330
1F
100
AcDbEntity
  8
0
  6
Continuous
 62
     7
370
    15
100
AcDbSpline
210
0.0
220
0.0
230
1.0
 70
     8
 71
     3
 72
    11
 73
     7
 74
     0
 42
0.00000001
 43
0.00000001
 12
1.0
 22
0.0
 32
0.0
 13
1.0
 23
0.0
 33
0.0
 40
0.0
 40
0.0
 40
0.0
 40
0.0
 40
0.253506612697542
 40
0.5075656380252245
 40
0.7595028165179787
 40
1.0
 40
1.0
 40
1.0
 40
1.0
 10
244.2434342555045
 20
105.7975991356674
 30
0.0
 10
244.2558501915327
 20
105.8329447889642
 30
0.0
 10
244.2807091189777
 20
105.9037131167648
 30
0.0
 10
244.2696252544258
 20
106.0179527911377
 30
0.0
 10
244.2255013469562
 20
106.1225803228639
 30
0.0
 10
244.1713079322999
 20
106.1734263603253
 30
0.0
 10
244.1448407224654
 20
106.1982587638799
 30
0.0
  0
SPLINE
  5
86
330
1F
100
AcDbEntity
  8
0
  6
Continuous
 62
     7
370
    15
100
AcDbSpline
210
0.0
220
0.0
230
1.0
 70
     8
 71
     3
 72
    12
 73
     8
 74
     0
 42
0.00000001
 43
0.00000001
 12
1.0
 22
0.0
 32
0.0
 13
1.0
 23
0.0
 33
0.0
 40
0.0
 40
0.0
 40
0.0
 40
0.0
 40
0.0091660442316943
 40
0.2573244720537224
 40
0.5054949986439928
 40
0.7549967673784126
 40
1.0
 40
1.0
 40
1.0
 40
1.0
 10
244.7747724107741
 20
104.6470925870839
 30
0.0
 10
244.7749565511723
 20
104.6484492839642
 30
0.0
 10
244.7801260473638
 20
104.6865367401925
 30
0.0
 10
244.7770766246448
 20
104.7639138804672
 30
0.0
 10
244.7353926464568
 20
104.8692461111445
 30
0.0
 10
244.6628755976031
 20
104.9574008735149
 30
0.0
 10
244.5968397190367
 20
104.9911793139898
 30
0.0
 10
244.5641221455573
 20
105.0079148921672
 30
0.0
  0
SPLINE
  5
87
330
1F
100
AcDbEntity
  8
0
  6
Continuous
 62
     7
370
    15
100
AcDbSpline
210
0.0
220
0.0
230
1.0
 70
     8
 71
     3
 72
    12
 73
     8
 74
     0
 42
0.00000001
 43
0.00000001
 12
1.0
 22
0.0
 32
0.0
 13
1.0
 23
0.0
 33
0.0
 40
0.0
 40
0.0
 40
0.0
 40
0.0
 40
0.2058399851828779
 40
0.4120677076841229
 40
0.6141383450267717
 40
0.8132587653101937
 40
1.0
 40
1.0
 40
1.0
 40
1.0
 10
244.5641221455573
 20
105.0079148921672
 30
0.0
 10
244.5055577447239
 20
105.0380134962447
 30
0.0
 10
244.3883186262801
 20
105.0982674006341
 30
0.0
 10
244.2611649732735
 20
105.2551734096946
 30
0.0
 10
244.1914383627394
 20
105.4381567710635
 30
0.0
 10
244.1821470530122
 20
105.6284883249679
 30
0.0
 10
244.2234468470043
 20
105.7424475425485
 30
0.0
 10
244.2434342555045
 20
105.7975991356674
 30
0.0
  0
ARC
  5
88
330
1F
100
AcDbEntity
  8
0
  6
Continuous
 62
     7
370
    15
100
AcDbCircle
 10
241.7836564502
 20
105.1616585612
 30
0.0
 40
0.3341750735395404
100
AcDbArc
 50
180.0332145225
 51
248.9060849484
  0
SPLINE
  5
89
330
1F
100
AcDbEntity
  8
0
  6
Continuous
 62
     7
370
    15
100
AcDbSpline
210
0.0
220
0.0
230
1.0
 70
     8
 71
     3
 72
    11
 73
     7
 74
     0
 42
0.00000001
 43
0.00000001
 12
1.0
 22
0.0
 32
0.0
 13
1.0
 23
0.0
 33
0.0
 40
0.0
 40
0.0
 40
0.0
 40
0.0
 40
0.2668992447186261
 40
0.5546205994635255
 40
0.843909476456411
 40
0.9999999999999999
 40
0.9999999999999999
 40
0.9999999999999999
 40
0.9999999999999999
 10
241.4497794560431
 20
105.0497666660253
 30
0.0
 10
241.4543838389525
 20
105.0153754447204
 30
0.0
 10
241.4639518151078
 20
104.9439099754325
 30
0.0
 10
241.5212976302207
 20
104.8489786482452
 30
0.0
 10
241.5929393590159
 20
104.785710193997
 30
0.0
 10
241.6451052194599
 20
104.7628830707017
 30
0.0
 10
241.6633876017569
 20
104.7548829305474
 30
0.0
  0
ARC
  5
8A
330
1F
100
AcDbEntity
  8
0
  6
Continuous
 62
     7
370
    15
100
AcDbCircle
 10
244.7733107155
 20
105.6481240712
 30
0.0
 40
0.5835280908567925
100
AcDbArc
 50
155.2381371739
 51
179.9995767621
  0
SPLINE
  5
8B
330
1F
100
AcDbEntity
  8
0
  6
Continuous
 62
     7
370
    15
100
AcDbSpline
210
0.0
220
0.0
230
1.0
 70
     8
 71
     3
 72
    12
 73
     8
 74
     0
 42
0.00000001
 43
0.00000001
 12
1.0
 22
0.0
 32
0.0
 13
1.0
 23
0.0
 33
0.0
 40
0.0
 40
0.0
 40
0.0
 40
0.0
 40
0.2058444891547354
 40
0.4120648655431074
 40
0.6141397528691177
 40
0.8132777700440603
 40
1.0
 40
1.0
 40
1.0
 40
1.0
 10
241.6633876017569
 20
104.7548829305474
 30
0.0
 10
241.7219552573769
 20
104.7261479512376
 30
0.0
 10
241.8391975174797
 20
104.6686255204244
 30
0.0
 10
241.9663459406335
 20
104.5139042691991
 30
0.0
 10
242.0360726029128
 20
104.3307570303351
 30
0.0
 10
242.0453635330708
 20
104.1381101007879
 30
0.0
 10
242.0040668730951
 20
104.021586030444
 30
0.0
 10
241.9840829423903
 20
103.9651986870471
 30
0.0
  0
SPLINE
  5
8C
330
1F
100
AcDbEntity
  8
0
  6
Continuous
 62
     7
370
    15
100
AcDbSpline
210
0.0
220
0.0
230
1.0
 70
     8
 71
     3
 72
    11
 73
     7
 74
     0
 42
0.00000001
 43
0.00000001
 12
1.0
 22
0.0
 32
0.0
 13
1.0
 23
0.0
 33
0.0
 40
0.0
 40
0.0
 40
0.0
 40
0.0
 40
0.2929002237733205
 40
0.5864314564511516
 40
0.8775085594860008
 40
0.9999999999999999
 40
0.9999999999999999
 40
0.9999999999999999
 40
0.9999999999999999
 10
241.9840829423903
 20
103.9651986870471
 30
0.0
 10
241.9716710027292
 20
103.929069768982
 30
0.0
 10
241.9468203837742
 20
103.8567340986026
 30
0.0
 10
241.9577988039423
 20
103.7405806953389
 30
0.0
 10
241.994301077072
 20
103.6544526598016
 30
0.0
 10
242.0282467343912
 20
103.6128802579209
 30
0.0
 10
242.0383008173941
 20
103.6005672726337
 30
0.0
  0
ARC
  5
8D
330
1F
100
AcDbEntity
  8
0
  6
Continuous
 62
     7
370
    15
100
AcDbCircle
 10
244.4435541915
 20
104.7916292016
 30
0.0
 40
0.3345091046142415
100
AcDbArc
 50
275.2143793711
 51
353.9182147377
  0
SPLINE
  5
8E
330
1F
100
AcDbEntity
  8
0
  6
Continuous
 62
     7
370
    15
100
AcDbSpline
210
0.0
220
0.0
230
1.0
 70
     8
 71
     3
 72
    11
 73
     7
 74
     0
 42
0.00000001
 43
0.00000001
 12
1.0
 22
0.0
 32
0.0
 13
1.0
 23
0.0
 33
0.0
 40
0.0
 40
0.0
 40
0.0
 40
0.0
 40
0.2524847802657411
 40
0.5068866039005104
 40
0.7591815212515154
 40
1.0
 40
1.0
 40
1.0
 40
1.0
 10
244.4739552191733
 20
104.3635626051131
 30
0.0
 10
244.5109940187516
 20
104.3702510348993
 30
0.0
 10
244.5853528427213
 20
104.3836786777702
 30
0.0
 10
244.6796863121781
 20
104.4496482161284
 30
0.0
 10
244.7491161304956
 20
104.5396687134887
 30
0.0
 10
244.7663540458022
 20
104.6118445556153
 30
0.0
 10
244.7747724107741
 20
104.6470925870839
 30
0.0
  0
SPLINE
  5
8F
330
1F
100
AcDbEntity
  8
0
  6
Continuous
 62
     7
370
    15
100
AcDbSpline
210
0.0
220
0.0
230
1.0
 70
     8
 71
     3
 72
    12
 73
     8
 74
     0
 42
0.00000001
 43
0.00000001
 12
1.0
 22
0.0
 32
0.0
 13
1.0
 23
0.0
 33
0.0
 40
0.0
 40
0.0
 40
0.0
 40
0.0
 40
0.2058592220265975
 40
0.4121025477436135
 40
0.6141951865029057
 40
0.8133226051649136
 40
1.0
 40
1.0
 40
1.0
 40
1.0
 10
243.948748891735
 20
103.6916543457214
 30
0.0
 10
243.9450025206286
 20
103.7576445488574
 30
0.0
 10
243.9375027882264
 20
103.8897480833541
 30
0.0
 10
244.0092061802976
 20
104.0786114611168
 30
0.0
 10
244.1332830776359
 20
104.2303126562125
 30
0.0
 10
244.2948855738961
 20
104.3329030416356
 30
0.0
 10
244.4155634396772
 20
104.3535650063171
 30
0.0
 10
244.4739552191733
 20
104.3635626051131
 30
0.0
  0
SPLINE
  5
90
330
1F
100
AcDbEntity
  8
0
  6
Continuous
 62
     7
370
    15
100
AcDbSpline
210
0.0
220
0.0
230
1.0
 70
     8
 71
     3
 72
    11
 73
     7
 74
     0
 42
0.00000001
 43
0.00000001
 12
1.0
 22
0.0
 32
0.0
 13
1.0
 23
0.0
 33
0.0
 40
0.0
 40
0.0
 40
0.0
 40
0.0
 40
0.2423656048192712
 40
0.5166832402212455
 40
0.7923338373173815
 40
0.9999999999999999
 40
0.9999999999999999
 40
0.9999999999999999
 40
0.9999999999999999
 10
243.7812970928191
 20
103.3461457777325
 30
0.0
 10
243.8087326023485
 20
103.3647926547566
 30
0.0
 10
243.8672205547597
 20
103.4045447014549
 30
0.0
 10
243.9273145483073
 20
103.4969207307869
 30
0.0
 10
243.9562461749264
 20
103.5979191735086
 30
0.0
 10
243.9510021052085
 20
103.6634834273252
 30
0.0
 10
243.948748891735
 20
103.6916543457214
 30
0.0
  0
ARC
  5
91
330
1F
100
AcDbEntity
  8
0
  6
Continuous
 62
     7
370
    15
100
AcDbCircle
 10
241.4528838337
 20
104.3042295913
 30
0.0
 40
0.5848434042906
100
AcDbArc
 50
0.0359792728
 51
68.9039892845
  0
ARC
  5
92
330
1F
100
AcDbEntity
  8
0
  6
Continuous
 62
     7
370
    15
100
AcDbCircle
 10
242.2884122409
 20
103.9212419889
 30
0.0
 40
0.3350657227695968
100
AcDbArc
 50
187.0329616009
 51
308.8034931843
  0
SPLINE
  5
93
330
1F
100
AcDbEntity
  8
0
  6
Continuous
 62
     7
370
    15
100
AcDbSpline
210
0.0
220
0.0
230
1.0
 70
     8
 71
     3
 72
    11
 73
     7
 74
     0
 42
0.00000001
 43
0.00000001
 12
1.0
 22
0.0
 32
0.0
 13
1.0
 23
0.0
 33
0.0
 40
0.0
 40
0.0
 40
0.0
 40
0.0
 40
0.2657659728070878
 40
0.5530077318110956
 40
0.8418234593972205
 40
1.0
 40
1.0
 40
1.0
 40
1.0
 10
242.1327071241378
 20
103.5269853386584
 30
0.0
 10
242.1648326254247
 20
103.5137840787873
 30
0.0
 10
242.2316795976399
 20
103.4863148030885
 30
0.0
 10
242.3432874314608
 20
103.4884331375412
 30
0.0
 10
242.4351464430273
 20
103.5189614029099
 30
0.0
 10
242.4818534687363
 20
103.5530691639681
 30
0.0
 10
242.4983816198348
 20
103.5651388305727
 30
0.0
  0
ARC
  5
94
330
1F
100
AcDbEntity
  8
0
  6
Continuous
 62
     7
370
    15
100
AcDbCircle
 10
244.5271385228
 20
103.87561414
 30
0.0
 40
0.5853114940326353
100
AcDbArc
 50
95.2132710664
 51
179.9446003369
  0
SPLINE
  5
95
330
1F
100
AcDbEntity
  8
0
  6
Continuous
 62
     7
370
    15
100
AcDbSpline
210
0.0
220
0.0
230
1.0
 70
     8
 71
     3
 72
    12
 73
     8
 74
     0
 42
0.00000001
 43
0.00000001
 12
1.0
 22
0.0
 32
0.0
 13
1.0
 23
0.0
 33
0.0
 40
0.0
 40
0.0
 40
0.0
 40
0.0
 40
0.2057920479759066
 40
0.4120309658932975
 40
0.614131753334636
 40
0.8132631027423851
 40
0.9999999999999999
 40
0.9999999999999999
 40
0.9999999999999999
 40
0.9999999999999999
 10
242.4983816198348
 20
103.5651388305727
 30
0.0
 10
242.553186845478
 20
103.6016993991245
 30
0.0
 10
242.6629163043171
 20
103.6748999261719
 30
0.0
 10
242.8617476152106
 20
103.7079547003896
 30
0.0
 10
243.0555556708468
 20
103.6765964554166
 30
0.0
 10
243.2264539460153
 20
103.5877136375753
 30
0.0
 10
243.3058570076954
 20
103.4931331511325
 30
0.0
 10
243.3442832879065
 20
103.4473619151417
 30
0.0
  0
SPLINE
  5
96
330
1F
100
AcDbEntity
  8
0
  6
Continuous
 62
     7
370
    15
100
AcDbSpline
210
0.0
220
0.0
230
1.0
 70
     8
 71
     3
 72
    11
 73
     7
 74
     0
 42
0.00000001
 43
0.00000001
 12
1.0
 22
0.0
 32
0.0
 13
1.0
 23
0.0
 33
0.0
 40
0.0
 40
0.0
 40
0.0
 40
0.0
 40
0.2802364256824031
 40
0.5612797690255844
 40
0.8399924499927985
 40
0.9999999999999999
 40
0.9999999999999999
 40
0.9999999999999999
 40
0.9999999999999999
 10
243.3442832879065
 20
103.4473619151417
 30
0.0
 10
243.3690784495484
 20
103.4183929988947
 30
0.0
 10
243.4187401684538
 20
103.3603717527969
 30
0.0
 10
243.5242454850701
 20
103.3113938875325
 30
0.0
 10
243.6228051464931
 20
103.2986585388475
 30
0.0
 10
243.6811962355863
 20
103.3102435013129
 30
0.0
 10
243.7024923018454
 20
103.3144687030021
 30
0.0
  0
ARC
  5
97
330
1F
100
AcDbEntity
  8
0
  6
Continuous
 62
     7
370
    15
100
AcDbCircle
 10
243.6176497685
 20
103.7364621202
 30
0.0
 40
0.3352836715965781
100
AcDbArc
 50
215.3801002689
 51
342.462539798
  0
ARC
  5
98
330
1F
100
AcDbEntity
  8
0
  6
Continuous
 62
     7
370
    15
100
AcDbCircle
 10
243.1160720042
 20
104.9448569209
 30
0.0
 40
2.625007381780989
100
AcDbArc
 50
0.0990777858
 51
179.9009222142
  0
ARC
  5
99
330
1F
100
AcDbEntity
  8
0
  6
Continuous
 62
     7
370
    15
100
AcDbCircle
 10
242.8657611786
 20
103.2021538893
 30
0.0
 40
0.5871163430074382
100
AcDbArc
 50
35.4088840688
 51
128.7361941258
  0
LINE
  5
9A
330
1F
100
AcDbEntity
  8
0
  6
Continuous
 62
     7
370
    15
100
AcDbLine
 10
236.1637564353
 20
111.3394965145
 30
0.0
 11
239.3666567258
 21
101.2059562567
 31
0.0
  0
LINE
  5
9B
330
1F
100
AcDbEntity
  8
0
  6
Continuous
 62
     7
370
    15
100
AcDbLine
 10
237.9456596426
 20
110.0900928217
 30
0.0
 11
236.5261750273
 21
111.4687906306
 31
0.0
  0
LINE
  5
9C
330
1F
100
AcDbEntity
  8
0
  6
Continuous
 62
     7
370
    15
100
AcDbLine
 10
239.9048270635
 20
101.5194617871
 30
0.0
 11
239.7290678672
 21
101.3352499071
 31
0.0
  0
SPLINE
  5
9D
330
1F
100
AcDbEntity
  8
0
  6
Continuous
 62
     7
370
    15
100
AcDbSpline
210
0.0
220
0.0
230
1.0
 70
     8
 71
     3
 72
    10
 73
     6
 74
     0
 42
0.00000001
 43
0.00000001
 12
1.0
 22
0.0
 32
0.0
 13
1.0
 23
0.0
 33
0.0
 40
0.0
 40
0.0
 40
0.0
 40
0.0
 40
0.3517941864492513
 40
0.7034198897518626
 40
1.0
 40
1.0
 40
1.0
 40
1.0
 10
239.3480526260375
 20
101.1984749424759
 30
0.0
 10
239.3657200775184
 20
101.157401085462
 30
0.0
 10
239.4010465190902
 20
101.0752730427446
 30
0.0
 10
239.4963736750436
 20
100.9854303156074
 30
0.0
 10
239.5724809179489
 20
100.9541623313325
 30
0.0
 10
239.607303028488
 20
100.9398559767309
 30
0.0
  0
LINE
  5
9E
330
1F
100
AcDbEntity
  8
0
  6
Continuous
 62
     7
370
    15
100
AcDbLine
 10
236.1420752458
 20
111.3417659148
 30
0.0
 11
239.348052626
 21
101.1984749425
 31
0.0
  0
LINE
  5
9F
330
1F
100
AcDbEntity
  8
0
  6
Continuous
 62
     7
370
    15
100
AcDbLine
 10
246.8062253646
 20
108.6384836312
 30
0.0
 11
236.6381647042
 21
111.8366511732
 31
0.0
  0
SPLINE
  5
A0
330
1F
100
AcDbEntity
  8
0
  6
Continuous
 62
     7
370
    15
100
AcDbSpline
210
0.0
220
0.0
230
1.0
 70
     8
 71
     3
 72
    10
 73
     6
 74
     0
 42
0.00000001
 43
0.00000001
 12
1.0
 22
0.0
 32
0.0
 13
1.0
 23
0.0
 33
0.0
 40
0.0
 40
0.0
 40
0.0
 40
0.0
 40
0.3518048193526193
 40
0.7034179515911287
 40
1.0
 40
1.0
 40
1.0
 40
1.0
 10
247.0654757670401
 20
108.3798641997877
 30
0.0
 10
247.0478050641339
 20
108.4209374782334
 30
0.0
 10
247.0124732865182
 20
108.5030616556183
 30
0.0
 10
246.9171543499813
 20
108.5929107750595
 30
0.0
 10
246.8410479076225
 20
108.6241775168969
 30
0.0
 10
246.8062253645896
 20
108.638483631194
 30
0.0
  0
LINE
  5
A1
330
1F
100
AcDbEntity
  8
0
  6
Continuous
 62
     7
370
    15
100
AcDbLine
 10
250.2714531473
 20
98.2365729946
 30
0.0
 11
247.065475767
 21
108.3798641998
 31
0.0
  0
SPLINE
  5
A2
330
1F
100
AcDbEntity
  8
0
  6
Continuous
 62
     7
370
    15
100
AcDbSpline
210
0.0
220
0.0
230
1.0
 70
     8
 71
     3
 72
    14
 73
    10
 74
     0
 42
0.00000001
 43
0.00000001
 12
1.0
 22
0.0
 32
0.0
 13
1.0
 23
0.0
 33
0.0
 40
0.0
 40
0.0
 40
0.0
 40
0.0
 40
0.158857079985586
 40
0.3173346889583371
 40
0.472016922245644
 40
0.6236435319811313
 40
0.7746633424320873
 40
0.9277426626184995
 40
1.0
 40
1.0
 40
1.0
 40
1.0
 10
249.7753562382697
 20
97.74168866756594
 30
0.0
 10
249.8204548968091
 20
97.73218040836541
 30
0.0
 10
249.9105444841373
 20
97.71318660288813
 30
0.0
 10
250.0468861152714
 20
97.74360917398513
 30
0.0
 10
250.1628198495134
 20
97.81399872353798
 30
0.0
 10
250.24697868843
 20
97.91834542592426
 30
0.0
 10
250.291192690183
 20
98.04355518070643
 30
0.0
 10
250.2934369783909
 20
98.15399147894985
 30
0.0
 10
250.2767909334469
 20
98.21652178209376
 30
0.0
 10
250.2714531473159
 20
98.23657299461996
 30
0.0
  0
LINE
  5
A3
330
1F
100
AcDbEntity
  8
0
  6
Continuous
 62
     7
370
    15
100
AcDbLine
 10
239.6073030285
 20
100.9398559767
 30
0.0
 11
249.7753562383
 21
97.7416886676
 31
0.0
  0
ARC
  5
A4
330
1F
100
AcDbEntity
  8
0
  6
Continuous
 62
     7
370
    15
100
AcDbCircle
 10
236.5258719965
 20
111.4531788511
 30
0.0
 40
0.3795409771164095
100
AcDbArc
 50
72.4311382554
 51
197.4291272522
  0
ARC
  5
A5
330
1F
100
AcDbEntity
  8
0
  6
Continuous
 62
     7
370
    15
100
AcDbCircle
 10
239.7284841289
 20
101.3205207467
 30
0.0
 40
0.3795314110884715
100
AcDbArc
 50
197.5692168718
 51
252.5698687762
  0
LINE
  5
A6
330
1F
100
AcDbEntity
  8
0
  6
Continuous
 62
     7
370
    15
100
AcDbLine
 10
239.6147983126
 20
100.9584163043
 30
0.0
 11
249.7730838112
 21
97.763323291
 31
0.0
  0
ARC
  5
A7
330
1F
100
AcDbEntity
  8
0
  6
Continuous
 62
     7
370
    15
100
AcDbCircle
 10
249.8876541346
 20
98.1251554897
 30
0.0
 40
0.3795377439294191
100
AcDbArc
 50
252.430162113
 51
17.4301875562
  0
LINE
  5
A8
330
1F
100
AcDbEntity
  8
0
  6
Continuous
 62
     7
370
    15
100
AcDbLine
 10
250.2497645072
 20
98.2388435591
 30
0.0
 11
247.0468716673
 21
108.3723833512
 31
0.0
  0
ARC
  5
A9
330
1F
100
AcDbEntity
  8
0
  6
Continuous
 62
     7
370
    15
100
AcDbCircle
 10
246.6850540979
 20
108.2578246163
 30
0.0
 40
0.3795202989155703
100
AcDbArc
 50
17.5688366976
 51
72.5720770371
  0
LINE
  5
AA
330
1F
100
AcDbEntity
  8
0
  6
Continuous
 62
     7
370
    15
100
AcDbLine
 10
246.7987226299
 20
108.6199228379
 30
0.0
 11
236.6404371313
 21
111.8150160841
 31
0.0
  0
SPLINE
  5
AB
330
1F
100
AcDbEntity
  8
0
  6
Continuous
 62
     7
370
    15
100
AcDbSpline
210
0.0
220
0.0
230
1.0
 70
     8
 71
     3
 72
    14
 73
    10
 74
     0
 42
0.00000001
 43
0.00000001
 12
1.0
 22
0.0
 32
0.0
 13
1.0
 23
0.0
 33
0.0
 40
0.0
 40
0.0
 40
0.0
 40
0.0
 40
0.1588494066122116
 40
0.3173281024070191
 40
0.4720110961301544
 40
0.6236442160089204
 40
0.774661243229296
 40
0.9277414557139408
 40
1.0
 40
1.0
 40
1.0
 40
1.0
 10
236.6381647042273
 20
111.8366511731896
 30
0.0
 10
236.5930685665577
 20
111.8461592033507
 30
0.0
 10
236.5029815331983
 20
111.865153074546
 30
0.0
 10
236.3666417600818
 20
111.8347298089354
 30
0.0
 10
236.2507095091485
 20
111.7643380019928
 30
0.0
 10
236.1665395836847
 20
111.6599979016745
 30
0.0
 10
236.1223383535002
 20
111.5347821932324
 30
0.0
 10
236.1200912458948
 20
111.4243480482859
 30
0.0
 10
236.1367373887908
 20
111.3618173894991
 30
0.0
 10
236.1420752457618
 20
111.341765914813
 30
0.0
  0
LINE
  5
AC
330
1F
100
AcDbEntity
  8
0
  6
Continuous
 62
     7
370
    15
100
AcDbLine
 10
246.508693879
 20
108.1072446618
 30
0.0
 11
246.6844605259
 21
108.2736976172
 31
0.0
  0
SPLINE
  5
AD
330
1F
100
AcDbEntity
  8
0
  6
Continuous
 62
     7
370
    15
100
AcDbSpline
210
0.0
220
0.0
230
1.0
 70
     8
 71
     3
 72
    11
 73
     7
 74
     0
 42
0.00000001
 43
0.00000001
 12
1.0
 22
0.0
 32
0.0
 13
1.0
 23
0.0
 33
0.0
 40
0.0
 40
0.0
 40
0.0
 40
0.0
 40
0.0073034711032123
 40
0.1268490546280674
 40
0.5874321956369298
 40
1.0
 40
1.0
 40
1.0
 40
1.0
 10
238.431832378292
 20
109.5972876723412
 30
0.0
 10
238.4307698557701
 20
109.5984059561483
 30
0.0
 10
238.4123156200358
 20
109.6178286719682
 30
0.0
 10
238.3250654770252
 20
109.7094081050842
 30
0.0
 10
238.1612278508807
 20
109.8780446205067
 30
0.0
 10
238.0148322376174
 20
110.0220497440346
 30
0.0
 10
237.9456596426009
 20
110.0900928217474
 30
0.0
  0
ARC
  5
AE
330
1F
100
AcDbEntity
  8
0
  6
Continuous
 62
     7
370
    15
100
AcDbCircle
 10
239.9250156518
 20
108.061331992
 30
0.0
 40
0.9987862461697019
100
AcDbArc
 50
72.4304021626
 51
197.4297748697
  0
LINE
  5
AF
330
1F
100
AcDbEntity
  8
0
  6
Continuous
 62
     7
370
    15
100
AcDbLine
 10
248.4678687505
 20
99.5935174364
 30
0.0
 11
249.8873533658
 21
98.1401568938
 31
0.0
  0
LINE
  5
B0
330
1F
100
AcDbEntity
  8
0
  6
Continuous
 62
     7
370
    15
100
AcDbLine
 10
245.215422099
 20
107.4443599868
 30
0.0
 11
240.2265133313
 21
109.013525835
 31
0.0
  0
LINE
  5
B1
330
1F
100
AcDbEntity
  8
0
  6
Continuous
 62
     7
370
    15
100
AcDbLine
 10
247.441432064
 20
101.816180228
 30
0.0
 11
245.868435686
 21
106.7929389614
 31
0.0
  0
ARC
  5
B2
330
1F
100
AcDbEntity
  8
0
  6
Continuous
 62
     7
370
    15
100
AcDbCircle
 10
246.4885144477
 20
101.5169997661
 30
0.0
 40
0.9987797215350193
100
AcDbArc
 50
252.430180971
 51
17.4303363662
  0
LINE
  5
B3
330
1F
100
AcDbEntity
  8
0
  6
Continuous
 62
     7
370
    15
100
AcDbLine
 10
241.1980988435
 20
102.1339791555
 30
0.0
 11
246.1870150618
 21
100.5648133073
 31
0.0
  0
ARC
  5
B4
330
1F
100
AcDbEntity
  8
0
  6
Continuous
 62
     7
370
    15
100
AcDbCircle
 10
241.4972780696
 20
103.0868944431
 30
0.0
 40
0.9987771296849901
100
AcDbArc
 50
197.5695578002
 51
252.569691258
  0
LINE
  5
B5
330
1F
100
AcDbEntity
  8
0
  6
Continuous
 62
     7
370
    15
100
AcDbLine
 10
238.9720888785
 20
107.7621589142
 30
0.0
 11
240.5450927071
 21
102.7854001808
 31
0.0
  0
ARC
  5
B6
330
1F
100
AcDbEntity
  8
0
  6
Continuous
 62
     7
370
    15
100
AcDbCircle
 10
244.9162612644
 20
106.491452245
 30
0.0
 40
0.9987644213559447
100
AcDbArc
 50
17.5693345758
 51
72.5705682024
  0
CIRCLE
  5
B7
330
1F
100
AcDbEntity
  8
0
  6
Continuous
 62
     7
370
    15
100
AcDbCircle
 10
243.2105064592
 20
104.7841111209
 30
0.0
 40
3.046941321555634
  0
SPLINE
  5
B8
330
1F
100
AcDbEntity
  8
0
  6
Continuous
 62
     7
370
    15
100
AcDbSpline
210
0.0
220
0.0
230
1.0
 70
     8
 71
     3
 72
    11
 73
     7
 74
     0
 42
0.00000001
 43
0.00000001
 12
1.0
 22
0.0
 32
0.0
 13
1.0
 23
0.0
 33
0.0
 40
0.0
 40
0.0
 40
0.0
 40
0.0
 40
0.0092193568715214
 40
0.3448513450970853
 40
0.6722302295619637
 40
1.0
 40
1.0
 40
1.0
 40
1.0
 10
246.0162328533171
 20
107.6142630267445
 30
0.0
 10
246.0175976109126
 20
107.6156993581439
 30
0.0
 10
246.0686465614089
 20
107.6694255368768
 30
0.0
 10
246.1778308186038
 20
107.7824179404281
 30
0.0
 10
246.3510834442889
 20
107.9560849862662
 30
0.0
 10
246.4561361746666
 20
108.0568380656005
 30
0.0
 10
246.508693879032
 20
108.1072446617786
 30
0.0
  0
ARC
  5
B9
330
1F
100
AcDbEntity
  8
0
  6
Continuous
 62
     7
370
    15
100
AcDbCircle
 10
243.2067604712
 20
104.8643375877
 30
0.0
 40
3.050004460495651
100
AcDbArc
 50
180.1035906963
 51
359.8964093037
  0
SPLINE
  5
BA
330
1F
100
AcDbEntity
  8
0
  6
Continuous
 62
     7
370
    15
100
AcDbSpline
210
0.0
220
0.0
230
1.0
 70
     8
 71
     3
 72
    11
 73
     7
 74
     0
 42
0.00000001
 43
0.00000001
 12
1.0
 22
0.0
 32
0.0
 13
1.0
 23
0.0
 33
0.0
 40
0.0
 40
0.0
 40
0.0
 40
0.0
 40
0.3277695401006323
 40
0.6551553015458526
 40
0.9907874130495135
 40
1.0
 40
1.0
 40
1.0
 40
1.0
 10
239.904827063465
 20
101.5194617870752
 30
0.0
 10
239.9573862741508
 20
101.5739192972861
 30
0.0
 10
240.0624431550171
 20
101.6827705545222
 30
0.0
 10
240.2356744916238
 20
101.8546957645624
 30
0.0
 10
240.3449341003223
 20
101.9597359036454
 30
0.0
 10
240.3959258359671
 20
102.0077220884493
 30
0.0
 10
240.3972880891799
 20
102.0090040478412
 30
0.0
  0
SPLINE
  5
BB
330
1F
100
AcDbEntity
  8
0
  6
Continuous
 62
     7
370
    15
100
AcDbSpline
210
0.0
220
0.0
230
1.0
 70
     8
 71
     3
 72
    11
 73
     7
 74
     0
 42
0.00000001
 43
0.00000001
 12
1.0
 22
0.0
 32
0.0
 13
1.0
 23
0.0
 33
0.0
 40
0.0
 40
0.0
 40
0.0
 40
0.0
 40
0.4125751158708771
 40
0.873157341832933
 40
0.9927031458463863
 40
1.0
 40
1.0
 40
1.0
 40
1.0
 10
248.4678687504767
 20
99.59351743641531
 30
0.0
 10
248.3986889110675
 20
99.66349232988175
 30
0.0
 10
248.2522794879991
 20
99.81158437330333
 30
0.0
 10
248.0884989452888
 20
99.9697134142265
 30
0.0
 10
248.0011820859649
 20
100.0523419059106
 30
0.0
 10
247.9827560083473
 20
100.069687384019
 30
0.0
 10
247.9816960147857
 20
100.0706852141324
 30
0.0
  0
LINE
  5
BC
330
1F
100
AcDbEntity
  8
0
  6
Continuous
 62
     7
370
    15
100
AcDbLine
 10
159.6373530082
 20
95.4969423551
 30
0.0
 11
158.32251366
 21
95.4969423551
 31
0.0
  0
LINE
  5
BD
330
1F
100
AcDbEntity
  8
0
  6
Continuous
 62
     7
370
    15
100
AcDbLine
 10
158.32251366
 20
95.4969423551
 30
0.0
 11
158.32251366
 21
126.5758276645
 31
0.0
  0
LINE
  5
BE
330
1F
100
AcDbEntity
  8
0
  6
Continuous
 62
     7
370
    15
100
AcDbLine
 10
158.32251366
 20
126.5758276645
 30
0.0
 11
159.6373530082
 21
126.5758276645
 31
0.0
  0
SPLINE
  5
BF
330
1F
100
AcDbEntity
  8
0
  6
Continuous
 62
     7
370
    15
100
AcDbSpline
210
0.0
220
0.0
230
1.0
 70
     8
 71
     3
 72
     8
 73
     4
 74
     0
 42
0.00000001
 43
0.00000001
 12
1.0
 22
0.0
 32
0.0
 13
1.0
 23
0.0
 33
0.0
 40
0.0
 40
0.0
 40
0.0
 40
0.0
 40
1.0
 40
1.0
 40
1.0
 40
1.0
 10
158.3225129812496
 20
95.49694278231766
 30
0.0
 10
157.9898077095442
 20
96.09631445554133
 30
0.0
 10
157.6579919089707
 20
96.69618356624636
 30
0.0
 10
157.3273532823561
 20
97.29670391735735
 30
0.0
  0
LINE
  5
C0
330
1F
100
AcDbEntity
  8
0
  6
Continuous
 62
     7
370
    15
100
AcDbLine
 10
157.3273526482
 20
97.2967046041
 30
0.0
 11
157.3273526482
 21
126.5758276645
 31
0.0
  0
SPLINE
  5
C1
330
1F
100
AcDbEntity
  8
0
  6
Continuous
 62
     7
370
    15
100
AcDbSpline
210
0.0
220
0.0
230
1.0
 70
    24
 71
     3
 72
     8
 73
     4
 74
     0
 42
0.00000001
 43
0.00000001
 12
1.0
 22
0.0
 32
0.0
 13
1.0
 23
0.0
 33
0.0
 40
0.0
 40
0.0
 40
0.0
 40
0.0
 40
1.0
 40
1.0
 40
1.0
 40
1.0
 10
157.3273532823561
 20
126.5758273053471
 30
0.0
 10
157.6509899379784
 20
126.5758273053471
 30
0.0
 10
157.983480159495
 20
126.5758273053471
 30
0.0
 10
158.3225129812496
 20
126.5758273053471
 30
0.0
  0
LINE
  5
C2
330
1F
100
AcDbEntity
  8
0
  6
Continuous
 62
     7
370
    15
100
AcDbLine
 10
148.2436830155
 20
126.5758276645
 30
0.0
 11
154.2521934933
 21
126.5758276645
 31
0.0
  0
LINE
  5
C3
330
1F
100
AcDbEntity
  8
0
  6
Continuous
 62
     7
370
    15
100
AcDbLine
 10
154.2521934933
 20
95.4969423551
 30
0.0
 11
154.2521934933
 21
126.5758276645
 31
0.0
  0
LINE
  5
C4
330
1F
100
AcDbEntity
  8
0
  6
Continuous
 62
     7
370
    15
100
AcDbLine
 10
154.2521934933
 20
95.4969423551
 30
0.0
 11
152.7373535536
 21
95.4969423551
 31
0.0
  0
SPLINE
  5
C5
330
1F
100
AcDbEntity
  8
0
  6
Continuous
 62
     7
370
    15
100
AcDbSpline
210
0.0
220
0.0
230
1.0
 70
     8
 71
     3
 72
    22
 73
    18
 74
     0
 42
0.00000001
 43
0.00000001
 12
1.0
 22
0.0
 32
0.0
 13
1.0
 23
0.0
 33
0.0
 40
0.0
 40
0.0
 40
0.0
 40
0.0
 40
0.125
 40
0.125
 40
0.25
 40
0.25
 40
0.375
 40
0.375
 40
0.5
 40
0.5
 40
0.625
 40
0.625
 40
0.75
 40
0.75
 40
0.875
 40
0.875
 40
1.0
 40
1.0
 40
1.0
 40
1.0
 10
152.7373532823561
 20
95.49694278231767
 30
0.0
 10
152.4421130208268
 20
95.49694278231769
 30
0.0
 10
152.1482516607852
 20
95.4886412784811
 30
0.0
 10
151.5633604211035
 20
95.45579273476417
 30
0.0
 10
151.2801178640151
 20
95.4316417900668
 30
0.0
 10
150.7376638526845
 20
95.37144393598857
 30
0.0
 10
150.4747301187555
 20
95.33486105496262
 30
0.0
 10
149.9861579106879
 20
95.25495980193438
 30
0.0
 10
149.760693044385
 20
95.21186992562916
 30
0.0
 10
149.3465435176615
 20
95.12325526662755
 30
0.0
 10
149.1578087613813
 20
95.07758708291769
 30
0.0
 10
148.8332561720383
 20
94.99124323865774
 30
0.0
 10
148.6950171824043
 20
94.95007046044338
 30
0.0
 10
148.4681800131239
 20
94.87492979997359
 30
0.0
 10
148.382083548887
 20
94.84174405521826
 30
0.0
 10
148.2670651940703
 20
94.78734248087552
 30
0.0
 10
148.2373532823561
 20
94.76574151105618
 30
0.0
 10
148.2373532823561
 20
94.7508429499089
 30
0.0
  0
LINE
  5
C6
330
1F
100
AcDbEntity
  8
0
  6
Continuous
 62
     7
370
    15
100
AcDbLine
 10
148.2373537473
 20
94.7508430767
 30
0.0
 11
148.2373537473
 21
94.7258277524
 31
0.0
  0
SPLINE
  5
C7
330
1F
100
AcDbEntity
  8
0
  6
Continuous
 62
     7
370
    15
100
AcDbSpline
210
0.0
220
0.0
230
1.0
 70
     8
 71
     3
 72
    12
 73
     8
 74
     0
 42
0.00000001
 43
0.00000001
 12
1.0
 22
0.0
 32
0.0
 13
1.0
 23
0.0
 33
0.0
 40
0.0
 40
0.0
 40
0.0
 40
0.0
 40
0.211117100542305
 40
0.4221029713453049
 40
0.6364761097001761
 40
0.8531927327909691
 40
1.0
 40
1.0
 40
1.0
 40
1.0
 10
152.7373535535573
 20
134.213003395826
 30
0.0
 10
152.2387817534733
 20
134.2244630433534
 30
0.0
 10
151.2419480640005
 20
134.2473752151267
 30
0.0
 10
149.9058410706771
 20
134.4075141989569
 30
0.0
 10
148.8907839935
 20
134.5828595102597
 30
0.0
 10
148.2986997152694
 20
134.7118664114597
 30
0.0
 10
148.2935717459788
 20
134.713215728313
 30
0.0
 10
148.2915008417605
 20
134.7137606430355
 30
0.0
  0
LINE
  5
C8
330
1F
100
AcDbEntity
  8
0
  6
Continuous
 62
     7
370
    15
100
AcDbLine
 10
154.2521934933
 20
134.2130033958
 30
0.0
 11
152.7373535536
 21
134.2130033958
 31
0.0
  0
LINE
  5
C9
330
1F
100
AcDbEntity
  8
0
  6
Continuous
 62
     7
370
    15
100
AcDbLine
 10
154.2521934933
 20
130.837236597
 30
0.0
 11
154.2521934933
 21
134.2130033958
 31
0.0
  0
LINE
  5
CA
330
1F
100
AcDbEntity
  8
0
  6
Continuous
 62
     7
370
    15
100
AcDbLine
 10
152.7373535536
 20
130.837236597
 30
0.0
 11
154.2521934933
 21
130.837236597
 31
0.0
  0
SPLINE
  5
CB
330
1F
100
AcDbEntity
  8
0
  6
Continuous
 62
     7
370
    15
100
AcDbSpline
210
0.0
220
0.0
230
1.0
 70
     8
 71
     3
 72
    22
 73
    18
 74
     0
 42
0.00000001
 43
0.00000001
 12
1.0
 22
0.0
 32
0.0
 13
1.0
 23
0.0
 33
0.0
 40
0.0
 40
0.0
 40
0.0
 40
0.0
 40
0.25
 40
0.25
 40
0.375
 40
0.375
 40
0.5
 40
0.5
 40
0.625
 40
0.625
 40
0.75
 40
0.75
 40
0.875
 40
0.875
 40
0.9375
 40
0.9375
 40
1.0
 40
1.0
 40
1.0
 40
1.0
 10
148.2436828076514
 20
126.5758273053471
 30
0.0
 10
148.265663825638
 20
127.1386999472451
 30
0.0
 10
148.3446407089928
 20
127.6693248309746
 30
0.0
 10
148.5910386020251
 20
128.4150358218962
 30
0.0
 10
148.6955632171161
 20
128.6566560482949
 30
0.0
 10
148.9574098124226
 20
129.1155148236208
 30
0.0
 10
149.1126264345884
 20
129.3296934960907
 30
0.0
 10
149.4812181876523
 20
129.7269220552362
 30
0.0
 10
149.6973518801173
 20
129.911366890256
 30
0.0
 10
150.1812463751042
 20
130.2324467381396
 30
0.0
 10
150.4517119201119
 20
130.3717975682456
 30
0.0
 10
151.0479384856221
 20
130.6011031026712
 30
0.0
 10
151.363431752342
 20
130.6876391121475
 30
0.0
 10
151.8641484003606
 20
130.7765287164788
 30
0.0
 10
152.0369448349757
 20
130.7993372223404
 30
0.0
 10
152.3853136077577
 20
130.8296283850366
 30
0.0
 10
152.5607146366681
 20
130.8372363064246
 30
0.0
 10
152.7373532823561
 20
130.8372363064246
 30
0.0
  0
LINE
  5
CC
330
1F
100
AcDbEntity
  8
0
  6
Continuous
 62
     7
370
    15
100
AcDbLine
 10
155.2473535738
 20
97.2967046041
 30
0.0
 11
155.2473535738
 21
126.5758276645
 31
0.0
  0
SPLINE
  5
CD
330
1F
100
AcDbEntity
  8
0
  6
Continuous
 62
     7
370
    15
100
AcDbSpline
210
0.0
220
0.0
230
1.0
 70
     8
 71
     3
 72
     8
 73
     4
 74
     0
 42
0.00000001
 43
0.00000001
 12
1.0
 22
0.0
 32
0.0
 13
1.0
 23
0.0
 33
0.0
 40
0.0
 40
0.0
 40
0.0
 40
0.0
 40
1.0
 40
1.0
 40
1.0
 40
1.0
 10
155.2473532823561
 20
97.29670391735735
 30
0.0
 10
154.9167146557415
 20
96.69618356624636
 30
0.0
 10
154.584898855168
 20
96.09631445554133
 30
0.0
 10
154.2521935834627
 20
95.49694278231766
 30
0.0
  0
SPLINE
  5
CE
330
1F
100
AcDbEntity
  8
0
  6
Continuous
 62
     7
370
    15
100
AcDbSpline
210
0.0
220
0.0
230
1.0
 70
    24
 71
     3
 72
     8
 73
     4
 74
     0
 42
0.00000001
 43
0.00000001
 12
1.0
 22
0.0
 32
0.0
 13
1.0
 23
0.0
 33
0.0
 40
0.0
 40
0.0
 40
0.0
 40
0.0
 40
1.0
 40
1.0
 40
1.0
 40
1.0
 10
154.2521935834627
 20
126.5758273053471
 30
0.0
 10
154.5912264052173
 20
126.5758273053471
 30
0.0
 10
154.9237166267339
 20
126.5758273053471
 30
0.0
 10
155.2473532823561
 20
126.5758273053471
 30
0.0
  0
LINE
  5
CF
330
1F
100
AcDbEntity
  8
0
  6
Continuous
 62
     7
370
    15
100
AcDbLine
 10
160.2373538516
 20
96.1217946101
 30
0.0
 11
160.2373538516
 21
126.5758276645
 31
0.0
  0
SPLINE
  5
D0
330
1F
100
AcDbEntity
  8
0
  6
Continuous
 62
     7
370
    15
100
AcDbSpline
210
0.0
220
0.0
230
1.0
 70
     8
 71
     3
 72
    10
 73
     6
 74
     0
 42
0.00000001
 43
0.00000001
 12
1.0
 22
0.0
 32
0.0
 13
1.0
 23
0.0
 33
0.0
 40
0.0
 40
0.0
 40
0.0
 40
0.0
 40
0.5
 40
0.5
 40
1.0
 40
1.0
 40
1.0
 40
1.0
 10
160.2373532823561
 20
96.12179548426055
 30
0.0
 10
160.2373532823561
 20
95.96216331535732
 30
0.0
 10
160.1757167686508
 20
95.80111368159329
 30
0.0
 10
159.9566904024079
 20
95.56812279791669
 30
0.0
 10
159.7990735143605
 20
95.49694278231769
 30
0.0
 10
159.6373532823561
 20
95.49694278231769
 30
0.0
  0
SPLINE
  5
D1
330
1F
100
AcDbEntity
  8
0
  6
Continuous
 62
     7
370
    15
100
AcDbSpline
210
0.0
220
0.0
230
1.0
 70
    24
 71
     3
 72
    12
 73
     8
 74
     0
 42
0.00000001
 43
0.00000001
 12
1.0
 22
0.0
 32
0.0
 13
1.0
 23
0.0
 33
0.0
 40
0.0
 40
0.0
 40
0.0
 40
0.0
 40
0.2499999999999994
 40
0.2499999999999994
 40
0.4999999999999989
 40
0.4999999999999989
 40
1.0
 40
1.0
 40
1.0
 40
1.0
 10
159.6373532823561
 20
126.5758273053471
 30
0.0
 10
159.725540147725
 20
126.5758273053471
 30
0.0
 10
159.8142275410262
 20
126.5758273053471
 30
0.0
 10
159.9684800341451
 20
126.5758273053471
 30
0.0
 10
160.0338260152211
 20
126.5758273053471
 30
0.0
 10
160.1882358851722
 20
126.5758273053471
 30
0.0
 10
160.2373532823561
 20
126.5758273053471
 30
0.0
 10
160.2373532823561
 20
126.5758273053471
 30
0.0
  0
LINE
  5
D2
330
1F
100
AcDbEntity
  8
0
  6
Continuous
 62
     7
370
    15
100
AcDbLine
 10
140.2873532824
 20
95.0258272428
 30
0.0
 11
140.2873532824
 21
134.4258273679
 31
0.0
  0
SPLINE
  5
D3
330
1F
100
AcDbEntity
  8
0
  6
Continuous
 62
     7
370
    15
100
AcDbSpline
210
0.0
220
0.0
230
1.0
 70
     8
 71
     3
 72
    10
 73
     6
 74
     0
 42
0.00000001
 43
0.00000001
 12
1.0
 22
0.0
 32
0.0
 13
1.0
 23
0.0
 33
0.0
 40
0.0
 40
0.0
 40
0.0
 40
0.0
 40
0.5
 40
0.5
 40
1.0
 40
1.0
 40
1.0
 40
1.0
 10
157.3273532823561
 20
97.40299194273972
 30
0.0
 10
157.3273532823561
 20
97.47602522859054
 30
0.0
 10
157.3181166985558
 20
97.55002815380135
 30
0.0
 10
157.2815986110541
 20
97.69253865296852
 30
0.0
 10
157.2540738608339
 20
97.76193141137097
 30
0.0
 10
157.2186954357778
 20
97.82582730534709
 30
0.0
  0
SPLINE
  5
D4
330
1F
100
AcDbEntity
  8
0
  6
Continuous
 62
     7
370
    15
100
AcDbSpline
210
0.0
220
0.0
230
1.0
 70
    24
 71
     3
 72
    14
 73
    10
 74
     0
 42
0.00000001
 43
0.00000001
 12
1.0
 22
0.0
 32
0.0
 13
1.0
 23
0.0
 33
0.0
 40
0.0
 40
0.0
 40
0.0
 40
0.0
 40
0.500000000000003
 40
0.500000000000003
 40
0.7500000000000037
 40
0.7500000000000037
 40
0.8750000000000019
 40
0.8750000000000019
 40
1.0
 40
1.0
 40
1.0
 40
1.0
 10
157.2186954357778
 20
97.82582730534708
 30
0.0
 10
157.1691394148426
 20
97.82582730534708
 30
0.0
 10
157.1048117635802
 20
97.82582730534709
 30
0.0
 10
156.9652064816835
 20
97.82582730534708
 30
0.0
 10
156.9114664155699
 20
97.82582730534708
 30
0.0
 10
156.8041032868053
 20
97.82582730534709
 30
0.0
 10
156.7641591849818
 20
97.82582730534708
 30
0.0
 10
156.6641110888076
 20
97.82582730534708
 30
0.0
 10
156.5992936384007
 20
97.82582730534709
 30
0.0
 10
156.5273532823561
 20
97.82582730534708
 30
0.0
  0
SPLINE
  5
D5
330
1F
100
AcDbEntity
  8
0
  6
Continuous
 62
     7
370
    15
100
AcDbSpline
210
0.0
220
0.0
230
1.0
 70
    24
 71
     3
 72
    14
 73
    10
 74
     0
 42
0.00000001
 43
0.00000001
 12
1.0
 22
0.0
 32
0.0
 13
1.0
 23
0.0
 33
0.0
 40
0.0
 40
0.0
 40
0.0
 40
0.0
 40
0.1249999999999999
 40
0.1249999999999999
 40
0.2499999999999998
 40
0.2499999999999998
 40
0.4999999999999996
 40
0.4999999999999996
 40
1.0
 40
1.0
 40
1.0
 40
1.0
 10
156.5273532823562
 20
126.5758273053471
 30
0.0
 10
156.5888327631879
 20
126.5758273053471
 30
0.0
 10
156.6518567442311
 20
126.5758273053471
 30
0.0
 10
156.7692814604286
 20
126.5758273053471
 30
0.0
 10
156.82417425589
 20
126.5758273053471
 30
0.0
 10
156.9790749607078
 20
126.5758273053471
 30
0.0
 10
157.0644949388458
 20
126.5758273053471
 30
0.0
 10
157.2637494596478
 20
126.5758273053471
 30
0.0
 10
157.3273532823562
 20
126.5758273053471
 30
0.0
 10
157.3273532823562
 20
126.5758273053471
 30
0.0
  0
SPLINE
  5
D6
330
1F
100
AcDbEntity
  8
0
  6
Continuous
 62
     7
370
    15
100
AcDbSpline
210
0.0
220
0.0
230
1.0
 70
    24
 71
     3
 72
    14
 73
    10
 74
     0
 42
0.00000001
 43
0.00000001
 12
1.0
 22
0.0
 32
0.0
 13
1.0
 23
0.0
 33
0.0
 40
0.0
 40
0.0
 40
0.0
 40
0.0
 40
0.1249999999999997
 40
0.1249999999999997
 40
0.2499999999999994
 40
0.2499999999999994
 40
0.5000000000000004
 40
0.5000000000000004
 40
1.0
 40
1.0
 40
1.0
 40
1.0
 10
156.0473532823561
 20
97.82582730534709
 30
0.0
 10
155.9749821994194
 20
97.82582730534709
 30
0.0
 10
155.9112231152243
 20
97.82582730534709
 30
0.0
 10
155.811080163688
 20
97.82582730534708
 30
0.0
 10
155.7708887006407
 20
97.82582730534708
 30
0.0
 10
155.66403627603
 20
97.82582730534708
 30
0.0
 10
155.6110311271839
 20
97.82582730534708
 30
0.0
 10
155.4706012099588
 20
97.82582730534708
 30
0.0
 10
155.4054635910106
 20
97.82582730534708
 30
0.0
 10
155.3560111289344
 20
97.82582730534708
 30
0.0
  0
SPLINE
  5
D7
330
1F
100
AcDbEntity
  8
0
  6
Continuous
 62
     7
370
    15
100
AcDbSpline
210
0.0
220
0.0
230
1.0
 70
     8
 71
     3
 72
    10
 73
     6
 74
     0
 42
0.00000001
 43
0.00000001
 12
1.0
 22
0.0
 32
0.0
 13
1.0
 23
0.0
 33
0.0
 40
0.0
 40
0.0
 40
0.0
 40
0.0
 40
0.5
 40
0.5
 40
1.0
 40
1.0
 40
1.0
 40
1.0
 10
155.3560111289344
 20
97.82582730534709
 30
0.0
 10
155.3202311154294
 20
97.76120611472717
 30
0.0
 10
155.2928494053515
 20
97.69167948916862
 30
0.0
 10
155.2566269079815
 20
97.55002197865124
 30
0.0
 10
155.2473532823561
 20
97.47667454191874
 30
0.0
 10
155.2473532823561
 20
97.40299194273972
 30
0.0
  0
SPLINE
  5
D8
330
1F
100
AcDbEntity
  8
0
  6
Continuous
 62
     7
370
    15
100
AcDbSpline
210
0.0
220
0.0
230
1.0
 70
    24
 71
     3
 72
    14
 73
    10
 74
     0
 42
0.00000001
 43
0.00000001
 12
1.0
 22
0.0
 32
0.0
 13
1.0
 23
0.0
 33
0.0
 40
0.0
 40
0.0
 40
0.0
 40
0.0
 40
0.25
 40
0.25
 40
0.5
 40
0.5
 40
0.75
 40
0.75
 40
1.0
 40
1.0
 40
1.0
 40
1.0
 10
155.2473532823561
 20
126.5758273053471
 30
0.0
 10
155.2473532823561
 20
126.5758273053471
 30
0.0
 10
155.2632958815792
 20
126.5758273053471
 30
0.0
 10
155.3285238468594
 20
126.5758273053471
 30
0.0
 10
155.3770520336462
 20
126.5758273053471
 30
0.0
 10
155.5108834587708
 20
126.5758273053471
 30
0.0
 10
155.5963254391025
 20
126.5758273053471
 30
0.0
 10
155.8029295048142
 20
126.5758273053471
 30
0.0
 10
155.9242179910786
 20
126.5758273053471
 30
0.0
 10
156.0473532823561
 20
126.5758273053471
 30
0.0
  0
LINE
  5
D9
330
1F
100
AcDbEntity
  8
0
  6
Continuous
 62
     7
370
    15
100
AcDbLine
 10
156.5273540071
 20
97.8258280742
 30
0.0
 11
156.0473540775
 21
97.8258280742
 31
0.0
  0
LINE
  5
DA
330
1F
100
AcDbEntity
  8
0
  6
Continuous
 62
     7
370
    15
100
AcDbLine
 10
156.0473540775
 20
126.5758276645
 30
0.0
 11
156.5273540071
 21
126.5758276645
 31
0.0
  0
LINE
  5
DB
330
1F
100
AcDbEntity
  8
0
  6
Continuous
 62
     7
370
    15
100
AcDbLine
 10
126.4873534418
 20
100.2133088845
 30
0.0
 11
126.4873534418
 21
101.1222508464
 31
0.0
  0
SPLINE
  5
DC
330
1F
100
AcDbEntity
  8
0
  6
Continuous
 62
     7
370
    15
100
AcDbSpline
210
0.0
220
0.0
230
1.0
 70
     8
 71
     3
 72
    10
 73
     6
 74
     0
 42
0.00000001
 43
0.00000001
 12
1.0
 22
0.0
 32
0.0
 13
1.0
 23
0.0
 33
0.0
 40
0.0
 40
0.0
 40
0.0
 40
0.0
 40
0.5
 40
0.5
 40
1.0
 40
1.0
 40
1.0
 40
1.0
 10
126.1961180798709
 20
101.7918239581391
 30
0.0
 10
126.2339924828156
 20
101.6656618500865
 30
0.0
 10
126.3147835301414
 20
101.5477028091046
 30
0.0
 10
126.4399134727328
 20
101.3246568265156
 30
0.0
 10
126.4873532823562
 20
101.2198617530203
 30
0.0
 10
126.4873532823562
 20
101.1222511196229
 30
0.0
  0
SPLINE
  5
DD
330
1F
100
AcDbEntity
  8
0
  6
Continuous
 62
     7
370
    15
100
AcDbSpline
210
0.0
220
0.0
230
1.0
 70
     8
 71
     3
 72
    16
 73
    12
 74
     0
 42
0.00000001
 43
0.00000001
 12
1.0
 22
0.0
 32
0.0
 13
1.0
 23
0.0
 33
0.0
 40
0.0
 40
0.0
 40
0.0
 40
0.0
 40
0.0624999999999999
 40
0.0624999999999999
 40
0.1249999999999999
 40
0.1249999999999999
 40
0.2499999999999998
 40
0.2499999999999998
 40
0.4999999999999999
 40
0.4999999999999999
 40
1.0
 40
1.0
 40
1.0
 40
1.0
 10
125.5873532823561
 20
102.4419540067942
 30
0.0
 10
125.6186690816834
 20
102.4445586286863
 30
0.0
 10
125.6513834201091
 20
102.4427897282263
 30
0.0
 10
125.7126899735859
 20
102.4312548337764
 30
0.0
 10
125.7412008638039
 20
102.4217278564301
 30
0.0
 10
125.8170948371602
 20
102.3882142563052
 30
0.0
 10
125.8564344221932
 20
102.3598267419853
 30
0.0
 10
125.9578702031746
 20
102.2718057917775
 30
0.0
 10
126.0026955627806
 20
102.2101731395703
 30
0.0
 10
126.1169779177458
 20
102.0267849458951
 30
0.0
 10
126.1617918255886
 20
101.9061669514303
 30
0.0
 10
126.1961180798709
 20
101.7918239581391
 30
0.0
  0
SPLINE
  5
DE
330
1F
100
AcDbEntity
  8
0
  6
Continuous
 62
     7
370
    15
100
AcDbSpline
210
0.0
220
0.0
230
1.0
 70
     8
 71
     3
 72
    10
 73
     6
 74
     0
 42
0.00000001
 43
0.00000001
 12
1.0
 22
0.0
 32
0.0
 13
1.0
 23
0.0
 33
0.0
 40
0.0
 40
0.0
 40
0.0
 40
0.0
 40
0.5
 40
0.5
 40
1.0
 40
1.0
 40
1.0
 40
1.0
 10
121.4975618476405
 20
102.0146470428959
 30
0.0
 10
122.1613769533242
 20
102.1083562299608
 30
0.0
 10
122.8393646216019
 20
102.184174426386
 30
0.0
 10
124.2057903136475
 20
102.3226186240339
 30
0.0
 10
124.8949267500139
 20
102.3843629714852
 30
0.0
 10
125.5873532823561
 20
102.4419540067942
 30
0.0
  0
SPLINE
  5
DF
330
1F
100
AcDbEntity
  8
0
  6
Continuous
 62
     7
370
    15
100
AcDbSpline
210
0.0
220
0.0
230
1.0
 70
     8
 71
     3
 72
     8
 73
     4
 74
     0
 42
0.00000001
 43
0.00000001
 12
1.0
 22
0.0
 32
0.0
 13
1.0
 23
0.0
 33
0.0
 40
0.0000002108190109
 40
0.0000002108190109
 40
0.0000002108190109
 40
0.0000002108190109
 40
0.0001710235456397
 40
0.0001710235456397
 40
0.0001710235456397
 40
0.0001710235456397
 10
121.3373532823561
 20
101.9952917543877
 30
0.0
 10
121.391341468446
 20
102.0009218969913
 30
0.0
 10
121.4449311285218
 20
102.0072172904528
 30
0.0
 10
121.4975618476405
 20
102.0146470428959
 30
0.0
  0
SPLINE
  5
E0
330
1F
100
AcDbEntity
  8
0
  6
Continuous
 62
     7
370
    15
100
AcDbSpline
210
0.0
220
0.0
230
1.0
 70
     8
 71
     3
 72
     8
 73
     4
 74
     0
 42
0.00000001
 43
0.00000001
 12
1.0
 22
0.0
 32
0.0
 13
1.0
 23
0.0
 33
0.0
 40
0.000003532078448
 40
0.000003532078448
 40
0.000003532078448
 40
0.000003532078448
 40
0.0000638548434643
 40
0.0000638548434643
 40
0.0000638548434643
 40
0.0000638548434643
 10
121.3288371327871
 20
102.0226496058035
 30
0.0
 10
121.3313863039092
 20
102.0134884024648
 30
0.0
 10
121.334228226691
 20
102.0043673991561
 30
0.0
 10
121.3373532823561
 20
101.9952917543877
 30
0.0
  0
ELLIPSE
  5
E1
330
1F
100
AcDbEntity
  8
0
  6
Continuous
 62
     7
370
    15
100
AcDbEllipse
 10
107.8606110745
 20
114.0865296276
 30
0.0
 11
13.37355272666618
 21
-13.37146352987012
 31
0.0
210
0.0
220
0.0
230
1.0
 40
0.1761188775
 41
0.3023035477142414
 42
0.3822730435340361
  0
ELLIPSE
  5
E2
330
1F
100
AcDbEntity
  8
0
  6
Continuous
 62
     7
370
    15
100
AcDbEllipse
 10
107.7812326438
 20
115.3649377567
 30
0.0
 11
13.36963611134301
 21
13.36754752639486
 31
0.0
210
0.0
220
0.0
230
1.0
 40
0.1761188775
 41
5.933076931846593
 42
5.976720052691192
  0
SPLINE
  5
E3
330
1F
100
AcDbEntity
  8
0
  6
Continuous
 62
     7
370
    15
100
AcDbSpline
210
0.0
220
0.0
230
1.0
 70
     8
 71
     3
 72
     8
 73
     4
 74
     0
 42
0.00000001
 43
0.00000001
 12
1.0
 22
0.0
 32
0.0
 13
1.0
 23
0.0
 33
0.0
 40
0.0
 40
0.0
 40
0.0
 40
0.0
 40
1.0
 40
1.0
 40
1.0
 40
1.0
 10
121.3373532823561
 20
127.5914078523254
 30
0.0
 10
121.2915883746668
 20
127.5298874731666
 30
0.0
 10
121.2572012530368
 20
127.4659926134172
 30
0.0
 10
121.2381859993639
 20
127.3992626683734
 30
0.0
  0
SPLINE
  5
E4
330
1F
100
AcDbEntity
  8
0
  6
Continuous
 62
     7
370
    15
100
AcDbSpline
210
0.0
220
0.0
230
1.0
 70
     8
 71
     3
 72
    12
 73
     8
 74
     0
 42
0.00000001
 43
0.00000001
 12
1.0
 22
0.0
 32
0.0
 13
1.0
 23
0.0
 33
0.0
 40
0.0
 40
0.0
 40
0.0
 40
0.0
 40
0.2499999999999984
 40
0.2499999999999984
 40
0.4999999999999969
 40
0.4999999999999969
 40
1.0
 40
1.0
 40
1.0
 40
1.0
 10
123.0873532823561
 20
127.5066211640062
 30
0.0
 10
122.9453108791669
 20
127.5224468921824
 30
0.0
 10
122.8011927726628
 20
127.5334680259578
 30
0.0
 10
122.5114382589902
 20
127.552004387825
 30
0.0
 10
122.3656963556315
 20
127.5592750935607
 30
0.0
 10
121.9270161164517
 20
127.5777359438887
 30
0.0
 10
121.6326405003804
 20
127.5856148107123
 30
0.0
 10
121.3373532823561
 20
127.5914078523254
 30
0.0
  0
SPLINE
  5
E5
330
1F
100
AcDbEntity
  8
0
  6
Continuous
 62
     7
370
    15
100
AcDbSpline
210
0.0
220
0.0
230
1.0
 70
     8
 71
     3
 72
    20
 73
    16
 74
     0
 42
0.00000001
 43
0.00000001
 12
1.0
 22
0.0
 32
0.0
 13
1.0
 23
0.0
 33
0.0
 40
0.0
 40
0.0
 40
0.0
 40
0.0
 40
0.2499999999999996
 40
0.2499999999999996
 40
0.4999999999999992
 40
0.4999999999999992
 40
0.7499999999999989
 40
0.7499999999999989
 40
0.8749999999999991
 40
0.8749999999999991
 40
0.9375000000000012
 40
0.9375000000000012
 40
0.9687500000000006
 40
0.9687500000000006
 40
1.0
 40
1.0
 40
1.0
 40
1.0
 10
123.987353282357
 20
128.2833514270949
 30
0.0
 10
123.987353282357
 20
128.2227420273975
 30
0.0
 10
123.9619582627801
 20
128.156916061994
 30
0.0
 10
123.8756650769982
 20
128.0228682926474
 30
0.0
 10
123.8150290983149
 20
127.9541729345056
 30
0.0
 10
123.6669273040937
 20
127.8137743828512
 30
0.0
 10
123.580157697315
 20
127.7420708782698
 30
0.0
 10
123.4315199019858
 20
127.635907476521
 30
0.0
 10
123.3792306850996
 20
127.6003791278894
 30
0.0
 10
123.2884668567897
 20
127.5506751973739
 30
0.0
 10
123.2561008643377
 20
127.5344141993588
 30
0.0
 10
123.1984117086715
 20
127.5153016310129
 30
0.0
 10
123.177424680784
 20
127.5099104889313
 30
0.0
 10
123.1321357017936
 20
127.5041731205388
 30
0.0
 10
123.1091214329551
 20
127.5041958541923
 30
0.0
 10
123.0873532823555
 20
127.5066211640051
 30
0.0
  0
LINE
  5
E6
330
1F
100
AcDbEntity
  8
0
  6
Continuous
 62
     7
370
    15
100
AcDbLine
 10
123.987353032
 20
128.2833517257
 30
0.0
 11
123.987353032
 21
129.1130949471
 31
0.0
  0
LINE
  5
E7
330
1F
100
AcDbEntity
  8
0
  6
Continuous
 62
     7
370
    15
100
AcDbLine
 10
138.2873531874
 20
99.6221267346
 30
0.0
 11
138.2873531874
 21
129.8295278761
 31
0.0
  0
SPLINE
  5
E8
330
1F
100
AcDbEntity
  8
0
  6
Continuous
 62
     7
370
    15
100
AcDbSpline
210
0.0
220
0.0
230
1.0
 70
     8
 71
     3
 72
    19
 73
    15
 74
     0
 42
0.00000001
 43
0.00000001
 12
1.0
 22
0.0
 32
0.0
 13
1.0
 23
0.0
 33
0.0
 40
0.0
 40
0.0
 40
0.0
 40
0.0
 40
0.002549754119073
 40
0.1292098037553458
 40
0.2547332789544007
 40
0.3167971991224005
 40
0.3792067026767666
 40
0.4413224870934055
 40
0.5025823507797746
 40
0.5637456018918894
 40
0.6262968951018671
 40
0.7506352179003669
 40
0.876150330236657
 40
1.0
 40
1.0
 40
1.0
 40
1.0
 10
131.5078517399072
 20
99.96258287760651
 30
0.0
 10
131.5064466507413
 20
99.96238664660072
 30
0.0
 10
131.4352431986087
 20
99.95244256236178
 30
0.0
 10
131.6914444244225
 20
99.98991033000445
 30
0.0
 10
132.1693611587397
 20
100.0501214699257
 30
0.0
 10
132.7400413693574
 20
100.094621827931
 30
0.0
 10
133.224799683921
 20
100.115140573935
 30
0.0
 10
133.7490617995944
 20
100.1192229611947
 30
0.0
 10
134.2917021688891
 20
100.1012340716591
 30
0.0
 10
134.8330314188546
 20
100.0614063672482
 30
0.0
 10
135.5241698420161
 20
99.98316886365002
 30
0.0
 10
136.2838772851836
 20
99.856295655097
 30
0.0
 10
136.9008046570138
 20
99.71557998941974
 30
0.0
 10
136.979615335988
 20
99.69613621773776
 30
0.0
 10
137.0187574974536
 20
99.6864792618457
 30
0.0
  0
SPLINE
  5
E9
330
1F
100
AcDbEntity
  8
0
  6
Continuous
 62
     7
370
    15
100
AcDbSpline
210
0.0
220
0.0
230
1.0
 70
     8
 71
     3
 72
    19
 73
    15
 74
     0
 42
0.00000001
 43
0.00000001
 12
1.0
 22
0.0
 32
0.0
 13
1.0
 23
0.0
 33
0.0
 40
0.0
 40
0.0
 40
0.0
 40
0.0
 40
0.1239857434748726
 40
0.2498853271918834
 40
0.3738746559939973
 40
0.4361430298892071
 40
0.4973075840942315
 40
0.558580472682361
 40
0.6208204642100977
 40
0.6832870159435721
 40
0.7454903093728653
 40
0.8710698115866411
 40
0.9976597620353944
 40
1.0
 40
1.0
 40
1.0
 40
1.0
 10
137.0186159364222
 20
129.765125988752
 30
0.0
 10
136.9788535282858
 20
129.7554431214583
 30
0.0
 10
136.8987149406656
 20
129.7359279224199
 30
0.0
 10
136.2819554742466
 20
129.5949750349956
 30
0.0
 10
135.5231257698321
 20
129.4680156828256
 30
0.0
 10
134.8333801273816
 20
129.3901042026139
 30
0.0
 10
134.2927637139601
 20
129.350466415902
 30
0.0
 10
133.7497624682218
 20
129.3325082814333
 30
0.0
 10
133.22496498109
 20
129.3366053545441
 30
0.0
 10
132.7393533797366
 20
129.3571302090156
 30
0.0
 10
132.1678571082678
 20
129.4016110180917
 30
0.0
 10
131.6903590039523
 20
129.4618344927007
 30
0.0
 10
131.435261464888
 20
129.4992522682537
 30
0.0
 10
131.5060984396969
 20
129.4892943900674
 30
0.0
 10
131.5073842159747
 20
129.4891136426035
 30
0.0
  0
SPLINE
  5
EA
330
1F
100
AcDbEntity
  8
0
  6
Continuous
 62
     7
370
    15
100
AcDbSpline
210
0.0
220
0.0
230
1.0
 70
     8
 71
     3
 72
    26
 73
    22
 74
     0
 42
0.00000001
 43
0.00000001
 12
1.0
 22
0.0
 32
0.0
 13
1.0
 23
0.0
 33
0.0
 40
0.0
 40
0.0
 40
0.0
 40
0.0
 40
0.2499999999999956
 40
0.2499999999999956
 40
0.3749999999999938
 40
0.3749999999999938
 40
0.4374999999999929
 40
0.4374999999999929
 40
0.4687499999999931
 40
0.4687499999999931
 40
0.4999999999999932
 40
0.4999999999999932
 40
0.5312499999999933
 40
0.5312499999999933
 40
0.5624999999999934
 40
0.5624999999999934
 40
0.6249999999999947
 40
0.6249999999999947
 40
0.7499999999999962
 40
0.7499999999999962
 40
1.0
 40
1.0
 40
1.0
 40
1.0
 10
121.147323328744
 20
127.11390788496
 30
0.0
 10
121.0999352193155
 20
126.9782521429369
 30
0.0
 10
121.0422939174111
 20
126.8342907446077
 30
0.0
 10
120.9202461048678
 20
126.5915181713533
 30
0.0
 10
120.8741970970913
 20
126.5064785309039
 30
0.0
 10
120.7835438129257
 20
126.3661025578635
 30
0.0
 10
120.7491913126401
 20
126.3161911805247
 30
0.0
 10
120.6867561402496
 20
126.2396559156704
 30
0.0
 10
120.6634621214515
 20
126.2132514366835
 30
0.0
 10
120.614409584325
 20
126.1656566714225
 30
0.0
 10
120.5899781346681
 20
126.1462140575706
 30
0.0
 10
120.5493485390483
 20
126.1213062799025
 30
0.0
 10
120.5331862571971
 20
126.1152364485915
 30
0.0
 10
120.506204213094
 20
126.1095475769977
 30
0.0
 10
120.4954546902711
 20
126.1099380850785
 30
0.0
 10
120.4674187161141
 20
126.1160804318669
 30
0.0
 10
120.4545574840814
 20
126.1267444382849
 30
0.0
 10
120.4235546229211
 20
126.1657572286451
 30
0.0
 10
120.412695140852
 20
126.2018092190495
 30
0.0
 10
120.389417884914
 20
126.3194886165486
 30
0.0
 10
120.387353282356
 20
126.4108185168816
 30
0.0
 10
120.387353282356
 20
126.5040587697878
 30
0.0
  0
SPLINE
  5
EB
330
1F
100
AcDbEntity
  8
0
  6
Continuous
 62
     7
370
    15
100
AcDbSpline
210
0.0
220
0.0
230
1.0
 70
     8
 71
     3
 72
    24
 73
    20
 74
     0
 42
0.00000001
 43
0.00000001
 12
1.0
 22
0.0
 32
0.0
 13
1.0
 23
0.0
 33
0.0
 40
0.0
 40
0.0
 40
0.0
 40
0.0
 40
0.2499999999999976
 40
0.2499999999999976
 40
0.3749999999999963
 40
0.3749999999999963
 40
0.4374999999999964
 40
0.4374999999999964
 40
0.4999999999999966
 40
0.4999999999999966
 40
0.5312499999999972
 40
0.5312499999999972
 40
0.5624999999999979
 40
0.5624999999999979
 40
0.6249999999999992
 40
0.6249999999999992
 40
0.7499999999999993
 40
0.7499999999999993
 40
1.0
 40
1.0
 40
1.0
 40
1.0
 10
120.3873532823561
 20
103.1783141041257
 30
0.0
 10
120.3873532823561
 20
103.2632230577953
 30
0.0
 10
120.3900779107885
 20
103.3455527538422
 30
0.0
 10
120.4164352319064
 20
103.4479651412612
 30
0.0
 10
120.4286489501786
 20
103.4787822376456
 30
0.0
 10
120.463259600311
 20
103.5078797537226
 30
0.0
 10
120.4776463106784
 20
103.5148373943612
 30
0.0
 10
120.5188947937808
 20
103.5137276530843
 30
0.0
 10
120.5474343437117
 20
103.5054342474756
 30
0.0
 10
120.608357009223
 20
103.4608508136143
 30
0.0
 10
120.6314229793629
 20
103.440389100357
 30
0.0
 10
120.6753188593691
 20
103.3957764820767
 30
0.0
 10
120.6961988949293
 20
103.3719004038703
 30
0.0
 10
120.7534091582224
 20
103.3020033067083
 30
0.0
 10
120.7857557819988
 20
103.2564257179238
 30
0.0
 10
120.8719217254906
 20
103.1275422303049
 30
0.0
 10
120.9175857455306
 20
103.0477090531729
 30
0.0
 10
121.0381333089818
 20
102.8219282440606
 30
0.0
 10
121.097193397683
 20
102.6870968590892
 30
0.0
 10
121.147323328744
 20
102.5588417204217
 30
0.0
  0
LINE
  5
EC
330
1F
100
AcDbEntity
  8
0
  6
Continuous
 62
     7
370
    15
100
AcDbLine
 10
120.3873535595
 20
103.1783139992
 30
0.0
 11
120.3873535595
 21
126.5040590155
 31
0.0
  0
SPLINE
  5
ED
330
1F
100
AcDbEntity
  8
0
  6
Continuous
 62
     7
370
    15
100
AcDbSpline
210
0.0
220
0.0
230
1.0
 70
     8
 71
     3
 72
    14
 73
    10
 74
     0
 42
0.00000001
 43
0.00000001
 12
1.0
 22
0.0
 32
0.0
 13
1.0
 23
0.0
 33
0.0
 40
0.0
 40
0.0
 40
0.0
 40
0.0
 40
0.25
 40
0.25
 40
0.5
 40
0.5
 40
0.75
 40
0.75
 40
1.0
 40
1.0
 40
1.0
 40
1.0
 10
224.589334246293
 20
127.1022305867841
 30
0.0
 10
224.2567950566393
 20
127.1022305867841
 30
0.0
 10
223.9334256667722
 20
127.0950116180769
 30
0.0
 10
223.3049999971726
 20
127.0620229429111
 30
0.0
 10
223.0160539432631
 20
127.0369735274838
 30
0.0
 10
222.4924822600234
 20
126.9595044909922
 30
0.0
 10
222.2698709404406
 20
126.9086278826909
 30
0.0
 10
221.9076291741281
 20
126.7717296488865
 30
0.0
 10
221.7750815994263
 20
126.6881300506157
 30
0.0
 10
221.6915567674258
 20
126.5865234508108
 30
0.0
  0
ELLIPSE
  5
EE
330
1F
100
AcDbEntity
  8
0
  6
Continuous
 62
     7
370
    15
100
AcDbEllipse
 10
222.5247187683
 20
114.7258273053
 30
0.0
 11
0.2516063682710694
 21
12.49981921343802
 31
0.0
210
0.0
220
0.0
230
1.0
 40
0.2671959542
 41
0.3265832336789062
 42
2.965392324511972
  0
SPLINE
  5
EF
330
1F
100
AcDbEntity
  8
0
  6
Continuous
 62
     7
370
    15
100
AcDbSpline
210
0.0
220
0.0
230
1.0
 70
     8
 71
     3
 72
    14
 73
    10
 74
     0
 42
0.00000001
 43
0.00000001
 12
1.0
 22
0.0
 32
0.0
 13
1.0
 23
0.0
 33
0.0
 40
0.0
 40
0.0
 40
0.0
 40
0.0
 40
0.25
 40
0.25
 40
0.5
 40
0.5
 40
0.75
 40
0.75
 40
1.0
 40
1.0
 40
1.0
 40
1.0
 10
221.6915567674258
 20
102.4313291938168
 30
0.0
 10
221.7750780434033
 20
102.373213893203
 30
0.0
 10
221.9064035210009
 20
102.3311890846719
 30
0.0
 10
222.2690419083952
 20
102.2703177537391
 30
0.0
 10
222.4910261391532
 20
102.2529805690357
 30
0.0
 10
223.0144076826294
 20
102.2319305711772
 30
0.0
 10
223.3039081422895
 20
102.2285874410227
 30
0.0
 10
223.931314889633
 20
102.2255497011762
 30
0.0
 10
224.2567957594032
 20
102.2258350767632
 30
0.0
 10
224.589334246293
 20
102.2258350767632
 30
0.0
  0
LINE
  5
F0
330
1F
100
AcDbEntity
  8
0
  6
Continuous
 62
     7
370
    15
100
AcDbLine
 10
224.589331632
 20
102.225835501
 30
0.0
 11
226.287356203
 21
102.225835501
 31
0.0
  0
LINE
  5
F1
330
1F
100
AcDbEntity
  8
0
  6
Continuous
 62
     7
370
    15
100
AcDbLine
 10
226.287356203
 20
127.2258274916
 30
0.0
 11
226.287356203
 21
127.1022307414
 31
0.0
  0
LINE
  5
F2
330
1F
100
AcDbEntity
  8
0
  6
Continuous
 62
     7
370
    15
100
AcDbLine
 10
226.287356203
 20
127.1022307414
 30
0.0
 11
224.589331632
 21
127.1022307414
 31
0.0
  0
ELLIPSE
  5
F3
330
1F
100
AcDbEntity
  8
0
  6
Continuous
 62
     7
370
    15
100
AcDbEllipse
 10
220.6701145855
 20
109.1706230092
 30
0.0
 11
-0.0703125984377948
 21
2.263843720993492
 31
0.0
210
0.0
220
0.0
230
1.0
 40
0.2654103329
 41
0.0
 42
6.283185307179586
  0
SPLINE
  5
F4
330
1F
100
AcDbEntity
  8
0
  6
Continuous
 62
     7
370
    15
100
AcDbSpline
210
0.0
220
0.0
230
1.0
 70
    24
 71
     3
 72
    12
 73
     8
 74
     0
 42
0.00000001
 43
0.00000001
 12
1.0
 22
0.0
 32
0.0
 13
1.0
 23
0.0
 33
0.0
 40
0.0
 40
0.0
 40
0.0
 40
0.0
 40
0.5000000000000047
 40
0.5000000000000047
 40
0.7500000000000023
 40
0.7500000000000023
 40
1.0
 40
1.0
 40
1.0
 40
1.0
 10
156.9386963365864
 20
131.6258273053471
 30
0.0
 10
156.8962777689887
 20
131.6258273053471
 30
0.0
 10
156.8480604883154
 20
131.6258273053471
 30
0.0
 10
156.7536654959606
 20
131.6258273053471
 30
0.0
 10
156.7185886830143
 20
131.6258273053471
 30
0.0
 10
156.6335184039667
 20
131.6258273053471
 30
0.0
 10
156.5820642142062
 20
131.6258273053471
 30
0.0
 10
156.5273532823561
 20
131.6258273053471
 30
0.0
  0
SPLINE
  5
F5
330
1F
100
AcDbEntity
  8
0
  6
Continuous
 62
     7
370
    15
100
AcDbSpline
210
0.0
220
0.0
230
1.0
 70
     8
 71
     3
 72
    10
 73
     6
 74
     0
 42
0.00000001
 43
0.00000001
 12
1.0
 22
0.0
 32
0.0
 13
1.0
 23
0.0
 33
0.0
 40
0.0
 40
0.0
 40
0.0
 40
0.0
 40
0.5
 40
0.5
 40
1.0
 40
1.0
 40
1.0
 40
1.0
 10
157.3273532823562
 20
132.334933614299
 30
0.0
 10
157.327353282356
 20
132.1945818160511
 30
0.0
 10
157.2918950906395
 20
132.0533392849735
 30
0.0
 10
157.1569942454485
 20
131.805696699893
 30
0.0
 10
157.0578065551933
 20
131.6997216214618
 30
0.0
 10
156.9386963365865
 20
131.6258273053471
 30
0.0
  0
SPLINE
  5
F6
330
1F
100
AcDbEntity
  8
0
  6
Continuous
 62
     7
370
    15
100
AcDbSpline
210
0.0
220
0.0
230
1.0
 70
     8
 71
     3
 72
    12
 73
     8
 74
     0
 42
0.00000001
 43
0.00000001
 12
1.0
 22
0.0
 32
0.0
 13
1.0
 23
0.0
 33
0.0
 40
0.0
 40
0.0
 40
0.0
 40
0.0
 40
0.25
 40
0.25
 40
0.5
 40
0.5
 40
1.0
 40
1.0
 40
1.0
 40
1.0
 10
156.5273532823562
 20
127.4328381654983
 30
0.0
 10
156.6506855172979
 20
127.4328381654983
 30
0.0
 10
156.7732260844544
 20
127.4741496025295
 30
0.0
 10
156.97911262361
 20
127.6100067485192
 30
0.0
 10
157.0638706632146
 20
127.7022236892563
 30
0.0
 10
157.265184018512
 20
128.0145336779481
 30
0.0
 10
157.3273532823561
 20
128.2608134371569
 30
0.0
 10
157.3273532823561
 20
128.5065429979372
 30
0.0
  0
SPLINE
  5
F7
330
1F
100
AcDbEntity
  8
0
  6
Continuous
 62
     7
370
    15
100
AcDbSpline
210
0.0
220
0.0
230
1.0
 70
     8
 71
     3
 72
     8
 73
     4
 74
     0
 42
0.00000001
 43
0.00000001
 12
1.0
 22
0.0
 32
0.0
 13
1.0
 23
0.0
 33
0.0
 40
0.0
 40
0.0
 40
0.0
 40
0.0
 40
1.0
 40
1.0
 40
1.0
 40
1.0
 10
154.2521935834627
 20
130.8372363064246
 30
0.0
 10
154.5916166247443
 20
130.1074454449052
 30
0.0
 10
154.9241273682394
 20
129.3752770894835
 30
0.0
 10
155.2473532823561
 20
128.6399152048025
 30
0.0
  0
LINE
  5
F8
330
1F
100
AcDbEntity
  8
0
  6
Continuous
 62
     7
370
    15
100
AcDbLine
 10
155.2473535738
 20
128.6399150926
 30
0.0
 11
155.2473535738
 21
128.5065431807
 31
0.0
  0
SPLINE
  5
F9
330
1F
100
AcDbEntity
  8
0
  6
Continuous
 62
     7
370
    15
100
AcDbSpline
210
0.0
220
0.0
230
1.0
 70
     8
 71
     3
 72
    14
 73
    10
 74
     0
 42
0.00000001
 43
0.00000001
 12
1.0
 22
0.0
 32
0.0
 13
1.0
 23
0.0
 33
0.0
 40
0.0
 40
0.0
 40
0.0
 40
0.0
 40
0.25
 40
0.25
 40
0.5
 40
0.5
 40
0.75
 40
0.75
 40
1.0
 40
1.0
 40
1.0
 40
1.0
 10
155.2473532823561
 20
128.5065429979372
 30
0.0
 10
155.2473532823561
 20
128.383697788671
 30
0.0
 10
155.2636781213442
 20
128.2602009733848
 30
0.0
 10
155.3281629282168
 20
128.0246788702011
 30
0.0
 10
155.3773882592789
 20
127.9092099256424
 30
0.0
 10
155.5102765565298
 20
127.7031309265182
 30
0.0
 10
155.5956184741426
 20
127.6099822245146
 30
0.0
 10
155.8015257539498
 20
127.4741280664011
 30
0.0
 10
155.9245859886852
 20
127.4328381654983
 30
0.0
 10
156.0473532823561
 20
127.4328381654983
 30
0.0
  0
LINE
  5
FA
330
1F
100
AcDbEntity
  8
0
  6
Continuous
 62
     7
370
    15
100
AcDbLine
 10
156.0473540775
 20
127.4328381482
 30
0.0
 11
156.5273540071
 21
127.4328381482
 31
0.0
  0
LINE
  5
FB
330
1F
100
AcDbEntity
  8
0
  6
Continuous
 62
     7
370
    15
100
AcDbLine
 10
157.3273526482
 20
128.5065431807
 30
0.0
 11
157.3273526482
 21
128.6399150926
 31
0.0
  0
SPLINE
  5
FC
330
1F
100
AcDbEntity
  8
0
  6
Continuous
 62
     7
370
    15
100
AcDbSpline
210
0.0
220
0.0
230
1.0
 70
     8
 71
     3
 72
     8
 73
     4
 74
     0
 42
0.00000001
 43
0.00000001
 12
1.0
 22
0.0
 32
0.0
 13
1.0
 23
0.0
 33
0.0
 40
0.0
 40
0.0
 40
0.0
 40
0.0
 40
1.0
 40
1.0
 40
1.0
 40
1.0
 10
157.3273532823561
 20
128.6399152048024
 30
0.0
 10
157.650910840611
 20
129.376031603425
 30
0.0
 10
157.983405160828
 20
130.1081231988437
 30
0.0
 10
158.3225129812496
 20
130.8372363064246
 30
0.0
  0
LINE
  5
FD
330
1F
100
AcDbEntity
  8
0
  6
Continuous
 62
     7
370
    15
100
AcDbLine
 10
158.32251366
 20
130.837236597
 30
0.0
 11
159.6373530082
 21
130.837236597
 31
0.0
  0
SPLINE
  5
FE
330
1F
100
AcDbEntity
  8
0
  6
Continuous
 62
     7
370
    15
100
AcDbSpline
210
0.0
220
0.0
230
1.0
 70
     8
 71
     3
 72
    12
 73
     8
 74
     0
 42
0.00000001
 43
0.00000001
 12
1.0
 22
0.0
 32
0.0
 13
1.0
 23
0.0
 33
0.0
 40
0.0
 40
0.0
 40
0.0
 40
0.0
 40
0.2499999999999994
 40
0.2499999999999994
 40
0.4999999999999989
 40
0.4999999999999989
 40
1.0
 40
1.0
 40
1.0
 40
1.0
 10
159.6373532823561
 20
130.8372363064246
 30
0.0
 10
159.7266416413999
 20
130.8372363064246
 30
0.0
 10
159.8147004723021
 20
130.8116116738198
 30
0.0
 10
159.9673541855512
 20
130.723068300888
 30
0.0
 10
160.0331476788932
 20
130.6601858177733
 30
0.0
 10
160.1885883256093
 20
130.4428246298397
 30
0.0
 10
160.2373532823561
 20
130.2641776198284
 30
0.0
 10
160.2373532823561
 20
130.0860844646527
 30
0.0
  0
LINE
  5
FF
330
1F
100
AcDbEntity
  8
0
  6
Continuous
 62
     7
370
    15
100
AcDbLine
 10
160.2373538516
 20
130.0860848937
 30
0.0
 11
160.2373538516
 21
126.5758276645
 31
0.0
  0
SPLINE
  5
100
330
1F
100
AcDbEntity
  8
0
  6
Continuous
 62
     7
370
    15
100
AcDbSpline
210
0.0
220
0.0
230
1.0
 70
     8
 71
     3
 72
     8
 73
     4
 74
     0
 42
0.00000001
 43
0.00000001
 12
1.0
 22
0.0
 32
0.0
 13
1.0
 23
0.0
 33
0.0
 40
0.0
 40
0.0
 40
0.0
 40
0.0
 40
1.0
 40
1.0
 40
1.0
 40
1.0
 10
155.2473532823561
 20
132.4395040008773
 30
0.0
 10
154.9163329513365
 20
133.031059697335
 30
0.0
 10
154.5845516798524
 20
133.6221923615802
 30
0.0
 10
154.2521935834627
 20
134.2130025752521
 30
0.0
  0
LINE
  5
101
330
1F
100
AcDbEntity
  8
0
  6
Continuous
 62
     7
370
    15
100
AcDbLine
 10
155.2473535738
 20
128.6399150926
 30
0.0
 11
155.2473535738
 21
132.4395044434
 31
0.0
  0
SPLINE
  5
102
330
1F
100
AcDbEntity
  8
0
  6
Continuous
 62
     7
370
    15
100
AcDbSpline
210
0.0
220
0.0
230
1.0
 70
     8
 71
     3
 72
    10
 73
     6
 74
     0
 42
0.00000001
 43
0.00000001
 12
1.0
 22
0.0
 32
0.0
 13
1.0
 23
0.0
 33
0.0
 40
0.0
 40
0.0
 40
0.0
 40
0.0
 40
0.5
 40
0.5
 40
1.0
 40
1.0
 40
1.0
 40
1.0
 10
160.2373532823561
 20
133.59670433849
 30
0.0
 10
160.2373532823561
 20
133.7551387813778
 30
0.0
 10
160.1751920658731
 20
133.9141594761798
 30
0.0
 10
159.9546827252015
 20
134.1441673004354
 30
0.0
 10
159.7957676222564
 20
134.2130025752522
 30
0.0
 10
159.6373532823561
 20
134.2130025752522
 30
0.0
  0
LINE
  5
103
330
1F
100
AcDbEntity
  8
0
  6
Continuous
 62
     7
370
    15
100
AcDbLine
 10
160.2373538516
 20
130.0860848937
 30
0.0
 11
160.2373538516
 21
133.5967044074
 31
0.0
  0
LINE
  5
104
330
1F
100
AcDbEntity
  8
0
  6
Continuous
 62
     7
370
    15
100
AcDbLine
 10
159.6373530082
 20
134.2130033958
 30
0.0
 11
158.32251366
 21
134.2130033958
 31
0.0
  0
LINE
  5
105
330
1F
100
AcDbEntity
  8
0
  6
Continuous
 62
     7
370
    15
100
AcDbLine
 10
158.32251366
 20
130.837236597
 30
0.0
 11
158.32251366
 21
134.2130033958
 31
0.0
  0
SPLINE
  5
106
330
1F
100
AcDbEntity
  8
0
  6
Continuous
 62
     7
370
    15
100
AcDbSpline
210
0.0
220
0.0
230
1.0
 70
     8
 71
     3
 72
     8
 73
     4
 74
     0
 42
0.00000001
 43
0.00000001
 12
1.0
 22
0.0
 32
0.0
 13
1.0
 23
0.0
 33
0.0
 40
0.0
 40
0.0
 40
0.0
 40
0.0
 40
1.0
 40
1.0
 40
1.0
 40
1.0
 10
158.3225129812496
 20
134.2130025752521
 30
0.0
 10
157.9901548848599
 20
133.6221923615802
 30
0.0
 10
157.6583736133758
 20
133.031059697335
 30
0.0
 10
157.3273532823561
 20
132.4395040008773
 30
0.0
  0
LINE
  5
107
330
1F
100
AcDbEntity
  8
0
  6
Continuous
 62
     7
370
    15
100
AcDbLine
 10
157.3273526482
 20
128.6399150926
 30
0.0
 11
157.3273526482
 21
132.4395044434
 31
0.0
  0
LINE
  5
108
330
1F
100
AcDbEntity
  8
0
  6
Continuous
 62
     7
370
    15
100
AcDbLine
 10
156.5273540071
 20
131.6258265364
 30
0.0
 11
156.0473540775
 21
131.6258265364
 31
0.0
  0
SPLINE
  5
109
330
1F
100
AcDbEntity
  8
0
  6
Continuous
 62
     7
370
    15
100
AcDbSpline
210
0.0
220
0.0
230
1.0
 70
     8
 71
     3
 72
    10
 73
     6
 74
     0
 42
0.00000001
 43
0.00000001
 12
1.0
 22
0.0
 32
0.0
 13
1.0
 23
0.0
 33
0.0
 40
0.0
 40
0.0
 40
0.0
 40
0.0
 40
0.5
 40
0.5
 40
1.0
 40
1.0
 40
1.0
 40
1.0
 10
155.6360102281259
 20
131.6258273053471
 30
0.0
 10
155.5158496138726
 20
131.7003732722508
 30
0.0
 10
155.4168534674536
 20
131.80704248157
 30
0.0
 10
155.2830386890346
 20
132.0531541143919
 30
0.0
 10
155.2473532823561
 20
132.1930454473631
 30
0.0
 10
155.2473532823561
 20
132.3349336142998
 30
0.0
  0
SPLINE
  5
10A
330
1F
100
AcDbEntity
  8
0
  6
Continuous
 62
     7
370
    15
100
AcDbSpline
210
0.0
220
0.0
230
1.0
 70
    24
 71
     3
 72
    12
 73
     8
 74
     0
 42
0.00000001
 43
0.00000001
 12
1.0
 22
0.0
 32
0.0
 13
1.0
 23
0.0
 33
0.0
 40
0.0
 40
0.0
 40
0.0
 40
0.0
 40
0.2499999999999965
 40
0.2499999999999965
 40
0.4999999999999992
 40
0.4999999999999992
 40
1.0
 40
1.0
 40
1.0
 40
1.0
 10
156.0473532823563
 20
131.6258273053471
 30
0.0
 10
155.9928522912292
 20
131.6258273053471
 30
0.0
 10
155.9408431427094
 20
131.6258273053471
 30
0.0
 10
155.8558972992101
 20
131.6258273053471
 30
0.0
 10
155.8208095146553
 20
131.6258273053471
 30
0.0
 10
155.7265838170113
 20
131.6258273053471
 30
0.0
 10
155.6780893869187
 20
131.6258273053471
 30
0.0
 10
155.6360102281184
 20
131.6258273053471
 30
0.0
  0
LINE
  5
10B
330
1F
100
AcDbEntity
  8
0
  6
Continuous
 62
     7
370
    15
100
AcDbLine
 10
120.3873535595
 20
102.9073550093
 30
0.0
 11
120.3873535595
 21
103.1783139992
 31
0.0
  0
LINE
  5
10C
330
1F
100
AcDbEntity
  8
0
  6
Continuous
 62
     7
370
    15
100
AcDbLine
 10
120.3873535595
 20
126.5997412342
 30
0.0
 11
120.3873535595
 21
126.5040590155
 31
0.0
  0
LINE
  5
10D
330
1F
100
AcDbEntity
  8
0
  6
Continuous
 62
     7
370
    15
100
AcDbLine
 10
121.337352877
 20
127.6058275912
 30
0.0
 11
121.337352877
 21
127.5914079237
 31
0.0
  0
LINE
  5
10E
330
1F
100
AcDbEntity
  8
0
  6
Continuous
 62
     7
370
    15
100
AcDbLine
 10
120.3873535595
 20
126.6558273423
 30
0.0
 11
120.3873535595
 21
126.5997412342
 31
0.0
  0
LINE
  5
10F
330
1F
100
AcDbEntity
  8
0
  6
Continuous
 62
     7
370
    15
100
AcDbLine
 10
121.337352877
 20
101.904827236
 30
0.0
 11
121.337352877
 21
101.9952921856
 31
0.0
  0
LINE
  5
110
330
1F
100
AcDbEntity
  8
0
  6
Continuous
 62
     7
370
    15
100
AcDbLine
 10
120.3873535595
 20
102.8548274848
 30
0.0
 11
120.3873535595
 21
102.9073550093
 31
0.0
  0
LINE
  5
111
330
1F
100
AcDbEntity
  8
0
  6
Continuous
 62
     7
370
    15
100
AcDbLine
 10
226.7873497657
 20
127.6022215101
 30
0.0
 11
226.7873497657
 21
127.7258275736
 31
0.0
  0
ELLIPSE
  5
112
330
1F
100
AcDbEntity
  8
0
  6
Continuous
 62
     7
370
    15
100
AcDbEllipse
 10
244.7234846919
 20
114.7258273053
 30
0.0
 11
-4.247080252763027
 21
12.99357047085401
 31
0.0
210
0.0
220
0.0
230
1.0
 40
0.0962569477
 41
6.113724024734362
 42
6.251733123200048
  0
LINE
  5
113
330
1F
100
AcDbEntity
  8
0
  6
Continuous
 62
     7
370
    15
100
AcDbLine
 10
240.7481731824
 20
127.6022215101
 30
0.0
 11
226.7873497657
 21
127.6022215101
 31
0.0
  0
LINE
  5
114
330
1F
100
AcDbEntity
  8
0
  6
Continuous
 62
     7
370
    15
100
AcDbLine
 10
227.0234288625
 20
101.4898056823
 30
0.0
 11
226.287356203
 21
102.225835501
 31
0.0
  0
LINE
  5
115
330
1F
100
AcDbEntity
  8
0
  6
Continuous
 62
     7
370
    15
100
AcDbLine
 10
226.287356203
 20
127.1022307414
 30
0.0
 11
226.7873497657
 21
127.6022215101
 31
0.0
  0
LINE
  5
116
330
1F
100
AcDbEntity
  8
0
  6
Continuous
 62
     7
370
    15
100
AcDbLine
 10
240.7481731824
 20
127.6022215101
 30
0.0
 11
246.7349307589
 21
108.6609075505
 31
0.0
  0
LINE
  5
117
330
1F
100
AcDbEntity
  8
0
  6
Continuous
 62
     7
370
    15
100
AcDbLine
 10
239.4949631742
 20
110.938100443
 30
0.0
 11
238.7916283659
 21
113.1633653499
 31
0.0
  0
ARC
  5
118
330
1F
100
AcDbEntity
  8
0
  6
Continuous
 62
     7
370
    15
100
AcDbCircle
 10
237.3460297474
 20
112.7063757827
 30
0.0
 40
1.51611174730045
100
AcDbArc
 50
17.5430370042
 51
197.3768631423
  0
LINE
  5
119
330
1F
100
AcDbEntity
  8
0
  6
Continuous
 62
     7
370
    15
100
AcDbLine
 10
235.8991118125
 20
112.2535807739
 30
0.0
 11
236.1292676977
 21
111.5253950197
 31
0.0
  0
ELLIPSE
  5
11A
330
1F
100
AcDbEntity
  8
0
  6
Continuous
 62
     7
370
    15
100
AcDbEllipse
 10
234.7385106216
 20
75.3583601479
 30
0.0
 11
0.0
 21
26.13144513619372
 31
0.0
210
0.0
220
0.0
230
1.0
 40
0.9949698482
 41
6.101468144905018
 42
6.283185307179586
  0
LINE
  5
11B
330
1F
100
AcDbEntity
  8
0
  6
Continuous
 62
     7
370
    15
100
AcDbLine
 10
234.7385125212
 20
101.4898056823
 30
0.0
 11
227.0234288625
 21
101.4898056823
 31
0.0
  0
ARC
  5
11C
330
1F
100
AcDbEntity
  8
0
  6
Continuous
 62
     7
370
    15
100
AcDbCircle
 10
237.3459684188
 20
112.8579423484
 30
0.0
 40
1.249729037412541
100
AcDbArc
 50
17.5513561253
 51
197.3685039629
  0
LINE
  5
11D
330
1F
100
AcDbEntity
  8
0
  6
Continuous
 62
     7
370
    15
100
AcDbLine
 10
238.5375188641
 20
113.2348112955
 30
0.0
 11
239.2378734402
 21
111.0189620599
 31
0.0
  0
LINE
  5
11E
330
1F
100
AcDbEntity
  8
0
  6
Continuous
 62
     7
370
    15
100
AcDbLine
 10
236.1532213143
 20
112.484877995
 30
0.0
 11
236.362247353
 21
111.8235532853
 31
0.0
  0
LINE
  5
11F
330
1F
100
AcDbEntity
  8
0
  6
Continuous
 62
     7
370
    15
100
AcDbLine
 10
236.0964702419
 20
112.9121620401
 30
0.0
 11
236.1532213143
 21
112.5895127847
 31
0.0
  0
LINE
  5
120
330
1F
100
AcDbEntity
  8
0
  6
Continuous
 62
     7
370
    15
100
AcDbLine
 10
236.1532213143
 20
112.5895127847
 30
0.0
 11
236.3925041608
 21
111.8324516069
 31
0.0
  0
LINE
  5
121
330
1F
100
AcDbEntity
  8
0
  6
HIDDEN
 62
     7
370
     0
100
AcDbLine
 10
148.2373537473
 20
94.7258277524
 30
0.0
 11
148.2373537473
 21
94.7508430767
 31
0.0
  0
SPLINE
  5
122
330
1F
100
AcDbEntity
  8
0
  6
HIDDEN
 62
     7
370
     0
100
AcDbSpline
210
0.0
220
0.0
230
1.0
 70
     8
 71
     3
 72
    22
 73
    18
 74
     0
 42
0.00000001
 43
0.00000001
 12
1.0
 22
0.0
 32
0.0
 13
1.0
 23
0.0
 33
0.0
 40
0.0
 40
0.0
 40
0.0
 40
0.0
 40
0.125
 40
0.125
 40
0.25
 40
0.25
 40
0.375
 40
0.375
 40
0.5
 40
0.5
 40
0.625
 40
0.625
 40
0.75
 40
0.75
 40
0.875
 40
0.875
 40
1.0
 40
1.0
 40
1.0
 40
1.0
 10
148.2373532823562
 20
94.7508429499089
 30
0.0
 10
148.2373532823561
 20
94.76562226445246
 30
0.0
 10
148.2671068914275
 20
94.78739218458074
 30
0.0
 10
148.3827269621049
 20
94.84201821790849
 30
0.0
 10
148.4681163504674
 20
94.87490141526014
 30
0.0
 10
148.6945526815067
 20
94.94992387200861
 30
0.0
 10
148.8345989775981
 20
94.99162525373562
 30
0.0
 10
149.1591805567602
 20
95.07792705108899
 30
0.0
 10
149.3460909161687
 20
95.12317001736939
 30
0.0
 10
149.7625231965836
 20
95.2122498879535
 30
0.0
 10
149.9881942034787
 20
95.25530509744634
 30
0.0
 10
150.4741388401143
 20
95.33475204095087
 30
0.0
 10
150.7376635582373
 20
95.37145626558441
 30
0.0
 10
151.2815034439153
 20
95.43178315849198
 30
0.0
 10
151.5623980712543
 20
95.45567664500193
 30
0.0
 10
152.1425700880992
 20
95.48838352717084
 30
0.0
 10
152.4422729415232
 20
95.49694278231767
 30
0.0
 10
152.7373532823561
 20
95.49694278231767
 30
0.0
  0
LINE
  5
123
330
1F
100
AcDbEntity
  8
0
  6
HIDDEN
 62
     7
370
     0
100
AcDbLine
 10
152.7373535536
 20
95.4969423551
 30
0.0
 11
154.2521934933
 21
95.4969423551
 31
0.0
  0
LINE
  5
124
330
1F
100
AcDbEntity
  8
0
  6
HIDDEN
 62
     7
370
     0
100
AcDbLine
 10
154.2521934933
 20
134.2130033958
 30
0.0
 11
154.2521934933
 21
95.4969423551
 31
0.0
  0
LINE
  5
125
330
1F
100
AcDbEntity
  8
0
  6
HIDDEN
 62
     7
370
     0
100
AcDbLine
 10
152.7373535536
 20
134.2130033958
 30
0.0
 11
154.2521934933
 21
134.2130033958
 31
0.0
  0
SPLINE
  5
126
330
1F
100
AcDbEntity
  8
0
  6
HIDDEN
 62
     7
370
     0
100
AcDbSpline
210
0.0
220
0.0
230
1.0
 70
     8
 71
     3
 72
    13
 73
     9
 74
     0
 42
0.00000001
 43
0.00000001
 12
1.0
 22
0.0
 32
0.0
 13
1.0
 23
0.0
 33
0.0
 40
0.0
 40
0.0
 40
0.0
 40
0.0
 40
0.0662296901117483
 40
0.2753215162072686
 40
0.4860563994664933
 40
0.7014171961323141
 40
0.9174301267263636
 40
1.0
 40
1.0
 40
1.0
 40
1.0
 10
148.2915008417605
 20
134.7137606430355
 30
0.0
 10
148.2760376224324
 20
134.7172022420627
 30
0.0
 10
148.2117559236404
 20
134.7315092131617
 30
0.0
 10
148.6026226593847
 20
134.643620492634
 30
0.0
 10
149.4273170722085
 20
134.483362760833
 30
0.0
 10
150.6627361287084
 20
134.3075805035056
 30
0.0
 10
151.8397640798453
 20
134.2212182915721
 30
0.0
 10
152.5429069353359
 20
134.2147830052618
 30
0.0
 10
152.7373535535573
 20
134.213003395826
 30
0.0
  0
SPLINE
  5
127
330
1F
100
AcDbEntity
  8
0
  6
HIDDEN
 62
     7
370
     0
100
AcDbSpline
210
0.0
220
0.0
230
1.0
 70
     8
 71
     3
 72
    76
 73
    72
 74
     0
 42
0.00000001
 43
0.00000001
 12
1.0
 22
0.0
 32
0.0
 13
1.0
 23
0.0
 33
0.0
 40
-0.0312500000000001
 40
-0.0312500000000001
 40
0.0
 40
0.0
 40
0.03125
 40
0.03125
 40
0.0625
 40
0.0625
 40
0.0937499999999999
 40
0.0937499999999999
 40
0.1249999999999999
 40
0.1249999999999999
 40
0.1562499999999999
 40
0.1562499999999999
 40
0.1874999999999999
 40
0.1874999999999999
 40
0.2031249999999999
 40
0.2031249999999999
 40
0.21875
 40
0.21875
 40
0.2499999999999999
 40
0.2499999999999999
 40
0.2812499999999999
 40
0.2812499999999999
 40
0.3124999999999999
 40
0.3124999999999999
 40
0.3437499999999999
 40
0.3437499999999999
 40
0.3749999999999998
 40
0.3749999999999998
 40
0.4062499999999998
 40
0.4062499999999998
 40
0.4374999999999998
 40
0.4374999999999998
 40
0.4687499999999998
 40
0.4687499999999998
 40
0.4843749999999998
 40
0.4843749999999998
 40
0.4999999999999998
 40
0.4999999999999998
 40
0.5312499999999998
 40
0.5312499999999998
 40
0.5624999999999998
 40
0.5624999999999998
 40
0.5937499999999997
 40
0.5937499999999997
 40
0.6249999999999997
 40
0.6249999999999997
 40
0.6562499999999997
 40
0.6562499999999997
 40
0.6874999999999997
 40
0.6874999999999997
 40
0.7187499999999997
 40
0.7187499999999997
 40
0.7343749999999997
 40
0.7343749999999997
 40
0.7499999999999996
 40
0.7499999999999996
 40
0.7812499999999997
 40
0.7812499999999997
 40
0.8124999999999998
 40
0.8124999999999998
 40
0.8437499999999999
 40
0.8437499999999999
 40
0.875
 40
0.875
 40
0.90625
 40
0.90625
 40
0.9374999999999999
 40
0.9374999999999999
 40
0.9687499999999999
 40
0.9687499999999999
 40
1.0
 40
1.0
 40
1.03125
 40
1.03125
 10
142.2873532823561
 20
115.0575619493928
 30
0.0
 10
142.2873532823561
 20
114.3940926613013
 30
0.0
 10
142.3200382180742
 20
114.0681581987886
 30
0.0
 10
142.4478624600849
 20
113.4273373428458
 30
0.0
 10
142.5446407333405
 20
113.1090519008034
 30
0.0
 10
142.796093407325
 20
112.5041455625534
 30
0.0
 10
142.9497735880199
 20
112.2174622458296
 30
0.0
 10
143.312606111334
 20
111.6749458256796
 30
0.0
 10
143.522869068491
 20
111.4191527370856
 30
0.0
 10
143.9821727489133
 20
110.9600312755311
 30
0.0
 10
144.233013608289
 20
110.7535552179021
 30
0.0
 10
144.7790450007548
 20
110.3880483868537
 30
0.0
 10
145.0679161134542
 20
110.2336121822352
 30
0.0
 10
145.5186655696037
 20
110.0462740906146
 30
0.0
 10
145.6721518852766
 20
109.9910620702538
 30
0.0
 10
145.9857807888413
 20
109.89542500029
 30
0.0
 10
146.1468849729743
 20
109.8548465353015
 30
0.0
 10
146.6313818409765
 20
109.758112742741
 30
0.0
 10
146.9566629105923
 20
109.7260350205024
 30
0.0
 10
147.6117322835186
 20
109.7256215818619
 30
0.0
 10
147.9445536161527
 20
109.7584000081394
 30
0.0
 10
148.5868622128784
 20
109.8865584792455
 30
0.0
 10
148.8991836943247
 20
109.9813622735905
 30
0.0
 10
149.5061630088779
 20
110.2330743506432
 30
0.0
 10
149.7967230273802
 20
110.3889344757518
 30
0.0
 10
150.336912561587
 20
110.750180925814
 30
0.0
 10
150.5909173115345
 20
110.958370439831
 30
0.0
 10
151.054141323411
 20
111.4215006898063
 30
0.0
 10
151.260108004278
 20
111.6724709069755
 30
0.0
 10
151.6221619109737
 20
112.2128212310823
 30
0.0
 10
151.7793078374345
 20
112.5056677690225
 30
0.0
 10
152.0300435513551
 20
113.109147651252
 30
0.0
 10
152.1252134422661
 20
113.4208685352223
 30
0.0
 10
152.2220439249375
 20
113.9037687054517
 30
0.0
 10
152.2466691721278
 20
114.0682827732778
 30
0.0
 10
152.2792118763149
 20
114.3963934210602
 30
0.0
 10
152.2872836441929
 20
114.5601825799831
 30
0.0
 10
152.2874912160258
 20
115.0507701269488
 30
0.0
 10
152.2558558972367
 20
115.3767958450838
 30
0.0
 10
152.1265155030023
 20
116.0267067294574
 30
0.0
 10
152.0310156493091
 20
116.3395117403371
 30
0.0
 10
151.7812754913936
 20
116.9418988941038
 30
0.0
 10
151.6248149949667
 20
117.2344222946991
 30
0.0
 10
151.2617114909909
 20
117.7772367761362
 30
0.0
 10
151.0557854407614
 20
118.0281296684174
 30
0.0
 10
150.5950707570074
 20
118.4895072781303
 30
0.0
 10
150.3392872784192
 20
118.6996509868287
 30
0.0
 10
149.7993141089619
 20
119.0612198565964
 30
0.0
 10
149.5127333963554
 20
119.2153883865974
 30
0.0
 10
148.9045947116327
 20
119.4685064546774
 30
0.0
 10
148.5898546768946
 20
119.5642146182979
 30
0.0
 10
148.1098798695611
 20
119.6604068651035
 30
0.0
 10
147.9481552210478
 20
119.6846920804694
 30
0.0
 10
147.6211569056722
 20
119.7173775856897
 30
0.0
 10
147.4549051047407
 20
119.7257399381611
 30
0.0
 10
146.9601329622301
 20
119.7259999681586
 30
0.0
 10
146.6346933216765
 20
119.6938485153479
 30
0.0
 10
145.9924052538917
 20
119.5663137861534
 30
0.0
 10
145.6732386939467
 20
119.4693743556178
 30
0.0
 10
145.070062650576
 20
119.2191809278509
 30
0.0
 10
144.7829301393476
 20
119.0658023334288
 30
0.0
 10
144.23758584875
 20
118.7015583229745
 30
0.0
 10
143.9838024053421
 20
118.493032972389
 30
0.0
 10
143.5246095665643
 20
118.0344594493126
 30
0.0
 10
143.3157496391321
 20
117.7809710198068
 30
0.0
 10
142.9507375166182
 20
117.2360667989466
 30
0.0
 10
142.7971104878649
 20
116.9493341966565
 30
0.0
 10
142.5464199739974
 20
116.34749762168
 30
0.0
 10
142.4489740633439
 20
116.0289248478609
 30
0.0
 10
142.320047353745
 20
115.3844990626436
 30
0.0
 10
142.2873532823561
 20
115.0575619493928
 30
0.0
 10
142.2873532823561
 20
114.3940926613013
 30
0.0
  0
LINE
  5
128
330
1F
100
AcDbEntity
  8
0
  6
HIDDEN
 62
     7
370
     0
100
AcDbLine
 10
140.2873532824
 20
134.4258273679
 30
0.0
 11
140.2873532824
 21
95.0258272428
 31
0.0
  0
LINE
  5
129
330
1F
100
AcDbEntity
  8
0
  6
HIDDEN
 62
     7
370
     0
100
AcDbLine
 10
157.3273526482
 20
97.4029927242
 30
0.0
 11
157.3273526482
 21
126.5758276645
 31
0.0
  0
LINE
  5
12A
330
1F
100
AcDbEntity
  8
0
  6
HIDDEN
 62
     7
370
     0
100
AcDbLine
 10
155.2473535738
 20
97.4029927242
 30
0.0
 11
155.2473535738
 21
126.5758276645
 31
0.0
  0
LINE
  5
12B
330
1F
100
AcDbEntity
  8
0
  6
HIDDEN
 62
     7
370
     0
100
AcDbLine
 10
148.2436830155
 20
126.5758276645
 30
0.0
 11
152.7373535536
 21
126.5758276645
 31
0.0
  0
LINE
  5
12C
330
1F
100
AcDbEntity
  8
0
  6
HIDDEN
 62
     7
370
     0
100
AcDbLine
 10
140.2873532824
 20
98.5186333496
 30
0.0
 11
140.2873532824
 21
130.9330212611
 31
0.0
  0
LINE
  5
12D
330
1F
100
AcDbEntity
  8
0
  6
HIDDEN
 62
     7
370
     0
100
AcDbLine
 10
160.2373538516
 20
99.2258275587
 30
0.0
 11
160.2373538516
 21
130.2077267978
 31
0.0
  0
SPLINE
  5
12E
330
1F
100
AcDbEntity
  8
0
  6
HIDDEN
 62
     7
370
     0
100
AcDbSpline
210
0.0
220
0.0
230
1.0
 70
     8
 71
     3
 72
     8
 73
     4
 74
     0
 42
0.00000001
 43
0.00000001
 12
1.0
 22
0.0
 32
0.0
 13
1.0
 23
0.0
 33
0.0
 40
0.000003532078448
 40
0.000003532078448
 40
0.000003532078448
 40
0.000003532078448
 40
0.0000638548434643
 40
0.0000638548434643
 40
0.0000638548434643
 40
0.0000638548434643
 10
121.328837132787
 20
102.0226496058035
 30
0.0
 10
121.3313863039092
 20
102.0134884024648
 30
0.0
 10
121.334228226691
 20
102.0043673991561
 30
0.0
 10
121.3373532823561
 20
101.9952917543877
 30
0.0
  0
SPLINE
  5
12F
330
1F
100
AcDbEntity
  8
0
  6
HIDDEN
 62
     7
370
     0
100
AcDbSpline
210
0.0
220
0.0
230
1.0
 70
     8
 71
     3
 72
     8
 73
     4
 74
     0
 42
0.00000001
 43
0.00000001
 12
1.0
 22
0.0
 32
0.0
 13
1.0
 23
0.0
 33
0.0
 40
0.0000002108190109
 40
0.0000002108190109
 40
0.0000002108190109
 40
0.0000002108190109
 40
0.0001710235456397
 40
0.0001710235456397
 40
0.0001710235456397
 40
0.0001710235456397
 10
121.3373532823561
 20
101.9952917543877
 30
0.0
 10
121.391341468446
 20
102.0009218969912
 30
0.0
 10
121.4449311285219
 20
102.0072172904528
 30
0.0
 10
121.4975618476406
 20
102.0146470428959
 30
0.0
  0
SPLINE
  5
130
330
1F
100
AcDbEntity
  8
0
  6
HIDDEN
 62
     7
370
     0
100
AcDbSpline
210
0.0
220
0.0
230
1.0
 70
     8
 71
     3
 72
    10
 73
     6
 74
     0
 42
0.00000001
 43
0.00000001
 12
1.0
 22
0.0
 32
0.0
 13
1.0
 23
0.0
 33
0.0
 40
0.0
 40
0.0
 40
0.0
 40
0.0
 40
0.5
 40
0.5
 40
1.0
 40
1.0
 40
1.0
 40
1.0
 10
121.4975618476405
 20
102.0146470428959
 30
0.0
 10
122.1613769533242
 20
102.1083562299608
 30
0.0
 10
122.8393646216019
 20
102.184174426386
 30
0.0
 10
124.2057903136475
 20
102.3226186240339
 30
0.0
 10
124.8949267500139
 20
102.3843629714852
 30
0.0
 10
125.5873532823561
 20
102.4419540067942
 30
0.0
  0
SPLINE
  5
131
330
1F
100
AcDbEntity
  8
0
  6
HIDDEN
 62
     7
370
     0
100
AcDbSpline
210
0.0
220
0.0
230
1.0
 70
     8
 71
     3
 72
    16
 73
    12
 74
     0
 42
0.00000001
 43
0.00000001
 12
1.0
 22
0.0
 32
0.0
 13
1.0
 23
0.0
 33
0.0
 40
0.0
 40
0.0
 40
0.0
 40
0.0
 40
0.062500000000001
 40
0.062500000000001
 40
0.1250000000000021
 40
0.1250000000000021
 40
0.2500000000000014
 40
0.2500000000000014
 40
0.5000000000000012
 40
0.5000000000000012
 40
1.0
 40
1.0
 40
1.0
 40
1.0
 10
125.5873532823561
 20
102.4419540067942
 30
0.0
 10
125.6186690816834
 20
102.4445586286863
 30
0.0
 10
125.651383420109
 20
102.4427897282263
 30
0.0
 10
125.7126899735859
 20
102.4312548337763
 30
0.0
 10
125.7412008638038
 20
102.4217278564301
 30
0.0
 10
125.8170948371601
 20
102.3882142563052
 30
0.0
 10
125.8564344221932
 20
102.3598267419853
 30
0.0
 10
125.9578702031746
 20
102.2718057917775
 30
0.0
 10
126.0026955627805
 20
102.2101731395703
 30
0.0
 10
126.1169779177458
 20
102.0267849458951
 30
0.0
 10
126.1617918255885
 20
101.9061669514303
 30
0.0
 10
126.1961180798709
 20
101.7918239581392
 30
0.0
  0
SPLINE
  5
132
330
1F
100
AcDbEntity
  8
0
  6
HIDDEN
 62
     7
370
     0
100
AcDbSpline
210
0.0
220
0.0
230
1.0
 70
     8
 71
     3
 72
    10
 73
     6
 74
     0
 42
0.00000001
 43
0.00000001
 12
1.0
 22
0.0
 32
0.0
 13
1.0
 23
0.0
 33
0.0
 40
0.0
 40
0.0
 40
0.0
 40
0.0
 40
0.5
 40
0.5
 40
1.0
 40
1.0
 40
1.0
 40
1.0
 10
126.1961180798709
 20
101.7918239581392
 30
0.0
 10
126.2339924828156
 20
101.6656618500865
 30
0.0
 10
126.3147835301414
 20
101.5477028091046
 30
0.0
 10
126.4399134727327
 20
101.3246568265156
 30
0.0
 10
126.4873532823561
 20
101.2198617530203
 30
0.0
 10
126.4873532823561
 20
101.1222511196229
 30
0.0
  0
LINE
  5
133
330
1F
100
AcDbEntity
  8
0
  6
HIDDEN
 62
     7
370
     0
100
AcDbLine
 10
126.4873534418
 20
101.1222508464
 30
0.0
 11
126.4873534418
 21
100.2133088845
 31
0.0
  0
LINE
  5
134
330
1F
100
AcDbEntity
  8
0
  6
HIDDEN
 62
     7
370
     0
100
AcDbLine
 10
123.987353032
 20
129.1130949471
 30
0.0
 11
123.987353032
 21
128.2833517257
 31
0.0
  0
SPLINE
  5
135
330
1F
100
AcDbEntity
  8
0
  6
HIDDEN
 62
     7
370
     0
100
AcDbSpline
210
0.0
220
0.0
230
1.0
 70
     8
 71
     3
 72
    20
 73
    16
 74
     0
 42
0.00000001
 43
0.00000001
 12
1.0
 22
0.0
 32
0.0
 13
1.0
 23
0.0
 33
0.0
 40
0.0
 40
0.0
 40
0.0
 40
0.0
 40
0.2499999999999988
 40
0.2499999999999988
 40
0.4999999999999977
 40
0.4999999999999977
 40
0.7499999999999964
 40
0.7499999999999964
 40
0.8749999999999959
 40
0.8749999999999959
 40
0.9374999999999957
 40
0.9374999999999957
 40
0.9687499999999978
 40
0.9687499999999978
 40
1.0
 40
1.0
 40
1.0
 40
1.0
 10
123.9873532823571
 20
128.2833514270949
 30
0.0
 10
123.9873532823571
 20
128.2227420273975
 30
0.0
 10
123.9619582627802
 20
128.156916061994
 30
0.0
 10
123.8756650769982
 20
128.0228682926474
 30
0.0
 10
123.815029098315
 20
127.9541729345056
 30
0.0
 10
123.6669273040937
 20
127.8137743828512
 30
0.0
 10
123.580157697315
 20
127.7420708782698
 30
0.0
 10
123.4315199019859
 20
127.635907476521
 30
0.0
 10
123.3792306850997
 20
127.6003791278894
 30
0.0
 10
123.2884668567897
 20
127.5506751973739
 30
0.0
 10
123.2561008643378
 20
127.5344141993588
 30
0.0
 10
123.1984117086715
 20
127.5153016310129
 30
0.0
 10
123.1774246807841
 20
127.5099104889313
 30
0.0
 10
123.1321357017936
 20
127.5041731205389
 30
0.0
 10
123.1091214329551
 20
127.5041958541923
 30
0.0
 10
123.0873532823555
 20
127.5066211640051
 30
0.0
  0
SPLINE
  5
136
330
1F
100
AcDbEntity
  8
0
  6
HIDDEN
 62
     7
370
     0
100
AcDbSpline
210
0.0
220
0.0
230
1.0
 70
     8
 71
     3
 72
    12
 73
     8
 74
     0
 42
0.00000001
 43
0.00000001
 12
1.0
 22
0.0
 32
0.0
 13
1.0
 23
0.0
 33
0.0
 40
0.0
 40
0.0
 40
0.0
 40
0.0
 40
0.2499999999999999
 40
0.2499999999999999
 40
0.4999999999999998
 40
0.4999999999999998
 40
1.0
 40
1.0
 40
1.0
 40
1.0
 10
123.0873532823562
 20
127.5066211640063
 30
0.0
 10
122.9453108791669
 20
127.5224468921825
 30
0.0
 10
122.8011927726628
 20
127.5334680259578
 30
0.0
 10
122.5114382589903
 20
127.552004387825
 30
0.0
 10
122.3656963556315
 20
127.5592750935608
 30
0.0
 10
121.9270161164517
 20
127.5777359438887
 30
0.0
 10
121.6326405003805
 20
127.5856148107123
 30
0.0
 10
121.3373532823561
 20
127.5914078523254
 30
0.0
  0
SPLINE
  5
137
330
1F
100
AcDbEntity
  8
0
  6
HIDDEN
 62
     7
370
     0
100
AcDbSpline
210
0.0
220
0.0
230
1.0
 70
     8
 71
     3
 72
     8
 73
     4
 74
     0
 42
0.00000001
 43
0.00000001
 12
1.0
 22
0.0
 32
0.0
 13
1.0
 23
0.0
 33
0.0
 40
0.0
 40
0.0
 40
0.0
 40
0.0
 40
1.0
 40
1.0
 40
1.0
 40
1.0
 10
121.3373532823561
 20
127.5914078523254
 30
0.0
 10
121.2915883746668
 20
127.5298874731666
 30
0.0
 10
121.2572012530368
 20
127.4659926134172
 30
0.0
 10
121.2381859993639
 20
127.3992626683734
 30
0.0
  0
ELLIPSE
  5
138
330
1F
100
AcDbEntity
  8
0
  6
HIDDEN
 62
     7
370
     0
100
AcDbEllipse
 10
107.7812326438
 20
115.3649377567
 30
0.0
 11
13.369636111343
 21
13.36754752639486
 31
0.0
210
0.0
220
0.0
230
1.0
 40
0.1761188775
 41
5.933076931846598
 42
5.976720052691196
  0
ELLIPSE
  5
139
330
1F
100
AcDbEntity
  8
0
  6
HIDDEN
 62
     7
370
     0
100
AcDbEllipse
 10
107.8606110745
 20
114.0865296276
 30
0.0
 11
13.37355272666618
 21
-13.37146352987012
 31
0.0
210
0.0
220
0.0
230
1.0
 40
0.1761188775
 41
0.3023035477142414
 42
0.382273043534031
  0
LINE
  5
13A
330
1F
100
AcDbEntity
  8
0
  6
HIDDEN
 62
     7
370
     0
100
AcDbLine
 10
138.2873531874
 20
129.8295278761
 30
0.0
 11
138.2873531874
 21
99.6221267346
 31
0.0
  0
SPLINE
  5
13B
330
1F
100
AcDbEntity
  8
0
  6
HIDDEN
 62
     7
370
     0
100
AcDbSpline
210
0.0
220
0.0
230
1.0
 70
     8
 71
     3
 72
    10
 73
     6
 74
     0
 42
0.00000001
 43
0.00000001
 12
1.0
 22
0.0
 32
0.0
 13
1.0
 23
0.0
 33
0.0
 40
0.0
 40
0.0
 40
0.0
 40
0.0
 40
0.313471205397956
 40
0.5029338370021643
 40
1.0
 40
1.0
 40
1.0
 40
1.0
 10
132.2999937436818
 20
100.0584066573087
 30
0.0
 10
132.180808673923
 20
100.0447011164358
 30
0.0
 10
131.9895879065447
 20
100.0227119188932
 30
0.0
 10
131.5548750615489
 20
99.97345899608555
 30
0.0
 10
131.5275997980665
 20
99.96715044562964
 30
0.0
 10
131.5078517399072
 20
99.96258287760651
 30
0.0
  0
SPLINE
  5
13C
330
1F
100
AcDbEntity
  8
0
  6
HIDDEN
 62
     7
370
     0
100
AcDbSpline
210
0.0
220
0.0
230
1.0
 70
     8
 71
     3
 72
    17
 73
    13
 74
     0
 42
0.00000001
 43
0.00000001
 12
1.0
 22
0.0
 32
0.0
 13
1.0
 23
0.0
 33
0.0
 40
0.0
 40
0.0
 40
0.0
 40
0.0
 40
0.0034427546785754
 40
0.1721435925134834
 40
0.3395776266211847
 40
0.504899453034158
 40
0.5879134326057525
 40
0.6694585152459395
 40
0.7510451055069155
 40
0.8339516296876083
 40
0.9171723209645956
 40
1.0
 40
1.0
 40
1.0
 40
1.0
 10
137.0187574974536
 20
99.6864792618457
 30
0.0
 10
137.0201713814056
 20
99.68614376522858
 30
0.0
 10
137.0908679850357
 20
99.66936836345337
 30
0.0
 10
136.8344414088189
 20
99.7314033801406
 30
0.0
 10
136.2656915094592
 20
99.85943545065781
 30
0.0
 10
135.4829366833338
 20
99.98937323293873
 30
0.0
 10
134.7915026136725
 20
100.0651904884655
 30
0.0
 10
134.2497358444022
 20
100.1034103863547
 30
0.0
 10
133.707462238318
 20
100.1197212031807
 30
0.0
 10
133.1870224564165
 20
100.1141023503543
 30
0.0
 10
132.7004080917604
 20
100.0924987674041
 30
0.0
 10
132.4332544218014
 20
100.0697527485056
 30
0.0
 10
132.2999937436818
 20
100.0584066573087
 30
0.0
  0
SPLINE
  5
13D
330
1F
100
AcDbEntity
  8
0
  6
HIDDEN
 62
     7
370
     0
100
AcDbSpline
210
0.0
220
0.0
230
1.0
 70
     8
 71
     3
 72
    16
 73
    12
 74
     0
 42
0.00000001
 43
0.00000001
 12
1.0
 22
0.0
 32
0.0
 13
1.0
 23
0.0
 33
0.0
 40
0.0
 40
0.0
 40
0.0
 40
0.0
 40
0.1654333158823829
 40
0.2483984926667515
 40
0.3302456308800434
 40
0.4117735297744538
 40
0.4950505576948335
 40
0.6604199677601957
 40
0.8277313714689277
 40
0.9963736202213243
 40
1.0
 40
1.0
 40
1.0
 40
1.0
 10
132.299896886134
 20
129.393229326934
 30
0.0
 10
132.5828758146277
 20
129.3715183760446
 30
0.0
 10
133.0077693067236
 20
129.338919334875
 30
0.0
 10
133.7103161906184
 20
129.3321725542443
 30
0.0
 10
134.250923750263
 20
129.3482602188217
 30
0.0
 10
134.7939109567512
 20
129.3865354357579
 30
0.0
 10
135.4849918725486
 20
129.4625121272699
 30
0.0
 10
136.2667726833554
 20
129.5924589855113
 30
0.0
 10
136.8347858352535
 20
129.7202560026832
 30
0.0
 10
137.091326736791
 20
129.7822913797502
 30
0.0
 10
137.0201149953135
 20
129.7654798829722
 30
0.0
 10
137.0186159364222
 20
129.765125988752
 30
0.0
  0
SPLINE
  5
13E
330
1F
100
AcDbEntity
  8
0
  6
HIDDEN
 62
     7
370
     0
100
AcDbSpline
210
0.0
220
0.0
230
1.0
 70
     8
 71
     3
 72
    10
 73
     6
 74
     0
 42
0.00000001
 43
0.00000001
 12
1.0
 22
0.0
 32
0.0
 13
1.0
 23
0.0
 33
0.0
 40
0.0
 40
0.0
 40
0.0
 40
0.0
 40
0.4972645631454423
 40
0.6466091265360079
 40
1.0
 40
1.0
 40
1.0
 40
1.0
 10
131.5073842159747
 20
129.4891136426035
 30
0.0
 10
131.5244532188721
 20
129.4847408280199
 30
0.0
 10
131.5466485930699
 20
129.4790547163843
 30
0.0
 10
131.9733676105017
 20
129.4307099539063
 30
0.0
 10
132.1651124921299
 20
129.4087005387681
 30
0.0
 10
132.299896886134
 20
129.393229326934
 30
0.0
  0
SPLINE
  5
13F
330
1F
100
AcDbEntity
  8
0
  6
HIDDEN
 62
     7
370
     0
100
AcDbSpline
210
0.0
220
0.0
230
1.0
 70
    11
 71
     3
 72
    50
 73
    46
 74
     0
 42
0.00000001
 43
0.00000001
 12
1.0
 22
0.0
 32
0.0
 13
1.0
 23
0.0
 33
0.0
 40
0.0
 40
0.0
 40
0.0
 40
0.0
 40
0.0625000000000003
 40
0.0625000000000003
 40
0.1250000000000005
 40
0.1250000000000005
 40
0.1562500000000005
 40
0.1562500000000005
 40
0.1875000000000005
 40
0.1875000000000005
 40
0.2187500000000005
 40
0.2187500000000005
 40
0.2500000000000005
 40
0.2500000000000005
 40
0.3125000000000004
 40
0.3125000000000004
 40
0.3750000000000003
 40
0.3750000000000003
 40
0.4375000000000004
 40
0.4375000000000004
 40
0.5000000000000004
 40
0.5000000000000004
 40
0.5312500000000004
 40
0.5312500000000004
 40
0.5625000000000004
 40
0.5625000000000004
 40
0.5937500000000006
 40
0.5937500000000006
 40
0.6250000000000006
 40
0.6250000000000006
 40
0.6562500000000006
 40
0.6562500000000006
 40
0.6875000000000006
 40
0.6875000000000006
 40
0.7500000000000004
 40
0.7500000000000004
 40
0.8125000000000004
 40
0.8125000000000004
 40
0.8750000000000003
 40
0.8750000000000003
 40
0.9375000000000003
 40
0.9375000000000003
 40
0.9687500000000002
 40
0.9687500000000002
 40
1.0
 40
1.0
 40
1.0
 40
1.0
 10
136.1115300102336
 20
127.398637598827
 30
0.0
 10
135.9655412313918
 20
127.3776233701968
 30
0.0
 10
135.79330060275
 20
127.3552468681402
 30
0.0
 10
135.4005933952465
 20
127.3144596659416
 30
0.0
 10
135.184664569141
 20
127.2966550518356
 30
0.0
 10
134.842266142876
 20
127.2784142480611
 30
0.0
 10
134.7238669735306
 20
127.2737006034666
 30
0.0
 10
134.4878256636226
 20
127.2677079170707
 30
0.0
 10
134.3692354741787
 20
127.2663618085678
 30
0.0
 10
134.1309147463137
 20
127.2670702241606
 30
0.0
 10
134.0101650193631
 20
127.269172099717
 30
0.0
 10
133.7748064124951
 20
127.2765790593701
 30
0.0
 10
133.6597181213272
 20
127.2818538951179
 30
0.0
 10
133.3220862514019
 20
127.3017468244811
 30
0.0
 10
133.106981291376
 20
127.3206668669115
 30
0.0
 10
132.7263394067867
 20
127.3620241170535
 30
0.0
 10
132.5560006678011
 20
127.3848738014088
 30
0.0
 10
132.2800479137132
 20
127.4255576629771
 30
0.0
 10
132.1704425417339
 20
127.4438730654695
 30
0.0
 10
132.0251249861429
 20
127.4688667283809
 30
0.0
 10
131.9872824771528
 20
127.4758400780499
 30
0.0
 10
131.9873888381511
 20
127.4758208913608
 30
0.0
 10
131.9965990950345
 20
127.4741496582953
 30
0.0
 10
132.0336303782841
 20
127.4675475579773
 30
0.0
 10
132.0617140484782
 20
127.4625724614468
 30
0.0
 10
132.134713291773
 20
127.4500194644239
 30
0.0
 10
132.1797343748208
 20
127.4424213495348
 30
0.0
 10
132.2868476418356
 20
127.4251079717086
 30
0.0
 10
132.3495078843987
 20
127.4153127364081
 30
0.0
 10
132.4881976341937
 20
127.3948744978174
 30
0.0
 10
132.5644840449932
 20
127.3841831390079
 30
0.0
 10
132.7308852877483
 20
127.3626103857343
 30
0.0
 10
132.8218854016678
 20
127.3516357060049
 30
0.0
 10
133.1091093381771
 20
127.3204501831931
 30
0.0
 10
133.32064005264
 20
127.3018227643285
 30
0.0
 10
133.7747386937688
 20
127.2750862887391
 30
0.0
 10
134.0087165321819
 20
127.2674392987592
 30
0.0
 10
134.49082675641
 20
127.2659945454359
 30
0.0
 10
134.7262944848338
 20
127.2722458090244
 30
0.0
 10
135.1854303755643
 20
127.2966860809252
 30
0.0
 10
135.4004857608579
 20
127.3144519122311
 30
0.0
 10
135.6948440700416
 20
127.3450193045207
 30
0.0
 10
135.7882139562605
 20
127.3558641510071
 30
0.0
 10
135.9598895819708
 20
127.3774131993678
 30
0.0
 10
136.0390643573641
 20
127.3882065930379
 30
0.0
 10
136.1115300102336
 20
127.398637598827
 30
0.0
  0
SPLINE
  5
140
330
1F
100
AcDbEntity
  8
0
  6
HIDDEN
 62
     7
370
     0
100
AcDbSpline
210
0.0
220
0.0
230
1.0
 70
    11
 71
     3
 72
    50
 73
    46
 74
     0
 42
0.00000001
 43
0.00000001
 12
1.0
 22
0.0
 32
0.0
 13
1.0
 23
0.0
 33
0.0
 40
0.0
 40
0.0
 40
0.0
 40
0.0
 40
0.0624999999999999
 40
0.0624999999999999
 40
0.1249999999999997
 40
0.1249999999999997
 40
0.1562499999999996
 40
0.1562499999999996
 40
0.1874999999999995
 40
0.1874999999999995
 40
0.2187499999999994
 40
0.2187499999999994
 40
0.2499999999999993
 40
0.2499999999999993
 40
0.3124999999999993
 40
0.3124999999999993
 40
0.3749999999999992
 40
0.3749999999999992
 40
0.4374999999999993
 40
0.4374999999999993
 40
0.4999999999999994
 40
0.4999999999999994
 40
0.5312499999999994
 40
0.5312499999999994
 40
0.5624999999999996
 40
0.5624999999999996
 40
0.5937499999999996
 40
0.5937499999999996
 40
0.6249999999999997
 40
0.6249999999999997
 40
0.6562499999999997
 40
0.6562499999999997
 40
0.6874999999999998
 40
0.6874999999999998
 40
0.7499999999999998
 40
0.7499999999999998
 40
0.8124999999999999
 40
0.8124999999999999
 40
0.875
 40
0.875
 40
0.9375000000000001
 40
0.9375000000000001
 40
0.9687500000000001
 40
0.9687500000000001
 40
1.0
 40
1.0
 40
1.0
 40
1.0
 10
136.1115300102336
 20
102.0530170118672
 30
0.0
 10
135.9655412313918
 20
102.0740312404974
 30
0.0
 10
135.79330060275
 20
102.096407742554
 30
0.0
 10
135.4005933952465
 20
102.1371949447526
 30
0.0
 10
135.184664569141
 20
102.1549995588585
 30
0.0
 10
134.842266142876
 20
102.1732403626331
 30
0.0
 10
134.7238669735306
 20
102.1779540072276
 30
0.0
 10
134.4878256636226
 20
102.1839466936235
 30
0.0
 10
134.3692354741787
 20
102.1852928021264
 30
0.0
 10
134.1309147463137
 20
102.1845843865336
 30
0.0
 10
134.0101650193631
 20
102.1824825109772
 30
0.0
 10
133.7748064124951
 20
102.1750755513241
 30
0.0
 10
133.6597181213272
 20
102.1698007155763
 30
0.0
 10
133.322086251402
 20
102.1499077862131
 30
0.0
 10
133.106981291376
 20
102.1309877437826
 30
0.0
 10
132.7263394067867
 20
102.0896304936407
 30
0.0
 10
132.5560006678011
 20
102.0667808092854
 30
0.0
 10
132.2800479137132
 20
102.0260969477171
 30
0.0
 10
132.1704425417339
 20
102.0077815452247
 30
0.0
 10
132.0251249861429
 20
101.9827878823133
 30
0.0
 10
131.9872824771528
 20
101.9758145326443
 30
0.0
 10
131.9873888381511
 20
101.9758337193334
 30
0.0
 10
131.9965990950345
 20
101.9775049523989
 30
0.0
 10
132.0336303782841
 20
101.9841070527169
 30
0.0
 10
132.0617140484782
 20
101.9890821492474
 30
0.0
 10
132.134713291773
 20
102.0016351462703
 30
0.0
 10
132.1797343748208
 20
102.0092332611594
 30
0.0
 10
132.2868476418356
 20
102.0265466389855
 30
0.0
 10
132.3495078843988
 20
102.0363418742861
 30
0.0
 10
132.4881976341937
 20
102.0567801128768
 30
0.0
 10
132.5644840449932
 20
102.0674714716863
 30
0.0
 10
132.7308852877484
 20
102.0890442249598
 30
0.0
 10
132.8218854016678
 20
102.1000189046893
 30
0.0
 10
133.1091093381771
 20
102.131204427501
 30
0.0
 10
133.3206400526401
 20
102.1498318463657
 30
0.0
 10
133.7747386937688
 20
102.1765683219551
 30
0.0
 10
134.0087165321819
 20
102.1842153119349
 30
0.0
 10
134.49082675641
 20
102.1856600652583
 30
0.0
 10
134.7262944848338
 20
102.1794088016698
 30
0.0
 10
135.1854303755643
 20
102.154968529769
 30
0.0
 10
135.4004857608579
 20
102.1372026984631
 30
0.0
 10
135.6948440700417
 20
102.1066353061735
 30
0.0
 10
135.7882139562605
 20
102.0957904596871
 30
0.0
 10
135.9598895819708
 20
102.0742414113263
 30
0.0
 10
136.0390643573641
 20
102.0634480176563
 30
0.0
 10
136.1115300102336
 20
102.0530170118672
 30
0.0
  0
SPLINE
  5
141
330
1F
100
AcDbEntity
  8
0
  6
HIDDEN
 62
     7
370
     0
100
AcDbSpline
210
0.0
220
0.0
230
1.0
 70
    11
 71
     3
 72
    14
 73
    10
 74
     0
 42
0.00000001
 43
0.00000001
 12
1.0
 22
0.0
 32
0.0
 13
1.0
 23
0.0
 33
0.0
 40
0.0
 40
0.0
 40
0.0
 40
0.0
 40
0.25
 40
0.25
 40
0.5
 40
0.5
 40
0.75
 40
0.75
 40
1.0
 40
1.0
 40
1.0
 40
1.0
 10
136.1115300102336
 20
127.398637598827
 30
0.0
 10
136.2654059059364
 20
127.4207871316789
 30
0.0
 10
136.3832864735655
 20
127.4335991987526
 30
0.0
 10
136.5463502634782
 20
127.449951907583
 30
0.0
 10
136.5872667821018
 20
127.4531276703009
 30
0.0
 10
136.587439514618
 20
127.4531423724776
 30
0.0
 10
136.5465117563842
 20
127.4499628214842
 30
0.0
 10
136.3841743909187
 20
127.4336934900067
 30
0.0
 10
136.2654041228126
 20
127.4207868750087
 30
0.0
 10
136.1115300102336
 20
127.398637598827
 30
0.0
  0
SPLINE
  5
142
330
1F
100
AcDbEntity
  8
0
  6
HIDDEN
 62
     7
370
     0
100
AcDbSpline
210
0.0
220
0.0
230
1.0
 70
    11
 71
     3
 72
    14
 73
    10
 74
     0
 42
0.00000001
 43
0.00000001
 12
1.0
 22
0.0
 32
0.0
 13
1.0
 23
0.0
 33
0.0
 40
0.0
 40
0.0
 40
0.0
 40
0.0
 40
0.2500000000000001
 40
0.2500000000000001
 40
0.5
 40
0.5
 40
0.7499999999999999
 40
0.7499999999999999
 40
1.0
 40
1.0
 40
1.0
 40
1.0
 10
136.1115300102336
 20
102.0530170118672
 30
0.0
 10
136.2654059059364
 20
102.0308674790152
 30
0.0
 10
136.3832864735655
 20
102.0180554119416
 30
0.0
 10
136.5463502634782
 20
102.0017027031111
 30
0.0
 10
136.5872667821018
 20
101.9985269403933
 30
0.0
 10
136.587439514618
 20
101.9985122382165
 30
0.0
 10
136.5465117563842
 20
102.00169178921
 30
0.0
 10
136.3841743909187
 20
102.0179611206874
 30
0.0
 10
136.2654041228126
 20
102.0308677356854
 30
0.0
 10
136.1115300102336
 20
102.0530170118672
 30
0.0
  0
LINE
  5
143
330
1F
100
AcDbEntity
  8
0
  6
HIDDEN
 62
     7
370
     0
100
AcDbLine
 10
140.2873532824
 20
104.2258274469
 30
0.0
 11
140.2873532824
 21
125.2073860455
 31
0.0
  0
LINE
  5
144
330
1F
100
AcDbEntity
  8
0
  6
HIDDEN
 62
     7
370
     0
100
AcDbLine
 10
128.2900027908
 20
125.2258271638
 30
0.0
 11
128.2900027908
 21
104.2258274469
 31
0.0
  0
SPLINE
  5
145
330
1F
100
AcDbEntity
  8
0
  6
HIDDEN
 62
     7
370
     0
100
AcDbSpline
210
0.0
220
0.0
230
1.0
 70
     8
 71
     3
 72
    62
 73
    58
 74
     0
 42
0.00000001
 43
0.00000001
 12
1.0
 22
0.0
 32
0.0
 13
1.0
 23
0.0
 33
0.0
 40
-0.0312500000000002
 40
-0.0312500000000002
 40
0.0
 40
0.0
 40
0.03125
 40
0.03125
 40
0.0624999999999999
 40
0.0624999999999999
 40
0.0937499999999999
 40
0.0937499999999999
 40
0.1249999999999999
 40
0.1249999999999999
 40
0.1874999999999998
 40
0.1874999999999998
 40
0.2187499999999993
 40
0.2187499999999993
 40
0.2499999999999987
 40
0.2499999999999987
 40
0.2812499999999982
 40
0.2812499999999982
 40
0.3124999999999977
 40
0.3124999999999977
 40
0.343749999999997
 40
0.343749999999997
 40
0.3749999999999964
 40
0.3749999999999964
 40
0.4062499999999957
 40
0.4062499999999957
 40
0.4374999999999951
 40
0.4374999999999951
 40
0.4687499999999944
 40
0.4687499999999944
 40
0.4999999999999938
 40
0.4999999999999938
 40
0.5624999999999951
 40
0.5624999999999951
 40
0.5937499999999959
 40
0.5937499999999959
 40
0.6249999999999967
 40
0.6249999999999967
 40
0.6562499999999973
 40
0.6562499999999973
 40
0.6874999999999981
 40
0.6874999999999981
 40
0.7499999999999986
 40
0.7499999999999986
 40
0.7812499999999987
 40
0.7812499999999987
 40
0.8124999999999989
 40
0.8124999999999989
 40
0.8437499999999991
 40
0.8437499999999991
 40
0.8749999999999992
 40
0.8749999999999992
 40
0.9374999999999997
 40
0.9374999999999997
 40
0.9687499999999998
 40
0.9687499999999998
 40
1.0
 40
1.0
 40
1.03125
 40
1.03125
 10
208.452963805269
 20
113.3027760495429
 30
0.0
 10
208.1217427594432
 20
113.3027760495429
 30
0.0
 10
207.9589854795943
 20
113.3192994157182
 30
0.0
 10
207.6389169937909
 20
113.3839256952546
 30
0.0
 10
207.4799185128153
 20
113.4328421322731
 30
0.0
 10
207.1773843342288
 20
113.5600416179889
 30
0.0
 10
207.0339626215539
 20
113.6377756980156
 30
0.0
 10
206.7625321104996
 20
113.8211496096401
 30
0.0
 10
206.6343507170762
 20
113.9275008606762
 30
0.0
 10
206.2894338365354
 20
114.2754810576439
 30
0.0
 10
206.1032992673613
 20
114.5555274041031
 30
0.0
 10
205.9160566764881
 20
115.0077904991223
 30
0.0
 10
205.867822111674
 20
115.16600236803
 30
0.0
 10
205.8034314415826
 20
115.488770934908
 30
0.0
 10
205.7874505345123
 20
115.6509181101269
 30
0.0
 10
205.787256906737
 20
115.9766806833674
 30
0.0
 10
205.8035872846221
 20
116.1418890269808
 30
0.0
 10
205.8675510363711
 20
116.4605255450307
 30
0.0
 10
205.9148723426444
 20
116.6151751733099
 30
0.0
 10
206.040469228732
 20
116.9151958737581
 30
0.0
 10
206.1185564598412
 20
117.0591690995239
 30
0.0
 10
206.299296159039
 20
117.3258965716489
 30
0.0
 10
206.4030921481132
 20
117.4507201519334
 30
0.0
 10
206.6354042182653
 20
117.6793437492256
 30
0.0
 10
206.7611698365715
 20
117.7806566753195
 30
0.0
 10
207.0314856170346
 20
117.9583237721049
 30
0.0
 10
207.1778317134151
 20
118.035272594101
 30
0.0
 10
207.4799572778541
 20
118.1581538104724
 30
0.0
 10
207.6357771071725
 20
118.2046248550631
 30
0.0
 10
207.9570346323947
 20
118.2675996066214
 30
0.0
 10
208.1229663029212
 20
118.2836843099837
 30
0.0
 10
208.6130760557114
 20
118.283879392792
 30
0.0
 10
208.9428560785006
 20
118.2196420741121
 30
0.0
 10
209.3943994031101
 20
118.0364230742385
 30
0.0
 10
209.540396997294
 20
117.9600022305416
 30
0.0
 10
209.8125877331896
 20
117.7814555681721
 30
0.0
 10
209.9381966465597
 20
117.6801808507216
 30
0.0
 10
210.1688618842828
 20
117.4536758580703
 30
0.0
 10
210.2742902026966
 20
117.3273551946433
 30
0.0
 10
210.4554214234854
 20
117.060436999969
 30
0.0
 10
210.5324243354906
 20
116.918846707336
 30
0.0
 10
210.7217353903806
 20
116.4686440436009
 30
0.0
 10
210.7871210202301
 20
116.1459179693304
 30
0.0
 10
210.7874684903953
 20
115.6525732199094
 30
0.0
 10
210.7713917918841
 20
115.4902990005915
 30
0.0
 10
210.7078636018888
 20
115.1699833499474
 30
0.0
 10
210.6595680322787
 20
115.0103472707876
 30
0.0
 10
210.534422077996
 20
114.707397397357
 30
0.0
 10
210.4577595889257
 20
114.5631849044152
 30
0.0
 10
210.2761248023004
 20
114.2893468801002
 30
0.0
 10
210.1711980120613
 20
114.1605308161279
 30
0.0
 10
209.8267407369246
 20
113.8126033611
 30
0.0
 10
209.5486485295474
 20
113.6239678875615
 30
0.0
 10
209.0976815798897
 20
113.4339093517569
 30
0.0
 10
208.9390962502839
 20
113.3847330059171
 30
0.0
 10
208.6164188078525
 20
113.3193023717149
 30
0.0
 10
208.452963805269
 20
113.3027760495429
 30
0.0
 10
208.1217427594432
 20
113.3027760495429
 30
0.0
  0
SPLINE
  5
146
330
1F
100
AcDbEntity
  8
0
  6
HIDDEN
 62
     7
370
     0
100
AcDbSpline
210
0.0
220
0.0
230
1.0
 70
     8
 71
     3
 72
    62
 73
    58
 74
     0
 42
0.00000001
 43
0.00000001
 12
1.0
 22
0.0
 32
0.0
 13
1.0
 23
0.0
 33
0.0
 40
-0.0312500000000002
 40
-0.0312500000000002
 40
0.0
 40
0.0
 40
0.03125
 40
0.03125
 40
0.0624999999999999
 40
0.0624999999999999
 40
0.0937499999999999
 40
0.0937499999999999
 40
0.1249999999999999
 40
0.1249999999999999
 40
0.1874999999999998
 40
0.1874999999999998
 40
0.2187499999999993
 40
0.2187499999999993
 40
0.2499999999999987
 40
0.2499999999999987
 40
0.2812499999999982
 40
0.2812499999999982
 40
0.3124999999999977
 40
0.3124999999999977
 40
0.343749999999997
 40
0.343749999999997
 40
0.3749999999999964
 40
0.3749999999999964
 40
0.4062499999999957
 40
0.4062499999999957
 40
0.4374999999999951
 40
0.4374999999999951
 40
0.4687499999999944
 40
0.4687499999999944
 40
0.4999999999999938
 40
0.4999999999999938
 40
0.5624999999999951
 40
0.5624999999999951
 40
0.5937499999999959
 40
0.5937499999999959
 40
0.6249999999999967
 40
0.6249999999999967
 40
0.6562499999999973
 40
0.6562499999999973
 40
0.6874999999999981
 40
0.6874999999999981
 40
0.7499999999999986
 40
0.7499999999999986
 40
0.7812499999999987
 40
0.7812499999999987
 40
0.8124999999999989
 40
0.8124999999999989
 40
0.8437499999999991
 40
0.8437499999999991
 40
0.8749999999999992
 40
0.8749999999999992
 40
0.9374999999999997
 40
0.9374999999999997
 40
0.9687499999999998
 40
0.9687499999999998
 40
1.0
 40
1.0
 40
1.03125
 40
1.03125
 10
208.452963805269
 20
113.3027760495429
 30
0.0
 10
208.1217427594432
 20
113.3027760495429
 30
0.0
 10
207.9589854795943
 20
113.3192994157182
 30
0.0
 10
207.6389169937909
 20
113.3839256952546
 30
0.0
 10
207.4799185128153
 20
113.4328421322731
 30
0.0
 10
207.1773843342288
 20
113.5600416179889
 30
0.0
 10
207.0339626215539
 20
113.6377756980156
 30
0.0
 10
206.7625321104996
 20
113.8211496096401
 30
0.0
 10
206.6343507170762
 20
113.9275008606762
 30
0.0
 10
206.2894338365354
 20
114.2754810576439
 30
0.0
 10
206.1032992673613
 20
114.5555274041031
 30
0.0
 10
205.9160566764881
 20
115.0077904991223
 30
0.0
 10
205.867822111674
 20
115.16600236803
 30
0.0
 10
205.8034314415826
 20
115.488770934908
 30
0.0
 10
205.7874505345123
 20
115.6509181101269
 30
0.0
 10
205.787256906737
 20
115.9766806833674
 30
0.0
 10
205.8035872846221
 20
116.1418890269808
 30
0.0
 10
205.8675510363711
 20
116.4605255450307
 30
0.0
 10
205.9148723426444
 20
116.6151751733099
 30
0.0
 10
206.040469228732
 20
116.9151958737581
 30
0.0
 10
206.1185564598412
 20
117.0591690995239
 30
0.0
 10
206.299296159039
 20
117.3258965716489
 30
0.0
 10
206.4030921481132
 20
117.4507201519334
 30
0.0
 10
206.6354042182653
 20
117.6793437492256
 30
0.0
 10
206.7611698365715
 20
117.7806566753195
 30
0.0
 10
207.0314856170346
 20
117.9583237721049
 30
0.0
 10
207.1778317134151
 20
118.035272594101
 30
0.0
 10
207.4799572778541
 20
118.1581538104724
 30
0.0
 10
207.6357771071725
 20
118.2046248550631
 30
0.0
 10
207.9570346323947
 20
118.2675996066214
 30
0.0
 10
208.1229663029212
 20
118.2836843099837
 30
0.0
 10
208.6130760557114
 20
118.283879392792
 30
0.0
 10
208.9428560785006
 20
118.2196420741121
 30
0.0
 10
209.3943994031101
 20
118.0364230742385
 30
0.0
 10
209.540396997294
 20
117.9600022305416
 30
0.0
 10
209.8125877331896
 20
117.7814555681721
 30
0.0
 10
209.9381966465597
 20
117.6801808507216
 30
0.0
 10
210.1688618842828
 20
117.4536758580703
 30
0.0
 10
210.2742902026966
 20
117.3273551946433
 30
0.0
 10
210.4554214234854
 20
117.060436999969
 30
0.0
 10
210.5324243354906
 20
116.918846707336
 30
0.0
 10
210.7217353903806
 20
116.4686440436009
 30
0.0
 10
210.7871210202301
 20
116.1459179693304
 30
0.0
 10
210.7874684903953
 20
115.6525732199094
 30
0.0
 10
210.7713917918841
 20
115.4902990005915
 30
0.0
 10
210.7078636018888
 20
115.1699833499474
 30
0.0
 10
210.6595680322787
 20
115.0103472707876
 30
0.0
 10
210.534422077996
 20
114.707397397357
 30
0.0
 10
210.4577595889257
 20
114.5631849044152
 30
0.0
 10
210.2761248023004
 20
114.2893468801002
 30
0.0
 10
210.1711980120613
 20
114.1605308161279
 30
0.0
 10
209.8267407369246
 20
113.8126033611
 30
0.0
 10
209.5486485295474
 20
113.6239678875615
 30
0.0
 10
209.0976815798897
 20
113.4339093517569
 30
0.0
 10
208.9390962502839
 20
113.3847330059171
 30
0.0
 10
208.6164188078525
 20
113.3193023717149
 30
0.0
 10
208.452963805269
 20
113.3027760495429
 30
0.0
 10
208.1217427594432
 20
113.3027760495429
 30
0.0
  0
LINE
  5
147
330
1F
100
AcDbEntity
  8
0
  6
HIDDEN
 62
     7
370
     0
100
AcDbLine
 10
226.287356203
 20
102.225835501
 30
0.0
 11
226.287356203
 21
127.2258274916
 31
0.0
  0
LINE
  5
148
330
1F
100
AcDbEntity
  8
0
  6
HIDDEN
 62
     7
370
     0
100
AcDbLine
 10
157.3273526482
 20
128.5065431807
 30
0.0
 11
157.3273526482
 21
132.3349336821
 31
0.0
  0
LINE
  5
149
330
1F
100
AcDbEntity
  8
0
  6
HIDDEN
 62
     7
370
     0
100
AcDbLine
 10
152.7373535536
 20
126.5758276645
 30
0.0
 11
160.2373538516
 21
126.5758276645
 31
0.0
  0
LINE
  5
14A
330
1F
100
AcDbEntity
  8
0
  6
HIDDEN
 62
     7
370
     0
100
AcDbLine
 10
155.2473535738
 20
128.5065431807
 30
0.0
 11
155.2473535738
 21
132.3349336821
 31
0.0
  0
SPLINE
  5
14B
330
1F
100
AcDbEntity
  8
0
  6
HIDDEN
 62
     7
370
     0
100
AcDbSpline
210
0.0
220
0.0
230
1.0
 70
     8
 71
     3
 72
     8
 73
     4
 74
     0
 42
0.00000001
 43
0.00000001
 12
1.0
 22
0.0
 32
0.0
 13
1.0
 23
0.0
 33
0.0
 40
0.0
 40
0.0
 40
0.0
 40
0.0
 40
1.0
 40
1.0
 40
1.0
 40
1.0
 10
207.9150046969789
 20
111.8389862242084
 30
0.0
 10
207.6661048287287
 20
111.9344961760852
 30
0.0
 10
207.4166980975639
 20
112.0287091467219
 30
0.0
 10
207.1689620717987
 20
112.1271971856243
 30
0.0
  0
SPLINE
  5
14C
330
1F
100
AcDbEntity
  8
0
  6
HIDDEN
 62
     7
370
     0
100
AcDbSpline
210
0.0
220
0.0
230
1.0
 70
     8
 71
     3
 72
    76
 73
    72
 74
     0
 42
0.00000001
 43
0.00000001
 12
1.0
 22
0.0
 32
0.0
 13
1.0
 23
0.0
 33
0.0
 40
0.0
 40
0.0
 40
0.0
 40
0.0
 40
0.0078124999999998
 40
0.0078124999999998
 40
0.0156249999999995
 40
0.0156249999999995
 40
0.0312499999999999
 40
0.0312499999999999
 40
0.0624999999999993
 40
0.0624999999999993
 40
0.0937499999999987
 40
0.0937499999999987
 40
0.1249999999999981
 40
0.1249999999999981
 40
0.1562499999999974
 40
0.1562499999999974
 40
0.1874999999999967
 40
0.1874999999999967
 40
0.218749999999996
 40
0.218749999999996
 40
0.2499999999999953
 40
0.2499999999999953
 40
0.2812499999999947
 40
0.2812499999999947
 40
0.3124999999999939
 40
0.3124999999999939
 40
0.3437499999999933
 40
0.3437499999999933
 40
0.3749999999999926
 40
0.3749999999999926
 40
0.406249999999992
 40
0.406249999999992
 40
0.4374999999999912
 40
0.4374999999999912
 40
0.4531249999999908
 40
0.4531249999999908
 40
0.4687499999999905
 40
0.4687499999999905
 40
0.4843749999999901
 40
0.4843749999999901
 40
0.4999999999999897
 40
0.4999999999999897
 40
0.5312499999999906
 40
0.5312499999999906
 40
0.5624999999999915
 40
0.5624999999999915
 40
0.6249999999999919
 40
0.6249999999999919
 40
0.6874999999999925
 40
0.6874999999999925
 40
0.7187499999999927
 40
0.7187499999999927
 40
0.7499999999999929
 40
0.7499999999999929
 40
0.7812499999999931
 40
0.7812499999999931
 40
0.8124999999999933
 40
0.8124999999999933
 40
0.8437499999999936
 40
0.8437499999999936
 40
0.8749999999999937
 40
0.8749999999999937
 40
0.937499999999996
 40
0.937499999999996
 40
0.953124999999997
 40
0.953124999999997
 40
0.968749999999998
 40
0.968749999999998
 40
0.984374999999999
 40
0.984374999999999
 40
1.0
 40
1.0
 40
1.0
 40
1.0
 10
207.1689620717987
 20
112.127197185624
 30
0.0
 10
207.1772820532228
 20
112.1254722527206
 30
0.0
 10
207.1813126881854
 20
112.1265320969401
 30
0.0
 10
207.1772442637157
 20
112.1362137453701
 30
0.0
 10
207.1690931604169
 20
112.1447206774439
 30
0.0
 10
207.1314344415112
 20
112.1786792422542
 30
0.0
 10
207.0915814809541
 20
112.2108422989574
 30
0.0
 10
206.9658963675083
 20
112.3187437578675
 30
0.0
 10
206.8748982176204
 20
112.4046813832316
 30
0.0
 10
206.7048114445562
 20
112.5956148597553
 30
0.0
 10
206.6234559231578
 20
112.7021580471691
 30
0.0
 10
206.4775189125763
 20
112.9330457279407
 30
0.0
 10
206.4130906923322
 20
113.0566103804853
 30
0.0
 10
206.3048245102639
 20
113.3217474021897
 30
0.0
 10
206.2607801941002
 20
113.4648649824832
 30
0.0
 10
206.2016990910893
 20
113.7605905741496
 30
0.0
 10
206.1859749469129
 20
113.9151394546276
 30
0.0
 10
206.188921009357
 20
114.2329459190804
 30
0.0
 10
206.2073506517244
 20
114.3909691146968
 30
0.0
 10
206.2814232994704
 20
114.7050287581617
 30
0.0
 10
206.3379883501596
 20
114.8608041381085
 30
0.0
 10
206.4825875443195
 20
115.1464625023147
 30
0.0
 10
206.5728206925486
 20
115.2808332513089
 30
0.0
 10
206.7744565776534
 20
115.5154287962007
 30
0.0
 10
206.8879636332502
 20
115.6185993096698
 30
0.0
 10
207.1264661631504
 20
115.7906517158453
 30
0.0
 10
207.2524245130491
 20
115.8606563610253
 30
0.0
 10
207.5109863682264
 20
115.9702683255688
 30
0.0
 10
207.6414851585498
 20
116.0092381575514
 30
0.0
 10
207.9052622694756
 20
116.0604456507855
 30
0.0
 10
208.039569754337
 20
116.0725807165988
 30
0.0
 10
208.3067523132681
 20
116.0710722788919
 30
0.0
 10
208.4389560657114
 20
116.0578357310016
 30
0.0
 10
208.6421708066253
 20
116.0186641964352
 30
0.0
 10
208.7106350067005
 20
116.0024074032539
 30
0.0
 10
208.8552897575602
 20
115.9613339199667
 30
0.0
 10
208.9326750489546
 20
115.9359270086953
 30
0.0
 10
209.0869101271176
 20
115.8794729322992
 30
0.0
 10
209.1612136474153
 20
115.8494936460837
 30
0.0
 10
209.2878892134542
 20
115.7938673677326
 30
0.0
 10
209.3430957158828
 20
115.7671600716785
 30
0.0
 10
209.5003807416489
 20
115.6838890436793
 30
0.0
 10
209.5924296378465
 20
115.6248650377552
 30
0.0
 10
209.7637214943794
 20
115.4941241703389
 30
0.0
 10
209.8426236794728
 20
115.422488983499
 30
0.0
 10
210.0617546511417
 20
115.184157901263
 30
0.0
 10
210.1858368465607
 20
114.9922244754581
 30
0.0
 10
210.3563833165345
 20
114.5373344975194
 30
0.0
 10
210.4042382061313
 20
114.2688975910571
 30
0.0
 10
210.3707647257894
 20
113.8202637430993
 30
0.0
 10
210.3418972842241
 20
113.6653825968881
 30
0.0
 10
210.2450089880949
 20
113.3559496402179
 30
0.0
 10
210.1782356704117
 20
113.2054231013149
 30
0.0
 10
210.01389727359
 20
112.9224884578061
 30
0.0
 10
209.9183611354739
 20
112.7934821515509
 30
0.0
 10
209.7131345361467
 20
112.564771495756
 30
0.0
 10
209.6053445750573
 20
112.4665403166147
 30
0.0
 10
209.3820923272155
 20
112.2945532849133
 30
0.0
 10
209.2683856505083
 20
112.2224286072743
 30
0.0
 10
209.0430119625568
 20
112.1021333754729
 30
0.0
 10
208.9304419051446
 20
112.0533930184081
 30
0.0
 10
208.5939486186082
 20
111.9355125647167
 30
0.0
 10
208.3770042536729
 20
111.8975154996582
 30
0.0
 10
208.1304503903288
 20
111.8821197174789
 30
0.0
 10
208.0824722274718
 20
111.8806381788243
 30
0.0
 10
207.9917194701974
 20
111.87972801342
 30
0.0
 10
207.9483074722357
 20
111.8804328408655
 30
0.0
 10
207.8768123770299
 20
111.8804270852918
 30
0.0
 10
207.8484116936728
 20
111.8796666064073
 30
0.0
 10
207.8447070618643
 20
111.8660666322185
 30
0.0
 10
207.8730617420597
 20
111.8527279863286
 30
0.0
 10
207.9150046969804
 20
111.8389862242085
 30
0.0
  0
LWPOLYLINE
  5
14D
330
1F
100
AcDbEntity
  8
0
  6
HIDDEN
 62
     7
370
     0
100
AcDbPolyline
 90
       24
 70
   128
 43
0.0
 10
207.2034986667
 20
116.6137711338
 10
207.2829889111
 20
116.4996586235
 10
207.3005499295
 20
116.2486901234
 10
207.254885321
 20
115.8794789303
 10
207.1493776492
 20
115.4194075575
 10
206.9918500237
 20
114.9025975978
 10
206.7939849547
 20
114.3673783594
 10
206.5704600863
 20
113.853444644
 10
206.33785296
 20
113.3989125451
 10
206.1134191207
 20
113.0374926801
 10
205.9137957148
 20
112.7959897935
 10
205.7537870459
 20
112.6923151973
 10
205.6452693395
 20
112.7341578908
 10
205.5962892226
 20
112.9184144742
 10
205.6104676775
 20
113.2314196515
 10
205.6867690734
 20
113.6499592762
 10
205.8195235185
 20
114.1429920176
 10
205.9988887958
 20
114.6739520158
 10
206.2115656189
 20
115.203460366
 10
206.4417736582
 20
115.6922458399
 10
206.6724436335
 20
116.1040574738
 10
206.8864690117
 20
116.4083530388
 10
207.0679726056
 20
116.582564377
 10
207.2034986667
 20
116.6137711338
  0
LINE
  5
14E
330
1F
100
AcDbEntity
  8
0
  6
HIDDEN
 62
     7
370
     0
100
AcDbLine
 10
120.3873535595
 20
104.8608208734
 30
0.0
 11
120.3873535595
 21
124.5908337373
 31
0.0
  0
LINE
  5
14F
330
1F
100
AcDbEntity
  8
0
  6
HIDDEN
 62
     7
370
     0
100
AcDbLine
 10
146.4567283145
 20
125.2258271638
 30
0.0
 11
146.4567283145
 21
104.2258274469
 31
0.0
  0
LINE
  5
150
330
1F
100
AcDbEntity
  8
0
  6
HIDDEN
 62
     7
370
     0
100
AcDbLine
 10
148.2373537473
 20
124.6007364902
 30
0.0
 11
148.2373537473
 21
104.8508268509
 31
0.0
  0
LINE
  5
151
330
1F
100
AcDbEntity
  8
0
  6
HIDDEN
 62
     7
370
     0
100
AcDbLine
 10
121.337352877
 20
105.0279215637
 30
0.0
 11
125.587353108
 21
105.0279215637
 31
0.0
  0
LINE
  5
152
330
1F
100
AcDbEntity
  8
0
  6
HIDDEN
 62
     7
370
     0
100
AcDbLine
 10
121.337352877
 20
124.423733047
 30
0.0
 11
121.337352877
 21
105.0279215637
 31
0.0
  0
LINE
  5
153
330
1F
100
AcDbEntity
  8
0
  6
HIDDEN
 62
     7
370
     0
100
AcDbLine
 10
123.0873526982
 20
124.423733047
 30
0.0
 11
121.337352877
 21
124.423733047
 31
0.0
  0
SPLINE
  5
154
330
1F
100
AcDbEntity
  8
0
  6
HIDDEN
 62
     7
370
     0
100
AcDbSpline
210
0.0
220
0.0
230
1.0
 70
     8
 71
     3
 72
    14
 73
    10
 74
     0
 42
0.00000001
 43
0.00000001
 12
1.0
 22
0.0
 32
0.0
 13
1.0
 23
0.0
 33
0.0
 40
0.0
 40
0.0
 40
0.0
 40
0.0
 40
0.2500000000000001
 40
0.2500000000000001
 40
0.5000000000000002
 40
0.5000000000000002
 40
0.7500000000000003
 40
0.7500000000000003
 40
1.0
 40
1.0
 40
1.0
 40
1.0
 10
123.9873532823561
 20
124.7500167987675
 30
0.0
 10
123.9873532823561
 20
124.713517526564
 30
0.0
 10
123.9649468154311
 20
124.6757499200422
 30
0.0
 10
123.877606266734
 20
124.6005633403167
 30
0.0
 10
123.8134850944962
 20
124.5641647718604
 30
0.0
 10
123.6497840950358
 20
124.499924533634
 30
0.0
 10
123.5503246474596
 20
124.4724012820695
 30
0.0
 10
123.3302535511967
 20
124.4342779885134
 30
0.0
 10
123.2083436905757
 20
124.4237330070953
 30
0.0
 10
123.0873532823561
 20
124.4237330070953
 30
0.0
  0
LINE
  5
155
330
1F
100
AcDbEntity
  8
0
  6
HIDDEN
 62
     7
370
     0
100
AcDbLine
 10
123.987353032
 20
124.7500172544
 30
0.0
 11
123.987353032
 21
125.2258271638
 31
0.0
  0
SPLINE
  5
156
330
1F
100
AcDbEntity
  8
0
  6
HIDDEN
 62
     7
370
     0
100
AcDbSpline
210
0.0
220
0.0
230
1.0
 70
     8
 71
     3
 72
    14
 73
    10
 74
     0
 42
0.00000001
 43
0.00000001
 12
1.0
 22
0.0
 32
0.0
 13
1.0
 23
0.0
 33
0.0
 40
0.0
 40
0.0
 40
0.0
 40
0.0
 40
0.25
 40
0.25
 40
0.5
 40
0.5
 40
0.75
 40
0.75
 40
1.0
 40
1.0
 40
1.0
 40
1.0
 10
123.9873532823561
 20
124.7500167987675
 30
0.0
 10
123.9873532823561
 20
124.713517526564
 30
0.0
 10
123.9649468154311
 20
124.6757499200422
 30
0.0
 10
123.877606266734
 20
124.6005633403167
 30
0.0
 10
123.8134850944962
 20
124.5641647718604
 30
0.0
 10
123.6497840950358
 20
124.499924533634
 30
0.0
 10
123.5503246474596
 20
124.4724012820695
 30
0.0
 10
123.3302535511967
 20
124.4342779885134
 30
0.0
 10
123.2083436905757
 20
124.4237330070953
 30
0.0
 10
123.0873532823561
 20
124.4237330070953
 30
0.0
  0
SPLINE
  5
157
330
1F
100
AcDbEntity
  8
0
  6
HIDDEN
 62
     7
370
     0
100
AcDbSpline
210
0.0
220
0.0
230
1.0
 70
     8
 71
     3
 72
    14
 73
    10
 74
     0
 42
0.00000001
 43
0.00000001
 12
1.0
 22
0.0
 32
0.0
 13
1.0
 23
0.0
 33
0.0
 40
0.0
 40
0.0
 40
0.0
 40
0.0
 40
0.25
 40
0.25
 40
0.5
 40
0.5
 40
0.75
 40
0.75
 40
1.0
 40
1.0
 40
1.0
 40
1.0
 10
125.5873532823561
 20
105.0279216035989
 30
0.0
 10
125.7081341081368
 20
105.0279216035989
 30
0.0
 10
125.8298476640379
 20
105.0174406970957
 30
0.0
 10
126.0505280909316
 20
104.9792243176573
 30
0.0
 10
126.1497433278028
 20
104.9517819996923
 30
0.0
 10
126.3143022508665
 20
104.8871330724497
 30
0.0
 10
126.3781564813392
 20
104.8506831652433
 30
0.0
 10
126.464854110473
 20
104.7759186048823
 30
0.0
 10
126.4873532823561
 20
104.7376264599382
 30
0.0
 10
126.4873532823561
 20
104.7016378119267
 30
0.0
  0
LINE
  5
158
330
1F
100
AcDbEntity
  8
0
  6
HIDDEN
 62
     7
370
     0
100
AcDbLine
 10
126.4873534418
 20
104.7016373563
 30
0.0
 11
126.4873534418
 21
104.2258274469
 31
0.0
  0
SPLINE
  5
159
330
1F
100
AcDbEntity
  8
0
  6
HIDDEN
 62
     7
370
     0
100
AcDbSpline
210
0.0
220
0.0
230
1.0
 70
     8
 71
     3
 72
    14
 73
    10
 74
     0
 42
0.00000001
 43
0.00000001
 12
1.0
 22
0.0
 32
0.0
 13
1.0
 23
0.0
 33
0.0
 40
0.0
 40
0.0
 40
0.0
 40
0.0
 40
0.2499999999999998
 40
0.2499999999999998
 40
0.4999999999999999
 40
0.4999999999999999
 40
0.75
 40
0.75
 40
1.0
 40
1.0
 40
1.0
 40
1.0
 10
125.5873532823561
 20
105.0279216035989
 30
0.0
 10
125.7081341081368
 20
105.0279216035989
 30
0.0
 10
125.829847664038
 20
105.0174406970957
 30
0.0
 10
126.0505280909316
 20
104.9792243176573
 30
0.0
 10
126.1497433278029
 20
104.9517819996923
 30
0.0
 10
126.3143022508665
 20
104.8871330724497
 30
0.0
 10
126.3781564813392
 20
104.8506831652433
 30
0.0
 10
126.4648541104731
 20
104.7759186048823
 30
0.0
 10
126.4873532823562
 20
104.7376264599382
 30
0.0
 10
126.4873532823562
 20
104.7016378119267
 30
0.0
  0
LINE
  5
15A
330
1F
100
AcDbEntity
  8
0
  6
HIDDEN
 62
     7
370
     0
100
AcDbLine
 10
121.337352877
 20
105.0279215637
 30
0.0
 11
121.337352877
 21
124.423733047
 31
0.0
  0
SPLINE
  5
15B
330
1F
100
AcDbEntity
  8
0
  6
HIDDEN
 62
     7
370
     0
100
AcDbSpline
210
0.0
220
0.0
230
1.0
 70
     8
 71
     3
 72
    64
 73
    60
 74
     0
 42
0.00000001
 43
0.00000001
 12
1.0
 22
0.0
 32
0.0
 13
1.0
 23
0.0
 33
0.0
 40
-0.0625000000000003
 40
-0.0625000000000003
 40
0.0
 40
0.0
 40
0.0312499999999999
 40
0.0312499999999999
 40
0.0624999999999998
 40
0.0624999999999998
 40
0.0937499999999997
 40
0.0937499999999997
 40
0.1249999999999995
 40
0.1249999999999995
 40
0.1562499999999994
 40
0.1562499999999994
 40
0.1874999999999993
 40
0.1874999999999993
 40
0.2187499999999991
 40
0.2187499999999991
 40
0.249999999999999
 40
0.249999999999999
 40
0.2812499999999988
 40
0.2812499999999988
 40
0.3124999999999987
 40
0.3124999999999987
 40
0.3437499999999986
 40
0.3437499999999986
 40
0.3749999999999985
 40
0.3749999999999985
 40
0.4062499999999984
 40
0.4062499999999984
 40
0.4374999999999983
 40
0.4374999999999983
 40
0.4687499999999982
 40
0.4687499999999982
 40
0.4999999999999981
 40
0.4999999999999981
 40
0.5624999999999978
 40
0.5624999999999978
 40
0.5937499999999977
 40
0.5937499999999977
 40
0.6249999999999976
 40
0.6249999999999976
 40
0.6562499999999974
 40
0.6562499999999974
 40
0.6874999999999973
 40
0.6874999999999973
 40
0.7187499999999972
 40
0.7187499999999972
 40
0.7499999999999972
 40
0.7499999999999972
 40
0.7812499999999971
 40
0.7812499999999971
 40
0.812499999999997
 40
0.812499999999997
 40
0.8749999999999992
 40
0.8749999999999992
 40
0.9062499999999994
 40
0.9062499999999994
 40
0.9374999999999997
 40
0.9374999999999997
 40
1.0
 40
1.0
 40
1.03125
 40
1.03125
 10
210.3873532823561
 20
114.8042035155532
 30
0.0
 10
210.3873532823561
 20
114.3598051649403
 30
0.0
 10
210.3717476838149
 20
114.2165768085759
 30
0.0
 10
210.311818263236
 20
113.9390461082768
 30
0.0
 10
210.2669498163322
 20
113.8048299360359
 30
0.0
 10
210.1551288438082
 20
113.5583776600812
 30
0.0
 10
210.0869491637797
 20
113.4429929535598
 30
0.0
 10
209.9335729645165
 20
113.2342440131415
 30
0.0
 10
209.8487454531265
 20
113.1407382257639
 30
0.0
 10
209.6633769759767
 20
112.9719122163653
 30
0.0
 10
209.5619738867833
 20
112.8962150352459
 30
0.0
 10
209.3476043439817
 20
112.7655799222892
 30
0.0
 10
209.2343351485713
 20
112.7100525711679
 30
0.0
 10
208.9909407851038
 20
112.6174527228598
 30
0.0
 10
208.8595448095963
 20
112.5802798458444
 30
0.0
 10
208.5837073730707
 20
112.5295293740103
 30
0.0
 10
208.4356903410951
 20
112.5157240788691
 30
0.0
 10
208.1433025252686
 20
112.5154670806944
 30
0.0
 10
207.994923906429
 20
112.5290659680832
 30
0.0
 10
207.7194503328271
 20
112.5792397154074
 30
0.0
 10
207.5879525698306
 20
112.6161385334803
 30
0.0
 10
207.3440875871326
 20
112.7083689557123
 30
0.0
 10
207.2305318073062
 20
112.7637594456861
 30
0.0
 10
207.0155078086552
 20
112.8942620764072
 30
0.0
 10
206.9141697361444
 20
112.9696622974243
 30
0.0
 10
206.7287311290924
 20
113.1378886824104
 30
0.0
 10
206.6437157941315
 20
113.2311774182373
 30
0.0
 10
206.4897376750316
 20
113.4398630060846
 30
0.0
 10
206.4215934694934
 20
113.5547059295344
 30
0.0
 10
206.3094543388088
 20
113.8003426809313
 30
0.0
 10
206.2642711755143
 20
113.9343668764292
 30
0.0
 10
206.2037117446619
 20
114.2114256364592
 30
0.0
 10
206.1878316920493
 20
114.3541174235138
 30
0.0
 10
206.1864280324889
 20
114.7957129076827
 30
0.0
 10
206.2502954523415
 20
115.0921601362427
 30
0.0
 10
206.4175336367277
 20
115.48690844303
 30
0.0
 10
206.4856284282512
 20
115.6122699657586
 30
0.0
 10
206.6385640420258
 20
115.8422862536111
 30
0.0
 10
206.7232550150758
 20
115.9473995298299
 30
0.0
 10
206.9085587475268
 20
116.1405664265374
 30
0.0
 10
207.0099027732395
 20
116.2289706963582
 30
0.0
 10
207.2239964597491
 20
116.3843250878409
 30
0.0
 10
207.3372275566157
 20
116.4520817898014
 30
0.0
 10
207.5808695005063
 20
116.567328963307
 30
0.0
 10
207.7119630471317
 20
116.6147636642516
 30
0.0
 10
207.9877503070825
 20
116.6806624485858
 30
0.0
 10
208.1354154601007
 20
116.6991510080859
 30
0.0
 10
208.4277988629676
 20
116.700055947228
 30
0.0
 10
208.5762945081124
 20
116.682405660213
 30
0.0
 10
208.8534600557062
 20
116.6177304250302
 30
0.0
 10
208.9849448762083
 20
116.5708118283064
 30
0.0
 10
209.3506412594007
 20
116.3999247749505
 30
0.0
 10
209.5668064967495
 20
116.2426415811645
 30
0.0
 10
209.8458804447701
 20
115.9539128348294
 30
0.0
 10
209.9325077386837
 20
115.8470901845776
 30
0.0
 10
210.0861121559748
 20
115.6173656960745
 30
0.0
 10
210.1532682383461
 20
115.4947358272146
 30
0.0
 10
210.3224902944047
 20
115.0993555152954
 30
0.0
 10
210.3873532823561
 20
114.8042035155532
 30
0.0
 10
210.3873532823561
 20
114.3598051649403
 30
0.0
  0
ARC
  5
15C
330
1F
100
AcDbEntity
  8
0
  6
HIDDEN
 62
     7
370
     0
100
AcDbCircle
 10
208.2866071392
 20
113.910562329
 30
0.0
 40
2.104641149267957
100
AcDbArc
 50
237.9244655727
 51
259.8304102189
  0
LINE
  5
15D
330
1F
100
AcDbEntity
  8
0
  6
HIDDEN
 62
     7
370
     0
100
AcDbLine
 10
123.987353032
 20
125.7258272457
 30
0.0
 11
123.987353032
 21
128.2833517257
 31
0.0
  0
LINE
  5
15E
330
1F
100
AcDbEntity
  8
0
  6
HIDDEN
 62
     7
370
     0
100
AcDbLine
 10
126.4873534418
 20
103.725827365
 30
0.0
 11
126.4873534418
 21
101.1222508464
 31
0.0
  0
LINE
  5
15F
330
1F
100
AcDbEntity
  8
0
  6
HIDDEN
 62
     7
370
     0
100
AcDbLine
 10
121.337352877
 20
125.7258272457
 30
0.0
 11
121.337352877
 21
127.6058275912
 31
0.0
  0
LINE
  5
160
330
1F
100
AcDbEntity
  8
0
  6
HIDDEN
 62
     7
370
     0
100
AcDbLine
 10
120.3873535595
 20
125.7258272457
 30
0.0
 11
120.3873535595
 21
126.6558273423
 31
0.0
  0
LINE
  5
161
330
1F
100
AcDbEntity
  8
0
  6
HIDDEN
 62
     7
370
     0
100
AcDbLine
 10
121.337352877
 20
103.725827365
 30
0.0
 11
121.337352877
 21
101.904827236
 31
0.0
  0
LINE
  5
162
330
1F
100
AcDbEntity
  8
0
  6
HIDDEN
 62
     7
370
     0
100
AcDbLine
 10
120.3873535595
 20
103.725827365
 30
0.0
 11
120.3873535595
 21
102.8548274848
 31
0.0
  0
LINE
  5
163
330
1F
100
AcDbEntity
  8
0
  6
HIDDEN
 62
     7
370
     0
100
AcDbLine
 10
153.587353041
 20
120.9758273985
 30
0.0
 11
153.587353041
 21
108.4758272122
 31
0.0
  0
LINE
  5
164
330
1F
100
AcDbEntity
  8
0
  6
HIDDEN
 62
     7
370
     0
100
AcDbLine
 10
156.0873525194
 20
120.9758273985
 30
0.0
 11
156.0873525194
 21
108.4758272122
 31
0.0
  0
LINE
  5
165
330
1F
100
AcDbEntity
  8
0
  6
HIDDEN
 62
     7
370
     0
100
AcDbLine
 10
148.7373528979
 20
120.2258272755
 30
0.0
 11
148.7373528979
 21
109.2258273351
 31
0.0
  0
LINE
  5
166
330
1F
100
AcDbEntity
  8
0
  6
HIDDEN
 62
     7
370
     0
100
AcDbLine
 10
148.2373537473
 20
108.7258272532
 30
0.0
 11
148.2373537473
 21
120.7258273575
 31
0.0
  0
LINE
  5
167
330
1F
100
AcDbEntity
  8
0
  6
HIDDEN
 62
     7
370
     0
100
AcDbLine
 10
160.2373538516
 20
97.8258280742
 30
0.0
 11
157.2186952434
 21
97.8258280742
 31
0.0
  0
LINE
  5
168
330
1F
100
AcDbEntity
  8
0
  6
HIDDEN
 62
     7
370
     0
100
AcDbLine
 10
157.3273526482
 20
97.2967046041
 30
0.0
 11
157.3273526482
 21
97.4029927242
 31
0.0
  0
LINE
  5
169
330
1F
100
AcDbEntity
  8
0
  6
HIDDEN
 62
     7
370
     0
100
AcDbLine
 10
160.2373538516
 20
97.8258280742
 30
0.0
 11
160.2373538516
 21
96.1217946101
 31
0.0
  0
LINE
  5
16A
330
1F
100
AcDbEntity
  8
0
  6
HIDDEN
 62
     7
370
     0
100
AcDbLine
 10
148.2373537473
 20
94.7508430767
 30
0.0
 11
148.2373537473
 21
97.8258280742
 31
0.0
  0
LINE
  5
16B
330
1F
100
AcDbEntity
  8
0
  6
HIDDEN
 62
     7
370
     0
100
AcDbLine
 10
152.7373535536
 20
97.8258280742
 30
0.0
 11
148.2373537473
 21
97.8258280742
 31
0.0
  0
LINE
  5
16C
330
1F
100
AcDbEntity
  8
0
  6
HIDDEN
 62
     7
370
     0
100
AcDbLine
 10
155.3560109786
 20
97.8258280742
 30
0.0
 11
152.7373535536
 21
97.8258280742
 31
0.0
  0
LINE
  5
16D
330
1F
100
AcDbEntity
  8
0
  6
HIDDEN
 62
     7
370
     0
100
AcDbLine
 10
155.2473535738
 20
97.4029927242
 30
0.0
 11
155.2473535738
 21
97.2967046041
 31
0.0
  0
LINE
  5
16E
330
1F
100
AcDbEntity
  8
0
  6
HIDDEN
 62
     7
370
     0
100
AcDbLine
 10
153.587353041
 20
109.2258273351
 30
0.0
 11
153.587353041
 21
120.2258272755
 31
0.0
  0
ELLIPSE
  5
16F
330
1F
100
AcDbEntity
  8
0
  6
HIDDEN
 62
     7
370
     0
100
AcDbEllipse
 10
118.2815865426
 20
114.7258273053
 30
0.0
 11
12.26424774976743
 21
0.0
 31
0.0
210
0.0
220
0.0
230
1.0
 40
0.8164965809
 41
1.318982952866315
 42
1.3982416700706
  0
LINE
  5
170
330
1F
100
AcDbEntity
  8
0
  6
HIDDEN
 62
     7
370
     0
100
AcDbLine
 10
120.3873535595
 20
125.7258272457
 30
0.0
 11
120.3873535595
 21
124.5908337373
 31
0.0
  0
ELLIPSE
  5
171
330
1F
100
AcDbEntity
  8
0
  6
HIDDEN
 62
     7
370
     0
100
AcDbEllipse
 10
118.2815865426
 20
114.7258273053
 30
0.0
 11
12.26424774976743
 21
0.0
 31
0.0
210
0.0
220
0.0
230
1.0
 40
0.8164965809
 41
4.884943637108996
 42
4.964202354313286
  0
LINE
  5
172
330
1F
100
AcDbEntity
  8
0
  6
HIDDEN
 62
     7
370
     0
100
AcDbLine
 10
120.3873535595
 20
103.725827365
 30
0.0
 11
120.3873535595
 21
104.8608208734
 31
0.0
  0
LINE
  5
173
330
1F
100
AcDbEntity
  8
0
  6
HIDDEN
 62
     7
370
     0
100
AcDbLine
 10
155.6360103167
 20
131.6258265364
 30
0.0
 11
152.7373535536
 21
131.6258265364
 31
0.0
  0
LINE
  5
174
330
1F
100
AcDbEntity
  8
0
  6
HIDDEN
 62
     7
370
     0
100
AcDbLine
 10
155.2473535738
 20
132.3349336821
 30
0.0
 11
155.2473535738
 21
132.4395044434
 31
0.0
  0
LINE
  5
175
330
1F
100
AcDbEntity
  8
0
  6
HIDDEN
 62
     7
370
     0
100
AcDbLine
 10
160.2373538516
 20
131.6258265364
 30
0.0
 11
156.9386968366
 21
131.6258265364
 31
0.0
  0
LINE
  5
176
330
1F
100
AcDbEntity
  8
0
  6
HIDDEN
 62
     7
370
     0
100
AcDbLine
 10
157.3273526482
 20
132.4395044434
 30
0.0
 11
157.3273526482
 21
132.3349336821
 31
0.0
  0
LINE
  5
177
330
1F
100
AcDbEntity
  8
0
  6
HIDDEN
 62
     7
370
     0
100
AcDbLine
 10
160.2373538516
 20
131.6258265364
 30
0.0
 11
160.2373538516
 21
133.5967044074
 31
0.0
  0
LINE
  5
178
330
1F
100
AcDbEntity
  8
0
  6
HIDDEN
 62
     7
370
     0
100
AcDbLine
 10
152.7373535536
 20
131.6258265364
 30
0.0
 11
148.2373537473
 21
131.6258265364
 31
0.0
  0
LINE
  5
179
330
1F
100
AcDbEntity
  8
0
  6
HIDDEN
 62
     7
370
     0
100
AcDbLine
 10
123.987353032
 20
125.7258272457
 30
0.0
 11
123.987353032
 21
124.7500172544
 31
0.0
  0
LINE
  5
17A
330
1F
100
AcDbEntity
  8
0
  6
HIDDEN
 62
     7
370
     0
100
AcDbLine
 10
121.337352877
 20
125.7258272457
 30
0.0
 11
121.337352877
 21
124.423733047
 31
0.0
  0
LINE
  5
17B
330
1F
100
AcDbEntity
  8
0
  6
HIDDEN
 62
     7
370
     0
100
AcDbLine
 10
121.337352877
 20
103.725827365
 30
0.0
 11
121.337352877
 21
105.0279215637
 31
0.0
  0
LINE
  5
17C
330
1F
100
AcDbEntity
  8
0
  6
HIDDEN
 62
     7
370
     0
100
AcDbLine
 10
126.4873534418
 20
103.725827365
 30
0.0
 11
126.4873534418
 21
104.7016373563
 31
0.0
  0
SPLINE
  5
17D
330
1F
100
AcDbEntity
  8
0
  6
HIDDEN
 62
     7
370
     0
100
AcDbSpline
210
0.0
220
0.0
230
1.0
 70
    11
 71
     3
 72
    34
 73
    30
 74
     0
 42
0.00000001
 43
0.00000001
 12
1.0
 22
0.0
 32
0.0
 13
1.0
 23
0.0
 33
0.0
 40
0.0
 40
0.0
 40
0.0
 40
0.0
 40
0.0118100371573707
 40
0.04735113906834
 40
0.0800118392704788
 40
0.1365741385331327
 40
0.1878105672280183
 40
0.2219631056363922
 40
0.2617539864337277
 40
0.2978938317808638
 40
0.3308375934459289
 40
0.3870581784137685
 40
0.3878183499873512
 40
0.4432033767248575
 40
0.4759351822154403
 40
0.5117474637176247
 40
0.5521980736268532
 40
0.5866156275585943
 40
0.6371928983592614
 40
0.6940535695076777
 40
0.7266296486995805
 40
0.7619316617495333
 40
0.8019214025982448
 40
0.8361027652377174
 40
0.8868625042972881
 40
0.8877256568477827
 40
0.9384435148616539
 40
0.9724256355392618
 40
1.0
 40
1.0
 40
1.0
 40
1.0
 10
132.5472161150812
 20
100.5214797991816
 30
0.0
 10
132.5807151172207
 20
100.5255440982125
 30
0.0
 10
132.7150259485773
 20
100.5418394905185
 30
0.0
 10
133.0327635216738
 20
100.5685139960071
 30
0.0
 10
133.5671496510266
 20
100.5902288055503
 30
0.0
 10
134.2518476378972
 20
100.5861517517412
 30
0.0
 10
134.9351820194311
 20
100.5082827493423
 30
0.0
 10
135.4840720779724
 20
100.4255674911225
 30
0.0
 10
135.9033978109309
 20
100.3423678684537
 30
0.0
 10
136.2363037257418
 20
100.2624201193276
 30
0.0
 10
136.4920659921096
 20
100.1977598767636
 30
0.0
 10
136.6334603256567
 20
100.1513043426959
 30
0.0
 10
136.5399967216229
 20
100.17934670158
 30
0.0
 10
136.5250774234152
 20
100.1873859498837
 30
0.0
 10
136.2488132992262
 20
100.2592439464901
 30
0.0
 10
135.9295317025706
 20
100.3363564714755
 30
0.0
 10
135.5102515012888
 20
100.4206452797891
 30
0.0
 10
134.9638382582008
 20
100.5040114010011
 30
0.0
 10
134.2822491932412
 20
100.5843539129081
 30
0.0
 10
133.6003650016467
 20
100.5908604298705
 30
0.0
 10
133.0563099920857
 20
100.5703452537616
 30
0.0
 10
132.6455501890797
 20
100.5355426882093
 30
0.0
 10
132.3117675416288
 20
100.4949994530696
 30
0.0
 10
132.071116656271
 20
100.4622755010886
 30
0.0
 10
131.9494966012132
 20
100.4342428957289
 30
0.0
 10
132.027219999313
 20
100.4494624658823
 30
0.0
 10
132.0432810141567
 20
100.4560064205679
 30
0.0
 10
132.2720094776112
 20
100.4902926537623
 30
0.0
 10
132.4620755811612
 20
100.5118314482666
 30
0.0
 10
132.5472161150812
 20
100.5214797991816
 30
0.0
  0
SPLINE
  5
17E
330
1F
100
AcDbEntity
  8
0
  6
HIDDEN
 62
     7
370
     0
100
AcDbSpline
210
0.0
220
0.0
230
1.0
 70
     8
 71
     3
 72
    37
 73
    33
 74
     0
 42
0.00000001
 43
0.00000001
 12
1.0
 22
0.0
 32
0.0
 13
1.0
 23
0.0
 33
0.0
 40
-0.0897497949096976
 40
-0.0613893434603353
 40
-0.0314797266117314
 40
0.0
 40
0.0393529653735529
 40
0.0732827335045866
 40
0.1017867325321189
 40
0.1248690499347033
 40
0.1561611967854216
 40
0.1977535342211978
 40
0.2496225578905899
 40
0.284920805612613
 40
0.3175005357539857
 40
0.3473911971250559
 40
0.3746318347413773
 40
0.4056323976587524
 40
0.4472795441055602
 40
0.4995612333821008
 40
0.5350805979403029
 40
0.5675670840018514
 40
0.5970576435111611
 40
0.62360284366637
 40
0.6674850085408951
 40
0.7174411782685782
 40
0.7488252195910062
 40
0.7802537587824763
 40
0.8117296813390723
 40
0.8341924358066174
 40
0.8580732736442753
 40
0.883414192424387
 40
0.9102502050903024
 40
0.9386106565396647
 40
0.9685202733882686
 40
1.0
 40
1.039352965373553
 40
1.073282733504586
 40
1.101786732532119
 10
132.9867343051448
 20
128.8868526262607
 30
0.0
 10
132.6109955557537
 20
128.9200590673317
 30
0.0
 10
132.3003261715871
 20
128.9581867854603
 30
0.0
 10
132.0967567951452
 20
128.9871508959536
 30
0.0
 10
132.003003562692
 20
129.0051373021151
 30
0.0
 10
131.976667890562
 20
129.0130774287811
 30
0.0
 10
132.0258429391482
 20
128.9991122786778
 30
0.0
 10
132.225818732636
 20
128.9668320126736
 30
0.0
 10
132.5983091745546
 20
128.9203315570039
 30
0.0
 10
133.0553532335865
 20
128.8813428843052
 30
0.0
 10
133.482688502872
 20
128.8650609163945
 30
0.0
 10
133.9042284380309
 20
128.8644001445592
 30
0.0
 10
134.3303626349818
 20
128.8800054652406
 30
0.0
 10
134.810467570943
 20
128.9281089762341
 30
0.0
 10
135.3811910243665
 20
129.0074264485206
 30
0.0
 10
135.8895613120984
 20
129.1053591062871
 30
0.0
 10
136.2474182418512
 20
129.1921530994126
 30
0.0
 10
136.4543953313639
 20
129.2453743105207
 30
0.0
 10
136.564611493025
 20
129.2782890103569
 30
0.0
 10
136.6052071433688
 20
129.2926347018301
 30
0.0
 10
136.5240519204651
 20
129.2656928609608
 30
0.0
 10
136.2662538458129
 20
129.1959605381586
 30
0.0
 10
135.9217833189769
 20
129.1173462998761
 30
0.0
 10
135.5712641932558
 20
129.0499056519371
 30
0.0
 10
135.2104698616985
 20
128.9808028764577
 30
0.0
 10
134.8569036823901
 20
128.9258987854153
 30
0.0
 10
134.5163899774875
 20
128.8937627139899
 30
0.0
 10
134.1483424235536
 20
128.8732444576652
 30
0.0
 10
133.7616672718762
 20
128.8654276593532
 30
0.0
 10
133.3690793609784
 20
128.8701318394986
 30
0.0
 10
132.9867343051448
 20
128.8868526262607
 30
0.0
 10
132.6109955557537
 20
128.9200590673317
 30
0.0
 10
132.3003261715871
 20
128.9581867854603
 30
0.0
  0
LINE
  5
17F
330
1F
100
AcDbEntity
  8
0
  6
HIDDEN
 62
     7
370
     0
100
AcDbLine
 10
210.3873552732
 20
114.5079379425
 30
0.0
 11
210.3873552732
 21
117.2258272495
 31
0.0
  0
LINE
  5
180
330
1F
100
AcDbEntity
  8
0
  6
HIDDEN
 62
     7
370
     0
100
AcDbLine
 10
210.3873552732
 20
114.9437166682
 30
0.0
 11
210.3873552732
 21
112.2258273612
 31
0.0
  0
SPLINE
  5
181
330
1F
100
AcDbEntity
  8
0
  6
HIDDEN
 62
     7
370
     0
100
AcDbSpline
210
0.0
220
0.0
230
1.0
 70
     8
 71
     3
 72
    64
 73
    60
 74
     0
 42
0.00000001
 43
0.00000001
 12
1.0
 22
0.0
 32
0.0
 13
1.0
 23
0.0
 33
0.0
 40
-0.0624999999999982
 40
-0.0624999999999982
 40
0.0
 40
0.0
 40
0.0312500000000001
 40
0.0312500000000001
 40
0.0625000000000003
 40
0.0625000000000003
 40
0.0937500000000004
 40
0.0937500000000004
 40
0.1250000000000005
 40
0.1250000000000005
 40
0.1562500000000007
 40
0.1562500000000007
 40
0.1875000000000007
 40
0.1875000000000007
 40
0.2187500000000009
 40
0.2187500000000009
 40
0.2500000000000009
 40
0.2500000000000009
 40
0.2812500000000011
 40
0.2812500000000011
 40
0.3125000000000012
 40
0.3125000000000012
 40
0.3437500000000013
 40
0.3437500000000013
 40
0.3750000000000014
 40
0.3750000000000014
 40
0.4062500000000016
 40
0.4062500000000016
 40
0.4375000000000017
 40
0.4375000000000017
 40
0.4687500000000019
 40
0.4687500000000019
 40
0.500000000000002
 40
0.500000000000002
 40
0.5625000000000022
 40
0.5625000000000022
 40
0.5937500000000024
 40
0.5937500000000024
 40
0.6250000000000026
 40
0.6250000000000026
 40
0.6562500000000027
 40
0.6562500000000027
 40
0.6875000000000028
 40
0.6875000000000028
 40
0.7187500000000029
 40
0.7187500000000029
 40
0.750000000000003
 40
0.750000000000003
 40
0.7812500000000032
 40
0.7812500000000032
 40
0.8125000000000033
 40
0.8125000000000033
 40
0.8750000000000034
 40
0.8750000000000034
 40
0.9062500000000026
 40
0.9062500000000026
 40
0.9375000000000018
 40
0.9375000000000018
 40
1.0
 40
1.0
 40
1.03125
 40
1.03125
 10
210.3873532823561
 20
114.647451095141
 30
0.0
 10
210.3873532823561
 20
115.0918494457539
 30
0.0
 10
210.3717476838149
 20
115.2350778021182
 30
0.0
 10
210.311818263236
 20
115.5126085024174
 30
0.0
 10
210.2669498163322
 20
115.6468246746583
 30
0.0
 10
210.1551288438082
 20
115.893276950613
 30
0.0
 10
210.0869491637797
 20
116.0086616571343
 30
0.0
 10
209.9335729645166
 20
116.2174105975527
 30
0.0
 10
209.8487454531265
 20
116.3109163849303
 30
0.0
 10
209.6633769759768
 20
116.4797423943288
 30
0.0
 10
209.5619738867833
 20
116.5554395754483
 30
0.0
 10
209.3476043439817
 20
116.6860746884049
 30
0.0
 10
209.2343351485713
 20
116.7416020395262
 30
0.0
 10
208.9909407851038
 20
116.8342018878343
 30
0.0
 10
208.8595448095963
 20
116.8713747648498
 30
0.0
 10
208.5837073730707
 20
116.9221252366839
 30
0.0
 10
208.435690341095
 20
116.9359305318251
 30
0.0
 10
208.1433025252686
 20
116.9361875299997
 30
0.0
 10
207.994923906429
 20
116.9225886426109
 30
0.0
 10
207.7194503328271
 20
116.8724148952868
 30
0.0
 10
207.5879525698306
 20
116.8355160772139
 30
0.0
 10
207.3440875871325
 20
116.7432856549818
 30
0.0
 10
207.2305318073062
 20
116.6878951650081
 30
0.0
 10
207.0155078086552
 20
116.557392534287
 30
0.0
 10
206.9141697361444
 20
116.4819923132699
 30
0.0
 10
206.7287311290923
 20
116.3137659282837
 30
0.0
 10
206.6437157941314
 20
116.2204771924569
 30
0.0
 10
206.4897376750316
 20
116.0117916046096
 30
0.0
 10
206.4215934694934
 20
115.8969486811598
 30
0.0
 10
206.3094543388088
 20
115.6513119297629
 30
0.0
 10
206.2642711755142
 20
115.517287734265
 30
0.0
 10
206.2037117446619
 20
115.240228974235
 30
0.0
 10
206.1878316920493
 20
115.0975371871803
 30
0.0
 10
206.1864280324888
 20
114.6559417030115
 30
0.0
 10
206.2502954523415
 20
114.3594944744515
 30
0.0
 10
206.4175336367277
 20
113.9647461676641
 30
0.0
 10
206.4856284282512
 20
113.8393846449356
 30
0.0
 10
206.6385640420258
 20
113.6093683570831
 30
0.0
 10
206.7232550150758
 20
113.5042550808643
 30
0.0
 10
206.9085587475267
 20
113.3110881841568
 30
0.0
 10
207.0099027732394
 20
113.2226839143359
 30
0.0
 10
207.223996459749
 20
113.0673295228532
 30
0.0
 10
207.3372275566156
 20
112.9995728208928
 30
0.0
 10
207.5808695005063
 20
112.8843256473871
 30
0.0
 10
207.7119630471317
 20
112.8368909464425
 30
0.0
 10
207.9877503070825
 20
112.7709921621083
 30
0.0
 10
208.1354154601006
 20
112.7525036026082
 30
0.0
 10
208.4277988629677
 20
112.7515986634662
 30
0.0
 10
208.5762945081124
 20
112.7692489504812
 30
0.0
 10
208.8534600557062
 20
112.8339241856639
 30
0.0
 10
208.9849448762083
 20
112.8808427823878
 30
0.0
 10
209.3506412594006
 20
113.0517298357437
 30
0.0
 10
209.5668064967495
 20
113.2090130295296
 30
0.0
 10
209.8458804447701
 20
113.4977417758648
 30
0.0
 10
209.9325077386837
 20
113.6045644261166
 30
0.0
 10
210.0861121559748
 20
113.8342889146197
 30
0.0
 10
210.1532682383461
 20
113.9569187834795
 30
0.0
 10
210.3224902944047
 20
114.3522990953988
 30
0.0
 10
210.3873532823561
 20
114.647451095141
 30
0.0
 10
210.3873532823561
 20
115.0918494457539
 30
0.0
  0
LINE
  5
182
330
1F
100
AcDbEntity
  8
0
  6
HIDDEN
 62
     7
370
     0
100
AcDbLine
 10
156.0873525194
 20
112.2258273612
 30
0.0
 11
156.0873525194
 21
117.2258272495
 31
0.0
  0
LINE
  5
183
330
1F
100
AcDbEntity
  8
0
  6
HIDDEN
 62
     7
370
     0
100
AcDbLine
 10
226.7873497657
 20
127.7258275736
 30
0.0
 11
226.7873497657
 21
114.7258273053
 31
0.0
  0
ELLIPSE
  5
184
330
1F
100
AcDbEntity
  8
0
  6
HIDDEN
 62
     7
370
     0
100
AcDbEllipse
 10
244.7234846919
 20
114.7258273053
 30
0.0
 11
-4.247080252763027
 21
12.99357047085401
 31
0.0
210
0.0
220
0.0
230
1.0
 40
0.0962569477
 41
6.251733123200048
 42
7.822529449994811
  0
LINE
  5
185
330
1F
100
AcDbEntity
  8
0
  6
HIDDEN
 62
     7
370
     0
100
AcDbLine
 10
246.7349307589
 20
108.6609075505
 30
0.0
 11
246.7411072902
 21
108.6413623493
 31
0.0
  0
LINE
  5
186
330
1F
100
AcDbEntity
  8
0
  6
HIDDEN
 62
     7
370
     0
100
AcDbLine
 10
246.7411072902
 20
108.6413623493
 30
0.0
 11
239.5011397056
 21
110.9185554746
 31
0.0
  0
LINE
  5
187
330
1F
100
AcDbEntity
  8
0
  6
HIDDEN
 62
     7
370
     0
100
AcDbLine
 10
239.5011397056
 20
110.9185554746
 30
0.0
 11
239.4949631742
 21
110.938100443
 31
0.0
  0
LINE
  5
188
330
1F
100
AcDbEntity
  8
0
  6
HIDDEN
 62
     7
370
     0
100
AcDbLine
 10
236.1292676977
 20
111.5253950197
 30
0.0
 11
239.4371988229
 21
101.0595467601
 31
0.0
  0
SPLINE
  5
189
330
1F
100
AcDbEntity
  8
0
  6
HIDDEN
 62
     7
370
     0
100
AcDbSpline
210
0.0
220
0.0
230
1.0
 70
     8
 71
     3
 72
     8
 73
     4
 74
     0
 42
0.00000001
 43
0.00000001
 12
1.0
 22
0.0
 32
0.0
 13
1.0
 23
0.0
 33
0.0
 40
0.0
 40
0.0
 40
0.0
 40
0.0
 40
1.0
 40
1.0
 40
1.0
 40
1.0
 10
226.940299720322
 20
112.7258273053471
 30
0.0
 10
226.8390901646676
 20
113.3914292376133
 30
0.0
 10
226.7873532823561
 20
114.0580799051725
 30
0.0
 10
226.7873532823561
 20
114.7258273053471
 30
0.0
  0
SPLINE
  5
18A
330
1F
100
AcDbEntity
  8
0
  6
HIDDEN
 62
     7
370
     0
100
AcDbSpline
210
0.0
220
0.0
230
1.0
 70
     8
 71
     3
 72
    18
 73
    14
 74
     0
 42
0.00000001
 43
0.00000001
 12
1.0
 22
0.0
 32
0.0
 13
1.0
 23
0.0
 33
0.0
 40
0.0
 40
0.0
 40
0.0
 40
0.0
 40
0.1250000000000001
 40
0.1250000000000001
 40
0.2500000000000002
 40
0.2500000000000002
 40
0.5000000000000002
 40
0.5000000000000002
 40
0.6250000000000002
 40
0.6250000000000002
 40
0.7500000000000001
 40
0.7500000000000001
 40
1.0
 40
1.0
 40
1.0
 40
1.0
 10
227.0234285094696
 20
101.4898052840694
 30
0.0
 10
226.9401314096441
 20
101.5743357593148
 30
0.0
 10
226.8776289884821
 20
101.6595656725238
 30
0.0
 10
226.798314371146
 20
101.831562309317
 30
0.0
 10
226.7817056986775
 20
101.9187992386166
 30
0.0
 10
226.803832694219
 20
102.1777630959974
 30
0.0
 10
226.9134164823798
 20
102.3476197420939
 30
0.0
 10
227.1986540372086
 20
102.5988541107427
 30
0.0
 10
227.3137563913455
 20
102.6820106728145
 30
0.0
 10
227.5796025144918
 20
102.8472767469446
 30
0.0
 10
227.7299853550093
 20
102.9291058337258
 30
0.0
 10
228.2198855176964
 20
103.1699365115669
 30
0.0
 10
228.5995096952811
 20
103.3255006676638
 30
0.0
 10
229.0148800116565
 20
103.4777010688029
 30
0.0
  0
SPLINE
  5
18B
330
1F
100
AcDbEntity
  8
0
  6
HIDDEN
 62
     7
370
     0
100
AcDbSpline
210
0.0
220
0.0
230
1.0
 70
     8
 71
     3
 72
    16
 73
    12
 74
     0
 42
0.00000001
 43
0.00000001
 12
1.0
 22
0.0
 32
0.0
 13
1.0
 23
0.0
 33
0.0
 40
0.0
 40
0.0
 40
0.0
 40
0.0
 40
0.2500000000000002
 40
0.2500000000000002
 40
0.5000000000000003
 40
0.5000000000000003
 40
0.7500000000000004
 40
0.7500000000000004
 40
0.8750000000000002
 40
0.8750000000000002
 40
1.0
 40
1.0
 40
1.0
 40
1.0
 10
226.940299720322
 20
112.7258273053471
 30
0.0
 10
227.0650981374641
 20
111.9050938572407
 30
0.0
 10
227.2053083860525
 20
111.0896200023483
 30
0.0
 10
227.5136496798025
 20
109.4686826845102
 30
0.0
 10
227.6827903846108
 20
108.659655559517
 30
0.0
 10
228.0363579369384
 20
107.0997595899429
 30
0.0
 10
228.2217774974145
 20
106.3430122771933
 30
0.0
 10
228.5111898330298
 20
105.2417160940089
 30
0.0
 10
228.6095540308696
 20
104.8802785739206
 30
0.0
 10
228.8099355754899
 20
104.168845416347
 30
0.0
 10
228.9121841931162
 20
103.8181504361897
 30
0.0
 10
229.0148800116565
 20
103.4777010688029
 30
0.0
  0
LINE
  5
18C
330
1F
100
AcDbEntity
  8
0
  6
HIDDEN
 62
     7
370
     0
100
AcDbLine
 10
239.5011397056
 20
110.9185554746
 30
0.0
 11
239.2887385539
 21
110.858041859
 31
0.0
  0
LINE
  5
18D
330
1F
100
AcDbEntity
  8
0
  6
HIDDEN
 62
     7
370
     0
100
AcDbLine
 10
239.2378734402
 20
111.0189620599
 30
0.0
 11
239.2887385539
 21
110.858041859
 31
0.0
  0
LINE
  5
18E
330
1F
100
AcDbEntity
  8
0
  6
HIDDEN
 62
     7
370
     0
100
AcDbLine
 10
236.362247353
 20
111.8235532853
 30
0.0
 11
239.6449657134
 21
101.437463491
 31
0.0
  0
ELLIPSE
  5
18F
330
1F
100
AcDbEntity
  8
0
  6
HIDDEN
 62
     7
370
     0
100
AcDbEllipse
 10
234.7385106216
 20
47.9791657962
 30
0.0
 11
21.39702621087622
 21
70.55389860331653
 31
0.0
210
0.0
220
0.0
230
1.0
 40
0.2093503934
 41
0.7767581595365083
 42
0.784889202419195
  0
LINE
  5
190
330
1F
100
AcDbEntity
  8
0
  6
HIDDEN
 62
     7
370
     0
100
AcDbLine
 10
246.5287061385
 20
108.5808487337
 30
0.0
 11
239.2887385539
 21
110.858041859
 31
0.0
  0
LINE
  5
191
330
1F
100
AcDbEntity
  8
0
  6
HIDDEN
 62
     7
370
     0
100
AcDbLine
 10
246.5287061385
 20
108.5808487337
 30
0.0
 11
246.7411072902
 21
108.6413623493
 31
0.0
  0
LINE
  5
192
330
1F
100
AcDbEntity
  8
0
  6
HIDDEN
 62
     7
370
     0
100
AcDbLine
 10
148.2373537473
 20
97.8258280742
 30
0.0
 11
152.7373535536
 21
97.8258280742
 31
0.0
  0
CIRCLE
  5
193
330
1F
100
AcDbEntity
  8
0
  6
HIDDEN
 62
     7
370
     0
100
AcDbCircle
 10
208.2859618538
 20
115.2769655985
 30
0.0
 40
2.097582662817382
  0
ARC
  5
194
330
1F
100
AcDbEntity
  8
0
  6
HIDDEN
 62
     7
370
     0
100
AcDbCircle
 10
237.3456412928
 20
112.9621468203
 30
0.0
 40
1.250170705332107
100
AcDbArc
 50
17.5656334724
 51
182.2914314981
  0
LINE
  5
195
330
1F
100
AcDbEntity
  8
0
  6
HIDDEN
 62
     7
370
     0
100
AcDbLine
 10
236.3925041608
 20
111.8324516069
 30
0.0
 11
239.5831482462
 21
101.7376883614
 31
0.0
  0
ELLIPSE
  5
196
330
1F
100
AcDbEntity
  8
0
  6
HIDDEN
 62
     7
370
     0
100
AcDbEllipse
 10
234.7385106216
 20
140.4162235522
 30
0.0
 11
-25.84177378472361
 21
129.9623072976513
 31
0.0
210
0.0
220
0.0
230
1.0
 40
0.02203747
 41
1.868603308135528
 42
1.871023933746484
  0
LINE
  5
197
330
1F
100
AcDbEntity
  8
0
  6
HIDDEN
 62
     7
370
     0
100
AcDbLine
 10
239.2887385539
 20
110.858041859
 30
0.0
 11
239.2887385539
 21
110.9626766488
 31
0.0
  0
LINE
  5
198
330
1F
100
AcDbEntity
  8
0
  6
HIDDEN
 62
     7
370
     0
100
AcDbLine
 10
246.3142784289
 20
108.7529292058
 30
0.0
 11
246.5287061385
 21
108.5808487337
 31
0.0
  0
CIRCLE
  5
199
330
1F
100
AcDbEntity
  8
0
  6
HIDDEN
 62
     7
370
     0
100
AcDbCircle
 10
243.1151319343
 20
105.1606400013
 30
0.0
 40
2.398221320574527
  0
LINE
  5
19A
330
1F
100
AcDbEntity
  8
0
  6
HIDDEN
 62
     7
370
     0
100
AcDbLine
 10
248.9655898861
 20
98.9702093143
 30
0.0
 11
249.3007468037
 21
99.3041191909
 31
0.0
  0
LINE
  5
19B
330
1F
100
AcDbEntity
  8
0
  6
HIDDEN
 62
     7
370
     0
100
AcDbLine
 10
248.9655898861
 20
98.9702093143
 30
0.0
 11
242.5037981919
 21
101.0026420194
 31
0.0
  0
LINE
  5
19C
330
1F
100
AcDbEntity
  8
0
  6
HIDDEN
 62
     7
370
     0
100
AcDbLine
 10
246.3142784289
 20
108.7529292058
 30
0.0
 11
239.2887385539
 21
110.9626766488
 31
0.0
  0
LINE
  5
19D
330
1F
100
AcDbEntity
  8
0
  6
HIDDEN
 62
     7
370
     0
100
AcDbLine
 10
239.2887385539
 20
110.9626766488
 30
0.0
 11
238.5375188641
 21
113.3394459689
 31
0.0
  0
ELLIPSE
  5
19E
330
1F
100
AcDbEntity
  8
0
  6
HIDDEN
 62
     7
370
     0
100
AcDbEllipse
 10
234.7385106216
 20
76.063888059
 30
0.0
 11
2.842170943040401E-14
 21
26.13144513619373
 31
0.0
210
0.0
220
0.0
230
1.0
 40
0.9949698482
 41
5.979891802486663
 42
6.095757727633288
  0
LINE
  5
19F
330
1F
100
AcDbEntity
  8
0
  6
HIDDEN
 62
     7
370
     0
100
AcDbLine
 10
246.3142784289
 20
108.7529292058
 30
0.0
 11
249.3007468037
 21
99.3041191909
 31
0.0
  0
LINE
  5
1A0
330
1F
100
AcDbEntity
  8
0
  6
HIDDEN
 62
     7
370
     0
100
AcDbLine
 10
123.987353032
 20
125.7258272457
 30
0.0
 11
123.987353032
 21
128.2833517257
 31
0.0
  0
LINE
  5
1A1
330
1F
100
AcDbEntity
  8
0
  6
HIDDEN
 62
     7
370
     0
100
AcDbLine
 10
126.4873534418
 20
103.725827365
 30
0.0
 11
126.4873534418
 21
101.1222508464
 31
0.0
  0
CIRCLE
  5
1A2
330
1F
100
AcDbEntity
  8
0
  6
HIDDEN
 62
     7
370
     0
100
AcDbCircle
 10
243.1153130941
 20
105.2116947768
 30
0.0
 40
1.648785707146242
  0
LINE
  5
1A3
330
1F
100
AcDbEntity
  8
0
  6
HIDDEN
 62
     7
370
     0
100
AcDbLine
 10
248.3799444489
 20
99.7599010083
 30
0.0
 11
248.9655898861
 21
98.9702093143
 31
0.0
  0
LINE
  5
1A4
330
1F
100
AcDbEntity
  8
0
  6
HIDDEN
 62
     7
370
     0
100
AcDbLine
 10
249.3007468037
 20
99.3041191909
 30
0.0
 11
248.6089305929
 21
100.2369775164
 31
0.0
  0
LINE
  5
1A5
330
1F
100
AcDbEntity
  8
0
  6
HIDDEN
 62
     7
370
     0
100
AcDbLine
 10
157.3273526482
 20
132.3349336821
 30
0.0
 11
157.3273526482
 21
97.4029927242
 31
0.0
  0
SPLINE
  5
1A6
330
1F
100
AcDbEntity
  8
0
  6
HIDDEN
 62
     7
370
     0
100
AcDbSpline
210
0.0
220
0.0
230
1.0
 70
     8
 71
     3
 72
    10
 73
     6
 74
     0
 42
0.00000001
 43
0.00000001
 12
1.0
 22
0.0
 32
0.0
 13
1.0
 23
0.0
 33
0.0
 40
0.0
 40
0.0
 40
0.0
 40
0.0
 40
0.5
 40
0.5
 40
1.0
 40
1.0
 40
1.0
 40
1.0
 10
156.9386963365864
 20
131.6258273053471
 30
0.0
 10
157.0588569508396
 20
131.7003732722508
 30
0.0
 10
157.1578530972586
 20
131.80704248157
 30
0.0
 10
157.2916678756777
 20
132.0531541143919
 30
0.0
 10
157.3273532823561
 20
132.1930454473631
 30
0.0
 10
157.3273532823561
 20
132.3349336142998
 30
0.0
  0
SPLINE
  5
1A7
330
1F
100
AcDbEntity
  8
0
  6
HIDDEN
 62
     7
370
     0
100
AcDbSpline
210
0.0
220
0.0
230
1.0
 70
     8
 71
     3
 72
    10
 73
     6
 74
     0
 42
0.00000001
 43
0.00000001
 12
1.0
 22
0.0
 32
0.0
 13
1.0
 23
0.0
 33
0.0
 40
0.0
 40
0.0
 40
0.0
 40
0.0
 40
0.5
 40
0.5
 40
1.0
 40
1.0
 40
1.0
 40
1.0
 10
157.2186954357782
 20
97.8258273053465
 30
0.0
 10
157.2544754492831
 20
97.76120611472665
 30
0.0
 10
157.2818571593609
 20
97.69167948916818
 30
0.0
 10
157.3180796567308
 20
97.55002197865103
 30
0.0
 10
157.3273532823561
 20
97.47667454191864
 30
0.0
 10
157.3273532823561
 20
97.40299194273972
 30
0.0
  0
SPLINE
  5
1A8
330
1F
100
AcDbEntity
  8
0
  6
HIDDEN
 62
     7
370
     0
100
AcDbSpline
210
0.0
220
0.0
230
1.0
 70
    24
 71
     3
 72
    12
 73
     8
 74
     0
 42
0.00000001
 43
0.00000001
 12
1.0
 22
0.0
 32
0.0
 13
1.0
 23
0.0
 33
0.0
 40
0.0
 40
0.0
 40
0.0
 40
0.0
 40
0.2500000000000023
 40
0.2500000000000023
 40
0.5000000000000047
 40
0.5000000000000047
 40
1.0
 40
1.0
 40
1.0
 40
1.0
 10
156.5273532823562
 20
131.6258273053471
 30
0.0
 10
156.5815048505951
 20
131.6258273053471
 30
0.0
 10
156.6341264961061
 20
131.6258273053471
 30
0.0
 10
156.7187938323642
 20
131.6258273053471
 30
0.0
 10
156.7542784185046
 20
131.6258273053471
 30
0.0
 10
156.8486751178187
 20
131.6258273053471
 30
0.0
 10
156.8965352631032
 20
131.6258273053471
 30
0.0
 10
156.9386963365864
 20
131.6258273053471
 30
0.0
  0
SPLINE
  5
1A9
330
1F
100
AcDbEntity
  8
0
  6
HIDDEN
 62
     7
370
     0
100
AcDbSpline
210
0.0
220
0.0
230
1.0
 70
    24
 71
     3
 72
    16
 73
    12
 74
     0
 42
0.00000001
 43
0.00000001
 12
1.0
 22
0.0
 32
0.0
 13
1.0
 23
0.0
 33
0.0
 40
0.0
 40
0.0
 40
0.0
 40
0.0
 40
0.0624999999999998
 40
0.0624999999999998
 40
0.1249999999999995
 40
0.1249999999999995
 40
0.249999999999999
 40
0.249999999999999
 40
0.4999999999999993
 40
0.4999999999999993
 40
1.0
 40
1.0
 40
1.0
 40
1.0
 10
156.5273532823561
 20
97.82582730534708
 30
0.0
 10
156.5627104838816
 20
97.82582730534708
 30
0.0
 10
156.5980539828629
 20
97.82582730534708
 30
0.0
 10
156.6607996417031
 20
97.82582730534708
 30
0.0
 10
156.6880899255808
 20
97.82582730534708
 30
0.0
 10
156.7636284962929
 20
97.82582730534708
 30
0.0
 10
156.8029397538792
 20
97.82582730534708
 30
0.0
 10
156.9094914765941
 20
97.82582730534708
 30
0.0
 10
156.9631576311089
 20
97.82582730534708
 30
0.0
 10
157.1033081794467
 20
97.82582730534708
 30
0.0
 10
157.1688911539992
 20
97.82582730534708
 30
0.0
 10
157.2186954357779
 20
97.82582730534708
 30
0.0
  0
SPLINE
  5
1AA
330
1F
100
AcDbEntity
  8
0
  6
HIDDEN
 62
     7
370
     0
100
AcDbSpline
210
0.0
220
0.0
230
1.0
 70
     8
 71
     3
 72
    10
 73
     6
 74
     0
 42
0.00000001
 43
0.00000001
 12
1.0
 22
0.0
 32
0.0
 13
1.0
 23
0.0
 33
0.0
 40
0.0
 40
0.0
 40
0.0
 40
0.0
 40
0.5
 40
0.5
 40
1.0
 40
1.0
 40
1.0
 40
1.0
 10
155.2473532823561
 20
132.3349336142998
 30
0.0
 10
155.2473532823561
 20
132.1945818160519
 30
0.0
 10
155.2828114740726
 20
132.0533392849741
 30
0.0
 10
155.4177123192635
 20
131.8056966998932
 30
0.0
 10
155.5169000095188
 20
131.6997216214618
 30
0.0
 10
155.6360102281258
 20
131.6258273053471
 30
0.0
  0
LINE
  5
1AB
330
1F
100
AcDbEntity
  8
0
  6
HIDDEN
 62
     7
370
     0
100
AcDbLine
 10
155.2473535738
 20
132.3349336821
 30
0.0
 11
155.2473535738
 21
97.4029927242
 31
0.0
  0
SPLINE
  5
1AC
330
1F
100
AcDbEntity
  8
0
  6
HIDDEN
 62
     7
370
     0
100
AcDbSpline
210
0.0
220
0.0
230
1.0
 70
     8
 71
     3
 72
    10
 73
     6
 74
     0
 42
0.00000001
 43
0.00000001
 12
1.0
 22
0.0
 32
0.0
 13
1.0
 23
0.0
 33
0.0
 40
0.0
 40
0.0
 40
0.0
 40
0.0
 40
0.5
 40
0.5
 40
1.0
 40
1.0
 40
1.0
 40
1.0
 10
155.2473532823561
 20
97.40299194273972
 30
0.0
 10
155.2473532823561
 20
97.47602522859006
 30
0.0
 10
155.2565898661564
 20
97.55002815380038
 30
0.0
 10
155.2931079536575
 20
97.69253865296672
 30
0.0
 10
155.3206327038774
 20
97.76193141136876
 30
0.0
 10
155.356011128933
 20
97.82582730534462
 30
0.0
  0
SPLINE
  5
1AD
330
1F
100
AcDbEntity
  8
0
  6
HIDDEN
 62
     7
370
     0
100
AcDbSpline
210
0.0
220
0.0
230
1.0
 70
    24
 71
     3
 72
    12
 73
     8
 74
     0
 42
0.00000001
 43
0.00000001
 12
1.0
 22
0.0
 32
0.0
 13
1.0
 23
0.0
 33
0.0
 40
0.0
 40
0.0
 40
0.0
 40
0.0
 40
0.5
 40
0.5
 40
0.75
 40
0.75
 40
1.0
 40
1.0
 40
1.0
 40
1.0
 10
155.6360102281259
 20
131.6258273053471
 30
0.0
 10
155.6784997662717
 20
131.6258273053471
 30
0.0
 10
155.7264800663617
 20
131.6258273053471
 30
0.0
 10
155.8206983757314
 20
131.6258273053471
 30
0.0
 10
155.8558708224748
 20
131.6258273053471
 30
0.0
 10
155.9409678090062
 20
131.6258273053471
 30
0.0
 10
155.9929710157354
 20
131.6258273053471
 30
0.0
 10
156.0473532823563
 20
131.6258273053471
 30
0.0
  0
SPLINE
  5
1AE
330
1F
100
AcDbEntity
  8
0
  6
HIDDEN
 62
     7
370
     0
100
AcDbSpline
210
0.0
220
0.0
230
1.0
 70
    24
 71
     3
 72
    16
 73
    12
 74
     0
 42
0.00000001
 43
0.00000001
 12
1.0
 22
0.0
 32
0.0
 13
1.0
 23
0.0
 33
0.0
 40
0.0
 40
0.0
 40
0.0
 40
0.0
 40
0.5
 40
0.5
 40
0.75
 40
0.75
 40
0.875
 40
0.875
 40
0.9375
 40
0.9375
 40
1.0
 40
1.0
 40
1.0
 40
1.0
 10
155.3560111289322
 20
97.82582730534708
 30
0.0
 10
155.4057552956521
 20
97.82582730534709
 30
0.0
 10
155.4709268839903
 20
97.82582730534709
 30
0.0
 10
155.6116336999914
 20
97.82582730534708
 30
0.0
 10
155.6653358976589
 20
97.82582730534709
 30
0.0
 10
155.7723600334587
 20
97.82582730534708
 30
0.0
 10
155.8118149998049
 20
97.82582730534708
 30
0.0
 10
155.8867584549782
 20
97.82582730534709
 30
0.0
 10
155.9143471865101
 20
97.82582730534708
 30
0.0
 10
155.9766461587764
 20
97.82582730534708
 30
0.0
 10
156.0119711240449
 20
97.82582730534708
 30
0.0
 10
156.0473532823569
 20
97.82582730534708
 30
0.0
  0
LINE
  5
1AF
330
1F
100
AcDbEntity
  8
0
  6
HIDDEN
 62
     7
370
     0
100
AcDbLine
 10
121.337352877
 20
125.7258272457
 30
0.0
 11
121.337352877
 21
127.5985679317
 31
0.0
  0
LINE
  5
1B0
330
1F
100
AcDbEntity
  8
0
  6
HIDDEN
 62
     7
370
     0
100
AcDbLine
 10
120.3873535595
 20
124.5908337373
 30
0.0
 11
120.3873535595
 21
104.8608208734
 31
0.0
  0
LINE
  5
1B1
330
1F
100
AcDbEntity
  8
0
  6
HIDDEN
 62
     7
370
     0
100
AcDbLine
 10
121.337352877
 20
103.725827365
 30
0.0
 11
121.337352877
 21
101.9107411343
 31
0.0
  0
LINE
  5
1B2
330
1F
100
AcDbEntity
  8
0
  6
HIDDEN
 62
     7
370
     0
100
AcDbLine
 10
120.3873535595
 20
125.7258272457
 30
0.0
 11
120.3873535595
 21
126.6502999428
 31
0.0
  0
LINE
  5
1B3
330
1F
100
AcDbEntity
  8
0
  6
HIDDEN
 62
     7
370
     0
100
AcDbLine
 10
120.3873535595
 20
103.725827365
 30
0.0
 11
120.3873535595
 21
102.8600037757
 31
0.0
  0
LINE
  5
1B4
330
1F
100
AcDbEntity
  8
0
  6
HIDDEN
 62
     7
370
     0
100
AcDbLine
 10
156.0473540775
 20
131.6258265364
 30
0.0
 11
156.5273540071
 21
131.6258265364
 31
0.0
  0
LINE
  5
1B5
330
1F
100
AcDbEntity
  8
0
  6
HIDDEN
 62
     7
370
     0
100
AcDbLine
 10
156.0473540775
 20
97.8258280742
 30
0.0
 11
156.5273540071
 21
97.8258280742
 31
0.0
  0
SPLINE
  5
1B6
330
1F
100
AcDbEntity
  8
0
  6
HIDDEN
 62
     7
370
     0
100
AcDbSpline
210
0.0
220
0.0
230
1.0
 70
     8
 71
     3
 72
    54
 73
    50
 74
     0
 42
0.00000001
 43
0.00000001
 12
1.0
 22
0.0
 32
0.0
 13
1.0
 23
0.0
 33
0.0
 40
-0.0625000000000058
 40
-0.0625000000000058
 40
0.0
 40
0.0
 40
0.0312499999999991
 40
0.0312499999999991
 40
0.0624999999999983
 40
0.0624999999999983
 40
0.1249999999999966
 40
0.1249999999999966
 40
0.1562499999999958
 40
0.1562499999999958
 40
0.1874999999999948
 40
0.1874999999999948
 40
0.2499999999999912
 40
0.2499999999999912
 40
0.3124999999999876
 40
0.3124999999999876
 40
0.374999999999984
 40
0.374999999999984
 40
0.4374999999999803
 40
0.4374999999999803
 40
0.4687499999999786
 40
0.4687499999999786
 40
0.4999999999999769
 40
0.4999999999999769
 40
0.562499999999977
 40
0.562499999999977
 40
0.5937499999999789
 40
0.5937499999999789
 40
0.6249999999999807
 40
0.6249999999999807
 40
0.6874999999999842
 40
0.6874999999999842
 40
0.7187499999999855
 40
0.7187499999999855
 40
0.7499999999999867
 40
0.7499999999999867
 40
0.781249999999988
 40
0.781249999999988
 40
0.8124999999999892
 40
0.8124999999999892
 40
0.8437499999999905
 40
0.8437499999999905
 40
0.8749999999999917
 40
0.8749999999999917
 40
0.9062499999999929
 40
0.9062499999999929
 40
0.9374999999999942
 40
0.9374999999999942
 40
1.0
 40
1.0
 40
1.031249999999999
 40
1.031249999999999
 10
242.8822273275975
 20
104.0011441398831
 30
0.0
 10
243.2329944533927
 20
104.0011441398831
 30
0.0
 10
243.347218203461
 20
104.0139961389666
 30
0.0
 10
243.5706616032433
 20
104.0636432528984
 30
0.0
 10
243.68027679508
 20
104.1010033313408
 30
0.0
 10
243.9855845263418
 20
104.2417719003327
 30
0.0
 10
244.1645861971375
 20
104.3761214642009
 30
0.0
 10
244.3820718329851
 20
104.613640119659
 30
0.0
 10
244.4467181965707
 20
104.6994718682141
 30
0.0
 10
244.557648046183
 20
104.8782741197255
 30
0.0
 10
244.604591140422
 20
104.9719292858501
 30
0.0
 10
244.7203131271273
 20
105.2657835196424
 30
0.0
 10
244.7614034134903
 20
105.4704424166359
 30
0.0
 10
244.7700092196685
 20
105.8935561456436
 30
0.0
 10
244.7372320957672
 20
106.1031857823992
 30
0.0
 10
244.5917165735905
 20
106.5110416407295
 30
0.0
 10
244.481237520529
 20
106.7015029406753
 30
0.0
 10
244.1832987668721
 20
107.0358375111971
 30
0.0
 10
244.000890867608
 20
107.1734894043457
 30
0.0
 10
243.6862097168591
 20
107.3183527604896
 30
0.0
 10
243.5776315512959
 20
107.3549462956161
 30
0.0
 10
243.3531869319888
 20
107.4048423872123
 30
0.0
 10
243.2359327779874
 20
107.4179557094374
 30
0.0
 10
242.8894807068583
 20
107.4188985996848
 30
0.0
 10
242.657379675981
 20
107.3682576697859
 30
0.0
 10
242.3449657344691
 20
107.226496430042
 30
0.0
 10
242.244904489472
 20
107.1675268075442
 30
0.0
 10
242.0627746847484
 20
107.0331650799621
 30
0.0
 10
241.9797284160292
 20
106.95755422603
 30
0.0
 10
241.754067964385
 20
106.7064316552345
 30
0.0
 10
241.6418227085485
 20
106.5137403077837
 30
0.0
 10
241.5322296016494
 20
106.2083729751864
 30
0.0
 10
241.5057334025405
 20
106.1048344310506
 30
0.0
 10
241.4716881535262
 20
105.8946037799293
 30
0.0
 10
241.464322396047
 20
105.7875412335987
 30
0.0
 10
241.4685321252147
 20
105.5775052226727
 30
0.0
 10
241.47989062204
 20
105.4736371320692
 30
0.0
 10
241.5209598204049
 20
105.2681533525819
 30
0.0
 10
241.5508831406035
 20
105.1665618811779
 30
0.0
 10
241.6273297435412
 20
104.9725525731014
 30
0.0
 10
241.6739803400759
 20
104.8792028508348
 30
0.0
 10
241.7850551245202
 20
104.6999729853875
 30
0.0
 10
241.8500072101926
 20
104.6137969257164
 30
0.0
 10
241.9938879906165
 20
104.4564923547883
 30
0.0
 10
242.0732697691431
 20
104.384398958764
 30
0.0
 10
242.2486309812035
 20
104.254437793954
 30
0.0
 10
242.3457531123443
 20
104.1962464958997
 30
0.0
 10
242.6514015941151
 20
104.0546988016192
 30
0.0
 10
242.8822273275975
 20
104.0011441398831
 30
0.0
 10
243.2329944533927
 20
104.0011441398831
 30
0.0
  0
SPLINE
  5
1B7
330
1F
100
AcDbEntity
  8
0
  6
HIDDEN
 62
     7
370
     0
100
AcDbSpline
210
0.0
220
0.0
230
1.0
 70
     8
 71
     3
 72
    10
 73
     6
 74
     0
 42
0.00000001
 43
0.00000001
 12
1.0
 22
0.0
 32
0.0
 13
1.0
 23
0.0
 33
0.0
 40
0.0
 40
0.0
 40
0.0
 40
0.0
 40
0.5
 40
0.5
 40
1.0
 40
1.0
 40
1.0
 40
1.0
 10
159.6373532823561
 20
134.2130025752521
 30
0.0
 10
159.7977755069555
 20
134.2130025752521
 30
0.0
 10
159.9542583076228
 20
134.1444171727463
 30
0.0
 10
160.1749119181901
 20
133.9146439034267
 30
0.0
 10
160.2373532823561
 20
133.756145701759
 30
0.0
 10
160.2373532823561
 20
133.59670433849
 30
0.0
  0
SPLINE
  5
1B8
330
1F
100
AcDbEntity
  8
0
  6
HIDDEN
 62
     7
370
     0
100
AcDbSpline
210
0.0
220
0.0
230
1.0
 70
     8
 71
     3
 72
    12
 73
     8
 74
     0
 42
0.00000001
 43
0.00000001
 12
1.0
 22
0.0
 32
0.0
 13
1.0
 23
0.0
 33
0.0
 40
0.0
 40
0.0
 40
0.0
 40
0.0
 40
0.2500000000000001
 40
0.2500000000000001
 40
0.5000000000000002
 40
0.5000000000000002
 40
1.0
 40
1.0
 40
1.0
 40
1.0
 10
159.6373532823561
 20
95.49694278231769
 30
0.0
 10
159.7171187628263
 20
95.49694278231769
 30
0.0
 10
159.7975400464834
 20
95.51391837867578
 30
0.0
 10
159.944221963146
 20
95.57839387613498
 30
0.0
 10
160.0105757727099
 20
95.62550750792958
 30
0.0
 10
160.1767798534365
 20
95.80211742191707
 30
0.0
 10
160.2373532823561
 20
95.96196629772523
 30
0.0
 10
160.2373532823561
 20
96.12179548426025
 30
0.0
  0
LINE
  5
1B9
330
1F
100
AcDbEntity
  8
0
  6
HIDDEN
 62
     7
370
     0
100
AcDbLine
 10
160.2373538516
 20
133.5967044074
 30
0.0
 11
160.2373538516
 21
96.1217946101
 31
0.0
  0
SPLINE
  5
1BA
330
1F
100
AcDbEntity
  8
0
  6
HIDDEN
 62
     7
370
     0
100
AcDbSpline
210
0.0
220
0.0
230
1.0
 70
     8
 71
     3
 72
     8
 73
     4
 74
     0
 42
0.00000001
 43
0.00000001
 12
1.0
 22
0.0
 32
0.0
 13
1.0
 23
0.0
 33
0.0
 40
0.0
 40
0.0
 40
0.0
 40
0.0
 40
1.0
 40
1.0
 40
1.0
 40
1.0
 10
157.3273532823561
 20
132.4395040008773
 30
0.0
 10
157.6583736133758
 20
133.031059697335
 30
0.0
 10
157.9901548848599
 20
133.6221923615802
 30
0.0
 10
158.3225129812496
 20
134.2130025752521
 30
0.0
  0
LINE
  5
1BB
330
1F
100
AcDbEntity
  8
0
  6
HIDDEN
 62
     7
370
     0
100
AcDbLine
 10
158.32251366
 20
134.2130033958
 30
0.0
 11
159.6373530082
 21
134.2130033958
 31
0.0
  0
SPLINE
  5
1BC
330
1F
100
AcDbEntity
  8
0
  6
HIDDEN
 62
     7
370
     0
100
AcDbSpline
210
0.0
220
0.0
230
1.0
 70
     8
 71
     3
 72
     8
 73
     4
 74
     0
 42
0.00000001
 43
0.00000001
 12
1.0
 22
0.0
 32
0.0
 13
1.0
 23
0.0
 33
0.0
 40
0.0
 40
0.0
 40
0.0
 40
0.0
 40
1.0
 40
1.0
 40
1.0
 40
1.0
 10
154.2521935834627
 20
134.2130025752521
 30
0.0
 10
154.5845516798524
 20
133.6221923615802
 30
0.0
 10
154.9163329513365
 20
133.031059697335
 30
0.0
 10
155.2473532823561
 20
132.4395040008773
 30
0.0
  0
LINE
  5
1BD
330
1F
100
AcDbEntity
  8
0
  6
HIDDEN
 62
     7
370
     0
100
AcDbLine
 10
155.2473535738
 20
132.4395044434
 30
0.0
 11
155.2473535738
 21
97.2967046041
 31
0.0
  0
LINE
  5
1BE
330
1F
100
AcDbEntity
  8
0
  6
HIDDEN
 62
     7
370
     0
100
AcDbLine
 10
158.32251366
 20
134.2130033958
 30
0.0
 11
158.32251366
 21
95.4969423551
 31
0.0
  0
LINE
  5
1BF
330
1F
100
AcDbEntity
  8
0
  6
HIDDEN
 62
     7
370
     0
100
AcDbLine
 10
157.3273526482
 20
132.4395044434
 30
0.0
 11
157.3273526482
 21
97.2967046041
 31
0.0
  0
LINE
  5
1C0
330
1F
100
AcDbEntity
  8
0
  6
HIDDEN
 62
     7
370
     0
100
AcDbLine
 10
158.32251366
 20
95.4969423551
 30
0.0
 11
159.6373530082
 21
95.4969423551
 31
0.0
  0
SPLINE
  5
1C1
330
1F
100
AcDbEntity
  8
0
  6
HIDDEN
 62
     7
370
     0
100
AcDbSpline
210
0.0
220
0.0
230
1.0
 70
     8
 71
     3
 72
     8
 73
     4
 74
     0
 42
0.00000001
 43
0.00000001
 12
1.0
 22
0.0
 32
0.0
 13
1.0
 23
0.0
 33
0.0
 40
0.0
 40
0.0
 40
0.0
 40
0.0
 40
1.0
 40
1.0
 40
1.0
 40
1.0
 10
157.3273532823561
 20
97.29670391735735
 30
0.0
 10
157.6579919089707
 20
96.69618356624636
 30
0.0
 10
157.9898077095442
 20
96.09631445554132
 30
0.0
 10
158.3225129812496
 20
95.49694278231766
 30
0.0
  0
SPLINE
  5
1C2
330
1F
100
AcDbEntity
  8
0
  6
HIDDEN
 62
     7
370
     0
100
AcDbSpline
210
0.0
220
0.0
230
1.0
 70
     8
 71
     3
 72
     8
 73
     4
 74
     0
 42
0.00000001
 43
0.00000001
 12
1.0
 22
0.0
 32
0.0
 13
1.0
 23
0.0
 33
0.0
 40
0.0
 40
0.0
 40
0.0
 40
0.0
 40
1.0
 40
1.0
 40
1.0
 40
1.0
 10
154.2521935834627
 20
95.49694278231766
 30
0.0
 10
154.584898855168
 20
96.09631445554132
 30
0.0
 10
154.9167146557415
 20
96.69618356624636
 30
0.0
 10
155.2473532823561
 20
97.29670391735735
 30
0.0
  0
LINE
  5
1C3
330
1F
100
AcDbEntity
  8
0
  6
HIDDEN
 62
     7
370
     0
100
AcDbLine
 10
120.3873535595
 20
102.9073550093
 30
0.0
 11
120.3873535595
 21
103.1783139992
 31
0.0
  0
LINE
  5
1C4
330
1F
100
AcDbEntity
  8
0
  6
HIDDEN
 62
     7
370
     0
100
AcDbLine
 10
120.3873535595
 20
126.5997412342
 30
0.0
 11
120.3873535595
 21
126.5040590155
 31
0.0
  0
CIRCLE
  5
1C5
330
1F
100
AcDbEntity
  8
0
  6
HIDDEN
 62
     7
370
     0
100
AcDbCircle
 10
208.2859257036
 20
115.2993541827
 30
0.0
 40
2.497501658097234
  0
SPLINE
  5
1C6
330
1F
100
AcDbEntity
  8
0
  6
HIDDEN
 62
     7
370
     0
100
AcDbSpline
210
0.0
220
0.0
230
1.0
 70
     8
 71
     3
 72
    26
 73
    22
 74
     0
 42
0.00000001
 43
0.00000001
 12
1.0
 22
0.0
 32
0.0
 13
1.0
 23
0.0
 33
0.0
 40
0.0
 40
0.0
 40
0.0
 40
0.0
 40
0.2499999999999991
 40
0.2499999999999991
 40
0.3749999999999991
 40
0.3749999999999991
 40
0.4374999999999998
 40
0.4374999999999998
 40
0.4687499999999994
 40
0.4687499999999994
 40
0.4999999999999989
 40
0.4999999999999989
 40
0.5312499999999984
 40
0.5312499999999984
 40
0.562499999999998
 40
0.562499999999998
 40
0.624999999999998
 40
0.624999999999998
 40
0.7499999999999987
 40
0.7499999999999987
 40
1.0
 40
1.0
 40
1.0
 40
1.0
 10
121.147323328744
 20
127.11390788496
 30
0.0
 10
121.0999352193155
 20
126.9782521429369
 30
0.0
 10
121.0422939174111
 20
126.8342907446077
 30
0.0
 10
120.9202461048679
 20
126.5915181713533
 30
0.0
 10
120.8741970970913
 20
126.5064785309039
 30
0.0
 10
120.7835438129257
 20
126.3661025578635
 30
0.0
 10
120.7491913126401
 20
126.3161911805247
 30
0.0
 10
120.6867561402496
 20
126.2396559156704
 30
0.0
 10
120.6634621214515
 20
126.2132514366835
 30
0.0
 10
120.614409584325
 20
126.1656566714225
 30
0.0
 10
120.5899781346681
 20
126.1462140575706
 30
0.0
 10
120.5493485390483
 20
126.1213062799025
 30
0.0
 10
120.5331862571971
 20
126.1152364485915
 30
0.0
 10
120.506204213094
 20
126.1095475769977
 30
0.0
 10
120.4954546902712
 20
126.1099380850785
 30
0.0
 10
120.4674187161141
 20
126.1160804318669
 30
0.0
 10
120.4545574840814
 20
126.1267444382849
 30
0.0
 10
120.4235546229211
 20
126.1657572286451
 30
0.0
 10
120.412695140852
 20
126.2018092190495
 30
0.0
 10
120.389417884914
 20
126.3194886165486
 30
0.0
 10
120.387353282356
 20
126.4108185168816
 30
0.0
 10
120.387353282356
 20
126.5040587697878
 30
0.0
  0
SPLINE
  5
1C7
330
1F
100
AcDbEntity
  8
0
  6
HIDDEN
 62
     7
370
     0
100
AcDbSpline
210
0.0
220
0.0
230
1.0
 70
     8
 71
     3
 72
    24
 73
    20
 74
     0
 42
0.00000001
 43
0.00000001
 12
1.0
 22
0.0
 32
0.0
 13
1.0
 23
0.0
 33
0.0
 40
0.0
 40
0.0
 40
0.0
 40
0.0
 40
0.2499999999999968
 40
0.2499999999999968
 40
0.3749999999999948
 40
0.3749999999999948
 40
0.4374999999999947
 40
0.4374999999999947
 40
0.4999999999999946
 40
0.4999999999999946
 40
0.5312499999999953
 40
0.5312499999999953
 40
0.5624999999999962
 40
0.5624999999999962
 40
0.6249999999999958
 40
0.6249999999999958
 40
0.7499999999999977
 40
0.7499999999999977
 40
1.0
 40
1.0
 40
1.0
 40
1.0
 10
120.3873532823561
 20
103.1783141041257
 30
0.0
 10
120.3873532823561
 20
103.2632230577953
 30
0.0
 10
120.3900779107885
 20
103.3455527538422
 30
0.0
 10
120.4164352319064
 20
103.4479651412612
 30
0.0
 10
120.4286489501786
 20
103.4787822376456
 30
0.0
 10
120.463259600311
 20
103.5078797537225
 30
0.0
 10
120.4776463106785
 20
103.5148373943611
 30
0.0
 10
120.5188947937809
 20
103.5137276530843
 30
0.0
 10
120.5474343437117
 20
103.5054342474755
 30
0.0
 10
120.608357009223
 20
103.4608508136143
 30
0.0
 10
120.6314229793628
 20
103.440389100357
 30
0.0
 10
120.6753188593691
 20
103.3957764820767
 30
0.0
 10
120.6961988949292
 20
103.3719004038703
 30
0.0
 10
120.7534091582223
 20
103.3020033067083
 30
0.0
 10
120.7857557819987
 20
103.2564257179238
 30
0.0
 10
120.8719217254906
 20
103.1275422303049
 30
0.0
 10
120.9175857455306
 20
103.0477090531729
 30
0.0
 10
121.0381333089818
 20
102.8219282440606
 30
0.0
 10
121.097193397683
 20
102.6870968590892
 30
0.0
 10
121.147323328744
 20
102.5588417204217
 30
0.0
  0
LINE
  5
1C8
330
1F
100
AcDbEntity
  8
0
  6
HIDDEN
 62
     7
370
     0
100
AcDbLine
 10
120.3873535595
 20
126.5040590155
 30
0.0
 11
120.3873535595
 21
103.1783139992
 31
0.0
  0
ELLIPSE
  5
1C9
330
1F
100
AcDbEntity
  8
0
  6
HIDDEN
 62
     7
370
     0
100
AcDbEllipse
 10
265.7981745279
 20
112.7258273053
 30
0.0
 11
17.78422892288069
 21
16.57047652107812
 31
0.0
210
0.0
220
0.0
230
1.0
 40
0.2135193148
 41
2.621199279104897
 42
2.663545981739805
  0
ELLIPSE
  5
1CA
330
1F
100
AcDbEntity
  8
0
  6
HIDDEN
 62
     7
370
     0
100
AcDbEllipse
 10
201.0060170057
 20
112.7258273053
 30
0.0
 11
54.31434441551175
 21
-16.73983078825388
 31
0.0
210
0.0
220
0.0
230
1.0
 40
0.054548757
 41
0.5281405888624248
 42
0.7182377289169345
  0
SPLINE
  5
1CB
330
1F
100
AcDbEntity
  8
0
  6
HIDDEN
 62
     7
370
     0
100
AcDbSpline
210
0.0
220
0.0
230
1.0
 70
     8
 71
     3
 72
    10
 73
     6
 74
     0
 42
0.00000001
 43
0.00000001
 12
1.0
 22
0.0
 32
0.0
 13
1.0
 23
0.0
 33
0.0
 40
0.0
 40
0.0
 40
0.0
 40
0.0
 40
0.5
 40
0.5
 40
1.0
 40
1.0
 40
1.0
 40
1.0
 10
242.5038007101411
 20
102.0709775655448
 30
0.0
 10
241.2900055873388
 20
102.5296563004936
 30
0.0
 10
240.0306436220638
 20
102.8793989037985
 30
0.0
 10
237.4326859355798
 20
103.3539556375916
 30
0.0
 10
236.0854586808758
 20
103.4777010688029
 30
0.0
 10
234.7385106216016
 20
103.4777010688029
 30
0.0
  0
LINE
  5
1CC
330
1F
100
AcDbEntity
  8
0
  6
HIDDEN
 62
     7
370
     0
100
AcDbLine
 10
234.7385125212
 20
103.4777006793
 30
0.0
 11
229.0148796491
 21
103.4777006793
 31
0.0
  0
ELLIPSE
  5
1CD
330
1F
100
AcDbEntity
  8
0
  6
HIDDEN
 62
     7
370
     0
100
AcDbEllipse
 10
245.7962492858
 20
112.7258273053
 30
0.0
 11
-5.553874176690101
 21
16.99159215419368
 31
0.0
210
0.0
220
0.0
230
1.0
 40
0.0962569477
 41
1.539344142815212
 42
2.364477454099838
  0
LINE
  5
1CE
330
1F
100
AcDbEntity
  8
0
  6
HIDDEN
 62
     7
370
     0
100
AcDbLine
 10
243.9868437103
 20
112.7258272104
 30
0.0
 11
243.3398203901
 21
114.7258273053
 31
0.0
  0
CIRCLE
  5
1CF
330
1F
100
AcDbEntity
  8
0
  6
HIDDEN
 62
     7
370
     0
100
AcDbCircle
 10
147.2873532824
 20
114.7258273053
 30
0.0
 40
5.0
  0
LINE
  5
1D0
330
1F
100
AcDbEntity
  8
0
  6
HIDDEN
 62
     7
370
     0
100
AcDbLine
 10
140.2873532824
 20
98.5186333496
 30
0.0
 11
140.3815141201
 21
99.1886230845
 31
0.0
  0
LINE
  5
1D1
330
1F
100
AcDbEntity
  8
0
  6
HIDDEN
 62
     7
370
     0
100
AcDbLine
 10
140.3815141201
 20
130.2630315262
 30
0.0
 11
140.2873532824
 21
130.9330212611
 31
0.0
  0
ARC
  5
1D2
330
1F
100
AcDbEntity
  8
0
  6
HIDDEN
 62
     7
370
     0
100
AcDbCircle
 10
139.7873532824
 20
99.2721269045
 30
0.0
 40
0.6000000000000227
100
AcDbArc
 50
352.0
 51
0.0
  0
ARC
  5
1D3
330
1F
100
AcDbEntity
  8
0
  6
HIDDEN
 62
     7
370
     0
100
AcDbCircle
 10
139.7873532824
 20
99.2721269045
 30
0.0
 40
0.6000000000000227
100
AcDbArc
 50
0.0
 51
33.5573097619
  0
ARC
  5
1D4
330
1F
100
AcDbEntity
  8
0
  6
HIDDEN
 62
     7
370
     0
100
AcDbCircle
 10
139.7873532824
 20
130.1795277061
 30
0.0
 40
0.5999999999999812
100
AcDbArc
 50
348.75
 51
8.0
  0
LWPOLYLINE
  5
1D5
330
1F
100
AcDbEntity
  8
0
  6
HIDDEN
 62
     7
370
     0
100
AcDbPolyline
 90
        3
 70
   128
 43
0.0
 10
140.3758244522
 20
130.0624730724
 10
140.3416810025
 20
129.9499180827
 10
140.2873532824
 20
129.8478656176
  0
LINE
  5
1D6
330
1F
100
AcDbEntity
  8
0
  6
HIDDEN
 62
     7
370
     0
100
AcDbLine
 10
140.3873532798
 20
99.2721273291
 30
0.0
 11
140.3873532798
 21
130.1795272816
 31
0.0
  0
LINE
  5
1D7
330
1F
100
AcDbEntity
  8
0
  6
HIDDEN
 62
     7
370
     0
100
AcDbLine
 10
140.3873532798
 20
99.2721273291
 30
0.0
 11
140.3873532798
 21
130.1795272816
 31
0.0
  0
LINE
  5
1D8
330
1F
100
AcDbEntity
  8
0
  6
HIDDEN
 62
     7
370
     0
100
AcDbLine
 10
129.819981379
 20
101.9758275438
 30
0.0
 11
132.017042113
 21
101.9758275438
 31
0.0
  0
LINE
  5
1D9
330
1F
100
AcDbEntity
  8
0
  6
HIDDEN
 62
     7
370
     0
100
AcDbLine
 10
132.017042113
 20
127.4758270669
 30
0.0
 11
129.819981379
 21
127.4758270669
 31
0.0
  0
ARC
  5
1DA
330
1F
100
AcDbEntity
  8
0
  6
HIDDEN
 62
     7
370
     0
100
AcDbCircle
 10
136.1115300102
 20
106.9758273053
 30
0.0
 40
5.000000000000018
100
AcDbArc
 50
275.4161080982
 51
326.6329870308
  0
ARC
  5
1DB
330
1F
100
AcDbEntity
  8
0
  6
HIDDEN
 62
     7
370
     0
100
AcDbCircle
 10
136.1115300102
 20
122.4758273053
 30
0.0
 40
5.00000000000001
100
AcDbArc
 50
33.3670129692
 51
84.5854845077
  0
ARC
  5
1DC
330
1F
100
AcDbEntity
  8
0
  6
HIDDEN
 62
     7
370
     0
100
AcDbCircle
 10
129.8199812265
 20
102.3758273053
 30
0.0
 40
0.4000000000000199
100
AcDbArc
 50
210.0
 51
270.0
  0
ARC
  5
1DD
330
1F
100
AcDbEntity
  8
0
  6
HIDDEN
 62
     7
370
     0
100
AcDbCircle
 10
129.8199812265
 20
127.0758273053
 30
0.0
 40
0.4000000000000057
100
AcDbArc
 50
90.0
 51
150.0
  0
LINE
  5
1DE
330
1F
100
AcDbEntity
  8
0
  6
HIDDEN
 62
     7
370
     0
100
AcDbLine
 10
129.4735712908
 20
127.2758274067
 30
0.0
 11
128.2900027908
 21
125.2258271638
 31
0.0
  0
LINE
  5
1DF
330
1F
100
AcDbEntity
  8
0
  6
HIDDEN
 62
     7
370
     0
100
AcDbLine
 10
128.2900027908
 20
104.2258274469
 30
0.0
 11
129.4735712908
 21
102.175827204
 31
0.0
  0
LINE
  5
1E0
330
1F
100
AcDbEntity
  8
0
  6
HIDDEN
 62
     7
370
     0
100
AcDbLine
 10
220.6670703343
 20
111.4224955167
 30
0.0
 11
207.2034986667
 21
116.6137711338
 31
0.0
  0
LINE
  5
1E1
330
1F
100
AcDbEntity
  8
0
  6
HIDDEN
 62
     7
370
     0
100
AcDbLine
 10
207.8863965324
 20
111.8490633748
 30
0.0
 11
220.6731574587
 21
106.9187503967
 31
0.0
  0
LINE
  5
1E2
330
1F
100
AcDbEntity
  8
0
  6
HIDDEN
 62
     7
370
     0
100
AcDbLine
 10
207.2114707879
 20
112.109299815
 30
0.0
 11
207.5839998178
 21
111.965661003
 31
0.0
  0
LINE
  5
1E3
330
1F
100
AcDbEntity
  8
0
  6
HIDDEN
 62
     7
370
     0
100
AcDbLine
 10
205.6924911193
 20
112.6949866961
 30
0.0
 11
207.2114707879
 21
112.109299815
 31
0.0
  0
LINE
  5
1E4
330
1F
100
AcDbEntity
  8
0
  6
HIDDEN
 62
     7
370
     0
100
AcDbLine
 10
207.0191713027
 20
116.5460880806
 30
0.0
 11
205.2952783159
 21
115.0988432423
 31
0.0
  0
LINE
  5
1E5
330
1F
100
AcDbEntity
  8
0
  6
HIDDEN
 62
     7
370
     0
100
AcDbLine
 10
205.2952783159
 20
115.0988432423
 30
0.0
 11
205.6013183645
 21
112.8688953545
 31
0.0
  0
ARC
  5
1E6
330
1F
100
AcDbEntity
  8
0
  6
HIDDEN
 62
     7
370
     0
100
AcDbCircle
 10
147.2373532824
 20
104.8508273053
 30
0.0
 40
1.000000000000019
100
AcDbArc
 50
218.6821874535
 51
0.0
  0
ARC
  5
1E7
330
1F
100
AcDbEntity
  8
0
  6
HIDDEN
 62
     7
370
     0
100
AcDbCircle
 10
147.2373532824
 20
124.6008273053
 30
0.0
 40
1.000000000000019
100
AcDbArc
 50
0.0
 51
141.3178125465
  0
LINE
  5
1E8
330
1F
100
AcDbEntity
  8
0
  6
HIDDEN
 62
     7
370
     0
100
AcDbLine
 10
140.2873532824
 20
104.2258274469
 30
0.0
 11
146.4567283145
 21
104.2258274469
 31
0.0
  0
LINE
  5
1E9
330
1F
100
AcDbEntity
  8
0
  6
HIDDEN
 62
     7
370
     0
100
AcDbLine
 10
146.4567283145
 20
125.2258271638
 30
0.0
 11
140.2873532824
 21
125.2258271638
 31
0.0
  0
LINE
  5
1EA
330
1F
100
AcDbEntity
  8
0
  6
HIDDEN
 62
     7
370
     0
100
AcDbLine
 10
126.4873534418
 20
104.2258274469
 30
0.0
 11
128.2900027908
 21
104.2258274469
 31
0.0
  0
LINE
  5
1EB
330
1F
100
AcDbEntity
  8
0
  6
HIDDEN
 62
     7
370
     0
100
AcDbLine
 10
128.2900027908
 20
125.2258271638
 30
0.0
 11
123.987353032
 21
125.2258271638
 31
0.0
  0
LINE
  5
1EC
330
1F
100
AcDbEntity
  8
0
  6
HIDDEN
 62
     7
370
     0
100
AcDbLine
 10
210.3873552732
 20
114.1141303892
 30
0.0
 11
210.3873552732
 21
114.5079379425
 31
0.0
  0
LINE
  5
1ED
330
1F
100
AcDbEntity
  8
0
  6
HIDDEN
 62
     7
370
     0
100
AcDbLine
 10
206.187351232
 20
114.5084304812
 30
0.0
 11
206.187351232
 21
114.0533885413
 31
0.0
  0
LINE
  5
1EE
330
1F
100
AcDbEntity
  8
0
  6
HIDDEN
 62
     7
370
     0
100
AcDbLine
 10
153.587353041
 20
108.4758272122
 30
0.0
 11
156.0873525194
 21
108.4758272122
 31
0.0
  0
LINE
  5
1EF
330
1F
100
AcDbEntity
  8
0
  6
HIDDEN
 62
     7
370
     0
100
AcDbLine
 10
156.0873525194
 20
120.9758273985
 30
0.0
 11
153.587353041
 21
120.9758273985
 31
0.0
  0
LINE
  5
1F0
330
1F
100
AcDbEntity
  8
0
  6
HIDDEN
 62
     7
370
     0
100
AcDbLine
 10
148.2373537473
 20
108.7258272532
 30
0.0
 11
148.7373528979
 21
109.2258273351
 31
0.0
  0
LINE
  5
1F1
330
1F
100
AcDbEntity
  8
0
  6
HIDDEN
 62
     7
370
     0
100
AcDbLine
 10
148.7373528979
 20
120.2258272755
 30
0.0
 11
148.2373537473
 21
120.7258273575
 31
0.0
  0
LINE
  5
1F2
330
1F
100
AcDbEntity
  8
0
  6
HIDDEN
 62
     7
370
     0
100
AcDbLine
 10
148.7373528979
 20
109.2258273351
 30
0.0
 11
153.587353041
 21
109.2258273351
 31
0.0
  0
LINE
  5
1F3
330
1F
100
AcDbEntity
  8
0
  6
HIDDEN
 62
     7
370
     0
100
AcDbLine
 10
153.587353041
 20
120.2258272755
 30
0.0
 11
148.7373528979
 21
120.2258272755
 31
0.0
  0
LINE
  5
1F4
330
1F
100
AcDbEntity
  8
0
  6
HIDDEN
 62
     7
370
     0
100
AcDbLine
 10
148.2373537473
 20
134.7258268583
 30
0.0
 11
148.2373537473
 21
131.6258265364
 31
0.0
  0
LINE
  5
1F5
330
1F
100
AcDbEntity
  8
0
  6
HIDDEN
 62
     7
370
     0
100
AcDbLine
 10
137.0230173669
 20
99.6854697082
 30
0.0
 11
136.5873595677
 21
100.165135293
 31
0.0
  0
LINE
  5
1F6
330
1F
100
AcDbEntity
  8
0
  6
HIDDEN
 62
     7
370
     0
100
AcDbLine
 10
131.9873571373
 20
100.4416589353
 30
0.0
 11
131.5036384366
 21
99.9619933504
 31
0.0
  0
LINE
  5
1F7
330
1F
100
AcDbEntity
  8
0
  6
HIDDEN
 62
     7
370
     0
100
AcDbLine
 10
131.5035145707
 20
129.4896566037
 30
0.0
 11
131.9873496867
 21
129.0099370021
 31
0.0
  0
LINE
  5
1F8
330
1F
100
AcDbEntity
  8
0
  6
HIDDEN
 62
     7
370
     0
100
AcDbLine
 10
136.5873530484
 20
129.2864699576
 30
0.0
 11
137.0231193467
 21
129.7661886278
 31
0.0
  0
LINE
  5
1F9
330
1F
100
AcDbEntity
  8
0
  6
HIDDEN
 62
     7
370
     0
100
AcDbLine
 10
210.3873552732
 20
112.2258273612
 30
0.0
 11
211.8895040802
 21
114.7258273053
 31
0.0
  0
LINE
  5
1FA
330
1F
100
AcDbEntity
  8
0
  6
HIDDEN
 62
     7
370
     0
100
AcDbLine
 10
211.8895040802
 20
114.7258273053
 30
0.0
 11
210.3873552732
 21
117.2258272495
 31
0.0
  0
LINE
  5
1FB
330
1F
100
AcDbEntity
  8
0
  6
HIDDEN
 62
     7
370
     0
100
AcDbLine
 10
156.0873525194
 20
112.2258273612
 30
0.0
 11
210.3873552732
 21
112.2258273612
 31
0.0
  0
LINE
  5
1FC
330
1F
100
AcDbEntity
  8
0
  6
HIDDEN
 62
     7
370
     0
100
AcDbLine
 10
210.3873552732
 20
117.2258272495
 30
0.0
 11
156.0873525194
 21
117.2258272495
 31
0.0
  0
LINE
  5
1FD
330
1F
100
AcDbEntity
  8
0
  6
HIDDEN
 62
     7
370
     0
100
AcDbLine
 10
136.5873532812
 20
127.4526818383
 30
0.0
 11
136.5873532812
 21
129.2856364239
 31
0.0
  0
LINE
  5
1FE
330
1F
100
AcDbEntity
  8
0
  6
HIDDEN
 62
     7
370
     0
100
AcDbLine
 10
131.987353412
 20
129.0094368819
 30
0.0
 11
131.987353412
 21
127.4705269102
 31
0.0
  0
LINE
  5
1FF
330
1F
100
AcDbEntity
  8
0
  6
HIDDEN
 62
     7
370
     0
100
AcDbLine
 10
136.5873532812
 20
100.1659008402
 30
0.0
 11
136.5873532812
 21
101.9989727724
 31
0.0
  0
LINE
  5
200
330
1F
100
AcDbEntity
  8
0
  6
HIDDEN
 62
     7
370
     0
100
AcDbLine
 10
131.987353412
 20
101.9811277005
 30
0.0
 11
131.987353412
 21
100.4422018963
 31
0.0
  0
LINE
  5
201
330
1F
100
AcDbEntity
  8
0
  6
HIDDEN
 62
     7
370
     0
100
AcDbLine
 10
210.3873552732
 20
114.9437166682
 30
0.0
 11
210.3873552732
 21
115.2713922279
 31
0.0
  0
LINE
  5
202
330
1F
100
AcDbEntity
  8
0
  6
HIDDEN
 62
     7
370
     0
100
AcDbLine
 10
206.187351232
 20
115.2713922279
 30
0.0
 11
206.187351232
 21
114.9432241295
 31
0.0
  0
LINE
  5
203
330
1F
100
AcDbEntity
  8
0
  6
HIDDEN
 62
     7
370
     0
100
AcDbLine
 10
236.095367556
 20
112.964479435
 30
0.0
 11
236.095367556
 21
112.8598446453
 31
0.0
  0
ARC
  5
204
330
1F
100
AcDbEntity
  8
0
  6
HIDDEN
 62
     7
370
     0
100
AcDbCircle
 10
123.0873532824
 20
128.5058273053
 30
0.0
 40
0.9000000000000199
100
AcDbArc
 50
270.0
 51
311.1792132368
  0
ARC
  5
205
330
1F
100
AcDbEntity
  8
0
  6
HIDDEN
 62
     7
370
     0
100
AcDbCircle
 10
125.5873532824
 20
101.0048273053
 30
0.0
 40
0.9000000000000036
100
AcDbArc
 50
30.4426030216
 51
90.0
  0
LINE
  5
206
330
1F
100
AcDbEntity
  8
0
  6
HIDDEN
 62
     7
370
     0
100
AcDbLine
 10
123.0873526982
 20
127.6058275912
 30
0.0
 11
121.337352877
 21
127.6058275912
 31
0.0
  0
LINE
  5
207
330
1F
100
AcDbEntity
  8
0
  6
HIDDEN
 62
     7
370
     0
100
AcDbLine
 10
121.337352877
 20
101.904827236
 30
0.0
 11
125.587353108
 21
101.904827236
 31
0.0
  0
LINE
  5
208
330
1F
100
AcDbEntity
  8
0
  6
HIDDEN
 62
     7
370
     0
100
AcDbLine
 10
121.337352877
 20
127.6058275912
 30
0.0
 11
120.3873535595
 21
126.6558273423
 31
0.0
  0
LINE
  5
209
330
1F
100
AcDbEntity
  8
0
  6
HIDDEN
 62
     7
370
     0
100
AcDbLine
 10
120.3873535595
 20
102.8548274848
 30
0.0
 11
121.337352877
 21
101.904827236
 31
0.0
  0
LINE
  5
20A
330
1F
100
AcDbEntity
  8
0
  6
HIDDEN
 62
     7
370
     0
100
AcDbLine
 10
244.7660701326
 20
105.2088905785
 30
0.0
 11
244.7660701326
 21
105.7179412532
 31
0.0
  0
LINE
  5
20B
330
1F
100
AcDbEntity
  8
0
  6
HIDDEN
 62
     7
370
     0
100
AcDbLine
 10
241.4660738758
 20
105.7178378764
 30
0.0
 11
241.4660738758
 21
105.2088905785
 31
0.0
  0
LINE
  5
20C
330
1F
100
AcDbEntity
  8
0
  6
HIDDEN
 62
     7
370
     0
100
AcDbLine
 10
210.7873545937
 20
115.2923396516
 30
0.0
 11
210.7873545937
 21
115.8194356326
 31
0.0
  0
LINE
  5
20D
330
1F
100
AcDbEntity
  8
0
  6
HIDDEN
 62
     7
370
     0
100
AcDbLine
 10
205.7873519114
 20
115.8194356326
 30
0.0
 11
205.7873519114
 21
115.2923396516
 31
0.0
  0
LINE
  5
20E
330
1F
100
AcDbEntity
  8
VERMASSUNG
  6
CENTERX2
100
AcDbLine
 10
118.6612452997
 20
114.7258273053
 30
0.0
 11
250.2873532824
 21
114.7258273053
 31
0.0
  0
LINE
  5
20F
330
1F
100
AcDbEntity
  8
VERMASSUNG
100
AcDbLine
 10
250.2873532824
 20
97.7258273053
 30
0.0
 11
261.2659119196
 21
97.7258273053
 31
0.0
  0
LINE
  5
210
330
1F
100
AcDbEntity
  8
VERMASSUNG
  6
CENTERX2
100
AcDbLine
 10
250.2873532824
 20
97.7258273053
 30
0.0
 11
250.2873532824
 21
114.7258273053
 31
0.0
  0
DIMENSION
  5
211
330
1F
100
AcDbEntity
  8
VERMASSUNG
100
AcDbDimension
  2
_D
 10
247.0654767137
 20
108.3798641009
 30
0.0
 11
256.1264456782
 21
105.4965683171
 31
0.0
 70
   162
  1
<>
 71
     1
 42
-1.0
  3
SLDDIMSTYLE0
100
AcDb2LineAngularDimension
 13
261.2659119196
 23
97.7258273053
 33
0.0
 14
250.2873532824
 24
97.7258273053
 34
0.0
 15
250.2714535492
 25
98.2365735146
 35
0.0
 16
256.1264456782
 26
105.4965683171
 36
0.0
  0
DIMENSION
  5
21A
330
1F
100
AcDbEntity
  8
VERMASSUNG
100
AcDbDimension
  2
_D_1
 10
250.2873532824
 20
150.7258273053
 30
0.0
 11
185.3373532824
 21
150.7258273053
 31
0.0
 70
   160
  1
<>
 71
     2
 42
-1.0
  3
SLDDIMSTYLE1
100
AcDbAlignedDimension
 13
120.3873532824
 23
126.6558273053
 33
0.0
 14
250.2873532824
 24
114.7258273053
 34
0.0
 50
0.0
100
AcDbRotatedDimension
  0
DIMENSION
  5
225
330
1F
100
AcDbEntity
  8
VERMASSUNG
100
AcDbDimension
  2
_D_2
 10
267.3094409289
 20
114.7258273053
 30
0.0
 11
267.3094409289
 21
106.2258273053
 31
0.0
 70
   160
  1
<>
 71
     2
 42
-1.0
  3
SLDDIMSTYLE2
100
AcDbAlignedDimension
 13
261.2659119196
 23
97.7258273053
 33
0.0
 14
250.2873532824
 24
114.7258273053
 34
0.0
 50
90.0
100
AcDbRotatedDimension
  0
DIMENSION
  5
232
330
1F
100
AcDbEntity
  8
VERMASSUNG
100
AcDbDimension
  2
_D_3
 10
250.2873532824
 20
144.7258273053
 30
0.0
 11
195.2873532824
 21
144.7258273053
 31
0.0
 70
   160
  1
<>
 71
     2
 42
-1.0
  3
SLDDIMSTYLE2
100
AcDbAlignedDimension
 13
140.2873532824
 23
134.4258273053
 33
0.0
 14
250.2873532824
 24
114.7258273053
 34
0.0
100
AcDbRotatedDimension
  0
DIMENSION
  5
23E
330
1F
100
AcDbEntity
  8
VERMASSUNG
100
AcDbDimension
  2
_D_4
 10
113.6342960259
 20
94.7258273053
 30
0.0
 11
113.6342960259
 21
114.7258273053
 31
0.0
 70
   160
  1
HSK T%%c<>
 71
     2
 42
-1.0
  3
SLDDIMSTYLE1
100
AcDbAlignedDimension
 13
140.5873532824
 23
134.7258273053
 33
0.0
 14
140.5873532824
 24
94.7258273053
 34
0.0
 50
90.0
100
AcDbRotatedDimension
  0
SPLINE
  5
24A
330
1F
100
AcDbEntity
  8
0
  6
Continuous
 62
     7
370
    15
100
AcDbSpline
210
0.0
220
0.0
230
1.0
 70
     8
 71
     3
 72
    10
 73
     6
 74
     0
 42
0.00000001
 43
0.00000001
 12
1.0
 22
0.0
 32
0.0
 13
1.0
 23
0.0
 33
0.0
 40
0.0
 40
0.0
 40
0.0
 40
0.0
 40
0.3326245000970375
 40
0.6678452524548667
 40
1.0
 40
1.0
 40
1.0
 40
1.0
 10
63.37795760431189
 20
97.71184536698496
 30
0.0
 10
63.81894907943719
 20
97.81534957854218
 30
0.0
 10
64.70437412464457
 20
98.02316588875806
 30
0.0
 10
66.05435577641214
 20
98.27646821343247
 30
0.0
 10
66.93606150627
 20
98.48981499545692
 30
0.0
 10
67.37488903912461
 20
98.59599831584131
 30
0.0
  0
LINE
  5
24B
330
1F
100
AcDbEntity
  8
0
  6
Continuous
 62
     7
370
    15
100
AcDbLine
 10
62.7395048492
 20
111.8304806955
 30
0.0
 11
62.3886359377
 21
111.8598026882
 31
0.0
  0
LINE
  5
24C
330
1F
100
AcDbEntity
  8
0
  6
Continuous
 62
     7
370
    15
100
AcDbLine
 10
67.3354656889
 20
98.7167834032
 30
0.0
 11
66.6571869502
 21
108.4166221048
 31
0.0
  0
LINE
  5
24D
330
1F
100
AcDbEntity
  8
0
  6
Continuous
 62
     7
370
    15
100
AcDbLine
 10
63.3893508626
 20
98.2365729946
 30
0.0
 11
62.6800628949
 21
108.3798641998
 31
0.0
  0
SPLINE
  5
24E
330
1F
100
AcDbEntity
  8
0
  6
Continuous
 62
     7
370
    15
100
AcDbSpline
210
0.0
220
0.0
230
1.0
 70
     8
 71
     3
 72
    14
 73
    10
 74
     0
 42
0.00000001
 43
0.00000001
 12
1.0
 22
0.0
 32
0.0
 13
1.0
 23
0.0
 33
0.0
 40
0.0
 40
0.0
 40
0.0
 40
0.0
 40
0.1583174798054509
 40
0.3167876232810625
 40
0.471367554971741
 40
0.6220998178171797
 40
0.7721073484578843
 40
0.9245859512362323
 40
1.0
 40
1.0
 40
1.0
 40
1.0
 10
67.33546568887985
 20
98.71678340318834
 30
0.0
 10
67.3362531084948
 20
98.70552205995398
 30
0.0
 10
67.3378287070241
 20
98.68298851430536
 30
0.0
 10
67.34021776673906
 20
98.64882321971653
 30
0.0
 10
67.34224975918846
 20
98.61976530127272
 30
0.0
 10
67.34372213716283
 20
98.59871060970757
 30
0.0
 10
67.34449598033318
 20
98.58764046231944
 30
0.0
 10
67.34454193535883
 20
98.58698912828476
 30
0.0
 10
67.34424800480612
 20
98.59119016002509
 30
0.0
 10
67.34415073754943
 20
98.59258036199247
 30
0.0
  0
SPLINE
  5
24F
330
1F
100
AcDbEntity
  8
0
  6
Continuous
 62
     7
370
    15
100
AcDbSpline
210
0.0
220
0.0
230
1.0
 70
     8
 71
     3
 72
    13
 73
     9
 74
     0
 42
0.00000001
 43
0.00000001
 12
1.0
 22
0.0
 32
0.0
 13
1.0
 23
0.0
 33
0.0
 40
0.0
 40
0.0
 40
0.0
 40
0.0
 40
0.1669830159734461
 40
0.3557327962411303
 40
0.5407539758691053
 40
0.7250347134360382
 40
0.9118285515819138
 40
1.0
 40
1.0
 40
1.0
 40
1.0
 10
63.42499475276722
 20
97.72684152308142
 30
0.0
 10
63.42461661060443
 20
97.73224925473329
 30
0.0
 10
63.42381103425188
 20
97.7437696329623
 30
0.0
 10
63.41884012006548
 20
97.8148573655343
 30
0.0
 10
63.41161937377325
 20
97.91811809571935
 30
0.0
 10
63.40284363714169
 20
98.04361811213619
 30
0.0
 10
63.39512606218248
 20
98.15398490099082
 30
0.0
 10
63.39075311049049
 20
98.21652018493182
 30
0.0
 10
63.38935086263089
 20
98.23657299461996
 30
0.0
  0
SPLINE
  5
250
330
1F
100
AcDbEntity
  8
0
  6
Continuous
 62
     7
370
    15
100
AcDbSpline
210
0.0
220
0.0
230
1.0
 70
     8
 71
     3
 72
    10
 73
     6
 74
     0
 42
0.00000001
 43
0.00000001
 12
1.0
 22
0.0
 32
0.0
 13
1.0
 23
0.0
 33
0.0
 40
0.0
 40
0.0
 40
0.0
 40
0.0
 40
0.265696792088522
 40
0.6165103092009817
 40
1.0
 40
1.0
 40
1.0
 40
1.0
 10
66.65266561197794
 20
108.4812787089053
 30
0.0
 10
66.65288489687345
 20
108.4781434679995
 30
0.0
 10
66.65339371520608
 20
108.4708686028229
 30
0.0
 10
66.65490942325904
 20
108.4491891339202
 30
0.0
 10
66.65640558178298
 20
108.4277951225921
 30
0.0
 10
66.65718695024705
 20
108.4166221048239
 30
0.0
  0
SPLINE
  5
251
330
1F
100
AcDbEntity
  8
0
  6
Continuous
 62
     7
370
    15
100
AcDbSpline
210
0.0
220
0.0
230
1.0
 70
     8
 71
     3
 72
    10
 73
     6
 74
     0
 42
0.00000001
 43
0.00000001
 12
1.0
 22
0.0
 32
0.0
 13
1.0
 23
0.0
 33
0.0
 40
0.0
 40
0.0
 40
0.0
 40
0.0
 40
0.3518048193526193
 40
0.7034179515911287
 40
1.0
 40
1.0
 40
1.0
 40
1.0
 10
62.68006289486519
 20
108.3798641997877
 30
0.0
 10
62.67719077385914
 20
108.4209374782334
 30
0.0
 10
62.67144809677326
 20
108.5030616556183
 30
0.0
 10
62.66516516680319
 20
108.5929107750595
 30
0.0
 10
62.66297879189948
 20
108.6241775168969
 30
0.0
 10
62.66197841490364
 20
108.638483631194
 30
0.0
  0
LINE
  5
252
330
1F
100
AcDbEntity
  8
0
  6
Continuous
 62
     7
370
    15
100
AcDbLine
 10
66.652665612
 20
108.4812787089
 30
0.0
 11
66.6486280958
 21
108.5390193115
 31
0.0
  0
LINE
  5
253
330
1F
100
AcDbEntity
  8
0
  6
Continuous
 62
     7
370
    15
100
AcDbLine
 10
62.6619784149
 20
108.6384836312
 30
0.0
 11
62.43834074
 21
111.8366511732
 31
0.0
  0
LINE
  5
254
330
1F
100
AcDbEntity
  8
0
  6
Continuous
 62
     7
370
    15
100
AcDbLine
 10
62.6800628949
 20
108.3798641998
 30
0.0
 11
62.6619784149
 21
108.6384836312
 31
0.0
  0
LINE
  5
255
330
1F
100
AcDbEntity
  8
0
  6
Continuous
 62
     7
370
    15
100
AcDbLine
 10
66.6336698911
 20
108.7529292058
 30
0.0
 11
66.6486280958
 21
108.5390193115
 31
0.0
  0
LINE
  5
256
330
1F
100
AcDbEntity
  8
0
  6
Continuous
 62
     7
370
    15
100
AcDbLine
 10
66.6336698911
 20
108.7529292058
 30
0.0
 11
65.1420401397
 21
108.5808487337
 31
0.0
  0
LINE
  5
257
330
1F
100
AcDbEntity
  8
0
  6
Continuous
 62
     7
370
    15
100
AcDbLine
 10
65.1420401397
 20
108.5808487337
 30
0.0
 11
62.9625097196
 21
108.6413623493
 31
0.0
  0
LINE
  5
258
330
1F
100
AcDbEntity
  8
0
  6
Continuous
 62
     7
370
    15
100
AcDbLine
 10
61.636637313
 20
127.6022215101
 30
0.0
 11
62.9625097196
 21
108.6413623493
 31
0.0
  0
ARC
  5
259
330
1F
100
AcDbEntity
  8
0
  6
Continuous
 62
     7
370
    15
100
AcDbCircle
 10
63.4250657155
 20
114.7258273053
 30
0.0
 40
13.00000000000002
100
AcDbArc
 50
0.0
 51
97.9073388765
  0
LINE
  5
25A
330
1F
100
AcDbEntity
  8
0
  6
Continuous
 62
     7
370
    15
100
AcDbLine
 10
76.4250659837
 20
112.7258272104
 30
0.0
 11
76.4250659837
 21
114.7258273053
 31
0.0
  0
ARC
  5
25B
330
1F
100
AcDbEntity
  8
0
  6
Continuous
 62
     7
370
    15
100
AcDbCircle
 10
59.4250657155
 20
112.7258273053
 30
0.0
 40
17.00000000000001
100
AcDbArc
 50
312.7233437277
 51
0.0
  0
LINE
  5
25C
330
1F
100
AcDbEntity
  8
0
  6
Continuous
 62
     7
370
    15
100
AcDbLine
 10
67.2943950618
 20
99.3041191909
 30
0.0
 11
70.9588692977
 21
100.2369775164
 31
0.0
  0
LINE
  5
25D
330
1F
100
AcDbEntity
  8
0
  6
Continuous
 62
     7
370
    15
100
AcDbLine
 10
70.4198258451
 20
99.7599010083
 30
0.0
 11
67.3177442501
 21
98.9702093143
 31
0.0
  0
ARC
  5
25E
330
1F
100
AcDbEntity
  8
0
  6
Continuous
 62
     7
370
    15
100
AcDbCircle
 10
59.4250657155
 20
112.7258273053
 30
0.0
 40
17.00000000000001
100
AcDbArc
 50
310.2970563905
 51
312.7233437277
  0
SPLINE
  5
25F
330
1F
100
AcDbEntity
  8
0
  6
Continuous
 62
     7
370
    15
100
AcDbSpline
210
0.0
220
0.0
230
1.0
 70
     8
 71
     3
 72
    14
 73
    10
 74
     0
 42
0.00000001
 43
0.00000001
 12
1.0
 22
0.0
 32
0.0
 13
1.0
 23
0.0
 33
0.0
 40
0.0
 40
0.0
 40
0.0
 40
0.0
 40
0.25
 40
0.25
 40
0.5
 40
0.5
 40
0.75
 40
0.75
 40
1.0
 40
1.0
 40
1.0
 40
1.0
 10
61.67160005707395
 20
127.1022305867841
 30
0.0
 10
61.67160005707395
 20
127.1022305867841
 30
0.0
 10
61.61816482607856
 20
127.0950116180769
 30
0.0
 10
61.40519230901472
 20
127.0620229429111
 30
0.0
 10
61.25083941548913
 20
127.0369735274838
 30
0.0
 10
60.85043490236819
 20
126.9595044909922
 30
0.0
 10
60.61321728027789
 20
126.9086278826909
 30
0.0
 10
60.07493761945438
 20
126.7717296488865
 30
0.0
 10
59.78406436018926
 20
126.6881300506157
 30
0.0
 10
59.47868928324193
 20
126.5865234508108
 30
0.0
  0
SPLINE
  5
260
330
1F
100
AcDbEntity
  8
0
  6
Continuous
 62
     7
370
    15
100
AcDbSpline
210
0.0
220
0.0
230
1.0
 70
     8
 71
     3
 72
    10
 73
     6
 74
     0
 42
0.00000001
 43
0.00000001
 12
1.0
 22
0.0
 32
0.0
 13
1.0
 23
0.0
 33
0.0
 40
0.0
 40
0.0
 40
0.0
 40
0.0
 40
0.3757236128423611
 40
0.751631962793501
 40
1.0
 40
1.0
 40
1.0
 40
1.0
 10
61.1677849652872
 20
102.4313290331069
 30
0.0
 10
61.47843060941539
 20
102.3817192306633
 30
0.0
 10
62.09987463701577
 20
102.2824752334538
 30
0.0
 10
62.78718769975541
 20
102.2388676040062
 30
0.0
 10
63.01811195958538
 20
102.2337333759747
 30
0.0
 10
63.10998505672185
 20
102.2316907260123
 30
0.0
  0
ELLIPSE
  5
261
330
1F
100
AcDbEntity
  8
0
  6
Continuous
 62
     7
370
    15
100
AcDbEllipse
 10
56.8751448619
 20
109.1706230092
 30
0.0
 11
1.791520314584546
 21
-1.696680103864807
 31
0.0
210
0.0
220
0.0
230
1.0
 40
0.8366473185
 41
0.0
 42
6.283185307179586
  0
ARC
  5
262
330
1F
100
AcDbEntity
  8
0
  6
Continuous
 62
     7
370
    15
100
AcDbCircle
 10
63.4250657155
 20
114.7258273053
 30
0.0
 40
12.50000000000001
100
AcDbArc
 50
108.4036880773
 51
259.5963119227
  0
SPLINE
  5
263
330
1F
100
AcDbEntity
  8
0
  6
Continuous
 62
     7
370
    15
100
AcDbSpline
210
0.0
220
0.0
230
1.0
 70
    24
 71
     3
 72
    10
 73
     6
 74
     0
 42
0.00000001
 43
0.00000001
 12
1.0
 22
0.0
 32
0.0
 13
1.0
 23
0.0
 33
0.0
 40
0.0
 40
0.0
 40
0.0
 40
0.0
 40
0.5
 40
0.5
 40
1.0
 40
1.0
 40
1.0
 40
1.0
 10
58.92506571548736
 20
133.59670433849
 30
0.0
 10
58.92506571548736
 20
133.7551387813778
 30
0.0
 10
58.92506571548736
 20
133.9141594761798
 30
0.0
 10
58.92506571548736
 20
134.1441673004354
 30
0.0
 10
58.92506571548736
 20
134.2130025752522
 30
0.0
 10
58.92506571548736
 20
134.2130025752522
 30
0.0
  0
SPLINE
  5
264
330
1F
100
AcDbEntity
  8
0
  6
Continuous
 62
     7
370
    15
100
AcDbSpline
210
0.0
220
0.0
230
1.0
 70
    24
 71
     3
 72
    12
 73
     8
 74
     0
 42
0.00000001
 43
0.00000001
 12
1.0
 22
0.0
 32
0.0
 13
1.0
 23
0.0
 33
0.0
 40
0.0
 40
0.0
 40
0.0
 40
0.0
 40
0.2499999999999994
 40
0.2499999999999994
 40
0.4999999999999989
 40
0.4999999999999989
 40
1.0
 40
1.0
 40
1.0
 40
1.0
 10
51.57506571548736
 20
130.8372363064246
 30
0.0
 10
51.57506571548736
 20
130.8372363064246
 30
0.0
 10
51.57506571548736
 20
130.8116116738198
 30
0.0
 10
51.57506571548736
 20
130.723068300888
 30
0.0
 10
51.57506571548736
 20
130.6601858177733
 30
0.0
 10
51.57506571548736
 20
130.4428246298397
 30
0.0
 10
51.57506571548736
 20
130.2641776198284
 30
0.0
 10
51.57506571548736
 20
130.0860844646527
 30
0.0
  0
ARC
  5
265
330
1F
100
AcDbEntity
  8
0
  6
Continuous
 62
     7
370
    15
100
AcDbCircle
 10
63.4250657155
 20
114.7258273053
 30
0.0
 40
20.00000000000001
100
AcDbArc
 50
103.0028781629
 51
126.3346172154
  0
SPLINE
  5
266
330
1F
100
AcDbEntity
  8
0
  6
Continuous
 62
     7
370
    15
100
AcDbSpline
210
0.0
220
0.0
230
1.0
 70
    24
 71
     3
 72
    10
 73
     6
 74
     0
 42
0.00000001
 43
0.00000001
 12
1.0
 22
0.0
 32
0.0
 13
1.0
 23
0.0
 33
0.0
 40
0.0
 40
0.0
 40
0.0
 40
0.0
 40
0.5
 40
0.5
 40
1.0
 40
1.0
 40
1.0
 40
1.0
 10
57.92506571548736
 20
96.12179548426055
 30
0.0
 10
57.92506571548736
 20
95.96216331535732
 30
0.0
 10
57.92506571548736
 20
95.80111368159329
 30
0.0
 10
57.92506571548736
 20
95.56812279791669
 30
0.0
 10
57.92506571548736
 20
95.49694278231769
 30
0.0
 10
57.92506571548736
 20
95.49694278231769
 30
0.0
  0
ARC
  5
267
330
1F
100
AcDbEntity
  8
0
  6
Continuous
 62
     7
370
    15
100
AcDbCircle
 10
63.4250657155
 20
114.7258273053
 30
0.0
 40
20.00000000000001
100
AcDbArc
 50
143.6653827846
 51
254.0379858372
  0
SPLINE
  5
268
330
1F
100
AcDbEntity
  8
0
  6
Continuous
 62
     7
370
    15
100
AcDbSpline
210
0.0
220
0.0
230
1.0
 70
    24
 71
     3
 72
    12
 73
     8
 74
     0
 42
0.00000001
 43
0.00000001
 12
1.0
 22
0.0
 32
0.0
 13
1.0
 23
0.0
 33
0.0
 40
0.0
 40
0.0
 40
0.0
 40
0.0
 40
0.2499999999999994
 40
0.2499999999999994
 40
0.4999999999999989
 40
0.4999999999999989
 40
1.0
 40
1.0
 40
1.0
 40
1.0
 10
47.3136567144099
 20
126.5758273053471
 30
0.0
 10
47.3136567144099
 20
126.5758273053471
 30
0.0
 10
47.33893686457437
 20
126.5758273053471
 30
0.0
 10
47.42854821007612
 20
126.5758273053471
 30
0.0
 10
47.49153384700212
 20
126.5758273053471
 30
0.0
 10
47.70782056875969
 20
126.5758273053471
 30
0.0
 10
47.88780032618006
 20
126.5758273053471
 30
0.0
 10
48.06480855618175
 20
126.5758273053471
 30
0.0
  0
SPLINE
  5
269
330
1F
100
AcDbEntity
  8
0
  6
Continuous
 62
     7
370
    15
100
AcDbSpline
210
0.0
220
0.0
230
1.0
 70
    24
 71
     3
 72
    10
 73
     6
 74
     0
 42
0.00000001
 43
0.00000001
 12
1.0
 22
0.0
 32
0.0
 13
1.0
 23
0.0
 33
0.0
 40
0.0
 40
0.0
 40
0.0
 40
0.0
 40
0.5
 40
0.5
 40
1.0
 40
1.0
 40
1.0
 40
1.0
 10
67.92506571548736
 20
134.2130025752521
 30
0.0
 10
67.92506571548736
 20
134.2130025752521
 30
0.0
 10
67.92506571548736
 20
134.1444171727463
 30
0.0
 10
67.92506571548736
 20
133.9146439034267
 30
0.0
 10
67.92506571548736
 20
133.756145701759
 30
0.0
 10
67.92506571548736
 20
133.59670433849
 30
0.0
  0
ARC
  5
26A
330
1F
100
AcDbEntity
  8
0
  6
Continuous
 62
     7
370
    15
100
AcDbCircle
 10
63.4250657155
 20
114.7258273053
 30
0.0
 40
20.0
100
AcDbArc
 50
285.9620141628
 51
76.9971218371
  0
SPLINE
  5
26B
330
1F
100
AcDbEntity
  8
0
  6
Continuous
 62
     7
370
    15
100
AcDbSpline
210
0.0
220
0.0
230
1.0
 70
    24
 71
     3
 72
    12
 73
     8
 74
     0
 42
0.00000001
 43
0.00000001
 12
1.0
 22
0.0
 32
0.0
 13
1.0
 23
0.0
 33
0.0
 40
0.0
 40
0.0
 40
0.0
 40
0.0
 40
0.2500000000000001
 40
0.2500000000000001
 40
0.5000000000000002
 40
0.5000000000000002
 40
1.0
 40
1.0
 40
1.0
 40
1.0
 10
68.92506571548736
 20
95.49694278231769
 30
0.0
 10
68.92506571548736
 20
95.49694278231769
 30
0.0
 10
68.92506571548736
 20
95.51391837867578
 30
0.0
 10
68.92506571548736
 20
95.57839387613498
 30
0.0
 10
68.92506571548736
 20
95.62550750792958
 30
0.0
 10
68.92506571548736
 20
95.80211742191707
 30
0.0
 10
68.92506571548736
 20
95.96196629772523
 30
0.0
 10
68.92506571548736
 20
96.12179548426025
 30
0.0
  0
LINE
  5
26C
330
1F
100
AcDbEntity
  8
0
  6
Continuous
 62
     7
370
    15
100
AcDbLine
 10
67.9250655218
 20
131.6258265364
 30
0.0
 11
58.9250659092
 21
131.6258265364
 31
0.0
  0
LINE
  5
26D
330
1F
100
AcDbEntity
  8
0
  6
Continuous
 62
     7
370
    15
100
AcDbLine
 10
68.9250656857
 20
97.8258280742
 30
0.0
 11
63.8805845216
 21
97.8258280742
 31
0.0
  0
LINE
  5
26E
330
1F
100
AcDbEntity
  8
0
  6
Continuous
 62
     7
370
    15
100
AcDbLine
 10
63.4180730341
 20
97.8258280742
 30
0.0
 11
57.9250657453
 21
97.8258280742
 31
0.0
  0
LINE
  5
26F
330
1F
100
AcDbEntity
  8
0
  6
Continuous
 62
     7
370
    15
100
AcDbLine
 10
48.0648081272
 20
126.5758276645
 30
0.0
 11
51.5750653564
 21
126.5758276645
 31
0.0
  0
LINE
  5
270
330
1F
100
AcDbEntity
  8
0
  6
Continuous
 62
     7
370
    15
100
AcDbLine
 10
68.9250656857
 20
96.1217946101
 30
0.0
 11
68.9250656857
 21
97.8258280742
 31
0.0
  0
LINE
  5
271
330
1F
100
AcDbEntity
  8
0
  6
Continuous
 62
     7
370
    15
100
AcDbLine
 10
67.9250655218
 20
133.5967044074
 30
0.0
 11
67.9250655218
 21
131.6258265364
 31
0.0
  0
LINE
  5
272
330
1F
100
AcDbEntity
  8
0
  6
Continuous
 62
     7
370
    15
100
AcDbLine
 10
58.9250659092
 20
131.6258265364
 30
0.0
 11
58.9250659092
 21
133.5967044074
 31
0.0
  0
LINE
  5
273
330
1F
100
AcDbEntity
  8
0
  6
Continuous
 62
     7
370
    15
100
AcDbLine
 10
57.9250657453
 20
97.8258280742
 30
0.0
 11
57.9250657453
 21
96.1217946101
 31
0.0
  0
LINE
  5
274
330
1F
100
AcDbEntity
  8
0
  6
Continuous
 62
     7
370
    15
100
AcDbLine
 10
51.5750653564
 20
130.0860848937
 30
0.0
 11
51.5750653564
 21
126.5758276645
 31
0.0
  0
SPLINE
  5
275
330
1F
100
AcDbEntity
  8
0
  6
Continuous
 62
     7
370
    15
100
AcDbSpline
210
0.0
220
0.0
230
1.0
 70
     8
 71
     3
 72
    22
 73
    18
 74
     0
 42
0.00000001
 43
0.00000001
 12
1.0
 22
0.0
 32
0.0
 13
1.0
 23
0.0
 33
0.0
 40
0.0
 40
0.0
 40
0.0
 40
0.0
 40
0.25
 40
0.25
 40
0.375
 40
0.375
 40
0.5
 40
0.5
 40
0.625
 40
0.625
 40
0.75
 40
0.75
 40
0.875
 40
0.875
 40
0.9375
 40
0.9375
 40
1.0
 40
1.0
 40
1.0
 40
1.0
 10
47.3136567144099
 20
126.5758273053471
 30
0.0
 10
47.72765159257639
 20
127.1386999472451
 30
0.0
 10
48.16346139388532
 20
127.6693248309746
 30
0.0
 10
48.84020219686965
 20
128.4150358218962
 30
0.0
 10
49.07105732404432
 20
128.6566560482949
 30
0.0
 10
49.53109437920646
 20
129.1155148236208
 30
0.0
 10
49.75706205598496
 20
129.3296934960907
 30
0.0
 10
50.19425364448568
 20
129.7269220552362
 30
0.0
 10
50.40730636877823
 20
129.911366890256
 30
0.0
 10
50.79148250801176
 20
130.2324467381396
 30
0.0
 10
50.96559951680324
 20
130.3717975682456
 30
0.0
 10
51.25911726160377
 20
130.6011031026712
 30
0.0
 10
51.37390956620118
 20
130.6876391121475
 30
0.0
 10
51.49286414229716
 20
130.7765287164788
 30
0.0
 10
51.52368222528375
 20
130.7993372223404
 30
0.0
 10
51.56470143700236
 20
130.8296283850366
 30
0.0
 10
51.57506571548736
 20
130.8372363064246
 30
0.0
 10
51.57506571548736
 20
130.8372363064246
 30
0.0
  0
SPLINE
  5
276
330
1F
100
AcDbEntity
  8
0
  6
Continuous
 62
     7
370
    15
100
AcDbSpline
210
0.0
220
0.0
230
1.0
 70
     8
 71
     3
 72
    22
 73
    18
 74
     0
 42
0.00000001
 43
0.00000001
 12
1.0
 22
0.0
 32
0.0
 13
1.0
 23
0.0
 33
0.0
 40
0.0
 40
0.0
 40
0.0
 40
0.0
 40
0.125
 40
0.125
 40
0.25
 40
0.25
 40
0.375
 40
0.375
 40
0.5
 40
0.5
 40
0.625
 40
0.625
 40
0.75
 40
0.75
 40
0.875
 40
0.875
 40
1.0
 40
1.0
 40
1.0
 40
1.0
 10
64.42506571548736
 20
94.7508429499089
 30
0.0
 10
64.7202822922789
 20
94.76562226445246
 30
0.0
 10
65.01972158113504
 20
94.78739218458074
 30
0.0
 10
65.59722099749345
 20
94.84201821790849
 30
0.0
 10
65.87792272855194
 20
94.87490141526014
 30
0.0
 10
66.4233001318624
 20
94.94992387200861
 30
0.0
 10
66.6842078400647
 20
94.99162525373562
 30
0.0
 10
67.16949539178592
 20
95.07792705108899
 30
0.0
 10
67.39762448109074
 20
95.12317001736939
 30
0.0
 10
67.81433584518592
 20
95.2122498879535
 30
0.0
 10
67.9996572151661
 20
95.25530509744634
 30
0.0
 10
68.32550676990381
 20
95.33475204095087
 30
0.0
 10
68.46709072855276
 20
95.37145626558441
 30
0.0
 10
68.69323001022867
 20
95.43178315849198
 30
0.0
 10
68.77903112471112
 20
95.45567664500193
 30
0.0
 10
68.89538645170326
 20
95.48838352717084
 30
0.0
 10
68.92506571548736
 20
95.49694278231767
 30
0.0
 10
68.92506571548736
 20
95.49694278231767
 30
0.0
  0
SPLINE
  5
277
330
1F
100
AcDbEntity
  8
0
  6
Continuous
 62
     7
370
    15
100
AcDbSpline
210
0.0
220
0.0
230
1.0
 70
     8
 71
     3
 72
    22
 73
    18
 74
     0
 42
0.00000001
 43
0.00000001
 12
1.0
 22
0.0
 32
0.0
 13
1.0
 23
0.0
 33
0.0
 40
0.0
 40
0.0
 40
0.0
 40
0.0
 40
0.125
 40
0.125
 40
0.25
 40
0.25
 40
0.375
 40
0.375
 40
0.5
 40
0.5
 40
0.625
 40
0.625
 40
0.75
 40
0.75
 40
0.875
 40
0.875
 40
1.0
 40
1.0
 40
1.0
 40
1.0
 10
57.92506571548736
 20
95.49694278231767
 30
0.0
 10
57.92506571548736
 20
95.49694278231769
 30
0.0
 10
57.95383581327148
 20
95.4886412784811
 30
0.0
 10
58.07067961401052
 20
95.45579273476417
 30
0.0
 10
58.15742460387588
 20
95.4316417900668
 30
0.0
 10
58.38309368356486
 20
95.37144393598857
 30
0.0
 10
58.52415981106373
 20
95.33486105496262
 30
0.0
 10
58.85190822070204
 20
95.25495980193438
 30
0.0
 10
59.03753734713881
 20
95.21186992562916
 30
0.0
 10
59.4521439609946
 20
95.12325526662755
 30
0.0
 10
59.68240303628916
 20
95.07758708291769
 30
0.0
 10
60.1682176251818
 20
94.99124323865774
 30
0.0
 10
60.42583066019206
 20
94.95007046044338
 30
0.0
 10
60.97193752135979
 20
94.87492979997359
 30
0.0
 10
61.25554555021031
 20
94.84174405521826
 30
0.0
 10
61.83120017852544
 20
94.78734248087552
 30
0.0
 10
62.12746718965223
 20
94.76574151105618
 30
0.0
 10
62.42506571548736
 20
94.7508429499089
 30
0.0
  0
SPLINE
  5
278
330
1F
100
AcDbEntity
  8
0
  6
Continuous
 62
     7
370
    15
100
AcDbSpline
210
0.0
220
0.0
230
1.0
 70
     8
 71
     3
 72
    38
 73
    34
 74
     0
 42
0.00000001
 43
0.00000001
 12
1.0
 22
0.0
 32
0.0
 13
1.0
 23
0.0
 33
0.0
 40
0.0
 40
0.0
 40
0.0
 40
0.0
 40
0.0625
 40
0.0625
 40
0.125
 40
0.125
 40
0.1875
 40
0.1875
 40
0.25
 40
0.25
 40
0.3125
 40
0.3125
 40
0.375
 40
0.375
 40
0.4375
 40
0.4375
 40
0.5
 40
0.5
 40
0.5625
 40
0.5625
 40
0.625
 40
0.625
 40
0.6875
 40
0.6875
 40
0.75
 40
0.75
 40
0.8125
 40
0.8125
 40
0.875
 40
0.875
 40
0.9375
 40
0.9375
 40
1.0
 40
1.0
 40
1.0
 40
1.0
 10
58.92506571548736
 20
134.2130025752521
 30
0.0
 10
58.92506571548736
 20
134.2130025752521
 30
0.0
 10
58.95442613805886
 20
134.2198481425084
 30
0.0
 10
59.06927972856617
 20
134.245832301942
 30
0.0
 10
59.1562318113107
 20
134.2652852207649
 30
0.0
 10
59.38234469519534
 20
134.3133173253042
 30
0.0
 10
59.52057001966904
 20
134.3417013422835
 30
0.0
 10
59.84697485490629
 20
134.4038573557623
 30
0.0
 10
60.03629662923158
 20
134.4377555314391
 30
0.0
 10
60.4498656827483
 20
134.5044029637648
 30
0.0
 10
60.67571177267199
 20
134.5375003811778
 30
0.0
 10
61.16714226163473
 20
134.59950635184
 30
0.0
 10
61.42749971678503
 20
134.6276723210877
 30
0.0
 10
61.96844452834321
 20
134.6745605901172
 30
0.0
 10
62.25298837025552
 20
134.6935725774371
 30
0.0
 10
62.83420154488287
 20
134.7192136139786
 30
0.0
 10
63.12676315274385
 20
134.7257707301841
 30
0.0
 10
63.71573314335357
 20
134.7258831518191
 30
0.0
 10
64.01496427669784
 20
134.719217628587
 30
0.0
 10
64.59280661815802
 20
134.6938021178856
 30
0.0
 10
64.873776851299
 20
134.6751712244839
 30
0.0
 10
65.4197816508973
 20
134.6279928934445
 30
0.0
 10
65.6817939506207
 20
134.5996112401909
 30
0.0
 10
66.16829578881325
 20
134.5383182890903
 30
0.0
 10
66.39666538004626
 20
134.5049667058284
 30
0.0
 10
66.81441207893626
 20
134.437678847469
 30
0.0
 10
66.9999637199064
 20
134.4044355513196
 30
0.0
 10
67.32589043139443
 20
134.3424295793451
 30
0.0
 10
67.467312312805
 20
134.3134145218744
 30
0.0
 10
67.69318945900879
 20
134.2654396410251
 30
0.0
 10
67.77883022746636
 20
134.2462854036847
 30
0.0
 10
67.89505511065234
 20
134.2199993729634
 30
0.0
 10
67.92506571548736
 20
134.2130025752521
 30
0.0
 10
67.92506571548736
 20
134.2130025752521
 30
0.0
  0
ARC
  5
279
330
1F
100
AcDbEntity
  8
0
  6
Continuous
 62
     7
370
    15
100
AcDbCircle
 10
63.4250657155
 20
114.7258273053
 30
0.0
 40
20.0
100
AcDbArc
 50
267.1340160174
 51
272.8659839826
  0
CIRCLE
  5
27A
330
1F
100
AcDbEntity
  8
VERMASSUNG
  6
CENTERX2
100
AcDbCircle
 10
63.4242064366
 20
113.7381155652
 30
0.0
 40
15.99999999999999
  0
DIMENSION
  5
27B
330
1F
100
AcDbEntity
  8
VERMASSUNG
100
AcDbDimension
  2
_D_5
 10
73.256709675
 20
126.3603927
 30
0.0
 11
80.6989157689
 21
135.914174228
 31
0.0
 70
   160
  1
%%c<> min. 
 71
     2
 42
-1.0
  3
SLDDIMSTYLE3
100
AcDbAlignedDimension
 13
53.5917031983
 23
101.1158384304
 33
0.0
 14
73.256709675
 24
126.3603927
 34
0.0
 50
52.082117328
100
AcDbRotatedDimension
  0
INSERT
  5
295
330
1F
100
AcDbEntity
  8
VERMASSUNG
100
AcDbBlockReference
  2
SW_CENTERMARKSYMBOL_0
 10
63.4250657155
 20
114.7258273053
 30
0.0
  0
OLE2FRAME
  5
296
330
1F
100
AcDbEntity
  8
0
100
AcDbOle2Frame
 70
     2
  3
Paintbrush-Bild
 10
13.8511154363
 20
38.264191557
 30
0.0
 11
51.6290888628
 21
31.9806341108
 31
0.0
 71
     2
 72
     0
 73
     1
 90
    12928
310
80552BED0767C5B32B40DDAF6807D121434000000000000000006FFBDDFB85D0
310
4940DDAF6807D121434000000000000000006FFBDDFB85D04940416F4BD60AFB
310
3F4000000000000000002BED0767C5B32B40416F4BD60AFB3F40000000000000
310
0000000000000100000000010000010000000100000000000100000000320000
310
D0CF11E0A1B11AE1000000000000000000000000000000003E000300FEFF0900
310
0600000000000000000000000100000001000000000000000010000002000000
310
01000000FEFFFFFF0000000000000000FFFFFFFFFFFFFFFFFFFFFFFFFFFFFFFF
310
FFFFFFFFFFFFFFFFFFFFFFFFFFFFFFFFFFFFFFFFFFFFFFFFFFFFFFFFFFFFFFFF
310
FFFFFFFFFFFFFFFFFFFFFFFFFFFFFFFFFFFFFFFFFFFFFFFFFFFFFFFFFFFFFFFF
310
FFFFFFFFFFFFFFFFFFFFFFFFFFFFFFFFFFFFFFFFFFFFFFFFFFFFFFFFFFFFFFFF
310
FFFFFFFFFFFFFFFFFFFFFFFFFFFFFFFFFFFFFFFFFFFFFFFFFFFFFFFFFFFFFFFF
310
FFFFFFFFFFFFFFFFFFFFFFFFFFFFFFFFFFFFFFFFFFFFFFFFFFFFFFFFFFFFFFFF
310
FFFFFFFFFFFFFFFFFFFFFFFFFFFFFFFFFFFFFFFFFFFFFFFFFFFFFFFFFFFFFFFF
310
FFFFFFFFFFFFFFFFFFFFFFFFFFFFFFFFFFFFFFFFFFFFFFFFFFFFFFFFFFFFFFFF
310
FFFFFFFFFFFFFFFFFFFFFFFFFFFFFFFFFFFFFFFFFFFFFFFFFFFFFFFFFFFFFFFF
310
FFFFFFFFFFFFFFFFFFFFFFFFFFFFFFFFFFFFFFFFFFFFFFFFFFFFFFFFFFFFFFFF
310
FFFFFFFFFFFFFFFFFFFFFFFFFFFFFFFFFFFFFFFFFFFFFFFFFFFFFFFFFFFFFFFF
310
FFFFFFFFFFFFFFFFFFFFFFFFFFFFFFFFFFFFFFFFFFFFFFFFFFFFFFFFFFFFFFFF
310
FFFFFFFFFFFFFFFFFFFFFFFFFFFFFFFFFFFFFFFFFFFFFFFFFFFFFFFFFFFFFFFF
310
FFFFFFFFFFFFFFFFFFFFFFFFFFFFFFFFFFFFFFFFFFFFFFFFFFFFFFFFFFFFFFFF
310
FDFFFFFFFEFFFFFFFEFFFFFFFEFFFFFF05000000060000000700000008000000
310
090000000A0000000B0000000C0000000D0000000E0000000F00000010000000
310
11000000120000001300000014000000150000001600000017000000FEFFFFFF
310
FFFFFFFFFFFFFFFFFFFFFFFFFFFFFFFFFFFFFFFFFFFFFFFFFFFFFFFFFFFFFFFF
310
FFFFFFFFFFFFFFFFFFFFFFFFFFFFFFFFFFFFFFFFFFFFFFFFFFFFFFFFFFFFFFFF
310
FFFFFFFFFFFFFFFFFFFFFFFFFFFFFFFFFFFFFFFFFFFFFFFFFFFFFFFFFFFFFFFF
310
FFFFFFFFFFFFFFFFFFFFFFFFFFFFFFFFFFFFFFFFFFFFFFFFFFFFFFFFFFFFFFFF
310
FFFFFFFFFFFFFFFFFFFFFFFFFFFFFFFFFFFFFFFFFFFFFFFFFFFFFFFFFFFFFFFF
310
FFFFFFFFFFFFFFFFFFFFFFFFFFFFFFFFFFFFFFFFFFFFFFFFFFFFFFFFFFFFFFFF
310
FFFFFFFFFFFFFFFFFFFFFFFFFFFFFFFFFFFFFFFFFFFFFFFFFFFFFFFFFFFFFFFF
310
FFFFFFFFFFFFFFFFFFFFFFFFFFFFFFFFFFFFFFFFFFFFFFFFFFFFFFFFFFFFFFFF
310
FFFFFFFFFFFFFFFFFFFFFFFFFFFFFFFFFFFFFFFFFFFFFFFFFFFFFFFFFFFFFFFF
310
FFFFFFFFFFFFFFFFFFFFFFFFFFFFFFFFFFFFFFFFFFFFFFFFFFFFFFFFFFFFFFFF
310
FFFFFFFFFFFFFFFFFFFFFFFFFFFFFFFFFFFFFFFFFFFFFFFFFFFFFFFFFFFFFFFF
310
FFFFFFFFFFFFFFFFFFFFFFFFFFFFFFFFFFFFFFFFFFFFFFFFFFFFFFFFFFFFFFFF
310
FFFFFFFFFFFFFFFFFFFFFFFFFFFFFFFFFFFFFFFFFFFFFFFFFFFFFFFFFFFFFFFF
310
52006F006F007400200045006E00740072007900000000000000000000000000
310
0000000000000000000000000000000000000000000000000000000000000000
310
16000500FFFFFFFFFFFFFFFF020000000A00030000000000C000000000000046
310
000000000000000000000000C07328176B48CD0103000000C000000000000000
310
01004F006C006500000000000000000000000000000000000000000000000000
310
0000000000000000000000000000000000000000000000000000000000000000
310
0A000200FFFFFFFFFFFFFFFFFFFFFFFF00000000000000000000000000000000
310
0000000000000000000000000000000000000000000000001400000000000000
310
010043006F006D0070004F0062006A0000000000000000000000000000000000
310
0000000000000000000000000000000000000000000000000000000000000000
310
120002010100000003000000FFFFFFFF00000000000000000000000000000000
310
0000000000000000000000000000000000000000010000004D00000000000000
310
01004F006C006500310030004E00610074006900760065000000000000000000
310
0000000000000000000000000000000000000000000000000000000000000000
310
1A000200FFFFFFFFFFFFFFFFFFFFFFFF00000000000000000000000000000000
310
0000000000000000000000000000000000000000040000002426000000000000
310
FEFFFFFF02000000FEFFFFFFFFFFFFFFFFFFFFFFFFFFFFFFFFFFFFFFFFFFFFFF
310
FFFFFFFFFFFFFFFFFFFFFFFFFFFFFFFFFFFFFFFFFFFFFFFFFFFFFFFFFFFFFFFF
310
FFFFFFFFFFFFFFFFFFFFFFFFFFFFFFFFFFFFFFFFFFFFFFFFFFFFFFFFFFFFFFFF
310
FFFFFFFFFFFFFFFFFFFFFFFFFFFFFFFFFFFFFFFFFFFFFFFFFFFFFFFFFFFFFFFF
310
FFFFFFFFFFFFFFFFFFFFFFFFFFFFFFFFFFFFFFFFFFFFFFFFFFFFFFFFFFFFFFFF
310
FFFFFFFFFFFFFFFFFFFFFFFFFFFFFFFFFFFFFFFFFFFFFFFFFFFFFFFFFFFFFFFF
310
FFFFFFFFFFFFFFFFFFFFFFFFFFFFFFFFFFFFFFFFFFFFFFFFFFFFFFFFFFFFFFFF
310
FFFFFFFFFFFFFFFFFFFFFFFFFFFFFFFFFFFFFFFFFFFFFFFFFFFFFFFFFFFFFFFF
310
FFFFFFFFFFFFFFFFFFFFFFFFFFFFFFFFFFFFFFFFFFFFFFFFFFFFFFFFFFFFFFFF
310
FFFFFFFFFFFFFFFFFFFFFFFFFFFFFFFFFFFFFFFFFFFFFFFFFFFFFFFFFFFFFFFF
310
FFFFFFFFFFFFFFFFFFFFFFFFFFFFFFFFFFFFFFFFFFFFFFFFFFFFFFFFFFFFFFFF
310
FFFFFFFFFFFFFFFFFFFFFFFFFFFFFFFFFFFFFFFFFFFFFFFFFFFFFFFFFFFFFFFF
310
FFFFFFFFFFFFFFFFFFFFFFFFFFFFFFFFFFFFFFFFFFFFFFFFFFFFFFFFFFFFFFFF
310
FFFFFFFFFFFFFFFFFFFFFFFFFFFFFFFFFFFFFFFFFFFFFFFFFFFFFFFFFFFFFFFF
310
FFFFFFFFFFFFFFFFFFFFFFFFFFFFFFFFFFFFFFFFFFFFFFFFFFFFFFFFFFFFFFFF
310
FFFFFFFFFFFFFFFFFFFFFFFFFFFFFFFFFFFFFFFFFFFFFFFFFFFFFFFFFFFFFFFF
310
0100000200000000000000000000000000000000000000000000000000000000
310
0000000000000000000000000000000000000000000000000000000000000000
310
0100FEFF030A0000FFFFFFFF0A00030000000000C00000000000004607000000
310
5042727573680007000000504272757368000700000050427275736800F439B2
310
7100000000000000000000000000000000000000000000000000000000000000
310
0000000000000000000000000000000000000000000000000000000000000000
310
0000000000000000000000000000000000000000000000000000000000000000
310
0000000000000000000000000000000000000000000000000000000000000000
310
0000000000000000000000000000000000000000000000000000000000000000
310
0000000000000000000000000000000000000000000000000000000000000000
310
0000000000000000000000000000000000000000000000000000000000000000
310
0000000000000000000000000000000000000000000000000000000000000000
310
0000000000000000000000000000000000000000000000000000000000000000
310
0000000000000000000000000000000000000000000000000000000000000000
310
0000000000000000000000000000000000000000000000000000000000000000
310
0000000000000000000000000000000000000000000000000000000000000000
310
20260000424D0E260000000000003E00000028000000B40200006E0000000100
310
01000000000000000000130B0000130B00000200000002000000000000FFFFFF
310
FFFFFFFFFFFFFFFFFFFFFFFFFFFFFFFFFFFFFFFFFFFFFFFFFFFFFFFFFFFFFFFF
310
FFFFFFFFFFFFFFFFFFFFFFFFFFFFFFFFFFFFFFFFFFFFFFFFFFFFFFFFFFFFFFFF
310
FFFFFFFFFFFFFFFFFFFFFFFFFFFFFFFFFFFFFFFFFFFFFFFFF000FFFFFFFFFFFF
310
FFFFFFFFFFFFFFFFFFFFFFFFFFFFFFFFFFFFFFFFFFFFFFFFFFFFFFFFFFFFFFFF
310
FFFFFFFFFFFFFFFFFFFFFFFFFFFFFFFFFFFFFFFFFFFFFFFFFFFFFFFFFFFFFFFF
310
FFFFFFFFFFFFFFFFFFFFFFFFFFFFFFFFF000FFFFFFFFFFFFFFFFFFFFFFFFFFFF
310
FFFFFFFFFFFFFFFFFFFFFFFFFFFFFFFFFFFFFFFFFFFFFFFFFFFFFFFFFFFFFFFF
310
FFFFFFFFFFFFFFFFFFFFFFFFFFFFFFFFFFFFFFFFFFFFFFFFFFFFFFFFFFFFFFFF
310
FFFFFFFFFFFFFFFFF000FFFFFFFFFFFFFFFFFFFFFFFFFFFFFFFFFFFFFFFFFFFF
310
FFFFFFFFFFFFFFFFFFFFFFFFFFFFFFFFFFFFFFFFFFFFFFFFFFFFFFFFFFFFFFFF
310
FFFFFFFFFFFFFFFFFFFFFFFFFFFFFFFFFFFFFFFFFFFFFFFFFFFFFFFFFFFFFFFF
310
F000FFFFFFFFFFFFFFFFFFFFFFFFFFFFFFFFFFFFFFFFFFFFFFFFFFFFFFFFFFFF
310
FFFFFFFFFFFFFFFFFFFFFFFFFFFFFFFFFFFFFFFFFFFFFFFFFFFFFFFFFFFFFFFF
310
FFFFFFFFFFFFFFFFFFFFFFFFFFFFFFFFFFFFFFFFFFFFFFFFF000FFFFFFFFFFFF
310
FFFFFFFFFFFFFFFFFFFFFFFFFFFFFFFFFFFFFFFFFFFFFFFFFFFFFFFFFFFFFFFF
310
FFFFFFFFFFFFFFFFFFFFFFFFFFFFFFFFFFFFFFFFFFFFFFFFFFFFFFFFFFFFFFFF
310
FFFFFFFFFFFFFFFFFFFFFFFFFFFFFFFFF000FFFFFFFFFFFFFFFFFFFFFFFFFFFF
310
FFFFFFFFFFFFFFFFFFFFFFFFFFFFFFFFFFFFFFFFFFFFFFFFFFFFFFFFFFFFFFFF
310
FFFFFFFFFFFFFFFFFFFFFFFFFFFFFFFFFFFFFFFFFFFFFFFFFFFFFFFFFFFFFFFF
310
FFFFFFFFFFFFFFFFF000FFFFFFFFFFFFFFFFFFFFFFFFFFFFFFFFFFFFFFFFFFFF
310
FFFFFFFFFFFFFFFFFFFFFFFFFFFFFFFFFFFFFFFFFFFFFFFFFFFFFFFFFFFFFFFF
310
FFFFFFFFFFFFFFFFFFFFFFFFFFFFFFFFFFFFFFFFFFFFFFFFFFFFFFFFFFFFFFFF
310
F000FFFFFFFFFFFFFFFFFFFFFFFFFFFFFFFFFFFFFFFFFFFFFFFFFFFFFFFFFFFF
310
FFFFFFFFFFFFFFFFFFFFFFFFFFFFFFFFFFFFFFFFFFFFFFFFFFFFFFFFFFFFFFFF
310
FFFFFFFFFFFFFFFFFFFFFFFFFFFFFFFFFFFFFFFFFFFFFFFFF000FFFFFFFFFFFF
310
FFFFFFFFFFFFFFFFFFFFFFFFFFFFFFFFFFFFFFFFFFFFFFFFFFFFFFFFFFFFFFFF
310
FFFFFFFFFFFFFFFFFFFFFFFFFFFFFFFFFFFFFFFFFFFFFFFFFFFFFFFFFFFFFFFF
310
FFFFFFFFFFFFFFFFFFFFFFFFFFFFFFFFF000FFFFFFFFFFFFFFFFFFFFFFFFFFFF
310
FFFFFFFFFFFFFFFFFFFFFFFFFFFFFFFFFFFFFFFFFFFFFFFFFFFFFFFFFFFFFFFF
310
FFFFFFFFFFFFFFFFFFFFFFFFFFFFFFFFFFFFFFFFFFFFFFFFFFFFFFFFFFFFFFFF
310
FFFFFFFFFFFFFFFFF000FFFFFFFFFFFFFFFFFFFFFFFFFFFFFFFFFFFFFFFFFFFF
310
FFFFFFFFFFFFFFFFFFFFFFFFFFFFFFFFFFFFFFFFFFFFFFFFFFFFFFFFFFFFFFFF
310
FFFFFFFFFFFFFFFFFFFFFFFFFFFFFFFFFFFFFFFFFFFFFFFFFFFFFFFFFFFFFFFF
310
F000FFFFFFFFFFFFFFFFFFFFFFFFFFFFFFFFFFFFFFFFFFFFFFFFFFFFFFFFFFFF
310
FFFFFFFFFFFFFFFFFFFFFFFFFFFFFFFFFFFFFFFFFFFFFFFFFFFFFFFFFFFFFFFF
310
FFFFFFFFFFFFFFFFFFFFFFFFFFFFFFFFFFFFFFFFFFFFFFFFF000FFFFFFFFFFFF
310
FFFFFFFFFFFFFFFFFFFFFFFFFFFFFFFFFFFFFFFFFFFFFFFFFFFFFFFFFFFFFFFF
310
FFFFFFFFFFFFFFFFFFFFFFFFFFFFFFFFFFFFFFFFFFFFFFFFFFFFFFFFFFFFFFFF
310
FFFFFFFFFFFFFFFFFFFFFFFFFFFFFFFFF000FFFFFFFFFFFFFFFFFFFFFFFFFFFF
310
FFFFFFFFFFFFFFFFFFFFFFFFFFFFFFFFFFFFFFFFFFFFFFFFFFFFFFFFFFFFFFFF
310
FFFFFFFFFFFFFFFFFFFFFFFFFFFFFFFFFFFFFFFFFFFFFFFFFFFFFFFFFFFFFFFF
310
FFFFFFFFFFFFFFFFF000FFFFFFFFFFFFFFFFFFFFFFFFFFFFFFFFFFFFFFFFFFFF
310
FFFFFFFFFFFFFFFFFFFFFFFFFFFFFFFFFFFFFFFFFFFFFFFFFFFFFFFFFFFFFFFF
310
FFFFFFFFFFFFFFFFFFFFFFFFFFFFFFFFFFFFFFFFFFFFFFFFFFFFFFFFFFFFFFFF
310
F000FFFFFFFFFFFFFFFFFFFFFFFFFFFFFFFFFFFFFFFFFFFFFFFFFFFFFFFFFFFF
310
FFFFFFFFFFFFFFFFFFFFFFFFFFFFFFFFFFFFFFFFFFFFFFFFFFFFFFFFFFFFFFFF
310
FFFFFFFFFFFFFFFFFFFFFFFFFFFFFFFFFFFFFFFFFFFFFFFFF000FFFFFFFFFFFF
310
FFFFFFFFFFFFFFFFFFFFFFFFFFFFFFFFFFFFFFFFFFFFFFFFFFFFFFFFFFFFFFFF
310
FFFFFFFFFFFFFFFFFFFFFFFFFFFFFFFFFFFFFFFFFFFFFFFFFFFFFFFFFFFFFFFF
310
FFFFFFFFFFFFFFFFFFFFFFFFFFFFFFFFF000FFFFFFFFFFFFFFFFFFFFFFFFFFFF
310
FFFFFFFFFFFFFFFFFFFFFFFFFFFFFFFFFFFFFFFFFFFFFFFFFFFFFFFFFFFFFFFF
310
FFFFFFFFFFFFFFFFFFFFFFFFFFFFFFFFFFFFFFFFFFFFFFFFFFFFFFFFFFFFFFFF
310
FFFFFFFFFFFFFFFFF000FFFFF80003FFFFFFFFFFFFFFFFFFFFFFFFFFFFFFFFFF
310
FFFFF00007FFFFFFFFFF00007FFFFFF800000000000000007FFFFFFFFFFFFFFF
310
FFFFFFFC001FFFFFFFFFFFFFFC001FFFFFFFFFFFFFFFFFFFFFFFFFFE0007FFFF
310
F000FFFF8000007FFFFFFFF8000FFFFFC0007FFFFF80007FFFFF0000007FFFFF
310
FFF8000007FFFFF800000000000000007FFFFFF0001FFFFFFFFFFFC00001FFFF
310
FFFFFFFFC00001FFFFFFFF000000000003FFFFE000007FFFF000FFFE0000000F
310
FFFFFFF0000FFFFF80007FFFFF80007FFFFC0000001FFFFFFFC0000001FFFFF8
310
00000000000000007FFFFFF0001FFFFFFFFFFE0000003FFFFFFFFFFE0000003F
310
FFFFFF000000000003FFFF0000000FFFF000FFF800000003FFFFFFF00007FFFF
310
80007FFFFF80007FFFF000000007FFFFFF000000003FFFF80000000000000000
310
7FFFFFF0001FFFFFFFFFF80000000FFFFFFFFFF80000000FFFFFFF0000000000
310
03FFFC00000003FFF000FFE000000000FFFFFFF00007FFFF80003FFFFF80007F
310
FFC000000001FFFFFC000000001FFFF800000000000000007FFFFFF0001FFFFF
310
FFFFE000000003FFFFFFFFE000000003FFFFFF000000000003FFF000000000FF
310
F000FF80000000007FFFFFF00007FFFF80003FFFFF80007FFF8000000000FFFF
310
F80000000007FFF800000000000000007FFFFFF0001FFFFFFFFFC000000001FF
310
FFFFFFC000000001FFFFFF000000000003FFC0000000007FF000FF0000000000
310
3FFFFFE00007FFFF00003FFFFF80007FFE00000000003FFFF00000000003FFF8
310
00000000000000007FFFFFF0001FFFFFFFFF8000000000FFFFFFFF8000000000
310
FFFFFF000000000003FF80000000003FF000FE00000000001FFFFFE00003FFFF
310
00003FFFFF80007FFC00000000001FFFE00000000001FFF8000001FFFE000000
310
7FFFFFF0001FFFFFFFFE00000000003FFFFFFE00000000003FFFFF0000000000
310
03FF00000000001FF000FC00000000000FFFFFE00003FFFF00001FFFFF80007F
310
F800000000001FFFC00000000000FFF8000001FFFE0000007FFFFFF0001FFFFF
310
FFFC00000000001FFFFFFC00000000001FFFFF000000000003FE00000000000F
310
F000F8000000000007FFFFE00003FFFF00001FFFFF80007FF800000000000FFF
310
800000000000FFF8000001FFFE0000007FFFFFF0001FFFFFFFF800000000000F
310
FFFFF800000000000FFFFF000000000003FC000000000007F000F80000000000
310
03FFFFC00003FFFE00001FFFFF80007FF0000000000007FF0000000000007FF8
310
000001FFFE0000007FFFFFF0001FFFFFFFF0000000000007FFFFF00000000000
310
07FFFF000000000003F8000000000003F000F0000000000003FFFFC00001FFFE
310
00001FFFFF80007FE0000000000007FE0000000000003FF8000001FFFE000000
310
7FFFFFF0001FFFFFFFF0000000000007FFFFF0000000000007FFFF0000000000
310
03F800001F800003F000E00001FFF00001FFFFC00001FFFE00000FFFFF80007F
310
E00001FFE00003FE00001FFF00003FF8000001FFFE0000007FFFFFF0001FFFFF
310
FFE000003E000003FFFFE000003E000003FFFF000000000003F00001FFF80001
310
F000E00007FFFC0001FFFFC00001FFFE00000FFFFF80007FC0000FFFFC0003FC
310
0000FFFFC0001FF8000001FFFE0000007FFFFFF0001FFFFFFFC00003FFE00001
310
FFFFC00003FFE00001FFFF0001FFFFFFFFF00007FFFE0001F000E0000FFFFF00
310
00FFFF800001FFFC00000FFFFF80007FC0001FFFFE0001FC0001FFFFE0001FF8
310
000001FFFE0000007FFFFFF0001FFFFFFF80000FFFF80000FFFF80000FFFF800
310
00FFFF0003FFFFFFFFE0000FFFFF8000F000C0003FFFFF8000FFFF800000FFFC
310
000007FFFF80007F80003FFFFF0001FC0003FFFFF0001FF8000001FFFE000000
310
7FFFFFF0001FFFFFFF80003FFFFE0000FFFF80003FFFFE0000FFFF0003FFFFFF
310
FFE0003FFFFF8000F000C0003FFFFF8000FFFF800000FFFC000007FFFF80007F
310
80007FFFFF8001F80007FFFFF8000FF8000001FFFE0000007FFFFFF0001FFFFF
310
FF00007FFFFF00007FFF00007FFFFF00007FFF0003FFFFFFFFE0003FFFFFC000
310
F000C0007FFFFFC000FFFF000000FFFC000007FFFF80007F8000FFFFFF8000F8
310
000FFFFFF8000FF8000001FFFE0000007FFFFFF0001FFFFFFF0000FFFFFF8000
310
7FFF0000FFFFFF80007FFF0003FFFFFFFFC0007FFFFFC00070008000FFFFFFC0
310
00FFFF000000FFF8000007FFFF80007F8000FFFFFF8000F8000FFFFFF8000FF8
310
000001FFFE0000007FFFFFF0001FFFFFFE0001FFFFFFC0003FFE0001FFFFFFC0
310
003FFF0003FFFFFFFFC0007FFFFFE00070008000FFFFFFC0007FFF0000007FF8
310
000003FFFF80007F0001FFFFFF8000F8000FFFFFF8000FF8000001FFFE000000
310
7FFFFFF0001FFFFFFE0001FFFFFFC0003FFE0001FFFFFFC0003FFF0003FFFFFF
310
FFC000FFFFFFE00070008000FFFFFFC0007FFF0000007FF8000003FFFF80007F
310
0001FFFFFF8000F8001FFFFFF8000FF8000001FFFE0000007FFFFFF0001FFFFF
310
FE0003FFFFFFE0003FFE0003FFFFFFE0003FFF0003FFFFFFFFC000FFFFFFE000
310
70008000FFFFFFC0007FFE0000007FF8000003FFFF80007F0001FFFFFF8000F0
310
001FFFFFF8000FF8000001FFFE0000007FFFFFF0001FFFFFFC0003FFFFFFE000
310
1FFC0003FFFFFFE0001FFF0003FFFFFFFFC000FFFFFFC00070008000FFFFFF80
310
007FFE0000007FF0000003FFFF80007F0001FFFFFF0000F0001FFFFFF8000FF8
310
000001FFFE0000007FFFFFF0001FFFFFFC0007FFFFFFF0001FFC0007FFFFFFF0
310
001FFF0003FFFFFFFFC000FFFFFFC00070008001FFFFFF0000FFFE0000003FF0
310
000001FFFF80007F0001FFFFFF0000F8001FFFFFF0000FF8000001FFFE000000
310
7FFFFFF0001FFFFFFC0007FFFFFFF0001FFC0007FFFFFFF0001FFF0003FFFFFF
310
FFC001FFFFFF80007000FFFFFFFFFE0000FFFE0008003FF0008001FFFF80007F
310
FFFFFFFFFC0000FFFFFFFFFFE0000FF8000001FFFE0000007FFFFFF0001FFFFF
310
F8000FFFFFFFF8000FF8000FFFFFFFF8000FFF0003FFFFFFFFFFFFFFFFFF0000
310
7000FFFFFFFFFC0000FFFC0008003FF0008001FFFF80007FFFFFFFFFF80001FF
310
FFFFFFFF80000FF8000001FFFE0000007FFFFFF0001FFFFFF8000FFFFFFFF800
310
0FF8000FFFFFFFF8000FFF0003FFFFFFFFFFFFFFFFFE0000F000FFFFFFFFE000
310
00FFFC000C003FE000C001FFFF80007FFFFFFFFFC00001FFFFFFFFFE00001FF8
310
000001FFFE0000007FFFFFF0001FFFFFF8000FFFFFFFF8000FF8000FFFFFFFF8
310
000FFF0003FFFFFFFFFFFFFFFFF00000F000FFFFFFFE000001FFFC000C001FE0
310
00C000FFFF80007FFFFFFFFE000001FFFFFFFFE000001FF80FFFFFFFFFFFFFC0
310
7FFFFFF0001FFFFFF8000FFFFFFFF8000FF8000FFFFFFFF8000FFF0003FFFFFF
310
FFFFFFFFFF800000F000FFFFFFC0000001FFFC001C001FE001C000FFFF80007F
310
FFFFFF80000003FFFFFFF80000001FF80FFFFFFFFFFFFFC07FFFFFF0001FFFFF
310
F8001FFFFFFFFC000FF8001FFFFFFFFC000FFF0003FFFFFFFFFFFFFFF0000001
310
F000FFFFF800000001FFF8001C001FE001C000FFFF80007FFFFFF800000003FF
310
FFFF800000003FF80FFFFFFFFFFFFFC07FFFFFF0001FFFFFF8001FFFFFFFFC00
310
0FF8001FFFFFFFFC000FFF0003FFFFFFFFFFFFFE00000001F000FFFFC0000000
310
03FFF8001E001FC001E000FFFF80007FFFFF8000000007FFFFFC000000003FF8
310
0FFFFFFFFFFFFFC07FFFFFF0001FFFFFF8001FFFFFFFFC000FF8001FFFFFFFFC
310
000FFF0003FFFFFFFFFFFFE000000003F000FFFE0000000007FFF8001E000FC0
310
01E0007FFF80007FFFFE0000000007FFFFE0000000007FF80FFFFFFFFFFFFFC0
310
7FFFFFF0001FFFFFF0001FFFFFFFFC0007F0001FFFFFFFFC0007FF0003FFFFFF
310
FFFFFF0000000003F000FFF80000000007FFF8001E000FC003E0007FFF80007F
310
FFF0000000000FFFFF8000000000FFF80FFFFFFFFFFFFFC07FFFFFF0001FFFFF
310
F0001FFFFFFFFC0007F0001FFFFFFFFC0007FF0003FFFFFFFFFFFC0000000007
310
F000FFE0000000000FFFF0003E000FC003E0007FFF80007FFFC0000000001FFF
310
FE0000000001FFF80FFFFFFFFFFFFFC07FFFFFF0001FFFFFF0001FFFFFFFFC00
310
07F0001FFFFFFFFC0007FF0003FFFFFFFFFFF0000000000FF000FFC000000000
310
1FFFF0003F000F8003F0003FFF80007FFF80000000003FFFF80000000003FFF8
310
0FFFFFFFFFFFFFC07FFFFFF0001FFFFFF0001FFFFFFFFC0007F0001FFFFFFFFC
310
0007FF0003FFFFFFFFFFE0000000001FF000FF00000000007FFFF0003F000780
310
03F0003FFF80007FFF00000000007FFFF00000000007FFF80FFFFFFFFFFFFFC0
310
7FFFFFF0001FFFFFF0001FFFFFFFFC0007F0001FFFFFFFFC0007FF0003FFFFFF
310
FFFF80000000007FF000FE0000000000FFFFE0003F00078007F0003FFF80007F
310
FE0000000001FFFFE0000000001FFFF80FFFFFFFFFFFFFC07FFFFFF0001FFFFF
310
F0001FFFFFFFFC0007F0001FFFFFFFFC0007FF0003FFFFFFFFFF0000000000FF
310
F000FC0000000003FFFFE0007F00078007F0003FFF80007FFC0000000007FFFF
310
C0000000007FFFF80FFFFFFFFFFFFFC07FFFFFF0001FFFFFF8001FFFFFFFFC00
310
0FF8001FFFFFFFFC000FFF0003FFFFFFFFFE0000000003FFF000FC000000000F
310
FFFFE0007F80070007F8001FFF80007FF8000000001FFFFF8000000001FFFFF8
310
0FFFFFFFFFFFFFC07FFFFFF0001FFFFFF8001FFFFFFFFC000FF8001FFFFFFFFC
310
000FFF0003FFFFFFFFFC000000000FFFF000F8000000007FFFFFE0007F800700
310
07F8001FFF80007FF000000000FFFFFF800000000FFFFFF80FFFFFFFFFFFFFC0
310
7FFFFFF0001FFFFFF8000FFFFFFFF8000FF8000FFFFFFFF8000FFF0003FFFFFF
310
FFFC000000007FFFF000F800000007FFFFFFC0007F8003000FF8001FFF80007F
310
F000000007FFFFFF000000007FFFFFF80FFFFFFFFFFFFFC07FFFFFF0001FFFFF
310
F8000FFFFFFFF8000FF8000FFFFFFFF8000FFF0003FFFFFFFFF80000000FFFFF
310
F000F0000000FFFFFFFFC000FF8003000FF8001FFF80007FE0000000FFFFFFFF
310
0000000FFFFFFFF8000001FFFE0000007FFFFFF0001FFFFFF8000FFFFFFFF800
310
0FF8000FFFFFFFF8000FFF0003FFFFFFFFF8000000FFFFFFF000F000000FFFFF
310
FFFFC000FFC002000FF8000FFF80007FE000001FFFFFFFFE000001FFFFFFFFF8
310
000001FFFE0000007FFFFFF0001FFFFFF8000FFFFFFFF8000FF8000FFFFFFFF8
310
000FFF0003FFFFFFFFF000001FFFFFFFF000E00000FFFFFFFFFFC000FFC00200
310
0FFC000FFF80007FE00001FFFFFFFFFE00001FFFFFFFFFF8000001FFFE000000
310
7FFFFFF0001FFFFFFC000FFFFFFFF8001FFC000FFFFFFFF8001FFF0003FFFFFF
310
FFF00001FFFFFFFFF000E00007FFFFFFFFFF8000FFC000001FFC000FFF80007F
310
C0000FFFFFFFFFFE0000FFFFFFFFFFF8000001FFFE0000007FFFFFF0001FFFFF
310
FC0007FFFFFFF0001FFC0007FFFFFFF0001FFF0003FFFFFFFFF00007FFFFFFFF
310
F000E0001FFFFFFFFFFF8000FFC000001FFC000FFF80007FC0003FFFFFFFFFFE
310
0001FFFFFFFFFFF8000001FFFE0000007FFFFFF0001FFFFFFC0007FFFFFFF000
310
1FFC0007FFFFFFF0001FFF0003FFFFFFFFF0001FFFFFFFFFF000E0003FFFFF00
310
03FF8001FFE000001FFC0007FF80007FC0007FFFFF0007FC0003FFFFF0003FF8
310
000001FFFE0000007FFFFFF0001FFFFFFC0003FFFFFFE0001FFC0003FFFFFFE0
310
001FFF0003FFFFFFFFF0003FFFFFFFFFF000E0003FFFFF0001FF8001FFE00000
310
1FFE0007FF80007FC0007FFFFE0003FC0007FFFFE0003FF8000001FFFE000000
310
7FFFFFF0001FFFFFFE0003FFFFFFE0003FFE0003FFFFFFE0003FFF0003FFFFFF
310
FFF0003FFFFF8001F000E0003FFFFF0001FF0001FFE000001FFE0007FF80007F
310
C0007FFFFE0003FC0007FFFFE0003FF8000001FFFE0000007FFFFFF0001FFFFF
310
FE0001FFFFFFC0003FFE0001FFFFFFC0003FFF0003FFFFFFFFF0003FFFFF0001
310
F000E0003FFFFF0003FF0001FFE000003FFE0007FF80007FC0007FFFFE0003FC
310
0007FFFFE0003FF8000001FFFE0000007FFFFFF0001FFFFFFF0001FFFFFFC000
310
7FFF0001FFFFFFC0007FFF0003FFFFFFFFF0003FFFFF0001F000E0003FFFFE00
310
03FF0003FFF000003FFE0003FF80007FC0007FFFFC0003FE0007FFFFE0003FF8
310
000001FFFE0000007FFFFFF0001FFFFFFF0000FFFFFF80007FFF0000FFFFFF80
310
007FFF0003FFFFFFFFF0003FFFFF0001F000E0003FFFFE0003FF0003FFF00000
310
3FFF0003FF80007FC0007FFFFC0007FE0007FFFFC0003FF8000001FFFE000000
310
7FFFFFF0001FFFFFFF80007FFFFF0000FFFF80007FFFFF0000FFFF0003FFFFFF
310
FFF0003FFFFF0003F000E0003FFFFC0003FE0003FFF000003FFF0003FF80007F
310
E0003FFFF80007FE0003FFFFC0007FF8000001FFFE0000007FFFFFF0001FFFFF
310
FF80003FFFFE0000FFFF80003FFFFE0000FFFF0003FFFFFFFFF0001FFFFE0003
310
F000F0001FFFF80003FE0003FFF000007FFF0001FF80007FE0003FFFF00007FE
310
0001FFFF80007FF8000001FFFE0000007FFFFFF0001FFFFFFFC0000FFFF80001
310
FFFFC0000FFFF80001FFFF0003FFFFFFFFF0001FFFFC0003F000F0000FFFF000
310
07FE0007FFF800007FFF0001FF80007FE0001FFFE00007FF0000FFFE00007FF8
310
000001FFFE0000007FFFFFF0001FFFFFFFC00003FFE00001FFFFC00003FFE000
310
01FFFF0003FFFFFFFFF8000FFFF80003F000F00003FFC00007FC0007FFF80000
310
7FFF8001FF80007FF00007FF80000FFF00007FF80000FFF8000001FFFE000000
310
7F80000000000001FFE000003E000003FFFFE000003E000003FFFF0003FFFFFF
310
FFF80003FFE00007F000F800000000000FFC0007FFF800007FFF8001FF80007F
310
F000000000000FFF000000000000FFF8000001FFFE0000007F80000000000001
310
FFF0000000000007FFFFF0000000000007FFFF0003FFFFFFFFFC00007E000007
310
F000F800000000000FFC0007FFF80000FFFF8000FF80007FF800000000001FFF
310
800000000001FFF8000001FFFE0000007F80000000000001FFF800000000000F
310
FFFFF800000000000FFFFF0003FFFFFFFFFC00000000000FF000FC0000000000
310
1FFC0007FFFC0000FFFF8000FF80007FF800000000003FFFC00000000001FFF8
310
000001FFFE0000007F80000000000001FFF800000000000FFFFFF80000000000
310
0FFFFF0003FFFFFFFFFE00000000001FF000FE00000000003FF8000FFFFC0000
310
FFFF8000FF80007FFC00000000003FFFC00000000003FFF8000001FFFE000000
310
7F80000000000001FFFC00000000001FFFFFFC00000000001FFFFF0003FFFFFF
310
FFFF00000000001FF000FF00000000003FF8000FFFFC0000FFFFC000FF80007F
310
FE00000000007FFFE00000000007FFF8000001FFFE0000007F80000000000001
310
FFFE00000000003FFFFFFE00000000003FFFFF0003FFFFFFFFFF80000000003F
310
F000FF80000000007FF8000FFFFC0001FFFFC0007F80007FFF0000000000FFFF
310
F0000000000FFFF800000000000000007F80000000000001FFFF8000000000FF
310
FFFFFF8000000000FFFFFF0003FFFFFFFFFFC0000000007FF000FFC000000000
310
FFF8000FFFFE0001FFFFC0007F80007FFF8000000001FFFFF8000000001FFFF8
310
00000000000000007F80000000000001FFFFC000000001FFFFFFFFC000000001
310
FFFFFF0003FFFFFFFFFFE000000000FFF000FFE000000003FFF0001FFFFE0001
310
FFFFC0007F80007FFFC000000007FFFFFE000000003FFFF80000000000000000
310
7F80000000000001FFFFE000000003FFFFFFFFE000000003FFFFFF0003FFFFFF
310
FFFFF000000003FFF000FFF80000000FFFF0001FFFFE0001FFFFE0007F80007F
310
FFF00000000FFFFFFF00000000FFFFF800000000000000007F80000000000001
310
FFFFF80000000FFFFFFFFFF80000000FFFFFFF0003FFFFFFFFFFFC0000000FFF
310
F000FFFE0000003FFFF0001FFFFE0003FFFFE0003F80007FFFFC0000003FFFFF
310
FFC0000003FFFFF800000000000000007F80000000000001FFFFFE0000003FFF
310
FFFFFFFE0000003FFFFFFF0003FFFFFFFFFFFF0000003FFFF000FFFF800000FF
310
FFF0001FFFFF0003FFFFE0003F80007FFFFF000001FFFFFFFFF800001FFFFFF8
310
00000000000000007F80000000000001FFFFFFC00001FFFFFFFFFFFFC00001FF
310
FFFFFF0003FFFFFFFFFFFFC00000FFFFF000FFFFF8000FFFFFFFFFFFFFFFFFFF
310
FFFFFFFFFFFFFFFFFFFFF0001FFFFFFFFFFF0000FFFFFFF80000000000000000
310
7FFFFFFFFFFFFFFFFFFFFFFC001FFFFFFFFFFFFFFC001FFFFFFFFFFFFFFFFFFF
310
FFFFFFFC001FFFFFF000FFFFFFFFFFFFFFFFFFFFFFFFFFFFFFFFFFFFFFFFFFFF
310
FFFFFFFFFFFFFFFFFFFFFFFFFFFFFFFFFFFFFFFFFFFFFFFFFFFFFFFFFFFFFFFF
310
FFFFFFFFFFFFFFFFFFFFFFFFFFFFFFFFFFFFFFFFFFFFFFFFFFFFFFFFFFFFFFFF
310
F000FFFFFFFFFFFFFFFFFFFFFFFFFFFFFFFFFFFFFFFFFFFFFFFFFFFFFFFFFFFF
310
FFFFFFFFFFFFFFFFFFFFFFFFFFFFFFFFFFFFFFFFFFFFFFFFFFFFFFFFFFFFFFFF
310
FFFFFFFFFFFFFFFFFFFFFFFFFFFFFFFFFFFFFFFFFFFFFFFFF000FFFFFFFFFFFF
310
FFFFFFFFFFFFFFFFFFFFFFFFFFFFFFFFFFFFFFFFFFFFFFFFFFFFFFFFFFFFFFFF
310
FFFFFFFFFFFFFFFFFFFFFFFFFFFFFFFFFFFFFFFFFFFFFFFFFFFFFFFFFFFFFFFF
310
FFFFFFFFFFFFFFFFFFFFFFFFFFFFFFFFF000FFFFFFFFFFFFFFFFFFFFFFFFFFFF
310
FFFFFFFFFFFFFFFFFFFFFFFFFFFFFFFFFFFFFFFFFFFFFFFFFFFFFFFFFFFFFFFF
310
FFFFFFFFFFFFFFFFFFFFFFFFFFFFFFFFFFFFFFFFFFFFFFFFFFFFFFFFFFFFFFFF
310
FFFFFFFFFFFFFFFFF000FFFFFFFFFFFFFFFFFFFFFFFFFFFFFFFFFFFFFFFFFFFF
310
FFFFFFFFFFFFFFFFFFFFFFFFFFFFFFFFFFFFFFFFFFFFFFFFFFFFFFFFFFFFFFFF
310
FFFFFFFFFFFFFFFFFFFFFFFFFFFFFFFFFFFFFFFFFFFFFFFFFFFFFFFFFFFFFFFF
310
F000FFFFFFFFFFFFFFFFFFFFFFFFFFFFFFFFFFFFFFFFFFFFFFFFFFFFFFFFFFFF
310
FFFFFFFFFFFFFFFFFFFFFFFFFFFFFFFFFFFFFFFFFFFFFFFFFFFFFFFFFFFFFFFF
310
FFFFFFFFFFFFFFFFFFFFFFFFFFFFFFFFFFFFFFFFFFFFFFFFF000FFFFFFFFFFFF
310
FFFFFFFFFFFFFFFFFFFFFFFFFFFFFFFFFFFFFFFFFFFFFFFFFFFFFFFFFFFFFFFF
310
FFFFFFFFFFFFFFFFFFFFFFFFFFFFFFFFFFFFFFFFFFFFFFFFFFFFFFFFFFFFFFFF
310
FFFFFFFFFFFFFFFFFFFFFFFFFFFFFFFFF000FFFFFFFFFFFFFFFFFFFFFFFFFFFF
310
FFFFFFFFFFFFFFFFFFFFFFFFFFFFFFFFFFFFFFFFFFFFFFFFFFFFFFFFFFFFFFFF
310
FFFFFFFFFFFFFFFFFFFFFFFFFFFFFFFFFFFFFFFFFFFFFFFFFFFFFFFFFFFFFFFF
310
FFFFFFFFFFFFFFFFF000FFFFFFFFFFFFFFFFFFFFFFFFFFFFFFFFFFFFFFFFFFFF
310
FFFFFFFFFFFFFFFFFFFFFFFFFFFFFFFFFFFFFFFFFFFFFFFFFFFFFFFFFFFFFFFF
310
FFFFFFFFFFFFFFFFFFFFFFFFFFFFFFFFFFFFFFFFFFFFFFFFFFFFFFFFFFFFFFFF
310
F000FFFFFFFFFFFFFFFFFFFFFFFFFFFFFFFFFFFFFFFFFFFFFFFFFFFFFFFFFFFF
310
FFFFFFFFFFFFFFFFFFFFFFFFFFFFFFFFFFFFFFFFFFFFFFFFFFFFFFFFFFFFFFFF
310
FFFFFFFFFFFFFFFFFFFFFFFFFFFFFFFFFFFFFFFFFFFFFFFFF000FFFFFFFFFFFF
310
FFFFFFFFFFFFFFFFFFFFFFFFFFFFFFFFFFFFFFFFFFFFFFFFFFFFFFFFFFFFFFFF
310
FFFFFFFFFFFFFFFFFFFFFFFFFFFFFFFFFFFFFFFFFFFFFFFFFFFFFFFFFFFFFFFF
310
FFFFFFFFFFFFFFFFFFFFFFFFFFFFFFFFF000FFFFFFFFFFFFFFFFFFFFFFFFFFFF
310
FFFFFFFFFFFFFFFFFFFFFFFFFFFFFFFFFFFFFFFFFFFFFFFFFFFFFFFFFFFFFFFF
310
FFFFFFFFFFFFFFFFFFFFFFFFFFFFFFFFFFFFFFFFFFFFFFFFFFFFFFFFFFFFFFFF
310
FFFFFFFFFFFFFFFFF000FFFFFFFFFFFFFFFFFFFFFFFFFFFFFFFFFFFFFFFFFFFF
310
FFFFFFFFFFFFFFFFFFFFFFFFFFFFFFFFFFFFFFFFFFFFFFFFFFFFFFFFFFFFFFFF
310
FFFFFFFFFFFFFFFFFFFFFFFFFFFFFFFFFFFFFFFFFFFFFFFFFFFFFFFFFFFFFFFF
310
F000FFFFFFFFFFFFFFFFFFFFFFFFFFFFFFFFFFFFFFFFFFFFFFFFFFFFFFFFFFFF
310
FFFFFFFFFFFFFFFFFFFFFFFFFFFFFFFFFFFFFFFFFFFFFFFFFFFFFFFFFFFFFFFF
310
FFFFFFFFFFFFFFFFFFFFFFFFFFFFFFFFFFFFFFFFFFFFFFFFF000FFFFFFFFFFFF
310
FFFFFFFFFFFFFFFFFFFFFFFFFFFFFFFFFFFFFFFFFFFFFFFFFFFFFFFFFFFFFFFF
310
FFFFFFFFFFFFFFFFFFFFFFFFFFFFFFFFFFFFFFFFFFFFFFFFFFFFFFFFFFFFFFFF
310
FFFFFFFFFFFFFFFFFFFFFFFFFFFFFFFFF000FFFFFFFFFFFFFFFFFFFFFFFFFFFF
310
FFFFFFFFFFFFFFFFFFFFFFFFFFFFFFFFFFFFFFFFFFFFFFFFFFFFFFFFFFFFFFFF
310
FFFFFFFFFFFFFFFFFFFFFFFFFFFFFFFFFFFFFFFFFFFFFFFFFFFFFFFFFFFFFFFF
310
FFFFFFFFFFFFFFFFF000FFFFFFFFFFFFFFFFFFFFFFFFFFFFFFFFFFFFFFFFFFFF
310
FFFFFFFFFFFFFFFFFFFFFFFFFFFFFFFFFFFFFFFFFFFFFFFFFFFFFFFFFFFFFFFF
310
FFFFFFFFFFFFFFFFFFFFFFFFFFFFFFFFFFFFFFFFFFFFFFFFFFFFFFFFFFFFFFFF
310
F000FFFFFFFFFFFFFFFFFFFFFFFFFFFFFFFFFFFFFFFFFFFFFFFFFFFFFFFFFFFF
310
FFFFFFFFFFFFFFFFFFFFFFFFFFFFFFFFFFFFFFFFFFFFFFFFFFFFFFFFFFFFFFFF
310
FFFFFFFFFFFFFFFFFFFFFFFFFFFFFFFFFFFFFFFFFFFFFFFFF000FFFFFFFFFFFF
310
FFFFFFFFFFFFFFFFFFFFFFFFFFFFFFFFFFFFFFFFFFFFFFFFFFFFFFFFFFFFFFFF
310
FFFFFFFFFFFFFFFFFFFFFFFFFFFFFFFFFFFFFFFFFFFFFFFFFFFFFFFFFFFFFFFF
310
FFFFFFFFFFFFFFFFFFFFFFFFFFFFFFFFF000FFFFFFFFFFFFFFFFFFFFFFFFFFFF
310
FFFFFFFFFFFFFFFFFFFFFFFFFFFFFFFFFFFFFFFFFFFFFFFFFFFFFFFFFFFFFFFF
310
FFFFFFFFFFFFFFFFFFFFFFFFFFFFFFFFFFFFFFFFFFFFFFFFFFFFFFFFFFFFFFFF
310
FFFFFFFFFFFFFFFFF000FFFFFFFFFFFFFFFFFFFFFFFFFFFFFFFFFFFFFFFFFFFF
310
FFFFFFFFFFFFFFFFFFFFFFFFFFFFFFFFFFFFFFFFFFFFFFFFFFFFFFFFFFFFFFFF
310
FFFFFFFFFFFFFFFFFFFFFFFFFFFFFFFFFFFFFFFFFFFFFFFFFFFFFFFFFFFFFFFF
310
F000FFFFFFFFFFFFFFFFFFFFFFFFFFFFFFFFFFFFFFFFFFFFFFFFFFFFFFFFFFFF
310
FFFFFFFFFFFFFFFFFFFFFFFFFFFFFFFFFFFFFFFFFFFFFFFFFFFFFFFFFFFFFFFF
310
FFFFFFFFFFFFFFFFFFFFFFFFFFFFFFFFFFFFFFFFFFFFFFFFF000FFFFFFFFFFFF
310
FFFFFFFFFFFFFFFFFFFFFFFFFFFFFFFFFFFFFFFFFFFFFFFFFFFFFFFFFFFFFFFF
310
FFFFFFFFFFFFFFFFFFFFFFFFFFFFFFFFFFFFFFFFFFFFFFFFFFFFFFFFFFFFFFFF
310
FFFFFFFFFFFFFFFFFFFFFFFFFFFFFFFFF0000000000000000000000000000000
310
0000000000000000000000000000000000000000000000000000000000000000
310
0000000000000000000000000000000000000000000000000000000000000000
310
0000000000000000000000000000000000000000000000000000000000000000
310
0000000000000000000000000000000000000000000000000000000000000000
310
0000000000000000000000000000000000000000000000000000000000000000
310
0000000000000000000000000000000000000000000000000000000000000000
310
0000000000000000000000000000000000000000000000000000000000000000
310
0000000000000000000000000000000000000000000000000000000000000000
310
0000000000000000000000000000000000000000000000000000000000000000
310
0000000000000000000000000000000000000000000000000000000000000000
310
0000000000000000000000000000000000000000000000000000000000000000
310
0000000000000000000000000000000000000000000000000000000000000000
310
0000000000000000000000000000000000000000000000000000000000000000
310
0000000000000000000000000000000000000000000000000000000000000000
310
0000000000000000000000000000000000000000000000000000000000000000
  1
OLE
  0
ENDSEC
  0
SECTION
  2
OBJECTS
  0
DICTIONARY
  5
C
330
0
100
AcDbDictionary
281
     1
  3
ACAD_GROUP
350
D
  3
ACAD_LAYOUT
350
1A
  3
ACAD_MLINESTYLE
350
17
  3
ACAD_PLOTSETTINGS
350
19
  3
ACAD_PLOTSTYLENAME
350
E
  0
DICTIONARY
  5
D
102
{ACAD_REACTORS
330
C
102
}
330
C
100
AcDbDictionary
281
     1
  0
DICTIONARY
  5
1A
102
{ACAD_REACTORS
330
C
102
}
330
C
100
AcDbDictionary
281
     1
  3
Layout1
350
1E
  3
Layout2
350
26
  3
Model
350
22
  0
DICTIONARY
  5
17
102
{ACAD_REACTORS
330
C
102
}
330
C
100
AcDbDictionary
281
     1
  3
Standard
350
18
  0
DICTIONARY
  5
19
102
{ACAD_REACTORS
330
C
102
}
330
C
100
AcDbDictionary
281
     1
  0
ACDBDICTIONARYWDFLT
  5
E
102
{ACAD_REACTORS
330
C
102
}
330
C
100
AcDbDictionary
281
     1
  3
Normal
350
F
100
AcDbDictionaryWithDefault
340
F
  0
LAYOUT
  5
1E
102
{ACAD_REACTORS
330
1A
102
}
330
1A
100
AcDbPlotSettings
  1

  2
none_device
  4

  6

 40
0.0
 41
0.0
 42
0.0
 43
0.0
 44
0.0
 45
0.0
 46
0.0
 47
0.0
 48
0.0
 49
0.0
140
0.0
141
0.0
142
1.0
143
1.0
 70
   688
 72
     0
 73
     0
 74
     5
  7

 75
    16
147
1.0
148
0.0
149
0.0
100
AcDbLayout
  1
Layout1
 70
     1
 71
     1
 10
0.0
 20
0.0
 11
420.0
 21
297.0
 12
0.0
 22
0.0
 32
0.0
 14
1.0000000000E+20
 24
1.0000000000E+20
 34
1.0000000000E+20
 15
-1.0000000000E+20
 25
-1.0000000000E+20
 35
-1.0000000000E+20
146
0.0
 13
0.0
 23
0.0
 33
0.0
 16
1.0
 26
0.0
 36
0.0
 17
0.0
 27
1.0
 37
0.0
 76
     0
330
1B
  0
LAYOUT
  5
26
102
{ACAD_REACTORS
330
1A
102
}
330
1A
100
AcDbPlotSettings
  1

  2
none_device
  4

  6

 40
0.0
 41
0.0
 42
0.0
 43
0.0
 44
0.0
 45
0.0
 46
0.0
 47
0.0
 48
0.0
 49
0.0
140
0.0
141
0.0
142
1.0
143
1.0
 70
   688
 72
     0
 73
     0
 74
     5
  7

 75
    16
147
1.0
148
0.0
149
0.0
100
AcDbLayout
  1
Layout2
 70
     1
 71
     2
 10
0.0
 20
0.0
 11
0.0
 21
0.0
 12
0.0
 22
0.0
 32
0.0
 14
0.0
 24
0.0
 34
0.0
 15
0.0
 25
0.0
 35
0.0
146
0.0
 13
0.0
 23
0.0
 33
0.0
 16
1.0
 26
0.0
 36
0.0
 17
0.0
 27
1.0
 37
0.0
 76
     0
330
23
  0
LAYOUT
  5
22
102
{ACAD_REACTORS
330
1A
102
}
330
1A
100
AcDbPlotSettings
  1

  2
none_device
  4

  6

 40
0.0
 41
0.0
 42
0.0
 43
0.0
 44
0.0
 45
0.0
 46
0.0
 47
0.0
 48
0.0
 49
0.0
140
0.0
141
0.0
142
1.0
143
1.0
 70
  1712
 72
     0
 73
     0
 74
     0
  7

 75
     0
147
1.0
148
0.0
149
0.0
100
AcDbLayout
  1
Model
 70
     1
 71
     0
 10
0.0
 20
0.0
 11
297.0
 21
210.0
 12
0.0
 22
0.0
 32
0.0
 14
0.0
 24
0.0
 34
0.0
 15
297.0
 25
210.0
 35
0.0
146
0.0
 13
0.0
 23
0.0
 33
0.0
 16
1.0
 26
0.0
 36
0.0
 17
0.0
 27
1.0
 37
0.0
 76
     0
330
1F
331
29
  0
MLINESTYLE
  5
18
102
{ACAD_REACTORS
330
17
102
}
330
17
100
AcDbMlineStyle
  2
Standard
 70
     0
  3

 62
   256
 51
90.0
 52
90.0
 71
     2
 49
0.5
 62
   256
  6
BYLAYER
 49
-0.5
 62
   256
  6
BYLAYER
  0
ACDBPLACEHOLDER
  5
F
102
{ACAD_REACTORS
330
E
102
}
330
E
  0
ENDSEC
  0
EOF
