  0
SECTION
  2
HEADER
  9
$ACADVER
  1
AC1015
  9
$ACADMAINTVER
 70
     6
  9
$DWGCODEPAGE
  3
ANSI_1252
  9
$INSBASE
 10
0.0
 20
0.0
 30
0.0
  9
$EXTMIN
 10
0.0
 20
0.0
 30
0.0
  9
$EXTMAX
 10
297.0
 20
210.0
 30
0.0
  9
$LIMMIN
 10
0.0
 20
0.0
  9
$LIMMAX
 10
297.0
 20
210.0
  9
$ORTHOMODE
 70
     0
  9
$REGENMODE
 70
     1
  9
$FILLMODE
 70
     1
  9
$QTEXTMODE
 70
     0
  9
$MIRRTEXT
 70
     1
  9
$LTSCALE
 40
1.0
  9
$ATTMODE
 70
     1
  9
$TEXTSIZE
 40
2.0
  9
$TRACEWID
 40
1.0
  9
$TEXTSTYLE
  7
Standard
  9
$CLAYER
  8
0
  9
$CELTYPE
  6
ByLayer
  9
$CECOLOR
 62
   256
  9
$CELTSCALE
 40
1.0
  9
$DISPSILH
 70
     0
  9
$DIMSCALE
 40
1.0
  9
$DIMASZ
 40
3.0
  9
$DIMEXO
 40
0.0
  9
$DIMDLI
 40
3.75
  9
$DIMRND
 40
0.0
  9
$DIMDLE
 40
0.0
  9
$DIMEXE
 40
1.0
  9
$DIMTP
 40
0.0
  9
$DIMTM
 40
0.0
  9
$DIMTXT
 40
2.0
  9
$DIMCEN
 40
2.5
  9
$DIMTSZ
 40
0.0
  9
$DIMTOL
 70
     0
  9
$DIMLIM
 70
     0
  9
$DIMTIH
 70
     1
  9
$DIMTOH
 70
     1
  9
$DIMSE1
 70
     0
  9
$DIMSE2
 70
     0
  9
$DIMTAD
 70
     1
  9
$DIMZIN
 70
     0
  9
$DIMBLK
  1

  9
$DIMASO
 70
     1
  9
$DIMSHO
 70
     1
  9
$DIMPOST
  1

  9
$DIMAPOST
  1

  9
$DIMALT
 70
     0
  9
$DIMALTD
 70
     3
  9
$DIMALTF
 40
0.0393700787
  9
$DIMLFAC
 40
1.0
  9
$DIMTOFL
 70
     1
  9
$DIMTVP
 40
0.0
  9
$DIMTIX
 70
     0
  9
$DIMSOXD
 70
     0
  9
$DIMSAH
 70
     0
  9
$DIMBLK1
  1

  9
$DIMBLK2
  1

  9
$DIMSTYLE
  2
ISO-25
  9
$DIMCLRD
 70
     0
  9
$DIMCLRE
 70
     0
  9
$DIMCLRT
 70
     0
  9
$DIMTFAC
 40
1.0
  9
$DIMGAP
 40
1.524
  9
$DIMJUST
 70
     0
  9
$DIMSD1
 70
     0
  9
$DIMSD2
 70
     0
  9
$DIMTOLJ
 70
     0
  9
$DIMTZIN
 70
     0
  9
$DIMALTZ
 70
     0
  9
$DIMALTTZ
 70
     0
  9
$DIMUPT
 70
     0
  9
$DIMDEC
 70
     2
  9
$DIMTDEC
 70
     3
  9
$DIMALTU
 70
     2
  9
$DIMALTTD
 70
     3
  9
$DIMTXSTY
  7
Standard
  9
$DIMAUNIT
 70
     0
  9
$DIMADEC
 70
     2
  9
$DIMALTRND
 40
0.0
  9
$DIMAZIN
 70
     0
  9
$DIMDSEP
 70
    44
  9
$DIMATFIT
 70
     3
  9
$DIMFRAC
 70
     0
  9
$DIMLDRBLK
  1

  9
$DIMLUNIT
 70
     2
  9
$DIMLWD
 70
    -2
  9
$DIMLWE
 70
    -2
  9
$DIMTMOVE
 70
     0
  9
$LUNITS
 70
     2
  9
$LUPREC
 70
     2
  9
$SKETCHINC
 40
1.0
  9
$FILLETRAD
 40
10.0
  9
$AUNITS
 70
     0
  9
$AUPREC
 70
     2
  9
$MENU
  1
.
  9
$ELEVATION
 40
0.0
  9
$PELEVATION
 40
0.0
  9
$THICKNESS
 40
0.0
  9
$LIMCHECK
 70
     0
  9
$CHAMFERA
 40
10.0
  9
$CHAMFERB
 40
10.0
  9
$CHAMFERC
 40
20.0
  9
$CHAMFERD
 40
0.0
  9
$SKPOLY
 70
     0
  9
$TDCREATE
 40
2456036.40352963
  9
$TDUCREATE
 40
2456036.320196296
  9
$TDUPDATE
 40
2456036.403531609
  9
$TDUUPDATE
 40
2456036.320198276
  9
$TDINDWG
 40
0.0000000116
  9
$TDUSRTIMER
 40
0.0000000116
  9
$USRTIMER
 70
     1
  9
$ANGBASE
 50
0.0
  9
$ANGDIR
 70
     0
  9
$PDMODE
 70
     0
  9
$PDSIZE
 40
-1.0
  9
$PLINEWID
 40
0.0
  9
$SPLFRAME
 70
     0
  9
$SPLINETYPE
 70
     6
  9
$SPLINESEGS
 70
     8
  9
$HANDSEED
  5
33C
  9
$SURFTAB1
 70
     6
  9
$SURFTAB2
 70
     6
  9
$SURFTYPE
 70
     6
  9
$SURFU
 70
     6
  9
$SURFV
 70
     6
  9
$UCSBASE
  2

  9
$UCSNAME
  2

  9
$UCSORG
 10
0.0
 20
0.0
 30
0.0
  9
$UCSXDIR
 10
1.0
 20
0.0
 30
0.0
  9
$UCSYDIR
 10
0.0
 20
1.0
 30
0.0
  9
$UCSORTHOREF
  2

  9
$UCSORTHOVIEW
 70
     0
  9
$UCSORGTOP
 10
0.0
 20
0.0
 30
0.0
  9
$UCSORGBOTTOM
 10
0.0
 20
0.0
 30
0.0
  9
$UCSORGLEFT
 10
0.0
 20
0.0
 30
0.0
  9
$UCSORGRIGHT
 10
0.0
 20
0.0
 30
0.0
  9
$UCSORGFRONT
 10
0.0
 20
0.0
 30
0.0
  9
$UCSORGBACK
 10
0.0
 20
0.0
 30
0.0
  9
$PUCSBASE
  2

  9
$PUCSNAME
  2

  9
$PUCSORG
 10
0.0
 20
0.0
 30
0.0
  9
$PUCSXDIR
 10
1.0
 20
0.0
 30
0.0
  9
$PUCSYDIR
 10
0.0
 20
1.0
 30
0.0
  9
$PUCSORTHOREF
  2

  9
$PUCSORTHOVIEW
 70
     0
  9
$PUCSORGTOP
 10
0.0
 20
0.0
 30
0.0
  9
$PUCSORGBOTTOM
 10
0.0
 20
0.0
 30
0.0
  9
$PUCSORGLEFT
 10
0.0
 20
0.0
 30
0.0
  9
$PUCSORGRIGHT
 10
0.0
 20
0.0
 30
0.0
  9
$PUCSORGFRONT
 10
0.0
 20
0.0
 30
0.0
  9
$PUCSORGBACK
 10
0.0
 20
0.0
 30
0.0
  9
$USERI1
 70
     0
  9
$USERI2
 70
     0
  9
$USERI3
 70
     0
  9
$USERI4
 70
     0
  9
$USERI5
 70
     0
  9
$USERR1
 40
0.0
  9
$USERR2
 40
0.0
  9
$USERR3
 40
0.0
  9
$USERR4
 40
0.0
  9
$USERR5
 40
0.0
  9
$WORLDVIEW
 70
     1
  9
$SHADEDGE
 70
     3
  9
$SHADEDIF
 70
    70
  9
$TILEMODE
 70
     1
  9
$MAXACTVP
 70
    64
  9
$PINSBASE
 10
0.0
 20
0.0
 30
0.0
  9
$PLIMCHECK
 70
     0
  9
$PEXTMIN
 10
1.0000000000E+20
 20
1.0000000000E+20
 30
1.0000000000E+20
  9
$PEXTMAX
 10
-1.0000000000E+20
 20
-1.0000000000E+20
 30
-1.0000000000E+20
  9
$PLIMMIN
 10
0.0
 20
0.0
  9
$PLIMMAX
 10
420.0
 20
297.0
  9
$UNITMODE
 70
     0
  9
$VISRETAIN
 70
     1
  9
$PLINEGEN
 70
     0
  9
$PSLTSCALE
 70
     1
  9
$TREEDEPTH
 70
  3020
  9
$CMLSTYLE
  2
Standard
  9
$CMLJUST
 70
     0
  9
$CMLSCALE
 40
20.0
  9
$PROXYGRAPHICS
 70
     1
  9
$MEASUREMENT
 70
     1
  9
$CELWEIGHT
370
    -1
  9
$ENDCAPS
280
     0
  9
$JOINSTYLE
280
     0
  9
$LWDISPLAY
290
     1
  9
$INSUNITS
 70
     4
  9
$HYPERLINKBASE
  1

  9
$STYLESHEET
  1

  9
$XEDIT
290
     1
  9
$CEPSNTYPE
380
     0
  9
$PSTYLEMODE
290
     1
  9
$FINGERPRINTGUID
  2
{5AE1004B-F791-4E9C-876B-B59973E73F18}
  9
$VERSIONGUID
  2
{FAEB1C32-E019-11D5-929B-00C0DF256EC4}
  9
$EXTNAMES
290
     1
  9
$PSVPSCALE
 40
0.0
  9
$OLESTARTUP
290
     0
  0
ENDSEC
  0
SECTION
  2
CLASSES
  0
CLASS
  1
ACDBDICTIONARYWDFLT
  2
AcDbDictionaryWithDefault
  3
ObjectDBX Classes
 90
        0
280
     0
281
     0
  0
CLASS
  1
VISUALSTYLE
  2
AcDbVisualStyle
  3
ObjectDBX Classes
 90
     4095
280
     0
281
     0
  0
CLASS
  1
MATERIAL
  2
AcDbMaterial
  3
ObjectDBX Classes
 90
     1153
280
     0
281
     0
  0
CLASS
  1
ACDBPLACEHOLDER
  2
AcDbPlaceHolder
  3
ObjectDBX Classes
 90
        0
280
     0
281
     0
  0
CLASS
  1
LAYOUT
  2
AcDbLayout
  3
ObjectDBX Classes
 90
        0
280
     0
281
     0
  0
ENDSEC
  0
SECTION
  2
TABLES
  0
TABLE
  2
VPORT
  5
8
330
0
100
AcDbSymbolTable
 70
     1
  0
VPORT
  5
29
330
8
100
AcDbSymbolTableRecord
100
AcDbViewportTableRecord
  2
*Active
 70
     0
 10
0.0
 20
0.0
 11
1.0
 21
1.0
 12
148.5
 22
105.0
 13
0.0
 23
0.0
 14
10.0
 24
10.0
 15
10.0
 25
10.0
 16
0.0
 26
0.0
 36
1.0
 17
0.0
 27
0.0
 37
0.0
 40
210.0
 41
1.4142857143
 42
50.0
 43
0.0
 44
0.0
 50
0.0
 51
0.0
 71
     0
 72
  2000
 73
     1
 74
     3
 75
     0
 76
     0
 77
     0
 78
     0
281
     0
 65
     1
110
0.0
120
0.0
130
0.0
111
1.0
121
0.0
131
0.0
112
0.0
122
1.0
132
0.0
 79
     0
146
0.0
  0
ENDTAB
  0
TABLE
  2
LTYPE
  5
5
330
0
100
AcDbSymbolTable
 70
     6
  0
LTYPE
  5
14
330
5
100
AcDbSymbolTableRecord
100
AcDbLinetypeTableRecord
  2
ByBlock
 70
     0
  3

 72
    65
 73
     0
 40
0.0
  0
LTYPE
  5
15
330
5
100
AcDbSymbolTableRecord
100
AcDbLinetypeTableRecord
  2
ByLayer
 70
     0
  3

 72
    65
 73
     0
 40
0.0
  0
LTYPE
  5
16
330
5
100
AcDbSymbolTableRecord
100
AcDbLinetypeTableRecord
  2
Continuous
 70
     0
  3
Solid line
 72
    65
 73
     0
 40
0.0
  0
LTYPE
  5
3F
330
5
100
AcDbSymbolTableRecord
100
AcDbLinetypeTableRecord
  2
HIDDEN
 70
     0
  3
Hidden __ __ __ __ __ __ __ __ __ __ __ __ __ __
 72
    65
 73
     2
 40
1.905
 49
1.27
 74
     0
 49
-0.635
 74
     0
  0
LTYPE
  5
40
330
5
100
AcDbSymbolTableRecord
100
AcDbLinetypeTableRecord
  2
PHANTOM
 70
     0
  3
Phantom ______  __  __  ______  __  __  ______
 72
    65
 73
     6
 40
12.7
 49
6.35
 74
     0
 49
-1.27
 74
     0
 49
1.27
 74
     0
 49
-1.27
 74
     0
 49
1.27
 74
     0
 49
-1.27
 74
     0
  0
LTYPE
  5
41
330
5
100
AcDbSymbolTableRecord
100
AcDbLinetypeTableRecord
  2
CENTER
 70
     0
  3
Center ____ _ ____ _ ____ _ ____ _ ____ _ ____
 72
    65
 73
     4
 40
10.16
 49
6.35
 74
     0
 49
-1.27
 74
     0
 49
1.27
 74
     0
 49
-1.27
 74
     0
  0
LTYPE
  5
42
330
5
100
AcDbSymbolTableRecord
100
AcDbLinetypeTableRecord
  2
CENTERX2
 70
     0
  3
Center (2x) ________  __  ________  __  _____
 72
    65
 73
     4
 40
20.32
 49
12.7
 74
     0
 49
-2.54
 74
     0
 49
2.54
 74
     0
 49
-2.54
 74
     0
  0
LTYPE
  5
43
330
5
100
AcDbSymbolTableRecord
100
AcDbLinetypeTableRecord
  2
DOT2
 70
     0
  3
Dot (.5x) ........................................
 72
    65
 73
     2
 40
0.635
 49
0.0
 74
     0
 49
-0.635
 74
     0
  0
ENDTAB
  0
TABLE
  2
LAYER
  5
2
330
0
100
AcDbSymbolTable
 70
     5
  0
LAYER
  5
10
330
2
100
AcDbSymbolTableRecord
100
AcDbLayerTableRecord
  2
0
 70
     0
 62
     7
  6
Continuous
370
    -3
390
F
  0
LAYER
  5
44
330
2
100
AcDbSymbolTableRecord
100
AcDbLayerTableRecord
  2
FORMAT
 70
     0
 62
     7
  6
Continuous
370
    -3
390
F
  0
LAYER
  5
45
330
2
100
AcDbSymbolTableRecord
100
AcDbLayerTableRecord
  2
VERMASSUNG
 70
     0
 62
     7
  6
Continuous
370
    -3
390
F
  0
LAYER
  5
46
330
2
100
AcDbSymbolTableRecord
100
AcDbLayerTableRecord
  2
KOPF_DÜNN
 70
     0
 62
     7
  6
Continuous
370
    -3
390
F
  0
LAYER
  5
47
330
2
100
AcDbSymbolTableRecord
100
AcDbLayerTableRecord
  2
KOPF_DICK
 70
     0
 62
     7
  6
Continuous
370
    15
390
F
  0
ENDTAB
  0
TABLE
  2
STYLE
  5
3
330
0
100
AcDbSymbolTable
 70
     3
  0
STYLE
  5
11
330
3
100
AcDbSymbolTableRecord
100
AcDbTextStyleTableRecord
  2
Standard
 70
     0
 40
0.0
 41
1.0
 50
0.0
 71
     0
 42
2.0
  3
txt
  4

  0
STYLE
  5
48
330
3
100
AcDbSymbolTableRecord
100
AcDbTextStyleTableRecord
  2
SLDTEXTSTYLE0
 70
     0
 40
0.0
 41
0.7
 50
0.0
 71
     0
 42
0.2
  3
TXT
  4

  0
STYLE
  5
4C
330
3
100
AcDbSymbolTableRecord
100
AcDbTextStyleTableRecord
  2
SLDTEXTSTYLE1
 70
     0
 40
0.0
 41
0.6517241379
 50
0.0
 71
     0
 42
0.2
  3
TXT
  4

  0
ENDTAB
  0
TABLE
  2
VIEW
  5
6
330
0
100
AcDbSymbolTable
 70
     0
  0
ENDTAB
  0
TABLE
  2
UCS
  5
7
330
0
100
AcDbSymbolTable
 70
     0
  0
ENDTAB
  0
TABLE
  2
APPID
  5
9
330
0
100
AcDbSymbolTable
 70
     1
  0
APPID
  5
12
330
9
100
AcDbSymbolTableRecord
100
AcDbRegAppTableRecord
  2
ACAD
 70
     0
  0
ENDTAB
  0
TABLE
  2
DIMSTYLE
  5
A
330
0
100
AcDbSymbolTable
 70
     2
100
AcDbDimStyleTable
  0
DIMSTYLE
105
27
330
A
100
AcDbSymbolTableRecord
100
AcDbDimStyleTableRecord
  2
ISO-25
 70
     0
 41
2.5
 42
0.625
 43
3.75
 44
1.25
 73
     0
 74
     0
 77
     1
 78
     8
140
2.5
141
2.5
143
0.0393700787
147
0.625
171
     3
172
     1
178
     0
271
     2
272
     2
274
     3
278
    44
283
     0
284
     8
340
11
  0
DIMSTYLE
105
1D1
102
{ACAD_REACTORS
330
1D0
330
1DD
330
1E8
330
1F3
330
1FD
330
207
330
211
330
21B
330
225
330
22F
102
}
330
A
100
AcDbSymbolTableRecord
100
AcDbDimStyleTableRecord
  2
SLDDIMSTYLE0
 70
     0
 41
3.0
 44
0.0
 45
0.000000001
 73
     0
 74
     0
 77
     1
 78
    12
 79
     3
140
2.0
147
0.5
173
     1
178
     0
271
     2
272
     3
276
     2
284
    12
340
48
  0
ENDTAB
  0
TABLE
  2
BLOCK_RECORD
  5
1
330
0
100
AcDbSymbolTable
 70
    12
  0
BLOCK_RECORD
  5
1F
330
1
100
AcDbSymbolTableRecord
100
AcDbBlockTableRecord
  2
*Model_Space
340
22
  0
BLOCK_RECORD
  5
1B
330
1
100
AcDbSymbolTableRecord
100
AcDbBlockTableRecord
  2
*Paper_Space
340
1E
  0
BLOCK_RECORD
  5
23
330
1
100
AcDbSymbolTableRecord
100
AcDbBlockTableRecord
  2
*Paper_Space0
340
26
  0
BLOCK_RECORD
  5
1D2
330
1
100
AcDbSymbolTableRecord
100
AcDbBlockTableRecord
  2
_D
340
0
  0
BLOCK_RECORD
  5
1DE
330
1
100
AcDbSymbolTableRecord
100
AcDbBlockTableRecord
  2
_D_1
340
0
  0
BLOCK_RECORD
  5
1E9
330
1
100
AcDbSymbolTableRecord
100
AcDbBlockTableRecord
  2
_D_2
340
0
  0
BLOCK_RECORD
  5
1F4
330
1
100
AcDbSymbolTableRecord
100
AcDbBlockTableRecord
  2
_D_3
340
0
  0
BLOCK_RECORD
  5
1FE
330
1
100
AcDbSymbolTableRecord
100
AcDbBlockTableRecord
  2
_D_4
340
0
  0
BLOCK_RECORD
  5
208
330
1
100
AcDbSymbolTableRecord
100
AcDbBlockTableRecord
  2
_D_5
340
0
  0
BLOCK_RECORD
  5
212
330
1
100
AcDbSymbolTableRecord
100
AcDbBlockTableRecord
  2
_D_6
340
0
  0
BLOCK_RECORD
  5
21C
330
1
100
AcDbSymbolTableRecord
100
AcDbBlockTableRecord
  2
_D_7
340
0
  0
BLOCK_RECORD
  5
226
330
1
100
AcDbSymbolTableRecord
100
AcDbBlockTableRecord
  2
_D_8
340
0
  0
BLOCK_RECORD
  5
230
330
1
100
AcDbSymbolTableRecord
100
AcDbBlockTableRecord
  2
_D_9
340
0
  0
BLOCK_RECORD
  5
32F
330
1
100
AcDbSymbolTableRecord
100
AcDbBlockTableRecord
  2
SW_CENTERMARKSYMBOL_0
340
0
102
{BLKREFS
331
33A
102
}
  0
ENDTAB
  0
ENDSEC
  0
SECTION
  2
BLOCKS
  0
BLOCK
  5
20
330
1F
100
AcDbEntity
  8
0
100
AcDbBlockBegin
  2
*Model_Space
 70
     0
 10
0.0
 20
0.0
 30
0.0
  3
*Model_Space
  1

  0
ENDBLK
  5
21
330
1F
100
AcDbEntity
  8
0
100
AcDbBlockEnd
  0
BLOCK
  5
1C
330
1B
100
AcDbEntity
 67
     1
  8
0
100
AcDbBlockBegin
  2
*Paper_Space
 70
     0
 10
0.0
 20
0.0
 30
0.0
  3
*Paper_Space
  1

  0
ENDBLK
  5
1D
330
1B
100
AcDbEntity
 67
     1
  8
0
100
AcDbBlockEnd
  0
BLOCK
  5
24
330
23
100
AcDbEntity
  8
0
100
AcDbBlockBegin
  2
*Paper_Space0
 70
     0
 10
0.0
 20
0.0
 30
0.0
  3
*Paper_Space0
  1

  0
ENDBLK
  5
25
330
23
100
AcDbEntity
  8
0
100
AcDbBlockEnd
  0
BLOCK
  5
1D3
330
1D2
100
AcDbEntity
  8
0
100
AcDbBlockBegin
  2
_D
 70
     0
 10
0.0
 20
0.0
 30
0.0
  3
_D
  1

  0
SOLID
  5
1D5
330
1D2
100
AcDbEntity
  8
VERMASSUNG
100
AcDbTrace
 10
146.2320995994
 20
123.5307142857
 30
0.0
 11
145.7820995994
 21
120.5307142857
 31
0.0
 12
146.6820995994
 22
120.5307142857
 32
0.0
 13
146.6820995994
 23
120.5307142857
 33
0.0
  0
SOLID
  5
1D6
330
1D2
100
AcDbEntity
  8
VERMASSUNG
100
AcDbTrace
 10
146.2320995994
 20
83.5307142857
 30
0.0
 11
146.6820995994
 21
86.5307142857
 31
0.0
 12
145.7820995994
 22
86.5307142857
 32
0.0
 13
145.7820995994
 23
86.5307142857
 33
0.0
  0
LINE
  5
1D7
330
1D2
100
AcDbEntity
  8
VERMASSUNG
100
AcDbLine
 10
170.1913302018
 20
123.5307142857
 30
0.0
 11
145.2320995994
 21
123.5307142857
 31
0.0
  0
LINE
  5
1D8
330
1D2
100
AcDbEntity
  8
VERMASSUNG
100
AcDbLine
 10
170.1913302018
 20
83.5307142857
 30
0.0
 11
145.2320995994
 21
83.5307142857
 31
0.0
  0
LINE
  5
1D9
330
1D2
100
AcDbEntity
  8
VERMASSUNG
100
AcDbLine
 10
146.2320995994
 20
123.5307142857
 30
0.0
 11
146.2320995994
 21
83.5307142857
 31
0.0
  0
MTEXT
  5
1DA
330
1D2
100
AcDbEntity
  8
VERMASSUNG
100
AcDbMText
 10
143.4539641103
 20
97.2274554622
 30
0.0
 40
2.0
 41
0.0
 71
     1
 72
     1
  1
HSK
  7
SLDTEXTSTYLE0
 11
-7.044195017643634E-15
 21
1.0
 31
0.0
 73
     1
 44
1.0
  0
MTEXT
  5
1DB
330
1D2
100
AcDbEntity
  8
VERMASSUNG
100
AcDbMText
 10
143.6539641198
 20
103.2274555143
 30
0.0
 40
2.0
 41
0.0
 71
     1
 72
     1
  1
%%c
  7
SLDTEXTSTYLE0
 11
-7.044195017643634E-15
 21
1.0
 31
0.0
 73
     1
 44
1.0
  0
MTEXT
  5
1DC
330
1D2
100
AcDbEntity
  8
VERMASSUNG
100
AcDbMText
 10
143.6539642362
 20
106.8352529412
 30
0.0
 40
2.0
 41
0.0
 71
     1
 72
     1
  1
40
  7
SLDTEXTSTYLE0
 11
-7.044195017643634E-15
 21
1.0
 31
0.0
 73
     1
 44
1.0
  0
ENDBLK
  5
1D4
330
1D2
100
AcDbEntity
  8
0
100
AcDbBlockEnd
  0
BLOCK
  5
1DF
330
1DE
100
AcDbEntity
  8
0
100
AcDbBlockBegin
  2
_D_1
 70
     0
 10
0.0
 20
0.0
 30
0.0
  3
_D_1
  1

  0
SOLID
  5
1E1
330
1DE
100
AcDbEntity
  8
VERMASSUNG
100
AcDbTrace
 10
230.6735669646
 20
109.5307142857
 30
0.0
 11
230.2235669646
 21
106.5307142857
 31
0.0
 12
231.1235669646
 22
106.5307142857
 32
0.0
 13
231.1235669646
 23
106.5307142857
 33
0.0
  0
SOLID
  5
1E2
330
1DE
100
AcDbEntity
  8
VERMASSUNG
100
AcDbTrace
 10
230.6735669646
 20
97.5307142857
 30
0.0
 11
231.1235669646
 21
100.5307142857
 31
0.0
 12
230.2235669646
 22
100.5307142857
 32
0.0
 13
230.2235669646
 23
100.5307142857
 33
0.0
  0
LINE
  5
1E3
330
1DE
100
AcDbEntity
  8
VERMASSUNG
100
AcDbLine
 10
224.5913302018
 20
109.5307142857
 30
0.0
 11
231.6735669646
 21
109.5307142857
 31
0.0
  0
LINE
  5
1E4
330
1DE
100
AcDbEntity
  8
VERMASSUNG
100
AcDbLine
 10
224.5913302018
 20
97.5307142857
 30
0.0
 11
231.6735669646
 21
97.5307142857
 31
0.0
  0
LINE
  5
1E5
330
1DE
100
AcDbEntity
  8
VERMASSUNG
100
AcDbLine
 10
230.6735669646
 20
109.5307142857
 30
0.0
 11
230.6735669646
 21
97.5307142857
 31
0.0
  0
MTEXT
  5
1E6
330
1DE
100
AcDbEntity
  8
VERMASSUNG
100
AcDbMText
 10
228.095431485
 20
100.5277466387
 30
0.0
 40
2.0
 41
0.0
 71
     1
 72
     1
  1
%%c
  7
SLDTEXTSTYLE0
 11
-7.044195017643634E-15
 21
1.0
 31
0.0
 73
     1
 44
1.0
  0
MTEXT
  5
1E7
330
1DE
100
AcDbEntity
  8
VERMASSUNG
100
AcDbMText
 10
228.0954316015
 20
104.1352721289
 30
0.0
 40
2.0
 41
0.0
 71
     1
 72
     1
  1
12
  7
SLDTEXTSTYLE0
 11
-7.044195017643634E-15
 21
1.0
 31
0.0
 73
     1
 44
1.0
  0
ENDBLK
  5
1E0
330
1DE
100
AcDbEntity
  8
0
100
AcDbBlockEnd
  0
BLOCK
  5
1EA
330
1E9
100
AcDbEntity
  8
0
100
AcDbBlockBegin
  2
_D_2
 70
     0
 10
0.0
 20
0.0
 30
0.0
  3
_D_2
  1

  0
SOLID
  5
1EC
330
1E9
100
AcDbEntity
  8
VERMASSUNG
100
AcDbTrace
 10
236.6735669646
 20
121.5307142857
 30
0.0
 11
236.2235669646
 21
118.5307142857
 31
0.0
 12
237.1235669646
 22
118.5307142857
 32
0.0
 13
237.1235669646
 23
118.5307142857
 33
0.0
  0
SOLID
  5
1ED
330
1E9
100
AcDbEntity
  8
VERMASSUNG
100
AcDbTrace
 10
236.6735669646
 20
85.5307142857
 30
0.0
 11
237.1235669646
 21
88.5307142857
 31
0.0
 12
236.2235669646
 22
88.5307142857
 32
0.0
 13
236.2235669646
 23
88.5307142857
 33
0.0
  0
LINE
  5
1EE
330
1E9
100
AcDbEntity
  8
VERMASSUNG
100
AcDbLine
 10
223.8913302018
 20
121.5307142857
 30
0.0
 11
237.6735669646
 21
121.5307142857
 31
0.0
  0
LINE
  5
1EF
330
1E9
100
AcDbEntity
  8
VERMASSUNG
100
AcDbLine
 10
223.8913302018
 20
85.5307142857
 30
0.0
 11
237.6735669646
 21
85.5307142857
 31
0.0
  0
LINE
  5
1F0
330
1E9
100
AcDbEntity
  8
VERMASSUNG
100
AcDbLine
 10
236.6735669646
 20
121.5307142857
 30
0.0
 11
236.6735669646
 21
85.5307142857
 31
0.0
  0
MTEXT
  5
1F1
330
1E9
100
AcDbEntity
  8
VERMASSUNG
100
AcDbMText
 10
234.095431485
 20
100.3281151261
 30
0.0
 40
2.0
 41
0.0
 71
     1
 72
     1
  1
%%c
  7
SLDTEXTSTYLE0
 11
-7.044195017643634E-15
 21
1.0
 31
0.0
 73
     1
 44
1.0
  0
MTEXT
  5
1F2
330
1E9
100
AcDbEntity
  8
VERMASSUNG
100
AcDbMText
 10
234.0954316015
 20
103.9356406162
 30
0.0
 40
2.0
 41
0.0
 71
     1
 72
     1
  1
36
  7
SLDTEXTSTYLE0
 11
-7.044195017643634E-15
 21
1.0
 31
0.0
 73
     1
 44
1.0
  0
ENDBLK
  5
1EB
330
1E9
100
AcDbEntity
  8
0
100
AcDbBlockEnd
  0
BLOCK
  5
1F5
330
1F4
100
AcDbEntity
  8
0
100
AcDbBlockBegin
  2
_D_3
 70
     0
 10
0.0
 20
0.0
 30
0.0
  3
_D_3
  1

  0
SOLID
  5
1F7
330
1F4
100
AcDbEntity
  8
VERMASSUNG
100
AcDbTrace
 10
149.9913302018
 20
139.0066597214
 30
0.0
 11
152.9913302018
 21
138.5566597214
 31
0.0
 12
152.9913302018
 22
139.4566597214
 32
0.0
 13
152.9913302018
 23
139.4566597214
 33
0.0
  0
SOLID
  5
1F8
330
1F4
100
AcDbEntity
  8
VERMASSUNG
100
AcDbTrace
 10
224.8913302018
 20
139.0066597214
 30
0.0
 11
221.8913302018
 21
139.4566597214
 31
0.0
 12
221.8913302018
 22
138.5566597214
 32
0.0
 13
221.8913302018
 23
138.5566597214
 33
0.0
  0
LINE
  5
1F9
330
1F4
100
AcDbEntity
  8
VERMASSUNG
100
AcDbLine
 10
149.9913302018
 20
115.4607142857
 30
0.0
 11
149.9913302018
 21
140.0066597214
 31
0.0
  0
LINE
  5
1FA
330
1F4
100
AcDbEntity
  8
VERMASSUNG
100
AcDbLine
 10
224.8913302018
 20
120.5307142857
 30
0.0
 11
224.8913302018
 21
140.0066597214
 31
0.0
  0
LINE
  5
1FB
330
1F4
100
AcDbEntity
  8
VERMASSUNG
100
AcDbLine
 10
149.9913302018
 20
139.0066597214
 30
0.0
 11
224.8913302018
 21
139.0066597214
 31
0.0
  0
MTEXT
  5
1FC
330
1F4
100
AcDbEntity
  8
VERMASSUNG
100
AcDbMText
 10
184.9423967284
 20
141.5847950845
 30
0.0
 40
2.0
 41
0.0
 71
     1
 72
     1
  1
74.9
  7
SLDTEXTSTYLE0
 73
     1
 44
1.0
  0
ENDBLK
  5
1F6
330
1F4
100
AcDbEntity
  8
0
100
AcDbBlockEnd
  0
BLOCK
  5
1FF
330
1FE
100
AcDbEntity
  8
0
100
AcDbBlockBegin
  2
_D_4
 70
     0
 10
0.0
 20
0.0
 30
0.0
  3
_D_4
  1

  0
SOLID
  5
201
330
1FE
100
AcDbEntity
  8
VERMASSUNG
100
AcDbTrace
 10
169.8913302018
 20
133.0066597214
 30
0.0
 11
172.8913302018
 21
132.5566597214
 31
0.0
 12
172.8913302018
 22
133.4566597214
 32
0.0
 13
172.8913302018
 23
133.4566597214
 33
0.0
  0
SOLID
  5
202
330
1FE
100
AcDbEntity
  8
VERMASSUNG
100
AcDbTrace
 10
224.8913302018
 20
133.0066597214
 30
0.0
 11
221.8913302018
 21
133.4566597214
 31
0.0
 12
221.8913302018
 22
132.5566597214
 32
0.0
 13
221.8913302018
 23
132.5566597214
 33
0.0
  0
LINE
  5
203
330
1FE
100
AcDbEntity
  8
VERMASSUNG
100
AcDbLine
 10
169.8913302018
 20
123.2307142857
 30
0.0
 11
169.8913302018
 21
134.0066597214
 31
0.0
  0
LINE
  5
204
330
1FE
100
AcDbEntity
  8
VERMASSUNG
100
AcDbLine
 10
224.8913302018
 20
120.5307142857
 30
0.0
 11
224.8913302018
 21
134.0066597214
 31
0.0
  0
LINE
  5
205
330
1FE
100
AcDbEntity
  8
VERMASSUNG
100
AcDbLine
 10
169.8913302018
 20
133.0066597214
 30
0.0
 11
224.8913302018
 21
133.0066597214
 31
0.0
  0
MTEXT
  5
206
330
1FE
100
AcDbEntity
  8
VERMASSUNG
100
AcDbMText
 10
195.9924937872
 20
135.5847950845
 30
0.0
 40
2.0
 41
0.0
 71
     1
 72
     1
  1
55
  7
SLDTEXTSTYLE0
 73
     1
 44
1.0
  0
ENDBLK
  5
200
330
1FE
100
AcDbEntity
  8
0
100
AcDbBlockEnd
  0
BLOCK
  5
209
330
208
100
AcDbEntity
  8
0
100
AcDbBlockBegin
  2
_D_5
 70
     0
 10
0.0
 20
0.0
 30
0.0
  3
_D_5
  1

  0
SOLID
  5
20B
330
208
100
AcDbEntity
  8
VERMASSUNG
100
AcDbTrace
 10
189.8413302018
 20
127.0066597214
 30
0.0
 11
192.8413302018
 21
126.5566597214
 31
0.0
 12
192.8413302018
 22
127.4566597214
 32
0.0
 13
192.8413302018
 23
127.4566597214
 33
0.0
  0
SOLID
  5
20C
330
208
100
AcDbEntity
  8
VERMASSUNG
100
AcDbTrace
 10
224.8913302018
 20
127.0066597214
 30
0.0
 11
221.8913302018
 21
127.4566597214
 31
0.0
 12
221.8913302018
 22
126.5566597214
 32
0.0
 13
221.8913302018
 23
126.5566597214
 33
0.0
  0
LINE
  5
20D
330
208
100
AcDbEntity
  8
VERMASSUNG
100
AcDbLine
 10
189.8413302018
 20
118.890971445
 30
0.0
 11
189.8413302018
 21
128.0066597214
 31
0.0
  0
LINE
  5
20E
330
208
100
AcDbEntity
  8
VERMASSUNG
100
AcDbLine
 10
224.8913302018
 20
120.5307142857
 30
0.0
 11
224.8913302018
 21
128.0066597214
 31
0.0
  0
LINE
  5
20F
330
208
100
AcDbEntity
  8
VERMASSUNG
100
AcDbLine
 10
189.8413302018
 20
127.0066597214
 30
0.0
 11
224.8913302018
 21
127.0066597214
 31
0.0
  0
MTEXT
  5
210
330
208
100
AcDbEntity
  8
VERMASSUNG
100
AcDbMText
 10
204.2670863643
 20
129.5847950845
 30
0.0
 40
2.0
 41
0.0
 71
     1
 72
     1
  1
35.05
  7
SLDTEXTSTYLE0
 73
     1
 44
1.0
  0
ENDBLK
  5
20A
330
208
100
AcDbEntity
  8
0
100
AcDbBlockEnd
  0
BLOCK
  5
213
330
212
100
AcDbEntity
  8
0
100
AcDbBlockBegin
  2
_D_6
 70
     0
 10
0.0
 20
0.0
 30
0.0
  3
_D_6
  1

  0
SOLID
  5
215
330
212
100
AcDbEntity
  8
VERMASSUNG
100
AcDbTrace
 10
224.8913302018
 20
73.5307142857
 30
0.0
 11
221.8913302018
 21
73.9807142857
 31
0.0
 12
221.8913302018
 22
73.0807142857
 32
0.0
 13
221.8913302018
 23
73.0807142857
 33
0.0
  0
SOLID
  5
216
330
212
100
AcDbEntity
  8
VERMASSUNG
100
AcDbTrace
 10
188.8913302018
 20
73.5307142857
 30
0.0
 11
191.8913302018
 21
73.0807142857
 31
0.0
 12
191.8913302018
 22
73.9807142857
 32
0.0
 13
191.8913302018
 23
73.9807142857
 33
0.0
  0
LINE
  5
217
330
212
100
AcDbEntity
  8
VERMASSUNG
100
AcDbLine
 10
224.8913302018
 20
86.5307142857
 30
0.0
 11
224.8913302018
 21
72.5307142857
 31
0.0
  0
LINE
  5
218
330
212
100
AcDbEntity
  8
VERMASSUNG
100
AcDbLine
 10
188.8913302018
 20
97.6307142857
 30
0.0
 11
188.8913302018
 21
72.5307142857
 31
0.0
  0
LINE
  5
219
330
212
100
AcDbEntity
  8
VERMASSUNG
100
AcDbLine
 10
224.8913302018
 20
73.5307142857
 30
0.0
 11
188.8913302018
 21
73.5307142857
 31
0.0
  0
MTEXT
  5
21A
330
212
100
AcDbEntity
  8
VERMASSUNG
100
AcDbMText
 10
205.4924937872
 20
76.1088496488
 30
0.0
 40
2.0
 41
0.0
 71
     1
 72
     1
  1
36
  7
SLDTEXTSTYLE0
 73
     1
 44
1.0
  0
ENDBLK
  5
214
330
212
100
AcDbEntity
  8
0
100
AcDbBlockEnd
  0
BLOCK
  5
21D
330
21C
100
AcDbEntity
  8
0
100
AcDbBlockBegin
  2
_D_7
 70
     0
 10
0.0
 20
0.0
 30
0.0
  3
_D_7
  1

  0
SOLID
  5
21F
330
21C
100
AcDbEntity
  8
VERMASSUNG
100
AcDbTrace
 10
224.8913302018
 20
78.3479615254
 30
0.0
 11
221.8913302018
 21
78.7979615254
 31
0.0
 12
221.8913302018
 22
77.8979615254
 32
0.0
 13
221.8913302018
 23
77.8979615254
 33
0.0
  0
SOLID
  5
220
330
21C
100
AcDbEntity
  8
VERMASSUNG
100
AcDbTrace
 10
216.8913302018
 20
78.3479615254
 30
0.0
 11
219.8913302018
 21
77.8979615254
 31
0.0
 12
219.8913302018
 22
78.7979615254
 32
0.0
 13
219.8913302018
 23
78.7979615254
 33
0.0
  0
LINE
  5
221
330
21C
100
AcDbEntity
  8
VERMASSUNG
100
AcDbLine
 10
224.8913302018
 20
86.5307142857
 30
0.0
 11
224.8913302018
 21
77.3479615254
 31
0.0
  0
LINE
  5
222
330
21C
100
AcDbEntity
  8
VERMASSUNG
100
AcDbLine
 10
216.8913302018
 20
107.5307142857
 30
0.0
 11
216.8913302018
 21
77.3479615254
 31
0.0
  0
LINE
  5
223
330
21C
100
AcDbEntity
  8
VERMASSUNG
100
AcDbLine
 10
224.8913302018
 20
78.3479615254
 30
0.0
 11
216.8913302018
 21
78.3479615254
 31
0.0
  0
MTEXT
  5
224
330
21C
100
AcDbEntity
  8
VERMASSUNG
100
AcDbMText
 10
220.1919119945
 20
80.9260968885
 30
0.0
 40
2.0
 41
0.0
 71
     1
 72
     1
  1
8
  7
SLDTEXTSTYLE0
 73
     1
 44
1.0
  0
ENDBLK
  5
21E
330
21C
100
AcDbEntity
  8
0
100
AcDbBlockEnd
  0
BLOCK
  5
227
330
226
100
AcDbEntity
  8
0
100
AcDbBlockBegin
  2
_D_8
 70
     0
 10
0.0
 20
0.0
 30
0.0
  3
_D_8
  1

  0
SOLID
  5
229
330
226
100
AcDbEntity
  8
VERMASSUNG
100
AcDbTrace
 10
216.8913302018
 20
78.3479615254
 30
0.0
 11
213.8913302018
 21
78.7979615254
 31
0.0
 12
213.8913302018
 22
77.8979615254
 32
0.0
 13
213.8913302018
 23
77.8979615254
 33
0.0
  0
SOLID
  5
22A
330
226
100
AcDbEntity
  8
VERMASSUNG
100
AcDbTrace
 10
206.8913302018
 20
78.3479615254
 30
0.0
 11
209.8913302018
 21
77.8979615254
 31
0.0
 12
209.8913302018
 22
78.7979615254
 32
0.0
 13
209.8913302018
 23
78.7979615254
 33
0.0
  0
LINE
  5
22B
330
226
100
AcDbEntity
  8
VERMASSUNG
100
AcDbLine
 10
216.8913302018
 20
107.5307142857
 30
0.0
 11
216.8913302018
 21
77.3479615254
 31
0.0
  0
LINE
  5
22C
330
226
100
AcDbEntity
  8
VERMASSUNG
100
AcDbLine
 10
206.8913302018
 20
107.5307142857
 30
0.0
 11
206.8913302018
 21
77.3479615254
 31
0.0
  0
LINE
  5
22D
330
226
100
AcDbEntity
  8
VERMASSUNG
100
AcDbLine
 10
216.8913302018
 20
78.3479615254
 30
0.0
 11
206.8913302018
 21
78.3479615254
 31
0.0
  0
MTEXT
  5
22E
330
226
100
AcDbEntity
  8
VERMASSUNG
100
AcDbMText
 10
210.6921252998
 20
80.9260968885
 30
0.0
 40
2.0
 41
0.0
 71
     1
 72
     1
  1
10
  7
SLDTEXTSTYLE0
 73
     1
 44
1.0
  0
ENDBLK
  5
228
330
226
100
AcDbEntity
  8
0
100
AcDbBlockEnd
  0
BLOCK
  5
231
330
230
100
AcDbEntity
  8
0
100
AcDbBlockBegin
  2
_D_9
 70
     0
 10
0.0
 20
0.0
 30
0.0
  3
_D_9
  1

  0
SOLID
  5
233
330
230
100
AcDbEntity
  8
VERMASSUNG
100
AcDbTrace
 10
206.8913302018
 20
78.3479615254
 30
0.0
 11
203.8913302018
 21
78.7979615254
 31
0.0
 12
203.8913302018
 22
77.8979615254
 32
0.0
 13
203.8913302018
 23
77.8979615254
 33
0.0
  0
SOLID
  5
234
330
230
100
AcDbEntity
  8
VERMASSUNG
100
AcDbTrace
 10
196.8913302018
 20
78.3479615254
 30
0.0
 11
199.8913302018
 21
77.8979615254
 31
0.0
 12
199.8913302018
 22
78.7979615254
 32
0.0
 13
199.8913302018
 23
78.7979615254
 33
0.0
  0
LINE
  5
235
330
230
100
AcDbEntity
  8
VERMASSUNG
100
AcDbLine
 10
206.8913302018
 20
107.5307142857
 30
0.0
 11
206.8913302018
 21
77.3479615254
 31
0.0
  0
LINE
  5
236
330
230
100
AcDbEntity
  8
VERMASSUNG
100
AcDbLine
 10
196.8913302018
 20
107.5307142857
 30
0.0
 11
196.8913302018
 21
77.3479615254
 31
0.0
  0
LINE
  5
237
330
230
100
AcDbEntity
  8
VERMASSUNG
100
AcDbLine
 10
206.8913302018
 20
78.3479615254
 30
0.0
 11
196.8913302018
 21
78.3479615254
 31
0.0
  0
MTEXT
  5
238
330
230
100
AcDbEntity
  8
VERMASSUNG
100
AcDbMText
 10
200.6921252998
 20
80.9260968885
 30
0.0
 40
2.0
 41
0.0
 71
     1
 72
     1
  1
10
  7
SLDTEXTSTYLE0
 73
     1
 44
1.0
  0
ENDBLK
  5
232
330
230
100
AcDbEntity
  8
0
100
AcDbBlockEnd
  0
BLOCK
  5
330
330
32F
100
AcDbEntity
  8
0
100
AcDbBlockBegin
  2
SW_CENTERMARKSYMBOL_0
 70
     0
 10
0.0
 20
0.0
 30
0.0
  3
SW_CENTERMARKSYMBOL_0
  1

  0
LINE
  5
332
330
32F
100
AcDbEntity
  8
VERMASSUNG
 62
     0
100
AcDbLine
 10
0.0
 20
0.0
 30
0.0
 11
0.0
 21
2.5
 31
0.0
  0
LINE
  5
333
330
32F
100
AcDbEntity
  8
VERMASSUNG
 62
     0
100
AcDbLine
 10
0.0
 20
0.0
 30
0.0
 11
-2.5
 21
0.0
 31
0.0
  0
LINE
  5
334
330
32F
100
AcDbEntity
  8
VERMASSUNG
 62
     0
100
AcDbLine
 10
0.0
 20
0.0
 30
0.0
 11
0.0
 21
-2.5
 31
0.0
  0
LINE
  5
335
330
32F
100
AcDbEntity
  8
VERMASSUNG
 62
     0
100
AcDbLine
 10
0.0
 20
0.0
 30
0.0
 11
2.5
 21
0.0
 31
0.0
  0
LINE
  5
336
330
32F
100
AcDbEntity
  8
VERMASSUNG
 62
     0
100
AcDbLine
 10
0.0
 20
5.0
 30
0.0
 11
0.0
 21
22.5
 31
0.0
  0
LINE
  5
337
330
32F
100
AcDbEntity
  8
VERMASSUNG
 62
     0
100
AcDbLine
 10
-5.0
 20
0.0
 30
0.0
 11
-22.5
 21
0.0
 31
0.0
  0
LINE
  5
338
330
32F
100
AcDbEntity
  8
VERMASSUNG
 62
     0
100
AcDbLine
 10
0.0
 20
-5.0
 30
0.0
 11
0.0
 21
-22.5
 31
0.0
  0
LINE
  5
339
330
32F
100
AcDbEntity
  8
VERMASSUNG
 62
     0
100
AcDbLine
 10
5.0
 20
0.0
 30
0.0
 11
22.5
 21
0.0
 31
0.0
  0
ENDBLK
  5
331
330
32F
100
AcDbEntity
  8
0
100
AcDbBlockEnd
  0
ENDSEC
  0
SECTION
  2
ENTITIES
  0
MTEXT
  5
49
330
1F
100
AcDbEntity
  8
KOPF_DÜNN
100
AcDbMText
 10
13.8892156294
 20
23.8442973028
 30
0.0
 40
3.0
 41
0.0
 71
     1
 72
     1
  1
HA4.B12.K01.055
  7
SLDTEXTSTYLE0
 73
     1
 44
1.0
  0
MTEXT
  5
4A
330
1F
100
AcDbEntity
  8
VERMASSUNG
100
AcDbMText
 10
13.9329988022
 20
28.8834360957
 30
0.0
 40
3.0
 41
0.0
 71
     1
 72
     1
  1
Bohrstangenhalter_Boring bar holder
  7
SLDTEXTSTYLE0
 73
     1
 44
1.0
  0
MTEXT
  5
4B
330
1F
100
AcDbEntity
  8
VERMASSUNG
100
AcDbMText
 10
98.8601118557
 20
13.8365368179
 30
0.0
 40
2.0
 41
0.0
 71
     1
 72
     1
  1
Datum: 09.02.2009
  7
SLDTEXTSTYLE0
 73
     1
 44
1.0
  0
MTEXT
  5
4D
330
1F
100
AcDbEntity
  8
VERMASSUNG
100
AcDbMText
 10
13.933048693
 20
18.0482802738
 30
0.0
 40
2.0
 41
0.0
 71
     1
 72
     1
  1
DIN 69893 HSK 40 A ICTM / ø12
  7
SLDTEXTSTYLE1
 73
     1
 44
1.0
  0
MTEXT
  5
4E
330
1F
100
AcDbEntity
  8
VERMASSUNG
100
AcDbMText
 10
13.9808475933
 20
13.9090973692
 30
0.0
 40
2.0
 41
0.0
 71
     1
 72
     1
  1
Gewicht: 410g
  7
SLDTEXTSTYLE0
 73
     1
 44
1.0
  0
LINE
  5
4F
330
1F
100
AcDbEntity
  8
0
  6
Continuous
 62
     7
370
    15
100
AcDbLine
 10
170.191330216
 20
83.5307147327
 30
0.0
 11
177.8413306667
 21
83.5307147327
 31
0.0
  0
LINE
  5
50
330
1F
100
AcDbEntity
  8
0
  6
Continuous
 62
     7
370
    15
100
AcDbLine
 10
177.8568576767
 20
123.5307138387
 30
0.0
 11
170.191330216
 21
123.5307138387
 31
0.0
  0
ARC
  5
51
330
1F
100
AcDbEntity
  8
0
  6
Continuous
 62
     7
370
    15
100
AcDbCircle
 10
170.1913302018
 20
83.8307142857
 30
0.0
 40
0.3000000000000114
100
AcDbArc
 50
180.0
 51
270.0
  0
ARC
  5
52
330
1F
100
AcDbEntity
  8
0
  6
Continuous
 62
     7
370
    15
100
AcDbCircle
 10
170.1913302018
 20
123.2307142857
 30
0.0
 40
0.3000000000000114
100
AcDbArc
 50
90.0
 51
180.0
  0
LINE
  5
53
330
1F
100
AcDbEntity
  8
0
  6
Continuous
 62
     7
370
    15
100
AcDbLine
 10
213.3961159481
 20
121.5307135109
 30
0.0
 11
210.3831868364
 21
121.5307135109
 31
0.0
  0
LINE
  5
54
330
1F
100
AcDbEntity
  8
0
  6
Continuous
 62
     7
370
    15
100
AcDbLine
 10
223.8913316025
 20
121.5307135109
 30
0.0
 11
220.3794371082
 21
121.5307135109
 31
0.0
  0
LINE
  5
55
330
1F
100
AcDbEntity
  8
0
  6
Continuous
 62
     7
370
    15
100
AcDbLine
 10
205.8595742776
 20
85.5307150606
 30
0.0
 11
223.8913316025
 21
85.5307150606
 31
0.0
  0
ARC
  5
56
330
1F
100
AcDbEntity
  8
0
  6
Continuous
 62
     7
370
    15
100
AcDbCircle
 10
223.8913302018
 20
120.5307142857
 30
0.0
 40
1.0
100
AcDbArc
 50
0.0
 51
90.0
  0
ARC
  5
57
330
1F
100
AcDbEntity
  8
0
  6
Continuous
 62
     7
370
    15
100
AcDbCircle
 10
223.8913302018
 20
86.5307142857
 30
0.0
 40
1.0
100
AcDbArc
 50
270.0
 51
0.0
  0
ARC
  5
58
330
1F
100
AcDbEntity
  8
0
  6
Continuous
 62
     7
370
    15
100
AcDbCircle
 10
205.8595760383
 20
86.5307142857
 30
0.0
 40
1.0
100
AcDbArc
 50
194.4775121859
 51
270.0
  0
ARC
  5
59
330
1F
100
AcDbEntity
  8
0
  6
Continuous
 62
     7
370
    15
100
AcDbCircle
 10
190.8413302018
 20
86.0307142857
 30
0.0
 40
1.000000000000006
100
AcDbArc
 50
90.0
 51
143.1137328946
  0
ARC
  5
5A
330
1F
100
AcDbEntity
  8
0
  6
Continuous
 62
     7
370
    15
100
AcDbCircle
 10
190.8413302018
 20
121.0307142857
 30
0.0
 40
1.00000000000002
100
AcDbArc
 50
216.8998129703
 51
270.0
  0
ARC
  5
5B
330
1F
100
AcDbEntity
  8
0
  6
Continuous
 62
     7
370
    15
100
AcDbCircle
 10
203.9230843652
 20
86.0307142857
 30
0.0
 40
1.000000000000008
100
AcDbArc
 50
14.4775121859
 51
90.0
  0
LINE
  5
5C
330
1F
100
AcDbEntity
  8
0
  6
Continuous
 62
     7
370
    15
100
AcDbLine
 10
190.8413309349
 20
87.0307143751
 30
0.0
 11
203.9230826987
 21
87.0307143751
 31
0.0
  0
LINE
  5
5D
330
1F
100
AcDbEntity
  8
0
  6
Continuous
 62
     7
370
    15
100
AcDbLine
 10
193.4033285572
 20
120.0307141963
 30
0.0
 11
190.8413309349
 21
120.0307141963
 31
0.0
  0
LINE
  5
5E
330
1F
100
AcDbEntity
  8
0
  6
Continuous
 62
     7
370
    15
100
AcDbLine
 10
203.4029092385
 20
120.0307141963
 30
0.0
 11
200.3853849812
 21
120.0307141963
 31
0.0
  0
ARC
  5
5F
330
1F
100
AcDbEntity
  8
0
  6
Continuous
 62
     7
370
    15
100
AcDbCircle
 10
169.3913234491
 20
88.0770071322
 30
0.0
 40
0.6000067526677124
100
AcDbArc
 50
33.5571153394
 51
90.0
  0
ARC
  5
60
330
1F
100
AcDbEntity
  8
0
  6
Continuous
 62
     7
370
    15
100
AcDbCircle
 10
169.3913234491
 20
118.9844214392
 30
0.0
 40
0.6000067526677045
100
AcDbArc
 50
270.0
 51
326.4428846606
  0
LINE
  5
61
330
1F
100
AcDbEntity
  8
0
  6
Continuous
 62
     7
370
    15
100
AcDbLine
 10
161.0753971829
 20
118.2929351899
 30
0.0
 11
153.5913299514
 21
117.9179819274
 31
0.0
  0
LINE
  5
62
330
1F
100
AcDbEntity
  8
0
  6
Continuous
 62
     7
370
    15
100
AcDbLine
 10
167.8913301068
 20
118.6344148565
 30
0.0
 11
166.6565975385
 21
118.5725545484
 31
0.0
  0
LINE
  5
63
330
1F
100
AcDbEntity
  8
0
  6
Continuous
 62
     7
370
    15
100
AcDbLine
 10
166.657593588
 20
88.4888246629
 30
0.0
 11
167.8913301068
 21
88.427013715
 31
0.0
  0
LINE
  5
64
330
1F
100
AcDbEntity
  8
0
  6
Continuous
 62
     7
370
    15
100
AcDbLine
 10
156.0913303612
 20
89.0181958649
 30
0.0
 11
161.0758600502
 21
88.7684700984
 31
0.0
  0
LINE
  5
65
330
1F
100
AcDbEntity
  8
0
  6
Continuous
 62
     7
370
    15
100
AcDbLine
 10
167.8913301068
 20
88.427013715
 30
0.0
 11
168.7480421016
 21
88.6565688971
 31
0.0
  0
LINE
  5
66
330
1F
100
AcDbEntity
  8
0
  6
Continuous
 62
     7
370
    15
100
AcDbLine
 10
168.7480421016
 20
118.4048596743
 30
0.0
 11
167.8913301068
 21
118.6344148565
 31
0.0
  0
ARC
  5
67
330
1F
100
AcDbEntity
  8
0
  6
Continuous
 62
     7
370
    15
100
AcDbCircle
 10
168.9033352912
 20
88.0770071322
 30
0.0
 40
0.600006752667717
100
AcDbArc
 50
90.0
 51
105.0
  0
ARC
  5
68
330
1F
100
AcDbEntity
  8
0
  6
Continuous
 62
     7
370
    15
100
AcDbCircle
 10
168.9033352912
 20
118.9844214392
 30
0.0
 40
0.600006752667717
100
AcDbArc
 50
255.0
 51
270.0
  0
LINE
  5
69
330
1F
100
AcDbEntity
  8
0
  6
Continuous
 62
     7
370
    15
100
AcDbLine
 10
168.9033352515
 20
88.6770142216
 30
0.0
 11
169.391323426
 21
88.6770142216
 31
0.0
  0
LINE
  5
6A
330
1F
100
AcDbEntity
  8
0
  6
Continuous
 62
     7
370
    15
100
AcDbLine
 10
169.391323426
 20
118.3844143498
 30
0.0
 11
168.9033352515
 21
118.3844143498
 31
0.0
  0
ARC
  5
6B
330
1F
100
AcDbEntity
  8
0
  6
Continuous
 62
     7
370
    15
100
AcDbCircle
 10
152.6913302018
 20
117.3107142857
 30
0.0
 40
0.9000000000000057
100
AcDbArc
 50
270.0
 51
311.1792132368
  0
ARC
  5
6C
330
1F
100
AcDbEntity
  8
0
  6
Continuous
 62
     7
370
    15
100
AcDbCircle
 10
155.1913302018
 20
89.7507142857
 30
0.0
 40
0.8999999999999995
100
AcDbArc
 50
34.6391318474
 51
90.0
  0
LINE
  5
6D
330
1F
100
AcDbEntity
  8
0
  6
Continuous
 62
     7
370
    15
100
AcDbLine
 10
150.9413297965
 20
116.4107145715
 30
0.0
 11
149.9913304789
 21
115.4607143227
 31
0.0
  0
LINE
  5
6E
330
1F
100
AcDbEntity
  8
0
  6
Continuous
 62
     7
370
    15
100
AcDbLine
 10
152.6913296177
 20
116.4107145715
 30
0.0
 11
150.9413297965
 21
116.4107145715
 31
0.0
  0
LINE
  5
6F
330
1F
100
AcDbEntity
  8
0
  6
Continuous
 62
     7
370
    15
100
AcDbLine
 10
151.0003309442
 20
90.6507139999
 30
0.0
 11
155.1913300274
 21
90.6507139999
 31
0.0
  0
LINE
  5
70
330
1F
100
AcDbEntity
  8
0
  6
Continuous
 62
     7
370
    15
100
AcDbLine
 10
149.9913304789
 20
91.6597144652
 30
0.0
 11
151.0003309442
 21
90.6507139999
 31
0.0
  0
CIRCLE
  5
71
330
1F
100
AcDbEntity
  8
0
  6
Continuous
 62
     7
370
    15
100
AcDbCircle
 10
216.8913302018
 20
103.5307142857
 30
0.0
 40
3.309499999999998
  0
LINE
  5
72
330
1F
100
AcDbEntity
  8
0
  6
Continuous
 62
     7
370
    15
100
AcDbLine
 10
218.996180941
 20
104.4809410206
 30
0.0
 11
217.1208362772
 21
105.8286831222
 31
0.0
  0
LINE
  5
73
330
1F
100
AcDbEntity
  8
0
  6
Continuous
 62
     7
370
    15
100
AcDbLine
 10
215.0159839286
 20
104.8784563291
 30
0.0
 11
217.1208362772
 21
105.8286831222
 31
0.0
  0
LINE
  5
74
330
1F
100
AcDbEntity
  8
0
  6
Continuous
 62
     7
370
    15
100
AcDbLine
 10
214.7864762439
 20
102.5804875509
 30
0.0
 11
215.0159839286
 21
104.8784563291
 31
0.0
  0
LINE
  5
75
330
1F
100
AcDbEntity
  8
0
  6
Continuous
 62
     7
370
    15
100
AcDbLine
 10
214.7864762439
 20
102.5804875509
 30
0.0
 11
216.661824633
 21
101.2327454492
 31
0.0
  0
LINE
  5
76
330
1F
100
AcDbEntity
  8
0
  6
Continuous
 62
     7
370
    15
100
AcDbLine
 10
218.7666769816
 20
102.1829722423
 30
0.0
 11
216.661824633
 21
101.2327454492
 31
0.0
  0
LINE
  5
77
330
1F
100
AcDbEntity
  8
0
  6
Continuous
 62
     7
370
    15
100
AcDbLine
 10
218.7666769816
 20
102.1829722423
 30
0.0
 11
218.996180941
 21
104.4809410206
 31
0.0
  0
CIRCLE
  5
78
330
1F
100
AcDbEntity
  8
0
  6
Continuous
 62
     7
370
    15
100
AcDbCircle
 10
206.8913302018
 20
103.5307142857
 30
0.0
 40
3.309500000000011
  0
LINE
  5
79
330
1F
100
AcDbEntity
  8
0
  6
Continuous
 62
     7
370
    15
100
AcDbLine
 10
209.1247167184
 20
104.1183517637
 30
0.0
 11
207.4991155161
 21
105.7587026126
 31
0.0
  0
LINE
  5
7A
330
1F
100
AcDbEntity
  8
0
  6
Continuous
 62
     7
370
    15
100
AcDbLine
 10
205.2657294764
 20
105.1710650764
 30
0.0
 11
207.4991155161
 21
105.7587026126
 31
0.0
  0
LINE
  5
7B
330
1F
100
AcDbEntity
  8
0
  6
Continuous
 62
     7
370
    15
100
AcDbLine
 10
204.6579446389
 20
102.9430768077
 30
0.0
 11
205.2657294764
 21
105.1710650764
 31
0.0
  0
LINE
  5
7C
330
1F
100
AcDbEntity
  8
0
  6
Continuous
 62
     7
370
    15
100
AcDbLine
 10
204.6579446389
 20
102.9430768077
 30
0.0
 11
206.2835458411
 21
101.3027259588
 31
0.0
  0
LINE
  5
7D
330
1F
100
AcDbEntity
  8
0
  6
Continuous
 62
     7
370
    15
100
AcDbLine
 10
208.5169318809
 20
101.890363495
 30
0.0
 11
206.2835458411
 21
101.3027259588
 31
0.0
  0
LINE
  5
7E
330
1F
100
AcDbEntity
  8
0
  6
Continuous
 62
     7
370
    15
100
AcDbLine
 10
208.5169318809
 20
101.890363495
 30
0.0
 11
209.1247167184
 21
104.1183517637
 31
0.0
  0
LINE
  5
7F
330
1F
100
AcDbEntity
  8
0
  6
Continuous
 62
     7
370
    15
100
AcDbLine
 10
196.3712785138
 20
119.6646112922
 30
0.0
 11
197.232727681
 21
119.6646112922
 31
0.0
  0
CIRCLE
  5
80
330
1F
100
AcDbEntity
  8
0
  6
Continuous
 62
     7
370
    15
100
AcDbCircle
 10
196.8913302018
 20
103.5307142857
 30
0.0
 40
3.309500000000011
  0
LINE
  5
81
330
1F
100
AcDbEntity
  8
0
  6
Continuous
 62
     7
370
    15
100
AcDbLine
 10
199.1247169419
 20
104.1183517637
 30
0.0
 11
197.499113877
 21
105.7587026126
 31
0.0
  0
LINE
  5
82
330
1F
100
AcDbEntity
  8
0
  6
Continuous
 62
     7
370
    15
100
AcDbLine
 10
195.2657278372
 20
105.1710650764
 30
0.0
 11
197.499113877
 21
105.7587026126
 31
0.0
  0
LINE
  5
83
330
1F
100
AcDbEntity
  8
0
  6
Continuous
 62
     7
370
    15
100
AcDbLine
 10
194.6579429998
 20
102.9430768077
 30
0.0
 11
195.2657278372
 21
105.1710650764
 31
0.0
  0
LINE
  5
84
330
1F
100
AcDbEntity
  8
0
  6
Continuous
 62
     7
370
    15
100
AcDbLine
 10
194.6579429998
 20
102.9430768077
 30
0.0
 11
196.2835460647
 21
101.3027259588
 31
0.0
  0
LINE
  5
85
330
1F
100
AcDbEntity
  8
0
  6
Continuous
 62
     7
370
    15
100
AcDbLine
 10
198.5169321044
 20
101.890363495
 30
0.0
 11
196.2835460647
 21
101.3027259588
 31
0.0
  0
LINE
  5
86
330
1F
100
AcDbEntity
  8
0
  6
Continuous
 62
     7
370
    15
100
AcDbLine
 10
198.5169321044
 20
101.890363495
 30
0.0
 11
199.1247169419
 21
104.1183517637
 31
0.0
  0
LINE
  5
87
330
1F
100
AcDbEntity
  8
0
  6
Continuous
 62
     7
370
    15
100
AcDbLine
 10
187.9264905794
 20
84.3018293354
 30
0.0
 11
187.9264905794
 21
115.3807146448
 31
0.0
  0
SPLINE
  5
88
330
1F
100
AcDbEntity
  8
0
  6
Continuous
 62
     7
370
    15
100
AcDbSpline
210
0.0
220
0.0
230
1.0
 70
     8
 71
     3
 72
     8
 73
     4
 74
     0
 42
0.00000001
 43
0.00000001
 12
1.0
 22
0.0
 32
0.0
 13
1.0
 23
0.0
 33
0.0
 40
0.0
 40
0.0
 40
0.0
 40
0.0
 40
1.0
 40
1.0
 40
1.0
 40
1.0
 10
187.9264899006816
 20
84.30182976268489
 30
0.0
 10
187.5937846289763
 20
84.90120143590855
 30
0.0
 10
187.2619688284028
 20
85.50107054661359
 30
0.0
 10
186.9313302017882
 20
86.10159089772456
 30
0.0
  0
LINE
  5
89
330
1F
100
AcDbEntity
  8
0
  6
Continuous
 62
     7
370
    15
100
AcDbLine
 10
186.9313295676
 20
86.1015915844
 30
0.0
 11
186.9313295676
 21
115.3807146448
 31
0.0
  0
SPLINE
  5
8A
330
1F
100
AcDbEntity
  8
0
  6
Continuous
 62
     7
370
    15
100
AcDbSpline
210
0.0
220
0.0
230
1.0
 70
    24
 71
     3
 72
     8
 73
     4
 74
     0
 42
0.00000001
 43
0.00000001
 12
1.0
 22
0.0
 32
0.0
 13
1.0
 23
0.0
 33
0.0
 40
0.0
 40
0.0
 40
0.0
 40
0.0
 40
1.0
 40
1.0
 40
1.0
 40
1.0
 10
186.9313302017882
 20
115.3807142857143
 30
0.0
 10
187.2549668574104
 20
115.3807142857143
 30
0.0
 10
187.5874570789271
 20
115.3807142857143
 30
0.0
 10
187.9264899006817
 20
115.3807142857143
 30
0.0
  0
LINE
  5
8B
330
1F
100
AcDbEntity
  8
0
  6
Continuous
 62
     7
370
    15
100
AcDbLine
 10
184.8513304933
 20
86.1015915844
 30
0.0
 11
184.8513304933
 21
115.3807146448
 31
0.0
  0
SPLINE
  5
8C
330
1F
100
AcDbEntity
  8
0
  6
Continuous
 62
     7
370
    15
100
AcDbSpline
210
0.0
220
0.0
230
1.0
 70
     8
 71
     3
 72
     8
 73
     4
 74
     0
 42
0.00000001
 43
0.00000001
 12
1.0
 22
0.0
 32
0.0
 13
1.0
 23
0.0
 33
0.0
 40
0.0
 40
0.0
 40
0.0
 40
0.0
 40
1.0
 40
1.0
 40
1.0
 40
1.0
 10
184.8513302017882
 20
86.10159089772458
 30
0.0
 10
184.5206915751736
 20
85.50107054661359
 30
0.0
 10
184.1888757746001
 20
84.90120143590855
 30
0.0
 10
183.8561705028948
 20
84.30182976268489
 30
0.0
  0
LINE
  5
8D
330
1F
100
AcDbEntity
  8
0
  6
Continuous
 62
     7
370
    15
100
AcDbLine
 10
183.8561704128
 20
84.3018293354
 30
0.0
 11
183.8561704128
 21
115.3807146448
 31
0.0
  0
SPLINE
  5
8E
330
1F
100
AcDbEntity
  8
0
  6
Continuous
 62
     7
370
    15
100
AcDbSpline
210
0.0
220
0.0
230
1.0
 70
    24
 71
     3
 72
     8
 73
     4
 74
     0
 42
0.00000001
 43
0.00000001
 12
1.0
 22
0.0
 32
0.0
 13
1.0
 23
0.0
 33
0.0
 40
0.0
 40
0.0
 40
0.0
 40
0.0
 40
1.0
 40
1.0
 40
1.0
 40
1.0
 10
183.8561705028948
 20
115.3807142857143
 30
0.0
 10
184.1952033246494
 20
115.3807142857143
 30
0.0
 10
184.527693546166
 20
115.3807142857143
 30
0.0
 10
184.8513302017882
 20
115.3807142857143
 30
0.0
  0
LINE
  5
8F
330
1F
100
AcDbEntity
  8
0
  6
Continuous
 62
     7
370
    15
100
AcDbLine
 10
177.8413306667
 20
115.3807146448
 30
0.0
 11
183.8561704128
 21
115.3807146448
 31
0.0
  0
LINE
  5
90
330
1F
100
AcDbEntity
  8
0
  6
Continuous
 62
     7
370
    15
100
AcDbLine
 10
183.8561704128
 20
84.3018293354
 30
0.0
 11
182.341330473
 21
84.3018293354
 31
0.0
  0
SPLINE
  5
91
330
1F
100
AcDbEntity
  8
0
  6
Continuous
 62
     7
370
    15
100
AcDbSpline
210
0.0
220
0.0
230
1.0
 70
     8
 71
     3
 72
    22
 73
    18
 74
     0
 42
0.00000001
 43
0.00000001
 12
1.0
 22
0.0
 32
0.0
 13
1.0
 23
0.0
 33
0.0
 40
0.0
 40
0.0
 40
0.0
 40
0.0
 40
0.125
 40
0.125
 40
0.25
 40
0.25
 40
0.375
 40
0.375
 40
0.5
 40
0.5
 40
0.625
 40
0.625
 40
0.75
 40
0.75
 40
0.875
 40
0.875
 40
1.0
 40
1.0
 40
1.0
 40
1.0
 10
182.3413302017882
 20
84.30182976268489
 30
0.0
 10
182.0422057727476
 20
84.30182976268489
 30
0.0
 10
181.7483833244988
 20
84.2933156616185
 30
0.0
 10
181.1708190482524
 20
84.26087189273659
 30
0.0
 10
180.8840013704385
 20
84.23653800403456
 30
0.0
 10
180.3395388415392
 20
84.17607797927774
 30
0.0
 10
180.0815835709179
 20
84.14016455849924
 30
0.0
 10
179.5935256275579
 20
84.0604545324301
 30
0.0
 10
179.3638273288942
 20
84.01657623124076
 30
0.0
 10
178.9514083459416
 20
83.92833260887059
 30
0.0
 10
178.7658814030815
 20
83.88352426740963
 30
0.0
 10
178.4373613581807
 20
83.79620325949044
 30
0.0
 10
178.2989474712812
 20
83.75491247091477
 30
0.0
 10
178.0743553246653
 20
83.68057424762095
 30
0.0
 10
177.987276512541
 20
83.64716412188629
 30
0.0
 10
177.870774704586
 20
83.59214472036015
 30
0.0
 10
177.8413302017882
 20
83.57068295389392
 30
0.0
 10
177.8413302017882
 20
83.55572993027613
 30
0.0
  0
LINE
  5
92
330
1F
100
AcDbEntity
  8
0
  6
Continuous
 62
     7
370
    15
100
AcDbLine
 10
177.8413306667
 20
83.5557300571
 30
0.0
 11
177.8413306667
 21
83.5307147327
 31
0.0
  0
SPLINE
  5
93
330
1F
100
AcDbEntity
  8
0
  6
Continuous
 62
     7
370
    15
100
AcDbSpline
210
0.0
220
0.0
230
1.0
 70
     8
 71
     3
 72
    17
 73
    13
 74
     0
 42
0.00000001
 43
0.00000001
 12
1.0
 22
0.0
 32
0.0
 13
1.0
 23
0.0
 33
0.0
 40
0.0
 40
0.0
 40
0.0
 40
0.0
 40
0.1039928149931941
 40
0.211050797947968
 40
0.315030024669631
 40
0.4219351868122974
 40
0.5275775927633417
 40
0.6362134531400181
 40
0.7429488821168505
 40
0.8528788227495517
 40
0.9578277247781112
 40
1.0
 40
1.0
 40
1.0
 40
1.0
 10
182.3413304729893
 20
123.0178903761932
 30
0.0
 10
182.0955133887643
 20
123.0206062107862
 30
0.0
 10
181.5966338096479
 20
123.0261179286678
 30
0.0
 10
180.8731502661232
 20
123.0692016874434
 30
0.0
 10
180.1853549099155
 20
123.1330682996249
 30
0.0
 10
179.5606095377812
 20
123.2124038156498
 30
0.0
 10
179.0046587347189
 20
123.2993426074181
 30
0.0
 10
178.5426722281517
 20
123.3833021987371
 30
0.0
 10
178.18040709688
 20
123.4564650678281
 30
0.0
 10
177.9486281261263
 20
123.5066021081197
 30
0.0
 10
177.8390621818431
 20
123.5312222055022
 30
0.0
 10
177.8528930572076
 20
123.5281170574369
 30
0.0
 10
177.8568576766684
 20
123.5272269669601
 30
0.0
  0
LINE
  5
94
330
1F
100
AcDbEntity
  8
0
  6
Continuous
 62
     7
370
    15
100
AcDbLine
 10
183.8561704128
 20
123.0178903762
 30
0.0
 11
182.341330473
 21
123.0178903762
 31
0.0
  0
LINE
  5
95
330
1F
100
AcDbEntity
  8
0
  6
Continuous
 62
     7
370
    15
100
AcDbLine
 10
183.8561704128
 20
119.6421235773
 30
0.0
 11
183.8561704128
 21
123.0178903762
 31
0.0
  0
LINE
  5
96
330
1F
100
AcDbEntity
  8
0
  6
Continuous
 62
     7
370
    15
100
AcDbLine
 10
182.3350002734
 20
119.6421235773
 30
0.0
 11
183.8561704128
 21
119.6421235773
 31
0.0
  0
SPLINE
  5
97
330
1F
100
AcDbEntity
  8
0
  6
Continuous
 62
     7
370
    15
100
AcDbSpline
210
0.0
220
0.0
230
1.0
 70
     8
 71
     3
 72
    22
 73
    18
 74
     0
 42
0.00000001
 43
0.00000001
 12
1.0
 22
0.0
 32
0.0
 13
1.0
 23
0.0
 33
0.0
 40
0.0
 40
0.0
 40
0.0
 40
0.0
 40
0.2500000000000002
 40
0.2500000000000002
 40
0.3750000000000001
 40
0.3750000000000001
 40
0.5000000000000001
 40
0.5000000000000001
 40
0.6250000000000001
 40
0.6250000000000001
 40
0.75
 40
0.75
 40
0.875
 40
0.875
 40
0.9375000000000001
 40
0.9375000000000001
 40
1.0
 40
1.0
 40
1.0
 40
1.0
 10
177.8413302017882
 20
115.3807142857143
 30
0.0
 10
177.8633112197749
 20
115.9435869276123
 30
0.0
 10
177.9422881031296
 20
116.4742118113418
 30
0.0
 10
178.188685996162
 20
117.2199228022634
 30
0.0
 10
178.2932106112529
 20
117.4615430286621
 30
0.0
 10
178.5550572065594
 20
117.9204018039881
 30
0.0
 10
178.7102738287252
 20
118.1345804764579
 30
0.0
 10
179.0788655817892
 20
118.5318090356034
 30
0.0
 10
179.2949992742541
 20
118.7162538706232
 30
0.0
 10
179.778893769241
 20
119.0373337185068
 30
0.0
 10
180.0493593142487
 20
119.1766845486129
 30
0.0
 10
180.6455858797589
 20
119.4059900830384
 30
0.0
 10
180.9610791464788
 20
119.4925260925148
 30
0.0
 10
181.4617957944974
 20
119.581415696846
 30
0.0
 10
181.6345922291125
 20
119.6042242027076
 30
0.0
 10
181.9829610018946
 20
119.6345153654039
 30
0.0
 10
182.158362030805
 20
119.6421232867917
 30
0.0
 10
182.335000676493
 20
119.6421232867918
 30
0.0
  0
LINE
  5
98
330
1F
100
AcDbEntity
  8
0
  6
Continuous
 62
     7
370
    15
100
AcDbLine
 10
189.841330771
 20
84.9266815904
 30
0.0
 11
189.841330771
 21
115.3807146448
 31
0.0
  0
SPLINE
  5
99
330
1F
100
AcDbEntity
  8
0
  6
Continuous
 62
     7
370
    15
100
AcDbSpline
210
0.0
220
0.0
230
1.0
 70
     8
 71
     3
 72
    10
 73
     6
 74
     0
 42
0.00000001
 43
0.00000001
 12
1.0
 22
0.0
 32
0.0
 13
1.0
 23
0.0
 33
0.0
 40
0.0
 40
0.0
 40
0.0
 40
0.0
 40
0.5
 40
0.5
 40
1.0
 40
1.0
 40
1.0
 40
1.0
 10
189.8413302017882
 20
84.92668246462777
 30
0.0
 10
189.8413302017882
 20
84.76705029572454
 30
0.0
 10
189.7796936880829
 20
84.60600066196048
 30
0.0
 10
189.56066732184
 20
84.37300977828389
 30
0.0
 10
189.4030504337926
 20
84.30182976268489
 30
0.0
 10
189.2413302017882
 20
84.30182976268489
 30
0.0
  0
SPLINE
  5
9A
330
1F
100
AcDbEntity
  8
0
  6
Continuous
 62
     7
370
    15
100
AcDbSpline
210
0.0
220
0.0
230
1.0
 70
    24
 71
     3
 72
    12
 73
     8
 74
     0
 42
0.00000001
 43
0.00000001
 12
1.0
 22
0.0
 32
0.0
 13
1.0
 23
0.0
 33
0.0
 40
0.0
 40
0.0
 40
0.0
 40
0.0
 40
0.250000000000002
 40
0.250000000000002
 40
0.500000000000004
 40
0.500000000000004
 40
1.0
 40
1.0
 40
1.0
 40
1.0
 10
189.2413302017882
 20
115.3807142857143
 30
0.0
 10
189.3295170671571
 20
115.3807142857143
 30
0.0
 10
189.4182044604584
 20
115.3807142857143
 30
0.0
 10
189.5724569535772
 20
115.3807142857143
 30
0.0
 10
189.6378029346532
 20
115.3807142857143
 30
0.0
 10
189.7922128046043
 20
115.3807142857143
 30
0.0
 10
189.8413302017882
 20
115.3807142857143
 30
0.0
 10
189.8413302017882
 20
115.3807142857143
 30
0.0
  0
LINE
  5
9B
330
1F
100
AcDbEntity
  8
0
  6
Continuous
 62
     7
370
    15
100
AcDbLine
 10
189.2413299276
 20
84.3018293354
 30
0.0
 11
187.9264905794
 21
84.3018293354
 31
0.0
  0
LINE
  5
9C
330
1F
100
AcDbEntity
  8
0
  6
Continuous
 62
     7
370
    15
100
AcDbLine
 10
187.9264905794
 20
115.3807146448
 30
0.0
 11
189.2413299276
 21
115.3807146448
 31
0.0
  0
LINE
  5
9D
330
1F
100
AcDbEntity
  8
0
  6
Continuous
 62
     7
370
    15
100
AcDbLine
 10
169.8913302018
 20
83.8307142231
 30
0.0
 11
169.8913302018
 21
123.2307143483
 31
0.0
  0
SPLINE
  5
9E
330
1F
100
AcDbEntity
  8
0
  6
Continuous
 62
     7
370
    15
100
AcDbSpline
210
0.0
220
0.0
230
1.0
 70
     8
 71
     3
 72
    17
 73
    13
 74
     0
 42
0.00000001
 43
0.00000001
 12
1.0
 22
0.0
 32
0.0
 13
1.0
 23
0.0
 33
0.0
 40
0.0
 40
0.0
 40
0.0
 40
0.0
 40
0.1044651383187065
 40
0.2119962236663947
 40
0.3164511441489393
 40
0.4238674912415107
 40
0.5295672667075838
 40
0.638280227866137
 40
0.7447847553773642
 40
0.8544522996475357
 40
0.9596138028597321
 40
1.0
 40
1.0
 40
1.0
 40
1.0
 10
216.8913285924628
 20
121.187157926304
 30
0.0
 10
217.0832282675544
 20
121.1889850857352
 30
0.0
 10
217.4726596807222
 20
121.1926930298943
 30
0.0
 10
218.0375284726145
 20
121.2216802152051
 30
0.0
 10
218.5746241799113
 20
121.2646992501822
 30
0.0
 10
219.0616734067327
 20
121.3181018304853
 30
0.0
 10
219.4941084127379
 20
121.3765281035733
 30
0.0
 10
219.8520474907679
 20
121.4327508245378
 30
0.0
 10
220.1318264325942
 20
121.4815977455661
 30
0.0
 10
220.3101019546327
 20
121.5149356813623
 30
0.0
 10
220.3938174558931
 20
121.5311961310645
 30
0.0
 10
220.3825606244875
 20
121.5290132549445
 30
0.0
 10
220.3794371082022
 20
121.5284075561592
 30
0.0
  0
SPLINE
  5
9F
330
1F
100
AcDbEntity
  8
0
  6
Continuous
 62
     7
370
    15
100
AcDbSpline
210
0.0
220
0.0
230
1.0
 70
     8
 71
     3
 72
    16
 73
    12
 74
     0
 42
0.00000001
 43
0.00000001
 12
1.0
 22
0.0
 32
0.0
 13
1.0
 23
0.0
 33
0.0
 40
0.0
 40
0.0
 40
0.0
 40
0.0
 40
0.0921633363831519
 40
0.1993597978286742
 40
0.3033619765927384
 40
0.4102928597374786
 40
0.5158900000507814
 40
0.6244890744160593
 40
0.7310506332627299
 40
0.840768810782139
 40
1.0
 40
1.0
 40
1.0
 40
1.0
 10
213.3961159481242
 20
121.5297877762147
 30
0.0
 10
213.4013089315262
 20
121.5287703192542
 30
0.0
 10
213.4125419463213
 20
121.526569443918
 30
0.0
 10
213.5465552540262
 20
121.5008834362773
 30
0.0
 10
213.7699278070061
 20
121.4603236362176
 30
0.0
 10
214.0795735920181
 20
121.4085140237738
 30
0.0
 10
214.4709957566114
 20
121.3506327333104
 30
0.0
 10
214.9301933994235
 20
121.2934106714199
 30
0.0
 10
215.4517531740876
 20
121.2432821738618
 30
0.0
 10
216.1035002167792
 20
121.1984637486444
 30
0.0
 10
216.5983520725929
 20
121.1913623197808
 30
0.0
 10
216.8913285924628
 20
121.187157926304
 30
0.0
  0
SPLINE
  5
A0
330
1F
100
AcDbEntity
  8
0
  6
Continuous
 62
     7
370
    15
100
AcDbSpline
210
0.0
220
0.0
230
1.0
 70
     8
 71
     3
 72
    19
 73
    15
 74
     0
 42
0.00000001
 43
0.00000001
 12
1.0
 22
0.0
 32
0.0
 13
1.0
 23
0.0
 33
0.0
 40
0.0
 40
0.0
 40
0.0
 40
0.0
 40
0.0872664419476511
 40
0.1770586274232695
 40
0.2643283642466731
 40
0.354122689564786
 40
0.4415906314185583
 40
0.5315133547332194
 40
0.6204514474154796
 40
0.7119340751721374
 40
0.8013853657973832
 40
0.89349967434047
 40
0.9817217760624467
 40
1.0
 40
1.0
 40
1.0
 40
1.0
 10
205.8595742775634
 20
121.2172768983671
 30
0.0
 10
206.0443387745677
 20
121.2081325176116
 30
0.0
 10
206.4192153881436
 20
121.1895790912422
 30
0.0
 10
207.0001774270426
 20
121.1844667599913
 30
0.0
 10
207.5812038565936
 20
121.1975021860139
 30
0.0
 10
208.138431190809
 20
121.2283824761595
 30
0.0
 10
208.6656129512607
 20
121.2737295750851
 30
0.0
 10
209.142011607069
 20
121.3281662019432
 30
0.0
 10
209.5624514420522
 20
121.386717154284
 30
0.0
 10
209.9066855227375
 20
121.441947849942
 30
0.0
 10
210.1713246898571
 20
121.4888399361801
 30
0.0
 10
210.331002597333
 20
121.5189599193174
 30
0.0
 10
210.4005573857043
 20
121.5324996649056
 30
0.0
 10
210.3857313666231
 20
121.5296301896007
 30
0.0
 10
210.3831868364051
 20
121.5291377130577
 30
0.0
  0
SPLINE
  5
A1
330
1F
100
AcDbEntity
  8
0
  6
Continuous
 62
     7
370
    15
100
AcDbSpline
210
0.0
220
0.0
230
1.0
 70
     8
 71
     3
 72
    40
 73
    36
 74
     0
 42
0.00000001
 43
0.00000001
 12
1.0
 22
0.0
 32
0.0
 13
1.0
 23
0.0
 33
0.0
 40
0.0
 40
0.0
 40
0.0
 40
0.0
 40
0.0624999999999992
 40
0.0624999999999992
 40
0.1249999999999983
 40
0.1249999999999983
 40
0.1874999999999974
 40
0.1874999999999974
 40
0.2499999999999966
 40
0.2499999999999966
 40
0.2812499999999968
 40
0.2812499999999968
 40
0.3124999999999971
 40
0.3124999999999971
 40
0.3749999999999973
 40
0.3749999999999973
 40
0.4374999999999976
 40
0.4374999999999976
 40
0.4999999999999979
 40
0.4999999999999979
 40
0.5624999999999981
 40
0.5624999999999981
 40
0.6249999999999984
 40
0.6249999999999984
 40
0.6874999999999987
 40
0.6874999999999987
 40
0.7499999999999989
 40
0.7499999999999989
 40
0.8124999999999992
 40
0.8124999999999992
 40
0.8749999999999994
 40
0.8749999999999994
 40
0.9374999999999998
 40
0.9374999999999998
 40
1.0
 40
1.0
 40
1.0
 40
1.0
 10
205.8595760383401
 20
100.1862437227991
 30
0.0
 10
206.122785220606
 20
100.1050448709773
 30
0.0
 10
206.3904588212971
 20
100.0560285027869
 30
0.0
 10
206.9345019031747
 20
100.0203795959629
 30
0.0
 10
207.2125471941135
 20
100.0348909097822
 30
0.0
 10
207.7486992379945
 20
100.1264699102873
 30
0.0
 10
208.0129160345707
 20
100.2040214593455
 30
0.0
 10
208.5161825272777
 20
100.4186900471095
 30
0.0
 10
208.7513929361464
 20
100.5534043103886
 30
0.0
 10
209.080094332705
 20
100.7961460208064
 30
0.0
 10
209.1860556705828
 20
100.8844390090995
 30
0.0
 10
209.3846956327688
 20
101.0707007401524
 30
0.0
 10
209.4779613904097
 20
101.1690072605749
 30
0.0
 10
209.7399658133335
 20
101.47923699683
 30
0.0
 10
209.8926476188171
 20
101.7096531365151
 30
0.0
 10
210.1382170852318
 20
102.1958376947868
 30
0.0
 10
210.2317390239984
 20
102.4505277316372
 30
0.0
 10
210.3591730968337
 20
102.9837227442883
 30
0.0
 10
210.3912199581531
 20
103.2572783976001
 30
0.0
 10
210.3914398735313
 20
103.801320600103
 30
0.0
 10
210.3590257379132
 20
104.0777858173446
 30
0.0
 10
210.232628568413
 20
104.6077123438238
 30
0.0
 10
210.1394584154858
 20
104.8631088993389
 30
0.0
 10
209.8915323042448
 20
105.354007910847
 30
0.0
 10
209.7416009485763
 20
105.5800110295367
 30
0.0
 10
209.3916055070245
 20
105.9949147386529
 30
0.0
 10
209.1895711925149
 20
106.1842908687942
 30
0.0
 10
208.7538914947549
 20
106.506322755199
 30
0.0
 10
208.5162095589319
 20
106.6427500175419
 30
0.0
 10
208.012390845126
 20
106.8576080855526
 30
0.0
 10
207.7519280408454
 20
106.9342201924374
 30
0.0
 10
207.2139576597751
 20
107.0264821013797
 30
0.0
 10
206.9364918711906
 20
107.0409705582908
 30
0.0
 10
206.393795340075
 20
107.0058254691048
 30
0.0
 10
206.1227989799384
 20
106.956387945144
 30
0.0
 10
205.8595760383401
 20
106.8751848486298
 30
0.0
  0
SPLINE
  5
A2
330
1F
100
AcDbEntity
  8
0
  6
Continuous
 62
     7
370
    15
100
AcDbSpline
210
0.0
220
0.0
230
1.0
 70
     8
 71
     3
 72
    68
 73
    64
 74
     0
 42
0.00000001
 43
0.00000001
 12
1.0
 22
0.0
 32
0.0
 13
1.0
 23
0.0
 33
0.0
 40
-0.0312500000000003
 40
-0.0312500000000003
 40
0.0
 40
0.0
 40
0.0312499999999999
 40
0.0312499999999999
 40
0.0624999999999998
 40
0.0624999999999998
 40
0.0937499999999998
 40
0.0937499999999998
 40
0.1249999999999997
 40
0.1249999999999997
 40
0.1562499999999996
 40
0.1562499999999996
 40
0.1874999999999996
 40
0.1874999999999996
 40
0.2187499999999996
 40
0.2187499999999996
 40
0.2499999999999996
 40
0.2499999999999996
 40
0.2812499999999995
 40
0.2812499999999995
 40
0.3124999999999995
 40
0.3124999999999995
 40
0.3437499999999994
 40
0.3437499999999994
 40
0.3749999999999994
 40
0.3749999999999994
 40
0.4062499999999994
 40
0.4062499999999994
 40
0.4374999999999994
 40
0.4374999999999994
 40
0.4687499999999993
 40
0.4687499999999993
 40
0.4999999999999993
 40
0.4999999999999993
 40
0.5312499999999992
 40
0.5312499999999992
 40
0.5624999999999991
 40
0.5624999999999991
 40
0.5937499999999991
 40
0.5937499999999991
 40
0.624999999999999
 40
0.624999999999999
 40
0.6562499999999989
 40
0.6562499999999989
 40
0.6874999999999989
 40
0.6874999999999989
 40
0.718749999999999
 40
0.718749999999999
 40
0.749999999999999
 40
0.749999999999999
 40
0.781249999999999
 40
0.781249999999999
 40
0.812499999999999
 40
0.812499999999999
 40
0.8437499999999991
 40
0.8437499999999991
 40
0.8749999999999991
 40
0.8749999999999991
 40
0.9374999999999991
 40
0.9374999999999991
 40
0.9687499999999997
 40
0.9687499999999997
 40
1.0
 40
1.0
 40
1.03125
 40
1.03125
 10
216.6595105013683
 20
100.0307142857145
 30
0.0
 10
217.1231499022081
 20
100.0307142857145
 30
0.0
 10
217.3509824944912
 20
100.0535173491222
 30
0.0
 10
217.7990352128793
 20
100.1427576185073
 30
0.0
 10
218.0216155981894
 20
100.2103169689524
 30
0.0
 10
218.4451811856233
 20
100.3861744881426
 30
0.0
 10
218.645985184983
 20
100.4937066852529
 30
0.0
 10
219.0260136145476
 20
100.7476663158437
 30
0.0
 10
219.2055068517597
 20
100.8951057911312
 30
0.0
 10
219.5274806422393
 20
101.2171550019911
 30
0.0
 10
219.6721647298692
 20
101.3929853731168
 30
0.0
 10
219.9280567860878
 20
101.7753746523298
 30
0.0
 10
220.0364399011722
 20
101.9782293775042
 30
0.0
 10
220.2111873129089
 20
102.3991343401864
 30
0.0
 10
220.2786962118416
 20
102.62029283929
 30
0.0
 10
220.3688294118347
 20
103.0723313232245
 30
0.0
 10
220.3911948100413
 20
103.2997873021268
 30
0.0
 10
220.3914643796206
 20
103.7575187940924
 30
0.0
 10
220.3686101796564
 20
103.99005838558
 30
0.0
 10
220.2790769218938
 20
104.43936449728
 30
0.0
 10
220.212838523966
 20
104.657810676116
 30
0.0
 10
220.0370407383204
 20
105.0822519191293
 30
0.0
 10
219.9277022384813
 20
105.2863581621333
 30
0.0
 10
219.6746544292927
 20
105.6649464217779
 30
0.0
 10
219.5293877585469
 20
105.8423363696651
 30
0.0
 10
219.2040501025804
 20
106.1678094664503
 30
0.0
 10
219.0279387619149
 20
106.3122191978106
 30
0.0
 10
218.6494708168049
 20
106.5656454699508
 30
0.0
 10
218.4445993947444
 20
106.675519976478
 30
0.0
 10
218.0215622378021
 20
106.8511093771476
 30
0.0
 10
217.8034151767266
 20
106.9175536471301
 30
0.0
 10
217.3537370256608
 20
107.0076036700318
 30
0.0
 10
217.1214436133942
 20
107.030621534807
 30
0.0
 10
216.6640469544565
 20
107.0308064644912
 30
0.0
 10
216.4363535168505
 20
107.0087016240211
 30
0.0
 10
215.9830354181273
 20
106.9186930777426
 30
0.0
 10
215.7630073321191
 20
106.8516931742364
 30
0.0
 10
215.3415804533113
 20
106.6771867539433
 30
0.0
 10
215.1372305701138
 20
106.5680952792005
 30
0.0
 10
214.7560434923498
 20
106.3133568222122
 30
0.0
 10
214.580165780619
 20
106.169002783743
 30
0.0
 10
214.2572368211368
 20
105.8466588538155
 30
0.0
 10
214.1096027543769
 20
105.6670587696204
 30
0.0
 10
213.8559719847741
 20
105.2881487339946
 30
0.0
 10
213.7481802685245
 20
105.0874646011431
 30
0.0
 10
213.5715401249821
 20
104.6629054769459
 30
0.0
 10
213.5041779531942
 20
104.4413746176325
 30
0.0
 10
213.4145906662874
 20
103.9937313454116
 30
0.0
 10
213.3914974180037
 20
103.7643689477322
 30
0.0
 10
213.3911647976191
 20
103.3020963533613
 30
0.0
 10
213.4136731500991
 20
103.0744529660642
 30
0.0
 10
213.5025826559721
 20
102.6259142903025
 30
0.0
 10
213.5701661454541
 20
102.4027635459743
 30
0.0
 10
213.7453791527805
 20
101.9797805161376
 30
0.0
 10
213.8527042214446
 20
101.7787978145727
 30
0.0
 10
214.1069311317613
 20
101.3977396048731
 30
0.0
 10
214.2538987482574
 20
101.2186313861249
 30
0.0
 10
214.7362247110053
 20
100.7356099316354
 30
0.0
 10
215.1256251445216
 20
100.4745540979346
 30
0.0
 10
215.7569566991558
 20
100.2118057125262
 30
0.0
 10
215.9788613478504
 20
100.1439050761088
 30
0.0
 10
216.430674221397
 20
100.0535211505254
 30
0.0
 10
216.6595105013683
 20
100.0307142857145
 30
0.0
 10
217.1231499022081
 20
100.0307142857145
 30
0.0
  0
LINE
  5
A3
330
1F
100
AcDbEntity
  8
0
  6
Continuous
 62
     7
370
    15
100
AcDbLine
 10
224.8913299038
 20
103.5307142857
 30
0.0
 11
224.8913299038
 21
86.5307133618
 31
0.0
  0
LINE
  5
A4
330
1F
100
AcDbEntity
  8
0
  6
Continuous
 62
     7
370
    15
100
AcDbLine
 10
224.8913299038
 20
120.5307152096
 30
0.0
 11
224.8913299038
 21
103.5307142857
 31
0.0
  0
SPLINE
  5
A5
330
1F
100
AcDbEntity
  8
0
  6
Continuous
 62
     7
370
    15
100
AcDbSpline
210
0.0
220
0.0
230
1.0
 70
    24
 71
     3
 72
    16
 73
    12
 74
     0
 42
0.00000001
 43
0.00000001
 12
1.0
 22
0.0
 32
0.0
 13
1.0
 23
0.0
 33
0.0
 40
0.0
 40
0.0
 40
0.0
 40
0.0
 40
0.5000000000000001
 40
0.5000000000000001
 40
0.7499999999999993
 40
0.7499999999999993
 40
0.8749999999999983
 40
0.8749999999999983
 40
0.9374999999999991
 40
0.9374999999999991
 40
1.0
 40
1.0
 40
1.0
 40
1.0
 10
186.896107801207
 20
86.63071428571429
 30
0.0
 10
186.8660713816803
 20
86.63071428571429
 30
0.0
 10
186.8194372844755
 20
86.63071428571429
 30
0.0
 10
186.7090528728968
 20
86.63071428571429
 30
0.0
 10
186.6657152243762
 20
86.63071428571429
 30
0.0
 10
186.5772335899916
 20
86.63071428571429
 30
0.0
 10
186.5438580853749
 20
86.63071428571429
 30
0.0
 10
186.4793658759244
 20
86.63071428571429
 30
0.0
 10
186.4551615387378
 20
86.63071428571429
 30
0.0
 10
186.3994077289274
 20
86.63071428571429
 30
0.0
 10
186.3658237028592
 20
86.63071428571429
 30
0.0
 10
186.3313302017882
 20
86.63071428571429
 30
0.0
  0
SPLINE
  5
A6
330
1F
100
AcDbEntity
  8
0
  6
Continuous
 62
     7
370
    15
100
AcDbSpline
210
0.0
220
0.0
230
1.0
 70
    24
 71
     3
 72
    12
 73
     8
 74
     0
 42
0.00000001
 43
0.00000001
 12
1.0
 22
0.0
 32
0.0
 13
1.0
 23
0.0
 33
0.0
 40
0.0
 40
0.0
 40
0.0
 40
0.0
 40
0.249999999999999
 40
0.249999999999999
 40
0.499999999999998
 40
0.499999999999998
 40
1.0
 40
1.0
 40
1.0
 40
1.0
 10
186.3313302017882
 20
115.3807142857143
 30
0.0
 10
186.4239882912944
 20
115.3807142857143
 30
0.0
 10
186.5160517008522
 20
115.3807142857143
 30
0.0
 10
186.6702092513429
 20
115.3807142857143
 30
0.0
 10
186.7346981847076
 20
115.3807142857143
 30
0.0
 10
186.8847497336571
 20
115.3807142857143
 30
0.0
 10
186.9313302017882
 20
115.3807142857143
 30
0.0
 10
186.9313302017882
 20
115.3807142857143
 30
0.0
  0
SPLINE
  5
A7
330
1F
100
AcDbEntity
  8
0
  6
Continuous
 62
     7
370
    15
100
AcDbSpline
210
0.0
220
0.0
230
1.0
 70
    24
 71
     3
 72
    16
 73
    12
 74
     0
 42
0.00000001
 43
0.00000001
 12
1.0
 22
0.0
 32
0.0
 13
1.0
 23
0.0
 33
0.0
 40
0.0
 40
0.0
 40
0.0
 40
0.0
 40
0.0624999999999997
 40
0.0624999999999997
 40
0.1249999999999994
 40
0.1249999999999994
 40
0.2499999999999988
 40
0.2499999999999988
 40
0.499999999999999
 40
0.499999999999999
 40
1.0
 40
1.0
 40
1.0
 40
1.0
 10
185.4513302017616
 20
86.63071428571429
 30
0.0
 10
185.4168515345764
 20
86.63071428571429
 30
0.0
 10
185.3830313577396
 20
86.63071428571429
 30
0.0
 10
185.3265092905559
 20
86.63071428571429
 30
0.0
 10
185.3021832110296
 20
86.63071428571429
 30
0.0
 10
185.2377303114784
 20
86.63071428571429
 30
0.0
 10
185.2041020361198
 20
86.63071428571429
 30
0.0
 10
185.1160247205949
 20
86.63071428571429
 30
0.0
 10
185.0732052673273
 20
86.63071428571429
 30
0.0
 10
184.9625486331303
 20
86.63071428571429
 30
0.0
 10
184.9163160471863
 20
86.63071428571429
 30
0.0
 10
184.8865526023696
 20
86.63071428571429
 30
0.0
  0
SPLINE
  5
A8
330
1F
100
AcDbEntity
  8
0
  6
Continuous
 62
     7
370
    15
100
AcDbSpline
210
0.0
220
0.0
230
1.0
 70
    24
 71
     3
 72
    12
 73
     8
 74
     0
 42
0.00000001
 43
0.00000001
 12
1.0
 22
0.0
 32
0.0
 13
1.0
 23
0.0
 33
0.0
 40
0.0
 40
0.0
 40
0.0
 40
0.0
 40
0.5000000000000013
 40
0.5000000000000013
 40
0.7500000000000007
 40
0.7500000000000007
 40
1.0
 40
1.0
 40
1.0
 40
1.0
 10
184.8513302017882
 20
115.3807142857143
 30
0.0
 10
184.8513302017882
 20
115.3807142857143
 30
0.0
 10
184.8983262992965
 20
115.3807142857143
 30
0.0
 10
185.0478322372968
 20
115.3807142857143
 30
0.0
 10
185.1123508598552
 20
115.3807142857143
 30
0.0
 10
185.2667905525842
 20
115.3807142857143
 30
0.0
 10
185.3577289405872
 20
115.3807142857143
 30
0.0
 10
185.4513302017882
 20
115.3807142857143
 30
0.0
  0
SPLINE
  5
A9
330
1F
100
AcDbEntity
  8
0
  6
Continuous
 62
     7
370
    15
100
AcDbSpline
210
0.0
220
0.0
230
1.0
 70
     8
 71
     3
 72
    10
 73
     6
 74
     0
 42
0.00000001
 43
0.00000001
 12
1.0
 22
0.0
 32
0.0
 13
1.0
 23
0.0
 33
0.0
 40
0.0
 40
0.0
 40
0.0
 40
0.0
 40
0.5
 40
0.5
 40
1.0
 40
1.0
 40
1.0
 40
1.0
 10
204.8913302017882
 20
120.5399029788883
 30
0.0
 10
204.9489687434098
 20
120.7595192205968
 30
0.0
 10
205.0823417909338
 20
120.9394665338529
 30
0.0
 10
205.4286169932315
 20
121.173698157095
 30
0.0
 10
205.6401117761556
 20
121.2300800057517
 30
0.0
 10
205.8595760383401
 20
121.2172774525309
 30
0.0
  0
SPLINE
  5
AA
330
1F
100
AcDbEntity
  8
0
  6
Continuous
 62
     7
370
    15
100
AcDbSpline
210
0.0
220
0.0
230
1.0
 70
     8
 71
     3
 72
    14
 73
    10
 74
     0
 42
0.00000001
 43
0.00000001
 12
1.0
 22
0.0
 32
0.0
 13
1.0
 23
0.0
 33
0.0
 40
0.0
 40
0.0
 40
0.0
 40
0.0
 40
0.25
 40
0.25
 40
0.5
 40
0.5
 40
0.75
 40
0.75
 40
1.0
 40
1.0
 40
1.0
 40
1.0
 10
205.8595760383401
 20
106.8751848486298
 30
0.0
 10
205.7497294101014
 20
106.8412976566531
 30
0.0
 10
205.6435708776783
 20
106.8026390142417
 30
0.0
 10
205.4381499473184
 20
106.716724629086
 30
0.0
 10
205.3424881131061
 20
106.6708899933474
 30
0.0
 10
205.1691024727234
 20
106.5792462175993
 30
0.0
 10
205.0926667792194
 20
106.5340793043847
 30
0.0
 10
204.9682885318256
 20
106.4560009859622
 30
0.0
 10
204.920189673247
 20
106.4230907655581
 30
0.0
 10
204.8913302017882
 20
106.4029956089835
 30
0.0
  0
SPLINE
  5
AB
330
1F
100
AcDbEntity
  8
0
  6
Continuous
 62
     7
370
    15
100
AcDbSpline
210
0.0
220
0.0
230
1.0
 70
     8
 71
     3
 72
    10
 73
     6
 74
     0
 42
0.00000001
 43
0.00000001
 12
1.0
 22
0.0
 32
0.0
 13
1.0
 23
0.0
 33
0.0
 40
0.0
 40
0.0
 40
0.0
 40
0.0
 40
0.5
 40
0.5
 40
1.0
 40
1.0
 40
1.0
 40
1.0
 10
204.8913302017882
 20
100.6584329624455
 30
0.0
 10
204.9489687434098
 20
100.6182986335727
 30
0.0
 10
205.0823417909338
 20
100.5280627462535
 30
0.0
 10
205.4286169932315
 20
100.3449921685883
 30
0.0
 10
205.6401117761556
 20
100.2539474630406
 30
0.0
 10
205.8595760383401
 20
100.1862437227991
 30
0.0
  0
SPLINE
  5
AC
330
1F
100
AcDbEntity
  8
0
  6
Continuous
 62
     7
370
    15
100
AcDbSpline
210
0.0
220
0.0
230
1.0
 70
     8
 71
     3
 72
    10
 73
     6
 74
     0
 42
0.00000001
 43
0.00000001
 12
1.0
 22
0.0
 32
0.0
 13
1.0
 23
0.0
 33
0.0
 40
0.0
 40
0.0
 40
0.0
 40
0.0
 40
0.0000100224852105
 40
0.8297491912727495
 40
1.0
 40
1.0
 40
1.0
 40
1.0
 10
190.0413304312661
 20
120.4307135168144
 30
0.0
 10
190.0413304312677
 20
120.4307135168144
 30
0.0
 10
190.0413305689918
 20
120.430713516994
 30
0.0
 10
190.0001541160721
 20
120.4307135168008
 30
0.0
 10
189.9476458059799
 20
120.4307135168124
 30
0.0
 10
189.9387061341241
 20
120.4307135168144
 30
0.0
  0
LINE
  5
AD
330
1F
100
AcDbEntity
  8
0
  6
Continuous
 62
     7
370
    15
100
AcDbLine
 10
189.8447189225
 20
120.4307135168
 30
0.0
 11
189.8413922383
 21
120.4307135168
 31
0.0
  0
SPLINE
  5
AE
330
1F
100
AcDbEntity
  8
0
  6
Continuous
 62
     7
370
    15
100
AcDbSpline
210
0.0
220
0.0
230
1.0
 70
     8
 71
     3
 72
    10
 73
     6
 74
     0
 42
0.00000001
 43
0.00000001
 12
1.0
 22
0.0
 32
0.0
 13
1.0
 23
0.0
 33
0.0
 40
0.0
 40
0.0
 40
0.0
 40
0.0
 40
0.0000098434885725
 40
0.8383950128568723
 40
1.0
 40
1.0
 40
1.0
 40
1.0
 10
190.0413304312661
 20
86.63071505461421
 30
0.0
 10
190.0413304312677
 20
86.63071505461421
 30
0.0
 10
190.0413305647805
 20
86.6307150548493
 30
0.0
 10
190.0005589446351
 20
86.63071505459756
 30
0.0
 10
189.9487352181144
 20
86.6307150546119
 30
0.0
 10
189.9403601630166
 20
86.63071505461421
 30
0.0
  0
SPLINE
  5
AF
330
1F
100
AcDbEntity
  8
0
  6
Continuous
 62
     7
370
    15
100
AcDbSpline
210
0.0
220
0.0
230
1.0
 70
    24
 71
     3
 72
    12
 73
     8
 74
     0
 42
0.00000001
 43
0.00000001
 12
1.0
 22
0.0
 32
0.0
 13
1.0
 23
0.0
 33
0.0
 40
0.0
 40
0.0
 40
0.0
 40
0.0
 40
0.5
 40
0.5
 40
0.75
 40
0.75
 40
1.0
 40
1.0
 40
1.0
 40
1.0
 10
189.8413302017882
 20
115.3807142857143
 30
0.0
 10
189.8413302017882
 20
115.3807142857143
 30
0.0
 10
189.8685509499158
 20
115.3807142857143
 30
0.0
 10
189.9489973956888
 20
115.3807142857143
 30
0.0
 10
189.9824446241668
 20
115.3807142857143
 30
0.0
 10
190.0648541939411
 20
115.3807142857143
 30
0.0
 10
190.1141372908247
 20
115.3807142857143
 30
0.0
 10
190.1704539134613
 20
115.3807142857143
 30
0.0
  0
SPLINE
  5
B0
330
1F
100
AcDbEntity
  8
0
  6
Continuous
 62
     7
370
    15
100
AcDbSpline
210
0.0
220
0.0
230
1.0
 70
     8
 71
     3
 72
    10
 73
     6
 74
     0
 42
0.00000001
 43
0.00000001
 12
1.0
 22
0.0
 32
0.0
 13
1.0
 23
0.0
 33
0.0
 40
0.0
 40
0.0
 40
0.0
 40
0.0
 40
0.5
 40
0.5
 40
1.0
 40
1.0
 40
1.0
 40
1.0
 10
189.8413302017882
 20
116.4081169741449
 30
0.0
 10
189.8413302017882
 20
116.2254082620099
 30
0.0
 10
189.8683035354963
 20
116.0418999722491
 30
0.0
 10
189.975893903282
 20
115.6935959939285
 30
0.0
 10
190.0573584476252
 20
115.5254084113856
 30
0.0
 10
190.170453913461
 20
115.3807142857129
 30
0.0
  0
LINE
  5
B1
330
1F
100
AcDbEntity
  8
0
  6
Continuous
 62
     7
370
    15
100
AcDbLine
 10
186.3313305868
 20
86.6307150546
 30
0.0
 11
185.4513304053
 21
86.6307150546
 31
0.0
  0
LINE
  5
B2
330
1F
100
AcDbEntity
  8
0
  6
Continuous
 62
     7
370
    15
100
AcDbLine
 10
185.4513304053
 20
115.3807146448
 30
0.0
 11
186.3313305868
 21
115.3807146448
 31
0.0
  0
SPLINE
  5
B3
330
1F
100
AcDbEntity
  8
0
  6
Continuous
 62
     7
370
    15
100
AcDbSpline
210
0.0
220
0.0
230
1.0
 70
     8
 71
     3
 72
    16
 73
    12
 74
     0
 42
0.00000001
 43
0.00000001
 12
1.0
 22
0.0
 32
0.0
 13
1.0
 23
0.0
 33
0.0
 40
0.0
 40
0.0
 40
0.0
 40
0.0
 40
0.2499999999999992
 40
0.2499999999999992
 40
0.4999999999999983
 40
0.4999999999999983
 40
0.7499999999999976
 40
0.7499999999999976
 40
0.8749999999999988
 40
0.8749999999999988
 40
1.0
 40
1.0
 40
1.0
 40
1.0
 10
203.9230843652364
 20
101.6761208925976
 30
0.0
 10
203.9968885030483
 20
101.5579985992726
 30
0.0
 10
204.0771377850924
 20
101.445211871336
 30
0.0
 10
204.249862853084
 20
101.2303557214258
 30
0.0
 10
204.3443438084065
 20
101.1264456264134
 30
0.0
 10
204.5339189480027
 20
100.9402973975101
 30
0.0
 10
204.6300315317518
 20
100.8573058703292
 30
0.0
 10
204.7507319919089
 20
100.7611501753351
 30
0.0
 10
204.7879227609271
 20
100.7330152513789
 30
0.0
 10
204.8491347261854
 20
100.6880253494397
 30
0.0
 10
204.8736122453926
 20
100.6707701637161
 30
0.0
 10
204.8913302017882
 20
100.6584329624455
 30
0.0
  0
SPLINE
  5
B4
330
1F
100
AcDbEntity
  8
0
  6
Continuous
 62
     7
370
    15
100
AcDbSpline
210
0.0
220
0.0
230
1.0
 70
     8
 71
     3
 72
    16
 73
    12
 74
     0
 42
0.00000001
 43
0.00000001
 12
1.0
 22
0.0
 32
0.0
 13
1.0
 23
0.0
 33
0.0
 40
0.0
 40
0.0
 40
0.0
 40
0.0
 40
0.2499999999999972
 40
0.2499999999999972
 40
0.4999999999999943
 40
0.4999999999999943
 40
0.7499999999999916
 40
0.7499999999999916
 40
0.8749999999999958
 40
0.8749999999999958
 40
1.0
 40
1.0
 40
1.0
 40
1.0
 10
203.9230843652364
 20
119.9261552174553
 30
0.0
 10
203.9968885030483
 20
119.9127936478767
 30
0.0
 10
204.0771377850924
 20
119.9067299478126
 30
0.0
 10
204.249862853084
 20
119.9211331245609
 30
0.0
 10
204.3443438084065
 20
119.942090231232
 30
0.0
 10
204.5339189480027
 20
120.0293590282657
 30
0.0
 10
204.6300315317518
 20
120.0972481231426
 30
0.0
 10
204.7507319919089
 20
120.2376973872913
 30
0.0
 10
204.7879227609271
 20
120.2921003552564
 30
0.0
 10
204.8491347261854
 20
120.4094005042196
 30
0.0
 10
204.8736122453926
 20
120.4723934464665
 30
0.0
 10
204.8913302017882
 20
120.5399029788883
 30
0.0
  0
SPLINE
  5
B5
330
1F
100
AcDbEntity
  8
0
  6
Continuous
 62
     7
370
    15
100
AcDbSpline
210
0.0
220
0.0
230
1.0
 70
     8
 71
     3
 72
    12
 73
     8
 74
     0
 42
0.00000001
 43
0.00000001
 12
1.0
 22
0.0
 32
0.0
 13
1.0
 23
0.0
 33
0.0
 40
0.0
 40
0.0
 40
0.0
 40
0.0
 40
0.2499999999999999
 40
0.2499999999999999
 40
0.4999999999999998
 40
0.4999999999999998
 40
1.0
 40
1.0
 40
1.0
 40
1.0
 10
204.8913302017882
 20
106.4029956089835
 30
0.0
 10
204.8560896506839
 20
106.3784572388602
 30
0.0
 10
204.7917417364885
 20
106.3329043733833
 30
0.0
 10
204.631093754964
 20
106.2050127386731
 30
0.0
 10
204.5356757115332
 20
106.1227582392564
 30
0.0
 10
204.2499414542947
 20
105.8424809743796
 30
0.0
 10
204.070689971973
 20
105.6215479939734
 30
0.0
 10
203.9230843652357
 20
105.3853076788317
 30
0.0
  0
SPLINE
  5
B6
330
1F
100
AcDbEntity
  8
0
  6
Continuous
 62
     7
370
    15
100
AcDbSpline
210
0.0
220
0.0
230
1.0
 70
     8
 71
     3
 72
    11
 73
     7
 74
     0
 42
0.00000001
 43
0.00000001
 12
1.0
 22
0.0
 32
0.0
 13
1.0
 23
0.0
 33
0.0
 40
0.0
 40
0.0
 40
0.0
 40
0.0
 40
0.2941306025925641
 40
0.5966738956710793
 40
0.8908449756985978
 40
1.0
 40
1.0
 40
1.0
 40
1.0
 10
203.923082698746
 20
119.9261546108552
 30
0.0
 10
203.829127303402
 20
119.9436934895102
 30
0.0
 10
203.6385292110407
 20
119.9792728918591
 30
0.0
 10
203.4704857709946
 20
120.0140330381962
 30
0.0
 10
203.3882826518173
 20
120.0313521220846
 30
0.0
 10
203.3997938741768
 20
120.0289209269851
 30
0.0
 10
203.4029092385009
 20
120.0282629552909
 30
0.0
  0
SPLINE
  5
B7
330
1F
100
AcDbEntity
  8
0
  6
Continuous
 62
     7
370
    15
100
AcDbSpline
210
0.0
220
0.0
230
1.0
 70
     8
 71
     3
 72
    17
 73
    13
 74
     0
 42
0.00000001
 43
0.00000001
 12
1.0
 22
0.0
 32
0.0
 13
1.0
 23
0.0
 33
0.0
 40
0.0
 40
0.0
 40
0.0
 40
0.0
 40
0.1042004491776818
 40
0.2114663782287819
 40
0.3156547556445763
 40
0.4227847447432687
 40
0.528452610770275
 40
0.6371228949263706
 40
0.7437564749877031
 40
0.8535706090661521
 40
0.9586116464926276
 40
1.0
 40
1.0
 40
1.0
 40
1.0
 10
196.8913309021428
 20
119.6552291486093
 30
0.0
 10
196.6998283389107
 20
119.6572215955225
 30
0.0
 10
196.3111893859329
 20
119.6612651052757
 30
0.0
 10
195.747530539027
 20
119.692870293003
 30
0.0
 10
195.2116355533139
 20
119.7397435559237
 30
0.0
 10
194.7252213501676
 20
119.7979564488346
 30
0.0
 10
194.292800803893
 20
119.8616965589825
 30
0.0
 10
193.9340843154669
 20
119.9231606837076
 30
0.0
 10
193.6531945926262
 20
119.9766519837077
 30
0.0
 10
193.4738003404827
 20
120.0132386369811
 30
0.0
 10
193.3892488824011
 20
120.0311538154864
 30
0.0
 10
193.4002258974222
 20
120.0288302932508
 30
0.0
 10
193.4033285571768
 20
120.0281735483238
 30
0.0
  0
SPLINE
  5
B8
330
1F
100
AcDbEntity
  8
0
  6
Continuous
 62
     7
370
    15
100
AcDbSpline
210
0.0
220
0.0
230
1.0
 70
     8
 71
     3
 72
    16
 73
    12
 74
     0
 42
0.00000001
 43
0.00000001
 12
1.0
 22
0.0
 32
0.0
 13
1.0
 23
0.0
 33
0.0
 40
0.0
 40
0.0
 40
0.0
 40
0.0
 40
0.0883342487271794
 40
0.1952367651290565
 40
0.2988736044508619
 40
0.4054141498670032
 40
0.5109153916638526
 40
0.6194017568331794
 40
0.726103384374065
 40
0.8359759303501465
 40
1.0
 40
1.0
 40
1.0
 40
1.0
 10
200.3853849811986
 20
120.0294587734767
 30
0.0
 10
200.3812246528386
 20
120.0285681182516
 30
0.0
 10
200.3720294758537
 20
120.0265995879532
 30
0.0
 10
200.2427556433202
 20
119.9995376386486
 30
0.0
 10
200.0238264481057
 20
119.9560352865385
 30
0.0
 10
199.7186348999375
 20
119.9000344619428
 30
0.0
 10
199.3315340121653
 20
119.8370741674139
 30
0.0
 10
198.8756276102127
 20
119.7743567004645
 30
0.0
 10
198.3562950968171
 20
119.7189683635681
 30
0.0
 10
197.6976027475089
 20
119.6682924535502
 30
0.0
 10
197.1933216364644
 20
119.6601220356355
 30
0.0
 10
196.8913309021428
 20
119.6552291486093
 30
0.0
  0
SPLINE
  5
B9
330
1F
100
AcDbEntity
  8
0
  6
Continuous
 62
     7
370
    15
100
AcDbSpline
210
0.0
220
0.0
230
1.0
 70
     8
 71
     3
 72
    70
 73
    66
 74
     0
 42
0.00000001
 43
0.00000001
 12
1.0
 22
0.0
 32
0.0
 13
1.0
 23
0.0
 33
0.0
 40
-0.03125
 40
-0.03125
 40
0.0
 40
0.0
 40
0.03125
 40
0.03125
 40
0.0625
 40
0.0625
 40
0.09375
 40
0.09375
 40
0.125
 40
0.125
 40
0.15625
 40
0.15625
 40
0.1875
 40
0.1875
 40
0.21875
 40
0.21875
 40
0.25
 40
0.25
 40
0.28125
 40
0.28125
 40
0.3125
 40
0.3125
 40
0.34375
 40
0.34375
 40
0.375
 40
0.375
 40
0.40625
 40
0.40625
 40
0.4375
 40
0.4375
 40
0.46875
 40
0.46875
 40
0.5
 40
0.5
 40
0.53125
 40
0.53125
 40
0.5625
 40
0.5625
 40
0.59375
 40
0.59375
 40
0.625
 40
0.625
 40
0.65625
 40
0.65625
 40
0.6875
 40
0.6875
 40
0.71875
 40
0.71875
 40
0.75
 40
0.75
 40
0.78125
 40
0.78125
 40
0.8125
 40
0.8125
 40
0.84375
 40
0.84375
 40
0.875
 40
0.875
 40
0.90625
 40
0.90625
 40
0.9375
 40
0.9375
 40
0.96875
 40
0.96875
 40
1.0
 40
1.0
 40
1.03125
 40
1.03125
 10
197.1232650877173
 20
100.0307142857145
 30
0.0
 10
196.6593953158591
 20
100.0307142857145
 30
0.0
 10
196.4314720392377
 20
100.0535395811364
 30
0.0
 10
195.9832776053804
 20
100.1428456433408
 30
0.0
 10
195.7606401428605
 20
100.2104561687714
 30
0.0
 10
195.3371330274503
 20
100.3863470813688
 30
0.0
 10
195.1363738196206
 20
100.4938836466652
 30
0.0
 10
194.7564300038673
 20
100.747835672031
 30
0.0
 10
194.5770664285795
 20
100.895192534488
 30
0.0
 10
194.2552607297849
 20
101.2170744148732
 30
0.0
 10
194.1106125023051
 20
101.3928346276787
 30
0.0
 10
193.8547110409807
 20
101.7751903101794
 30
0.0
 10
193.7463990020605
 20
101.9778694677889
 30
0.0
 10
193.5716106702038
 20
102.3987330530095
 30
0.0
 10
193.5040377935718
 20
102.6200115555579
 30
0.0
 10
193.4138593607991
 20
103.072101299041
 30
0.0
 10
193.3914680629282
 20
103.2996299300721
 30
0.0
 10
193.3911935977246
 20
103.7576035171523
 30
0.0
 10
193.4140751097879
 20
103.9902711196657
 30
0.0
 10
193.503661179133
 20
104.4396664579521
 30
0.0
 10
193.5699373647703
 20
104.658169216744
 30
0.0
 10
193.7458601791
 20
105.0827527310071
 30
0.0
 10
193.8551441349809
 20
105.2866714587987
 30
0.0
 10
194.1081532339355
 20
105.6651316281278
 30
0.0
 10
194.2535723596064
 20
105.8426540201094
 30
0.0
 10
194.5785818074805
 20
106.167763135109
 30
0.0
 10
194.7545646939973
 20
106.3120954022645
 30
0.0
 10
195.1329498054818
 20
106.5655035918561
 30
0.0
 10
195.3378597901561
 20
106.6754133416688
 30
0.0
 10
195.7606968644837
 20
106.8509658919805
 30
0.0
 10
195.9788470109985
 20
106.9174560501014
 30
0.0
 10
196.4287982503195
 20
107.0075964444865
 30
0.0
 10
196.6611237332039
 20
107.0306196818181
 30
0.0
 10
197.1186509606318
 20
107.0308082948022
 30
0.0
 10
197.3464878869336
 20
107.0086933698273
 30
0.0
 10
197.800250689615
 20
106.9185411075402
 30
0.0
 10
198.0199872769849
 20
106.8515820825863
 30
0.0
 10
198.4414614401757
 20
106.6770014406746
 30
0.0
 10
198.6459550958732
 20
106.5677755673691
 30
0.0
 10
199.0267537244583
 20
106.3132340298125
 30
0.0
 10
199.2025505866644
 20
106.1689549042478
 30
0.0
 10
199.5254903244477
 20
105.8465842468601
 30
0.0
 10
199.6730037320007
 20
105.6671121071465
 30
0.0
 10
199.9264837510605
 20
105.2884816800088
 30
0.0
 10
200.0343172619824
 20
105.0878205310119
 30
0.0
 10
200.2111236771758
 20
104.6629328160635
 30
0.0
 10
200.2783970139439
 20
104.4417051116541
 30
0.0
 10
200.3680413914095
 20
103.9939692683267
 30
0.0
 10
200.3911767432332
 20
103.7640795051509
 30
0.0
 10
200.3914821317458
 20
103.3019751187111
 30
0.0
 10
200.3689764733131
 20
103.0742929544227
 30
0.0
 10
200.2799662365613
 20
102.6254575015111
 30
0.0
 10
200.2122869450341
 20
102.4021761388674
 30
0.0
 10
200.0370985518121
 20
101.9794265859673
 30
0.0
 10
199.9297630227403
 20
101.778445108853
 30
0.0
 10
199.6753272670533
 20
101.3972003728906
 30
0.0
 10
199.5286002742827
 20
101.2184604409643
 30
0.0
 10
199.20722894465
 20
100.8966443757371
 30
0.0
 10
199.0308260659231
 20
100.7512092491174
 30
0.0
 10
198.647975829365
 20
100.4947157777711
 30
0.0
 10
198.4469178282429
 20
100.3871298745737
 30
0.0
 10
198.0259715025411
 20
100.2118944755754
 30
0.0
 10
197.8037043506041
 20
100.1438869183968
 30
0.0
 10
197.3521039128276
 20
100.0535439144708
 30
0.0
 10
197.1232650877173
 20
100.0307142857145
 30
0.0
 10
196.6593953158591
 20
100.0307142857145
 30
0.0
  0
SPLINE
  5
BA
330
1F
100
AcDbEntity
  8
0
  6
Continuous
 62
     7
370
    15
100
AcDbSpline
210
0.0
220
0.0
230
1.0
 70
     8
 71
     3
 72
    18
 73
    14
 74
     0
 42
0.00000001
 43
0.00000001
 12
1.0
 22
0.0
 32
0.0
 13
1.0
 23
0.0
 33
0.0
 40
0.0
 40
0.0
 40
0.0
 40
0.0
 40
0.25
 40
0.25
 40
0.375
 40
0.375
 40
0.5
 40
0.5
 40
0.625
 40
0.625
 40
0.75
 40
0.75
 40
1.0
 40
1.0
 40
1.0
 40
1.0
 10
203.9230843652364
 20
101.6761208925976
 30
0.0
 10
203.7494709088533
 20
101.9539863379243
 30
0.0
 10
203.617917941345
 20
102.2496497992697
 30
0.0
 10
203.4826728825763
 20
102.7197618879155
 30
0.0
 10
203.4482336153443
 20
102.8814356272478
 30
0.0
 10
203.4028446465333
 20
103.203689193865
 30
0.0
 10
203.391456565929
 20
103.3655073877469
 30
0.0
 10
203.3912059191829
 20
103.6905228976068
 30
0.0
 10
203.4025312963831
 20
103.8548999801448
 30
0.0
 10
203.4480396049173
 20
104.179223369945
 30
0.0
 10
203.4818850720789
 20
104.3381445124199
 30
0.0
 10
203.6156751113318
 20
104.8055171655166
 30
0.0
 10
203.7494594912326
 20
105.1074239597928
 30
0.0
 10
203.9230843652364
 20
105.3853076788313
 30
0.0
  0
LINE
  5
BB
330
1F
100
AcDbEntity
  8
0
  6
Continuous
 62
     7
370
    15
100
AcDbLine
 10
156.0913303612
 20
89.0181958649
 30
0.0
 11
156.0913303612
 21
89.8939678419
 31
0.0
  0
SPLINE
  5
BC
330
1F
100
AcDbEntity
  8
0
  6
Continuous
 62
     7
370
    15
100
AcDbSpline
210
0.0
220
0.0
230
1.0
 70
     8
 71
     3
 72
    12
 73
     8
 74
     0
 42
0.00000001
 43
0.00000001
 12
1.0
 22
0.0
 32
0.0
 13
1.0
 23
0.0
 33
0.0
 40
0.0
 40
0.0
 40
0.0
 40
0.0
 40
0.25
 40
0.25
 40
0.5
 40
0.5
 40
1.0
 40
1.0
 40
1.0
 40
1.0
 10
155.7235951089314
 20
90.60033842282955
 30
0.0
 10
155.7490193258253
 20
90.53345282975576
 30
0.0
 10
155.7896311653946
 20
90.46900434007216
 30
0.0
 10
155.8742323116667
 20
90.3440036799943
 30
0.0
 10
155.9183291079523
 20
90.28348493480217
 30
0.0
 10
156.0343982164383
 20
90.10727887869376
 30
0.0
 10
156.0913302017882
 20
89.99688446372197
 30
0.0
 10
156.0913302017882
 20
89.89396758762881
 30
0.0
  0
SPLINE
  5
BD
330
1F
100
AcDbEntity
  8
0
  6
Continuous
 62
     7
370
    15
100
AcDbSpline
210
0.0
220
0.0
230
1.0
 70
     8
 71
     3
 72
    14
 73
    10
 74
     0
 42
0.00000001
 43
0.00000001
 12
1.0
 22
0.0
 32
0.0
 13
1.0
 23
0.0
 33
0.0
 40
0.0
 40
0.0
 40
0.0
 40
0.0
 40
0.1249999999999994
 40
0.1249999999999994
 40
0.2499999999999988
 40
0.2499999999999988
 40
0.4999999999999991
 40
0.4999999999999991
 40
1.0
 40
1.0
 40
1.0
 40
1.0
 10
155.1913302017882
 20
91.09034423820329
 30
0.0
 10
155.2403425245996
 20
91.09486929735844
 30
0.0
 10
155.293148749595
 20
91.08674991180392
 30
0.0
 10
155.3782158413246
 20
91.05641983665247
 30
0.0
 10
155.4128000266653
 20
91.03576487957599
 30
0.0
 10
155.5013557120025
 20
90.97122875624919
 30
0.0
 10
155.5422914133238
 20
90.92399057619654
 30
0.0
 10
155.6461719402267
 20
90.78419447491285
 30
0.0
 10
155.6893957396588
 20
90.69030953604357
 30
0.0
 10
155.7235951089314
 20
90.60033842282955
 30
0.0
  0
SPLINE
  5
BE
330
1F
100
AcDbEntity
  8
0
  6
Continuous
 62
     7
370
    15
100
AcDbSpline
210
0.0
220
0.0
230
1.0
 70
     8
 71
     3
 72
    10
 73
     6
 74
     0
 42
0.00000001
 43
0.00000001
 12
1.0
 22
0.0
 32
0.0
 13
1.0
 23
0.0
 33
0.0
 40
0.0
 40
0.0
 40
0.0
 40
0.0
 40
0.5
 40
0.5
 40
1.0
 40
1.0
 40
1.0
 40
1.0
 10
152.2705068100898
 20
90.76409215863679
 30
0.0
 10
152.7434112406794
 20
90.8311250717603
 30
0.0
 10
153.2264161735238
 20
90.88899357292614
 30
0.0
 10
154.2022305518767
 20
90.99583472128633
 30
0.0
 10
154.6957047649007
 20
91.04458565562506
 30
0.0
 10
155.1913302017882
 20
91.09034423820331
 30
0.0
  0
SPLINE
  5
BF
330
1F
100
AcDbEntity
  8
0
  6
Continuous
 62
     7
370
    15
100
AcDbSpline
210
0.0
220
0.0
230
1.0
 70
     8
 71
     3
 72
    10
 73
     6
 74
     0
 42
0.00000001
 43
0.00000001
 12
1.0
 22
0.0
 32
0.0
 13
1.0
 23
0.0
 33
0.0
 40
0.0
 40
0.0
 40
0.0
 40
0.0
 40
0.5
 40
0.5
 40
1.0
 40
1.0
 40
1.0
 40
1.0
 10
151.0003302017882
 20
90.67964740815802
 30
0.0
 10
151.2156892323456
 20
90.68666023912856
 30
0.0
 10
151.4301305706696
 20
90.69543496278385
 30
0.0
 10
151.8551217892901
 20
90.72048814033167
 30
0.0
 10
152.0664945210128
 20
90.735173973132
 30
0.0
 10
152.2705068100898
 20
90.76409215863677
 30
0.0
  0
SPLINE
  5
C0
330
1F
100
AcDbEntity
  8
0
  6
Continuous
 62
     7
370
    15
100
AcDbSpline
210
0.0
220
0.0
230
1.0
 70
     8
 71
     3
 72
     8
 73
     4
 74
     0
 42
0.00000001
 43
0.00000001
 12
1.0
 22
0.0
 32
0.0
 13
1.0
 23
0.0
 33
0.0
 40
0.0
 40
0.0
 40
0.0
 40
0.0
 40
1.0
 40
1.0
 40
1.0
 40
1.0
 10
150.9328140522192
 20
90.82753658617072
 30
0.0
 10
150.9469484968473
 20
90.7767402625375
 30
0.0
 10
150.9700058719959
 20
90.72750151197725
 30
0.0
 10
151.0003302017882
 20
90.679647408158
 30
0.0
  0
ELLIPSE
  5
C1
330
1F
100
AcDbEntity
  8
0
  6
Continuous
 62
     7
370
    15
100
AcDbEllipse
 10
137.464587994
 20
102.8914166079
 30
0.0
 11
13.37355272666628
 21
-13.37146352987014
 31
0.0
210
0.0
220
0.0
230
1.0
 40
0.1761188775
 41
0.3023035477142503
 42
0.3822730435340326
  0
ELLIPSE
  5
C2
330
1F
100
AcDbEntity
  8
0
  6
Continuous
 62
     7
370
    15
100
AcDbEllipse
 10
137.3852095632
 20
104.169824737
 30
0.0
 11
13.36963611134306
 21
13.36754752639483
 31
0.0
210
0.0
220
0.0
230
1.0
 40
0.1761188775
 41
5.9330769318466
 42
5.976720052691198
  0
SPLINE
  5
C3
330
1F
100
AcDbEntity
  8
0
  6
Continuous
 62
     7
370
    15
100
AcDbSpline
210
0.0
220
0.0
230
1.0
 70
     8
 71
     3
 72
     8
 73
     4
 74
     0
 42
0.00000001
 43
0.00000001
 12
1.0
 22
0.0
 32
0.0
 13
1.0
 23
0.0
 33
0.0
 40
0.0
 40
0.0
 40
0.0
 40
0.0
 40
1.0
 40
1.0
 40
1.0
 40
1.0
 10
150.9413302017882
 20
116.3962948326926
 30
0.0
 10
150.8955652940989
 20
116.3347744535338
 30
0.0
 10
150.8611781724689
 20
116.2708795937844
 30
0.0
 10
150.842162918796
 20
116.2041496487406
 30
0.0
  0
SPLINE
  5
C4
330
1F
100
AcDbEntity
  8
0
  6
Continuous
 62
     7
370
    15
100
AcDbSpline
210
0.0
220
0.0
230
1.0
 70
     8
 71
     3
 72
    12
 73
     8
 74
     0
 42
0.00000001
 43
0.00000001
 12
1.0
 22
0.0
 32
0.0
 13
1.0
 23
0.0
 33
0.0
 40
0.0
 40
0.0
 40
0.0
 40
0.0
 40
0.2499999999999986
 40
0.2499999999999986
 40
0.4999999999999971
 40
0.4999999999999971
 40
1.0
 40
1.0
 40
1.0
 40
1.0
 10
152.6913302017883
 20
116.3115081443735
 30
0.0
 10
152.549287798599
 20
116.3273338725497
 30
0.0
 10
152.4051696920949
 20
116.338355006325
 30
0.0
 10
152.1154151784224
 20
116.3568913681922
 30
0.0
 10
151.9696732750636
 20
116.364162073928
 30
0.0
 10
151.5309930358838
 20
116.382622924256
 30
0.0
 10
151.2366174198126
 20
116.3905017910795
 30
0.0
 10
150.9413302017882
 20
116.3962948326926
 30
0.0
  0
SPLINE
  5
C5
330
1F
100
AcDbEntity
  8
0
  6
Continuous
 62
     7
370
    15
100
AcDbSpline
210
0.0
220
0.0
230
1.0
 70
     8
 71
     3
 72
    20
 73
    16
 74
     0
 42
0.00000001
 43
0.00000001
 12
1.0
 22
0.0
 32
0.0
 13
1.0
 23
0.0
 33
0.0
 40
0.0
 40
0.0
 40
0.0
 40
0.0
 40
0.2499999999999996
 40
0.2499999999999996
 40
0.4999999999999991
 40
0.4999999999999991
 40
0.7499999999999987
 40
0.7499999999999987
 40
0.8749999999999971
 40
0.8749999999999971
 40
0.9374999999999983
 40
0.9374999999999983
 40
0.9687499999999991
 40
0.9687499999999991
 40
1.0
 40
1.0
 40
1.0
 40
1.0
 10
153.5913302017892
 20
117.0882384074621
 30
0.0
 10
153.5913302017892
 20
117.0276290077648
 30
0.0
 10
153.5659351822122
 20
116.9618030423612
 30
0.0
 10
153.4796419964303
 20
116.8277552730146
 30
0.0
 10
153.4190060177471
 20
116.7590599148728
 30
0.0
 10
153.2709042235258
 20
116.6186613632184
 30
0.0
 10
153.1841346167471
 20
116.546957858637
 30
0.0
 10
153.0354968214179
 20
116.4407944568882
 30
0.0
 10
152.9832076045318
 20
116.4052661082566
 30
0.0
 10
152.8924437762219
 20
116.3555621777411
 30
0.0
 10
152.8600777837699
 20
116.339301179726
 30
0.0
 10
152.8023886281036
 20
116.3201886113801
 30
0.0
 10
152.7814016002162
 20
116.3147974692985
 30
0.0
 10
152.7361126212257
 20
116.309060100906
 30
0.0
 10
152.7130983523872
 20
116.3090828345595
 30
0.0
 10
152.6913302017876
 20
116.3115081443723
 30
0.0
  0
LINE
  5
C6
330
1F
100
AcDbEntity
  8
0
  6
Continuous
 62
     7
370
    15
100
AcDbLine
 10
153.5913299514
 20
117.088238706
 30
0.0
 11
153.5913299514
 21
117.9179819274
 31
0.0
  0
LINE
  5
C7
330
1F
100
AcDbEntity
  8
0
  6
Continuous
 62
     7
370
    15
100
AcDbLine
 10
167.8913301068
 20
88.427013715
 30
0.0
 11
167.8913301068
 21
118.6344148565
 31
0.0
  0
SPLINE
  5
C8
330
1F
100
AcDbEntity
  8
0
  6
Continuous
 62
     7
370
    15
100
AcDbSpline
210
0.0
220
0.0
230
1.0
 70
     8
 71
     3
 72
    24
 73
    20
 74
     0
 42
0.00000001
 43
0.00000001
 12
1.0
 22
0.0
 32
0.0
 13
1.0
 23
0.0
 33
0.0
 40
0.0
 40
0.0
 40
0.0
 40
0.0
 40
0.0016643193296813
 40
0.0648792890554526
 40
0.127882629835479
 40
0.1913652263153964
 40
0.2543782098387403
 40
0.3163193264594876
 40
0.3777469775702122
 40
0.4397082275190884
 40
0.5014189034197821
 40
0.562536076452263
 40
0.6237133677268287
 40
0.6863020174790898
 40
0.7490598999921412
 40
0.811592469235191
 40
0.8743360189604256
 40
0.9379727054607176
 40
1.0
 40
1.0
 40
1.0
 40
1.0
 10
161.075873088701
 20
88.7687476325461
 30
0.0
 10
161.0753956978755
 20
88.76867922171112
 30
0.0
 10
161.0567858212675
 20
88.76601239794894
 30
0.0
 10
161.1199263580766
 20
88.77572696078703
 30
0.0
 10
161.2719691151592
 20
88.797931666995
 30
0.0
 10
161.5398946304241
 20
88.83236741852842
 30
0.0
 10
161.8892084076109
 20
88.87083042919765
 30
0.0
 10
162.3162594695349
 20
88.90505848214501
 30
0.0
 10
162.8036990979499
 20
88.92751104198514
 30
0.0
 10
163.3353494628912
 20
88.93110502971615
 30
0.0
 10
163.8864700653922
 20
88.91409140046294
 30
0.0
 10
164.4339280561789
 20
88.87414563501977
 30
0.0
 10
164.9585622859344
 20
88.81503802236313
 30
0.0
 10
165.4403506843344
 20
88.74267358494197
 30
0.0
 10
165.865299276344
 20
88.66635291346384
 30
0.0
 10
166.2115155898049
 20
88.59436896747276
 30
0.0
 10
166.4665939019361
 20
88.53598194130906
 30
0.0
 10
166.6267892940735
 20
88.4963222850025
 30
0.0
 10
166.6474233564701
 20
88.49149760953878
 30
0.0
 10
166.6576082563534
 20
88.48911616687265
 30
0.0
  0
SPLINE
  5
C9
330
1F
100
AcDbEntity
  8
0
  6
Continuous
 62
     7
370
    15
100
AcDbSpline
210
0.0
220
0.0
230
1.0
 70
     8
 71
     3
 72
    24
 73
    20
 74
     0
 42
0.00000001
 43
0.00000001
 12
1.0
 22
0.0
 32
0.0
 13
1.0
 23
0.0
 33
0.0
 40
0.0
 40
0.0
 40
0.0
 40
0.0
 40
0.0629034706215385
 40
0.1256338688179741
 40
0.1890239793713884
 40
0.2513957684939822
 40
0.3139906836130308
 40
0.3762905044722344
 40
0.4374458894592898
 40
0.498543195540241
 40
0.5603281747675228
 40
0.6223344559749604
 40
0.6838864964282686
 40
0.7458035579052691
 40
0.8089499376965126
 40
0.8723245876864573
 40
0.9353799443000518
 40
0.9988635323362688
 40
1.0
 40
1.0
 40
1.0
 40
1.0
 10
166.6566094128921
 20
118.5723133358785
 30
0.0
 10
166.6471387866172
 20
118.5698905466099
 30
0.0
 10
166.6282235915209
 20
118.565051634128
 30
0.0
 10
166.4661722951166
 20
118.5250800429506
 30
0.0
 10
166.209647054371
 20
118.4667360473782
 30
0.0
 10
165.8635909180777
 20
118.3945009493899
 30
0.0
 10
165.4396915251843
 20
118.3183516978778
 30
0.0
 10
164.9587085643464
 20
118.2462323963653
 30
0.0
 10
164.4347250073664
 20
118.1873448830575
 30
0.0
 10
163.8871271221593
 20
118.1474333604533
 30
0.0
 10
163.3356508061032
 20
118.1303976128381
 30
0.0
 10
162.8032095263219
 20
118.1339610839298
 30
0.0
 10
162.3152273146358
 20
118.1563943488967
 30
0.0
 10
161.8877151610035
 20
118.1906843637737
 30
0.0
 10
161.538813606231
 20
118.2291881585604
 30
0.0
 10
161.2715589857403
 20
118.2636441865151
 30
0.0
 10
161.1186246812195
 20
118.2857269738532
 30
0.0
 10
161.057515030056
 20
118.2955556856038
 30
0.0
 10
161.0750981937441
 20
118.2927919432077
 30
0.0
 10
161.0754074274137
 20
118.292743337495
 30
0.0
  0
SPLINE
  5
CA
330
1F
100
AcDbEntity
  8
0
  6
Continuous
 62
     7
370
    15
100
AcDbSpline
210
0.0
220
0.0
230
1.0
 70
     8
 71
     3
 72
    26
 73
    22
 74
     0
 42
0.00000001
 43
0.00000001
 12
1.0
 22
0.0
 32
0.0
 13
1.0
 23
0.0
 33
0.0
 40
0.0
 40
0.0
 40
0.0
 40
0.0
 40
0.2500000000000016
 40
0.2500000000000016
 40
0.3750000000000021
 40
0.3750000000000021
 40
0.4375000000000028
 40
0.4375000000000028
 40
0.4687500000000033
 40
0.4687500000000033
 40
0.5000000000000037
 40
0.5000000000000037
 40
0.5312500000000041
 40
0.5312500000000041
 40
0.5625000000000046
 40
0.5625000000000046
 40
0.6250000000000043
 40
0.6250000000000043
 40
0.7500000000000029
 40
0.7500000000000029
 40
1.0
 40
1.0
 40
1.0
 40
1.0
 10
150.7513002481761
 20
115.9187948653272
 30
0.0
 10
150.7039121387476
 20
115.7831391233041
 30
0.0
 10
150.6462708368432
 20
115.6391777249749
 30
0.0
 10
150.5242230242999
 20
115.3964051517205
 30
0.0
 10
150.4781740165234
 20
115.3113655112711
 30
0.0
 10
150.3875207323578
 20
115.1709895382308
 30
0.0
 10
150.3531682320722
 20
115.121078160892
 30
0.0
 10
150.2907330596817
 20
115.0445428960377
 30
0.0
 10
150.2674390408836
 20
115.0181384170508
 30
0.0
 10
150.2183865037571
 20
114.9705436517898
 30
0.0
 10
150.1939550541002
 20
114.9511010379379
 30
0.0
 10
150.1533254584804
 20
114.9261932602698
 30
0.0
 10
150.1371631766293
 20
114.9201234289589
 30
0.0
 10
150.1101811325262
 20
114.9144345573651
 30
0.0
 10
150.0994316097033
 20
114.9148250654458
 30
0.0
 10
150.0713956355462
 20
114.9209674122342
 30
0.0
 10
150.0585344035135
 20
114.9316314186522
 30
0.0
 10
150.0275315423532
 20
114.9706442090124
 30
0.0
 10
150.0166720602841
 20
115.0066961994168
 30
0.0
 10
149.9933948043461
 20
115.1243755969158
 30
0.0
 10
149.9913302017881
 20
115.2157054972488
 30
0.0
 10
149.9913302017881
 20
115.3089457501551
 30
0.0
  0
SPLINE
  5
CB
330
1F
100
AcDbEntity
  8
0
  6
Continuous
 62
     7
370
    15
100
AcDbSpline
210
0.0
220
0.0
230
1.0
 70
     8
 71
     3
 72
    24
 73
    20
 74
     0
 42
0.00000001
 43
0.00000001
 12
1.0
 22
0.0
 32
0.0
 13
1.0
 23
0.0
 33
0.0
 40
0.0
 40
0.0
 40
0.0
 40
0.0
 40
0.2500000000000067
 40
0.2500000000000067
 40
0.3750000000000105
 40
0.3750000000000105
 40
0.4375000000000129
 40
0.4375000000000129
 40
0.5000000000000152
 40
0.5000000000000152
 40
0.5312500000000153
 40
0.5312500000000153
 40
0.5625000000000153
 40
0.5625000000000153
 40
0.6250000000000133
 40
0.6250000000000133
 40
0.7500000000000088
 40
0.7500000000000088
 40
1.0
 40
1.0
 40
1.0
 40
1.0
 10
149.9913302017882
 20
91.98320108449292
 30
0.0
 10
149.9913302017882
 20
92.0681100381625
 30
0.0
 10
149.9940548302206
 20
92.15043973420939
 30
0.0
 10
150.0204121513385
 20
92.2528521216284
 30
0.0
 10
150.0326258696107
 20
92.28366921801279
 30
0.0
 10
150.0672365197431
 20
92.31276673408972
 30
0.0
 10
150.0816232301106
 20
92.31972437472835
 30
0.0
 10
150.122871713213
 20
92.31861463345147
 30
0.0
 10
150.1514112631438
 20
92.31032122784272
 30
0.0
 10
150.2123339286551
 20
92.26573779398147
 30
0.0
 10
150.235399898795
 20
92.24527608072418
 30
0.0
 10
150.2792957788012
 20
92.20066346244384
 30
0.0
 10
150.3001758143614
 20
92.17678738423746
 30
0.0
 10
150.3573860776545
 20
92.10689028707546
 30
0.0
 10
150.3897327014309
 20
92.06131269829098
 30
0.0
 10
150.4758986449227
 20
91.9324292106721
 30
0.0
 10
150.5215626649627
 20
91.85259603354004
 30
0.0
 10
150.6421102284139
 20
91.62681522442773
 30
0.0
 10
150.7011703171151
 20
91.49198383945641
 30
0.0
 10
150.7513002481761
 20
91.36372870078888
 30
0.0
  0
LINE
  5
CC
330
1F
100
AcDbEntity
  8
0
  6
Continuous
 62
     7
370
    15
100
AcDbLine
 10
149.9913304789
 20
91.9832009796
 30
0.0
 11
149.9913304789
 21
115.3089459959
 31
0.0
  0
LINE
  5
CD
330
1F
100
AcDbEntity
  8
0
  6
Continuous
 62
     7
370
    15
100
AcDbLine
 10
189.2413299276
 20
123.0178903762
 30
0.0
 11
187.9264905794
 21
123.0178903762
 31
0.0
  0
LINE
  5
CE
330
1F
100
AcDbEntity
  8
0
  6
Continuous
 62
     7
370
    15
100
AcDbLine
 10
187.9264905794
 20
119.6421235773
 30
0.0
 11
189.2413299276
 21
119.6421235773
 31
0.0
  0
LINE
  5
CF
330
1F
100
AcDbEntity
  8
0
  6
Continuous
 62
     7
370
    15
100
AcDbLine
 10
187.9264905794
 20
119.6421235773
 30
0.0
 11
187.9264905794
 21
123.0178903762
 31
0.0
  0
SPLINE
  5
D0
330
1F
100
AcDbEntity
  8
0
  6
Continuous
 62
     7
370
    15
100
AcDbSpline
210
0.0
220
0.0
230
1.0
 70
     8
 71
     3
 72
     8
 73
     4
 74
     0
 42
0.00000001
 43
0.00000001
 12
1.0
 22
0.0
 32
0.0
 13
1.0
 23
0.0
 33
0.0
 40
0.0
 40
0.0
 40
0.0
 40
0.0
 40
1.0
 40
1.0
 40
1.0
 40
1.0
 10
187.9264899006816
 20
123.0178895556194
 30
0.0
 10
187.594131804292
 20
122.4270793419474
 30
0.0
 10
187.2623505328079
 20
121.8359466777022
 30
0.0
 10
186.9313302017882
 20
121.2443909812445
 30
0.0
  0
SPLINE
  5
D1
330
1F
100
AcDbEntity
  8
0
  6
Continuous
 62
     7
370
    15
100
AcDbSpline
210
0.0
220
0.0
230
1.0
 70
     8
 71
     3
 72
     8
 73
     4
 74
     0
 42
0.00000001
 43
0.00000001
 12
1.0
 22
0.0
 32
0.0
 13
1.0
 23
0.0
 33
0.0
 40
0.0
 40
0.0
 40
0.0
 40
0.0
 40
1.0
 40
1.0
 40
1.0
 40
1.0
 10
186.9313302017882
 20
117.4448021851697
 30
0.0
 10
187.2548877600431
 20
118.1809185837922
 30
0.0
 10
187.5873820802601
 20
118.9130101792109
 30
0.0
 10
187.9264899006816
 20
119.6421232867918
 30
0.0
  0
LINE
  5
D2
330
1F
100
AcDbEntity
  8
0
  6
Continuous
 62
     7
370
    15
100
AcDbLine
 10
186.9313295676
 20
117.444802073
 30
0.0
 11
186.9313295676
 21
121.2443914238
 31
0.0
  0
SPLINE
  5
D3
330
1F
100
AcDbEntity
  8
0
  6
Continuous
 62
     7
370
    15
100
AcDbSpline
210
0.0
220
0.0
230
1.0
 70
     8
 71
     3
 72
     8
 73
     4
 74
     0
 42
0.00000001
 43
0.00000001
 12
1.0
 22
0.0
 32
0.0
 13
1.0
 23
0.0
 33
0.0
 40
0.0
 40
0.0
 40
0.0
 40
0.0
 40
1.0
 40
1.0
 40
1.0
 40
1.0
 10
184.8513302017882
 20
121.2443909812445
 30
0.0
 10
184.5203098707686
 20
121.8359466777022
 30
0.0
 10
184.1885285992844
 20
122.4270793419474
 30
0.0
 10
183.8561705028948
 20
123.0178895556194
 30
0.0
  0
LINE
  5
D4
330
1F
100
AcDbEntity
  8
0
  6
Continuous
 62
     7
370
    15
100
AcDbLine
 10
184.8513304933
 20
117.444802073
 30
0.0
 11
184.8513304933
 21
121.2443914238
 31
0.0
  0
SPLINE
  5
D5
330
1F
100
AcDbEntity
  8
0
  6
Continuous
 62
     7
370
    15
100
AcDbSpline
210
0.0
220
0.0
230
1.0
 70
     8
 71
     3
 72
     8
 73
     4
 74
     0
 42
0.00000001
 43
0.00000001
 12
1.0
 22
0.0
 32
0.0
 13
1.0
 23
0.0
 33
0.0
 40
0.0
 40
0.0
 40
0.0
 40
0.0
 40
1.0
 40
1.0
 40
1.0
 40
1.0
 10
183.8561705028948
 20
119.6421232867918
 30
0.0
 10
184.1955935441764
 20
118.9123324252724
 30
0.0
 10
184.5281042876715
 20
118.1801640698507
 30
0.0
 10
184.8513302017882
 20
117.4448021851697
 30
0.0
  0
SPLINE
  5
D6
330
1F
100
AcDbEntity
  8
0
  6
Continuous
 62
     7
370
    15
100
AcDbSpline
210
0.0
220
0.0
230
1.0
 70
     8
 71
     3
 72
    10
 73
     6
 74
     0
 42
0.00000001
 43
0.00000001
 12
1.0
 22
0.0
 32
0.0
 13
1.0
 23
0.0
 33
0.0
 40
0.0
 40
0.0
 40
0.0
 40
0.0
 40
0.5
 40
0.5
 40
1.0
 40
1.0
 40
1.0
 40
1.0
 10
189.8413302017882
 20
122.4015913188572
 30
0.0
 10
189.8413302017882
 20
122.560025761745
 30
0.0
 10
189.7791689853053
 20
122.719046456547
 30
0.0
 10
189.5586596446336
 20
122.9490542808026
 30
0.0
 10
189.3997445416885
 20
123.0178895556194
 30
0.0
 10
189.2413302017882
 20
123.0178895556194
 30
0.0
  0
LINE
  5
D7
330
1F
100
AcDbEntity
  8
0
  6
Continuous
 62
     7
370
    15
100
AcDbLine
 10
189.841330771
 20
118.890971874
 30
0.0
 11
189.841330771
 21
122.4015913877
 31
0.0
  0
SPLINE
  5
D8
330
1F
100
AcDbEntity
  8
0
  6
Continuous
 62
     7
370
    15
100
AcDbSpline
210
0.0
220
0.0
230
1.0
 70
     8
 71
     3
 72
    12
 73
     8
 74
     0
 42
0.00000001
 43
0.00000001
 12
1.0
 22
0.0
 32
0.0
 13
1.0
 23
0.0
 33
0.0
 40
0.0
 40
0.0
 40
0.0
 40
0.0
 40
0.25
 40
0.25
 40
0.5
 40
0.5
 40
1.0
 40
1.0
 40
1.0
 40
1.0
 10
189.2413302017882
 20
119.6421232867918
 30
0.0
 10
189.330618560832
 20
119.6421232867918
 30
0.0
 10
189.4186773917342
 20
119.616498654187
 30
0.0
 10
189.5713311049833
 20
119.5279552812552
 30
0.0
 10
189.6371245983253
 20
119.4650727981405
 30
0.0
 10
189.7925652450414
 20
119.2477116102069
 30
0.0
 10
189.8413302017882
 20
119.0690646001956
 30
0.0
 10
189.8413302017882
 20
118.8909714450199
 30
0.0
  0
LINE
  5
D9
330
1F
100
AcDbEntity
  8
0
  6
Continuous
 62
     7
370
    15
100
AcDbLine
 10
186.3313305868
 20
120.4307135168
 30
0.0
 11
185.4513304053
 21
120.4307135168
 31
0.0
  0
LINE
  5
DA
330
1F
100
AcDbEntity
  8
0
  6
Continuous
 62
     7
370
    15
100
AcDbLine
 10
185.4513304053
 20
116.2377251286
 30
0.0
 11
186.3313305868
 21
116.2377251286
 31
0.0
  0
SPLINE
  5
DB
330
1F
100
AcDbEntity
  8
0
  6
Continuous
 62
     7
370
    15
100
AcDbSpline
210
0.0
220
0.0
230
1.0
 70
     8
 71
     3
 72
    10
 73
     6
 74
     0
 42
0.00000001
 43
0.00000001
 12
1.0
 22
0.0
 32
0.0
 13
1.0
 23
0.0
 33
0.0
 40
0.0
 40
0.0
 40
0.0
 40
0.0
 40
0.5
 40
0.5
 40
1.0
 40
1.0
 40
1.0
 40
1.0
 10
185.0996745875382
 20
120.4307142857143
 30
0.0
 10
185.0223498556639
 20
120.4885962865759
 30
0.0
 10
184.9589700301274
 20
120.5656696312098
 30
0.0
 10
184.8733995813544
 20
120.7401726894037
 30
0.0
 10
184.8513302017882
 20
120.8369778928841
 30
0.0
 10
184.8513302017882
 20
120.9333182575341
 30
0.0
  0
SPLINE
  5
DC
330
1F
100
AcDbEntity
  8
0
  6
Continuous
 62
     7
370
    15
100
AcDbSpline
210
0.0
220
0.0
230
1.0
 70
    24
 71
     3
 72
    12
 73
     8
 74
     0
 42
0.00000001
 43
0.00000001
 12
1.0
 22
0.0
 32
0.0
 13
1.0
 23
0.0
 33
0.0
 40
0.0
 40
0.0
 40
0.0
 40
0.0
 40
0.2499999999999989
 40
0.2499999999999989
 40
0.4999999999999978
 40
0.4999999999999978
 40
1.0
 40
1.0
 40
1.0
 40
1.0
 10
185.4513302017882
 20
120.4307142857143
 30
0.0
 10
185.3997380015136
 20
120.4307142857143
 30
0.0
 10
185.3528329927191
 20
120.4307142857143
 30
0.0
 10
185.2794992668425
 20
120.4307142857143
 30
0.0
 10
185.2502694373936
 20
120.4307142857143
 30
0.0
 10
185.1720366573306
 20
120.4307142857143
 30
0.0
 10
185.133602499423
 20
120.4307142857143
 30
0.0
 10
185.0996745875382
 20
120.4307142857143
 30
0.0
  0
SPLINE
  5
DD
330
1F
100
AcDbEntity
  8
0
  6
Continuous
 62
     7
370
    15
100
AcDbSpline
210
0.0
220
0.0
230
1.0
 70
     8
 71
     3
 72
    12
 73
     8
 74
     0
 42
0.00000001
 43
0.00000001
 12
1.0
 22
0.0
 32
0.0
 13
1.0
 23
0.0
 33
0.0
 40
0.0
 40
0.0
 40
0.0
 40
0.0
 40
0.5000000000000032
 40
0.5000000000000032
 40
0.7500000000000016
 40
0.7500000000000016
 40
1.0
 40
1.0
 40
1.0
 40
1.0
 10
184.8513302017882
 20
117.046561465969
 30
0.0
 10
184.8513302017882
 20
116.8607953893909
 30
0.0
 10
184.8978759470448
 20
116.6756220774007
 30
0.0
 10
185.0479768954345
 20
116.4412114740571
 30
0.0
 10
185.1119137117286
 20
116.371115576645
 30
0.0
 10
185.2672814434582
 20
116.268435058841
 30
0.0
 10
185.3585247263761
 20
116.2377251458655
 30
0.0
 10
185.4513302017882
 20
116.2377251458655
 30
0.0
  0
LINE
  5
DE
330
1F
100
AcDbEntity
  8
0
  6
Continuous
 62
     7
370
    15
100
AcDbLine
 10
184.8513304933
 20
117.444802073
 30
0.0
 11
184.8513304933
 21
117.0465610895
 31
0.0
  0
SPLINE
  5
DF
330
1F
100
AcDbEntity
  8
0
  6
Continuous
 62
     7
370
    15
100
AcDbSpline
210
0.0
220
0.0
230
1.0
 70
     8
 71
     3
 72
    12
 73
     8
 74
     0
 42
0.00000001
 43
0.00000001
 12
1.0
 22
0.0
 32
0.0
 13
1.0
 23
0.0
 33
0.0
 40
0.0
 40
0.0
 40
0.0
 40
0.0
 40
0.25
 40
0.25
 40
0.5
 40
0.5
 40
1.0
 40
1.0
 40
1.0
 40
1.0
 10
186.3313302017882
 20
116.2377251458656
 30
0.0
 10
186.42387216851
 20
116.2377251458656
 30
0.0
 10
186.5160815456545
 20
116.2687584927818
 30
0.0
 10
186.6712185060313
 20
116.3715693586066
 30
0.0
 10
186.7350284034923
 20
116.4417421729523
 30
0.0
 10
186.8841548392934
 20
116.6746546564803
 30
0.0
 10
186.9313302017882
 20
116.8614500185502
 30
0.0
 10
186.9313302017882
 20
117.046561465969
 30
0.0
  0
LINE
  5
E0
330
1F
100
AcDbEntity
  8
0
  6
Continuous
 62
     7
370
    15
100
AcDbLine
 10
189.841330771
 20
118.890971874
 30
0.0
 11
189.841330771
 21
116.4081171129
 31
0.0
  0
LINE
  5
E1
330
1F
100
AcDbEntity
  8
0
  6
Continuous
 62
     7
370
    15
100
AcDbLine
 10
186.9313295676
 20
117.0465610895
 30
0.0
 11
186.9313295676
 21
117.444802073
 31
0.0
  0
SPLINE
  5
E2
330
1F
100
AcDbEntity
  8
0
  6
Continuous
 62
     7
370
    15
100
AcDbSpline
210
0.0
220
0.0
230
1.0
 70
    24
 71
     3
 72
    12
 73
     8
 74
     0
 42
0.00000001
 43
0.00000001
 12
1.0
 22
0.0
 32
0.0
 13
1.0
 23
0.0
 33
0.0
 40
0.0
 40
0.0
 40
0.0
 40
0.0
 40
0.5
 40
0.5
 40
0.75
 40
0.75
 40
1.0
 40
1.0
 40
1.0
 40
1.0
 10
186.6829858160382
 20
120.4307142857143
 30
0.0
 10
186.6488400677472
 20
120.4307142857143
 30
0.0
 10
186.6096469093422
 20
120.4307142857143
 30
0.0
 10
186.5317992506885
 20
120.4307142857143
 30
0.0
 10
186.5023947919032
 20
120.4307142857143
 30
0.0
 10
186.4293872705973
 20
120.4307142857143
 30
0.0
 10
186.3824819527895
 20
120.4307142857143
 30
0.0
 10
186.3313302017882
 20
120.4307142857143
 30
0.0
  0
SPLINE
  5
E3
330
1F
100
AcDbEntity
  8
0
  6
Continuous
 62
     7
370
    15
100
AcDbSpline
210
0.0
220
0.0
230
1.0
 70
     8
 71
     3
 72
    10
 73
     6
 74
     0
 42
0.00000001
 43
0.00000001
 12
1.0
 22
0.0
 32
0.0
 13
1.0
 23
0.0
 33
0.0
 40
0.0
 40
0.0
 40
0.0
 40
0.0
 40
0.5
 40
0.5
 40
1.0
 40
1.0
 40
1.0
 40
1.0
 10
186.9313302017882
 20
120.933318257533
 30
0.0
 10
186.931330201788
 20
120.8367757100565
 30
0.0
 10
186.9093895792066
 20
120.7403145097864
 30
0.0
 10
186.8232593938147
 20
120.5649119155421
 30
0.0
 10
186.7601770866711
 20
120.488496383175
 30
0.0
 10
186.6829858160382
 20
120.4307142857143
 30
0.0
  0
LINE
  5
E4
330
1F
100
AcDbEntity
  8
0
  6
Continuous
 62
     7
370
    15
100
AcDbLine
 10
149.9913304789
 20
91.7122419897
 30
0.0
 11
149.9913304789
 21
91.9832009796
 31
0.0
  0
LINE
  5
E5
330
1F
100
AcDbEntity
  8
0
  6
Continuous
 62
     7
370
    15
100
AcDbLine
 10
149.9913304789
 20
115.4046282146
 30
0.0
 11
149.9913304789
 21
115.3089459959
 31
0.0
  0
LINE
  5
E6
330
1F
100
AcDbEntity
  8
0
  6
Continuous
 62
     7
370
    15
100
AcDbLine
 10
150.9413297965
 20
116.4107145715
 30
0.0
 11
150.9413297965
 21
116.3962949041
 31
0.0
  0
LINE
  5
E7
330
1F
100
AcDbEntity
  8
0
  6
Continuous
 62
     7
370
    15
100
AcDbLine
 10
149.9913304789
 20
115.4607143227
 30
0.0
 11
149.9913304789
 21
115.4046282146
 31
0.0
  0
LINE
  5
E8
330
1F
100
AcDbEntity
  8
0
  6
Continuous
 62
     7
370
    15
100
AcDbLine
 10
151.0003309442
 20
90.6507139999
 30
0.0
 11
151.0003309442
 21
90.6796473983
 31
0.0
  0
LINE
  5
E9
330
1F
100
AcDbEntity
  8
0
  6
Continuous
 62
     7
370
    15
100
AcDbLine
 10
149.9913304789
 20
91.6597144652
 30
0.0
 11
149.9913304789
 21
91.7122419897
 31
0.0
  0
CIRCLE
  5
EA
330
1F
100
AcDbEntity
  8
0
  6
HIDDEN
 62
     7
370
     0
100
AcDbCircle
 10
216.8913302018
 20
103.5307142857
 30
0.0
 40
4.000000000000017
  0
CIRCLE
  5
EB
330
1F
100
AcDbEntity
  8
0
  6
HIDDEN
 62
     7
370
     0
100
AcDbCircle
 10
216.8913302018
 20
103.5307142857
 30
0.0
 40
2.75
  0
LINE
  5
EC
330
1F
100
AcDbEntity
  8
0
  6
HIDDEN
 62
     7
370
     0
100
AcDbLine
 10
215.0159839286
 20
102.1829722423
 30
0.0
 11
217.1208362772
 21
101.2327454492
 31
0.0
  0
LINE
  5
ED
330
1F
100
AcDbEntity
  8
0
  6
HIDDEN
 62
     7
370
     0
100
AcDbLine
 10
218.996180941
 20
102.5804875509
 30
0.0
 11
217.1208362772
 21
101.2327454492
 31
0.0
  0
LINE
  5
EE
330
1F
100
AcDbEntity
  8
0
  6
HIDDEN
 62
     7
370
     0
100
AcDbLine
 10
214.7864762439
 20
104.4809410206
 30
0.0
 11
215.0159839286
 21
102.1829722423
 31
0.0
  0
LINE
  5
EF
330
1F
100
AcDbEntity
  8
0
  6
HIDDEN
 62
     7
370
     0
100
AcDbLine
 10
218.7666769816
 20
104.8784563291
 30
0.0
 11
218.996180941
 21
102.5804875509
 31
0.0
  0
LINE
  5
F0
330
1F
100
AcDbEntity
  8
0
  6
HIDDEN
 62
     7
370
     0
100
AcDbLine
 10
214.7864762439
 20
104.4809410206
 30
0.0
 11
216.661824633
 21
105.8286831222
 31
0.0
  0
LINE
  5
F1
330
1F
100
AcDbEntity
  8
0
  6
HIDDEN
 62
     7
370
     0
100
AcDbLine
 10
218.7666769816
 20
104.8784563291
 30
0.0
 11
216.661824633
 21
105.8286831222
 31
0.0
  0
LINE
  5
F2
330
1F
100
AcDbEntity
  8
0
  6
HIDDEN
 62
     7
370
     0
100
AcDbLine
 10
216.4938140406
 20
112.2305858854
 30
0.0
 11
220.8913292481
 21
112.2305858854
 31
0.0
  0
LINE
  5
F3
330
1F
100
AcDbEntity
  8
0
  6
HIDDEN
 62
     7
370
     0
100
AcDbLine
 10
212.8913316621
 20
112.2305858854
 30
0.0
 11
216.4938140406
 21
112.2305858854
 31
0.0
  0
LINE
  5
F4
330
1F
100
AcDbEntity
  8
0
  6
HIDDEN
 62
     7
370
     0
100
AcDbLine
 10
216.6180375709
 20
110.9805861462
 30
0.0
 11
219.6413304402
 21
110.9805861462
 31
0.0
  0
LINE
  5
F5
330
1F
100
AcDbEntity
  8
0
  6
HIDDEN
 62
     7
370
     0
100
AcDbLine
 10
214.14133047
 20
110.9805861462
 30
0.0
 11
216.6180375709
 21
110.9805861462
 31
0.0
  0
LINE
  5
F6
330
1F
100
AcDbEntity
  8
0
  6
HIDDEN
 62
     7
370
     0
100
AcDbLine
 10
216.4938140406
 20
120.5819267753
 30
0.0
 11
220.8913292481
 21
120.5819267753
 31
0.0
  0
LINE
  5
F7
330
1F
100
AcDbEntity
  8
0
  6
HIDDEN
 62
     7
370
     0
100
AcDbLine
 10
212.8913316621
 20
120.5819267753
 30
0.0
 11
216.4938140406
 21
120.5819267753
 31
0.0
  0
LINE
  5
F8
330
1F
100
AcDbEntity
  8
0
  6
HIDDEN
 62
     7
370
     0
100
AcDbLine
 10
216.5624376132
 20
120.980586854
 30
0.0
 11
220.2008317901
 21
120.980586854
 31
0.0
  0
LINE
  5
F9
330
1F
100
AcDbEntity
  8
0
  6
HIDDEN
 62
     7
370
     0
100
AcDbLine
 10
213.5818291201
 20
120.980586854
 30
0.0
 11
216.5624376132
 21
120.980586854
 31
0.0
  0
LINE
  5
FA
330
1F
100
AcDbEntity
  8
0
  6
HIDDEN
 62
     7
370
     0
100
AcDbLine
 10
218.7666769816
 20
115.9805860344
 30
0.0
 11
216.661824633
 21
115.9805860344
 31
0.0
  0
LINE
  5
FB
330
1F
100
AcDbEntity
  8
0
  6
HIDDEN
 62
     7
370
     0
100
AcDbLine
 10
214.7864762439
 20
115.9805860344
 30
0.0
 11
216.661824633
 21
115.9805860344
 31
0.0
  0
LINE
  5
FC
330
1F
100
AcDbEntity
  8
0
  6
HIDDEN
 62
     7
370
     0
100
AcDbLine
 10
216.661824633
 20
115.9805860344
 30
0.0
 11
216.661824633
 21
120.980586854
 31
0.0
  0
LINE
  5
FD
330
1F
100
AcDbEntity
  8
0
  6
HIDDEN
 62
     7
370
     0
100
AcDbLine
 10
218.7666769816
 20
115.9805860344
 30
0.0
 11
218.996180941
 21
115.9805860344
 31
0.0
  0
LINE
  5
FE
330
1F
100
AcDbEntity
  8
0
  6
HIDDEN
 62
     7
370
     0
100
AcDbLine
 10
218.7666769816
 20
115.9805860344
 30
0.0
 11
218.7666769816
 21
120.980586854
 31
0.0
  0
LINE
  5
FF
330
1F
100
AcDbEntity
  8
0
  6
HIDDEN
 62
     7
370
     0
100
AcDbLine
 10
215.0159839286
 20
115.9805860344
 30
0.0
 11
215.0159839286
 21
120.980586854
 31
0.0
  0
LINE
  5
100
330
1F
100
AcDbEntity
  8
0
  6
HIDDEN
 62
     7
370
     0
100
AcDbLine
 10
214.7864762439
 20
115.9805860344
 30
0.0
 11
214.7864762439
 21
120.980586854
 31
0.0
  0
LINE
  5
101
330
1F
100
AcDbEntity
  8
0
  6
HIDDEN
 62
     7
370
     0
100
AcDbLine
 10
217.1208362772
 20
115.9805860344
 30
0.0
 11
217.1208362772
 21
120.980586854
 31
0.0
  0
LINE
  5
102
330
1F
100
AcDbEntity
  8
0
  6
HIDDEN
 62
     7
370
     0
100
AcDbLine
 10
218.996180941
 20
115.9805860344
 30
0.0
 11
218.996180941
 21
120.980586854
 31
0.0
  0
LINE
  5
103
330
1F
100
AcDbEntity
  8
0
  6
HIDDEN
 62
     7
370
     0
100
AcDbLine
 10
205.2657294764
 20
101.890363495
 30
0.0
 11
207.4991155161
 21
101.3027259588
 31
0.0
  0
LINE
  5
104
330
1F
100
AcDbEntity
  8
0
  6
HIDDEN
 62
     7
370
     0
100
AcDbLine
 10
209.1247167184
 20
102.9430768077
 30
0.0
 11
207.4991155161
 21
101.3027259588
 31
0.0
  0
LINE
  5
105
330
1F
100
AcDbEntity
  8
0
  6
HIDDEN
 62
     7
370
     0
100
AcDbLine
 10
204.6579446389
 20
104.1183517637
 30
0.0
 11
205.2657294764
 21
101.890363495
 31
0.0
  0
LINE
  5
106
330
1F
100
AcDbEntity
  8
0
  6
HIDDEN
 62
     7
370
     0
100
AcDbLine
 10
208.5169318809
 20
105.1710650764
 30
0.0
 11
209.1247167184
 21
102.9430768077
 31
0.0
  0
LINE
  5
107
330
1F
100
AcDbEntity
  8
0
  6
HIDDEN
 62
     7
370
     0
100
AcDbLine
 10
204.6579446389
 20
104.1183517637
 30
0.0
 11
206.2835458411
 21
105.7587026126
 31
0.0
  0
LINE
  5
108
330
1F
100
AcDbEntity
  8
0
  6
HIDDEN
 62
     7
370
     0
100
AcDbLine
 10
208.5169318809
 20
105.1710650764
 30
0.0
 11
206.2835458411
 21
105.7587026126
 31
0.0
  0
LINE
  5
109
330
1F
100
AcDbEntity
  8
0
  6
HIDDEN
 62
     7
370
     0
100
AcDbLine
 10
205.8386157943
 20
112.9146115828
 30
0.0
 11
210.8913313343
 21
112.9146115828
 31
0.0
  0
LINE
  5
10A
330
1F
100
AcDbEntity
  8
0
  6
HIDDEN
 62
     7
370
     0
100
AcDbLine
 10
202.891330023
 20
112.9146115828
 30
0.0
 11
205.8386157943
 21
112.9146115828
 31
0.0
  0
LINE
  5
10B
330
1F
100
AcDbEntity
  8
0
  6
HIDDEN
 62
     7
370
     0
100
AcDbLine
 10
206.16758873
 20
111.6646118436
 30
0.0
 11
209.6413288011
 21
111.6646118436
 31
0.0
  0
LINE
  5
10C
330
1F
100
AcDbEntity
  8
0
  6
HIDDEN
 62
     7
370
     0
100
AcDbLine
 10
204.1413288309
 20
111.6646118436
 30
0.0
 11
206.16758873
 21
111.6646118436
 31
0.0
  0
LINE
  5
10D
330
1F
100
AcDbEntity
  8
0
  6
HIDDEN
 62
     7
370
     0
100
AcDbLine
 10
205.8386157943
 20
119.2659512136
 30
0.0
 11
210.8913313343
 21
119.2659512136
 31
0.0
  0
LINE
  5
10E
330
1F
100
AcDbEntity
  8
0
  6
HIDDEN
 62
     7
370
     0
100
AcDbLine
 10
202.891330023
 20
119.2659512136
 30
0.0
 11
205.8386157943
 21
119.2659512136
 31
0.0
  0
LINE
  5
10F
330
1F
100
AcDbEntity
  8
0
  6
HIDDEN
 62
     7
370
     0
100
AcDbLine
 10
206.0203429057
 20
119.6646112922
 30
0.0
 11
210.200830151
 21
119.6646112922
 31
0.0
  0
LINE
  5
110
330
1F
100
AcDbEntity
  8
0
  6
HIDDEN
 62
     7
370
     0
100
AcDbLine
 10
203.5818312062
 20
119.6646112922
 30
0.0
 11
206.0203429057
 21
119.6646112922
 31
0.0
  0
LINE
  5
111
330
1F
100
AcDbEntity
  8
0
  6
HIDDEN
 62
     7
370
     0
100
AcDbLine
 10
208.5169318809
 20
114.664611404
 30
0.0
 11
206.2835458411
 21
114.664611404
 31
0.0
  0
LINE
  5
112
330
1F
100
AcDbEntity
  8
0
  6
HIDDEN
 62
     7
370
     0
100
AcDbLine
 10
206.2835458411
 20
114.664611404
 30
0.0
 11
206.2835458411
 21
119.6646112922
 31
0.0
  0
LINE
  5
113
330
1F
100
AcDbEntity
  8
0
  6
HIDDEN
 62
     7
370
     0
100
AcDbLine
 10
204.6579446389
 20
114.664611404
 30
0.0
 11
206.2835458411
 21
114.664611404
 31
0.0
  0
LINE
  5
114
330
1F
100
AcDbEntity
  8
0
  6
HIDDEN
 62
     7
370
     0
100
AcDbLine
 10
208.5169318809
 20
114.664611404
 30
0.0
 11
208.5169318809
 21
119.6646112922
 31
0.0
  0
LINE
  5
115
330
1F
100
AcDbEntity
  8
0
  6
HIDDEN
 62
     7
370
     0
100
AcDbLine
 10
208.5169318809
 20
114.664611404
 30
0.0
 11
209.1247167184
 21
114.664611404
 31
0.0
  0
LINE
  5
116
330
1F
100
AcDbEntity
  8
0
  6
HIDDEN
 62
     7
370
     0
100
AcDbLine
 10
205.2657294764
 20
114.664611404
 30
0.0
 11
205.2657294764
 21
119.6646112922
 31
0.0
  0
LINE
  5
117
330
1F
100
AcDbEntity
  8
0
  6
HIDDEN
 62
     7
370
     0
100
AcDbLine
 10
204.6579446389
 20
114.664611404
 30
0.0
 11
204.6579446389
 21
119.6646112922
 31
0.0
  0
LINE
  5
118
330
1F
100
AcDbEntity
  8
0
  6
HIDDEN
 62
     7
370
     0
100
AcDbLine
 10
207.4991155161
 20
114.664611404
 30
0.0
 11
207.4991155161
 21
119.6646112922
 31
0.0
  0
LINE
  5
119
330
1F
100
AcDbEntity
  8
0
  6
HIDDEN
 62
     7
370
     0
100
AcDbLine
 10
209.1247167184
 20
114.664611404
 30
0.0
 11
209.1247167184
 21
119.6646112922
 31
0.0
  0
CIRCLE
  5
11A
330
1F
100
AcDbEntity
  8
0
  6
HIDDEN
 62
     7
370
     0
100
AcDbCircle
 10
206.8913302018
 20
103.5307142857
 30
0.0
 40
4.000000000000009
  0
CIRCLE
  5
11B
330
1F
100
AcDbEntity
  8
0
  6
HIDDEN
 62
     7
370
     0
100
AcDbCircle
 10
206.8913302018
 20
103.5307142857
 30
0.0
 40
2.75
  0
LINE
  5
11C
330
1F
100
AcDbEntity
  8
0
  6
HIDDEN
 62
     7
370
     0
100
AcDbLine
 10
195.2657278372
 20
101.890363495
 30
0.0
 11
197.499113877
 21
101.3027259588
 31
0.0
  0
LINE
  5
11D
330
1F
100
AcDbEntity
  8
0
  6
HIDDEN
 62
     7
370
     0
100
AcDbLine
 10
199.1247169419
 20
102.9430768077
 30
0.0
 11
197.499113877
 21
101.3027259588
 31
0.0
  0
LINE
  5
11E
330
1F
100
AcDbEntity
  8
0
  6
HIDDEN
 62
     7
370
     0
100
AcDbLine
 10
194.6579429998
 20
104.1183517637
 30
0.0
 11
195.2657278372
 21
101.890363495
 31
0.0
  0
LINE
  5
11F
330
1F
100
AcDbEntity
  8
0
  6
HIDDEN
 62
     7
370
     0
100
AcDbLine
 10
198.5169321044
 20
105.1710650764
 30
0.0
 11
199.1247169419
 21
102.9430768077
 31
0.0
  0
LINE
  5
120
330
1F
100
AcDbEntity
  8
0
  6
HIDDEN
 62
     7
370
     0
100
AcDbLine
 10
194.6579429998
 20
104.1183517637
 30
0.0
 11
196.2835460647
 21
105.7587026126
 31
0.0
  0
LINE
  5
121
330
1F
100
AcDbEntity
  8
0
  6
HIDDEN
 62
     7
370
     0
100
AcDbLine
 10
198.5169321044
 20
105.1710650764
 30
0.0
 11
196.2835460647
 21
105.7587026126
 31
0.0
  0
LINE
  5
122
330
1F
100
AcDbEntity
  8
0
  6
HIDDEN
 62
     7
370
     0
100
AcDbLine
 10
195.8386160179
 20
112.9146115828
 30
0.0
 11
200.8913296951
 21
112.9146115828
 31
0.0
  0
LINE
  5
123
330
1F
100
AcDbEntity
  8
0
  6
HIDDEN
 62
     7
370
     0
100
AcDbLine
 10
192.8913302465
 20
112.9146115828
 30
0.0
 11
195.8386160179
 21
112.9146115828
 31
0.0
  0
LINE
  5
124
330
1F
100
AcDbEntity
  8
0
  6
HIDDEN
 62
     7
370
     0
100
AcDbLine
 10
196.1675889535
 20
111.6646118436
 30
0.0
 11
199.6413308872
 21
111.6646118436
 31
0.0
  0
LINE
  5
125
330
1F
100
AcDbEntity
  8
0
  6
HIDDEN
 62
     7
370
     0
100
AcDbLine
 10
194.141330917
 20
111.6646118436
 30
0.0
 11
196.1675889535
 21
111.6646118436
 31
0.0
  0
LINE
  5
126
330
1F
100
AcDbEntity
  8
0
  6
HIDDEN
 62
     7
370
     0
100
AcDbLine
 10
195.8386160179
 20
119.2659512136
 30
0.0
 11
200.8913296951
 21
119.2659512136
 31
0.0
  0
LINE
  5
127
330
1F
100
AcDbEntity
  8
0
  6
HIDDEN
 62
     7
370
     0
100
AcDbLine
 10
192.8913302465
 20
119.2659512136
 30
0.0
 11
195.8386160179
 21
119.2659512136
 31
0.0
  0
LINE
  5
128
330
1F
100
AcDbEntity
  8
0
  6
HIDDEN
 62
     7
370
     0
100
AcDbLine
 10
196.0203412666
 20
119.6646112922
 30
0.0
 11
196.3712785138
 21
119.6646112922
 31
0.0
  0
LINE
  5
129
330
1F
100
AcDbEntity
  8
0
  6
HIDDEN
 62
     7
370
     0
100
AcDbLine
 10
197.232727681
 20
119.6646112922
 30
0.0
 11
200.2008303745
 21
119.6646112922
 31
0.0
  0
LINE
  5
12A
330
1F
100
AcDbEntity
  8
0
  6
HIDDEN
 62
     7
370
     0
100
AcDbLine
 10
193.5818295671
 20
119.6646112922
 30
0.0
 11
196.0203412666
 21
119.6646112922
 31
0.0
  0
LINE
  5
12B
330
1F
100
AcDbEntity
  8
0
  6
HIDDEN
 62
     7
370
     0
100
AcDbLine
 10
198.5169321044
 20
114.664611404
 30
0.0
 11
196.2835460647
 21
114.664611404
 31
0.0
  0
LINE
  5
12C
330
1F
100
AcDbEntity
  8
0
  6
HIDDEN
 62
     7
370
     0
100
AcDbLine
 10
196.2835460647
 20
114.664611404
 30
0.0
 11
196.2835460647
 21
119.6646112922
 31
0.0
  0
LINE
  5
12D
330
1F
100
AcDbEntity
  8
0
  6
HIDDEN
 62
     7
370
     0
100
AcDbLine
 10
194.6579429998
 20
114.664611404
 30
0.0
 11
196.2835460647
 21
114.664611404
 31
0.0
  0
LINE
  5
12E
330
1F
100
AcDbEntity
  8
0
  6
HIDDEN
 62
     7
370
     0
100
AcDbLine
 10
198.5169321044
 20
114.664611404
 30
0.0
 11
198.5169321044
 21
119.6646112922
 31
0.0
  0
LINE
  5
12F
330
1F
100
AcDbEntity
  8
0
  6
HIDDEN
 62
     7
370
     0
100
AcDbLine
 10
198.5169321044
 20
114.664611404
 30
0.0
 11
199.1247169419
 21
114.664611404
 31
0.0
  0
LINE
  5
130
330
1F
100
AcDbEntity
  8
0
  6
HIDDEN
 62
     7
370
     0
100
AcDbLine
 10
195.2657278372
 20
114.664611404
 30
0.0
 11
195.2657278372
 21
119.6646112922
 31
0.0
  0
LINE
  5
131
330
1F
100
AcDbEntity
  8
0
  6
HIDDEN
 62
     7
370
     0
100
AcDbLine
 10
194.6579429998
 20
114.664611404
 30
0.0
 11
194.6579429998
 21
119.6646112922
 31
0.0
  0
LINE
  5
132
330
1F
100
AcDbEntity
  8
0
  6
HIDDEN
 62
     7
370
     0
100
AcDbLine
 10
197.499113877
 20
114.664611404
 30
0.0
 11
197.499113877
 21
119.6646112922
 31
0.0
  0
LINE
  5
133
330
1F
100
AcDbEntity
  8
0
  6
HIDDEN
 62
     7
370
     0
100
AcDbLine
 10
199.1247169419
 20
114.664611404
 30
0.0
 11
199.1247169419
 21
119.6646112922
 31
0.0
  0
CIRCLE
  5
134
330
1F
100
AcDbEntity
  8
0
  6
HIDDEN
 62
     7
370
     0
100
AcDbCircle
 10
196.8913302018
 20
103.5307142857
 30
0.0
 40
4.000000000000009
  0
CIRCLE
  5
135
330
1F
100
AcDbEntity
  8
0
  6
HIDDEN
 62
     7
370
     0
100
AcDbCircle
 10
196.8913302018
 20
103.5307142857
 30
0.0
 40
2.749999999999992
  0
LINE
  5
136
330
1F
100
AcDbEntity
  8
0
  6
HIDDEN
 62
     7
370
     0
100
AcDbLine
 10
183.8561704128
 20
119.6421235773
 30
0.0
 11
183.8561704128
 21
115.3807146448
 31
0.0
  0
LINE
  5
137
330
1F
100
AcDbEntity
  8
0
  6
HIDDEN
 62
     7
370
     0
100
AcDbLine
 10
217.1086583032
 20
121.1906839136
 30
0.0
 11
216.8376471593
 21
121.1884785417
 31
0.0
  0
LINE
  5
138
330
1F
100
AcDbEntity
  8
0
  6
HIDDEN
 62
     7
370
     0
100
AcDbLine
 10
189.841330771
 20
116.4081171129
 30
0.0
 11
189.841330771
 21
115.3807146448
 31
0.0
  0
LINE
  5
139
330
1F
100
AcDbEntity
  8
0
  6
HIDDEN
 62
     7
370
     0
100
AcDbLine
 10
161.540321794
 20
88.8319592897
 30
0.0
 11
161.3413633524
 21
88.8062808636
 31
0.0
  0
SPLINE
  5
13A
330
1F
100
AcDbEntity
  8
0
  6
HIDDEN
 62
     7
370
     0
100
AcDbSpline
210
0.0
220
0.0
230
1.0
 70
     8
 71
     3
 72
     9
 73
     5
 74
     0
 42
0.00000001
 43
0.00000001
 12
1.0
 22
0.0
 32
0.0
 13
1.0
 23
0.0
 33
0.0
 40
0.0
 40
0.0
 40
0.0
 40
0.0
 40
0.0295948964519587
 40
1.0
 40
1.0
 40
1.0
 40
1.0
 10
161.8978341786697
 20
88.86962756250587
 30
0.0
 10
161.8935082911592
 20
88.86929284021427
 30
0.0
 10
161.7473382406049
 20
88.85798270462601
 30
0.0
 10
161.642275354696
 20
88.84477556517729
 30
0.0
 10
161.5403217940166
 20
88.83195928965297
 30
0.0
  0
SPLINE
  5
13B
330
1F
100
AcDbEntity
  8
0
  6
HIDDEN
 62
     7
370
     0
100
AcDbSpline
210
0.0
220
0.0
230
1.0
 70
     8
 71
     3
 72
     9
 73
     5
 74
     0
 42
0.00000001
 43
0.00000001
 12
1.0
 22
0.0
 32
0.0
 13
1.0
 23
0.0
 33
0.0
 40
0.0
 40
0.0
 40
0.0
 40
0.0
 40
0.985348532497498
 40
1.0
 40
1.0
 40
1.0
 40
1.0
 10
161.5402035160496
 20
118.2294543806144
 30
0.0
 10
161.6423307478462
 20
118.2166677097124
 30
0.0
 10
161.7459765426369
 20
118.2036909096459
 30
0.0
 10
161.889851417811
 20
118.1925335191599
 30
0.0
 10
161.891959395869
 20
118.1923700470158
 30
0.0
  0
LWPOLYLINE
  5
13C
330
1F
100
AcDbEntity
  8
0
  6
HIDDEN
 62
     7
370
     0
100
AcDbPolyline
 90
        3
 70
   128
 43
0.0
 10
161.1261225982
 20
118.2847712163
 10
161.2813591702
 20
118.2623356554
 10
161.540203516
 20
118.2294543806
  0
SPLINE
  5
13D
330
1F
100
AcDbEntity
  8
0
  6
HIDDEN
 62
     7
370
     0
100
AcDbSpline
210
0.0
220
0.0
230
1.0
 70
     8
 71
     3
 72
    15
 73
    11
 74
     0
 42
0.00000001
 43
0.00000001
 12
1.0
 22
0.0
 32
0.0
 13
1.0
 23
0.0
 33
0.0
 40
0.0
 40
0.0
 40
0.0
 40
0.0
 40
0.1360947993897038
 40
0.2722233504338452
 40
0.4072157477284721
 40
0.5405337273204607
 40
0.674528402193116
 40
0.8104813419156445
 40
0.9466524598609822
 40
1.0
 40
1.0
 40
1.0
 40
1.0
 10
165.7155070199206
 20
90.85790440176216
 30
0.0
 10
165.5376067581122
 20
90.88184679827991
 30
0.0
 10
165.1817621150419
 20
90.92973752905512
 30
0.0
 10
164.447438934542
 20
90.98544701740731
 30
0.0
 10
163.6680302806675
 20
90.99589780887219
 30
0.0
 10
162.9162441002582
 20
90.95869728607393
 30
0.0
 10
162.2689501936245
 20
90.88934295784773
 30
0.0
 10
161.8131508232342
 20
90.82053568069021
 30
0.0
 10
161.5869286634351
 20
90.77993926094258
 30
0.0
 10
161.6143781954971
 20
90.78484295738251
 30
0.0
 10
161.6221049545839
 20
90.78622329716173
 30
0.0
  0
SPLINE
  5
13E
330
1F
100
AcDbEntity
  8
0
  6
HIDDEN
 62
     7
370
     0
100
AcDbSpline
210
0.0
220
0.0
230
1.0
 70
     8
 71
     3
 72
    15
 73
    11
 74
     0
 42
0.00000001
 43
0.00000001
 12
1.0
 22
0.0
 32
0.0
 13
1.0
 23
0.0
 33
0.0
 40
0.0
 40
0.0
 40
0.0
 40
0.0
 40
0.0809850953378773
 40
0.2142994841332234
 40
0.3489242590596051
 40
0.4852277276366004
 40
0.6209655570397145
 40
0.7547097406923156
 40
0.8881684412294678
 40
1.0
 40
1.0
 40
1.0
 40
1.0
 10
161.6221049545839
 20
116.2752052742669
 30
0.0
 10
161.6191416757203
 20
116.2757134029066
 30
0.0
 10
161.6113003670304
 20
116.2770579923637
 30
0.0
 10
161.8827913684959
 20
116.2293342597869
 30
0.0
 10
162.3767743855405
 20
116.158170345584
 30
0.0
 10
163.0551517876786
 20
116.0920771657294
 30
0.0
 10
163.8267922699413
 20
116.0635351946145
 30
0.0
 10
164.5971607836924
 20
116.0840898495141
 30
0.0
 10
165.2586728606978
 20
116.1413547124881
 30
0.0
 10
165.5724508594193
 20
116.1840560023571
 30
0.0
 10
165.7155070199206
 20
116.2035241696664
 30
0.0
  0
SPLINE
  5
13F
330
1F
100
AcDbEntity
  8
0
  6
HIDDEN
 62
     7
370
     0
100
AcDbSpline
210
0.0
220
0.0
230
1.0
 70
     8
 71
     3
 72
     9
 73
     5
 74
     0
 42
0.00000001
 43
0.00000001
 12
1.0
 22
0.0
 32
0.0
 13
1.0
 23
0.0
 33
0.0
 40
0.0
 40
0.0
 40
0.0
 40
0.0
 40
0.5108162292355561
 40
1.0
 40
1.0
 40
1.0
 40
1.0
 10
165.7155070199206
 20
116.2035241696664
 30
0.0
 10
165.8554947886518
 20
116.2208667724485
 30
0.0
 10
166.1295420109586
 20
116.2548175394553
 30
0.0
 10
166.167541451476
 20
116.256647536691
 30
0.0
 10
166.1861301610753
 20
116.2575427416393
 30
0.0
  0
SPLINE
  5
140
330
1F
100
AcDbEntity
  8
0
  6
HIDDEN
 62
     7
370
     0
100
AcDbSpline
210
0.0
220
0.0
230
1.0
 70
     8
 71
     3
 72
    10
 73
     6
 74
     0
 42
0.00000001
 43
0.00000001
 12
1.0
 22
0.0
 32
0.0
 13
1.0
 23
0.0
 33
0.0
 40
0.0
 40
0.0
 40
0.0
 40
0.0
 40
0.0213446420092497
 40
0.5331818962574534
 40
1.0
 40
1.0
 40
1.0
 40
1.0
 10
166.1862109533086
 20
90.80387837920871
 30
0.0
 10
166.1879093711139
 20
90.80372229905797
 30
0.0
 10
166.2303352701136
 20
90.79982346998845
 30
0.0
 10
166.0908454140851
 20
90.80969855180122
 30
0.0
 10
165.8367231903064
 20
90.8423362408351
 30
0.0
 10
165.7155070199206
 20
90.85790440176216
 30
0.0
  0
LINE
  5
141
330
1F
100
AcDbEntity
  8
0
  6
HIDDEN
 62
     7
370
     0
100
AcDbLine
 10
157.8939797102
 20
93.0307144273
 30
0.0
 11
157.8939797102
 21
114.0307141442
 31
0.0
  0
LINE
  5
142
330
1F
100
AcDbEntity
  8
0
  6
HIDDEN
 62
     7
370
     0
100
AcDbLine
 10
176.060705234
 20
93.0307144273
 30
0.0
 11
176.060705234
 21
114.0307141442
 31
0.0
  0
LINE
  5
143
330
1F
100
AcDbEntity
  8
0
  6
HIDDEN
 62
     7
370
     0
100
AcDbLine
 10
177.8413306667
 20
93.6557138312
 30
0.0
 11
177.8413306667
 21
113.4057147402
 31
0.0
  0
SPLINE
  5
144
330
1F
100
AcDbEntity
  8
0
  6
HIDDEN
 62
     7
370
     0
100
AcDbSpline
210
0.0
220
0.0
230
1.0
 70
     8
 71
     3
 72
    14
 73
    10
 74
     0
 42
0.00000001
 43
0.00000001
 12
1.0
 22
0.0
 32
0.0
 13
1.0
 23
0.0
 33
0.0
 40
0.0
 40
0.0
 40
0.0
 40
0.0
 40
0.2499999999999999
 40
0.2499999999999999
 40
0.4999999999999998
 40
0.4999999999999998
 40
0.7499999999999997
 40
0.7499999999999997
 40
1.0
 40
1.0
 40
1.0
 40
1.0
 10
153.5913302017882
 20
113.5549037791347
 30
0.0
 10
153.5913302017882
 20
113.5184319146009
 30
0.0
 10
153.5689595699842
 20
113.4806961620884
 30
0.0
 10
153.4817440387359
 20
113.4055604403889
 30
0.0
 10
153.4177228326593
 20
113.3691881541668
 30
0.0
 10
153.254237534918
 20
113.3049646150047
 30
0.0
 10
153.1549226607448
 20
113.2774416523823
 30
0.0
 10
152.9350963900397
 20
113.2392694854952
 30
0.0
 10
152.8140928277305
 20
113.2286199874625
 30
0.0
 10
152.6913302017882
 20
113.2286199874625
 30
0.0
  0
LINE
  5
145
330
1F
100
AcDbEntity
  8
0
  6
HIDDEN
 62
     7
370
     0
100
AcDbLine
 10
152.6913296177
 20
113.2286200273
 30
0.0
 11
150.9413297965
 21
113.2286200273
 31
0.0
  0
ARC
  5
146
330
1F
100
AcDbEntity
  8
0
  6
HIDDEN
 62
     7
370
     0
100
AcDbCircle
 10
154.9663302018
 20
103.5307142857
 30
0.0
 40
10.5
100
AcDbArc
 50
247.4596895365
 51
247.8078280674
  0
LINE
  5
147
330
1F
100
AcDbEntity
  8
0
  6
HIDDEN
 62
     7
370
     0
100
AcDbLine
 10
151.0003309442
 20
93.8085308272
 30
0.0
 11
155.1913300274
 21
93.8085308272
 31
0.0
  0
SPLINE
  5
148
330
1F
100
AcDbEntity
  8
0
  6
HIDDEN
 62
     7
370
     0
100
AcDbSpline
210
0.0
220
0.0
230
1.0
 70
     8
 71
     3
 72
    14
 73
    10
 74
     0
 42
0.00000001
 43
0.00000001
 12
1.0
 22
0.0
 32
0.0
 13
1.0
 23
0.0
 33
0.0
 40
0.0
 40
0.0
 40
0.0
 40
0.0
 40
0.25
 40
0.25
 40
0.5
 40
0.5
 40
0.75
 40
0.75
 40
1.0
 40
1.0
 40
1.0
 40
1.0
 10
155.1913302017882
 20
93.80853119753908
 30
0.0
 10
155.3137982897071
 20
93.80853119753908
 30
0.0
 10
155.4340093685759
 20
93.7981941778192
 30
0.0
 10
155.6542156878286
 20
93.76072694924123
 30
0.0
 10
155.7538711405266
 20
93.73359578095199
 30
0.0
 10
155.9168584934824
 20
93.67082873474516
 30
0.0
 10
155.9815958542289
 20
93.63476504081824
 30
0.0
 10
156.0684312043459
 20
93.56157237095016
 30
0.0
 10
156.0913302017882
 20
93.52402958543917
 30
0.0
 10
156.0913302017882
 20
93.48832194125772
 30
0.0
  0
LINE
  5
149
330
1F
100
AcDbEntity
  8
0
  6
HIDDEN
 62
     7
370
     0
100
AcDbLine
 10
150.9413297965
 20
93.8328085441
 30
0.0
 11
150.9413297965
 21
113.2286200273
 31
0.0
  0
LINE
  5
14A
330
1F
100
AcDbEntity
  8
0
  6
HIDDEN
 62
     7
370
     0
100
AcDbLine
 10
153.5913299514
 20
114.5307142261
 30
0.0
 11
153.5913299514
 21
117.088238706
 31
0.0
  0
LINE
  5
14B
330
1F
100
AcDbEntity
  8
0
  6
HIDDEN
 62
     7
370
     0
100
AcDbLine
 10
156.0913303612
 20
92.5307143453
 30
0.0
 11
156.0913303612
 21
89.8939678419
 31
0.0
  0
LINE
  5
14C
330
1F
100
AcDbEntity
  8
0
  6
HIDDEN
 62
     7
370
     0
100
AcDbLine
 10
150.9413297965
 20
114.5307142261
 30
0.0
 11
150.9413297965
 21
116.3962949041
 31
0.0
  0
LINE
  5
14D
330
1F
100
AcDbEntity
  8
0
  6
HIDDEN
 62
     7
370
     0
100
AcDbLine
 10
151.0003309442
 20
92.5307143453
 30
0.0
 11
151.0003309442
 21
90.6796473983
 31
0.0
  0
LINE
  5
14E
330
1F
100
AcDbEntity
  8
0
  6
HIDDEN
 62
     7
370
     0
100
AcDbLine
 10
192.0670874162
 20
103.5307142857
 30
0.0
 11
192.0670874162
 21
97.2307142775
 31
0.0
  0
LINE
  5
14F
330
1F
100
AcDbEntity
  8
0
  6
HIDDEN
 62
     7
370
     0
100
AcDbLine
 10
192.0670874162
 20
109.8307142939
 30
0.0
 11
192.0670874162
 21
103.5307142857
 31
0.0
  0
LINE
  5
150
330
1F
100
AcDbEntity
  8
0
  6
HIDDEN
 62
     7
370
     0
100
AcDbLine
 10
192.8913302465
 20
103.5307142857
 30
0.0
 11
192.8913302465
 21
97.5307142336
 31
0.0
  0
LINE
  5
151
330
1F
100
AcDbEntity
  8
0
  6
HIDDEN
 62
     7
370
     0
100
AcDbLine
 10
192.8913302465
 20
109.5307143379
 30
0.0
 11
192.8913302465
 21
103.5307142857
 31
0.0
  0
LINE
  5
152
330
1F
100
AcDbEntity
  8
0
  6
HIDDEN
 62
     7
370
     0
100
AcDbLine
 10
188.8913295908
 20
103.5307142857
 30
0.0
 11
188.8913295908
 21
97.6307140637
 31
0.0
  0
LINE
  5
153
330
1F
100
AcDbEntity
  8
0
  6
HIDDEN
 62
     7
370
     0
100
AcDbLine
 10
188.8913295908
 20
109.4307145077
 30
0.0
 11
188.8913295908
 21
103.5307142857
 31
0.0
  0
LINE
  5
154
330
1F
100
AcDbEntity
  8
0
  6
HIDDEN
 62
     7
370
     0
100
AcDbLine
 10
185.6913294388
 20
97.2807141926
 30
0.0
 11
185.6913294388
 21
109.7807143788
 31
0.0
  0
LINE
  5
155
330
1F
100
AcDbEntity
  8
0
  6
HIDDEN
 62
     7
370
     0
100
AcDbLine
 10
183.1913299604
 20
97.2807141926
 30
0.0
 11
183.1913299604
 21
109.7807143788
 31
0.0
  0
SPLINE
  5
156
330
1F
100
AcDbEntity
  8
0
  6
HIDDEN
 62
     7
370
     0
100
AcDbSpline
210
0.0
220
0.0
230
1.0
 70
     8
 71
     3
 72
    15
 73
    11
 74
     0
 42
0.00000001
 43
0.00000001
 12
1.0
 22
0.0
 32
0.0
 13
1.0
 23
0.0
 33
0.0
 40
0.0
 40
0.0
 40
0.0
 40
0.0
 40
0.0929176274588977
 40
0.1889696644843364
 40
0.3762705635632945
 40
0.5851674939372337
 40
0.6984389136101024
 40
0.8156442950414327
 40
0.9183550404674931
 40
1.0
 40
1.0
 40
1.0
 40
1.0
 10
216.8913285924628
 20
108.4041115801462
 30
0.0
 10
216.7169031265765
 20
108.4096320270206
 30
0.0
 10
216.3621682644467
 20
108.4208591431469
 30
0.0
 10
215.679821074712
 20
108.5349698273692
 30
0.0
 10
214.8673614967269
 20
108.7855653463946
 30
0.0
 10
214.1970631045537
 20
109.0933767105371
 30
0.0
 10
213.7670048583081
 20
109.3178899748536
 30
0.0
 10
213.5363690841671
 20
109.4466938108926
 30
0.0
 10
213.4075373923832
 20
109.5212251904951
 30
0.0
 10
213.4026707768078
 20
109.5240961592023
 30
0.0
 10
213.4005155159667
 20
109.5253676149675
 30
0.0
  0
LINE
  5
157
330
1F
100
AcDbEntity
  8
0
  6
HIDDEN
 62
     7
370
     0
100
AcDbLine
 10
216.0268936052
 20
108.4861550454
 30
0.0
 11
216.9165748848
 21
108.4055001821
 31
0.0
  0
SPLINE
  5
158
330
1F
100
AcDbEntity
  8
0
  6
HIDDEN
 62
     7
370
     0
100
AcDbSpline
210
0.0
220
0.0
230
1.0
 70
     8
 71
     3
 72
    15
 73
    11
 74
     0
 42
0.00000001
 43
0.00000001
 12
1.0
 22
0.0
 32
0.0
 13
1.0
 23
0.0
 33
0.0
 40
0.0
 40
0.0
 40
0.0
 40
0.0
 40
0.0072877533438943
 40
0.1925586287854369
 40
0.377020048348888
 40
0.5818867677227806
 40
0.6945288331961745
 40
0.8107851562693882
 40
0.9038866605240058
 40
1.0
 40
1.0
 40
1.0
 40
1.0
 10
220.3880201770499
 20
109.5287906910905
 30
0.0
 10
220.3890953161498
 20
109.529415957267
 30
0.0
 10
220.4175028789548
 20
109.5459368783107
 30
0.0
 10
220.2601887277296
 20
109.4533695993094
 30
0.0
 10
219.8076693776486
 20
109.2029320163259
 30
0.0
 10
219.1789546094983
 20
108.9018193025576
 30
0.0
 10
218.5238652770895
 20
108.661263274593
 30
0.0
 10
217.9797903513636
 20
108.5151727990372
 30
0.0
 10
217.4267419723224
 20
108.421530512537
 30
0.0
 10
217.0716836045759
 20
108.4099791805472
 30
0.0
 10
216.8913285924628
 20
108.4041115801462
 30
0.0
  0
SPLINE
  5
159
330
1F
100
AcDbEntity
  8
0
  6
HIDDEN
 62
     7
370
     0
100
AcDbSpline
210
0.0
220
0.0
230
1.0
 70
     8
 71
     3
 72
    15
 73
    11
 74
     0
 42
0.00000001
 43
0.00000001
 12
1.0
 22
0.0
 32
0.0
 13
1.0
 23
0.0
 33
0.0
 40
0.0
 40
0.0
 40
0.0
 40
0.0
 40
0.092917581103966
 40
0.1889702083279599
 40
0.3762710139658711
 40
0.5851678401248922
 40
0.6984392032886888
 40
0.8156445262483641
 40
0.9183550811986936
 40
1.0
 40
1.0
 40
1.0
 40
1.0
 10
206.8913306786254
 20
108.4041115801462
 30
0.0
 10
206.716905244606
 20
108.409632095147
 30
0.0
 10
206.3621692494077
 20
108.4208593877367
 30
0.0
 10
205.6798203251992
 20
108.534969168004
 30
0.0
 10
204.8673599824974
 20
108.7855654772446
 30
0.0
 10
204.1970612431062
 20
109.0933766876194
 30
0.0
 10
203.7670036299765
 20
109.3178899872858
 30
0.0
 10
203.5363660075729
 20
109.4466937237917
 30
0.0
 10
203.407540377927
 20
109.5212252244748
 30
0.0
 10
203.4026731401503
 20
109.5240961689663
 30
0.0
 10
203.4005176021292
 20
109.5253676149675
 30
0.0
  0
LINE
  5
15A
330
1F
100
AcDbEntity
  8
0
  6
HIDDEN
 62
     7
370
     0
100
AcDbLine
 10
206.0268956913
 20
108.4861550454
 30
0.0
 11
206.9165732457
 21
108.4055001821
 31
0.0
  0
SPLINE
  5
15B
330
1F
100
AcDbEntity
  8
0
  6
HIDDEN
 62
     7
370
     0
100
AcDbSpline
210
0.0
220
0.0
230
1.0
 70
     8
 71
     3
 72
    15
 73
    11
 74
     0
 42
0.00000001
 43
0.00000001
 12
1.0
 22
0.0
 32
0.0
 13
1.0
 23
0.0
 33
0.0
 40
0.0
 40
0.0
 40
0.0
 40
0.0
 40
0.0072878056127149
 40
0.192558851973063
 40
0.3770200540213986
 40
0.5818872796301264
 40
0.6945293849405092
 40
0.8107857491289298
 40
0.9038872863098221
 40
1.0
 40
1.0
 40
1.0
 40
1.0
 10
210.3880185379222
 20
109.5287906910905
 30
0.0
 10
210.3890949479155
 20
109.5294159574897
 30
0.0
 10
210.4175359195293
 20
109.5459367850746
 30
0.0
 10
210.2601704690893
 20
109.4533700182907
 30
0.0
 10
209.807677544445
 20
109.2029312235652
 30
0.0
 10
209.1789523082648
 20
108.9018197091292
 30
0.0
 10
208.5238639117533
 20
108.6612632409458
 30
0.0
 10
207.9797886536607
 20
108.5151728029711
 30
0.0
 10
207.4267415440814
 20
108.4215307229759
 30
0.0
 10
207.0716844397826
 20
108.4099792382909
 30
0.0
 10
206.8913306786254
 20
108.4041115801462
 30
0.0
  0
SPLINE
  5
15C
330
1F
100
AcDbEntity
  8
0
  6
HIDDEN
 62
     7
370
     0
100
AcDbSpline
210
0.0
220
0.0
230
1.0
 70
     8
 71
     3
 72
    15
 73
    11
 74
     0
 42
0.00000001
 43
0.00000001
 12
1.0
 22
0.0
 32
0.0
 13
1.0
 23
0.0
 33
0.0
 40
0.0
 40
0.0
 40
0.0
 40
0.0
 40
0.0929179034566236
 40
0.1889702039013149
 40
0.37627099448402
 40
0.5851678038519506
 40
0.6984391579110146
 40
0.8156444714497465
 40
0.9183550877612979
 40
1.0
 40
1.0
 40
1.0
 40
1.0
 10
196.8913309021428
 20
108.4041115801462
 30
0.0
 10
196.7169048248558
 20
108.4096320330646
 30
0.0
 10
196.3621687603897
 20
108.4208591601822
 30
0.0
 10
195.6798201031166
 20
108.5349695006607
 30
0.0
 10
194.8673601438726
 20
108.7855654106679
 30
0.0
 10
194.19706157774
 20
109.093376699242
 30
0.0
 10
193.7670036481046
 20
109.317889981036
 30
0.0
 10
193.5363669498224
 20
109.4466937673498
 30
0.0
 10
193.4075382891086
 20
109.5212252074836
 30
0.0
 10
193.4026713624325
 20
109.5240961640839
 30
0.0
 10
193.4005159630015
 20
109.5253676149675
 30
0.0
  0
LINE
  5
15D
330
1F
100
AcDbEntity
  8
0
  6
HIDDEN
 62
     7
370
     0
100
AcDbLine
 10
196.0268940522
 20
108.4861550454
 30
0.0
 11
196.9165734692
 21
108.4055001821
 31
0.0
  0
SPLINE
  5
15E
330
1F
100
AcDbEntity
  8
0
  6
HIDDEN
 62
     7
370
     0
100
AcDbSpline
210
0.0
220
0.0
230
1.0
 70
     8
 71
     3
 72
    15
 73
    11
 74
     0
 42
0.00000001
 43
0.00000001
 12
1.0
 22
0.0
 32
0.0
 13
1.0
 23
0.0
 33
0.0
 40
0.0
 40
0.0
 40
0.0
 40
0.0
 40
0.0072878056127149
 40
0.192558851973063
 40
0.3770200540213986
 40
0.5818872796301264
 40
0.6945293849405092
 40
0.8107857491289298
 40
0.9038872863098221
 40
1.0
 40
1.0
 40
1.0
 40
1.0
 10
200.3880187614396
 20
109.5287906910905
 30
0.0
 10
200.3890951714329
 20
109.5294159574897
 30
0.0
 10
200.4175361430466
 20
109.5459367850746
 30
0.0
 10
200.2601706926067
 20
109.4533700182907
 30
0.0
 10
199.8076777679624
 20
109.2029312235652
 30
0.0
 10
199.1789525317822
 20
108.9018197091292
 30
0.0
 10
198.5238641352707
 20
108.6612632409458
 30
0.0
 10
197.9797888771782
 20
108.5151728029711
 30
0.0
 10
197.4267417675988
 20
108.4215307229759
 30
0.0
 10
197.0716846633
 20
108.4099792382909
 30
0.0
 10
196.8913309021428
 20
108.4041115801462
 30
0.0
  0
LINE
  5
15F
330
1F
100
AcDbEntity
  8
0
  6
HIDDEN
 62
     7
370
     0
100
AcDbLine
 10
196.8913309021
 20
107.0307143937
 30
0.0
 11
196.6207742436
 21
107.0099540494
 31
0.0
  0
SPLINE
  5
160
330
1F
100
AcDbEntity
  8
0
  6
HIDDEN
 62
     7
370
     0
100
AcDbSpline
210
0.0
220
0.0
230
1.0
 70
     8
 71
     3
 72
     9
 73
     5
 74
     0
 42
0.00000001
 43
0.00000001
 12
1.0
 22
0.0
 32
0.0
 13
1.0
 23
0.0
 33
0.0
 40
0.0
 40
0.0
 40
0.0
 40
0.0
 40
0.4845170983600294
 40
1.0
 40
1.0
 40
1.0
 40
1.0
 10
196.0567150010302
 20
100.144227032704
 30
0.0
 10
196.3481912491376
 20
100.086621025512
 30
0.0
 10
196.9497721821818
 20
99.96772737369452
 30
0.0
 10
197.5472640836602
 20
100.1023769455149
 30
0.0
 10
197.8552609427407
 20
100.1717864975014
 30
0.0
  0
LINE
  5
161
330
1F
100
AcDbEntity
  8
0
  6
HIDDEN
 62
     7
370
     0
100
AcDbLine
 10
196.9676341607
 20
107.0248545121
 30
0.0
 11
196.8913309021
 21
107.0307143937
 31
0.0
  0
LINE
  5
162
330
1F
100
AcDbEntity
  8
0
  6
HIDDEN
 62
     7
370
     0
100
AcDbLine
 10
216.8913285925
 20
107.0307143937
 30
0.0
 11
216.8079044415
 21
107.024312948
 31
0.0
  0
SPLINE
  5
163
330
1F
100
AcDbEntity
  8
0
  6
HIDDEN
 62
     7
370
     0
100
AcDbSpline
210
0.0
220
0.0
230
1.0
 70
     8
 71
     3
 72
     9
 73
     5
 74
     0
 42
0.00000001
 43
0.00000001
 12
1.0
 22
0.0
 32
0.0
 13
1.0
 23
0.0
 33
0.0
 40
0.0
 40
0.0
 40
0.0
 40
0.0
 40
0.5192050954846975
 40
1.0
 40
1.0
 40
1.0
 40
1.0
 10
215.9842278553679
 20
100.1536291997561
 30
0.0
 10
216.2999176985132
 20
100.0897043583216
 30
0.0
 10
216.9079430162359
 20
99.9665837611041
 30
0.0
 10
217.5118358330034
 20
100.099702095942
 30
0.0
 10
217.8021844221785
 20
100.1637047130295
 30
0.0
  0
LINE
  5
164
330
1F
100
AcDbEntity
  8
0
  6
HIDDEN
 62
     7
370
     0
100
AcDbLine
 10
217.1502884223
 20
107.0108273972
 30
0.0
 11
216.8913285925
 21
107.0307143937
 31
0.0
  0
LINE
  5
165
330
1F
100
AcDbEntity
  8
0
  6
HIDDEN
 62
     7
370
     0
100
AcDbLine
 10
206.8913306786
 20
107.0307143937
 30
0.0
 11
206.7509654655
 21
107.019943881
 31
0.0
  0
LINE
  5
166
330
1F
100
AcDbEntity
  8
0
  6
HIDDEN
 62
     7
370
     0
100
AcDbLine
 10
206.1975922181
 20
106.9522041335
 30
0.0
 11
205.8543402447
 21
106.8732631366
 31
0.0
  0
SPLINE
  5
167
330
1F
100
AcDbEntity
  8
0
  6
HIDDEN
 62
     7
370
     0
100
AcDbSpline
210
0.0
220
0.0
230
1.0
 70
     8
 71
     3
 72
     9
 73
     5
 74
     0
 42
0.00000001
 43
0.00000001
 12
1.0
 22
0.0
 32
0.0
 13
1.0
 23
0.0
 33
0.0
 40
0.0
 40
0.0
 40
0.0
 40
0.0
 40
0.6727407999514176
 40
1.0
 40
1.0
 40
1.0
 40
1.0
 10
204.930661965771
 20
106.4294588260033
 30
0.0
 10
204.636016544801
 20
106.1955662427623
 30
0.0
 10
204.1980389150939
 20
105.8478950694695
 30
0.0
 10
203.9150703871641
 20
105.3600810740024
 30
0.0
 10
203.8224663330748
 20
105.2004394560733
 30
0.0
  0
LINE
  5
168
330
1F
100
AcDbEntity
  8
0
  6
HIDDEN
 62
     7
370
     0
100
AcDbLine
 10
203.6162081851
 20
102.3218499005
 30
0.0
 11
204.0130484595
 21
101.5600026559
 31
0.0
  0
LINE
  5
169
330
1F
100
AcDbEntity
  8
0
  6
HIDDEN
 62
     7
370
     0
100
AcDbLine
 10
204.8454794778
 20
100.6917373717
 30
0.0
 11
205.3419787182
 21
100.3959013588
 31
0.0
  0
LINE
  5
16A
330
1F
100
AcDbEntity
  8
0
  6
HIDDEN
 62
     7
370
     0
100
AcDbLine
 10
205.396066208
 20
100.3690501649
 30
0.0
 11
205.9138033284
 21
100.1743595089
 31
0.0
  0
LINE
  5
16B
330
1F
100
AcDbEntity
  8
0
  6
HIDDEN
 62
     7
370
     0
100
AcDbLine
 10
207.0737320675
 20
107.0167068366
 30
0.0
 11
206.8913306786
 21
107.0307143937
 31
0.0
  0
LINE
  5
16C
330
1F
100
AcDbEntity
  8
0
  6
HIDDEN
 62
     7
370
     0
100
AcDbLine
 10
178.3413298173
 20
98.0307143155
 30
0.0
 11
178.3413298173
 21
109.0307142559
 31
0.0
  0
LINE
  5
16D
330
1F
100
AcDbEntity
  8
0
  6
HIDDEN
 62
     7
370
     0
100
AcDbLine
 10
184.8865521817
 20
86.6307150546
 30
0.0
 11
182.341330473
 21
86.6307150546
 31
0.0
  0
LINE
  5
16E
330
1F
100
AcDbEntity
  8
0
  6
HIDDEN
 62
     7
370
     0
100
AcDbLine
 10
177.8413306667
 20
83.5557300571
 30
0.0
 11
177.8413306667
 21
86.6307150546
 31
0.0
  0
LINE
  5
16F
330
1F
100
AcDbEntity
  8
0
  6
HIDDEN
 62
     7
370
     0
100
AcDbLine
 10
182.341330473
 20
86.6307150546
 30
0.0
 11
177.8413306667
 21
86.6307150546
 31
0.0
  0
LINE
  5
170
330
1F
100
AcDbEntity
  8
0
  6
HIDDEN
 62
     7
370
     0
100
AcDbLine
 10
189.841330771
 20
86.6307150546
 30
0.0
 11
186.8961069478
 21
86.6307150546
 31
0.0
  0
ELLIPSE
  5
171
330
1F
100
AcDbEntity
  8
0
  6
HIDDEN
 62
     7
370
     0
100
AcDbEllipse
 10
147.8855634621
 20
103.5307142857
 30
0.0
 11
12.26424774976738
 21
0.0
 31
0.0
210
0.0
220
0.0
230
1.0
 40
0.8164965809
 41
4.884943637108986
 42
4.964202354313275
  0
ELLIPSE
  5
172
330
1F
100
AcDbEntity
  8
0
  6
HIDDEN
 62
     7
370
     0
100
AcDbEllipse
 10
147.8855634621
 20
103.5307142857
 30
0.0
 11
12.26424774976738
 21
0.0
 31
0.0
210
0.0
220
0.0
230
1.0
 40
0.8164965809
 41
1.318982952866321
 42
1.398241670070612
  0
LINE
  5
173
330
1F
100
AcDbEntity
  8
0
  6
HIDDEN
 62
     7
370
     0
100
AcDbLine
 10
189.8413922383
 20
120.4307135168
 30
0.0
 11
186.6829849525
 21
120.4307135168
 31
0.0
  0
LINE
  5
174
330
1F
100
AcDbEntity
  8
0
  6
HIDDEN
 62
     7
370
     0
100
AcDbLine
 10
185.099674177
 20
120.4307135168
 30
0.0
 11
182.341330473
 21
120.4307135168
 31
0.0
  0
LINE
  5
175
330
1F
100
AcDbEntity
  8
0
  6
HIDDEN
 62
     7
370
     0
100
AcDbLine
 10
182.341330473
 20
120.4307135168
 30
0.0
 11
177.8413306667
 21
120.4307135168
 31
0.0
  0
LINE
  5
176
330
1F
100
AcDbEntity
  8
0
  6
HIDDEN
 62
     7
370
     0
100
AcDbLine
 10
150.9413297965
 20
114.5307142261
 30
0.0
 11
150.9413297965
 21
113.2286200273
 31
0.0
  0
LINE
  5
177
330
1F
100
AcDbEntity
  8
0
  6
HIDDEN
 62
     7
370
     0
100
AcDbLine
 10
153.5913299514
 20
114.5307142261
 30
0.0
 11
153.5913299514
 21
113.5549042347
 31
0.0
  0
LINE
  5
178
330
1F
100
AcDbEntity
  8
0
  6
HIDDEN
 62
     7
370
     0
100
AcDbLine
 10
156.0913303612
 20
92.5307143453
 30
0.0
 11
156.0913303612
 21
93.488321637
 31
0.0
  0
LINE
  5
179
330
1F
100
AcDbEntity
  8
0
  6
HIDDEN
 62
     7
370
     0
100
AcDbLine
 10
151.0003309442
 20
92.5307143453
 30
0.0
 11
151.0003309442
 21
93.8085308272
 31
0.0
  0
SPLINE
  5
17A
330
1F
100
AcDbEntity
  8
0
  6
HIDDEN
 62
     7
370
     0
100
AcDbSpline
210
0.0
220
0.0
230
1.0
 70
     8
 71
     3
 72
    11
 73
     7
 74
     0
 42
0.00000001
 43
0.00000001
 12
1.0
 22
0.0
 32
0.0
 13
1.0
 23
0.0
 33
0.0
 40
0.0
 40
0.0
 40
0.0
 40
0.0
 40
0.3851954207689286
 40
0.7128710471912713
 40
0.8994964148501966
 40
1.0
 40
1.0
 40
1.0
 40
1.0
 10
161.9757039217785
 20
89.32488970194545
 30
0.0
 10
162.0948013362184
 20
89.33959032648545
 30
0.0
 10
162.3152117927603
 20
89.3667963861766
 30
0.0
 10
162.691757312121
 20
89.39349765731258
 30
0.0
 10
162.9686069482975
 20
89.40793288479405
 30
0.0
 10
163.105952642817
 20
89.4112594008686
 30
0.0
 10
163.1540276786819
 20
89.41242377941099
 30
0.0
  0
SPLINE
  5
17B
330
1F
100
AcDbEntity
  8
0
  6
HIDDEN
 62
     7
370
     0
100
AcDbSpline
210
0.0
220
0.0
230
1.0
 70
     8
 71
     3
 72
    47
 73
    43
 74
     0
 42
0.00000001
 43
0.00000001
 12
1.0
 22
0.0
 32
0.0
 13
1.0
 23
0.0
 33
0.0
 40
0.0
 40
0.0
 40
0.0
 40
0.0
 40
0.0182122804094397
 40
0.0624448888913288
 40
0.1155365812666187
 40
0.1647116657566212
 40
0.2142756530941617
 40
0.2663047472127114
 40
0.2933053730812618
 40
0.3070544418654313
 40
0.3139913229007735
 40
0.3174753543239188
 40
0.3192212732913209
 40
0.3200951985320444
 40
0.320532423062788
 40
0.320751087774848
 40
0.3208604272255246
 40
0.3209151136903841
 40
0.3209424402139943
 40
0.3209561272532988
 40
0.3209629415338613
 40
0.3209663767731347
 40
0.3209680667149318
 40
0.3209697861499929
 40
0.3331880103050143
 40
0.354741258642743
 40
0.3856232817702322
 40
0.4258251384720916
 40
0.4839331640236783
 40
0.5304173375396024
 40
0.6310367048986809
 40
0.6837627536442641
 40
0.7017116201314695
 40
0.7198390830370592
 40
0.7381481522544765
 40
0.7732779671676913
 40
0.8035933918408729
 40
0.8423937621150215
 40
0.9003272826475642
 40
0.9465659639703125
 40
0.9934971731573979
 40
1.0
 40
1.0
 40
1.0
 40
1.0
 10
165.7503585076466
 20
89.10546358410802
 30
0.0
 10
165.782665196733
 20
89.09747631318696
 30
0.0
 10
165.8934359275309
 20
89.07009016307298
 30
0.0
 10
166.0371545822286
 20
89.02964589350829
 30
0.0
 10
166.1624750397494
 20
88.9940865789905
 30
0.0
 10
166.2045476552485
 20
88.98095007377907
 30
0.0
 10
166.1654960472355
 20
88.99401079930911
 30
0.0
 10
166.0614241258481
 20
89.0230738739799
 30
0.0
 10
165.9498419835659
 20
89.05296124824562
 30
0.0
 10
165.8833375084055
 20
89.07049084631268
 30
0.0
 10
165.8473544923161
 20
89.07991978644652
 30
0.0
 10
165.8286739087912
 20
89.08479899980537
 30
0.0
 10
165.8191611594074
 20
89.08728110236382
 30
0.0
 10
165.8143610894402
 20
89.08853293228366
 30
0.0
 10
165.8119504898204
 20
89.08915971129974
 30
0.0
 10
165.8107420032162
 20
89.08947567986215
 30
0.0
 10
165.8101378809837
 20
89.08963225670585
 30
0.0
 10
165.8098346471424
 20
89.0897123776676
 30
0.0
 10
165.8096843017847
 20
89.0897510512827
 30
0.0
 10
165.809607748478
 20
89.08977107712583
 30
0.0
 10
165.8095704695707
 20
89.08978015098326
 30
0.0
 10
165.8095513610538
 20
89.08978610719404
 30
0.0
 10
165.8095408408437
 20
89.08978849126039
 30
0.0
 10
165.7894643037538
 20
89.09423317481664
 30
0.0
 10
165.7356490174417
 20
89.11024683587404
 30
0.0
 10
165.6196954926055
 20
89.13847309598441
 30
0.0
 10
165.4355754692463
 20
89.18078973950229
 30
0.0
 10
165.1449176837372
 20
89.24011308673938
 30
0.0
 10
164.7752805973981
 20
89.30413846026505
 30
0.0
 10
164.2087735990769
 20
89.38105353709223
 30
0.0
 10
163.613548506503
 20
89.41679040348575
 30
0.0
 10
163.1338835570452
 20
89.41545329864411
 30
0.0
 10
162.8981678375202
 20
89.40806478498098
 30
0.0
 10
162.7584839235524
 20
89.40146094539647
 30
0.0
 10
162.5818154850311
 20
89.3901810779039
 30
0.0
 10
162.388588751559
 20
89.37217086073522
 30
0.0
 10
162.1725760930809
 20
89.3501551024719
 30
0.0
 10
161.9450163231487
 20
89.32220569376
 30
0.0
 10
161.7488335536459
 20
89.29263964955909
 30
0.0
 10
161.6301997431689
 20
89.2708136405503
 30
0.0
 10
161.5818208393452
 20
89.263407917167
 30
0.0
 10
161.5944724157381
 20
89.26592080974946
 30
0.0
 10
161.5960120900109
 20
89.266226624293
 30
0.0
  0
LINE
  5
17C
330
1F
100
AcDbEntity
  8
0
  6
HIDDEN
 62
     7
370
     0
100
AcDbLine
 10
161.7660632102
 20
89.2943404589
 30
0.0
 11
161.9757039218
 21
89.3248897019
 31
0.0
  0
LINE
  5
17D
330
1F
100
AcDbEntity
  8
0
  6
HIDDEN
 62
     7
370
     0
100
AcDbLine
 10
161.9757011278
 20
117.736468089
 30
0.0
 11
161.7497604086
 21
117.7693977926
 31
0.0
  0
SPLINE
  5
17E
330
1F
100
AcDbEntity
  8
0
  6
HIDDEN
 62
     7
370
     0
100
AcDbSpline
210
0.0
220
0.0
230
1.0
 70
     8
 71
     3
 72
    34
 73
    30
 74
     0
 42
0.00000001
 43
0.00000001
 12
1.0
 22
0.0
 32
0.0
 13
1.0
 23
0.0
 33
0.0
 40
0.0
 40
0.0
 40
0.0
 40
0.0
 40
0.0077735237215272
 40
0.0638902873435168
 40
0.0897951517558809
 40
0.1192470649964356
 40
0.1522485328055876
 40
0.1888010115365523
 40
0.2401530487985731
 40
0.2787948771248354
 40
0.2939614921233621
 40
0.305632830616814
 40
0.3138086198827356
 40
0.378892550012822
 40
0.4421142314457697
 40
0.5035807916542783
 40
0.5634086816489073
 40
0.5894863646997414
 40
0.6190295260818357
 40
0.652042647769004
 40
0.6885286081075601
 40
0.7415723635082843
 40
0.7806448788747163
 40
0.795532567687233
 40
0.8065779827713049
 40
0.8137808796439034
 40
0.8792325130979002
 40
0.9417217629281065
 40
1.0
 40
1.0
 40
1.0
 40
1.0
 10
161.5959981201723
 20
117.7951600376197
 30
0.0
 10
161.5944508230825
 20
117.795466928233
 30
0.0
 10
161.5817336488361
 20
117.7979892501765
 30
0.0
 10
161.6194051855575
 20
117.792288700837
 30
0.0
 10
161.6812342580462
 20
117.7809381111858
 30
0.0
 10
161.7506467296538
 20
117.7690281826455
 30
0.0
 10
161.8494648193761
 20
117.7536325502067
 30
0.0
 10
161.9986823525271
 20
117.7322992986505
 30
0.0
 10
162.1899948354415
 20
117.7091592542432
 30
0.0
 10
162.3751305025758
 20
117.6905053187153
 30
0.0
 10
162.4988941830104
 20
117.6791964619794
 30
0.0
 10
162.5672372346765
 20
117.6733019523542
 30
0.0
 10
162.7366825751086
 20
117.6599603362008
 30
0.0
 10
163.0313125582148
 20
117.6462929886734
 30
0.0
 10
163.475311794426
 20
117.645083892895
 30
0.0
 10
163.9223999514843
 20
117.662960709336
 30
0.0
 10
164.2776505647154
 20
117.6932051343326
 30
0.0
 10
164.5467636585942
 20
117.7263300530222
 30
0.0
 10
164.747871373596
 20
117.7549025463862
 30
0.0
 10
164.9636977326091
 20
117.789535810176
 30
0.0
 10
165.2156041284797
 20
117.835530095665
 30
0.0
 10
165.4560739261534
 20
117.8849178024425
 30
0.0
 10
165.6307247221432
 20
117.9253886363941
 30
0.0
 10
165.7267233296349
 20
117.9496805834094
 30
0.0
 10
165.7731084560972
 20
117.9619408710653
 30
0.0
 10
165.8857320546639
 20
117.9918006473922
 30
0.0
 10
166.0367899903777
 20
118.0310640946548
 30
0.0
 10
166.1681566801055
 20
118.0680522951189
 30
0.0
 10
166.183217763092
 20
118.0732286299407
 30
0.0
 10
166.1904857239261
 20
118.0757265511581
 30
0.0
  0
SPLINE
  5
17F
330
1F
100
AcDbEntity
  8
0
  6
HIDDEN
 62
     7
370
     0
100
AcDbSpline
210
0.0
220
0.0
230
1.0
 70
     8
 71
     3
 72
    10
 73
     6
 74
     0
 42
0.00000001
 43
0.00000001
 12
1.0
 22
0.0
 32
0.0
 13
1.0
 23
0.0
 33
0.0
 40
0.0
 40
0.0
 40
0.0
 40
0.0
 40
0.2531748020364187
 40
0.5868561163861409
 40
1.0
 40
1.0
 40
1.0
 40
1.0
 10
163.0463132380083
 20
117.6491929191777
 30
0.0
 10
162.9386884825692
 20
117.6539085726069
 30
0.0
 10
162.6892156065327
 20
117.6648393999856
 30
0.0
 10
162.3077650739102
 20
117.6955124169736
 30
0.0
 10
162.0939716838786
 20
117.7218809886281
 30
0.0
 10
161.9757011278107
 20
117.7364680889675
 30
0.0
  0
LINE
  5
180
330
1F
100
AcDbEntity
  8
0
  6
HIDDEN
 62
     7
370
     0
100
AcDbLine
 10
186.9313295676
 20
117.0465610895
 30
0.0
 11
186.9313295676
 21
115.3807146448
 31
0.0
  0
LINE
  5
181
330
1F
100
AcDbEntity
  8
0
  6
HIDDEN
 62
     7
370
     0
100
AcDbLine
 10
184.8513304933
 20
117.0465610895
 30
0.0
 11
184.8513304933
 21
115.3807146448
 31
0.0
  0
LINE
  5
182
330
1F
100
AcDbEntity
  8
0
  6
HIDDEN
 62
     7
370
     0
100
AcDbLine
 10
187.9264905794
 20
119.6421235773
 30
0.0
 11
187.9264905794
 21
115.3807146448
 31
0.0
  0
SPLINE
  5
183
330
1F
100
AcDbEntity
  8
0
  6
HIDDEN
 62
     7
370
     0
100
AcDbSpline
210
0.0
220
0.0
230
1.0
 70
     8
 71
     3
 72
    12
 73
     8
 74
     0
 42
0.00000001
 43
0.00000001
 12
1.0
 22
0.0
 32
0.0
 13
1.0
 23
0.0
 33
0.0
 40
0.0
 40
0.0
 40
0.0
 40
0.0
 40
0.5000000000000002
 40
0.5000000000000002
 40
0.7500000000000001
 40
0.7500000000000001
 40
1.0
 40
1.0
 40
1.0
 40
1.0
 10
149.9913302017882
 20
91.98320108449292
 30
0.0
 10
149.9913302017882
 20
92.05201115725494
 30
0.0
 10
149.9935393179839
 20
92.11872997980484
 30
0.0
 10
150.0081636981609
 20
92.20810098323399
 30
0.0
 10
150.0149735590423
 20
92.23617780225857
 30
0.0
 10
150.0363941223838
 20
92.28426041070955
 30
0.0
 10
150.0503129622982
 20
92.30495970849407
 30
0.0
 10
150.0748616465753
 20
92.31458705257575
 30
0.0
  0
CIRCLE
  5
184
330
1F
100
AcDbEntity
  8
0
  6
HIDDEN
 62
     7
370
     0
100
AcDbCircle
 10
176.8913302018
 20
103.5307142857
 30
0.0
 40
5.0
  0
LINE
  5
185
330
1F
100
AcDbEntity
  8
0
  6
HIDDEN
 62
     7
370
     0
100
AcDbLine
 10
212.8913316621
 20
112.2305858854
 30
0.0
 11
214.14133047
 21
110.9805861462
 31
0.0
  0
LINE
  5
186
330
1F
100
AcDbEntity
  8
0
  6
HIDDEN
 62
     7
370
     0
100
AcDbLine
 10
219.6413304402
 20
110.9805861462
 30
0.0
 11
220.8913292481
 21
112.2305858854
 31
0.0
  0
LINE
  5
187
330
1F
100
AcDbEntity
  8
0
  6
HIDDEN
 62
     7
370
     0
100
AcDbLine
 10
212.8913316621
 20
120.5819267753
 30
0.0
 11
212.8913316621
 21
112.2305858854
 31
0.0
  0
LINE
  5
188
330
1F
100
AcDbEntity
  8
0
  6
HIDDEN
 62
     7
370
     0
100
AcDbLine
 10
220.8913292481
 20
112.2305858854
 30
0.0
 11
220.8913292481
 21
120.5819267753
 31
0.0
  0
LINE
  5
189
330
1F
100
AcDbEntity
  8
0
  6
HIDDEN
 62
     7
370
     0
100
AcDbLine
 10
220.8913292481
 20
120.5819267753
 30
0.0
 11
220.2008317901
 21
120.980586854
 31
0.0
  0
LINE
  5
18A
330
1F
100
AcDbEntity
  8
0
  6
HIDDEN
 62
     7
370
     0
100
AcDbLine
 10
213.5818291201
 20
120.980586854
 30
0.0
 11
212.8913316621
 21
120.5819267753
 31
0.0
  0
LINE
  5
18B
330
1F
100
AcDbEntity
  8
0
  6
HIDDEN
 62
     7
370
     0
100
AcDbLine
 10
202.891330023
 20
112.9146115828
 30
0.0
 11
204.1413288309
 21
111.6646118436
 31
0.0
  0
LINE
  5
18C
330
1F
100
AcDbEntity
  8
0
  6
HIDDEN
 62
     7
370
     0
100
AcDbLine
 10
209.6413288011
 20
111.6646118436
 30
0.0
 11
210.8913313343
 21
112.9146115828
 31
0.0
  0
LINE
  5
18D
330
1F
100
AcDbEntity
  8
0
  6
HIDDEN
 62
     7
370
     0
100
AcDbLine
 10
202.891330023
 20
119.2659512136
 30
0.0
 11
202.891330023
 21
112.9146115828
 31
0.0
  0
LINE
  5
18E
330
1F
100
AcDbEntity
  8
0
  6
HIDDEN
 62
     7
370
     0
100
AcDbLine
 10
210.8913313343
 20
112.9146115828
 30
0.0
 11
210.8913313343
 21
119.2659512136
 31
0.0
  0
LINE
  5
18F
330
1F
100
AcDbEntity
  8
0
  6
HIDDEN
 62
     7
370
     0
100
AcDbLine
 10
210.8913313343
 20
119.2659512136
 30
0.0
 11
210.200830151
 21
119.6646112922
 31
0.0
  0
LINE
  5
190
330
1F
100
AcDbEntity
  8
0
  6
HIDDEN
 62
     7
370
     0
100
AcDbLine
 10
203.5818312062
 20
119.6646112922
 30
0.0
 11
202.891330023
 21
119.2659512136
 31
0.0
  0
LINE
  5
191
330
1F
100
AcDbEntity
  8
0
  6
HIDDEN
 62
     7
370
     0
100
AcDbLine
 10
192.8913302465
 20
112.9146115828
 30
0.0
 11
194.141330917
 21
111.6646118436
 31
0.0
  0
LINE
  5
192
330
1F
100
AcDbEntity
  8
0
  6
HIDDEN
 62
     7
370
     0
100
AcDbLine
 10
199.6413308872
 20
111.6646118436
 30
0.0
 11
200.8913296951
 21
112.9146115828
 31
0.0
  0
LINE
  5
193
330
1F
100
AcDbEntity
  8
0
  6
HIDDEN
 62
     7
370
     0
100
AcDbLine
 10
192.8913302465
 20
119.2659512136
 30
0.0
 11
192.8913302465
 21
112.9146115828
 31
0.0
  0
LINE
  5
194
330
1F
100
AcDbEntity
  8
0
  6
HIDDEN
 62
     7
370
     0
100
AcDbLine
 10
200.8913296951
 20
112.9146115828
 30
0.0
 11
200.8913296951
 21
119.2659512136
 31
0.0
  0
LINE
  5
195
330
1F
100
AcDbEntity
  8
0
  6
HIDDEN
 62
     7
370
     0
100
AcDbLine
 10
200.8913296951
 20
119.2659512136
 30
0.0
 11
200.2008303745
 21
119.6646112922
 31
0.0
  0
LINE
  5
196
330
1F
100
AcDbEntity
  8
0
  6
HIDDEN
 62
     7
370
     0
100
AcDbLine
 10
193.5818295671
 20
119.6646112922
 30
0.0
 11
192.8913302465
 21
119.2659512136
 31
0.0
  0
LINE
  5
197
330
1F
100
AcDbEntity
  8
0
  6
HIDDEN
 62
     7
370
     0
100
AcDbLine
 10
169.8913302018
 20
87.3235128794
 30
0.0
 11
169.9854909741
 21
87.9935026142
 31
0.0
  0
LINE
  5
198
330
1F
100
AcDbEntity
  8
0
  6
HIDDEN
 62
     7
370
     0
100
AcDbLine
 10
169.9854909741
 20
119.0679259572
 30
0.0
 11
169.8913302018
 21
119.7379156921
 31
0.0
  0
ARC
  5
199
330
1F
100
AcDbEntity
  8
0
  6
HIDDEN
 62
     7
370
     0
100
AcDbCircle
 10
169.3913234491
 20
88.0770071322
 30
0.0
 40
0.6000067526677242
100
AcDbArc
 50
352.0
 51
0.0
  0
ARC
  5
19A
330
1F
100
AcDbEntity
  8
0
  6
HIDDEN
 62
     7
370
     0
100
AcDbCircle
 10
169.3913234491
 20
88.0770071322
 30
0.0
 40
0.6000067526677242
100
AcDbArc
 50
0.0
 51
33.5571153394
  0
ARC
  5
19B
330
1F
100
AcDbEntity
  8
0
  6
HIDDEN
 62
     7
370
     0
100
AcDbCircle
 10
169.3913234491
 20
118.9844214392
 30
0.0
 40
0.6000067526677062
100
AcDbArc
 50
348.75
 51
8.0
  0
LWPOLYLINE
  5
19C
330
1F
100
AcDbEntity
  8
0
  6
HIDDEN
 62
     7
370
     0
100
AcDbPolyline
 90
        3
 70
   128
 43
0.0
 10
169.9798012407
 20
118.8673656407
 10
169.945657409
 20
118.7548087883
 10
169.8913302018
 20
118.6527572546
  0
LINE
  5
19D
330
1F
100
AcDbEntity
  8
0
  6
HIDDEN
 62
     7
370
     0
100
AcDbLine
 10
169.9913301993
 20
88.0770068589
 30
0.0
 11
169.9913301993
 21
118.9844217125
 31
0.0
  0
ARC
  5
19E
330
1F
100
AcDbEntity
  8
0
  6
HIDDEN
 62
     7
370
     0
100
AcDbCircle
 10
159.423958146
 20
91.1807142857
 30
0.0
 40
0.4000000000000057
100
AcDbArc
 50
210.0
 51
270.0
  0
ARC
  5
19F
330
1F
100
AcDbEntity
  8
0
  6
HIDDEN
 62
     7
370
     0
100
AcDbCircle
 10
159.423958146
 20
115.8807142857
 30
0.0
 40
0.4000000000000057
100
AcDbArc
 50
90.0
 51
150.0
  0
LINE
  5
1A0
330
1F
100
AcDbEntity
  8
0
  6
HIDDEN
 62
     7
370
     0
100
AcDbLine
 10
159.4239582984
 20
90.7807145241
 30
0.0
 11
161.6221049546
 21
90.7807145241
 31
0.0
  0
LINE
  5
1A1
330
1F
100
AcDbEntity
  8
0
  6
HIDDEN
 62
     7
370
     0
100
AcDbLine
 10
161.6221049546
 20
116.2807140473
 30
0.0
 11
159.4239582984
 21
116.2807140473
 31
0.0
  0
ARC
  5
1A2
330
1F
100
AcDbEntity
  8
0
  6
HIDDEN
 62
     7
370
     0
100
AcDbCircle
 10
165.7155069297
 20
95.7807142857
 30
0.0
 40
5.00000000000001
100
AcDbArc
 50
275.3987916986
 51
326.6329870308
  0
ARC
  5
1A3
330
1F
100
AcDbEntity
  8
0
  6
HIDDEN
 62
     7
370
     0
100
AcDbCircle
 10
165.7155069297
 20
111.2807142857
 30
0.0
 40
5.000000000000024
100
AcDbArc
 50
33.3670129692
 51
84.5928143067
  0
LINE
  5
1A4
330
1F
100
AcDbEntity
  8
0
  6
HIDDEN
 62
     7
370
     0
100
AcDbLine
 10
159.0775482102
 20
116.080714387
 30
0.0
 11
157.8939797102
 21
114.0307141442
 31
0.0
  0
LINE
  5
1A5
330
1F
100
AcDbEntity
  8
0
  6
HIDDEN
 62
     7
370
     0
100
AcDbLine
 10
157.8939797102
 20
93.0307144273
 30
0.0
 11
159.0775482102
 21
90.9807141844
 31
0.0
  0
ARC
  5
1A6
330
1F
100
AcDbEntity
  8
0
  6
HIDDEN
 62
     7
370
     0
100
AcDbCircle
 10
176.8413302018
 20
93.6557142857
 30
0.0
 40
1.0
100
AcDbArc
 50
218.6821874535
 51
0.0
  0
ARC
  5
1A7
330
1F
100
AcDbEntity
  8
0
  6
HIDDEN
 62
     7
370
     0
100
AcDbCircle
 10
176.8413302018
 20
113.4057142857
 30
0.0
 40
1.0
100
AcDbArc
 50
0.0
 51
141.3178125465
  0
LINE
  5
1A8
330
1F
100
AcDbEntity
  8
0
  6
HIDDEN
 62
     7
370
     0
100
AcDbLine
 10
156.0913303612
 20
93.0307144273
 30
0.0
 11
157.8939797102
 21
93.0307144273
 31
0.0
  0
LINE
  5
1A9
330
1F
100
AcDbEntity
  8
0
  6
HIDDEN
 62
     7
370
     0
100
AcDbLine
 10
157.8939797102
 20
114.0307141442
 30
0.0
 11
153.5913299514
 21
114.0307141442
 31
0.0
  0
LINE
  5
1AA
330
1F
100
AcDbEntity
  8
0
  6
HIDDEN
 62
     7
370
     0
100
AcDbLine
 10
169.8913302018
 20
93.0307144273
 30
0.0
 11
176.060705234
 21
93.0307144273
 31
0.0
  0
LINE
  5
1AB
330
1F
100
AcDbEntity
  8
0
  6
HIDDEN
 62
     7
370
     0
100
AcDbLine
 10
176.060705234
 20
114.0307141442
 30
0.0
 11
169.8913302018
 21
114.0307141442
 31
0.0
  0
ARC
  5
1AC
330
1F
100
AcDbEntity
  8
0
  6
HIDDEN
 62
     7
370
     0
100
AcDbCircle
 10
224.5913302018
 20
109.8307142857
 30
0.0
 40
0.2999999999999972
100
AcDbArc
 50
270.0
 51
0.0
  0
ARC
  5
1AD
330
1F
100
AcDbEntity
  8
0
  6
HIDDEN
 62
     7
370
     0
100
AcDbCircle
 10
224.5913302018
 20
97.2307142857
 30
0.0
 40
0.2999999999999972
100
AcDbArc
 50
0.0
 51
90.0
  0
LINE
  5
1AE
330
1F
100
AcDbEntity
  8
0
  6
HIDDEN
 62
     7
370
     0
100
AcDbLine
 10
192.0670874162
 20
109.8307142939
 30
0.0
 11
189.291330774
 21
109.8307142939
 31
0.0
  0
LINE
  5
1AF
330
1F
100
AcDbEntity
  8
0
  6
HIDDEN
 62
     7
370
     0
100
AcDbLine
 10
189.291330774
 20
97.2307142775
 30
0.0
 11
192.0670874162
 21
97.2307142775
 31
0.0
  0
LINE
  5
1B0
330
1F
100
AcDbEntity
  8
0
  6
HIDDEN
 62
     7
370
     0
100
AcDbLine
 10
192.0670874162
 20
97.2307142775
 30
0.0
 11
192.8913302465
 21
97.5307142336
 31
0.0
  0
LINE
  5
1B1
330
1F
100
AcDbEntity
  8
0
  6
HIDDEN
 62
     7
370
     0
100
AcDbLine
 10
192.8913302465
 20
109.5307143379
 30
0.0
 11
192.0670874162
 21
109.8307142939
 31
0.0
  0
ARC
  5
1B2
330
1F
100
AcDbEntity
  8
0
  6
HIDDEN
 62
     7
370
     0
100
AcDbCircle
 10
189.2913302018
 20
109.4307142857
 30
0.0
 40
0.4000000000000341
100
AcDbArc
 50
90.0
 51
180.0
  0
ARC
  5
1B3
330
1F
100
AcDbEntity
  8
0
  6
HIDDEN
 62
     7
370
     0
100
AcDbCircle
 10
189.2913302018
 20
97.6307142857
 30
0.0
 40
0.4000000000000341
100
AcDbArc
 50
180.0
 51
270.0
  0
LINE
  5
1B4
330
1F
100
AcDbEntity
  8
0
  6
HIDDEN
 62
     7
370
     0
100
AcDbLine
 10
183.1913299604
 20
97.2807141926
 30
0.0
 11
185.6913294388
 21
97.2807141926
 31
0.0
  0
LINE
  5
1B5
330
1F
100
AcDbEntity
  8
0
  6
HIDDEN
 62
     7
370
     0
100
AcDbLine
 10
185.6913294388
 20
109.7807143788
 30
0.0
 11
183.1913299604
 21
109.7807143788
 31
0.0
  0
LINE
  5
1B6
330
1F
100
AcDbEntity
  8
0
  6
HIDDEN
 62
     7
370
     0
100
AcDbLine
 10
193.400515963
 20
109.5307143379
 30
0.0
 11
192.8913302465
 21
109.5307143379
 31
0.0
  0
LINE
  5
1B7
330
1F
100
AcDbEntity
  8
0
  6
HIDDEN
 62
     7
370
     0
100
AcDbLine
 10
203.4005176021
 20
109.5307143379
 30
0.0
 11
200.3880187614
 21
109.5307143379
 31
0.0
  0
LINE
  5
1B8
330
1F
100
AcDbEntity
  8
0
  6
HIDDEN
 62
     7
370
     0
100
AcDbLine
 10
213.400515516
 20
109.5307143379
 30
0.0
 11
210.3880185379
 21
109.5307143379
 31
0.0
  0
LINE
  5
1B9
330
1F
100
AcDbEntity
  8
0
  6
HIDDEN
 62
     7
370
     0
100
AcDbLine
 10
224.5913285507
 20
109.5307143379
 30
0.0
 11
220.388020177
 21
109.5307143379
 31
0.0
  0
LINE
  5
1BA
330
1F
100
AcDbEntity
  8
0
  6
HIDDEN
 62
     7
370
     0
100
AcDbLine
 10
192.8913302465
 20
97.5307142336
 30
0.0
 11
224.5913285507
 21
97.5307142336
 31
0.0
  0
LINE
  5
1BB
330
1F
100
AcDbEntity
  8
0
  6
HIDDEN
 62
     7
370
     0
100
AcDbLine
 10
177.8413306667
 20
97.5307142336
 30
0.0
 11
178.3413298173
 21
98.0307143155
 31
0.0
  0
LINE
  5
1BC
330
1F
100
AcDbEntity
  8
0
  6
HIDDEN
 62
     7
370
     0
100
AcDbLine
 10
178.3413298173
 20
109.0307142559
 30
0.0
 11
177.8413306667
 21
109.5307143379
 31
0.0
  0
LINE
  5
1BD
330
1F
100
AcDbEntity
  8
0
  6
HIDDEN
 62
     7
370
     0
100
AcDbLine
 10
178.3413298173
 20
98.0307143155
 30
0.0
 11
183.1913299604
 21
98.0307143155
 31
0.0
  0
LINE
  5
1BE
330
1F
100
AcDbEntity
  8
0
  6
HIDDEN
 62
     7
370
     0
100
AcDbLine
 10
183.1913299604
 20
109.0307142559
 30
0.0
 11
178.3413298173
 21
109.0307142559
 31
0.0
  0
LINE
  5
1BF
330
1F
100
AcDbEntity
  8
0
  6
HIDDEN
 62
     7
370
     0
100
AcDbLine
 10
177.8413306667
 20
123.5307138387
 30
0.0
 11
177.8413306667
 21
120.4307135168
 31
0.0
  0
LINE
  5
1C0
330
1F
100
AcDbEntity
  8
0
  6
HIDDEN
 62
     7
370
     0
100
AcDbLine
 10
213.3913289501
 20
121.5307135109
 30
0.0
 11
213.3913289501
 21
109.5253750655
 31
0.0
  0
LINE
  5
1C1
330
1F
100
AcDbEntity
  8
0
  6
HIDDEN
 62
     7
370
     0
100
AcDbLine
 10
220.3913319601
 20
109.5287981417
 30
0.0
 11
220.3913319601
 21
121.5307135109
 31
0.0
  0
LINE
  5
1C2
330
1F
100
AcDbEntity
  8
0
  6
HIDDEN
 62
     7
370
     0
100
AcDbLine
 10
203.3913310363
 20
120.0282648179
 30
0.0
 11
203.3913310363
 21
109.5253750655
 31
0.0
  0
LINE
  5
1C3
330
1F
100
AcDbEntity
  8
0
  6
HIDDEN
 62
     7
370
     0
100
AcDbLine
 10
210.391330321
 20
109.5287981417
 30
0.0
 11
210.391330321
 21
121.5307135109
 31
0.0
  0
LINE
  5
1C4
330
1F
100
AcDbEntity
  8
0
  6
HIDDEN
 62
     7
370
     0
100
AcDbLine
 10
193.3913293971
 20
120.0307141963
 30
0.0
 11
193.3913293971
 21
109.5253750655
 31
0.0
  0
LINE
  5
1C5
330
1F
100
AcDbEntity
  8
0
  6
HIDDEN
 62
     7
370
     0
100
AcDbLine
 10
200.3913305445
 20
109.5287981417
 30
0.0
 11
200.3913305445
 21
120.0307141963
 31
0.0
  0
LINE
  5
1C6
330
1F
100
AcDbEntity
  8
0
  6
HIDDEN
 62
     7
370
     0
100
AcDbLine
 10
166.6585095438
 20
88.4894095335
 30
0.0
 11
166.1905809517
 21
88.9852466035
 31
0.0
  0
LINE
  5
1C7
330
1F
100
AcDbEntity
  8
0
  6
HIDDEN
 62
     7
370
     0
100
AcDbLine
 10
161.5926760925
 20
89.265099724
 30
0.0
 11
161.0752025364
 21
88.7692747611
 31
0.0
  0
LINE
  5
1C8
330
1F
100
AcDbEntity
  8
0
  6
HIDDEN
 62
     7
370
     0
100
AcDbLine
 10
161.0745683058
 20
118.2922041017
 30
0.0
 11
161.5922542034
 21
117.7963167403
 31
0.0
  0
LINE
  5
1C9
330
1F
100
AcDbEntity
  8
0
  6
HIDDEN
 62
     7
370
     0
100
AcDbLine
 10
166.1898950326
 20
118.0759640384
 30
0.0
 11
166.6577989447
 21
118.5718579191
 31
0.0
  0
LINE
  5
1CA
330
1F
100
AcDbEntity
  8
0
  6
HIDDEN
 62
     7
370
     0
100
AcDbLine
 10
185.6913294388
 20
101.0307143416
 30
0.0
 11
188.8913295908
 21
101.0307143416
 31
0.0
  0
LINE
  5
1CB
330
1F
100
AcDbEntity
  8
0
  6
HIDDEN
 62
     7
370
     0
100
AcDbLine
 10
188.8913295908
 20
106.0307142298
 30
0.0
 11
185.6913294388
 21
106.0307142298
 31
0.0
  0
LINE
  5
1CC
330
1F
100
AcDbEntity
  8
0
  6
HIDDEN
 62
     7
370
     0
100
AcDbLine
 10
166.1913302007
 20
116.2575688187
 30
0.0
 11
166.1913302007
 21
118.0757535595
 31
0.0
  0
LINE
  5
1CD
330
1F
100
AcDbEntity
  8
0
  6
HIDDEN
 62
     7
370
     0
100
AcDbLine
 10
161.5913303314
 20
117.7952112604
 30
0.0
 11
161.5913303314
 21
116.2752117935
 31
0.0
  0
LINE
  5
1CE
330
1F
100
AcDbEntity
  8
0
  6
HIDDEN
 62
     7
370
     0
100
AcDbLine
 10
166.1913302007
 20
88.98549061
 30
0.0
 11
166.1913302007
 21
90.8038597528
 31
0.0
  0
LINE
  5
1CF
330
1F
100
AcDbEntity
  8
0
  6
HIDDEN
 62
     7
370
     0
100
AcDbLine
 10
161.5913303314
 20
90.7862167779
 30
0.0
 11
161.5913303314
 21
89.2661875087
 31
0.0
  0
DIMENSION
  5
1D0
330
1F
100
AcDbEntity
  8
VERMASSUNG
100
AcDbDimension
  2
_D
 10
146.2320995994
 20
83.5307142857
 30
0.0
 11
146.2320995994
 21
103.5307142857
 31
0.0
 70
   160
  1
HSK %%c<>
 71
     2
 42
-1.0
  3
SLDDIMSTYLE0
100
AcDbAlignedDimension
 13
170.1913302018
 23
123.5307142857
 33
0.0
 14
170.1913302018
 24
83.5307142857
 34
0.0
 50
90.0
100
AcDbRotatedDimension
  0
DIMENSION
  5
1DD
330
1F
100
AcDbEntity
  8
VERMASSUNG
100
AcDbDimension
  2
_D_1
 10
230.6735669646
 20
97.5307142857
 30
0.0
 11
230.6735669646
 21
103.5307142857
 31
0.0
 70
   160
  1
%%c<>
 71
     2
 42
-1.0
  3
SLDDIMSTYLE0
100
AcDbAlignedDimension
 13
224.5913302018
 23
109.5307142857
 33
0.0
 14
224.5913302018
 24
97.5307142857
 34
0.0
 50
90.0
100
AcDbRotatedDimension
  0
DIMENSION
  5
1E8
330
1F
100
AcDbEntity
  8
VERMASSUNG
100
AcDbDimension
  2
_D_2
 10
236.6735669646
 20
85.5307142857
 30
0.0
 11
236.6735669646
 21
103.5307142857
 31
0.0
 70
   160
  1
%%c<>
 71
     2
 42
-1.0
  3
SLDDIMSTYLE0
100
AcDbAlignedDimension
 13
223.8913302018
 23
121.5307142857
 33
0.0
 14
223.8913302018
 24
85.5307142857
 34
0.0
 50
90.0
100
AcDbRotatedDimension
  0
DIMENSION
  5
1F3
330
1F
100
AcDbEntity
  8
VERMASSUNG
100
AcDbDimension
  2
_D_3
 10
224.8913302018
 20
139.0066597214
 30
0.0
 11
187.4413302018
 21
139.0066597214
 31
0.0
 70
   160
  1
<>
 71
     2
 42
-1.0
  3
SLDDIMSTYLE0
100
AcDbAlignedDimension
 13
149.9913302018
 23
115.4607142857
 33
0.0
 14
224.8913302018
 24
120.5307142857
 34
0.0
100
AcDbRotatedDimension
  0
DIMENSION
  5
1FD
330
1F
100
AcDbEntity
  8
VERMASSUNG
100
AcDbDimension
  2
_D_4
 10
224.8913302018
 20
133.0066597214
 30
0.0
 11
197.3913302018
 21
133.0066597214
 31
0.0
 70
   160
  1
<>
 71
     2
 42
-1.0
  3
SLDDIMSTYLE0
100
AcDbAlignedDimension
 13
169.8913302018
 23
123.2307142857
 33
0.0
 14
224.8913302018
 24
120.5307142857
 34
0.0
100
AcDbRotatedDimension
  0
DIMENSION
  5
207
330
1F
100
AcDbEntity
  8
VERMASSUNG
100
AcDbDimension
  2
_D_5
 10
224.8913302018
 20
127.0066597214
 30
0.0
 11
207.3663302018
 21
127.0066597214
 31
0.0
 70
   160
  1
<>
 71
     2
 42
-1.0
  3
SLDDIMSTYLE0
100
AcDbAlignedDimension
 13
189.8413302018
 23
118.890971445
 33
0.0
 14
224.8913302018
 24
120.5307142857
 34
0.0
100
AcDbRotatedDimension
  0
DIMENSION
  5
211
330
1F
100
AcDbEntity
  8
VERMASSUNG
100
AcDbDimension
  2
_D_6
 10
188.8913302018
 20
73.5307142857
 30
0.0
 11
206.8913302018
 21
73.5307142857
 31
0.0
 70
   160
  1
<>
 71
     2
 42
-1.0
  3
SLDDIMSTYLE0
100
AcDbAlignedDimension
 13
224.8913302018
 23
86.5307142857
 33
0.0
 14
188.8913302018
 24
97.6307142857
 34
0.0
100
AcDbRotatedDimension
  0
DIMENSION
  5
21B
330
1F
100
AcDbEntity
  8
VERMASSUNG
100
AcDbDimension
  2
_D_7
 10
216.8913302018
 20
78.3479615254
 30
0.0
 11
220.8913302018
 21
78.3479615254
 31
0.0
 70
   160
  1
<>
 71
     2
 42
-1.0
  3
SLDDIMSTYLE0
100
AcDbAlignedDimension
 13
224.8913302018
 23
86.5307142857
 33
0.0
 14
216.8913302018
 24
107.5307142857
 34
0.0
100
AcDbRotatedDimension
  0
DIMENSION
  5
225
330
1F
100
AcDbEntity
  8
VERMASSUNG
100
AcDbDimension
  2
_D_8
 10
206.8913302018
 20
78.3479615254
 30
0.0
 11
211.8913302018
 21
78.3479615254
 31
0.0
 70
   160
  1
<>
 71
     2
 42
-1.0
  3
SLDDIMSTYLE0
100
AcDbAlignedDimension
 13
216.8913302018
 23
107.5307142857
 33
0.0
 14
206.8913302018
 24
107.5307142857
 34
0.0
100
AcDbRotatedDimension
  0
DIMENSION
  5
22F
330
1F
100
AcDbEntity
  8
VERMASSUNG
100
AcDbDimension
  2
_D_9
 10
196.8913302018
 20
78.3479615254
 30
0.0
 11
201.8913302018
 21
78.3479615254
 31
0.0
 70
   160
  1
<>
 71
     2
 42
-1.0
  3
SLDDIMSTYLE0
100
AcDbAlignedDimension
 13
206.8913302018
 23
107.5307142857
 33
0.0
 14
196.8913302018
 24
107.5307142857
 34
0.0
100
AcDbRotatedDimension
  0
LINE
  5
239
330
1F
100
AcDbEntity
  8
VERMASSUNG
  6
CENTERX2
370
     0
100
AcDbLine
 10
147.9238856647
 20
103.5307142857
 30
0.0
 11
226.3502539803
 21
103.5307142857
 31
0.0
  0
LINE
  5
23A
330
1F
100
AcDbEntity
  8
VERMASSUNG
  6
CENTERX2
370
     0
100
AcDbLine
 10
196.8913302018
 20
107.5307142857
 30
0.0
 11
196.8913302018
 21
122.0307142857
 31
0.0
  0
LINE
  5
23B
330
1F
100
AcDbEntity
  8
VERMASSUNG
  6
CENTERX2
370
     0
100
AcDbLine
 10
206.8913302018
 20
107.5307142857
 30
0.0
 11
206.8913302018
 21
122.7807142857
 31
0.0
  0
LINE
  5
23C
330
1F
100
AcDbEntity
  8
VERMASSUNG
  6
CENTERX2
370
     0
100
AcDbLine
 10
216.8913302018
 20
107.5307142857
 30
0.0
 11
216.8913302018
 21
123.5307142857
 31
0.0
  0
CIRCLE
  5
23D
330
1F
100
AcDbEntity
  8
0
  6
Continuous
 62
     7
370
    15
100
AcDbCircle
 10
84.5192857143
 20
103.5307142857
 30
0.0
 40
18.0
  0
CIRCLE
  5
23E
330
1F
100
AcDbEntity
  8
0
  6
Continuous
 62
     7
370
    15
100
AcDbCircle
 10
84.5192857143
 20
103.5307142857
 30
0.0
 40
6.000000000000014
  0
SPLINE
  5
23F
330
1F
100
AcDbEntity
  8
0
  6
Continuous
 62
     7
370
    15
100
AcDbSpline
210
0.0
220
0.0
230
1.0
 70
    24
 71
     3
 72
    10
 73
     6
 74
     0
 42
0.00000001
 43
0.00000001
 12
1.0
 22
0.0
 32
0.0
 13
1.0
 23
0.0
 33
0.0
 40
0.0
 40
0.0
 40
0.0
 40
0.0
 40
0.5
 40
0.5
 40
1.0
 40
1.0
 40
1.0
 40
1.0
 10
80.01928571428576
 20
122.4015913188572
 30
0.0
 10
80.01928571428576
 20
122.560025761745
 30
0.0
 10
80.01928571428576
 20
122.719046456547
 30
0.0
 10
80.01928571428576
 20
122.9490542808026
 30
0.0
 10
80.01928571428576
 20
123.0178895556194
 30
0.0
 10
80.01928571428576
 20
123.0178895556194
 30
0.0
  0
ARC
  5
240
330
1F
100
AcDbEntity
  8
0
  6
Continuous
 62
     7
370
    15
100
AcDbCircle
 10
84.5192857143
 20
103.5307142857
 30
0.0
 40
20.0
100
AcDbArc
 50
103.0028781629
 51
126.3346172154
  0
SPLINE
  5
241
330
1F
100
AcDbEntity
  8
0
  6
Continuous
 62
     7
370
    15
100
AcDbSpline
210
0.0
220
0.0
230
1.0
 70
    24
 71
     3
 72
    12
 73
     8
 74
     0
 42
0.00000001
 43
0.00000001
 12
1.0
 22
0.0
 32
0.0
 13
1.0
 23
0.0
 33
0.0
 40
0.0
 40
0.0
 40
0.0
 40
0.0
 40
0.25
 40
0.25
 40
0.5
 40
0.5
 40
1.0
 40
1.0
 40
1.0
 40
1.0
 10
72.66928571428573
 20
119.6421232867918
 30
0.0
 10
72.66928571428573
 20
119.6421232867918
 30
0.0
 10
72.66928571428573
 20
119.616498654187
 30
0.0
 10
72.66928571428573
 20
119.5279552812552
 30
0.0
 10
72.66928571428573
 20
119.4650727981405
 30
0.0
 10
72.66928571428573
 20
119.2477116102069
 30
0.0
 10
72.66928571428573
 20
119.0690646001956
 30
0.0
 10
72.66928571428573
 20
118.8909714450199
 30
0.0
  0
SPLINE
  5
242
330
1F
100
AcDbEntity
  8
0
  6
Continuous
 62
     7
370
    15
100
AcDbSpline
210
0.0
220
0.0
230
1.0
 70
    24
 71
     3
 72
    10
 73
     6
 74
     0
 42
0.00000001
 43
0.00000001
 12
1.0
 22
0.0
 32
0.0
 13
1.0
 23
0.0
 33
0.0
 40
0.0
 40
0.0
 40
0.0
 40
0.0
 40
0.5
 40
0.5
 40
1.0
 40
1.0
 40
1.0
 40
1.0
 10
79.01928571428574
 20
84.92668246462777
 30
0.0
 10
79.01928571428574
 20
84.76705029572454
 30
0.0
 10
79.01928571428574
 20
84.60600066196048
 30
0.0
 10
79.01928571428574
 20
84.37300977828389
 30
0.0
 10
79.01928571428574
 20
84.30182976268489
 30
0.0
 10
79.01928571428574
 20
84.30182976268489
 30
0.0
  0
ARC
  5
243
330
1F
100
AcDbEntity
  8
0
  6
Continuous
 62
     7
370
    15
100
AcDbCircle
 10
84.5192857143
 20
103.5307142857
 30
0.0
 40
20.0
100
AcDbArc
 50
143.6653827846
 51
254.0379858372
  0
SPLINE
  5
244
330
1F
100
AcDbEntity
  8
0
  6
Continuous
 62
     7
370
    15
100
AcDbSpline
210
0.0
220
0.0
230
1.0
 70
    24
 71
     3
 72
    12
 73
     8
 74
     0
 42
0.00000001
 43
0.00000001
 12
1.0
 22
0.0
 32
0.0
 13
1.0
 23
0.0
 33
0.0
 40
0.0
 40
0.0
 40
0.0
 40
0.0
 40
0.250000000000002
 40
0.250000000000002
 40
0.500000000000004
 40
0.500000000000004
 40
1.0
 40
1.0
 40
1.0
 40
1.0
 10
68.40787671320828
 20
115.3807142857143
 30
0.0
 10
68.40787671320828
 20
115.3807142857143
 30
0.0
 10
68.43315686337274
 20
115.3807142857143
 30
0.0
 10
68.52276820887448
 20
115.3807142857143
 30
0.0
 10
68.58575384580051
 20
115.3807142857143
 30
0.0
 10
68.80204056755807
 20
115.3807142857143
 30
0.0
 10
68.98202032497844
 20
115.3807142857143
 30
0.0
 10
69.15902855498014
 20
115.3807142857143
 30
0.0
  0
SPLINE
  5
245
330
1F
100
AcDbEntity
  8
0
  6
Continuous
 62
     7
370
    15
100
AcDbSpline
210
0.0
220
0.0
230
1.0
 70
    24
 71
     3
 72
    10
 73
     6
 74
     0
 42
0.00000001
 43
0.00000001
 12
1.0
 22
0.0
 32
0.0
 13
1.0
 23
0.0
 33
0.0
 40
0.0
 40
0.0
 40
0.0
 40
0.0
 40
0.5
 40
0.5
 40
1.0
 40
1.0
 40
1.0
 40
1.0
 10
89.01928571428574
 20
123.0178895556194
 30
0.0
 10
89.01928571428574
 20
123.0178895556194
 30
0.0
 10
89.01928571428574
 20
122.9493041531135
 30
0.0
 10
89.01928571428574
 20
122.7195308837939
 30
0.0
 10
89.01928571428574
 20
122.5610326821262
 30
0.0
 10
89.01928571428574
 20
122.4015913188572
 30
0.0
  0
ARC
  5
246
330
1F
100
AcDbEntity
  8
0
  6
Continuous
 62
     7
370
    15
100
AcDbCircle
 10
84.5192857143
 20
103.5307142857
 30
0.0
 40
20.0
100
AcDbArc
 50
285.9620141628
 51
76.9971218371
  0
SPLINE
  5
247
330
1F
100
AcDbEntity
  8
0
  6
Continuous
 62
     7
370
    15
100
AcDbSpline
210
0.0
220
0.0
230
1.0
 70
    24
 71
     3
 72
    12
 73
     8
 74
     0
 42
0.00000001
 43
0.00000001
 12
1.0
 22
0.0
 32
0.0
 13
1.0
 23
0.0
 33
0.0
 40
0.0
 40
0.0
 40
0.0
 40
0.0
 40
0.2499999999999962
 40
0.2499999999999962
 40
0.4999999999999925
 40
0.4999999999999925
 40
1.0
 40
1.0
 40
1.0
 40
1.0
 10
90.01928571428574
 20
84.30182976268489
 30
0.0
 10
90.01928571428574
 20
84.30182976268489
 30
0.0
 10
90.01928571428574
 20
84.31880535904298
 30
0.0
 10
90.01928571428574
 20
84.38328085650218
 30
0.0
 10
90.01928571428574
 20
84.43039448829678
 30
0.0
 10
90.01928571428574
 20
84.60700440228428
 30
0.0
 10
90.01928571428574
 20
84.76685327809243
 30
0.0
 10
90.01928571428574
 20
84.92668246462745
 30
0.0
  0
LINE
  5
248
330
1F
100
AcDbEntity
  8
0
  6
Continuous
 62
     7
370
    15
100
AcDbLine
 10
90.0192856845
 20
84.9266815904
 30
0.0
 11
90.0192856845
 21
86.3915774945
 31
0.0
  0
LINE
  5
249
330
1F
100
AcDbEntity
  8
0
  6
Continuous
 62
     7
370
    15
100
AcDbLine
 10
89.0192855206
 20
122.4015913877
 30
0.0
 11
89.0192855206
 21
120.9591384951
 31
0.0
  0
LINE
  5
24A
330
1F
100
AcDbEntity
  8
0
  6
Continuous
 62
     7
370
    15
100
AcDbLine
 10
79.0192857441
 20
86.3915774945
 30
0.0
 11
79.0192857441
 21
84.9266815904
 31
0.0
  0
LINE
  5
24B
330
1F
100
AcDbEntity
  8
0
  6
Continuous
 62
     7
370
    15
100
AcDbLine
 10
69.159028126
 20
115.3807146448
 30
0.0
 11
70.9702083897
 21
115.3807146448
 31
0.0
  0
LINE
  5
24C
330
1F
100
AcDbEntity
  8
0
  6
Continuous
 62
     7
370
    15
100
AcDbLine
 10
80.019285908
 20
120.9591384951
 30
0.0
 11
80.019285908
 21
122.4015913877
 31
0.0
  0
LINE
  5
24D
330
1F
100
AcDbEntity
  8
0
  6
Continuous
 62
     7
370
    15
100
AcDbLine
 10
72.6692853552
 20
118.890971874
 30
0.0
 11
72.6692853552
 21
117.0797916103
 31
0.0
  0
CIRCLE
  5
24E
330
1F
100
AcDbEntity
  8
0
  6
Continuous
 62
     7
370
    15
100
AcDbCircle
 10
84.5192857143
 20
103.5307142857
 30
0.0
 40
2.5
  0
SPLINE
  5
24F
330
1F
100
AcDbEntity
  8
0
  6
Continuous
 62
     7
370
    15
100
AcDbSpline
210
0.0
220
0.0
230
1.0
 70
     8
 71
     3
 72
    22
 73
    18
 74
     0
 42
0.00000001
 43
0.00000001
 12
1.0
 22
0.0
 32
0.0
 13
1.0
 23
0.0
 33
0.0
 40
0.0
 40
0.0
 40
0.0
 40
0.0
 40
0.2500000000000002
 40
0.2500000000000002
 40
0.3750000000000001
 40
0.3750000000000001
 40
0.5000000000000001
 40
0.5000000000000001
 40
0.6250000000000001
 40
0.6250000000000001
 40
0.75
 40
0.75
 40
0.875
 40
0.875
 40
0.9375000000000001
 40
0.9375000000000001
 40
1.0
 40
1.0
 40
1.0
 40
1.0
 10
68.4078767132083
 20
115.3807142857143
 30
0.0
 10
68.82187159137477
 20
115.9435869276123
 30
0.0
 10
69.25768139268371
 20
116.4742118113418
 30
0.0
 10
69.93442219566803
 20
117.2199228022634
 30
0.0
 10
70.16527732284273
 20
117.4615430286621
 30
0.0
 10
70.62531437800484
 20
117.9204018039881
 30
0.0
 10
70.85128205478334
 20
118.1345804764579
 30
0.0
 10
71.28847364328406
 20
118.5318090356034
 30
0.0
 10
71.50152636757663
 20
118.7162538706232
 30
0.0
 10
71.88570250681016
 20
119.0373337185068
 30
0.0
 10
72.05981951560165
 20
119.1766845486129
 30
0.0
 10
72.35333726040216
 20
119.4059900830384
 30
0.0
 10
72.46812956499959
 20
119.4925260925148
 30
0.0
 10
72.58708414109554
 20
119.581415696846
 30
0.0
 10
72.61790222408214
 20
119.6042242027076
 30
0.0
 10
72.65892143580076
 20
119.6345153654039
 30
0.0
 10
72.66928571428573
 20
119.6421232867917
 30
0.0
 10
72.66928571428573
 20
119.6421232867918
 30
0.0
  0
SPLINE
  5
250
330
1F
100
AcDbEntity
  8
0
  6
Continuous
 62
     7
370
    15
100
AcDbSpline
210
0.0
220
0.0
230
1.0
 70
     8
 71
     3
 72
    22
 73
    18
 74
     0
 42
0.00000001
 43
0.00000001
 12
1.0
 22
0.0
 32
0.0
 13
1.0
 23
0.0
 33
0.0
 40
0.0
 40
0.0
 40
0.0
 40
0.0
 40
0.1250000000000001
 40
0.1250000000000001
 40
0.2500000000000002
 40
0.2500000000000002
 40
0.3750000000000003
 40
0.3750000000000003
 40
0.5000000000000004
 40
0.5000000000000004
 40
0.6250000000000003
 40
0.6250000000000003
 40
0.7500000000000002
 40
0.7500000000000002
 40
0.8750000000000001
 40
0.8750000000000001
 40
1.0
 40
1.0
 40
1.0
 40
1.0
 10
85.51928571428574
 20
83.55572993027613
 30
0.0
 10
85.8180234426834
 20
83.57068552288546
 30
0.0
 10
86.11122876751786
 20
83.59207371953183
 30
0.0
 10
86.68718384814542
 20
83.64645196614711
 30
0.0
 10
86.97292614196081
 20
83.6798981297555
 30
0.0
 10
87.51645528295448
 20
83.75466240515325
 30
0.0
 10
87.7739484711761
 20
83.79576089411418
 30
0.0
 10
88.26115346844139
 20
83.88231382307795
 30
0.0
 10
88.49129309063053
 20
83.92796472217584
 30
0.0
 10
88.90449874683402
 20
84.01624427734068
 30
0.0
 10
89.0903344875299
 20
84.05934562734794
 30
0.0
 10
89.41943106771333
 20
84.13954980720318
 30
0.0
 10
89.55939092452738
 20
84.17584465459275
 30
0.0
 10
89.78507728575703
 20
84.23602387374245
 30
0.0
 10
89.87234869409576
 20
84.26031121117357
 30
0.0
 10
89.98974890744664
 20
84.29330930548494
 30
0.0
 10
90.01928571428574
 20
84.30182976268489
 30
0.0
 10
90.01928571428574
 20
84.30182976268489
 30
0.0
  0
SPLINE
  5
251
330
1F
100
AcDbEntity
  8
0
  6
Continuous
 62
     7
370
    15
100
AcDbSpline
210
0.0
220
0.0
230
1.0
 70
     8
 71
     3
 72
    22
 73
    18
 74
     0
 42
0.00000001
 43
0.00000001
 12
1.0
 22
0.0
 32
0.0
 13
1.0
 23
0.0
 33
0.0
 40
0.0
 40
0.0
 40
0.0
 40
0.0
 40
0.125
 40
0.125
 40
0.25
 40
0.25
 40
0.375
 40
0.375
 40
0.5
 40
0.5
 40
0.625
 40
0.625
 40
0.75
 40
0.75
 40
0.875
 40
0.875
 40
1.0
 40
1.0
 40
1.0
 40
1.0
 10
79.01928571428574
 20
84.30182976268489
 30
0.0
 10
79.01928571428574
 20
84.30182976268489
 30
0.0
 10
79.04881161270566
 20
84.2933156616185
 30
0.0
 10
79.16421644599232
 20
84.26087189273659
 30
0.0
 10
79.25159925105817
 20
84.23653800403456
 30
0.0
 10
79.47827267036578
 20
84.17607797927774
 30
0.0
 10
79.61674851669834
 20
84.14016455849924
 30
0.0
 10
79.94355901386211
 20
84.0604545324301
 30
0.0
 10
80.13260384984211
 20
84.01657623124076
 30
0.0
 10
80.54547213231783
 20
83.92833260887059
 30
0.0
 10
80.77094402356914
 20
83.88352426740963
 30
0.0
 10
81.26179962811683
 20
83.79620325949044
 30
0.0
 10
81.52063978605891
 20
83.75491247091477
 30
0.0
 10
82.06039261185472
 20
83.68057424762095
 30
0.0
 10
82.3444957006838
 20
83.64716412188629
 30
0.0
 10
82.9259488358257
 20
83.59214472036015
 30
0.0
 10
83.22059930145399
 20
83.57068295389392
 30
0.0
 10
83.51928571428576
 20
83.55572993027613
 30
0.0
  0
SPLINE
  5
252
330
1F
100
AcDbEntity
  8
0
  6
Continuous
 62
     7
370
    15
100
AcDbSpline
210
0.0
220
0.0
230
1.0
 70
     8
 71
     3
 72
    38
 73
    34
 74
     0
 42
0.00000001
 43
0.00000001
 12
1.0
 22
0.0
 32
0.0
 13
1.0
 23
0.0
 33
0.0
 40
0.0
 40
0.0
 40
0.0
 40
0.0
 40
0.0625
 40
0.0625
 40
0.125
 40
0.125
 40
0.1875
 40
0.1875
 40
0.25
 40
0.25
 40
0.3125
 40
0.3125
 40
0.375
 40
0.375
 40
0.4375
 40
0.4375
 40
0.5
 40
0.5
 40
0.5625
 40
0.5625
 40
0.625
 40
0.625
 40
0.6875
 40
0.6875
 40
0.75
 40
0.75
 40
0.8125
 40
0.8125
 40
0.875
 40
0.875
 40
0.9375
 40
0.9375
 40
1.0
 40
1.0
 40
1.0
 40
1.0
 10
80.01928571428576
 20
123.0178895556194
 30
0.0
 10
80.01928571428576
 20
123.0178895556194
 30
0.0
 10
80.04864613685724
 20
123.0247351228756
 30
0.0
 10
80.16349972736455
 20
123.0507192823092
 30
0.0
 10
80.2504518101091
 20
123.0701722011321
 30
0.0
 10
80.47656469399372
 20
123.1182043056714
 30
0.0
 10
80.61479001846742
 20
123.1465883226507
 30
0.0
 10
80.94119485370469
 20
123.2087443361296
 30
0.0
 10
81.13051662802997
 20
123.2426425118063
 30
0.0
 10
81.54408568154668
 20
123.309289944132
 30
0.0
 10
81.76993177147038
 20
123.342387361545
 30
0.0
 10
82.26136226043312
 20
123.4043933322072
 30
0.0
 10
82.52171971558342
 20
123.4325593014549
 30
0.0
 10
83.06266452714159
 20
123.4794475704844
 30
0.0
 10
83.3472083690539
 20
123.4984595578043
 30
0.0
 10
83.92842154368125
 20
123.5241005943458
 30
0.0
 10
84.22098315154224
 20
123.5306577105513
 30
0.0
 10
84.80995314215195
 20
123.5307701321862
 30
0.0
 10
85.10918427549623
 20
123.5241046089542
 30
0.0
 10
85.68702661695642
 20
123.4986890982528
 30
0.0
 10
85.96799685009739
 20
123.4800582048511
 30
0.0
 10
86.5140016496957
 20
123.4328798738117
 30
0.0
 10
86.77601394941908
 20
123.4044982205581
 30
0.0
 10
87.26251578761165
 20
123.3432052694575
 30
0.0
 10
87.49088537884464
 20
123.3098536861956
 30
0.0
 10
87.90863207773464
 20
123.2425658278362
 30
0.0
 10
88.09418371870478
 20
123.2093225316868
 30
0.0
 10
88.42011043019282
 20
123.1473165597123
 30
0.0
 10
88.56153231160339
 20
123.1183015022417
 30
0.0
 10
88.78740945780717
 20
123.0703266213923
 30
0.0
 10
88.87305022626475
 20
123.0511723840519
 30
0.0
 10
88.9892751094507
 20
123.0248863533306
 30
0.0
 10
89.01928571428574
 20
123.0178895556194
 30
0.0
 10
89.01928571428574
 20
123.0178895556194
 30
0.0
  0
ARC
  5
253
330
1F
100
AcDbEntity
  8
0
  6
Continuous
 62
     7
370
    15
100
AcDbCircle
 10
84.5192857143
 20
103.5307142857
 30
0.0
 40
19.99999999999999
100
AcDbArc
 50
267.1340160174
 51
272.8659839826
  0
LINE
  5
254
330
1F
100
AcDbEntity
  8
0
  6
HIDDEN
 62
     7
370
     0
100
AcDbLine
 10
67.4680732247
 20
107.5307144757
 30
0.0
 11
67.4680732247
 21
99.5307140957
 31
0.0
  0
LINE
  5
255
330
1F
100
AcDbEntity
  8
0
  6
HIDDEN
 62
     7
370
     0
100
AcDbLine
 10
75.8194141146
 20
107.5307144757
 30
0.0
 11
75.8194141146
 21
99.5307140957
 31
0.0
  0
LINE
  5
256
330
1F
100
AcDbEntity
  8
0
  6
HIDDEN
 62
     7
370
     0
100
AcDbLine
 10
77.0694138538
 20
106.2807142708
 30
0.0
 11
77.0694138538
 21
100.7807143006
 31
0.0
  0
LINE
  5
257
330
1F
100
AcDbEntity
  8
0
  6
HIDDEN
 62
     7
370
     0
100
AcDbLine
 10
67.069413146
 20
106.8402142238
 30
0.0
 11
67.069413146
 21
100.2212143477
 31
0.0
  0
LINE
  5
258
330
1F
100
AcDbEntity
  8
0
  6
HIDDEN
 62
     7
370
     0
100
AcDbLine
 10
72.0694139656
 20
104.4809410206
 30
0.0
 11
72.0694139656
 21
105.8286831222
 31
0.0
  0
LINE
  5
259
330
1F
100
AcDbEntity
  8
0
  6
HIDDEN
 62
     7
370
     0
100
AcDbLine
 10
67.069413146
 20
104.4809410206
 30
0.0
 11
67.069413146
 21
105.8286831222
 31
0.0
  0
LINE
  5
25A
330
1F
100
AcDbEntity
  8
0
  6
HIDDEN
 62
     7
370
     0
100
AcDbLine
 10
72.0694139656
 20
104.4809410206
 30
0.0
 11
67.069413146
 21
104.4809410206
 31
0.0
  0
LINE
  5
25B
330
1F
100
AcDbEntity
  8
0
  6
HIDDEN
 62
     7
370
     0
100
AcDbLine
 10
72.0694139656
 20
102.1829722423
 30
0.0
 11
72.0694139656
 21
104.4809410206
 31
0.0
  0
LINE
  5
25C
330
1F
100
AcDbEntity
  8
0
  6
HIDDEN
 62
     7
370
     0
100
AcDbLine
 10
67.069413146
 20
102.1829722423
 30
0.0
 11
67.069413146
 21
104.4809410206
 31
0.0
  0
LINE
  5
25D
330
1F
100
AcDbEntity
  8
0
  6
HIDDEN
 62
     7
370
     0
100
AcDbLine
 10
72.0694139656
 20
102.1829722423
 30
0.0
 11
67.069413146
 21
102.1829722423
 31
0.0
  0
LINE
  5
25E
330
1F
100
AcDbEntity
  8
0
  6
HIDDEN
 62
     7
370
     0
100
AcDbLine
 10
72.0694139656
 20
102.1829722423
 30
0.0
 11
72.0694139656
 21
101.2327454492
 31
0.0
  0
LINE
  5
25F
330
1F
100
AcDbEntity
  8
0
  6
HIDDEN
 62
     7
370
     0
100
AcDbLine
 10
67.069413146
 20
102.1829722423
 30
0.0
 11
67.069413146
 21
101.2327454492
 31
0.0
  0
LINE
  5
260
330
1F
100
AcDbEntity
  8
0
  6
HIDDEN
 62
     7
370
     0
100
AcDbLine
 10
72.0694139656
 20
104.8784563291
 30
0.0
 11
67.069413146
 21
104.8784563291
 31
0.0
  0
LINE
  5
261
330
1F
100
AcDbEntity
  8
0
  6
HIDDEN
 62
     7
370
     0
100
AcDbLine
 10
72.0694139656
 20
105.8286831222
 30
0.0
 11
67.069413146
 21
105.8286831222
 31
0.0
  0
LINE
  5
262
330
1F
100
AcDbEntity
  8
0
  6
HIDDEN
 62
     7
370
     0
100
AcDbLine
 10
72.0694139656
 20
104.8784563291
 30
0.0
 11
72.0694139656
 21
105.8286831222
 31
0.0
  0
LINE
  5
263
330
1F
100
AcDbEntity
  8
0
  6
HIDDEN
 62
     7
370
     0
100
AcDbLine
 10
67.069413146
 20
104.8784563291
 30
0.0
 11
67.069413146
 21
105.8286831222
 31
0.0
  0
LINE
  5
264
330
1F
100
AcDbEntity
  8
0
  6
HIDDEN
 62
     7
370
     0
100
AcDbLine
 10
72.0694139656
 20
102.5804875509
 30
0.0
 11
67.069413146
 21
102.5804875509
 31
0.0
  0
LINE
  5
265
330
1F
100
AcDbEntity
  8
0
  6
HIDDEN
 62
     7
370
     0
100
AcDbLine
 10
72.0694139656
 20
101.2327454492
 30
0.0
 11
67.069413146
 21
101.2327454492
 31
0.0
  0
LINE
  5
266
330
1F
100
AcDbEntity
  8
0
  6
HIDDEN
 62
     7
370
     0
100
AcDbLine
 10
72.0694139656
 20
102.5804875509
 30
0.0
 11
72.0694139656
 21
101.2327454492
 31
0.0
  0
LINE
  5
267
330
1F
100
AcDbEntity
  8
0
  6
HIDDEN
 62
     7
370
     0
100
AcDbLine
 10
67.069413146
 20
102.5804875509
 30
0.0
 11
67.069413146
 21
101.2327454492
 31
0.0
  0
LINE
  5
268
330
1F
100
AcDbEntity
  8
0
  6
HIDDEN
 62
     7
370
     0
100
AcDbLine
 10
72.0694139656
 20
102.5804875509
 30
0.0
 11
72.0694139656
 21
104.8784563291
 31
0.0
  0
LINE
  5
269
330
1F
100
AcDbEntity
  8
0
  6
HIDDEN
 62
     7
370
     0
100
AcDbLine
 10
67.069413146
 20
102.5804875509
 30
0.0
 11
67.069413146
 21
104.8784563291
 31
0.0
  0
LINE
  5
26A
330
1F
100
AcDbEntity
  8
0
  6
HIDDEN
 62
     7
370
     0
100
AcDbLine
 10
101.5704982039
 20
99.5307140957
 30
0.0
 11
101.5704982039
 21
107.5307144757
 31
0.0
  0
LINE
  5
26B
330
1F
100
AcDbEntity
  8
0
  6
HIDDEN
 62
     7
370
     0
100
AcDbLine
 10
93.219157314
 20
99.5307140957
 30
0.0
 11
93.219157314
 21
107.5307144757
 31
0.0
  0
LINE
  5
26C
330
1F
100
AcDbEntity
  8
0
  6
HIDDEN
 62
     7
370
     0
100
AcDbLine
 10
101.9691582825
 20
100.2212143477
 30
0.0
 11
101.9691582825
 21
106.8402142238
 31
0.0
  0
LINE
  5
26D
330
1F
100
AcDbEntity
  8
0
  6
HIDDEN
 62
     7
370
     0
100
AcDbLine
 10
91.9691575747
 20
100.7807143006
 30
0.0
 11
91.9691575747
 21
106.2807142708
 31
0.0
  0
LINE
  5
26E
330
1F
100
AcDbEntity
  8
0
  6
HIDDEN
 62
     7
370
     0
100
AcDbLine
 10
101.9691582825
 20
102.5804875509
 30
0.0
 11
101.9691582825
 21
101.2327454492
 31
0.0
  0
LINE
  5
26F
330
1F
100
AcDbEntity
  8
0
  6
HIDDEN
 62
     7
370
     0
100
AcDbLine
 10
96.969157463
 20
102.5804875509
 30
0.0
 11
96.969157463
 21
101.2327454492
 31
0.0
  0
LINE
  5
270
330
1F
100
AcDbEntity
  8
0
  6
HIDDEN
 62
     7
370
     0
100
AcDbLine
 10
96.969157463
 20
104.8784563291
 30
0.0
 11
96.969157463
 21
102.5804875509
 31
0.0
  0
LINE
  5
271
330
1F
100
AcDbEntity
  8
0
  6
HIDDEN
 62
     7
370
     0
100
AcDbLine
 10
96.969157463
 20
102.5804875509
 30
0.0
 11
101.9691582825
 21
102.5804875509
 31
0.0
  0
LINE
  5
272
330
1F
100
AcDbEntity
  8
0
  6
HIDDEN
 62
     7
370
     0
100
AcDbLine
 10
101.9691582825
 20
104.8784563291
 30
0.0
 11
101.9691582825
 21
102.5804875509
 31
0.0
  0
LINE
  5
273
330
1F
100
AcDbEntity
  8
0
  6
HIDDEN
 62
     7
370
     0
100
AcDbLine
 10
96.969157463
 20
104.8784563291
 30
0.0
 11
101.9691582825
 21
104.8784563291
 31
0.0
  0
LINE
  5
274
330
1F
100
AcDbEntity
  8
0
  6
HIDDEN
 62
     7
370
     0
100
AcDbLine
 10
96.969157463
 20
104.8784563291
 30
0.0
 11
96.969157463
 21
105.8286831222
 31
0.0
  0
LINE
  5
275
330
1F
100
AcDbEntity
  8
0
  6
HIDDEN
 62
     7
370
     0
100
AcDbLine
 10
101.9691582825
 20
104.8784563291
 30
0.0
 11
101.9691582825
 21
105.8286831222
 31
0.0
  0
LINE
  5
276
330
1F
100
AcDbEntity
  8
0
  6
HIDDEN
 62
     7
370
     0
100
AcDbLine
 10
96.969157463
 20
102.1829722423
 30
0.0
 11
101.9691582825
 21
102.1829722423
 31
0.0
  0
LINE
  5
277
330
1F
100
AcDbEntity
  8
0
  6
HIDDEN
 62
     7
370
     0
100
AcDbLine
 10
96.969157463
 20
102.1829722423
 30
0.0
 11
96.969157463
 21
101.2327454492
 31
0.0
  0
LINE
  5
278
330
1F
100
AcDbEntity
  8
0
  6
HIDDEN
 62
     7
370
     0
100
AcDbLine
 10
96.969157463
 20
101.2327454492
 30
0.0
 11
101.9691582825
 21
101.2327454492
 31
0.0
  0
LINE
  5
279
330
1F
100
AcDbEntity
  8
0
  6
HIDDEN
 62
     7
370
     0
100
AcDbLine
 10
101.9691582825
 20
102.1829722423
 30
0.0
 11
101.9691582825
 21
101.2327454492
 31
0.0
  0
LINE
  5
27A
330
1F
100
AcDbEntity
  8
0
  6
HIDDEN
 62
     7
370
     0
100
AcDbLine
 10
96.969157463
 20
104.4809410206
 30
0.0
 11
101.9691582825
 21
104.4809410206
 31
0.0
  0
LINE
  5
27B
330
1F
100
AcDbEntity
  8
0
  6
HIDDEN
 62
     7
370
     0
100
AcDbLine
 10
96.969157463
 20
105.8286831222
 30
0.0
 11
101.9691582825
 21
105.8286831222
 31
0.0
  0
LINE
  5
27C
330
1F
100
AcDbEntity
  8
0
  6
HIDDEN
 62
     7
370
     0
100
AcDbLine
 10
96.969157463
 20
104.4809410206
 30
0.0
 11
96.969157463
 21
105.8286831222
 31
0.0
  0
LINE
  5
27D
330
1F
100
AcDbEntity
  8
0
  6
HIDDEN
 62
     7
370
     0
100
AcDbLine
 10
101.9691582825
 20
104.4809410206
 30
0.0
 11
101.9691582825
 21
105.8286831222
 31
0.0
  0
LINE
  5
27E
330
1F
100
AcDbEntity
  8
0
  6
HIDDEN
 62
     7
370
     0
100
AcDbLine
 10
96.969157463
 20
104.4809410206
 30
0.0
 11
96.969157463
 21
102.1829722423
 31
0.0
  0
LINE
  5
27F
330
1F
100
AcDbEntity
  8
0
  6
HIDDEN
 62
     7
370
     0
100
AcDbLine
 10
101.9691582825
 20
104.4809410206
 30
0.0
 11
101.9691582825
 21
102.1829722423
 31
0.0
  0
LINE
  5
280
330
1F
100
AcDbEntity
  8
0
  6
HIDDEN
 62
     7
370
     0
100
AcDbLine
 10
88.5192859043
 20
120.5819267753
 30
0.0
 11
80.5192855243
 21
120.5819267753
 31
0.0
  0
LINE
  5
281
330
1F
100
AcDbEntity
  8
0
  6
HIDDEN
 62
     7
370
     0
100
AcDbLine
 10
88.5192859043
 20
112.2305858854
 30
0.0
 11
80.5192855243
 21
112.2305858854
 31
0.0
  0
LINE
  5
282
330
1F
100
AcDbEntity
  8
0
  6
HIDDEN
 62
     7
370
     0
100
AcDbLine
 10
87.2692856994
 20
110.9805861462
 30
0.0
 11
81.7692857292
 21
110.9805861462
 31
0.0
  0
LINE
  5
283
330
1F
100
AcDbEntity
  8
0
  6
HIDDEN
 62
     7
370
     0
100
AcDbLine
 10
87.8287856523
 20
120.980586854
 30
0.0
 11
81.2097857762
 21
120.980586854
 31
0.0
  0
LINE
  5
284
330
1F
100
AcDbEntity
  8
0
  6
HIDDEN
 62
     7
370
     0
100
AcDbLine
 10
85.4695124491
 20
120.980586854
 30
0.0
 11
86.8172545508
 21
120.980586854
 31
0.0
  0
LINE
  5
285
330
1F
100
AcDbEntity
  8
0
  6
HIDDEN
 62
     7
370
     0
100
AcDbLine
 10
85.4695124491
 20
115.9805860344
 30
0.0
 11
86.8172545508
 21
115.9805860344
 31
0.0
  0
LINE
  5
286
330
1F
100
AcDbEntity
  8
0
  6
HIDDEN
 62
     7
370
     0
100
AcDbLine
 10
83.1715436709
 20
115.9805860344
 30
0.0
 11
85.4695124491
 21
115.9805860344
 31
0.0
  0
LINE
  5
287
330
1F
100
AcDbEntity
  8
0
  6
HIDDEN
 62
     7
370
     0
100
AcDbLine
 10
85.4695124491
 20
115.9805860344
 30
0.0
 11
85.4695124491
 21
120.980586854
 31
0.0
  0
LINE
  5
288
330
1F
100
AcDbEntity
  8
0
  6
HIDDEN
 62
     7
370
     0
100
AcDbLine
 10
83.1715436709
 20
120.980586854
 30
0.0
 11
85.4695124491
 21
120.980586854
 31
0.0
  0
LINE
  5
289
330
1F
100
AcDbEntity
  8
0
  6
HIDDEN
 62
     7
370
     0
100
AcDbLine
 10
83.1715436709
 20
115.9805860344
 30
0.0
 11
83.1715436709
 21
120.980586854
 31
0.0
  0
LINE
  5
28A
330
1F
100
AcDbEntity
  8
0
  6
HIDDEN
 62
     7
370
     0
100
AcDbLine
 10
83.1715436709
 20
115.9805860344
 30
0.0
 11
82.2213168778
 21
115.9805860344
 31
0.0
  0
LINE
  5
28B
330
1F
100
AcDbEntity
  8
0
  6
HIDDEN
 62
     7
370
     0
100
AcDbLine
 10
83.1715436709
 20
120.980586854
 30
0.0
 11
82.2213168778
 21
120.980586854
 31
0.0
  0
LINE
  5
28C
330
1F
100
AcDbEntity
  8
0
  6
HIDDEN
 62
     7
370
     0
100
AcDbLine
 10
85.8670277577
 20
115.9805860344
 30
0.0
 11
85.8670277577
 21
120.980586854
 31
0.0
  0
LINE
  5
28D
330
1F
100
AcDbEntity
  8
0
  6
HIDDEN
 62
     7
370
     0
100
AcDbLine
 10
85.8670277577
 20
115.9805860344
 30
0.0
 11
86.8172545508
 21
115.9805860344
 31
0.0
  0
LINE
  5
28E
330
1F
100
AcDbEntity
  8
0
  6
HIDDEN
 62
     7
370
     0
100
AcDbLine
 10
86.8172545508
 20
115.9805860344
 30
0.0
 11
86.8172545508
 21
120.980586854
 31
0.0
  0
LINE
  5
28F
330
1F
100
AcDbEntity
  8
0
  6
HIDDEN
 62
     7
370
     0
100
AcDbLine
 10
85.8670277577
 20
120.980586854
 30
0.0
 11
86.8172545508
 21
120.980586854
 31
0.0
  0
LINE
  5
290
330
1F
100
AcDbEntity
  8
0
  6
HIDDEN
 62
     7
370
     0
100
AcDbLine
 10
83.5690589794
 20
115.9805860344
 30
0.0
 11
83.5690589794
 21
120.980586854
 31
0.0
  0
LINE
  5
291
330
1F
100
AcDbEntity
  8
0
  6
HIDDEN
 62
     7
370
     0
100
AcDbLine
 10
82.2213168778
 20
115.9805860344
 30
0.0
 11
82.2213168778
 21
120.980586854
 31
0.0
  0
LINE
  5
292
330
1F
100
AcDbEntity
  8
0
  6
HIDDEN
 62
     7
370
     0
100
AcDbLine
 10
83.5690589794
 20
115.9805860344
 30
0.0
 11
82.2213168778
 21
115.9805860344
 31
0.0
  0
LINE
  5
293
330
1F
100
AcDbEntity
  8
0
  6
HIDDEN
 62
     7
370
     0
100
AcDbLine
 10
83.5690589794
 20
120.980586854
 30
0.0
 11
82.2213168778
 21
120.980586854
 31
0.0
  0
LINE
  5
294
330
1F
100
AcDbEntity
  8
0
  6
HIDDEN
 62
     7
370
     0
100
AcDbLine
 10
83.5690589794
 20
115.9805860344
 30
0.0
 11
85.8670277577
 21
115.9805860344
 31
0.0
  0
LINE
  5
295
330
1F
100
AcDbEntity
  8
0
  6
HIDDEN
 62
     7
370
     0
100
AcDbLine
 10
83.5690589794
 20
120.980586854
 30
0.0
 11
85.8670277577
 21
120.980586854
 31
0.0
  0
LINE
  5
296
330
1F
100
AcDbEntity
  8
0
  6
HIDDEN
 62
     7
370
     0
100
AcDbLine
 10
100.6531827208
 20
100.2212143477
 30
0.0
 11
100.6531827208
 21
106.8402142238
 31
0.0
  0
LINE
  5
297
330
1F
100
AcDbEntity
  8
0
  6
HIDDEN
 62
     7
370
     0
100
AcDbLine
 10
100.2545226422
 20
99.5307140957
 30
0.0
 11
100.2545226422
 21
107.5307144757
 31
0.0
  0
LINE
  5
298
330
1F
100
AcDbEntity
  8
0
  6
HIDDEN
 62
     7
370
     0
100
AcDbLine
 10
93.9031830114
 20
99.5307140957
 30
0.0
 11
93.9031830114
 21
107.5307144757
 31
0.0
  0
LINE
  5
299
330
1F
100
AcDbEntity
  8
0
  6
HIDDEN
 62
     7
370
     0
100
AcDbLine
 10
92.6531832721
 20
100.7807143006
 30
0.0
 11
92.6531832721
 21
106.2807142708
 31
0.0
  0
LINE
  5
29A
330
1F
100
AcDbEntity
  8
0
  6
HIDDEN
 62
     7
370
     0
100
AcDbLine
 10
100.6531827208
 20
102.9430768077
 30
0.0
 11
100.6531827208
 21
101.3027259588
 31
0.0
  0
LINE
  5
29B
330
1F
100
AcDbEntity
  8
0
  6
HIDDEN
 62
     7
370
     0
100
AcDbLine
 10
95.6531828326
 20
102.9430768077
 30
0.0
 11
95.6531828326
 21
101.3027259588
 31
0.0
  0
LINE
  5
29C
330
1F
100
AcDbEntity
  8
0
  6
HIDDEN
 62
     7
370
     0
100
AcDbLine
 10
95.6531828326
 20
105.1710650764
 30
0.0
 11
95.6531828326
 21
102.9430768077
 31
0.0
  0
LINE
  5
29D
330
1F
100
AcDbEntity
  8
0
  6
HIDDEN
 62
     7
370
     0
100
AcDbLine
 10
95.6531828326
 20
102.9430768077
 30
0.0
 11
100.6531827208
 21
102.9430768077
 31
0.0
  0
LINE
  5
29E
330
1F
100
AcDbEntity
  8
0
  6
HIDDEN
 62
     7
370
     0
100
AcDbLine
 10
100.6531827208
 20
105.1710650764
 30
0.0
 11
100.6531827208
 21
102.9430768077
 31
0.0
  0
LINE
  5
29F
330
1F
100
AcDbEntity
  8
0
  6
HIDDEN
 62
     7
370
     0
100
AcDbLine
 10
95.6531828326
 20
105.1710650764
 30
0.0
 11
100.6531827208
 21
105.1710650764
 31
0.0
  0
LINE
  5
2A0
330
1F
100
AcDbEntity
  8
0
  6
HIDDEN
 62
     7
370
     0
100
AcDbLine
 10
95.6531828326
 20
105.1710650764
 30
0.0
 11
95.6531828326
 21
105.7587026126
 31
0.0
  0
LINE
  5
2A1
330
1F
100
AcDbEntity
  8
0
  6
HIDDEN
 62
     7
370
     0
100
AcDbLine
 10
100.6531827208
 20
105.1710650764
 30
0.0
 11
100.6531827208
 21
105.7587026126
 31
0.0
  0
LINE
  5
2A2
330
1F
100
AcDbEntity
  8
0
  6
HIDDEN
 62
     7
370
     0
100
AcDbLine
 10
95.6531828326
 20
101.890363495
 30
0.0
 11
100.6531827208
 21
101.890363495
 31
0.0
  0
LINE
  5
2A3
330
1F
100
AcDbEntity
  8
0
  6
HIDDEN
 62
     7
370
     0
100
AcDbLine
 10
95.6531828326
 20
101.890363495
 30
0.0
 11
95.6531828326
 21
101.3027259588
 31
0.0
  0
LINE
  5
2A4
330
1F
100
AcDbEntity
  8
0
  6
HIDDEN
 62
     7
370
     0
100
AcDbLine
 10
95.6531828326
 20
101.3027259588
 30
0.0
 11
100.6531827208
 21
101.3027259588
 31
0.0
  0
LINE
  5
2A5
330
1F
100
AcDbEntity
  8
0
  6
HIDDEN
 62
     7
370
     0
100
AcDbLine
 10
100.6531827208
 20
101.890363495
 30
0.0
 11
100.6531827208
 21
101.3027259588
 31
0.0
  0
LINE
  5
2A6
330
1F
100
AcDbEntity
  8
0
  6
HIDDEN
 62
     7
370
     0
100
AcDbLine
 10
95.6531828326
 20
104.1183517637
 30
0.0
 11
100.6531827208
 21
104.1183517637
 31
0.0
  0
LINE
  5
2A7
330
1F
100
AcDbEntity
  8
0
  6
HIDDEN
 62
     7
370
     0
100
AcDbLine
 10
95.6531828326
 20
105.7587026126
 30
0.0
 11
100.6531827208
 21
105.7587026126
 31
0.0
  0
LINE
  5
2A8
330
1F
100
AcDbEntity
  8
0
  6
HIDDEN
 62
     7
370
     0
100
AcDbLine
 10
95.6531828326
 20
104.1183517637
 30
0.0
 11
95.6531828326
 21
105.7587026126
 31
0.0
  0
LINE
  5
2A9
330
1F
100
AcDbEntity
  8
0
  6
HIDDEN
 62
     7
370
     0
100
AcDbLine
 10
100.6531827208
 20
104.1183517637
 30
0.0
 11
100.6531827208
 21
105.7587026126
 31
0.0
  0
LINE
  5
2AA
330
1F
100
AcDbEntity
  8
0
  6
HIDDEN
 62
     7
370
     0
100
AcDbLine
 10
95.6531828326
 20
104.1183517637
 30
0.0
 11
95.6531828326
 21
101.890363495
 31
0.0
  0
LINE
  5
2AB
330
1F
100
AcDbEntity
  8
0
  6
HIDDEN
 62
     7
370
     0
100
AcDbLine
 10
100.6531827208
 20
104.1183517637
 30
0.0
 11
100.6531827208
 21
101.890363495
 31
0.0
  0
LINE
  5
2AC
330
1F
100
AcDbEntity
  8
0
  6
HIDDEN
 62
     7
370
     0
100
AcDbLine
 10
88.5192859043
 20
112.9146115828
 30
0.0
 11
80.5192855243
 21
112.9146115828
 31
0.0
  0
LINE
  5
2AD
330
1F
100
AcDbEntity
  8
0
  6
HIDDEN
 62
     7
370
     0
100
AcDbLine
 10
87.2692856994
 20
111.6646118436
 30
0.0
 11
81.7692857292
 21
111.6646118436
 31
0.0
  0
LINE
  5
2AE
330
1F
100
AcDbEntity
  8
0
  6
HIDDEN
 62
     7
370
     0
100
AcDbLine
 10
87.8287856523
 20
119.6646112922
 30
0.0
 11
81.2097857762
 21
119.6646112922
 31
0.0
  0
LINE
  5
2AF
330
1F
100
AcDbEntity
  8
0
  6
HIDDEN
 62
     7
370
     0
100
AcDbLine
 10
88.5192859043
 20
119.2659512136
 30
0.0
 11
80.5192855243
 21
119.2659512136
 31
0.0
  0
LINE
  5
2B0
330
1F
100
AcDbEntity
  8
0
  6
HIDDEN
 62
     7
370
     0
100
AcDbLine
 10
85.1069231923
 20
114.664611404
 30
0.0
 11
86.7472740412
 21
114.664611404
 31
0.0
  0
LINE
  5
2B1
330
1F
100
AcDbEntity
  8
0
  6
HIDDEN
 62
     7
370
     0
100
AcDbLine
 10
85.1069231923
 20
119.6646112922
 30
0.0
 11
86.7472740412
 21
119.6646112922
 31
0.0
  0
LINE
  5
2B2
330
1F
100
AcDbEntity
  8
0
  6
HIDDEN
 62
     7
370
     0
100
AcDbLine
 10
85.1069231923
 20
114.664611404
 30
0.0
 11
85.1069231923
 21
119.6646112922
 31
0.0
  0
LINE
  5
2B3
330
1F
100
AcDbEntity
  8
0
  6
HIDDEN
 62
     7
370
     0
100
AcDbLine
 10
82.8789349236
 20
114.664611404
 30
0.0
 11
85.1069231923
 21
114.664611404
 31
0.0
  0
LINE
  5
2B4
330
1F
100
AcDbEntity
  8
0
  6
HIDDEN
 62
     7
370
     0
100
AcDbLine
 10
82.8789349236
 20
119.6646112922
 30
0.0
 11
85.1069231923
 21
119.6646112922
 31
0.0
  0
LINE
  5
2B5
330
1F
100
AcDbEntity
  8
0
  6
HIDDEN
 62
     7
370
     0
100
AcDbLine
 10
82.8789349236
 20
114.664611404
 30
0.0
 11
82.8789349236
 21
119.6646112922
 31
0.0
  0
LINE
  5
2B6
330
1F
100
AcDbEntity
  8
0
  6
HIDDEN
 62
     7
370
     0
100
AcDbLine
 10
82.8789349236
 20
114.664611404
 30
0.0
 11
82.2912973874
 21
114.664611404
 31
0.0
  0
LINE
  5
2B7
330
1F
100
AcDbEntity
  8
0
  6
HIDDEN
 62
     7
370
     0
100
AcDbLine
 10
82.8789349236
 20
119.6646112922
 30
0.0
 11
82.2912973874
 21
119.6646112922
 31
0.0
  0
LINE
  5
2B8
330
1F
100
AcDbEntity
  8
0
  6
HIDDEN
 62
     7
370
     0
100
AcDbLine
 10
86.159636505
 20
114.664611404
 30
0.0
 11
86.159636505
 21
119.6646112922
 31
0.0
  0
LINE
  5
2B9
330
1F
100
AcDbEntity
  8
0
  6
HIDDEN
 62
     7
370
     0
100
AcDbLine
 10
86.7472740412
 20
114.664611404
 30
0.0
 11
86.7472740412
 21
119.6646112922
 31
0.0
  0
LINE
  5
2BA
330
1F
100
AcDbEntity
  8
0
  6
HIDDEN
 62
     7
370
     0
100
AcDbLine
 10
86.159636505
 20
114.664611404
 30
0.0
 11
86.7472740412
 21
114.664611404
 31
0.0
  0
LINE
  5
2BB
330
1F
100
AcDbEntity
  8
0
  6
HIDDEN
 62
     7
370
     0
100
AcDbLine
 10
86.159636505
 20
119.6646112922
 30
0.0
 11
86.7472740412
 21
119.6646112922
 31
0.0
  0
LINE
  5
2BC
330
1F
100
AcDbEntity
  8
0
  6
HIDDEN
 62
     7
370
     0
100
AcDbLine
 10
83.9316482363
 20
114.664611404
 30
0.0
 11
83.9316482363
 21
119.6646112922
 31
0.0
  0
LINE
  5
2BD
330
1F
100
AcDbEntity
  8
0
  6
HIDDEN
 62
     7
370
     0
100
AcDbLine
 10
82.2912973874
 20
114.664611404
 30
0.0
 11
82.2912973874
 21
119.6646112922
 31
0.0
  0
LINE
  5
2BE
330
1F
100
AcDbEntity
  8
0
  6
HIDDEN
 62
     7
370
     0
100
AcDbLine
 10
83.9316482363
 20
114.664611404
 30
0.0
 11
82.2912973874
 21
114.664611404
 31
0.0
  0
LINE
  5
2BF
330
1F
100
AcDbEntity
  8
0
  6
HIDDEN
 62
     7
370
     0
100
AcDbLine
 10
83.9316482363
 20
119.6646112922
 30
0.0
 11
82.2912973874
 21
119.6646112922
 31
0.0
  0
LINE
  5
2C0
330
1F
100
AcDbEntity
  8
0
  6
HIDDEN
 62
     7
370
     0
100
AcDbLine
 10
83.9316482363
 20
114.664611404
 30
0.0
 11
86.159636505
 21
114.664611404
 31
0.0
  0
LINE
  5
2C1
330
1F
100
AcDbEntity
  8
0
  6
HIDDEN
 62
     7
370
     0
100
AcDbLine
 10
83.9316482363
 20
119.6646112922
 30
0.0
 11
86.159636505
 21
119.6646112922
 31
0.0
  0
LINE
  5
2C2
330
1F
100
AcDbEntity
  8
0
  6
HIDDEN
 62
     7
370
     0
100
AcDbLine
 10
75.1353884172
 20
107.5307144757
 30
0.0
 11
75.1353884172
 21
99.5307140957
 31
0.0
  0
LINE
  5
2C3
330
1F
100
AcDbEntity
  8
0
  6
HIDDEN
 62
     7
370
     0
100
AcDbLine
 10
76.3853881564
 20
106.2807142708
 30
0.0
 11
76.3853881564
 21
100.7807143006
 31
0.0
  0
LINE
  5
2C4
330
1F
100
AcDbEntity
  8
0
  6
HIDDEN
 62
     7
370
     0
100
AcDbLine
 10
68.7840487864
 20
107.5307144757
 30
0.0
 11
68.7840487864
 21
99.5307140957
 31
0.0
  0
LINE
  5
2C5
330
1F
100
AcDbEntity
  8
0
  6
HIDDEN
 62
     7
370
     0
100
AcDbLine
 10
68.3853887078
 20
106.8402142238
 30
0.0
 11
68.3853887078
 21
100.2212143477
 31
0.0
  0
LINE
  5
2C6
330
1F
100
AcDbEntity
  8
0
  6
HIDDEN
 62
     7
370
     0
100
AcDbLine
 10
73.385388596
 20
104.1183517637
 30
0.0
 11
73.385388596
 21
105.7587026126
 31
0.0
  0
LINE
  5
2C7
330
1F
100
AcDbEntity
  8
0
  6
HIDDEN
 62
     7
370
     0
100
AcDbLine
 10
68.3853887078
 20
104.1183517637
 30
0.0
 11
68.3853887078
 21
105.7587026126
 31
0.0
  0
LINE
  5
2C8
330
1F
100
AcDbEntity
  8
0
  6
HIDDEN
 62
     7
370
     0
100
AcDbLine
 10
73.385388596
 20
104.1183517637
 30
0.0
 11
68.3853887078
 21
104.1183517637
 31
0.0
  0
LINE
  5
2C9
330
1F
100
AcDbEntity
  8
0
  6
HIDDEN
 62
     7
370
     0
100
AcDbLine
 10
73.385388596
 20
101.890363495
 30
0.0
 11
73.385388596
 21
104.1183517637
 31
0.0
  0
LINE
  5
2CA
330
1F
100
AcDbEntity
  8
0
  6
HIDDEN
 62
     7
370
     0
100
AcDbLine
 10
68.3853887078
 20
101.890363495
 30
0.0
 11
68.3853887078
 21
104.1183517637
 31
0.0
  0
LINE
  5
2CB
330
1F
100
AcDbEntity
  8
0
  6
HIDDEN
 62
     7
370
     0
100
AcDbLine
 10
73.385388596
 20
101.890363495
 30
0.0
 11
68.3853887078
 21
101.890363495
 31
0.0
  0
LINE
  5
2CC
330
1F
100
AcDbEntity
  8
0
  6
HIDDEN
 62
     7
370
     0
100
AcDbLine
 10
73.385388596
 20
101.890363495
 30
0.0
 11
73.385388596
 21
101.3027259588
 31
0.0
  0
LINE
  5
2CD
330
1F
100
AcDbEntity
  8
0
  6
HIDDEN
 62
     7
370
     0
100
AcDbLine
 10
68.3853887078
 20
101.890363495
 30
0.0
 11
68.3853887078
 21
101.3027259588
 31
0.0
  0
LINE
  5
2CE
330
1F
100
AcDbEntity
  8
0
  6
HIDDEN
 62
     7
370
     0
100
AcDbLine
 10
73.385388596
 20
105.1710650764
 30
0.0
 11
68.3853887078
 21
105.1710650764
 31
0.0
  0
LINE
  5
2CF
330
1F
100
AcDbEntity
  8
0
  6
HIDDEN
 62
     7
370
     0
100
AcDbLine
 10
73.385388596
 20
105.7587026126
 30
0.0
 11
68.3853887078
 21
105.7587026126
 31
0.0
  0
LINE
  5
2D0
330
1F
100
AcDbEntity
  8
0
  6
HIDDEN
 62
     7
370
     0
100
AcDbLine
 10
73.385388596
 20
105.1710650764
 30
0.0
 11
73.385388596
 21
105.7587026126
 31
0.0
  0
LINE
  5
2D1
330
1F
100
AcDbEntity
  8
0
  6
HIDDEN
 62
     7
370
     0
100
AcDbLine
 10
68.3853887078
 20
105.1710650764
 30
0.0
 11
68.3853887078
 21
105.7587026126
 31
0.0
  0
LINE
  5
2D2
330
1F
100
AcDbEntity
  8
0
  6
HIDDEN
 62
     7
370
     0
100
AcDbLine
 10
73.385388596
 20
102.9430768077
 30
0.0
 11
68.3853887078
 21
102.9430768077
 31
0.0
  0
LINE
  5
2D3
330
1F
100
AcDbEntity
  8
0
  6
HIDDEN
 62
     7
370
     0
100
AcDbLine
 10
73.385388596
 20
101.3027259588
 30
0.0
 11
68.3853887078
 21
101.3027259588
 31
0.0
  0
LINE
  5
2D4
330
1F
100
AcDbEntity
  8
0
  6
HIDDEN
 62
     7
370
     0
100
AcDbLine
 10
73.385388596
 20
102.9430768077
 30
0.0
 11
73.385388596
 21
101.3027259588
 31
0.0
  0
LINE
  5
2D5
330
1F
100
AcDbEntity
  8
0
  6
HIDDEN
 62
     7
370
     0
100
AcDbLine
 10
68.3853887078
 20
102.9430768077
 30
0.0
 11
68.3853887078
 21
101.3027259588
 31
0.0
  0
LINE
  5
2D6
330
1F
100
AcDbEntity
  8
0
  6
HIDDEN
 62
     7
370
     0
100
AcDbLine
 10
73.385388596
 20
102.9430768077
 30
0.0
 11
73.385388596
 21
105.1710650764
 31
0.0
  0
LINE
  5
2D7
330
1F
100
AcDbEntity
  8
0
  6
HIDDEN
 62
     7
370
     0
100
AcDbLine
 10
68.3853887078
 20
102.9430768077
 30
0.0
 11
68.3853887078
 21
105.1710650764
 31
0.0
  0
SPLINE
  5
2D8
330
1F
100
AcDbEntity
  8
0
  6
HIDDEN
 62
     7
370
     0
100
AcDbSpline
210
0.0
220
0.0
230
1.0
 70
    11
 71
     3
 72
    68
 73
    64
 74
     0
 42
0.00000001
 43
0.00000001
 12
1.0
 22
0.0
 32
0.0
 13
1.0
 23
0.0
 33
0.0
 40
-0.0312500000000004
 40
-0.0312500000000004
 40
0.0
 40
0.0
 40
0.03125
 40
0.03125
 40
0.0624999999999999
 40
0.0624999999999999
 40
0.0937499999999999
 40
0.0937499999999999
 40
0.1249999999999999
 40
0.1249999999999999
 40
0.1562499999999998
 40
0.1562499999999998
 40
0.1874999999999998
 40
0.1874999999999998
 40
0.2187499999999998
 40
0.2187499999999998
 40
0.2499999999999997
 40
0.2499999999999997
 40
0.2812499999999997
 40
0.2812499999999997
 40
0.3124999999999997
 40
0.3124999999999997
 40
0.3437499999999996
 40
0.3437499999999996
 40
0.3749999999999996
 40
0.3749999999999996
 40
0.4062499999999996
 40
0.4062499999999996
 40
0.4374999999999995
 40
0.4374999999999995
 40
0.4687499999999995
 40
0.4687499999999995
 40
0.4999999999999994
 40
0.4999999999999994
 40
0.5312499999999994
 40
0.5312499999999994
 40
0.5624999999999993
 40
0.5624999999999993
 40
0.5937499999999993
 40
0.5937499999999993
 40
0.6249999999999993
 40
0.6249999999999993
 40
0.6562499999999992
 40
0.6562499999999992
 40
0.6874999999999992
 40
0.6874999999999992
 40
0.7187499999999992
 40
0.7187499999999992
 40
0.7499999999999991
 40
0.7499999999999991
 40
0.7812499999999991
 40
0.7812499999999991
 40
0.8124999999999991
 40
0.8124999999999991
 40
0.8437499999999991
 40
0.8437499999999991
 40
0.874999999999999
 40
0.874999999999999
 40
0.9374999999999991
 40
0.9374999999999991
 40
0.9687499999999996
 40
0.9687499999999996
 40
1.0
 40
1.0
 40
1.03125
 40
1.03125
 10
102.1757292972953
 20
107.0307142857142
 30
0.0
 10
102.1757292972953
 20
107.0307142857142
 30
0.0
 10
102.1802926945253
 20
107.0079112223065
 30
0.0
 10
102.1976288412035
 20
106.9186709529214
 30
0.0
 10
102.2106098809738
 20
106.8511116024763
 30
0.0
 10
102.2427125435839
 20
106.6752540832861
 30
0.0
 10
102.2616965268506
 20
106.5677218861758
 30
0.0
 10
102.303301025921
 20
106.313762255585
 30
0.0
 10
102.3260259067272
 20
106.1663227802975
 30
0.0
 10
102.3707246439219
 20
105.8442735694376
 30
0.0
 10
102.3929284051143
 20
105.6684431983119
 30
0.0
 10
102.4345242199444
 20
105.2860539190989
 30
0.0
 10
102.4534522249858
 20
105.0831991939245
 30
0.0
 10
102.4849213738056
 20
104.6622942312423
 30
0.0
 10
102.4976697197417
 20
104.4411357321387
 30
0.0
 10
102.514869720298
 20
103.9890972482042
 30
0.0
 10
102.5192593881171
 20
103.761641269302
 30
0.0
 10
102.5193118044155
 20
103.3039097773363
 30
0.0
 10
102.5148280783111
 20
103.0713701858487
 30
0.0
 10
102.4977421766891
 20
102.6220640741487
 30
0.0
 10
102.4852240991828
 20
102.4036178953128
 30
0.0
 10
102.4535551249774
 20
101.9791766522994
 30
0.0
 10
102.4344739672691
 20
101.7750704092954
 30
0.0
 10
102.393325793407
 20
101.3964821496508
 30
0.0
 10
102.3709914199614
 20
101.2190922017636
 30
0.0
 10
102.3258216567087
 20
100.8936191049785
 30
0.0
 10
102.3035404642193
 20
100.7492093736181
 30
0.0
 10
102.2620498533228
 20
100.4957831014779
 30
0.0
 10
102.2426646798951
 20
100.3859085949507
 30
0.0
 10
102.2106096112712
 20
100.2103191942811
 30
0.0
 10
102.1978439944139
 20
100.1438749242986
 30
0.0
 10
102.1803543097344
 20
100.0538249013969
 30
0.0
 10
102.1757476831128
 20
100.0308070366217
 30
0.0
 10
102.1757110248901
 20
100.0306221069375
 30
0.0
 10
102.1801380695011
 20
100.0527269474076
 30
0.0
 10
102.1976256121072
 20
100.1427354936861
 30
0.0
 10
102.2104972683353
 20
100.2097353971924
 30
0.0
 10
102.2423660908687
 20
100.3842418174854
 30
0.0
 10
102.2616354743279
 20
100.4933332922282
 30
0.0
 10
102.3033673273837
 20
100.7480717492165
 30
0.0
 10
102.3256304165814
 20
100.8924257876857
 30
0.0
 10
102.3704167320472
 20
101.2147697176132
 30
0.0
 10
102.3930751928528
 20
101.3943698018084
 30
0.0
 10
102.434300150173
 20
101.7732798374342
 30
0.0
 10
102.4531041555284
 20
101.9739639702856
 30
0.0
 10
102.4849045050355
 20
102.3985230944828
 30
0.0
 10
102.4976301022293
 20
102.6200539537962
 30
0.0
 10
102.5147235909827
 20
103.0676972260171
 30
0.0
 10
102.5192532000297
 20
103.2970596236965
 30
0.0
 10
102.5193178761995
 20
103.7593322180674
 30
0.0
 10
102.5149016898673
 20
103.9869756053645
 30
0.0
 10
102.4979315392838
 20
104.4355142811262
 30
0.0
 10
102.485161836745
 20
104.6586650254545
 30
0.0
 10
102.4535986969795
 20
105.0816480552911
 30
0.0
 10
102.4348520670665
 20
105.282630756856
 30
0.0
 10
102.3934891391558
 20
105.6636889665556
 30
0.0
 10
102.3709157446194
 20
105.8427971853039
 30
0.0
 10
102.3039161559832
 20
106.3258186397933
 30
0.0
 10
102.2588344580051
 20
106.5868744734941
 30
0.0
 10
102.2108874525077
 20
106.8496228589025
 30
0.0
 10
102.1978502130803
 20
106.9175234953199
 30
0.0
 10
102.1802949510452
 20
107.0079074209033
 30
0.0
 10
102.1757292972953
 20
107.0307142857142
 30
0.0
 10
102.1757292972953
 20
107.0307142857142
 30
0.0
  0
SPLINE
  5
2D9
330
1F
100
AcDbEntity
  8
0
  6
HIDDEN
 62
     7
370
     0
100
AcDbSpline
210
0.0
220
0.0
230
1.0
 70
    11
 71
     3
 72
    66
 73
    62
 74
     0
 42
0.00000001
 43
0.00000001
 12
1.0
 22
0.0
 32
0.0
 13
1.0
 23
0.0
 33
0.0
 40
-0.0312500000000006
 40
-0.0312500000000006
 40
0.0
 40
0.0
 40
0.0312499999999996
 40
0.0312499999999996
 40
0.0624999999999992
 40
0.0624999999999992
 40
0.1249999999999993
 40
0.1249999999999993
 40
0.1562499999999993
 40
0.1562499999999993
 40
0.1874999999999993
 40
0.1874999999999993
 40
0.2187499999999992
 40
0.2187499999999992
 40
0.2499999999999992
 40
0.2499999999999992
 40
0.2812499999999991
 40
0.2812499999999991
 40
0.3124999999999991
 40
0.3124999999999991
 40
0.343749999999999
 40
0.343749999999999
 40
0.3749999999999989
 40
0.3749999999999989
 40
0.4062499999999989
 40
0.4062499999999989
 40
0.4374999999999988
 40
0.4374999999999988
 40
0.4687499999999988
 40
0.4687499999999988
 40
0.4999999999999987
 40
0.4999999999999987
 40
0.5312499999999986
 40
0.5312499999999986
 40
0.5624999999999986
 40
0.5624999999999986
 40
0.5937499999999984
 40
0.5937499999999984
 40
0.6249999999999984
 40
0.6249999999999984
 40
0.6562499999999983
 40
0.6562499999999983
 40
0.6874999999999983
 40
0.6874999999999983
 40
0.7187499999999982
 40
0.7187499999999982
 40
0.7499999999999982
 40
0.7499999999999982
 40
0.7812499999999981
 40
0.7812499999999981
 40
0.8124999999999981
 40
0.8124999999999981
 40
0.8749999999999983
 40
0.8749999999999983
 40
0.9062499999999987
 40
0.9062499999999987
 40
0.9374999999999991
 40
0.9374999999999991
 40
0.9687499999999994
 40
0.9687499999999994
 40
1.0
 40
1.0
 40
1.03125
 40
1.03125
 10
89.39268288669024
 20
107.0307142857143
 30
0.0
 10
89.39268288669024
 20
107.0307142857143
 30
0.0
 10
89.41004276366188
 20
107.006867385883
 30
0.0
 10
89.47416278599381
 20
106.9148446165521
 30
0.0
 10
89.52161554684821
 20
106.8454735582604
 30
0.0
 10
89.69030244305253
 20
106.5810121638751
 30
0.0
 10
89.83979341107714
 20
106.3255903246839
 30
0.0
 10
90.05384309123177
 20
105.8541725266771
 30
0.0
 10
90.12483905524189
 20
105.6793833988293
 30
0.0
 10
90.25400728577262
 20
105.3060947276146
 30
0.0
 10
90.31220959245822
 20
105.1082306947416
 30
0.0
 10
90.41053111078828
 20
104.6881911784595
 30
0.0
 10
90.45083459491354
 20
104.4629942117624
 30
0.0
 10
90.50463135559754
 20
104.0082658932072
 30
0.0
 10
90.51883888570026
 20
103.7770709282204
 30
0.0
 10
90.519711881623
 20
103.3066257713471
 30
0.0
 10
90.50598441545633
 20
103.07023018338
 30
0.0
 10
90.45335868483195
 20
102.6145347578198
 30
0.0
 10
90.41384951930827
 20
102.3898761091793
 30
0.0
 10
90.31567070596618
 20
101.9656854601833
 30
0.0
 10
90.25737312279529
 20
101.7660754465674
 30
0.0
 10
90.12784368368395
 20
101.3897624309961
 30
0.0
 10
90.05729471379256
 20
101.2154547477927
 30
0.0
 10
89.91458698408
 20
100.8999929749876
 30
0.0
 10
89.84133411397988
 20
100.7564557532531
 30
0.0
 10
89.7022114314418
 20
100.5044970786945
 30
0.0
 10
89.63721085664157
 20
100.3973719105716
 30
0.0
 10
89.5246160903787
 20
100.2204786402075
 30
0.0
 10
89.47662129833348
 20
100.1501647826479
 30
0.0
 10
89.41107630251194
 20
100.0559947464579
 30
0.0
 10
89.39323043680218
 20
100.0314766997002
 30
0.0
 10
89.39216020783498
 20
100.0299865025759
 30
0.0
 10
89.40913757399039
 20
100.0532947776042
 30
0.0
 10
89.47280425275221
 20
100.1446026906379
 30
0.0
 10
89.52007701832575
 20
100.2136402175482
 30
0.0
 10
89.63242242371253
 20
100.3895796131836
 30
0.0
 10
89.69805484101502
 20
100.4974013796061
 30
0.0
 10
89.83728813309727
 20
100.7487209126378
 30
0.0
 10
89.90977455483912
 20
100.8901552045859
 30
0.0
 10
90.05294964578098
 20
101.2050991640037
 30
0.0
 10
90.12422647584444
 20
101.380478322668
 30
0.0
 10
90.25330177621808
 20
101.7530935615829
 30
0.0
 10
90.31169802501479
 20
101.9511707787548
 30
0.0
 10
90.41058819115688
 20
102.3733236023774
 30
0.0
 10
90.45084681709446
 20
102.598566439313
 30
0.0
 10
90.50459830278476
 20
103.0528545344701
 30
0.0
 10
90.51891949054684
 20
103.284701245696
 30
0.0
 10
90.51963813601375
 20
103.7585271039993
 30
0.0
 10
90.50586594357486
 20
103.9929882513654
 30
0.0
 10
90.45294873529716
 20
104.4496719638017
 30
0.0
 10
90.41311813485264
 20
104.6752932204015
 30
0.0
 10
90.26557690151265
 20
105.3110018325501
 30
0.0
 10
90.12715967675801
 20
105.6921679625447
 30
0.0
 10
89.91251504990034
 20
106.1656925451086
 30
0.0
 10
89.83875078319457
 20
106.3098869740318
 30
0.0
 10
89.70009913968917
 20
106.5605132397689
 30
0.0
 10
89.63513417706628
 20
106.6674444213592
 30
0.0
 10
89.52247901751024
 20
106.8441774601839
 30
0.0
 10
89.4746771146459
 20
106.9140973802821
 30
0.0
 10
89.41015703290104
 20
107.0067123927502
 30
0.0
 10
89.39268288669024
 20
107.0307142857143
 30
0.0
 10
89.39268288669024
 20
107.0307142857143
 30
0.0
  0
SPLINE
  5
2DA
330
1F
100
AcDbEntity
  8
0
  6
HIDDEN
 62
     7
370
     0
100
AcDbSpline
210
0.0
220
0.0
230
1.0
 70
    11
 71
     3
 72
    68
 73
    64
 74
     0
 42
0.00000001
 43
0.00000001
 12
1.0
 22
0.0
 32
0.0
 13
1.0
 23
0.0
 33
0.0
 40
-0.0312499999999996
 40
-0.0312499999999996
 40
0.0
 40
0.0
 40
0.03125
 40
0.03125
 40
0.0625000000000001
 40
0.0625000000000001
 40
0.0937500000000001
 40
0.0937500000000001
 40
0.1250000000000001
 40
0.1250000000000001
 40
0.1562500000000001
 40
0.1562500000000001
 40
0.1875000000000002
 40
0.1875000000000002
 40
0.2187500000000002
 40
0.2187500000000002
 40
0.2500000000000002
 40
0.2500000000000002
 40
0.2812500000000002
 40
0.2812500000000002
 40
0.3125000000000003
 40
0.3125000000000003
 40
0.3437500000000003
 40
0.3437500000000003
 40
0.3750000000000003
 40
0.3750000000000003
 40
0.4062500000000003
 40
0.4062500000000003
 40
0.4375000000000004
 40
0.4375000000000004
 40
0.4687500000000004
 40
0.4687500000000004
 40
0.5000000000000004
 40
0.5000000000000004
 40
0.5312500000000004
 40
0.5312500000000004
 40
0.5625000000000004
 40
0.5625000000000004
 40
0.5937500000000006
 40
0.5937500000000006
 40
0.6250000000000006
 40
0.6250000000000006
 40
0.6562500000000006
 40
0.6562500000000006
 40
0.6875000000000007
 40
0.6875000000000007
 40
0.7187500000000007
 40
0.7187500000000007
 40
0.7500000000000007
 40
0.7500000000000007
 40
0.7812500000000007
 40
0.7812500000000007
 40
0.8125000000000007
 40
0.8125000000000007
 40
0.8437500000000008
 40
0.8437500000000008
 40
0.8750000000000008
 40
0.8750000000000008
 40
0.9375000000000009
 40
0.9375000000000009
 40
0.9687500000000004
 40
0.9687500000000004
 40
1.0
 40
1.0
 40
1.03125
 40
1.03125
 10
81.01928571428576
 20
121.1871578687239
 30
0.0
 10
81.01928571428576
 20
121.1871578687239
 30
0.0
 10
81.0420887776935
 20
121.1917212659538
 30
0.0
 10
81.13132904707854
 20
121.2090574126321
 30
0.0
 10
81.19888839752366
 20
121.2220384524023
 30
0.0
 10
81.37474591671389
 20
121.2541411150125
 30
0.0
 10
81.48227811382414
 20
121.2731250982791
 30
0.0
 10
81.736237744415
 20
121.3147295973495
 30
0.0
 10
81.88367721970246
 20
121.3374544781558
 30
0.0
 10
82.20572643056238
 20
121.3821532153504
 30
0.0
 10
82.38155680168808
 20
121.4043569765429
 30
0.0
 10
82.76394608090108
 20
121.445952791373
 30
0.0
 10
82.9668008060755
 20
121.4648807964143
 30
0.0
 10
83.38770576875763
 20
121.4963499452342
 30
0.0
 10
83.60886426786129
 20
121.5090982911702
 30
0.0
 10
84.06090275179575
 20
121.5262982917265
 30
0.0
 10
84.28835873069802
 20
121.5306879595456
 30
0.0
 10
84.7460902226637
 20
121.530740375844
 30
0.0
 10
84.97862981415126
 20
121.5262566497396
 30
0.0
 10
85.42793592585132
 20
121.5091707481177
 30
0.0
 10
85.64638210468722
 20
121.4966526706114
 30
0.0
 10
86.07082334770061
 20
121.464983696406
 30
0.0
 10
86.27492959070457
 20
121.4459025386976
 30
0.0
 10
86.65351785034915
 20
121.4047543648355
 30
0.0
 10
86.83090779823641
 20
121.3824199913899
 30
0.0
 10
87.15638089502153
 20
121.3372502281373
 30
0.0
 10
87.30079062638191
 20
121.3149690356479
 30
0.0
 10
87.55421689852211
 20
121.2734784247514
 30
0.0
 10
87.66409140504925
 20
121.2540932513237
 30
0.0
 10
87.83968080571887
 20
121.2220381826998
 30
0.0
 10
87.9061250757014
 20
121.2092725658425
 30
0.0
 10
87.99617509860309
 20
121.191782881163
 30
0.0
 10
88.01919296337829
 20
121.1871762545413
 30
0.0
 10
88.01937789306245
 20
121.1871395963187
 30
0.0
 10
87.99727305259238
 20
121.1915666409297
 30
0.0
 10
87.9072645063139
 20
121.2090541835357
 30
0.0
 10
87.84026460280761
 20
121.2219258397638
 30
0.0
 10
87.66575818251454
 20
121.2537946622973
 30
0.0
 10
87.55666670777175
 20
121.2730640457564
 30
0.0
 10
87.30192825078345
 20
121.3147958988123
 30
0.0
 10
87.1575742123143
 20
121.33705898801
 30
0.0
 10
86.83523028238677
 20
121.3818453034758
 30
0.0
 10
86.6556301981916
 20
121.4045037642814
 30
0.0
 10
86.27672016256581
 20
121.4457287216016
 30
0.0
 10
86.07603602971433
 20
121.4645327269569
 30
0.0
 10
85.65147690551716
 20
121.496333076464
 30
0.0
 10
85.4299460462038
 20
121.5090586736578
 30
0.0
 10
84.98230277398284
 20
121.5261521624113
 30
0.0
 10
84.75294037630344
 20
121.5306817714583
 30
0.0
 10
84.29066778193258
 20
121.530746447628
 30
0.0
 10
84.06302439463546
 20
121.5263302612959
 30
0.0
 10
83.61448571887377
 20
121.5093601107123
 30
0.0
 10
83.39133497454552
 20
121.4965904081735
 30
0.0
 10
82.96835194470883
 20
121.465027268408
 30
0.0
 10
82.767369243144
 20
121.446280638495
 30
0.0
 10
82.38631103344434
 20
121.4049177105843
 30
0.0
 10
82.2072028146961
 20
121.382344316048
 30
0.0
 10
81.72418136020664
 20
121.3153447274118
 30
0.0
 10
81.46312552650588
 20
121.2702630294336
 30
0.0
 10
81.20037714109752
 20
121.2223160239363
 30
0.0
 10
81.13247650468003
 20
121.2092787845088
 30
0.0
 10
81.04209257909663
 20
121.1917235224737
 30
0.0
 10
81.01928571428576
 20
121.1871578687239
 30
0.0
 10
81.01928571428576
 20
121.1871578687239
 30
0.0
  0
SPLINE
  5
2DB
330
1F
100
AcDbEntity
  8
0
  6
HIDDEN
 62
     7
370
     0
100
AcDbSpline
210
0.0
220
0.0
230
1.0
 70
    11
 71
     3
 72
    66
 73
    62
 74
     0
 42
0.00000001
 43
0.00000001
 12
1.0
 22
0.0
 32
0.0
 13
1.0
 23
0.0
 33
0.0
 40
-0.0312500000000003
 40
-0.0312500000000003
 40
0.0
 40
0.0
 40
0.0312499999999995
 40
0.0312499999999995
 40
0.0624999999999991
 40
0.0624999999999991
 40
0.124999999999999
 40
0.124999999999999
 40
0.1562499999999989
 40
0.1562499999999989
 40
0.1874999999999989
 40
0.1874999999999989
 40
0.2187499999999989
 40
0.2187499999999989
 40
0.2499999999999988
 40
0.2499999999999988
 40
0.2812499999999987
 40
0.2812499999999987
 40
0.3124999999999986
 40
0.3124999999999986
 40
0.3437499999999986
 40
0.3437499999999986
 40
0.3749999999999985
 40
0.3749999999999985
 40
0.4062499999999985
 40
0.4062499999999985
 40
0.4374999999999985
 40
0.4374999999999985
 40
0.4687499999999984
 40
0.4687499999999984
 40
0.4999999999999984
 40
0.4999999999999984
 40
0.5312499999999984
 40
0.5312499999999984
 40
0.5624999999999984
 40
0.5624999999999984
 40
0.5937499999999983
 40
0.5937499999999983
 40
0.6249999999999983
 40
0.6249999999999983
 40
0.6562499999999983
 40
0.6562499999999983
 40
0.6874999999999983
 40
0.6874999999999983
 40
0.7187499999999983
 40
0.7187499999999983
 40
0.7499999999999982
 40
0.7499999999999982
 40
0.7812499999999982
 40
0.7812499999999982
 40
0.8124999999999982
 40
0.8124999999999982
 40
0.8749999999999984
 40
0.8749999999999984
 40
0.9062499999999989
 40
0.9062499999999989
 40
0.9374999999999992
 40
0.9374999999999992
 40
0.9687499999999997
 40
0.9687499999999997
 40
1.0
 40
1.0
 40
1.03125
 40
1.03125
 10
81.01928571428574
 20
108.4041114581188
 30
0.0
 10
81.01928571428576
 20
108.4041114581188
 30
0.0
 10
81.04313261411704
 20
108.4214713350904
 30
0.0
 10
81.1351553834479
 20
108.4855913574224
 30
0.0
 10
81.20452644173965
 20
108.5330441182767
 30
0.0
 10
81.46898783612491
 20
108.7017310144811
 30
0.0
 10
81.7244096753161
 20
108.8512219825057
 30
0.0
 10
82.1958274733229
 20
109.0652716626603
 30
0.0
 10
82.37061660117074
 20
109.1362676266704
 30
0.0
 10
82.74390527238542
 20
109.2654358572012
 30
0.0
 10
82.94176930525838
 20
109.3236381638868
 30
0.0
 10
83.36180882154055
 20
109.4219596822168
 30
0.0
 10
83.58700578823765
 20
109.4622631663421
 30
0.0
 10
84.04173410679287
 20
109.5160599270261
 30
0.0
 10
84.27292907177959
 20
109.5302674571288
 30
0.0
 10
84.74337422865291
 20
109.5311404530515
 30
0.0
 10
84.97976981662
 20
109.5174129868849
 30
0.0
 10
85.43546524218021
 20
109.4647872562605
 30
0.0
 10
85.66012389082076
 20
109.4252780907368
 30
0.0
 10
86.08431453981675
 20
109.3270992773947
 30
0.0
 10
86.28392455343258
 20
109.2688016942238
 30
0.0
 10
86.66023756900391
 20
109.1392722551125
 30
0.0
 10
86.83454525220729
 20
109.0687232852211
 30
0.0
 10
87.15000702501247
 20
108.9260155555086
 30
0.0
 10
87.29354424674692
 20
108.8527626854084
 30
0.0
 10
87.54550292130554
 20
108.7136400028704
 30
0.0
 10
87.65262808942838
 20
108.6486394280701
 30
0.0
 10
87.82952135979251
 20
108.5360446618073
 30
0.0
 10
87.89983521735212
 20
108.4880498697621
 30
0.0
 10
87.99400525354211
 20
108.4225048739405
 30
0.0
 10
88.0185233002998
 20
108.4046590082308
 30
0.0
 10
88.0200134974241
 20
108.4035887792635
 30
0.0
 10
87.99670522239585
 20
108.420566145419
 30
0.0
 10
87.90539730936214
 20
108.4842328241808
 30
0.0
 10
87.83635978245184
 20
108.5315055897543
 30
0.0
 10
87.6604203868164
 20
108.6438509951411
 30
0.0
 10
87.55259862039391
 20
108.7094834124436
 30
0.0
 10
87.30127908736225
 20
108.8487167045258
 30
0.0
 10
87.15984479541413
 20
108.9212031262677
 30
0.0
 10
86.84490083599628
 20
109.0643782172095
 30
0.0
 10
86.66952167733199
 20
109.135655047273
 30
0.0
 10
86.29690643841715
 20
109.2647303476466
 30
0.0
 10
86.09882922124517
 20
109.3231265964433
 30
0.0
 10
85.67667639762266
 20
109.4220167625854
 30
0.0
 10
85.45143356068704
 20
109.462275388523
 30
0.0
 10
84.99714546552987
 20
109.5160268742133
 30
0.0
 10
84.76529875430403
 20
109.5303480619754
 30
0.0
 10
84.29147289600076
 20
109.5310667074423
 30
0.0
 10
84.05701174863462
 20
109.5172945150034
 30
0.0
 10
83.6003280361983
 20
109.4643773067257
 30
0.0
 10
83.37470677959854
 20
109.4245467062812
 30
0.0
 10
82.73899816744994
 20
109.2770054729412
 30
0.0
 10
82.35783203745527
 20
109.1385882481866
 30
0.0
 10
81.88430745489138
 20
108.9239436213289
 30
0.0
 10
81.74011302596824
 20
108.8501793546231
 30
0.0
 10
81.48948676023107
 20
108.7115277111177
 30
0.0
 10
81.38255557864083
 20
108.6465627484948
 30
0.0
 10
81.2058225398161
 20
108.5339075889388
 30
0.0
 10
81.13590261971791
 20
108.4861056860745
 30
0.0
 10
81.04328760724985
 20
108.4215856043296
 30
0.0
 10
81.01928571428574
 20
108.4041114581188
 30
0.0
 10
81.01928571428576
 20
108.4041114581188
 30
0.0
  0
SPLINE
  5
2DC
330
1F
100
AcDbEntity
  8
0
  6
HIDDEN
 62
     7
370
     0
100
AcDbSpline
210
0.0
220
0.0
230
1.0
 70
    11
 71
     3
 72
    68
 73
    64
 74
     0
 42
0.00000001
 43
0.00000001
 12
1.0
 22
0.0
 32
0.0
 13
1.0
 23
0.0
 33
0.0
 40
-0.0312500000000003
 40
-0.0312500000000003
 40
0.0
 40
0.0
 40
0.0312499999999999
 40
0.0312499999999999
 40
0.0624999999999998
 40
0.0624999999999998
 40
0.0937499999999998
 40
0.0937499999999998
 40
0.1249999999999997
 40
0.1249999999999997
 40
0.1562499999999996
 40
0.1562499999999996
 40
0.1874999999999996
 40
0.1874999999999996
 40
0.2187499999999996
 40
0.2187499999999996
 40
0.2499999999999996
 40
0.2499999999999996
 40
0.2812499999999995
 40
0.2812499999999995
 40
0.3124999999999995
 40
0.3124999999999995
 40
0.3437499999999994
 40
0.3437499999999994
 40
0.3749999999999994
 40
0.3749999999999994
 40
0.4062499999999994
 40
0.4062499999999994
 40
0.4374999999999994
 40
0.4374999999999994
 40
0.4687499999999993
 40
0.4687499999999993
 40
0.4999999999999993
 40
0.4999999999999993
 40
0.5312499999999992
 40
0.5312499999999992
 40
0.5624999999999991
 40
0.5624999999999991
 40
0.5937499999999991
 40
0.5937499999999991
 40
0.624999999999999
 40
0.624999999999999
 40
0.6562499999999989
 40
0.6562499999999989
 40
0.6874999999999989
 40
0.6874999999999989
 40
0.718749999999999
 40
0.718749999999999
 40
0.749999999999999
 40
0.749999999999999
 40
0.781249999999999
 40
0.781249999999999
 40
0.812499999999999
 40
0.812499999999999
 40
0.8437499999999991
 40
0.8437499999999991
 40
0.8749999999999991
 40
0.8749999999999991
 40
0.9374999999999991
 40
0.9374999999999991
 40
0.9687499999999997
 40
0.9687499999999997
 40
1.0
 40
1.0
 40
1.03125
 40
1.03125
 10
66.86284213127614
 20
100.0307142857145
 30
0.0
 10
66.86284213127614
 20
100.0307142857145
 30
0.0
 10
66.85827873404621
 20
100.0535173491222
 30
0.0
 10
66.84094258736792
 20
100.1427576185073
 30
0.0
 10
66.82796154759768
 20
100.2103169689524
 30
0.0
 10
66.79585888498751
 20
100.3861744881426
 30
0.0
 10
66.7768749017209
 20
100.4937066852529
 30
0.0
 10
66.73527040265049
 20
100.7476663158437
 30
0.0
 10
66.71254552184423
 20
100.8951057911312
 30
0.0
 10
66.6678467846496
 20
101.2171550019911
 30
0.0
 10
66.6456430234571
 20
101.3929853731168
 30
0.0
 10
66.60404720862704
 20
101.7753746523298
 30
0.0
 10
66.5851192035857
 20
101.9782293775042
 30
0.0
 10
66.55365005476584
 20
102.3991343401864
 30
0.0
 10
66.5409017088298
 20
102.62029283929
 30
0.0
 10
66.52370170827352
 20
103.0723313232245
 30
0.0
 10
66.51931204045438
 20
103.2997873021268
 30
0.0
 10
66.51925962415604
 20
103.7575187940924
 30
0.0
 10
66.52374335026043
 20
103.99005838558
 30
0.0
 10
66.54082925188239
 20
104.43936449728
 30
0.0
 10
66.55334732938867
 20
104.657810676116
 30
0.0
 10
66.58501630359406
 20
105.0822519191293
 30
0.0
 10
66.60409746130246
 20
105.2863581621333
 30
0.0
 10
66.64524563516454
 20
105.6649464217779
 30
0.0
 10
66.66758000861012
 20
105.8423363696651
 30
0.0
 10
66.71274977186282
 20
106.1678094664503
 30
0.0
 10
66.73503096435216
 20
106.3122191978106
 30
0.0
 10
66.7765215752487
 20
106.5656454699508
 30
0.0
 10
66.79590674867642
 20
106.675519976478
 30
0.0
 10
66.82796181730029
 20
106.8511093771476
 30
0.0
 10
66.84072743415757
 20
106.9175536471301
 30
0.0
 10
66.85821711883706
 20
107.0076036700318
 30
0.0
 10
66.86282374545877
 20
107.030621534807
 30
0.0
 10
66.86286040368137
 20
107.0308064644912
 30
0.0
 10
66.8584333590704
 20
107.0087016240211
 30
0.0
 10
66.84094581646436
 20
106.9186930777426
 30
0.0
 10
66.82807416023626
 20
106.8516931742364
 30
0.0
 10
66.79620533770277
 20
106.6771867539433
 30
0.0
 10
66.77693595424364
 20
106.5680952792005
 30
0.0
 10
66.73520410118778
 20
106.3133568222122
 30
0.0
 10
66.71294101199007
 20
106.169002783743
 30
0.0
 10
66.66815469652427
 20
105.8466588538155
 30
0.0
 10
66.64549623571867
 20
105.6670587696204
 30
0.0
 10
66.60427127839849
 20
105.2881487339946
 30
0.0
 10
66.5854672730431
 20
105.0874646011431
 30
0.0
 10
66.55366692353601
 20
104.6629054769459
 30
0.0
 10
66.54094132634219
 20
104.4413746176325
 30
0.0
 10
66.52384783758878
 20
103.9937313454116
 30
0.0
 10
66.51931822854179
 20
103.7643689477322
 30
0.0
 10
66.519253552372
 20
103.3020963533613
 30
0.0
 10
66.52366973870416
 20
103.0744529660642
 30
0.0
 10
66.54063988928772
 20
102.6259142903025
 30
0.0
 10
66.55340959182652
 20
102.4027635459743
 30
0.0
 10
66.584972731592
 20
101.9797805161376
 30
0.0
 10
66.603719361505
 20
101.7787978145727
 30
0.0
 10
66.64508228941568
 20
101.3977396048731
 30
0.0
 10
66.66765568395205
 20
101.2186313861249
 30
0.0
 10
66.73465527258826
 20
100.7356099316354
 30
0.0
 10
66.77973697056639
 20
100.4745540979346
 30
0.0
 10
66.82768397606372
 20
100.2118057125262
 30
0.0
 10
66.84072121549121
 20
100.1439050761088
 30
0.0
 10
66.8582764775263
 20
100.0535211505254
 30
0.0
 10
66.86284213127614
 20
100.0307142857145
 30
0.0
 10
66.86284213127614
 20
100.0307142857145
 30
0.0
  0
SPLINE
  5
2DD
330
1F
100
AcDbEntity
  8
0
  6
HIDDEN
 62
     7
370
     0
100
AcDbSpline
210
0.0
220
0.0
230
1.0
 70
    11
 71
     3
 72
    66
 73
    62
 74
     0
 42
0.00000001
 43
0.00000001
 12
1.0
 22
0.0
 32
0.0
 13
1.0
 23
0.0
 33
0.0
 40
-0.0312500000000004
 40
-0.0312500000000004
 40
0.0
 40
0.0
 40
0.0312499999999995
 40
0.0312499999999995
 40
0.062499999999999
 40
0.062499999999999
 40
0.1249999999999989
 40
0.1249999999999989
 40
0.1562499999999989
 40
0.1562499999999989
 40
0.1874999999999988
 40
0.1874999999999988
 40
0.2187499999999988
 40
0.2187499999999988
 40
0.2499999999999987
 40
0.2499999999999987
 40
0.2812499999999987
 40
0.2812499999999987
 40
0.3124999999999987
 40
0.3124999999999987
 40
0.3437499999999986
 40
0.3437499999999986
 40
0.3749999999999986
 40
0.3749999999999986
 40
0.4062499999999986
 40
0.4062499999999986
 40
0.4374999999999985
 40
0.4374999999999985
 40
0.4687499999999985
 40
0.4687499999999985
 40
0.4999999999999984
 40
0.4999999999999984
 40
0.5312499999999984
 40
0.5312499999999984
 40
0.5624999999999983
 40
0.5624999999999983
 40
0.5937499999999983
 40
0.5937499999999983
 40
0.6249999999999983
 40
0.6249999999999983
 40
0.6562499999999982
 40
0.6562499999999982
 40
0.6874999999999982
 40
0.6874999999999982
 40
0.7187499999999982
 40
0.7187499999999982
 40
0.7499999999999981
 40
0.7499999999999981
 40
0.7812499999999981
 40
0.7812499999999981
 40
0.8124999999999981
 40
0.8124999999999981
 40
0.8749999999999983
 40
0.8749999999999983
 40
0.9062499999999988
 40
0.9062499999999988
 40
0.9374999999999992
 40
0.9374999999999992
 40
0.9687499999999996
 40
0.9687499999999996
 40
1.0
 40
1.0
 40
1.03125
 40
1.03125
 10
79.64588854188122
 20
100.0307142857144
 30
0.0
 10
79.64588854188123
 20
100.0307142857144
 30
0.0
 10
79.62852866490958
 20
100.0545611855457
 30
0.0
 10
79.56440864257766
 20
100.1465839548765
 30
0.0
 10
79.51695588172326
 20
100.2159550131683
 30
0.0
 10
79.34826898551893
 20
100.4804164075535
 30
0.0
 10
79.19877801749433
 20
100.7358382467447
 30
0.0
 10
78.9847283373397
 20
101.2072560447515
 30
0.0
 10
78.9137323733296
 20
101.3820451725994
 30
0.0
 10
78.78456414279887
 20
101.755333843814
 30
0.0
 10
78.72636183611326
 20
101.953197876687
 30
0.0
 10
78.6280403177832
 20
102.3732373929692
 30
0.0
 10
78.58773683365794
 20
102.5984343596663
 30
0.0
 10
78.53394007297395
 20
103.0531626782215
 30
0.0
 10
78.51973254287121
 20
103.2843576432082
 30
0.0
 10
78.51885954694848
 20
103.7548028000815
 30
0.0
 10
78.53258701311516
 20
103.9911983880486
 30
0.0
 10
78.58521274373953
 20
104.4468938136088
 30
0.0
 10
78.62472190926324
 20
104.6715524622494
 30
0.0
 10
78.7229007226053
 20
105.0957431112454
 30
0.0
 10
78.7811983057762
 20
105.2953531248612
 30
0.0
 10
78.91072774488755
 20
105.6716661404325
 30
0.0
 10
78.98127671477893
 20
105.8459738236359
 30
0.0
 10
79.12398444449151
 20
106.1614355964411
 30
0.0
 10
79.19723731459163
 20
106.3049728181755
 30
0.0
 10
79.3363599971297
 20
106.5569314927342
 30
0.0
 10
79.40136057192994
 20
106.664056660857
 30
0.0
 10
79.5139553381928
 20
106.8409499312211
 30
0.0
 10
79.56195013023802
 20
106.9112637887807
 30
0.0
 10
79.62749512605959
 20
107.0054338249707
 30
0.0
 10
79.64534099176933
 20
107.0299518717284
 30
0.0
 10
79.64641122073654
 20
107.0314420688527
 30
0.0
 10
79.62943385458111
 20
107.0081337938244
 30
0.0
 10
79.5657671758193
 20
106.9168258807907
 30
0.0
 10
79.51849441024578
 20
106.8477883538804
 30
0.0
 10
79.40614900485899
 20
106.671848958245
 30
0.0
 10
79.34051658755648
 20
106.5640271918225
 30
0.0
 10
79.20128329547424
 20
106.3127076587909
 30
0.0
 10
79.1287968737324
 20
106.1712733668427
 30
0.0
 10
78.98562178279053
 20
105.8563294074249
 30
0.0
 10
78.91434495272706
 20
105.6809502487606
 30
0.0
 10
78.7852696523534
 20
105.3083350098458
 30
0.0
 10
78.72687340355672
 20
105.1102577926738
 30
0.0
 10
78.62798323741461
 20
104.6881049690513
 30
0.0
 10
78.58772461147703
 20
104.4628621321157
 30
0.0
 10
78.53397312578673
 20
104.0085740369585
 30
0.0
 10
78.51965193802464
 20
103.7767273257327
 30
0.0
 10
78.51893329255775
 20
103.3029014674294
 30
0.0
 10
78.53270548499663
 20
103.0684403200632
 30
0.0
 10
78.58562269327432
 20
102.6117566076269
 30
0.0
 10
78.62545329371883
 20
102.3861353510271
 30
0.0
 10
78.77299452705883
 20
101.7504267388785
 30
0.0
 10
78.91141175181346
 20
101.3692606088839
 30
0.0
 10
79.12605637867114
 20
100.89573602632
 30
0.0
 10
79.19982064537689
 20
100.7515415973968
 30
0.0
 10
79.3384722888823
 20
100.5009153316597
 30
0.0
 10
79.40343725150518
 20
100.3939841500694
 30
0.0
 10
79.51609241106124
 20
100.2172511112447
 30
0.0
 10
79.56389431392556
 20
100.1473311911465
 30
0.0
 10
79.62841439567042
 20
100.0547161786784
 30
0.0
 10
79.64588854188122
 20
100.0307142857144
 30
0.0
 10
79.64588854188123
 20
100.0307142857144
 30
0.0
  0
SPLINE
  5
2DE
330
1F
100
AcDbEntity
  8
0
  6
HIDDEN
 62
     7
370
     0
100
AcDbSpline
210
0.0
220
0.0
230
1.0
 70
     8
 71
     3
 72
    10
 73
     6
 74
     0
 42
0.00000001
 43
0.00000001
 12
1.0
 22
0.0
 32
0.0
 13
1.0
 23
0.0
 33
0.0
 40
0.0
 40
0.0
 40
0.0
 40
0.0
 40
0.5
 40
0.5
 40
1.0
 40
1.0
 40
1.0
 40
1.0
 10
101.5284744074598
 20
106.4029956089832
 30
0.0
 10
101.7480906491683
 20
106.443129937856
 30
0.0
 10
101.9280379624243
 20
106.5333658251753
 30
0.0
 10
102.1622695856664
 20
106.7164364028404
 30
0.0
 10
102.2186514343232
 20
106.8074811083881
 30
0.0
 10
102.2058488811023
 20
106.8751848486296
 30
0.0
  0
SPLINE
  5
2DF
330
1F
100
AcDbEntity
  8
0
  6
HIDDEN
 62
     7
370
     0
100
AcDbSpline
210
0.0
220
0.0
230
1.0
 70
     8
 71
     3
 72
    16
 73
    12
 74
     0
 42
0.00000001
 43
0.00000001
 12
1.0
 22
0.0
 32
0.0
 13
1.0
 23
0.0
 33
0.0
 40
0.0
 40
0.0
 40
0.0
 40
0.0
 40
0.2499999999999971
 40
0.2499999999999971
 40
0.4999999999999941
 40
0.4999999999999941
 40
0.7499999999999911
 40
0.7499999999999911
 40
0.8749999999999956
 40
0.8749999999999956
 40
1.0
 40
1.0
 40
1.0
 40
1.0
 10
100.9147266460267
 20
105.3853076788311
 30
0.0
 10
100.9013650764482
 20
105.5034299721561
 30
0.0
 10
100.895301376384
 20
105.6162167000927
 30
0.0
 10
100.9097045531323
 20
105.8310728500029
 30
0.0
 10
100.9306616598035
 20
105.9349829450153
 30
0.0
 10
101.0179304568372
 20
106.1211311739187
 30
0.0
 10
101.0858195517141
 20
106.2041227010995
 30
0.0
 10
101.2262688158628
 20
106.3002783960937
 30
0.0
 10
101.2806717838279
 20
106.3284133200498
 30
0.0
 10
101.397971932791
 20
106.373403221989
 30
0.0
 10
101.4609648750379
 20
106.3906584077126
 30
0.0
 10
101.5284744074598
 20
106.4029956089832
 30
0.0
  0
SPLINE
  5
2E0
330
1F
100
AcDbEntity
  8
0
  6
HIDDEN
 62
     7
370
     0
100
AcDbSpline
210
0.0
220
0.0
230
1.0
 70
     8
 71
     3
 72
    18
 73
    14
 74
     0
 42
0.00000001
 43
0.00000001
 12
1.0
 22
0.0
 32
0.0
 13
1.0
 23
0.0
 33
0.0
 40
0.0
 40
0.0
 40
0.0
 40
0.0
 40
0.2499999999999999
 40
0.2499999999999999
 40
0.3749999999999999
 40
0.3749999999999999
 40
0.5
 40
0.5
 40
0.6250000000000001
 40
0.6250000000000001
 40
0.75
 40
0.75
 40
1.0
 40
1.0
 40
1.0
 40
1.0
 10
100.9147266460267
 20
105.3853076788311
 30
0.0
 10
100.9461577872338
 20
105.1074422335044
 30
0.0
 10
100.9724749913328
 20
104.811778772159
 30
0.0
 10
101.000092645674
 20
104.3416666835132
 30
0.0
 10
101.0072941388192
 20
104.179992944181
 30
0.0
 10
101.0168321734756
 20
103.8577393775637
 30
0.0
 10
101.0192589097786
 20
103.6959211836818
 30
0.0
 10
101.0193120772551
 20
103.3709056738219
 30
0.0
 10
101.0168983572502
 20
103.2065285912839
 30
0.0
 10
101.0073345754895
 20
102.8822052014837
 30
0.0
 10
101.0002568696341
 20
102.7232840590088
 30
0.0
 10
100.9729264298034
 20
102.2559114059121
 30
0.0
 10
100.9461598542905
 20
101.9540046116359
 30
0.0
 10
100.9147266460267
 20
101.6761208925974
 30
0.0
  0
SPLINE
  5
2E1
330
1F
100
AcDbEntity
  8
0
  6
HIDDEN
 62
     7
370
     0
100
AcDbSpline
210
0.0
220
0.0
230
1.0
 70
     8
 71
     3
 72
    12
 73
     8
 74
     0
 42
0.00000001
 43
0.00000001
 12
1.0
 22
0.0
 32
0.0
 13
1.0
 23
0.0
 33
0.0
 40
0.0
 40
0.0
 40
0.0
 40
0.0
 40
0.25
 40
0.25
 40
0.5
 40
0.5
 40
1.0
 40
1.0
 40
1.0
 40
1.0
 10
101.5284744074598
 20
100.6584329624452
 30
0.0
 10
101.3941997160547
 20
100.6829713325685
 30
0.0
 10
101.2743164125955
 20
100.7285241980454
 30
0.0
 10
101.0867313943694
 20
100.8564158327556
 30
0.0
 10
101.0189487297106
 20
100.9386703321723
 30
0.0
 10
100.8867897164449
 20
101.2189475970491
 30
0.0
 10
100.8880039900465
 20
101.4398805774553
 30
0.0
 10
100.914726646026
 20
101.676120892597
 30
0.0
  0
SPLINE
  5
2E2
330
1F
100
AcDbEntity
  8
0
  6
HIDDEN
 62
     7
370
     0
100
AcDbSpline
210
0.0
220
0.0
230
1.0
 70
     8
 71
     3
 72
    14
 73
    10
 74
     0
 42
0.00000001
 43
0.00000001
 12
1.0
 22
0.0
 32
0.0
 13
1.0
 23
0.0
 33
0.0
 40
0.0
 40
0.0
 40
0.0
 40
0.0
 40
0.25
 40
0.25
 40
0.5
 40
0.5
 40
0.75
 40
0.75
 40
1.0
 40
1.0
 40
1.0
 40
1.0
 10
102.2058488811023
 20
100.1862437227989
 30
0.0
 10
102.2122568369588
 20
100.2201309147756
 30
0.0
 10
102.2015407089954
 20
100.258789557187
 30
0.0
 10
102.1470350835964
 20
100.3447039423427
 30
0.0
 10
102.1039559791793
 20
100.3905385780813
 30
0.0
 10
101.9867787459535
 20
100.4821823538294
 30
0.0
 10
101.91323834835
 20
100.527349267044
 30
0.0
 10
101.7394840108251
 20
100.6054275854665
 30
0.0
 10
101.6384357021275
 20
100.6383378058706
 30
0.0
 10
101.5284744074598
 20
100.6584329624452
 30
0.0
  0
SPLINE
  5
2E3
330
1F
100
AcDbEntity
  8
0
  6
HIDDEN
 62
     7
370
     0
100
AcDbSpline
210
0.0
220
0.0
230
1.0
 70
     8
 71
     3
 72
    40
 73
    36
 74
     0
 42
0.00000001
 43
0.00000001
 12
1.0
 22
0.0
 32
0.0
 13
1.0
 23
0.0
 33
0.0
 40
0.0
 40
0.0
 40
0.0
 40
0.0
 40
0.062499999999999
 40
0.062499999999999
 40
0.1249999999999979
 40
0.1249999999999979
 40
0.1874999999999969
 40
0.1874999999999969
 40
0.2499999999999959
 40
0.2499999999999959
 40
0.2812499999999961
 40
0.2812499999999961
 40
0.3124999999999963
 40
0.3124999999999963
 40
0.3749999999999967
 40
0.3749999999999967
 40
0.437499999999997
 40
0.437499999999997
 40
0.4999999999999974
 40
0.4999999999999974
 40
0.5624999999999979
 40
0.5624999999999979
 40
0.6249999999999981
 40
0.6249999999999981
 40
0.6874999999999984
 40
0.6874999999999984
 40
0.7499999999999988
 40
0.7499999999999988
 40
0.8124999999999991
 40
0.8124999999999991
 40
0.8749999999999993
 40
0.8749999999999993
 40
0.9374999999999997
 40
0.9374999999999997
 40
1.0
 40
1.0
 40
1.0
 40
1.0
 10
102.2058488811023
 20
106.8751848486296
 30
0.0
 10
102.1904944469424
 20
106.9563837004514
 30
0.0
 10
102.1807377737807
 20
107.0054000686418
 30
0.0
 10
102.1736868795998
 20
107.0410489754658
 30
0.0
 10
102.1766183431265
 20
107.0265376616465
 30
0.0
 10
102.194502739081
 20
106.9349586611414
 30
0.0
 10
102.2095377248145
 20
106.8574071120833
 30
0.0
 10
102.2485611223606
 20
106.6427385243192
 30
0.0
 10
102.2721015567562
 20
106.5080242610401
 30
0.0
 10
102.3105433331563
 20
106.2652825506223
 30
0.0
 10
102.3239502323369
 20
106.1769895623292
 30
0.0
 10
102.3506396952829
 20
105.9907278312763
 30
0.0
 10
102.3639825329878
 20
105.8924213108538
 30
0.0
 10
102.4032142376598
 20
105.5821915745987
 30
0.0
 10
102.4285930099038
 20
105.3517754349136
 30
0.0
 10
102.4713790742534
 20
104.8655908766419
 30
0.0
 10
102.488827075701
 20
104.6109008397916
 30
0.0
 10
102.5129518216922
 20
104.0777058271405
 30
0.0
 10
102.519264278025
 20
103.8041501738286
 30
0.0
 10
102.5193070393452
 20
103.2601079713257
 30
0.0
 10
102.5129251861351
 20
102.9836427540841
 30
0.0
 10
102.4889942229524
 20
102.4537162276049
 30
0.0
 10
102.4715957762171
 20
102.1983196720898
 30
0.0
 10
102.4283982641216
 20
101.7074206605817
 30
0.0
 10
102.4034716452325
 20
101.481417541892
 30
0.0
 10
102.3510394049538
 20
101.0665138327758
 30
0.0
 10
102.3233612938782
 20
100.8771377026346
 30
0.0
 10
102.2723792521017
 20
100.5551058162297
 30
0.0
 10
102.2485596984605
 20
100.4186785538868
 30
0.0
 10
102.2095005249291
 20
100.2038204858761
 30
0.0
 10
102.1946458732301
 20
100.1272083789913
 30
0.0
 10
102.1766302650514
 20
100.0349464700491
 30
0.0
 10
102.1737022092131
 20
100.0204580131379
 30
0.0
 10
102.1806538135752
 20
100.0556031023239
 30
0.0
 10
102.1904936442851
 20
100.1050406262847
 30
0.0
 10
102.2058488811023
 20
100.1862437227989
 30
0.0
  0
SPLINE
  5
2E4
330
1F
100
AcDbEntity
  8
0
  6
HIDDEN
 62
     7
370
     0
100
AcDbSpline
210
0.0
220
0.0
230
1.0
 70
    11
 71
     3
 72
    66
 73
    62
 74
     0
 42
0.00000001
 43
0.00000001
 12
1.0
 22
0.0
 32
0.0
 13
1.0
 23
0.0
 33
0.0
 40
-0.0312499999999994
 40
-0.0312499999999994
 40
0.0
 40
0.0
 40
0.0312500000000008
 40
0.0312500000000008
 40
0.0625000000000015
 40
0.0625000000000015
 40
0.1250000000000022
 40
0.1250000000000022
 40
0.1562500000000023
 40
0.1562500000000023
 40
0.1875000000000023
 40
0.1875000000000023
 40
0.2187500000000023
 40
0.2187500000000023
 40
0.2500000000000023
 40
0.2500000000000023
 40
0.2812500000000024
 40
0.2812500000000024
 40
0.3125000000000024
 40
0.3125000000000024
 40
0.3437500000000024
 40
0.3437500000000024
 40
0.3750000000000023
 40
0.3750000000000023
 40
0.4062500000000023
 40
0.4062500000000023
 40
0.4375000000000023
 40
0.4375000000000023
 40
0.4687500000000023
 40
0.4687500000000023
 40
0.5000000000000023
 40
0.5000000000000023
 40
0.5312500000000023
 40
0.5312500000000023
 40
0.5625000000000023
 40
0.5625000000000023
 40
0.5937500000000023
 40
0.5937500000000023
 40
0.6250000000000023
 40
0.6250000000000023
 40
0.6562500000000023
 40
0.6562500000000023
 40
0.6875000000000023
 40
0.6875000000000023
 40
0.7187500000000023
 40
0.7187500000000023
 40
0.7500000000000022
 40
0.7500000000000022
 40
0.7812500000000022
 40
0.7812500000000022
 40
0.8125000000000022
 40
0.8125000000000022
 40
0.8750000000000019
 40
0.8750000000000019
 40
0.9062500000000014
 40
0.9062500000000014
 40
0.937500000000001
 40
0.937500000000001
 40
0.9687500000000006
 40
0.9687500000000006
 40
1.0
 40
1.0
 40
1.031250000000001
 40
1.031250000000001
 10
89.39268288669024
 20
107.0307142857143
 30
0.0
 10
89.39268288669024
 20
107.0307142857143
 30
0.0
 10
89.41004276366188
 20
107.006867385883
 30
0.0
 10
89.47416278599381
 20
106.9148446165521
 30
0.0
 10
89.52161554684821
 20
106.8454735582604
 30
0.0
 10
89.69030244305253
 20
106.5810121638751
 30
0.0
 10
89.83979341107714
 20
106.3255903246839
 30
0.0
 10
90.05384309123177
 20
105.8541725266771
 30
0.0
 10
90.12483905524189
 20
105.6793833988293
 30
0.0
 10
90.25400728577262
 20
105.3060947276146
 30
0.0
 10
90.31220959245822
 20
105.1082306947416
 30
0.0
 10
90.41053111078828
 20
104.6881911784595
 30
0.0
 10
90.45083459491354
 20
104.4629942117624
 30
0.0
 10
90.50463135559754
 20
104.0082658932072
 30
0.0
 10
90.51883888570026
 20
103.7770709282204
 30
0.0
 10
90.519711881623
 20
103.3066257713471
 30
0.0
 10
90.50598441545633
 20
103.07023018338
 30
0.0
 10
90.45335868483195
 20
102.6145347578198
 30
0.0
 10
90.41384951930827
 20
102.3898761091793
 30
0.0
 10
90.31567070596618
 20
101.9656854601833
 30
0.0
 10
90.25737312279529
 20
101.7660754465674
 30
0.0
 10
90.12784368368395
 20
101.3897624309961
 30
0.0
 10
90.05729471379256
 20
101.2154547477927
 30
0.0
 10
89.91458698408
 20
100.8999929749876
 30
0.0
 10
89.84133411397988
 20
100.7564557532531
 30
0.0
 10
89.7022114314418
 20
100.5044970786945
 30
0.0
 10
89.63721085664157
 20
100.3973719105716
 30
0.0
 10
89.5246160903787
 20
100.2204786402075
 30
0.0
 10
89.47662129833348
 20
100.1501647826479
 30
0.0
 10
89.41107630251194
 20
100.0559947464579
 30
0.0
 10
89.3932304368022
 20
100.0314766997002
 30
0.0
 10
89.39216020783498
 20
100.0299865025759
 30
0.0
 10
89.40913757399039
 20
100.0532947776042
 30
0.0
 10
89.47280425275221
 20
100.1446026906379
 30
0.0
 10
89.52007701832574
 20
100.2136402175482
 30
0.0
 10
89.63242242371253
 20
100.3895796131836
 30
0.0
 10
89.69805484101502
 20
100.4974013796061
 30
0.0
 10
89.83728813309727
 20
100.7487209126378
 30
0.0
 10
89.90977455483912
 20
100.8901552045859
 30
0.0
 10
90.05294964578098
 20
101.2050991640037
 30
0.0
 10
90.12422647584444
 20
101.380478322668
 30
0.0
 10
90.25330177621808
 20
101.7530935615829
 30
0.0
 10
90.31169802501479
 20
101.9511707787548
 30
0.0
 10
90.41058819115686
 20
102.3733236023773
 30
0.0
 10
90.45084681709446
 20
102.598566439313
 30
0.0
 10
90.50459830278476
 20
103.0528545344701
 30
0.0
 10
90.51891949054684
 20
103.284701245696
 30
0.0
 10
90.51963813601375
 20
103.7585271039993
 30
0.0
 10
90.50586594357486
 20
103.9929882513654
 30
0.0
 10
90.45294873529716
 20
104.4496719638017
 30
0.0
 10
90.41311813485264
 20
104.6752932204015
 30
0.0
 10
90.26557690151265
 20
105.3110018325501
 30
0.0
 10
90.12715967675803
 20
105.6921679625447
 30
0.0
 10
89.91251504990034
 20
106.1656925451086
 30
0.0
 10
89.83875078319456
 20
106.3098869740318
 30
0.0
 10
89.70009913968917
 20
106.560513239769
 30
0.0
 10
89.63513417706628
 20
106.6674444213592
 30
0.0
 10
89.52247901751022
 20
106.8441774601839
 30
0.0
 10
89.4746771146459
 20
106.9140973802821
 30
0.0
 10
89.41015703290104
 20
107.0067123927502
 30
0.0
 10
89.39268288669024
 20
107.0307142857143
 30
0.0
 10
89.39268288669024
 20
107.0307142857143
 30
0.0
  0
SPLINE
  5
2E5
330
1F
100
AcDbEntity
  8
0
  6
HIDDEN
 62
     7
370
     0
100
AcDbSpline
210
0.0
220
0.0
230
1.0
 70
     8
 71
     3
 72
    10
 73
     6
 74
     0
 42
0.00000001
 43
0.00000001
 12
1.0
 22
0.0
 32
0.0
 13
1.0
 23
0.0
 33
0.0
 40
0.0
 40
0.0
 40
0.0
 40
0.0
 40
0.5
 40
0.5
 40
1.0
 40
1.0
 40
1.0
 40
1.0
 10
81.64700439101672
 20
120.5399029788883
 30
0.0
 10
81.60687006214401
 20
120.7595192205968
 30
0.0
 10
81.51663417482472
 20
120.9394665338529
 30
0.0
 10
81.33356359715957
 20
121.173698157095
 30
0.0
 10
81.24251889161185
 20
121.2300800057517
 30
0.0
 10
81.17481515137038
 20
121.2172774525309
 30
0.0
  0
SPLINE
  5
2E6
330
1F
100
AcDbEntity
  8
0
  6
HIDDEN
 62
     7
370
     0
100
AcDbSpline
210
0.0
220
0.0
230
1.0
 70
     8
 71
     3
 72
    16
 73
    12
 74
     0
 42
0.00000001
 43
0.00000001
 12
1.0
 22
0.0
 32
0.0
 13
1.0
 23
0.0
 33
0.0
 40
0.0
 40
0.0
 40
0.0
 40
0.0
 40
0.2499999999999972
 40
0.2499999999999972
 40
0.4999999999999943
 40
0.4999999999999943
 40
0.7499999999999916
 40
0.7499999999999916
 40
0.8749999999999958
 40
0.8749999999999958
 40
1.0
 40
1.0
 40
1.0
 40
1.0
 10
82.66469232116891
 20
119.9261552174553
 30
0.0
 10
82.54657002784388
 20
119.9127936478767
 30
0.0
 10
82.43378329990729
 20
119.9067299478126
 30
0.0
 10
82.21892714999706
 20
119.9211331245609
 30
0.0
 10
82.11501705498463
 20
119.942090231232
 30
0.0
 10
81.92886882608133
 20
120.0293590282657
 30
0.0
 10
81.84587729890053
 20
120.0972481231426
 30
0.0
 10
81.74972160390632
 20
120.2376973872913
 30
0.0
 10
81.72158667995022
 20
120.2921003552564
 30
0.0
 10
81.67659677801093
 20
120.4094005042196
 30
0.0
 10
81.65934159228738
 20
120.4723934464665
 30
0.0
 10
81.64700439101672
 20
120.5399029788883
 30
0.0
  0
SPLINE
  5
2E7
330
1F
100
AcDbEntity
  8
0
  6
HIDDEN
 62
     7
370
     0
100
AcDbSpline
210
0.0
220
0.0
230
1.0
 70
     8
 71
     3
 72
    18
 73
    14
 74
     0
 42
0.00000001
 43
0.00000001
 12
1.0
 22
0.0
 32
0.0
 13
1.0
 23
0.0
 33
0.0
 40
0.0
 40
0.0
 40
0.0
 40
0.0
 40
0.2499999999999999
 40
0.2499999999999999
 40
0.3749999999999999
 40
0.3749999999999999
 40
0.5
 40
0.5
 40
0.6249999999999999
 40
0.6249999999999999
 40
0.7499999999999999
 40
0.7499999999999999
 40
1.0
 40
1.0
 40
1.0
 40
1.0
 10
82.66469232116891
 20
119.9261552174553
 30
0.0
 10
82.94255776649558
 20
119.9575863586624
 30
0.0
 10
83.23822122784097
 20
119.9839035627613
 30
0.0
 10
83.7083333164868
 20
120.0115212171026
 30
0.0
 10
83.87000705581902
 20
120.0187227102477
 30
0.0
 10
84.19226062243628
 20
120.0282607449041
 30
0.0
 10
84.35407881631818
 20
120.0306874812072
 30
0.0
 10
84.67909432617809
 20
120.0307406486837
 30
0.0
 10
84.84347140871613
 20
120.0283269286787
 30
0.0
 10
85.1677947985163
 20
120.0187631469181
 30
0.0
 10
85.32671594099116
 20
120.0116854410627
 30
0.0
 10
85.79408859408784
 20
119.9843550012319
 30
0.0
 10
86.09599538836409
 20
119.957588425719
 30
0.0
 10
86.37387910740257
 20
119.9261552174553
 30
0.0
  0
SPLINE
  5
2E8
330
1F
100
AcDbEntity
  8
0
  6
HIDDEN
 62
     7
370
     0
100
AcDbSpline
210
0.0
220
0.0
230
1.0
 70
     8
 71
     3
 72
    12
 73
     8
 74
     0
 42
0.00000001
 43
0.00000001
 12
1.0
 22
0.0
 32
0.0
 13
1.0
 23
0.0
 33
0.0
 40
0.0
 40
0.0
 40
0.0
 40
0.0
 40
0.2499999999999999
 40
0.2499999999999999
 40
0.4999999999999998
 40
0.4999999999999998
 40
1.0
 40
1.0
 40
1.0
 40
1.0
 10
87.39156703755475
 20
120.5399029788883
 30
0.0
 10
87.36702866743144
 20
120.4056282874833
 30
0.0
 10
87.32147580195456
 20
120.2857449840241
 30
0.0
 10
87.19358416724435
 20
120.0981599657979
 30
0.0
 10
87.11132966782768
 20
120.0303773011392
 30
0.0
 10
86.83105240295085
 20
119.8982182878735
 30
0.0
 10
86.6101194225447
 20
119.899432561475
 30
0.0
 10
86.373879107403
 20
119.9261552174545
 30
0.0
  0
SPLINE
  5
2E9
330
1F
100
AcDbEntity
  8
0
  6
HIDDEN
 62
     7
370
     0
100
AcDbSpline
210
0.0
220
0.0
230
1.0
 70
     8
 71
     3
 72
    14
 73
    10
 74
     0
 42
0.00000001
 43
0.00000001
 12
1.0
 22
0.0
 32
0.0
 13
1.0
 23
0.0
 33
0.0
 40
0.0
 40
0.0
 40
0.0
 40
0.0
 40
0.25
 40
0.25
 40
0.5
 40
0.5
 40
0.75
 40
0.75
 40
1.0
 40
1.0
 40
1.0
 40
1.0
 10
87.8637562772011
 20
121.2172774525309
 30
0.0
 10
87.82986908522439
 20
121.2236854083874
 30
0.0
 10
87.79121044281301
 20
121.212969280424
 30
0.0
 10
87.7052960576573
 20
121.158463655025
 30
0.0
 10
87.65946142191866
 20
121.1153845506079
 30
0.0
 10
87.56781764617057
 20
120.9982073173821
 30
0.0
 10
87.52265073295594
 20
120.9246669197786
 30
0.0
 10
87.44457241453347
 20
120.7509125822537
 30
0.0
 10
87.41166219412938
 20
120.649864273556
 30
0.0
 10
87.39156703755475
 20
120.5399029788883
 30
0.0
  0
SPLINE
  5
2EA
330
1F
100
AcDbEntity
  8
0
  6
HIDDEN
 62
     7
370
     0
100
AcDbSpline
210
0.0
220
0.0
230
1.0
 70
     8
 71
     3
 72
    40
 73
    36
 74
     0
 42
0.00000001
 43
0.00000001
 12
1.0
 22
0.0
 32
0.0
 13
1.0
 23
0.0
 33
0.0
 40
0.0
 40
0.0
 40
0.0
 40
0.0
 40
0.0624999999999991
 40
0.0624999999999991
 40
0.1249999999999982
 40
0.1249999999999982
 40
0.1874999999999973
 40
0.1874999999999973
 40
0.2499999999999963
 40
0.2499999999999963
 40
0.2812499999999965
 40
0.2812499999999965
 40
0.3124999999999966
 40
0.3124999999999966
 40
0.3749999999999969
 40
0.3749999999999969
 40
0.4374999999999972
 40
0.4374999999999972
 40
0.4999999999999976
 40
0.4999999999999976
 40
0.5624999999999979
 40
0.5624999999999979
 40
0.6249999999999981
 40
0.6249999999999981
 40
0.6874999999999984
 40
0.6874999999999984
 40
0.7499999999999988
 40
0.7499999999999988
 40
0.8124999999999991
 40
0.8124999999999991
 40
0.8749999999999993
 40
0.8749999999999993
 40
0.9374999999999997
 40
0.9374999999999997
 40
1.0
 40
1.0
 40
1.0
 40
1.0
 10
81.17481515137038
 20
121.2172774525309
 30
0.0
 10
81.09361629954856
 20
121.2019230183709
 30
0.0
 10
81.04459993135816
 20
121.1921663452092
 30
0.0
 10
81.00895102453413
 20
121.1851154510284
 30
0.0
 10
81.0234623383535
 20
121.188046914555
 30
0.0
 10
81.11504133885857
 20
121.2059313105095
 30
0.0
 10
81.1925928879167
 20
121.2209662962431
 30
0.0
 10
81.40726147568073
 20
121.2599896937891
 30
0.0
 10
81.54197573895989
 20
121.2835301281847
 30
0.0
 10
81.78471744937762
 20
121.3219719045848
 30
0.0
 10
81.87301043767079
 20
121.3353788037654
 30
0.0
 10
82.05927216872365
 20
121.3620682667114
 30
0.0
 10
82.15757868914618
 20
121.3754111044164
 30
0.0
 10
82.46780842540126
 20
121.4146428090883
 30
0.0
 10
82.69822456508639
 20
121.4400215813323
 30
0.0
 10
83.18440912335812
 20
121.4828076456819
 30
0.0
 10
83.43909916020841
 20
121.5002556471295
 30
0.0
 10
83.9722941728595
 20
121.5243803931208
 30
0.0
 10
84.2458498261714
 20
121.5306928494536
 30
0.0
 10
84.78989202867427
 20
121.5307356107738
 30
0.0
 10
85.0663572459159
 20
121.5243537575637
 30
0.0
 10
85.59628377239505
 20
121.5004227943809
 30
0.0
 10
85.85168032791016
 20
121.4830243476457
 30
0.0
 10
86.34257933941828
 20
121.4398268355502
 30
0.0
 10
86.56858245810801
 20
121.4149002166611
 30
0.0
 10
86.98348616722416
 20
121.3624679763823
 30
0.0
 10
87.17286229736541
 20
121.3347898653068
 30
0.0
 10
87.49489418377023
 20
121.2838078235303
 30
0.0
 10
87.6313214461132
 20
121.259988269889
 30
0.0
 10
87.84617951412389
 20
121.2209290963576
 30
0.0
 10
87.92279162100863
 20
121.2060744446586
 30
0.0
 10
88.01505352995093
 20
121.18805883648
 30
0.0
 10
88.02954198686207
 20
121.1851307806416
 30
0.0
 10
87.99439689767608
 20
121.1920823850038
 30
0.0
 10
87.94495937371524
 20
121.2019222157137
 30
0.0
 10
87.8637562772011
 20
121.2172774525309
 30
0.0
  0
SPLINE
  5
2EB
330
1F
100
AcDbEntity
  8
0
  6
HIDDEN
 62
     7
370
     0
100
AcDbSpline
210
0.0
220
0.0
230
1.0
 70
    11
 71
     3
 72
    66
 73
    62
 74
     0
 42
0.00000001
 43
0.00000001
 12
1.0
 22
0.0
 32
0.0
 13
1.0
 23
0.0
 33
0.0
 40
-0.0312499999999993
 40
-0.0312499999999993
 40
0.0
 40
0.0
 40
0.0312500000000007
 40
0.0312500000000007
 40
0.0625000000000014
 40
0.0625000000000014
 40
0.125000000000002
 40
0.125000000000002
 40
0.1562500000000019
 40
0.1562500000000019
 40
0.1875000000000019
 40
0.1875000000000019
 40
0.218750000000002
 40
0.218750000000002
 40
0.2500000000000019
 40
0.2500000000000019
 40
0.281250000000002
 40
0.281250000000002
 40
0.312500000000002
 40
0.312500000000002
 40
0.3437500000000021
 40
0.3437500000000021
 40
0.3750000000000021
 40
0.3750000000000021
 40
0.4062500000000021
 40
0.4062500000000021
 40
0.4375000000000022
 40
0.4375000000000022
 40
0.4687500000000022
 40
0.4687500000000022
 40
0.5000000000000022
 40
0.5000000000000022
 40
0.5312500000000022
 40
0.5312500000000022
 40
0.5625000000000023
 40
0.5625000000000023
 40
0.5937500000000023
 40
0.5937500000000023
 40
0.6250000000000023
 40
0.6250000000000023
 40
0.6562500000000024
 40
0.6562500000000024
 40
0.6875000000000024
 40
0.6875000000000024
 40
0.7187500000000024
 40
0.7187500000000024
 40
0.7500000000000024
 40
0.7500000000000024
 40
0.7812500000000026
 40
0.7812500000000026
 40
0.8125000000000026
 40
0.8125000000000026
 40
0.8750000000000022
 40
0.8750000000000022
 40
0.9062500000000017
 40
0.9062500000000017
 40
0.9375000000000011
 40
0.9375000000000011
 40
0.9687500000000007
 40
0.9687500000000007
 40
1.0
 40
1.0
 40
1.031250000000001
 40
1.031250000000001
 10
81.01928571428576
 20
108.4041114581188
 30
0.0
 10
81.01928571428576
 20
108.4041114581188
 30
0.0
 10
81.04313261411704
 20
108.4214713350904
 30
0.0
 10
81.1351553834479
 20
108.4855913574224
 30
0.0
 10
81.20452644173965
 20
108.5330441182767
 30
0.0
 10
81.46898783612491
 20
108.7017310144811
 30
0.0
 10
81.7244096753161
 20
108.8512219825057
 30
0.0
 10
82.1958274733229
 20
109.0652716626603
 30
0.0
 10
82.37061660117074
 20
109.1362676266704
 30
0.0
 10
82.74390527238542
 20
109.2654358572012
 30
0.0
 10
82.94176930525838
 20
109.3236381638868
 30
0.0
 10
83.36180882154055
 20
109.4219596822168
 30
0.0
 10
83.58700578823765
 20
109.4622631663421
 30
0.0
 10
84.04173410679287
 20
109.5160599270261
 30
0.0
 10
84.27292907177957
 20
109.5302674571288
 30
0.0
 10
84.74337422865291
 20
109.5311404530515
 30
0.0
 10
84.97976981661999
 20
109.5174129868849
 30
0.0
 10
85.43546524218021
 20
109.4647872562605
 30
0.0
 10
85.66012389082076
 20
109.4252780907368
 30
0.0
 10
86.08431453981675
 20
109.3270992773947
 30
0.0
 10
86.28392455343258
 20
109.2688016942238
 30
0.0
 10
86.6602375690039
 20
109.1392722551125
 30
0.0
 10
86.83454525220729
 20
109.0687232852211
 30
0.0
 10
87.15000702501247
 20
108.9260155555086
 30
0.0
 10
87.29354424674692
 20
108.8527626854084
 30
0.0
 10
87.54550292130556
 20
108.7136400028704
 30
0.0
 10
87.65262808942838
 20
108.6486394280701
 30
0.0
 10
87.82952135979251
 20
108.5360446618073
 30
0.0
 10
87.89983521735212
 20
108.4880498697621
 30
0.0
 10
87.99400525354211
 20
108.4225048739405
 30
0.0
 10
88.0185233002998
 20
108.4046590082308
 30
0.0
 10
88.0200134974241
 20
108.4035887792635
 30
0.0
 10
87.99670522239585
 20
108.420566145419
 30
0.0
 10
87.90539730936213
 20
108.4842328241808
 30
0.0
 10
87.83635978245184
 20
108.5315055897543
 30
0.0
 10
87.6604203868164
 20
108.6438509951411
 30
0.0
 10
87.55259862039392
 20
108.7094834124436
 30
0.0
 10
87.30127908736225
 20
108.8487167045258
 30
0.0
 10
87.15984479541413
 20
108.9212031262677
 30
0.0
 10
86.84490083599628
 20
109.0643782172095
 30
0.0
 10
86.66952167733199
 20
109.135655047273
 30
0.0
 10
86.29690643841715
 20
109.2647303476466
 30
0.0
 10
86.09882922124517
 20
109.3231265964433
 30
0.0
 10
85.67667639762266
 20
109.4220167625854
 30
0.0
 10
85.45143356068704
 20
109.462275388523
 30
0.0
 10
84.99714546552988
 20
109.5160268742133
 30
0.0
 10
84.76529875430403
 20
109.5303480619754
 30
0.0
 10
84.29147289600077
 20
109.5310667074423
 30
0.0
 10
84.05701174863462
 20
109.5172945150034
 30
0.0
 10
83.6003280361983
 20
109.4643773067257
 30
0.0
 10
83.37470677959854
 20
109.4245467062812
 30
0.0
 10
82.73899816744994
 20
109.2770054729412
 30
0.0
 10
82.35783203745528
 20
109.1385882481866
 30
0.0
 10
81.88430745489138
 20
108.9239436213289
 30
0.0
 10
81.74011302596823
 20
108.8501793546231
 30
0.0
 10
81.48948676023107
 20
108.7115277111177
 30
0.0
 10
81.38255557864085
 20
108.6465627484948
 30
0.0
 10
81.2058225398161
 20
108.5339075889388
 30
0.0
 10
81.13590261971791
 20
108.4861056860745
 30
0.0
 10
81.04328760724985
 20
108.4215856043296
 30
0.0
 10
81.01928571428576
 20
108.4041114581188
 30
0.0
 10
81.01928571428576
 20
108.4041114581188
 30
0.0
  0
SPLINE
  5
2EC
330
1F
100
AcDbEntity
  8
0
  6
HIDDEN
 62
     7
370
     0
100
AcDbSpline
210
0.0
220
0.0
230
1.0
 70
     8
 71
     3
 72
    10
 73
     6
 74
     0
 42
0.00000001
 43
0.00000001
 12
1.0
 22
0.0
 32
0.0
 13
1.0
 23
0.0
 33
0.0
 40
0.0
 40
0.0
 40
0.0
 40
0.0
 40
0.5
 40
0.5
 40
1.0
 40
1.0
 40
1.0
 40
1.0
 10
67.51009702111166
 20
100.6584329624455
 30
0.0
 10
67.29048077940321
 20
100.6182986335727
 30
0.0
 10
67.11053346614715
 20
100.5280627462535
 30
0.0
 10
66.87630184290505
 20
100.3449921685883
 30
0.0
 10
66.81991999424828
 20
100.2539474630406
 30
0.0
 10
66.83272254746912
 20
100.1862437227991
 30
0.0
  0
SPLINE
  5
2ED
330
1F
100
AcDbEntity
  8
0
  6
HIDDEN
 62
     7
370
     0
100
AcDbSpline
210
0.0
220
0.0
230
1.0
 70
     8
 71
     3
 72
    16
 73
    12
 74
     0
 42
0.00000001
 43
0.00000001
 12
1.0
 22
0.0
 32
0.0
 13
1.0
 23
0.0
 33
0.0
 40
0.0
 40
0.0
 40
0.0
 40
0.0
 40
0.2499999999999992
 40
0.2499999999999992
 40
0.4999999999999983
 40
0.4999999999999983
 40
0.7499999999999976
 40
0.7499999999999976
 40
0.8749999999999988
 40
0.8749999999999988
 40
1.0
 40
1.0
 40
1.0
 40
1.0
 10
68.12384478254474
 20
101.6761208925976
 30
0.0
 10
68.1372063521233
 20
101.5579985992726
 30
0.0
 10
68.14327005218746
 20
101.445211871336
 30
0.0
 10
68.12886687543912
 20
101.2303557214258
 30
0.0
 10
68.10790976876795
 20
101.1264456264134
 30
0.0
 10
68.02064097173432
 20
100.9402973975101
 30
0.0
 10
67.95275187685738
 20
100.8573058703292
 30
0.0
 10
67.8123026127087
 20
100.7611501753351
 30
0.0
 10
67.75789964474357
 20
100.7330152513789
 30
0.0
 10
67.64059949578044
 20
100.6880253494397
 30
0.0
 10
67.57760655353354
 20
100.6707701637161
 30
0.0
 10
67.51009702111166
 20
100.6584329624455
 30
0.0
  0
SPLINE
  5
2EE
330
1F
100
AcDbEntity
  8
0
  6
HIDDEN
 62
     7
370
     0
100
AcDbSpline
210
0.0
220
0.0
230
1.0
 70
     8
 71
     3
 72
    18
 73
    14
 74
     0
 42
0.00000001
 43
0.00000001
 12
1.0
 22
0.0
 32
0.0
 13
1.0
 23
0.0
 33
0.0
 40
0.0
 40
0.0
 40
0.0
 40
0.0
 40
0.25
 40
0.25
 40
0.375
 40
0.375
 40
0.5
 40
0.5
 40
0.625
 40
0.625
 40
0.75
 40
0.75
 40
1.0
 40
1.0
 40
1.0
 40
1.0
 10
68.12384478254474
 20
101.6761208925976
 30
0.0
 10
68.09241364133764
 20
101.9539863379243
 30
0.0
 10
68.06609643723868
 20
102.2496497992697
 30
0.0
 10
68.03847878289746
 20
102.7197618879155
 30
0.0
 10
68.03127728975231
 20
102.8814356272478
 30
0.0
 10
68.02173925509591
 20
103.203689193865
 30
0.0
 10
68.01931251879289
 20
103.3655073877469
 30
0.0
 10
68.01925935131639
 20
103.6905228976068
 30
0.0
 10
68.02167307132132
 20
103.8548999801448
 30
0.0
 10
68.03123685308196
 20
104.179223369945
 30
0.0
 10
68.03831455893737
 20
104.3381445124199
 30
0.0
 10
68.06564499876814
 20
104.8055171655166
 30
0.0
 10
68.09241157428103
 20
105.1074239597928
 30
0.0
 10
68.12384478254478
 20
105.3853076788313
 30
0.0
  0
SPLINE
  5
2EF
330
1F
100
AcDbEntity
  8
0
  6
HIDDEN
 62
     7
370
     0
100
AcDbSpline
210
0.0
220
0.0
230
1.0
 70
     8
 71
     3
 72
    12
 73
     8
 74
     0
 42
0.00000001
 43
0.00000001
 12
1.0
 22
0.0
 32
0.0
 13
1.0
 23
0.0
 33
0.0
 40
0.0
 40
0.0
 40
0.0
 40
0.0
 40
0.2499999999999999
 40
0.2499999999999999
 40
0.4999999999999998
 40
0.4999999999999998
 40
1.0
 40
1.0
 40
1.0
 40
1.0
 10
67.51009702111172
 20
106.4029956089835
 30
0.0
 10
67.64437171251676
 20
106.3784572388602
 30
0.0
 10
67.764255015976
 20
106.3329043733833
 30
0.0
 10
67.95184003420214
 20
106.2050127386731
 30
0.0
 10
68.01962269886091
 20
106.1227582392564
 30
0.0
 10
68.15178171212659
 20
105.8424809743796
 30
0.0
 10
68.15056743852503
 20
105.6215479939734
 30
0.0
 10
68.12384478254552
 20
105.3853076788317
 30
0.0
  0
SPLINE
  5
2F0
330
1F
100
AcDbEntity
  8
0
  6
HIDDEN
 62
     7
370
     0
100
AcDbSpline
210
0.0
220
0.0
230
1.0
 70
     8
 71
     3
 72
    14
 73
    10
 74
     0
 42
0.00000001
 43
0.00000001
 12
1.0
 22
0.0
 32
0.0
 13
1.0
 23
0.0
 33
0.0
 40
0.0
 40
0.0
 40
0.0
 40
0.0
 40
0.25
 40
0.25
 40
0.5
 40
0.5
 40
0.75
 40
0.75
 40
1.0
 40
1.0
 40
1.0
 40
1.0
 10
66.8327225474692
 20
106.8751848486298
 30
0.0
 10
66.8263145916127
 20
106.8412976566531
 30
0.0
 10
66.8370307195761
 20
106.8026390142417
 30
0.0
 10
66.89153634497507
 20
106.716724629086
 30
0.0
 10
66.93461544939218
 20
106.6708899933474
 30
0.0
 10
67.05179268261803
 20
106.5792462175993
 30
0.0
 10
67.12533308022151
 20
106.5340793043847
 30
0.0
 10
67.29908741774639
 20
106.4560009859622
 30
0.0
 10
67.40013572644406
 20
106.4230907655581
 30
0.0
 10
67.51009702111172
 20
106.4029956089835
 30
0.0
  0
SPLINE
  5
2F1
330
1F
100
AcDbEntity
  8
0
  6
HIDDEN
 62
     7
370
     0
100
AcDbSpline
210
0.0
220
0.0
230
1.0
 70
     8
 71
     3
 72
    40
 73
    36
 74
     0
 42
0.00000001
 43
0.00000001
 12
1.0
 22
0.0
 32
0.0
 13
1.0
 23
0.0
 33
0.0
 40
0.0
 40
0.0
 40
0.0
 40
0.0
 40
0.0624999999999992
 40
0.0624999999999992
 40
0.1249999999999983
 40
0.1249999999999983
 40
0.1874999999999974
 40
0.1874999999999974
 40
0.2499999999999966
 40
0.2499999999999966
 40
0.2812499999999968
 40
0.2812499999999968
 40
0.3124999999999971
 40
0.3124999999999971
 40
0.3749999999999973
 40
0.3749999999999973
 40
0.4374999999999976
 40
0.4374999999999976
 40
0.4999999999999979
 40
0.4999999999999979
 40
0.5624999999999981
 40
0.5624999999999981
 40
0.6249999999999984
 40
0.6249999999999984
 40
0.6874999999999987
 40
0.6874999999999987
 40
0.7499999999999989
 40
0.7499999999999989
 40
0.8124999999999992
 40
0.8124999999999992
 40
0.8749999999999994
 40
0.8749999999999994
 40
0.9374999999999998
 40
0.9374999999999998
 40
1.0
 40
1.0
 40
1.0
 40
1.0
 10
66.83272254746913
 20
100.1862437227991
 30
0.0
 10
66.84807698162909
 20
100.1050448709773
 30
0.0
 10
66.85783365479078
 20
100.0560285027869
 30
0.0
 10
66.86488454897163
 20
100.0203795959629
 30
0.0
 10
66.86195308544497
 20
100.0348909097822
 30
0.0
 10
66.8440686894905
 20
100.1264699102873
 30
0.0
 10
66.82903370375695
 20
100.2040214593455
 30
0.0
 10
66.79001030621087
 20
100.4186900471095
 30
0.0
 10
66.76646987181527
 20
100.5534043103886
 30
0.0
 10
66.7280280954152
 20
100.7961460208064
 30
0.0
 10
66.71462119623462
 20
100.8844390090995
 30
0.0
 10
66.68793173328858
 20
101.0707007401524
 30
0.0
 10
66.67458889558364
 20
101.1690072605749
 30
0.0
 10
66.63535719091172
 20
101.47923699683
 30
0.0
 10
66.60997841866768
 20
101.7096531365151
 30
0.0
 10
66.56719235431807
 20
102.1958376947868
 30
0.0
 10
66.54974435287052
 20
102.4505277316372
 30
0.0
 10
66.52561960687922
 20
102.9837227442883
 30
0.0
 10
66.51930715054645
 20
103.2572783976001
 30
0.0
 10
66.51926438922627
 20
103.801320600103
 30
0.0
 10
66.52564624243637
 20
104.0777858173446
 30
0.0
 10
66.54957720561914
 20
104.6077123438238
 30
0.0
 10
66.56697565235437
 20
104.8631088993389
 30
0.0
 10
66.61017316444989
 20
105.354007910847
 30
0.0
 10
66.635099783339
 20
105.5800110295367
 30
0.0
 10
66.68753202361773
 20
105.9949147386529
 30
0.0
 10
66.71521013469325
 20
106.1842908687942
 30
0.0
 10
66.7661921764698
 20
106.506322755199
 30
0.0
 10
66.790011730111
 20
106.6427500175419
 30
0.0
 10
66.82907090364243
 20
106.8576080855526
 30
0.0
 10
66.84392555534144
 20
106.9342201924374
 30
0.0
 10
66.8619411635201
 20
107.0264821013797
 30
0.0
 10
66.86486921935843
 20
107.0409705582908
 30
0.0
 10
66.85791761499632
 20
107.0058254691048
 30
0.0
 10
66.84807778428643
 20
106.956387945144
 30
0.0
 10
66.8327225474692
 20
106.8751848486298
 30
0.0
  0
SPLINE
  5
2F2
330
1F
100
AcDbEntity
  8
0
  6
HIDDEN
 62
     7
370
     0
100
AcDbSpline
210
0.0
220
0.0
230
1.0
 70
    11
 71
     3
 72
    66
 73
    62
 74
     0
 42
0.00000001
 43
0.00000001
 12
1.0
 22
0.0
 32
0.0
 13
1.0
 23
0.0
 33
0.0
 40
-0.0312499999999996
 40
-0.0312499999999996
 40
0.0
 40
0.0
 40
0.0312500000000007
 40
0.0312500000000007
 40
0.0625000000000015
 40
0.0625000000000015
 40
0.1250000000000022
 40
0.1250000000000022
 40
0.1562500000000022
 40
0.1562500000000022
 40
0.1875000000000022
 40
0.1875000000000022
 40
0.2187500000000022
 40
0.2187500000000022
 40
0.2500000000000023
 40
0.2500000000000023
 40
0.2812500000000023
 40
0.2812500000000023
 40
0.3125000000000023
 40
0.3125000000000023
 40
0.3437500000000023
 40
0.3437500000000023
 40
0.3750000000000024
 40
0.3750000000000024
 40
0.4062500000000024
 40
0.4062500000000024
 40
0.4375000000000024
 40
0.4375000000000024
 40
0.4687500000000024
 40
0.4687500000000024
 40
0.5000000000000024
 40
0.5000000000000024
 40
0.5312500000000026
 40
0.5312500000000026
 40
0.5625000000000024
 40
0.5625000000000024
 40
0.5937500000000024
 40
0.5937500000000024
 40
0.6250000000000024
 40
0.6250000000000024
 40
0.6562500000000024
 40
0.6562500000000024
 40
0.6875000000000023
 40
0.6875000000000023
 40
0.7187500000000023
 40
0.7187500000000023
 40
0.7500000000000023
 40
0.7500000000000023
 40
0.7812500000000023
 40
0.7812500000000023
 40
0.8125000000000022
 40
0.8125000000000022
 40
0.8750000000000019
 40
0.8750000000000019
 40
0.9062500000000014
 40
0.9062500000000014
 40
0.9375000000000009
 40
0.9375000000000009
 40
0.9687500000000004
 40
0.9687500000000004
 40
1.0
 40
1.0
 40
1.031250000000001
 40
1.031250000000001
 10
79.64588854188123
 20
100.0307142857144
 30
0.0
 10
79.64588854188122
 20
100.0307142857144
 30
0.0
 10
79.62852866490958
 20
100.0545611855457
 30
0.0
 10
79.56440864257766
 20
100.1465839548765
 30
0.0
 10
79.51695588172326
 20
100.2159550131683
 30
0.0
 10
79.34826898551894
 20
100.4804164075535
 30
0.0
 10
79.19877801749433
 20
100.7358382467447
 30
0.0
 10
78.9847283373397
 20
101.2072560447515
 30
0.0
 10
78.9137323733296
 20
101.3820451725993
 30
0.0
 10
78.78456414279887
 20
101.755333843814
 30
0.0
 10
78.72636183611326
 20
101.953197876687
 30
0.0
 10
78.6280403177832
 20
102.3732373929692
 30
0.0
 10
78.58773683365794
 20
102.5984343596663
 30
0.0
 10
78.53394007297395
 20
103.0531626782215
 30
0.0
 10
78.51973254287121
 20
103.2843576432082
 30
0.0
 10
78.51885954694848
 20
103.7548028000815
 30
0.0
 10
78.53258701311516
 20
103.9911983880486
 30
0.0
 10
78.58521274373955
 20
104.4468938136088
 30
0.0
 10
78.62472190926324
 20
104.6715524622494
 30
0.0
 10
78.7229007226053
 20
105.0957431112454
 30
0.0
 10
78.7811983057762
 20
105.2953531248612
 30
0.0
 10
78.91072774488755
 20
105.6716661404325
 30
0.0
 10
78.98127671477893
 20
105.8459738236359
 30
0.0
 10
79.12398444449151
 20
106.1614355964411
 30
0.0
 10
79.19723731459163
 20
106.3049728181755
 30
0.0
 10
79.33635999712969
 20
106.5569314927342
 30
0.0
 10
79.40136057192994
 20
106.664056660857
 30
0.0
 10
79.5139553381928
 20
106.8409499312211
 30
0.0
 10
79.56195013023802
 20
106.9112637887807
 30
0.0
 10
79.62749512605959
 20
107.0054338249707
 30
0.0
 10
79.64534099176933
 20
107.0299518717284
 30
0.0
 10
79.64641122073654
 20
107.0314420688527
 30
0.0
 10
79.62943385458111
 20
107.0081337938244
 30
0.0
 10
79.5657671758193
 20
106.9168258807907
 30
0.0
 10
79.51849441024576
 20
106.8477883538804
 30
0.0
 10
79.40614900485899
 20
106.671848958245
 30
0.0
 10
79.34051658755648
 20
106.5640271918225
 30
0.0
 10
79.20128329547424
 20
106.3127076587909
 30
0.0
 10
79.1287968737324
 20
106.1712733668427
 30
0.0
 10
78.98562178279053
 20
105.8563294074249
 30
0.0
 10
78.91434495272706
 20
105.6809502487606
 30
0.0
 10
78.7852696523534
 20
105.3083350098458
 30
0.0
 10
78.72687340355671
 20
105.1102577926738
 30
0.0
 10
78.62798323741461
 20
104.6881049690513
 30
0.0
 10
78.58772461147703
 20
104.4628621321157
 30
0.0
 10
78.53397312578673
 20
104.0085740369585
 30
0.0
 10
78.51965193802464
 20
103.7767273257327
 30
0.0
 10
78.51893329255775
 20
103.3029014674294
 30
0.0
 10
78.53270548499663
 20
103.0684403200632
 30
0.0
 10
78.58562269327432
 20
102.6117566076269
 30
0.0
 10
78.62545329371883
 20
102.3861353510271
 30
0.0
 10
78.77299452705883
 20
101.7504267388785
 30
0.0
 10
78.91141175181345
 20
101.3692606088839
 30
0.0
 10
79.12605637867114
 20
100.89573602632
 30
0.0
 10
79.19982064537689
 20
100.7515415973968
 30
0.0
 10
79.3384722888823
 20
100.5009153316597
 30
0.0
 10
79.40343725150518
 20
100.3939841500694
 30
0.0
 10
79.51609241106124
 20
100.2172511112447
 30
0.0
 10
79.56389431392556
 20
100.1473311911465
 30
0.0
 10
79.62841439567042
 20
100.0547161786784
 30
0.0
 10
79.64588854188123
 20
100.0307142857144
 30
0.0
 10
79.64588854188122
 20
100.0307142857144
 30
0.0
  0
SPLINE
  5
2F3
330
1F
100
AcDbEntity
  8
0
  6
HIDDEN
 62
     7
370
     0
100
AcDbSpline
210
0.0
220
0.0
230
1.0
 70
    11
 71
     3
 72
    70
 73
    66
 74
     0
 42
0.00000001
 43
0.00000001
 12
1.0
 22
0.0
 32
0.0
 13
1.0
 23
0.0
 33
0.0
 40
-0.03125
 40
-0.03125
 40
0.0
 40
0.0
 40
0.03125
 40
0.03125
 40
0.0625
 40
0.0625
 40
0.09375
 40
0.09375
 40
0.125
 40
0.125
 40
0.15625
 40
0.15625
 40
0.1875
 40
0.1875
 40
0.21875
 40
0.21875
 40
0.25
 40
0.25
 40
0.28125
 40
0.28125
 40
0.3125
 40
0.3125
 40
0.34375
 40
0.34375
 40
0.375
 40
0.375
 40
0.40625
 40
0.40625
 40
0.4375
 40
0.4375
 40
0.46875
 40
0.46875
 40
0.5
 40
0.5
 40
0.53125
 40
0.53125
 40
0.5625
 40
0.5625
 40
0.59375
 40
0.59375
 40
0.625
 40
0.625
 40
0.65625
 40
0.65625
 40
0.6875
 40
0.6875
 40
0.71875
 40
0.71875
 40
0.75
 40
0.75
 40
0.78125
 40
0.78125
 40
0.8125
 40
0.8125
 40
0.84375
 40
0.84375
 40
0.875
 40
0.875
 40
0.90625
 40
0.90625
 40
0.9375
 40
0.9375
 40
0.96875
 40
0.96875
 40
1.0
 40
1.0
 40
1.03125
 40
1.03125
 10
100.6438012108829
 20
107.0307142857142
 30
0.0
 10
100.6438012108829
 20
107.0307142857142
 30
0.0
 10
100.648803380985
 20
107.0078889902923
 30
0.0
 10
100.6677974150135
 20
106.9185829280879
 30
0.0
 10
100.6820184380592
 20
106.8509724026573
 30
0.0
 10
100.7171558813015
 20
106.6750814900599
 30
0.0
 10
100.7379262279769
 20
106.5675449247635
 30
0.0
 10
100.7834250110366
 20
106.3135928993976
 30
0.0
 10
100.8082550827834
 20
106.1662360369407
 30
0.0
 10
100.8570814204726
 20
105.8443541565555
 30
0.0
 10
100.8813312914241
 20
105.66859394375
 30
0.0
 10
100.9267596353961
 20
105.2862382612494
 30
0.0
 10
100.9474094529079
 20
105.0835591036398
 30
0.0
 10
100.9817641148439
 20
104.6626955184192
 30
0.0
 10
100.9956871706098
 20
104.4414170158708
 30
0.0
 10
101.0144625408956
 20
103.9893272723877
 30
0.0
 10
101.0192564710186
 20
103.7617986413566
 30
0.0
 10
101.0193146909003
 20
103.3038250542764
 30
0.0
 10
101.0144178306837
 20
103.071157451763
 30
0.0
 10
100.9957653737773
 20
102.6217621134766
 30
0.0
 10
100.9820987263049
 20
102.4032593546847
 30
0.0
 10
100.9475097069924
 20
101.9786758404216
 30
0.0
 10
100.9266903569534
 20
101.77475711263
 30
0.0
 10
100.8817603226799
 20
101.3962969433009
 30
0.0
 10
100.8573384323774
 20
101.2187745513193
 30
0.0
 10
100.808024318626
 20
100.8936654363197
 30
0.0
 10
100.7836789610727
 20
100.7493331691642
 30
0.0
 10
100.7383061060652
 20
100.4959249795726
 30
0.0
 10
100.7170905046801
 20
100.3860152297599
 30
0.0
 10
100.6820188201479
 20
100.2104626794482
 30
0.0
 10
100.6680349968391
 20
100.1439725213273
 30
0.0
 10
100.6488676562774
 20
100.0538321269422
 30
0.0
 10
100.6438217456771
 20
100.0308088896107
 30
0.0
 10
100.6437808051982
 20
100.0306202766265
 30
0.0
 10
100.6486311839587
 20
100.0527352016014
 30
0.0
 10
100.6678074179868
 20
100.1428874638885
 30
0.0
 10
100.6818894959121
 20
100.2098464888424
 30
0.0
 10
100.7167793804267
 20
100.3844271307541
 30
0.0
 10
100.7378854237791
 20
100.4936530040596
 30
0.0
 10
100.7834887884916
 20
100.7481945416162
 30
0.0
 10
100.807817452503
 20
100.892473667181
 30
0.0
 10
100.8567679582318
 20
101.2148443245686
 30
0.0
 10
100.8815028846026
 20
101.3943164642822
 30
0.0
 10
100.9264975483417
 20
101.7729468914199
 30
0.0
 10
100.947032190264
 20
101.9736080404168
 30
0.0
 10
100.9817738414704
 20
102.3984957553652
 30
0.0
 10
100.9956414893163
 20
102.6197234597746
 30
0.0
 10
101.014303105347
 20
103.067459303102
 30
0.0
 10
101.0192531624778
 20
103.2973490662778
 30
0.0
 10
101.0193179418458
 20
103.7594534527176
 30
0.0
 10
101.0145010442165
 20
103.987135617006
 30
0.0
 10
100.995964972167
 20
104.4359710699176
 30
0.0
 10
100.982012631266
 20
104.6592524325613
 30
0.0
 10
100.947568715396
 20
105.0820019854614
 30
0.0
 10
100.9271009413246
 20
105.2829834625757
 30
0.0
 10
100.8818944970139
 20
105.6642281985381
 30
0.0
 10
100.8572772864706
 20
105.8429681304644
 30
0.0
 10
100.808489567289
 20
106.1647841956916
 30
0.0
 10
100.7840121532612
 20
106.3102193223113
 30
0.0
 10
100.7380923116572
 20
106.5667127936576
 30
0.0
 10
100.7173059654167
 20
106.674298696855
 30
0.0
 10
100.6823119802374
 20
106.8495340958533
 30
0.0
 10
100.6680173399947
 20
106.9175416530319
 30
0.0
 10
100.6488058232205
 20
107.0078846569579
 30
0.0
 10
100.6438012108829
 20
107.0307142857142
 30
0.0
 10
100.6438012108829
 20
107.0307142857142
 30
0.0
  0
SPLINE
  5
2F4
330
1F
100
AcDbEntity
  8
0
  6
HIDDEN
 62
     7
370
     0
100
AcDbSpline
210
0.0
220
0.0
230
1.0
 70
    11
 71
     3
 72
    66
 73
    62
 74
     0
 42
0.00000001
 43
0.00000001
 12
1.0
 22
0.0
 32
0.0
 13
1.0
 23
0.0
 33
0.0
 40
-0.0312499999999999
 40
-0.0312499999999999
 40
0.0
 40
0.0
 40
0.0312500000000002
 40
0.0312500000000002
 40
0.0625000000000004
 40
0.0625000000000004
 40
0.1250000000000004
 40
0.1250000000000004
 40
0.1562500000000004
 40
0.1562500000000004
 40
0.1875000000000004
 40
0.1875000000000004
 40
0.2187500000000004
 40
0.2187500000000004
 40
0.2500000000000004
 40
0.2500000000000004
 40
0.2812500000000004
 40
0.2812500000000004
 40
0.3125000000000004
 40
0.3125000000000004
 40
0.3437500000000004
 40
0.3437500000000004
 40
0.3750000000000004
 40
0.3750000000000004
 40
0.4062500000000004
 40
0.4062500000000004
 40
0.4375000000000005
 40
0.4375000000000005
 40
0.4687500000000005
 40
0.4687500000000005
 40
0.5000000000000006
 40
0.5000000000000006
 40
0.5312500000000006
 40
0.5312500000000006
 40
0.5625000000000006
 40
0.5625000000000006
 40
0.5937500000000004
 40
0.5937500000000004
 40
0.6250000000000004
 40
0.6250000000000004
 40
0.6562500000000004
 40
0.6562500000000004
 40
0.6875000000000004
 40
0.6875000000000004
 40
0.7187500000000004
 40
0.7187500000000004
 40
0.7500000000000003
 40
0.7500000000000003
 40
0.7812500000000003
 40
0.7812500000000003
 40
0.8125000000000003
 40
0.8125000000000003
 40
0.8750000000000002
 40
0.8750000000000002
 40
0.9062500000000002
 40
0.9062500000000002
 40
0.9375000000000001
 40
0.9375000000000001
 40
0.9687500000000001
 40
0.9687500000000001
 40
1.0
 40
1.0
 40
1.03125
 40
1.03125
 10
89.39268288669024
 20
107.0307142857143
 30
0.0
 10
89.39268288669024
 20
107.0307142857143
 30
0.0
 10
89.41004276366189
 20
107.006867385883
 30
0.0
 10
89.47416278599381
 20
106.9148446165521
 30
0.0
 10
89.52161554684821
 20
106.8454735582604
 30
0.0
 10
89.69030244305253
 20
106.5810121638751
 30
0.0
 10
89.83979341107714
 20
106.3255903246839
 30
0.0
 10
90.05384309123177
 20
105.8541725266771
 30
0.0
 10
90.12483905524189
 20
105.6793833988293
 30
0.0
 10
90.25400728577262
 20
105.3060947276146
 30
0.0
 10
90.31220959245822
 20
105.1082306947416
 30
0.0
 10
90.41053111078828
 20
104.6881911784595
 30
0.0
 10
90.45083459491354
 20
104.4629942117624
 30
0.0
 10
90.50463135559754
 20
104.0082658932071
 30
0.0
 10
90.51883888570028
 20
103.7770709282204
 30
0.0
 10
90.519711881623
 20
103.3066257713471
 30
0.0
 10
90.50598441545633
 20
103.07023018338
 30
0.0
 10
90.45335868483195
 20
102.6145347578198
 30
0.0
 10
90.41384951930827
 20
102.3898761091793
 30
0.0
 10
90.31567070596618
 20
101.9656854601833
 30
0.0
 10
90.25737312279529
 20
101.7660754465674
 30
0.0
 10
90.12784368368395
 20
101.3897624309961
 30
0.0
 10
90.05729471379257
 20
101.2154547477927
 30
0.0
 10
89.91458698408
 20
100.8999929749876
 30
0.0
 10
89.84133411397988
 20
100.7564557532531
 30
0.0
 10
89.70221143144181
 20
100.5044970786945
 30
0.0
 10
89.63721085664159
 20
100.3973719105716
 30
0.0
 10
89.5246160903787
 20
100.2204786402075
 30
0.0
 10
89.47662129833348
 20
100.1501647826479
 30
0.0
 10
89.41107630251194
 20
100.0559947464579
 30
0.0
 10
89.3932304368022
 20
100.0314766997002
 30
0.0
 10
89.39216020783498
 20
100.0299865025759
 30
0.0
 10
89.4091375739904
 20
100.0532947776042
 30
0.0
 10
89.47280425275221
 20
100.1446026906379
 30
0.0
 10
89.52007701832575
 20
100.2136402175482
 30
0.0
 10
89.63242242371253
 20
100.3895796131836
 30
0.0
 10
89.69805484101504
 20
100.4974013796061
 30
0.0
 10
89.83728813309727
 20
100.7487209126378
 30
0.0
 10
89.90977455483912
 20
100.8901552045859
 30
0.0
 10
90.05294964578098
 20
101.2050991640037
 30
0.0
 10
90.12422647584444
 20
101.380478322668
 30
0.0
 10
90.25330177621808
 20
101.7530935615829
 30
0.0
 10
90.31169802501479
 20
101.9511707787548
 30
0.0
 10
90.41058819115688
 20
102.3733236023773
 30
0.0
 10
90.45084681709446
 20
102.598566439313
 30
0.0
 10
90.50459830278476
 20
103.0528545344701
 30
0.0
 10
90.51891949054684
 20
103.284701245696
 30
0.0
 10
90.51963813601375
 20
103.7585271039993
 30
0.0
 10
90.50586594357486
 20
103.9929882513654
 30
0.0
 10
90.45294873529716
 20
104.4496719638017
 30
0.0
 10
90.41311813485264
 20
104.6752932204015
 30
0.0
 10
90.26557690151265
 20
105.3110018325501
 30
0.0
 10
90.12715967675801
 20
105.6921679625447
 30
0.0
 10
89.91251504990034
 20
106.1656925451086
 30
0.0
 10
89.83875078319457
 20
106.3098869740318
 30
0.0
 10
89.70009913968917
 20
106.560513239769
 30
0.0
 10
89.63513417706628
 20
106.6674444213592
 30
0.0
 10
89.52247901751024
 20
106.8441774601839
 30
0.0
 10
89.4746771146459
 20
106.9140973802821
 30
0.0
 10
89.41015703290104
 20
107.0067123927502
 30
0.0
 10
89.39268288669024
 20
107.0307142857143
 30
0.0
 10
89.39268288669024
 20
107.0307142857143
 30
0.0
  0
SPLINE
  5
2F5
330
1F
100
AcDbEntity
  8
0
  6
HIDDEN
 62
     7
370
     0
100
AcDbSpline
210
0.0
220
0.0
230
1.0
 70
    11
 71
     3
 72
    70
 73
    66
 74
     0
 42
0.00000001
 43
0.00000001
 12
1.0
 22
0.0
 32
0.0
 13
1.0
 23
0.0
 33
0.0
 40
-0.03125
 40
-0.03125
 40
0.0
 40
0.0
 40
0.03125
 40
0.03125
 40
0.0625
 40
0.0625
 40
0.09375
 40
0.09375
 40
0.1249999999999999
 40
0.1249999999999999
 40
0.1562499999999999
 40
0.1562499999999999
 40
0.1874999999999999
 40
0.1874999999999999
 40
0.2187499999999999
 40
0.2187499999999999
 40
0.25
 40
0.25
 40
0.28125
 40
0.28125
 40
0.3124999999999999
 40
0.3124999999999999
 40
0.3437499999999999
 40
0.3437499999999999
 40
0.3749999999999999
 40
0.3749999999999999
 40
0.4062499999999999
 40
0.4062499999999999
 40
0.4374999999999999
 40
0.4374999999999999
 40
0.4687499999999999
 40
0.4687499999999999
 40
0.4999999999999999
 40
0.4999999999999999
 40
0.5312499999999999
 40
0.5312499999999999
 40
0.5624999999999999
 40
0.5624999999999999
 40
0.5937499999999999
 40
0.5937499999999999
 40
0.6249999999999998
 40
0.6249999999999998
 40
0.6562499999999998
 40
0.6562499999999998
 40
0.6874999999999999
 40
0.6874999999999999
 40
0.71875
 40
0.71875
 40
0.7500000000000001
 40
0.7500000000000001
 40
0.7812500000000001
 40
0.7812500000000001
 40
0.8125000000000001
 40
0.8125000000000001
 40
0.8437500000000001
 40
0.8437500000000001
 40
0.875
 40
0.875
 40
0.90625
 40
0.90625
 40
0.9375
 40
0.9375
 40
0.96875
 40
0.96875
 40
1.0
 40
1.0
 40
1.03125
 40
1.03125
 10
81.01928571428576
 20
119.6552297823114
 30
0.0
 10
81.01928571428576
 20
119.6552297823114
 30
0.0
 10
81.04211100970771
 20
119.6602319524135
 30
0.0
 10
81.13141707191208
 20
119.679225986442
 30
0.0
 10
81.19902759734269
 20
119.6934470094877
 30
0.0
 10
81.3749185099401
 20
119.72858445273
 30
0.0
 10
81.48245507523647
 20
119.7493547994054
 30
0.0
 10
81.73640710060234
 20
119.7948535824651
 30
0.0
 10
81.88376396305927
 20
119.819683654212
 30
0.0
 10
82.2056458434445
 20
119.8685099919011
 30
0.0
 10
82.38140605625
 20
119.8927598628526
 30
0.0
 10
82.76376173875063
 20
119.9381882068246
 30
0.0
 10
82.96644089636015
 20
119.9588380243365
 30
0.0
 10
83.38730448158077
 20
119.9931926862725
 30
0.0
 10
83.60858298412917
 20
120.0071157420384
 30
0.0
 10
84.0606727276123
 20
120.0258911123242
 30
0.0
 10
84.28820135864338
 20
120.0306850424472
 30
0.0
 10
84.74617494572357
 20
120.0307432623289
 30
0.0
 10
84.97884254823694
 20
120.0258464021123
 30
0.0
 10
85.42823788652342
 20
120.0071939452059
 30
0.0
 10
85.64674064531526
 20
119.9935272977335
 30
0.0
 10
86.07132415957842
 20
119.958938278421
 30
0.0
 10
86.27524288736997
 20
119.9381189283819
 30
0.0
 10
86.65370305669906
 20
119.8931888941084
 30
0.0
 10
86.83122544868071
 20
119.868767003806
 30
0.0
 10
87.15633456368025
 20
119.8194528900546
 30
0.0
 10
87.30066683083578
 20
119.7951075325013
 30
0.0
 10
87.55407502042739
 20
119.7497346774938
 30
0.0
 10
87.66398477024008
 20
119.7285190761087
 30
0.0
 10
87.83953732055178
 20
119.6934473915764
 30
0.0
 10
87.9060274786727
 20
119.6794635682677
 30
0.0
 10
87.99616787305776
 20
119.660296227706
 30
0.0
 10
88.01919111038933
 20
119.6552503171056
 30
0.0
 10
88.01937972337348
 20
119.6552093766268
 30
0.0
 10
87.99726479839856
 20
119.6600597553873
 30
0.0
 10
87.90711253611147
 20
119.6792359894154
 30
0.0
 10
87.84015351115757
 20
119.6933180673407
 30
0.0
 10
87.66557286924586
 20
119.7282079518552
 30
0.0
 10
87.55634699594036
 20
119.7493139952077
 30
0.0
 10
87.30180545838381
 20
119.7949173599202
 30
0.0
 10
87.15752633281903
 20
119.8192460239315
 30
0.0
 10
86.83515567543135
 20
119.8681965296603
 30
0.0
 10
86.65568353571774
 20
119.8929314560311
 30
0.0
 10
86.27705310858006
 20
119.9379261197703
 30
0.0
 10
86.07639195958315
 20
119.9584607616926
 30
0.0
 10
85.65150424463482
 20
119.9932024128989
 30
0.0
 10
85.4302765402254
 20
120.0070700607449
 30
0.0
 10
84.98254069689798
 20
120.0257316767755
 30
0.0
 10
84.7526509337222
 20
120.0306817339064
 30
0.0
 10
84.29054654728233
 20
120.0307465132743
 30
0.0
 10
84.062864382994
 20
120.025929615645
 30
0.0
 10
83.61402893008236
 20
120.0073935435955
 30
0.0
 10
83.39074756743868
 20
119.9934412026945
 30
0.0
 10
82.96799801453855
 20
119.9589972868245
 30
0.0
 10
82.76701653742428
 20
119.9385295127531
 30
0.0
 10
82.38577180146184
 20
119.8933230684425
 30
0.0
 10
82.20703186953556
 20
119.8687058578992
 30
0.0
 10
81.88521580430842
 20
119.8199181387176
 30
0.0
 10
81.73978067768866
 20
119.7954407246897
 30
0.0
 10
81.48328720634238
 20
119.7495208830858
 30
0.0
 10
81.375701303145
 20
119.7287345368452
 30
0.0
 10
81.20046590414665
 20
119.693740551666
 30
0.0
 10
81.13245834696805
 20
119.6794459114232
 30
0.0
 10
81.04211534304213
 20
119.660234394649
 30
0.0
 10
81.01928571428576
 20
119.6552297823114
 30
0.0
 10
81.01928571428576
 20
119.6552297823114
 30
0.0
  0
SPLINE
  5
2F6
330
1F
100
AcDbEntity
  8
0
  6
HIDDEN
 62
     7
370
     0
100
AcDbSpline
210
0.0
220
0.0
230
1.0
 70
    11
 71
     3
 72
    66
 73
    62
 74
     0
 42
0.00000001
 43
0.00000001
 12
1.0
 22
0.0
 32
0.0
 13
1.0
 23
0.0
 33
0.0
 40
-0.0312499999999998
 40
-0.0312499999999998
 40
0.0
 40
0.0
 40
0.0312500000000001
 40
0.0312500000000001
 40
0.0625000000000002
 40
0.0625000000000002
 40
0.1250000000000005
 40
0.1250000000000005
 40
0.1562500000000005
 40
0.1562500000000005
 40
0.1875000000000005
 40
0.1875000000000005
 40
0.2187500000000005
 40
0.2187500000000005
 40
0.2500000000000004
 40
0.2500000000000004
 40
0.2812500000000004
 40
0.2812500000000004
 40
0.3125000000000004
 40
0.3125000000000004
 40
0.3437500000000005
 40
0.3437500000000005
 40
0.3750000000000005
 40
0.3750000000000005
 40
0.4062500000000005
 40
0.4062500000000005
 40
0.4375000000000005
 40
0.4375000000000005
 40
0.4687500000000006
 40
0.4687500000000006
 40
0.5000000000000006
 40
0.5000000000000006
 40
0.5312500000000006
 40
0.5312500000000006
 40
0.5625000000000006
 40
0.5625000000000006
 40
0.5937500000000006
 40
0.5937500000000006
 40
0.6250000000000006
 40
0.6250000000000006
 40
0.6562500000000007
 40
0.6562500000000007
 40
0.6875000000000007
 40
0.6875000000000007
 40
0.7187500000000007
 40
0.7187500000000007
 40
0.7500000000000007
 40
0.7500000000000007
 40
0.7812500000000007
 40
0.7812500000000007
 40
0.8125000000000007
 40
0.8125000000000007
 40
0.8750000000000004
 40
0.8750000000000004
 40
0.9062500000000004
 40
0.9062500000000004
 40
0.9375000000000003
 40
0.9375000000000003
 40
0.9687500000000002
 40
0.9687500000000002
 40
1.0
 40
1.0
 40
1.03125
 40
1.03125
 10
81.01928571428576
 20
108.4041114581188
 30
0.0
 10
81.01928571428576
 20
108.4041114581188
 30
0.0
 10
81.04313261411706
 20
108.4214713350904
 30
0.0
 10
81.13515538344791
 20
108.4855913574224
 30
0.0
 10
81.20452644173966
 20
108.5330441182767
 30
0.0
 10
81.46898783612491
 20
108.7017310144811
 30
0.0
 10
81.7244096753161
 20
108.8512219825057
 30
0.0
 10
82.1958274733229
 20
109.0652716626603
 30
0.0
 10
82.37061660117075
 20
109.1362676266704
 30
0.0
 10
82.74390527238542
 20
109.2654358572012
 30
0.0
 10
82.94176930525838
 20
109.3236381638868
 30
0.0
 10
83.36180882154055
 20
109.4219596822168
 30
0.0
 10
83.58700578823765
 20
109.4622631663421
 30
0.0
 10
84.04173410679287
 20
109.5160599270261
 30
0.0
 10
84.27292907177959
 20
109.5302674571288
 30
0.0
 10
84.74337422865291
 20
109.5311404530515
 30
0.0
 10
84.97976981662
 20
109.5174129868849
 30
0.0
 10
85.43546524218021
 20
109.4647872562605
 30
0.0
 10
85.66012389082076
 20
109.4252780907368
 30
0.0
 10
86.08431453981675
 20
109.3270992773947
 30
0.0
 10
86.28392455343258
 20
109.2688016942238
 30
0.0
 10
86.6602375690039
 20
109.1392722551125
 30
0.0
 10
86.83454525220729
 20
109.0687232852211
 30
0.0
 10
87.15000702501247
 20
108.9260155555086
 30
0.0
 10
87.29354424674692
 20
108.8527626854085
 30
0.0
 10
87.54550292130554
 20
108.7136400028704
 30
0.0
 10
87.65262808942838
 20
108.6486394280701
 30
0.0
 10
87.82952135979251
 20
108.5360446618073
 30
0.0
 10
87.89983521735212
 20
108.4880498697621
 30
0.0
 10
87.99400525354211
 20
108.4225048739405
 30
0.0
 10
88.0185233002998
 20
108.4046590082308
 30
0.0
 10
88.0200134974241
 20
108.4035887792635
 30
0.0
 10
87.99670522239583
 20
108.420566145419
 30
0.0
 10
87.90539730936213
 20
108.4842328241808
 30
0.0
 10
87.83635978245184
 20
108.5315055897543
 30
0.0
 10
87.6604203868164
 20
108.6438509951411
 30
0.0
 10
87.55259862039392
 20
108.7094834124436
 30
0.0
 10
87.30127908736225
 20
108.8487167045258
 30
0.0
 10
87.15984479541413
 20
108.9212031262677
 30
0.0
 10
86.84490083599628
 20
109.0643782172095
 30
0.0
 10
86.66952167733199
 20
109.135655047273
 30
0.0
 10
86.29690643841715
 20
109.2647303476466
 30
0.0
 10
86.09882922124517
 20
109.3231265964433
 30
0.0
 10
85.67667639762266
 20
109.4220167625854
 30
0.0
 10
85.45143356068704
 20
109.462275388523
 30
0.0
 10
84.99714546552988
 20
109.5160268742133
 30
0.0
 10
84.76529875430403
 20
109.5303480619754
 30
0.0
 10
84.29147289600076
 20
109.5310667074423
 30
0.0
 10
84.05701174863462
 20
109.5172945150034
 30
0.0
 10
83.6003280361983
 20
109.4643773067257
 30
0.0
 10
83.37470677959854
 20
109.4245467062812
 30
0.0
 10
82.73899816744994
 20
109.2770054729412
 30
0.0
 10
82.35783203745528
 20
109.1385882481866
 30
0.0
 10
81.88430745489138
 20
108.9239436213289
 30
0.0
 10
81.74011302596824
 20
108.8501793546231
 30
0.0
 10
81.48948676023107
 20
108.7115277111177
 30
0.0
 10
81.38255557864085
 20
108.6465627484948
 30
0.0
 10
81.2058225398161
 20
108.5339075889388
 30
0.0
 10
81.13590261971792
 20
108.4861056860745
 30
0.0
 10
81.04328760724985
 20
108.4215856043296
 30
0.0
 10
81.01928571428576
 20
108.4041114581188
 30
0.0
 10
81.01928571428576
 20
108.4041114581188
 30
0.0
  0
SPLINE
  5
2F7
330
1F
100
AcDbEntity
  8
0
  6
HIDDEN
 62
     7
370
     0
100
AcDbSpline
210
0.0
220
0.0
230
1.0
 70
    11
 71
     3
 72
    70
 73
    66
 74
     0
 42
0.00000001
 43
0.00000001
 12
1.0
 22
0.0
 32
0.0
 13
1.0
 23
0.0
 33
0.0
 40
-0.03125
 40
-0.03125
 40
0.0
 40
0.0
 40
0.03125
 40
0.03125
 40
0.0625
 40
0.0625
 40
0.09375
 40
0.09375
 40
0.125
 40
0.125
 40
0.15625
 40
0.15625
 40
0.1875
 40
0.1875
 40
0.21875
 40
0.21875
 40
0.25
 40
0.25
 40
0.28125
 40
0.28125
 40
0.3125
 40
0.3125
 40
0.34375
 40
0.34375
 40
0.375
 40
0.375
 40
0.40625
 40
0.40625
 40
0.4375
 40
0.4375
 40
0.46875
 40
0.46875
 40
0.5
 40
0.5
 40
0.53125
 40
0.53125
 40
0.5625
 40
0.5625
 40
0.59375
 40
0.59375
 40
0.625
 40
0.625
 40
0.65625
 40
0.65625
 40
0.6875
 40
0.6875
 40
0.71875
 40
0.71875
 40
0.75
 40
0.75
 40
0.78125
 40
0.78125
 40
0.8125
 40
0.8125
 40
0.84375
 40
0.84375
 40
0.875
 40
0.875
 40
0.90625
 40
0.90625
 40
0.9375
 40
0.9375
 40
0.96875
 40
0.96875
 40
1.0
 40
1.0
 40
1.03125
 40
1.03125
 10
68.3947702176886
 20
100.0307142857145
 30
0.0
 10
68.39477021768862
 20
100.0307142857145
 30
0.0
 10
68.38976804758651
 20
100.0535395811364
 30
0.0
 10
68.37077401355799
 20
100.1428456433408
 30
0.0
 10
68.35655299051227
 20
100.2104561687714
 30
0.0
 10
68.32141554726998
 20
100.3863470813688
 30
0.0
 10
68.30064520059456
 20
100.4938836466652
 30
0.0
 10
68.25514641753487
 20
100.747835672031
 30
0.0
 10
68.23031634578804
 20
100.895192534488
 30
0.0
 10
68.18149000809889
 20
101.2170744148732
 30
0.0
 10
68.15724013714741
 20
101.3928346276787
 30
0.0
 10
68.11181179317539
 20
101.7751903101794
 30
0.0
 10
68.09116197566354
 20
101.9778694677889
 30
0.0
 10
68.05680731372757
 20
102.3987330530095
 30
0.0
 10
68.04288425796165
 20
102.6200115555579
 30
0.0
 10
68.02410888767587
 20
103.072101299041
 30
0.0
 10
68.01931495755285
 20
103.2996299300721
 30
0.0
 10
68.01925673767117
 20
103.7576035171523
 30
0.0
 10
68.02415359788776
 20
103.9902711196657
 30
0.0
 10
68.04280605479416
 20
104.4396664579521
 30
0.0
 10
68.05647270226659
 20
104.658169216744
 30
0.0
 10
68.09106172157907
 20
105.0827527310071
 30
0.0
 10
68.11188107161814
 20
105.2866714587987
 30
0.0
 10
68.15681110589163
 20
105.6651316281278
 30
0.0
 10
68.18123299619408
 20
105.8426540201094
 30
0.0
 10
68.23054710994552
 20
106.167763135109
 30
0.0
 10
68.25489246749879
 20
106.3120954022645
 30
0.0
 10
68.30026532250629
 20
106.5655035918561
 30
0.0
 10
68.32148092389137
 20
106.6754133416688
 30
0.0
 10
68.35655260842363
 20
106.8509658919805
 30
0.0
 10
68.3705364317324
 20
106.9174560501014
 30
0.0
 10
68.38970377229411
 20
107.0075964444865
 30
0.0
 10
68.39474968289444
 20
107.0306196818181
 30
0.0
 10
68.3947906233733
 20
107.0308082948022
 30
0.0
 10
68.3899402446128
 20
107.0086933698273
 30
0.0
 10
68.3707640105847
 20
106.9185411075402
 30
0.0
 10
68.35668193265941
 20
106.8515820825863
 30
0.0
 10
68.32179204814483
 20
106.6770014406746
 30
0.0
 10
68.30068600479241
 20
106.5677755673691
 30
0.0
 10
68.25508264007989
 20
106.3132340298125
 30
0.0
 10
68.23075397606854
 20
106.1689549042478
 30
0.0
 10
68.18180347033972
 20
105.8465842468601
 30
0.0
 10
68.15706854396896
 20
105.6671121071465
 30
0.0
 10
68.1120738802298
 20
105.2884816800088
 30
0.0
 10
68.09153923830749
 20
105.0878205310119
 30
0.0
 10
68.05679758710112
 20
104.6629328160635
 30
0.0
 10
68.04292993925522
 20
104.4417051116541
 30
0.0
 10
68.0242683232245
 20
103.9939692683267
 30
0.0
 10
68.01931826609366
 20
103.7640795051509
 30
0.0
 10
68.01925348672572
 20
103.3019751187111
 30
0.0
 10
68.02407038435504
 20
103.0742929544227
 30
0.0
 10
68.04260645640451
 20
102.6254575015111
 30
0.0
 10
68.05655879730548
 20
102.4021761388674
 30
0.0
 10
68.0910027131755
 20
101.9794265859673
 30
0.0
 10
68.11147048724689
 20
101.778445108853
 30
0.0
 10
68.15667693155756
 20
101.3972003728906
 30
0.0
 10
68.18129414210088
 20
101.2184604409643
 30
0.0
 10
68.23008186128243
 20
100.8966443757371
 30
0.0
 10
68.25455927531031
 20
100.7512092491174
 30
0.0
 10
68.30047911691426
 20
100.4947157777711
 30
0.0
 10
68.32126546315477
 20
100.3871298745737
 30
0.0
 10
68.35625944833404
 20
100.2118944755754
 30
0.0
 10
68.37055408857678
 20
100.1438869183968
 30
0.0
 10
68.389765605351
 20
100.0535439144708
 30
0.0
 10
68.3947702176886
 20
100.0307142857145
 30
0.0
 10
68.39477021768862
 20
100.0307142857145
 30
0.0
  0
SPLINE
  5
2F8
330
1F
100
AcDbEntity
  8
0
  6
HIDDEN
 62
     7
370
     0
100
AcDbSpline
210
0.0
220
0.0
230
1.0
 70
    11
 71
     3
 72
    66
 73
    62
 74
     0
 42
0.00000001
 43
0.00000001
 12
1.0
 22
0.0
 32
0.0
 13
1.0
 23
0.0
 33
0.0
 40
-0.0312499999999998
 40
-0.0312499999999998
 40
0.0
 40
0.0
 40
0.0312500000000001
 40
0.0312500000000001
 40
0.0625000000000002
 40
0.0625000000000002
 40
0.1249999999999999
 40
0.1249999999999999
 40
0.15625
 40
0.15625
 40
0.1875
 40
0.1875
 40
0.21875
 40
0.21875
 40
0.2500000000000001
 40
0.2500000000000001
 40
0.2812500000000001
 40
0.2812500000000001
 40
0.3125000000000001
 40
0.3125000000000001
 40
0.3437500000000001
 40
0.3437500000000001
 40
0.3750000000000001
 40
0.3750000000000001
 40
0.4062500000000002
 40
0.4062500000000002
 40
0.4375000000000002
 40
0.4375000000000002
 40
0.4687500000000002
 40
0.4687500000000002
 40
0.5000000000000002
 40
0.5000000000000002
 40
0.5312500000000002
 40
0.5312500000000002
 40
0.5625000000000002
 40
0.5625000000000002
 40
0.5937500000000003
 40
0.5937500000000003
 40
0.6250000000000004
 40
0.6250000000000004
 40
0.6562500000000004
 40
0.6562500000000004
 40
0.6875000000000006
 40
0.6875000000000006
 40
0.7187500000000007
 40
0.7187500000000007
 40
0.7500000000000007
 40
0.7500000000000007
 40
0.7812500000000007
 40
0.7812500000000007
 40
0.8125000000000007
 40
0.8125000000000007
 40
0.8750000000000007
 40
0.8750000000000007
 40
0.9062500000000006
 40
0.9062500000000006
 40
0.9375000000000004
 40
0.9375000000000004
 40
0.9687500000000002
 40
0.9687500000000002
 40
1.0
 40
1.0
 40
1.03125
 40
1.03125
 10
79.64588854188122
 20
100.0307142857144
 30
0.0
 10
79.64588854188122
 20
100.0307142857144
 30
0.0
 10
79.62852866490958
 20
100.0545611855457
 30
0.0
 10
79.56440864257766
 20
100.1465839548765
 30
0.0
 10
79.51695588172326
 20
100.2159550131683
 30
0.0
 10
79.34826898551893
 20
100.4804164075535
 30
0.0
 10
79.19877801749432
 20
100.7358382467447
 30
0.0
 10
78.9847283373397
 20
101.2072560447515
 30
0.0
 10
78.9137323733296
 20
101.3820451725994
 30
0.0
 10
78.78456414279887
 20
101.755333843814
 30
0.0
 10
78.72636183611327
 20
101.953197876687
 30
0.0
 10
78.6280403177832
 20
102.3732373929692
 30
0.0
 10
78.58773683365794
 20
102.5984343596663
 30
0.0
 10
78.53394007297395
 20
103.0531626782215
 30
0.0
 10
78.51973254287121
 20
103.2843576432082
 30
0.0
 10
78.51885954694848
 20
103.7548028000815
 30
0.0
 10
78.53258701311516
 20
103.9911983880486
 30
0.0
 10
78.58521274373953
 20
104.4468938136088
 30
0.0
 10
78.62472190926323
 20
104.6715524622494
 30
0.0
 10
78.7229007226053
 20
105.0957431112454
 30
0.0
 10
78.7811983057762
 20
105.2953531248612
 30
0.0
 10
78.91072774488754
 20
105.6716661404325
 30
0.0
 10
78.98127671477893
 20
105.8459738236359
 30
0.0
 10
79.12398444449151
 20
106.1614355964411
 30
0.0
 10
79.19723731459163
 20
106.3049728181755
 30
0.0
 10
79.33635999712969
 20
106.5569314927342
 30
0.0
 10
79.40136057192994
 20
106.664056660857
 30
0.0
 10
79.5139553381928
 20
106.8409499312211
 30
0.0
 10
79.56195013023802
 20
106.9112637887807
 30
0.0
 10
79.62749512605959
 20
107.0054338249707
 30
0.0
 10
79.64534099176932
 20
107.0299518717284
 30
0.0
 10
79.64641122073654
 20
107.0314420688527
 30
0.0
 10
79.6294338545811
 20
107.0081337938244
 30
0.0
 10
79.5657671758193
 20
106.9168258807907
 30
0.0
 10
79.51849441024576
 20
106.8477883538804
 30
0.0
 10
79.40614900485899
 20
106.671848958245
 30
0.0
 10
79.34051658755648
 20
106.5640271918225
 30
0.0
 10
79.20128329547424
 20
106.3127076587909
 30
0.0
 10
79.1287968737324
 20
106.1712733668427
 30
0.0
 10
78.98562178279053
 20
105.8563294074249
 30
0.0
 10
78.91434495272706
 20
105.6809502487606
 30
0.0
 10
78.7852696523534
 20
105.3083350098458
 30
0.0
 10
78.72687340355672
 20
105.1102577926738
 30
0.0
 10
78.62798323741463
 20
104.6881049690513
 30
0.0
 10
78.58772461147703
 20
104.4628621321157
 30
0.0
 10
78.53397312578673
 20
104.0085740369585
 30
0.0
 10
78.51965193802464
 20
103.7767273257327
 30
0.0
 10
78.51893329255775
 20
103.3029014674294
 30
0.0
 10
78.53270548499663
 20
103.0684403200632
 30
0.0
 10
78.58562269327432
 20
102.6117566076269
 30
0.0
 10
78.62545329371883
 20
102.3861353510271
 30
0.0
 10
78.77299452705883
 20
101.7504267388785
 30
0.0
 10
78.91141175181345
 20
101.3692606088839
 30
0.0
 10
79.12605637867114
 20
100.89573602632
 30
0.0
 10
79.19982064537689
 20
100.7515415973968
 30
0.0
 10
79.3384722888823
 20
100.5009153316597
 30
0.0
 10
79.40343725150518
 20
100.3939841500694
 30
0.0
 10
79.51609241106124
 20
100.2172511112447
 30
0.0
 10
79.56389431392556
 20
100.1473311911465
 30
0.0
 10
79.62841439567042
 20
100.0547161786785
 30
0.0
 10
79.64588854188122
 20
100.0307142857144
 30
0.0
 10
79.64588854188122
 20
100.0307142857144
 30
0.0
  0
LINE
  5
2F9
330
1F
100
AcDbEntity
  8
0
  6
HIDDEN
 62
     7
370
     0
100
AcDbLine
 10
67.4680732247
 20
99.5307140957
 30
0.0
 11
75.8194141146
 21
99.5307140957
 31
0.0
  0
LINE
  5
2FA
330
1F
100
AcDbEntity
  8
0
  6
HIDDEN
 62
     7
370
     0
100
AcDbLine
 10
75.8194141146
 20
107.5307144757
 30
0.0
 11
67.4680732247
 21
107.5307144757
 31
0.0
  0
LINE
  5
2FB
330
1F
100
AcDbEntity
  8
0
  6
HIDDEN
 62
     7
370
     0
100
AcDbLine
 10
75.8194141146
 20
99.5307140957
 30
0.0
 11
77.0694138538
 21
100.7807143006
 31
0.0
  0
LINE
  5
2FC
330
1F
100
AcDbEntity
  8
0
  6
HIDDEN
 62
     7
370
     0
100
AcDbLine
 10
77.0694138538
 20
106.2807142708
 30
0.0
 11
75.8194141146
 21
107.5307144757
 31
0.0
  0
LINE
  5
2FD
330
1F
100
AcDbEntity
  8
0
  6
HIDDEN
 62
     7
370
     0
100
AcDbLine
 10
67.4680732247
 20
107.5307144757
 30
0.0
 11
67.069413146
 21
106.8402142238
 31
0.0
  0
LINE
  5
2FE
330
1F
100
AcDbEntity
  8
0
  6
HIDDEN
 62
     7
370
     0
100
AcDbLine
 10
67.069413146
 20
100.2212143477
 30
0.0
 11
67.4680732247
 21
99.5307140957
 31
0.0
  0
LINE
  5
2FF
330
1F
100
AcDbEntity
  8
0
  6
HIDDEN
 62
     7
370
     0
100
AcDbLine
 10
101.5704982039
 20
107.5307144757
 30
0.0
 11
93.219157314
 21
107.5307144757
 31
0.0
  0
LINE
  5
300
330
1F
100
AcDbEntity
  8
0
  6
HIDDEN
 62
     7
370
     0
100
AcDbLine
 10
93.219157314
 20
99.5307140957
 30
0.0
 11
101.5704982039
 21
99.5307140957
 31
0.0
  0
LINE
  5
301
330
1F
100
AcDbEntity
  8
0
  6
HIDDEN
 62
     7
370
     0
100
AcDbLine
 10
101.5704982039
 20
99.5307140957
 30
0.0
 11
101.9691582825
 21
100.2212143477
 31
0.0
  0
LINE
  5
302
330
1F
100
AcDbEntity
  8
0
  6
HIDDEN
 62
     7
370
     0
100
AcDbLine
 10
101.9691582825
 20
106.8402142238
 30
0.0
 11
101.5704982039
 21
107.5307144757
 31
0.0
  0
LINE
  5
303
330
1F
100
AcDbEntity
  8
0
  6
HIDDEN
 62
     7
370
     0
100
AcDbLine
 10
93.219157314
 20
107.5307144757
 30
0.0
 11
91.9691575747
 21
106.2807142708
 31
0.0
  0
LINE
  5
304
330
1F
100
AcDbEntity
  8
0
  6
HIDDEN
 62
     7
370
     0
100
AcDbLine
 10
91.9691575747
 20
100.7807143006
 30
0.0
 11
93.219157314
 21
99.5307140957
 31
0.0
  0
LINE
  5
305
330
1F
100
AcDbEntity
  8
0
  6
HIDDEN
 62
     7
370
     0
100
AcDbLine
 10
80.5192855243
 20
120.5819267753
 30
0.0
 11
80.5192855243
 21
112.2305858854
 31
0.0
  0
LINE
  5
306
330
1F
100
AcDbEntity
  8
0
  6
HIDDEN
 62
     7
370
     0
100
AcDbLine
 10
88.5192859043
 20
112.2305858854
 30
0.0
 11
88.5192859043
 21
120.5819267753
 31
0.0
  0
LINE
  5
307
330
1F
100
AcDbEntity
  8
0
  6
HIDDEN
 62
     7
370
     0
100
AcDbLine
 10
80.5192855243
 20
112.2305858854
 30
0.0
 11
81.7692857292
 21
110.9805861462
 31
0.0
  0
LINE
  5
308
330
1F
100
AcDbEntity
  8
0
  6
HIDDEN
 62
     7
370
     0
100
AcDbLine
 10
87.2692856994
 20
110.9805861462
 30
0.0
 11
88.5192859043
 21
112.2305858854
 31
0.0
  0
LINE
  5
309
330
1F
100
AcDbEntity
  8
0
  6
HIDDEN
 62
     7
370
     0
100
AcDbLine
 10
88.5192859043
 20
120.5819267753
 30
0.0
 11
87.8287856523
 21
120.980586854
 31
0.0
  0
LINE
  5
30A
330
1F
100
AcDbEntity
  8
0
  6
HIDDEN
 62
     7
370
     0
100
AcDbLine
 10
81.2097857762
 20
120.980586854
 30
0.0
 11
80.5192855243
 21
120.5819267753
 31
0.0
  0
LINE
  5
30B
330
1F
100
AcDbEntity
  8
0
  6
HIDDEN
 62
     7
370
     0
100
AcDbLine
 10
100.2545226422
 20
99.5307140957
 30
0.0
 11
100.6531827208
 21
100.2212143477
 31
0.0
  0
LINE
  5
30C
330
1F
100
AcDbEntity
  8
0
  6
HIDDEN
 62
     7
370
     0
100
AcDbLine
 10
100.6531827208
 20
106.8402142238
 30
0.0
 11
100.2545226422
 21
107.5307144757
 31
0.0
  0
LINE
  5
30D
330
1F
100
AcDbEntity
  8
0
  6
HIDDEN
 62
     7
370
     0
100
AcDbLine
 10
100.2545226422
 20
107.5307144757
 30
0.0
 11
93.9031830114
 21
107.5307144757
 31
0.0
  0
LINE
  5
30E
330
1F
100
AcDbEntity
  8
0
  6
HIDDEN
 62
     7
370
     0
100
AcDbLine
 10
93.9031830114
 20
99.5307140957
 30
0.0
 11
100.2545226422
 21
99.5307140957
 31
0.0
  0
LINE
  5
30F
330
1F
100
AcDbEntity
  8
0
  6
HIDDEN
 62
     7
370
     0
100
AcDbLine
 10
93.9031830114
 20
107.5307144757
 30
0.0
 11
92.6531832721
 21
106.2807142708
 31
0.0
  0
LINE
  5
310
330
1F
100
AcDbEntity
  8
0
  6
HIDDEN
 62
     7
370
     0
100
AcDbLine
 10
92.6531832721
 20
100.7807143006
 30
0.0
 11
93.9031830114
 21
99.5307140957
 31
0.0
  0
LINE
  5
311
330
1F
100
AcDbEntity
  8
0
  6
HIDDEN
 62
     7
370
     0
100
AcDbLine
 10
80.5192855243
 20
112.9146115828
 30
0.0
 11
81.7692857292
 21
111.6646118436
 31
0.0
  0
LINE
  5
312
330
1F
100
AcDbEntity
  8
0
  6
HIDDEN
 62
     7
370
     0
100
AcDbLine
 10
87.2692856994
 20
111.6646118436
 30
0.0
 11
88.5192859043
 21
112.9146115828
 31
0.0
  0
LINE
  5
313
330
1F
100
AcDbEntity
  8
0
  6
HIDDEN
 62
     7
370
     0
100
AcDbLine
 10
88.5192859043
 20
119.2659512136
 30
0.0
 11
87.8287856523
 21
119.6646112922
 31
0.0
  0
LINE
  5
314
330
1F
100
AcDbEntity
  8
0
  6
HIDDEN
 62
     7
370
     0
100
AcDbLine
 10
81.2097857762
 20
119.6646112922
 30
0.0
 11
80.5192855243
 21
119.2659512136
 31
0.0
  0
LINE
  5
315
330
1F
100
AcDbEntity
  8
0
  6
HIDDEN
 62
     7
370
     0
100
AcDbLine
 10
80.5192855243
 20
119.2659512136
 30
0.0
 11
80.5192855243
 21
112.9146115828
 31
0.0
  0
LINE
  5
316
330
1F
100
AcDbEntity
  8
0
  6
HIDDEN
 62
     7
370
     0
100
AcDbLine
 10
88.5192859043
 20
112.9146115828
 30
0.0
 11
88.5192859043
 21
119.2659512136
 31
0.0
  0
LINE
  5
317
330
1F
100
AcDbEntity
  8
0
  6
HIDDEN
 62
     7
370
     0
100
AcDbLine
 10
75.1353884172
 20
99.5307140957
 30
0.0
 11
76.3853881564
 21
100.7807143006
 31
0.0
  0
LINE
  5
318
330
1F
100
AcDbEntity
  8
0
  6
HIDDEN
 62
     7
370
     0
100
AcDbLine
 10
76.3853881564
 20
106.2807142708
 30
0.0
 11
75.1353884172
 21
107.5307144757
 31
0.0
  0
LINE
  5
319
330
1F
100
AcDbEntity
  8
0
  6
HIDDEN
 62
     7
370
     0
100
AcDbLine
 10
68.7840487864
 20
99.5307140957
 30
0.0
 11
75.1353884172
 21
99.5307140957
 31
0.0
  0
LINE
  5
31A
330
1F
100
AcDbEntity
  8
0
  6
HIDDEN
 62
     7
370
     0
100
AcDbLine
 10
75.1353884172
 20
107.5307144757
 30
0.0
 11
68.7840487864
 21
107.5307144757
 31
0.0
  0
LINE
  5
31B
330
1F
100
AcDbEntity
  8
0
  6
HIDDEN
 62
     7
370
     0
100
AcDbLine
 10
68.7840487864
 20
107.5307144757
 30
0.0
 11
68.3853887078
 21
106.8402142238
 31
0.0
  0
LINE
  5
31C
330
1F
100
AcDbEntity
  8
0
  6
HIDDEN
 62
     7
370
     0
100
AcDbLine
 10
68.3853887078
 20
100.2212143477
 30
0.0
 11
68.7840487864
 21
99.5307140957
 31
0.0
  0
LINE
  5
31D
330
1F
100
AcDbEntity
  8
0
  6
HIDDEN
 62
     7
370
     0
100
AcDbLine
 10
102.1757293549
 20
107.0307143937
 30
0.0
 11
89.3926830087
 21
107.0307143937
 31
0.0
  0
LINE
  5
31E
330
1F
100
AcDbEntity
  8
0
  6
HIDDEN
 62
     7
370
     0
100
AcDbLine
 10
89.3962993343
 20
100.0307141777
 30
0.0
 11
102.1776907202
 21
100.0307141777
 31
0.0
  0
LINE
  5
31F
330
1F
100
AcDbEntity
  8
0
  6
HIDDEN
 62
     7
370
     0
100
AcDbLine
 10
81.0192856063
 20
121.1871579263
 30
0.0
 11
81.0192856063
 21
108.4041115801
 31
0.0
  0
LINE
  5
320
330
1F
100
AcDbEntity
  8
0
  6
HIDDEN
 62
     7
370
     0
100
AcDbLine
 10
88.0192858223
 20
108.4077279057
 30
0.0
 11
88.0192858223
 21
121.1891192916
 31
0.0
  0
LINE
  5
321
330
1F
100
AcDbEntity
  8
0
  6
HIDDEN
 62
     7
370
     0
100
AcDbLine
 10
66.8628420737
 20
100.0307141777
 30
0.0
 11
79.6458884199
 21
100.0307141777
 31
0.0
  0
LINE
  5
322
330
1F
100
AcDbEntity
  8
0
  6
HIDDEN
 62
     7
370
     0
100
AcDbLine
 10
79.6422720943
 20
107.0307143937
 30
0.0
 11
66.8608807084
 21
107.0307143937
 31
0.0
  0
LINE
  5
323
330
1F
100
AcDbEntity
  8
0
  6
HIDDEN
 62
     7
370
     0
100
AcDbLine
 10
102.1772474107
 20
107.0307143937
 30
0.0
 11
102.1757293549
 21
107.0307143937
 31
0.0
  0
LINE
  5
324
330
1F
100
AcDbEntity
  8
0
  6
HIDDEN
 62
     7
370
     0
100
AcDbLine
 10
102.1776907202
 20
100.0307141777
 30
0.0
 11
102.1781768706
 21
100.0307141777
 31
0.0
  0
LINE
  5
325
330
1F
100
AcDbEntity
  8
0
  6
HIDDEN
 62
     7
370
     0
100
AcDbLine
 10
81.0192856063
 20
121.1886759821
 30
0.0
 11
81.0192856063
 21
121.1871579263
 31
0.0
  0
LINE
  5
326
330
1F
100
AcDbEntity
  8
0
  6
HIDDEN
 62
     7
370
     0
100
AcDbLine
 10
88.0192858223
 20
121.1891192916
 30
0.0
 11
88.0192858223
 21
121.189605442
 31
0.0
  0
LINE
  5
327
330
1F
100
AcDbEntity
  8
0
  6
HIDDEN
 62
     7
370
     0
100
AcDbLine
 10
66.8613240179
 20
100.0307141777
 30
0.0
 11
66.8628420737
 21
100.0307141777
 31
0.0
  0
LINE
  5
328
330
1F
100
AcDbEntity
  8
0
  6
HIDDEN
 62
     7
370
     0
100
AcDbLine
 10
66.8608807084
 20
107.0307143937
 30
0.0
 11
66.860394558
 21
107.0307143937
 31
0.0
  0
LINE
  5
329
330
1F
100
AcDbEntity
  8
0
  6
HIDDEN
 62
     7
370
     0
100
AcDbLine
 10
100.6438005772
 20
107.0307143937
 30
0.0
 11
89.3926830087
 21
107.0307143937
 31
0.0
  0
LINE
  5
32A
330
1F
100
AcDbEntity
  8
0
  6
HIDDEN
 62
     7
370
     0
100
AcDbLine
 10
89.3962993343
 20
100.0307141777
 30
0.0
 11
100.6458308604
 21
100.0307141777
 31
0.0
  0
LINE
  5
32B
330
1F
100
AcDbEntity
  8
0
  6
HIDDEN
 62
     7
370
     0
100
AcDbLine
 10
81.0192856063
 20
119.6552291486
 30
0.0
 11
81.0192856063
 21
108.4041115801
 31
0.0
  0
LINE
  5
32C
330
1F
100
AcDbEntity
  8
0
  6
HIDDEN
 62
     7
370
     0
100
AcDbLine
 10
88.0192858223
 20
108.4077279057
 30
0.0
 11
88.0192858223
 21
119.6572594318
 31
0.0
  0
LINE
  5
32D
330
1F
100
AcDbEntity
  8
0
  6
HIDDEN
 62
     7
370
     0
100
AcDbLine
 10
68.3947708514
 20
100.0307141777
 30
0.0
 11
79.6458884199
 21
100.0307141777
 31
0.0
  0
LINE
  5
32E
330
1F
100
AcDbEntity
  8
0
  6
HIDDEN
 62
     7
370
     0
100
AcDbLine
 10
79.6422720943
 20
107.0307143937
 30
0.0
 11
68.3927405682
 21
107.0307143937
 31
0.0
  0
INSERT
  5
33A
330
1F
100
AcDbEntity
  8
VERMASSUNG
100
AcDbBlockReference
  2
SW_CENTERMARKSYMBOL_0
 10
84.5192857143
 20
103.5307142857
 30
0.0
  0
OLE2FRAME
  5
33B
330
1F
100
AcDbEntity
  8
0
100
AcDbOle2Frame
 70
     2
  3
Paintbrush-Bild
 10
13.8511154363
 20
38.264191557
 30
0.0
 11
51.6290888628
 21
31.9806341108
 31
0.0
 71
     2
 72
     0
 73
     1
 90
    12928
310
80552BED0767C5B32B40DDAF6807D121434000000000000000006FFBDDFB85D0
310
4940DDAF6807D121434000000000000000006FFBDDFB85D04940416F4BD60AFB
310
3F4000000000000000002BED0767C5B32B40416F4BD60AFB3F40000000000000
310
0000000000000100000000010000010000000100000000000100000000320000
310
D0CF11E0A1B11AE1000000000000000000000000000000003E000300FEFF0900
310
0600000000000000000000000100000001000000000000000010000002000000
310
01000000FEFFFFFF0000000000000000FFFFFFFFFFFFFFFFFFFFFFFFFFFFFFFF
310
FFFFFFFFFFFFFFFFFFFFFFFFFFFFFFFFFFFFFFFFFFFFFFFFFFFFFFFFFFFFFFFF
310
FFFFFFFFFFFFFFFFFFFFFFFFFFFFFFFFFFFFFFFFFFFFFFFFFFFFFFFFFFFFFFFF
310
FFFFFFFFFFFFFFFFFFFFFFFFFFFFFFFFFFFFFFFFFFFFFFFFFFFFFFFFFFFFFFFF
310
FFFFFFFFFFFFFFFFFFFFFFFFFFFFFFFFFFFFFFFFFFFFFFFFFFFFFFFFFFFFFFFF
310
FFFFFFFFFFFFFFFFFFFFFFFFFFFFFFFFFFFFFFFFFFFFFFFFFFFFFFFFFFFFFFFF
310
FFFFFFFFFFFFFFFFFFFFFFFFFFFFFFFFFFFFFFFFFFFFFFFFFFFFFFFFFFFFFFFF
310
FFFFFFFFFFFFFFFFFFFFFFFFFFFFFFFFFFFFFFFFFFFFFFFFFFFFFFFFFFFFFFFF
310
FFFFFFFFFFFFFFFFFFFFFFFFFFFFFFFFFFFFFFFFFFFFFFFFFFFFFFFFFFFFFFFF
310
FFFFFFFFFFFFFFFFFFFFFFFFFFFFFFFFFFFFFFFFFFFFFFFFFFFFFFFFFFFFFFFF
310
FFFFFFFFFFFFFFFFFFFFFFFFFFFFFFFFFFFFFFFFFFFFFFFFFFFFFFFFFFFFFFFF
310
FFFFFFFFFFFFFFFFFFFFFFFFFFFFFFFFFFFFFFFFFFFFFFFFFFFFFFFFFFFFFFFF
310
FFFFFFFFFFFFFFFFFFFFFFFFFFFFFFFFFFFFFFFFFFFFFFFFFFFFFFFFFFFFFFFF
310
FFFFFFFFFFFFFFFFFFFFFFFFFFFFFFFFFFFFFFFFFFFFFFFFFFFFFFFFFFFFFFFF
310
FDFFFFFFFEFFFFFFFEFFFFFFFEFFFFFF05000000060000000700000008000000
310
090000000A0000000B0000000C0000000D0000000E0000000F00000010000000
310
11000000120000001300000014000000150000001600000017000000FEFFFFFF
310
FFFFFFFFFFFFFFFFFFFFFFFFFFFFFFFFFFFFFFFFFFFFFFFFFFFFFFFFFFFFFFFF
310
FFFFFFFFFFFFFFFFFFFFFFFFFFFFFFFFFFFFFFFFFFFFFFFFFFFFFFFFFFFFFFFF
310
FFFFFFFFFFFFFFFFFFFFFFFFFFFFFFFFFFFFFFFFFFFFFFFFFFFFFFFFFFFFFFFF
310
FFFFFFFFFFFFFFFFFFFFFFFFFFFFFFFFFFFFFFFFFFFFFFFFFFFFFFFFFFFFFFFF
310
FFFFFFFFFFFFFFFFFFFFFFFFFFFFFFFFFFFFFFFFFFFFFFFFFFFFFFFFFFFFFFFF
310
FFFFFFFFFFFFFFFFFFFFFFFFFFFFFFFFFFFFFFFFFFFFFFFFFFFFFFFFFFFFFFFF
310
FFFFFFFFFFFFFFFFFFFFFFFFFFFFFFFFFFFFFFFFFFFFFFFFFFFFFFFFFFFFFFFF
310
FFFFFFFFFFFFFFFFFFFFFFFFFFFFFFFFFFFFFFFFFFFFFFFFFFFFFFFFFFFFFFFF
310
FFFFFFFFFFFFFFFFFFFFFFFFFFFFFFFFFFFFFFFFFFFFFFFFFFFFFFFFFFFFFFFF
310
FFFFFFFFFFFFFFFFFFFFFFFFFFFFFFFFFFFFFFFFFFFFFFFFFFFFFFFFFFFFFFFF
310
FFFFFFFFFFFFFFFFFFFFFFFFFFFFFFFFFFFFFFFFFFFFFFFFFFFFFFFFFFFFFFFF
310
FFFFFFFFFFFFFFFFFFFFFFFFFFFFFFFFFFFFFFFFFFFFFFFFFFFFFFFFFFFFFFFF
310
FFFFFFFFFFFFFFFFFFFFFFFFFFFFFFFFFFFFFFFFFFFFFFFFFFFFFFFFFFFFFFFF
310
52006F006F007400200045006E00740072007900000000000000000000000000
310
0000000000000000000000000000000000000000000000000000000000000000
310
16000500FFFFFFFFFFFFFFFF020000000A00030000000000C000000000000046
310
000000000000000000000000B07B4C9C361DCD0103000000C000000000000000
310
01004F006C006500000000000000000000000000000000000000000000000000
310
0000000000000000000000000000000000000000000000000000000000000000
310
0A000200FFFFFFFFFFFFFFFFFFFFFFFF00000000000000000000000000000000
310
0000000000000000000000000000000000000000000000001400000000000000
310
010043006F006D0070004F0062006A0000000000000000000000000000000000
310
0000000000000000000000000000000000000000000000000000000000000000
310
120002010100000003000000FFFFFFFF00000000000000000000000000000000
310
0000000000000000000000000000000000000000010000004D00000000000000
310
01004F006C006500310030004E00610074006900760065000000000000000000
310
0000000000000000000000000000000000000000000000000000000000000000
310
1A000200FFFFFFFFFFFFFFFFFFFFFFFF00000000000000000000000000000000
310
0000000000000000000000000000000000000000040000002426000000000000
310
FEFFFFFF02000000FEFFFFFFFFFFFFFFFFFFFFFFFFFFFFFFFFFFFFFFFFFFFFFF
310
FFFFFFFFFFFFFFFFFFFFFFFFFFFFFFFFFFFFFFFFFFFFFFFFFFFFFFFFFFFFFFFF
310
FFFFFFFFFFFFFFFFFFFFFFFFFFFFFFFFFFFFFFFFFFFFFFFFFFFFFFFFFFFFFFFF
310
FFFFFFFFFFFFFFFFFFFFFFFFFFFFFFFFFFFFFFFFFFFFFFFFFFFFFFFFFFFFFFFF
310
FFFFFFFFFFFFFFFFFFFFFFFFFFFFFFFFFFFFFFFFFFFFFFFFFFFFFFFFFFFFFFFF
310
FFFFFFFFFFFFFFFFFFFFFFFFFFFFFFFFFFFFFFFFFFFFFFFFFFFFFFFFFFFFFFFF
310
FFFFFFFFFFFFFFFFFFFFFFFFFFFFFFFFFFFFFFFFFFFFFFFFFFFFFFFFFFFFFFFF
310
FFFFFFFFFFFFFFFFFFFFFFFFFFFFFFFFFFFFFFFFFFFFFFFFFFFFFFFFFFFFFFFF
310
FFFFFFFFFFFFFFFFFFFFFFFFFFFFFFFFFFFFFFFFFFFFFFFFFFFFFFFFFFFFFFFF
310
FFFFFFFFFFFFFFFFFFFFFFFFFFFFFFFFFFFFFFFFFFFFFFFFFFFFFFFFFFFFFFFF
310
FFFFFFFFFFFFFFFFFFFFFFFFFFFFFFFFFFFFFFFFFFFFFFFFFFFFFFFFFFFFFFFF
310
FFFFFFFFFFFFFFFFFFFFFFFFFFFFFFFFFFFFFFFFFFFFFFFFFFFFFFFFFFFFFFFF
310
FFFFFFFFFFFFFFFFFFFFFFFFFFFFFFFFFFFFFFFFFFFFFFFFFFFFFFFFFFFFFFFF
310
FFFFFFFFFFFFFFFFFFFFFFFFFFFFFFFFFFFFFFFFFFFFFFFFFFFFFFFFFFFFFFFF
310
FFFFFFFFFFFFFFFFFFFFFFFFFFFFFFFFFFFFFFFFFFFFFFFFFFFFFFFFFFFFFFFF
310
FFFFFFFFFFFFFFFFFFFFFFFFFFFFFFFFFFFFFFFFFFFFFFFFFFFFFFFFFFFFFFFF
310
0100000200000000000000000000000000000000000000000000000000000000
310
0000000000000000000000000000000000000000000000000000000000000000
310
0100FEFF030A0000FFFFFFFF0A00030000000000C00000000000004607000000
310
5042727573680007000000504272757368000700000050427275736800F439B2
310
7100000000000000000000000000000000000000000000000000000000000000
310
0000000000000000000000000000000000000000000000000000000000000000
310
0000000000000000000000000000000000000000000000000000000000000000
310
0000000000000000000000000000000000000000000000000000000000000000
310
0000000000000000000000000000000000000000000000000000000000000000
310
0000000000000000000000000000000000000000000000000000000000000000
310
0000000000000000000000000000000000000000000000000000000000000000
310
0000000000000000000000000000000000000000000000000000000000000000
310
0000000000000000000000000000000000000000000000000000000000000000
310
0000000000000000000000000000000000000000000000000000000000000000
310
0000000000000000000000000000000000000000000000000000000000000000
310
0000000000000000000000000000000000000000000000000000000000000000
310
20260000424D0E260000000000003E00000028000000B40200006E0000000100
310
01000000000000000000130B0000130B00000200000002000000000000FFFFFF
310
FFFFFFFFFFFFFFFFFFFFFFFFFFFFFFFFFFFFFFFFFFFFFFFFFFFFFFFFFFFFFFFF
310
FFFFFFFFFFFFFFFFFFFFFFFFFFFFFFFFFFFFFFFFFFFFFFFFFFFFFFFFFFFFFFFF
310
FFFFFFFFFFFFFFFFFFFFFFFFFFFFFFFFFFFFFFFFFFFFFFFFF000FFFFFFFFFFFF
310
FFFFFFFFFFFFFFFFFFFFFFFFFFFFFFFFFFFFFFFFFFFFFFFFFFFFFFFFFFFFFFFF
310
FFFFFFFFFFFFFFFFFFFFFFFFFFFFFFFFFFFFFFFFFFFFFFFFFFFFFFFFFFFFFFFF
310
FFFFFFFFFFFFFFFFFFFFFFFFFFFFFFFFF000FFFFFFFFFFFFFFFFFFFFFFFFFFFF
310
FFFFFFFFFFFFFFFFFFFFFFFFFFFFFFFFFFFFFFFFFFFFFFFFFFFFFFFFFFFFFFFF
310
FFFFFFFFFFFFFFFFFFFFFFFFFFFFFFFFFFFFFFFFFFFFFFFFFFFFFFFFFFFFFFFF
310
FFFFFFFFFFFFFFFFF000FFFFFFFFFFFFFFFFFFFFFFFFFFFFFFFFFFFFFFFFFFFF
310
FFFFFFFFFFFFFFFFFFFFFFFFFFFFFFFFFFFFFFFFFFFFFFFFFFFFFFFFFFFFFFFF
310
FFFFFFFFFFFFFFFFFFFFFFFFFFFFFFFFFFFFFFFFFFFFFFFFFFFFFFFFFFFFFFFF
310
F000FFFFFFFFFFFFFFFFFFFFFFFFFFFFFFFFFFFFFFFFFFFFFFFFFFFFFFFFFFFF
310
FFFFFFFFFFFFFFFFFFFFFFFFFFFFFFFFFFFFFFFFFFFFFFFFFFFFFFFFFFFFFFFF
310
FFFFFFFFFFFFFFFFFFFFFFFFFFFFFFFFFFFFFFFFFFFFFFFFF000FFFFFFFFFFFF
310
FFFFFFFFFFFFFFFFFFFFFFFFFFFFFFFFFFFFFFFFFFFFFFFFFFFFFFFFFFFFFFFF
310
FFFFFFFFFFFFFFFFFFFFFFFFFFFFFFFFFFFFFFFFFFFFFFFFFFFFFFFFFFFFFFFF
310
FFFFFFFFFFFFFFFFFFFFFFFFFFFFFFFFF000FFFFFFFFFFFFFFFFFFFFFFFFFFFF
310
FFFFFFFFFFFFFFFFFFFFFFFFFFFFFFFFFFFFFFFFFFFFFFFFFFFFFFFFFFFFFFFF
310
FFFFFFFFFFFFFFFFFFFFFFFFFFFFFFFFFFFFFFFFFFFFFFFFFFFFFFFFFFFFFFFF
310
FFFFFFFFFFFFFFFFF000FFFFFFFFFFFFFFFFFFFFFFFFFFFFFFFFFFFFFFFFFFFF
310
FFFFFFFFFFFFFFFFFFFFFFFFFFFFFFFFFFFFFFFFFFFFFFFFFFFFFFFFFFFFFFFF
310
FFFFFFFFFFFFFFFFFFFFFFFFFFFFFFFFFFFFFFFFFFFFFFFFFFFFFFFFFFFFFFFF
310
F000FFFFFFFFFFFFFFFFFFFFFFFFFFFFFFFFFFFFFFFFFFFFFFFFFFFFFFFFFFFF
310
FFFFFFFFFFFFFFFFFFFFFFFFFFFFFFFFFFFFFFFFFFFFFFFFFFFFFFFFFFFFFFFF
310
FFFFFFFFFFFFFFFFFFFFFFFFFFFFFFFFFFFFFFFFFFFFFFFFF000FFFFFFFFFFFF
310
FFFFFFFFFFFFFFFFFFFFFFFFFFFFFFFFFFFFFFFFFFFFFFFFFFFFFFFFFFFFFFFF
310
FFFFFFFFFFFFFFFFFFFFFFFFFFFFFFFFFFFFFFFFFFFFFFFFFFFFFFFFFFFFFFFF
310
FFFFFFFFFFFFFFFFFFFFFFFFFFFFFFFFF000FFFFFFFFFFFFFFFFFFFFFFFFFFFF
310
FFFFFFFFFFFFFFFFFFFFFFFFFFFFFFFFFFFFFFFFFFFFFFFFFFFFFFFFFFFFFFFF
310
FFFFFFFFFFFFFFFFFFFFFFFFFFFFFFFFFFFFFFFFFFFFFFFFFFFFFFFFFFFFFFFF
310
FFFFFFFFFFFFFFFFF000FFFFFFFFFFFFFFFFFFFFFFFFFFFFFFFFFFFFFFFFFFFF
310
FFFFFFFFFFFFFFFFFFFFFFFFFFFFFFFFFFFFFFFFFFFFFFFFFFFFFFFFFFFFFFFF
310
FFFFFFFFFFFFFFFFFFFFFFFFFFFFFFFFFFFFFFFFFFFFFFFFFFFFFFFFFFFFFFFF
310
F000FFFFFFFFFFFFFFFFFFFFFFFFFFFFFFFFFFFFFFFFFFFFFFFFFFFFFFFFFFFF
310
FFFFFFFFFFFFFFFFFFFFFFFFFFFFFFFFFFFFFFFFFFFFFFFFFFFFFFFFFFFFFFFF
310
FFFFFFFFFFFFFFFFFFFFFFFFFFFFFFFFFFFFFFFFFFFFFFFFF000FFFFFFFFFFFF
310
FFFFFFFFFFFFFFFFFFFFFFFFFFFFFFFFFFFFFFFFFFFFFFFFFFFFFFFFFFFFFFFF
310
FFFFFFFFFFFFFFFFFFFFFFFFFFFFFFFFFFFFFFFFFFFFFFFFFFFFFFFFFFFFFFFF
310
FFFFFFFFFFFFFFFFFFFFFFFFFFFFFFFFF000FFFFFFFFFFFFFFFFFFFFFFFFFFFF
310
FFFFFFFFFFFFFFFFFFFFFFFFFFFFFFFFFFFFFFFFFFFFFFFFFFFFFFFFFFFFFFFF
310
FFFFFFFFFFFFFFFFFFFFFFFFFFFFFFFFFFFFFFFFFFFFFFFFFFFFFFFFFFFFFFFF
310
FFFFFFFFFFFFFFFFF000FFFFFFFFFFFFFFFFFFFFFFFFFFFFFFFFFFFFFFFFFFFF
310
FFFFFFFFFFFFFFFFFFFFFFFFFFFFFFFFFFFFFFFFFFFFFFFFFFFFFFFFFFFFFFFF
310
FFFFFFFFFFFFFFFFFFFFFFFFFFFFFFFFFFFFFFFFFFFFFFFFFFFFFFFFFFFFFFFF
310
F000FFFFFFFFFFFFFFFFFFFFFFFFFFFFFFFFFFFFFFFFFFFFFFFFFFFFFFFFFFFF
310
FFFFFFFFFFFFFFFFFFFFFFFFFFFFFFFFFFFFFFFFFFFFFFFFFFFFFFFFFFFFFFFF
310
FFFFFFFFFFFFFFFFFFFFFFFFFFFFFFFFFFFFFFFFFFFFFFFFF000FFFFFFFFFFFF
310
FFFFFFFFFFFFFFFFFFFFFFFFFFFFFFFFFFFFFFFFFFFFFFFFFFFFFFFFFFFFFFFF
310
FFFFFFFFFFFFFFFFFFFFFFFFFFFFFFFFFFFFFFFFFFFFFFFFFFFFFFFFFFFFFFFF
310
FFFFFFFFFFFFFFFFFFFFFFFFFFFFFFFFF000FFFFFFFFFFFFFFFFFFFFFFFFFFFF
310
FFFFFFFFFFFFFFFFFFFFFFFFFFFFFFFFFFFFFFFFFFFFFFFFFFFFFFFFFFFFFFFF
310
FFFFFFFFFFFFFFFFFFFFFFFFFFFFFFFFFFFFFFFFFFFFFFFFFFFFFFFFFFFFFFFF
310
FFFFFFFFFFFFFFFFF000FFFFF80003FFFFFFFFFFFFFFFFFFFFFFFFFFFFFFFFFF
310
FFFFF00007FFFFFFFFFF00007FFFFFF800000000000000007FFFFFFFFFFFFFFF
310
FFFFFFFC001FFFFFFFFFFFFFFC001FFFFFFFFFFFFFFFFFFFFFFFFFFE0007FFFF
310
F000FFFF8000007FFFFFFFF8000FFFFFC0007FFFFF80007FFFFF0000007FFFFF
310
FFF8000007FFFFF800000000000000007FFFFFF0001FFFFFFFFFFFC00001FFFF
310
FFFFFFFFC00001FFFFFFFF000000000003FFFFE000007FFFF000FFFE0000000F
310
FFFFFFF0000FFFFF80007FFFFF80007FFFFC0000001FFFFFFFC0000001FFFFF8
310
00000000000000007FFFFFF0001FFFFFFFFFFE0000003FFFFFFFFFFE0000003F
310
FFFFFF000000000003FFFF0000000FFFF000FFF800000003FFFFFFF00007FFFF
310
80007FFFFF80007FFFF000000007FFFFFF000000003FFFF80000000000000000
310
7FFFFFF0001FFFFFFFFFF80000000FFFFFFFFFF80000000FFFFFFF0000000000
310
03FFFC00000003FFF000FFE000000000FFFFFFF00007FFFF80003FFFFF80007F
310
FFC000000001FFFFFC000000001FFFF800000000000000007FFFFFF0001FFFFF
310
FFFFE000000003FFFFFFFFE000000003FFFFFF000000000003FFF000000000FF
310
F000FF80000000007FFFFFF00007FFFF80003FFFFF80007FFF8000000000FFFF
310
F80000000007FFF800000000000000007FFFFFF0001FFFFFFFFFC000000001FF
310
FFFFFFC000000001FFFFFF000000000003FFC0000000007FF000FF0000000000
310
3FFFFFE00007FFFF00003FFFFF80007FFE00000000003FFFF00000000003FFF8
310
00000000000000007FFFFFF0001FFFFFFFFF8000000000FFFFFFFF8000000000
310
FFFFFF000000000003FF80000000003FF000FE00000000001FFFFFE00003FFFF
310
00003FFFFF80007FFC00000000001FFFE00000000001FFF8000001FFFE000000
310
7FFFFFF0001FFFFFFFFE00000000003FFFFFFE00000000003FFFFF0000000000
310
03FF00000000001FF000FC00000000000FFFFFE00003FFFF00001FFFFF80007F
310
F800000000001FFFC00000000000FFF8000001FFFE0000007FFFFFF0001FFFFF
310
FFFC00000000001FFFFFFC00000000001FFFFF000000000003FE00000000000F
310
F000F8000000000007FFFFE00003FFFF00001FFFFF80007FF800000000000FFF
310
800000000000FFF8000001FFFE0000007FFFFFF0001FFFFFFFF800000000000F
310
FFFFF800000000000FFFFF000000000003FC000000000007F000F80000000000
310
03FFFFC00003FFFE00001FFFFF80007FF0000000000007FF0000000000007FF8
310
000001FFFE0000007FFFFFF0001FFFFFFFF0000000000007FFFFF00000000000
310
07FFFF000000000003F8000000000003F000F0000000000003FFFFC00001FFFE
310
00001FFFFF80007FE0000000000007FE0000000000003FF8000001FFFE000000
310
7FFFFFF0001FFFFFFFF0000000000007FFFFF0000000000007FFFF0000000000
310
03F800001F800003F000E00001FFF00001FFFFC00001FFFE00000FFFFF80007F
310
E00001FFE00003FE00001FFF00003FF8000001FFFE0000007FFFFFF0001FFFFF
310
FFE000003E000003FFFFE000003E000003FFFF000000000003F00001FFF80001
310
F000E00007FFFC0001FFFFC00001FFFE00000FFFFF80007FC0000FFFFC0003FC
310
0000FFFFC0001FF8000001FFFE0000007FFFFFF0001FFFFFFFC00003FFE00001
310
FFFFC00003FFE00001FFFF0001FFFFFFFFF00007FFFE0001F000E0000FFFFF00
310
00FFFF800001FFFC00000FFFFF80007FC0001FFFFE0001FC0001FFFFE0001FF8
310
000001FFFE0000007FFFFFF0001FFFFFFF80000FFFF80000FFFF80000FFFF800
310
00FFFF0003FFFFFFFFE0000FFFFF8000F000C0003FFFFF8000FFFF800000FFFC
310
000007FFFF80007F80003FFFFF0001FC0003FFFFF0001FF8000001FFFE000000
310
7FFFFFF0001FFFFFFF80003FFFFE0000FFFF80003FFFFE0000FFFF0003FFFFFF
310
FFE0003FFFFF8000F000C0003FFFFF8000FFFF800000FFFC000007FFFF80007F
310
80007FFFFF8001F80007FFFFF8000FF8000001FFFE0000007FFFFFF0001FFFFF
310
FF00007FFFFF00007FFF00007FFFFF00007FFF0003FFFFFFFFE0003FFFFFC000
310
F000C0007FFFFFC000FFFF000000FFFC000007FFFF80007F8000FFFFFF8000F8
310
000FFFFFF8000FF8000001FFFE0000007FFFFFF0001FFFFFFF0000FFFFFF8000
310
7FFF0000FFFFFF80007FFF0003FFFFFFFFC0007FFFFFC00070008000FFFFFFC0
310
00FFFF000000FFF8000007FFFF80007F8000FFFFFF8000F8000FFFFFF8000FF8
310
000001FFFE0000007FFFFFF0001FFFFFFE0001FFFFFFC0003FFE0001FFFFFFC0
310
003FFF0003FFFFFFFFC0007FFFFFE00070008000FFFFFFC0007FFF0000007FF8
310
000003FFFF80007F0001FFFFFF8000F8000FFFFFF8000FF8000001FFFE000000
310
7FFFFFF0001FFFFFFE0001FFFFFFC0003FFE0001FFFFFFC0003FFF0003FFFFFF
310
FFC000FFFFFFE00070008000FFFFFFC0007FFF0000007FF8000003FFFF80007F
310
0001FFFFFF8000F8001FFFFFF8000FF8000001FFFE0000007FFFFFF0001FFFFF
310
FE0003FFFFFFE0003FFE0003FFFFFFE0003FFF0003FFFFFFFFC000FFFFFFE000
310
70008000FFFFFFC0007FFE0000007FF8000003FFFF80007F0001FFFFFF8000F0
310
001FFFFFF8000FF8000001FFFE0000007FFFFFF0001FFFFFFC0003FFFFFFE000
310
1FFC0003FFFFFFE0001FFF0003FFFFFFFFC000FFFFFFC00070008000FFFFFF80
310
007FFE0000007FF0000003FFFF80007F0001FFFFFF0000F0001FFFFFF8000FF8
310
000001FFFE0000007FFFFFF0001FFFFFFC0007FFFFFFF0001FFC0007FFFFFFF0
310
001FFF0003FFFFFFFFC000FFFFFFC00070008001FFFFFF0000FFFE0000003FF0
310
000001FFFF80007F0001FFFFFF0000F8001FFFFFF0000FF8000001FFFE000000
310
7FFFFFF0001FFFFFFC0007FFFFFFF0001FFC0007FFFFFFF0001FFF0003FFFFFF
310
FFC001FFFFFF80007000FFFFFFFFFE0000FFFE0008003FF0008001FFFF80007F
310
FFFFFFFFFC0000FFFFFFFFFFE0000FF8000001FFFE0000007FFFFFF0001FFFFF
310
F8000FFFFFFFF8000FF8000FFFFFFFF8000FFF0003FFFFFFFFFFFFFFFFFF0000
310
7000FFFFFFFFFC0000FFFC0008003FF0008001FFFF80007FFFFFFFFFF80001FF
310
FFFFFFFF80000FF8000001FFFE0000007FFFFFF0001FFFFFF8000FFFFFFFF800
310
0FF8000FFFFFFFF8000FFF0003FFFFFFFFFFFFFFFFFE0000F000FFFFFFFFE000
310
00FFFC000C003FE000C001FFFF80007FFFFFFFFFC00001FFFFFFFFFE00001FF8
310
000001FFFE0000007FFFFFF0001FFFFFF8000FFFFFFFF8000FF8000FFFFFFFF8
310
000FFF0003FFFFFFFFFFFFFFFFF00000F000FFFFFFFE000001FFFC000C001FE0
310
00C000FFFF80007FFFFFFFFE000001FFFFFFFFE000001FF80FFFFFFFFFFFFFC0
310
7FFFFFF0001FFFFFF8000FFFFFFFF8000FF8000FFFFFFFF8000FFF0003FFFFFF
310
FFFFFFFFFF800000F000FFFFFFC0000001FFFC001C001FE001C000FFFF80007F
310
FFFFFF80000003FFFFFFF80000001FF80FFFFFFFFFFFFFC07FFFFFF0001FFFFF
310
F8001FFFFFFFFC000FF8001FFFFFFFFC000FFF0003FFFFFFFFFFFFFFF0000001
310
F000FFFFF800000001FFF8001C001FE001C000FFFF80007FFFFFF800000003FF
310
FFFF800000003FF80FFFFFFFFFFFFFC07FFFFFF0001FFFFFF8001FFFFFFFFC00
310
0FF8001FFFFFFFFC000FFF0003FFFFFFFFFFFFFE00000001F000FFFFC0000000
310
03FFF8001E001FC001E000FFFF80007FFFFF8000000007FFFFFC000000003FF8
310
0FFFFFFFFFFFFFC07FFFFFF0001FFFFFF8001FFFFFFFFC000FF8001FFFFFFFFC
310
000FFF0003FFFFFFFFFFFFE000000003F000FFFE0000000007FFF8001E000FC0
310
01E0007FFF80007FFFFE0000000007FFFFE0000000007FF80FFFFFFFFFFFFFC0
310
7FFFFFF0001FFFFFF0001FFFFFFFFC0007F0001FFFFFFFFC0007FF0003FFFFFF
310
FFFFFF0000000003F000FFF80000000007FFF8001E000FC003E0007FFF80007F
310
FFF0000000000FFFFF8000000000FFF80FFFFFFFFFFFFFC07FFFFFF0001FFFFF
310
F0001FFFFFFFFC0007F0001FFFFFFFFC0007FF0003FFFFFFFFFFFC0000000007
310
F000FFE0000000000FFFF0003E000FC003E0007FFF80007FFFC0000000001FFF
310
FE0000000001FFF80FFFFFFFFFFFFFC07FFFFFF0001FFFFFF0001FFFFFFFFC00
310
07F0001FFFFFFFFC0007FF0003FFFFFFFFFFF0000000000FF000FFC000000000
310
1FFFF0003F000F8003F0003FFF80007FFF80000000003FFFF80000000003FFF8
310
0FFFFFFFFFFFFFC07FFFFFF0001FFFFFF0001FFFFFFFFC0007F0001FFFFFFFFC
310
0007FF0003FFFFFFFFFFE0000000001FF000FF00000000007FFFF0003F000780
310
03F0003FFF80007FFF00000000007FFFF00000000007FFF80FFFFFFFFFFFFFC0
310
7FFFFFF0001FFFFFF0001FFFFFFFFC0007F0001FFFFFFFFC0007FF0003FFFFFF
310
FFFF80000000007FF000FE0000000000FFFFE0003F00078007F0003FFF80007F
310
FE0000000001FFFFE0000000001FFFF80FFFFFFFFFFFFFC07FFFFFF0001FFFFF
310
F0001FFFFFFFFC0007F0001FFFFFFFFC0007FF0003FFFFFFFFFF0000000000FF
310
F000FC0000000003FFFFE0007F00078007F0003FFF80007FFC0000000007FFFF
310
C0000000007FFFF80FFFFFFFFFFFFFC07FFFFFF0001FFFFFF8001FFFFFFFFC00
310
0FF8001FFFFFFFFC000FFF0003FFFFFFFFFE0000000003FFF000FC000000000F
310
FFFFE0007F80070007F8001FFF80007FF8000000001FFFFF8000000001FFFFF8
310
0FFFFFFFFFFFFFC07FFFFFF0001FFFFFF8001FFFFFFFFC000FF8001FFFFFFFFC
310
000FFF0003FFFFFFFFFC000000000FFFF000F8000000007FFFFFE0007F800700
310
07F8001FFF80007FF000000000FFFFFF800000000FFFFFF80FFFFFFFFFFFFFC0
310
7FFFFFF0001FFFFFF8000FFFFFFFF8000FF8000FFFFFFFF8000FFF0003FFFFFF
310
FFFC000000007FFFF000F800000007FFFFFFC0007F8003000FF8001FFF80007F
310
F000000007FFFFFF000000007FFFFFF80FFFFFFFFFFFFFC07FFFFFF0001FFFFF
310
F8000FFFFFFFF8000FF8000FFFFFFFF8000FFF0003FFFFFFFFF80000000FFFFF
310
F000F0000000FFFFFFFFC000FF8003000FF8001FFF80007FE0000000FFFFFFFF
310
0000000FFFFFFFF8000001FFFE0000007FFFFFF0001FFFFFF8000FFFFFFFF800
310
0FF8000FFFFFFFF8000FFF0003FFFFFFFFF8000000FFFFFFF000F000000FFFFF
310
FFFFC000FFC002000FF8000FFF80007FE000001FFFFFFFFE000001FFFFFFFFF8
310
000001FFFE0000007FFFFFF0001FFFFFF8000FFFFFFFF8000FF8000FFFFFFFF8
310
000FFF0003FFFFFFFFF000001FFFFFFFF000E00000FFFFFFFFFFC000FFC00200
310
0FFC000FFF80007FE00001FFFFFFFFFE00001FFFFFFFFFF8000001FFFE000000
310
7FFFFFF0001FFFFFFC000FFFFFFFF8001FFC000FFFFFFFF8001FFF0003FFFFFF
310
FFF00001FFFFFFFFF000E00007FFFFFFFFFF8000FFC000001FFC000FFF80007F
310
C0000FFFFFFFFFFE0000FFFFFFFFFFF8000001FFFE0000007FFFFFF0001FFFFF
310
FC0007FFFFFFF0001FFC0007FFFFFFF0001FFF0003FFFFFFFFF00007FFFFFFFF
310
F000E0001FFFFFFFFFFF8000FFC000001FFC000FFF80007FC0003FFFFFFFFFFE
310
0001FFFFFFFFFFF8000001FFFE0000007FFFFFF0001FFFFFFC0007FFFFFFF000
310
1FFC0007FFFFFFF0001FFF0003FFFFFFFFF0001FFFFFFFFFF000E0003FFFFF00
310
03FF8001FFE000001FFC0007FF80007FC0007FFFFF0007FC0003FFFFF0003FF8
310
000001FFFE0000007FFFFFF0001FFFFFFC0003FFFFFFE0001FFC0003FFFFFFE0
310
001FFF0003FFFFFFFFF0003FFFFFFFFFF000E0003FFFFF0001FF8001FFE00000
310
1FFE0007FF80007FC0007FFFFE0003FC0007FFFFE0003FF8000001FFFE000000
310
7FFFFFF0001FFFFFFE0003FFFFFFE0003FFE0003FFFFFFE0003FFF0003FFFFFF
310
FFF0003FFFFF8001F000E0003FFFFF0001FF0001FFE000001FFE0007FF80007F
310
C0007FFFFE0003FC0007FFFFE0003FF8000001FFFE0000007FFFFFF0001FFFFF
310
FE0001FFFFFFC0003FFE0001FFFFFFC0003FFF0003FFFFFFFFF0003FFFFF0001
310
F000E0003FFFFF0003FF0001FFE000003FFE0007FF80007FC0007FFFFE0003FC
310
0007FFFFE0003FF8000001FFFE0000007FFFFFF0001FFFFFFF0001FFFFFFC000
310
7FFF0001FFFFFFC0007FFF0003FFFFFFFFF0003FFFFF0001F000E0003FFFFE00
310
03FF0003FFF000003FFE0003FF80007FC0007FFFFC0003FE0007FFFFE0003FF8
310
000001FFFE0000007FFFFFF0001FFFFFFF0000FFFFFF80007FFF0000FFFFFF80
310
007FFF0003FFFFFFFFF0003FFFFF0001F000E0003FFFFE0003FF0003FFF00000
310
3FFF0003FF80007FC0007FFFFC0007FE0007FFFFC0003FF8000001FFFE000000
310
7FFFFFF0001FFFFFFF80007FFFFF0000FFFF80007FFFFF0000FFFF0003FFFFFF
310
FFF0003FFFFF0003F000E0003FFFFC0003FE0003FFF000003FFF0003FF80007F
310
E0003FFFF80007FE0003FFFFC0007FF8000001FFFE0000007FFFFFF0001FFFFF
310
FF80003FFFFE0000FFFF80003FFFFE0000FFFF0003FFFFFFFFF0001FFFFE0003
310
F000F0001FFFF80003FE0003FFF000007FFF0001FF80007FE0003FFFF00007FE
310
0001FFFF80007FF8000001FFFE0000007FFFFFF0001FFFFFFFC0000FFFF80001
310
FFFFC0000FFFF80001FFFF0003FFFFFFFFF0001FFFFC0003F000F0000FFFF000
310
07FE0007FFF800007FFF0001FF80007FE0001FFFE00007FF0000FFFE00007FF8
310
000001FFFE0000007FFFFFF0001FFFFFFFC00003FFE00001FFFFC00003FFE000
310
01FFFF0003FFFFFFFFF8000FFFF80003F000F00003FFC00007FC0007FFF80000
310
7FFF8001FF80007FF00007FF80000FFF00007FF80000FFF8000001FFFE000000
310
7F80000000000001FFE000003E000003FFFFE000003E000003FFFF0003FFFFFF
310
FFF80003FFE00007F000F800000000000FFC0007FFF800007FFF8001FF80007F
310
F000000000000FFF000000000000FFF8000001FFFE0000007F80000000000001
310
FFF0000000000007FFFFF0000000000007FFFF0003FFFFFFFFFC00007E000007
310
F000F800000000000FFC0007FFF80000FFFF8000FF80007FF800000000001FFF
310
800000000001FFF8000001FFFE0000007F80000000000001FFF800000000000F
310
FFFFF800000000000FFFFF0003FFFFFFFFFC00000000000FF000FC0000000000
310
1FFC0007FFFC0000FFFF8000FF80007FF800000000003FFFC00000000001FFF8
310
000001FFFE0000007F80000000000001FFF800000000000FFFFFF80000000000
310
0FFFFF0003FFFFFFFFFE00000000001FF000FE00000000003FF8000FFFFC0000
310
FFFF8000FF80007FFC00000000003FFFC00000000003FFF8000001FFFE000000
310
7F80000000000001FFFC00000000001FFFFFFC00000000001FFFFF0003FFFFFF
310
FFFF00000000001FF000FF00000000003FF8000FFFFC0000FFFFC000FF80007F
310
FE00000000007FFFE00000000007FFF8000001FFFE0000007F80000000000001
310
FFFE00000000003FFFFFFE00000000003FFFFF0003FFFFFFFFFF80000000003F
310
F000FF80000000007FF8000FFFFC0001FFFFC0007F80007FFF0000000000FFFF
310
F0000000000FFFF800000000000000007F80000000000001FFFF8000000000FF
310
FFFFFF8000000000FFFFFF0003FFFFFFFFFFC0000000007FF000FFC000000000
310
FFF8000FFFFE0001FFFFC0007F80007FFF8000000001FFFFF8000000001FFFF8
310
00000000000000007F80000000000001FFFFC000000001FFFFFFFFC000000001
310
FFFFFF0003FFFFFFFFFFE000000000FFF000FFE000000003FFF0001FFFFE0001
310
FFFFC0007F80007FFFC000000007FFFFFE000000003FFFF80000000000000000
310
7F80000000000001FFFFE000000003FFFFFFFFE000000003FFFFFF0003FFFFFF
310
FFFFF000000003FFF000FFF80000000FFFF0001FFFFE0001FFFFE0007F80007F
310
FFF00000000FFFFFFF00000000FFFFF800000000000000007F80000000000001
310
FFFFF80000000FFFFFFFFFF80000000FFFFFFF0003FFFFFFFFFFFC0000000FFF
310
F000FFFE0000003FFFF0001FFFFE0003FFFFE0003F80007FFFFC0000003FFFFF
310
FFC0000003FFFFF800000000000000007F80000000000001FFFFFE0000003FFF
310
FFFFFFFE0000003FFFFFFF0003FFFFFFFFFFFF0000003FFFF000FFFF800000FF
310
FFF0001FFFFF0003FFFFE0003F80007FFFFF000001FFFFFFFFF800001FFFFFF8
310
00000000000000007F80000000000001FFFFFFC00001FFFFFFFFFFFFC00001FF
310
FFFFFF0003FFFFFFFFFFFFC00000FFFFF000FFFFF8000FFFFFFFFFFFFFFFFFFF
310
FFFFFFFFFFFFFFFFFFFFF0001FFFFFFFFFFF0000FFFFFFF80000000000000000
310
7FFFFFFFFFFFFFFFFFFFFFFC001FFFFFFFFFFFFFFC001FFFFFFFFFFFFFFFFFFF
310
FFFFFFFC001FFFFFF000FFFFFFFFFFFFFFFFFFFFFFFFFFFFFFFFFFFFFFFFFFFF
310
FFFFFFFFFFFFFFFFFFFFFFFFFFFFFFFFFFFFFFFFFFFFFFFFFFFFFFFFFFFFFFFF
310
FFFFFFFFFFFFFFFFFFFFFFFFFFFFFFFFFFFFFFFFFFFFFFFFFFFFFFFFFFFFFFFF
310
F000FFFFFFFFFFFFFFFFFFFFFFFFFFFFFFFFFFFFFFFFFFFFFFFFFFFFFFFFFFFF
310
FFFFFFFFFFFFFFFFFFFFFFFFFFFFFFFFFFFFFFFFFFFFFFFFFFFFFFFFFFFFFFFF
310
FFFFFFFFFFFFFFFFFFFFFFFFFFFFFFFFFFFFFFFFFFFFFFFFF000FFFFFFFFFFFF
310
FFFFFFFFFFFFFFFFFFFFFFFFFFFFFFFFFFFFFFFFFFFFFFFFFFFFFFFFFFFFFFFF
310
FFFFFFFFFFFFFFFFFFFFFFFFFFFFFFFFFFFFFFFFFFFFFFFFFFFFFFFFFFFFFFFF
310
FFFFFFFFFFFFFFFFFFFFFFFFFFFFFFFFF000FFFFFFFFFFFFFFFFFFFFFFFFFFFF
310
FFFFFFFFFFFFFFFFFFFFFFFFFFFFFFFFFFFFFFFFFFFFFFFFFFFFFFFFFFFFFFFF
310
FFFFFFFFFFFFFFFFFFFFFFFFFFFFFFFFFFFFFFFFFFFFFFFFFFFFFFFFFFFFFFFF
310
FFFFFFFFFFFFFFFFF000FFFFFFFFFFFFFFFFFFFFFFFFFFFFFFFFFFFFFFFFFFFF
310
FFFFFFFFFFFFFFFFFFFFFFFFFFFFFFFFFFFFFFFFFFFFFFFFFFFFFFFFFFFFFFFF
310
FFFFFFFFFFFFFFFFFFFFFFFFFFFFFFFFFFFFFFFFFFFFFFFFFFFFFFFFFFFFFFFF
310
F000FFFFFFFFFFFFFFFFFFFFFFFFFFFFFFFFFFFFFFFFFFFFFFFFFFFFFFFFFFFF
310
FFFFFFFFFFFFFFFFFFFFFFFFFFFFFFFFFFFFFFFFFFFFFFFFFFFFFFFFFFFFFFFF
310
FFFFFFFFFFFFFFFFFFFFFFFFFFFFFFFFFFFFFFFFFFFFFFFFF000FFFFFFFFFFFF
310
FFFFFFFFFFFFFFFFFFFFFFFFFFFFFFFFFFFFFFFFFFFFFFFFFFFFFFFFFFFFFFFF
310
FFFFFFFFFFFFFFFFFFFFFFFFFFFFFFFFFFFFFFFFFFFFFFFFFFFFFFFFFFFFFFFF
310
FFFFFFFFFFFFFFFFFFFFFFFFFFFFFFFFF000FFFFFFFFFFFFFFFFFFFFFFFFFFFF
310
FFFFFFFFFFFFFFFFFFFFFFFFFFFFFFFFFFFFFFFFFFFFFFFFFFFFFFFFFFFFFFFF
310
FFFFFFFFFFFFFFFFFFFFFFFFFFFFFFFFFFFFFFFFFFFFFFFFFFFFFFFFFFFFFFFF
310
FFFFFFFFFFFFFFFFF000FFFFFFFFFFFFFFFFFFFFFFFFFFFFFFFFFFFFFFFFFFFF
310
FFFFFFFFFFFFFFFFFFFFFFFFFFFFFFFFFFFFFFFFFFFFFFFFFFFFFFFFFFFFFFFF
310
FFFFFFFFFFFFFFFFFFFFFFFFFFFFFFFFFFFFFFFFFFFFFFFFFFFFFFFFFFFFFFFF
310
F000FFFFFFFFFFFFFFFFFFFFFFFFFFFFFFFFFFFFFFFFFFFFFFFFFFFFFFFFFFFF
310
FFFFFFFFFFFFFFFFFFFFFFFFFFFFFFFFFFFFFFFFFFFFFFFFFFFFFFFFFFFFFFFF
310
FFFFFFFFFFFFFFFFFFFFFFFFFFFFFFFFFFFFFFFFFFFFFFFFF000FFFFFFFFFFFF
310
FFFFFFFFFFFFFFFFFFFFFFFFFFFFFFFFFFFFFFFFFFFFFFFFFFFFFFFFFFFFFFFF
310
FFFFFFFFFFFFFFFFFFFFFFFFFFFFFFFFFFFFFFFFFFFFFFFFFFFFFFFFFFFFFFFF
310
FFFFFFFFFFFFFFFFFFFFFFFFFFFFFFFFF000FFFFFFFFFFFFFFFFFFFFFFFFFFFF
310
FFFFFFFFFFFFFFFFFFFFFFFFFFFFFFFFFFFFFFFFFFFFFFFFFFFFFFFFFFFFFFFF
310
FFFFFFFFFFFFFFFFFFFFFFFFFFFFFFFFFFFFFFFFFFFFFFFFFFFFFFFFFFFFFFFF
310
FFFFFFFFFFFFFFFFF000FFFFFFFFFFFFFFFFFFFFFFFFFFFFFFFFFFFFFFFFFFFF
310
FFFFFFFFFFFFFFFFFFFFFFFFFFFFFFFFFFFFFFFFFFFFFFFFFFFFFFFFFFFFFFFF
310
FFFFFFFFFFFFFFFFFFFFFFFFFFFFFFFFFFFFFFFFFFFFFFFFFFFFFFFFFFFFFFFF
310
F000FFFFFFFFFFFFFFFFFFFFFFFFFFFFFFFFFFFFFFFFFFFFFFFFFFFFFFFFFFFF
310
FFFFFFFFFFFFFFFFFFFFFFFFFFFFFFFFFFFFFFFFFFFFFFFFFFFFFFFFFFFFFFFF
310
FFFFFFFFFFFFFFFFFFFFFFFFFFFFFFFFFFFFFFFFFFFFFFFFF000FFFFFFFFFFFF
310
FFFFFFFFFFFFFFFFFFFFFFFFFFFFFFFFFFFFFFFFFFFFFFFFFFFFFFFFFFFFFFFF
310
FFFFFFFFFFFFFFFFFFFFFFFFFFFFFFFFFFFFFFFFFFFFFFFFFFFFFFFFFFFFFFFF
310
FFFFFFFFFFFFFFFFFFFFFFFFFFFFFFFFF000FFFFFFFFFFFFFFFFFFFFFFFFFFFF
310
FFFFFFFFFFFFFFFFFFFFFFFFFFFFFFFFFFFFFFFFFFFFFFFFFFFFFFFFFFFFFFFF
310
FFFFFFFFFFFFFFFFFFFFFFFFFFFFFFFFFFFFFFFFFFFFFFFFFFFFFFFFFFFFFFFF
310
FFFFFFFFFFFFFFFFF000FFFFFFFFFFFFFFFFFFFFFFFFFFFFFFFFFFFFFFFFFFFF
310
FFFFFFFFFFFFFFFFFFFFFFFFFFFFFFFFFFFFFFFFFFFFFFFFFFFFFFFFFFFFFFFF
310
FFFFFFFFFFFFFFFFFFFFFFFFFFFFFFFFFFFFFFFFFFFFFFFFFFFFFFFFFFFFFFFF
310
F000FFFFFFFFFFFFFFFFFFFFFFFFFFFFFFFFFFFFFFFFFFFFFFFFFFFFFFFFFFFF
310
FFFFFFFFFFFFFFFFFFFFFFFFFFFFFFFFFFFFFFFFFFFFFFFFFFFFFFFFFFFFFFFF
310
FFFFFFFFFFFFFFFFFFFFFFFFFFFFFFFFFFFFFFFFFFFFFFFFF000FFFFFFFFFFFF
310
FFFFFFFFFFFFFFFFFFFFFFFFFFFFFFFFFFFFFFFFFFFFFFFFFFFFFFFFFFFFFFFF
310
FFFFFFFFFFFFFFFFFFFFFFFFFFFFFFFFFFFFFFFFFFFFFFFFFFFFFFFFFFFFFFFF
310
FFFFFFFFFFFFFFFFFFFFFFFFFFFFFFFFF000FFFFFFFFFFFFFFFFFFFFFFFFFFFF
310
FFFFFFFFFFFFFFFFFFFFFFFFFFFFFFFFFFFFFFFFFFFFFFFFFFFFFFFFFFFFFFFF
310
FFFFFFFFFFFFFFFFFFFFFFFFFFFFFFFFFFFFFFFFFFFFFFFFFFFFFFFFFFFFFFFF
310
FFFFFFFFFFFFFFFFF000FFFFFFFFFFFFFFFFFFFFFFFFFFFFFFFFFFFFFFFFFFFF
310
FFFFFFFFFFFFFFFFFFFFFFFFFFFFFFFFFFFFFFFFFFFFFFFFFFFFFFFFFFFFFFFF
310
FFFFFFFFFFFFFFFFFFFFFFFFFFFFFFFFFFFFFFFFFFFFFFFFFFFFFFFFFFFFFFFF
310
F000FFFFFFFFFFFFFFFFFFFFFFFFFFFFFFFFFFFFFFFFFFFFFFFFFFFFFFFFFFFF
310
FFFFFFFFFFFFFFFFFFFFFFFFFFFFFFFFFFFFFFFFFFFFFFFFFFFFFFFFFFFFFFFF
310
FFFFFFFFFFFFFFFFFFFFFFFFFFFFFFFFFFFFFFFFFFFFFFFFF000FFFFFFFFFFFF
310
FFFFFFFFFFFFFFFFFFFFFFFFFFFFFFFFFFFFFFFFFFFFFFFFFFFFFFFFFFFFFFFF
310
FFFFFFFFFFFFFFFFFFFFFFFFFFFFFFFFFFFFFFFFFFFFFFFFFFFFFFFFFFFFFFFF
310
FFFFFFFFFFFFFFFFFFFFFFFFFFFFFFFFF0000000000000000000000000000000
310
0000000000000000000000000000000000000000000000000000000000000000
310
0000000000000000000000000000000000000000000000000000000000000000
310
0000000000000000000000000000000000000000000000000000000000000000
310
0000000000000000000000000000000000000000000000000000000000000000
310
0000000000000000000000000000000000000000000000000000000000000000
310
0000000000000000000000000000000000000000000000000000000000000000
310
0000000000000000000000000000000000000000000000000000000000000000
310
0000000000000000000000000000000000000000000000000000000000000000
310
0000000000000000000000000000000000000000000000000000000000000000
310
0000000000000000000000000000000000000000000000000000000000000000
310
0000000000000000000000000000000000000000000000000000000000000000
310
0000000000000000000000000000000000000000000000000000000000000000
310
0000000000000000000000000000000000000000000000000000000000000000
310
0000000000000000000000000000000000000000000000000000000000000000
310
0000000000000000000000000000000000000000000000000000000000000000
  1
OLE
  0
ENDSEC
  0
SECTION
  2
OBJECTS
  0
DICTIONARY
  5
C
330
0
100
AcDbDictionary
281
     1
  3
ACAD_GROUP
350
D
  3
ACAD_LAYOUT
350
1A
  3
ACAD_MLINESTYLE
350
17
  3
ACAD_PLOTSETTINGS
350
19
  3
ACAD_PLOTSTYLENAME
350
E
  0
DICTIONARY
  5
D
102
{ACAD_REACTORS
330
C
102
}
330
C
100
AcDbDictionary
281
     1
  0
DICTIONARY
  5
1A
102
{ACAD_REACTORS
330
C
102
}
330
C
100
AcDbDictionary
281
     1
  3
Layout1
350
1E
  3
Layout2
350
26
  3
Model
350
22
  0
DICTIONARY
  5
17
102
{ACAD_REACTORS
330
C
102
}
330
C
100
AcDbDictionary
281
     1
  3
Standard
350
18
  0
DICTIONARY
  5
19
102
{ACAD_REACTORS
330
C
102
}
330
C
100
AcDbDictionary
281
     1
  0
ACDBDICTIONARYWDFLT
  5
E
102
{ACAD_REACTORS
330
C
102
}
330
C
100
AcDbDictionary
281
     1
  3
Normal
350
F
100
AcDbDictionaryWithDefault
340
F
  0
LAYOUT
  5
1E
102
{ACAD_REACTORS
330
1A
102
}
330
1A
100
AcDbPlotSettings
  1

  2
none_device
  4

  6

 40
0.0
 41
0.0
 42
0.0
 43
0.0
 44
0.0
 45
0.0
 46
0.0
 47
0.0
 48
0.0
 49
0.0
140
0.0
141
0.0
142
1.0
143
1.0
 70
   688
 72
     0
 73
     0
 74
     5
  7

 75
    16
147
1.0
148
0.0
149
0.0
100
AcDbLayout
  1
Layout1
 70
     1
 71
     1
 10
0.0
 20
0.0
 11
420.0
 21
297.0
 12
0.0
 22
0.0
 32
0.0
 14
1.0000000000E+20
 24
1.0000000000E+20
 34
1.0000000000E+20
 15
-1.0000000000E+20
 25
-1.0000000000E+20
 35
-1.0000000000E+20
146
0.0
 13
0.0
 23
0.0
 33
0.0
 16
1.0
 26
0.0
 36
0.0
 17
0.0
 27
1.0
 37
0.0
 76
     0
330
1B
  0
LAYOUT
  5
26
102
{ACAD_REACTORS
330
1A
102
}
330
1A
100
AcDbPlotSettings
  1

  2
none_device
  4

  6

 40
0.0
 41
0.0
 42
0.0
 43
0.0
 44
0.0
 45
0.0
 46
0.0
 47
0.0
 48
0.0
 49
0.0
140
0.0
141
0.0
142
1.0
143
1.0
 70
   688
 72
     0
 73
     0
 74
     5
  7

 75
    16
147
1.0
148
0.0
149
0.0
100
AcDbLayout
  1
Layout2
 70
     1
 71
     2
 10
0.0
 20
0.0
 11
0.0
 21
0.0
 12
0.0
 22
0.0
 32
0.0
 14
0.0
 24
0.0
 34
0.0
 15
0.0
 25
0.0
 35
0.0
146
0.0
 13
0.0
 23
0.0
 33
0.0
 16
1.0
 26
0.0
 36
0.0
 17
0.0
 27
1.0
 37
0.0
 76
     0
330
23
  0
LAYOUT
  5
22
102
{ACAD_REACTORS
330
1A
102
}
330
1A
100
AcDbPlotSettings
  1

  2
none_device
  4

  6

 40
0.0
 41
0.0
 42
0.0
 43
0.0
 44
0.0
 45
0.0
 46
0.0
 47
0.0
 48
0.0
 49
0.0
140
0.0
141
0.0
142
1.0
143
1.0
 70
  1712
 72
     0
 73
     0
 74
     0
  7

 75
     0
147
1.0
148
0.0
149
0.0
100
AcDbLayout
  1
Model
 70
     1
 71
     0
 10
0.0
 20
0.0
 11
297.0
 21
210.0
 12
0.0
 22
0.0
 32
0.0
 14
0.0
 24
0.0
 34
0.0
 15
297.0
 25
210.0
 35
0.0
146
0.0
 13
0.0
 23
0.0
 33
0.0
 16
1.0
 26
0.0
 36
0.0
 17
0.0
 27
1.0
 37
0.0
 76
     0
330
1F
331
29
  0
MLINESTYLE
  5
18
102
{ACAD_REACTORS
330
17
102
}
330
17
100
AcDbMlineStyle
  2
Standard
 70
     0
  3

 62
   256
 51
90.0
 52
90.0
 71
     2
 49
0.5
 62
   256
  6
BYLAYER
 49
-0.5
 62
   256
  6
BYLAYER
  0
ACDBPLACEHOLDER
  5
F
102
{ACAD_REACTORS
330
E
102
}
330
E
  0
ENDSEC
  0
EOF
