  0
SECTION
  2
HEADER
  9
$ACADVER
  1
AC1015
  9
$ACADMAINTVER
 70
     6
  9
$DWGCODEPAGE
  3
ANSI_1252
  9
$INSBASE
 10
0.0
 20
0.0
 30
0.0
  9
$EXTMIN
 10
0.0
 20
0.0
 30
0.0
  9
$EXTMAX
 10
297.0
 20
210.0
 30
0.0
  9
$LIMMIN
 10
0.0
 20
0.0
  9
$LIMMAX
 10
297.0
 20
210.0
  9
$ORTHOMODE
 70
     0
  9
$REGENMODE
 70
     1
  9
$FILLMODE
 70
     1
  9
$QTEXTMODE
 70
     0
  9
$MIRRTEXT
 70
     1
  9
$LTSCALE
 40
1.0
  9
$ATTMODE
 70
     1
  9
$TEXTSIZE
 40
2.0
  9
$TRACEWID
 40
1.0
  9
$TEXTSTYLE
  7
Standard
  9
$CLAYER
  8
0
  9
$CELTYPE
  6
ByLayer
  9
$CECOLOR
 62
   256
  9
$CELTSCALE
 40
1.0
  9
$DISPSILH
 70
     0
  9
$DIMSCALE
 40
1.0
  9
$DIMASZ
 40
3.0
  9
$DIMEXO
 40
0.0
  9
$DIMDLI
 40
3.75
  9
$DIMRND
 40
0.0
  9
$DIMDLE
 40
0.0
  9
$DIMEXE
 40
1.0
  9
$DIMTP
 40
0.0
  9
$DIMTM
 40
0.0
  9
$DIMTXT
 40
2.0
  9
$DIMCEN
 40
2.5
  9
$DIMTSZ
 40
0.0
  9
$DIMTOL
 70
     0
  9
$DIMLIM
 70
     0
  9
$DIMTIH
 70
     1
  9
$DIMTOH
 70
     1
  9
$DIMSE1
 70
     0
  9
$DIMSE2
 70
     0
  9
$DIMTAD
 70
     1
  9
$DIMZIN
 70
     0
  9
$DIMBLK
  1

  9
$DIMASO
 70
     1
  9
$DIMSHO
 70
     1
  9
$DIMPOST
  1

  9
$DIMAPOST
  1

  9
$DIMALT
 70
     0
  9
$DIMALTD
 70
     3
  9
$DIMALTF
 40
0.0393700787
  9
$DIMLFAC
 40
1.0
  9
$DIMTOFL
 70
     1
  9
$DIMTVP
 40
0.0
  9
$DIMTIX
 70
     0
  9
$DIMSOXD
 70
     0
  9
$DIMSAH
 70
     0
  9
$DIMBLK1
  1

  9
$DIMBLK2
  1

  9
$DIMSTYLE
  2
ISO-25
  9
$DIMCLRD
 70
     0
  9
$DIMCLRE
 70
     0
  9
$DIMCLRT
 70
     0
  9
$DIMTFAC
 40
1.0
  9
$DIMGAP
 40
1.524
  9
$DIMJUST
 70
     0
  9
$DIMSD1
 70
     0
  9
$DIMSD2
 70
     0
  9
$DIMTOLJ
 70
     0
  9
$DIMTZIN
 70
     0
  9
$DIMALTZ
 70
     0
  9
$DIMALTTZ
 70
     0
  9
$DIMUPT
 70
     0
  9
$DIMDEC
 70
     2
  9
$DIMTDEC
 70
     3
  9
$DIMALTU
 70
     2
  9
$DIMALTTD
 70
     3
  9
$DIMTXSTY
  7
Standard
  9
$DIMAUNIT
 70
     0
  9
$DIMADEC
 70
     2
  9
$DIMALTRND
 40
0.0
  9
$DIMAZIN
 70
     0
  9
$DIMDSEP
 70
    44
  9
$DIMATFIT
 70
     3
  9
$DIMFRAC
 70
     0
  9
$DIMLDRBLK
  1

  9
$DIMLUNIT
 70
     2
  9
$DIMLWD
 70
    -2
  9
$DIMLWE
 70
    -2
  9
$DIMTMOVE
 70
     0
  9
$LUNITS
 70
     2
  9
$LUPREC
 70
     2
  9
$SKETCHINC
 40
1.0
  9
$FILLETRAD
 40
10.0
  9
$AUNITS
 70
     0
  9
$AUPREC
 70
     2
  9
$MENU
  1
.
  9
$ELEVATION
 40
0.0
  9
$PELEVATION
 40
0.0
  9
$THICKNESS
 40
0.0
  9
$LIMCHECK
 70
     0
  9
$CHAMFERA
 40
10.0
  9
$CHAMFERB
 40
10.0
  9
$CHAMFERC
 40
20.0
  9
$CHAMFERD
 40
0.0
  9
$SKPOLY
 70
     0
  9
$TDCREATE
 40
2455673.501413357
  9
$TDUCREATE
 40
2455673.418080023
  9
$TDUPDATE
 40
2455673.501413368
  9
$TDUUPDATE
 40
2455673.418080035
  9
$TDINDWG
 40
0.0000000116
  9
$TDUSRTIMER
 40
0.0000000116
  9
$USRTIMER
 70
     1
  9
$ANGBASE
 50
0.0
  9
$ANGDIR
 70
     0
  9
$PDMODE
 70
     0
  9
$PDSIZE
 40
-1.0
  9
$PLINEWID
 40
0.0
  9
$SPLFRAME
 70
     0
  9
$SPLINETYPE
 70
     6
  9
$SPLINESEGS
 70
     8
  9
$HANDSEED
  5
212
  9
$SURFTAB1
 70
     6
  9
$SURFTAB2
 70
     6
  9
$SURFTYPE
 70
     6
  9
$SURFU
 70
     6
  9
$SURFV
 70
     6
  9
$UCSBASE
  2

  9
$UCSNAME
  2

  9
$UCSORG
 10
0.0
 20
0.0
 30
0.0
  9
$UCSXDIR
 10
1.0
 20
0.0
 30
0.0
  9
$UCSYDIR
 10
0.0
 20
1.0
 30
0.0
  9
$UCSORTHOREF
  2

  9
$UCSORTHOVIEW
 70
     0
  9
$UCSORGTOP
 10
0.0
 20
0.0
 30
0.0
  9
$UCSORGBOTTOM
 10
0.0
 20
0.0
 30
0.0
  9
$UCSORGLEFT
 10
0.0
 20
0.0
 30
0.0
  9
$UCSORGRIGHT
 10
0.0
 20
0.0
 30
0.0
  9
$UCSORGFRONT
 10
0.0
 20
0.0
 30
0.0
  9
$UCSORGBACK
 10
0.0
 20
0.0
 30
0.0
  9
$PUCSBASE
  2

  9
$PUCSNAME
  2

  9
$PUCSORG
 10
0.0
 20
0.0
 30
0.0
  9
$PUCSXDIR
 10
1.0
 20
0.0
 30
0.0
  9
$PUCSYDIR
 10
0.0
 20
1.0
 30
0.0
  9
$PUCSORTHOREF
  2

  9
$PUCSORTHOVIEW
 70
     0
  9
$PUCSORGTOP
 10
0.0
 20
0.0
 30
0.0
  9
$PUCSORGBOTTOM
 10
0.0
 20
0.0
 30
0.0
  9
$PUCSORGLEFT
 10
0.0
 20
0.0
 30
0.0
  9
$PUCSORGRIGHT
 10
0.0
 20
0.0
 30
0.0
  9
$PUCSORGFRONT
 10
0.0
 20
0.0
 30
0.0
  9
$PUCSORGBACK
 10
0.0
 20
0.0
 30
0.0
  9
$USERI1
 70
     0
  9
$USERI2
 70
     0
  9
$USERI3
 70
     0
  9
$USERI4
 70
     0
  9
$USERI5
 70
     0
  9
$USERR1
 40
0.0
  9
$USERR2
 40
0.0
  9
$USERR3
 40
0.0
  9
$USERR4
 40
0.0
  9
$USERR5
 40
0.0
  9
$WORLDVIEW
 70
     1
  9
$SHADEDGE
 70
     3
  9
$SHADEDIF
 70
    70
  9
$TILEMODE
 70
     1
  9
$MAXACTVP
 70
    64
  9
$PINSBASE
 10
0.0
 20
0.0
 30
0.0
  9
$PLIMCHECK
 70
     0
  9
$PEXTMIN
 10
1.0000000000E+20
 20
1.0000000000E+20
 30
1.0000000000E+20
  9
$PEXTMAX
 10
-1.0000000000E+20
 20
-1.0000000000E+20
 30
-1.0000000000E+20
  9
$PLIMMIN
 10
0.0
 20
0.0
  9
$PLIMMAX
 10
420.0
 20
297.0
  9
$UNITMODE
 70
     0
  9
$VISRETAIN
 70
     1
  9
$PLINEGEN
 70
     0
  9
$PSLTSCALE
 70
     1
  9
$TREEDEPTH
 70
  3020
  9
$CMLSTYLE
  2
Standard
  9
$CMLJUST
 70
     0
  9
$CMLSCALE
 40
20.0
  9
$PROXYGRAPHICS
 70
     1
  9
$MEASUREMENT
 70
     1
  9
$CELWEIGHT
370
    -1
  9
$ENDCAPS
280
     0
  9
$JOINSTYLE
280
     0
  9
$LWDISPLAY
290
     1
  9
$INSUNITS
 70
     4
  9
$HYPERLINKBASE
  1

  9
$STYLESHEET
  1

  9
$XEDIT
290
     1
  9
$CEPSNTYPE
380
     0
  9
$PSTYLEMODE
290
     1
  9
$FINGERPRINTGUID
  2
{8EA60E15-D971-4DB0-A18E-2E9281BF6E14}
  9
$VERSIONGUID
  2
{FAEB1C32-E019-11D5-929B-00C0DF256EC4}
  9
$EXTNAMES
290
     1
  9
$PSVPSCALE
 40
0.0
  9
$OLESTARTUP
290
     0
  0
ENDSEC
  0
SECTION
  2
CLASSES
  0
CLASS
  1
ACDBDICTIONARYWDFLT
  2
AcDbDictionaryWithDefault
  3
ObjectDBX Classes
 90
        0
280
     0
281
     0
  0
CLASS
  1
VISUALSTYLE
  2
AcDbVisualStyle
  3
ObjectDBX Classes
 90
     4095
280
     0
281
     0
  0
CLASS
  1
DICTIONARYVAR
  2
AcDbDictionaryVar
  3
ObjectDBX Classes
 90
        0
280
     0
281
     0
  0
CLASS
  1
ACDBPLACEHOLDER
  2
AcDbPlaceHolder
  3
ObjectDBX Classes
 90
        0
280
     0
281
     0
  0
CLASS
  1
LAYOUT
  2
AcDbLayout
  3
ObjectDBX Classes
 90
        0
280
     0
281
     0
  0
ENDSEC
  0
SECTION
  2
TABLES
  0
TABLE
  2
VPORT
  5
8
330
0
100
AcDbSymbolTable
 70
     1
  0
VPORT
  5
29
330
8
100
AcDbSymbolTableRecord
100
AcDbViewportTableRecord
  2
*Active
 70
     0
 10
0.0
 20
0.0
 11
1.0
 21
1.0
 12
148.5
 22
105.0
 13
0.0
 23
0.0
 14
10.0
 24
10.0
 15
10.0
 25
10.0
 16
0.0
 26
0.0
 36
1.0
 17
0.0
 27
0.0
 37
0.0
 40
210.0
 41
1.4142857143
 42
50.0
 43
0.0
 44
0.0
 50
0.0
 51
0.0
 71
     0
 72
  2000
 73
     1
 74
     3
 75
     0
 76
     0
 77
     0
 78
     0
281
     0
 65
     1
110
0.0
120
0.0
130
0.0
111
1.0
121
0.0
131
0.0
112
0.0
122
1.0
132
0.0
 79
     0
146
0.0
  0
ENDTAB
  0
TABLE
  2
LTYPE
  5
5
330
0
100
AcDbSymbolTable
 70
     6
  0
LTYPE
  5
14
330
5
100
AcDbSymbolTableRecord
100
AcDbLinetypeTableRecord
  2
ByBlock
 70
     0
  3

 72
    65
 73
     0
 40
0.0
  0
LTYPE
  5
15
330
5
100
AcDbSymbolTableRecord
100
AcDbLinetypeTableRecord
  2
ByLayer
 70
     0
  3

 72
    65
 73
     0
 40
0.0
  0
LTYPE
  5
16
330
5
100
AcDbSymbolTableRecord
100
AcDbLinetypeTableRecord
  2
Continuous
 70
     0
  3
Solid line
 72
    65
 73
     0
 40
0.0
  0
LTYPE
  5
3B
330
5
100
AcDbSymbolTableRecord
100
AcDbLinetypeTableRecord
  2
HIDDEN
 70
     0
  3
Hidden __ __ __ __ __ __ __ __ __ __ __ __ __ __
 72
    65
 73
     2
 40
1.905
 49
1.27
 74
     0
 49
-0.635
 74
     0
  0
LTYPE
  5
3C
330
5
100
AcDbSymbolTableRecord
100
AcDbLinetypeTableRecord
  2
PHANTOM
 70
     0
  3
Phantom ______  __  __  ______  __  __  ______
 72
    65
 73
     6
 40
12.7
 49
6.35
 74
     0
 49
-1.27
 74
     0
 49
1.27
 74
     0
 49
-1.27
 74
     0
 49
1.27
 74
     0
 49
-1.27
 74
     0
  0
LTYPE
  5
3D
330
5
100
AcDbSymbolTableRecord
100
AcDbLinetypeTableRecord
  2
CENTER
 70
     0
  3
Center ____ _ ____ _ ____ _ ____ _ ____ _ ____
 72
    65
 73
     4
 40
10.16
 49
6.35
 74
     0
 49
-1.27
 74
     0
 49
1.27
 74
     0
 49
-1.27
 74
     0
  0
LTYPE
  5
3E
330
5
100
AcDbSymbolTableRecord
100
AcDbLinetypeTableRecord
  2
CENTERX2
 70
     0
  3
Center (2x) ________  __  ________  __  _____
 72
    65
 73
     4
 40
20.32
 49
12.7
 74
     0
 49
-2.54
 74
     0
 49
2.54
 74
     0
 49
-2.54
 74
     0
  0
LTYPE
  5
3F
330
5
100
AcDbSymbolTableRecord
100
AcDbLinetypeTableRecord
  2
DOT2
 70
     0
  3
Dot (.5x) ........................................
 72
    65
 73
     2
 40
0.635
 49
0.0
 74
     0
 49
-0.635
 74
     0
  0
ENDTAB
  0
TABLE
  2
LAYER
  5
2
330
0
100
AcDbSymbolTable
 70
     5
  0
LAYER
  5
10
330
2
100
AcDbSymbolTableRecord
100
AcDbLayerTableRecord
  2
0
 70
     0
 62
     7
  6
Continuous
370
    -3
390
F
  0
LAYER
  5
40
330
2
100
AcDbSymbolTableRecord
100
AcDbLayerTableRecord
  2
FORMAT
 70
     0
 62
     7
  6
Continuous
370
    -3
390
F
  0
LAYER
  5
41
330
2
100
AcDbSymbolTableRecord
100
AcDbLayerTableRecord
  2
VERMASSUNG
 70
     0
 62
     7
  6
Continuous
370
    -3
390
F
  0
LAYER
  5
42
330
2
100
AcDbSymbolTableRecord
100
AcDbLayerTableRecord
  2
KOPF_DÜNN
 70
     0
 62
     7
  6
Continuous
370
    -3
390
F
  0
LAYER
  5
43
330
2
100
AcDbSymbolTableRecord
100
AcDbLayerTableRecord
  2
KOPF_DICK
 70
     0
 62
     7
  6
Continuous
370
    15
390
F
  0
ENDTAB
  0
TABLE
  2
STYLE
  5
3
330
0
100
AcDbSymbolTable
 70
     3
  0
STYLE
  5
11
330
3
100
AcDbSymbolTableRecord
100
AcDbTextStyleTableRecord
  2
Standard
 70
     0
 40
0.0
 41
1.0
 50
0.0
 71
     0
 42
2.5
  3
txt
  4

  0
STYLE
  5
44
330
3
100
AcDbSymbolTableRecord
100
AcDbTextStyleTableRecord
  2
SLDTEXTSTYLE0
 70
     0
 40
0.0
 41
0.7
 50
0.0
 71
     0
 42
0.2
  3
TXT
  4

  0
STYLE
  5
48
330
3
100
AcDbSymbolTableRecord
100
AcDbTextStyleTableRecord
  2
SLDTEXTSTYLE1
 70
     0
 40
0.0
 41
0.65
 50
0.0
 71
     0
 42
0.2
  3
TXT
  4

  0
ENDTAB
  0
TABLE
  2
VIEW
  5
6
330
0
100
AcDbSymbolTable
 70
     0
  0
ENDTAB
  0
TABLE
  2
UCS
  5
7
330
0
100
AcDbSymbolTable
 70
     0
  0
ENDTAB
  0
TABLE
  2
APPID
  5
9
330
0
100
AcDbSymbolTable
 70
     1
  0
APPID
  5
12
330
9
100
AcDbSymbolTableRecord
100
AcDbRegAppTableRecord
  2
ACAD
 70
     0
  0
ENDTAB
  0
TABLE
  2
DIMSTYLE
  5
A
330
0
100
AcDbSymbolTable
 70
     2
100
AcDbDimStyleTable
  0
DIMSTYLE
105
27
330
A
100
AcDbSymbolTableRecord
100
AcDbDimStyleTableRecord
  2
ISO-25
 70
     0
 41
2.5
 42
0.625
 43
3.75
 44
1.25
 73
     0
 74
     0
 77
     1
 78
     8
140
2.5
141
2.5
143
0.0393700787
147
0.625
171
     3
172
     1
271
     2
272
     2
274
     3
278
    44
283
     0
284
     8
340
11
  0
DIMSTYLE
105
1CB
102
{ACAD_REACTORS
330
1CA
330
1D6
330
1E1
330
1EB
330
1F5
330
1FF
102
}
330
A
100
AcDbSymbolTableRecord
100
AcDbDimStyleTableRecord
  2
SLDDIMSTYLE0
 70
     0
 41
3.0
 44
0.0
 45
0.000000001
 73
     0
 74
     0
 77
     1
 78
    12
140
2.0
147
0.5
173
     1
271
     2
272
     3
284
    12
340
44
  0
ENDTAB
  0
TABLE
  2
BLOCK_RECORD
  5
1
330
0
100
AcDbSymbolTable
 70
     7
  0
BLOCK_RECORD
  5
1F
330
1
100
AcDbSymbolTableRecord
100
AcDbBlockTableRecord
  2
*Model_Space
340
22
  0
BLOCK_RECORD
  5
1B
330
1
100
AcDbSymbolTableRecord
100
AcDbBlockTableRecord
  2
*Paper_Space
340
1E
  0
BLOCK_RECORD
  5
23
330
1
100
AcDbSymbolTableRecord
100
AcDbBlockTableRecord
  2
*Paper_Space0
340
26
  0
BLOCK_RECORD
  5
1CC
330
1
100
AcDbSymbolTableRecord
100
AcDbBlockTableRecord
  2
*D1
340
0
  0
BLOCK_RECORD
  5
1D7
330
1
100
AcDbSymbolTableRecord
100
AcDbBlockTableRecord
  2
*D2
340
0
  0
BLOCK_RECORD
  5
1E2
330
1
100
AcDbSymbolTableRecord
100
AcDbBlockTableRecord
  2
*D3
340
0
  0
BLOCK_RECORD
  5
1EC
330
1
100
AcDbSymbolTableRecord
100
AcDbBlockTableRecord
  2
*D4
340
0
  0
BLOCK_RECORD
  5
1F6
330
1
100
AcDbSymbolTableRecord
100
AcDbBlockTableRecord
  2
*D5
340
0
  0
BLOCK_RECORD
  5
200
330
1
100
AcDbSymbolTableRecord
100
AcDbBlockTableRecord
  2
*D6
340
0
  0
ENDTAB
  0
ENDSEC
  0
SECTION
  2
BLOCKS
  0
BLOCK
  5
20
330
1F
100
AcDbEntity
  8
0
100
AcDbBlockBegin
  2
*Model_Space
 70
     0
 10
0.0
 20
0.0
 30
0.0
  3
*Model_Space
  1

  0
ENDBLK
  5
21
330
1F
100
AcDbEntity
  8
0
100
AcDbBlockEnd
  0
BLOCK
  5
1C
330
1B
100
AcDbEntity
 67
     1
  8
0
100
AcDbBlockBegin
  2
*Paper_Space
 70
     0
 10
0.0
 20
0.0
 30
0.0
  3
*Paper_Space
  1

  0
ENDBLK
  5
1D
330
1B
100
AcDbEntity
 67
     1
  8
0
100
AcDbBlockEnd
  0
BLOCK
  5
24
330
23
100
AcDbEntity
  8
0
100
AcDbBlockBegin
  2
*Paper_Space0
 70
     0
 10
0.0
 20
0.0
 30
0.0
  3
*Paper_Space0
  1

  0
ENDBLK
  5
25
330
23
100
AcDbEntity
  8
0
100
AcDbBlockEnd
  0
BLOCK
  5
1CD
330
1CC
100
AcDbEntity
  8
0
100
AcDbBlockBegin
  2
*D1
 70
     1
 10
0.0
 20
0.0
 30
0.0
  3
*D1
  1

  0
SOLID
  5
1CF
330
1CC
100
AcDbEntity
  8
VERMASSUNG
100
AcDbTrace
 10
240.7414874722
 20
129.9894907909
 30
0.0
 11
240.2914874722
 21
126.9894907909
 31
0.0
 12
241.1914874722
 22
126.9894907909
 32
0.0
 13
241.1914874722
 23
126.9894907909
 33
0.0
  0
SOLID
  5
1D0
330
1CC
100
AcDbEntity
  8
VERMASSUNG
100
AcDbTrace
 10
240.7414874722
 20
89.9894907909
 30
0.0
 11
241.1914874722
 21
92.9894907909
 31
0.0
 12
240.2914874722
 22
92.9894907909
 32
0.0
 13
240.2914874722
 23
92.9894907909
 33
0.0
  0
LINE
  5
1D1
330
1CC
100
AcDbEntity
  8
VERMASSUNG
100
AcDbLine
 10
230.0862299928
 20
129.9894907909
 30
0.0
 11
241.7414874722
 21
129.9894907909
 31
0.0
  0
LINE
  5
1D2
330
1CC
100
AcDbEntity
  8
VERMASSUNG
100
AcDbLine
 10
230.0862299928
 20
89.9894907909
 30
0.0
 11
241.7414874722
 21
89.9894907909
 31
0.0
  0
LINE
  5
1D3
330
1CC
100
AcDbEntity
  8
VERMASSUNG
100
AcDbLine
 10
240.7414874722
 20
129.9894907909
 30
0.0
 11
240.7414874722
 21
89.9894907909
 31
0.0
  0
MTEXT
  5
1D4
330
1CC
100
AcDbEntity
  8
VERMASSUNG
100
AcDbMText
 10
238.1633519926
 20
106.6859837486
 30
0.0
 40
2.0
 41
0.0
 71
     1
 72
     1
  1
%%c
  7
SLDTEXTSTYLE0
 11
-7.044195017643634E-15
 21
1.0
 31
0.0
 73
     1
 44
1.0
  0
MTEXT
  5
1D5
330
1CC
100
AcDbEntity
  8
VERMASSUNG
100
AcDbMText
 10
238.163352109
 20
110.2946619718
 30
0.0
 40
2.0
 41
0.0
 71
     1
 72
     1
  1
40
  7
SLDTEXTSTYLE0
 11
-7.044195017643634E-15
 21
1.0
 31
0.0
 73
     1
 44
1.0
  0
ENDBLK
  5
1CE
330
1CC
100
AcDbEntity
  8
0
100
AcDbBlockEnd
  0
BLOCK
  5
1D8
330
1D7
100
AcDbEntity
  8
0
100
AcDbBlockBegin
  2
*D2
 70
     1
 10
0.0
 20
0.0
 30
0.0
  3
*D2
  1

  0
SOLID
  5
1DA
330
1D7
100
AcDbEntity
  8
VERMASSUNG
100
AcDbTrace
 10
246.7414874722
 20
149.9894907909
 30
0.0
 11
246.2914874722
 21
146.9894907909
 31
0.0
 12
247.1914874722
 22
146.9894907909
 32
0.0
 13
247.1914874722
 23
146.9894907909
 33
0.0
  0
SOLID
  5
1DB
330
1D7
100
AcDbEntity
  8
VERMASSUNG
100
AcDbTrace
 10
246.7414874722
 20
69.9894907909
 30
0.0
 11
247.1914874722
 21
72.9894907909
 31
0.0
 12
246.2914874722
 22
72.9894907909
 32
0.0
 13
246.2914874722
 23
72.9894907909
 33
0.0
  0
LINE
  5
1DC
330
1D7
100
AcDbEntity
  8
VERMASSUNG
100
AcDbLine
 10
219.7578028681
 20
149.9894907909
 30
0.0
 11
247.7414874722
 21
149.9894907909
 31
0.0
  0
LINE
  5
1DD
330
1D7
100
AcDbEntity
  8
VERMASSUNG
100
AcDbLine
 10
219.7578028681
 20
69.9894907909
 30
0.0
 11
247.7414874722
 21
69.9894907909
 31
0.0
  0
LINE
  5
1DE
330
1D7
100
AcDbEntity
  8
VERMASSUNG
100
AcDbLine
 10
246.7414874722
 20
149.9894907909
 30
0.0
 11
246.7414874722
 21
69.9894907909
 31
0.0
  0
MTEXT
  5
1DF
330
1D7
100
AcDbEntity
  8
VERMASSUNG
100
AcDbMText
 10
244.1633519926
 20
106.7857735645
 30
0.0
 40
2.0
 41
0.0
 71
     1
 72
     1
  1
%%c
  7
SLDTEXTSTYLE0
 11
-7.044195017643634E-15
 21
1.0
 31
0.0
 73
     1
 44
1.0
  0
MTEXT
  5
1E0
330
1D7
100
AcDbEntity
  8
VERMASSUNG
100
AcDbMText
 10
244.163352109
 20
110.3944517876
 30
0.0
 40
2.0
 41
0.0
 71
     1
 72
     1
  1
80
  7
SLDTEXTSTYLE0
 11
-7.044195017643634E-15
 21
1.0
 31
0.0
 73
     1
 44
1.0
  0
ENDBLK
  5
1D9
330
1D7
100
AcDbEntity
  8
0
100
AcDbBlockEnd
  0
BLOCK
  5
1E3
330
1E2
100
AcDbEntity
  8
0
100
AcDbBlockBegin
  2
*D3
 70
     1
 10
0.0
 20
0.0
 30
0.0
  3
*D3
  1

  0
SOLID
  5
1E5
330
1E2
100
AcDbEntity
  8
VERMASSUNG
100
AcDbTrace
 10
230.5862299928
 20
162.6692307692
 30
0.0
 11
227.5862299928
 21
163.1192307692
 31
0.0
 12
227.5862299928
 22
162.2192307692
 32
0.0
 13
227.5862299928
 23
162.2192307692
 33
0.0
  0
SOLID
  5
1E6
330
1E2
100
AcDbEntity
  8
VERMASSUNG
100
AcDbTrace
 10
149.5362299928
 20
162.6692307692
 30
0.0
 11
152.5362299928
 21
162.2192307692
 31
0.0
 12
152.5362299928
 22
163.1192307692
 32
0.0
 13
152.5362299928
 23
163.1192307692
 33
0.0
  0
LINE
  5
1E7
330
1E2
100
AcDbEntity
  8
VERMASSUNG
100
AcDbLine
 10
230.5862299928
 20
139.1610636662
 30
0.0
 11
230.5862299928
 21
163.6692307692
 31
0.0
  0
LINE
  5
1E8
330
1E2
100
AcDbEntity
  8
VERMASSUNG
100
AcDbLine
 10
149.5362299928
 20
157.9582306117
 30
0.0
 11
149.5362299928
 21
163.6692307692
 31
0.0
  0
LINE
  5
1E9
330
1E2
100
AcDbEntity
  8
VERMASSUNG
100
AcDbLine
 10
230.5862299928
 20
162.6692307692
 30
0.0
 11
149.5362299928
 21
162.6692307692
 31
0.0
  0
MTEXT
  5
1EA
330
1E2
100
AcDbEntity
  8
VERMASSUNG
100
AcDbMText
 10
187.1615236006
 20
165.2473661324
 30
0.0
 40
2.0
 41
0.0
 71
     1
 72
     1
  1
81.05
  7
SLDTEXTSTYLE0
 73
     1
 44
1.0
  0
ENDBLK
  5
1E4
330
1E2
100
AcDbEntity
  8
0
100
AcDbBlockEnd
  0
BLOCK
  5
1ED
330
1EC
100
AcDbEntity
  8
0
100
AcDbBlockBegin
  2
*D4
 70
     1
 10
0.0
 20
0.0
 30
0.0
  3
*D4
  1

  0
SOLID
  5
1EF
330
1EC
100
AcDbEntity
  8
VERMASSUNG
100
AcDbTrace
 10
230.5862299928
 20
168.6692307692
 30
0.0
 11
227.5862299928
 21
169.1192307692
 31
0.0
 12
227.5862299928
 22
168.2192307692
 32
0.0
 13
227.5862299928
 23
168.2192307692
 33
0.0
  0
SOLID
  5
1F0
330
1EC
100
AcDbEntity
  8
VERMASSUNG
100
AcDbTrace
 10
120.5862299928
 20
168.6692307692
 30
0.0
 11
123.5862299928
 21
168.2192307692
 31
0.0
 12
123.5862299928
 22
169.1192307692
 32
0.0
 13
123.5862299928
 23
169.1192307692
 33
0.0
  0
LINE
  5
1F1
330
1EC
100
AcDbEntity
  8
VERMASSUNG
100
AcDbLine
 10
230.5862299928
 20
139.1610636662
 30
0.0
 11
230.5862299928
 21
169.6692307692
 31
0.0
  0
LINE
  5
1F2
330
1EC
100
AcDbEntity
  8
VERMASSUNG
100
AcDbLine
 10
120.5862299928
 20
159.4894907909
 30
0.0
 11
120.5862299928
 21
169.6692307692
 31
0.0
  0
LINE
  5
1F3
330
1EC
100
AcDbEntity
  8
VERMASSUNG
100
AcDbLine
 10
230.5862299928
 20
168.6692307692
 30
0.0
 11
120.5862299928
 21
168.6692307692
 31
0.0
  0
MTEXT
  5
1F4
330
1EC
100
AcDbEntity
  8
VERMASSUNG
100
AcDbMText
 10
173.8863220838
 20
171.2473661324
 30
0.0
 40
2.0
 41
0.0
 71
     1
 72
     1
  1
110
  7
SLDTEXTSTYLE0
 73
     1
 44
1.0
  0
ENDBLK
  5
1EE
330
1EC
100
AcDbEntity
  8
0
100
AcDbBlockEnd
  0
BLOCK
  5
1F7
330
1F6
100
AcDbEntity
  8
0
100
AcDbBlockBegin
  2
*D5
 70
     1
 10
0.0
 20
0.0
 30
0.0
  3
*D5
  1

  0
SOLID
  5
1F9
330
1F6
100
AcDbEntity
  8
VERMASSUNG
100
AcDbTrace
 10
230.5862299928
 20
174.6692307692
 30
0.0
 11
227.5862299928
 21
175.1192307692
 31
0.0
 12
227.5862299928
 22
174.2192307692
 32
0.0
 13
227.5862299928
 23
174.2192307692
 33
0.0
  0
SOLID
  5
1FA
330
1F6
100
AcDbEntity
  8
VERMASSUNG
100
AcDbTrace
 10
70.6862299928
 20
174.6692307692
 30
0.0
 11
73.6862299928
 21
174.2192307692
 31
0.0
 12
73.6862299928
 22
175.1192307692
 32
0.0
 13
73.6862299928
 23
175.1192307692
 33
0.0
  0
LINE
  5
1FB
330
1F6
100
AcDbEntity
  8
VERMASSUNG
100
AcDbLine
 10
230.5862299928
 20
139.1610636662
 30
0.0
 11
230.5862299928
 21
175.6692307692
 31
0.0
  0
LINE
  5
1FC
330
1F6
100
AcDbEntity
  8
VERMASSUNG
100
AcDbLine
 10
70.6862299928
 20
140.4921605335
 30
0.0
 11
70.6862299928
 21
175.6692307692
 31
0.0
  0
LINE
  5
1FD
330
1F6
100
AcDbEntity
  8
VERMASSUNG
100
AcDbLine
 10
230.5862299928
 20
174.6692307692
 30
0.0
 11
70.6862299928
 21
174.6692307692
 31
0.0
  0
MTEXT
  5
1FE
330
1F6
100
AcDbEntity
  8
VERMASSUNG
100
AcDbMText
 10
147.7365236006
 20
177.2473661324
 30
0.0
 40
2.0
 41
0.0
 71
     1
 72
     1
  1
159.9
  7
SLDTEXTSTYLE0
 73
     1
 44
1.0
  0
ENDBLK
  5
1F8
330
1F6
100
AcDbEntity
  8
0
100
AcDbBlockEnd
  0
BLOCK
  5
201
330
200
100
AcDbEntity
  8
0
100
AcDbBlockBegin
  2
*D6
 70
     1
 10
0.0
 20
0.0
 30
0.0
  3
*D6
  1

  0
SOLID
  5
203
330
200
100
AcDbEntity
  8
VERMASSUNG
100
AcDbTrace
 10
65.1871072589
 20
159.9894907909
 30
0.0
 11
64.7371072589
 21
156.9894907909
 31
0.0
 12
65.6371072589
 22
156.9894907909
 32
0.0
 13
65.6371072589
 23
156.9894907909
 33
0.0
  0
SOLID
  5
204
330
200
100
AcDbEntity
  8
VERMASSUNG
100
AcDbTrace
 10
65.1871072589
 20
59.9894907909
 30
0.0
 11
65.6371072589
 21
62.9894907909
 31
0.0
 12
64.7371072589
 22
62.9894907909
 32
0.0
 13
64.7371072589
 23
62.9894907909
 33
0.0
  0
LINE
  5
205
330
200
100
AcDbEntity
  8
VERMASSUNG
100
AcDbLine
 10
121.0862299928
 20
159.9894907909
 30
0.0
 11
64.1871072589
 21
159.9894907909
 31
0.0
  0
LINE
  5
206
330
200
100
AcDbEntity
  8
VERMASSUNG
100
AcDbLine
 10
121.0862299928
 20
59.9894907909
 30
0.0
 11
64.1871072589
 21
59.9894907909
 31
0.0
  0
LINE
  5
207
330
200
100
AcDbEntity
  8
VERMASSUNG
100
AcDbLine
 10
65.1871072589
 20
159.9894907909
 30
0.0
 11
65.1871072589
 21
59.9894907909
 31
0.0
  0
MTEXT
  5
208
330
200
100
AcDbEntity
  8
VERMASSUNG
100
AcDbMText
 10
62.4089717699
 20
101.7858396533
 30
0.0
 40
2.0
 41
0.0
 71
     1
 72
     1
  1
HSK A 
  7
SLDTEXTSTYLE0
 11
-7.044195017643634E-15
 21
1.0
 31
0.0
 73
     1
 44
1.0
  0
MTEXT
  5
209
330
200
100
AcDbEntity
  8
VERMASSUNG
100
AcDbMText
 10
62.6089717794
 20
110.7858401972
 30
0.0
 40
2.0
 41
0.0
 71
     1
 72
     1
  1
%%c
  7
SLDTEXTSTYLE0
 11
-7.044195017643634E-15
 21
1.0
 31
0.0
 73
     1
 44
1.0
  0
MTEXT
  5
20A
330
200
100
AcDbEntity
  8
VERMASSUNG
100
AcDbMText
 10
62.6089718958
 20
114.3941668472
 30
0.0
 40
2.0
 41
0.0
 71
     1
 72
     1
  1
100
  7
SLDTEXTSTYLE0
 11
-7.044195017643634E-15
 21
1.0
 31
0.0
 73
     1
 44
1.0
  0
ENDBLK
  5
202
330
200
100
AcDbEntity
  8
0
100
AcDbBlockEnd
  0
ENDSEC
  0
SECTION
  2
ENTITIES
  0
MTEXT
  5
45
330
1F
100
AcDbEntity
  8
KOPF_DÜNN
100
AcDbMText
 10
13.8892156294
 20
23.8442973028
 30
0.0
 40
3.0
 41
0.0
 71
     1
 72
     1
  1
HA0.W40.K21.110
  7
SLDTEXTSTYLE0
 73
     1
 44
1.0
  0
MTEXT
  5
46
330
1F
100
AcDbEntity
  8
VERMASSUNG
100
AcDbMText
 10
13.9329988022
 20
28.8834360957
 30
0.0
 40
3.0
 41
0.0
 71
     1
 72
     1
  1
Flächenspannfutter_End mill adapter Weldon ø40
  7
SLDTEXTSTYLE0
 73
     1
 44
1.0
  0
MTEXT
  5
47
330
1F
100
AcDbEntity
  8
VERMASSUNG
100
AcDbMText
 10
98.8601118557
 20
13.8365368179
 30
0.0
 40
2.0
 41
0.0
 71
     1
 72
     1
  1
Datum: 21.04.2011
  7
SLDTEXTSTYLE0
 73
     1
 44
1.0
  0
MTEXT
  5
49
330
1F
100
AcDbEntity
  8
VERMASSUNG
100
AcDbMText
 10
13.933048693
 20
18.0482802738
 30
0.0
 40
2.0
 41
0.0
 71
     1
 72
     1
  1
DIN 69 893 HSK A 100
  7
SLDTEXTSTYLE1
 73
     1
 44
1.0
  0
MTEXT
  5
4A
330
1F
100
AcDbEntity
  8
VERMASSUNG
100
AcDbMText
 10
13.9808475933
 20
13.9090973692
 30
0.0
 40
2.0
 41
0.0
 71
     1
 72
     1
  1
Gewicht: 4301g
  7
SLDTEXTSTYLE0
 73
     1
 44
1.0
  0
LINE
  5
4B
330
1F
100
AcDbEntity
  8
0
  6
Continuous
 62
     7
370
    15
100
AcDbLine
 10
230.5862299928
 20
90.1909413237
 30
0.0
 11
230.6731665083
 21
90.3519263356
 31
0.0
  0
LINE
  5
4C
330
1F
100
AcDbEntity
  8
0
  6
Continuous
 62
     7
370
    15
100
AcDbLine
 10
230.5862299928
 20
126.4088044429
 30
0.0
 11
230.5881333584
 21
126.4119039998
 31
0.0
  0
LINE
  5
4D
330
1F
100
AcDbEntity
  8
0
  6
Continuous
 62
     7
370
    15
100
AcDbLine
 10
230.6774543488
 20
129.6269361201
 30
0.0
 11
230.5862299928
 21
129.7958611565
 31
0.0
  0
LINE
  5
4E
330
1F
100
AcDbEntity
  8
0
  6
Continuous
 62
     7
370
    15
100
AcDbLine
 10
121.0862299928
 20
59.9894907909
 30
0.0
 11
125.5362299928
 21
59.9894907909
 31
0.0
  0
LINE
  5
4F
330
1F
100
AcDbEntity
  8
0
  6
Continuous
 62
     7
370
    15
100
AcDbLine
 10
125.5516079643
 20
159.9894907909
 30
0.0
 11
121.0862299928
 21
159.9894907909
 31
0.0
  0
ARC
  5
50
330
1F
100
AcDbEntity
  8
0
  6
Continuous
 62
     7
370
    15
100
AcDbCircle
 10
121.0862299928
 20
60.4894907909
 30
0.0
 40
0.5
100
AcDbArc
 50
180.0
 51
270.0
  0
ARC
  5
51
330
1F
100
AcDbEntity
  8
0
  6
Continuous
 62
     7
370
    15
100
AcDbCircle
 10
121.0862299928
 20
159.4894907909
 30
0.0
 40
0.5
100
AcDbArc
 50
90.0
 51
180.0
  0
ARC
  5
52
330
1F
100
AcDbEntity
  8
0
  6
Continuous
 62
     7
370
    15
100
AcDbCircle
 10
150.5362299928
 20
68.9894907909
 30
0.0
 40
1.0
100
AcDbArc
 50
90.0
 51
180.0
  0
ARC
  5
53
330
1F
100
AcDbEntity
  8
0
  6
Continuous
 62
     7
370
    15
100
AcDbCircle
 10
150.5362299928
 20
150.9894907909
 30
0.0
 40
1.0
100
AcDbArc
 50
180.0
 51
270.0
  0
LINE
  5
54
330
1F
100
AcDbEntity
  8
0
  6
Continuous
 62
     7
370
    15
100
AcDbLine
 10
158.5240962909
 20
69.9894907909
 30
0.0
 11
219.7578028681
 21
69.9894907909
 31
0.0
  0
LINE
  5
55
330
1F
100
AcDbEntity
  8
0
  6
Continuous
 62
     7
370
    15
100
AcDbLine
 10
150.5362299928
 20
69.9894907909
 30
0.0
 11
151.540933824
 21
69.9894907909
 31
0.0
  0
LINE
  5
56
330
1F
100
AcDbEntity
  8
0
  6
Continuous
 62
     7
370
    15
100
AcDbLine
 10
151.5377839562
 20
149.9894907909
 30
0.0
 11
150.5362299928
 21
149.9894907909
 31
0.0
  0
LINE
  5
57
330
1F
100
AcDbEntity
  8
0
  6
Continuous
 62
     7
370
    15
100
AcDbLine
 10
219.7578028681
 20
149.9894907909
 30
0.0
 11
158.5295547967
 21
149.9894907909
 31
0.0
  0
ARC
  5
58
330
1F
100
AcDbEntity
  8
0
  6
Continuous
 62
     7
370
    15
100
AcDbCircle
 10
219.7578028681
 20
71.9894907909
 30
0.0
 40
2.0
100
AcDbArc
 50
270.0
 51
315.0
  0
ARC
  5
59
330
1F
100
AcDbEntity
  8
0
  6
Continuous
 62
     7
370
    15
100
AcDbCircle
 10
219.7578028681
 20
147.9894907909
 30
0.0
 40
2.0
100
AcDbArc
 50
45.0
 51
90.0
  0
LINE
  5
5A
330
1F
100
AcDbEntity
  8
0
  6
Continuous
 62
     7
370
    15
100
AcDbLine
 10
221.1720164305
 20
70.5752772285
 30
0.0
 11
230.0004435552
 21
79.4037043533
 31
0.0
  0
LINE
  5
5B
330
1F
100
AcDbEntity
  8
0
  6
Continuous
 62
     7
370
    15
100
AcDbLine
 10
230.0004435552
 20
140.5752772285
 30
0.0
 11
221.1720164305
 21
149.4037043533
 31
0.0
  0
ARC
  5
5C
330
1F
100
AcDbEntity
  8
0
  6
Continuous
 62
     7
370
    15
100
AcDbCircle
 10
119.6892930744
 20
71.3610054665
 30
0.0
 40
0.9962338214386793
100
AcDbArc
 50
25.7988228126
 51
90.0
  0
ARC
  5
5D
330
1F
100
AcDbEntity
  8
0
  6
Continuous
 62
     7
370
    15
100
AcDbCircle
 10
119.6892930744
 20
148.6179761153
 30
0.0
 40
0.9962338214386793
100
AcDbArc
 50
270.0
 51
334.2011771874
  0
LINE
  5
5E
330
1F
100
AcDbEntity
  8
0
  6
Continuous
 62
     7
370
    15
100
AcDbLine
 10
99.1055510742
 20
146.9208064763
 30
0.0
 11
80.7862299928
 21
146.003004819
 31
0.0
  0
LINE
  5
5F
330
1F
100
AcDbEntity
  8
0
  6
Continuous
 62
     7
370
    15
100
AcDbLine
 10
118.0862299928
 20
147.8717422939
 30
0.0
 11
112.0181908384
 21
147.5677323162
 31
0.0
  0
LINE
  5
60
330
1F
100
AcDbEntity
  8
0
  6
Continuous
 62
     7
370
    15
100
AcDbLine
 10
112.0183141148
 20
72.4112430894
 30
0.0
 11
118.0862299928
 21
72.1072392879
 31
0.0
  0
LINE
  5
61
330
1F
100
AcDbEntity
  8
0
  6
Continuous
 62
     7
370
    15
100
AcDbLine
 10
85.7862299928
 20
73.7254757608
 30
0.0
 11
99.1061811468
 21
73.0581435387
 31
0.0
  0
LINE
  5
62
330
1F
100
AcDbEntity
  8
0
  6
Continuous
 62
     7
370
    15
100
AcDbLine
 10
118.0862299928
 20
72.1072392879
 30
0.0
 11
118.8920761472
 21
72.3231651142
 31
0.0
  0
LINE
  5
63
330
1F
100
AcDbEntity
  8
0
  6
Continuous
 62
     7
370
    15
100
AcDbLine
 10
118.8920761472
 20
147.6558164676
 30
0.0
 11
118.0862299928
 21
147.8717422939
 31
0.0
  0
ARC
  5
64
330
1F
100
AcDbEntity
  8
0
  6
Continuous
 62
     7
370
    15
100
AcDbCircle
 10
119.1508951923
 20
71.3572392879
 30
0.0
 40
0.9999999999999993
100
AcDbArc
 50
90.0
 51
105.0
  0
ARC
  5
65
330
1F
100
AcDbEntity
  8
0
  6
Continuous
 62
     7
370
    15
100
AcDbCircle
 10
119.1508951923
 20
148.6217422939
 30
0.0
 40
0.9999999999999993
100
AcDbArc
 50
255.0
 51
270.0
  0
LINE
  5
66
330
1F
100
AcDbEntity
  8
0
  6
Continuous
 62
     7
370
    15
100
AcDbLine
 10
119.1508951923
 20
72.3572392879
 30
0.0
 11
119.6892930744
 21
72.3572392879
 31
0.0
  0
LINE
  5
67
330
1F
100
AcDbEntity
  8
0
  6
Continuous
 62
     7
370
    15
100
AcDbLine
 10
119.6892930744
 20
147.6217422939
 30
0.0
 11
119.1508951923
 21
147.6217422939
 31
0.0
  0
ARC
  5
68
330
1F
100
AcDbEntity
  8
0
  6
Continuous
 62
     7
370
    15
100
AcDbCircle
 10
228.5862299928
 20
80.8179179156
 30
0.0
 40
2.000000000000006
100
AcDbArc
 50
315.0
 51
0.0
  0
ARC
  5
69
330
1F
100
AcDbEntity
  8
0
  6
Continuous
 62
     7
370
    15
100
AcDbCircle
 10
228.5862299928
 20
139.1610636662
 30
0.0
 40
2.000000000000016
100
AcDbArc
 50
0.0
 51
45.0
  0
LINE
  5
6A
330
1F
100
AcDbEntity
  8
0
  6
Continuous
 62
     7
370
    15
100
AcDbLine
 10
72.3362299928
 20
77.7394907909
 30
0.0
 11
83.8862299928
 21
77.7394907909
 31
0.0
  0
ARC
  5
6B
330
1F
100
AcDbEntity
  8
0
  6
Continuous
 62
     7
370
    15
100
AcDbCircle
 10
83.8862299928
 20
75.8394907909
 30
0.0
 40
1.900000000000007
100
AcDbArc
 50
35.6630613694
 51
90.0
  0
ARC
  5
6C
330
1F
100
AcDbEntity
  8
0
  6
Continuous
 62
     7
370
    15
100
AcDbCircle
 10
78.8862299928
 20
144.1394907909
 30
0.0
 40
1.899999999999991
100
AcDbArc
 50
270.0
 51
312.7708047792
  0
LINE
  5
6D
330
1F
100
AcDbEntity
  8
0
  6
Continuous
 62
     7
370
    15
100
AcDbLine
 10
72.3362299928
 20
142.2394907909
 30
0.0
 11
70.7430136309
 21
140.6462744289
 31
0.0
  0
LINE
  5
6E
330
1F
100
AcDbEntity
  8
0
  6
Continuous
 62
     7
370
    15
100
AcDbLine
 10
70.7437528933
 20
79.3319678904
 30
0.0
 11
72.3362299928
 21
77.7394907909
 31
0.0
  0
LINE
  5
6F
330
1F
100
AcDbEntity
  8
0
  6
Continuous
 62
     7
370
    15
100
AcDbLine
 10
78.8862299928
 20
142.2394907909
 30
0.0
 11
72.3362299928
 21
142.2394907909
 31
0.0
  0
ARC
  5
70
330
1F
100
AcDbEntity
  8
0
  6
Continuous
 62
     7
370
    15
100
AcDbCircle
 10
210.2925442463
 20
91.4056220734
 30
0.0
 40
20.40784257326613
100
AcDbArc
 50
357.0403939252
 51
6.0630713604
  0
LWPOLYLINE
  5
71
330
1F
100
AcDbEntity
  8
0
  6
Continuous
 62
     7
370
    15
100
AcDbPolyline
 90
       10
 70
   128
 43
0.0
 10
230.6725721121
 20
127.9221122186
 10
230.6868279565
 20
128.5089971957
 10
230.6934959505
 20
129.0297701316
 10
230.6916755446
 20
129.4140977554
 10
230.6816125946
 20
129.6100744919
 10
230.6646661579
 20
129.591232597
 10
230.6431249444
 20
129.3601167729
 10
230.6198982145
 20
128.9479404924
 10
230.5981228668
 20
128.410370446
 10
230.5862299928
 20
128.030159855
  0
ARC
  5
72
330
1F
100
AcDbEntity
  8
0
  6
Continuous
 62
     7
370
    15
100
AcDbCircle
 10
218.8502599761
 20
127.838769944
 30
0.0
 40
11.82260589609779
100
AcDbArc
 50
353.0594244884
 51
0.4039041967
  0
LINE
  5
73
330
1F
100
AcDbEntity
  8
0
  6
Continuous
 62
     7
370
    15
100
AcDbLine
 10
230.6449890407
 20
129.0521795196
 30
0.0
 11
230.6005742615
 21
128.0893122881
 31
0.0
  0
LINE
  5
74
330
1F
100
AcDbEntity
  8
0
  6
Continuous
 62
     7
370
    15
100
AcDbLine
 10
230.5862299928
 20
127.0566125349
 30
0.0
 11
230.6005742615
 21
128.0893122881
 31
0.0
  0
LINE
  5
75
330
1F
100
AcDbEntity
  8
0
  6
Continuous
 62
     7
370
    15
100
AcDbLine
 10
230.6163005034
 20
126.9867800132
 30
0.0
 11
230.5862299928
 21
127.0566125349
 31
0.0
  0
LINE
  5
76
330
1F
100
AcDbEntity
  8
0
  6
Continuous
 62
     7
370
    15
100
AcDbLine
 10
230.6163005034
 20
126.9867800132
 30
0.0
 11
230.6607152827
 21
127.9496472447
 31
0.0
  0
LINE
  5
77
330
1F
100
AcDbEntity
  8
0
  6
Continuous
 62
     7
370
    15
100
AcDbLine
 10
230.6750595513
 20
128.9823469979
 30
0.0
 11
230.6607152827
 21
127.9496472447
 31
0.0
  0
LINE
  5
78
330
1F
100
AcDbEntity
  8
0
  6
Continuous
 62
     7
370
    15
100
AcDbLine
 10
230.6750595513
 20
128.9823469979
 30
0.0
 11
230.6449890407
 21
129.0521795196
 31
0.0
  0
LINE
  5
79
330
1F
100
AcDbEntity
  8
0
  6
Continuous
 62
     7
370
    15
100
AcDbLine
 10
230.6418104421
 20
128.9832707347
 30
0.0
 11
230.6750595513
 21
128.9823469979
 31
0.0
  0
LINE
  5
7A
330
1F
100
AcDbEntity
  8
0
  6
Continuous
 62
     7
370
    15
100
AcDbLine
 10
230.5986582524
 20
127.9513713318
 30
0.0
 11
230.6607152827
 21
127.9496472447
 31
0.0
  0
ARC
  5
7B
330
1F
100
AcDbEntity
  8
0
  6
Continuous
 62
     7
370
    15
100
AcDbCircle
 10
169.0862299928
 20
109.9894907909
 30
0.0
 40
9.000000000000014
100
AcDbArc
 50
270.4203983771
 51
302.3987550696
  0
ARC
  5
7C
330
1F
100
AcDbEntity
  8
0
  6
Continuous
 62
     7
370
    15
100
AcDbCircle
 10
169.0862299928
 20
109.9894907909
 30
0.0
 40
9.000000000000009
100
AcDbArc
 50
57.8453625411
 51
122.1683340316
  0
ARC
  5
7D
330
1F
100
AcDbEntity
  8
0
  6
Continuous
 62
     7
370
    15
100
AcDbCircle
 10
169.0862299928
 20
109.9894907909
 30
0.0
 40
9.0
100
AcDbArc
 50
237.6019096521
 51
270.4203983771
  0
LINE
  5
7E
330
1F
100
AcDbEntity
  8
0
  6
Continuous
 62
     7
370
    15
100
AcDbLine
 10
174.0649145281
 20
112.912850781
 30
0.0
 11
169.0438682447
 21
115.7628380709
 31
0.0
  0
LINE
  5
7F
330
1F
100
AcDbEntity
  8
0
  6
Continuous
 62
     7
370
    15
100
AcDbLine
 10
174.1072762763
 20
107.139503501
 30
0.0
 11
174.0649145281
 21
112.912850781
 31
0.0
  0
LINE
  5
80
330
1F
100
AcDbEntity
  8
0
  6
Continuous
 62
     7
370
    15
100
AcDbLine
 10
174.1072762763
 20
107.139503501
 30
0.0
 11
169.128591741
 21
104.2161435109
 31
0.0
  0
LINE
  5
81
330
1F
100
AcDbEntity
  8
0
  6
Continuous
 62
     7
370
    15
100
AcDbLine
 10
164.0651837094
 20
112.8394780808
 30
0.0
 11
169.0438682447
 21
115.7628380709
 31
0.0
  0
LINE
  5
82
330
1F
100
AcDbEntity
  8
0
  6
Continuous
 62
     7
370
    15
100
AcDbLine
 10
164.1075454576
 20
107.0661308008
 30
0.0
 11
164.0651837094
 21
112.8394780808
 31
0.0
  0
LINE
  5
83
330
1F
100
AcDbEntity
  8
0
  6
Continuous
 62
     7
370
    15
100
AcDbLine
 10
164.1075454576
 20
107.0661308008
 30
0.0
 11
169.128591741
 21
104.2161435109
 31
0.0
  0
LINE
  5
84
330
1F
100
AcDbEntity
  8
0
  6
Continuous
 62
     7
370
    15
100
AcDbLine
 10
205.9037387336
 20
113.1714623285
 30
0.0
 11
200.7393161775
 21
115.7525615121
 31
0.0
  0
LINE
  5
85
330
1F
100
AcDbEntity
  8
0
  6
Continuous
 62
     7
370
    15
100
AcDbLine
 10
195.9218074368
 20
112.5705899745
 30
0.0
 11
200.7393161775
 21
115.7525615121
 31
0.0
  0
LINE
  5
86
330
1F
100
AcDbEntity
  8
0
  6
Continuous
 62
     7
370
    15
100
AcDbLine
 10
206.2506525489
 20
107.4083916073
 30
0.0
 11
205.9037387336
 21
113.1714623285
 31
0.0
  0
ARC
  5
87
330
1F
100
AcDbEntity
  8
0
  6
Continuous
 62
     7
370
    15
100
AcDbCircle
 10
201.0862299928
 20
109.9894907909
 30
0.0
 40
8.999999999999988
100
AcDbArc
 50
273.4448200219
 51
302.3987550696
  0
ARC
  5
88
330
1F
100
AcDbEntity
  8
0
  6
Continuous
 62
     7
370
    15
100
AcDbCircle
 10
201.0862299928
 20
109.9894907909
 30
0.0
 40
8.999999999999996
100
AcDbArc
 50
57.8453625411
 51
122.1683340316
  0
ARC
  5
89
330
1F
100
AcDbEntity
  8
0
  6
Continuous
 62
     7
370
    15
100
AcDbCircle
 10
201.0862299928
 20
109.9894907909
 30
0.0
 40
8.999999999999988
100
AcDbArc
 50
237.6019096521
 51
273.4448200219
  0
LINE
  5
8A
330
1F
100
AcDbEntity
  8
0
  6
Continuous
 62
     7
370
    15
100
AcDbLine
 10
196.2687212521
 20
106.8075192533
 30
0.0
 11
195.9218074368
 21
112.5705899745
 31
0.0
  0
LINE
  5
8B
330
1F
100
AcDbEntity
  8
0
  6
Continuous
 62
     7
370
    15
100
AcDbLine
 10
196.2687212521
 20
106.8075192533
 30
0.0
 11
201.4331438081
 21
104.2264200697
 31
0.0
  0
LINE
  5
8C
330
1F
100
AcDbEntity
  8
0
  6
Continuous
 62
     7
370
    15
100
AcDbLine
 10
206.2506525489
 20
107.4083916073
 30
0.0
 11
201.4331438081
 21
104.2264200697
 31
0.0
  0
SPLINE
  5
8D
330
1F
100
AcDbEntity
  8
0
  6
Continuous
 62
     7
370
    15
100
AcDbSpline
210
0.0
220
0.0
230
1.0
 70
     8
 71
     3
 72
    80
 73
    76
 74
     0
 42
0.00000001
 43
0.00000001
 40
-0.03125
 40
-0.03125
 40
0.0
 40
0.0
 40
0.03125
 40
0.03125
 40
0.0468750000000001
 40
0.0468750000000001
 40
0.0625000000000001
 40
0.0625000000000001
 40
0.0937499999999999
 40
0.0937499999999999
 40
0.1249999999999997
 40
0.1249999999999997
 40
0.1562499999999994
 40
0.1562499999999994
 40
0.1874999999999993
 40
0.1874999999999993
 40
0.2187499999999991
 40
0.2187499999999991
 40
0.2499999999999989
 40
0.2499999999999989
 40
0.2812499999999987
 40
0.2812499999999987
 40
0.3124999999999985
 40
0.3124999999999985
 40
0.3281249999999986
 40
0.3281249999999986
 40
0.3437499999999986
 40
0.3437499999999986
 40
0.3749999999999984
 40
0.3749999999999984
 40
0.4062499999999983
 40
0.4062499999999983
 40
0.4218749999999984
 40
0.4218749999999984
 40
0.4374999999999987
 40
0.4374999999999987
 40
0.4687499999999988
 40
0.4687499999999988
 40
0.4999999999999989
 40
0.4999999999999989
 40
0.5312499999999991
 40
0.5312499999999991
 40
0.5624999999999993
 40
0.5624999999999993
 40
0.5937499999999994
 40
0.5937499999999994
 40
0.6249999999999996
 40
0.6249999999999996
 40
0.6562499999999998
 40
0.6562499999999998
 40
0.6874999999999999
 40
0.6874999999999999
 40
0.7031249999999999
 40
0.7031249999999999
 40
0.7187499999999999
 40
0.7187499999999999
 40
0.7499999999999998
 40
0.7499999999999998
 40
0.7812499999999998
 40
0.7812499999999998
 40
0.7968749999999998
 40
0.7968749999999998
 40
0.8124999999999998
 40
0.8124999999999998
 40
0.8437499999999998
 40
0.8437499999999998
 40
0.8749999999999999
 40
0.8749999999999999
 40
0.9062499999999999
 40
0.9062499999999999
 40
0.9374999999999999
 40
0.9374999999999999
 40
0.96875
 40
0.96875
 40
1.0
 40
1.0
 40
1.03125
 40
1.03125
 10
124.5862299928285
 20
155.8012084949026
 30
0.0
 10
124.5862299928285
 20
155.5323188511561
 30
0.0
 10
124.618685087009
 20
155.3971454626879
 30
0.0
 10
124.7140303412433
 20
155.1935811273044
 30
0.0
 10
124.7536471993972
 20
155.1255958607042
 30
0.0
 10
124.8489052952222
 20
154.9894594404172
 30
0.0
 10
124.9048014063662
 20
154.9211319088757
 30
0.0
 10
125.0930800671032
 20
154.7205507047703
 30
0.0
 10
125.2466704152859
 20
154.5912117257253
 30
0.0
 10
125.6095041060629
 20
154.3426009508258
 30
0.0
 10
125.8205583281907
 20
154.2228845472288
 30
0.0
 10
126.2815586184654
 20
154.0055661557395
 30
0.0
 10
126.5331369207863
 20
153.9065603230662
 30
0.0
 10
127.079609323181
 20
153.730036843844
 30
0.0
 10
127.3703276152616
 20
153.6541721727994
 30
0.0
 10
127.9718707622437
 20
153.5315812407486
 30
0.0
 10
128.2871456080051
 20
153.4839414852873
 30
0.0
 10
128.9326452751239
 20
153.4200976837407
 30
0.0
 10
129.2571937412075
 20
153.4042095597607
 30
0.0
 10
129.9097994746078
 20
153.4040316942752
 30
0.0
 10
130.2412685011195
 20
153.4202612425517
 30
0.0
 10
130.8826827651178
 20
153.4836614690686
 30
0.0
 10
131.1944571805691
 20
153.5304835621667
 30
0.0
 10
131.6486556524947
 20
153.6228200637249
 30
0.0
 10
131.798536778287
 20
153.6575236445158
 30
0.0
 10
132.0879909481473
 20
153.7329683765448
 30
0.0
 10
132.2279987805998
 20
153.7737515845991
 30
0.0
 10
132.6342047896866
 20
153.9047913096663
 30
0.0
 10
132.8867216808327
 20
154.003663913021
 30
0.0
 10
133.3537369199743
 20
154.2236819550222
 30
0.0
 10
133.5605207588039
 20
154.3411806444679
 30
0.0
 10
133.8321522513826
 20
154.5269308881342
 30
0.0
 10
133.9162309603456
 20
154.5904496807033
 30
0.0
 10
134.0711624959209
 20
154.7205784993012
 30
0.0
 10
134.1421392837566
 20
154.7874101953432
 30
0.0
 10
134.3304416675745
 20
154.9880188031098
 30
0.0
 10
134.4251196148988
 20
155.1231769876248
 30
0.0
 10
134.553275609338
 20
155.3953771496713
 30
0.0
 10
134.5861097109398
 20
155.5332483298418
 30
0.0
 10
134.5863495995044
 20
155.7987842730832
 30
0.0
 10
134.5548168860067
 20
155.9278765117669
 30
0.0
 10
134.4269734003441
 20
156.1788733555228
 30
0.0
 10
134.3310809860307
 20
156.2987936967598
 30
0.0
 10
134.0821301568423
 20
156.5225733640726
 30
0.0
 10
133.9272380753712
 20
156.6281516713842
 30
0.0
 10
133.5621144215487
 20
156.8228172906514
 30
0.0
 10
133.3554100100215
 20
156.9103898377909
 30
0.0
 10
132.8949089123779
 20
157.0682024751026
 30
0.0
 10
132.6379962947285
 20
157.1389699980319
 30
0.0
 10
132.0949531102425
 20
157.2590573109185
 30
0.0
 10
131.8080288766481
 20
157.3090036907035
 30
0.0
 10
131.3543041195019
 20
157.3697423195837
 30
0.0
 10
131.1982681017084
 20
157.3876753832398
 30
0.0
 10
130.8840319498942
 20
157.4181568244582
 30
0.0
 10
130.725559414056
 20
157.4307768992487
 30
0.0
 10
130.24616935155
 20
157.4611094865926
 30
0.0
 10
129.9213180581895
 20
157.471386961291
 30
0.0
 10
129.2606596387862
 20
157.471584982897
 30
0.0
 10
128.9351324046688
 20
157.4614765441233
 30
0.0
 10
128.4556012569807
 20
157.4314197195447
 30
0.0
 10
128.2971213024907
 20
157.4188951936127
 30
0.0
 10
127.9829456340112
 20
157.3886237348939
 30
0.0
 10
127.8267442503216
 20
157.3707815632913
 30
0.0
 10
127.3723347607871
 20
157.310273733028
 30
0.0
 10
127.0850778125713
 20
157.2604834064801
 30
0.0
 10
126.5415223996988
 20
157.140772474608
 30
0.0
 10
126.284181406087
 20
157.0701683235658
 30
0.0
 10
125.8227861441589
 20
156.9126538501368
 30
0.0
 10
125.6157010148465
 20
156.8252520325715
 30
0.0
 10
125.2498316315175
 20
156.631018544127
 30
0.0
 10
125.0942187947624
 20
156.5254565542067
 30
0.0
 10
124.8442555632183
 20
156.3019755872253
 30
0.0
 10
124.7480267628076
 20
156.1825777009111
 30
0.0
 10
124.6186889366849
 20
155.9311773962525
 30
0.0
 10
124.5862299928285
 20
155.8012084949026
 30
0.0
 10
124.5862299928285
 20
155.5323188511561
 30
0.0
  0
LINE
  5
8E
330
1F
100
AcDbEntity
  8
0
  6
Continuous
 62
     7
370
    15
100
AcDbLine
 10
125.5362299928
 20
141.3394907909
 30
0.0
 11
137.3242009719
 21
141.3394907909
 31
0.0
  0
LINE
  5
8F
330
1F
100
AcDbEntity
  8
0
  6
Continuous
 62
     7
370
    15
100
AcDbLine
 10
137.3242009719
 20
61.2144971979
 30
0.0
 11
137.3242009719
 21
141.3394907909
 31
0.0
  0
LINE
  5
90
330
1F
100
AcDbEntity
  8
0
  6
Continuous
 62
     7
370
    15
100
AcDbLine
 10
137.3242009719
 20
61.2144971979
 30
0.0
 11
135.5362299928
 21
61.2144971979
 31
0.0
  0
SPLINE
  5
91
330
1F
100
AcDbEntity
  8
0
  6
Continuous
 62
     7
370
    15
100
AcDbSpline
210
0.0
220
0.0
230
1.0
 70
     8
 71
     3
 72
    30
 73
    26
 74
     0
 42
0.00000001
 43
0.00000001
 40
0.0
 40
0.0
 40
0.0
 40
0.0
 40
0.1250000000000002
 40
0.1250000000000002
 40
0.1875000000000003
 40
0.1875000000000003
 40
0.2500000000000004
 40
0.2500000000000004
 40
0.3750000000000001
 40
0.3750000000000001
 40
0.4374999999999998
 40
0.4374999999999998
 40
0.4999999999999996
 40
0.4999999999999996
 40
0.6249999999999996
 40
0.6249999999999996
 40
0.6874999999999997
 40
0.6874999999999997
 40
0.7499999999999997
 40
0.7499999999999997
 40
0.8124999999999998
 40
0.8124999999999998
 40
0.8749999999999999
 40
0.8749999999999999
 40
1.0
 40
1.0
 40
1.0
 40
1.0
 10
135.5362299928285
 20
61.2144971978705
 30
0.0
 10
134.8734852989835
 20
61.21449719787051
 30
0.0
 10
134.2222294398678
 20
61.19965712128169
 30
0.0
 10
133.2617789016095
 20
61.15728755705207
 30
0.0
 10
132.9443874583766
 20
61.1398094542729
 30
0.0
 10
132.3152239568217
 20
61.09848116772059
 30
0.0
 10
132.00307577038
 20
61.07455589426289
 30
0.0
 10
131.0957684685317
 20
60.99574937779598
 30
0.0
 10
130.5223435108905
 20
60.93344335781952
 30
0.0
 10
129.7084666413158
 20
60.83031403758016
 30
0.0
 10
129.4436604447459
 20
60.79413011853365
 30
0.0
 10
128.9367530339316
 20
60.72033533433314
 30
0.0
 10
128.6953588825781
 20
60.6828614755615
 30
0.0
 10
128.0062174104458
 20
60.57014953222176
 30
0.0
 10
127.5931625955815
 20
60.49461343474798
 30
0.0
 10
127.0450077762065
 20
60.38622017773049
 30
0.0
 10
126.8755451688609
 20
60.35114794606722
 30
0.0
 10
126.5675279208455
 20
60.28491248546738
 30
0.0
 10
126.4281479002371
 20
60.25358578871266
 30
0.0
 10
126.1783623876104
 20
60.19517701713172
 30
0.0
 10
126.0679562749565
 20
60.16809378194887
 30
0.0
 10
125.8766984213188
 20
60.11883402733529
 30
0.0
 10
125.7955789030345
 20
60.09657204752764
 30
0.0
 10
125.6014319829261
 20
60.03900514035937
 30
0.0
 10
125.5362299928285
 20
60.01274553557338
 30
0.0
 10
125.5362299928285
 20
59.99949179109935
 30
0.0
  0
LINE
  5
92
330
1F
100
AcDbEntity
  8
0
  6
Continuous
 62
     7
370
    15
100
AcDbLine
 10
125.5362299928
 20
59.9994917911
 30
0.0
 11
125.5362299928
 21
59.9894907909
 31
0.0
  0
SPLINE
  5
93
330
1F
100
AcDbEntity
  8
0
  6
Continuous
 62
     7
370
    15
100
AcDbSpline
210
0.0
220
0.0
230
1.0
 70
     8
 71
     3
 72
    23
 73
    19
 74
     0
 42
0.00000001
 43
0.00000001
 40
0.0
 40
0.0
 40
0.0
 40
0.0
 40
0.0520256687590417
 40
0.1044186119084699
 40
0.1579654762732603
 40
0.2119084390155455
 40
0.2639329008030786
 40
0.3697142245600881
 40
0.4235868577364621
 40
0.4762679679182533
 40
0.5833878371337101
 40
0.6379530306539528
 40
0.6910551819358521
 40
0.7445319929992287
 40
0.7992014233075218
 40
0.8542881036302091
 40
0.9066815619543741
 40
1.0
 40
1.0
 40
1.0
 40
1.0
 10
135.5362299928285
 20
158.9792856465629
 30
0.0
 10
135.2632175956336
 20
158.9806072150697
 30
0.0
 10
134.7152654745193
 20
158.9832596816754
 30
0.0
 10
133.8921191170641
 20
159.004734570103
 30
0.0
 10
133.0708740164719
 20
159.0389522887711
 30
0.0
 10
132.2694452063637
 20
159.0860041989384
 30
0.0
 10
131.2370619522208
 20
159.1629931497643
 30
0.0
 10
130.2598139375968
 20
159.2588704004248
 30
0.0
 10
129.3587669263408
 20
159.365799848213
 30
0.0
 10
128.5097931472394
 20
159.4776466560534
 30
0.0
 10
127.7522247016312
 20
159.5918752547828
 30
0.0
 10
127.1072364111817
 20
159.6984550011466
 30
0.0
 10
126.6826625379839
 20
159.7723849575478
 30
0.0
 10
126.3201058883348
 20
159.8382755156045
 30
0.0
 10
126.0189043312111
 20
159.8949718668187
 30
0.0
 10
125.7916507591763
 20
159.9389081130534
 30
0.0
 10
125.5855434619538
 20
159.9795665598814
 30
0.0
 10
125.5648565239208
 20
159.9837499992709
 30
0.0
 10
125.5516079643091
 20
159.9864292041897
 30
0.0
  0
LINE
  5
94
330
1F
100
AcDbEntity
  8
0
  6
Continuous
 62
     7
370
    15
100
AcDbLine
 10
137.3242009719
 20
158.9792856466
 30
0.0
 11
135.5362299928
 21
158.9792856466
 31
0.0
  0
LINE
  5
95
330
1F
100
AcDbEntity
  8
0
  6
Continuous
 62
     7
370
    15
100
AcDbLine
 10
137.3242009719
 20
148.9404535518
 30
0.0
 11
137.3242009719
 21
158.9792856466
 31
0.0
  0
LINE
  5
96
330
1F
100
AcDbEntity
  8
0
  6
Continuous
 62
     7
370
    15
100
AcDbLine
 10
135.244196841
 20
148.9404535518
 30
0.0
 11
137.3242009719
 21
148.9404535518
 31
0.0
  0
SPLINE
  5
97
330
1F
100
AcDbEntity
  8
0
  6
Continuous
 62
     7
370
    15
100
AcDbSpline
210
0.0
220
0.0
230
1.0
 70
     8
 71
     3
 72
    22
 73
    18
 74
     0
 42
0.00000001
 43
0.00000001
 40
0.0
 40
0.0
 40
0.0
 40
0.0
 40
0.2500000000000001
 40
0.2500000000000001
 40
0.3750000000000001
 40
0.3750000000000001
 40
0.5000000000000001
 40
0.5000000000000001
 40
0.6250000000000001
 40
0.6250000000000001
 40
0.7500000000000002
 40
0.7500000000000002
 40
0.8750000000000002
 40
0.8750000000000002
 40
0.9375000000000001
 40
0.9375000000000001
 40
1.0
 40
1.0
 40
1.0
 40
1.0
 10
125.5362299928285
 20
141.3394907908993
 30
0.0
 10
125.7389549487476
 20
142.3587371327639
 30
0.0
 10
126.053698670543
 20
143.3178452827032
 30
0.0
 10
126.761754140214
 20
144.6603243602125
 30
0.0
 10
127.0402167704316
 20
145.0945329429525
 30
0.0
 10
127.6789841770688
 20
145.9061606584546
 30
0.0
 10
128.039397856859
 20
146.2854409513915
 30
0.0
 10
128.8569300888483
 20
146.9883995304124
 30
0.0
 10
129.3180980721354
 20
147.3134283481131
 30
0.0
 10
130.3160883186192
 20
147.8784436715039
 30
0.0
 10
130.8558475126115
 20
148.1221472657105
 30
0.0
 10
132.0304404766428
 20
148.5263471933554
 30
0.0
 10
132.6421766626347
 20
148.6787843864009
 30
0.0
 10
133.5940858874964
 20
148.8341119340096
 30
0.0
 10
133.9173190517571
 20
148.8736167140597
 30
0.0
 10
134.5763822230323
 20
148.9269258347284
 30
0.0
 10
134.9104462336063
 20
148.9404535517862
 30
0.0
 10
135.2441968410079
 20
148.9404535517862
 30
0.0
  0
LINE
  5
98
330
1F
100
AcDbEntity
  8
0
  6
Continuous
 62
     7
370
    15
100
AcDbLine
 10
120.5862299928
 20
60.4894907909
 30
0.0
 11
120.5862299928
 21
159.4894907862
 31
0.0
  0
LINE
  5
99
330
1F
100
AcDbEntity
  8
0
  6
Continuous
 62
     7
370
    15
100
AcDbLine
 10
138.6762299928
 20
63.6181025039
 30
0.0
 11
138.6762299928
 21
141.3394907909
 31
0.0
  0
SPLINE
  5
9A
330
1F
100
AcDbEntity
  8
0
  6
Continuous
 62
     7
370
    15
100
AcDbSpline
210
0.0
220
0.0
230
1.0
 70
     8
 71
     3
 72
     8
 73
     4
 74
     0
 42
0.00000001
 43
0.00000001
 40
0.0
 40
0.0
 40
0.0
 40
0.0
 40
1.0
 40
1.0
 40
1.0
 40
1.0
 10
138.6762299928286
 20
63.61810250387584
 30
0.0
 10
138.2260035285508
 20
62.81664714125107
 30
0.0
 10
137.7753057013074
 20
62.0154571296904
 30
0.0
 10
137.3242009719072
 20
61.2144971978705
 30
0.0
  0
SPLINE
  5
9B
330
1F
100
AcDbEntity
  8
0
  6
Continuous
 62
     7
370
    15
100
AcDbSpline
210
0.0
220
0.0
230
1.0
 70
    24
 71
     3
 72
     8
 73
     4
 74
     0
 42
0.00000001
 43
0.00000001
 40
0.0
 40
0.0
 40
0.0
 40
0.0
 40
1.0
 40
1.0
 40
1.0
 40
1.0
 10
137.3242009719072
 20
141.3394907908993
 30
0.0
 10
137.7810025442354
 20
141.3394907908993
 30
0.0
 10
138.2320171104746
 20
141.3394907908993
 30
0.0
 10
138.6762299928286
 20
141.3394907908993
 30
0.0
  0
LINE
  5
9C
330
1F
100
AcDbEntity
  8
0
  6
Continuous
 62
     7
370
    15
100
AcDbLine
 10
143.8482590137
 20
61.2144971979
 30
0.0
 11
143.8482590137
 21
141.3394907909
 31
0.0
  0
SPLINE
  5
9D
330
1F
100
AcDbEntity
  8
0
  6
Continuous
 62
     7
370
    15
100
AcDbSpline
210
0.0
220
0.0
230
1.0
 70
     8
 71
     3
 72
     8
 73
     4
 74
     0
 42
0.00000001
 43
0.00000001
 40
0.0
 40
0.0
 40
0.0
 40
0.0
 40
1.0
 40
1.0
 40
1.0
 40
1.0
 10
143.8482590137499
 20
61.2144971978705
 30
0.0
 10
143.3971542843497
 20
62.01545712969041
 30
0.0
 10
142.9464564571063
 20
62.81664714125107
 30
0.0
 10
142.4962299928285
 20
63.61810250387584
 30
0.0
  0
LINE
  5
9E
330
1F
100
AcDbEntity
  8
0
  6
Continuous
 62
     7
370
    15
100
AcDbLine
 10
142.4962299928
 20
63.6181025039
 30
0.0
 11
142.4962299928
 21
141.3394907909
 31
0.0
  0
SPLINE
  5
9F
330
1F
100
AcDbEntity
  8
0
  6
Continuous
 62
     7
370
    15
100
AcDbSpline
210
0.0
220
0.0
230
1.0
 70
    24
 71
     3
 72
     8
 73
     4
 74
     0
 42
0.00000001
 43
0.00000001
 40
0.0
 40
0.0
 40
0.0
 40
0.0
 40
1.0
 40
1.0
 40
1.0
 40
1.0
 10
142.4962299928285
 20
141.3394907908993
 30
0.0
 10
142.9404428751825
 20
141.3394907908993
 30
0.0
 10
143.3914574414217
 20
141.3394907908993
 30
0.0
 10
143.8482590137499
 20
141.3394907908993
 30
0.0
  0
LINE
  5
A0
330
1F
100
AcDbEntity
  8
0
  6
Continuous
 62
     7
370
    15
100
AcDbLine
 10
149.5362299928
 20
62.2401452456
 30
0.0
 11
149.5362299928
 21
141.3394907909
 31
0.0
  0
SPLINE
  5
A1
330
1F
100
AcDbEntity
  8
0
  6
Continuous
 62
     7
370
    15
100
AcDbSpline
210
0.0
220
0.0
230
1.0
 70
     8
 71
     3
 72
    14
 73
    10
 74
     0
 42
0.00000001
 43
0.00000001
 40
0.0
 40
0.0
 40
0.0
 40
0.0
 40
0.25
 40
0.25
 40
0.5
 40
0.5
 40
0.75
 40
0.75
 40
1.0
 40
1.0
 40
1.0
 40
1.0
 10
149.5362299928286
 20
62.240145245646
 30
0.0
 10
149.5362299928286
 20
62.10671954959147
 30
0.0
 10
149.5109188929177
 20
61.97487174174712
 30
0.0
 10
149.4125841290729
 20
61.72834919305301
 30
0.0
 10
149.3394401248169
 20
61.61454400481247
 30
0.0
 10
149.1560020637212
 20
61.4240868278652
 30
0.0
 10
149.0443157293826
 20
61.34645196401528
 30
0.0
 10
148.8018122990763
 20
61.24216055390281
 30
0.0
 10
148.6684378703821
 20
61.21449719787046
 30
0.0
 10
148.5362299928286
 20
61.21449719787046
 30
0.0
  0
SPLINE
  5
A2
330
1F
100
AcDbEntity
  8
0
  6
Continuous
 62
     7
370
    15
100
AcDbSpline
210
0.0
220
0.0
230
1.0
 70
    24
 71
     3
 72
    12
 73
     8
 74
     0
 42
0.00000001
 43
0.00000001
 40
0.0
 40
0.0
 40
0.0
 40
0.0
 40
0.2500000000000032
 40
0.2500000000000032
 40
0.5000000000000064
 40
0.5000000000000064
 40
1.0
 40
1.0
 40
1.0
 40
1.0
 10
148.5362299928286
 20
141.3394907908993
 30
0.0
 10
148.6883202297735
 20
141.3394907908993
 30
0.0
 10
148.836779490849
 20
141.3394907908993
 30
0.0
 10
149.0941831231147
 20
141.3394907908993
 30
0.0
 10
149.2032878709566
 20
141.3394907908993
 30
0.0
 10
149.4573473473641
 20
141.3394907908993
 30
0.0
 10
149.5362299928286
 20
141.3394907908993
 30
0.0
 10
149.5362299928286
 20
141.3394907908993
 30
0.0
  0
LINE
  5
A3
330
1F
100
AcDbEntity
  8
0
  6
Continuous
 62
     7
370
    15
100
AcDbLine
 10
148.5362299928
 20
61.2144971979
 30
0.0
 11
143.8482590137
 21
61.2144971979
 31
0.0
  0
LINE
  5
A4
330
1F
100
AcDbEntity
  8
0
  6
Continuous
 62
     7
370
    15
100
AcDbLine
 10
143.8482590137
 20
141.3394907909
 30
0.0
 11
148.5362299928
 21
141.3394907909
 31
0.0
  0
SPLINE
  5
A5
330
1F
100
AcDbEntity
  8
0
  6
Continuous
 62
     7
370
    15
100
AcDbSpline
210
0.0
220
0.0
230
1.0
 70
     8
 71
     3
 72
    14
 73
    10
 74
     0
 42
0.00000001
 43
0.00000001
 40
0.0
 40
0.0
 40
0.0
 40
0.0
 40
0.25
 40
0.25
 40
0.5
 40
0.5
 40
0.75
 40
0.75
 40
1.0
 40
1.0
 40
1.0
 40
1.0
 10
142.4962299928285
 20
64.52631200850442
 30
0.0
 10
142.4962299928285
 20
64.6333560894988
 30
0.0
 10
142.4761123056704
 20
64.73859122974123
 30
0.0
 10
142.3976211164047
 20
64.93644171658894
 30
0.0
 10
142.3394644916035
 20
65.02749348015385
 30
0.0
 10
142.1929492359855
 20
65.18065957407863
 30
0.0
 10
142.1043066873444
 20
65.24295402028804
 30
0.0
 10
141.9085833645441
 20
65.32774780582403
 30
0.0
 10
141.8033521734731
 20
65.34981533284966
 30
0.0
 10
141.6962299928285
 20
65.34981533284967
 30
0.0
  0
SPLINE
  5
A6
330
1F
100
AcDbEntity
  8
0
  6
Continuous
 62
     7
370
    15
100
AcDbSpline
210
0.0
220
0.0
230
1.0
 70
    24
 71
     3
 72
    14
 73
    10
 74
     0
 42
0.00000001
 43
0.00000001
 40
0.0
 40
0.0
 40
0.0
 40
0.0
 40
0.25
 40
0.25
 40
0.5
 40
0.5
 40
0.75
 40
0.75
 40
1.0
 40
1.0
 40
1.0
 40
1.0
 10
141.6962299928285
 20
141.3394907908993
 30
0.0
 10
141.8199997575937
 20
141.3394907908993
 30
0.0
 10
141.9443668616006
 20
141.3394907908993
 30
0.0
 10
142.1507233303266
 20
141.3394907908993
 30
0.0
 10
142.236051473745
 20
141.3394907908993
 30
0.0
 10
142.3682435324602
 20
141.3394907908993
 30
0.0
 10
142.4168887762108
 20
141.3394907908993
 30
0.0
 10
142.4804245679395
 20
141.3394907908993
 30
0.0
 10
142.4962299928286
 20
141.3394907908993
 30
0.0
 10
142.4962299928285
 20
141.3394907908993
 30
0.0
  0
SPLINE
  5
A7
330
1F
100
AcDbEntity
  8
0
  6
Continuous
 62
     7
370
    15
100
AcDbSpline
210
0.0
220
0.0
230
1.0
 70
     8
 71
     3
 72
    12
 73
     8
 74
     0
 42
0.00000001
 43
0.00000001
 40
0.0
 40
0.0
 40
0.0
 40
0.0
 40
0.25
 40
0.25
 40
0.5
 40
0.5
 40
1.0
 40
1.0
 40
1.0
 40
1.0
 10
139.4762299928285
 20
65.34981533284967
 30
0.0
 10
139.3704693394796
 20
65.34981533284964
 30
0.0
 10
139.2624817112967
 20
65.32727582684925
 30
0.0
 10
139.0678870460311
 20
65.24270519485395
 30
0.0
 10
138.9790151331922
 20
65.18022354209515
 30
0.0
 10
138.7598228408663
 20
64.95083459062299
 30
0.0
 10
138.6762299928285
 20
64.7382512531006
 30
0.0
 10
138.6762299928285
 20
64.52631200850442
 30
0.0
  0
SPLINE
  5
A8
330
1F
100
AcDbEntity
  8
0
  6
Continuous
 62
     7
370
    15
100
AcDbSpline
210
0.0
220
0.0
230
1.0
 70
    24
 71
     3
 72
    14
 73
    10
 74
     0
 42
0.00000001
 43
0.00000001
 40
0.0
 40
0.0
 40
0.0
 40
0.0
 40
0.25
 40
0.25
 40
0.5
 40
0.5
 40
0.75
 40
0.75
 40
1.0
 40
1.0
 40
1.0
 40
1.0
 10
138.6762299928285
 20
141.3394907908993
 30
0.0
 10
138.6762299928285
 20
141.3394907908993
 30
0.0
 10
138.6919443132945
 20
141.3394907908993
 30
0.0
 10
138.7556282917629
 20
141.3394907908993
 30
0.0
 10
138.8042314861733
 20
141.3394907908993
 30
0.0
 10
138.9369150085989
 20
141.3394907908993
 30
0.0
 10
139.0220171129096
 20
141.3394907908993
 30
0.0
 10
139.2284593478196
 20
141.3394907908993
 30
0.0
 10
139.3525402894426
 20
141.3394907908993
 30
0.0
 10
139.4762299928285
 20
141.3394907908993
 30
0.0
  0
LINE
  5
A9
330
1F
100
AcDbEntity
  8
0
  6
Continuous
 62
     7
370
    15
100
AcDbLine
 10
141.6962299928
 20
65.3498153328
 30
0.0
 11
139.4762299928
 21
65.3498153328
 31
0.0
  0
LINE
  5
AA
330
1F
100
AcDbEntity
  8
0
  6
Continuous
 62
     7
370
    15
100
AcDbLine
 10
139.4762299928
 20
141.3394907909
 30
0.0
 11
141.6962299928
 21
141.3394907909
 31
0.0
  0
SPLINE
  5
AB
330
1F
100
AcDbEntity
  8
0
  6
Continuous
 62
     7
370
    15
100
AcDbSpline
210
0.0
220
0.0
230
1.0
 70
     8
 71
     3
 72
    24
 73
    20
 74
     0
 42
0.00000001
 43
0.00000001
 40
0.0
 40
0.0
 40
0.0
 40
0.0
 40
0.0317655311506185
 40
0.1089433719782341
 40
0.1652345000248119
 40
0.216507280003651
 40
0.2627649833701413
 40
0.3040126463446769
 40
0.4056965127694301
 40
0.4986657461448303
 40
0.5934774663335023
 40
0.626242566410555
 40
0.6595791465765058
 40
0.6934949436780952
 40
0.7788232074680476
 40
0.8885630903677976
 40
0.9460681960858707
 40
0.9977786619494883
 40
1.0
 40
1.0
 40
1.0
 40
1.0
 10
205.9079703734787
 20
102.4127746444689
 30
0.0
 10
206.071353738989
 20
102.5123763502771
 30
0.0
 10
206.6316949049984
 20
102.8539713210673
 30
0.0
 10
207.3766824422855
 20
103.5213669371037
 30
0.0
 10
208.1206335320506
 20
104.3460648830662
 30
0.0
 10
208.6596685271894
 20
105.100833503121
 30
0.0
 10
209.078259727037
 20
105.8257071143902
 30
0.0
 10
209.5601477946511
 20
106.8612214371804
 30
0.0
 10
209.9738467712588
 20
108.2387087295631
 30
0.0
 10
210.1406733031151
 20
109.995900576577
 30
0.0
 10
210.0119973938566
 20
111.3367851525025
 30
0.0
 10
209.7949398764305
 20
112.2869592446555
 30
0.0
 10
209.6211248150758
 20
112.8669005362515
 30
0.0
 10
209.2971947593253
 20
113.7304649053226
 30
0.0
 10
208.6576447455763
 20
114.9602035937992
 30
0.0
 10
207.702927110787
 20
116.1598121178194
 30
0.0
 10
206.7136958366541
 20
117.0276383292881
 30
0.0
 10
206.1771894623793
 20
117.4345646711858
 30
0.0
 10
205.8951165300278
 20
117.5956435212028
 30
0.0
 10
205.883498536707
 20
117.6022780216776
 30
0.0
  0
SPLINE
  5
AC
330
1F
100
AcDbEntity
  8
0
  6
Continuous
 62
     7
370
    15
100
AcDbSpline
210
0.0
220
0.0
230
1.0
 70
     8
 71
     3
 72
    24
 73
    20
 74
     0
 42
0.00000001
 43
0.00000001
 40
0.0
 40
0.0
 40
0.0
 40
0.0
 40
0.0018486716124063
 40
0.1107324203486984
 40
0.1686975383629267
 40
0.2205444797279951
 40
0.2662753789320544
 40
0.3058944494202543
 40
0.405661268450969
 40
0.5003995221680669
 40
0.5931748273851941
 40
0.6260863139061124
 40
0.659982660315695
 40
0.6948709117754537
 40
0.7508827965714643
 40
0.8157532703123159
 40
0.8894899679170015
 40
0.9485154087920623
 40
1.0
 40
1.0
 40
1.0
 40
1.0
 10
196.287318979618
 20
117.5999821755019
 30
0.0
 10
196.2774139767434
 20
117.5948455114958
 30
0.0
 10
195.6841204277391
 20
117.2871676989022
 30
0.0
 10
194.9191886781989
 20
116.5862822161848
 30
0.0
 10
194.0351102109575
 20
115.6152086986668
 30
0.0
 10
193.4931640102412
 20
114.8472570595587
 30
0.0
 10
193.0817964542625
 20
114.1283250719904
 30
0.0
 10
192.6120555216041
 20
113.1127445103452
 30
0.0
 10
192.1993540433709
 20
111.7444609993635
 30
0.0
 10
192.0317871358664
 20
109.9975542282895
 30
0.0
 10
192.1592101826878
 20
108.655917095826
 30
0.0
 10
192.3721757660548
 20
107.7117435874754
 30
0.0
 10
192.5479953890469
 20
107.1209157789721
 30
0.0
 10
192.8131783102316
 20
106.4134808895525
 30
0.0
 10
193.2235604878856
 20
105.5647929522587
 30
0.0
 10
193.8599901399439
 20
104.5751004346573
 30
0.0
 10
194.6405126737289
 20
103.6726927658983
 30
0.0
 10
195.467115315823
 20
102.9289119018269
 30
0.0
 10
196.0196398609785
 20
102.556419218143
 30
0.0
 10
196.2770508833399
 20
102.3828817285058
 30
0.0
  0
SPLINE
  5
AD
330
1F
100
AcDbEntity
  8
0
  6
Continuous
 62
     7
370
    15
100
AcDbSpline
210
0.0
220
0.0
230
1.0
 70
     8
 71
     3
 72
    40
 73
    36
 74
     0
 42
0.00000001
 43
0.00000001
 40
-0.0930529936543822
 40
-0.062073785467575
 40
-0.0309041680077559
 40
0.0
 40
0.0309283531728465
 40
0.0621115497208955
 40
0.0930971972434387
 40
0.1244410328646825
 40
0.1555722266819728
 40
0.1870437201601311
 40
0.218659062776785
 40
0.2499107538239929
 40
0.2814202246668789
 40
0.312861512002805
 40
0.3442768401262386
 40
0.3756335873870004
 40
0.4067800094045441
 40
0.4379548564338415
 40
0.46918525493334
 40
0.499983773956393
 40
0.5307788000954038
 40
0.5620438124229473
 40
0.593231515307843
 40
0.624382913213097
 40
0.6557161089804673
 40
0.6871148352457442
 40
0.7185264871803807
 40
0.7500303800250196
 40
0.7709087626160717
 40
0.7917738984695722
 40
0.8129805669660506
 40
0.8444602465470231
 40
0.875620986835769
 40
0.9069470063456176
 40
0.9379262145324249
 40
0.969095831992244
 40
0.9999999999999999
 40
1.030928353172846
 40
1.062111549720895
 40
1.093097197243439
 10
203.0191614677285
 20
100.1562430586279
 30
0.0
 10
201.0857099730959
 20
99.96662105808849
 30
0.0
 10
199.1520799161734
 20
100.1569118171665
 30
0.0
 10
197.3003743693538
 20
100.7342819394787
 30
0.0
 10
195.5924931218488
 20
101.6575120864661
 30
0.0
 10
194.109802655005
 20
102.9022259132177
 30
0.0
 10
192.8846966719397
 20
104.4143791095455
 30
0.0
 10
191.9814055542892
 20
106.1491874339408
 30
0.0
 10
191.4071597876789
 20
108.0284699359963
 30
0.0
 10
191.2184197566806
 20
109.9902250522577
 30
0.0
 10
191.4037015435203
 20
111.9485657988803
 30
0.0
 10
191.9722443903614
 20
113.8304691866536
 30
0.0
 10
192.8810111253808
 20
115.5626541120283
 30
0.0
 10
194.106335297409
 20
117.0736980052231
 30
0.0
 10
195.594358265298
 20
118.3193944163027
 30
0.0
 10
197.3050855966946
 20
119.2388586482879
 30
0.0
 10
199.1571885092505
 20
119.8208913675592
 30
0.0
 10
201.0869732001218
 20
120.013090183745
 30
0.0
 10
203.0174206845784
 20
119.8201907057718
 30
0.0
 10
204.8701058768451
 20
119.2370230040669
 30
0.0
 10
206.5816446505584
 20
118.3168135414071
 30
0.0
 10
208.0691585598314
 20
117.0706260515481
 30
0.0
 10
209.2933333214809
 20
115.559620924178
 30
0.0
 10
210.2009421262297
 20
113.8284174221022
 30
0.0
 10
210.76888235077
 20
111.9476781919938
 30
0.0
 10
210.933088609444
 20
110.2048964709918
 30
0.0
 10
210.8364990906855
 20
108.684482945754
 30
0.0
 10
210.5809606252406
 20
107.4007972466362
 30
0.0
 10
210.091250951713
 20
105.9563339470133
 30
0.0
 10
209.2867316218569
 20
104.4117567607633
 30
0.0
 10
208.0605918461857
 20
102.9002029287992
 30
0.0
 10
206.5772655790276
 20
101.6560307579481
 30
0.0
 10
204.869959943939
 20
100.7334964653492
 30
0.0
 10
203.0191614677285
 20
100.1562430586279
 30
0.0
 10
201.0857099730959
 20
99.96662105808849
 30
0.0
 10
199.1520799161734
 20
100.1569118171665
 30
0.0
  0
SPLINE
  5
AE
330
1F
100
AcDbEntity
  8
0
  6
Continuous
 62
     7
370
    15
100
AcDbSpline
210
0.0
220
0.0
230
1.0
 70
     8
 71
     3
 72
    40
 73
    36
 74
     0
 42
0.00000001
 43
0.00000001
 40
-0.0930529936532497
 40
-0.062073785467566
 40
-0.0309041680075195
 40
0.0
 40
0.0309283531728467
 40
0.0621115497208962
 40
0.0930971972434399
 40
0.1244410328646843
 40
0.155572226681975
 40
0.1870437201601339
 40
0.218659062776788
 40
0.2499107538239965
 40
0.2814202246674584
 40
0.3128615120028311
 40
0.3442768401268266
 40
0.3756335873870063
 40
0.4067800094054077
 40
0.4379548564338812
 40
0.469185254934178
 40
0.4999837739563981
 40
0.5307788000954097
 40
0.5620438124229536
 40
0.5932315153078496
 40
0.6243829132131042
 40
0.6557161089793074
 40
0.6871148352457092
 40
0.7185264871786147
 40
0.7500303800250051
 40
0.7709087626138326
 40
0.7917738984673333
 40
0.8129805669659784
 40
0.8444602465459983
 40
0.8756209868358026
 40
0.9069470063467503
 40
0.937926214532434
 40
0.9690958319924805
 40
1.0
 40
1.030928353172847
 40
1.062111549720896
 40
1.09309719724344
 10
171.0191614677222
 20
100.1562430586325
 30
0.0
 10
169.0857099730912
 20
99.96662105808748
 30
0.0
 10
167.1520799161733
 20
100.1569118171669
 30
0.0
 10
165.3003743693538
 20
100.7342819394786
 30
0.0
 10
163.5924931218489
 20
101.6575120864662
 30
0.0
 10
162.109802655005
 20
102.9022259132177
 30
0.0
 10
160.8846966719396
 20
104.4143791095455
 30
0.0
 10
159.9814055542894
 20
106.1491874339408
 30
0.0
 10
159.4071597876781
 20
108.0284699359964
 30
0.0
 10
159.2184197566824
 20
109.9902250522693
 30
0.0
 10
159.4037015435116
 20
111.9485657988942
 30
0.0
 10
159.9722443903706
 20
113.8304691866754
 30
0.0
 10
160.881011125396
 20
115.5626541120331
 30
0.0
 10
162.10633529743
 20
117.0736980052429
 30
0.0
 10
163.5943582653037
 20
118.3193944163256
 30
0.0
 10
165.3050855967265
 20
119.2388586483016
 30
0.0
 10
167.1571885092709
 20
119.8208913675463
 30
0.0
 10
169.0869732001385
 20
120.0130901837477
 30
0.0
 10
171.0174206845785
 20
119.8201907057705
 30
0.0
 10
172.8701058768454
 20
119.2370230040675
 30
0.0
 10
174.5816446505572
 20
118.3168135414061
 30
0.0
 10
176.0691585598179
 20
117.0706260515673
 30
0.0
 10
177.2933333214482
 20
115.5596209241857
 30
0.0
 10
178.2009421262089
 20
113.8284174221587
 30
0.0
 10
178.7688823507723
 20
111.9476781920318
 30
0.0
 10
178.93308860944
 20
110.2048964710746
 30
0.0
 10
178.8364990906957
 20
108.6844829458456
 30
0.0
 10
178.5809606252335
 20
107.4007972467327
 30
0.0
 10
178.0912509517462
 20
105.956333947072
 30
0.0
 10
177.2867316219129
 20
104.4117567607517
 30
0.0
 10
176.060591846179
 20
102.9002029288015
 30
0.0
 10
174.5772655790031
 20
101.6560307579439
 30
0.0
 10
172.869959943914
 20
100.7334964653363
 30
0.0
 10
171.0191614677222
 20
100.1562430586325
 30
0.0
 10
169.0857099730912
 20
99.96662105808748
 30
0.0
 10
167.1520799161733
 20
100.1569118171669
 30
0.0
  0
SPLINE
  5
AF
330
1F
100
AcDbEntity
  8
0
  6
Continuous
 62
     7
370
    15
100
AcDbSpline
210
0.0
220
0.0
230
1.0
 70
     8
 71
     3
 72
     9
 73
     5
 74
     0
 42
0.00000001
 43
0.00000001
 40
0.0
 40
0.0
 40
0.0
 40
0.0
 40
0.8042225042770942
 40
1.0
 40
1.0
 40
1.0
 40
1.0
 10
152.6369184503001
 20
149.918789631674
 30
0.0
 10
152.7095316041713
 20
149.9148988709271
 30
0.0
 10
152.7998214847516
 20
149.9100609551437
 30
0.0
 10
152.903321120912
 20
149.9057821545093
 30
0.0
 10
152.9235840204877
 20
149.9049444616364
 30
0.0
  0
SPLINE
  5
B0
330
1F
100
AcDbEntity
  8
0
  6
Continuous
 62
     7
370
    15
100
AcDbSpline
210
0.0
220
0.0
230
1.0
 70
     8
 71
     3
 72
    38
 73
    34
 74
     0
 42
0.00000001
 43
0.00000001
 40
0.0
 40
0.0
 40
0.0
 40
0.0
 40
0.0086880203831011
 40
0.0342070558461487
 40
0.0578941101026717
 40
0.1060563366403133
 40
0.1305803729608332
 40
0.154670337622692
 40
0.2035967024549811
 40
0.2284739501720947
 40
0.2539238705212156
 40
0.3055959749331473
 40
0.3318608813505113
 40
0.3589927273797981
 40
0.4141010566712217
 40
0.44212958581331
 40
0.4705791804445957
 40
0.4992196813376671
 40
0.5284603036577687
 40
0.5579080099495004
 40
0.5868502656281002
 40
0.6159966438522666
 40
0.6457970612556941
 40
0.6758285885379635
 40
0.7042504813812095
 40
0.7621495276777076
 40
0.7917217690681899
 40
0.8186485057850066
 40
0.8735410291931084
 40
0.9016019868172601
 40
0.9266506084592089
 40
0.977684908455346
 40
1.0
 40
1.0
 40
1.0
 40
1.0
 10
158.5295547966786
 20
149.9889854580269
 30
0.0
 10
158.5318061796755
 20
149.9891558253084
 30
0.0
 10
158.5406704756265
 20
149.9898266067814
 30
0.0
 10
158.5169028385257
 20
149.9880225444205
 30
0.0
 10
158.4649570915081
 20
149.9841127075351
 30
0.0
 10
158.3668666579375
 20
149.9768516918615
 30
0.0
 10
158.2305597469043
 20
149.9672125755177
 30
0.0
 10
158.0675708777285
 20
149.9560789938801
 30
0.0
 10
157.8675641405043
 20
149.9432063953864
 30
0.0
 10
157.6330262351468
 20
149.9294368202037
 30
0.0
 10
157.3714550532622
 20
149.9151272603205
 30
0.0
 10
157.0768460837522
 20
149.9009147046821
 30
0.0
 10
156.7545851965585
 20
149.8878959739209
 30
0.0
 10
156.4075464813965
 20
149.875768573198
 30
0.0
 10
156.0355144017966
 20
149.8660006618059
 30
0.0
 10
155.6481772893108
 20
149.8595328116252
 30
0.0
 10
155.3485800545178
 20
149.8564773609904
 30
0.0
 10
155.0426429984776
 20
149.8553946933717
 30
0.0
 10
154.7330978139502
 20
149.8563959287979
 30
0.0
 10
154.424600213598
 20
149.8595057471111
 30
0.0
 10
154.120727898683
 20
149.8646148594158
 30
0.0
 10
153.8220619995349
 20
149.8716000433444
 30
0.0
 10
153.5285479424313
 20
149.8803709659043
 30
0.0
 10
153.2486241606354
 20
149.8905155296773
 30
0.0
 10
152.8972342061064
 20
149.9053243560612
 30
0.0
 10
152.5765066839942
 20
149.921590498989
 30
0.0
 10
152.2993956419137
 20
149.9375727730345
 30
0.0
 10
152.0566106226368
 20
149.9525867800409
 30
0.0
 10
151.8589939488471
 20
149.9659523567757
 30
0.0
 10
151.7134458750928
 20
149.9763274166667
 30
0.0
 10
151.605314849198
 20
149.9842508133644
 30
0.0
 10
151.5432229053801
 20
149.9889598198764
 30
0.0
 10
151.5390526679296
 20
149.9892765013908
 30
0.0
 10
151.5377839562401
 20
149.9893728454345
 30
0.0
  0
SPLINE
  5
B1
330
1F
100
AcDbEntity
  8
0
  6
Continuous
 62
     7
370
    15
100
AcDbSpline
210
0.0
220
0.0
230
1.0
 70
     8
 71
     3
 72
    27
 73
    23
 74
     0
 42
0.00000001
 43
0.00000001
 40
0.0
 40
0.0
 40
0.0
 40
0.0
 40
0.0059284810432187
 40
0.0560775024965548
 40
0.1035646700490426
 40
0.152362660069835
 40
0.2011724191052567
 40
0.2512444344836544
 40
0.3030500614905797
 40
0.3561851254428994
 40
0.411315078768457
 40
0.4679157441107485
 40
0.5253792238502596
 40
0.5844724732086559
 40
0.6424930150421005
 40
0.7022779935540446
 40
0.7587888352912756
 40
0.817139658786813
 40
0.8703249996904279
 40
0.9252860225745712
 40
0.974813541919496
 40
1.0
 40
1.0
 40
1.0
 40
1.0
 10
151.5409338239704
 20
69.98984671688012
 30
0.0
 10
151.5394107367498
 20
69.98973148226287
 30
0.0
 10
151.5250038546512
 20
69.98864147801214
 30
0.0
 10
151.5835564921878
 20
69.9930989820258
 30
0.0
 10
151.7197449638368
 20
70.00318447880093
 30
0.0
 10
151.9423333625498
 20
70.01883668727248
 30
0.0
 10
152.2398573285875
 20
70.03807418991148
 30
0.0
 10
152.6098508879772
 20
70.05935397669455
 30
0.0
 10
153.0482904315166
 20
70.08072135972151
 30
0.0
 10
153.5496733706181
 20
70.10001312602287
 30
0.0
 10
154.1035694799606
 20
70.11490824849315
 30
0.0
 10
154.6963983941697
 20
70.12331869135281
 30
0.0
 10
155.3123041361698
 20
70.12381547879768
 30
0.0
 10
155.9258838635054
 20
70.11589868603987
 30
0.0
 10
156.5221573884545
 20
70.10022921111215
 30
0.0
 10
157.0671547221977
 20
70.07899555451606
 30
0.0
 10
157.5527801202237
 20
70.05460575440254
 30
0.0
 10
157.9459799726883
 20
70.03106204221373
 30
0.0
 10
158.2500494405619
 20
70.01057892642974
 30
0.0
 10
158.4409293213459
 20
69.99670813108705
 30
0.0
 10
158.5336386688877
 20
69.98968869676087
 30
0.0
 10
158.526502073239
 20
69.99022904457925
 30
0.0
 10
158.524096290903
 20
69.99041119855026
 30
0.0
  0
SPLINE
  5
B2
330
1F
100
AcDbEntity
  8
0
  6
Continuous
 62
     7
370
    15
100
AcDbSpline
210
0.0
220
0.0
230
1.0
 70
     8
 71
     3
 72
     9
 73
     5
 74
     0
 42
0.00000001
 43
0.00000001
 40
0.0
 40
0.0
 40
0.0
 40
0.0
 40
0.1032116787474174
 40
1.0
 40
1.0
 40
1.0
 40
1.0
 10
153.0185083976875
 20
70.07846780942238
 30
0.0
 10
153.0043096650813
 20
70.07788906439544
 30
0.0
 10
152.866740614965
 20
70.07228170451157
 30
0.0
 10
152.7455767708308
 20
70.06590790188768
 30
0.0
 10
152.6369184504532
 20
70.06019195013263
 30
0.0
  0
SPLINE
  5
B3
330
1F
100
AcDbEntity
  8
0
  6
Continuous
 62
     7
370
    15
100
AcDbSpline
210
0.0
220
0.0
230
1.0
 70
     8
 71
     3
 72
    68
 73
    64
 74
     0
 42
0.00000001
 43
0.00000001
 40
-0.0312500000000003
 40
-0.0312500000000003
 40
0.0
 40
0.0
 40
0.03125
 40
0.03125
 40
0.0624999999999999
 40
0.0624999999999999
 40
0.0937499999999999
 40
0.0937499999999999
 40
0.1249999999999998
 40
0.1249999999999998
 40
0.1562499999999998
 40
0.1562499999999998
 40
0.1874999999999997
 40
0.1874999999999997
 40
0.2187499999999997
 40
0.2187499999999997
 40
0.2499999999999996
 40
0.2499999999999996
 40
0.2812499999999996
 40
0.2812499999999996
 40
0.3124999999999995
 40
0.3124999999999995
 40
0.3437499999999994
 40
0.3437499999999994
 40
0.3749999999999994
 40
0.3749999999999994
 40
0.4062499999999994
 40
0.4062499999999994
 40
0.4374999999999993
 40
0.4374999999999993
 40
0.4687499999999993
 40
0.4687499999999993
 40
0.4999999999999993
 40
0.4999999999999993
 40
0.5312499999999994
 40
0.5312499999999994
 40
0.5624999999999994
 40
0.5624999999999994
 40
0.6249999999999994
 40
0.6249999999999994
 40
0.6562499999999996
 40
0.6562499999999996
 40
0.6874999999999996
 40
0.6874999999999996
 40
0.7187499999999997
 40
0.7187499999999997
 40
0.7499999999999997
 40
0.7499999999999997
 40
0.7812499999999998
 40
0.7812499999999998
 40
0.8124999999999998
 40
0.8124999999999998
 40
0.8437499999999997
 40
0.8437499999999997
 40
0.8749999999999997
 40
0.8749999999999997
 40
0.9062499999999996
 40
0.9062499999999996
 40
0.9374999999999996
 40
0.9374999999999996
 40
0.9687499999999997
 40
0.9687499999999997
 40
1.0
 40
1.0
 40
1.03125
 40
1.03125
 10
152.4692135387799
 20
112.2190592384573
 30
0.0
 10
152.8046233626559
 20
112.5143283348271
 30
0.0
 10
152.9838500202896
 20
112.6432978817449
 30
0.0
 10
153.3636385423632
 20
112.8667358551665
 30
0.0
 10
153.566098626227
 20
112.9618111057095
 30
0.0
 10
153.9838713383843
 20
113.1130258181353
 30
0.0
 10
154.1972840327797
 20
113.168913525099
 30
0.0
 10
154.6328702492695
 20
113.2425584158414
 30
0.0
 10
154.8571413489603
 20
113.2600909825345
 30
0.0
 10
155.2996165916641
 20
113.2550939225468
 30
0.0
 10
155.5188306928472
 20
113.2331171595972
 30
0.0
 10
155.953194299958
 20
113.1500226086242
 30
0.0
 10
156.1695476694777
 20
113.0880606488972
 30
0.0
 10
156.5809543580745
 20
112.9284626507352
 30
0.0
 10
156.7780963315307
 20
112.8306806327823
 30
0.0
 10
157.1546079783452
 20
112.5977288419731
 30
0.0
 10
157.3337276817099
 20
112.4619787152751
 30
0.0
 10
157.6572566415548
 20
112.163320223492
 30
0.0
 10
157.8039294416671
 20
111.9992165270783
 30
0.0
 10
158.0649292811324
 20
111.6392875855038
 30
0.0
 10
158.1769163942594
 20
111.4458571876088
 30
0.0
 10
158.3565221829964
 20
111.0440362852521
 30
0.0
 10
158.4257702549204
 20
110.8323792853461
 30
0.0
 10
158.5171501907149
 20
110.3958171096629
 30
0.0
 10
158.5385288549072
 20
110.1761808249927
 30
0.0
 10
158.5335445489265
 20
109.7342461574173
 30
0.0
 10
158.5062558913805
 20
109.5099410677661
 30
0.0
 10
158.4055270105408
 20
109.0793033011227
 30
0.0
 10
158.3324744011549
 20
108.8706905774444
 30
0.0
 10
158.140853920166
 20
108.4669049271684
 30
0.0
 10
158.0250682492003
 20
108.2778053156599
 30
0.0
 10
157.7578645013407
 20
107.9258589137253
 30
0.0
 10
157.604358569369
 20
107.7612222647565
 30
0.0
 10
157.2722710705773
 20
107.4682414119661
 30
0.0
 10
157.0934479953371
 20
107.3388241455588
 30
0.0
 10
156.7109102326791
 20
107.1131857580947
 30
0.0
 10
156.5080285367211
 20
107.0179885094312
 30
0.0
 10
155.8857158754809
 20
106.7921006675268
 30
0.0
 10
155.438621252638
 20
106.7167946596818
 30
0.0
 10
154.7771956198336
 20
106.7236281421
 30
0.0
 10
154.5552924225159
 20
106.745555634272
 30
0.0
 10
154.1179035864498
 20
106.829210179877
 30
0.0
 10
153.9058625607556
 20
106.8899986742076
 30
0.0
 10
153.4948938192042
 20
107.0489857068181
 30
0.0
 10
153.2940326712924
 20
107.1484412800007
 30
0.0
 10
152.9166932673153
 20
107.3820343712576
 30
0.0
 10
152.7412299338874
 20
107.5149628898108
 30
0.0
 10
152.4171173913683
 20
107.813632387389
 30
0.0
 10
152.2670239764513
 20
107.9816919629342
 30
0.0
 10
152.007495519104
 20
108.3398941231427
 30
0.0
 10
151.8970093464439
 20
108.5301980736291
 30
0.0
 10
151.716139533963
 20
108.934144294368
 30
0.0
 10
151.6462530059096
 20
109.1487547635604
 30
0.0
 10
151.5558235770791
 20
109.5806439246028
 30
0.0
 10
151.5338567488488
 20
109.8004792974525
 30
0.0
 10
151.539004734838
 20
110.2483669144066
 30
0.0
 10
151.5660507090645
 20
110.4680344492975
 30
0.0
 10
151.666582579504
 20
110.8985288236389
 30
0.0
 10
151.7414086320229
 20
111.1115332914575
 30
0.0
 10
151.9314674703952
 20
111.5115393327506
 30
0.0
 10
152.0465943091378
 20
111.7002136936998
 30
0.0
 10
152.3163412627815
 20
112.0553340485064
 30
0.0
 10
152.4692135387799
 20
112.2190592384573
 30
0.0
 10
152.8046233626559
 20
112.5143283348271
 30
0.0
  0
SPLINE
  5
B4
330
1F
100
AcDbEntity
  8
0
  6
Continuous
 62
     7
370
    15
100
AcDbSpline
210
0.0
220
0.0
230
1.0
 70
     8
 71
     3
 72
    24
 73
    20
 74
     0
 42
0.00000001
 43
0.00000001
 40
0.0
 40
0.0
 40
0.0
 40
0.0
 40
0.0317655311432876
 40
0.108943371978814
 40
0.1652345000224442
 40
0.2165072800002139
 40
0.2627649833675098
 40
0.3040126463447202
 40
0.4056965127612173
 40
0.4986657461443748
 40
0.5934774663286647
 40
0.6262425664060888
 40
0.6595791465733272
 40
0.6934949436771183
 40
0.7788232074592676
 40
0.888563090366278
 40
0.9460681960738636
 40
0.9977786619338964
 40
1.0
 40
1.0
 40
1.0
 40
1.0
 10
173.9079703734649
 20
102.4127746444598
 30
0.0
 10
174.0713537389392
 20
102.5123763502431
 30
0.0
 10
174.6316949049573
 20
102.8539713210285
 30
0.0
 10
175.3766824422398
 20
103.5213669370568
 30
0.0
 10
176.1206335320256
 20
104.3460648830368
 30
0.0
 10
176.6596685271595
 20
105.1008335030747
 30
0.0
 10
177.0782597270201
 20
105.8257071143556
 30
0.0
 10
177.5601477946256
 20
106.8612214371201
 30
0.0
 10
177.9738467712489
 20
108.2387087295131
 30
0.0
 10
178.1406733031174
 20
109.9959005765037
 30
0.0
 10
178.011997393862
 20
111.3367851524548
 30
0.0
 10
177.7949398764466
 20
112.2869592445961
 30
0.0
 10
177.6211248150882
 20
112.8669005362172
 30
0.0
 10
177.2971947593477
 20
113.7304649052677
 30
0.0
 10
176.6576447456027
 20
114.9602035937605
 30
0.0
 10
175.7029271108592
 20
116.1598121177389
 30
0.0
 10
174.7136958367671
 20
117.0276383291977
 30
0.0
 10
174.1771894624883
 20
117.4345646711069
 30
0.0
 10
173.895116530075
 20
117.5956435211637
 30
0.0
 10
173.8834985366728
 20
117.6022780216852
 30
0.0
  0
SPLINE
  5
B5
330
1F
100
AcDbEntity
  8
0
  6
Continuous
 62
     7
370
    15
100
AcDbSpline
210
0.0
220
0.0
230
1.0
 70
     8
 71
     3
 72
    24
 73
    20
 74
     0
 42
0.00000001
 43
0.00000001
 40
0.0
 40
0.0
 40
0.0
 40
0.0
 40
0.0018486716038112
 40
0.1107324203523531
 40
0.1686975383762814
 40
0.2205444797444873
 40
0.2662753789451147
 40
0.3058944494233069
 40
0.4056612684501852
 40
0.5003995221705312
 40
0.5931748273839491
 40
0.626086313905152
 40
0.6599826603157836
 40
0.6948709117773552
 40
0.7508827965774872
 40
0.8157532703181446
 40
0.889489967918328
 40
0.9485154087879881
 40
1.0
 40
1.0
 40
1.0
 40
1.0
 10
164.287318979674
 20
117.5999821755529
 30
0.0
 10
164.2774139768454
 20
117.5948455115708
 30
0.0
 10
163.6841204278183
 20
117.2871676989697
 30
0.0
 10
162.9191886782038
 20
116.586282216202
 30
0.0
 10
162.0351102108665
 20
115.6152086985601
 30
0.0
 10
161.4931640101333
 20
114.8472570593903
 30
0.0
 10
161.0817964542013
 20
114.1283250718646
 30
0.0
 10
160.6120555215958
 20
113.1127445103072
 30
0.0
 10
160.1993540433752
 20
111.744460999385
 30
0.0
 10
160.0317871358663
 20
109.9975542283319
 30
0.0
 10
160.1592101826834
 20
108.6559170958655
 30
0.0
 10
160.3721757660416
 20
107.7117435875247
 30
0.0
 10
160.5479953890366
 20
107.1209157790005
 30
0.0
 10
160.8131783102357
 20
106.4134808895387
 30
0.0
 10
161.2235604879098
 20
105.5647929522124
 30
0.0
 10
161.8599901399769
 20
104.5751004346166
 30
0.0
 10
162.6405126737272
 20
103.6726927659044
 30
0.0
 10
163.4671153157945
 20
102.9289119018526
 30
0.0
 10
164.0196398609406
 20
102.5564192181656
 30
0.0
 10
164.2770508833212
 20
102.3828817285111
 30
0.0
  0
CIRCLE
  5
B6
330
1F
100
AcDbEntity
  8
0
  6
Continuous
 62
     7
370
    15
100
AcDbCircle
 10
155.0362299928
 20
109.9894907909
 30
0.0
 40
2.500000000000014
  0
LINE
  5
B7
330
1F
100
AcDbEntity
  8
0
  6
Continuous
 62
     7
370
    15
100
AcDbLine
 10
85.7862299928
 20
73.7254757608
 30
0.0
 11
85.7862299928
 21
76.1201575255
 31
0.0
  0
SPLINE
  5
B8
330
1F
100
AcDbEntity
  8
0
  6
Continuous
 62
     7
370
    15
100
AcDbSpline
210
0.0
220
0.0
230
1.0
 70
     8
 71
     3
 72
    14
 73
    10
 74
     0
 42
0.00000001
 43
0.00000001
 40
0.0
 40
0.0
 40
0.0
 40
0.0
 40
0.25
 40
0.25
 40
0.5
 40
0.5
 40
0.75
 40
0.75
 40
1.0
 40
1.0
 40
1.0
 40
1.0
 10
84.78180752149157
 20
77.82300944715578
 30
0.0
 10
84.8705760994369
 20
77.66447531584782
 30
0.0
 10
84.99229393811584
 20
77.51203263895927
 30
0.0
 10
85.22734354797265
 20
77.21489801513034
 30
0.0
 10
85.34297373418954
 20
77.07021537151299
 30
0.0
 10
85.54337866761735
 20
76.78692616900958
 30
0.0
 10
85.62877895960169
 20
76.64837217597272
 30
0.0
 10
85.75048459331892
 20
76.37698814593918
 30
0.0
 10
85.78622999283157
 20
76.24485227730457
 30
0.0
 10
85.78622999283155
 20
76.1201575255338
 30
0.0
  0
SPLINE
  5
B9
330
1F
100
AcDbEntity
  8
0
  6
Continuous
 62
     7
370
    15
100
AcDbSpline
210
0.0
220
0.0
230
1.0
 70
     8
 71
     3
 72
    14
 73
    10
 74
     0
 42
0.00000001
 43
0.00000001
 40
0.0
 40
0.0
 40
0.0
 40
0.0
 40
0.124999999999999
 40
0.124999999999999
 40
0.2499999999999981
 40
0.2499999999999981
 40
0.4999999999999952
 40
0.4999999999999952
 40
1.0
 40
1.0
 40
1.0
 40
1.0
 10
83.88622999282855
 20
78.45183938625588
 30
0.0
 10
83.95381229261304
 20
78.45899527135727
 30
0.0
 10
84.02629987036094
 20
78.45457080131827
 30
0.0
 10
84.15859097962687
 20
78.42486464354793
 30
0.0
 10
84.21586835901707
 20
78.4015803619697
 30
0.0
 10
84.36551878621732
 20
78.32409512211936
 30
0.0
 10
84.43923208173884
 20
78.262243295218
 30
0.0
 10
84.62704006506506
 20
78.07756584256965
 30
0.0
 10
84.71108037142649
 20
77.94932291927846
 30
0.0
 10
84.7818075214928
 20
77.8230094471559
 30
0.0
  0
SPLINE
  5
BA
330
1F
100
AcDbEntity
  8
0
  6
Continuous
 62
     7
370
    15
100
AcDbSpline
210
0.0
220
0.0
230
1.0
 70
     8
 71
     3
 72
     8
 73
     4
 74
     0
 42
0.00000001
 43
0.00000001
 40
0.0
 40
0.0
 40
0.0
 40
0.0
 40
1.0
 40
1.0
 40
1.0
 40
1.0
 10
80.34158960474763
 20
78.03379080146408
 30
0.0
 10
81.50688791545655
 20
78.18897827335071
 30
0.0
 10
82.69150312949641
 20
78.32533691166103
 30
0.0
 10
83.88622999282855
 20
78.45183938625588
 30
0.0
  0
SPLINE
  5
BB
330
1F
100
AcDbEntity
  8
0
  6
Continuous
 62
     7
370
    15
100
AcDbSpline
210
0.0
220
0.0
230
1.0
 70
     8
 71
     3
 72
    14
 73
    10
 74
     0
 42
0.00000001
 43
0.00000001
 40
0.0
 40
0.0
 40
0.0
 40
0.0
 40
0.5000000000000002
 40
0.5000000000000002
 40
0.7500000000000003
 40
0.7500000000000003
 40
0.8750000000000001
 40
0.8750000000000001
 40
1.0
 40
1.0
 40
1.0
 40
1.0
 10
72.58615510879984
 20
77.74365862233418
 30
0.0
 10
73.89445667133357
 20
77.7506733460753
 30
0.0
 10
75.19951604599038
 20
77.7660819225198
 30
0.0
 10
77.14539209747865
 20
77.81997847798644
 30
0.0
 10
77.79208960121763
 20
77.84301004258914
 30
0.0
 10
78.75593196507195
 20
77.8939525674599
 30
0.0
 10
79.07617065700603
 20
77.9136874896931
 30
0.0
 10
79.71286588334844
 20
77.96317461816466
 30
0.0
 10
80.02958129163135
 20
77.9922393970939
 30
0.0
 10
80.34158960474767
 20
78.03379080146405
 30
0.0
  0
SPLINE
  5
BC
330
1F
100
AcDbEntity
  8
0
  6
Continuous
 62
     7
370
    15
100
AcDbSpline
210
0.0
220
0.0
230
1.0
 70
     8
 71
     3
 72
    12
 73
     8
 74
     0
 42
0.00000001
 43
0.00000001
 40
0.0
 40
0.0
 40
0.0
 40
0.0
 40
0.2499999999999992
 40
0.2499999999999992
 40
0.4999999999999984
 40
0.4999999999999984
 40
1.0
 40
1.0
 40
1.0
 40
1.0
 10
78.88622999282855
 20
142.0760136823957
 30
0.0
 10
78.36753117100034
 20
142.108536457244
 30
0.0
 10
77.84581959779536
 20
142.1318331984144
 30
0.0
 10
76.79952758129977
 20
142.1696787128366
 30
0.0
 10
76.27485595562952
 20
142.1839471873327
 30
0.0
 10
74.69800993309028
 20
142.218156674791
 30
0.0
 10
73.6430546185434
 20
142.2296561787349
 30
0.0
 10
72.58615510879815
 20
142.2353229594644
 30
0.0
  0
SPLINE
  5
BD
330
1F
100
AcDbEntity
  8
0
  6
Continuous
 62
     7
370
    15
100
AcDbSpline
210
0.0
220
0.0
230
1.0
 70
     8
 71
     3
 72
    20
 73
    16
 74
     0
 42
0.00000001
 43
0.00000001
 40
0.0
 40
0.0
 40
0.0
 40
0.0
 40
0.2499999999999999
 40
0.2499999999999999
 40
0.4999999999999998
 40
0.4999999999999998
 40
0.7499999999999997
 40
0.7499999999999997
 40
0.8749999999999996
 40
0.8749999999999996
 40
0.9375000000000002
 40
0.9375000000000002
 40
0.9687500000000001
 40
0.9687500000000001
 40
1.0
 40
1.0
 40
1.0
 40
1.0
 10
80.78622999282854
 20
143.7340995278839
 30
0.0
 10
80.78622999282854
 20
143.5984172081371
 30
0.0
 10
80.73751820361191
 20
143.457330221997
 30
0.0
 10
80.56835678038674
 20
143.1652585032665
 30
0.0
 10
80.4465763664684
 20
143.0136097611761
 30
0.0
 10
80.1490292717189
 20
142.7112013210229
 30
0.0
 10
79.97511666601612
 20
142.5586126848997
 30
0.0
 10
79.65570183213433
 20
142.3333419210574
 30
0.0
 10
79.54066105668706
 20
142.2586188265466
 30
0.0
 10
79.33357673267064
 20
142.1592084172896
 30
0.0
 10
79.25746889786426
 20
142.127643324945
 30
0.0
 10
79.1260743583109
 20
142.0931999407521
 30
0.0
 10
79.07952113930943
 20
142.0841483689845
 30
0.0
 10
78.98318778822872
 20
142.073972720146
 30
0.0
 10
78.93392836487328
 20
142.0730229614709
 30
0.0
 10
78.88622999282654
 20
142.0760136823855
 30
0.0
  0
LINE
  5
BE
330
1F
100
AcDbEntity
  8
0
  6
Continuous
 62
     7
370
    15
100
AcDbLine
 10
80.7862299928
 20
143.7340995279
 30
0.0
 11
80.7862299928
 21
146.003004819
 31
0.0
  0
LINE
  5
BF
330
1F
100
AcDbEntity
  8
0
  6
Continuous
 62
     7
370
    15
100
AcDbLine
 10
118.0862299928
 20
72.1072392879
 30
0.0
 11
118.0862299928
 21
147.8717422939
 31
0.0
  0
SPLINE
  5
C0
330
1F
100
AcDbEntity
  8
0
  6
Continuous
 62
     7
370
    15
100
AcDbSpline
210
0.0
220
0.0
230
1.0
 70
     8
 71
     3
 72
    24
 73
    20
 74
     0
 42
0.00000001
 43
0.00000001
 40
0.0
 40
0.0
 40
0.0
 40
0.0
 40
0.0002934293894791
 40
0.0628080051759335
 40
0.1260453927228735
 40
0.1890746766613218
 40
0.251320054086014
 40
0.3133304633785417
 40
0.3759158453762868
 40
0.4383740564598514
 40
0.5000631094857222
 40
0.5616593988027264
 40
0.6245050380643616
 40
0.6872231506498157
 40
0.7494953263230503
 40
0.8117583797537838
 40
0.8747365508229915
 40
0.9378980306236063
 40
1.0
 40
1.0
 40
1.0
 40
1.0
 10
99.10618625666798
 20
73.05824553258694
 30
0.0
 10
99.1059914037832
 20
73.05822122519295
 30
0.0
 10
99.06428351277191
 20
73.0530182735394
 30
0.0
 10
99.20940190430075
 20
73.07165289686907
 30
0.0
 10
99.56448084584328
 20
73.11417267541826
 30
0.0
 10
100.1690564833875
 20
73.18230895901972
 30
0.0
 10
100.9754917922016
 20
73.25556449603582
 30
0.0
 10
101.9609692161199
 20
73.32008383685337
 30
0.0
 10
103.0926388127981
 20
73.35864806491466
 30
0.0
 10
104.3149312829608
 20
73.36234257091608
 30
0.0
 10
105.582259964404
 20
73.31991659086776
 30
0.0
 10
106.8487454948293
 20
73.23166945008546
 30
0.0
 10
108.0648828586437
 20
73.10327617982146
 30
0.0
 10
109.1902933544993
 20
72.95063519122883
 30
0.0
 10
110.1677104160491
 20
72.78886057612318
 30
0.0
 10
110.970975894599
 20
72.63633168302147
 30
0.0
 10
111.5594694175997
 20
72.51231793975404
 30
0.0
 10
111.94837552925
 20
72.42739401347798
 30
0.0
 10
111.9951366599885
 20
72.41666770219918
 30
0.0
 10
112.0183194665311
 20
72.41134990950758
 30
0.0
  0
SPLINE
  5
C1
330
1F
100
AcDbEntity
  8
0
  6
Continuous
 62
     7
370
    15
100
AcDbSpline
210
0.0
220
0.0
230
1.0
 70
     8
 71
     3
 72
    41
 73
    37
 74
     0
 42
0.00000001
 43
0.00000001
 40
0.0
 40
0.0
 40
0.0
 40
0.0
 40
0.0619930061484378
 40
0.1254347783466322
 40
0.1886508898237652
 40
0.2510246408607262
 40
0.313165818897716
 40
0.3756581641417481
 40
0.438222714672822
 40
0.4998044922940693
 40
0.5615164197177447
 40
0.6240683094121975
 40
0.6867257232408516
 40
0.7488365305144536
 40
0.8110685944253998
 40
0.8741742884451369
 40
0.9373212787645215
 40
0.9685511709617414
 40
0.9842086872487195
 40
0.9920641182531791
 40
0.996000486125535
 40
0.9979710794120144
 40
0.9989570090489597
 40
0.9994501359395066
 40
0.9996967403802177
 40
0.9998200529090742
 40
0.9998817117580818
 40
0.999912541829664
 40
0.9999279570273361
 40
0.9999356646666603
 40
0.9999395184964466
 40
0.9999414454138695
 40
0.9999424088732151
 40
0.9999433723329807
 40
0.9999501697010514
 40
1.0
 40
1.0
 40
1.0
 40
1.0
 10
112.0181981360531
 20
147.5675866543395
 30
0.0
 10
111.9946264907103
 20
147.5622771746897
 30
0.0
 10
111.946932334667
 20
147.5515341337502
 30
0.0
 10
111.5548903452377
 20
147.4663049972944
 30
0.0
 10
110.9643762959659
 20
147.3417362186537
 30
0.0
 10
110.1603388499222
 20
147.1887892725018
 30
0.0
 10
109.1842634497421
 20
147.0270327185484
 30
0.0
 10
108.062454714461
 20
146.8747999506162
 30
0.0
 10
106.8489237946739
 20
146.747020009415
 30
0.0
 10
105.5840930882757
 20
146.6591714577323
 30
0.0
 10
104.3160500508333
 20
146.6167859738617
 30
0.0
 10
103.0925426931326
 20
146.6205217818333
 30
0.0
 10
101.9590441527175
 20
146.6591172522813
 30
0.0
 10
100.9729383417435
 20
146.7235566235726
 30
0.0
 10
100.1643105329559
 20
146.7970664308537
 30
0.0
 10
99.5676918378467
 20
146.8643801156655
 30
0.0
 10
99.25230054838858
 20
146.9023446669335
 30
0.0
 10
99.14223397959069
 20
146.9161437262653
 30
0.0
 10
99.11481459177647
 20
146.919629800186
 30
0.0
 10
99.10789254094696
 20
146.9205090258794
 30
0.0
 10
99.10612430076354
 20
146.9207298004856
 30
0.0
 10
99.10566392159019
 20
146.9207850031964
 30
0.0
 10
99.10553976290537
 20
146.9207987429835
 30
0.0
 10
99.10550420841221
 20
146.9208021388145
 30
0.0
 10
99.1054930643421
 20
146.9208029671348
 30
0.0
 10
99.10548915114602
 20
146.9208031637235
 30
0.0
 10
99.10548760894116
 20
146.9208032076536
 30
0.0
 10
99.10548694193967
 20
146.9208032159604
 30
0.0
 10
99.10548663376193
 20
146.9208032167907
 30
0.0
 10
99.10548648699587
 20
146.9208032162454
 30
0.0
 10
99.1054864140434
 20
146.9208032159156
 30
0.0
 10
99.10548637965104
 20
146.9208032154783
 30
0.0
 10
99.10548635740588
 20
146.9208032155668
 30
0.0
 10
99.10548633029644
 20
146.9208032127318
 30
0.0
 10
99.10548381073505
 20
146.920803499587
 30
0.0
 10
99.1055199006531
 20
146.9207988794863
 30
0.0
 10
99.10555165847576
 20
146.9207948139648
 30
0.0
  0
SPLINE
  5
C2
330
1F
100
AcDbEntity
  8
0
  6
Continuous
 62
     7
370
    15
100
AcDbSpline
210
0.0
220
0.0
230
1.0
 70
     8
 71
     3
 72
    20
 73
    16
 74
     0
 42
0.00000001
 43
0.00000001
 40
0.0
 40
0.0
 40
0.0
 40
0.0
 40
0.249999999999986
 40
0.249999999999986
 40
0.3749999999999789
 40
0.3749999999999789
 40
0.4374999999999789
 40
0.4374999999999789
 40
0.4999999999999789
 40
0.4999999999999789
 40
0.6249999999999835
 40
0.6249999999999835
 40
0.7499999999999879
 40
0.7499999999999879
 40
1.0
 40
1.0
 40
1.0
 40
1.0
 10
70.97704422454456
 20
79.31100763819859
 30
0.0
 10
71.00331644175796
 20
79.33032557928107
 30
0.0
 10
71.0339965840128
 20
79.34471429038284
 30
0.0
 10
71.10546745439473
 20
79.33780992854683
 30
0.0
 10
71.13349449143905
 20
79.33064392519842
 30
0.0
 10
71.18857808093657
 20
79.30094489849482
 30
0.0
 10
71.20946940948899
 20
79.28747125593348
 30
0.0
 10
71.25467805693445
 20
79.25227299041747
 30
0.0
 10
71.27908226933002
 20
79.23036476169021
 30
0.0
 10
71.35041458738148
 20
79.15823990169466
 30
0.0
 10
71.39231137220173
 20
79.1058993607446
 30
0.0
 10
71.46388733105762
 20
79.00841596884386
 30
0.0
 10
71.49471532087492
 20
78.96166219896544
 30
0.0
 10
71.57781525371048
 20
78.82836898312632
 30
0.0
 10
71.62267015908078
 20
78.74573158521112
 30
0.0
 10
71.66278223453337
 20
78.66662469042033
 30
0.0
  0
SPLINE
  5
C3
330
1F
100
AcDbEntity
  8
0
  6
Continuous
 62
     7
370
    15
100
AcDbSpline
210
0.0
220
0.0
230
1.0
 70
     8
 71
     3
 72
    14
 73
    10
 74
     0
 42
0.00000001
 43
0.00000001
 40
0.0
 40
0.0
 40
0.0
 40
0.0
 40
0.25
 40
0.25
 40
0.5
 40
0.5
 40
0.75
 40
0.75
 40
1.0
 40
1.0
 40
1.0
 40
1.0
 10
70.68622999282856
 20
79.48682104833138
 30
0.0
 10
70.68622999282856
 20
79.44557411730703
 30
0.0
 10
70.69483970920982
 20
79.40866714502455
 30
0.0
 10
70.72592588878014
 20
79.34776708512514
 30
0.0
 10
70.7483154422642
 20
79.32358616558545
 30
0.0
 10
70.80305937344032
 20
79.28961857470219
 30
0.0
 10
70.83550961302551
 20
79.279698490734
 30
0.0
 10
70.90551112775357
 20
79.27834728182916
 30
0.0
 10
70.94372162787613
 20
79.28650555852532
 30
0.0
 10
70.9770442245492
 20
79.3110076381934
 30
0.0
  0
LINE
  5
C4
330
1F
100
AcDbEntity
  8
0
  6
Continuous
 62
     7
370
    15
100
AcDbLine
 10
70.6862299928
 20
79.4868210483
 30
0.0
 11
70.6862299928
 21
140.4921605335
 31
0.0
  0
SPLINE
  5
C5
330
1F
100
AcDbEntity
  8
0
  6
Continuous
 62
     7
370
    15
100
AcDbSpline
210
0.0
220
0.0
230
1.0
 70
     8
 71
     3
 72
    10
 73
     6
 74
     0
 42
0.00000001
 43
0.00000001
 40
0.0
 40
0.0
 40
0.0
 40
0.0
 40
0.0592402688376383
 40
0.6438088530391344
 40
1.0
 40
1.0
 40
1.0
 40
1.0
 10
70.97704422454919
 20
140.6679739436052
 30
0.0
 10
70.97221196692799
 20
140.6712228502368
 30
0.0
 10
70.91969616479325
 20
140.7065311783925
 30
0.0
 10
70.82074596711448
 20
140.7127854749511
 30
0.0
 10
70.77131744222312
 20
140.6575852372622
 30
0.0
 10
70.75260277747883
 20
140.6366852823389
 30
0.0
  0
SPLINE
  5
C6
330
1F
100
AcDbEntity
  8
0
  6
Continuous
 62
     7
370
    15
100
AcDbSpline
210
0.0
220
0.0
230
1.0
 70
     8
 71
     3
 72
     8
 73
     4
 74
     0
 42
0.00000001
 43
0.00000001
 40
0.0
 40
0.0
 40
0.0
 40
0.0
 40
1.0
 40
1.0
 40
1.0
 40
1.0
 10
70.70986366176476
 20
140.5997400345369
 30
0.0
 10
70.6945146231287
 20
140.5692299795409
 30
0.0
 10
70.68622999282856
 20
140.5329184240286
 30
0.0
 10
70.68622999282856
 20
140.4921605334672
 30
0.0
  0
SPLINE
  5
C7
330
1F
100
AcDbEntity
  8
0
  6
Continuous
 62
     7
370
    15
100
AcDbSpline
210
0.0
220
0.0
230
1.0
 70
     8
 71
     3
 72
    20
 73
    16
 74
     0
 42
0.00000001
 43
0.00000001
 40
0.0
 40
0.0
 40
0.0
 40
0.0
 40
0.2500000000000037
 40
0.2500000000000037
 40
0.3750000000000055
 40
0.3750000000000055
 40
0.5000000000000073
 40
0.5000000000000073
 40
0.5625000000000057
 40
0.5625000000000057
 40
0.625000000000004
 40
0.625000000000004
 40
0.7500000000000027
 40
0.7500000000000027
 40
1.0
 40
1.0
 40
1.0
 40
1.0
 10
71.66278223453097
 20
141.3123568913775
 30
0.0
 10
71.62278601670712
 20
141.23347848482
 30
0.0
 10
71.57767238886947
 20
141.1503488381285
 30
0.0
 10
71.49441817450294
 20
141.0168601737776
 30
0.0
 10
71.46419884588245
 20
140.9709951178956
 30
0.0
 10
71.39211061074103
 20
140.8728035654907
 30
0.0
 10
71.35019329332995
 20
140.8204937459671
 30
0.0
 10
71.27894268877847
 20
140.7484878432326
 30
0.0
 10
71.25470687639917
 20
140.726717630931
 30
0.0
 10
71.20910868621452
 20
140.6912429726021
 30
0.0
 10
71.1883061966148
 20
140.6778727884245
 30
0.0
 10
71.13336519819569
 20
140.6483028762893
 30
0.0
 10
71.10529621010886
 20
140.6411763539873
 30
0.0
 10
71.03479338004604
 20
140.6343019825046
 30
0.0
 10
71.00336929225516
 20
140.6486171415918
 30
0.0
 10
70.97704422454656
 20
140.6679739436023
 30
0.0
  0
SPLINE
  5
C8
330
1F
100
AcDbEntity
  8
0
  6
Continuous
 62
     7
370
    15
100
AcDbSpline
210
0.0
220
0.0
230
1.0
 70
     8
 71
     3
 72
    10
 73
     6
 74
     0
 42
0.00000001
 43
0.00000001
 40
0.0
 40
0.0
 40
0.0
 40
0.0
 40
0.4999999999999989
 40
0.4999999999999989
 40
1.0
 40
1.0
 40
1.0
 40
1.0
 10
72.33622999282855
 20
142.2377759927193
 30
0.0
 10
72.21134172207836
 20
142.1067797146478
 30
0.0
 10
72.08989160401791
 20
141.9630668779828
 30
0.0
 10
71.86030762906049
 20
141.6524965852936
 30
0.0
 10
71.7500326536645
 20
141.4844275122305
 30
0.0
 10
71.66278223453097
 20
141.3123568913775
 30
0.0
  0
SPLINE
  5
C9
330
1F
100
AcDbEntity
  8
0
  6
Continuous
 62
     7
370
    15
100
AcDbSpline
210
0.0
220
0.0
230
1.0
 70
     8
 71
     3
 72
     8
 73
     4
 74
     0
 42
0.00000001
 43
0.00000001
 40
0.0
 40
0.0
 40
0.0
 40
0.0
 40
1.0
 40
1.0
 40
1.0
 40
1.0
 10
72.58615510879429
 20
142.2353229594639
 30
0.0
 10
72.49913707894592
 20
142.235789524251
 30
0.0
 10
72.41618305256598
 20
142.2368295438271
 30
0.0
 10
72.33622999282623
 20
142.2377759927193
 30
0.0
  0
SPLINE
  5
CA
330
1F
100
AcDbEntity
  8
0
  6
Continuous
 62
     7
370
    15
100
AcDbSpline
210
0.0
220
0.0
230
1.0
 70
     8
 71
     3
 72
     8
 73
     4
 74
     0
 42
0.00000001
 43
0.00000001
 40
0.0
 40
0.0
 40
0.0
 40
0.0
 40
1.0
 40
1.0
 40
1.0
 40
1.0
 10
72.33622999282623
 20
77.74120558907923
 30
0.0
 10
72.4161830525665
 20
77.7421520379715
 30
0.0
 10
72.499137078947
 20
77.74319205754762
 30
0.0
 10
72.58615510879599
 20
77.74365862233469
 30
0.0
  0
SPLINE
  5
CB
330
1F
100
AcDbEntity
  8
0
  6
Continuous
 62
     7
370
    15
100
AcDbSpline
210
0.0
220
0.0
230
1.0
 70
     8
 71
     3
 72
    10
 73
     6
 74
     0
 42
0.00000001
 43
0.00000001
 40
0.0
 40
0.0
 40
0.0
 40
0.0
 40
0.4999999999999989
 40
0.4999999999999989
 40
1.0
 40
1.0
 40
1.0
 40
1.0
 10
71.66278223453004
 20
78.6666246904229
 30
0.0
 10
71.75003265366354
 20
78.49455406956955
 30
0.0
 10
71.86030762905968
 20
78.3264849965061
 30
0.0
 10
72.08989160401752
 20
78.01591470381628
 30
0.0
 10
72.21134172207816
 20
77.872201867151
 30
0.0
 10
72.33622999282855
 20
77.7412055890793
 30
0.0
  0
SPLINE
  5
CC
330
1F
100
AcDbEntity
  8
0
  6
Continuous
 62
     7
370
    15
100
AcDbSpline
210
0.0
220
0.0
230
1.0
 70
     8
 71
     3
 72
    10
 73
     6
 74
     0
 42
0.00000001
 43
0.00000001
 40
0.0
 40
0.0
 40
0.0
 40
0.0
 40
0.5
 40
0.5
 40
1.0
 40
1.0
 40
1.0
 40
1.0
 10
139.4762299928285
 20
154.8637665510717
 30
0.0
 10
139.2636936789722
 20
154.8637665510717
 30
0.0
 10
139.0537575073182
 20
154.9551791377019
 30
0.0
 10
138.7600503663069
 20
155.2599240036061
 30
0.0
 10
138.6762299928285
 20
155.4720789735148
 30
0.0
 10
138.6762299928285
 20
155.6830420317473
 30
0.0
  0
SPLINE
  5
CD
330
1F
100
AcDbEntity
  8
0
  6
Continuous
 62
     7
370
    15
100
AcDbSpline
210
0.0
220
0.0
230
1.0
 70
     8
 71
     3
 72
    14
 73
    10
 74
     0
 42
0.00000001
 43
0.00000001
 40
0.0
 40
0.0
 40
0.0
 40
0.0
 40
0.25
 40
0.25
 40
0.5
 40
0.5
 40
0.75
 40
0.75
 40
1.0
 40
1.0
 40
1.0
 40
1.0
 10
138.6762299928285
 20
144.7037259833963
 30
0.0
 10
138.6762299928285
 20
144.5798591066071
 30
0.0
 10
138.6920891204561
 20
144.4555994297696
 30
0.0
 10
138.755450765976
 20
144.2179910673638
 30
0.0
 10
138.8040404740254
 20
144.1012106826113
 30
0.0
 10
138.9363260788002
 20
143.8924081540023
 30
0.0
 10
139.0216508700608
 20
143.7978974504097
 30
0.0
 10
139.228542118367
 20
143.6599406496074
 30
0.0
 10
139.352510064257
 20
143.6180222039717
 30
0.0
 10
139.4762299928285
 20
143.6180222039717
 30
0.0
  0
SPLINE
  5
CE
330
1F
100
AcDbEntity
  8
0
  6
Continuous
 62
     7
370
    15
100
AcDbSpline
210
0.0
220
0.0
230
1.0
 70
     8
 71
     3
 72
    12
 73
     8
 74
     0
 42
0.00000001
 43
0.00000001
 40
0.0
 40
0.0
 40
0.0
 40
0.0
 40
0.4999999999999953
 40
0.4999999999999953
 40
0.7499999999999977
 40
0.7499999999999977
 40
1.0
 40
1.0
 40
1.0
 40
1.0
 10
149.5362299928286
 20
157.9582306117451
 30
0.0
 10
149.5362299928286
 20
158.2235000445116
 30
0.0
 10
149.4316232493421
 20
158.486015150164
 30
0.0
 10
149.1549548975968
 20
158.7715527562012
 30
0.0
 10
149.0445896382448
 20
158.8478743730626
 30
0.0
 10
148.8005175896291
 20
158.9522165379028
 30
0.0
 10
148.6687651282973
 20
158.9792856465629
 30
0.0
 10
148.5362299928286
 20
158.9792856465629
 30
0.0
  0
SPLINE
  5
CF
330
1F
100
AcDbEntity
  8
0
  6
Continuous
 62
     7
370
    15
100
AcDbSpline
210
0.0
220
0.0
230
1.0
 70
     8
 71
     3
 72
    16
 73
    12
 74
     0
 42
0.00000001
 43
0.00000001
 40
0.0
 40
0.0
 40
0.0
 40
0.0
 40
0.1249999999999978
 40
0.1249999999999978
 40
0.2499999999999955
 40
0.2499999999999955
 40
0.499999999999997
 40
0.499999999999997
 40
0.7499999999999984
 40
0.7499999999999984
 40
1.0
 40
1.0
 40
1.0
 40
1.0
 10
148.5362299928286
 20
148.9404535517862
 30
0.0
 10
148.6118676992397
 20
148.9404535517862
 30
0.0
 10
148.6881833636579
 20
148.9291085516513
 30
0.0
 10
148.8325941015499
 20
148.8864560010128
 30
0.0
 10
148.9010405506583
 20
148.8555216763299
 30
0.0
 10
149.0959718032715
 20
148.7362653045623
 30
0.0
 10
149.2038129770523
 20
148.6261132909418
 30
0.0
 10
149.3725257252644
 20
148.3779772052837
 30
0.0
 10
149.4348901379879
 20
148.23763488128
 30
0.0
 10
149.5161940624963
 20
147.9493631897914
 30
0.0
 10
149.5362299928285
 20
147.7985582168115
 30
0.0
 10
149.5362299928286
 20
147.6481883254663
 30
0.0
  0
LINE
  5
D0
330
1F
100
AcDbEntity
  8
0
  6
Continuous
 62
     7
370
    15
100
AcDbLine
 10
149.5362299928
 20
147.6481883255
 30
0.0
 11
149.5362299928
 21
157.9582306117
 31
0.0
  0
SPLINE
  5
D1
330
1F
100
AcDbEntity
  8
0
  6
Continuous
 62
     7
370
    15
100
AcDbSpline
210
0.0
220
0.0
230
1.0
 70
     8
 71
     3
 72
     8
 73
     4
 74
     0
 42
0.00000001
 43
0.00000001
 40
0.0
 40
0.0
 40
0.0
 40
0.0
 40
1.0
 40
1.0
 40
1.0
 40
1.0
 10
138.6762299928286
 20
156.5867616516042
 30
0.0
 10
138.225921757144
 20
157.3844767767178
 30
0.0
 10
137.7752279406204
 20
158.181975076375
 30
0.0
 10
137.3242009719072
 20
158.9792856465629
 30
0.0
  0
LINE
  5
D2
330
1F
100
AcDbEntity
  8
0
  6
Continuous
 62
     7
370
    15
100
AcDbLine
 10
138.6762299928
 20
145.884938297
 30
0.0
 11
138.6762299928
 21
156.5867616516
 31
0.0
  0
SPLINE
  5
D3
330
1F
100
AcDbEntity
  8
0
  6
Continuous
 62
     7
370
    15
100
AcDbSpline
210
0.0
220
0.0
230
1.0
 70
     8
 71
     3
 72
     8
 73
     4
 74
     0
 42
0.00000001
 43
0.00000001
 40
0.0
 40
0.0
 40
0.0
 40
0.0
 40
1.0
 40
1.0
 40
1.0
 40
1.0
 10
137.3242009719071
 20
148.9404535517862
 30
0.0
 10
137.7811273257067
 20
147.9245355821119
 30
0.0
 10
138.2323329675097
 20
146.9057397530208
 30
0.0
 10
138.6762299928286
 20
145.8849382970371
 30
0.0
  0
LINE
  5
D4
330
1F
100
AcDbEntity
  8
0
  6
Continuous
 62
     7
370
    15
100
AcDbLine
 10
148.5362299928
 20
158.9792856466
 30
0.0
 11
143.8482590137
 21
158.9792856466
 31
0.0
  0
LINE
  5
D5
330
1F
100
AcDbEntity
  8
0
  6
Continuous
 62
     7
370
    15
100
AcDbLine
 10
143.8482590137
 20
148.9404535518
 30
0.0
 11
148.5362299928
 21
148.9404535518
 31
0.0
  0
LINE
  5
D6
330
1F
100
AcDbEntity
  8
0
  6
Continuous
 62
     7
370
    15
100
AcDbLine
 10
143.8482590137
 20
148.9404535518
 30
0.0
 11
143.8482590137
 21
158.9792856466
 31
0.0
  0
SPLINE
  5
D7
330
1F
100
AcDbEntity
  8
0
  6
Continuous
 62
     7
370
    15
100
AcDbSpline
210
0.0
220
0.0
230
1.0
 70
     8
 71
     3
 72
    14
 73
    10
 74
     0
 42
0.00000001
 43
0.00000001
 40
0.0
 40
0.0
 40
0.0
 40
0.0
 40
0.25
 40
0.25
 40
0.5
 40
0.5
 40
0.75
 40
0.75
 40
1.0
 40
1.0
 40
1.0
 40
1.0
 10
142.4962299928285
 20
155.6830420317473
 30
0.0
 10
142.4962299928286
 20
155.5766853379949
 30
0.0
 10
142.4758424366873
 20
155.4708448502348
 30
0.0
 10
142.3972080912258
 20
155.2742799366984
 30
0.0
 10
142.3384767315871
 20
155.1831091944113
 30
0.0
 10
142.1918678259846
 20
155.0311981053796
 30
0.0
 10
142.102462505958
 20
154.96912926856
 30
0.0
 10
141.9085717733577
 20
154.8858612208013
 30
0.0
 10
141.8020667834679
 20
154.8637665510717
 30
0.0
 10
141.6962299928285
 20
154.8637665510717
 30
0.0
  0
SPLINE
  5
D8
330
1F
100
AcDbEntity
  8
0
  6
Continuous
 62
     7
370
    15
100
AcDbSpline
210
0.0
220
0.0
230
1.0
 70
     8
 71
     3
 72
    12
 73
     8
 74
     0
 42
0.00000001
 43
0.00000001
 40
0.0
 40
0.0
 40
0.0
 40
0.0
 40
0.250000000000002
 40
0.250000000000002
 40
0.500000000000004
 40
0.500000000000004
 40
1.0
 40
1.0
 40
1.0
 40
1.0
 10
141.6962299928285
 20
143.6180222039718
 30
0.0
 10
141.8199309428085
 20
143.6180222039718
 30
0.0
 10
141.9440275550787
 20
143.6600158157043
 30
0.0
 10
142.1506827181657
 20
143.7978111423487
 30
0.0
 10
142.2357234848926
 20
143.8917847408135
 30
0.0
 10
142.4352020533662
 20
144.2065729470345
 30
0.0
 10
142.4962299928286
 20
144.4568119392621
 30
0.0
 10
142.4962299928286
 20
144.7037259833963
 30
0.0
  0
SPLINE
  5
D9
330
1F
100
AcDbEntity
  8
0
  6
Continuous
 62
     7
370
    15
100
AcDbSpline
210
0.0
220
0.0
230
1.0
 70
     8
 71
     3
 72
     8
 73
     4
 74
     0
 42
0.00000001
 43
0.00000001
 40
0.0
 40
0.0
 40
0.0
 40
0.0
 40
1.0
 40
1.0
 40
1.0
 40
1.0
 10
143.8482590137499
 20
158.9792856465629
 30
0.0
 10
143.3972320450367
 20
158.181975076375
 30
0.0
 10
142.9465382285131
 20
157.3844767767178
 30
0.0
 10
142.4962299928285
 20
156.5867616516042
 30
0.0
  0
SPLINE
  5
DA
330
1F
100
AcDbEntity
  8
0
  6
Continuous
 62
     7
370
    15
100
AcDbSpline
210
0.0
220
0.0
230
1.0
 70
     8
 71
     3
 72
     8
 73
     4
 74
     0
 42
0.00000001
 43
0.00000001
 40
0.0
 40
0.0
 40
0.0
 40
0.0
 40
1.0
 40
1.0
 40
1.0
 40
1.0
 10
142.4962299928285
 20
145.8849382970371
 30
0.0
 10
142.940380003854
 20
146.9063215279888
 30
0.0
 10
143.391454314112
 20
147.9248060647571
 30
0.0
 10
143.8482590137499
 20
148.9404535517862
 30
0.0
  0
LINE
  5
DB
330
1F
100
AcDbEntity
  8
0
  6
Continuous
 62
     7
370
    15
100
AcDbLine
 10
142.4962299928
 20
145.884938297
 30
0.0
 11
142.4962299928
 21
156.5867616516
 31
0.0
  0
LINE
  5
DC
330
1F
100
AcDbEntity
  8
0
  6
Continuous
 62
     7
370
    15
100
AcDbLine
 10
138.6762299928
 20
145.884938297
 30
0.0
 11
138.6762299928
 21
144.7037259834
 31
0.0
  0
LINE
  5
DD
330
1F
100
AcDbEntity
  8
0
  6
Continuous
 62
     7
370
    15
100
AcDbLine
 10
139.4762299928
 20
143.618022204
 30
0.0
 11
141.6962299928
 21
143.618022204
 31
0.0
  0
LINE
  5
DE
330
1F
100
AcDbEntity
  8
0
  6
Continuous
 62
     7
370
    15
100
AcDbLine
 10
142.4962299928
 20
144.7037259834
 30
0.0
 11
142.4962299928
 21
145.884938297
 31
0.0
  0
LINE
  5
DF
330
1F
100
AcDbEntity
  8
0
  6
Continuous
 62
     7
370
    15
100
AcDbLine
 10
149.5362299928
 20
147.6481883255
 30
0.0
 11
149.5362299928
 21
141.3394907909
 31
0.0
  0
LINE
  5
E0
330
1F
100
AcDbEntity
  8
0
  6
Continuous
 62
     7
370
    15
100
AcDbLine
 10
141.6962299928
 20
154.8637665511
 30
0.0
 11
139.4762299928
 21
154.8637665511
 31
0.0
  0
LINE
  5
E1
330
1F
100
AcDbEntity
  8
0
  6
Continuous
 62
     7
370
    15
100
AcDbLine
 10
230.5862299928
 20
80.8179179156
 30
0.0
 11
230.5862299928
 21
139.1610636535
 31
0.0
  0
ARC
  5
E2
330
1F
100
AcDbEntity
  8
0
  6
Continuous
 62
     7
370
    15
100
AcDbCircle
 10
129.6546684994
 20
143.0062368801
 30
0.0
 40
10.99456391351593
100
AcDbArc
 50
77.5315512086
 51
90.3566547011
  0
ARC
  5
E3
330
1F
100
AcDbEntity
  8
0
  6
Continuous
 62
     7
370
    15
100
AcDbCircle
 10
129.5185551764
 20
142.9946448085
 30
0.0
 40
11.00615103846227
100
AcDbArc
 50
89.6476964764
 51
102.3726316859
  0
LINE
  5
E4
330
1F
100
AcDbEntity
  8
0
  6
Continuous
 62
     7
370
    15
100
AcDbLine
 10
72.3362299928
 20
77.7394907909
 30
0.0
 11
72.3362299928
 21
77.7412055891
 31
0.0
  0
LINE
  5
E5
330
1F
100
AcDbEntity
  8
0
  6
Continuous
 62
     7
370
    15
100
AcDbLine
 10
72.3362299928
 20
142.2394907909
 30
0.0
 11
72.3362299928
 21
142.2377759927
 31
0.0
  0
LWPOLYLINE
  5
E6
330
1F
100
AcDbEntity
  8
0
  6
HIDDEN
 62
     7
370
     0
100
AcDbPolyline
 90
       20
 70
   128
 43
0.0
 10
223.3155550822
 20
92.1978957305
 10
223.3055400301
 20
92.8073154309
 10
223.3038047957
 20
93.3030381249
 10
223.3105374188
 20
93.6313445668
 10
223.325008315
 20
93.7566576593
 10
223.3456493383
 20
93.6653977844
 10
223.3702237134
 20
93.3674543657
 10
223.3960684256
 20
92.8951141956
 10
223.4203827992
 20
92.2995626606
 10
223.4405319946
 20
91.6453370105
 10
223.4543325338
 20
91.0033327459
 10
223.4602889142
 20
90.4431209905
 10
223.4577556697
 20
90.0254093806
 10
223.4470073166
 20
89.7954634507
 10
223.4292086056
 20
89.7782014101
 10
223.4062883034
 20
89.9754938689
 10
223.3807301802
 20
90.3659611278
 10
223.3553038554
 20
90.9072900006
 10
223.3327646657
 20
91.5408191044
 10
223.3155550822
 20
92.1978957305
  0
LWPOLYLINE
  5
E7
330
1F
100
AcDbEntity
  8
0
  6
HIDDEN
 62
     7
370
     0
100
AcDbPolyline
 90
       17
 70
   128
 43
0.0
 10
222.5910300562
 20
92.0121577808
 10
222.5841616627
 20
92.4576926002
 10
222.5846560944
 20
92.7935535119
 10
222.5924380784
 20
92.9686087367
 10
222.6063228783
 20
92.9562077034
 10
222.6241966591
 20
92.758238357
 10
222.6433382998
 20
92.4048397358
 10
222.6608336591
 20
91.9498135764
 10
222.674019227
 20
91.4624334867
 10
222.6808876205
 20
91.0168986672
 10
222.6803931889
 20
90.6810377555
 10
222.6726112049
 20
90.5059825308
 10
222.658726405
 20
90.518383564
 10
222.6408526241
 20
90.7163529105
 10
222.6217109834
 20
91.0697515317
 10
222.6042156242
 20
91.5247776911
 10
222.5910300562
 20
92.0121577808
  0
LWPOLYLINE
  5
E8
330
1F
100
AcDbEntity
  8
0
  6
HIDDEN
 62
     7
370
     0
100
AcDbPolyline
 90
       20
 70
   128
 43
0.0
 10
230.3349725852
 20
92.3929113011
 10
230.3249575331
 20
93.0023310015
 10
230.3232222988
 20
93.4980536955
 10
230.3299549218
 20
93.8263601374
 10
230.3444258181
 20
93.9516732299
 10
230.3650668413
 20
93.860413355
 10
230.3896412165
 20
93.5624699363
 10
230.4154859286
 20
93.0901297662
 10
230.4398003022
 20
92.4945782312
 10
230.4599494976
 20
91.8403525811
 10
230.4737500368
 20
91.1983483165
 10
230.4797064173
 20
90.6381365611
 10
230.4771731728
 20
90.2204249512
 10
230.4664248196
 20
89.9904790213
 10
230.4486261087
 20
89.9732169807
 10
230.4257058064
 20
90.1705094395
 10
230.4001476833
 20
90.5609766984
 10
230.3747213585
 20
91.1023055712
 10
230.3521821688
 20
91.735834675
 10
230.3349725852
 20
92.3929113011
  0
ARC
  5
E9
330
1F
100
AcDbEntity
  8
0
  6
HIDDEN
 62
     7
370
     0
100
AcDbCircle
 10
237.9685015043
 20
92.8584175482
 30
0.0
 40
7.415644546739851
100
AcDbArc
 50
174.562189867
 51
184.2147505178
  0
ARC
  5
EA
330
1F
100
AcDbEntity
  8
0
  6
HIDDEN
 62
     7
370
     0
100
AcDbCircle
 10
248.7799117901
 20
92.2606951632
 30
0.0
 40
18.20707618308069
100
AcDbArc
 50
179.8341269571
 51
186.0177552077
  0
LINE
  5
EB
330
1F
100
AcDbEntity
  8
0
  6
HIDDEN
 62
     7
370
     0
100
AcDbLine
 10
230.6245610489
 20
92.8075589574
 30
0.0
 11
230.6646879876
 21
91.705475914
 31
0.0
  0
LINE
  5
EC
330
1F
100
AcDbEntity
  8
0
  6
HIDDEN
 62
     7
370
     0
100
AcDbLine
 10
228.1264884583
 20
92.7381567525
 30
0.0
 11
228.166615397
 21
91.6360737091
 31
0.0
  0
LINE
  5
ED
330
1F
100
AcDbEntity
  8
0
  6
HIDDEN
 62
     7
370
     0
100
AcDbLine
 10
228.1684112797
 20
90.787897441
 30
0.0
 11
228.166615397
 21
91.6360737091
 31
0.0
  0
LINE
  5
EE
330
1F
100
AcDbEntity
  8
0
  6
HIDDEN
 62
     7
370
     0
100
AcDbLine
 10
228.166615397
 20
91.6360737091
 30
0.0
 11
230.6646879876
 21
91.705475914
 31
0.0
  0
LINE
  5
EF
330
1F
100
AcDbEntity
  8
0
  6
HIDDEN
 62
     7
370
     0
100
AcDbLine
 10
230.6664838703
 20
90.8572996459
 30
0.0
 11
230.6646879876
 21
91.705475914
 31
0.0
  0
LINE
  5
F0
330
1F
100
AcDbEntity
  8
0
  6
HIDDEN
 62
     7
370
     0
100
AcDbLine
 10
228.0881574022
 20
92.9920635279
 30
0.0
 11
228.1264884583
 21
92.7381567525
 31
0.0
  0
LINE
  5
F1
330
1F
100
AcDbEntity
  8
0
  6
HIDDEN
 62
     7
370
     0
100
AcDbLine
 10
228.1264884583
 20
92.7381567525
 30
0.0
 11
230.6245610489
 21
92.8075589574
 31
0.0
  0
LINE
  5
F2
330
1F
100
AcDbEntity
  8
0
  6
HIDDEN
 62
     7
370
     0
100
AcDbLine
 10
230.5862299928
 20
93.0614657328
 30
0.0
 11
230.6245610489
 21
92.8075589574
 31
0.0
  0
LINE
  5
F3
330
1F
100
AcDbEntity
  8
0
  6
HIDDEN
 62
     7
370
     0
100
AcDbLine
 10
228.1300802236
 20
91.0418042164
 30
0.0
 11
230.6281528142
 21
91.1112064213
 31
0.0
  0
LINE
  5
F4
330
1F
100
AcDbEntity
  8
0
  6
HIDDEN
 62
     7
370
     0
100
AcDbLine
 10
228.1684112797
 20
90.787897441
 30
0.0
 11
230.6664838703
 21
90.8572996459
 31
0.0
  0
LINE
  5
F5
330
1F
100
AcDbEntity
  8
0
  6
HIDDEN
 62
     7
370
     0
100
AcDbLine
 10
228.1300802236
 20
91.0418042164
 30
0.0
 11
228.1684112797
 21
90.787897441
 31
0.0
  0
LINE
  5
F6
330
1F
100
AcDbEntity
  8
0
  6
HIDDEN
 62
     7
370
     0
100
AcDbLine
 10
230.6281528142
 20
91.1112064213
 30
0.0
 11
230.6664838703
 21
90.8572996459
 31
0.0
  0
LINE
  5
F7
330
1F
100
AcDbEntity
  8
0
  6
HIDDEN
 62
     7
370
     0
100
AcDbLine
 10
228.0899532849
 20
92.1438872598
 30
0.0
 11
230.5880258755
 21
92.2132894647
 31
0.0
  0
LINE
  5
F8
330
1F
100
AcDbEntity
  8
0
  6
HIDDEN
 62
     7
370
     0
100
AcDbLine
 10
228.0881574022
 20
92.9920635279
 30
0.0
 11
230.5862299928
 21
93.0614657328
 31
0.0
  0
LINE
  5
F9
330
1F
100
AcDbEntity
  8
0
  6
HIDDEN
 62
     7
370
     0
100
AcDbLine
 10
228.0881574022
 20
92.9920635279
 30
0.0
 11
228.0899532849
 21
92.1438872598
 31
0.0
  0
LINE
  5
FA
330
1F
100
AcDbEntity
  8
0
  6
HIDDEN
 62
     7
370
     0
100
AcDbLine
 10
230.5862299928
 20
93.0614657328
 30
0.0
 11
230.5880258755
 21
92.2132894647
 31
0.0
  0
LINE
  5
FB
330
1F
100
AcDbEntity
  8
0
  6
HIDDEN
 62
     7
370
     0
100
AcDbLine
 10
228.1300802236
 20
91.0418042164
 30
0.0
 11
228.0899532849
 21
92.1438872598
 31
0.0
  0
LINE
  5
FC
330
1F
100
AcDbEntity
  8
0
  6
HIDDEN
 62
     7
370
     0
100
AcDbLine
 10
230.6281528142
 20
91.1112064213
 30
0.0
 11
230.5880258755
 21
92.2132894647
 31
0.0
  0
ARC
  5
FD
330
1F
100
AcDbEntity
  8
0
  6
HIDDEN
 62
     7
370
     0
100
AcDbCircle
 10
245.6886204115
 20
127.2201439034
 30
0.0
 40
15.12409740115723
100
AcDbArc
 50
176.9298854294
 51
183.0701145706
  0
LWPOLYLINE
  5
FE
330
1F
100
AcDbEntity
  8
0
  6
HIDDEN
 62
     7
370
     0
100
AcDbPolyline
 90
       20
 70
   128
 43
0.0
 10
230.4577354146
 20
127.9047771144
 10
230.4739924103
 20
128.559290248
 10
230.4828436364
 20
129.1559839136
 10
230.4833299252
 20
129.630197094
 10
230.4753985798
 20
129.9305414327
 10
230.4599090844
 20
130.0244699605
 10
230.4385399664
 20
129.9018040638
 10
230.4136069011
 20
129.575836496
 10
230.3878117731
 20
129.0818909008
 10
230.3639498847
 20
128.473493948
 10
230.3446070419
 20
127.8165748875
 10
230.3318793418
 20
127.1823210928
 10
230.3271460281
 20
126.6394638039
 10
230.3309200288
 20
126.2468300315
 10
230.3427923725
 20
126.046967737
 10
230.3614765065
 20
126.0615351014
 10
230.3849477148
 20
126.2889535245
 10
230.410662528
 20
126.7045786916
 10
230.435834347
 20
127.2633711666
 10
230.4577354146
 20
127.9047771144
  0
LWPOLYLINE
  5
FF
330
1F
100
AcDbEntity
  8
0
  6
HIDDEN
 62
     7
370
     0
100
AcDbPolyline
 90
       20
 70
   128
 43
0.0
 10
223.4383179115
 20
128.099792685
 10
223.4545749072
 20
128.7543058186
 10
223.4634261333
 20
129.3509994842
 10
223.4639124222
 20
129.8252126646
 10
223.4559810767
 20
130.1255570033
 10
223.4404915814
 20
130.2194855311
 10
223.4191224633
 20
130.0968196344
 10
223.394189398
 20
129.7708520666
 10
223.36839427
 20
129.2769064714
 10
223.3445323817
 20
128.6685095186
 10
223.3251895389
 20
128.0115904581
 10
223.3124618387
 20
127.3773366634
 10
223.307728525
 20
126.8344793746
 10
223.3115025258
 20
126.4418456021
 10
223.3233748695
 20
126.2419833077
 10
223.3420590034
 20
126.256550672
 10
223.3655302118
 20
126.4839690951
 10
223.3912450249
 20
126.8995942622
 10
223.4164168439
 20
127.4583867372
 10
223.4383179115
 20
128.099792685
  0
LWPOLYLINE
  5
100
330
1F
100
AcDbEntity
  8
0
  6
HIDDEN
 62
     7
370
     0
100
AcDbPolyline
 90
       17
 70
   128
 43
0.0
 10
222.6693647648
 20
128.1659708998
 10
222.6809406911
 20
128.6490193112
 10
222.6857984977
 20
129.0700367748
 10
222.6831986275
 20
129.3649271981
 10
222.6735368871
 20
129.4887961874
 10
222.658284189
 20
129.4227858121
 10
222.6397626181
 20
129.1769455532
 10
222.6207919158
 20
128.7887023618
 10
222.6042601995
 20
128.3171627442
 10
222.5926842732
 20
127.8341143328
 10
222.5878264666
 20
127.4130968692
 10
222.5904263369
 20
127.1182064459
 10
222.6000880772
 20
126.9943374566
 10
222.6153407753
 20
127.0603478319
 10
222.6338623462
 20
127.3061880908
 10
222.6528330485
 20
127.6944312822
 10
222.6693647648
 20
128.1659708998
  0
LINE
  5
101
330
1F
100
AcDbEntity
  8
0
  6
HIDDEN
 62
     7
370
     0
100
AcDbLine
 10
228.1025016709
 20
128.1587144929
 30
0.0
 11
230.6005742615
 21
128.0893122881
 31
0.0
  0
LINE
  5
102
330
1F
100
AcDbEntity
  8
0
  6
HIDDEN
 62
     7
370
     0
100
AcDbLine
 10
228.1182279128
 20
127.0561822181
 30
0.0
 11
228.1626426921
 21
128.0190494496
 31
0.0
  0
LINE
  5
103
330
1F
100
AcDbEntity
  8
0
  6
HIDDEN
 62
     7
370
     0
100
AcDbLine
 10
228.1182279128
 20
127.0561822181
 30
0.0
 11
228.0881574022
 21
127.1260147397
 31
0.0
  0
LINE
  5
104
330
1F
100
AcDbEntity
  8
0
  6
HIDDEN
 62
     7
370
     0
100
AcDbLine
 10
228.1769869607
 20
129.0517492028
 30
0.0
 11
228.1469164501
 21
129.1215817245
 31
0.0
  0
LINE
  5
105
330
1F
100
AcDbEntity
  8
0
  6
HIDDEN
 62
     7
370
     0
100
AcDbLine
 10
228.1769869607
 20
129.0517492028
 30
0.0
 11
228.1626426921
 21
128.0190494496
 31
0.0
  0
LINE
  5
106
330
1F
100
AcDbEntity
  8
0
  6
HIDDEN
 62
     7
370
     0
100
AcDbLine
 10
228.1469164501
 20
129.1215817245
 30
0.0
 11
228.1025016709
 21
128.1587144929
 31
0.0
  0
LINE
  5
107
330
1F
100
AcDbEntity
  8
0
  6
HIDDEN
 62
     7
370
     0
100
AcDbLine
 10
228.0881574022
 20
127.1260147397
 30
0.0
 11
228.1025016709
 21
128.1587144929
 31
0.0
  0
LINE
  5
108
330
1F
100
AcDbEntity
  8
0
  6
HIDDEN
 62
     7
370
     0
100
AcDbLine
 10
228.0881574022
 20
127.1260147397
 30
0.0
 11
230.5862299928
 21
127.0566125349
 31
0.0
  0
LINE
  5
109
330
1F
100
AcDbEntity
  8
0
  6
HIDDEN
 62
     7
370
     0
100
AcDbLine
 10
228.1769869607
 20
129.0517492028
 30
0.0
 11
230.6418104421
 21
128.9832707347
 31
0.0
  0
LINE
  5
10A
330
1F
100
AcDbEntity
  8
0
  6
HIDDEN
 62
     7
370
     0
100
AcDbLine
 10
228.1469164501
 20
129.1215817245
 30
0.0
 11
230.6449890407
 21
129.0521795196
 31
0.0
  0
LINE
  5
10B
330
1F
100
AcDbEntity
  8
0
  6
HIDDEN
 62
     7
370
     0
100
AcDbLine
 10
228.1626426921
 20
128.0190494496
 30
0.0
 11
230.5986582524
 21
127.9513713318
 31
0.0
  0
LINE
  5
10C
330
1F
100
AcDbEntity
  8
0
  6
HIDDEN
 62
     7
370
     0
100
AcDbLine
 10
228.1182279128
 20
127.0561822181
 30
0.0
 11
230.6163005034
 21
126.9867800132
 31
0.0
  0
ARC
  5
10D
330
1F
100
AcDbEntity
  8
0
  6
HIDDEN
 62
     7
370
     0
100
AcDbCircle
 10
169.0862299928
 20
109.9894907909
 30
0.0
 40
9.000000000000014
100
AcDbArc
 50
302.3987550696
 51
57.8453625411
  0
ARC
  5
10E
330
1F
100
AcDbEntity
  8
0
  6
HIDDEN
 62
     7
370
     0
100
AcDbCircle
 10
169.0862299928
 20
109.9894907909
 30
0.0
 40
9.0
100
AcDbArc
 50
122.1683340316
 51
237.6019096521
  0
CIRCLE
  5
10F
330
1F
100
AcDbEntity
  8
0
  6
HIDDEN
 62
     7
370
     0
100
AcDbCircle
 10
169.0862299928
 20
109.9894907909
 30
0.0
 40
5.000000000000003
  0
CIRCLE
  5
110
330
1F
100
AcDbEntity
  8
0
  6
HIDDEN
 62
     7
370
     0
100
AcDbCircle
 10
169.0862299928
 20
109.9894907909
 30
0.0
 40
6.999999999999988
  0
ARC
  5
111
330
1F
100
AcDbEntity
  8
0
  6
HIDDEN
 62
     7
370
     0
100
AcDbCircle
 10
201.0862299928
 20
109.9894907909
 30
0.0
 40
8.999999999999984
100
AcDbArc
 50
302.3987550696
 51
57.8453625411
  0
ARC
  5
112
330
1F
100
AcDbEntity
  8
0
  6
HIDDEN
 62
     7
370
     0
100
AcDbCircle
 10
201.0862299928
 20
109.9894907909
 30
0.0
 40
8.999999999999996
100
AcDbArc
 50
122.1683340316
 51
237.6019096521
  0
CIRCLE
  5
113
330
1F
100
AcDbEntity
  8
0
  6
HIDDEN
 62
     7
370
     0
100
AcDbCircle
 10
201.0862299928
 20
109.9894907909
 30
0.0
 40
4.999999999999998
  0
CIRCLE
  5
114
330
1F
100
AcDbEntity
  8
0
  6
HIDDEN
 62
     7
370
     0
100
AcDbCircle
 10
201.0862299928
 20
109.9894907909
 30
0.0
 40
6.999999999999983
  0
LINE
  5
115
330
1F
100
AcDbEntity
  8
0
  6
HIDDEN
 62
     7
370
     0
100
AcDbLine
 10
137.3242009719
 20
148.9404535518
 30
0.0
 11
137.3242009719
 21
141.3394907909
 31
0.0
  0
SPLINE
  5
116
330
1F
100
AcDbEntity
  8
0
  6
HIDDEN
 62
     7
370
     0
100
AcDbSpline
210
0.0
220
0.0
230
1.0
 70
     8
 71
     3
 72
    80
 73
    76
 74
     0
 42
0.00000001
 43
0.00000001
 40
-0.0312500000000001
 40
-0.0312500000000001
 40
0.0
 40
0.0
 40
0.0312499999999998
 40
0.0312499999999998
 40
0.0468749999999998
 40
0.0468749999999998
 40
0.0624999999999997
 40
0.0624999999999997
 40
0.0937499999999997
 40
0.0937499999999997
 40
0.1249999999999997
 40
0.1249999999999997
 40
0.1562499999999997
 40
0.1562499999999997
 40
0.1874999999999997
 40
0.1874999999999997
 40
0.2187499999999997
 40
0.2187499999999997
 40
0.2499999999999997
 40
0.2499999999999997
 40
0.2812499999999997
 40
0.2812499999999997
 40
0.3124999999999997
 40
0.3124999999999997
 40
0.3281249999999998
 40
0.3281249999999998
 40
0.3437499999999999
 40
0.3437499999999999
 40
0.3750000000000001
 40
0.3750000000000001
 40
0.4062500000000004
 40
0.4062500000000004
 40
0.4218750000000004
 40
0.4218750000000004
 40
0.4375000000000006
 40
0.4375000000000006
 40
0.4687500000000005
 40
0.4687500000000005
 40
0.5000000000000004
 40
0.5000000000000004
 40
0.5312500000000004
 40
0.5312500000000004
 40
0.5625000000000003
 40
0.5625000000000003
 40
0.5937500000000003
 40
0.5937500000000003
 40
0.6250000000000002
 40
0.6250000000000002
 40
0.6562500000000002
 40
0.6562500000000002
 40
0.6875000000000001
 40
0.6875000000000001
 40
0.7031250000000002
 40
0.7031250000000002
 40
0.7187500000000002
 40
0.7187500000000002
 40
0.7500000000000001
 40
0.7500000000000001
 40
0.7812500000000001
 40
0.7812500000000001
 40
0.7968750000000001
 40
0.7968750000000001
 40
0.8125000000000002
 40
0.8125000000000002
 40
0.8437500000000001
 40
0.8437500000000001
 40
0.8750000000000001
 40
0.8750000000000001
 40
0.90625
 40
0.90625
 40
0.9375
 40
0.9375
 40
0.9687499999999999
 40
0.9687499999999999
 40
1.0
 40
1.0
 40
1.03125
 40
1.03125
 10
124.5862299928286
 20
157.4401725390433
 30
0.0
 10
124.5862299928286
 20
157.6444606722706
 30
0.0
 10
124.6186850870091
 20
157.7417703363236
 30
0.0
 10
124.7140303412434
 20
157.8810406074882
 30
0.0
 10
124.7536471993972
 20
157.9263448071211
 30
0.0
 10
124.8489052952223
 20
158.0147706472988
 30
0.0
 10
124.9048014063662
 20
158.0579890244282
 30
0.0
 10
125.0930800671033
 20
158.1817471817339
 30
0.0
 10
125.2466704152859
 20
158.257388412985
 30
0.0
 10
125.6095041060629
 20
158.3965526905432
 30
0.0
 10
125.8205583281907
 20
158.4602377203611
 30
0.0
 10
126.2815586184654
 20
158.5715886171105
 30
0.0
 10
126.5331369207863
 20
158.620059938082
 30
0.0
 10
127.079609323181
 20
158.7040170471244
 30
0.0
 10
127.3703276152616
 20
158.7387175614541
 30
0.0
 10
127.9718707622437
 20
158.793788230026
 30
0.0
 10
128.2871456080051
 20
158.8145735064582
 30
0.0
 10
128.9326452751239
 20
158.8422423290973
 30
0.0
 10
129.2571937412075
 20
158.8490018153825
 30
0.0
 10
129.9097994746078
 20
158.8490779604448
 30
0.0
 10
130.2412685011195
 20
158.8421712408457
 30
0.0
 10
130.8826827651178
 20
158.8146950650029
 30
0.0
 10
131.1944571805691
 20
158.7942754209451
 30
0.0
 10
131.6486556524947
 20
158.7528045465503
 30
0.0
 10
131.798536778287
 20
158.7370551413444
 30
0.0
 10
132.0879909481473
 20
158.7022718035144
 30
0.0
 10
132.2279987805998
 20
158.6832210950026
 30
0.0
 10
132.6342047896866
 20
158.6209103546048
 30
0.0
 10
132.8867216808327
 20
158.5725554633253
 30
0.0
 10
133.3537369199742
 20
158.459836936818
 30
0.0
 10
133.5605207588039
 20
158.3973145999099
 30
0.0
 10
133.8321522513826
 20
158.2933869378023
 30
0.0
 10
133.9162309603456
 20
158.2570426610144
 30
0.0
 10
134.0711624959209
 20
158.1806703437855
 30
0.0
 10
134.1421392837565
 20
158.1404951101422
 30
0.0
 10
134.3304416675745
 20
158.0167197881683
 30
0.0
 10
134.4251196148988
 20
157.9291563962226
 30
0.0
 10
134.553275609338
 20
157.7430311295418
 30
0.0
 10
134.5861097109398
 20
157.6437347156999
 30
0.0
 10
134.5863495995044
 20
157.4420340113287
 30
0.0
 10
134.5548168860067
 20
157.3387185403417
 30
0.0
 10
134.4269734003441
 20
157.1273897374893
 30
0.0
 10
134.3310809860306
 20
157.0209665099109
 30
0.0
 10
134.0821301568423
 20
156.8130770115372
 30
0.0
 10
133.9272380753712
 20
156.7100294449145
 30
0.0
 10
133.5621144215486
 20
156.5120983500211
 30
0.0
 10
133.3554100100214
 20
156.4188510374575
 30
0.0
 10
132.8949089123778
 20
156.2451986294086
 30
0.0
 10
132.6379962947285
 20
156.1641276828062
 30
0.0
 10
132.0949531102425
 20
156.0230434028246
 30
0.0
 10
131.8080288766481
 20
155.9623850349608
 30
0.0
 10
131.3543041195019
 20
155.8874633343077
 30
0.0
 10
131.1982681017084
 20
155.8650931889393
 30
0.0
 10
130.8840319498942
 20
155.826823082395
 30
0.0
 10
130.725559414056
 20
155.8108369255429
 30
0.0
 10
130.24616935155
 20
155.7722667509214
 30
0.0
 10
129.9213180581895
 20
155.7589982258706
 30
0.0
 10
129.2606596387862
 20
155.7587438139649
 30
0.0
 10
128.9351324046688
 20
155.7717952261561
 30
0.0
 10
128.4556012569807
 20
155.8100218254231
 30
0.0
 10
128.2971213024907
 20
155.825890555069
 30
0.0
 10
127.9829456340112
 20
155.8639077043992
 30
0.0
 10
127.8267442503216
 20
155.8861720221448
 30
0.0
 10
127.3723347607871
 20
155.9608364558776
 30
0.0
 10
127.0850778125714
 20
156.0213312759425
 30
0.0
 10
126.5415223996988
 20
156.1620457537589
 30
0.0
 10
126.284181406087
 20
156.2429785595852
 30
0.0
 10
125.8227861441589
 20
156.416415184538
 30
0.0
 10
125.6157010148465
 20
156.5095449162639
 30
0.0
 10
125.2498316315175
 20
156.7071902346233
 30
0.0
 10
125.0942187947624
 20
156.8103088662051
 30
0.0
 10
124.8442555632183
 20
157.018097843586
 30
0.0
 10
124.7480267628076
 20
157.1241692039924
 30
0.0
 10
124.6186889366849
 20
157.3360381720316
 30
0.0
 10
124.5862299928286
 20
157.4401725390433
 30
0.0
 10
124.5862299928286
 20
157.6444606722706
 30
0.0
  0
SPLINE
  5
117
330
1F
100
AcDbEntity
  8
0
  6
HIDDEN
 62
     7
370
     0
100
AcDbSpline
210
0.0
220
0.0
230
1.0
 70
     8
 71
     3
 72
    13
 73
     9
 74
     0
 42
0.00000001
 43
0.00000001
 40
0.0
 40
0.0
 40
0.0
 40
0.0
 40
0.33603943401363
 40
0.4528671964518401
 40
0.5720723495372921
 40
0.6936830960281666
 40
0.8817098546872454
 40
1.0
 40
1.0
 40
1.0
 40
1.0
 10
201.0862299928286
 20
100.9894907908993
 30
0.0
 10
201.6602196526988
 20
101.019199665705
 30
0.0
 10
202.4337630578673
 20
101.0592371538127
 30
0.0
 10
203.3830115695478
 20
101.2813745674425
 30
0.0
 10
203.9660789850788
 20
101.4546234324372
 30
0.0
 10
204.6464683078528
 20
101.7134570483574
 30
0.0
 10
205.3090882604042
 20
102.0155781158116
 30
0.0
 10
205.7411294029858
 20
102.302120722986
 30
0.0
 10
205.9079703734787
 20
102.4127746444689
 30
0.0
  0
SPLINE
  5
118
330
1F
100
AcDbEntity
  8
0
  6
HIDDEN
 62
     7
370
     0
100
AcDbSpline
210
0.0
220
0.0
230
1.0
 70
     8
 71
     3
 72
    16
 73
    12
 74
     0
 42
0.00000001
 43
0.00000001
 40
0.0
 40
0.0
 40
0.0
 40
0.0
 40
0.0783689992588843
 40
0.1503405434609238
 40
0.333180540484771
 40
0.4997228636553196
 40
0.6661863175045767
 40
0.7253622639269048
 40
0.7863684345176954
 40
0.8492180297893747
 40
1.0
 40
1.0
 40
1.0
 40
1.0
 10
205.883498536707
 20
117.6022780216776
 30
0.0
 10
205.6576506592442
 20
117.7376037941632
 30
0.0
 10
205.2243914246191
 20
117.9972083619404
 30
0.0
 10
204.2044134467964
 20
118.4644538991147
 30
0.0
 10
202.8341235017478
 20
118.8784631954067
 30
0.0
 10
201.0874653714001
 20
119.0425953465985
 30
0.0
 10
199.7584603760871
 20
118.9172146770246
 30
0.0
 10
198.8139304871722
 20
118.70517080978
 30
0.0
 10
198.2223220961883
 20
118.5285545156156
 30
0.0
 10
197.3526829992289
 20
118.2086419093673
 30
0.0
 10
196.7281305031609
 20
117.8518249444199
 30
0.0
 10
196.287318979618
 20
117.5999821755019
 30
0.0
  0
SPLINE
  5
119
330
1F
100
AcDbEntity
  8
0
  6
HIDDEN
 62
     7
370
     0
100
AcDbSpline
210
0.0
220
0.0
230
1.0
 70
     8
 71
     3
 72
    12
 73
     8
 74
     0
 42
0.00000001
 43
0.00000001
 40
0.0
 40
0.0
 40
0.0
 40
0.0
 40
0.0024081730300656
 40
0.1647163566378478
 40
0.3024228873125673
 40
0.661809505149898
 40
1.0
 40
1.0
 40
1.0
 40
1.0
 10
196.2770508833399
 20
102.3828817285058
 30
0.0
 10
196.2803553949421
 20
102.3805450687897
 30
0.0
 10
196.5063803129102
 20
102.2207201432869
 30
0.0
 10
196.9603877413131
 20
101.9844564080501
 30
0.0
 10
197.9644422099452
 20
101.5125788262098
 30
0.0
 10
199.3292514088469
 20
101.0877726038556
 30
0.0
 10
200.5125555001782
 20
101.0215809766867
 30
0.0
 10
201.0862299928286
 20
100.9894907908993
 30
0.0
  0
SPLINE
  5
11A
330
1F
100
AcDbEntity
  8
0
  6
HIDDEN
 62
     7
370
     0
100
AcDbSpline
210
0.0
220
0.0
230
1.0
 70
     8
 71
     3
 72
    12
 73
     8
 74
     0
 42
0.00000001
 43
0.00000001
 40
0.0
 40
0.0
 40
0.0
 40
0.0
 40
0.2029517405450042
 40
0.4058964291117269
 40
0.6089718635977734
 40
0.8120175249184247
 40
1.0
 40
1.0
 40
1.0
 40
1.0
 10
171.0862299928286
 20
99.00365230742389
 30
0.0
 10
170.4220987832004
 20
99.0352517420259
 30
0.0
 10
169.0938594405575
 20
99.0984495132422
 30
0.0
 10
167.1544611489394
 20
99.59277566311174
 30
0.0
 10
165.3338385737339
 20
100.3853169436834
 30
0.0
 10
163.69477888791
 20
101.42746892917
 30
0.0
 10
162.8016370212268
 20
102.3298139870377
 30
0.0
 10
162.3722688938003
 20
102.7636064473867
 30
0.0
  0
LWPOLYLINE
  5
11B
330
1F
100
AcDbEntity
  8
0
  6
HIDDEN
 62
     7
370
     0
100
AcDbPolyline
 90
       27
 70
   128
 43
0.0
 10
162.4516204929
 20
117.2815288569
 10
162.7096525537
 20
117.5849243953
 10
164.1064004105
 20
118.7683115705
 10
165.6771850837
 20
119.7147073681
 10
167.4656250015
 20
120.4297254474
 10
169.3503581844
 20
120.8527433554
 10
171.3345899957
 20
120.9718539716
 10
173.3119086793
 20
120.7730066264
 10
175.239850086
 20
120.2509068825
 10
177.0492048742
 20
119.4196889066
 10
178.6713882739
 20
118.3022349394
 10
180.073391523
 20
116.9218475123
 10
181.1743041975
 20
115.3614978243
 10
181.9865977138
 20
113.6280615049
 10
182.4583884234
 20
111.8677665437
 10
182.6262456194
 20
110.0498227994
 10
182.4914200564
 20
108.3049692985
 10
182.0760828559
 20
106.6077441854
 10
181.3925254573
 20
105.0105298651
 10
180.4647847214
 20
103.5467222203
 10
179.2721292855
 20
102.209100105
 10
177.8804158198
 20
101.0792825074
 10
176.242859911
 20
100.1432217011
 10
174.4718261746
 20
99.4781988695
 10
172.7967956245
 20
99.1232245913
 10
171.0862299921
 20
99.003652309
 10
171.0862299921
 20
99.003652309
  0
SPLINE
  5
11C
330
1F
100
AcDbEntity
  8
0
  6
HIDDEN
 62
     7
370
     0
100
AcDbSpline
210
0.0
220
0.0
230
1.0
 70
     8
 71
     3
 72
    98
 73
    94
 74
     0
 42
0.00000001
 43
0.00000001
 40
-0.03125
 40
-0.03125
 40
0.0
 40
0.0
 40
0.0312499999999999
 40
0.0312499999999999
 40
0.0468749999999999
 40
0.0468749999999999
 40
0.0624999999999998
 40
0.0624999999999998
 40
0.0937499999999997
 40
0.0937499999999997
 40
0.109375
 40
0.109375
 40
0.1250000000000002
 40
0.1250000000000002
 40
0.1562500000000007
 40
0.1562500000000007
 40
0.1718750000000009
 40
0.1718750000000009
 40
0.1875000000000011
 40
0.1875000000000011
 40
0.2187500000000013
 40
0.2187500000000013
 40
0.2343750000000014
 40
0.2343750000000014
 40
0.2500000000000014
 40
0.2500000000000014
 40
0.2656250000000015
 40
0.2656250000000015
 40
0.2812500000000016
 40
0.2812500000000016
 40
0.3125000000000017
 40
0.3125000000000017
 40
0.3281250000000017
 40
0.3281250000000017
 40
0.3437500000000016
 40
0.3437500000000016
 40
0.3593750000000016
 40
0.3593750000000016
 40
0.3750000000000015
 40
0.3750000000000015
 40
0.4062500000000015
 40
0.4062500000000015
 40
0.4375000000000014
 40
0.4375000000000014
 40
0.4687500000000014
 40
0.4687500000000014
 40
0.4843750000000011
 40
0.4843750000000011
 40
0.5000000000000008
 40
0.5000000000000008
 40
0.5312500000000008
 40
0.5312500000000008
 40
0.5625000000000008
 40
0.5625000000000008
 40
0.5781250000000006
 40
0.5781250000000006
 40
0.5937500000000003
 40
0.5937500000000003
 40
0.6249999999999999
 40
0.6249999999999999
 40
0.6406249999999996
 40
0.6406249999999996
 40
0.6562499999999993
 40
0.6562499999999993
 40
0.6874999999999992
 40
0.6874999999999992
 40
0.7031249999999992
 40
0.7031249999999992
 40
0.7187499999999991
 40
0.7187499999999991
 40
0.7499999999999991
 40
0.7499999999999991
 40
0.7812499999999992
 40
0.7812499999999992
 40
0.7968749999999992
 40
0.7968749999999992
 40
0.8124999999999993
 40
0.8124999999999993
 40
0.8437499999999994
 40
0.8437499999999994
 40
0.8593749999999996
 40
0.8593749999999996
 40
0.8749999999999996
 40
0.8749999999999996
 40
0.8906249999999997
 40
0.8906249999999997
 40
0.9062499999999997
 40
0.9062499999999997
 40
0.9374999999999999
 40
0.9374999999999999
 40
0.96875
 40
0.96875
 40
1.0
 40
1.0
 40
1.03125
 40
1.03125
 10
201.8343000206634
 20
99.00365230742388
 30
0.0
 10
200.3381599649938
 20
99.00365230742389
 30
0.0
 10
199.601939269587
 20
99.07086134865392
 30
0.0
 10
198.5146910386574
 20
99.26898870898987
 30
0.0
 10
198.1551421174912
 20
99.35137210231568
 30
0.0
 10
197.4419020140018
 20
99.5496987327306
 30
0.0
 10
197.0864614092013
 20
99.66640644284269
 30
0.0
 10
196.0486047430049
 20
100.0618358179677
 30
0.0
 10
195.3908312974755
 20
100.3856414956251
 30
0.0
 10
194.4549088068744
 20
100.9624518770599
 30
0.0
 10
194.1514477647441
 20
101.1700105514321
 30
0.0
 10
193.5622101521253
 20
101.6172169880122
 30
0.0
 10
193.2785218602012
 20
101.8555089386176
 30
0.0
 10
192.4721364132612
 20
102.6037743902828
 30
0.0
 10
191.9884523313367
 20
103.1506904636152
 30
0.0
 10
191.3455311569072
 20
104.0462593361796
 30
0.0
 10
191.144014903833
 20
104.3593852175293
 30
0.0
 10
190.7762613793331
 20
105.0017873828394
 30
0.0
 10
190.6101637144373
 20
105.3302540277607
 30
0.0
 10
190.1640992585414
 20
106.3371660087537
 30
0.0
 10
189.9357834976292
 20
107.0368931038189
 30
0.0
 10
189.7024471359624
 20
108.1319589714178
 30
0.0
 10
189.6440319326766
 20
108.5005265518646
 30
0.0
 10
189.5662482766061
 20
109.2362835611321
 30
0.0
 10
189.5465942513225
 20
109.6047879965916
 30
0.0
 10
189.5455158721657
 20
110.3430419787865
 30
0.0
 10
189.5640895226889
 20
110.7127914631645
 30
0.0
 10
189.6404693952879
 20
111.4535669938108
 30
0.0
 10
189.6985856195044
 20
111.8244947455386
 30
0.0
 10
189.9276183355956
 20
112.9121390350193
 30
0.0
 10
190.1533126386081
 20
113.6132203516541
 30
0.0
 10
190.6007206338393
 20
114.629431004691
 30
0.0
 10
190.7689551538918
 20
114.9632525907864
 30
0.0
 10
191.134749650716
 20
115.6045382953878
 30
0.0
 10
191.3329463769217
 20
115.9137758223182
 30
0.0
 10
191.7591609190083
 20
116.5102230487044
 30
0.0
 10
191.987181037862
 20
116.7974306934088
 30
0.0
 10
192.4731791657581
 20
117.3499360907999
 30
0.0
 10
192.7326574449478
 20
117.6165209967985
 30
0.0
 10
193.5432482315839
 20
118.3699632351695
 30
0.0
 10
194.1266153222663
 20
118.8128361385785
 30
0.0
 10
195.3765835263818
 20
119.585892002856
 30
0.0
 10
196.0487268829205
 20
119.9169394568145
 30
0.0
 10
197.4251712441722
 20
120.4418770779704
 30
0.0
 10
198.134519012377
 20
120.6399611704425
 30
0.0
 10
199.2305232315057
 20
120.8408053948324
 30
0.0
 10
199.6023071967764
 20
120.8915220170959
 30
0.0
 10
200.3416871346069
 20
120.9584809673721
 30
0.0
 10
200.7110117266148
 20
120.9751411357577
 30
0.0
 10
201.8179107190646
 20
120.9757008051303
 30
0.0
 10
202.5544204053942
 20
120.9106801004301
 30
0.0
 10
204.0244693530412
 20
120.6435407631381
 30
0.0
 10
204.7354876494211
 20
120.4454123139379
 30
0.0
 10
205.7652170506522
 20
120.0541360587232
 30
0.0
 10
206.1024037205076
 20
119.9078929938208
 30
0.0
 10
206.7643827610296
 20
119.582761994995
 30
0.0
 10
207.0908821273975
 20
119.4027318284833
 30
0.0
 10
208.0339579455672
 20
118.8215575676276
 30
0.0
 10
208.6165541709116
 20
118.379708132826
 30
0.0
 10
209.4217848242558
 20
117.6342333957412
 30
0.0
 10
209.6786728611432
 20
117.3718642698182
 30
0.0
 10
210.1684659681542
 20
116.8179338469301
 30
0.0
 10
210.3998823131735
 20
116.5277205276149
 30
0.0
 10
211.042210822497
 20
115.6325679540421
 30
0.0
 10
211.406791070167
 20
114.9977963271354
 30
0.0
 10
211.8561351407807
 20
113.9863939168018
 30
0.0
 10
211.9902094558347
 20
113.6370172286077
 30
0.0
 10
212.2195684729348
 20
112.9305775775039
 30
0.0
 10
212.3151191609852
 20
112.5737331783434
 30
0.0
 10
212.5456439559762
 20
111.4925140819974
 30
0.0
 10
212.6251221874766
 20
110.7565257127964
 30
0.0
 10
212.6276793259214
 20
109.2588688738581
 30
0.0
 10
212.5509227652211
 20
108.5233866747727
 30
0.0
 10
212.3235794033921
 20
107.4392802439615
 30
0.0
 10
212.2289411286526
 20
107.0811227164679
 30
0.0
 10
212.0009041315853
 20
106.3713773153506
 30
0.0
 10
211.8685860638282
 20
106.0235919752881
 30
0.0
 10
211.4226840894335
 20
105.0113890548352
 30
0.0
 10
211.0591479191832
 20
104.3731258439759
 30
0.0
 10
210.4142003932608
 20
103.4697413234099
 30
0.0
 10
210.1829733697902
 20
103.1787633714368
 30
0.0
 10
209.6972373159448
 20
102.6268902653098
 30
0.0
 10
209.4416323387412
 20
102.3644048475269
 30
0.0
 10
208.9054442396478
 20
101.8655358703192
 30
0.0
 10
208.6248600625551
 20
101.6291538824572
 30
0.0
 10
208.0384768659784
 20
101.1824622671481
 30
0.0
 10
207.7313408112491
 20
100.9714889224138
 30
0.0
 10
206.7898209160797
 20
100.389643530912
 30
0.0
 10
206.1311864242538
 20
100.065368207264
 30
0.0
 10
204.7534005154579
 20
99.5389565092163
 30
0.0
 10
204.0293905468365
 20
99.33706981689215
 30
0.0
 10
202.5728259007051
 20
99.0709231131114
 30
0.0
 10
201.8343000206634
 20
99.00365230742388
 30
0.0
 10
200.3381599649938
 20
99.00365230742389
 30
0.0
  0
SPLINE
  5
11D
330
1F
100
AcDbEntity
  8
0
  6
HIDDEN
 62
     7
370
     0
100
AcDbSpline
210
0.0
220
0.0
230
1.0
 70
     8
 71
     3
 72
    13
 73
     9
 74
     0
 42
0.00000001
 43
0.00000001
 40
0.0
 40
0.0
 40
0.0
 40
0.0
 40
0.3360394340175406
 40
0.4528671964558046
 40
0.5720723495406872
 40
0.6936830960303708
 40
0.8817098546610918
 40
1.0
 40
1.0
 40
1.0
 40
1.0
 10
169.0862299928286
 20
100.9894907908993
 30
0.0
 10
169.6602196527037
 20
101.0191996657055
 30
0.0
 10
170.4337630578764
 20
101.0592371538137
 30
0.0
 10
171.3830115695594
 20
101.2813745674456
 30
0.0
 10
171.9660789850853
 20
101.4546234324397
 30
0.0
 10
172.6464683078096
 20
101.7134570483407
 30
0.0
 10
173.3090882603531
 20
102.0155781157892
 30
0.0
 10
173.7411294029341
 20
102.302120722955
 30
0.0
 10
173.9079703734649
 20
102.4127746444598
 30
0.0
  0
SPLINE
  5
11E
330
1F
100
AcDbEntity
  8
0
  6
HIDDEN
 62
     7
370
     0
100
AcDbSpline
210
0.0
220
0.0
230
1.0
 70
     8
 71
     3
 72
    16
 73
    12
 74
     0
 42
0.00000001
 43
0.00000001
 40
0.0
 40
0.0
 40
0.0
 40
0.0
 40
0.0783689992379069
 40
0.1503405434592321
 40
0.3331805404693154
 40
0.4997228636573259
 40
0.6661863175091361
 40
0.7253622639319915
 40
0.786368434523144
 40
0.849218029795025
 40
1.0
 40
1.0
 40
1.0
 40
1.0
 10
173.8834985366728
 20
117.6022780216852
 30
0.0
 10
173.6576506592758
 20
117.7376037941381
 30
0.0
 10
173.2243914246657
 20
117.9972083619193
 30
0.0
 10
172.2044134469037
 20
118.4644538990725
 30
0.0
 10
170.8341235018028
 20
118.8784631953964
 30
0.0
 10
169.0874653714502
 20
119.0425953466037
 30
0.0
 10
167.7584603760819
 20
118.917214677024
 30
0.0
 10
166.8139304871656
 20
118.7051708097782
 30
0.0
 10
166.2223220961844
 20
118.5285545156144
 30
0.0
 10
165.3526829992511
 20
118.2086419093738
 30
0.0
 10
164.7281305031998
 20
117.8518249444507
 30
0.0
 10
164.287318979674
 20
117.5999821755529
 30
0.0
  0
SPLINE
  5
11F
330
1F
100
AcDbEntity
  8
0
  6
HIDDEN
 62
     7
370
     0
100
AcDbSpline
210
0.0
220
0.0
230
1.0
 70
     8
 71
     3
 72
    12
 73
     8
 74
     0
 42
0.00000001
 43
0.00000001
 40
0.0
 40
0.0
 40
0.0
 40
0.0
 40
0.0024081730086608
 40
0.1647163566221074
 40
0.3024228873150779
 40
0.6618095051479663
 40
1.0
 40
1.0
 40
1.0
 40
1.0
 10
164.2770508833212
 20
102.3828817285111
 30
0.0
 10
164.2803553948939
 20
102.3805450688158
 30
0.0
 10
164.50638031284
 20
102.2207201433262
 30
0.0
 10
164.9603877412478
 20
101.9844564080837
 30
0.0
 10
165.9644422099094
 20
101.5125788262207
 30
0.0
 10
167.3292514088416
 20
101.087772603857
 30
0.0
 10
168.5125555001729
 20
101.0215809766874
 30
0.0
 10
169.0862299928286
 20
100.9894907908993
 30
0.0
  0
LINE
  5
120
330
1F
100
AcDbEntity
  8
0
  6
HIDDEN
 62
     7
370
     0
100
AcDbLine
 10
100.9996547423
 20
73.2536844286
 30
0.0
 11
100.7296990411
 21
73.2297583293
 31
0.0
  0
SPLINE
  5
121
330
1F
100
AcDbEntity
  8
0
  6
HIDDEN
 62
     7
370
     0
100
AcDbSpline
210
0.0
220
0.0
230
1.0
 70
     8
 71
     3
 72
    12
 73
     8
 74
     0
 42
0.00000001
 43
0.00000001
 40
0.0
 40
0.0
 40
0.0
 40
0.0
 40
0.1661348616746358
 40
0.3322013257404253
 40
0.5008932044678792
 40
0.752137078265245
 40
1.0
 40
1.0
 40
1.0
 40
1.0
 10
99.10555165847576
 20
146.9207948139648
 30
0.0
 10
99.11594428258377
 20
146.9194166899034
 30
0.0
 10
99.13672525216354
 20
146.9166610091532
 30
0.0
 10
99.31002474160984
 20
146.895057634191
 30
0.0
 10
99.6319763308563
 20
146.8571926822493
 30
0.0
 10
100.1531421667762
 20
146.7968089155333
 30
0.0
 10
100.7187001066132
 20
146.7490157783837
 30
0.0
 10
100.9995635302995
 20
146.7252810852904
 30
0.0
  0
SPLINE
  5
122
330
1F
100
AcDbEntity
  8
0
  6
HIDDEN
 62
     7
370
     0
100
AcDbSpline
210
0.0
220
0.0
230
1.0
 70
     8
 71
     3
 72
    13
 73
     9
 74
     0
 42
0.00000001
 43
0.00000001
 40
0.0
 40
0.0
 40
0.0
 40
0.0
 40
0.1623841879012221
 40
0.3259047386695005
 40
0.4929945814164146
 40
0.6613131117146692
 40
0.8237276921840887
 40
1.0
 40
1.0
 40
1.0
 40
1.0
 10
110.8394356480196
 20
141.3558130116463
 30
0.0
 10
110.9150251587318
 20
141.3681887841314
 30
0.0
 10
111.0667331547703
 20
141.3930269346294
 30
0.0
 10
111.2496320278643
 20
141.4202852790749
 30
0.0
 10
111.3986943815102
 20
141.4414051402722
 30
0.0
 10
111.5026445326836
 20
141.4553915173936
 30
0.0
 10
111.5779740743652
 20
141.46518417843
 30
0.0
 10
111.5697455684271
 20
141.4641130095885
 30
0.0
 10
111.5654629765058
 20
141.4635555111724
 30
0.0
  0
SPLINE
  5
123
330
1F
100
AcDbEntity
  8
0
  6
HIDDEN
 62
     7
370
     0
100
AcDbSpline
210
0.0
220
0.0
230
1.0
 70
     8
 71
     3
 72
    13
 73
     9
 74
     0
 42
0.00000001
 43
0.00000001
 40
0.0
 40
0.0
 40
0.0
 40
0.0
 40
0.1540101517684994
 40
0.3222881147380635
 40
0.4885588613179345
 40
0.6560388229648149
 40
0.8273524365901266
 40
0.9999999999999999
 40
0.9999999999999999
 40
0.9999999999999999
 40
0.9999999999999999
 10
111.5654633142902
 20
78.5154260269296
 30
0.0
 10
111.5706483037132
 20
78.51475428579835
 30
0.0
 10
111.5814986304411
 20
78.5133485720821
 30
0.0
 10
111.5121583267021
 20
78.52233531790098
 30
0.0
 10
111.4120411114348
 20
78.53574940177481
 30
0.0
 10
111.2655132762692
 20
78.55638995884232
 30
0.0
 10
111.0792993965029
 20
78.58395541740735
 30
0.0
 10
110.9195966837975
 20
78.61006376811346
 30
0.0
 10
110.8394356480196
 20
78.62316857015223
 30
0.0
  0
SPLINE
  5
124
330
1F
100
AcDbEntity
  8
0
  6
HIDDEN
 62
     7
370
     0
100
AcDbSpline
210
0.0
220
0.0
230
1.0
 70
     8
 71
     3
 72
    33
 73
    29
 74
     0
 42
0.00000001
 43
0.00000001
 40
0.0
 40
0.0
 40
0.0
 40
0.0
 40
0.0315773698875104
 40
0.0633753287769057
 40
0.0958656851178231
 40
0.1285943208117605
 40
0.1601713694082662
 40
0.2244011681247345
 40
0.2571344568799636
 40
0.2885965627565487
 40
0.3526214070085076
 40
0.3852675959519929
 40
0.4162212184009612
 40
0.4791910353915302
 40
0.5112817741273479
 40
0.5421256322990662
 40
0.6048360558905652
 40
0.6367710793564881
 40
0.6680663384719832
 40
0.7316979547407203
 40
0.7641081282919966
 40
0.7957194290717577
 40
0.8275524266255816
 40
0.8600900250720824
 40
0.8928737620729298
 40
0.9241775068323748
 40
0.9878778414776339
 40
1.0
 40
1.0
 40
1.0
 40
1.0
 10
110.8394356480196
 20
78.62316857015223
 30
0.0
 10
110.7555645010143
 20
78.63704230853396
 30
0.0
 10
110.5872363110704
 20
78.66488670261872
 30
0.0
 10
110.2878817147289
 20
78.71131934284911
 30
0.0
 10
109.95388224747
 20
78.75993194486995
 30
0.0
 10
109.5881122855828
 20
78.80907987805719
 30
0.0
 10
109.0647323708939
 20
78.87314566364982
 30
0.0
 10
108.4883051622993
 20
78.93292717805494
 30
0.0
 10
107.8731680154478
 20
78.982926785519
 30
0.0
 10
107.2368522893648
 20
79.02506677820243
 30
0.0
 10
106.5730717519262
 20
79.05370150294044
 30
0.0
 10
105.901006000343
 20
79.06596095402405
 30
0.0
 10
105.2315574169113
 20
79.06729024513233
 30
0.0
 10
104.5663728497973
 20
79.05242972222287
 30
0.0
 10
103.9200816109068
 20
79.0225717578337
 30
0.0
 10
103.2908916600485
 20
78.98382852977241
 30
0.0
 10
102.6911759678692
 20
78.93325029601255
 30
0.0
 10
102.1328764017474
 20
78.87485028154602
 30
0.0
 10
101.6026815313598
 20
78.8125270501765
 30
0.0
 10
101.1235148290482
 20
78.74711847564095
 30
0.0
 10
100.7085968438534
 20
78.68432957203497
 30
0.0
 10
100.4313244599273
 20
78.63982497321359
 30
0.0
 10
100.1897691743662
 20
78.59911602377862
 30
0.0
 10
99.98427717001776
 20
78.56305889312912
 30
0.0
 10
99.82011274627351
 20
78.53330186817678
 30
0.0
 10
99.66067879970822
 20
78.50371655475236
 30
0.0
 10
99.5824405717596
 20
78.48876727574749
 30
0.0
 10
99.59016536210441
 20
78.4902396983487
 30
0.0
 10
99.59140036677387
 20
78.49047510263888
 30
0.0
  0
SPLINE
  5
125
330
1F
100
AcDbEntity
  8
0
  6
HIDDEN
 62
     7
370
     0
100
AcDbSpline
210
0.0
220
0.0
230
1.0
 70
     8
 71
     3
 72
    32
 73
    28
 74
     0
 42
0.00000001
 43
0.00000001
 40
0.0
 40
0.0
 40
0.0
 40
0.0
 40
0.020356822172105
 40
0.0512207857583794
 40
0.1139954454389432
 40
0.1459779869097674
 40
0.1769364677636727
 40
0.2398766914470389
 40
0.2719275468465721
 40
0.3033698011481659
 40
0.3673099924152954
 40
0.3998847012176188
 40
0.4314690120325909
 40
0.4957360700021212
 40
0.5285028301030422
 40
0.5596434488300034
 40
0.6230067766607702
 40
0.6553079823205556
 40
0.6861132872619372
 40
0.748756262689177
 40
0.7806634244345373
 40
0.8117607067089887
 40
0.8749825776111492
 40
0.9071778073885584
 40
0.9301738434827028
 40
0.9765719131095674
 40
1.0
 40
1.0
 40
1.0
 40
1.0
 10
99.59140036677387
 20
141.4885064791597
 30
0.0
 10
99.59104331486762
 20
141.4885739580866
 30
0.0
 10
99.59014491928113
 20
141.4887437450813
 30
0.0
 10
99.65273866583375
 20
141.4768495038939
 30
0.0
 10
99.79454984729728
 20
141.4502026269743
 30
0.0
 10
100.0185944391728
 20
141.4098205555617
 30
0.0
 10
100.293136555007
 20
141.3619513138112
 30
0.0
 10
100.6418278440146
 20
141.3044814285314
 30
0.0
 10
101.058103806392
 20
141.2419868814769
 30
0.0
 10
101.5196978532547
 20
141.1774611998376
 30
0.0
 10
102.0432358023499
 20
141.1128808228544
 30
0.0
 10
102.6154332768046
 20
141.0541254579695
 30
0.0
 10
103.2176396472566
 20
141.0007526015874
 30
0.0
 10
103.8588661540381
 20
140.9578900397551
 30
0.0
 10
104.5199514720343
 20
140.9298259937341
 30
0.0
 10
105.1866624264808
 20
140.9122373361944
 30
0.0
 10
105.8605516470877
 20
140.9107906879536
 30
0.0
 10
106.5249011310355
 20
140.9257162270914
 30
0.0
 10
107.1764354051952
 20
140.9507229523151
 30
0.0
 10
107.8070946178512
 20
140.989826994997
 30
0.0
 10
108.4046335936737
 20
141.0399281527807
 30
0.0
 10
108.9786315616284
 20
141.0960993192638
 30
0.0
 10
109.5095812750217
 20
141.1590133479527
 30
0.0
 10
109.9529621562858
 20
141.2191168500062
 30
0.0
 10
110.3044828038594
 20
141.2700065669915
 30
0.0
 10
110.5941503138363
 20
141.3151290435294
 30
0.0
 10
110.777813078234
 20
141.3455920554168
 30
0.0
 10
110.8394356480196
 20
141.3558130116463
 30
0.0
  0
LINE
  5
126
330
1F
100
AcDbEntity
  8
0
  6
HIDDEN
 62
     7
370
     0
100
AcDbLine
 10
90.5828543199
 20
83.4894907909
 30
0.0
 11
90.5828543199
 21
136.4894907909
 31
0.0
  0
LINE
  5
127
330
1F
100
AcDbEntity
  8
0
  6
HIDDEN
 62
     7
370
     0
100
AcDbLine
 10
129.8703076112
 20
83.4894907909
 30
0.0
 11
129.8703076112
 21
136.4894907909
 31
0.0
  0
LINE
  5
128
330
1F
100
AcDbEntity
  8
0
  6
HIDDEN
 62
     7
370
     0
100
AcDbLine
 10
133.0362299928
 20
85.1144907909
 30
0.0
 11
133.0362299928
 21
134.8644907818
 31
0.0
  0
SPLINE
  5
129
330
1F
100
AcDbEntity
  8
0
  6
HIDDEN
 62
     7
370
     0
100
AcDbSpline
210
0.0
220
0.0
230
1.0
 70
     8
 71
     3
 72
    20
 73
    16
 74
     0
 42
0.00000001
 43
0.00000001
 40
0.0
 40
0.0
 40
0.0
 40
0.0
 40
0.2499999999999978
 40
0.2499999999999978
 40
0.3749999999999982
 40
0.3749999999999982
 40
0.4999999999999986
 40
0.4999999999999986
 40
0.6249999999999989
 40
0.6249999999999989
 40
0.7499999999999992
 40
0.7499999999999992
 40
0.8749999999999997
 40
0.8749999999999997
 40
1.0
 40
1.0
 40
1.0
 40
1.0
 10
80.78622999282854
 20
135.2180044213136
 30
0.0
 10
80.78622999282855
 20
135.1388014347813
 30
0.0
 10
80.7392474976158
 20
135.0577052163784
 30
0.0
 10
80.60142590683823
 20
134.9375085246275
 30
0.0
 10
80.54514362292825
 20
134.8985818206254
 30
0.0
 10
80.41205877146103
 20
134.823393088201
 30
0.0
 10
80.33421882922798
 20
134.7867508828591
 30
0.0
 10
80.16158647311363
 20
134.7191603500272
 30
0.0
 10
80.06719347602254
 20
134.6882021682516
 30
0.0
 10
79.86175616970739
 20
134.6326777468819
 30
0.0
 10
79.74940992972023
 20
134.6079692330487
 30
0.0
 10
79.5171690658206
 20
134.5681730059404
 30
0.0
 10
79.39645842339787
 20
134.5527531685434
 30
0.0
 10
79.14538756412884
 20
134.5316731937038
 30
0.0
 10
79.01586556771306
 20
134.5261959486828
 30
0.0
 10
78.88622999282855
 20
134.5261959486828
 30
0.0
  0
LINE
  5
12A
330
1F
100
AcDbEntity
  8
0
  6
HIDDEN
 62
     7
370
     0
100
AcDbLine
 10
78.8862299928
 20
134.5261959487
 30
0.0
 11
72.3362299928
 21
134.5261959487
 31
0.0
  0
LINE
  5
12B
330
1F
100
AcDbEntity
  8
0
  6
HIDDEN
 62
     7
370
     0
100
AcDbLine
 10
72.3362299928
 20
85.4527856331
 30
0.0
 11
83.8862299928
 21
85.4527856331
 31
0.0
  0
SPLINE
  5
12C
330
1F
100
AcDbEntity
  8
0
  6
HIDDEN
 62
     7
370
     0
100
AcDbSpline
210
0.0
220
0.0
230
1.0
 70
     8
 71
     3
 72
    18
 73
    14
 74
     0
 42
0.00000001
 43
0.00000001
 40
0.0
 40
0.0
 40
0.0
 40
0.0
 40
0.1249999999999982
 40
0.1249999999999982
 40
0.2499999999999964
 40
0.2499999999999964
 40
0.4999999999999988
 40
0.4999999999999988
 40
0.7500000000000011
 40
0.7500000000000011
 40
0.8750000000000006
 40
0.8750000000000006
 40
1.0
 40
1.0
 40
1.0
 40
1.0
 10
83.88622999282855
 20
85.45278563311578
 30
0.0
 10
84.01569730578576
 20
85.45278563311578
 30
0.0
 10
84.14270805468239
 20
85.44743263452315
 30
0.0
 10
84.39207137587965
 20
85.42669466183436
 30
0.0
 10
84.51569503050808
 20
85.41102275758007
 30
0.0
 10
84.86472736744213
 20
85.35132802917798
 30
0.0
 10
85.07523913224891
 20
85.293562849497
 30
0.0
 10
85.41915580994844
 20
85.1590410082195
 30
0.0
 10
85.55550621146624
 20
85.0813718947141
 30
0.0
 10
85.69254426802877
 20
84.96208076062675
 30
0.0
 10
85.72776328674169
 20
84.92116175149171
 30
0.0
 10
85.77438686368025
 20
84.84050575820167
 30
0.0
 10
85.78622999282857
 20
84.80053723800881
 30
0.0
 10
85.78622999282855
 20
84.760977160485
 30
0.0
  0
LINE
  5
12D
330
1F
100
AcDbEntity
  8
0
  6
HIDDEN
 62
     7
370
     0
100
AcDbLine
 10
72.3362299928
 20
85.4527856331
 30
0.0
 11
72.3362299928
 21
134.5261959487
 31
0.0
  0
LWPOLYLINE
  5
12E
330
1F
100
AcDbEntity
  8
0
  6
HIDDEN
 62
     7
370
     0
100
AcDbPolyline
 90
       27
 70
   128
 43
0.0
 10
132.0284164176
 20
153.7414945141
 10
132.5251562543
 20
153.612188852
 10
133.3019541202
 20
153.3277042526
 10
133.9163570118
 20
152.9837461773
 10
134.3415125743
 20
152.5953472443
 10
134.5588394697
 20
152.1794823509
 10
134.5588394697
 20
151.7543267883
 10
134.3415125743
 20
151.3384618948
 10
133.9163570118
 20
150.9500629619
 10
133.3019541202
 20
150.6061048865
 10
132.5251562543
 20
150.3216202872
 10
131.6199132082
 20
150.1090425059
 10
130.6257884469
 20
149.9776622118
 10
129.5862299928
 20
149.9332213542
 10
128.5466715387
 20
149.9776622118
 10
127.5525467774
 20
150.1090425059
 10
126.6473037314
 20
150.3216202872
 10
125.8705058654
 20
150.6061048865
 10
125.2561029739
 20
150.9500629619
 10
124.8309474114
 20
151.3384618948
 10
124.613620516
 20
151.7543267883
 10
124.613620516
 20
152.1794823509
 10
124.8309474114
 20
152.5953472443
 10
125.2561029739
 20
152.9837461773
 10
125.8705058654
 20
153.3277042526
 10
126.6473037314
 20
153.612188852
 10
127.1602806387
 20
153.7451751157
  0
SPLINE
  5
12F
330
1F
100
AcDbEntity
  8
0
  6
HIDDEN
 62
     7
370
     0
100
AcDbSpline
210
0.0
220
0.0
230
1.0
 70
     8
 71
     3
 72
    58
 73
    54
 74
     0
 42
0.00000001
 43
0.00000001
 40
-0.0625000000000022
 40
-0.0625000000000022
 40
0.0
 40
0.0
 40
0.0624999999999992
 40
0.0624999999999992
 40
0.0937499999999984
 40
0.0937499999999984
 40
0.1249999999999976
 40
0.1249999999999976
 40
0.1562499999999969
 40
0.1562499999999969
 40
0.1874999999999961
 40
0.1874999999999961
 40
0.2187499999999953
 40
0.2187499999999953
 40
0.2499999999999945
 40
0.2499999999999945
 40
0.2812499999999937
 40
0.2812499999999937
 40
0.312499999999993
 40
0.312499999999993
 40
0.3437499999999922
 40
0.3437499999999922
 40
0.3749999999999914
 40
0.3749999999999914
 40
0.4062499999999906
 40
0.4062499999999906
 40
0.4374999999999898
 40
0.4374999999999898
 40
0.4999999999999896
 40
0.4999999999999896
 40
0.5624999999999895
 40
0.5624999999999895
 40
0.5937499999999897
 40
0.5937499999999897
 40
0.62499999999999
 40
0.62499999999999
 40
0.6562499999999902
 40
0.6562499999999902
 40
0.6874999999999906
 40
0.6874999999999906
 40
0.7499999999999927
 40
0.7499999999999927
 40
0.8124999999999949
 40
0.8124999999999949
 40
0.8437499999999957
 40
0.8437499999999957
 40
0.8749999999999963
 40
0.8749999999999963
 40
0.9062499999999971
 40
0.9062499999999971
 40
0.9374999999999978
 40
0.9374999999999978
 40
1.0
 40
1.0
 40
1.062499999999999
 40
1.062499999999999
 10
157.8577304491187
 20
88.2870661392832
 30
0.0
 10
158.065237342998
 20
88.29283115828898
 30
0.0
 10
158.1750649630876
 20
88.33136734361756
 30
0.0
 10
158.3200608529885
 20
88.4469549529054
 30
0.0
 10
158.3635412489858
 20
88.49453750407288
 30
0.0
 10
158.4299036700611
 20
88.61235004010955
 30
0.0
 10
158.4517054997149
 20
88.68244270775413
 30
0.0
 10
158.4590685544059
 20
88.84213522833123
 30
0.0
 10
158.4442462898791
 20
88.93086331155914
 30
0.0
 10
158.3861720058581
 20
89.11605065154266
 30
0.0
 10
158.344034793135
 20
89.21171680722716
 30
0.0
 10
158.2492774448617
 20
89.40487872835637
 30
0.0
 10
158.1957477778538
 20
89.50422677315177
 30
0.0
 10
158.0882068006416
 20
89.70286550419107
 30
0.0
 10
158.0337889982193
 20
89.80279661292906
 30
0.0
 10
157.9279213709967
 20
90.00610348556437
 30
0.0
 10
157.8760548965827
 20
90.11034045920339
 30
0.0
 10
157.7822948206322
 20
90.31632486227024
 30
0.0
 10
157.7399499496249
 20
90.41874422908357
 30
0.0
 10
157.6676617025086
 20
90.62312171922376
 30
0.0
 10
157.6385625956289
 20
90.72305416483486
 30
0.0
 10
157.5984028625597
 20
90.91285929731157
 30
0.0
 10
157.5872365505163
 20
91.00436006838325
 30
0.0
 10
157.5853579263694
 20
91.16790698427842
 30
0.0
 10
157.5944157123864
 20
91.24196491422195
 30
0.0
 10
157.6313733421859
 20
91.36951948888968
 30
0.0
 10
157.6586950239806
 20
91.42209798321896
 30
0.0
 10
157.7632393068703
 20
91.54924714256349
 30
0.0
 10
157.861047768166
 20
91.5896542402997
 30
0.0
 10
158.0720655118154
 20
91.59301123238819
 30
0.0
 10
158.1878713699657
 20
91.5567598620498
 30
0.0
 10
158.3327725100849
 20
91.44194121650523
 30
0.0
 10
158.3766919918714
 20
91.39246611378857
 30
0.0
 10
158.4388189173725
 20
91.27093133588218
 30
0.0
 10
158.4567175831426
 20
91.19723146063517
 30
0.0
 10
158.4551594177954
 20
91.03398243787879
 30
0.0
 10
158.4359410889572
 20
90.94328318488294
 30
0.0
 10
158.3735493368102
 20
90.75765304045139
 30
0.0
 10
158.3311623236281
 20
90.66230261879628
 30
0.0
 10
158.188783131915
 20
90.36921900396375
 30
0.0
 10
158.0786985111245
 20
90.17181183115811
 30
0.0
 10
157.870536125308
 20
89.75908881143529
 30
0.0
 10
157.7758440695835
 20
89.55356842897447
 30
0.0
 10
157.6678448907618
 20
89.24226330834982
 30
0.0
 10
157.6390645121711
 20
89.1421289525543
 30
0.0
 10
157.5986145857507
 20
88.94958606831658
 30
0.0
 10
157.5873775982126
 20
88.85767643741833
 30
0.0
 10
157.5852540993497
 20
88.69375012659845
 30
0.0
 10
157.594373653214
 20
88.61928134104822
 30
0.0
 10
157.6309836848421
 20
88.49430689979702
 30
0.0
 10
157.6584132040362
 20
88.4428121741528
 30
0.0
 10
157.7619099834532
 20
88.32198383100592
 30
0.0
 10
157.8577304491187
 20
88.2870661392832
 30
0.0
 10
158.065237342998
 20
88.29283115828898
 30
0.0
  0
SPLINE
  5
130
330
1F
100
AcDbEntity
  8
0
  6
HIDDEN
 62
     7
370
     0
100
AcDbSpline
210
0.0
220
0.0
230
1.0
 70
     8
 71
     3
 72
    20
 73
    16
 74
     0
 42
0.00000001
 43
0.00000001
 40
0.0
 40
0.0
 40
0.0
 40
0.0
 40
0.1250000000000003
 40
0.1250000000000003
 40
0.2500000000000006
 40
0.2500000000000006
 40
0.3750000000000008
 40
0.3750000000000008
 40
0.5000000000000011
 40
0.5000000000000011
 40
0.6250000000000013
 40
0.6250000000000013
 40
0.7500000000000017
 40
0.7500000000000017
 40
1.0
 40
1.0
 40
1.0
 40
1.0
 10
160.9050298384208
 20
94.13226578692506
 30
0.0
 10
161.0108093757589
 20
94.22045033637508
 30
0.0
 10
161.1056487798579
 20
94.31274671169507
 30
0.0
 10
161.2734853410088
 20
94.50604141211538
 30
0.0
 10
161.3470066786894
 20
94.60826910249057
 30
0.0
 10
161.464627562336
 20
94.81358676780773
 30
0.0
 10
161.5096018657577
 20
94.91727675440418
 30
0.0
 10
161.5708054805935
 20
95.1271806419194
 30
0.0
 10
161.5861536013838
 20
95.23122558323335
 30
0.0
 10
161.5863058122672
 20
95.4325087380055
 30
0.0
 10
161.57085575261
 20
95.53175039637435
 30
0.0
 10
161.5101837336926
 20
95.71738126482474
 30
0.0
 10
161.4654477424305
 20
95.80397716297138
 30
0.0
 10
161.2882067100937
 20
96.04450124817687
 30
0.0
 10
161.1166118060376
 20
96.17259502594077
 30
0.0
 10
160.9050298384208
 20
96.25865566992671
 30
0.0
  0
SPLINE
  5
131
330
1F
100
AcDbEntity
  8
0
  6
HIDDEN
 62
     7
370
     0
100
AcDbSpline
210
0.0
220
0.0
230
1.0
 70
     8
 71
     3
 72
     8
 73
     4
 74
     0
 42
0.00000001
 43
0.00000001
 40
0.0
 40
0.0
 40
0.0
 40
0.0
 40
1.0
 40
1.0
 40
1.0
 40
1.0
 10
160.9050298384208
 20
96.25865566992671
 30
0.0
 10
160.8615678526763
 20
96.27633376661998
 30
0.0
 10
160.8160230976752
 20
96.2982738147442
 30
0.0
 10
160.7682217810906
 20
96.32494537309691
 30
0.0
  0
SPLINE
  5
132
330
1F
100
AcDbEntity
  8
0
  6
HIDDEN
 62
     7
370
     0
100
AcDbSpline
210
0.0
220
0.0
230
1.0
 70
     8
 71
     3
 72
    18
 73
    14
 74
     0
 42
0.00000001
 43
0.00000001
 40
0.0
 40
0.0
 40
0.0
 40
0.0
 40
0.125
 40
0.125
 40
0.25
 40
0.25
 40
0.375
 40
0.375
 40
0.5
 40
0.5
 40
0.75
 40
0.75
 40
1.0
 40
1.0
 40
1.0
 40
1.0
 10
160.7682217810906
 20
96.32494537309691
 30
0.0
 10
160.6625128604462
 20
96.38392746494738
 30
0.0
 10
160.5510004591245
 20
96.4344045812251
 30
0.0
 10
160.3168108745419
 20
96.51860471428445
 30
0.0
 10
160.1927354160188
 20
96.55255233104143
 30
0.0
 10
159.9400440645054
 20
96.60084520231308
 30
0.0
 10
159.8120792775448
 20
96.61532477942416
 30
0.0
 10
159.552941314045
 20
96.62500006720946
 30
0.0
 10
159.4208733541824
 20
96.61990685260261
 30
0.0
 10
159.036390983206
 20
96.57575389260903
 30
0.0
 10
158.7857009706053
 20
96.50654911291652
 30
0.0
 10
158.341483215394
 20
96.30431317493378
 30
0.0
 10
158.1434791599054
 20
96.16978157732049
 30
0.0
 10
157.9862299928286
 20
96.01304000759613
 30
0.0
  0
SPLINE
  5
133
330
1F
100
AcDbEntity
  8
0
  6
HIDDEN
 62
     7
370
     0
100
AcDbSpline
210
0.0
220
0.0
230
1.0
 70
     8
 71
     3
 72
    10
 73
     6
 74
     0
 42
0.00000001
 43
0.00000001
 40
0.0
 40
0.0
 40
0.0
 40
0.0
 40
0.5
 40
0.5
 40
1.0
 40
1.0
 40
1.0
 40
1.0
 10
157.9862299928286
 20
96.01304000759612
 30
0.0
 10
157.8498996712913
 20
95.87714975777148
 30
0.0
 10
157.7486450140563
 20
95.77349581207699
 30
0.0
 10
157.6179750029947
 20
95.58661348636683
 30
0.0
 10
157.5862299928286
 20
95.50319642634018
 30
0.0
 10
157.5862299928286
 20
95.42309109845644
 30
0.0
  0
SPLINE
  5
134
330
1F
100
AcDbEntity
  8
0
  6
HIDDEN
 62
     7
370
     0
100
AcDbSpline
210
0.0
220
0.0
230
1.0
 70
     8
 71
     3
 72
    14
 73
    10
 74
     0
 42
0.00000001
 43
0.00000001
 40
0.0
 40
0.0
 40
0.0
 40
0.0
 40
0.25
 40
0.25
 40
0.5
 40
0.5
 40
0.75
 40
0.75
 40
1.0
 40
1.0
 40
1.0
 40
1.0
 10
157.5862299928286
 20
95.42309109845644
 30
0.0
 10
157.5862299928286
 20
95.31898705321082
 30
0.0
 10
157.5941504321889
 20
95.2132742509072
 30
0.0
 10
157.6258589751309
 20
95.00919586983908
 30
0.0
 10
157.6496170178468
 20
94.90927944609095
 30
0.0
 10
157.7149922038379
 20
94.71573996472766
 30
0.0
 10
157.7568958758247
 20
94.62209494011007
 30
0.0
 10
157.8577846161369
 20
94.45361915290701
 30
0.0
 10
157.9179191752046
 20
94.37670153414291
 30
0.0
 10
157.9862299928375
 20
94.31598373273964
 30
0.0
  0
SPLINE
  5
135
330
1F
100
AcDbEntity
  8
0
  6
HIDDEN
 62
     7
370
     0
100
AcDbSpline
210
0.0
220
0.0
230
1.0
 70
     8
 71
     3
 72
    20
 73
    16
 74
     0
 42
0.00000001
 43
0.00000001
 40
0.0
 40
0.0
 40
0.0
 40
0.0
 40
0.1249999999999999
 40
0.1249999999999999
 40
0.2499999999999999
 40
0.2499999999999999
 40
0.3749999999999998
 40
0.3749999999999998
 40
0.4999999999999998
 40
0.4999999999999998
 40
0.6249999999999998
 40
0.6249999999999998
 40
0.7499999999999997
 40
0.7499999999999997
 40
1.0
 40
1.0
 40
1.0
 40
1.0
 10
157.9862299928286
 20
94.3159837327485
 30
0.0
 10
158.0648568384766
 20
94.24609657044218
 30
0.0
 10
158.1523760318024
 20
94.18302803308855
 30
0.0
 10
158.3444880648646
 20
94.0694660812495
 30
0.0
 10
158.4503203642226
 20
94.01853813007413
 30
0.0
 10
158.6737924377212
 20
93.93206168433737
 30
0.0
 10
158.7907199548105
 20
93.89653419008445
 30
0.0
 10
159.034869757326
 20
93.84035692174969
 30
0.0
 10
159.1631071174033
 20
93.81975955815487
 30
0.0
 10
159.4194198651766
 20
93.79529116499194
 30
0.0
 10
159.5486277156593
 20
93.79104062134907
 30
0.0
 10
159.8091884579745
 20
93.79877068696844
 30
0.0
 10
159.939105204618
 20
93.81087909574259
 30
0.0
 10
160.3157644961439
 20
93.87040215356058
 30
0.0
 10
160.5567950796374
 20
93.94223536612422
 30
0.0
 10
160.7682217810906
 20
94.0433251538311
 30
0.0
  0
SPLINE
  5
136
330
1F
100
AcDbEntity
  8
0
  6
HIDDEN
 62
     7
370
     0
100
AcDbSpline
210
0.0
220
0.0
230
1.0
 70
     8
 71
     3
 72
     8
 73
     4
 74
     0
 42
0.00000001
 43
0.00000001
 40
0.0
 40
0.0
 40
0.0
 40
0.0
 40
1.0
 40
1.0
 40
1.0
 40
1.0
 10
160.7682217810906
 20
94.0433251538311
 30
0.0
 10
160.8160230976752
 20
94.06618047396066
 30
0.0
 10
160.8615678526763
 20
94.09603311161251
 30
0.0
 10
160.9050298384208
 20
94.13226578692506
 30
0.0
  0
SPLINE
  5
137
330
1F
100
AcDbEntity
  8
0
  6
HIDDEN
 62
     7
370
     0
100
AcDbSpline
210
0.0
220
0.0
230
1.0
 70
     8
 71
     3
 72
    56
 73
    52
 74
     0
 42
0.00000001
 43
0.00000001
 40
-0.062500000000001
 40
-0.062500000000001
 40
0.0
 40
0.0
 40
0.0312500000000004
 40
0.0312500000000004
 40
0.0625000000000008
 40
0.0625000000000008
 40
0.1250000000000004
 40
0.1250000000000004
 40
0.1562499999999999
 40
0.1562499999999999
 40
0.1874999999999994
 40
0.1874999999999994
 40
0.2499999999999994
 40
0.2499999999999994
 40
0.2812499999999995
 40
0.2812499999999995
 40
0.3124999999999996
 40
0.3124999999999996
 40
0.3437499999999997
 40
0.3437499999999997
 40
0.3749999999999997
 40
0.3749999999999997
 40
0.4062499999999998
 40
0.4062499999999998
 40
0.4374999999999998
 40
0.4374999999999998
 40
0.4999999999999992
 40
0.4999999999999992
 40
0.5624999999999986
 40
0.5624999999999986
 40
0.5937499999999986
 40
0.5937499999999986
 40
0.6249999999999984
 40
0.6249999999999984
 40
0.6562499999999984
 40
0.6562499999999984
 40
0.6874999999999984
 40
0.6874999999999984
 40
0.7499999999999986
 40
0.7499999999999986
 40
0.8124999999999987
 40
0.8124999999999987
 40
0.8437499999999988
 40
0.8437499999999988
 40
0.8749999999999988
 40
0.8749999999999988
 40
0.9062499999999989
 40
0.9062499999999989
 40
0.937499999999999
 40
0.937499999999999
 40
1.0
 40
1.0
 40
1.03125
 40
1.03125
 10
161.1050703126759
 20
88.37728471314225
 30
0.0
 10
161.2639289780603
 20
88.3816981724161
 30
0.0
 10
161.3140285051333
 20
88.39285125119046
 30
0.0
 10
161.4054326166792
 20
88.43544111593546
 30
0.0
 10
161.4471675455522
 20
88.46746233793411
 30
0.0
 10
161.5498420679054
 20
88.59511128367097
 30
0.0
 10
161.5886552723872
 20
88.72571108856052
 30
0.0
 10
161.5848309261107
 20
88.97144200201085
 30
0.0
 10
161.5733626926278
 20
89.06301260845736
 30
0.0
 10
161.5326845356394
 20
89.25293103126826
 30
0.0
 10
161.5031774357445
 20
89.35344084145628
 30
0.0
 10
161.3944954451987
 20
89.65908123751076
 30
0.0
 10
161.2950225722203
 20
89.86868731172123
 30
0.0
 10
161.1359178508185
 20
90.17378863750682
 30
0.0
 10
161.0804932649069
 20
90.27549058512649
 30
0.0
 10
160.9729272640304
 20
90.47425387695866
 30
0.0
 10
160.9207428572053
 20
90.57126216006729
 30
0.0
 10
160.8268173448559
 20
90.7633034632483
 30
0.0
 10
160.784495151875
 20
90.85998123700428
 30
0.0
 10
160.7274324369067
 20
91.04426291282606
 30
0.0
 10
160.7130418046685
 20
91.13383002793832
 30
0.0
 10
160.7214846963368
 20
91.29214561717515
 30
0.0
 10
160.7439722524094
 20
91.36258857565684
 30
0.0
 10
160.8108205223893
 20
91.47926175487825
 30
0.0
 10
160.8548188378736
 20
91.52686052713042
 30
0.0
 10
160.99991045462
 20
91.6411775471506
 30
0.0
 10
161.1103595842761
 20
91.67935528231914
 30
0.0
 10
161.3170029707861
 20
91.6837784659188
 30
0.0
 10
161.4102464739584
 20
91.64976634147857
 30
0.0
 10
161.5140921219518
 20
91.52861042217533
 30
0.0
 10
161.5412618304455
 20
91.4776797098663
 30
0.0
 10
161.5780466555632
 20
91.35249625300335
 30
0.0
 10
161.5871737104468
 20
91.27828344722963
 30
0.0
 10
161.5851272659086
 20
91.11418717735376
 30
0.0
 10
161.5738466019645
 20
91.02187449222846
 30
0.0
 10
161.533403828188
 20
90.82935394930078
 30
0.0
 10
161.504144205476
 20
90.72769971119469
 30
0.0
 10
161.3963412175682
 20
90.41734821174602
 30
0.0
 10
161.2982941325294
 20
90.20483888241074
 30
0.0
 10
161.0915702911854
 20
89.79562664526176
 30
0.0
 10
160.9790303879305
 20
89.59349822024554
 30
0.0
 10
160.8383619343992
 20
89.30266320775569
 30
0.0
 10
160.7956828152041
 20
89.20596143297534
 30
0.0
 10
160.7343733762035
 20
89.01985357289703
 30
0.0
 10
160.7161261657503
 20
88.92919379334094
 30
0.0
 10
160.7168767059323
 20
88.76640482038421
 30
0.0
 10
160.7358630942462
 20
88.69386843634832
 30
0.0
 10
160.7998952427235
 20
88.57345562904123
 30
0.0
 10
160.8436449406789
 20
88.52542896346867
 30
0.0
 10
160.9914473871902
 20
88.41128988114835
 30
0.0
 10
161.1050703126759
 20
88.37728471314225
 30
0.0
 10
161.2639289780603
 20
88.3816981724161
 30
0.0
  0
LWPOLYLINE
  5
138
330
1F
100
AcDbEntity
  8
0
  6
HIDDEN
 62
     7
370
     0
100
AcDbPolyline
 90
       20
 70
   128
 43
0.0
 10
159.5862299928
 20
86.3014136212
 10
158.9368310544
 20
86.3780396128
 10
158.3578045674
 20
86.5996139725
 10
157.9118970363
 20
86.9421256804
 10
157.6474294609
 20
87.3684582782
 10
157.5930610068
 20
87.8324120139
 10
157.7546833395
 20
88.283710301
 10
158.1147821715
 20
88.6734479677
 10
158.6343352068
 20
88.9593908902
 10
159.2570408123
 20
89.1105527162
 10
159.9154191734
 20
89.1105527162
 10
160.5381247789
 20
88.9593908902
 10
161.0576778142
 20
88.6734479677
 10
161.4177766461
 20
88.283710301
 10
161.5793989788
 20
87.8324120139
 10
161.5250305247
 20
87.3684582782
 10
161.2605629494
 20
86.9421256804
 10
160.8146554182
 20
86.5996139725
 10
160.2356289312
 20
86.3780396128
 10
159.5862299928
 20
86.3014136212
  0
LWPOLYLINE
  5
139
330
1F
100
AcDbEntity
  8
0
  6
HIDDEN
 62
     7
370
     0
100
AcDbPolyline
 90
       18
 70
   128
 43
0.0
 10
156.6891044268
 20
88.2545990193
 10
156.6694696372
 20
88.3655173332
 10
156.646297969
 20
88.6842112062
 10
156.6227188844
 20
89.1676392645
 10
156.6019168695
 20
89.7505118703
 10
156.5867013517
 20
90.3541088483
 10
156.5791272708
 20
90.8969110819
 10
156.5802175486
 20
91.3056101218
 10
156.5898249369
 20
91.5250088979
 10
156.6066519048
 20
91.5254763898
 10
156.6284258769
 20
91.3069494601
 10
156.6522061578
 20
90.8989413816
 10
156.6747810886
 20
90.3565559061
 10
156.6931017999
 20
89.7530451975
 10
156.7046939782
 20
89.1699167213
 10
156.7079920354
 20
88.6859252093
 10
156.7025505507
 20
88.3664363971
 10
156.6891044268
 20
88.2545990193
  0
SPLINE
  5
13A
330
1F
100
AcDbEntity
  8
0
  6
HIDDEN
 62
     7
370
     0
100
AcDbSpline
210
0.0
220
0.0
230
1.0
 70
     8
 71
     3
 72
    20
 73
    16
 74
     0
 42
0.00000001
 43
0.00000001
 40
0.0
 40
0.0
 40
0.0
 40
0.0
 40
0.1249999999999999
 40
0.1249999999999999
 40
0.2499999999999999
 40
0.2499999999999999
 40
0.3749999999999998
 40
0.3749999999999998
 40
0.4999999999999998
 40
0.4999999999999998
 40
0.6249999999999998
 40
0.6249999999999998
 40
0.7499999999999997
 40
0.7499999999999997
 40
1.0
 40
1.0
 40
1.0
 40
1.0
 10
160.9050298384208
 20
125.8467157948736
 30
0.0
 10
161.0108093757589
 20
125.7585312454235
 30
0.0
 10
161.1056487798579
 20
125.6662348701035
 30
0.0
 10
161.2734853410088
 20
125.4729401696832
 30
0.0
 10
161.3470066786894
 20
125.370712479308
 30
0.0
 10
161.464627562336
 20
125.1653948139909
 30
0.0
 10
161.5096018657577
 20
125.0617048273944
 30
0.0
 10
161.5708054805935
 20
124.8518009398792
 30
0.0
 10
161.5861536013838
 20
124.7477559985653
 30
0.0
 10
161.5863058122672
 20
124.5464728437931
 30
0.0
 10
161.57085575261
 20
124.4472311854243
 30
0.0
 10
161.5101837336926
 20
124.2616003169739
 30
0.0
 10
161.4654477424305
 20
124.1750044188272
 30
0.0
 10
161.2882067100937
 20
123.9344803336217
 30
0.0
 10
161.1166118060376
 20
123.8063865558578
 30
0.0
 10
160.9050298384208
 20
123.7203259118719
 30
0.0
  0
LINE
  5
13B
330
1F
100
AcDbEntity
  8
0
  6
HIDDEN
 62
     7
370
     0
100
AcDbLine
 10
163.5862299928
 20
117.1133942153
 30
0.0
 11
163.5862299928
 21
129.9894907909
 31
0.0
  0
LINE
  5
13C
330
1F
100
AcDbEntity
  8
0
  6
HIDDEN
 62
     7
370
     0
100
AcDbLine
 10
163.5862299928
 20
117.1133942153
 30
0.0
 11
163.5862299928
 21
102.8655873665
 31
0.0
  0
LINE
  5
13D
330
1F
100
AcDbEntity
  8
0
  6
HIDDEN
 62
     7
370
     0
100
AcDbLine
 10
163.5862299928
 20
89.9894907909
 30
0.0
 11
163.5862299928
 21
102.8655873665
 31
0.0
  0
SPLINE
  5
13E
330
1F
100
AcDbEntity
  8
0
  6
HIDDEN
 62
     7
370
     0
100
AcDbSpline
210
0.0
220
0.0
230
1.0
 70
     8
 71
     3
 72
    14
 73
    10
 74
     0
 42
0.00000001
 43
0.00000001
 40
0.0
 40
0.0
 40
0.0
 40
0.0
 40
0.25
 40
0.25
 40
0.5
 40
0.5
 40
0.75
 40
0.75
 40
1.0
 40
1.0
 40
1.0
 40
1.0
 10
157.5862299928286
 20
124.5558904833422
 30
0.0
 10
157.5862299928286
 20
124.6599945285884
 30
0.0
 10
157.594150432189
 20
124.7657073308927
 30
0.0
 10
157.6258589751314
 20
124.9697857119619
 30
0.0
 10
157.6496170178476
 20
125.0697021357106
 30
0.0
 10
157.7149922038395
 20
125.2632416170749
 30
0.0
 10
157.7568958758268
 20
125.3568866416929
 30
0.0
 10
157.8577846161402
 20
125.5253624288963
 30
0.0
 10
157.9179191752088
 20
125.6022800476605
 30
0.0
 10
157.9862299928425
 20
125.6629978490633
 30
0.0
  0
LINE
  5
13F
330
1F
100
AcDbEntity
  8
0
  6
HIDDEN
 62
     7
370
     0
100
AcDbLine
 10
157.5862299928
 20
95.4230910985
 30
0.0
 11
157.5862299928
 21
130.5894907909
 31
0.0
  0
SPLINE
  5
140
330
1F
100
AcDbEntity
  8
0
  6
HIDDEN
 62
     7
370
     0
100
AcDbSpline
210
0.0
220
0.0
230
1.0
 70
     8
 71
     3
 72
    20
 73
    16
 74
     0
 42
0.00000001
 43
0.00000001
 40
0.0
 40
0.0
 40
0.0
 40
0.0
 40
0.125
 40
0.125
 40
0.25
 40
0.25
 40
0.375
 40
0.375
 40
0.5
 40
0.5
 40
0.625
 40
0.625
 40
0.75
 40
0.75
 40
1.0
 40
1.0
 40
1.0
 40
1.0
 10
157.9862299928286
 20
125.6629978490501
 30
0.0
 10
158.0648568384763
 20
125.7328850113562
 30
0.0
 10
158.1523760318091
 20
125.7959535487145
 30
0.0
 10
158.3444880648714
 20
125.9095155005526
 30
0.0
 10
158.4503203642295
 20
125.9604434517275
 30
0.0
 10
158.6737924377277
 20
126.0469198974634
 30
0.0
 10
158.7907199548168
 20
126.0824473917159
 30
0.0
 10
159.0348697573318
 20
126.13862466005
 30
0.0
 10
159.1631071174088
 20
126.1592220236445
 30
0.0
 10
159.4194198651813
 20
126.1836904168069
 30
0.0
 10
159.5486277156636
 20
126.1879409604496
 30
0.0
 10
159.809188457978
 20
126.1802108948299
 30
0.0
 10
159.9391052046209
 20
126.1681024860556
 30
0.0
 10
160.3157644961454
 20
126.1085794282376
 30
0.0
 10
160.5567950796381
 20
126.036746215674
 30
0.0
 10
160.7682217810906
 20
125.9356564279675
 30
0.0
  0
SPLINE
  5
141
330
1F
100
AcDbEntity
  8
0
  6
HIDDEN
 62
     7
370
     0
100
AcDbSpline
210
0.0
220
0.0
230
1.0
 70
     8
 71
     3
 72
     8
 73
     4
 74
     0
 42
0.00000001
 43
0.00000001
 40
0.0
 40
0.0
 40
0.0
 40
0.0
 40
1.0
 40
1.0
 40
1.0
 40
1.0
 10
160.7682217810906
 20
125.9356564279675
 30
0.0
 10
160.8160230976752
 20
125.912801107838
 30
0.0
 10
160.8615678526763
 20
125.8829484701861
 30
0.0
 10
160.9050298384208
 20
125.8467157948736
 30
0.0
  0
LINE
  5
142
330
1F
100
AcDbEntity
  8
0
  6
HIDDEN
 62
     7
370
     0
100
AcDbLine
 10
72.3362299928
 20
82.6194907909
 30
0.0
 11
72.3362299928
 21
77.7412055891
 31
0.0
  0
LINE
  5
143
330
1F
100
AcDbEntity
  8
0
  6
HIDDEN
 62
     7
370
     0
100
AcDbLine
 10
85.7862299928
 20
82.6194907909
 30
0.0
 11
85.7862299928
 21
76.1201575255
 31
0.0
  0
LINE
  5
144
330
1F
100
AcDbEntity
  8
0
  6
HIDDEN
 62
     7
370
     0
100
AcDbLine
 10
80.7862299928
 20
137.3594907909
 30
0.0
 11
80.7862299928
 21
143.7340995279
 31
0.0
  0
LINE
  5
145
330
1F
100
AcDbEntity
  8
0
  6
HIDDEN
 62
     7
370
     0
100
AcDbLine
 10
72.3362299928
 20
137.3594907909
 30
0.0
 11
72.3362299928
 21
142.2377759927
 31
0.0
  0
SPLINE
  5
146
330
1F
100
AcDbEntity
  8
0
  6
HIDDEN
 62
     7
370
     0
100
AcDbSpline
210
0.0
220
0.0
230
1.0
 70
     8
 71
     3
 72
    10
 73
     6
 74
     0
 42
0.00000001
 43
0.00000001
 40
0.0
 40
0.0
 40
0.0
 40
0.0
 40
0.5
 40
0.5
 40
1.0
 40
1.0
 40
1.0
 40
1.0
 10
157.9862299928286
 20
123.9659415742025
 30
0.0
 10
157.8498996712913
 20
124.1018318240271
 30
0.0
 10
157.7486450140563
 20
124.2054857697216
 30
0.0
 10
157.6179750029947
 20
124.3923680954318
 30
0.0
 10
157.5862299928286
 20
124.4757851554583
 30
0.0
 10
157.5862299928286
 20
124.5558904833422
 30
0.0
  0
LINE
  5
147
330
1F
100
AcDbEntity
  8
0
  6
HIDDEN
 62
     7
370
     0
100
AcDbLine
 10
157.5862299928
 20
89.3894907909
 30
0.0
 11
157.5862299928
 21
91.0868031286
 31
0.0
  0
SPLINE
  5
148
330
1F
100
AcDbEntity
  8
0
  6
HIDDEN
 62
     7
370
     0
100
AcDbSpline
210
0.0
220
0.0
230
1.0
 70
     8
 71
     3
 72
    18
 73
    14
 74
     0
 42
0.00000001
 43
0.00000001
 40
0.0
 40
0.0
 40
0.0
 40
0.0
 40
0.125
 40
0.125
 40
0.2499999999999999
 40
0.2499999999999999
 40
0.3749999999999999
 40
0.3749999999999999
 40
0.4999999999999999
 40
0.4999999999999999
 40
0.7499999999999999
 40
0.7499999999999999
 40
1.0
 40
1.0
 40
1.0
 40
1.0
 10
160.7682217810906
 20
123.6540362087017
 30
0.0
 10
160.6625128604462
 20
123.5950541168512
 30
0.0
 10
160.5510004591245
 20
123.5445770005735
 30
0.0
 10
160.3168108745419
 20
123.4603768675142
 30
0.0
 10
160.1927354160188
 20
123.4264292507572
 30
0.0
 10
159.9400440645054
 20
123.3781363794855
 30
0.0
 10
159.8120792775447
 20
123.3636568023745
 30
0.0
 10
159.552941314045
 20
123.3539815145891
 30
0.0
 10
159.4208733541824
 20
123.359074729196
 30
0.0
 10
159.036390983206
 20
123.4032276891896
 30
0.0
 10
158.7857009706053
 20
123.4724324688821
 30
0.0
 10
158.341483215394
 20
123.6746684068648
 30
0.0
 10
158.1434791599054
 20
123.8092000044781
 30
0.0
 10
157.9862299928286
 20
123.9659415742025
 30
0.0
  0
SPLINE
  5
149
330
1F
100
AcDbEntity
  8
0
  6
HIDDEN
 62
     7
370
     0
100
AcDbSpline
210
0.0
220
0.0
230
1.0
 70
     8
 71
     3
 72
     8
 73
     4
 74
     0
 42
0.00000001
 43
0.00000001
 40
0.0
 40
0.0
 40
0.0
 40
0.0
 40
1.0
 40
1.0
 40
1.0
 40
1.0
 10
160.9050298384208
 20
123.7203259118719
 30
0.0
 10
160.8615678526763
 20
123.7026478151786
 30
0.0
 10
160.8160230976752
 20
123.6807077670544
 30
0.0
 10
160.7682217810906
 20
123.6540362087017
 30
0.0
  0
LINE
  5
14A
330
1F
100
AcDbEntity
  8
0
  6
HIDDEN
 62
     7
370
     0
100
AcDbLine
 10
144.8862299928
 20
96.9894907909
 30
0.0
 11
144.8862299928
 21
122.9894907909
 31
0.0
  0
LINE
  5
14B
330
1F
100
AcDbEntity
  8
0
  6
HIDDEN
 62
     7
370
     0
100
AcDbLine
 10
148.8862299928
 20
96.9894907909
 30
0.0
 11
148.8862299928
 21
122.9894907909
 31
0.0
  0
LINE
  5
14C
330
1F
100
AcDbEntity
  8
0
  6
HIDDEN
 62
     7
370
     0
100
AcDbLine
 10
133.7862299928
 20
98.7394907909
 30
0.0
 11
133.7862299928
 21
121.2394907909
 31
0.0
  0
ELLIPSE
  5
14D
330
1F
100
AcDbEntity
  8
0
  6
HIDDEN
 62
     7
370
     0
100
AcDbEllipse
 10
64.4015567925
 20
109.9894907909
 30
0.0
 11
31.0810857081166
 21
1.421085471520200E-14
 31
0.0
210
0.0
220
0.0
230
1.0
 40
0.8164965809
 41
1.312649268214811
 42
1.367189972061496
  0
ELLIPSE
  5
14E
330
1F
100
AcDbEntity
  8
0
  6
HIDDEN
 62
     7
370
     0
100
AcDbEllipse
 10
64.4015567925
 20
109.9894907909
 30
0.0
 11
31.0810857081166
 21
-1.421085471520200E-14
 31
0.0
210
0.0
220
0.0
230
1.0
 40
0.8164965809
 41
4.915995335118103
 42
4.970536038964787
  0
LINE
  5
14F
330
1F
100
AcDbEntity
  8
0
  6
HIDDEN
 62
     7
370
     0
100
AcDbLine
 10
149.5362299928
 20
66.0894907909
 30
0.0
 11
135.5362299928
 21
66.0894907909
 31
0.0
  0
LINE
  5
150
330
1F
100
AcDbEntity
  8
0
  6
HIDDEN
 62
     7
370
     0
100
AcDbLine
 10
125.5362299928
 20
59.9994917911
 30
0.0
 11
125.5362299928
 21
66.0894907909
 31
0.0
  0
LINE
  5
151
330
1F
100
AcDbEntity
  8
0
  6
HIDDEN
 62
     7
370
     0
100
AcDbLine
 10
135.5362299928
 20
66.0894907909
 30
0.0
 11
125.5362299928
 21
66.0894907909
 31
0.0
  0
LINE
  5
152
330
1F
100
AcDbEntity
  8
0
  6
HIDDEN
 62
     7
370
     0
100
AcDbLine
 10
85.7862299928
 20
82.6194907909
 30
0.0
 11
85.7862299928
 21
84.7609771605
 31
0.0
  0
LINE
  5
153
330
1F
100
AcDbEntity
  8
0
  6
HIDDEN
 62
     7
370
     0
100
AcDbLine
 10
72.3362299928
 20
82.6194907909
 30
0.0
 11
72.3362299928
 21
85.4527856331
 31
0.0
  0
LINE
  5
154
330
1F
100
AcDbEntity
  8
0
  6
HIDDEN
 62
     7
370
     0
100
AcDbLine
 10
80.7862299928
 20
137.3594907909
 30
0.0
 11
80.7862299928
 21
135.2180044213
 31
0.0
  0
LINE
  5
155
330
1F
100
AcDbEntity
  8
0
  6
HIDDEN
 62
     7
370
     0
100
AcDbLine
 10
72.3362299928
 20
137.3594907909
 30
0.0
 11
72.3362299928
 21
134.5261959487
 31
0.0
  0
LINE
  5
156
330
1F
100
AcDbEntity
  8
0
  6
HIDDEN
 62
     7
370
     0
100
AcDbLine
 10
135.5362299928
 20
153.8894907909
 30
0.0
 11
125.5362299928
 21
153.8894907909
 31
0.0
  0
LINE
  5
157
330
1F
100
AcDbEntity
  8
0
  6
HIDDEN
 62
     7
370
     0
100
AcDbLine
 10
149.5362299928
 20
153.8894907909
 30
0.0
 11
135.5362299928
 21
153.8894907909
 31
0.0
  0
SPLINE
  5
158
330
1F
100
AcDbEntity
  8
0
  6
HIDDEN
 62
     7
370
     0
100
AcDbSpline
210
0.0
220
0.0
230
1.0
 70
     8
 71
     3
 72
    30
 73
    26
 74
     0
 42
0.00000001
 43
0.00000001
 40
0.0
 40
0.0
 40
0.0
 40
0.0
 40
0.0531308238741229
 40
0.112512319470632
 40
0.1779103418655143
 40
0.212934814268938
 40
0.249488346948179
 40
0.2912546567898106
 40
0.3260973925608159
 40
0.3540128418395336
 40
0.3749983573573009
 40
0.4414567593250904
 40
0.5001750103998269
 40
0.554690318219839
 40
0.6144351834031915
 40
0.679461242493838
 40
0.7140186261170601
 40
0.7499159990416404
 40
0.7913809656499976
 40
0.8260482884901948
 40
0.853914183706605
 40
0.8749757991668585
 40
0.9411630004489348
 40
0.9999141559037825
 40
1.0
 40
1.0
 40
1.0
 40
1.0
 10
111.585747174963
 20
72.8895702908541
 30
0.0
 10
111.5695531309656
 20
72.89446992089898
 30
0.0
 10
111.5352598654202
 20
72.90484560681355
 30
0.0
 10
111.2339577238558
 20
72.98049548358729
 30
0.0
 10
110.7917909200902
 20
73.07678130652567
 30
0.0
 10
110.2969579441585
 20
73.17644620923474
 30
0.0
 10
109.8264823244957
 20
73.26872433878961
 30
0.0
 10
109.29556088506
 20
73.36435637653925
 30
0.0
 10
108.7574103862084
 20
73.45000661849527
 30
0.0
 10
108.2993630513288
 20
73.51729841171706
 30
0.0
 10
107.6437987303531
 20
73.60564658064037
 30
0.0
 10
106.7604922922903
 20
73.70230466491594
 30
0.0
 10
105.6318305595087
 20
73.78907984167454
 30
0.0
 10
104.5420688096388
 20
73.82715853939955
 30
0.0
 10
103.4460405311376
 20
73.82900897417075
 30
0.0
 10
102.5406492842511
 20
73.80284751858171
 30
0.0
 10
101.844346573951
 20
73.76624029344416
 30
0.0
 10
101.3176668461091
 20
73.72722341798
 30
0.0
 10
100.851020731478
 20
73.68501429053273
 30
0.0
 10
100.4798054558764
 20
73.64801020098515
 30
0.0
 10
100.2257589782717
 20
73.61930944052037
 30
0.0
 10
99.92470382523472
 20
73.58292948990955
 30
0.0
 10
99.66922003027965
 20
73.55014932289811
 30
0.0
 10
99.56999930532709
 20
73.53381143819024
 30
0.0
 10
99.58627986260913
 20
73.53640502435942
 30
0.0
 10
99.58630361619508
 20
73.53640880844193
 30
0.0
  0
SPLINE
  5
159
330
1F
100
AcDbEntity
  8
0
  6
HIDDEN
 62
     7
370
     0
100
AcDbSpline
210
0.0
220
0.0
230
1.0
 70
     8
 71
     3
 72
    30
 73
    26
 74
     0
 42
0.00000001
 43
0.00000001
 40
0.0
 40
0.0
 40
0.0
 40
0.0
 40
0.0001163021049778
 40
0.0285469755965123
 40
0.0588504195204305
 40
0.0910308084848325
 40
0.1250915676824869
 40
0.154679973236038
 40
0.1963586495137141
 40
0.2501131295006302
 40
0.320528087295978
 40
0.3856128714503261
 40
0.4454060647115057
 40
0.4999591562745199
 40
0.5283513130648295
 40
0.5586357808976228
 40
0.590820222476914
 40
0.6249109619723783
 40
0.6541858317840554
 40
0.6958642164423865
 40
0.749931722929634
 40
0.8215912375225015
 40
0.8871427394383922
 40
0.9466380869335385
 40
1.0
 40
1.0
 40
1.0
 40
1.0
 10
99.58632869410347
 20
146.4425017650566
 30
0.0
 10
99.58629570312952
 20
146.4425089587756
 30
0.0
 10
99.57819789158287
 20
146.4442746957075
 30
0.0
 10
99.60685827301393
 20
146.4388200165589
 30
0.0
 10
99.6802464148768
 20
146.4282769093923
 30
0.0
 10
99.82390257792876
 20
146.4085917780417
 30
0.0
 10
100.0249383842222
 20
146.3837524928578
 30
0.0
 10
100.3075689060854
 20
146.3495440332023
 30
0.0
 10
100.7209780419062
 20
146.3058641343822
 30
0.0
 10
101.3972655390078
 20
146.2428210676755
 30
0.0
 10
102.3356964414758
 20
146.1815238969472
 30
0.0
 10
103.4451896545615
 20
146.1502354535296
 30
0.0
 10
104.5426703853523
 20
146.1518906211059
 30
0.0
 10
105.4427016237695
 20
146.1831968231949
 30
0.0
 10
106.154042549589
 20
146.2300299719866
 30
0.0
 10
106.7194594505477
 20
146.27719683388
 30
0.0
 10
107.3083828734114
 20
146.3366358404339
 30
0.0
 10
107.8727925260257
 20
146.4029930470595
 30
0.0
 10
108.4669887200756
 20
146.4849124535041
 30
0.0
 10
109.133596881026
 20
146.5865604362544
 30
0.0
 10
109.9349296266275
 20
146.7286993468462
 30
0.0
 10
110.6874396110706
 20
146.8799439176064
 30
0.0
 10
111.2327261060378
 20
146.9977947908674
 30
0.0
 10
111.5354476375413
 20
147.0740240226152
 30
0.0
 10
111.569738088155
 20
147.0844763321052
 30
0.0
 10
111.5859515248055
 20
147.0894184619033
 30
0.0
  0
LINE
  5
15A
330
1F
100
AcDbEntity
  8
0
  6
HIDDEN
 62
     7
370
     0
100
AcDbLine
 10
157.5362299928
 20
70.5668410601
 30
0.0
 11
152.5362299928
 21
70.5668410601
 31
0.0
  0
LINE
  5
15B
330
1F
100
AcDbEntity
  8
0
  6
HIDDEN
 62
     7
370
     0
100
AcDbLine
 10
155.0362299928
 20
149.4121405217
 30
0.0
 11
157.5362299928
 21
149.4121405217
 31
0.0
  0
LINE
  5
15C
330
1F
100
AcDbEntity
  8
0
  6
HIDDEN
 62
     7
370
     0
100
AcDbLine
 10
152.5362299928
 20
149.4121405217
 30
0.0
 11
155.0362299928
 21
149.4121405217
 31
0.0
  0
LINE
  5
15D
330
1F
100
AcDbEntity
  8
0
  6
HIDDEN
 62
     7
370
     0
100
AcDbLine
 10
157.5362299928
 20
83.9894907909
 30
0.0
 11
152.5362299928
 21
83.9894907909
 31
0.0
  0
LINE
  5
15E
330
1F
100
AcDbEntity
  8
0
  6
HIDDEN
 62
     7
370
     0
100
AcDbLine
 10
155.0362299928
 20
135.9894907909
 30
0.0
 11
157.5362299928
 21
135.9894907909
 31
0.0
  0
LINE
  5
15F
330
1F
100
AcDbEntity
  8
0
  6
HIDDEN
 62
     7
370
     0
100
AcDbLine
 10
152.5362299928
 20
135.9894907909
 30
0.0
 11
155.0362299928
 21
135.9894907909
 31
0.0
  0
LWPOLYLINE
  5
160
330
1F
100
AcDbEntity
  8
0
  6
HIDDEN
 62
     7
370
     0
100
AcDbPolyline
 90
       31
 70
   128
 43
0.0
 10
129.5862299928
 20
152.2120266989
 10
130.6257884469
 20
152.2457905126
 10
131.6199132082
 20
152.3456063131
 10
132.5251562543
 20
152.5071116708
 10
133.3019541202
 20
152.7232480267
 10
133.9163570118
 20
152.9845691849
 10
134.3415125743
 20
153.2796541567
 10
134.5588394697
 20
153.5956063131
 10
134.5588394697
 20
153.9186170285
 10
134.3415125743
 20
154.2345691849
 10
133.9163570118
 20
154.5296541567
 10
133.3019541202
 20
154.7909753149
 10
132.5251562543
 20
155.0071116708
 10
131.6199132082
 20
155.1686170285
 10
130.6257884469
 20
155.268432829
 10
129.5862299928
 20
155.3021966427
 10
128.5466715387
 20
155.268432829
 10
127.5525467774
 20
155.1686170285
 10
126.6473037314
 20
155.0071116708
 10
125.8705058654
 20
154.7909753149
 10
125.2561029739
 20
154.5296541567
 10
124.8309474114
 20
154.2345691849
 10
124.613620516
 20
153.9186170285
 10
124.613620516
 20
153.5956063131
 10
124.8309474114
 20
153.2796541567
 10
125.2561029739
 20
152.9845691849
 10
125.8705058654
 20
152.7232480267
 10
126.6473037314
 20
152.5071116708
 10
127.5525467774
 20
152.3456063131
 10
128.5466715387
 20
152.2457905126
 10
129.5862299928
 20
152.2120266989
  0
LINE
  5
161
330
1F
100
AcDbEntity
  8
0
  6
HIDDEN
 62
     7
370
     0
100
AcDbLine
 10
143.8482590137
 20
148.9404535518
 30
0.0
 11
143.8482590137
 21
141.3394907909
 31
0.0
  0
LINE
  5
162
330
1F
100
AcDbEntity
  8
0
  6
HIDDEN
 62
     7
370
     0
100
AcDbLine
 10
142.4962299928
 20
144.7037259834
 30
0.0
 11
142.4962299928
 21
141.3394907909
 31
0.0
  0
LINE
  5
163
330
1F
100
AcDbEntity
  8
0
  6
HIDDEN
 62
     7
370
     0
100
AcDbLine
 10
138.6762299928
 20
144.7037259834
 30
0.0
 11
138.6762299928
 21
141.3394907909
 31
0.0
  0
SPLINE
  5
164
330
1F
100
AcDbEntity
  8
0
  6
HIDDEN
 62
     7
370
     0
100
AcDbSpline
210
0.0
220
0.0
230
1.0
 70
     8
 71
     3
 72
    62
 73
    58
 74
     0
 42
0.00000001
 43
0.00000001
 40
-0.0625000000000001
 40
-0.0625000000000001
 40
0.0
 40
0.0
 40
0.062499999999999
 40
0.062499999999999
 40
0.0937499999999991
 40
0.0937499999999991
 40
0.1249999999999991
 40
0.1249999999999991
 40
0.1562499999999992
 40
0.1562499999999992
 40
0.1874999999999993
 40
0.1874999999999993
 40
0.2187499999999993
 40
0.2187499999999993
 40
0.2499999999999994
 40
0.2499999999999994
 40
0.2812499999999994
 40
0.2812499999999994
 40
0.3124999999999995
 40
0.3124999999999995
 40
0.3437499999999996
 40
0.3437499999999996
 40
0.3749999999999996
 40
0.3749999999999996
 40
0.4062499999999997
 40
0.4062499999999997
 40
0.4374999999999998
 40
0.4374999999999998
 40
0.4687499999999998
 40
0.4687499999999998
 40
0.4999999999999999
 40
0.4999999999999999
 40
0.53125
 40
0.53125
 40
0.5625
 40
0.5625
 40
0.6249999999999993
 40
0.6249999999999993
 40
0.6562499999999994
 40
0.6562499999999994
 40
0.6874999999999994
 40
0.6874999999999994
 40
0.7187499999999996
 40
0.7187499999999996
 40
0.7499999999999996
 40
0.7499999999999996
 40
0.7812499999999997
 40
0.7812499999999997
 40
0.8124999999999998
 40
0.8124999999999998
 40
0.8437499999999998
 40
0.8437499999999998
 40
0.8749999999999999
 40
0.8749999999999999
 40
0.9374999999999999
 40
0.9374999999999999
 40
1.0
 40
1.0
 40
1.062499999999999
 40
1.062499999999999
 10
161.31717218011
 20
130.1556627363302
 30
0.0
 10
161.1047799990879
 20
129.7431192146551
 30
0.0
 10
160.9907247632349
 20
129.5452673508228
 30
0.0
 10
160.843641708939
 20
129.252089534942
 30
0.0
 10
160.7999765813748
 20
129.1569784824544
 30
0.0
 10
160.7356846280891
 20
128.969427086227
 30
0.0
 10
160.7168705751886
 20
128.8802463705605
 30
0.0
 10
160.7161316970275
 20
128.7150927483117
 30
0.0
 10
160.7340963911113
 20
128.6432228132024
 30
0.0
 10
160.7957200036379
 20
128.5195615272512
 30
0.0
 10
160.8375503360022
 20
128.4699394661084
 30
0.0
 10
160.9312645523388
 20
128.3890581095001
 30
0.0
 10
160.9834928666919
 20
128.3580099968342
 30
0.0
 10
161.0882369502934
 20
128.314647167746
 30
0.0
 10
161.141264987489
 20
128.3019446518129
 30
0.0
 10
161.2447747526098
 20
128.2947658021583
 30
0.0
 10
161.2956301075959
 20
128.3005422358951
 30
0.0
 10
161.3880732752903
 20
128.3322720138127
 30
0.0
 10
161.4301094749797
 20
128.358036926833
 30
0.0
 10
161.5024183421074
 20
128.4328891840732
 30
0.0
 10
161.5317685145454
 20
128.4813480273489
 30
0.0
 10
161.5728462938046
 20
128.6003730216081
 30
0.0
 10
161.5845756468759
 20
128.6721890033833
 30
0.0
 10
161.5875477621735
 20
128.8315499792955
 30
0.0
 10
161.5789468898507
 20
128.9212384255059
 30
0.0
 10
161.5430979843999
 20
129.1113177775325
 30
0.0
 10
161.5162747142048
 20
129.2108638245584
 30
0.0
 10
161.4477636100989
 20
129.4172946995754
 30
0.0
 10
161.4072843739806
 20
129.5206816919964
 30
0.0
 10
161.3174227009498
 20
129.7283607006134
 30
0.0
 10
161.2674936682297
 20
129.8335796562309
 30
0.0
 10
161.1648698466312
 20
130.0392755667598
 30
0.0
 10
161.1120009092782
 20
130.1401984892235
 30
0.0
 10
161.0068249314359
 20
130.3401610140872
 30
0.0
 10
160.9540000387445
 20
130.4400318384038
 30
0.0
 10
160.8090326133321
 20
130.7328785717152
 30
0.0
 10
160.7273542203569
 20
130.9248964334873
 30
0.0
 10
160.7125935446402
 20
131.1787021001182
 30
0.0
 10
160.7260071999634
 20
131.2531350763179
 30
0.0
 10
160.7824715482249
 20
131.3813005195971
 30
0.0
 10
160.8236279976271
 20
131.4324820269538
 30
0.0
 10
160.9178156439943
 20
131.5143516156786
 30
0.0
 10
160.9710696563947
 20
131.544877935574
 30
0.0
 10
161.0782279006763
 20
131.586066226696
 30
0.0
 10
161.1327495769914
 20
131.5971473640434
 30
0.0
 10
161.2393283112546
 20
131.6003059208004
 30
0.0
 10
161.2911700398684
 20
131.5921123502831
 30
0.0
 10
161.3849737470842
 20
131.5559647054967
 30
0.0
 10
161.4275359571773
 20
131.5280897821702
 30
0.0
 10
161.5006515701249
 20
131.4497770723494
 30
0.0
 10
161.5307085716907
 20
131.3992388168547
 30
0.0
 10
161.5723143489159
 20
131.2782448700908
 30
0.0
 10
161.5842990482756
 20
131.2059825039422
 30
0.0
 10
161.589427512081
 20
130.9665749495357
 30
0.0
 10
161.5512843841207
 20
130.7724557277112
 30
0.0
 10
161.4141200375402
 20
130.3657818434822
 30
0.0
 10
161.31717218011
 20
130.1556627363302
 30
0.0
 10
161.1047799990879
 20
129.7431192146551
 30
0.0
  0
LWPOLYLINE
  5
165
330
1F
100
AcDbEntity
  8
0
  6
HIDDEN
 62
     7
370
     0
100
AcDbPolyline
 90
       20
 70
   128
 43
0.0
 10
159.5862299928
 20
130.4955874453
 10
160.2356289312
 20
130.5722134369
 10
160.8146554182
 20
130.7937877967
 10
161.2605629494
 20
131.1362995046
 10
161.5250305247
 20
131.5626321024
 10
161.5793989788
 20
132.026585838
 10
161.4177766461
 20
132.4778841252
 10
161.0576778142
 20
132.8676217918
 10
160.5381247789
 20
133.1535647144
 10
159.9154191734
 20
133.3047265404
 10
159.2570408123
 20
133.3047265404
 10
158.6343352068
 20
133.1535647144
 10
158.1147821715
 20
132.8676217918
 10
157.7546833395
 20
132.4778841252
 10
157.5930610068
 20
132.026585838
 10
157.6474294609
 20
131.5626321024
 10
157.9118970363
 20
131.1362995046
 10
158.3578045674
 20
130.7937877967
 10
158.9368310544
 20
130.5722134369
 10
159.5862299928
 20
130.4955874453
  0
SPLINE
  5
166
330
1F
100
AcDbEntity
  8
0
  6
HIDDEN
 62
     7
370
     0
100
AcDbSpline
210
0.0
220
0.0
230
1.0
 70
     8
 71
     3
 72
    54
 73
    50
 74
     0
 42
0.00000001
 43
0.00000001
 40
-0.0625000000000008
 40
-0.0625000000000008
 40
0.0
 40
0.0
 40
0.0312499999999999
 40
0.0312499999999999
 40
0.0624999999999998
 40
0.0624999999999998
 40
0.1249999999999991
 40
0.1249999999999991
 40
0.1562499999999991
 40
0.1562499999999991
 40
0.187499999999999
 40
0.187499999999999
 40
0.2499999999999989
 40
0.2499999999999989
 40
0.3124999999999988
 40
0.3124999999999988
 40
0.3437499999999986
 40
0.3437499999999986
 40
0.3749999999999983
 40
0.3749999999999983
 40
0.4062499999999979
 40
0.4062499999999979
 40
0.4374999999999977
 40
0.4374999999999977
 40
0.4999999999999976
 40
0.4999999999999976
 40
0.5624999999999976
 40
0.5624999999999976
 40
0.5937499999999976
 40
0.5937499999999976
 40
0.6249999999999976
 40
0.6249999999999976
 40
0.6562499999999977
 40
0.6562499999999977
 40
0.6874999999999977
 40
0.6874999999999977
 40
0.7499999999999973
 40
0.7499999999999973
 40
0.8124999999999969
 40
0.8124999999999969
 40
0.8437499999999974
 40
0.8437499999999974
 40
0.8749999999999981
 40
0.8749999999999981
 40
0.9062499999999987
 40
0.9062499999999987
 40
0.9374999999999992
 40
0.9374999999999992
 40
1.0
 40
1.0
 40
1.03125
 40
1.03125
 10
158.0650629070486
 20
129.8327255870347
 30
0.0
 10
157.9096943905631
 20
130.1431412255297
 30
0.0
 10
157.8604710313508
 20
130.2463979939165
 30
0.0
 10
157.7701536999365
 20
130.4536131948631
 30
0.0
 10
157.7286214605361
 20
130.5588278015459
 30
0.0
 10
157.6254911643502
 20
130.8654924083109
 30
0.0
 10
157.5851252827805
 20
131.0625272307579
 30
0.0
 10
157.5868188327979
 20
131.3038382271693
 30
0.0
 10
157.5975982999932
 20
131.3765332859277
 30
0.0
 10
157.6368872353894
 20
131.4974024152546
 30
0.0
 10
157.6657599314891
 20
131.5473573399184
 30
0.0
 10
157.7716866183452
 20
131.6621467528043
 30
0.0
 10
157.8687601889162
 20
131.6938882748825
 30
0.0
 10
158.0742248774764
 20
131.6833873193613
 30
0.0
 10
158.1864029925822
 20
131.6416031079858
 30
0.0
 10
158.3272860653934
 20
131.5245376210542
 30
0.0
 10
158.370280156423
 20
131.4757254262802
 30
0.0
 10
158.4343381527888
 20
131.354910689154
 30
0.0
 10
158.4542537028096
 20
131.2835986430793
 30
0.0
 10
158.4574587562473
 20
131.1212177543083
 30
0.0
 10
158.4405784703605
 20
131.0322842861945
 30
0.0
 10
158.3792547399518
 20
130.8458202535175
 30
0.0
 10
158.3365868704404
 20
130.7510236013198
 30
0.0
 10
158.1913071574423
 20
130.4583598694513
 30
0.0
 10
158.0773435989396
 20
130.2609455822649
 30
0.0
 10
157.8642765331683
 20
129.8494271422335
 30
0.0
 10
157.768518675768
 20
129.6450366133587
 30
0.0
 10
157.6618747240138
 20
129.337204700317
 30
0.0
 10
157.6339638708984
 20
129.2383650451189
 30
0.0
 10
157.595834155904
 20
129.0489718061636
 30
0.0
 10
157.5859348052203
 20
128.9583287350957
 30
0.0
 10
157.586539057382
 20
128.7966230441203
 30
0.0
 10
157.5969920305157
 20
128.7231648958975
 30
0.0
 10
157.6363090926254
 20
128.5984725659296
 30
0.0
 10
157.6647912057703
 20
128.5470728309816
 30
0.0
 10
157.772755388596
 20
128.4237709896593
 30
0.0
 10
157.8717808396383
 20
128.3865068139763
 30
0.0
 10
158.0841880301064
 20
128.3887296120551
 30
0.0
 10
158.2002404286002
 20
128.4277515952818
 30
0.0
 10
158.3430327489668
 20
128.5476918797632
 30
0.0
 10
158.3857733470675
 20
128.5991652817429
 30
0.0
 10
158.4439048177912
 20
128.7244710986362
 30
0.0
 10
158.4590021358104
 20
128.8003252060155
 30
0.0
 10
158.4518159283986
 20
128.9662679804951
 30
0.0
 10
158.4298326259448
 20
129.0583068466266
 30
0.0
 10
158.3636600350863
 20
129.2450440760065
 30
0.0
 10
158.3196232711767
 20
129.3416311243527
 30
0.0
 10
158.1750774295884
 20
129.6350363819044
 30
0.0
 10
158.0650629070486
 20
129.8327255870347
 30
0.0
 10
157.9096943905631
 20
130.1431412255297
 30
0.0
  0
LWPOLYLINE
  5
167
330
1F
100
AcDbEntity
  8
0
  6
HIDDEN
 62
     7
370
     0
100
AcDbPolyline
 90
       18
 70
   128
 43
0.0
 10
156.6891044268
 20
130.0750189756
 10
156.6694696372
 20
129.479199948
 10
156.646297969
 20
128.9638495817
 10
156.6227188844
 20
128.5985687993
 10
156.6019168695
 20
128.4326907944
 10
156.5867013517
 20
128.4886183109
 10
156.5791272708
 20
128.7587980276
 10
156.5802175486
 20
129.2067406768
 10
156.5898249369
 20
129.7719491216
 10
156.6066519048
 20
130.3780888295
 10
156.6284258769
 20
130.9432972743
 10
156.6522061578
 20
131.3912399235
 10
156.6747810886
 20
131.6614196403
 10
156.6931017999
 20
131.7173471567
 10
156.7046939782
 20
131.5514691518
 10
156.7079920354
 20
131.1861883694
 10
156.7025505507
 20
130.6708380031
 10
156.6891044268
 20
130.0750189756
  0
CIRCLE
  5
168
330
1F
100
AcDbEntity
  8
0
  6
HIDDEN
 62
     7
370
     0
100
AcDbCircle
 10
127.5862299928
 20
109.9894907909
 30
0.0
 40
5.0
  0
LINE
  5
169
330
1F
100
AcDbEntity
  8
0
  6
HIDDEN
 62
     7
370
     0
100
AcDbLine
 10
223.3248833387
 20
93.7565309515
 30
0.0
 11
222.5968602166
 21
92.9863047939
 31
0.0
  0
LINE
  5
16A
330
1F
100
AcDbEntity
  8
0
  6
HIDDEN
 62
     7
370
     0
100
AcDbLine
 10
222.6662624008
 20
90.4882329463
 30
0.0
 11
223.4359268335
 21
89.7596159953
 31
0.0
  0
LINE
  5
16B
330
1F
100
AcDbEntity
  8
0
  6
HIDDEN
 62
     7
370
     0
100
AcDbLine
 10
230.3458207512
 20
93.9523604561
 30
0.0
 11
223.3264032481
 21
93.7573448855
 31
0.0
  0
LINE
  5
16C
330
1F
100
AcDbEntity
  8
0
  6
HIDDEN
 62
     7
370
     0
100
AcDbLine
 10
223.4374895895
 20
89.7588877049
 30
0.0
 11
230.4569070925
 21
89.9539032755
 31
0.0
  0
LINE
  5
16D
330
1F
100
AcDbEntity
  8
0
  6
HIDDEN
 62
     7
370
     0
100
AcDbLine
 10
230.4595124644
 20
89.9562916748
 30
0.0
 11
230.5862299928
 21
90.1909413237
 31
0.0
  0
LINE
  5
16E
330
1F
100
AcDbEntity
  8
0
  6
HIDDEN
 62
     7
370
     0
100
AcDbLine
 10
230.5838455179
 20
93.5669584559
 30
0.0
 11
230.3485547123
 21
93.9501203957
 31
0.0
  0
LINE
  5
16F
330
1F
100
AcDbEntity
  8
0
  6
HIDDEN
 62
     7
370
     0
100
AcDbLine
 10
230.3528425529
 20
126.02874206
 30
0.0
 11
230.5862299928
 21
126.4088044429
 31
0.0
  0
LINE
  5
170
330
1F
100
AcDbEntity
  8
0
  6
HIDDEN
 62
     7
370
     0
100
AcDbLine
 10
230.5862299928
 20
129.7958611565
 30
0.0
 11
230.4638003049
 21
130.0225707809
 31
0.0
  0
LINE
  5
171
330
1F
100
AcDbEntity
  8
0
  6
HIDDEN
 62
     7
370
     0
100
AcDbLine
 10
230.461194933
 20
130.0249591802
 30
0.0
 11
223.44177743
 21
130.2199747508
 31
0.0
  0
LINE
  5
172
330
1F
100
AcDbEntity
  8
0
  6
HIDDEN
 62
     7
370
     0
100
AcDbLine
 10
223.3306910887
 20
126.2215175703
 30
0.0
 11
230.3501085917
 21
126.0265019996
 31
0.0
  0
LINE
  5
173
330
1F
100
AcDbEntity
  8
0
  6
HIDDEN
 62
     7
370
     0
100
AcDbLine
 10
223.440214674
 20
130.2192464604
 30
0.0
 11
222.6705502413
 21
129.4906295094
 31
0.0
  0
LINE
  5
174
330
1F
100
AcDbEntity
  8
0
  6
HIDDEN
 62
     7
370
     0
100
AcDbLine
 10
222.6011480571
 20
126.9925576618
 30
0.0
 11
223.3291711793
 21
126.2223315042
 31
0.0
  0
LINE
  5
175
330
1F
100
AcDbEntity
  8
0
  6
HIDDEN
 62
     7
370
     0
100
AcDbLine
 10
120.5862299928
 20
70.5848078343
 30
0.0
 11
120.6758316168
 21
71.2223565162
 31
0.0
  0
LINE
  5
176
330
1F
100
AcDbEntity
  8
0
  6
HIDDEN
 62
     7
370
     0
100
AcDbLine
 10
120.6758316168
 20
148.7566250656
 30
0.0
 11
120.5862299928
 21
149.3941737475
 31
0.0
  0
ARC
  5
177
330
1F
100
AcDbEntity
  8
0
  6
HIDDEN
 62
     7
370
     0
100
AcDbCircle
 10
119.6892930744
 20
71.3610054665
 30
0.0
 40
0.9962338214386842
100
AcDbArc
 50
352.0
 51
0.0
  0
ARC
  5
178
330
1F
100
AcDbEntity
  8
0
  6
HIDDEN
 62
     7
370
     0
100
AcDbCircle
 10
119.6892930744
 20
71.3610054665
 30
0.0
 40
0.9962338214386793
100
AcDbArc
 50
0.0
 51
25.7988228126
  0
ARC
  5
179
330
1F
100
AcDbEntity
  8
0
  6
HIDDEN
 62
     7
370
     0
100
AcDbCircle
 10
119.6892930744
 20
148.6179761153
 30
0.0
 40
0.9962338214386862
100
AcDbArc
 50
348.75
 51
8.0
  0
LWPOLYLINE
  5
17A
330
1F
100
AcDbEntity
  8
0
  6
HIDDEN
 62
     7
370
     0
100
AcDbPolyline
 90
        3
 70
   128
 43
0.0
 10
120.6663845423
 20
148.4236205383
 10
120.6096931116
 20
148.2367339371
 10
120.5862299928
 20
148.1844026022
  0
LINE
  5
17B
330
1F
100
AcDbEntity
  8
0
  6
HIDDEN
 62
     7
370
     0
100
AcDbLine
 10
120.6855268958
 20
71.3610054665
 30
0.0
 11
120.6855268958
 21
148.6179761153
 31
0.0
  0
ARC
  5
17C
330
1F
100
AcDbEntity
  8
0
  6
HIDDEN
 62
     7
370
     0
100
AcDbCircle
 10
110.839435648
 20
90.4894907909
 30
0.0
 40
12.0
100
AcDbArc
 50
273.4649298487
 51
324.3146652873
  0
ARC
  5
17D
330
1F
100
AcDbEntity
  8
0
  6
HIDDEN
 62
     7
370
     0
100
AcDbCircle
 10
110.839435648
 20
129.4894907909
 30
0.0
 40
11.99999999999998
100
AcDbArc
 50
35.6853347127
 51
86.5357771812
  0
ARC
  5
17E
330
1F
100
AcDbEntity
  8
0
  6
HIDDEN
 62
     7
370
     0
100
AcDbCircle
 10
94.046955935
 20
79.4894907909
 30
0.0
 40
1.000000000000008
100
AcDbArc
 50
210.0
 51
270.0
  0
ARC
  5
17F
330
1F
100
AcDbEntity
  8
0
  6
HIDDEN
 62
     7
370
     0
100
AcDbCircle
 10
94.046955935
 20
140.4894907909
 30
0.0
 40
1.000000000000008
100
AcDbArc
 50
90.0
 51
150.0
  0
LINE
  5
180
330
1F
100
AcDbEntity
  8
0
  6
HIDDEN
 62
     7
370
     0
100
AcDbLine
 10
94.046955935
 20
78.4894907909
 30
0.0
 11
99.5914003668
 21
78.4894907909
 31
0.0
  0
LINE
  5
181
330
1F
100
AcDbEntity
  8
0
  6
HIDDEN
 62
     7
370
     0
100
AcDbLine
 10
99.5914003668
 20
141.4894907909
 30
0.0
 11
94.046955935
 21
141.4894907909
 31
0.0
  0
LINE
  5
182
330
1F
100
AcDbEntity
  8
0
  6
HIDDEN
 62
     7
370
     0
100
AcDbLine
 10
93.1809305312
 20
140.9894907909
 30
0.0
 11
90.5828543199
 21
136.4894907909
 31
0.0
  0
LINE
  5
183
330
1F
100
AcDbEntity
  8
0
  6
HIDDEN
 62
     7
370
     0
100
AcDbLine
 10
90.5828543199
 20
83.4894907909
 30
0.0
 11
93.1809305312
 21
78.9894907909
 31
0.0
  0
ARC
  5
184
330
1F
100
AcDbEntity
  8
0
  6
HIDDEN
 62
     7
370
     0
100
AcDbCircle
 10
131.0362299928
 20
85.1144907909
 30
0.0
 40
2.0
100
AcDbArc
 50
234.3409123039
 51
0.0
  0
ARC
  5
185
330
1F
100
AcDbEntity
  8
0
  6
HIDDEN
 62
     7
370
     0
100
AcDbCircle
 10
131.0362299928
 20
134.8644907909
 30
0.0
 40
2.00000000000001
100
AcDbArc
 50
0.0
 51
125.6590876961
  0
LINE
  5
186
330
1F
100
AcDbEntity
  8
0
  6
HIDDEN
 62
     7
370
     0
100
AcDbLine
 10
85.7862299928
 20
83.4894907909
 30
0.0
 11
90.5828543199
 21
83.4894907909
 31
0.0
  0
LINE
  5
187
330
1F
100
AcDbEntity
  8
0
  6
HIDDEN
 62
     7
370
     0
100
AcDbLine
 10
90.5828543199
 20
136.4894907909
 30
0.0
 11
80.7862299928
 21
136.4894907909
 31
0.0
  0
LINE
  5
188
330
1F
100
AcDbEntity
  8
0
  6
HIDDEN
 62
     7
370
     0
100
AcDbLine
 10
120.5862299928
 20
83.4894907909
 30
0.0
 11
129.8703076112
 21
83.4894907909
 31
0.0
  0
LINE
  5
189
330
1F
100
AcDbEntity
  8
0
  6
HIDDEN
 62
     7
370
     0
100
AcDbLine
 10
129.8703076112
 20
136.4894907909
 30
0.0
 11
120.5862299928
 21
136.4894907909
 31
0.0
  0
LINE
  5
18A
330
1F
100
AcDbEntity
  8
0
  6
HIDDEN
 62
     7
370
     0
100
AcDbLine
 10
134.5862299928
 20
151.9669045696
 30
0.0
 11
134.5862299928
 21
155.6653677871
 31
0.0
  0
LINE
  5
18B
330
1F
100
AcDbEntity
  8
0
  6
HIDDEN
 62
     7
370
     0
100
AcDbLine
 10
124.5862299928
 20
155.666763673
 30
0.0
 11
124.5862299928
 21
151.9669045696
 31
0.0
  0
LINE
  5
18C
330
1F
100
AcDbEntity
  8
0
  6
HIDDEN
 62
     7
370
     0
100
AcDbLine
 10
161.5862299928
 20
91.1974593669
 30
0.0
 11
161.5862299928
 21
95.3276014909
 31
0.0
  0
LINE
  5
18D
330
1F
100
AcDbEntity
  8
0
  6
HIDDEN
 62
     7
370
     0
100
AcDbLine
 10
161.5862299928
 20
87.7156271835
 30
0.0
 11
161.5862299928
 21
88.8850473514
 31
0.0
  0
LINE
  5
18E
330
1F
100
AcDbEntity
  8
0
  6
HIDDEN
 62
     7
370
     0
100
AcDbLine
 10
157.5862299928
 20
88.7739826748
 30
0.0
 11
157.5862299928
 21
87.7156271835
 31
0.0
  0
LINE
  5
18F
330
1F
100
AcDbEntity
  8
0
  6
HIDDEN
 62
     7
370
     0
100
AcDbLine
 10
157.5862299928
 20
95.4230910985
 30
0.0
 11
157.5862299928
 21
91.0868031286
 31
0.0
  0
LINE
  5
190
330
1F
100
AcDbEntity
  8
0
  6
HIDDEN
 62
     7
370
     0
100
AcDbLine
 10
156.6891044268
 20
88.2545990193
 30
0.0
 11
157.9614838961
 21
88.2899486488
 31
0.0
  0
LINE
  5
191
330
1F
100
AcDbEntity
  8
0
  6
HIDDEN
 62
     7
370
     0
100
AcDbLine
 10
157.9638817809
 20
91.5912885847
 30
0.0
 11
156.5974581952
 21
91.5533261932
 31
0.0
  0
LINE
  5
192
330
1F
100
AcDbEntity
  8
0
  6
HIDDEN
 62
     7
370
     0
100
AcDbLine
 10
161.2109760896
 20
88.3802270193
 30
0.0
 11
230.5862299928
 21
90.3076312121
 31
0.0
  0
LINE
  5
193
330
1F
100
AcDbEntity
  8
0
  6
HIDDEN
 62
     7
370
     0
100
AcDbLine
 10
230.5862299928
 20
93.6089045292
 30
0.0
 11
161.2100512621
 21
91.6814746427
 31
0.0
  0
LINE
  5
194
330
1F
100
AcDbEntity
  8
0
  6
HIDDEN
 62
     7
370
     0
100
AcDbLine
 10
156.5953908695
 20
91.551504722
 30
0.0
 11
155.6526256385
 21
89.8764399121
 31
0.0
  0
LINE
  5
195
330
1F
100
AcDbEntity
  8
0
  6
HIDDEN
 62
     7
370
     0
100
AcDbLine
 10
155.6526256385
 20
89.8764399121
 30
0.0
 11
156.6869391587
 21
88.2563028993
 31
0.0
  0
LINE
  5
196
330
1F
100
AcDbEntity
  8
0
  6
HIDDEN
 62
     7
370
     0
100
AcDbLine
 10
160.9050298384
 20
89.0136137426
 30
0.0
 11
163.5862299928
 21
89.9894907909
 31
0.0
  0
LINE
  5
197
330
1F
100
AcDbEntity
  8
0
  6
HIDDEN
 62
     7
370
     0
100
AcDbLine
 10
163.5862299928
 20
129.9894907909
 30
0.0
 11
160.9050298384
 21
130.9653678392
 31
0.0
  0
ARC
  5
198
330
1F
100
AcDbEntity
  8
0
  6
HIDDEN
 62
     7
370
     0
100
AcDbCircle
 10
157.9862299928
 20
130.5894907909
 30
0.0
 40
0.4000000000000057
100
AcDbArc
 50
90.0
 51
180.0
  0
LINE
  5
199
330
1F
100
AcDbEntity
  8
0
  6
HIDDEN
 62
     7
370
     0
100
AcDbLine
 10
160.7682217811
 20
130.9894907909
 30
0.0
 11
157.9862299928
 21
130.9894907909
 31
0.0
  0
ARC
  5
19A
330
1F
100
AcDbEntity
  8
0
  6
HIDDEN
 62
     7
370
     0
100
AcDbCircle
 10
160.7682217811
 20
130.5894907909
 30
0.0
 40
0.3999999999999773
100
AcDbArc
 50
70.0
 51
90.0
  0
ARC
  5
19B
330
1F
100
AcDbEntity
  8
0
  6
HIDDEN
 62
     7
370
     0
100
AcDbCircle
 10
230.0862299928
 20
89.4894907909
 30
0.0
 40
0.5
100
AcDbArc
 50
0.0
 51
90.0
  0
ARC
  5
19C
330
1F
100
AcDbEntity
  8
0
  6
HIDDEN
 62
     7
370
     0
100
AcDbCircle
 10
230.0862299928
 20
130.4894907909
 30
0.0
 40
0.5
100
AcDbArc
 50
270.0
 51
0.0
  0
LINE
  5
19D
330
1F
100
AcDbEntity
  8
0
  6
HIDDEN
 62
     7
370
     0
100
AcDbLine
 10
163.5862299928
 20
89.9894907909
 30
0.0
 11
230.0862299928
 21
89.9894907909
 31
0.0
  0
LINE
  5
19E
330
1F
100
AcDbEntity
  8
0
  6
HIDDEN
 62
     7
370
     0
100
AcDbLine
 10
230.0862299928
 20
129.9894907909
 30
0.0
 11
163.5862299928
 21
129.9894907909
 31
0.0
  0
ARC
  5
19F
330
1F
100
AcDbEntity
  8
0
  6
HIDDEN
 62
     7
370
     0
100
AcDbCircle
 10
157.9862299928
 20
89.3894907909
 30
0.0
 40
0.4000000000000057
100
AcDbArc
 50
180.0
 51
270.0
  0
LINE
  5
1A0
330
1F
100
AcDbEntity
  8
0
  6
HIDDEN
 62
     7
370
     0
100
AcDbLine
 10
157.9862299928
 20
88.9894907909
 30
0.0
 11
160.7682217811
 21
88.9894907909
 31
0.0
  0
ARC
  5
1A1
330
1F
100
AcDbEntity
  8
0
  6
HIDDEN
 62
     7
370
     0
100
AcDbCircle
 10
160.7682217811
 20
89.3894907909
 30
0.0
 40
0.3999999999999915
100
AcDbArc
 50
270.0
 51
290.0
  0
LINE
  5
1A2
330
1F
100
AcDbEntity
  8
0
  6
HIDDEN
 62
     7
370
     0
100
AcDbLine
 10
144.8862299928
 20
96.9894907909
 30
0.0
 11
148.8862299928
 21
96.9894907909
 31
0.0
  0
LINE
  5
1A3
330
1F
100
AcDbEntity
  8
0
  6
HIDDEN
 62
     7
370
     0
100
AcDbLine
 10
148.8862299928
 20
122.9894907909
 30
0.0
 11
144.8862299928
 21
122.9894907909
 31
0.0
  0
LINE
  5
1A4
330
1F
100
AcDbEntity
  8
0
  6
HIDDEN
 62
     7
370
     0
100
AcDbLine
 10
133.0362299928
 20
97.9894907909
 30
0.0
 11
133.7862299928
 21
98.7394907909
 31
0.0
  0
LINE
  5
1A5
330
1F
100
AcDbEntity
  8
0
  6
HIDDEN
 62
     7
370
     0
100
AcDbLine
 10
133.7862299928
 20
121.2394907909
 30
0.0
 11
133.0362299928
 21
121.9894907909
 31
0.0
  0
LINE
  5
1A6
330
1F
100
AcDbEntity
  8
0
  6
HIDDEN
 62
     7
370
     0
100
AcDbLine
 10
133.7862299928
 20
98.7394907909
 30
0.0
 11
144.8862299928
 21
98.7394907909
 31
0.0
  0
LINE
  5
1A7
330
1F
100
AcDbEntity
  8
0
  6
HIDDEN
 62
     7
370
     0
100
AcDbLine
 10
144.8862299928
 20
121.2394907909
 30
0.0
 11
133.7862299928
 21
121.2394907909
 31
0.0
  0
LINE
  5
1A8
330
1F
100
AcDbEntity
  8
0
  6
HIDDEN
 62
     7
370
     0
100
AcDbLine
 10
125.5362299928
 20
159.9894907909
 30
0.0
 11
125.5362299928
 21
153.8894907909
 31
0.0
  0
LINE
  5
1A9
330
1F
100
AcDbEntity
  8
0
  6
HIDDEN
 62
     7
370
     0
100
AcDbLine
 10
112.0189426089
 20
72.4112112203
 30
0.0
 11
111.5862333224
 21
72.8894359377
 31
0.0
  0
LINE
  5
1AA
330
1F
100
AcDbEntity
  8
0
  6
HIDDEN
 62
     7
370
     0
100
AcDbLine
 10
99.5862304509
 20
73.5363972944
 30
0.0
 11
99.1056031456
 21
73.0581725835
 31
0.0
  0
LINE
  5
1AB
330
1F
100
AcDbEntity
  8
0
  6
HIDDEN
 62
     7
370
     0
100
AcDbLine
 10
99.1054848041
 20
146.9208030821
 30
0.0
 11
99.5862302682
 21
146.4425234103
 31
0.0
  0
LINE
  5
1AC
330
1F
100
AcDbEntity
  8
0
  6
HIDDEN
 62
     7
370
     0
100
AcDbLine
 10
111.5862299949
 20
147.0894957976
 30
0.0
 11
112.0190516647
 21
147.5677754705
 31
0.0
  0
LINE
  5
1AD
330
1F
100
AcDbEntity
  8
0
  6
HIDDEN
 62
     7
370
     0
100
AcDbLine
 10
111.5862299928
 20
72.7893070951
 30
0.0
 11
111.5862299928
 21
78.5154258969
 31
0.0
  0
LINE
  5
1AE
330
1F
100
AcDbEntity
  8
0
  6
HIDDEN
 62
     7
370
     0
100
AcDbLine
 10
99.5862299928
 20
78.4904749903
 30
0.0
 11
99.5862299928
 21
73.5364357089
 31
0.0
  0
LINE
  5
1AF
330
1F
100
AcDbEntity
  8
0
  6
HIDDEN
 62
     7
370
     0
100
AcDbLine
 10
111.5862299928
 20
141.4635556849
 30
0.0
 11
111.5862299928
 21
147.1894996237
 31
0.0
  0
LINE
  5
1B0
330
1F
100
AcDbEntity
  8
0
  6
HIDDEN
 62
     7
370
     0
100
AcDbLine
 10
99.5862299928
 20
146.442512911
 30
0.0
 11
99.5862299928
 21
141.4885065915
 31
0.0
  0
LINE
  5
1B1
330
1F
100
AcDbEntity
  8
0
  6
HIDDEN
 62
     7
370
     0
100
AcDbLine
 10
148.8862299928
 20
103.9894907909
 30
0.0
 11
157.5862299928
 21
103.9894907909
 31
0.0
  0
LINE
  5
1B2
330
1F
100
AcDbEntity
  8
0
  6
HIDDEN
 62
     7
370
     0
100
AcDbLine
 10
157.5862299928
 20
115.9894907909
 30
0.0
 11
148.8862299928
 21
115.9894907909
 31
0.0
  0
LINE
  5
1B3
330
1F
100
AcDbEntity
  8
0
  6
HIDDEN
 62
     7
370
     0
100
AcDbLine
 10
158.5362299928
 20
69.9894907909
 30
0.0
 11
157.5362299928
 21
70.5668410601
 31
0.0
  0
LINE
  5
1B4
330
1F
100
AcDbEntity
  8
0
  6
HIDDEN
 62
     7
370
     0
100
AcDbLine
 10
152.5362299928
 20
70.5668410601
 30
0.0
 11
151.5362299928
 21
69.9894907909
 31
0.0
  0
LINE
  5
1B5
330
1F
100
AcDbEntity
  8
0
  6
HIDDEN
 62
     7
370
     0
100
AcDbLine
 10
151.5362299928
 20
149.9894907909
 30
0.0
 11
152.5362299928
 21
149.4121405217
 31
0.0
  0
LINE
  5
1B6
330
1F
100
AcDbEntity
  8
0
  6
HIDDEN
 62
     7
370
     0
100
AcDbLine
 10
157.5362299928
 20
149.4121405217
 30
0.0
 11
158.5362299928
 21
149.9894907909
 31
0.0
  0
LINE
  5
1B7
330
1F
100
AcDbEntity
  8
0
  6
HIDDEN
 62
     7
370
     0
100
AcDbLine
 10
157.5362299928
 20
70.5668410601
 30
0.0
 11
157.5362299928
 21
83.9894907909
 31
0.0
  0
LINE
  5
1B8
330
1F
100
AcDbEntity
  8
0
  6
HIDDEN
 62
     7
370
     0
100
AcDbLine
 10
152.5362299928
 20
83.9894907909
 30
0.0
 11
152.5362299928
 21
70.5668410601
 31
0.0
  0
LINE
  5
1B9
330
1F
100
AcDbEntity
  8
0
  6
HIDDEN
 62
     7
370
     0
100
AcDbLine
 10
157.5362299928
 20
83.9894907909
 30
0.0
 11
155.0362299928
 21
85.4916423385
 31
0.0
  0
LINE
  5
1BA
330
1F
100
AcDbEntity
  8
0
  6
HIDDEN
 62
     7
370
     0
100
AcDbLine
 10
155.0362299928
 20
85.4916423385
 30
0.0
 11
152.5362299928
 21
83.9894907909
 31
0.0
  0
LINE
  5
1BB
330
1F
100
AcDbEntity
  8
0
  6
HIDDEN
 62
     7
370
     0
100
AcDbLine
 10
152.5362299928
 20
149.4121405217
 30
0.0
 11
152.5362299928
 21
135.9894907909
 31
0.0
  0
LINE
  5
1BC
330
1F
100
AcDbEntity
  8
0
  6
HIDDEN
 62
     7
370
     0
100
AcDbLine
 10
157.5362299928
 20
135.9894907909
 30
0.0
 11
157.5362299928
 21
149.4121405217
 31
0.0
  0
LINE
  5
1BD
330
1F
100
AcDbEntity
  8
0
  6
HIDDEN
 62
     7
370
     0
100
AcDbLine
 10
152.5362299928
 20
135.9894907909
 30
0.0
 11
155.0362299928
 21
134.4873392433
 31
0.0
  0
LINE
  5
1BE
330
1F
100
AcDbEntity
  8
0
  6
HIDDEN
 62
     7
370
     0
100
AcDbLine
 10
155.0362299928
 20
134.4873392433
 30
0.0
 11
157.5362299928
 21
135.9894907909
 31
0.0
  0
LINE
  5
1BF
330
1F
100
AcDbEntity
  8
0
  6
HIDDEN
 62
     7
370
     0
100
AcDbLine
 10
134.5862299928
 20
155.6653677871
 30
0.0
 11
134.5862299928
 21
157.5408634033
 31
0.0
  0
LINE
  5
1C0
330
1F
100
AcDbEntity
  8
0
  6
HIDDEN
 62
     7
370
     0
100
AcDbLine
 10
124.5862299928
 20
157.5423166057
 30
0.0
 11
124.5862299928
 21
155.666763673
 31
0.0
  0
LINE
  5
1C1
330
1F
100
AcDbEntity
  8
0
  6
HIDDEN
 62
     7
370
     0
100
AcDbLine
 10
161.5862299928
 20
131.1033596243
 30
0.0
 11
161.5862299928
 21
131.9098010077
 31
0.0
  0
LINE
  5
1C2
330
1F
100
AcDbEntity
  8
0
  6
HIDDEN
 62
     7
370
     0
100
AcDbLine
 10
161.5862299928
 20
124.6470386039
 30
0.0
 11
161.5862299928
 21
128.7701221712
 31
0.0
  0
LINE
  5
1C3
330
1F
100
AcDbEntity
  8
0
  6
HIDDEN
 62
     7
370
     0
100
AcDbLine
 10
157.5862299928
 20
131.9098010077
 30
0.0
 11
157.5862299928
 21
131.2134434295
 31
0.0
  0
LINE
  5
1C4
330
1F
100
AcDbEntity
  8
0
  6
HIDDEN
 62
     7
370
     0
100
AcDbLine
 10
161.2091508557
 20
128.2975319545
 30
0.0
 11
230.5862299928
 21
126.3700770526
 31
0.0
  0
LINE
  5
1C5
330
1F
100
AcDbEntity
  8
0
  6
HIDDEN
 62
     7
370
     0
100
AcDbLine
 10
230.5862299928
 20
129.6713503697
 30
0.0
 11
161.2105512862
 21
131.5987663645
 31
0.0
  0
LINE
  5
1C6
330
1F
100
AcDbEntity
  8
0
  6
HIDDEN
 62
     7
370
     0
100
AcDbLine
 10
156.5974581952
 20
128.4256553886
 30
0.0
 11
157.9626280953
 21
128.3877278274
 31
0.0
  0
LINE
  5
1C7
330
1F
100
AcDbEntity
  8
0
  6
HIDDEN
 62
     7
370
     0
100
AcDbLine
 10
157.9616213233
 20
131.689029115
 30
0.0
 11
156.6891044268
 21
131.7243825625
 31
0.0
  0
LINE
  5
1C8
330
1F
100
AcDbEntity
  8
0
  6
HIDDEN
 62
     7
370
     0
100
AcDbLine
 10
156.6869391587
 20
131.7226786825
 30
0.0
 11
155.6526256385
 21
130.1025416697
 31
0.0
  0
LINE
  5
1C9
330
1F
100
AcDbEntity
  8
0
  6
HIDDEN
 62
     7
370
     0
100
AcDbLine
 10
155.6526256385
 20
130.1025416697
 30
0.0
 11
156.5953908695
 21
128.4274768598
 31
0.0
  0
DIMENSION
  5
1CA
330
1F
100
AcDbEntity
  8
VERMASSUNG
100
AcDbDimension
  2
*D1
 10
240.7414874722
 20
89.9894907909
 30
0.0
 11
240.7414874722
 21
109.9894907909
 31
0.0
 70
   160
  1
%%c<>
 71
     2
 42
-1.0
  3
SLDDIMSTYLE0
100
AcDbAlignedDimension
 13
230.0862299928
 23
129.9894907909
 33
0.0
 14
230.0862299928
 24
89.9894907909
 34
0.0
 50
90.0
100
AcDbRotatedDimension
  0
DIMENSION
  5
1D6
330
1F
100
AcDbEntity
  8
VERMASSUNG
100
AcDbDimension
  2
*D2
 10
246.7414874722
 20
69.9894907909
 30
0.0
 11
246.7414874722
 21
109.9894907909
 31
0.0
 70
   160
  1
%%c<>
 71
     2
 42
-1.0
  3
SLDDIMSTYLE0
100
AcDbAlignedDimension
 13
219.7578028681
 23
149.9894907909
 33
0.0
 14
219.7578028681
 24
69.9894907909
 34
0.0
 50
90.0
100
AcDbRotatedDimension
  0
DIMENSION
  5
1E1
330
1F
100
AcDbEntity
  8
VERMASSUNG
100
AcDbDimension
  2
*D3
 10
149.5362299928
 20
162.6692307692
 30
0.0
 11
190.0612299928
 21
162.6692307692
 31
0.0
 70
   160
 71
     2
 42
-1.0
  3
SLDDIMSTYLE0
100
AcDbAlignedDimension
 13
230.5862299928
 23
139.1610636662
 33
0.0
 14
149.5362299928
 24
157.9582306117
 34
0.0
100
AcDbRotatedDimension
  0
DIMENSION
  5
1EB
330
1F
100
AcDbEntity
  8
VERMASSUNG
100
AcDbDimension
  2
*D4
 10
120.5862299928
 20
168.6692307692
 30
0.0
 11
175.5862299928
 21
168.6692307692
 31
0.0
 70
   160
 71
     2
 42
-1.0
  3
SLDDIMSTYLE0
100
AcDbAlignedDimension
 13
230.5862299928
 23
139.1610636662
 33
0.0
 14
120.5862299928
 24
159.4894907909
 34
0.0
100
AcDbRotatedDimension
  0
DIMENSION
  5
1F5
330
1F
100
AcDbEntity
  8
VERMASSUNG
100
AcDbDimension
  2
*D5
 10
70.6862299928
 20
174.6692307692
 30
0.0
 11
150.6362299928
 21
174.6692307692
 31
0.0
 70
   160
 71
     2
 42
-1.0
  3
SLDDIMSTYLE0
100
AcDbAlignedDimension
 13
230.5862299928
 23
139.1610636662
 33
0.0
 14
70.6862299928
 24
140.4921605335
 34
0.0
100
AcDbRotatedDimension
  0
DIMENSION
  5
1FF
330
1F
100
AcDbEntity
  8
VERMASSUNG
100
AcDbDimension
  2
*D6
 10
65.1871072589
 20
59.9894907909
 30
0.0
 11
65.1871072589
 21
109.9894907909
 31
0.0
 70
   160
  1
HSK A %%c<>
 71
     2
 42
-1.0
  3
SLDDIMSTYLE0
100
AcDbAlignedDimension
 13
121.0862299928
 23
159.9894907909
 33
0.0
 14
121.0862299928
 24
59.9894907909
 34
0.0
 50
90.0
100
AcDbRotatedDimension
  0
LINE
  5
20B
330
1F
100
AcDbEntity
  8
VERMASSUNG
  6
CENTERX2
370
     0
100
AcDbLine
 10
66.5795232936
 20
109.9894907909
 30
0.0
 11
233.9015167931
 21
109.9894907909
 31
0.0
  0
OLE2FRAME
  5
20C
330
1F
100
AcDbEntity
  8
0
100
AcDbOle2Frame
 70
     2
  3
Bitmap Image
 10
13.8511154363
 20
38.264191557
 30
0.0
 11
51.6290888628
 21
31.9806341108
 31
0.0
 71
     2
 72
     0
 73
     1
 90
    12928
310
80552BED0767C5B32B40DDAF6807D121434000000000000000006FFBDDFB85D0
310
4940DDAF6807D121434000000000000000006FFBDDFB85D04940416F4BD60AFB
310
3F4000000000000000002BED0767C5B32B40416F4BD60AFB3F40000000000000
310
0000000000000100000000010000010000000100000000000100000000320000
310
D0CF11E0A1B11AE1000000000000000000000000000000003E000300FEFF0900
310
0600000000000000000000000100000001000000000000000010000002000000
310
01000000FEFFFFFF0000000000000000FFFFFFFFFFFFFFFFFFFFFFFFFFFFFFFF
310
FFFFFFFFFFFFFFFFFFFFFFFFFFFFFFFFFFFFFFFFFFFFFFFFFFFFFFFFFFFFFFFF
310
FFFFFFFFFFFFFFFFFFFFFFFFFFFFFFFFFFFFFFFFFFFFFFFFFFFFFFFFFFFFFFFF
310
FFFFFFFFFFFFFFFFFFFFFFFFFFFFFFFFFFFFFFFFFFFFFFFFFFFFFFFFFFFFFFFF
310
FFFFFFFFFFFFFFFFFFFFFFFFFFFFFFFFFFFFFFFFFFFFFFFFFFFFFFFFFFFFFFFF
310
FFFFFFFFFFFFFFFFFFFFFFFFFFFFFFFFFFFFFFFFFFFFFFFFFFFFFFFFFFFFFFFF
310
FFFFFFFFFFFFFFFFFFFFFFFFFFFFFFFFFFFFFFFFFFFFFFFFFFFFFFFFFFFFFFFF
310
FFFFFFFFFFFFFFFFFFFFFFFFFFFFFFFFFFFFFFFFFFFFFFFFFFFFFFFFFFFFFFFF
310
FFFFFFFFFFFFFFFFFFFFFFFFFFFFFFFFFFFFFFFFFFFFFFFFFFFFFFFFFFFFFFFF
310
FFFFFFFFFFFFFFFFFFFFFFFFFFFFFFFFFFFFFFFFFFFFFFFFFFFFFFFFFFFFFFFF
310
FFFFFFFFFFFFFFFFFFFFFFFFFFFFFFFFFFFFFFFFFFFFFFFFFFFFFFFFFFFFFFFF
310
FFFFFFFFFFFFFFFFFFFFFFFFFFFFFFFFFFFFFFFFFFFFFFFFFFFFFFFFFFFFFFFF
310
FFFFFFFFFFFFFFFFFFFFFFFFFFFFFFFFFFFFFFFFFFFFFFFFFFFFFFFFFFFFFFFF
310
FFFFFFFFFFFFFFFFFFFFFFFFFFFFFFFFFFFFFFFFFFFFFFFFFFFFFFFFFFFFFFFF
310
FDFFFFFFFEFFFFFFFEFFFFFFFEFFFFFF05000000060000000700000008000000
310
090000000A0000000B0000000C0000000D0000000E0000000F00000010000000
310
11000000120000001300000014000000150000001600000017000000FEFFFFFF
310
FFFFFFFFFFFFFFFFFFFFFFFFFFFFFFFFFFFFFFFFFFFFFFFFFFFFFFFFFFFFFFFF
310
FFFFFFFFFFFFFFFFFFFFFFFFFFFFFFFFFFFFFFFFFFFFFFFFFFFFFFFFFFFFFFFF
310
FFFFFFFFFFFFFFFFFFFFFFFFFFFFFFFFFFFFFFFFFFFFFFFFFFFFFFFFFFFFFFFF
310
FFFFFFFFFFFFFFFFFFFFFFFFFFFFFFFFFFFFFFFFFFFFFFFFFFFFFFFFFFFFFFFF
310
FFFFFFFFFFFFFFFFFFFFFFFFFFFFFFFFFFFFFFFFFFFFFFFFFFFFFFFFFFFFFFFF
310
FFFFFFFFFFFFFFFFFFFFFFFFFFFFFFFFFFFFFFFFFFFFFFFFFFFFFFFFFFFFFFFF
310
FFFFFFFFFFFFFFFFFFFFFFFFFFFFFFFFFFFFFFFFFFFFFFFFFFFFFFFFFFFFFFFF
310
FFFFFFFFFFFFFFFFFFFFFFFFFFFFFFFFFFFFFFFFFFFFFFFFFFFFFFFFFFFFFFFF
310
FFFFFFFFFFFFFFFFFFFFFFFFFFFFFFFFFFFFFFFFFFFFFFFFFFFFFFFFFFFFFFFF
310
FFFFFFFFFFFFFFFFFFFFFFFFFFFFFFFFFFFFFFFFFFFFFFFFFFFFFFFFFFFFFFFF
310
FFFFFFFFFFFFFFFFFFFFFFFFFFFFFFFFFFFFFFFFFFFFFFFFFFFFFFFFFFFFFFFF
310
FFFFFFFFFFFFFFFFFFFFFFFFFFFFFFFFFFFFFFFFFFFFFFFFFFFFFFFFFFFFFFFF
310
FFFFFFFFFFFFFFFFFFFFFFFFFFFFFFFFFFFFFFFFFFFFFFFFFFFFFFFFFFFFFFFF
310
52006F006F007400200045006E00740072007900000000000000000000000000
310
0000000000000000000000000000000000000000000000000000000000000000
310
16000500FFFFFFFFFFFFFFFF020000000A00030000000000C000000000000046
310
000000000000000000000000E03B32290B00CC0103000000C000000000000000
310
01004F006C006500000000000000000000000000000000000000000000000000
310
0000000000000000000000000000000000000000000000000000000000000000
310
0A000200FFFFFFFFFFFFFFFFFFFFFFFF00000000000000000000000000000000
310
0000000000000000000000000000000000000000000000001400000000000000
310
010043006F006D0070004F0062006A0000000000000000000000000000000000
310
0000000000000000000000000000000000000000000000000000000000000000
310
120002010100000003000000FFFFFFFF00000000000000000000000000000000
310
0000000000000000000000000000000000000000010000004D00000000000000
310
01004F006C006500310030004E00610074006900760065000000000000000000
310
0000000000000000000000000000000000000000000000000000000000000000
310
1A000200FFFFFFFFFFFFFFFFFFFFFFFF00000000000000000000000000000000
310
0000000000000000000000000000000000000000040000002426000000000000
310
FEFFFFFF02000000FEFFFFFFFFFFFFFFFFFFFFFFFFFFFFFFFFFFFFFFFFFFFFFF
310
FFFFFFFFFFFFFFFFFFFFFFFFFFFFFFFFFFFFFFFFFFFFFFFFFFFFFFFFFFFFFFFF
310
FFFFFFFFFFFFFFFFFFFFFFFFFFFFFFFFFFFFFFFFFFFFFFFFFFFFFFFFFFFFFFFF
310
FFFFFFFFFFFFFFFFFFFFFFFFFFFFFFFFFFFFFFFFFFFFFFFFFFFFFFFFFFFFFFFF
310
FFFFFFFFFFFFFFFFFFFFFFFFFFFFFFFFFFFFFFFFFFFFFFFFFFFFFFFFFFFFFFFF
310
FFFFFFFFFFFFFFFFFFFFFFFFFFFFFFFFFFFFFFFFFFFFFFFFFFFFFFFFFFFFFFFF
310
FFFFFFFFFFFFFFFFFFFFFFFFFFFFFFFFFFFFFFFFFFFFFFFFFFFFFFFFFFFFFFFF
310
FFFFFFFFFFFFFFFFFFFFFFFFFFFFFFFFFFFFFFFFFFFFFFFFFFFFFFFFFFFFFFFF
310
FFFFFFFFFFFFFFFFFFFFFFFFFFFFFFFFFFFFFFFFFFFFFFFFFFFFFFFFFFFFFFFF
310
FFFFFFFFFFFFFFFFFFFFFFFFFFFFFFFFFFFFFFFFFFFFFFFFFFFFFFFFFFFFFFFF
310
FFFFFFFFFFFFFFFFFFFFFFFFFFFFFFFFFFFFFFFFFFFFFFFFFFFFFFFFFFFFFFFF
310
FFFFFFFFFFFFFFFFFFFFFFFFFFFFFFFFFFFFFFFFFFFFFFFFFFFFFFFFFFFFFFFF
310
FFFFFFFFFFFFFFFFFFFFFFFFFFFFFFFFFFFFFFFFFFFFFFFFFFFFFFFFFFFFFFFF
310
FFFFFFFFFFFFFFFFFFFFFFFFFFFFFFFFFFFFFFFFFFFFFFFFFFFFFFFFFFFFFFFF
310
FFFFFFFFFFFFFFFFFFFFFFFFFFFFFFFFFFFFFFFFFFFFFFFFFFFFFFFFFFFFFFFF
310
FFFFFFFFFFFFFFFFFFFFFFFFFFFFFFFFFFFFFFFFFFFFFFFFFFFFFFFFFFFFFFFF
310
0100000200000000000000000000000000000000610072003D0082005C003107
310
9806250000000000604E280000000000680061007200650064005C003B004300
310
0100FEFF030A0000FFFFFFFF0A00030000000000C00000000000004607000000
310
5042727573680007000000504272757368000700000050427275736800F439B2
310
71000000000000000000000000004100540049002E004100430045005C004300
310
6F00720065002D005300740061007400690063003B0043003A005C0050007200
310
6F006700720061006D002000460069006C006500730020002800780038003600
310
29005C0043006F006D006D006F006E002000460069006C00650073005C004100
310
750074006F006400650073006B0020005300680061007200650064005C003B00
310
43003A005C00500072006F006700720061006D002000460069006C0065007300
310
5C004E006F0072006D0061006E005C004E0070006D005C00420069006E000000
310
43003A005C00500072006F006700720061006D002000460069006C0065007300
310
5C0053006F006C006900640057006F0072006B007300200043006F0072007000
310
5C0053006F006C006900640057006F0072006B00730020002800320029005C00
310
730065007400750070005C0069003300380036005C0073007700610063007400
310
770069007A002E006500780065000000220043003A005C00500072006F006700
310
20260000424D0E260000000000003E00000028000000B40200006E0000000100
310
01000000000000000000130B0000130B00000200000002000000000000FFFFFF
310
FFFFFFFFFFFFFFFFFFFFFFFFFFFFFFFFFFFFFFFFFFFFFFFFFFFFFFFFFFFFFFFF
310
FFFFFFFFFFFFFFFFFFFFFFFFFFFFFFFFFFFFFFFFFFFFFFFFFFFFFFFFFFFFFFFF
310
FFFFFFFFFFFFFFFFFFFFFFFFFFFFFFFFFFFFFFFFFFFFFFFFF000FFFFFFFFFFFF
310
FFFFFFFFFFFFFFFFFFFFFFFFFFFFFFFFFFFFFFFFFFFFFFFFFFFFFFFFFFFFFFFF
310
FFFFFFFFFFFFFFFFFFFFFFFFFFFFFFFFFFFFFFFFFFFFFFFFFFFFFFFFFFFFFFFF
310
FFFFFFFFFFFFFFFFFFFFFFFFFFFFFFFFF000FFFFFFFFFFFFFFFFFFFFFFFFFFFF
310
FFFFFFFFFFFFFFFFFFFFFFFFFFFFFFFFFFFFFFFFFFFFFFFFFFFFFFFFFFFFFFFF
310
FFFFFFFFFFFFFFFFFFFFFFFFFFFFFFFFFFFFFFFFFFFFFFFFFFFFFFFFFFFFFFFF
310
FFFFFFFFFFFFFFFFF000FFFFFFFFFFFFFFFFFFFFFFFFFFFFFFFFFFFFFFFFFFFF
310
FFFFFFFFFFFFFFFFFFFFFFFFFFFFFFFFFFFFFFFFFFFFFFFFFFFFFFFFFFFFFFFF
310
FFFFFFFFFFFFFFFFFFFFFFFFFFFFFFFFFFFFFFFFFFFFFFFFFFFFFFFFFFFFFFFF
310
F000FFFFFFFFFFFFFFFFFFFFFFFFFFFFFFFFFFFFFFFFFFFFFFFFFFFFFFFFFFFF
310
FFFFFFFFFFFFFFFFFFFFFFFFFFFFFFFFFFFFFFFFFFFFFFFFFFFFFFFFFFFFFFFF
310
FFFFFFFFFFFFFFFFFFFFFFFFFFFFFFFFFFFFFFFFFFFFFFFFF000FFFFFFFFFFFF
310
FFFFFFFFFFFFFFFFFFFFFFFFFFFFFFFFFFFFFFFFFFFFFFFFFFFFFFFFFFFFFFFF
310
FFFFFFFFFFFFFFFFFFFFFFFFFFFFFFFFFFFFFFFFFFFFFFFFFFFFFFFFFFFFFFFF
310
FFFFFFFFFFFFFFFFFFFFFFFFFFFFFFFFF000FFFFFFFFFFFFFFFFFFFFFFFFFFFF
310
FFFFFFFFFFFFFFFFFFFFFFFFFFFFFFFFFFFFFFFFFFFFFFFFFFFFFFFFFFFFFFFF
310
FFFFFFFFFFFFFFFFFFFFFFFFFFFFFFFFFFFFFFFFFFFFFFFFFFFFFFFFFFFFFFFF
310
FFFFFFFFFFFFFFFFF000FFFFFFFFFFFFFFFFFFFFFFFFFFFFFFFFFFFFFFFFFFFF
310
FFFFFFFFFFFFFFFFFFFFFFFFFFFFFFFFFFFFFFFFFFFFFFFFFFFFFFFFFFFFFFFF
310
FFFFFFFFFFFFFFFFFFFFFFFFFFFFFFFFFFFFFFFFFFFFFFFFFFFFFFFFFFFFFFFF
310
F000FFFFFFFFFFFFFFFFFFFFFFFFFFFFFFFFFFFFFFFFFFFFFFFFFFFFFFFFFFFF
310
FFFFFFFFFFFFFFFFFFFFFFFFFFFFFFFFFFFFFFFFFFFFFFFFFFFFFFFFFFFFFFFF
310
FFFFFFFFFFFFFFFFFFFFFFFFFFFFFFFFFFFFFFFFFFFFFFFFF000FFFFFFFFFFFF
310
FFFFFFFFFFFFFFFFFFFFFFFFFFFFFFFFFFFFFFFFFFFFFFFFFFFFFFFFFFFFFFFF
310
FFFFFFFFFFFFFFFFFFFFFFFFFFFFFFFFFFFFFFFFFFFFFFFFFFFFFFFFFFFFFFFF
310
FFFFFFFFFFFFFFFFFFFFFFFFFFFFFFFFF000FFFFFFFFFFFFFFFFFFFFFFFFFFFF
310
FFFFFFFFFFFFFFFFFFFFFFFFFFFFFFFFFFFFFFFFFFFFFFFFFFFFFFFFFFFFFFFF
310
FFFFFFFFFFFFFFFFFFFFFFFFFFFFFFFFFFFFFFFFFFFFFFFFFFFFFFFFFFFFFFFF
310
FFFFFFFFFFFFFFFFF000FFFFFFFFFFFFFFFFFFFFFFFFFFFFFFFFFFFFFFFFFFFF
310
FFFFFFFFFFFFFFFFFFFFFFFFFFFFFFFFFFFFFFFFFFFFFFFFFFFFFFFFFFFFFFFF
310
FFFFFFFFFFFFFFFFFFFFFFFFFFFFFFFFFFFFFFFFFFFFFFFFFFFFFFFFFFFFFFFF
310
F000FFFFFFFFFFFFFFFFFFFFFFFFFFFFFFFFFFFFFFFFFFFFFFFFFFFFFFFFFFFF
310
FFFFFFFFFFFFFFFFFFFFFFFFFFFFFFFFFFFFFFFFFFFFFFFFFFFFFFFFFFFFFFFF
310
FFFFFFFFFFFFFFFFFFFFFFFFFFFFFFFFFFFFFFFFFFFFFFFFF000FFFFFFFFFFFF
310
FFFFFFFFFFFFFFFFFFFFFFFFFFFFFFFFFFFFFFFFFFFFFFFFFFFFFFFFFFFFFFFF
310
FFFFFFFFFFFFFFFFFFFFFFFFFFFFFFFFFFFFFFFFFFFFFFFFFFFFFFFFFFFFFFFF
310
FFFFFFFFFFFFFFFFFFFFFFFFFFFFFFFFF000FFFFFFFFFFFFFFFFFFFFFFFFFFFF
310
FFFFFFFFFFFFFFFFFFFFFFFFFFFFFFFFFFFFFFFFFFFFFFFFFFFFFFFFFFFFFFFF
310
FFFFFFFFFFFFFFFFFFFFFFFFFFFFFFFFFFFFFFFFFFFFFFFFFFFFFFFFFFFFFFFF
310
FFFFFFFFFFFFFFFFF000FFFFFFFFFFFFFFFFFFFFFFFFFFFFFFFFFFFFFFFFFFFF
310
FFFFFFFFFFFFFFFFFFFFFFFFFFFFFFFFFFFFFFFFFFFFFFFFFFFFFFFFFFFFFFFF
310
FFFFFFFFFFFFFFFFFFFFFFFFFFFFFFFFFFFFFFFFFFFFFFFFFFFFFFFFFFFFFFFF
310
F000FFFFFFFFFFFFFFFFFFFFFFFFFFFFFFFFFFFFFFFFFFFFFFFFFFFFFFFFFFFF
310
FFFFFFFFFFFFFFFFFFFFFFFFFFFFFFFFFFFFFFFFFFFFFFFFFFFFFFFFFFFFFFFF
310
FFFFFFFFFFFFFFFFFFFFFFFFFFFFFFFFFFFFFFFFFFFFFFFFF000FFFFFFFFFFFF
310
FFFFFFFFFFFFFFFFFFFFFFFFFFFFFFFFFFFFFFFFFFFFFFFFFFFFFFFFFFFFFFFF
310
FFFFFFFFFFFFFFFFFFFFFFFFFFFFFFFFFFFFFFFFFFFFFFFFFFFFFFFFFFFFFFFF
310
FFFFFFFFFFFFFFFFFFFFFFFFFFFFFFFFF000FFFFFFFFFFFFFFFFFFFFFFFFFFFF
310
FFFFFFFFFFFFFFFFFFFFFFFFFFFFFFFFFFFFFFFFFFFFFFFFFFFFFFFFFFFFFFFF
310
FFFFFFFFFFFFFFFFFFFFFFFFFFFFFFFFFFFFFFFFFFFFFFFFFFFFFFFFFFFFFFFF
310
FFFFFFFFFFFFFFFFF000FFFFF80003FFFFFFFFFFFFFFFFFFFFFFFFFFFFFFFFFF
310
FFFFF00007FFFFFFFFFF00007FFFFFF800000000000000007FFFFFFFFFFFFFFF
310
FFFFFFFC001FFFFFFFFFFFFFFC001FFFFFFFFFFFFFFFFFFFFFFFFFFE0007FFFF
310
F000FFFF8000007FFFFFFFF8000FFFFFC0007FFFFF80007FFFFF0000007FFFFF
310
FFF8000007FFFFF800000000000000007FFFFFF0001FFFFFFFFFFFC00001FFFF
310
FFFFFFFFC00001FFFFFFFF000000000003FFFFE000007FFFF000FFFE0000000F
310
FFFFFFF0000FFFFF80007FFFFF80007FFFFC0000001FFFFFFFC0000001FFFFF8
310
00000000000000007FFFFFF0001FFFFFFFFFFE0000003FFFFFFFFFFE0000003F
310
FFFFFF000000000003FFFF0000000FFFF000FFF800000003FFFFFFF00007FFFF
310
80007FFFFF80007FFFF000000007FFFFFF000000003FFFF80000000000000000
310
7FFFFFF0001FFFFFFFFFF80000000FFFFFFFFFF80000000FFFFFFF0000000000
310
03FFFC00000003FFF000FFE000000000FFFFFFF00007FFFF80003FFFFF80007F
310
FFC000000001FFFFFC000000001FFFF800000000000000007FFFFFF0001FFFFF
310
FFFFE000000003FFFFFFFFE000000003FFFFFF000000000003FFF000000000FF
310
F000FF80000000007FFFFFF00007FFFF80003FFFFF80007FFF8000000000FFFF
310
F80000000007FFF800000000000000007FFFFFF0001FFFFFFFFFC000000001FF
310
FFFFFFC000000001FFFFFF000000000003FFC0000000007FF000FF0000000000
310
3FFFFFE00007FFFF00003FFFFF80007FFE00000000003FFFF00000000003FFF8
310
00000000000000007FFFFFF0001FFFFFFFFF8000000000FFFFFFFF8000000000
310
FFFFFF000000000003FF80000000003FF000FE00000000001FFFFFE00003FFFF
310
00003FFFFF80007FFC00000000001FFFE00000000001FFF8000001FFFE000000
310
7FFFFFF0001FFFFFFFFE00000000003FFFFFFE00000000003FFFFF0000000000
310
03FF00000000001FF000FC00000000000FFFFFE00003FFFF00001FFFFF80007F
310
F800000000001FFFC00000000000FFF8000001FFFE0000007FFFFFF0001FFFFF
310
FFFC00000000001FFFFFFC00000000001FFFFF000000000003FE00000000000F
310
F000F8000000000007FFFFE00003FFFF00001FFFFF80007FF800000000000FFF
310
800000000000FFF8000001FFFE0000007FFFFFF0001FFFFFFFF800000000000F
310
FFFFF800000000000FFFFF000000000003FC000000000007F000F80000000000
310
03FFFFC00003FFFE00001FFFFF80007FF0000000000007FF0000000000007FF8
310
000001FFFE0000007FFFFFF0001FFFFFFFF0000000000007FFFFF00000000000
310
07FFFF000000000003F8000000000003F000F0000000000003FFFFC00001FFFE
310
00001FFFFF80007FE0000000000007FE0000000000003FF8000001FFFE000000
310
7FFFFFF0001FFFFFFFF0000000000007FFFFF0000000000007FFFF0000000000
310
03F800001F800003F000E00001FFF00001FFFFC00001FFFE00000FFFFF80007F
310
E00001FFE00003FE00001FFF00003FF8000001FFFE0000007FFFFFF0001FFFFF
310
FFE000003E000003FFFFE000003E000003FFFF000000000003F00001FFF80001
310
F000E00007FFFC0001FFFFC00001FFFE00000FFFFF80007FC0000FFFFC0003FC
310
0000FFFFC0001FF8000001FFFE0000007FFFFFF0001FFFFFFFC00003FFE00001
310
FFFFC00003FFE00001FFFF0001FFFFFFFFF00007FFFE0001F000E0000FFFFF00
310
00FFFF800001FFFC00000FFFFF80007FC0001FFFFE0001FC0001FFFFE0001FF8
310
000001FFFE0000007FFFFFF0001FFFFFFF80000FFFF80000FFFF80000FFFF800
310
00FFFF0003FFFFFFFFE0000FFFFF8000F000C0003FFFFF8000FFFF800000FFFC
310
000007FFFF80007F80003FFFFF0001FC0003FFFFF0001FF8000001FFFE000000
310
7FFFFFF0001FFFFFFF80003FFFFE0000FFFF80003FFFFE0000FFFF0003FFFFFF
310
FFE0003FFFFF8000F000C0003FFFFF8000FFFF800000FFFC000007FFFF80007F
310
80007FFFFF8001F80007FFFFF8000FF8000001FFFE0000007FFFFFF0001FFFFF
310
FF00007FFFFF00007FFF00007FFFFF00007FFF0003FFFFFFFFE0003FFFFFC000
310
F000C0007FFFFFC000FFFF000000FFFC000007FFFF80007F8000FFFFFF8000F8
310
000FFFFFF8000FF8000001FFFE0000007FFFFFF0001FFFFFFF0000FFFFFF8000
310
7FFF0000FFFFFF80007FFF0003FFFFFFFFC0007FFFFFC00070008000FFFFFFC0
310
00FFFF000000FFF8000007FFFF80007F8000FFFFFF8000F8000FFFFFF8000FF8
310
000001FFFE0000007FFFFFF0001FFFFFFE0001FFFFFFC0003FFE0001FFFFFFC0
310
003FFF0003FFFFFFFFC0007FFFFFE00070008000FFFFFFC0007FFF0000007FF8
310
000003FFFF80007F0001FFFFFF8000F8000FFFFFF8000FF8000001FFFE000000
310
7FFFFFF0001FFFFFFE0001FFFFFFC0003FFE0001FFFFFFC0003FFF0003FFFFFF
310
FFC000FFFFFFE00070008000FFFFFFC0007FFF0000007FF8000003FFFF80007F
310
0001FFFFFF8000F8001FFFFFF8000FF8000001FFFE0000007FFFFFF0001FFFFF
310
FE0003FFFFFFE0003FFE0003FFFFFFE0003FFF0003FFFFFFFFC000FFFFFFE000
310
70008000FFFFFFC0007FFE0000007FF8000003FFFF80007F0001FFFFFF8000F0
310
001FFFFFF8000FF8000001FFFE0000007FFFFFF0001FFFFFFC0003FFFFFFE000
310
1FFC0003FFFFFFE0001FFF0003FFFFFFFFC000FFFFFFC00070008000FFFFFF80
310
007FFE0000007FF0000003FFFF80007F0001FFFFFF0000F0001FFFFFF8000FF8
310
000001FFFE0000007FFFFFF0001FFFFFFC0007FFFFFFF0001FFC0007FFFFFFF0
310
001FFF0003FFFFFFFFC000FFFFFFC00070008001FFFFFF0000FFFE0000003FF0
310
000001FFFF80007F0001FFFFFF0000F8001FFFFFF0000FF8000001FFFE000000
310
7FFFFFF0001FFFFFFC0007FFFFFFF0001FFC0007FFFFFFF0001FFF0003FFFFFF
310
FFC001FFFFFF80007000FFFFFFFFFE0000FFFE0008003FF0008001FFFF80007F
310
FFFFFFFFFC0000FFFFFFFFFFE0000FF8000001FFFE0000007FFFFFF0001FFFFF
310
F8000FFFFFFFF8000FF8000FFFFFFFF8000FFF0003FFFFFFFFFFFFFFFFFF0000
310
7000FFFFFFFFFC0000FFFC0008003FF0008001FFFF80007FFFFFFFFFF80001FF
310
FFFFFFFF80000FF8000001FFFE0000007FFFFFF0001FFFFFF8000FFFFFFFF800
310
0FF8000FFFFFFFF8000FFF0003FFFFFFFFFFFFFFFFFE0000F000FFFFFFFFE000
310
00FFFC000C003FE000C001FFFF80007FFFFFFFFFC00001FFFFFFFFFE00001FF8
310
000001FFFE0000007FFFFFF0001FFFFFF8000FFFFFFFF8000FF8000FFFFFFFF8
310
000FFF0003FFFFFFFFFFFFFFFFF00000F000FFFFFFFE000001FFFC000C001FE0
310
00C000FFFF80007FFFFFFFFE000001FFFFFFFFE000001FF80FFFFFFFFFFFFFC0
310
7FFFFFF0001FFFFFF8000FFFFFFFF8000FF8000FFFFFFFF8000FFF0003FFFFFF
310
FFFFFFFFFF800000F000FFFFFFC0000001FFFC001C001FE001C000FFFF80007F
310
FFFFFF80000003FFFFFFF80000001FF80FFFFFFFFFFFFFC07FFFFFF0001FFFFF
310
F8001FFFFFFFFC000FF8001FFFFFFFFC000FFF0003FFFFFFFFFFFFFFF0000001
310
F000FFFFF800000001FFF8001C001FE001C000FFFF80007FFFFFF800000003FF
310
FFFF800000003FF80FFFFFFFFFFFFFC07FFFFFF0001FFFFFF8001FFFFFFFFC00
310
0FF8001FFFFFFFFC000FFF0003FFFFFFFFFFFFFE00000001F000FFFFC0000000
310
03FFF8001E001FC001E000FFFF80007FFFFF8000000007FFFFFC000000003FF8
310
0FFFFFFFFFFFFFC07FFFFFF0001FFFFFF8001FFFFFFFFC000FF8001FFFFFFFFC
310
000FFF0003FFFFFFFFFFFFE000000003F000FFFE0000000007FFF8001E000FC0
310
01E0007FFF80007FFFFE0000000007FFFFE0000000007FF80FFFFFFFFFFFFFC0
310
7FFFFFF0001FFFFFF0001FFFFFFFFC0007F0001FFFFFFFFC0007FF0003FFFFFF
310
FFFFFF0000000003F000FFF80000000007FFF8001E000FC003E0007FFF80007F
310
FFF0000000000FFFFF8000000000FFF80FFFFFFFFFFFFFC07FFFFFF0001FFFFF
310
F0001FFFFFFFFC0007F0001FFFFFFFFC0007FF0003FFFFFFFFFFFC0000000007
310
F000FFE0000000000FFFF0003E000FC003E0007FFF80007FFFC0000000001FFF
310
FE0000000001FFF80FFFFFFFFFFFFFC07FFFFFF0001FFFFFF0001FFFFFFFFC00
310
07F0001FFFFFFFFC0007FF0003FFFFFFFFFFF0000000000FF000FFC000000000
310
1FFFF0003F000F8003F0003FFF80007FFF80000000003FFFF80000000003FFF8
310
0FFFFFFFFFFFFFC07FFFFFF0001FFFFFF0001FFFFFFFFC0007F0001FFFFFFFFC
310
0007FF0003FFFFFFFFFFE0000000001FF000FF00000000007FFFF0003F000780
310
03F0003FFF80007FFF00000000007FFFF00000000007FFF80FFFFFFFFFFFFFC0
310
7FFFFFF0001FFFFFF0001FFFFFFFFC0007F0001FFFFFFFFC0007FF0003FFFFFF
310
FFFF80000000007FF000FE0000000000FFFFE0003F00078007F0003FFF80007F
310
FE0000000001FFFFE0000000001FFFF80FFFFFFFFFFFFFC07FFFFFF0001FFFFF
310
F0001FFFFFFFFC0007F0001FFFFFFFFC0007FF0003FFFFFFFFFF0000000000FF
310
F000FC0000000003FFFFE0007F00078007F0003FFF80007FFC0000000007FFFF
310
C0000000007FFFF80FFFFFFFFFFFFFC07FFFFFF0001FFFFFF8001FFFFFFFFC00
310
0FF8001FFFFFFFFC000FFF0003FFFFFFFFFE0000000003FFF000FC000000000F
310
FFFFE0007F80070007F8001FFF80007FF8000000001FFFFF8000000001FFFFF8
310
0FFFFFFFFFFFFFC07FFFFFF0001FFFFFF8001FFFFFFFFC000FF8001FFFFFFFFC
310
000FFF0003FFFFFFFFFC000000000FFFF000F8000000007FFFFFE0007F800700
310
07F8001FFF80007FF000000000FFFFFF800000000FFFFFF80FFFFFFFFFFFFFC0
310
7FFFFFF0001FFFFFF8000FFFFFFFF8000FF8000FFFFFFFF8000FFF0003FFFFFF
310
FFFC000000007FFFF000F800000007FFFFFFC0007F8003000FF8001FFF80007F
310
F000000007FFFFFF000000007FFFFFF80FFFFFFFFFFFFFC07FFFFFF0001FFFFF
310
F8000FFFFFFFF8000FF8000FFFFFFFF8000FFF0003FFFFFFFFF80000000FFFFF
310
F000F0000000FFFFFFFFC000FF8003000FF8001FFF80007FE0000000FFFFFFFF
310
0000000FFFFFFFF8000001FFFE0000007FFFFFF0001FFFFFF8000FFFFFFFF800
310
0FF8000FFFFFFFF8000FFF0003FFFFFFFFF8000000FFFFFFF000F000000FFFFF
310
FFFFC000FFC002000FF8000FFF80007FE000001FFFFFFFFE000001FFFFFFFFF8
310
000001FFFE0000007FFFFFF0001FFFFFF8000FFFFFFFF8000FF8000FFFFFFFF8
310
000FFF0003FFFFFFFFF000001FFFFFFFF000E00000FFFFFFFFFFC000FFC00200
310
0FFC000FFF80007FE00001FFFFFFFFFE00001FFFFFFFFFF8000001FFFE000000
310
7FFFFFF0001FFFFFFC000FFFFFFFF8001FFC000FFFFFFFF8001FFF0003FFFFFF
310
FFF00001FFFFFFFFF000E00007FFFFFFFFFF8000FFC000001FFC000FFF80007F
310
C0000FFFFFFFFFFE0000FFFFFFFFFFF8000001FFFE0000007FFFFFF0001FFFFF
310
FC0007FFFFFFF0001FFC0007FFFFFFF0001FFF0003FFFFFFFFF00007FFFFFFFF
310
F000E0001FFFFFFFFFFF8000FFC000001FFC000FFF80007FC0003FFFFFFFFFFE
310
0001FFFFFFFFFFF8000001FFFE0000007FFFFFF0001FFFFFFC0007FFFFFFF000
310
1FFC0007FFFFFFF0001FFF0003FFFFFFFFF0001FFFFFFFFFF000E0003FFFFF00
310
03FF8001FFE000001FFC0007FF80007FC0007FFFFF0007FC0003FFFFF0003FF8
310
000001FFFE0000007FFFFFF0001FFFFFFC0003FFFFFFE0001FFC0003FFFFFFE0
310
001FFF0003FFFFFFFFF0003FFFFFFFFFF000E0003FFFFF0001FF8001FFE00000
310
1FFE0007FF80007FC0007FFFFE0003FC0007FFFFE0003FF8000001FFFE000000
310
7FFFFFF0001FFFFFFE0003FFFFFFE0003FFE0003FFFFFFE0003FFF0003FFFFFF
310
FFF0003FFFFF8001F000E0003FFFFF0001FF0001FFE000001FFE0007FF80007F
310
C0007FFFFE0003FC0007FFFFE0003FF8000001FFFE0000007FFFFFF0001FFFFF
310
FE0001FFFFFFC0003FFE0001FFFFFFC0003FFF0003FFFFFFFFF0003FFFFF0001
310
F000E0003FFFFF0003FF0001FFE000003FFE0007FF80007FC0007FFFFE0003FC
310
0007FFFFE0003FF8000001FFFE0000007FFFFFF0001FFFFFFF0001FFFFFFC000
310
7FFF0001FFFFFFC0007FFF0003FFFFFFFFF0003FFFFF0001F000E0003FFFFE00
310
03FF0003FFF000003FFE0003FF80007FC0007FFFFC0003FE0007FFFFE0003FF8
310
000001FFFE0000007FFFFFF0001FFFFFFF0000FFFFFF80007FFF0000FFFFFF80
310
007FFF0003FFFFFFFFF0003FFFFF0001F000E0003FFFFE0003FF0003FFF00000
310
3FFF0003FF80007FC0007FFFFC0007FE0007FFFFC0003FF8000001FFFE000000
310
7FFFFFF0001FFFFFFF80007FFFFF0000FFFF80007FFFFF0000FFFF0003FFFFFF
310
FFF0003FFFFF0003F000E0003FFFFC0003FE0003FFF000003FFF0003FF80007F
310
E0003FFFF80007FE0003FFFFC0007FF8000001FFFE0000007FFFFFF0001FFFFF
310
FF80003FFFFE0000FFFF80003FFFFE0000FFFF0003FFFFFFFFF0001FFFFE0003
310
F000F0001FFFF80003FE0003FFF000007FFF0001FF80007FE0003FFFF00007FE
310
0001FFFF80007FF8000001FFFE0000007FFFFFF0001FFFFFFFC0000FFFF80001
310
FFFFC0000FFFF80001FFFF0003FFFFFFFFF0001FFFFC0003F000F0000FFFF000
310
07FE0007FFF800007FFF0001FF80007FE0001FFFE00007FF0000FFFE00007FF8
310
000001FFFE0000007FFFFFF0001FFFFFFFC00003FFE00001FFFFC00003FFE000
310
01FFFF0003FFFFFFFFF8000FFFF80003F000F00003FFC00007FC0007FFF80000
310
7FFF8001FF80007FF00007FF80000FFF00007FF80000FFF8000001FFFE000000
310
7F80000000000001FFE000003E000003FFFFE000003E000003FFFF0003FFFFFF
310
FFF80003FFE00007F000F800000000000FFC0007FFF800007FFF8001FF80007F
310
F000000000000FFF000000000000FFF8000001FFFE0000007F80000000000001
310
FFF0000000000007FFFFF0000000000007FFFF0003FFFFFFFFFC00007E000007
310
F000F800000000000FFC0007FFF80000FFFF8000FF80007FF800000000001FFF
310
800000000001FFF8000001FFFE0000007F80000000000001FFF800000000000F
310
FFFFF800000000000FFFFF0003FFFFFFFFFC00000000000FF000FC0000000000
310
1FFC0007FFFC0000FFFF8000FF80007FF800000000003FFFC00000000001FFF8
310
000001FFFE0000007F80000000000001FFF800000000000FFFFFF80000000000
310
0FFFFF0003FFFFFFFFFE00000000001FF000FE00000000003FF8000FFFFC0000
310
FFFF8000FF80007FFC00000000003FFFC00000000003FFF8000001FFFE000000
310
7F80000000000001FFFC00000000001FFFFFFC00000000001FFFFF0003FFFFFF
310
FFFF00000000001FF000FF00000000003FF8000FFFFC0000FFFFC000FF80007F
310
FE00000000007FFFE00000000007FFF8000001FFFE0000007F80000000000001
310
FFFE00000000003FFFFFFE00000000003FFFFF0003FFFFFFFFFF80000000003F
310
F000FF80000000007FF8000FFFFC0001FFFFC0007F80007FFF0000000000FFFF
310
F0000000000FFFF800000000000000007F80000000000001FFFF8000000000FF
310
FFFFFF8000000000FFFFFF0003FFFFFFFFFFC0000000007FF000FFC000000000
310
FFF8000FFFFE0001FFFFC0007F80007FFF8000000001FFFFF8000000001FFFF8
310
00000000000000007F80000000000001FFFFC000000001FFFFFFFFC000000001
310
FFFFFF0003FFFFFFFFFFE000000000FFF000FFE000000003FFF0001FFFFE0001
310
FFFFC0007F80007FFFC000000007FFFFFE000000003FFFF80000000000000000
310
7F80000000000001FFFFE000000003FFFFFFFFE000000003FFFFFF0003FFFFFF
310
FFFFF000000003FFF000FFF80000000FFFF0001FFFFE0001FFFFE0007F80007F
310
FFF00000000FFFFFFF00000000FFFFF800000000000000007F80000000000001
310
FFFFF80000000FFFFFFFFFF80000000FFFFFFF0003FFFFFFFFFFFC0000000FFF
310
F000FFFE0000003FFFF0001FFFFE0003FFFFE0003F80007FFFFC0000003FFFFF
310
FFC0000003FFFFF800000000000000007F80000000000001FFFFFE0000003FFF
310
FFFFFFFE0000003FFFFFFF0003FFFFFFFFFFFF0000003FFFF000FFFF800000FF
310
FFF0001FFFFF0003FFFFE0003F80007FFFFF000001FFFFFFFFF800001FFFFFF8
310
00000000000000007F80000000000001FFFFFFC00001FFFFFFFFFFFFC00001FF
310
FFFFFF0003FFFFFFFFFFFFC00000FFFFF000FFFFF8000FFFFFFFFFFFFFFFFFFF
310
FFFFFFFFFFFFFFFFFFFFF0001FFFFFFFFFFF0000FFFFFFF80000000000000000
310
7FFFFFFFFFFFFFFFFFFFFFFC001FFFFFFFFFFFFFFC001FFFFFFFFFFFFFFFFFFF
310
FFFFFFFC001FFFFFF000FFFFFFFFFFFFFFFFFFFFFFFFFFFFFFFFFFFFFFFFFFFF
310
FFFFFFFFFFFFFFFFFFFFFFFFFFFFFFFFFFFFFFFFFFFFFFFFFFFFFFFFFFFFFFFF
310
FFFFFFFFFFFFFFFFFFFFFFFFFFFFFFFFFFFFFFFFFFFFFFFFFFFFFFFFFFFFFFFF
310
F000FFFFFFFFFFFFFFFFFFFFFFFFFFFFFFFFFFFFFFFFFFFFFFFFFFFFFFFFFFFF
310
FFFFFFFFFFFFFFFFFFFFFFFFFFFFFFFFFFFFFFFFFFFFFFFFFFFFFFFFFFFFFFFF
310
FFFFFFFFFFFFFFFFFFFFFFFFFFFFFFFFFFFFFFFFFFFFFFFFF000FFFFFFFFFFFF
310
FFFFFFFFFFFFFFFFFFFFFFFFFFFFFFFFFFFFFFFFFFFFFFFFFFFFFFFFFFFFFFFF
310
FFFFFFFFFFFFFFFFFFFFFFFFFFFFFFFFFFFFFFFFFFFFFFFFFFFFFFFFFFFFFFFF
310
FFFFFFFFFFFFFFFFFFFFFFFFFFFFFFFFF000FFFFFFFFFFFFFFFFFFFFFFFFFFFF
310
FFFFFFFFFFFFFFFFFFFFFFFFFFFFFFFFFFFFFFFFFFFFFFFFFFFFFFFFFFFFFFFF
310
FFFFFFFFFFFFFFFFFFFFFFFFFFFFFFFFFFFFFFFFFFFFFFFFFFFFFFFFFFFFFFFF
310
FFFFFFFFFFFFFFFFF000FFFFFFFFFFFFFFFFFFFFFFFFFFFFFFFFFFFFFFFFFFFF
310
FFFFFFFFFFFFFFFFFFFFFFFFFFFFFFFFFFFFFFFFFFFFFFFFFFFFFFFFFFFFFFFF
310
FFFFFFFFFFFFFFFFFFFFFFFFFFFFFFFFFFFFFFFFFFFFFFFFFFFFFFFFFFFFFFFF
310
F000FFFFFFFFFFFFFFFFFFFFFFFFFFFFFFFFFFFFFFFFFFFFFFFFFFFFFFFFFFFF
310
FFFFFFFFFFFFFFFFFFFFFFFFFFFFFFFFFFFFFFFFFFFFFFFFFFFFFFFFFFFFFFFF
310
FFFFFFFFFFFFFFFFFFFFFFFFFFFFFFFFFFFFFFFFFFFFFFFFF000FFFFFFFFFFFF
310
FFFFFFFFFFFFFFFFFFFFFFFFFFFFFFFFFFFFFFFFFFFFFFFFFFFFFFFFFFFFFFFF
310
FFFFFFFFFFFFFFFFFFFFFFFFFFFFFFFFFFFFFFFFFFFFFFFFFFFFFFFFFFFFFFFF
310
FFFFFFFFFFFFFFFFFFFFFFFFFFFFFFFFF000FFFFFFFFFFFFFFFFFFFFFFFFFFFF
310
FFFFFFFFFFFFFFFFFFFFFFFFFFFFFFFFFFFFFFFFFFFFFFFFFFFFFFFFFFFFFFFF
310
FFFFFFFFFFFFFFFFFFFFFFFFFFFFFFFFFFFFFFFFFFFFFFFFFFFFFFFFFFFFFFFF
310
FFFFFFFFFFFFFFFFF000FFFFFFFFFFFFFFFFFFFFFFFFFFFFFFFFFFFFFFFFFFFF
310
FFFFFFFFFFFFFFFFFFFFFFFFFFFFFFFFFFFFFFFFFFFFFFFFFFFFFFFFFFFFFFFF
310
FFFFFFFFFFFFFFFFFFFFFFFFFFFFFFFFFFFFFFFFFFFFFFFFFFFFFFFFFFFFFFFF
310
F000FFFFFFFFFFFFFFFFFFFFFFFFFFFFFFFFFFFFFFFFFFFFFFFFFFFFFFFFFFFF
310
FFFFFFFFFFFFFFFFFFFFFFFFFFFFFFFFFFFFFFFFFFFFFFFFFFFFFFFFFFFFFFFF
310
FFFFFFFFFFFFFFFFFFFFFFFFFFFFFFFFFFFFFFFFFFFFFFFFF000FFFFFFFFFFFF
310
FFFFFFFFFFFFFFFFFFFFFFFFFFFFFFFFFFFFFFFFFFFFFFFFFFFFFFFFFFFFFFFF
310
FFFFFFFFFFFFFFFFFFFFFFFFFFFFFFFFFFFFFFFFFFFFFFFFFFFFFFFFFFFFFFFF
310
FFFFFFFFFFFFFFFFFFFFFFFFFFFFFFFFF000FFFFFFFFFFFFFFFFFFFFFFFFFFFF
310
FFFFFFFFFFFFFFFFFFFFFFFFFFFFFFFFFFFFFFFFFFFFFFFFFFFFFFFFFFFFFFFF
310
FFFFFFFFFFFFFFFFFFFFFFFFFFFFFFFFFFFFFFFFFFFFFFFFFFFFFFFFFFFFFFFF
310
FFFFFFFFFFFFFFFFF000FFFFFFFFFFFFFFFFFFFFFFFFFFFFFFFFFFFFFFFFFFFF
310
FFFFFFFFFFFFFFFFFFFFFFFFFFFFFFFFFFFFFFFFFFFFFFFFFFFFFFFFFFFFFFFF
310
FFFFFFFFFFFFFFFFFFFFFFFFFFFFFFFFFFFFFFFFFFFFFFFFFFFFFFFFFFFFFFFF
310
F000FFFFFFFFFFFFFFFFFFFFFFFFFFFFFFFFFFFFFFFFFFFFFFFFFFFFFFFFFFFF
310
FFFFFFFFFFFFFFFFFFFFFFFFFFFFFFFFFFFFFFFFFFFFFFFFFFFFFFFFFFFFFFFF
310
FFFFFFFFFFFFFFFFFFFFFFFFFFFFFFFFFFFFFFFFFFFFFFFFF000FFFFFFFFFFFF
310
FFFFFFFFFFFFFFFFFFFFFFFFFFFFFFFFFFFFFFFFFFFFFFFFFFFFFFFFFFFFFFFF
310
FFFFFFFFFFFFFFFFFFFFFFFFFFFFFFFFFFFFFFFFFFFFFFFFFFFFFFFFFFFFFFFF
310
FFFFFFFFFFFFFFFFFFFFFFFFFFFFFFFFF000FFFFFFFFFFFFFFFFFFFFFFFFFFFF
310
FFFFFFFFFFFFFFFFFFFFFFFFFFFFFFFFFFFFFFFFFFFFFFFFFFFFFFFFFFFFFFFF
310
FFFFFFFFFFFFFFFFFFFFFFFFFFFFFFFFFFFFFFFFFFFFFFFFFFFFFFFFFFFFFFFF
310
FFFFFFFFFFFFFFFFF000FFFFFFFFFFFFFFFFFFFFFFFFFFFFFFFFFFFFFFFFFFFF
310
FFFFFFFFFFFFFFFFFFFFFFFFFFFFFFFFFFFFFFFFFFFFFFFFFFFFFFFFFFFFFFFF
310
FFFFFFFFFFFFFFFFFFFFFFFFFFFFFFFFFFFFFFFFFFFFFFFFFFFFFFFFFFFFFFFF
310
F000FFFFFFFFFFFFFFFFFFFFFFFFFFFFFFFFFFFFFFFFFFFFFFFFFFFFFFFFFFFF
310
FFFFFFFFFFFFFFFFFFFFFFFFFFFFFFFFFFFFFFFFFFFFFFFFFFFFFFFFFFFFFFFF
310
FFFFFFFFFFFFFFFFFFFFFFFFFFFFFFFFFFFFFFFFFFFFFFFFF000FFFFFFFFFFFF
310
FFFFFFFFFFFFFFFFFFFFFFFFFFFFFFFFFFFFFFFFFFFFFFFFFFFFFFFFFFFFFFFF
310
FFFFFFFFFFFFFFFFFFFFFFFFFFFFFFFFFFFFFFFFFFFFFFFFFFFFFFFFFFFFFFFF
310
FFFFFFFFFFFFFFFFFFFFFFFFFFFFFFFFF000FFFFFFFFFFFFFFFFFFFFFFFFFFFF
310
FFFFFFFFFFFFFFFFFFFFFFFFFFFFFFFFFFFFFFFFFFFFFFFFFFFFFFFFFFFFFFFF
310
FFFFFFFFFFFFFFFFFFFFFFFFFFFFFFFFFFFFFFFFFFFFFFFFFFFFFFFFFFFFFFFF
310
FFFFFFFFFFFFFFFFF000FFFFFFFFFFFFFFFFFFFFFFFFFFFFFFFFFFFFFFFFFFFF
310
FFFFFFFFFFFFFFFFFFFFFFFFFFFFFFFFFFFFFFFFFFFFFFFFFFFFFFFFFFFFFFFF
310
FFFFFFFFFFFFFFFFFFFFFFFFFFFFFFFFFFFFFFFFFFFFFFFFFFFFFFFFFFFFFFFF
310
F000FFFFFFFFFFFFFFFFFFFFFFFFFFFFFFFFFFFFFFFFFFFFFFFFFFFFFFFFFFFF
310
FFFFFFFFFFFFFFFFFFFFFFFFFFFFFFFFFFFFFFFFFFFFFFFFFFFFFFFFFFFFFFFF
310
FFFFFFFFFFFFFFFFFFFFFFFFFFFFFFFFFFFFFFFFFFFFFFFFF000FFFFFFFFFFFF
310
FFFFFFFFFFFFFFFFFFFFFFFFFFFFFFFFFFFFFFFFFFFFFFFFFFFFFFFFFFFFFFFF
310
FFFFFFFFFFFFFFFFFFFFFFFFFFFFFFFFFFFFFFFFFFFFFFFFFFFFFFFFFFFFFFFF
310
FFFFFFFFFFFFFFFFFFFFFFFFFFFFFFFFF0000000000000000000000000000000
310
0000000001000000010000000100000001000000010000000100000001000000
310
0100000001000000010000000100000000000000010000000000000001000000
310
0100000001000000010000000100000001000000010000000100000001000000
310
0100000001000000010000000100000001000000010000000100000001000000
310
0100000001000000010000000100000001000000010000000100000001000000
310
0100000001000000010000000100000001000000000000000100000001000000
310
0100000001000000010000000000000001000000010000000100000001000000
310
0100000001000000000000000100000000000000010000000000000001000000
310
0100000001000000010000000100000000000000010000000100000001000000
310
0100000001000000010000000000000001000000010000000100000001000000
310
0100000001000000000000000100000001000000010000000100000001000000
310
0100000000000000010000000000000001000000000000000100000001000000
310
0100000001000000010000000100000001000000010000000100000001000000
310
0100000001000000010000000100000001000000010000000100000000000000
310
0100000001000000010000000100000001000000010000000100000001000000
  1
OLE
  0
ENDSEC
  0
SECTION
  2
OBJECTS
  0
DICTIONARY
  5
C
330
0
100
AcDbDictionary
281
     1
  3
ACAD_GROUP
350
D
  3
ACAD_LAYOUT
350
1A
  3
ACAD_MLEADERSTYLE
350
20E
  3
ACAD_MLINESTYLE
350
17
  3
ACAD_PLOTSETTINGS
350
19
  3
ACAD_PLOTSTYLENAME
350
E
  3
ACAD_TABLESTYLE
350
20D
  3
ACAD_VISUALSTYLE
350
2A
  3
AcDbVariableDictionary
350
20F
  0
DICTIONARY
  5
D
102
{ACAD_REACTORS
330
C
102
}
330
C
100
AcDbDictionary
281
     1
  0
DICTIONARY
  5
1A
102
{ACAD_REACTORS
330
C
102
}
330
C
100
AcDbDictionary
281
     1
  3
Layout1
350
1E
  3
Layout2
350
26
  3
Model
350
22
  0
DICTIONARY
  5
20E
102
{ACAD_REACTORS
330
C
102
}
330
C
100
AcDbDictionary
281
     1
  0
DICTIONARY
  5
17
102
{ACAD_REACTORS
330
C
102
}
330
C
100
AcDbDictionary
281
     1
  3
Standard
350
18
  0
DICTIONARY
  5
19
102
{ACAD_REACTORS
330
C
102
}
330
C
100
AcDbDictionary
281
     1
  0
ACDBDICTIONARYWDFLT
  5
E
102
{ACAD_REACTORS
330
C
102
}
330
C
100
AcDbDictionary
281
     1
  3
Normal
350
F
100
AcDbDictionaryWithDefault
340
F
  0
DICTIONARY
  5
20D
102
{ACAD_REACTORS
330
C
102
}
330
C
100
AcDbDictionary
281
     1
  0
DICTIONARY
  5
2A
102
{ACAD_REACTORS
330
C
102
}
330
C
100
AcDbDictionary
281
     1
  3
2dWireframe
350
2F
  3
3D Hidden
350
31
  3
3dWireframe
350
30
  3
Basic
350
32
  3
Brighten
350
36
  3
ColorChange
350
3A
  3
Conceptual
350
34
  3
Dim
350
35
  3
Facepattern
350
39
  3
Flat
350
2B
  3
FlatWithEdges
350
2C
  3
Gouraud
350
2D
  3
GouraudWithEdges
350
2E
  3
Linepattern
350
38
  3
Realistic
350
33
  3
Thicken
350
37
  0
DICTIONARY
  5
20F
102
{ACAD_REACTORS
330
C
102
}
330
C
100
AcDbDictionary
281
     1
  3
PSOLHEIGHT
350
211
  3
PSOLWIDTH
350
210
  0
LAYOUT
  5
1E
102
{ACAD_REACTORS
330
1A
102
}
330
1A
100
AcDbPlotSettings
  1

  2
none_device
  4

  6

 40
0.0
 41
0.0
 42
0.0
 43
0.0
 44
0.0
 45
0.0
 46
0.0
 47
0.0
 48
0.0
 49
0.0
140
0.0
141
0.0
142
1.0
143
1.0
 70
   688
 72
     0
 73
     0
 74
     5
  7

 75
    16
147
1.0
148
0.0
149
0.0
100
AcDbLayout
  1
Layout1
 70
     1
 71
     1
 10
0.0
 20
0.0
 11
420.0
 21
297.0
 12
0.0
 22
0.0
 32
0.0
 14
1.0000000000E+20
 24
1.0000000000E+20
 34
1.0000000000E+20
 15
-1.0000000000E+20
 25
-1.0000000000E+20
 35
-1.0000000000E+20
146
0.0
 13
0.0
 23
0.0
 33
0.0
 16
1.0
 26
0.0
 36
0.0
 17
0.0
 27
1.0
 37
0.0
 76
     0
330
1B
  0
LAYOUT
  5
26
102
{ACAD_REACTORS
330
1A
102
}
330
1A
100
AcDbPlotSettings
  1

  2
none_device
  4

  6

 40
0.0
 41
0.0
 42
0.0
 43
0.0
 44
0.0
 45
0.0
 46
0.0
 47
0.0
 48
0.0
 49
0.0
140
0.0
141
0.0
142
1.0
143
1.0
 70
   688
 72
     0
 73
     0
 74
     5
  7

 75
    16
147
1.0
148
0.0
149
0.0
100
AcDbLayout
  1
Layout2
 70
     1
 71
     2
 10
0.0
 20
0.0
 11
0.0
 21
0.0
 12
0.0
 22
0.0
 32
0.0
 14
0.0
 24
0.0
 34
0.0
 15
0.0
 25
0.0
 35
0.0
146
0.0
 13
0.0
 23
0.0
 33
0.0
 16
1.0
 26
0.0
 36
0.0
 17
0.0
 27
1.0
 37
0.0
 76
     0
330
23
  0
LAYOUT
  5
22
102
{ACAD_REACTORS
330
1A
102
}
330
1A
100
AcDbPlotSettings
  1

  2
none_device
  4

  6

 40
0.0
 41
0.0
 42
0.0
 43
0.0
 44
0.0
 45
0.0
 46
0.0
 47
0.0
 48
0.0
 49
0.0
140
0.0
141
0.0
142
1.0
143
1.0
 70
  1712
 72
     0
 73
     0
 74
     0
  7

 75
     0
147
1.0
148
0.0
149
0.0
100
AcDbLayout
  1
Model
 70
     1
 71
     0
 10
0.0
 20
0.0
 11
297.0
 21
210.0
 12
0.0
 22
0.0
 32
0.0
 14
0.0
 24
0.0
 34
0.0
 15
297.0
 25
210.0
 35
0.0
146
0.0
 13
0.0
 23
0.0
 33
0.0
 16
1.0
 26
0.0
 36
0.0
 17
0.0
 27
1.0
 37
0.0
 76
     0
330
1F
331
29
  0
MLINESTYLE
  5
18
102
{ACAD_REACTORS
330
17
102
}
330
17
100
AcDbMlineStyle
  2
Standard
 70
     0
  3

 62
   256
 51
90.0
 52
90.0
 71
     2
 49
0.5
 62
   256
  6
BYLAYER
 49
-0.5
 62
   256
  6
BYLAYER
  0
ACDBPLACEHOLDER
  5
F
102
{ACAD_REACTORS
330
E
102
}
330
E
  0
VISUALSTYLE
  5
2F
102
{ACAD_REACTORS
330
2A
102
}
330
2A
100
AcDbVisualStyle
  2
2dWireframe
 70
     4
 71
     0
 72
     2
 73
     0
 90
        0
 40
-0.6
 41
-30.0
 62
     5
 63
     7
 74
     1
 91
        4
 64
     7
 65
   257
 75
     1
175
     1
 42
1.0
 92
        0
 66
   257
 43
1.0
 76
     1
 77
     6
 78
     2
 67
     7
 79
     5
170
     0
171
     0
290
     0
174
     0
 93
        1
 44
0.0
173
     0
291
     0
 45
0.0
1001
ACAD
1000
AcDbSavedByObjectVersion
1070
     0
  0
VISUALSTYLE
  5
31
102
{ACAD_REACTORS
330
2A
102
}
330
2A
100
AcDbVisualStyle
  2
3D Hidden
 70
     6
 71
     1
 72
     2
 73
     2
 90
        0
 40
-0.6
 41
-30.0
 62
     5
 63
     7
 74
     2
 91
        2
 64
     7
 65
   257
 75
     2
175
     1
 42
40.0
 92
        0
 66
   257
 43
1.0
 76
     1
 77
     6
 78
     2
 67
     7
 79
     3
170
     0
171
     0
290
     0
174
     0
 93
        1
 44
0.0
173
     0
291
     0
 45
0.0
1001
ACAD
1000
AcDbSavedByObjectVersion
1070
     0
  0
VISUALSTYLE
  5
30
102
{ACAD_REACTORS
330
2A
102
}
330
2A
100
AcDbVisualStyle
  2
3dWireframe
 70
     5
 71
     0
 72
     2
 73
     0
 90
        0
 40
-0.6
 41
-30.0
 62
     5
 63
     7
 74
     1
 91
        4
 64
     7
 65
   257
 75
     1
175
     1
 42
1.0
 92
        0
 66
   257
 43
1.0
 76
     1
 77
     6
 78
     2
 67
     7
 79
     5
170
     0
171
     0
290
     0
174
     0
 93
        1
 44
0.0
173
     0
291
     0
 45
0.0
1001
ACAD
1000
AcDbSavedByObjectVersion
1070
     0
  0
VISUALSTYLE
  5
32
102
{ACAD_REACTORS
330
2A
102
}
330
2A
100
AcDbVisualStyle
  2
Basic
 70
     7
 71
     1
 72
     0
 73
     1
 90
        0
 40
-0.6
 41
-30.0
 62
     5
 63
     7
 74
     0
 91
        4
 64
     7
 65
   257
 75
     1
175
     1
 42
1.0
 92
        8
 66
     7
 43
1.0
 76
     1
 77
     6
 78
     2
 67
     7
 79
     5
170
     0
171
     0
290
     0
174
     0
 93
        1
 44
0.0
173
     0
291
     1
 45
0.0
1001
ACAD
1000
AcDbSavedByObjectVersion
1070
     0
  0
VISUALSTYLE
  5
36
102
{ACAD_REACTORS
330
2A
102
}
330
2A
100
AcDbVisualStyle
  2
Brighten
 70
    12
 71
     2
 72
     2
 73
     0
 90
        0
 40
-0.6
 41
-30.0
 62
     5
 63
     7
 74
     1
 91
        4
 64
     7
 65
   257
 75
     1
175
     1
 42
1.0
 92
        8
 66
     7
 43
1.0
 76
     1
 77
     6
 78
     2
 67
     7
 79
     5
170
     0
171
     0
290
     0
174
     0
 93
        1
 44
50.0
173
     0
291
     1
 45
0.0
1001
ACAD
1000
AcDbSavedByObjectVersion
1070
     0
  0
VISUALSTYLE
  5
3A
102
{ACAD_REACTORS
330
2A
102
}
330
2A
100
AcDbVisualStyle
  2
ColorChange
 70
    16
 71
     2
 72
     2
 73
     3
 90
        0
 40
-0.6
 41
-30.0
 62
     5
 63
     8
 74
     1
 91
        4
 64
     7
 65
   257
 75
     1
175
     1
 42
1.0
 92
        8
 66
     8
 43
1.0
 76
     1
 77
     6
 78
     2
 67
     7
 79
     5
170
     0
171
     0
290
     0
174
     0
 93
        1
 44
0.0
173
     0
291
     1
 45
0.0
1001
ACAD
1000
AcDbSavedByObjectVersion
1070
     0
  0
VISUALSTYLE
  5
34
102
{ACAD_REACTORS
330
2A
102
}
330
2A
100
AcDbVisualStyle
  2
Conceptual
 70
     9
 71
     3
 72
     2
 73
     0
 90
        0
 40
-0.6
 41
-30.0
 62
     5
 63
     7
 74
     2
 91
        2
 64
     7
 65
   257
 75
     1
175
     1
 42
40.0
 92
        8
 66
     7
 43
1.0
 76
     1
 77
     6
 78
     2
 67
     7
 79
     3
170
     0
171
     0
290
     0
174
     0
 93
        1
 44
0.0
173
     0
291
     0
 45
0.0
1001
ACAD
1000
AcDbSavedByObjectVersion
1070
     0
  0
VISUALSTYLE
  5
35
102
{ACAD_REACTORS
330
2A
102
}
330
2A
100
AcDbVisualStyle
  2
Dim
 70
    11
 71
     2
 72
     2
 73
     0
 90
        0
 40
-0.6
 41
-30.0
 62
     5
 63
     7
 74
     1
 91
        4
 64
     7
 65
   257
 75
     1
175
     1
 42
1.0
 92
        8
 66
     7
 43
1.0
 76
     1
 77
     6
 78
     2
 67
     7
 79
     5
170
     0
171
     0
290
     0
174
     0
 93
        1
 44
-50.0
173
     0
291
     1
 45
0.0
1001
ACAD
1000
AcDbSavedByObjectVersion
1070
     0
  0
VISUALSTYLE
  5
39
102
{ACAD_REACTORS
330
2A
102
}
330
2A
100
AcDbVisualStyle
  2
Facepattern
 70
    15
 71
     2
 72
     2
 73
     0
 90
        0
 40
-0.6
 41
-30.0
 62
     5
 63
     7
 74
     1
 91
        4
 64
     7
 65
   257
 75
     1
175
     1
 42
1.0
 92
        8
 66
     7
 43
1.0
 76
     1
 77
     6
 78
     2
 67
     7
 79
     5
170
     0
171
     0
290
     0
174
     0
 93
        1
 44
0.0
173
     0
291
     1
 45
0.0
1001
ACAD
1000
AcDbSavedByObjectVersion
1070
     0
  0
VISUALSTYLE
  5
2B
102
{ACAD_REACTORS
330
2A
102
}
330
2A
100
AcDbVisualStyle
  2
Flat
 70
     0
 71
     2
 72
     1
 73
     1
 90
        2
 40
-0.6
 41
30.0
 62
     5
 63
     7
 74
     0
 91
        4
 64
     7
 65
   257
 75
     1
175
     1
 42
1.0
 92
        8
 66
     7
 43
1.0
 76
     1
 77
     6
 78
     2
 67
     7
 79
     5
170
     0
171
     0
290
     0
174
     0
 93
       13
 44
0.0
173
     0
291
     1
 45
0.0
1001
ACAD
1000
AcDbSavedByObjectVersion
1070
     0
  0
VISUALSTYLE
  5
2C
102
{ACAD_REACTORS
330
2A
102
}
330
2A
100
AcDbVisualStyle
  2
FlatWithEdges
 70
     1
 71
     2
 72
     1
 73
     1
 90
        2
 40
-0.6
 41
30.0
 62
     5
 63
     7
 74
     1
 91
        4
 64
     7
 65
   257
 75
     1
175
     1
 42
1.0
 92
        0
 66
   257
 43
1.0
 76
     1
 77
     6
 78
     2
 67
     7
 79
     5
170
     0
171
     0
290
     0
174
     0
 93
       13
 44
0.0
173
     0
291
     1
 45
0.0
1001
ACAD
1000
AcDbSavedByObjectVersion
1070
     0
  0
VISUALSTYLE
  5
2D
102
{ACAD_REACTORS
330
2A
102
}
330
2A
100
AcDbVisualStyle
  2
Gouraud
 70
     2
 71
     2
 72
     2
 73
     1
 90
        2
 40
-0.6
 41
30.0
 62
     5
 63
     7
 74
     0
 91
        4
 64
     7
 65
   257
 75
     1
175
     1
 42
1.0
 92
        0
 66
     7
 43
1.0
 76
     1
 77
     6
 78
     2
 67
     7
 79
     5
170
     0
171
     0
290
     0
174
     0
 93
       13
 44
0.0
173
     0
291
     1
 45
0.0
1001
ACAD
1000
AcDbSavedByObjectVersion
1070
     0
  0
VISUALSTYLE
  5
2E
102
{ACAD_REACTORS
330
2A
102
}
330
2A
100
AcDbVisualStyle
  2
GouraudWithEdges
 70
     3
 71
     2
 72
     2
 73
     1
 90
        2
 40
-0.6
 41
30.0
 62
     5
 63
     7
 74
     1
 91
        4
 64
     7
 65
   257
 75
     1
175
     1
 42
1.0
 92
        0
 66
   257
 43
1.0
 76
     1
 77
     6
 78
     2
 67
     7
 79
     5
170
     0
171
     0
290
     0
174
     0
 93
       13
 44
0.0
173
     0
291
     1
 45
0.0
1001
ACAD
1000
AcDbSavedByObjectVersion
1070
     0
  0
VISUALSTYLE
  5
38
102
{ACAD_REACTORS
330
2A
102
}
330
2A
100
AcDbVisualStyle
  2
Linepattern
 70
    14
 71
     2
 72
     2
 73
     0
 90
        0
 40
-0.6
 41
-30.0
 62
     5
 63
     7
 74
     1
 91
        4
 64
     7
 65
   257
 75
     7
175
     7
 42
1.0
 92
        8
 66
     7
 43
1.0
 76
     1
 77
     6
 78
     2
 67
     7
 79
     5
170
     0
171
     0
290
     0
174
     0
 93
        1
 44
0.0
173
     0
291
     1
 45
0.0
1001
ACAD
1000
AcDbSavedByObjectVersion
1070
     0
  0
VISUALSTYLE
  5
33
102
{ACAD_REACTORS
330
2A
102
}
330
2A
100
AcDbVisualStyle
  2
Realistic
 70
     8
 71
     2
 72
     2
 73
     0
 90
        0
 40
-0.6
 41
-30.0
 62
     5
 63
     7
 74
     1
 91
        0
 64
     7
 65
   257
 75
     1
175
     1
 42
1.0
 92
        8
 66
     8
 43
1.0
 76
     1
 77
     6
 78
     2
 67
     7
 79
     5
170
     0
171
     0
290
     0
174
     0
 93
       13
 44
0.0
173
     0
291
     0
 45
0.0
1001
ACAD
1000
AcDbSavedByObjectVersion
1070
     0
  0
VISUALSTYLE
  5
37
102
{ACAD_REACTORS
330
2A
102
}
330
2A
100
AcDbVisualStyle
  2
Thicken
 70
    13
 71
     2
 72
     2
 73
     0
 90
        0
 40
-0.6
 41
-30.0
 62
     5
 63
     7
 74
     1
 91
        4
 64
     7
 65
   257
 75
     1
175
     1
 42
1.0
 92
       12
 66
     7
 43
1.0
 76
     1
 77
     6
 78
     2
 67
     7
 79
     5
170
     0
171
     0
290
     0
174
     0
 93
        1
 44
0.0
173
     0
291
     1
 45
0.0
1001
ACAD
1000
AcDbSavedByObjectVersion
1070
     0
  0
DICTIONARYVAR
  5
211
102
{ACAD_REACTORS
330
20F
102
}
330
20F
100
DictionaryVariables
280
     0
  1
80.000000
  0
DICTIONARYVAR
  5
210
102
{ACAD_REACTORS
330
20F
102
}
330
20F
100
DictionaryVariables
280
     0
  1
5.000000
  0
ENDSEC
  0
EOF
