  0
SECTION
  2
HEADER
  9
$ACADVER
  1
AC1015
  9
$ACADMAINTVER
 70
     6
  9
$DWGCODEPAGE
  3
ANSI_1252
  9
$INSBASE
 10
0.0
 20
0.0
 30
0.0
  9
$EXTMIN
 10
0.0
 20
0.0
 30
0.0
  9
$EXTMAX
 10
297.0
 20
210.0
 30
0.0
  9
$LIMMIN
 10
0.0
 20
0.0
  9
$LIMMAX
 10
297.0
 20
210.0
  9
$ORTHOMODE
 70
     0
  9
$REGENMODE
 70
     1
  9
$FILLMODE
 70
     1
  9
$QTEXTMODE
 70
     0
  9
$MIRRTEXT
 70
     1
  9
$LTSCALE
 40
1.0
  9
$ATTMODE
 70
     1
  9
$TEXTSIZE
 40
2.0
  9
$TRACEWID
 40
1.0
  9
$TEXTSTYLE
  7
Standard
  9
$CLAYER
  8
0
  9
$CELTYPE
  6
ByLayer
  9
$CECOLOR
 62
   256
  9
$CELTSCALE
 40
1.0
  9
$DISPSILH
 70
     0
  9
$DIMSCALE
 40
1.0
  9
$DIMASZ
 40
3.0
  9
$DIMEXO
 40
0.0
  9
$DIMDLI
 40
3.75
  9
$DIMRND
 40
0.0
  9
$DIMDLE
 40
0.0
  9
$DIMEXE
 40
1.0
  9
$DIMTP
 40
0.0
  9
$DIMTM
 40
0.0
  9
$DIMTXT
 40
2.0
  9
$DIMCEN
 40
2.5
  9
$DIMTSZ
 40
0.0
  9
$DIMTOL
 70
     0
  9
$DIMLIM
 70
     0
  9
$DIMTIH
 70
     1
  9
$DIMTOH
 70
     1
  9
$DIMSE1
 70
     0
  9
$DIMSE2
 70
     0
  9
$DIMTAD
 70
     1
  9
$DIMZIN
 70
     0
  9
$DIMBLK
  1

  9
$DIMASO
 70
     1
  9
$DIMSHO
 70
     1
  9
$DIMPOST
  1

  9
$DIMAPOST
  1

  9
$DIMALT
 70
     0
  9
$DIMALTD
 70
     3
  9
$DIMALTF
 40
0.0393700787
  9
$DIMLFAC
 40
1.0
  9
$DIMTOFL
 70
     1
  9
$DIMTVP
 40
0.0
  9
$DIMTIX
 70
     0
  9
$DIMSOXD
 70
     0
  9
$DIMSAH
 70
     0
  9
$DIMBLK1
  1

  9
$DIMBLK2
  1

  9
$DIMSTYLE
  2
ISO-25
  9
$DIMCLRD
 70
     0
  9
$DIMCLRE
 70
     0
  9
$DIMCLRT
 70
     0
  9
$DIMTFAC
 40
1.0
  9
$DIMGAP
 40
1.524
  9
$DIMJUST
 70
     0
  9
$DIMSD1
 70
     0
  9
$DIMSD2
 70
     0
  9
$DIMTOLJ
 70
     0
  9
$DIMTZIN
 70
     0
  9
$DIMALTZ
 70
     0
  9
$DIMALTTZ
 70
     0
  9
$DIMUPT
 70
     0
  9
$DIMDEC
 70
     2
  9
$DIMTDEC
 70
     3
  9
$DIMALTU
 70
     2
  9
$DIMALTTD
 70
     3
  9
$DIMTXSTY
  7
Standard
  9
$DIMAUNIT
 70
     0
  9
$DIMADEC
 70
     2
  9
$DIMALTRND
 40
0.0
  9
$DIMAZIN
 70
     0
  9
$DIMDSEP
 70
    44
  9
$DIMATFIT
 70
     3
  9
$DIMFRAC
 70
     0
  9
$DIMLDRBLK
  1

  9
$DIMLUNIT
 70
     2
  9
$DIMLWD
 70
    -2
  9
$DIMLWE
 70
    -2
  9
$DIMTMOVE
 70
     0
  9
$LUNITS
 70
     2
  9
$LUPREC
 70
     2
  9
$SKETCHINC
 40
1.0
  9
$FILLETRAD
 40
10.0
  9
$AUNITS
 70
     0
  9
$AUPREC
 70
     2
  9
$MENU
  1
.
  9
$ELEVATION
 40
0.0
  9
$PELEVATION
 40
0.0
  9
$THICKNESS
 40
0.0
  9
$LIMCHECK
 70
     0
  9
$CHAMFERA
 40
10.0
  9
$CHAMFERB
 40
10.0
  9
$CHAMFERC
 40
20.0
  9
$CHAMFERD
 40
0.0
  9
$SKPOLY
 70
     0
  9
$TDCREATE
 40
2455673.524122778
  9
$TDUCREATE
 40
2455673.440789444
  9
$TDUPDATE
 40
2455673.52412279
  9
$TDUUPDATE
 40
2455673.440789456
  9
$TDINDWG
 40
0.0000000116
  9
$TDUSRTIMER
 40
0.0000000116
  9
$USRTIMER
 70
     1
  9
$ANGBASE
 50
0.0
  9
$ANGDIR
 70
     0
  9
$PDMODE
 70
     0
  9
$PDSIZE
 40
-1.0
  9
$PLINEWID
 40
0.0
  9
$SPLFRAME
 70
     0
  9
$SPLINETYPE
 70
     6
  9
$SPLINESEGS
 70
     8
  9
$HANDSEED
  5
20A
  9
$SURFTAB1
 70
     6
  9
$SURFTAB2
 70
     6
  9
$SURFTYPE
 70
     6
  9
$SURFU
 70
     6
  9
$SURFV
 70
     6
  9
$UCSBASE
  2

  9
$UCSNAME
  2

  9
$UCSORG
 10
0.0
 20
0.0
 30
0.0
  9
$UCSXDIR
 10
1.0
 20
0.0
 30
0.0
  9
$UCSYDIR
 10
0.0
 20
1.0
 30
0.0
  9
$UCSORTHOREF
  2

  9
$UCSORTHOVIEW
 70
     0
  9
$UCSORGTOP
 10
0.0
 20
0.0
 30
0.0
  9
$UCSORGBOTTOM
 10
0.0
 20
0.0
 30
0.0
  9
$UCSORGLEFT
 10
0.0
 20
0.0
 30
0.0
  9
$UCSORGRIGHT
 10
0.0
 20
0.0
 30
0.0
  9
$UCSORGFRONT
 10
0.0
 20
0.0
 30
0.0
  9
$UCSORGBACK
 10
0.0
 20
0.0
 30
0.0
  9
$PUCSBASE
  2

  9
$PUCSNAME
  2

  9
$PUCSORG
 10
0.0
 20
0.0
 30
0.0
  9
$PUCSXDIR
 10
1.0
 20
0.0
 30
0.0
  9
$PUCSYDIR
 10
0.0
 20
1.0
 30
0.0
  9
$PUCSORTHOREF
  2

  9
$PUCSORTHOVIEW
 70
     0
  9
$PUCSORGTOP
 10
0.0
 20
0.0
 30
0.0
  9
$PUCSORGBOTTOM
 10
0.0
 20
0.0
 30
0.0
  9
$PUCSORGLEFT
 10
0.0
 20
0.0
 30
0.0
  9
$PUCSORGRIGHT
 10
0.0
 20
0.0
 30
0.0
  9
$PUCSORGFRONT
 10
0.0
 20
0.0
 30
0.0
  9
$PUCSORGBACK
 10
0.0
 20
0.0
 30
0.0
  9
$USERI1
 70
     0
  9
$USERI2
 70
     0
  9
$USERI3
 70
     0
  9
$USERI4
 70
     0
  9
$USERI5
 70
     0
  9
$USERR1
 40
0.0
  9
$USERR2
 40
0.0
  9
$USERR3
 40
0.0
  9
$USERR4
 40
0.0
  9
$USERR5
 40
0.0
  9
$WORLDVIEW
 70
     1
  9
$SHADEDGE
 70
     3
  9
$SHADEDIF
 70
    70
  9
$TILEMODE
 70
     1
  9
$MAXACTVP
 70
    64
  9
$PINSBASE
 10
0.0
 20
0.0
 30
0.0
  9
$PLIMCHECK
 70
     0
  9
$PEXTMIN
 10
1.0000000000E+20
 20
1.0000000000E+20
 30
1.0000000000E+20
  9
$PEXTMAX
 10
-1.0000000000E+20
 20
-1.0000000000E+20
 30
-1.0000000000E+20
  9
$PLIMMIN
 10
0.0
 20
0.0
  9
$PLIMMAX
 10
420.0
 20
297.0
  9
$UNITMODE
 70
     0
  9
$VISRETAIN
 70
     1
  9
$PLINEGEN
 70
     0
  9
$PSLTSCALE
 70
     1
  9
$TREEDEPTH
 70
  3020
  9
$CMLSTYLE
  2
Standard
  9
$CMLJUST
 70
     0
  9
$CMLSCALE
 40
20.0
  9
$PROXYGRAPHICS
 70
     1
  9
$MEASUREMENT
 70
     1
  9
$CELWEIGHT
370
    -1
  9
$ENDCAPS
280
     0
  9
$JOINSTYLE
280
     0
  9
$LWDISPLAY
290
     1
  9
$INSUNITS
 70
     4
  9
$HYPERLINKBASE
  1

  9
$STYLESHEET
  1

  9
$XEDIT
290
     1
  9
$CEPSNTYPE
380
     0
  9
$PSTYLEMODE
290
     1
  9
$FINGERPRINTGUID
  2
{C2D5ACAD-75DA-4580-84C4-0550AD18AB61}
  9
$VERSIONGUID
  2
{FAEB1C32-E019-11D5-929B-00C0DF256EC4}
  9
$EXTNAMES
290
     1
  9
$PSVPSCALE
 40
0.0
  9
$OLESTARTUP
290
     0
  0
ENDSEC
  0
SECTION
  2
CLASSES
  0
CLASS
  1
ACDBDICTIONARYWDFLT
  2
AcDbDictionaryWithDefault
  3
ObjectDBX Classes
 90
        0
280
     0
281
     0
  0
CLASS
  1
VISUALSTYLE
  2
AcDbVisualStyle
  3
ObjectDBX Classes
 90
     4095
280
     0
281
     0
  0
CLASS
  1
DICTIONARYVAR
  2
AcDbDictionaryVar
  3
ObjectDBX Classes
 90
        0
280
     0
281
     0
  0
CLASS
  1
ACDBPLACEHOLDER
  2
AcDbPlaceHolder
  3
ObjectDBX Classes
 90
        0
280
     0
281
     0
  0
CLASS
  1
LAYOUT
  2
AcDbLayout
  3
ObjectDBX Classes
 90
        0
280
     0
281
     0
  0
ENDSEC
  0
SECTION
  2
TABLES
  0
TABLE
  2
VPORT
  5
8
330
0
100
AcDbSymbolTable
 70
     1
  0
VPORT
  5
29
330
8
100
AcDbSymbolTableRecord
100
AcDbViewportTableRecord
  2
*Active
 70
     0
 10
0.0
 20
0.0
 11
1.0
 21
1.0
 12
148.5
 22
105.0
 13
0.0
 23
0.0
 14
10.0
 24
10.0
 15
10.0
 25
10.0
 16
0.0
 26
0.0
 36
1.0
 17
0.0
 27
0.0
 37
0.0
 40
210.0
 41
1.4142857143
 42
50.0
 43
0.0
 44
0.0
 50
0.0
 51
0.0
 71
     0
 72
  2000
 73
     1
 74
     3
 75
     0
 76
     0
 77
     0
 78
     0
281
     0
 65
     1
110
0.0
120
0.0
130
0.0
111
1.0
121
0.0
131
0.0
112
0.0
122
1.0
132
0.0
 79
     0
146
0.0
  0
ENDTAB
  0
TABLE
  2
LTYPE
  5
5
330
0
100
AcDbSymbolTable
 70
     6
  0
LTYPE
  5
14
330
5
100
AcDbSymbolTableRecord
100
AcDbLinetypeTableRecord
  2
ByBlock
 70
     0
  3

 72
    65
 73
     0
 40
0.0
  0
LTYPE
  5
15
330
5
100
AcDbSymbolTableRecord
100
AcDbLinetypeTableRecord
  2
ByLayer
 70
     0
  3

 72
    65
 73
     0
 40
0.0
  0
LTYPE
  5
16
330
5
100
AcDbSymbolTableRecord
100
AcDbLinetypeTableRecord
  2
Continuous
 70
     0
  3
Solid line
 72
    65
 73
     0
 40
0.0
  0
LTYPE
  5
3B
330
5
100
AcDbSymbolTableRecord
100
AcDbLinetypeTableRecord
  2
HIDDEN
 70
     0
  3
Hidden __ __ __ __ __ __ __ __ __ __ __ __ __ __
 72
    65
 73
     2
 40
1.905
 49
1.27
 74
     0
 49
-0.635
 74
     0
  0
LTYPE
  5
3C
330
5
100
AcDbSymbolTableRecord
100
AcDbLinetypeTableRecord
  2
PHANTOM
 70
     0
  3
Phantom ______  __  __  ______  __  __  ______
 72
    65
 73
     6
 40
12.7
 49
6.35
 74
     0
 49
-1.27
 74
     0
 49
1.27
 74
     0
 49
-1.27
 74
     0
 49
1.27
 74
     0
 49
-1.27
 74
     0
  0
LTYPE
  5
3D
330
5
100
AcDbSymbolTableRecord
100
AcDbLinetypeTableRecord
  2
CENTER
 70
     0
  3
Center ____ _ ____ _ ____ _ ____ _ ____ _ ____
 72
    65
 73
     4
 40
10.16
 49
6.35
 74
     0
 49
-1.27
 74
     0
 49
1.27
 74
     0
 49
-1.27
 74
     0
  0
LTYPE
  5
3E
330
5
100
AcDbSymbolTableRecord
100
AcDbLinetypeTableRecord
  2
CENTERX2
 70
     0
  3
Center (2x) ________  __  ________  __  _____
 72
    65
 73
     4
 40
20.32
 49
12.7
 74
     0
 49
-2.54
 74
     0
 49
2.54
 74
     0
 49
-2.54
 74
     0
  0
LTYPE
  5
3F
330
5
100
AcDbSymbolTableRecord
100
AcDbLinetypeTableRecord
  2
DOT2
 70
     0
  3
Dot (.5x) ........................................
 72
    65
 73
     2
 40
0.635
 49
0.0
 74
     0
 49
-0.635
 74
     0
  0
ENDTAB
  0
TABLE
  2
LAYER
  5
2
330
0
100
AcDbSymbolTable
 70
     5
  0
LAYER
  5
10
330
2
100
AcDbSymbolTableRecord
100
AcDbLayerTableRecord
  2
0
 70
     0
 62
     7
  6
Continuous
370
    -3
390
F
  0
LAYER
  5
40
330
2
100
AcDbSymbolTableRecord
100
AcDbLayerTableRecord
  2
FORMAT
 70
     0
 62
     7
  6
Continuous
370
    -3
390
F
  0
LAYER
  5
41
330
2
100
AcDbSymbolTableRecord
100
AcDbLayerTableRecord
  2
VERMASSUNG
 70
     0
 62
     7
  6
Continuous
370
    -3
390
F
  0
LAYER
  5
42
330
2
100
AcDbSymbolTableRecord
100
AcDbLayerTableRecord
  2
KOPF_DÜNN
 70
     0
 62
     7
  6
Continuous
370
    -3
390
F
  0
LAYER
  5
43
330
2
100
AcDbSymbolTableRecord
100
AcDbLayerTableRecord
  2
KOPF_DICK
 70
     0
 62
     7
  6
Continuous
370
    15
390
F
  0
ENDTAB
  0
TABLE
  2
STYLE
  5
3
330
0
100
AcDbSymbolTable
 70
     3
  0
STYLE
  5
11
330
3
100
AcDbSymbolTableRecord
100
AcDbTextStyleTableRecord
  2
Standard
 70
     0
 40
0.0
 41
1.0
 50
0.0
 71
     0
 42
2.5
  3
txt
  4

  0
STYLE
  5
44
330
3
100
AcDbSymbolTableRecord
100
AcDbTextStyleTableRecord
  2
SLDTEXTSTYLE0
 70
     0
 40
0.0
 41
0.7
 50
0.0
 71
     0
 42
0.2
  3
TXT
  4

  0
STYLE
  5
48
330
3
100
AcDbSymbolTableRecord
100
AcDbTextStyleTableRecord
  2
SLDTEXTSTYLE1
 70
     0
 40
0.0
 41
0.65
 50
0.0
 71
     0
 42
0.2
  3
TXT
  4

  0
ENDTAB
  0
TABLE
  2
VIEW
  5
6
330
0
100
AcDbSymbolTable
 70
     0
  0
ENDTAB
  0
TABLE
  2
UCS
  5
7
330
0
100
AcDbSymbolTable
 70
     0
  0
ENDTAB
  0
TABLE
  2
APPID
  5
9
330
0
100
AcDbSymbolTable
 70
     1
  0
APPID
  5
12
330
9
100
AcDbSymbolTableRecord
100
AcDbRegAppTableRecord
  2
ACAD
 70
     0
  0
ENDTAB
  0
TABLE
  2
DIMSTYLE
  5
A
330
0
100
AcDbSymbolTable
 70
     2
100
AcDbDimStyleTable
  0
DIMSTYLE
105
27
330
A
100
AcDbSymbolTableRecord
100
AcDbDimStyleTableRecord
  2
ISO-25
 70
     0
 41
2.5
 42
0.625
 43
3.75
 44
1.25
 73
     0
 74
     0
 77
     1
 78
     8
140
2.5
141
2.5
143
0.0393700787
147
0.625
171
     3
172
     1
271
     2
272
     2
274
     3
278
    44
283
     0
284
     8
340
11
  0
DIMSTYLE
105
1C3
102
{ACAD_REACTORS
330
1C2
330
1CF
330
1DA
330
1E4
330
1EE
330
1F8
102
}
330
A
100
AcDbSymbolTableRecord
100
AcDbDimStyleTableRecord
  2
SLDDIMSTYLE0
 70
     0
 41
3.0
 44
0.0
 45
0.000000001
 73
     0
 74
     0
 77
     1
 78
    12
140
2.0
147
0.5
173
     1
271
     2
272
     3
284
    12
340
44
  0
ENDTAB
  0
TABLE
  2
BLOCK_RECORD
  5
1
330
0
100
AcDbSymbolTable
 70
     7
  0
BLOCK_RECORD
  5
1F
330
1
100
AcDbSymbolTableRecord
100
AcDbBlockTableRecord
  2
*Model_Space
340
22
  0
BLOCK_RECORD
  5
1B
330
1
100
AcDbSymbolTableRecord
100
AcDbBlockTableRecord
  2
*Paper_Space
340
1E
  0
BLOCK_RECORD
  5
23
330
1
100
AcDbSymbolTableRecord
100
AcDbBlockTableRecord
  2
*Paper_Space0
340
26
  0
BLOCK_RECORD
  5
1C4
330
1
100
AcDbSymbolTableRecord
100
AcDbBlockTableRecord
  2
*D1
340
0
  0
BLOCK_RECORD
  5
1D0
330
1
100
AcDbSymbolTableRecord
100
AcDbBlockTableRecord
  2
*D2
340
0
  0
BLOCK_RECORD
  5
1DB
330
1
100
AcDbSymbolTableRecord
100
AcDbBlockTableRecord
  2
*D3
340
0
  0
BLOCK_RECORD
  5
1E5
330
1
100
AcDbSymbolTableRecord
100
AcDbBlockTableRecord
  2
*D4
340
0
  0
BLOCK_RECORD
  5
1EF
330
1
100
AcDbSymbolTableRecord
100
AcDbBlockTableRecord
  2
*D5
340
0
  0
BLOCK_RECORD
  5
1F9
330
1
100
AcDbSymbolTableRecord
100
AcDbBlockTableRecord
  2
*D6
340
0
  0
ENDTAB
  0
ENDSEC
  0
SECTION
  2
BLOCKS
  0
BLOCK
  5
20
330
1F
100
AcDbEntity
  8
0
100
AcDbBlockBegin
  2
*Model_Space
 70
     0
 10
0.0
 20
0.0
 30
0.0
  3
*Model_Space
  1

  0
ENDBLK
  5
21
330
1F
100
AcDbEntity
  8
0
100
AcDbBlockEnd
  0
BLOCK
  5
1C
330
1B
100
AcDbEntity
 67
     1
  8
0
100
AcDbBlockBegin
  2
*Paper_Space
 70
     0
 10
0.0
 20
0.0
 30
0.0
  3
*Paper_Space
  1

  0
ENDBLK
  5
1D
330
1B
100
AcDbEntity
 67
     1
  8
0
100
AcDbBlockEnd
  0
BLOCK
  5
24
330
23
100
AcDbEntity
  8
0
100
AcDbBlockBegin
  2
*Paper_Space0
 70
     0
 10
0.0
 20
0.0
 30
0.0
  3
*Paper_Space0
  1

  0
ENDBLK
  5
25
330
23
100
AcDbEntity
  8
0
100
AcDbBlockEnd
  0
BLOCK
  5
1C5
330
1C4
100
AcDbEntity
  8
0
100
AcDbBlockBegin
  2
*D1
 70
     1
 10
0.0
 20
0.0
 30
0.0
  3
*D1
  1

  0
SOLID
  5
1C7
330
1C4
100
AcDbEntity
  8
VERMASSUNG
100
AcDbTrace
 10
67.5802145086
 20
159.7572039108
 30
0.0
 11
67.1302145086
 21
156.7572039108
 31
0.0
 12
68.0302145086
 22
156.7572039108
 32
0.0
 13
68.0302145086
 23
156.7572039108
 33
0.0
  0
SOLID
  5
1C8
330
1C4
100
AcDbEntity
  8
VERMASSUNG
100
AcDbTrace
 10
67.5802145086
 20
59.7572039108
 30
0.0
 11
68.0302145086
 21
62.7572039108
 31
0.0
 12
67.1302145086
 22
62.7572039108
 32
0.0
 13
67.1302145086
 23
62.7572039108
 33
0.0
  0
LINE
  5
1C9
330
1C4
100
AcDbEntity
  8
VERMASSUNG
100
AcDbLine
 10
123.3696804059
 20
159.7572039108
 30
0.0
 11
66.5802145086
 21
159.7572039108
 31
0.0
  0
LINE
  5
1CA
330
1C4
100
AcDbEntity
  8
VERMASSUNG
100
AcDbLine
 10
123.3696804059
 20
59.7572039108
 30
0.0
 11
66.5802145086
 21
59.7572039108
 31
0.0
  0
LINE
  5
1CB
330
1C4
100
AcDbEntity
  8
VERMASSUNG
100
AcDbLine
 10
67.5802145086
 20
159.7572039108
 30
0.0
 11
67.5802145086
 21
59.7572039108
 31
0.0
  0
MTEXT
  5
1CC
330
1C4
100
AcDbEntity
  8
VERMASSUNG
100
AcDbMText
 10
64.8020790196
 20
100.6211037647
 30
0.0
 40
2.0
 41
0.0
 71
     1
 72
     1
  1
HSK A 
  7
SLDTEXTSTYLE0
 11
-7.044195017643634E-15
 21
1.0
 31
0.0
 73
     1
 44
1.0
  0
MTEXT
  5
1CD
330
1C4
100
AcDbEntity
  8
VERMASSUNG
100
AcDbMText
 10
65.0020790291
 20
109.6211043086
 30
0.0
 40
2.0
 41
0.0
 71
     1
 72
     1
  1
%%c
  7
SLDTEXTSTYLE0
 11
-7.044195017643634E-15
 21
1.0
 31
0.0
 73
     1
 44
1.0
  0
MTEXT
  5
1CE
330
1C4
100
AcDbEntity
  8
VERMASSUNG
100
AcDbMText
 10
65.0020791455
 20
113.2294309587
 30
0.0
 40
2.0
 41
0.0
 71
     1
 72
     1
  1
100
  7
SLDTEXTSTYLE0
 11
-7.044195017643634E-15
 21
1.0
 31
0.0
 73
     1
 44
1.0
  0
ENDBLK
  5
1C6
330
1C4
100
AcDbEntity
  8
0
100
AcDbBlockEnd
  0
BLOCK
  5
1D1
330
1D0
100
AcDbEntity
  8
0
100
AcDbBlockBegin
  2
*D2
 70
     1
 10
0.0
 20
0.0
 30
0.0
  3
*D2
  1

  0
SOLID
  5
1D3
330
1D0
100
AcDbEntity
  8
VERMASSUNG
100
AcDbTrace
 10
232.1729615477
 20
122.2572039108
 30
0.0
 11
231.7229615477
 21
119.2572039108
 31
0.0
 12
232.6229615477
 22
119.2572039108
 32
0.0
 13
232.6229615477
 23
119.2572039108
 33
0.0
  0
SOLID
  5
1D4
330
1D0
100
AcDbEntity
  8
VERMASSUNG
100
AcDbTrace
 10
232.1729615477
 20
97.2572039108
 30
0.0
 11
232.6229615477
 21
100.2572039108
 31
0.0
 12
231.7229615477
 22
100.2572039108
 32
0.0
 13
231.7229615477
 23
100.2572039108
 33
0.0
  0
LINE
  5
1D5
330
1D0
100
AcDbEntity
  8
VERMASSUNG
100
AcDbLine
 10
222.3696804059
 20
122.2572039108
 30
0.0
 11
233.1729615477
 21
122.2572039108
 31
0.0
  0
LINE
  5
1D6
330
1D0
100
AcDbEntity
  8
VERMASSUNG
100
AcDbLine
 10
222.3696804059
 20
97.2572039108
 30
0.0
 11
233.1729615477
 21
97.2572039108
 31
0.0
  0
LINE
  5
1D7
330
1D0
100
AcDbEntity
  8
VERMASSUNG
100
AcDbLine
 10
232.1729615477
 20
122.2572039108
 30
0.0
 11
232.1729615477
 21
97.2572039108
 31
0.0
  0
MTEXT
  5
1D8
330
1D0
100
AcDbEntity
  8
VERMASSUNG
100
AcDbMText
 10
229.5948260681
 20
106.5534866843
 30
0.0
 40
2.0
 41
0.0
 71
     1
 72
     1
  1
%%c
  7
SLDTEXTSTYLE0
 11
-7.044195017643634E-15
 21
1.0
 31
0.0
 73
     1
 44
1.0
  0
MTEXT
  5
1D9
330
1D0
100
AcDbEntity
  8
VERMASSUNG
100
AcDbMText
 10
229.5948261846
 20
110.1621649075
 30
0.0
 40
2.0
 41
0.0
 71
     1
 72
     1
  1
25
  7
SLDTEXTSTYLE0
 11
-7.044195017643634E-15
 21
1.0
 31
0.0
 73
     1
 44
1.0
  0
ENDBLK
  5
1D2
330
1D0
100
AcDbEntity
  8
0
100
AcDbBlockEnd
  0
BLOCK
  5
1DC
330
1DB
100
AcDbEntity
  8
0
100
AcDbBlockBegin
  2
*D3
 70
     1
 10
0.0
 20
0.0
 30
0.0
  3
*D3
  1

  0
SOLID
  5
1DE
330
1DB
100
AcDbEntity
  8
VERMASSUNG
100
AcDbTrace
 10
72.9696804059
 20
174.5384481744
 30
0.0
 11
75.9696804059
 21
174.0884481744
 31
0.0
 12
75.9696804059
 22
174.9884481744
 32
0.0
 13
75.9696804059
 23
174.9884481744
 33
0.0
  0
SOLID
  5
1DF
330
1DB
100
AcDbEntity
  8
VERMASSUNG
100
AcDbTrace
 10
222.8696804059
 20
174.5384481744
 30
0.0
 11
219.8696804059
 21
174.9884481744
 31
0.0
 12
219.8696804059
 22
174.0884481744
 32
0.0
 13
219.8696804059
 23
174.0884481744
 33
0.0
  0
LINE
  5
1E0
330
1DB
100
AcDbEntity
  8
VERMASSUNG
100
AcDbLine
 10
72.9696804059
 20
140.2598736533
 30
0.0
 11
72.9696804059
 21
175.5384481744
 31
0.0
  0
LINE
  5
1E1
330
1DB
100
AcDbEntity
  8
VERMASSUNG
100
AcDbLine
 10
222.8696804059
 20
131.428776786
 30
0.0
 11
222.8696804059
 21
175.5384481744
 31
0.0
  0
LINE
  5
1E2
330
1DB
100
AcDbEntity
  8
VERMASSUNG
100
AcDbLine
 10
72.9696804059
 20
174.5384481744
 30
0.0
 11
222.8696804059
 21
174.5384481744
 31
0.0
  0
MTEXT
  5
1E3
330
1DB
100
AcDbEntity
  8
VERMASSUNG
100
AcDbMText
 10
144.9201841979
 20
177.1165835376
 30
0.0
 40
2.0
 41
0.0
 71
     1
 72
     1
  1
149.9
  7
SLDTEXTSTYLE0
 73
     1
 44
1.0
  0
ENDBLK
  5
1DD
330
1DB
100
AcDbEntity
  8
0
100
AcDbBlockEnd
  0
BLOCK
  5
1E6
330
1E5
100
AcDbEntity
  8
0
100
AcDbBlockBegin
  2
*D4
 70
     1
 10
0.0
 20
0.0
 30
0.0
  3
*D4
  1

  0
SOLID
  5
1E8
330
1E5
100
AcDbEntity
  8
VERMASSUNG
100
AcDbTrace
 10
122.8696804059
 20
168.5384481744
 30
0.0
 11
125.8696804059
 21
168.0884481744
 31
0.0
 12
125.8696804059
 22
168.9884481744
 32
0.0
 13
125.8696804059
 23
168.9884481744
 33
0.0
  0
SOLID
  5
1E9
330
1E5
100
AcDbEntity
  8
VERMASSUNG
100
AcDbTrace
 10
222.8696804059
 20
168.5384481744
 30
0.0
 11
219.8696804059
 21
168.9884481744
 31
0.0
 12
219.8696804059
 22
168.0884481744
 32
0.0
 13
219.8696804059
 23
168.0884481744
 33
0.0
  0
LINE
  5
1EA
330
1E5
100
AcDbEntity
  8
VERMASSUNG
100
AcDbLine
 10
122.8696804059
 20
159.2572039108
 30
0.0
 11
122.8696804059
 21
169.5384481744
 31
0.0
  0
LINE
  5
1EB
330
1E5
100
AcDbEntity
  8
VERMASSUNG
100
AcDbLine
 10
222.8696804059
 20
131.428776786
 30
0.0
 11
222.8696804059
 21
169.5384481744
 31
0.0
  0
LINE
  5
1EC
330
1E5
100
AcDbEntity
  8
VERMASSUNG
100
AcDbLine
 10
122.8696804059
 20
168.5384481744
 30
0.0
 11
222.8696804059
 21
168.5384481744
 31
0.0
  0
MTEXT
  5
1ED
330
1E5
100
AcDbEntity
  8
VERMASSUNG
100
AcDbMText
 10
170.9701928653
 20
171.1165835376
 30
0.0
 40
2.0
 41
0.0
 71
     1
 72
     1
  1
100
  7
SLDTEXTSTYLE0
 73
     1
 44
1.0
  0
ENDBLK
  5
1E7
330
1E5
100
AcDbEntity
  8
0
100
AcDbBlockEnd
  0
BLOCK
  5
1F0
330
1EF
100
AcDbEntity
  8
0
100
AcDbBlockBegin
  2
*D5
 70
     1
 10
0.0
 20
0.0
 30
0.0
  3
*D5
  1

  0
SOLID
  5
1F2
330
1EF
100
AcDbEntity
  8
VERMASSUNG
100
AcDbTrace
 10
151.8196804059
 20
162.5384481744
 30
0.0
 11
154.8196804059
 21
162.0884481744
 31
0.0
 12
154.8196804059
 22
162.9884481744
 32
0.0
 13
154.8196804059
 23
162.9884481744
 33
0.0
  0
SOLID
  5
1F3
330
1EF
100
AcDbEntity
  8
VERMASSUNG
100
AcDbTrace
 10
222.8696804059
 20
162.5384481744
 30
0.0
 11
219.8696804059
 21
162.9884481744
 31
0.0
 12
219.8696804059
 22
162.0884481744
 32
0.0
 13
219.8696804059
 23
162.0884481744
 33
0.0
  0
LINE
  5
1F4
330
1EF
100
AcDbEntity
  8
VERMASSUNG
100
AcDbLine
 10
151.8196804059
 20
157.7259437316
 30
0.0
 11
151.8196804059
 21
163.5384481744
 31
0.0
  0
LINE
  5
1F5
330
1EF
100
AcDbEntity
  8
VERMASSUNG
100
AcDbLine
 10
222.8696804059
 20
131.428776786
 30
0.0
 11
222.8696804059
 21
163.5384481744
 31
0.0
  0
LINE
  5
1F6
330
1EF
100
AcDbEntity
  8
VERMASSUNG
100
AcDbLine
 10
151.8196804059
 20
162.5384481744
 30
0.0
 11
222.8696804059
 21
162.5384481744
 31
0.0
  0
MTEXT
  5
1F7
330
1EF
100
AcDbEntity
  8
VERMASSUNG
100
AcDbMText
 10
184.4449740137
 20
165.1165835376
 30
0.0
 40
2.0
 41
0.0
 71
     1
 72
     1
  1
71.05
  7
SLDTEXTSTYLE0
 73
     1
 44
1.0
  0
ENDBLK
  5
1F1
330
1EF
100
AcDbEntity
  8
0
100
AcDbBlockEnd
  0
BLOCK
  5
1FA
330
1F9
100
AcDbEntity
  8
0
100
AcDbBlockBegin
  2
*D6
 70
     1
 10
0.0
 20
0.0
 30
0.0
  3
*D6
  1

  0
SOLID
  5
1FC
330
1F9
100
AcDbEntity
  8
VERMASSUNG
100
AcDbTrace
 10
238.1729615477
 20
142.2572039108
 30
0.0
 11
237.7229615477
 21
139.2572039108
 31
0.0
 12
238.6229615477
 22
139.2572039108
 32
0.0
 13
238.6229615477
 23
139.2572039108
 33
0.0
  0
SOLID
  5
1FD
330
1F9
100
AcDbEntity
  8
VERMASSUNG
100
AcDbTrace
 10
238.1729615477
 20
77.2572039108
 30
0.0
 11
238.6229615477
 21
80.2572039108
 31
0.0
 12
237.7229615477
 22
80.2572039108
 32
0.0
 13
237.7229615477
 23
80.2572039108
 33
0.0
  0
LINE
  5
1FE
330
1F9
100
AcDbEntity
  8
VERMASSUNG
100
AcDbLine
 10
212.0412532812
 20
142.2572039108
 30
0.0
 11
239.1729615477
 21
142.2572039108
 31
0.0
  0
LINE
  5
1FF
330
1F9
100
AcDbEntity
  8
VERMASSUNG
100
AcDbLine
 10
212.0412532812
 20
77.2572039108
 30
0.0
 11
239.1729615477
 21
77.2572039108
 31
0.0
  0
LINE
  5
200
330
1F9
100
AcDbEntity
  8
VERMASSUNG
100
AcDbLine
 10
238.1729615477
 20
142.2572039108
 30
0.0
 11
238.1729615477
 21
77.2572039108
 31
0.0
  0
MTEXT
  5
201
330
1F9
100
AcDbEntity
  8
VERMASSUNG
100
AcDbMText
 10
235.5948260681
 20
106.5534866843
 30
0.0
 40
2.0
 41
0.0
 71
     1
 72
     1
  1
%%c
  7
SLDTEXTSTYLE0
 11
-7.044195017643634E-15
 21
1.0
 31
0.0
 73
     1
 44
1.0
  0
MTEXT
  5
202
330
1F9
100
AcDbEntity
  8
VERMASSUNG
100
AcDbMText
 10
235.5948261846
 20
110.1621649075
 30
0.0
 40
2.0
 41
0.0
 71
     1
 72
     1
  1
65
  7
SLDTEXTSTYLE0
 11
-7.044195017643634E-15
 21
1.0
 31
0.0
 73
     1
 44
1.0
  0
ENDBLK
  5
1FB
330
1F9
100
AcDbEntity
  8
0
100
AcDbBlockEnd
  0
ENDSEC
  0
SECTION
  2
ENTITIES
  0
MTEXT
  5
45
330
1F
100
AcDbEntity
  8
KOPF_DÜNN
100
AcDbMText
 10
13.8892156294
 20
23.8442973028
 30
0.0
 40
3.0
 41
0.0
 71
     1
 72
     1
  1
HA0.W25.K21.100
  7
SLDTEXTSTYLE0
 73
     1
 44
1.0
  0
MTEXT
  5
46
330
1F
100
AcDbEntity
  8
VERMASSUNG
100
AcDbMText
 10
13.9329988022
 20
28.8834360957
 30
0.0
 40
3.0
 41
0.0
 71
     1
 72
     1
  1
Flächenspannfutter_End mill adapter Weldon ø25
  7
SLDTEXTSTYLE0
 73
     1
 44
1.0
  0
MTEXT
  5
47
330
1F
100
AcDbEntity
  8
VERMASSUNG
100
AcDbMText
 10
98.8601118557
 20
13.8365368179
 30
0.0
 40
2.0
 41
0.0
 71
     1
 72
     1
  1
Datum: 10.10.2006
  7
SLDTEXTSTYLE0
 73
     1
 44
1.0
  0
MTEXT
  5
49
330
1F
100
AcDbEntity
  8
VERMASSUNG
100
AcDbMText
 10
13.933048693
 20
18.0482802738
 30
0.0
 40
2.0
 41
0.0
 71
     1
 72
     1
  1
DIN 69 893 HSK A 100
  7
SLDTEXTSTYLE1
 73
     1
 44
1.0
  0
MTEXT
  5
4A
330
1F
100
AcDbEntity
  8
VERMASSUNG
100
AcDbMText
 10
13.9808475933
 20
13.9090973692
 30
0.0
 40
2.0
 41
0.0
 71
     1
 72
     1
  1
Gewicht: 3474g
  7
SLDTEXTSTYLE0
 73
     1
 44
1.0
  0
LINE
  5
4B
330
1F
100
AcDbEntity
  8
0
  6
Continuous
 62
     7
370
    15
100
AcDbLine
 10
222.8696818961
 20
95.2635373215
 30
0.0
 11
222.9557510031
 21
95.4229164164
 31
0.0
  0
LINE
  5
4C
330
1F
100
AcDbEntity
  8
0
  6
Continuous
 62
     7
370
    15
100
AcDbLine
 10
222.8772293342
 20
124.093673494
 30
0.0
 11
222.8696818961
 21
124.1076535772
 31
0.0
  0
LINE
  5
4D
330
1F
100
AcDbEntity
  8
0
  6
Continuous
 62
     7
370
    15
100
AcDbLine
 10
123.3696804297
 20
59.7572031657
 30
0.0
 11
127.8196803791
 21
59.7572031657
 31
0.0
  0
LINE
  5
4E
330
1F
100
AcDbEntity
  8
0
  6
Continuous
 62
     7
370
    15
100
AcDbLine
 10
127.8537532812
 20
159.7572046558
 30
0.0
 11
123.3696804297
 21
159.7572046558
 31
0.0
  0
ARC
  5
4F
330
1F
100
AcDbEntity
  8
0
  6
Continuous
 62
     7
370
    15
100
AcDbCircle
 10
123.3696804059
 20
60.2572039108
 30
0.0
 40
0.5
100
AcDbArc
 50
180.0
 51
270.0
  0
ARC
  5
50
330
1F
100
AcDbEntity
  8
0
  6
Continuous
 62
     7
370
    15
100
AcDbCircle
 10
123.3696804059
 20
159.2572039108
 30
0.0
 40
0.5
100
AcDbArc
 50
90.0
 51
180.0
  0
ARC
  5
51
330
1F
100
AcDbEntity
  8
0
  6
Continuous
 62
     7
370
    15
100
AcDbCircle
 10
121.9727434875
 20
71.1287185863
 30
0.0
 40
0.9962338214386921
100
AcDbArc
 50
25.7988228126
 51
90.0
  0
ARC
  5
52
330
1F
100
AcDbEntity
  8
0
  6
Continuous
 62
     7
370
    15
100
AcDbCircle
 10
121.9727434875
 20
148.3856892352
 30
0.0
 40
0.9962338214386932
100
AcDbArc
 50
270.0
 51
334.2011771874
  0
LINE
  5
53
330
1F
100
AcDbEntity
  8
0
  6
Continuous
 62
     7
370
    15
100
AcDbLine
 10
120.3696804618
 20
71.8749541084
 30
0.0
 11
121.175526528
 21
72.0908793847
 31
0.0
  0
LINE
  5
54
330
1F
100
AcDbEntity
  8
0
  6
Continuous
 62
     7
370
    15
100
AcDbLine
 10
121.175526528
 20
147.4235284368
 30
0.0
 11
120.3696804618
 21
147.6394537131
 31
0.0
  0
LINE
  5
55
330
1F
100
AcDbEntity
  8
0
  6
Continuous
 62
     7
370
    15
100
AcDbLine
 10
101.3890008939
 20
146.6885212104
 30
0.0
 11
83.0696809603
 21
145.7707177143
 31
0.0
  0
LINE
  5
56
330
1F
100
AcDbEntity
  8
0
  6
Continuous
 62
     7
370
    15
100
AcDbLine
 10
120.3696804618
 20
147.6394537131
 30
0.0
 11
114.301641242
 21
147.3354439477
 31
0.0
  0
LINE
  5
57
330
1F
100
AcDbEntity
  8
0
  6
Continuous
 62
     7
370
    15
100
AcDbLine
 10
114.3017641766
 20
72.1789564232
 30
0.0
 11
120.3696804618
 21
71.8749541084
 31
0.0
  0
LINE
  5
58
330
1F
100
AcDbEntity
  8
0
  6
Continuous
 62
     7
370
    15
100
AcDbLine
 10
88.0696799172
 20
73.4931904118
 30
0.0
 11
101.3896323306
 21
72.8258568088
 31
0.0
  0
ARC
  5
59
330
1F
100
AcDbEntity
  8
0
  6
Continuous
 62
     7
370
    15
100
AcDbCircle
 10
121.4343456054
 20
71.1249524078
 30
0.0
 40
0.9999999999999993
100
AcDbArc
 50
90.0
 51
105.0
  0
ARC
  5
5A
330
1F
100
AcDbEntity
  8
0
  6
Continuous
 62
     7
370
    15
100
AcDbCircle
 10
121.4343456054
 20
148.3894554138
 30
0.0
 40
1.0
100
AcDbArc
 50
255.0
 51
270.0
  0
LINE
  5
5B
330
1F
100
AcDbEntity
  8
0
  6
Continuous
 62
     7
370
    15
100
AcDbLine
 10
121.4343456117
 20
72.1249508898
 30
0.0
 11
121.9727434831
 21
72.1249508898
 31
0.0
  0
LINE
  5
5C
330
1F
100
AcDbEntity
  8
0
  6
Continuous
 62
     7
370
    15
100
AcDbLine
 10
121.9727434831
 20
147.3894569318
 30
0.0
 11
121.4343456117
 21
147.3894569318
 31
0.0
  0
ARC
  5
5D
330
1F
100
AcDbEntity
  8
0
  6
Continuous
 62
     7
370
    15
100
AcDbCircle
 10
152.8196804059
 20
76.2572039108
 30
0.0
 40
1.0
100
AcDbArc
 50
90.0
 51
180.0
  0
ARC
  5
5E
330
1F
100
AcDbEntity
  8
0
  6
Continuous
 62
     7
370
    15
100
AcDbCircle
 10
152.8196804059
 20
143.2572039108
 30
0.0
 40
1.0
100
AcDbArc
 50
180.0
 51
270.0
  0
LINE
  5
5F
330
1F
100
AcDbEntity
  8
0
  6
Continuous
 62
     7
370
    15
100
AcDbLine
 10
160.785137446
 20
77.2572051029
 30
0.0
 11
212.0412539256
 21
77.2572051029
 31
0.0
  0
LINE
  5
60
330
1F
100
AcDbEntity
  8
0
  6
Continuous
 62
     7
370
    15
100
AcDbLine
 10
152.8196807516
 20
77.2572051029
 30
0.0
 11
153.8636803193
 21
77.2572051029
 31
0.0
  0
LINE
  5
61
330
1F
100
AcDbEntity
  8
0
  6
Continuous
 62
     7
370
    15
100
AcDbLine
 10
153.8374598635
 20
142.2572027187
 30
0.0
 11
152.8196807516
 21
142.2572027187
 31
0.0
  0
LINE
  5
62
330
1F
100
AcDbEntity
  8
0
  6
Continuous
 62
     7
370
    15
100
AcDbLine
 10
212.0412539256
 20
142.2572027187
 30
0.0
 11
160.7757832421
 21
142.2572027187
 31
0.0
  0
ARC
  5
63
330
1F
100
AcDbEntity
  8
0
  6
Continuous
 62
     7
370
    15
100
AcDbCircle
 10
212.0412532812
 20
79.2572039108
 30
0.0
 40
2.0
100
AcDbArc
 50
270.0
 51
315.0
  0
ARC
  5
64
330
1F
100
AcDbEntity
  8
0
  6
Continuous
 62
     7
370
    15
100
AcDbCircle
 10
212.0412532812
 20
140.2572039108
 30
0.0
 40
2.0
100
AcDbArc
 50
45.0
 51
90.0
  0
LINE
  5
65
330
1F
100
AcDbEntity
  8
0
  6
Continuous
 62
     7
370
    15
100
AcDbLine
 10
213.4554635299
 20
77.8429921011
 30
0.0
 11
222.2838948978
 21
86.6714178811
 31
0.0
  0
LINE
  5
66
330
1F
100
AcDbEntity
  8
0
  6
Continuous
 62
     7
370
    15
100
AcDbLine
 10
222.2838948978
 20
132.8429899405
 30
0.0
 11
213.4554635299
 21
141.6714157204
 31
0.0
  0
ARC
  5
67
330
1F
100
AcDbEntity
  8
0
  6
Continuous
 62
     7
370
    15
100
AcDbCircle
 10
220.8696804059
 20
88.0856310355
 30
0.0
 40
1.999999999999972
100
AcDbArc
 50
315.0
 51
0.0
  0
ARC
  5
68
330
1F
100
AcDbEntity
  8
0
  6
Continuous
 62
     7
370
    15
100
AcDbCircle
 10
220.8696804059
 20
131.428776786
 30
0.0
 40
1.999999999999972
100
AcDbArc
 50
0.0
 51
45.0
  0
LINE
  5
69
330
1F
100
AcDbEntity
  8
0
  6
Continuous
 62
     7
370
    15
100
AcDbLine
 10
74.6196794821
 20
77.5072056095
 30
0.0
 11
86.1696812821
 21
77.5072056095
 31
0.0
  0
ARC
  5
6A
330
1F
100
AcDbEntity
  8
0
  6
Continuous
 62
     7
370
    15
100
AcDbCircle
 10
86.1696804059
 20
75.6072039108
 30
0.0
 40
1.900000000000007
100
AcDbArc
 50
35.6630613694
 51
90.0
  0
ARC
  5
6B
330
1F
100
AcDbEntity
  8
0
  6
Continuous
 62
     7
370
    15
100
AcDbCircle
 10
81.1696804059
 20
143.9072039108
 30
0.0
 40
1.900000000000006
100
AcDbArc
 50
270.0
 51
310.9212832533
  0
LINE
  5
6C
330
1F
100
AcDbEntity
  8
0
  6
Continuous
 62
     7
370
    15
100
AcDbLine
 10
74.6196794821
 20
142.007202212
 30
0.0
 11
73.0203639282
 21
140.4078885208
 31
0.0
  0
LINE
  5
6D
330
1F
100
AcDbEntity
  8
0
  6
Continuous
 62
     7
370
    15
100
AcDbLine
 10
73.0212021185
 20
79.1056829731
 30
0.0
 11
74.6196794821
 21
77.5072056095
 31
0.0
  0
LINE
  5
6E
330
1F
100
AcDbEntity
  8
0
  6
Continuous
 62
     7
370
    15
100
AcDbLine
 10
81.1696785999
 20
142.007202212
 30
0.0
 11
74.6196794821
 21
142.007202212
 31
0.0
  0
ARC
  5
6F
330
1F
100
AcDbEntity
  8
0
  6
Continuous
 62
     7
370
    15
100
AcDbCircle
 10
213.7516795882
 20
96.0799380976
 30
0.0
 40
9.2274919723605
100
AcDbArc
 50
355.9169348748
 51
3.3206744095
  0
ARC
  5
70
330
1F
100
AcDbEntity
  8
0
  6
Continuous
 62
     7
370
    15
100
AcDbCircle
 10
199.2620682675
 20
96.5181875649
 30
0.0
 40
23.70180556817795
100
AcDbArc
 50
0.2326622586
 51
5.1097272049
  0
ARC
  5
71
330
1F
100
AcDbEntity
  8
0
  6
Continuous
 62
     7
370
    15
100
AcDbCircle
 10
208.5744281545
 20
123.1927781592
 30
0.0
 40
14.3230698362347
100
AcDbArc
 50
356.4286043673
 51
3.5713956327
  0
LINE
  5
72
330
1F
100
AcDbEntity
  8
0
  6
Continuous
 62
     7
370
    15
100
AcDbLine
 10
193.8205759538
 20
111.3511822878
 30
0.0
 11
197.9755561365
 21
115.3598589118
 31
0.0
  0
LINE
  5
73
330
1F
100
AcDbEntity
  8
0
  6
Continuous
 62
     7
370
    15
100
AcDbLine
 10
195.2146987928
 20
105.748527054
 30
0.0
 11
200.763809265
 21
104.1545489098
 31
0.0
  0
LINE
  5
74
330
1F
100
AcDbEntity
  8
0
  6
Continuous
 62
     7
370
    15
100
AcDbLine
 10
204.918781997
 20
108.1632255337
 30
0.0
 11
200.763809265
 21
104.1545489098
 31
0.0
  0
LINE
  5
75
330
1F
100
AcDbEntity
  8
0
  6
Continuous
 62
     7
370
    15
100
AcDbLine
 10
203.5246591581
 20
113.7658807675
 30
0.0
 11
204.918781997
 21
108.1632255337
 31
0.0
  0
LINE
  5
76
330
1F
100
AcDbEntity
  8
0
  6
Continuous
 62
     7
370
    15
100
AcDbLine
 10
203.5246591581
 20
113.7658807675
 30
0.0
 11
197.9755561365
 21
115.3598589118
 31
0.0
  0
LINE
  5
77
330
1F
100
AcDbEntity
  8
0
  6
Continuous
 62
     7
370
    15
100
AcDbLine
 10
193.8205759538
 20
111.3511822878
 30
0.0
 11
195.2146987928
 21
105.748527054
 31
0.0
  0
ARC
  5
78
330
1F
100
AcDbEntity
  8
0
  6
Continuous
 62
     7
370
    15
100
AcDbCircle
 10
199.3696804059
 20
109.7572039108
 30
0.0
 40
5.000000000000014
100
AcDbArc
 50
253.9733071815
 51
313.9733071815
  0
ARC
  5
79
330
1F
100
AcDbEntity
  8
0
  6
Continuous
 62
     7
370
    15
100
AcDbCircle
 10
199.3696804059
 20
109.7572039108
 30
0.0
 40
5.000000000000014
100
AcDbArc
 50
73.9733071815
 51
133.9733071815
  0
ARC
  5
7A
330
1F
100
AcDbEntity
  8
0
  6
Continuous
 62
     7
370
    15
100
AcDbCircle
 10
199.3696804059
 20
109.7572039108
 30
0.0
 40
5.00000000000002
100
AcDbArc
 50
13.9733071815
 51
73.9733071815
  0
ARC
  5
7B
330
1F
100
AcDbEntity
  8
0
  6
Continuous
 62
     7
370
    15
100
AcDbCircle
 10
199.3696804059
 20
109.7572039108
 30
0.0
 40
5.00000000000002
100
AcDbArc
 50
313.9733071815
 51
13.9733071815
  0
ARC
  5
7C
330
1F
100
AcDbEntity
  8
0
  6
Continuous
 62
     7
370
    15
100
AcDbCircle
 10
199.3696804059
 20
109.7572039108
 30
0.0
 40
4.999999999999992
100
AcDbArc
 50
193.9733071815
 51
253.9733071815
  0
ARC
  5
7D
330
1F
100
AcDbEntity
  8
0
  6
Continuous
 62
     7
370
    15
100
AcDbCircle
 10
199.3696804059
 20
109.7572039108
 30
0.0
 40
5.000000000000014
100
AcDbArc
 50
133.9733071815
 51
193.9733071815
  0
LINE
  5
7E
330
1F
100
AcDbEntity
  8
0
  6
Continuous
 62
     7
370
    15
100
AcDbLine
 10
177.1197903467
 20
114.8336430307
 30
0.0
 11
180.1410603834
 21
109.9137594102
 31
0.0
  0
LINE
  5
7F
330
1F
100
AcDbEntity
  8
0
  6
Continuous
 62
     7
370
    15
100
AcDbLine
 10
177.1197903467
 20
114.8336430307
 30
0.0
 11
171.3484104288
 21
114.6770877059
 31
0.0
  0
LINE
  5
80
330
1F
100
AcDbEntity
  8
0
  6
Continuous
 62
     7
370
    15
100
AcDbLine
 10
171.3484104288
 20
114.6770877059
 30
0.0
 11
168.5983005477
 21
109.6006484114
 31
0.0
  0
LINE
  5
81
330
1F
100
AcDbEntity
  8
0
  6
Continuous
 62
     7
370
    15
100
AcDbLine
 10
177.3909505022
 20
104.8373201157
 30
0.0
 11
171.6195705844
 21
104.6807647909
 31
0.0
  0
LINE
  5
82
330
1F
100
AcDbEntity
  8
0
  6
Continuous
 62
     7
370
    15
100
AcDbLine
 10
177.3909505022
 20
104.8373201157
 30
0.0
 11
180.1410603834
 21
109.9137594102
 31
0.0
  0
LWPOLYLINE
  5
83
330
1F
100
AcDbEntity
  8
0
  6
Continuous
 62
     7
370
    15
100
AcDbPolyline
 90
        3
 70
   128
 43
0.0
 10
182.3667387975
 20
109.9741335748
 10
182.2283815158
 20
111.2541427829
 10
181.9453339589
 20
112.3280984576
  0
LWPOLYLINE
  5
84
330
1F
100
AcDbEntity
  8
0
  6
Continuous
 62
     7
370
    15
100
AcDbPolyline
 90
        3
 70
   128
 43
0.0
 10
173.4940062774
 20
101.8052737455
 10
174.2644261135
 20
101.7578964348
 10
175.3231945945
 20
101.8142321373
  0
LINE
  5
85
330
1F
100
AcDbEntity
  8
0
  6
Continuous
 62
     7
370
    15
100
AcDbLine
 10
182.3682475401
 20
109.6058750082
 30
0.0
 11
182.3667387975
 21
109.9741335748
 31
0.0
  0
LINE
  5
86
330
1F
100
AcDbEntity
  8
0
  6
Continuous
 62
     7
370
    15
100
AcDbLine
 10
171.6195705844
 20
104.6807647909
 30
0.0
 11
168.5983005477
 21
109.6006484114
 31
0.0
  0
ARC
  5
87
330
1F
100
AcDbEntity
  8
0
  6
Continuous
 62
     7
370
    15
100
AcDbCircle
 10
174.3696804059
 20
109.7572039108
 30
0.0
 40
5.000000000000013
100
AcDbArc
 50
151.5538347011
 51
211.5538347011
  0
ARC
  5
88
330
1F
100
AcDbEntity
  8
0
  6
Continuous
 62
     7
370
    15
100
AcDbCircle
 10
174.3696804059
 20
109.7572039108
 30
0.0
 40
5.000000000000002
100
AcDbArc
 50
271.5538347011
 51
331.5538347011
  0
ARC
  5
89
330
1F
100
AcDbEntity
  8
0
  6
Continuous
 62
     7
370
    15
100
AcDbCircle
 10
174.3696804059
 20
109.7572039108
 30
0.0
 40
4.999999999999982
100
AcDbArc
 50
331.5538347011
 51
31.5538347011
  0
ARC
  5
8A
330
1F
100
AcDbEntity
  8
0
  6
Continuous
 62
     7
370
    15
100
AcDbCircle
 10
174.3696804059
 20
109.7572039108
 30
0.0
 40
5.000000000000002
100
AcDbArc
 50
211.5538347011
 51
271.5538347011
  0
ARC
  5
8B
330
1F
100
AcDbEntity
  8
0
  6
Continuous
 62
     7
370
    15
100
AcDbCircle
 10
174.3696804059
 20
109.7572039108
 30
0.0
 40
5.000000000000013
100
AcDbArc
 50
91.5538347011
 51
151.5538347011
  0
ARC
  5
8C
330
1F
100
AcDbEntity
  8
0
  6
Continuous
 62
     7
370
    15
100
AcDbCircle
 10
174.3696804059
 20
109.7572039108
 30
0.0
 40
5.000000000000003
100
AcDbArc
 50
31.5538347011
 51
91.5538347011
  0
LINE
  5
8D
330
1F
100
AcDbEntity
  8
0
  6
Continuous
 62
     7
370
    15
100
AcDbLine
 10
146.1317099197
 20
60.982209001
 30
0.0
 11
146.1317099197
 21
141.1072056035
 31
0.0
  0
SPLINE
  5
8E
330
1F
100
AcDbEntity
  8
0
  6
Continuous
 62
     7
370
    15
100
AcDbSpline
210
0.0
220
0.0
230
1.0
 70
     8
 71
     3
 72
     8
 73
     4
 74
     0
 42
0.00000001
 43
0.00000001
 40
0.0
 40
0.0
 40
0.0
 40
0.0
 40
1.0
 40
1.0
 40
1.0
 40
1.0
 10
146.1317094268602
 20
60.98221031774625
 30
0.0
 10
145.68060469746
 20
61.78317024956616
 30
0.0
 10
145.2299068702166
 20
62.58436026112682
 30
0.0
 10
144.7796804059388
 20
63.38581562375159
 30
0.0
  0
LINE
  5
8F
330
1F
100
AcDbEntity
  8
0
  6
Continuous
 62
     7
370
    15
100
AcDbLine
 10
144.7796809984
 20
63.3858147304
 30
0.0
 11
144.7796809984
 21
141.1072056035
 31
0.0
  0
SPLINE
  5
90
330
1F
100
AcDbEntity
  8
0
  6
Continuous
 62
     7
370
    15
100
AcDbSpline
210
0.0
220
0.0
230
1.0
 70
    24
 71
     3
 72
     8
 73
     4
 74
     0
 42
0.00000001
 43
0.00000001
 40
0.0
 40
0.0
 40
0.0
 40
0.0
 40
1.0
 40
1.0
 40
1.0
 40
1.0
 10
144.7796804059388
 20
141.107203910775
 30
0.0
 10
145.2238932882928
 20
141.107203910775
 30
0.0
 10
145.674907854532
 20
141.107203910775
 30
0.0
 10
146.1317094268602
 20
141.107203910775
 30
0.0
  0
LINE
  5
91
330
1F
100
AcDbEntity
  8
0
  6
Continuous
 62
     7
370
    15
100
AcDbLine
 10
127.8196803791
 20
141.1072056035
 30
0.0
 11
139.6076518608
 21
141.1072056035
 31
0.0
  0
LINE
  5
92
330
1F
100
AcDbEntity
  8
0
  6
Continuous
 62
     7
370
    15
100
AcDbLine
 10
139.6076518608
 20
60.982209001
 30
0.0
 11
139.6076518608
 21
141.1072056035
 31
0.0
  0
LINE
  5
93
330
1F
100
AcDbEntity
  8
0
  6
Continuous
 62
     7
370
    15
100
AcDbLine
 10
139.6076518608
 20
60.982209001
 30
0.0
 11
137.8196801556
 21
60.982209001
 31
0.0
  0
SPLINE
  5
94
330
1F
100
AcDbEntity
  8
0
  6
Continuous
 62
     7
370
    15
100
AcDbSpline
210
0.0
220
0.0
230
1.0
 70
     8
 71
     3
 72
    30
 73
    26
 74
     0
 42
0.00000001
 43
0.00000001
 40
0.0
 40
0.0
 40
0.0
 40
0.0
 40
0.1250000000000002
 40
0.1250000000000002
 40
0.1875000000000003
 40
0.1875000000000003
 40
0.2500000000000004
 40
0.2500000000000004
 40
0.3750000000000001
 40
0.3750000000000001
 40
0.4374999999999998
 40
0.4374999999999998
 40
0.4999999999999996
 40
0.4999999999999996
 40
0.6249999999999996
 40
0.6249999999999996
 40
0.6874999999999997
 40
0.6874999999999997
 40
0.7499999999999997
 40
0.7499999999999997
 40
0.8124999999999998
 40
0.8124999999999998
 40
0.8749999999999999
 40
0.8749999999999999
 40
1.0
 40
1.0
 40
1.0
 40
1.0
 10
137.8196804059388
 20
60.98221031774625
 30
0.0
 10
137.1569357120938
 20
60.98221031774626
 30
0.0
 10
136.5056798529781
 20
60.96737024115744
 30
0.0
 10
135.5452293147198
 20
60.92500067692782
 30
0.0
 10
135.2278378714868
 20
60.90752257414865
 30
0.0
 10
134.598674369932
 20
60.86619428759634
 30
0.0
 10
134.2865261834903
 20
60.84226901413864
 30
0.0
 10
133.379218881642
 20
60.76346249767173
 30
0.0
 10
132.8057939240007
 20
60.70115647769527
 30
0.0
 10
131.9919170544261
 20
60.59802715745591
 30
0.0
 10
131.7271108578562
 20
60.5618432384094
 30
0.0
 10
131.2202034470419
 20
60.48804845420889
 30
0.0
 10
130.9788092956884
 20
60.45057459543725
 30
0.0
 10
130.289667823556
 20
60.33786265209751
 30
0.0
 10
129.8766130086918
 20
60.26232655462373
 30
0.0
 10
129.3284581893168
 20
60.15393329760624
 30
0.0
 10
129.1589955819712
 20
60.11886106594297
 30
0.0
 10
128.8509783339558
 20
60.05262560534313
 30
0.0
 10
128.7115983133475
 20
60.02129890858841
 30
0.0
 10
128.4618128007207
 20
59.96289013700747
 30
0.0
 10
128.3514066880668
 20
59.93580690182462
 30
0.0
 10
128.1601488344291
 20
59.88654714721104
 30
0.0
 10
128.0790293161448
 20
59.86428516740339
 30
0.0
 10
127.8848823960363
 20
59.80671826023512
 30
0.0
 10
127.8196804059388
 20
59.78045865544912
 30
0.0
 10
127.8196804059388
 20
59.7672049109751
 30
0.0
  0
LINE
  5
95
330
1F
100
AcDbEntity
  8
0
  6
Continuous
 62
     7
370
    15
100
AcDbLine
 10
127.8196803791
 20
59.7672055702
 30
0.0
 11
127.8196803791
 21
59.7572031657
 31
0.0
  0
SPLINE
  5
96
330
1F
100
AcDbEntity
  8
0
  6
Continuous
 62
     7
370
    15
100
AcDbSpline
210
0.0
220
0.0
230
1.0
 70
     8
 71
     3
 72
    17
 73
    13
 74
     0
 42
0.00000001
 43
0.00000001
 40
0.0
 40
0.0
 40
0.0
 40
0.0
 40
0.1043843958185158
 40
0.2118345569819801
 40
0.3162081801235555
 40
0.4235375330682647
 40
0.5292275935501746
 40
0.6379275752951962
 40
0.7444714855043735
 40
0.8541836194561564
 40
0.959308052615968
 40
1.0
 40
1.0
 40
1.0
 40
1.0
 10
137.8196801555993
 20
158.7469990591477
 30
0.0
 10
137.2717416150857
 20
158.7523664994805
 30
0.0
 10
136.1597716020114
 20
158.7632590216445
 30
0.0
 10
134.5469162694889
 20
158.8484412054624
 30
0.0
 10
133.0134031187511
 20
158.974811708794
 30
0.0
 10
131.6223822303769
 20
159.1317155803029
 30
0.0
 10
130.3868651140788
 20
159.3034109777385
 30
0.0
 10
129.3635099682224
 20
159.4687558319485
 30
0.0
 10
128.5631672953634
 20
159.6124601297806
 30
0.0
 10
128.0528357426034
 20
159.7106241257124
 30
0.0
 10
127.812926984144
 20
159.7585454401852
 30
0.0
 10
127.8448458959134
 20
159.7521789321714
 30
0.0
 10
127.8537532811703
 20
159.7504022757481
 30
0.0
  0
LINE
  5
97
330
1F
100
AcDbEntity
  8
0
  6
Continuous
 62
     7
370
    15
100
AcDbLine
 10
139.6076518608
 20
158.7469990591
 30
0.0
 11
137.8196801556
 21
158.7469990591
 31
0.0
  0
LINE
  5
98
330
1F
100
AcDbEntity
  8
0
  6
Continuous
 62
     7
370
    15
100
AcDbLine
 10
139.6076518608
 20
148.7081649939
 30
0.0
 11
139.6076518608
 21
158.7469990591
 31
0.0
  0
LINE
  5
99
330
1F
100
AcDbEntity
  8
0
  6
Continuous
 62
     7
370
    15
100
AcDbLine
 10
137.5276471985
 20
148.7081649939
 30
0.0
 11
139.6076518608
 21
148.7081649939
 31
0.0
  0
SPLINE
  5
9A
330
1F
100
AcDbEntity
  8
0
  6
Continuous
 62
     7
370
    15
100
AcDbSpline
210
0.0
220
0.0
230
1.0
 70
     8
 71
     3
 72
    22
 73
    18
 74
     0
 42
0.00000001
 43
0.00000001
 40
0.0
 40
0.0
 40
0.0
 40
0.0
 40
0.2500000000000002
 40
0.2500000000000002
 40
0.3750000000000003
 40
0.3750000000000003
 40
0.5000000000000004
 40
0.5000000000000004
 40
0.6250000000000004
 40
0.6250000000000004
 40
0.7500000000000004
 40
0.7500000000000004
 40
0.8750000000000004
 40
0.8750000000000004
 40
0.9375000000000002
 40
0.9375000000000002
 40
1.0
 40
1.0
 40
1.0
 40
1.0
 10
127.8196804059388
 20
141.107203910775
 30
0.0
 10
128.0224053618579
 20
142.1264502526397
 30
0.0
 10
128.3371490836533
 20
143.085558402579
 30
0.0
 10
129.0452045533243
 20
144.4280374800882
 30
0.0
 10
129.3236671835419
 20
144.8622460628283
 30
0.0
 10
129.9624345901791
 20
145.6738737783304
 30
0.0
 10
130.3228482699693
 20
146.0531540712672
 30
0.0
 10
131.1403805019586
 20
146.7561126502882
 30
0.0
 10
131.6015484852457
 20
147.0811414679888
 30
0.0
 10
132.5995387317295
 20
147.6461567913797
 30
0.0
 10
133.1392979257218
 20
147.8898603855862
 30
0.0
 10
134.3138908897531
 20
148.2940603132312
 30
0.0
 10
134.925627075745
 20
148.4464975062767
 30
0.0
 10
135.8775363006067
 20
148.6018250538854
 30
0.0
 10
136.2007694648673
 20
148.6413298339354
 30
0.0
 10
136.8598326361426
 20
148.6946389546041
 30
0.0
 10
137.1938966467166
 20
148.708166671662
 30
0.0
 10
137.5276472541181
 20
148.708166671662
 30
0.0
  0
SPLINE
  5
9B
330
1F
100
AcDbEntity
  8
0
  6
Continuous
 62
     7
370
    15
100
AcDbSpline
210
0.0
220
0.0
230
1.0
 70
     8
 71
     3
 72
    80
 73
    76
 74
     0
 42
0.00000001
 43
0.00000001
 40
-0.0312499999999999
 40
-0.0312499999999999
 40
0.0
 40
0.0
 40
0.0312499999999996
 40
0.0312499999999996
 40
0.0468749999999995
 40
0.0468749999999995
 40
0.0624999999999994
 40
0.0624999999999994
 40
0.093749999999999
 40
0.093749999999999
 40
0.1249999999999987
 40
0.1249999999999987
 40
0.1562499999999983
 40
0.1562499999999983
 40
0.187499999999998
 40
0.187499999999998
 40
0.2187499999999976
 40
0.2187499999999976
 40
0.2499999999999973
 40
0.2499999999999973
 40
0.2812499999999969
 40
0.2812499999999969
 40
0.3124999999999966
 40
0.3124999999999966
 40
0.3281249999999966
 40
0.3281249999999966
 40
0.3437499999999965
 40
0.3437499999999965
 40
0.3749999999999965
 40
0.3749999999999965
 40
0.4062499999999966
 40
0.4062499999999966
 40
0.4218749999999967
 40
0.4218749999999967
 40
0.4374999999999968
 40
0.4374999999999968
 40
0.4687499999999973
 40
0.4687499999999973
 40
0.4999999999999977
 40
0.4999999999999977
 40
0.5312499999999981
 40
0.5312499999999981
 40
0.5624999999999984
 40
0.5624999999999984
 40
0.5937499999999989
 40
0.5937499999999989
 40
0.6249999999999992
 40
0.6249999999999992
 40
0.6562499999999997
 40
0.6562499999999997
 40
0.6875000000000001
 40
0.6875000000000001
 40
0.7031250000000004
 40
0.7031250000000004
 40
0.7187500000000008
 40
0.7187500000000008
 40
0.7500000000000012
 40
0.7500000000000012
 40
0.7812500000000017
 40
0.7812500000000017
 40
0.7968750000000016
 40
0.7968750000000016
 40
0.8125000000000014
 40
0.8125000000000014
 40
0.8437500000000012
 40
0.8437500000000012
 40
0.8750000000000009
 40
0.8750000000000009
 40
0.9062500000000007
 40
0.9062500000000007
 40
0.9375000000000004
 40
0.9375000000000004
 40
0.9687500000000001
 40
0.9687500000000001
 40
1.0
 40
1.0
 40
1.03125
 40
1.03125
 10
132.2002257187151
 20
153.1718333744063
 30
0.0
 10
131.5391350931625
 20
153.1718333744063
 30
0.0
 10
131.2141549639109
 20
153.1880416057884
 30
0.0
 10
130.7346815526645
 20
153.2354062378081
 30
0.0
 10
130.5761997348237
 20
153.2550604496987
 30
0.0
 10
130.2619802023194
 20
153.3021716058914
 30
0.0
 10
130.105859918639
 20
153.3297529253861
 30
0.0
 10
129.6518058896824
 20
153.4222887121798
 30
0.0
 10
129.3647025067426
 20
153.4973591457763
 30
0.0
 10
128.8213479507155
 20
153.6725974543869
 30
0.0
 10
128.56424433951
 20
153.7735987522252
 30
0.0
 10
128.1033380845712
 20
153.9909549506861
 30
0.0
 10
127.8964403753562
 20
154.1081192824583
 30
0.0
 10
127.530915061364
 20
154.358189206687
 30
0.0
 10
127.375709539238
 20
154.4891352954459
 30
0.0
 10
127.1262791526383
 20
154.7548702391583
 30
0.0
 10
127.0301891968532
 20
154.8916238324692
 30
0.0
 10
126.9016703476596
 20
155.1656894073082
 30
0.0
 10
126.8698594774818
 20
155.3006294977771
 30
0.0
 10
126.8695028277085
 20
155.5661011348458
 30
0.0
 10
126.9020000799056
 20
155.697925611987
 30
0.0
 10
127.0296255536201
 20
155.9473752116075
 30
0.0
 10
127.124053954672
 20
156.0658079035354
 30
0.0
 10
127.3119147746575
 20
156.2346771006295
 30
0.0
 10
127.3827427734607
 20
156.2897630957497
 30
0.0
 10
127.537464665426
 20
156.3950159242382
 30
0.0
 10
127.6214411356094
 20
156.4453511529985
 30
0.0
 10
127.8927648052538
 20
156.5899269855365
 30
0.0
 10
128.0993140238562
 20
156.6777885719536
 30
0.0
 10
128.5659241640452
 20
156.8375096649531
 30
0.0
 10
128.8182897336707
 20
156.9067479614202
 30
0.0
 10
129.2241910753494
 20
156.99653535065
 30
0.0
 10
129.3640916928269
 20
157.0241013127364
 30
0.0
 10
129.6533156280738
 20
157.0745921136626
 30
0.0
 10
129.8031550843631
 20
157.0975555525133
 30
0.0
 10
130.2572716539738
 20
157.1581860689321
 30
0.0
 10
130.5689228727107
 20
157.1882600977279
 30
0.0
 10
131.2099193376231
 20
157.2288496849866
 30
0.0
 10
131.5414469655753
 20
157.2391619152027
 30
0.0
 10
132.1942380106467
 20
157.2392374823685
 30
0.0
 10
132.5187742156786
 20
157.2293358769007
 30
0.0
 10
133.164043665095
 20
157.1888493463754
 30
0.0
 10
133.4797866712577
 20
157.1583880464908
 30
0.0
 10
134.0816759662414
 20
157.0782373750542
 30
0.0
 10
134.3724251970529
 20
157.027955143247
 30
0.0
 10
134.9193369887374
 20
156.907284960474
 30
0.0
 10
135.1711143525743
 20
156.838061101304
 30
0.0
 10
135.6325023451954
 20
156.6806093736633
 30
0.0
 10
135.8437716247935
 20
156.5912608989896
 30
0.0
 10
136.2070759771697
 20
156.3980130282888
 30
0.0
 10
136.3608826256125
 20
156.2938850364094
 30
0.0
 10
136.5495020952099
 20
156.125260650226
 30
0.0
 10
136.605532581419
 20
156.0666322485511
 30
0.0
 10
136.7011063431551
 20
155.9471773337249
 30
0.0
 10
136.7408692601802
 20
155.8862575448867
 30
0.0
 10
136.8366410104923
 20
155.6998528187128
 30
0.0
 10
136.8693638496184
 20
155.5707400009177
 30
0.0
 10
136.8699924359475
 20
155.3020830779619
 30
0.0
 10
136.8378062912127
 20
155.1667123372051
 30
0.0
 10
136.7428955893571
 20
154.9631620289692
 30
0.0
 10
136.7034288059582
 20
154.8951901049057
 30
0.0
 10
136.6084988072373
 20
154.7590978817748
 30
0.0
 10
136.5527419794739
 20
154.6907477815654
 30
0.0
 10
136.364801861504
 20
154.4900447685233
 30
0.0
 10
136.2114403917879
 20
154.3606564947106
 30
0.0
 10
135.8491761569075
 20
154.1119910626607
 30
0.0
 10
135.6383276834416
 20
153.9921814202925
 30
0.0
 10
135.1776577131227
 20
153.7746591327198
 30
0.0
 10
134.9262833335388
 20
153.6755740328839
 30
0.0
 10
134.3803754466407
 20
153.4989015589671
 30
0.0
 10
134.0895528719895
 20
153.4228444708331
 30
0.0
 10
133.4882262572095
 20
153.2999994934801
 30
0.0
 10
133.1737076725971
 20
153.252293368427
 30
0.0
 10
132.5271262164771
 20
153.1880448333073
 30
0.0
 10
132.2002257187151
 20
153.1718333744063
 30
0.0
 10
131.5391350931625
 20
153.1718333744063
 30
0.0
  0
LINE
  5
9C
330
1F
100
AcDbEntity
  8
0
  6
Continuous
 62
     7
370
    15
100
AcDbLine
 10
140.959680782
 20
63.3858147304
 30
0.0
 11
140.959680782
 21
141.1072056035
 31
0.0
  0
SPLINE
  5
9D
330
1F
100
AcDbEntity
  8
0
  6
Continuous
 62
     7
370
    15
100
AcDbSpline
210
0.0
220
0.0
230
1.0
 70
     8
 71
     3
 72
     8
 73
     4
 74
     0
 42
0.00000001
 43
0.00000001
 40
0.0
 40
0.0
 40
0.0
 40
0.0
 40
1.0
 40
1.0
 40
1.0
 40
1.0
 10
140.9596804059388
 20
63.38581562375156
 30
0.0
 10
140.509453941661
 20
62.58436026112682
 30
0.0
 10
140.0587561144177
 20
61.78317024956615
 30
0.0
 10
139.6076513850174
 20
60.98221031774625
 30
0.0
  0
SPLINE
  5
9E
330
1F
100
AcDbEntity
  8
0
  6
Continuous
 62
     7
370
    15
100
AcDbSpline
210
0.0
220
0.0
230
1.0
 70
    24
 71
     3
 72
     8
 73
     4
 74
     0
 42
0.00000001
 43
0.00000001
 40
0.0
 40
0.0
 40
0.0
 40
0.0
 40
1.0
 40
1.0
 40
1.0
 40
1.0
 10
139.6076513850174
 20
141.107203910775
 30
0.0
 10
140.0644529573457
 20
141.107203910775
 30
0.0
 10
140.5154675235849
 20
141.107203910775
 30
0.0
 10
140.9596804059389
 20
141.107203910775
 30
0.0
  0
LINE
  5
9F
330
1F
100
AcDbEntity
  8
0
  6
Continuous
 62
     7
370
    15
100
AcDbLine
 10
150.8196804238
 20
60.982209001
 30
0.0
 11
146.1317099197
 21
60.982209001
 31
0.0
  0
LINE
  5
A0
330
1F
100
AcDbEntity
  8
0
  6
Continuous
 62
     7
370
    15
100
AcDbLine
 10
146.1317099197
 20
141.1072056035
 30
0.0
 11
150.8196804238
 21
141.1072056035
 31
0.0
  0
LINE
  5
A1
330
1F
100
AcDbEntity
  8
0
  6
Continuous
 62
     7
370
    15
100
AcDbLine
 10
122.8696804059
 20
60.257204179
 30
0.0
 11
122.8696804059
 21
159.2572036426
 31
0.0
  0
LINE
  5
A2
330
1F
100
AcDbEntity
  8
0
  6
Continuous
 62
     7
370
    15
100
AcDbLine
 10
151.8196805877
 20
62.0078596513
 30
0.0
 11
151.8196805877
 21
141.1072056035
 31
0.0
  0
SPLINE
  5
A3
330
1F
100
AcDbEntity
  8
0
  6
Continuous
 62
     7
370
    15
100
AcDbSpline
210
0.0
220
0.0
230
1.0
 70
     8
 71
     3
 72
    14
 73
    10
 74
     0
 42
0.00000001
 43
0.00000001
 40
0.0
 40
0.0
 40
0.0
 40
0.0
 40
0.25
 40
0.25
 40
0.5
 40
0.5
 40
0.75
 40
0.75
 40
1.0
 40
1.0
 40
1.0
 40
1.0
 10
151.8196804059388
 20
62.00785836552176
 30
0.0
 10
151.8196804059388
 20
61.87443266946722
 30
0.0
 10
151.7943693060279
 20
61.74258486162287
 30
0.0
 10
151.6960345421832
 20
61.49606231292876
 30
0.0
 10
151.6228905379271
 20
61.38225712468822
 30
0.0
 10
151.4394524768314
 20
61.19179994774095
 30
0.0
 10
151.3277661424929
 20
61.11416508389103
 30
0.0
 10
151.0852627121866
 20
61.00987367377856
 30
0.0
 10
150.9518882834923
 20
60.98221031774621
 30
0.0
 10
150.8196804059388
 20
60.98221031774622
 30
0.0
  0
SPLINE
  5
A4
330
1F
100
AcDbEntity
  8
0
  6
Continuous
 62
     7
370
    15
100
AcDbSpline
210
0.0
220
0.0
230
1.0
 70
    24
 71
     3
 72
    12
 73
     8
 74
     0
 42
0.00000001
 43
0.00000001
 40
0.0
 40
0.0
 40
0.0
 40
0.0
 40
0.2500000000000032
 40
0.2500000000000032
 40
0.5000000000000064
 40
0.5000000000000064
 40
1.0
 40
1.0
 40
1.0
 40
1.0
 10
150.8196804059388
 20
141.107203910775
 30
0.0
 10
150.9717706428838
 20
141.1072039107751
 30
0.0
 10
151.1202299039592
 20
141.107203910775
 30
0.0
 10
151.3776335362249
 20
141.107203910775
 30
0.0
 10
151.4867382840669
 20
141.107203910775
 30
0.0
 10
151.7407977604744
 20
141.1072039107751
 30
0.0
 10
151.8196804059388
 20
141.107203910775
 30
0.0
 10
151.8196804059388
 20
141.107203910775
 30
0.0
  0
SPLINE
  5
A5
330
1F
100
AcDbEntity
  8
0
  6
Continuous
 62
     7
370
    15
100
AcDbSpline
210
0.0
220
0.0
230
1.0
 70
     8
 71
     3
 72
    14
 73
    10
 74
     0
 42
0.00000001
 43
0.00000001
 40
0.0
 40
0.0
 40
0.0
 40
0.0
 40
0.25
 40
0.25
 40
0.5
 40
0.5
 40
0.75
 40
0.75
 40
1.0
 40
1.0
 40
1.0
 40
1.0
 10
144.7796804059388
 20
64.29402512838017
 30
0.0
 10
144.7796804059388
 20
64.40106920937455
 30
0.0
 10
144.7595627187806
 20
64.50630434961698
 30
0.0
 10
144.681071529515
 20
64.7041548364647
 30
0.0
 10
144.6229149047138
 20
64.7952066000296
 30
0.0
 10
144.4763996490958
 20
64.94837269395438
 30
0.0
 10
144.3877571004547
 20
65.01066714016379
 30
0.0
 10
144.1920337776544
 20
65.09546092569978
 30
0.0
 10
144.0868025865834
 20
65.11752845272541
 30
0.0
 10
143.9796804059388
 20
65.11752845272542
 30
0.0
  0
SPLINE
  5
A6
330
1F
100
AcDbEntity
  8
0
  6
Continuous
 62
     7
370
    15
100
AcDbSpline
210
0.0
220
0.0
230
1.0
 70
    24
 71
     3
 72
    14
 73
    10
 74
     0
 42
0.00000001
 43
0.00000001
 40
0.0
 40
0.0
 40
0.0
 40
0.0
 40
0.25
 40
0.25
 40
0.5
 40
0.5
 40
0.75
 40
0.75
 40
1.0
 40
1.0
 40
1.0
 40
1.0
 10
143.9796804059388
 20
141.107203910775
 30
0.0
 10
144.103450170704
 20
141.107203910775
 30
0.0
 10
144.2278172747108
 20
141.107203910775
 30
0.0
 10
144.4341737434369
 20
141.107203910775
 30
0.0
 10
144.5195018868552
 20
141.107203910775
 30
0.0
 10
144.6516939455705
 20
141.1072039107751
 30
0.0
 10
144.7003391893211
 20
141.107203910775
 30
0.0
 10
144.7638749810498
 20
141.107203910775
 30
0.0
 10
144.7796804059388
 20
141.107203910775
 30
0.0
 10
144.7796804059388
 20
141.107203910775
 30
0.0
  0
SPLINE
  5
A7
330
1F
100
AcDbEntity
  8
0
  6
Continuous
 62
     7
370
    15
100
AcDbSpline
210
0.0
220
0.0
230
1.0
 70
     8
 71
     3
 72
    12
 73
     8
 74
     0
 42
0.00000001
 43
0.00000001
 40
0.0
 40
0.0
 40
0.0
 40
0.0
 40
0.25
 40
0.25
 40
0.5
 40
0.5
 40
1.0
 40
1.0
 40
1.0
 40
1.0
 10
141.7596804059388
 20
65.11752845272542
 30
0.0
 10
141.6539197525899
 20
65.1175284527254
 30
0.0
 10
141.5459321244069
 20
65.094988946725
 30
0.0
 10
141.3513374591413
 20
65.0104183147297
 30
0.0
 10
141.2624655463025
 20
64.9479366619709
 30
0.0
 10
141.0432732539766
 20
64.71854771049874
 30
0.0
 10
140.9596804059388
 20
64.50596437297635
 30
0.0
 10
140.9596804059388
 20
64.29402512838017
 30
0.0
  0
SPLINE
  5
A8
330
1F
100
AcDbEntity
  8
0
  6
Continuous
 62
     7
370
    15
100
AcDbSpline
210
0.0
220
0.0
230
1.0
 70
    24
 71
     3
 72
    14
 73
    10
 74
     0
 42
0.00000001
 43
0.00000001
 40
0.0
 40
0.0
 40
0.0
 40
0.0
 40
0.25
 40
0.25
 40
0.5
 40
0.5
 40
0.75
 40
0.75
 40
1.0
 40
1.0
 40
1.0
 40
1.0
 10
140.9596804059388
 20
141.107203910775
 30
0.0
 10
140.9596804059388
 20
141.107203910775
 30
0.0
 10
140.9753947264047
 20
141.107203910775
 30
0.0
 10
141.0390787048731
 20
141.107203910775
 30
0.0
 10
141.0876818992836
 20
141.107203910775
 30
0.0
 10
141.2203654217092
 20
141.1072039107751
 30
0.0
 10
141.3054675260198
 20
141.107203910775
 30
0.0
 10
141.5119097609299
 20
141.107203910775
 30
0.0
 10
141.6359907025529
 20
141.107203910775
 30
0.0
 10
141.7596804059388
 20
141.107203910775
 30
0.0
  0
LINE
  5
A9
330
1F
100
AcDbEntity
  8
0
  6
Continuous
 62
     7
370
    15
100
AcDbLine
 10
143.9796804947
 20
65.1175271015
 30
0.0
 11
141.7596812857
 21
65.1175271015
 31
0.0
  0
LINE
  5
AA
330
1F
100
AcDbEntity
  8
0
  6
Continuous
 62
     7
370
    15
100
AcDbLine
 10
141.7596812857
 20
141.1072056035
 30
0.0
 11
143.9796804947
 21
141.1072056035
 31
0.0
  0
LINE
  5
AB
330
1F
100
AcDbEntity
  8
0
  6
Continuous
 62
     7
370
    15
100
AcDbLine
 10
120.3696804618
 20
71.8749541084
 30
0.0
 11
120.3696804618
 21
147.6394537131
 31
0.0
  0
LINE
  5
AC
330
1F
100
AcDbEntity
  8
0
  6
Continuous
 62
     7
370
    15
100
AcDbLine
 10
88.0696799172
 20
73.4931904118
 30
0.0
 11
88.0696799172
 21
75.8878703455
 31
0.0
  0
SPLINE
  5
AD
330
1F
100
AcDbEntity
  8
0
  6
Continuous
 62
     7
370
    15
100
AcDbSpline
210
0.0
220
0.0
230
1.0
 70
     8
 71
     3
 72
    14
 73
    10
 74
     0
 42
0.00000001
 43
0.00000001
 40
0.0
 40
0.0
 40
0.0
 40
0.0
 40
0.25
 40
0.25
 40
0.5
 40
0.5
 40
0.75
 40
0.75
 40
1.0
 40
1.0
 40
1.0
 40
1.0
 10
87.06525793460186
 20
77.59072256703153
 30
0.0
 10
87.15402651254718
 20
77.43218843572357
 30
0.0
 10
87.2757443512261
 20
77.27974575883502
 30
0.0
 10
87.51079396108292
 20
76.9826111350061
 30
0.0
 10
87.62642414729982
 20
76.83792849138874
 30
0.0
 10
87.82682908072765
 20
76.55463928888533
 30
0.0
 10
87.91222937271195
 20
76.41608529584848
 30
0.0
 10
88.0339350064292
 20
76.14470126581493
 30
0.0
 10
88.06968040594184
 20
76.01256539718032
 30
0.0
 10
88.06968040594182
 20
75.88787064540955
 30
0.0
  0
SPLINE
  5
AE
330
1F
100
AcDbEntity
  8
0
  6
Continuous
 62
     7
370
    15
100
AcDbSpline
210
0.0
220
0.0
230
1.0
 70
     8
 71
     3
 72
    14
 73
    10
 74
     0
 42
0.00000001
 43
0.00000001
 40
0.0
 40
0.0
 40
0.0
 40
0.0
 40
0.124999999999999
 40
0.124999999999999
 40
0.249999999999998
 40
0.249999999999998
 40
0.5000000000000007
 40
0.5000000000000007
 40
1.0
 40
1.0
 40
1.0
 40
1.0
 10
86.1696804059388
 20
78.21955250613163
 30
0.0
 10
86.23726270572331
 20
78.22670839123302
 30
0.0
 10
86.3097502834712
 20
78.22228392119402
 30
0.0
 10
86.44204139273714
 20
78.19257776342367
 30
0.0
 10
86.49931877212732
 20
78.16929348184544
 30
0.0
 10
86.6489691993276
 20
78.09180824199511
 30
0.0
 10
86.7226824948491
 20
78.02995641509375
 30
0.0
 10
86.91049047817533
 20
77.84527896244543
 30
0.0
 10
86.99453078453679
 20
77.71703603915422
 30
0.0
 10
87.06525793460307
 20
77.59072256703163
 30
0.0
  0
SPLINE
  5
AF
330
1F
100
AcDbEntity
  8
0
  6
Continuous
 62
     7
370
    15
100
AcDbSpline
210
0.0
220
0.0
230
1.0
 70
     8
 71
     3
 72
     8
 73
     4
 74
     0
 42
0.00000001
 43
0.00000001
 40
0.0
 40
0.0
 40
0.0
 40
0.0
 40
1.0
 40
1.0
 40
1.0
 40
1.0
 10
82.62504001785803
 20
77.80150392133986
 30
0.0
 10
83.7903383285669
 20
77.95669139322648
 30
0.0
 10
84.97495354260671
 20
78.0930500315368
 30
0.0
 10
86.1696804059388
 20
78.21955250613163
 30
0.0
  0
SPLINE
  5
B0
330
1F
100
AcDbEntity
  8
0
  6
Continuous
 62
     7
370
    15
100
AcDbSpline
210
0.0
220
0.0
230
1.0
 70
     8
 71
     3
 72
    14
 73
    10
 74
     0
 42
0.00000001
 43
0.00000001
 40
0.0
 40
0.0
 40
0.0
 40
0.0
 40
0.4999999999999972
 40
0.4999999999999972
 40
0.7499999999999971
 40
0.7499999999999971
 40
0.8749999999999986
 40
0.8749999999999986
 40
1.0
 40
1.0
 40
1.0
 40
1.0
 10
74.86960552191012
 20
77.51137174220993
 30
0.0
 10
76.17790708444386
 20
77.51838646595105
 30
0.0
 10
77.48296645910068
 20
77.53379504239555
 30
0.0
 10
79.428842510589
 20
77.58769159786222
 30
0.0
 10
80.075540014328
 20
77.61072316246491
 30
0.0
 10
81.03938237818234
 20
77.66166568733567
 30
0.0
 10
81.35962107011642
 20
77.68140060956885
 30
0.0
 10
81.99631629645883
 20
77.73088773804044
 30
0.0
 10
82.31303170474175
 20
77.75995251696966
 30
0.0
 10
82.62504001785805
 20
77.8015039213398
 30
0.0
  0
SPLINE
  5
B1
330
1F
100
AcDbEntity
  8
0
  6
Continuous
 62
     7
370
    15
100
AcDbSpline
210
0.0
220
0.0
230
1.0
 70
     8
 71
     3
 72
    12
 73
     8
 74
     0
 42
0.00000001
 43
0.00000001
 40
0.0
 40
0.0
 40
0.0
 40
0.0
 40
0.2500000000000009
 40
0.2500000000000009
 40
0.5000000000000018
 40
0.5000000000000018
 40
1.0
 40
1.0
 40
1.0
 40
1.0
 10
81.16968040593882
 20
141.8437268022715
 30
0.0
 10
80.65098158411062
 20
141.8762495771197
 30
0.0
 10
80.12927001090564
 20
141.8995463182902
 30
0.0
 10
79.08297799441006
 20
141.9373918327123
 30
0.0
 10
78.55830636873979
 20
141.9516603072085
 30
0.0
 10
76.98146034620056
 20
141.9858697946667
 30
0.0
 10
75.92650503165366
 20
141.9973692986106
 30
0.0
 10
74.86960552190843
 20
142.0030360793402
 30
0.0
  0
SPLINE
  5
B2
330
1F
100
AcDbEntity
  8
0
  6
Continuous
 62
     7
370
    15
100
AcDbSpline
210
0.0
220
0.0
230
1.0
 70
     8
 71
     3
 72
    20
 73
    16
 74
     0
 42
0.00000001
 43
0.00000001
 40
0.0
 40
0.0
 40
0.0
 40
0.0
 40
0.2500000000000011
 40
0.2500000000000011
 40
0.5000000000000021
 40
0.5000000000000021
 40
0.7500000000000031
 40
0.7500000000000031
 40
0.8750000000000008
 40
0.8750000000000008
 40
0.9375000000000006
 40
0.9375000000000006
 40
0.9687500000000003
 40
0.9687500000000003
 40
1.0
 40
1.0
 40
1.0
 40
1.0
 10
83.06968040593881
 20
143.5018126477596
 30
0.0
 10
83.06968040593881
 20
143.3661303280128
 30
0.0
 10
83.02096861672219
 20
143.2250433418728
 30
0.0
 10
82.851807193497
 20
142.9329716231422
 30
0.0
 10
82.7300267795787
 20
142.7813228810518
 30
0.0
 10
82.43247968482918
 20
142.4789144408987
 30
0.0
 10
82.25856707912641
 20
142.3263258047754
 30
0.0
 10
81.93915224524457
 20
142.1010550409331
 30
0.0
 10
81.82411146979732
 20
142.0263319464224
 30
0.0
 10
81.6170271457809
 20
141.9269215371654
 30
0.0
 10
81.54091931097452
 20
141.8953564448208
 30
0.0
 10
81.40952477142116
 20
141.8609130606279
 30
0.0
 10
81.3629715524197
 20
141.8518614888602
 30
0.0
 10
81.26663820133899
 20
141.8416858400218
 30
0.0
 10
81.21737877798354
 20
141.8407360813467
 30
0.0
 10
81.16968040593683
 20
141.8437268022613
 30
0.0
  0
LINE
  5
B3
330
1F
100
AcDbEntity
  8
0
  6
Continuous
 62
     7
370
    15
100
AcDbLine
 10
83.0696809603
 20
143.5018110315
 30
0.0
 11
83.0696809603
 21
145.7707177143
 31
0.0
  0
SPLINE
  5
B4
330
1F
100
AcDbEntity
  8
0
  6
Continuous
 62
     7
370
    15
100
AcDbSpline
210
0.0
220
0.0
230
1.0
 70
     8
 71
     3
 72
    24
 73
    20
 74
     0
 42
0.00000001
 43
0.00000001
 40
0.0
 40
0.0
 40
0.0
 40
0.0
 40
0.0002934239329635
 40
0.0628079954843725
 40
0.1260453886222317
 40
0.1890746649056576
 40
0.2513200327496127
 40
0.3133304381321615
 40
0.3759158074016681
 40
0.4383740215105411
 40
0.5000631209931454
 40
0.5616593985498132
 40
0.6245050468179062
 40
0.6872231543007362
 40
0.7494953203649202
 40
0.811758388799549
 40
0.8747365576758938
 40
0.937898032705022
 40
1.0
 40
1.0
 40
1.0
 40
1.0
 10
101.3896360559108
 20
72.8259573916863
 30
0.0
 10
101.389441512128
 20
72.82593369442569
 30
0.0
 10
101.3477990158723
 20
72.82086124712328
 30
0.0
 10
101.4928222280451
 20
72.83930253726939
 30
0.0
 10
101.8479394550636
 20
72.88190486603618
 30
0.0
 10
102.4525050086996
 20
72.95001519936255
 30
0.0
 10
103.2589421671054
 20
73.02328051269048
 30
0.0
 10
104.2444192771266
 20
73.0877961159992
 30
0.0
 10
105.3760884185089
 20
73.12636303127847
 30
0.0
 10
106.5983813321712
 20
73.1300523331253
 30
0.0
 10
107.8657104781315
 20
73.08763390673114
 30
0.0
 10
109.1321957212285
 20
72.99937904047964
 30
0.0
 10
110.3483338520892
 20
72.87099343324863
 30
0.0
 10
111.4737432777049
 20
72.71834570657869
 30
0.0
 10
112.4511614709229
 20
72.55657532521367
 30
0.0
 10
113.2544261514405
 20
72.40404288873725
 30
0.0
 10
113.842919560472
 20
72.28002924997637
 30
0.0
 10
114.2318262969574
 20
72.19510765882575
 30
0.0
 10
114.2785871133277
 20
72.18438195051766
 30
0.0
 10
114.301769764507
 20
72.17906445664869
 30
0.0
  0
SPLINE
  5
B5
330
1F
100
AcDbEntity
  8
0
  6
Continuous
 62
     7
370
    15
100
AcDbSpline
210
0.0
220
0.0
230
1.0
 70
     8
 71
     3
 72
    41
 73
    37
 74
     0
 42
0.00000001
 43
0.00000001
 40
0.0
 40
0.0
 40
0.0
 40
0.0
 40
0.0619930057521228
 40
0.125434780003805
 40
0.1886508796717336
 40
0.2510246486109843
 40
0.3131658162995061
 40
0.3756581562437795
 40
0.4382226967007958
 40
0.4998044866844433
 40
0.5615163978929774
 40
0.6240683345302142
 40
0.6867257381925739
 40
0.7488365438330932
 40
0.8110686224406419
 40
0.8741742887465523
 40
0.937321279503927
 40
0.9685511676011523
 40
0.9842086839263064
 40
0.9920641174372576
 40
0.9960004855111666
 40
0.9979710789827718
 40
0.9989570084930103
 40
0.9994501352406044
 40
0.9996967397140213
 40
0.9998200522691518
 40
0.9998817111564905
 40
0.9999125412175116
 40
0.9999279564093942
 40
0.9999356640470698
 40
0.9999395178742543
 40
0.9999414447906289
 40
0.9999424082488162
 40
0.9999433717070034
 40
0.9999501690780732
 40
1.0
 40
1.0
 40
1.0
 40
1.0
 10
114.3016486925723
 20
147.3352986614179
 30
0.0
 10
114.2780771016133
 20
147.3299890763744
 30
0.0
 10
114.2303830546735
 20
147.3192458219741
 30
0.0
 10
113.8383399612943
 20
147.2340189367986
 30
0.0
 10
113.2478273161083
 20
147.1094502558389
 30
0.0
 10
112.4437888680382
 20
146.9565013456821
 30
0.0
 10
111.4677141016503
 20
146.7947441430264
 30
0.0
 10
110.345905788708
 20
146.6425107252759
 30
0.0
 10
109.1323741531022
 20
146.5147353707841
 30
0.0
 10
107.8675437216456
 20
146.4268868553085
 30
0.0
 10
106.5995003523005
 20
146.3844988161392
 30
0.0
 10
105.3759930424954
 20
146.3882378875884
 30
0.0
 10
104.2424937299774
 20
146.4268263670762
 30
0.0
 10
103.2563889845364
 20
146.4912727969834
 30
0.0
 10
102.4477596025877
 20
146.5647796691277
 30
0.0
 10
101.8511430851919
 20
146.6320931991581
 30
0.0
 10
101.5357508547085
 20
146.6700562929499
 30
0.0
 10
101.4256845401442
 20
146.6838556212997
 30
0.0
 10
101.3982661836903
 20
146.6873402358201
 30
0.0
 10
101.391342369794
 20
146.6882215177489
 30
0.0
 10
101.3895739144296
 20
146.6884446255696
 30
0.0
 10
101.3891138826761
 20
146.6884976706744
 30
0.0
 10
101.3889894238156
 20
146.6885172202124
 30
0.0
 10
101.3889550581119
 20
146.6885105806197
 30
0.0
 10
101.3889439524093
 20
146.6885180966937
 30
0.0
 10
101.3889404623467
 20
146.688517430904
 30
0.0
 10
101.3889373071596
 20
146.6885174899091
 30
0.0
 10
101.3889375868974
 20
146.6885174846327
 30
0.0
 10
101.3889375617067
 20
146.6885174851713
 30
0.0
 10
101.3889375645248
 20
146.688517485023
 30
0.0
 10
101.3889375634464
 20
146.6885174851782
 30
0.0
 10
101.3889375647118
 20
146.6885174849639
 30
0.0
 10
101.3889375626967
 20
146.6885174853091
 30
0.0
 10
101.3889375813727
 20
146.6885174821076
 30
0.0
 10
101.3889353432087
 20
146.6885178657924
 30
0.0
 10
101.3889712020399
 20
146.6885117185645
 30
0.0
 10
101.38900275656
 20
146.6885063092183
 30
0.0
  0
SPLINE
  5
B6
330
1F
100
AcDbEntity
  8
0
  6
Continuous
 62
     7
370
    15
100
AcDbSpline
210
0.0
220
0.0
230
1.0
 70
     8
 71
     3
 72
    20
 73
    16
 74
     0
 42
0.00000001
 43
0.00000001
 40
0.0
 40
0.0
 40
0.0
 40
0.0
 40
0.249999999999986
 40
0.249999999999986
 40
0.3749999999999789
 40
0.3749999999999789
 40
0.4374999999999789
 40
0.4374999999999789
 40
0.4999999999999789
 40
0.4999999999999789
 40
0.6249999999999835
 40
0.6249999999999835
 40
0.7499999999999879
 40
0.7499999999999879
 40
1.0
 40
1.0
 40
1.0
 40
1.0
 10
73.26049463765483
 20
79.07872075807434
 30
0.0
 10
73.28676685486823
 20
79.09803869915682
 30
0.0
 10
73.31744699712307
 20
79.11242741025859
 30
0.0
 10
73.388917867505
 20
79.10552304842258
 30
0.0
 10
73.41694490454934
 20
79.09835704507417
 30
0.0
 10
73.47202849404684
 20
79.06865801837057
 30
0.0
 10
73.49291982259928
 20
79.05518437580923
 30
0.0
 10
73.53812847004474
 20
79.01998611029322
 30
0.0
 10
73.56253268244029
 20
78.99807788156596
 30
0.0
 10
73.63386500049174
 20
78.92595302157041
 30
0.0
 10
73.67576178531202
 20
78.87361248062035
 30
0.0
 10
73.7473377441679
 20
78.77612908871961
 30
0.0
 10
73.77816573398519
 20
78.72937531884119
 30
0.0
 10
73.86126566682076
 20
78.59608210300208
 30
0.0
 10
73.90612057219107
 20
78.51344470508687
 30
0.0
 10
73.94623264764364
 20
78.43433781029609
 30
0.0
  0
SPLINE
  5
B7
330
1F
100
AcDbEntity
  8
0
  6
Continuous
 62
     7
370
    15
100
AcDbSpline
210
0.0
220
0.0
230
1.0
 70
     8
 71
     3
 72
    14
 73
    10
 74
     0
 42
0.00000001
 43
0.00000001
 40
0.0
 40
0.0
 40
0.0
 40
0.0
 40
0.25
 40
0.25
 40
0.5
 40
0.5
 40
0.75
 40
0.75
 40
1.0
 40
1.0
 40
1.0
 40
1.0
 10
72.96968040593882
 20
79.25453416820713
 30
0.0
 10
72.96968040593883
 20
79.21328723718278
 30
0.0
 10
72.97829012232008
 20
79.1763802649003
 30
0.0
 10
73.00937630189041
 20
79.11548020500089
 30
0.0
 10
73.03176585537447
 20
79.0912992854612
 30
0.0
 10
73.0865097865506
 20
79.05733169457794
 30
0.0
 10
73.11896002613578
 20
79.04741161060976
 30
0.0
 10
73.18896154086386
 20
79.0460604017049
 30
0.0
 10
73.22717204098639
 20
79.05421867840107
 30
0.0
 10
73.26049463765948
 20
79.07872075806915
 30
0.0
  0
LINE
  5
B8
330
1F
100
AcDbEntity
  8
0
  6
Continuous
 62
     7
370
    15
100
AcDbLine
 10
72.9696813537
 20
79.2545343975
 30
0.0
 11
72.9696813537
 21
140.259873424
 31
0.0
  0
SPLINE
  5
B9
330
1F
100
AcDbEntity
  8
0
  6
Continuous
 62
     7
370
    15
100
AcDbSpline
210
0.0
220
0.0
230
1.0
 70
     8
 71
     3
 72
     9
 73
     5
 74
     0
 42
0.00000001
 43
0.00000001
 40
0.0
 40
0.0
 40
0.0
 40
0.0
 40
0.0592942499244465
 40
1.0
 40
1.0
 40
1.0
 40
1.0
 10
73.2604961408021
 20
140.4356866369914
 30
0.0
 10
73.25561314310333
 20
140.4389797766891
 30
0.0
 10
73.17326118309073
 20
140.4945187151522
 30
0.0
 10
73.10713052867543
 20
140.4372265120394
 30
0.0
 10
73.04492104181071
 20
140.3833314071368
 30
0.0
  0
SPLINE
  5
BA
330
1F
100
AcDbEntity
  8
0
  6
Continuous
 62
     7
370
    15
100
AcDbSpline
210
0.0
220
0.0
230
1.0
 70
     8
 71
     3
 72
     8
 73
     4
 74
     0
 42
0.00000001
 43
0.00000001
 40
0.0
 40
0.0
 40
0.0
 40
0.0
 40
1.0
 40
1.0
 40
1.0
 40
1.0
 10
72.99331407487503
 20
140.3674531544127
 30
0.0
 10
72.97796503623898
 20
140.3369430994167
 30
0.0
 10
72.96968040593882
 20
140.3006315439044
 30
0.0
 10
72.96968040593882
 20
140.259873653343
 30
0.0
  0
SPLINE
  5
BB
330
1F
100
AcDbEntity
  8
0
  6
Continuous
 62
     7
370
    15
100
AcDbSpline
210
0.0
220
0.0
230
1.0
 70
     8
 71
     3
 72
    20
 73
    16
 74
     0
 42
0.00000001
 43
0.00000001
 40
0.0
 40
0.0
 40
0.0
 40
0.0
 40
0.2500000000000037
 40
0.2500000000000037
 40
0.3750000000000055
 40
0.3750000000000055
 40
0.5000000000000073
 40
0.5000000000000073
 40
0.5625000000000057
 40
0.5625000000000057
 40
0.625000000000004
 40
0.625000000000004
 40
0.7500000000000027
 40
0.7500000000000027
 40
1.0
 40
1.0
 40
1.0
 40
1.0
 10
73.94623264764125
 20
141.0800700112532
 30
0.0
 10
73.90623642981741
 20
141.0011916046958
 30
0.0
 10
73.86112280197976
 20
140.9180619580043
 30
0.0
 10
73.77786858761323
 20
140.7845732936533
 30
0.0
 10
73.74764925899272
 20
140.7387082377713
 30
0.0
 10
73.67556102385132
 20
140.6405166853665
 30
0.0
 10
73.63364370644021
 20
140.5882068658429
 30
0.0
 10
73.56239310188874
 20
140.5162009631084
 30
0.0
 10
73.53815728950944
 20
140.4944307508068
 30
0.0
 10
73.49255909932478
 20
140.4589560924778
 30
0.0
 10
73.47175660972508
 20
140.4455859083002
 30
0.0
 10
73.41681561130595
 20
140.416015996165
 30
0.0
 10
73.38874662321915
 20
140.408889473863
 30
0.0
 10
73.31824379315631
 20
140.4020151023803
 30
0.0
 10
73.28681970536543
 20
140.4163302614675
 30
0.0
 10
73.26049463765683
 20
140.4356870634781
 30
0.0
  0
SPLINE
  5
BC
330
1F
100
AcDbEntity
  8
0
  6
Continuous
 62
     7
370
    15
100
AcDbSpline
210
0.0
220
0.0
230
1.0
 70
     8
 71
     3
 72
    10
 73
     6
 74
     0
 42
0.00000001
 43
0.00000001
 40
0.0
 40
0.0
 40
0.0
 40
0.0
 40
0.4999999999999989
 40
0.4999999999999989
 40
1.0
 40
1.0
 40
1.0
 40
1.0
 10
74.61968040593884
 20
142.005489112595
 30
0.0
 10
74.49479213518863
 20
141.8744928345236
 30
0.0
 10
74.37334201712818
 20
141.7307799978586
 30
0.0
 10
74.14375804217075
 20
141.4202097051694
 30
0.0
 10
74.03348306677476
 20
141.2521406321063
 30
0.0
 10
73.94623264764125
 20
141.0800700112532
 30
0.0
  0
SPLINE
  5
BD
330
1F
100
AcDbEntity
  8
0
  6
Continuous
 62
     7
370
    15
100
AcDbSpline
210
0.0
220
0.0
230
1.0
 70
     8
 71
     3
 72
     8
 73
     4
 74
     0
 42
0.00000001
 43
0.00000001
 40
0.0
 40
0.0
 40
0.0
 40
0.0
 40
1.0
 40
1.0
 40
1.0
 40
1.0
 10
74.86960552190455
 20
142.0030360793397
 30
0.0
 10
74.7825874920562
 20
142.0035026441267
 30
0.0
 10
74.69963346567626
 20
142.0045426637029
 30
0.0
 10
74.61968040593652
 20
142.0054891125951
 30
0.0
  0
SPLINE
  5
BE
330
1F
100
AcDbEntity
  8
0
  6
Continuous
 62
     7
370
    15
100
AcDbSpline
210
0.0
220
0.0
230
1.0
 70
     8
 71
     3
 72
     8
 73
     4
 74
     0
 42
0.00000001
 43
0.00000001
 40
0.0
 40
0.0
 40
0.0
 40
0.0
 40
1.0
 40
1.0
 40
1.0
 40
1.0
 10
74.61968040593652
 20
77.50891870895498
 30
0.0
 10
74.6996334656768
 20
77.50986515784724
 30
0.0
 10
74.78258749205727
 20
77.51090517742337
 30
0.0
 10
74.86960552190625
 20
77.51137174221044
 30
0.0
  0
SPLINE
  5
BF
330
1F
100
AcDbEntity
  8
0
  6
Continuous
 62
     7
370
    15
100
AcDbSpline
210
0.0
220
0.0
230
1.0
 70
     8
 71
     3
 72
    10
 73
     6
 74
     0
 42
0.00000001
 43
0.00000001
 40
0.0
 40
0.0
 40
0.0
 40
0.0
 40
0.4999999999999989
 40
0.4999999999999989
 40
1.0
 40
1.0
 40
1.0
 40
1.0
 10
73.94623264764031
 20
78.43433781029866
 30
0.0
 10
74.0334830667738
 20
78.26226718944528
 30
0.0
 10
74.14375804216995
 20
78.09419811638185
 30
0.0
 10
74.37334201712778
 20
77.78362782369203
 30
0.0
 10
74.49479213518842
 20
77.63991498702676
 30
0.0
 10
74.61968040593884
 20
77.50891870895504
 30
0.0
  0
SPLINE
  5
C0
330
1F
100
AcDbEntity
  8
0
  6
Continuous
 62
     7
370
    15
100
AcDbSpline
210
0.0
220
0.0
230
1.0
 70
     8
 71
     3
 72
    47
 73
    43
 74
     0
 42
0.00000001
 43
0.00000001
 40
-0.0754831264853101
 40
-0.0624657778335344
 40
-0.0297347557955412
 40
0.0
 40
0.0297270045900832
 40
0.0624300765702494
 40
0.0901827545151674
 40
0.1249452329398665
 40
0.1428705465361112
 40
0.1592741688657329
 40
0.1741576828614862
 40
0.1875233619240835
 40
0.2201166959494841
 40
0.2499315400287668
 40
0.2797545504445434
 40
0.3123588070298516
 40
0.34061560758625
 40
0.374909141876685
 40
0.3932604943863178
 40
0.4098095243261594
 40
0.4245573426481172
 40
0.4375057847430154
 40
0.4702111563805272
 40
0.4999868874621886
 40
0.5297471493823114
 40
0.5624368016837001
 40
0.5900929136959354
 40
0.6249260464596761
 40
0.642861286196443
 40
0.6592834885985976
 40
0.6741942482818526
 40
0.687595846995183
 40
0.7202281853942744
 40
0.7500691094999015
 40
0.779869260520034
 40
0.8124415486531069
 40
0.8406359557828461
 40
0.8749042632399704
 40
0.893203417857007
 40
0.9097405659172522
 40
0.9245168735146898
 40
0.9375342221664655
 40
0.9702652442044587
 40
0.9999999999999999
 40
1.029727004590083
 40
1.062430076570249
 40
1.090182754515167
 10
197.8159021382072
 20
101.8563939591394
 30
0.0
 10
199.3695118384804
 20
101.7099883227959
 30
0.0
 10
200.9228857334792
 20
101.8563608631473
 30
0.0
 10
202.3824961023279
 20
102.2941121026817
 30
0.0
 10
203.7980486586418
 20
103.0329881679281
 30
0.0
 10
204.8506737759043
 20
103.8786296139368
 30
0.0
 10
205.6178564613668
 20
104.7366876620399
 30
0.0
 10
206.0968657981365
 20
105.4040416099546
 30
0.0
 10
206.4706268706099
 20
106.0499565097621
 30
0.0
 10
206.9007670125587
 20
106.9726261130845
 30
0.0
 10
207.2696343581718
 20
108.1995763805349
 30
0.0
 10
207.4171781175458
 20
109.7538031203171
 30
0.0
 10
207.2708754060367
 20
111.3085762253428
 30
0.0
 10
206.8308540846357
 20
112.7765631898701
 30
0.0
 10
206.0902540828866
 20
114.1911699567209
 30
0.0
 10
205.2383684820871
 20
115.2485119981517
 30
0.0
 10
204.3780249414949
 20
116.015802365699
 30
0.0
 10
203.703424668099
 20
116.4969203632254
 30
0.0
 10
203.0625082257833
 20
116.8652001739404
 30
0.0
 10
202.1463714365634
 20
117.2908802517868
 30
0.0
 10
200.9250615732555
 20
117.6577235045291
 30
0.0
 10
199.370639115095
 20
117.8045381132321
 30
0.0
 10
197.8162167100664
 20
117.658030723007
 30
0.0
 10
196.3578797753627
 20
117.2205159787594
 30
0.0
 10
194.9428146959811
 20
116.4823674866512
 30
0.0
 10
193.8900524378406
 20
115.6372179822594
 30
0.0
 10
193.1216711708985
 20
114.7779693497885
 30
0.0
 10
192.6421061672666
 20
114.1098356388856
 30
0.0
 10
192.2677458902546
 20
113.4626601181261
 30
0.0
 10
191.837194861626
 20
112.5382630087788
 30
0.0
 10
191.4685521157911
 20
111.3094310222653
 30
0.0
 10
191.322177414583
 20
109.7543679885743
 30
0.0
 10
191.4696858196412
 20
108.2002043610157
 30
0.0
 10
191.9100583269152
 20
106.7344223895111
 30
0.0
 10
192.6501544098016
 20
105.3219157251221
 30
0.0
 10
193.5005842968615
 20
104.2664849504745
 30
0.0
 10
194.3596413862811
 20
103.5000374334487
 30
0.0
 10
195.0335677330127
 20
103.0189951533268
 30
0.0
 10
195.6756097846698
 20
102.6497740966698
 30
0.0
 10
196.5936221246222
 20
102.2231797087551
 30
0.0
 10
197.8159021382072
 20
101.8563939591394
 30
0.0
 10
199.3695118384804
 20
101.7099883227959
 30
0.0
 10
200.9228857334792
 20
101.8563608631473
 30
0.0
  0
SPLINE
  5
C1
330
1F
100
AcDbEntity
  8
0
  6
Continuous
 62
     7
370
    15
100
AcDbSpline
210
0.0
220
0.0
230
1.0
 70
     8
 71
     3
 72
    39
 73
    35
 74
     0
 42
0.00000001
 43
0.00000001
 40
-0.093143391601796
 40
-0.0619641987636642
 40
-0.0306703171136946
 40
0.0
 40
0.0306894922037903
 40
0.0619993941499735
 40
0.0931977480136622
 40
0.1243182774470636
 40
0.1554749299644553
 40
0.1869843400891788
 40
0.2186532915073052
 40
0.2499314079048445
 40
0.2812370904801371
 40
0.3129690446093111
 40
0.3445540262321338
 40
0.3757573034806625
 40
0.4068752574722364
 40
0.4380224291935805
 40
0.4692819917765763
 40
0.5000135939734042
 40
0.5307425761018484
 40
0.5620344400063932
 40
0.5931976800593842
 40
0.6243292386199623
 40
0.6555145693243424
 40
0.6870757680782176
 40
0.7187637317847444
 40
0.7500676014102333
 40
0.7813443515001205
 40
0.8130504797072422
 40
0.8445809527306924
 40
0.8757550041348731
 40
0.9068566083982039
 40
0.9380358012363357
 40
0.9693296828863053
 40
0.9999999999999999
 40
1.03068949220379
 40
1.061999394149973
 40
1.093197748013662
 10
201.0992619028335
 20
100.9231908231508
 30
0.0
 10
199.3693198266774
 20
100.7481144504944
 30
0.0
 10
197.6390941102183
 20
100.9234310070728
 30
0.0
 10
195.9782657461991
 20
101.4498525806003
 30
0.0
 10
194.4436947619233
 20
102.2764437097571
 30
0.0
 10
193.1125187095045
 20
103.3906447922626
 30
0.0
 10
192.0189388893322
 20
104.7463218606541
 30
0.0
 10
191.208925754124
 20
106.3047916837714
 30
0.0
 10
190.6943494949116
 20
107.9941685337187
 30
0.0
 10
190.5239888369755
 20
109.7537772977352
 30
0.0
 10
190.695432177043
 20
111.5144352261041
 30
0.0
 10
191.2106420827992
 20
113.2067877138523
 30
0.0
 10
192.0210156039678
 20
114.7689526632076
 30
0.0
 10
193.1154471534658
 20
116.126815306223
 30
0.0
 10
194.4460670728656
 20
117.241391446887
 30
0.0
 10
195.9787717907926
 20
118.0674927734859
 30
0.0
 10
197.6391428057543
 20
118.5920831564891
 30
0.0
 10
199.3703596520279
 20
118.7660171994628
 30
0.0
 10
201.1021296297649
 20
118.5915179459629
 30
0.0
 10
202.7630925155707
 20
118.0660245916387
 30
0.0
 10
204.2966788819927
 20
117.2391331208024
 30
0.0
 10
205.626932295974
 20
116.1237247601399
 30
0.0
 10
206.7203647348544
 20
114.7657733007501
 30
0.0
 10
207.529763512897
 20
113.2048755643177
 30
0.0
 10
208.043947253075
 20
111.5135881027818
 30
0.0
 10
208.2153562433957
 20
109.7538509050103
 30
0.0
 10
208.0450630147341
 20
107.993568026892
 30
0.0
 10
207.5296750213223
 20
106.3033096150109
 30
0.0
 10
206.7188526332218
 20
104.7436897512985
 30
0.0
 10
205.6244304912617
 20
103.3881830566462
 30
0.0
 10
204.2930594107551
 20
102.2748421986991
 30
0.0
 10
202.7591860540111
 20
101.4491088346705
 30
0.0
 10
201.0992619028335
 20
100.9231908231508
 30
0.0
 10
199.3693198266774
 20
100.7481144504944
 30
0.0
 10
197.6390941102183
 20
100.9234310070728
 30
0.0
  0
SPLINE
  5
C2
330
1F
100
AcDbEntity
  8
0
  6
Continuous
 62
     7
370
    15
100
AcDbSpline
210
0.0
220
0.0
230
1.0
 70
     8
 71
     3
 72
    97
 73
    93
 74
     0
 42
0.00000001
 43
0.00000001
 40
-0.0312499999999991
 40
-0.0312499999999991
 40
0.0
 40
0.0
 40
0.0312499999999993
 40
0.0312499999999993
 40
0.0468749999999991
 40
0.0468749999999991
 40
0.0624999999999989
 40
0.0624999999999989
 40
0.0937499999999986
 40
0.0937499999999986
 40
0.1093749999999985
 40
0.1093749999999985
 40
0.1249999999999983
 40
0.1249999999999983
 40
0.1562499999999983
 40
0.1562499999999983
 40
0.1874999999999983
 40
0.1874999999999983
 40
0.2031249999999983
 40
0.2031249999999983
 40
0.2187499999999983
 40
0.2187499999999983
 40
0.2499999999999982
 40
0.2499999999999982
 40
0.2812499999999982
 40
0.2812499999999982
 40
0.3124999999999981
 40
0.3124999999999981
 40
0.328124999999998
 40
0.328124999999998
 40
0.3437499999999979
 40
0.3437499999999979
 40
0.3593749999999978
 40
0.3593749999999978
 40
0.3749999999999977
 40
0.3749999999999977
 40
0.4062499999999978
 40
0.4062499999999978
 40
0.4218749999999981
 40
0.4218749999999981
 40
0.4374999999999983
 40
0.4374999999999983
 40
0.4687499999999991
 40
0.4687499999999991
 40
0.4843749999999996
 40
0.4843749999999996
 40
0.4999999999999999
 40
0.4999999999999999
 40
0.5312500000000002
 40
0.5312500000000002
 40
0.5625000000000007
 40
0.5625000000000007
 40
0.578125000000001
 40
0.578125000000001
 40
0.5937500000000014
 40
0.5937500000000014
 40
0.6250000000000019
 40
0.6250000000000019
 40
0.640625000000002
 40
0.640625000000002
 40
0.6562500000000021
 40
0.6562500000000021
 40
0.687500000000002
 40
0.687500000000002
 40
0.703125000000002
 40
0.703125000000002
 40
0.7187500000000019
 40
0.7343750000000019
 40
0.7343750000000019
 40
0.7500000000000018
 40
0.7500000000000018
 40
0.7812500000000018
 40
0.7812500000000018
 40
0.8125000000000017
 40
0.8125000000000017
 40
0.8437500000000016
 40
0.8437500000000016
 40
0.8593750000000016
 40
0.8593750000000016
 40
0.8750000000000016
 40
0.8750000000000016
 40
0.8906250000000014
 40
0.8906250000000014
 40
0.9062500000000014
 40
0.9062500000000014
 40
0.9375000000000013
 40
0.9375000000000013
 40
0.9531250000000011
 40
0.9531250000000011
 40
0.9687500000000009
 40
0.9687500000000009
 40
1.0
 40
1.0
 40
1.031249999999999
 40
1.031249999999999
 10
173.8389652950436
 20
101.757203910775
 30
0.0
 10
174.9003955168339
 20
101.757203910775
 30
0.0
 10
175.4218167683622
 20
101.8094876662948
 30
0.0
 10
176.1906801638217
 20
101.9628305563117
 30
0.0
 10
176.4447406917005
 20
102.0265257356657
 30
0.0
 10
176.9483316942611
 20
102.1796173708608
 30
0.0
 10
177.1980602747968
 20
102.2692864657368
 30
0.0
 10
177.9238498128524
 20
102.5709363669079
 30
0.0
 10
178.3825016451834
 20
102.8167536030807
 30
0.0
 10
179.0335143325225
 20
103.2520675326371
 30
0.0
 10
179.2453686234325
 20
103.4092592651501
 30
0.0
 10
179.6505317583595
 20
103.7421107434366
 30
0.0
 10
179.8435135665215
 20
103.9172856786794
 30
0.0
 10
180.3945615479924
 20
104.4684625733715
 30
0.0
 10
180.7250128880178
 20
104.8698549658359
 30
0.0
 10
181.3099873576236
 20
105.7436555949126
 30
0.0
 10
181.5571929640113
 20
106.2060257729545
 30
0.0
 10
181.856989996703
 20
106.9273636632
 30
0.0
 10
181.9453381858034
 20
107.1729777030756
 30
0.0
 10
182.0983608354708
 20
107.6748219313215
 30
0.0
 10
182.1632806432598
 20
107.9325865029791
 30
0.0
 10
182.3180434325608
 20
108.7077952329773
 30
0.0
 10
182.3693538126767
 20
109.2282294013081
 30
0.0
 10
182.3700039208458
 20
110.2762533332401
 30
0.0
 10
182.3175677369887
 20
110.8086870674911
 30
0.0
 10
182.1125291508964
 20
111.8363439177562
 30
0.0
 10
181.9608462760623
 20
112.3360725798218
 30
0.0
 10
181.6587837560591
 20
113.0644781768807
 30
0.0
 10
181.5452999050447
 20
113.3038865613639
 30
0.0
 10
181.2981918087104
 20
113.7652212213167
 30
0.0
 10
181.1640564825234
 20
113.9885215709402
 30
0.0
 10
180.8749833371386
 20
114.4207464681679
 30
0.0
 10
180.7200452603626
 20
114.6296706339664
 30
0.0
 10
180.3890901609573
 20
115.033070849402
 30
0.0
 10
180.2120676072991
 20
115.2285115991086
 30
0.0
 10
179.6560914817214
 20
115.7845285297073
 30
0.0
 10
179.2544591721114
 20
116.1140612606828
 30
0.0
 10
178.6060739884454
 20
116.548422075028
 30
0.0
 10
178.3822329877848
 20
116.6831437022037
 30
0.0
 10
177.9185057547554
 20
116.9318160159812
 30
0.0
 10
177.6801104167397
 20
117.0448216351328
 30
0.0
 10
176.9559707477957
 20
117.345641040959
 30
0.0
 10
176.4573082443898
 20
117.4978520500356
 30
0.0
 10
175.684896898541
 20
117.6527191871529
 30
0.0
 10
175.421754076044
 20
117.6921093241985
 30
0.0
 10
174.8967584056294
 20
117.7441790396676
 30
0.0
 10
174.6347051669517
 20
117.7570918127774
 30
0.0
 10
173.8498478516747
 20
117.757425932053
 30
0.0
 10
173.3283341895408
 20
117.706820791124
 30
0.0
 10
172.2888767397393
 20
117.5000113208471
 30
0.0
 10
171.7881804209032
 20
117.3471914665925
 30
0.0
 10
171.065430342841
 20
117.0476047802794
 30
0.0
 10
170.8291854165473
 20
116.935909403345
 30
0.0
 10
170.3661686678564
 20
116.6883518014203
 30
0.0
 10
170.1394502451936
 20
116.5523047826709
 30
0.0
 10
169.4880108008797
 20
116.1166279535257
 30
0.0
 10
169.0865484456168
 20
115.7871786104425
 30
0.0
 10
168.5328478685832
 20
115.2343752133791
 30
0.0
 10
168.3555534484387
 20
115.0391557713785
 30
0.0
 10
168.0226238925508
 20
114.6340483961489
 30
0.0
 10
167.8672017778827
 20
114.4246848518417
 30
0.0
 10
167.4331652749284
 20
113.7765551533827
 30
0.0
 10
167.1864532735882
 20
113.3179508491373
 30
0.0
 10
166.8827094533652
 20
112.5882255733234
 30
0.0
 10
166.7933234291856
 20
112.3393321112351
 30
0.0
 10
166.640681838043
 20
111.8383481832357
 30
0.0
 10
166.51317621198
 20
111.331844991937
 30
0.0
 10
166.4354820176335
 20
110.8143635154582
 30
0.0
 10
166.3832002230769
 20
110.291268310932
 30
0.0
 10
166.3698220990169
 20
110.0253470737645
 30
0.0
 10
166.369400424446
 20
109.2337013181716
 30
0.0
 10
166.4208406512115
 20
108.7130269036555
 30
0.0
 10
166.6248503657282
 20
107.6854976775507
 30
0.0
 10
166.7799428796062
 20
107.1747791192623
 30
0.0
 10
167.1803387175079
 20
106.2094722961472
 30
0.0
 10
167.425786656569
 20
105.7500183690282
 30
0.0
 10
167.8628453447736
 20
105.0956701954704
 30
0.0
 10
168.0202019096045
 20
104.8835766151545
 30
0.0
 10
168.3513682090707
 20
104.4800798367118
 30
0.0
 10
168.5259447538375
 20
104.2874549488694
 30
0.0
 10
168.892874273899
 20
103.9200817885338
 30
0.0
 10
169.0852271817072
 20
103.7453337258228
 30
0.0
 10
169.4880428083755
 20
103.4138890544979
 30
0.0
 10
169.6996870869474
 20
103.2564328690263
 30
0.0
 10
170.3537704817715
 20
102.8183340872644
 30
0.0
 10
170.8125542299996
 20
102.5725860119785
 30
0.0
 10
171.5345697125539
 20
102.2718770907845
 30
0.0
 10
171.780921652473
 20
102.1830439255162
 30
0.0
 10
172.2854488288613
 20
102.0289731883487
 30
0.0
 10
172.542524126493
 20
101.9642189694965
 30
0.0
 10
173.3158879993861
 20
101.8095011595429
 30
0.0
 10
173.8389652950436
 20
101.757203910775
 30
0.0
 10
174.9003955168339
 20
101.757203910775
 30
0.0
  0
LINE
  5
C3
330
1F
100
AcDbEntity
  8
0
  6
Continuous
 62
     7
370
    15
100
AcDbLine
 10
154.9338873042
 20
142.171792988
 30
0.0
 11
155.1839883936
 21
142.1594697277
 31
0.0
  0
SPLINE
  5
C4
330
1F
100
AcDbEntity
  8
0
  6
Continuous
 62
     7
370
    15
100
AcDbSpline
210
0.0
220
0.0
230
1.0
 70
     8
 71
     3
 72
    17
 73
    13
 74
     0
 42
0.00000001
 43
0.00000001
 40
0.0
 40
0.0
 40
0.0
 40
0.0
 40
0.0401234063671116
 40
0.1341911619136455
 40
0.2305055201648423
 40
0.3336137781169085
 40
0.4449369269746751
 40
0.5625621693322705
 40
0.6824876772514367
 40
0.7999197715741302
 40
0.9099529781365661
 40
1.0
 40
1.0
 40
1.0
 40
1.0
 10
160.7757832420709
 20
142.2532464603852
 30
0.0
 10
160.7866568471807
 20
142.2542239389786
 30
0.0
 10
160.8230231938095
 20
142.2574930778696
 30
0.0
 10
160.5205529390871
 20
142.2302428976468
 30
0.0
 10
159.9184667470166
 20
142.1833540372367
 30
0.0
 10
159.0160395808792
 20
142.1303298920791
 30
0.0
 10
157.8911355520295
 20
142.0948991240971
 30
0.0
 10
156.6463232773873
 20
142.0960069632095
 30
0.0
 10
155.4492655621033
 20
142.1378129867004
 30
0.0
 10
154.5012397970187
 20
142.1985580972527
 30
0.0
 10
153.9121882846924
 20
142.248615763907
 30
0.0
 10
153.8606533821089
 20
142.253445724466
 30
0.0
 10
153.8374598635079
 20
142.2556194703053
 30
0.0
  0
LINE
  5
C5
330
1F
100
AcDbEntity
  8
0
  6
Continuous
 62
     7
370
    15
100
AcDbLine
 10
154.5360374761
 20
142.1986858587
 30
0.0
 11
154.9338873042
 21
142.171792988
 31
0.0
  0
SPLINE
  5
C6
330
1F
100
AcDbEntity
  8
0
  6
Continuous
 62
     7
370
    15
100
AcDbSpline
210
0.0
220
0.0
230
1.0
 70
     8
 71
     3
 72
    68
 73
    64
 74
     0
 42
0.00000001
 43
0.00000001
 40
-0.0312500000000004
 40
-0.0312500000000004
 40
0.0
 40
0.0
 40
0.0312499999999998
 40
0.0312499999999998
 40
0.0624999999999996
 40
0.0624999999999996
 40
0.0937499999999995
 40
0.0937499999999995
 40
0.1249999999999993
 40
0.1249999999999993
 40
0.1562499999999991
 40
0.1562499999999991
 40
0.1874999999999989
 40
0.1874999999999989
 40
0.2187499999999987
 40
0.2187499999999987
 40
0.2499999999999986
 40
0.2499999999999986
 40
0.2812499999999984
 40
0.2812499999999984
 40
0.3124999999999982
 40
0.3124999999999982
 40
0.343749999999998
 40
0.343749999999998
 40
0.3749999999999978
 40
0.3749999999999978
 40
0.4062499999999977
 40
0.4062499999999977
 40
0.4374999999999974
 40
0.4374999999999974
 40
0.4687499999999973
 40
0.4687499999999973
 40
0.4999999999999971
 40
0.4999999999999971
 40
0.5312499999999969
 40
0.5312499999999969
 40
0.5624999999999968
 40
0.5624999999999968
 40
0.6249999999999964
 40
0.6249999999999964
 40
0.6562499999999967
 40
0.6562499999999967
 40
0.6874999999999969
 40
0.6874999999999969
 40
0.7187499999999972
 40
0.7187499999999972
 40
0.7499999999999974
 40
0.7499999999999974
 40
0.7812499999999977
 40
0.7812499999999977
 40
0.812499999999998
 40
0.812499999999998
 40
0.8437499999999982
 40
0.8437499999999982
 40
0.8749999999999984
 40
0.8749999999999984
 40
0.9062499999999988
 40
0.9062499999999988
 40
0.937499999999999
 40
0.937499999999999
 40
0.9687499999999996
 40
0.9687499999999996
 40
1.0
 40
1.0
 40
1.03125
 40
1.03125
 10
154.765626619191
 20
111.9672571735113
 30
0.0
 10
155.102151584364
 20
112.2564372365381
 30
0.0
 10
155.281570998651
 20
112.3824687570976
 30
0.0
 10
155.6609479339913
 20
112.600457165736
 30
0.0
 10
155.8626683612952
 20
112.6929635932482
 30
0.0
 10
156.2788853605713
 20
112.8400493640343
 30
0.0
 10
156.4912289702158
 20
112.8942578327681
 30
0.0
 10
156.9240835236544
 20
112.9654416412543
 30
0.0
 10
157.1467296324377
 20
112.9822307316585
 30
0.0
 10
157.5865222643479
 20
112.9767665114315
 30
0.0
 10
157.8042637107919
 20
112.9550280731119
 30
0.0
 10
158.2354370110318
 20
112.8735174487027
 30
0.0
 10
158.4505606374712
 20
112.8128309631117
 30
0.0
 10
158.8603576722732
 20
112.6563133433596
 30
0.0
 10
159.0566724555402
 20
112.5605002171227
 30
0.0
 10
159.4315745555425
 20
112.3325387977617
 30
0.0
 10
159.6109910739017
 20
112.1990953997178
 30
0.0
 10
159.9352567764241
 20
111.9051864325329
 30
0.0
 10
160.0822185773419
 20
111.7437683835008
 30
0.0
 10
160.343789007138
 20
111.3900093020205
 30
0.0
 10
160.4574428348684
 20
111.1977411876909
 30
0.0
 10
160.6386960180147
 20
110.7998465780183
 30
0.0
 10
160.7081220258081
 20
110.5920407376102
 30
0.0
 10
160.8008366403007
 20
110.1571245809965
 30
0.0
 10
160.8222622764644
 20
109.9384429943073
 30
0.0
 10
160.8166082475591
 20
109.4999071495692
 30
0.0
 10
160.7886226413056
 20
109.2772464812974
 30
0.0
 10
160.6856377619015
 20
108.8495058050215
 30
0.0
 10
160.6112260556731
 20
108.6429940945174
 30
0.0
 10
160.4171795482772
 20
108.2444691534857
 30
0.0
 10
160.2996332825132
 20
108.0572671009129
 30
0.0
 10
160.0300949571574
 20
107.7108500732005
 30
0.0
 10
159.8757434829125
 20
107.5492838566835
 30
0.0
 10
159.5423921176114
 20
107.2620263774312
 30
0.0
 10
159.3633234869797
 20
107.135466049645
 30
0.0
 10
158.9812426821015
 20
106.915236808162
 30
0.0
 10
158.7788145984695
 20
106.8224359181524
 30
0.0
 10
158.1588684598961
 20
106.602635852542
 30
0.0
 10
157.7145637458577
 20
106.5298633735305
 30
0.0
 10
157.0575357758345
 20
106.5373639847977
 30
0.0
 10
156.8378806794033
 20
106.5588937845235
 30
0.0
 10
156.4024540317041
 20
106.6411280906054
 30
0.0
 10
156.191459915639
 20
106.7007778437825
 30
0.0
 10
155.7826523564352
 20
106.856487174914
 30
0.0
 10
155.583385457834
 20
106.9534324170301
 30
0.0
 10
155.2058824196141
 20
107.1830781378837
 30
0.0
 10
155.0304099375064
 20
107.3137119510764
 30
0.0
 10
154.7062865308217
 20
107.6069977011315
 30
0.0
 10
154.5560858203328
 20
107.7718527576861
 30
0.0
 10
154.2943825677777
 20
108.1262241706445
 30
0.0
 10
154.1831271352536
 20
108.3143533852799
 30
0.0
 10
154.0011001685003
 20
108.7132674148354
 30
0.0
 10
153.930258788648
 20
108.9264767087352
 30
0.0
 10
153.8389268959865
 20
109.3558846404121
 30
0.0
 10
153.8170352539341
 20
109.5740223854292
 30
0.0
 10
153.8228290638271
 20
110.0174615070875
 30
0.0
 10
153.8508140290308
 20
110.237426328475
 30
0.0
 10
153.9535724084045
 20
110.6643263853113
 30
0.0
 10
154.0297355795458
 20
110.8751280702297
 30
0.0
 10
154.2229003144778
 20
111.2709836301028
 30
0.0
 10
154.3395153795322
 20
111.4570521177077
 30
0.0
 10
154.6115282163437
 20
111.8062799389301
 30
0.0
 10
154.765626619191
 20
111.9672571735113
 30
0.0
 10
155.102151584364
 20
112.2564372365381
 30
0.0
  0
SPLINE
  5
C7
330
1F
100
AcDbEntity
  8
0
  6
Continuous
 62
     7
370
    15
100
AcDbSpline
210
0.0
220
0.0
230
1.0
 70
     8
 71
     3
 72
    17
 73
    13
 74
     0
 42
0.00000001
 43
0.00000001
 40
0.0
 40
0.0
 40
0.0
 40
0.0
 40
0.0537388448863888
 40
0.1477747040151237
 40
0.2448745505225
 40
0.3491875846298608
 40
0.4616329385035021
 40
0.5798874402545763
 40
0.6997828194110409
 40
0.8164466543317764
 40
0.9251322118538255
 40
1.0
 40
1.0
 40
1.0
 40
1.0
 10
153.8636803192737
 20
77.2611725370358
 30
0.0
 10
153.8571126695819
 20
77.26058958733543
 30
0.0
 10
153.8390525030241
 20
77.25898655288968
 30
0.0
 10
154.1875555588679
 20
77.29000734558282
 30
0.0
 10
154.8353608927555
 20
77.33894712211823
 30
0.0
 10
155.774114659981
 20
77.39081843825267
 30
0.0
 10
156.9250994156837
 20
77.42195207594888
 30
0.0
 10
158.1737902102556
 20
77.41466537501762
 30
0.0
 10
159.3485231090455
 20
77.36809940633552
 30
0.0
 10
160.2455335254435
 20
77.3074208703294
 30
0.0
 10
160.7600777714682
 20
77.26270592788754
 30
0.0
 10
160.7778773493729
 20
77.26100025479668
 30
0.0
 10
160.7851374460103
 20
77.26030454439626
 30
0.0
  0
SPLINE
  5
C8
330
1F
100
AcDbEntity
  8
0
  6
Continuous
 62
     7
370
    15
100
AcDbSpline
210
0.0
220
0.0
230
1.0
 70
     8
 71
     3
 72
     9
 73
     5
 74
     0
 42
0.00000001
 43
0.00000001
 40
0.0
 40
0.0
 40
0.0
 40
0.0
 40
0.0518131292436231
 40
1.0
 40
1.0
 40
1.0
 40
1.0
 10
155.7091127646806
 20
77.3825313190888
 30
0.0
 10
155.6937837521712
 20
77.38211514431991
 30
0.0
 10
155.3979318564613
 20
77.3740829182226
 30
0.0
 10
155.1597388169353
 20
77.35793042014647
 30
0.0
 10
154.9338873041513
 20
77.34261483354078
 30
0.0
  0
CIRCLE
  5
C9
330
1F
100
AcDbEntity
  8
0
  6
Continuous
 62
     7
370
    15
100
AcDbCircle
 10
157.3196804059
 20
109.7572039108
 30
0.0
 40
2.5
  0
SPLINE
  5
CA
330
1F
100
AcDbEntity
  8
0
  6
Continuous
 62
     7
370
    15
100
AcDbSpline
210
0.0
220
0.0
230
1.0
 70
     8
 71
     3
 72
    12
 73
     8
 74
     0
 42
0.00000001
 43
0.00000001
 40
0.0
 40
0.0
 40
0.0
 40
0.0
 40
0.4999999999999953
 40
0.4999999999999953
 40
0.7499999999999977
 40
0.7499999999999977
 40
1.0
 40
1.0
 40
1.0
 40
1.0
 10
151.8196804059388
 20
157.7259437316209
 30
0.0
 10
151.8196804059388
 20
157.9912131643873
 30
0.0
 10
151.7150736624523
 20
158.2537282700397
 30
0.0
 10
151.4384053107071
 20
158.539265876077
 30
0.0
 10
151.3280400513551
 20
158.6155874929383
 30
0.0
 10
151.0839680027393
 20
158.7199296577785
 30
0.0
 10
150.9522155414076
 20
158.7469987664386
 30
0.0
 10
150.8196804059388
 20
158.7469987664386
 30
0.0
  0
SPLINE
  5
CB
330
1F
100
AcDbEntity
  8
0
  6
Continuous
 62
     7
370
    15
100
AcDbSpline
210
0.0
220
0.0
230
1.0
 70
     8
 71
     3
 72
    16
 73
    12
 74
     0
 42
0.00000001
 43
0.00000001
 40
0.0
 40
0.0
 40
0.0
 40
0.0
 40
0.1249999999999978
 40
0.1249999999999978
 40
0.2499999999999955
 40
0.2499999999999955
 40
0.499999999999997
 40
0.499999999999997
 40
0.7499999999999984
 40
0.7499999999999984
 40
1.0
 40
1.0
 40
1.0
 40
1.0
 10
150.8196804059388
 20
148.708166671662
 30
0.0
 10
150.89531811235
 20
148.708166671662
 30
0.0
 10
150.9716337767682
 20
148.6968216715271
 30
0.0
 10
151.1160445146602
 20
148.6541691208885
 30
0.0
 10
151.1844909637686
 20
148.6232347962057
 30
0.0
 10
151.3794222163817
 20
148.5039784244381
 30
0.0
 10
151.4872633901626
 20
148.3938264108175
 30
0.0
 10
151.6559761383747
 20
148.1456903251594
 30
0.0
 10
151.7183405510982
 20
148.0053480011557
 30
0.0
 10
151.7996444756066
 20
147.7170763096671
 30
0.0
 10
151.8196804059388
 20
147.5662713366873
 30
0.0
 10
151.8196804059388
 20
147.415901445342
 30
0.0
  0
LINE
  5
CC
330
1F
100
AcDbEntity
  8
0
  6
Continuous
 62
     7
370
    15
100
AcDbLine
 10
151.8196805877
 20
147.4159027676
 30
0.0
 11
151.8196805877
 21
157.7259454171
 31
0.0
  0
SPLINE
  5
CD
330
1F
100
AcDbEntity
  8
0
  6
Continuous
 62
     7
370
    15
100
AcDbSpline
210
0.0
220
0.0
230
1.0
 70
     8
 71
     3
 72
    14
 73
    10
 74
     0
 42
0.00000001
 43
0.00000001
 40
0.0
 40
0.0
 40
0.0
 40
0.0
 40
0.25
 40
0.25
 40
0.5
 40
0.5
 40
0.75
 40
0.75
 40
1.0
 40
1.0
 40
1.0
 40
1.0
 10
144.7796804059388
 20
155.450755151623
 30
0.0
 10
144.7796804059388
 20
155.3443984578707
 30
0.0
 10
144.7592928497976
 20
155.2385579701106
 30
0.0
 10
144.680658504336
 20
155.0419930565741
 30
0.0
 10
144.6219271446974
 20
154.950822314287
 30
0.0
 10
144.4753182390948
 20
154.7989112252554
 30
0.0
 10
144.3859129190683
 20
154.7368423884358
 30
0.0
 10
144.192022186468
 20
154.6535743406771
 30
0.0
 10
144.0855171965782
 20
154.6314796709475
 30
0.0
 10
143.9796804059388
 20
154.6314796709474
 30
0.0
  0
SPLINE
  5
CE
330
1F
100
AcDbEntity
  8
0
  6
Continuous
 62
     7
370
    15
100
AcDbSpline
210
0.0
220
0.0
230
1.0
 70
     8
 71
     3
 72
    12
 73
     8
 74
     0
 42
0.00000001
 43
0.00000001
 40
0.0
 40
0.0
 40
0.0
 40
0.0
 40
0.250000000000002
 40
0.250000000000002
 40
0.500000000000004
 40
0.500000000000004
 40
1.0
 40
1.0
 40
1.0
 40
1.0
 10
143.9796804059388
 20
143.3857353238475
 30
0.0
 10
144.1033813559188
 20
143.3857353238475
 30
0.0
 10
144.227477968189
 20
143.4277289355801
 30
0.0
 10
144.434133131276
 20
143.5655242622245
 30
0.0
 10
144.5191738980029
 20
143.6594978606893
 30
0.0
 10
144.7186524664765
 20
143.9742860669103
 30
0.0
 10
144.7796804059388
 20
144.2245250591378
 30
0.0
 10
144.7796804059388
 20
144.4714391032721
 30
0.0
  0
SPLINE
  5
CF
330
1F
100
AcDbEntity
  8
0
  6
Continuous
 62
     7
370
    15
100
AcDbSpline
210
0.0
220
0.0
230
1.0
 70
     8
 71
     3
 72
     8
 73
     4
 74
     0
 42
0.00000001
 43
0.00000001
 40
0.0
 40
0.0
 40
0.0
 40
0.0
 40
1.0
 40
1.0
 40
1.0
 40
1.0
 10
139.6076513850174
 20
148.708166671662
 30
0.0
 10
140.064577738817
 20
147.6922487019877
 30
0.0
 10
140.51578338062
 20
146.6734528728965
 30
0.0
 10
140.9596804059388
 20
145.6526514169129
 30
0.0
  0
LINE
  5
D0
330
1F
100
AcDbEntity
  8
0
  6
Continuous
 62
     7
370
    15
100
AcDbLine
 10
140.959680782
 20
145.6526520888
 30
0.0
 11
140.959680782
 21
144.4714407663
 31
0.0
  0
SPLINE
  5
D1
330
1F
100
AcDbEntity
  8
0
  6
Continuous
 62
     7
370
    15
100
AcDbSpline
210
0.0
220
0.0
230
1.0
 70
     8
 71
     3
 72
    14
 73
    10
 74
     0
 42
0.00000001
 43
0.00000001
 40
0.0
 40
0.0
 40
0.0
 40
0.0
 40
0.25
 40
0.25
 40
0.5
 40
0.5
 40
0.75
 40
0.75
 40
1.0
 40
1.0
 40
1.0
 40
1.0
 10
140.9596804059388
 20
144.4714391032721
 30
0.0
 10
140.9596804059388
 20
144.3475722264829
 30
0.0
 10
140.9755395335664
 20
144.2233125496454
 30
0.0
 10
141.0389011790863
 20
143.9857041872395
 30
0.0
 10
141.0874908871357
 20
143.868923802487
 30
0.0
 10
141.2197764919105
 20
143.660121273878
 30
0.0
 10
141.3051012831711
 20
143.5656105702854
 30
0.0
 10
141.5119925314773
 20
143.4276537694832
 30
0.0
 10
141.6359604773673
 20
143.3857353238475
 30
0.0
 10
141.7596804059388
 20
143.3857353238475
 30
0.0
  0
LINE
  5
D2
330
1F
100
AcDbEntity
  8
0
  6
Continuous
 62
     7
370
    15
100
AcDbLine
 10
141.7596812857
 20
143.3857347111
 30
0.0
 11
143.9796804947
 21
143.3857347111
 31
0.0
  0
LINE
  5
D3
330
1F
100
AcDbEntity
  8
0
  6
Continuous
 62
     7
370
    15
100
AcDbLine
 10
144.7796809984
 20
144.4714407663
 30
0.0
 11
144.7796809984
 21
145.6526520888
 31
0.0
  0
SPLINE
  5
D4
330
1F
100
AcDbEntity
  8
0
  6
Continuous
 62
     7
370
    15
100
AcDbSpline
210
0.0
220
0.0
230
1.0
 70
     8
 71
     3
 72
     8
 73
     4
 74
     0
 42
0.00000001
 43
0.00000001
 40
0.0
 40
0.0
 40
0.0
 40
0.0
 40
1.0
 40
1.0
 40
1.0
 40
1.0
 10
144.7796804059388
 20
145.6526514169129
 30
0.0
 10
145.2238304169643
 20
146.6740346478645
 30
0.0
 10
145.6749047272222
 20
147.6925191846329
 30
0.0
 10
146.1317094268602
 20
148.708166671662
 30
0.0
  0
LINE
  5
D5
330
1F
100
AcDbEntity
  8
0
  6
Continuous
 62
     7
370
    15
100
AcDbLine
 10
146.1317099197
 20
148.7081649939
 30
0.0
 11
150.8196804238
 21
148.7081649939
 31
0.0
  0
LINE
  5
D6
330
1F
100
AcDbEntity
  8
0
  6
Continuous
 62
     7
370
    15
100
AcDbLine
 10
151.8196805877
 20
147.4159027676
 30
0.0
 11
151.8196805877
 21
141.1072056035
 31
0.0
  0
LINE
  5
D7
330
1F
100
AcDbEntity
  8
0
  6
Continuous
 62
     7
370
    15
100
AcDbLine
 10
150.8196804238
 20
158.7469990591
 30
0.0
 11
146.1317099197
 21
158.7469990591
 31
0.0
  0
LINE
  5
D8
330
1F
100
AcDbEntity
  8
0
  6
Continuous
 62
     7
370
    15
100
AcDbLine
 10
146.1317099197
 20
148.7081649939
 30
0.0
 11
146.1317099197
 21
158.7469990591
 31
0.0
  0
SPLINE
  5
D9
330
1F
100
AcDbEntity
  8
0
  6
Continuous
 62
     7
370
    15
100
AcDbSpline
210
0.0
220
0.0
230
1.0
 70
     8
 71
     3
 72
     8
 73
     4
 74
     0
 42
0.00000001
 43
0.00000001
 40
0.0
 40
0.0
 40
0.0
 40
0.0
 40
1.0
 40
1.0
 40
1.0
 40
1.0
 10
146.1317094268602
 20
158.7469987664386
 30
0.0
 10
145.680682458147
 20
157.9496881962508
 30
0.0
 10
145.2299886416234
 20
157.1521898965936
 30
0.0
 10
144.7796804059388
 20
156.3544747714799
 30
0.0
  0
LINE
  5
DA
330
1F
100
AcDbEntity
  8
0
  6
Continuous
 62
     7
370
    15
100
AcDbLine
 10
144.7796809984
 20
145.6526520888
 30
0.0
 11
144.7796809984
 21
156.3544760684
 31
0.0
  0
SPLINE
  5
DB
330
1F
100
AcDbEntity
  8
0
  6
Continuous
 62
     7
370
    15
100
AcDbSpline
210
0.0
220
0.0
230
1.0
 70
     8
 71
     3
 72
    10
 73
     6
 74
     0
 42
0.00000001
 43
0.00000001
 40
0.0
 40
0.0
 40
0.0
 40
0.0
 40
0.5
 40
0.5
 40
1.0
 40
1.0
 40
1.0
 40
1.0
 10
141.7596804059388
 20
154.6314796709475
 30
0.0
 10
141.5471440920825
 20
154.6314796709475
 30
0.0
 10
141.3372079204285
 20
154.7228922575777
 30
0.0
 10
141.0435007794172
 20
155.0276371234819
 30
0.0
 10
140.9596804059388
 20
155.2397920933905
 30
0.0
 10
140.9596804059388
 20
155.450755151623
 30
0.0
  0
SPLINE
  5
DC
330
1F
100
AcDbEntity
  8
0
  6
Continuous
 62
     7
370
    15
100
AcDbSpline
210
0.0
220
0.0
230
1.0
 70
     8
 71
     3
 72
     8
 73
     4
 74
     0
 42
0.00000001
 43
0.00000001
 40
0.0
 40
0.0
 40
0.0
 40
0.0
 40
1.0
 40
1.0
 40
1.0
 40
1.0
 10
140.9596804059388
 20
156.3544747714799
 30
0.0
 10
140.5093721702543
 20
157.1521898965936
 30
0.0
 10
140.0586783537307
 20
157.9496881962508
 30
0.0
 10
139.6076513850174
 20
158.7469987664386
 30
0.0
  0
LINE
  5
DD
330
1F
100
AcDbEntity
  8
0
  6
Continuous
 62
     7
370
    15
100
AcDbLine
 10
140.959680782
 20
145.6526520888
 30
0.0
 11
140.959680782
 21
156.3544760684
 31
0.0
  0
LINE
  5
DE
330
1F
100
AcDbEntity
  8
0
  6
Continuous
 62
     7
370
    15
100
AcDbLine
 10
143.9796804947
 20
154.6314808766
 30
0.0
 11
141.7596812857
 21
154.6314808766
 31
0.0
  0
ARC
  5
DF
330
1F
100
AcDbEntity
  8
0
  6
Continuous
 62
     7
370
    15
100
AcDbCircle
 10
131.8697290792
 20
142.4004294355
 30
0.0
 40
11.37435863118777
100
AcDbArc
 50
77.8283012511
 51
102.1901972773
  0
LINE
  5
E0
330
1F
100
AcDbEntity
  8
0
  6
Continuous
 62
     7
370
    15
100
AcDbLine
 10
222.8696818961
 20
88.0856312106
 30
0.0
 11
222.8696818961
 21
131.4287766109
 31
0.0
  0
LINE
  5
E1
330
1F
100
AcDbEntity
  8
0
  6
Continuous
 62
     7
370
    15
100
AcDbLine
 10
74.6196794821
 20
77.5072056095
 30
0.0
 11
74.6196794821
 21
77.508919243
 31
0.0
  0
LINE
  5
E2
330
1F
100
AcDbEntity
  8
0
  6
Continuous
 62
     7
370
    15
100
AcDbLine
 10
74.6196794821
 20
142.007202212
 30
0.0
 11
74.6196794821
 21
142.0054885785
 31
0.0
  0
LWPOLYLINE
  5
E3
330
1F
100
AcDbEntity
  8
0
  6
HIDDEN
 62
     7
370
     0
100
AcDbPolyline
 90
       20
 70
   128
 43
0.0
 10
215.7325323237
 20
96.3124123628
 10
215.7415922297
 20
95.713313971
 10
215.7423074854
 20
95.235129189
 10
215.7345886839
 20
94.929676805
 10
215.7192777408
 20
94.8300560231
 10
215.6980435861
 20
94.9470645974
 10
215.6731660975
 20
95.2680207084
 10
215.6473572863
 20
95.7581450458
 10
215.6234111203
 20
96.3643242831
 10
215.6039204014
 20
97.0208703767
 10
215.5909936441
 20
97.6566358696
 10
215.586039008
 20
98.2027252431
 10
215.5895929349
 20
98.5999613295
 10
215.6012605441
 20
98.8052983995
 10
215.6197901381
 20
98.7964843626
 10
215.6431626094
 20
98.5744747559
 10
215.6688522113
 20
98.1633265729
 10
215.6940798772
 20
97.6075952168
 10
215.7160963429
 20
96.9675027992
 10
215.7325323237
 20
96.3124123628
  0
LWPOLYLINE
  5
E4
330
1F
100
AcDbEntity
  8
0
  6
HIDDEN
 62
     7
370
     0
100
AcDbPolyline
 90
       17
 70
   128
 43
0.0
 10
214.9576048864
 20
96.4853515143
 10
214.9637665165
 20
96.0480089526
 10
214.9625073684
 20
95.7264120917
 10
214.9540435089
 20
95.5695196281
 10
214.9396489871
 20
95.6012190546
 10
214.921514274
 20
95.8166823949
 10
214.9024035347
 20
96.1831093992
 10
214.8852299465
 20
96.6447129141
 10
214.8726086629
 20
97.1312190632
 10
214.8664544834
 20
97.568561625
 10
214.8677061809
 20
97.8901594172
 10
214.876177491
 20
98.0470509495
 10
214.8905720127
 20
98.0153524543
 10
214.9086992753
 20
97.7998881827
 10
214.9278100146
 20
97.4334621097
 10
214.9449836028
 20
96.9718576635
 10
214.9576048864
 20
96.4853515143
  0
LWPOLYLINE
  5
E5
330
1F
100
AcDbEntity
  8
0
  6
HIDDEN
 62
     7
370
     0
100
AcDbPolyline
 90
       20
 70
   128
 43
0.0
 10
222.7519478215
 20
96.5074275847
 10
222.7610077275
 20
95.9083291928
 10
222.7617229832
 20
95.4301444109
 10
222.7540041817
 20
95.1246920268
 10
222.7387006892
 20
95.0250721763
 10
222.7174590839
 20
95.1420798193
 10
222.6925815953
 20
95.4630359302
 10
222.6667727841
 20
95.9531602676
 10
222.642826618
 20
96.5593404363
 10
222.6233358992
 20
97.2158855985
 10
222.6104091419
 20
97.8516510914
 10
222.6054545058
 20
98.3977404649
 10
222.6090084327
 20
98.7949774827
 10
222.6206760419
 20
99.0003145526
 10
222.6392056359
 20
98.9915005158
 10
222.6625781072
 20
98.7694899778
 10
222.6882751597
 20
98.3583417947
 10
222.713495375
 20
97.8026104386
 10
222.7355118407
 20
97.162518021
 10
222.7519478215
 20
96.5074275847
  0
LWPOLYLINE
  5
E6
330
1F
100
AcDbEntity
  8
0
  6
HIDDEN
 62
     7
370
     0
100
AcDbPolyline
 90
       11
 70
   128
 43
0.0
 10
222.9557510031
 20
95.4229164164
 10
222.9454617513
 20
95.443925191
 10
222.9243542565
 20
95.6488478224
 10
222.9011755002
 20
96.0403525497
 10
222.8790398253
 20
96.5655653964
 10
222.860942365
 20
97.1535531099
 10
222.8493269099
 20
97.7249046083
 10
222.8457655323
 20
98.2024560909
 10
222.8507350696
 20
98.5217106755
 10
222.8635649694
 20
98.6395518522
 10
222.8696818961
 20
98.6291508417
  0
LINE
  5
E7
330
1F
100
AcDbEntity
  8
0
  6
HIDDEN
 62
     7
370
     0
100
AcDbLine
 10
222.9089390052
 20
97.84686875
 30
0.0
 11
222.948203565
 21
96.7320588644
 31
0.0
  0
LINE
  5
E8
330
1F
100
AcDbEntity
  8
0
  6
HIDDEN
 62
     7
370
     0
100
AcDbLine
 10
220.4108710898
 20
97.7774665917
 30
0.0
 11
220.4501281989
 21
96.6626567061
 31
0.0
  0
LINE
  5
E9
330
1F
100
AcDbEntity
  8
0
  6
HIDDEN
 62
     7
370
     0
100
AcDbLine
 10
220.4501281989
 20
95.846160617
 30
0.0
 11
220.4501281989
 21
96.6626567061
 31
0.0
  0
LINE
  5
EA
330
1F
100
AcDbEntity
  8
0
  6
HIDDEN
 62
     7
370
     0
100
AcDbLine
 10
220.4501281989
 20
96.6626567061
 30
0.0
 11
222.948203565
 21
96.7320588644
 31
0.0
  0
LINE
  5
EB
330
1F
100
AcDbEntity
  8
0
  6
HIDDEN
 62
     7
370
     0
100
AcDbLine
 10
222.948203565
 20
95.9155627753
 30
0.0
 11
222.948203565
 21
96.7320588644
 31
0.0
  0
LINE
  5
EC
330
1F
100
AcDbEntity
  8
0
  6
HIDDEN
 62
     7
370
     0
100
AcDbLine
 10
220.4108710898
 20
97.7774665917
 30
0.0
 11
220.37160653
 21
98.0757803882
 31
0.0
  0
LINE
  5
ED
330
1F
100
AcDbEntity
  8
0
  6
HIDDEN
 62
     7
370
     0
100
AcDbLine
 10
220.4108710898
 20
97.7774665917
 30
0.0
 11
222.9089390052
 21
97.84686875
 31
0.0
  0
LINE
  5
EE
330
1F
100
AcDbEntity
  8
0
  6
HIDDEN
 62
     7
370
     0
100
AcDbLine
 10
222.9089390052
 20
97.84686875
 30
0.0
 11
222.8696818961
 21
98.1451825465
 31
0.0
  0
LINE
  5
EF
330
1F
100
AcDbEntity
  8
0
  6
HIDDEN
 62
     7
370
     0
100
AcDbLine
 10
220.4108710898
 20
96.1444734822
 30
0.0
 11
222.9089390052
 21
96.2138756405
 31
0.0
  0
LINE
  5
F0
330
1F
100
AcDbEntity
  8
0
  6
HIDDEN
 62
     7
370
     0
100
AcDbLine
 10
220.4501281989
 20
95.846160617
 30
0.0
 11
222.948203565
 21
95.9155627753
 31
0.0
  0
LINE
  5
F1
330
1F
100
AcDbEntity
  8
0
  6
HIDDEN
 62
     7
370
     0
100
AcDbLine
 10
220.4501281989
 20
95.846160617
 30
0.0
 11
220.4108710898
 21
96.1444734822
 31
0.0
  0
LINE
  5
F2
330
1F
100
AcDbEntity
  8
0
  6
HIDDEN
 62
     7
370
     0
100
AcDbLine
 10
222.948203565
 20
95.9155627753
 30
0.0
 11
222.9089390052
 21
96.2138756405
 31
0.0
  0
LINE
  5
F3
330
1F
100
AcDbEntity
  8
0
  6
HIDDEN
 62
     7
370
     0
100
AcDbLine
 10
220.37160653
 20
97.2592833678
 30
0.0
 11
222.8696818961
 21
97.3286855261
 31
0.0
  0
LINE
  5
F4
330
1F
100
AcDbEntity
  8
0
  6
HIDDEN
 62
     7
370
     0
100
AcDbLine
 10
220.37160653
 20
98.0757803882
 30
0.0
 11
222.8696818961
 21
98.1451825465
 31
0.0
  0
LINE
  5
F5
330
1F
100
AcDbEntity
  8
0
  6
HIDDEN
 62
     7
370
     0
100
AcDbLine
 10
220.37160653
 20
98.0757803882
 30
0.0
 11
220.37160653
 21
97.2592833678
 31
0.0
  0
LINE
  5
F6
330
1F
100
AcDbEntity
  8
0
  6
HIDDEN
 62
     7
370
     0
100
AcDbLine
 10
220.4108710898
 20
96.1444734822
 30
0.0
 11
220.37160653
 21
97.2592833678
 31
0.0
  0
LINE
  5
F7
330
1F
100
AcDbEntity
  8
0
  6
HIDDEN
 62
     7
370
     0
100
AcDbLine
 10
222.9089390052
 20
96.2138756405
 30
0.0
 11
222.8696818961
 21
97.3286855261
 31
0.0
  0
LWPOLYLINE
  5
F8
330
1F
100
AcDbEntity
  8
0
  6
HIDDEN
 62
     7
370
     0
100
AcDbPolyline
 90
        3
 70
   128
 43
0.0
 10
222.8304173363
 20
121.3477750535
 10
222.8532533658
 20
121.8355869169
 10
222.8696818961
 20
122.3005618195
  0
LWPOLYLINE
  5
F9
330
1F
100
AcDbEntity
  8
0
  6
HIDDEN
 62
     7
370
     0
100
AcDbPolyline
 90
       13
 70
   128
 43
0.0
 10
222.8696818961
 20
124.0849944989
 10
222.8636990798
 20
124.0529895986
 10
222.8420327915
 20
123.814300936
 10
222.8188093317
 20
123.3962479274
 10
222.7971430434
 20
122.8552892099
 10
222.7799769057
 20
122.2644851769
 10
222.7696280492
 20
121.7036278213
 10
222.767482282
 20
121.2484625394
 10
222.7738376273
 20
120.9604640718
 10
222.7878372682
 20
120.8785263116
 10
222.8075887574
 20
121.0137152339
 10
222.8304173363
 20
121.3477750535
 10
222.8304173363
 20
121.3477750535
  0
LWPOLYLINE
  5
FA
330
1F
100
AcDbEntity
  8
0
  6
HIDDEN
 62
     7
370
     0
100
AcDbPolyline
 90
       20
 70
   128
 43
0.0
 10
222.6054247034
 20
121.0782540257
 10
222.6309205902
 20
121.6137207339
 10
222.6536523116
 20
122.2444123815
 10
222.671161176
 20
122.9019857238
 10
222.6815472854
 20
123.5151806141
 10
222.6836781515
 20
124.0175490494
 10
222.6773302568
 20
124.3546514998
 10
222.6631965054
 20
124.4899568374
 10
222.6427968157
 20
124.4088032509
 10
222.6183514608
 20
124.1199852194
 10
222.5925053967
 20
123.6548007692
 10
222.5680600417
 20
123.0636586661
 10
222.5476603521
 20
122.4106199334
 10
222.5335191501
 20
121.7664501856
 10
222.527178706
 20
121.2009557749
 10
222.5293095721
 20
120.7754167954
 10
222.5396956814
 20
120.5359467532
 10
222.5571970952
 20
120.5084960203
 10
222.5799288166
 20
120.6960392411
 10
222.6054247034
 20
121.0782540257
  0
LWPOLYLINE
  5
FB
330
1F
100
AcDbEntity
  8
0
  6
HIDDEN
 62
     7
370
     0
100
AcDbPolyline
 90
       20
 70
   128
 43
0.0
 10
215.5860092057
 20
121.2732692475
 10
215.6115050925
 20
121.8087359558
 10
215.6342368139
 20
122.4394285346
 10
215.6517456783
 20
123.0970009456
 10
215.662124337
 20
123.710195836
 10
215.6642626537
 20
124.2125642712
 10
215.657914759
 20
124.5496667216
 10
215.6437810076
 20
124.6849720593
 10
215.6233813179
 20
124.6038194041
 10
215.598935963
 20
124.3150013725
 10
215.5730824483
 20
123.8498159911
 10
215.5486370934
 20
123.2586748193
 10
215.5282448543
 20
122.6056351553
 10
215.5141036523
 20
121.9614654074
 10
215.5077557577
 20
121.3959709967
 10
215.5098940743
 20
120.9704320173
 10
215.5202727331
 20
120.730961975
 10
215.5377815975
 20
120.7035112421
 10
215.5605133189
 20
120.8910553942
 10
215.5860092057
 20
121.2732692475
  0
LWPOLYLINE
  5
FC
330
1F
100
AcDbEntity
  8
0
  6
HIDDEN
 62
     7
370
     0
100
AcDbPolyline
 90
       17
 70
   128
 43
0.0
 10
214.8365851057
 20
121.8244203593
 10
214.8553680194
 20
122.2296891029
 10
214.8712899102
 20
122.7078217308
 10
214.8819293393
 20
123.1860288645
 10
214.8856620801
 20
123.5915062244
 10
214.8819293393
 20
123.8625238876
 10
214.8712899102
 20
123.95782147
 10
214.8553680194
 20
123.8628926913
 10
214.8365851057
 20
123.5921870212
 10
214.8178096426
 20
123.1869192089
 10
214.8018877519
 20
122.7087856497
 10
214.7912483228
 20
122.2305794473
 10
214.7875155819
 20
121.8251020874
 10
214.7912483228
 20
121.5540834929
 10
214.8018877519
 20
121.4587859104
 10
214.8178096426
 20
121.5537146891
 10
214.8365851057
 20
121.8244203593
  0
LINE
  5
FD
330
1F
100
AcDbEntity
  8
0
  6
HIDDEN
 62
     7
370
     0
100
AcDbLine
 10
222.8696818961
 20
123.6010262038
 30
0.0
 11
222.8304173363
 21
123.3027133386
 31
0.0
  0
LINE
  5
FE
330
1F
100
AcDbEntity
  8
0
  6
HIDDEN
 62
     7
370
     0
100
AcDbLine
 10
222.7911602271
 20
122.1879034529
 30
0.0
 11
222.8304173363
 21
123.3027133386
 31
0.0
  0
LINE
  5
FF
330
1F
100
AcDbEntity
  8
0
  6
HIDDEN
 62
     7
370
     0
100
AcDbLine
 10
222.7911602271
 20
121.3714064325
 30
0.0
 11
222.7911602271
 21
122.1879034529
 31
0.0
  0
LINE
  5
100
330
1F
100
AcDbEntity
  8
0
  6
HIDDEN
 62
     7
370
     0
100
AcDbLine
 10
222.7911602271
 20
121.3714064325
 30
0.0
 11
222.8304173363
 21
121.669720229
 31
0.0
  0
LINE
  5
101
330
1F
100
AcDbEntity
  8
0
  6
HIDDEN
 62
     7
370
     0
100
AcDbLine
 10
222.8696818961
 20
122.7845301147
 30
0.0
 11
222.8304173363
 21
121.669720229
 31
0.0
  0
LINE
  5
102
330
1F
100
AcDbEntity
  8
0
  6
HIDDEN
 62
     7
370
     0
100
AcDbLine
 10
220.2930848611
 20
121.4408085908
 30
0.0
 11
220.3323494209
 21
121.7391223873
 31
0.0
  0
LINE
  5
103
330
1F
100
AcDbEntity
  8
0
  6
HIDDEN
 62
     7
370
     0
100
AcDbLine
 10
220.2930848611
 20
121.4408085908
 30
0.0
 11
220.2930848611
 21
122.2573056112
 31
0.0
  0
LINE
  5
104
330
1F
100
AcDbEntity
  8
0
  6
HIDDEN
 62
     7
370
     0
100
AcDbLine
 10
220.37160653
 20
123.670428362
 30
0.0
 11
220.3323494209
 21
123.3721154968
 31
0.0
  0
LINE
  5
105
330
1F
100
AcDbEntity
  8
0
  6
HIDDEN
 62
     7
370
     0
100
AcDbLine
 10
220.37160653
 20
122.8539322729
 30
0.0
 11
220.37160653
 21
123.670428362
 31
0.0
  0
LINE
  5
106
330
1F
100
AcDbEntity
  8
0
  6
HIDDEN
 62
     7
370
     0
100
AcDbLine
 10
220.37160653
 20
122.8539322729
 30
0.0
 11
220.3323494209
 21
121.7391223873
 31
0.0
  0
LINE
  5
107
330
1F
100
AcDbEntity
  8
0
  6
HIDDEN
 62
     7
370
     0
100
AcDbLine
 10
220.2930848611
 20
122.2573056112
 30
0.0
 11
220.3323494209
 21
123.3721154968
 31
0.0
  0
LINE
  5
108
330
1F
100
AcDbEntity
  8
0
  6
HIDDEN
 62
     7
370
     0
100
AcDbLine
 10
220.2930848611
 20
122.2573056112
 30
0.0
 11
222.7911602271
 21
122.1879034529
 31
0.0
  0
LINE
  5
109
330
1F
100
AcDbEntity
  8
0
  6
HIDDEN
 62
     7
370
     0
100
AcDbLine
 10
220.3323494209
 20
123.3721154968
 30
0.0
 11
222.8304173363
 21
123.3027133386
 31
0.0
  0
LINE
  5
10A
330
1F
100
AcDbEntity
  8
0
  6
HIDDEN
 62
     7
370
     0
100
AcDbLine
 10
220.3323494209
 20
121.7391223873
 30
0.0
 11
222.8304173363
 21
121.669720229
 31
0.0
  0
LINE
  5
10B
330
1F
100
AcDbEntity
  8
0
  6
HIDDEN
 62
     7
370
     0
100
AcDbLine
 10
220.2930848611
 20
121.4408085908
 30
0.0
 11
222.7911602271
 21
121.3714064325
 31
0.0
  0
LINE
  5
10C
330
1F
100
AcDbEntity
  8
0
  6
HIDDEN
 62
     7
370
     0
100
AcDbLine
 10
220.37160653
 20
122.8539322729
 30
0.0
 11
222.8696818961
 21
122.7845301147
 31
0.0
  0
LINE
  5
10D
330
1F
100
AcDbEntity
  8
0
  6
HIDDEN
 62
     7
370
     0
100
AcDbLine
 10
220.37160653
 20
123.670428362
 30
0.0
 11
222.8696818961
 21
123.6010262038
 31
0.0
  0
LWPOLYLINE
  5
10E
330
1F
100
AcDbEntity
  8
0
  6
HIDDEN
 62
     7
370
     0
100
AcDbPolyline
 90
        3
 70
   128
 43
0.0
 10
197.4379222406
 20
117.5204704742
 10
196.2176214469
 20
117.1100622269
 10
195.0969721688
 20
116.5206342231
  0
ARC
  5
10F
330
1F
100
AcDbEntity
  8
0
  6
HIDDEN
 62
     7
370
     0
100
AcDbCircle
 10
199.3696804059
 20
109.7572039108
 30
0.0
 40
7.999999999999997
100
AcDbArc
 50
269.8715979015
 51
288.1491044303
  0
LINE
  5
110
330
1F
100
AcDbEntity
  8
0
  6
HIDDEN
 62
     7
370
     0
100
AcDbLine
 10
197.1964489234
 20
118.4908787946
 30
0.0
 11
196.2063263667
 21
118.1829500238
 31
0.0
  0
LWPOLYLINE
  5
111
330
1F
100
AcDbEntity
  8
0
  6
HIDDEN
 62
     7
370
     0
100
AcDbPolyline
 90
        3
 70
   128
 43
0.0
 10
198.7348448051
 20
100.7796212326
 10
199.4957427991
 20
100.758087192
 10
199.8132194889
 20
100.7681398879
  0
ARC
  5
112
330
1F
100
AcDbEntity
  8
0
  6
HIDDEN
 62
     7
370
     0
100
AcDbCircle
 10
199.3696804059
 20
109.7572039108
 30
0.0
 40
9.000000000000009
100
AcDbArc
 50
85.519624377
 51
103.9733071815
  0
CIRCLE
  5
113
330
1F
100
AcDbEntity
  8
0
  6
HIDDEN
 62
     7
370
     0
100
AcDbCircle
 10
199.3696804059
 20
109.7572039108
 30
0.0
 40
4.500000000000004
  0
CIRCLE
  5
114
330
1F
100
AcDbEntity
  8
0
  6
HIDDEN
 62
     7
370
     0
100
AcDbCircle
 10
199.3696804059
 20
109.7572039108
 30
0.0
 40
6.000000000000009
  0
CIRCLE
  5
115
330
1F
100
AcDbEntity
  8
0
  6
HIDDEN
 62
     7
370
     0
100
AcDbCircle
 10
174.3696804059
 20
109.7572039108
 30
0.0
 40
8.999999999999979
  0
CIRCLE
  5
116
330
1F
100
AcDbEntity
  8
0
  6
HIDDEN
 62
     7
370
     0
100
AcDbCircle
 10
174.3696804059
 20
109.7572039108
 30
0.0
 40
4.499999999999989
  0
CIRCLE
  5
117
330
1F
100
AcDbEntity
  8
0
  6
HIDDEN
 62
     7
370
     0
100
AcDbCircle
 10
174.3696804059
 20
109.7572039108
 30
0.0
 40
5.999999999999986
  0
LINE
  5
118
330
1F
100
AcDbEntity
  8
0
  6
HIDDEN
 62
     7
370
     0
100
AcDbLine
 10
139.6076518608
 20
148.7081649939
 30
0.0
 11
139.6076518608
 21
141.1072056035
 31
0.0
  0
SPLINE
  5
119
330
1F
100
AcDbEntity
  8
0
  6
HIDDEN
 62
     7
370
     0
100
AcDbSpline
210
0.0
220
0.0
230
1.0
 70
     8
 71
     3
 72
    80
 73
    76
 74
     0
 42
0.00000001
 43
0.00000001
 40
-0.0312500000000004
 40
-0.0312500000000004
 40
0.0
 40
0.0
 40
0.0312499999999999
 40
0.0312499999999999
 40
0.0468749999999997
 40
0.0468749999999997
 40
0.0624999999999996
 40
0.0624999999999996
 40
0.0937499999999991
 40
0.0937499999999991
 40
0.1249999999999987
 40
0.1249999999999987
 40
0.1562499999999982
 40
0.1562499999999982
 40
0.1874999999999978
 40
0.1874999999999978
 40
0.2187499999999973
 40
0.2187499999999973
 40
0.2499999999999968
 40
0.2499999999999968
 40
0.2812499999999965
 40
0.2812499999999965
 40
0.3124999999999962
 40
0.3124999999999962
 40
0.3281249999999962
 40
0.3281249999999962
 40
0.3437499999999961
 40
0.3437499999999961
 40
0.374999999999996
 40
0.374999999999996
 40
0.4062499999999959
 40
0.4062499999999959
 40
0.4218749999999959
 40
0.4218749999999959
 40
0.4374999999999959
 40
0.4374999999999959
 40
0.4687499999999959
 40
0.4687499999999959
 40
0.4999999999999958
 40
0.4999999999999958
 40
0.5312499999999957
 40
0.5312499999999957
 40
0.5624999999999956
 40
0.5624999999999956
 40
0.5937499999999954
 40
0.5937499999999954
 40
0.6249999999999954
 40
0.6249999999999954
 40
0.6562499999999953
 40
0.6562499999999953
 40
0.6874999999999952
 40
0.6874999999999952
 40
0.7031249999999952
 40
0.7031249999999952
 40
0.7187499999999953
 40
0.7187499999999953
 40
0.749999999999996
 40
0.749999999999996
 40
0.7812499999999967
 40
0.7812499999999967
 40
0.796874999999997
 40
0.796874999999997
 40
0.8124999999999972
 40
0.8124999999999972
 40
0.8437499999999977
 40
0.8437499999999977
 40
0.8749999999999981
 40
0.8749999999999981
 40
0.9062499999999987
 40
0.9062499999999987
 40
0.9374999999999991
 40
0.9374999999999991
 40
0.9687499999999996
 40
0.9687499999999996
 40
1.0
 40
1.0
 40
1.03125
 40
1.03125
 10
132.2002257187151
 20
158.6167531672531
 30
0.0
 10
131.5391350931625
 20
158.616753167253
 30
0.0
 10
131.2141549639109
 20
158.6098550214262
 30
0.0
 10
130.7346815526645
 20
158.5893285934457
 30
0.0
 10
130.5761997348237
 20
158.5807723663581
 30
0.0
 10
130.2619802023194
 20
158.5600459911405
 30
0.0
 10
130.105859918639
 20
158.5478186909342
 30
0.0
 10
129.6518058896824
 20
158.5062493971049
 30
0.0
 10
129.3647025067426
 20
158.4719051120071
 30
0.0
 10
128.8213479507155
 20
158.3885809876848
 30
0.0
 10
128.56424433951
 20
158.3391427649103
 30
0.0
 10
128.1033380845712
 20
158.2277630351504
 30
0.0
 10
127.8964403753562
 20
158.1654685216383
 30
0.0
 10
127.530915061364
 20
158.0255388787673
 30
0.0
 10
127.3757095392381
 20
157.9489229810183
 30
0.0
 10
127.1262791526384
 20
157.7849643611625
 30
0.0
 10
127.0301891968532
 20
157.6964075070668
 30
0.0
 10
126.9016703476596
 20
157.508926824961
 30
0.0
 10
126.8698594774818
 20
157.4116903635066
 30
0.0
 10
126.8695028277086
 20
157.2100577241795
 30
0.0
 10
126.9020000799056
 20
157.1045089323414
 30
0.0
 10
127.0296255536201
 20
156.8943941496529
 30
0.0
 10
127.124053954672
 20
156.7893286416839
 30
0.0
 10
127.3119147746576
 20
156.6324509344329
 30
0.0
 10
127.3827427734607
 20
156.5800172007271
 30
0.0
 10
127.537464665426
 20
156.4775787550974
 30
0.0
 10
127.6214411356094
 20
156.4274310264456
 30
0.0
 10
127.8927648052539
 20
156.280415070012
 30
0.0
 10
128.0993140238562
 20
156.1869272495776
 30
0.0
 10
128.5659241640452
 20
156.0111403919633
 30
0.0
 10
128.8182897336707
 20
155.9317619168795
 30
0.0
 10
129.2241910753494
 20
155.8262794793855
 30
0.0
 10
129.3640916928269
 20
155.7933939145453
 30
0.0
 10
129.6533156280738
 20
155.7324784353167
 30
0.0
 10
129.8031550843631
 20
155.7043978636742
 30
0.0
 10
130.2572716539738
 20
155.6295958216314
 30
0.0
 10
130.5689228727107
 20
155.5915577633853
 30
0.0
 10
131.2099193376231
 20
155.5399458368612
 30
0.0
 10
131.5414469655753
 20
155.5266319033397
 30
0.0
 10
132.1942380106467
 20
155.5265348170117
 30
0.0
 10
132.5187742156785
 20
155.5393229021727
 30
0.0
 10
133.164043665095
 20
155.5908130917687
 30
0.0
 10
133.4797866712577
 20
155.6293376710887
 30
0.0
 10
134.0816759662414
 20
155.7282402339468
 30
0.0
 10
134.3724251970528
 20
155.7893443318717
 30
0.0
 10
134.9193369887373
 20
155.9311537649825
 30
0.0
 10
135.1711143525743
 20
156.0104882495617
 30
0.0
 10
135.6325023451954
 20
156.1838669942232
 30
0.0
 10
135.8437716247935
 20
156.2790269389772
 30
0.0
 10
136.2070759771697
 20
156.4755994623531
 30
0.0
 10
136.3608826256125
 20
156.5773556907595
 30
0.0
 10
136.5495020952098
 20
156.7341416535449
 30
0.0
 10
136.605532581419
 20
156.7873956872949
 30
0.0
 10
136.7011063431551
 20
156.8932002488477
 30
0.0
 10
136.7408692601801
 20
156.9458533132032
 30
0.0
 10
136.8366410104923
 20
157.1029270326624
 30
0.0
 10
136.8693638496184
 20
157.2064520679895
 30
0.0
 10
136.8699924359475
 20
157.4106668022166
 30
0.0
 10
136.8378062912127
 20
157.5081706398014
 30
0.0
 10
136.7428955893571
 20
157.647497690153
 30
0.0
 10
136.7034288059581
 20
157.6928144216575
 30
0.0
 10
136.6084988072373
 20
157.7812542426463
 30
0.0
 10
136.5527419794739
 20
157.8245084931063
 30
0.0
 10
136.364801861504
 20
157.9483999676963
 30
0.0
 10
136.2114403917878
 20
158.0241022584704
 30
0.0
 10
135.8491761569075
 20
158.1633566299285
 30
0.0
 10
135.6383276834416
 20
158.2271184714573
 30
0.0
 10
135.1776577131227
 20
158.3386153109251
 30
0.0
 10
134.9262833335388
 20
158.3871413832417
 30
0.0
 10
134.3803754466407
 20
158.4711953666222
 30
0.0
 10
134.0895528719895
 20
158.5059939202889
 30
0.0
 10
133.4882262572095
 20
158.5611903850527
 30
0.0
 10
133.1737076725971
 20
158.5820082338066
 30
0.0
 10
132.5271262164771
 20
158.6098555667173
 30
0.0
 10
132.2002257187151
 20
158.6167531672531
 30
0.0
 10
131.5391350931625
 20
158.616753167253
 30
0.0
  0
LINE
  5
11A
330
1F
100
AcDbEntity
  8
0
  6
HIDDEN
 62
     7
370
     0
100
AcDbLine
 10
103.2831042571
 20
73.0213972966
 30
0.0
 11
103.0131492329
 21
72.997469757
 31
0.0
  0
SPLINE
  5
11B
330
1F
100
AcDbEntity
  8
0
  6
HIDDEN
 62
     7
370
     0
100
AcDbSpline
210
0.0
220
0.0
230
1.0
 70
     8
 71
     3
 72
    12
 73
     8
 74
     0
 42
0.00000001
 43
0.00000001
 40
0.0
 40
0.0
 40
0.0
 40
0.0
 40
0.1661348483723788
 40
0.3322012848936272
 40
0.5008930844532496
 40
0.7521368938593884
 40
1.0
 40
1.0
 40
1.0
 40
1.0
 10
101.38900275656
 20
146.6885063092183
 30
0.0
 10
101.3993954981342
 20
146.6871294161848
 30
0.0
 10
101.4201767017066
 20
146.6843761971019
 30
0.0
 10
101.5934757355995
 20
146.6627704423992
 30
0.0
 10
101.9154265511161
 20
146.6249071556648
 30
0.0
 10
102.436591684644
 20
146.5645210574049
 30
0.0
 10
103.0021507339962
 20
146.5167295295979
 30
0.0
 10
103.2830148501041
 20
146.4929956237744
 30
0.0
  0
SPLINE
  5
11C
330
1F
100
AcDbEntity
  8
0
  6
HIDDEN
 62
     7
370
     0
100
AcDbSpline
210
0.0
220
0.0
230
1.0
 70
     8
 71
     3
 72
    94
 73
    90
 74
     0
 42
0.00000001
 43
0.00000001
 40
-0.0312499999999998
 40
-0.0312499999999998
 40
0.0
 40
0.0
 40
0.03125
 40
0.03125
 40
0.046875
 40
0.046875
 40
0.0625
 40
0.0625
 40
0.09375
 40
0.09375
 40
0.1249999999999999
 40
0.1249999999999999
 40
0.1562499999999998
 40
0.1562499999999998
 40
0.1718749999999998
 40
0.1718749999999998
 40
0.1874999999999998
 40
0.1874999999999998
 40
0.2031249999999997
 40
0.2031249999999997
 40
0.2187499999999997
 40
0.2187499999999997
 40
0.2499999999999997
 40
0.2499999999999997
 40
0.2656249999999997
 40
0.2656249999999997
 40
0.2812499999999997
 40
0.2812499999999997
 40
0.3124999999999997
 40
0.3124999999999997
 40
0.3281249999999997
 40
0.3281249999999997
 40
0.3437499999999998
 40
0.3437499999999998
 40
0.3593749999999998
 40
0.3593749999999998
 40
0.3749999999999999
 40
0.3749999999999999
 40
0.4062499999999999
 40
0.4062499999999999
 40
0.4374999999999999
 40
0.4374999999999999
 40
0.46875
 40
0.46875
 40
0.484375
 40
0.484375
 40
0.5
 40
0.5
 40
0.5312499999999997
 40
0.5312499999999997
 40
0.5624999999999993
 40
0.5624999999999993
 40
0.5781249999999992
 40
0.5781249999999992
 40
0.5937499999999991
 40
0.5937499999999991
 40
0.624999999999999
 40
0.624999999999999
 40
0.6562499999999989
 40
0.6562499999999989
 40
0.6874999999999988
 40
0.6874999999999988
 40
0.7031249999999989
 40
0.7031249999999989
 40
0.718749999999999
 40
0.718749999999999
 40
0.7343749999999991
 40
0.7343749999999991
 40
0.7499999999999992
 40
0.7499999999999992
 40
0.7812499999999993
 40
0.7812499999999993
 40
0.8124999999999996
 40
0.8124999999999996
 40
0.8437499999999998
 40
0.8437499999999998
 40
0.875
 40
0.875
 40
0.8906250000000001
 40
0.8906250000000001
 40
0.9062500000000002
 40
0.9062500000000002
 40
0.9375000000000004
 40
0.9375000000000004
 40
0.9531250000000003
 40
0.9531250000000003
 40
0.9687500000000002
 40
0.9687500000000002
 40
1.0
 40
1.0
 40
1.03125
 40
1.03125
 10
179.5185572264988
 20
100.1545865791872
 30
0.0
 10
178.2208035853788
 20
100.1545865791872
 30
0.0
 10
177.5825774451553
 20
100.214311097413
 30
0.0
 10
176.6405551828157
 20
100.3902336807331
 30
0.0
 10
176.3291189122113
 20
100.4633754987756
 30
0.0
 10
175.7114963549604
 20
100.6394527220035
 30
0.0
 10
175.4041103716262
 20
100.7429902239577
 30
0.0
 10
174.5087556207457
 20
101.0928630746418
 30
0.0
 10
173.9419929640335
 20
101.3790968524323
 30
0.0
 10
172.8680126533579
 20
102.0585143471846
 30
0.0
 10
172.3574119870023
 20
102.4562918908982
 30
0.0
 10
171.4395677795347
 20
103.3314514956843
 30
0.0
 10
171.0269909303504
 20
103.810998511375
 30
0.0
 10
170.479152501048
 20
104.596215047017
 30
0.0
 10
170.3079306873863
 20
104.8702877880869
 30
0.0
 10
169.9973663282753
 20
105.4288699902999
 30
0.0
 10
169.8570349022291
 20
105.7145632719612
 30
0.0
 10
169.6057487238222
 20
106.2986461177951
 30
0.0
 10
169.494793552734
 20
106.5970353067906
 30
0.0
 10
169.3026475267906
 20
107.2067747151489
 30
0.0
 10
169.2212345674275
 20
107.5192101966277
 30
0.0
 10
169.0251385098475
 20
108.4698037699819
 30
0.0
 10
168.9605199073282
 20
109.107003468458
 30
0.0
 10
168.9595479814668
 20
110.0678636243185
 30
0.0
 10
168.9753452960299
 20
110.3890000596659
 30
0.0
 10
169.0402293918365
 20
111.0330255693806
 30
0.0
 10
169.0892338920481
 20
111.3534451488062
 30
0.0
 10
169.2825039212656
 20
112.2958464028244
 30
0.0
 10
169.4730868095623
 20
112.9050169048673
 30
0.0
 10
169.8524069840566
 20
113.790244078641
 30
0.0
 10
169.9949067431235
 20
114.0807221209887
 30
0.0
 10
170.3049679346289
 20
114.639176316365
 30
0.0
 10
170.4731931181001
 20
114.908878019195
 30
0.0
 10
170.8355591695394
 20
115.429772569624
 30
0.0
 10
171.0297011367516
 20
115.6809642733114
 30
0.0
 10
171.4442130940372
 20
116.1648335315621
 30
0.0
 10
171.6658559046219
 20
116.3986113046515
 30
0.0
 10
172.358611284177
 20
117.0594773449776
 30
0.0
 10
172.8584710983145
 20
117.4489993068936
 30
0.0
 10
173.9327935560279
 20
118.1303344644593
 30
0.0
 10
174.5121315328644
 20
118.4229085555986
 30
0.0
 10
175.7004142349583
 20
118.887157960081
 30
0.0
 10
176.3138916305685
 20
119.0626843312579
 30
0.0
 10
177.263643706663
 20
119.2407742937154
 30
0.0
 10
177.5858635851294
 20
119.2857191013607
 30
0.0
 10
178.226531711684
 20
119.3449996069524
 30
0.0
 10
178.5466475050624
 20
119.3597250557845
 30
0.0
 10
179.506351752401
 20
119.3600122100561
 30
0.0
 10
180.14729967453
 20
119.3017641782835
 30
0.0
 10
181.4190912996607
 20
119.0644641808231
 30
0.0
 10
182.0332561697099
 20
118.8888974978916
 30
0.0
 10
182.9230596839555
 20
118.5419821690183
 30
0.0
 10
183.2143830612683
 20
118.4123119339377
 30
0.0
 10
183.7862177439852
 20
118.1239357917392
 30
0.0
 10
184.0671625414832
 20
117.9647340321342
 30
0.0
 10
184.8753447422881
 20
117.453164756034
 30
0.0
 10
185.3745625320034
 20
117.0643318138388
 30
0.0
 10
186.2941942652719
 20
116.1891100294933
 30
0.0
 10
186.7161742484416
 20
115.6982667539975
 30
0.0
 10
187.4420507907078
 20
114.6572465026024
 30
0.0
 10
187.75140904763
 20
114.1030748650192
 30
0.0
 10
188.1325762223067
 20
113.2186964076035
 30
0.0
 10
188.2455350835694
 20
112.9147101015771
 30
0.0
 10
188.4379391452858
 20
112.303329587775
 30
0.0
 10
188.5182320493279
 20
111.9941446239714
 30
0.0
 10
188.6474456160956
 20
111.3688448119036
 30
0.0
 10
188.6963670748206
 20
111.0527301926019
 30
0.0
 10
188.7622820139691
 20
110.4134241416803
 30
0.0
 10
188.779221259164
 20
110.0882208616155
 30
0.0
 10
188.7800287456305
 20
109.118956623914
 30
0.0
 10
188.7154570371651
 20
108.4820217669348
 30
0.0
 10
188.4589210835873
 20
107.2261515428078
 30
0.0
 10
188.2638908921515
 20
106.6034504603606
 30
0.0
 10
187.7611514102285
 20
105.4309563552121
 30
0.0
 10
187.4528923608609
 20
104.874242975519
 30
0.0
 10
186.7199527733173
 20
103.8200571598473
 30
0.0
 10
186.3045373350696
 20
103.3366507303819
 30
0.0
 10
185.6170095081113
 20
102.6800890662496
 30
0.0
 10
185.3767111801736
 20
102.4723087936292
 30
0.0
 10
184.8734449854419
 20
102.0790377712876
 30
0.0
 10
184.6098543268673
 20
101.8933682694557
 30
0.0
 10
183.8015637993656
 20
101.381202214971
 30
0.0
 10
183.2344357463486
 20
101.0947653455219
 30
0.0
 10
182.3416430587496
 20
100.7452883354316
 30
0.0
 10
182.0356503040416
 20
100.6418940784347
 30
0.0
 10
181.4153556709408
 20
100.4646162405339
 30
0.0
 10
181.1027816766561
 20
100.3910740155488
 30
0.0
 10
180.1579605821964
 20
100.2143367365717
 30
0.0
 10
179.5185572264988
 20
100.1545865791872
 30
0.0
 10
178.2208035853788
 20
100.1545865791872
 30
0.0
  0
SPLINE
  5
11D
330
1F
100
AcDbEntity
  8
0
  6
HIDDEN
 62
     7
370
     0
100
AcDbSpline
210
0.0
220
0.0
230
1.0
 70
     8
 71
     3
 72
    94
 73
    90
 74
     0
 42
0.00000001
 43
0.00000001
 40
-0.0312499999999997
 40
-0.0312499999999997
 40
0.0
 40
0.0
 40
0.03125
 40
0.03125
 40
0.046875
 40
0.046875
 40
0.0625
 40
0.0625
 40
0.09375
 40
0.09375
 40
0.125
 40
0.125
 40
0.15625
 40
0.15625
 40
0.171875
 40
0.171875
 40
0.1875
 40
0.1875
 40
0.203125
 40
0.203125
 40
0.21875
 40
0.21875
 40
0.25
 40
0.25
 40
0.265625
 40
0.265625
 40
0.28125
 40
0.28125
 40
0.3125000000000001
 40
0.3125000000000001
 40
0.3281250000000002
 40
0.3281250000000002
 40
0.3437500000000003
 40
0.3437500000000003
 40
0.3593750000000003
 40
0.3593750000000003
 40
0.3750000000000004
 40
0.3750000000000004
 40
0.4062500000000005
 40
0.4062500000000005
 40
0.4375000000000007
 40
0.4375000000000007
 40
0.4687500000000008
 40
0.4687500000000008
 40
0.4843750000000008
 40
0.4843750000000008
 40
0.5000000000000009
 40
0.5000000000000009
 40
0.531250000000001
 40
0.531250000000001
 40
0.5625000000000011
 40
0.5625000000000011
 40
0.5781250000000011
 40
0.5781250000000011
 40
0.5937500000000011
 40
0.5937500000000011
 40
0.6250000000000012
 40
0.6250000000000012
 40
0.6562500000000012
 40
0.6562500000000012
 40
0.6875000000000012
 40
0.6875000000000012
 40
0.7031250000000011
 40
0.7031250000000011
 40
0.718750000000001
 40
0.718750000000001
 40
0.7343750000000009
 40
0.7343750000000009
 40
0.7500000000000008
 40
0.7500000000000008
 40
0.7812500000000006
 40
0.7812500000000006
 40
0.8125000000000003
 40
0.8125000000000003
 40
0.8437500000000001
 40
0.8437500000000001
 40
0.8749999999999999
 40
0.8749999999999999
 40
0.8906249999999999
 40
0.8906249999999999
 40
0.9062499999999998
 40
0.9062499999999998
 40
0.9375000000000001
 40
0.9375000000000001
 40
0.9531250000000002
 40
0.9531250000000002
 40
0.9687500000000003
 40
0.9687500000000003
 40
1.0
 40
1.0
 40
1.03125
 40
1.03125
 10
200.0185572264988
 20
100.1545865791872
 30
0.0
 10
198.7208035853788
 20
100.1545865791872
 30
0.0
 10
198.0825774451553
 20
100.214311097413
 30
0.0
 10
197.1405551828157
 20
100.3902336807331
 30
0.0
 10
196.8291189122113
 20
100.4633754987756
 30
0.0
 10
196.2114963549604
 20
100.6394527220035
 30
0.0
 10
195.9041103716262
 20
100.7429902239577
 30
0.0
 10
195.0087556207457
 20
101.0928630746418
 30
0.0
 10
194.4419929640335
 20
101.3790968524323
 30
0.0
 10
193.3680126533579
 20
102.0585143471846
 30
0.0
 10
192.8574119870022
 20
102.4562918908982
 30
0.0
 10
191.9395677795347
 20
103.3314514956843
 30
0.0
 10
191.5269909303503
 20
103.810998511375
 30
0.0
 10
190.979152501048
 20
104.596215047017
 30
0.0
 10
190.8079306873863
 20
104.8702877880869
 30
0.0
 10
190.4973663282753
 20
105.4288699902999
 30
0.0
 10
190.3570349022292
 20
105.7145632719612
 30
0.0
 10
190.1057487238221
 20
106.2986461177951
 30
0.0
 10
189.994793552734
 20
106.5970353067906
 30
0.0
 10
189.8026475267906
 20
107.2067747151489
 30
0.0
 10
189.7212345674274
 20
107.5192101966277
 30
0.0
 10
189.5251385098475
 20
108.4698037699819
 30
0.0
 10
189.4605199073283
 20
109.107003468458
 30
0.0
 10
189.4595479814668
 20
110.0678636243185
 30
0.0
 10
189.4753452960298
 20
110.3890000596659
 30
0.0
 10
189.5402293918365
 20
111.0330255693806
 30
0.0
 10
189.5892338920481
 20
111.3534451488062
 30
0.0
 10
189.7825039212655
 20
112.2958464028244
 30
0.0
 10
189.9730868095623
 20
112.9050169048673
 30
0.0
 10
190.3524069840566
 20
113.790244078641
 30
0.0
 10
190.4949067431235
 20
114.0807221209887
 30
0.0
 10
190.8049679346289
 20
114.639176316365
 30
0.0
 10
190.9731931181001
 20
114.908878019195
 30
0.0
 10
191.3355591695394
 20
115.429772569624
 30
0.0
 10
191.5297011367516
 20
115.6809642733114
 30
0.0
 10
191.9442130940372
 20
116.1648335315621
 30
0.0
 10
192.1658559046219
 20
116.3986113046515
 30
0.0
 10
192.8586112841769
 20
117.0594773449776
 30
0.0
 10
193.3584710983145
 20
117.4489993068936
 30
0.0
 10
194.4327935560279
 20
118.1303344644593
 30
0.0
 10
195.0121315328645
 20
118.4229085555986
 30
0.0
 10
196.2004142349583
 20
118.887157960081
 30
0.0
 10
196.8138916305685
 20
119.0626843312579
 30
0.0
 10
197.7636437066631
 20
119.2407742937154
 30
0.0
 10
198.0858635851294
 20
119.2857191013607
 30
0.0
 10
198.726531711684
 20
119.3449996069524
 30
0.0
 10
199.0466475050624
 20
119.3597250557845
 30
0.0
 10
200.006351752401
 20
119.3600122100561
 30
0.0
 10
200.64729967453
 20
119.3017641782835
 30
0.0
 10
201.9190912996607
 20
119.0644641808231
 30
0.0
 10
202.53325616971
 20
118.8888974978916
 30
0.0
 10
203.4230596839555
 20
118.5419821690183
 30
0.0
 10
203.7143830612683
 20
118.4123119339377
 30
0.0
 10
204.2862177439852
 20
118.1239357917392
 30
0.0
 10
204.5671625414832
 20
117.9647340321342
 30
0.0
 10
205.3753447422881
 20
117.453164756034
 30
0.0
 10
205.8745625320034
 20
117.0643318138388
 30
0.0
 10
206.7941942652718
 20
116.1891100294933
 30
0.0
 10
207.2161742484416
 20
115.6982667539975
 30
0.0
 10
207.9420507907078
 20
114.6572465026024
 30
0.0
 10
208.2514090476299
 20
114.1030748650193
 30
0.0
 10
208.6325762223067
 20
113.2186964076035
 30
0.0
 10
208.7455350835694
 20
112.9147101015771
 30
0.0
 10
208.9379391452858
 20
112.303329587775
 30
0.0
 10
209.0182320493279
 20
111.9941446239714
 30
0.0
 10
209.1474456160956
 20
111.3688448119036
 30
0.0
 10
209.1963670748206
 20
111.0527301926019
 30
0.0
 10
209.2622820139691
 20
110.4134241416803
 30
0.0
 10
209.279221259164
 20
110.0882208616155
 30
0.0
 10
209.2800287456304
 20
109.118956623914
 30
0.0
 10
209.2154570371651
 20
108.4820217669348
 30
0.0
 10
208.9589210835873
 20
107.2261515428078
 30
0.0
 10
208.7638908921514
 20
106.6034504603606
 30
0.0
 10
208.2611514102285
 20
105.4309563552121
 30
0.0
 10
207.9528923608608
 20
104.874242975519
 30
0.0
 10
207.2199527733172
 20
103.8200571598473
 30
0.0
 10
206.8045373350697
 20
103.3366507303819
 30
0.0
 10
206.1170095081112
 20
102.6800890662495
 30
0.0
 10
205.8767111801737
 20
102.4723087936292
 30
0.0
 10
205.3734449854419
 20
102.0790377712876
 30
0.0
 10
205.1098543268673
 20
101.8933682694557
 30
0.0
 10
204.3015637993656
 20
101.381202214971
 30
0.0
 10
203.7344357463487
 20
101.0947653455219
 30
0.0
 10
202.8416430587496
 20
100.7452883354316
 30
0.0
 10
202.5356503040416
 20
100.6418940784347
 30
0.0
 10
201.9153556709408
 20
100.4646162405339
 30
0.0
 10
201.6027816766561
 20
100.3910740155488
 30
0.0
 10
200.6579605821964
 20
100.2143367365717
 30
0.0
 10
200.0185572264988
 20
100.1545865791872
 30
0.0
 10
198.7208035853788
 20
100.1545865791872
 30
0.0
  0
SPLINE
  5
11E
330
1F
100
AcDbEntity
  8
0
  6
HIDDEN
 62
     7
370
     0
100
AcDbSpline
210
0.0
220
0.0
230
1.0
 70
     8
 71
     3
 72
     9
 73
     5
 74
     0
 42
0.00000001
 43
0.00000001
 40
0.0
 40
0.0
 40
0.0
 40
0.0
 40
0.6612244573550451
 40
1.0
 40
1.0
 40
1.0
 40
1.0
 10
113.122885817075
 20
141.1235261003445
 30
0.0
 10
113.4143887081815
 20
141.1673118211284
 30
0.0
 10
113.855241867595
 20
141.2335309700072
 30
0.0
 10
113.8038315317025
 20
141.225725171803
 30
0.0
 10
113.7864149672629
 20
141.2230807582806
 30
0.0
  0
SPLINE
  5
11F
330
1F
100
AcDbEntity
  8
0
  6
HIDDEN
 62
     7
370
     0
100
AcDbSpline
210
0.0
220
0.0
230
1.0
 70
     8
 71
     3
 72
     9
 73
     5
 74
     0
 42
0.00000001
 43
0.00000001
 40
0.0
 40
0.0
 40
0.0
 40
0.0
 40
0.3224719279240597
 40
1.0
 40
1.0
 40
1.0
 40
1.0
 10
113.7864149672629
 20
78.29132706326948
 30
0.0
 10
113.8050561709541
 20
78.28855905980159
 30
0.0
 10
113.8628633847823
 20
78.2799753561418
 30
0.0
 10
113.4217515011573
 20
78.34608832731045
 30
0.0
 10
113.122885817075
 20
78.39088172120556
 30
0.0
  0
SPLINE
  5
120
330
1F
100
AcDbEntity
  8
0
  6
HIDDEN
 62
     7
370
     0
100
AcDbSpline
210
0.0
220
0.0
230
1.0
 70
     8
 71
     3
 72
    15
 73
    11
 74
     0
 42
0.00000001
 43
0.00000001
 40
0.0
 40
0.0
 40
0.0
 40
0.0
 40
0.1285821426710073
 40
0.2571635607496992
 40
0.3853235406184768
 40
0.5113778076015207
 40
0.636926046588634
 40
0.7643185585868897
 40
0.893060358186539
 40
1.0
 40
1.0
 40
1.0
 40
1.0
 10
113.122885817075
 20
78.39088172120557
 30
0.0
 10
112.7373636899313
 20
78.45268748636558
 30
0.0
 10
111.9663216081568
 20
78.5762986683947
 30
0.0
 10
110.1877639448156
 20
78.76704813066127
 30
0.0
 10
108.1939526833822
 20
78.85469451158345
 30
0.0
 10
106.1699150582229
 20
78.80779060822765
 30
0.0
 10
104.3418065693688
 20
78.64753947971678
 30
0.0
 10
102.9103756145413
 20
78.44636189453544
 30
0.0
 10
102.0064903659071
 20
78.28381616651129
 30
0.0
 10
101.943907728846
 20
78.27141650290292
 30
0.0
 10
101.9155110729577
 20
78.26579019827352
 30
0.0
  0
SPLINE
  5
121
330
1F
100
AcDbEntity
  8
0
  6
HIDDEN
 62
     7
370
     0
100
AcDbSpline
210
0.0
220
0.0
230
1.0
 70
     8
 71
     3
 72
    16
 73
    12
 74
     0
 42
0.00000001
 43
0.00000001
 40
0.0
 40
0.0
 40
0.0
 40
0.0
 40
0.0205567972010308
 40
0.1461296555129789
 40
0.2720439735959893
 40
0.3999540038647748
 40
0.5285040859845025
 40
0.6552455845570215
 40
0.7805595113940985
 40
0.907037898122843
 40
1.0
 40
1.0
 40
1.0
 40
1.0
 10
101.9155110729577
 20
141.2486176232766
 30
0.0
 10
101.9008437913091
 20
141.2513633193927
 30
0.0
 10
101.796580233438
 20
141.2708813223028
 30
0.0
 10
102.247360124202
 20
141.18451520776
 30
0.0
 10
103.2605984309149
 20
141.0133781045046
 30
0.0
 10
104.8549275886723
 20
140.8098369713698
 30
0.0
 10
106.781426984961
 20
140.6774462404273
 30
0.0
 10
108.8279188346911
 20
140.6736511533763
 30
0.0
 10
110.7410785266814
 20
140.7964258160758
 30
0.0
 10
112.2257867258392
 20
140.9782431123578
 30
0.0
 10
112.8559347108616
 20
141.0802940262783
 30
0.0
 10
113.122885817075
 20
141.1235261003445
 30
0.0
  0
LINE
  5
122
330
1F
100
AcDbEntity
  8
0
  6
HIDDEN
 62
     7
370
     0
100
AcDbLine
 10
92.8663041008
 20
83.2572042237
 30
0.0
 11
92.8663041008
 21
136.2572035979
 31
0.0
  0
LINE
  5
123
330
1F
100
AcDbEntity
  8
0
  6
HIDDEN
 62
     7
370
     0
100
AcDbLine
 10
132.1537576182
 20
83.2572042237
 30
0.0
 11
132.1537576182
 21
136.2572035979
 31
0.0
  0
LINE
  5
124
330
1F
100
AcDbEntity
  8
0
  6
HIDDEN
 62
     7
370
     0
100
AcDbLine
 10
135.3196806771
 20
84.8822037916
 30
0.0
 11
135.3196806771
 21
134.63220403
 31
0.0
  0
SPLINE
  5
125
330
1F
100
AcDbEntity
  8
0
  6
HIDDEN
 62
     7
370
     0
100
AcDbSpline
210
0.0
220
0.0
230
1.0
 70
     8
 71
     3
 72
    20
 73
    16
 74
     0
 42
0.00000001
 43
0.00000001
 40
0.0
 40
0.0
 40
0.0
 40
0.0
 40
0.2499999999999978
 40
0.2499999999999978
 40
0.3749999999999982
 40
0.3749999999999982
 40
0.4999999999999986
 40
0.4999999999999986
 40
0.6249999999999989
 40
0.6249999999999989
 40
0.7499999999999992
 40
0.7499999999999992
 40
0.8749999999999997
 40
0.8749999999999997
 40
1.0
 40
1.0
 40
1.0
 40
1.0
 10
83.06968040593881
 20
134.9857175411894
 30
0.0
 10
83.06968040593881
 20
134.9065145546571
 30
0.0
 10
83.02269791072608
 20
134.8254183362541
 30
0.0
 10
82.8848763199485
 20
134.7052216445032
 30
0.0
 10
82.82859403603852
 20
134.6662949405011
 30
0.0
 10
82.6955091845713
 20
134.5911062080768
 30
0.0
 10
82.61766924233824
 20
134.5544640027348
 30
0.0
 10
82.4450368862239
 20
134.4868734699029
 30
0.0
 10
82.35064388913283
 20
134.4559152881273
 30
0.0
 10
82.14520658281768
 20
134.4003908667576
 30
0.0
 10
82.0328603428305
 20
134.3756823529244
 30
0.0
 10
81.80061947893086
 20
134.3358861258162
 30
0.0
 10
81.67990883650813
 20
134.3204662884191
 30
0.0
 10
81.42883797723911
 20
134.2993863135795
 30
0.0
 10
81.29931598082332
 20
134.2939090685586
 30
0.0
 10
81.16968040593883
 20
134.2939090685586
 30
0.0
  0
LINE
  5
126
330
1F
100
AcDbEntity
  8
0
  6
HIDDEN
 62
     7
370
     0
100
AcDbLine
 10
81.1696785999
 20
134.2939085553
 30
0.0
 11
74.6196794821
 21
134.2939085553
 31
0.0
  0
LINE
  5
127
330
1F
100
AcDbEntity
  8
0
  6
HIDDEN
 62
     7
370
     0
100
AcDbLine
 10
74.6196794821
 20
85.2204992662
 30
0.0
 11
86.1696812821
 21
85.2204992662
 31
0.0
  0
SPLINE
  5
128
330
1F
100
AcDbEntity
  8
0
  6
HIDDEN
 62
     7
370
     0
100
AcDbSpline
210
0.0
220
0.0
230
1.0
 70
     8
 71
     3
 72
    18
 73
    14
 74
     0
 42
0.00000001
 43
0.00000001
 40
0.0
 40
0.0
 40
0.0
 40
0.0
 40
0.1249999999999982
 40
0.1249999999999982
 40
0.2499999999999964
 40
0.2499999999999964
 40
0.4999999999999988
 40
0.4999999999999988
 40
0.7500000000000011
 40
0.7500000000000011
 40
0.8750000000000006
 40
0.8750000000000006
 40
1.0
 40
1.0
 40
1.0
 40
1.0
 10
86.1696804059388
 20
85.22049875299153
 30
0.0
 10
86.29914771889605
 20
85.22049875299153
 30
0.0
 10
86.42615846779267
 20
85.21514575439889
 30
0.0
 10
86.67552178898993
 20
85.19440778171011
 30
0.0
 10
86.79914544361836
 20
85.17873587745582
 30
0.0
 10
87.14817778055239
 20
85.11904114905373
 30
0.0
 10
87.3586895453592
 20
85.06127596937274
 30
0.0
 10
87.7026062230587
 20
84.92675412809525
 30
0.0
 10
87.83895662457653
 20
84.84908501458985
 30
0.0
 10
87.97599468113906
 20
84.7297938805025
 30
0.0
 10
88.01121369985196
 20
84.68887487136746
 30
0.0
 10
88.05783727679051
 20
84.60821887807742
 30
0.0
 10
88.06968040593884
 20
84.56825035788457
 30
0.0
 10
88.06968040593883
 20
84.52869028036075
 30
0.0
  0
LINE
  5
129
330
1F
100
AcDbEntity
  8
0
  6
HIDDEN
 62
     7
370
     0
100
AcDbLine
 10
74.6196794821
 20
85.2204992662
 30
0.0
 11
74.6196794821
 21
134.2939085553
 31
0.0
  0
LWPOLYLINE
  5
12A
330
1F
100
AcDbEntity
  8
0
  6
HIDDEN
 62
     7
370
     0
100
AcDbPolyline
 90
       14
 70
   128
 43
0.0
 10
131.8696800185
 20
149.700936232
 10
132.9092390401
 20
149.74537522
 10
133.9033634899
 20
149.876755033
 10
134.8086062384
 20
150.0893349986
 10
135.5854047028
 20
150.3738167922
 10
136.1998075185
 20
150.7177765707
 10
136.6249627931
 20
151.1061753373
 10
136.8422897098
 20
151.5220406692
 10
136.8422897098
 20
151.947196875
 10
136.6249627931
 20
152.3630622069
 10
136.1998075185
 20
152.7514609734
 10
135.5854047028
 20
153.0954170267
 10
134.8086062384
 20
153.3799025456
 10
134.2679213298
 20
153.5190942923
  0
LWPOLYLINE
  5
12B
330
1F
100
AcDbEntity
  8
0
  6
HIDDEN
 62
     7
370
     0
100
AcDbPolyline
 90
       14
 70
   128
 43
0.0
 10
129.4679471789
 20
153.518319432
 10
128.9307542642
 20
153.3799025456
 10
128.1539562655
 20
153.0954170267
 10
127.5395534498
 20
152.7514609734
 10
127.1143977096
 20
152.3630622069
 10
126.8970707928
 20
151.947196875
 10
126.8970707928
 20
151.5220406692
 10
127.1143977096
 20
151.1061753373
 10
127.5395534498
 20
150.7177765707
 10
128.1539562655
 20
150.3738167922
 10
128.9307542642
 20
150.0893349986
 10
129.8359970128
 20
149.876755033
 10
130.8301219282
 20
149.74537522
 10
131.8696800185
 20
149.700936232
  0
LINE
  5
12C
330
1F
100
AcDbEntity
  8
0
  6
HIDDEN
 62
     7
370
     0
100
AcDbLine
 10
74.6196794821
 20
82.3872036527
 30
0.0
 11
74.6196794821
 21
77.508919243
 31
0.0
  0
SPLINE
  5
12D
330
1F
100
AcDbEntity
  8
0
  6
HIDDEN
 62
     7
370
     0
100
AcDbSpline
210
0.0
220
0.0
230
1.0
 70
     8
 71
     3
 72
    56
 73
    52
 74
     0
 42
0.00000001
 43
0.00000001
 40
-0.0624999999999994
 40
-0.0624999999999994
 40
0.0
 40
0.0
 40
0.0312499999999993
 40
0.0312499999999993
 40
0.0624999999999986
 40
0.0624999999999986
 40
0.1249999999999982
 40
0.1249999999999982
 40
0.1562499999999978
 40
0.1562499999999978
 40
0.1874999999999977
 40
0.1874999999999977
 40
0.2499999999999973
 40
0.2499999999999973
 40
0.2812499999999971
 40
0.2812499999999971
 40
0.3124999999999968
 40
0.3124999999999968
 40
0.3437499999999966
 40
0.3437499999999966
 40
0.3749999999999967
 40
0.3749999999999967
 40
0.4062499999999967
 40
0.4062499999999967
 40
0.4374999999999967
 40
0.4374999999999967
 40
0.4999999999999973
 40
0.4999999999999973
 40
0.562499999999998
 40
0.562499999999998
 40
0.5937499999999983
 40
0.5937499999999983
 40
0.6249999999999986
 40
0.6249999999999986
 40
0.6562499999999989
 40
0.6562499999999989
 40
0.6874999999999992
 40
0.6874999999999992
 40
0.7499999999999999
 40
0.7499999999999999
 40
0.8125000000000006
 40
0.8125000000000006
 40
0.8437500000000007
 40
0.8437500000000007
 40
0.8750000000000007
 40
0.8750000000000007
 40
0.9062500000000008
 40
0.9062500000000008
 40
0.9375000000000006
 40
0.9375000000000006
 40
1.0
 40
1.0
 40
1.031249999999999
 40
1.031249999999999
 10
167.8885207257862
 20
93.85114205784784
 30
0.0
 10
168.0473793911705
 20
93.85555551712167
 30
0.0
 10
168.0974789182436
 20
93.86670859589606
 30
0.0
 10
168.1888830297894
 20
93.90929846064105
 30
0.0
 10
168.2306179586624
 20
93.9413196826397
 30
0.0
 10
168.3332924810156
 20
94.06896862837658
 30
0.0
 10
168.3721056854974
 20
94.19956843326612
 30
0.0
 10
168.3682813392209
 20
94.44529934671644
 30
0.0
 10
168.3568131057379
 20
94.53686995316295
 30
0.0
 10
168.3161349487497
 20
94.72678837597384
 30
0.0
 10
168.2866278488547
 20
94.82729818616185
 30
0.0
 10
168.1779458583089
 20
95.13293858221633
 30
0.0
 10
168.0784729853304
 20
95.34254465642681
 30
0.0
 10
167.9193682639287
 20
95.64764598221238
 30
0.0
 10
167.8639436780171
 20
95.74934792983204
 30
0.0
 10
167.7563776771406
 20
95.94811122166423
 30
0.0
 10
167.7041932703155
 20
96.04511950477283
 30
0.0
 10
167.6102677579661
 20
96.23716080795386
 30
0.0
 10
167.5679455649852
 20
96.33383858170984
 30
0.0
 10
167.5108828500169
 20
96.5181202575316
 30
0.0
 10
167.4964922177787
 20
96.60768737264388
 30
0.0
 10
167.5049351094469
 20
96.7660029618807
 30
0.0
 10
167.5274226655196
 20
96.83644592036241
 30
0.0
 10
167.5942709354995
 20
96.9531190995838
 30
0.0
 10
167.6382692509837
 20
97.00071787183596
 30
0.0
 10
167.7833608677302
 20
97.11503489185615
 30
0.0
 10
167.8938099973863
 20
97.1532126270247
 30
0.0
 10
168.1004533838962
 20
97.1576358106244
 30
0.0
 10
168.1936968870687
 20
97.12362368618413
 30
0.0
 10
168.297542535062
 20
97.00246776688093
 30
0.0
 10
168.3247122435557
 20
96.95153705457187
 30
0.0
 10
168.3614970686734
 20
96.82635359770896
 30
0.0
 10
168.370624123557
 20
96.75214079193522
 30
0.0
 10
168.3685776790188
 20
96.58804452205936
 30
0.0
 10
168.3572970150747
 20
96.49573183693408
 30
0.0
 10
168.3168542412983
 20
96.3032112940064
 30
0.0
 10
168.2875946185862
 20
96.20155705590031
 30
0.0
 10
168.1797916306785
 20
95.89120555645164
 30
0.0
 10
168.0817445456396
 20
95.67869622711635
 30
0.0
 10
167.8750207042957
 20
95.26948398996736
 30
0.0
 10
167.7624808010408
 20
95.06735556495116
 30
0.0
 10
167.6218123475094
 20
94.77652055246129
 30
0.0
 10
167.5791332283144
 20
94.67981877768094
 30
0.0
 10
167.5178237893137
 20
94.49371091760264
 30
0.0
 10
167.4995765788606
 20
94.40305113804652
 30
0.0
 10
167.5003271190426
 20
94.24026216508983
 30
0.0
 10
167.5193135073565
 20
94.16772578105393
 30
0.0
 10
167.5833456558338
 20
94.04731297374683
 30
0.0
 10
167.6270953537892
 20
93.99928630817428
 30
0.0
 10
167.7748978003005
 20
93.88514722585396
 30
0.0
 10
167.8885207257862
 20
93.85114205784784
 30
0.0
 10
168.0473793911705
 20
93.85555551712167
 30
0.0
  0
SPLINE
  5
12E
330
1F
100
AcDbEntity
  8
0
  6
HIDDEN
 62
     7
370
     0
100
AcDbSpline
210
0.0
220
0.0
230
1.0
 70
     8
 71
     3
 72
    60
 73
    56
 74
     0
 42
0.00000001
 43
0.00000001
 40
-0.0624999999999996
 40
-0.0624999999999996
 40
0.0
 40
0.0
 40
0.0312499999999994
 40
0.0312499999999994
 40
0.0624999999999989
 40
0.0624999999999989
 40
0.0937499999999983
 40
0.0937499999999983
 40
0.1249999999999978
 40
0.1249999999999978
 40
0.1874999999999977
 40
0.1874999999999977
 40
0.2499999999999976
 40
0.2499999999999976
 40
0.2812499999999977
 40
0.2812499999999977
 40
0.3124999999999978
 40
0.3124999999999978
 40
0.3437499999999979
 40
0.3437499999999979
 40
0.374999999999998
 40
0.374999999999998
 40
0.4062499999999981
 40
0.4062499999999981
 40
0.4374999999999981
 40
0.4374999999999981
 40
0.4687499999999981
 40
0.4687499999999981
 40
0.4999999999999981
 40
0.4999999999999981
 40
0.5624999999999998
 40
0.5624999999999998
 40
0.5937499999999999
 40
0.5937499999999999
 40
0.625
 40
0.625
 40
0.6562500000000001
 40
0.6562500000000001
 40
0.6875000000000002
 40
0.6875000000000002
 40
0.7187500000000003
 40
0.7187500000000003
 40
0.7500000000000004
 40
0.7500000000000004
 40
0.7812500000000006
 40
0.7812500000000006
 40
0.8125000000000007
 40
0.8125000000000007
 40
0.8437500000000008
 40
0.8437500000000008
 40
0.8750000000000009
 40
0.8750000000000009
 40
0.9375000000000004
 40
0.9375000000000004
 40
1.0
 40
1.0
 40
1.03125
 40
1.03125
 10
166.1049864095847
 20
99.40319169295117
 30
0.0
 10
166.5020274041158
 20
99.40319169295117
 30
0.0
 10
166.6321216022978
 20
99.4109203014266
 30
0.0
 10
166.8880014892859
 20
99.44134542632393
 30
0.0
 10
167.0151282827711
 20
99.46442284787582
 30
0.0
 10
167.2572267222316
 20
99.52509484290138
 30
0.0
 10
167.3720187650523
 20
99.56241008741361
 30
0.0
 10
167.5892667453324
 20
99.65158318440756
 30
0.0
 10
167.6919687905802
 20
99.70386071763821
 30
0.0
 10
167.9682173303777
 20
99.87752424433825
 30
0.0
 10
168.1171657224207
 20
100.0205985422535
 30
0.0
 10
168.3167938405019
 20
100.3403987476818
 30
0.0
 10
168.3695314522847
 20
100.5206765607933
 30
0.0
 10
168.3697543974777
 20
100.7978108486026
 30
0.0
 10
168.3567239880481
 20
100.8931255895359
 30
0.0
 10
168.3056168725047
 20
101.0801492959372
 30
0.0
 10
168.2678053262904
 20
101.1724328409342
 30
0.0
 10
168.1674788376303
 20
101.3540895380812
 30
0.0
 10
168.1049453954226
 20
101.4428895147938
 30
0.0
 10
167.9602992886097
 20
101.609301852323
 30
0.0
 10
167.8774701067491
 20
101.6880818303632
 30
0.0
 10
167.691203541597
 20
101.8345209537587
 30
0.0
 10
167.5904272737631
 20
101.9001453588621
 30
0.0
 10
167.3740631014088
 20
102.0159729481965
 30
0.0
 10
167.2570540995009
 20
102.0665905560352
 30
0.0
 10
167.0151004268627
 20
102.1479210937026
 30
0.0
 10
166.8904448423638
 20
102.1788483799008
 30
0.0
 10
166.6337642334035
 20
102.2207979201564
 30
0.0
 10
166.5010756289277
 20
102.2315772452891
 30
0.0
 10
166.1092148021758
 20
102.2317015936453
 30
0.0
 10
165.8456609973545
 20
102.1885340023199
 30
0.0
 10
165.4844946665251
 20
102.0674224535965
 30
0.0
 10
165.3679191638538
 20
102.0172528031435
 30
0.0
 10
165.1496607359481
 20
101.9006562773489
 30
0.0
 10
165.049064558712
 20
101.8350600555576
 30
0.0
 10
164.8645317997293
 20
101.6903290782025
 30
0.0
 10
164.7800752342072
 20
101.6103474766403
 30
0.0
 10
164.6349669241263
 20
101.4436433470829
 30
0.0
 10
164.573410604247
 20
101.3564343803029
 30
0.0
 10
164.4726427912285
 20
101.1748136949848
 30
0.0
 10
164.4340730978004
 20
101.0809708971018
 30
0.0
 10
164.382937938873
 20
100.8946057393997
 30
0.0
 10
164.3697908289936
 20
100.800888387898
 30
0.0
 10
164.369571361308
 20
100.6139341133818
 30
0.0
 10
164.3824382460521
 20
100.5234071001063
 30
0.0
 10
164.4331469551346
 20
100.3478720652845
 30
0.0
 10
164.4716477728895
 20
100.2619772611653
 30
0.0
 10
164.5718123848652
 20
100.1011082952839
 30
0.0
 10
164.6331409534716
 20
100.0259662003877
 30
0.0
 10
164.7782180724209
 20
99.88550508042428
 30
0.0
 10
164.8624076945337
 20
99.82023119928982
 30
0.0
 10
165.1383633391438
 20
99.64651250181574
 30
0.0
 10
165.3610797609511
 20
99.555585373048
 30
0.0
 10
165.8420571944186
 20
99.434742725137
 30
0.0
 10
166.1049864095847
 20
99.40319169295117
 30
0.0
 10
166.5020274041158
 20
99.40319169295117
 30
0.0
  0
SPLINE
  5
12F
330
1F
100
AcDbEntity
  8
0
  6
HIDDEN
 62
     7
370
     0
100
AcDbSpline
210
0.0
220
0.0
230
1.0
 70
     8
 71
     3
 72
    28
 73
    24
 74
     0
 42
0.00000001
 43
0.00000001
 40
0.0
 40
0.0
 40
0.0
 40
0.0
 40
0.0624999999999996
 40
0.0624999999999996
 40
0.1249999999999992
 40
0.1249999999999992
 40
0.1874999999999988
 40
0.1874999999999988
 40
0.2499999999999984
 40
0.2499999999999984
 40
0.3749999999999974
 40
0.3749999999999974
 40
0.4999999999999964
 40
0.4999999999999964
 40
0.6249999999999956
 40
0.6249999999999956
 40
0.7499999999999947
 40
0.7499999999999947
 40
0.8124999999999948
 40
0.8124999999999948
 40
0.8749999999999949
 40
0.8749999999999949
 40
1.0
 40
1.0
 40
1.0
 40
1.0
 10
164.8760622512464
 20
95.16854484084978
 30
0.0
 10
164.8455465726457
 20
95.16073539154448
 30
0.0
 10
164.8147711614189
 20
95.15671885337025
 30
0.0
 10
164.7520369983586
 20
95.16044643366857
 30
0.0
 10
164.7196057505629
 20
95.16850900261375
 30
0.0
 10
164.6560664114552
 20
95.20179281033495
 30
0.0
 10
164.6243699261544
 20
95.22756718678541
 30
0.0
 10
164.5654184584575
 20
95.29535879624619
 30
0.0
 10
164.5384893545161
 20
95.33655330852821
 30
0.0
 10
164.4660761440487
 20
95.4728903601084
 30
0.0
 10
164.4305144327415
 20
95.5755871548367
 30
0.0
 10
164.3820650681814
 20
95.77704362808706
 30
0.0
 10
164.369666406181
 20
95.87681682404671
 30
0.0
 10
164.3696944300754
 20
96.0562820286439
 30
0.0
 10
164.3816673616686
 20
96.13728881662256
 30
0.0
 10
164.4298624823696
 20
96.28943543147955
 30
0.0
 10
164.4655993027754
 20
96.35854289067252
 30
0.0
 10
164.5371429885109
 20
96.47540642295463
 30
0.0
 10
164.5645309336804
 20
96.51768690948148
 30
0.0
 10
164.623081366004
 20
96.60970480074138
 30
0.0
 10
164.6546471165271
 20
96.66026608974126
 30
0.0
 10
164.7509861465551
 20
96.82138179533183
 30
0.0
 10
164.8146439696024
 20
96.93630148210622
 30
0.0
 10
164.8760622512466
 20
97.04955776370456
 30
0.0
  0
SPLINE
  5
130
330
1F
100
AcDbEntity
  8
0
  6
HIDDEN
 62
     7
370
     0
100
AcDbSpline
210
0.0
220
0.0
230
1.0
 70
     8
 71
     3
 72
    16
 73
    12
 74
     0
 42
0.00000001
 43
0.00000001
 40
0.0
 40
0.0
 40
0.0
 40
0.0
 40
0.2500000000000036
 40
0.2500000000000036
 40
0.3750000000000029
 40
0.3750000000000029
 40
0.5000000000000022
 40
0.5000000000000022
 40
0.7500000000000011
 40
0.7500000000000011
 40
1.0
 40
1.0
 40
1.0
 40
1.0
 10
164.8760622512465
 20
97.04955776370456
 30
0.0
 10
164.9582961406225
 20
97.02812303089131
 30
0.0
 10
165.0396458954609
 20
96.98614896489694
 30
0.0
 10
165.1418256901098
 20
96.88515327063499
 30
0.0
 10
165.1716315692422
 20
96.84556671645534
 30
0.0
 10
165.2169660784455
 20
96.75319707922623
 30
0.0
 10
165.232365586802
 20
96.69940647239972
 30
0.0
 10
165.2475870251053
 20
96.52479991182423
 30
0.0
 10
165.2147870483505
 20
96.38631315103007
 30
0.0
 10
165.1032933757489
 20
96.10305354281692
 30
0.0
 10
165.0271407945568
 20
95.95561123718913
 30
0.0
 10
164.9482372761633
 20
95.80497402832133
 30
0.0
  0
SPLINE
  5
131
330
1F
100
AcDbEntity
  8
0
  6
HIDDEN
 62
     7
370
     0
100
AcDbSpline
210
0.0
220
0.0
230
1.0
 70
     8
 71
     3
 72
    28
 73
    24
 74
     0
 42
0.00000001
 43
0.00000001
 40
0.0
 40
0.0
 40
0.0
 40
0.0
 40
0.0624999999999993
 40
0.0624999999999993
 40
0.1249999999999986
 40
0.1249999999999986
 40
0.1874999999999991
 40
0.1874999999999991
 40
0.2499999999999997
 40
0.2499999999999997
 40
0.3749999999999996
 40
0.3749999999999996
 40
0.4999999999999996
 40
0.4999999999999996
 40
0.6249999999999994
 40
0.6249999999999994
 40
0.7499999999999993
 40
0.7499999999999993
 40
0.8124999999999994
 40
0.8124999999999994
 40
0.8749999999999997
 40
0.8749999999999997
 40
1.0
 40
1.0
 40
1.0
 40
1.0
 10
164.9482372761634
 20
95.80497402832138
 30
0.0
 10
164.912794062306
 20
95.8129793314968
 30
0.0
 10
164.8772030403359
 20
95.81702054291013
 30
0.0
 10
164.8048947551407
 20
95.81262823216271
 30
0.0
 10
164.7676163761854
 20
95.80388395644496
 30
0.0
 10
164.6945901299132
 20
95.76710761171492
 30
0.0
 10
164.6580007123016
 20
95.73815560379983
 30
0.0
 10
164.5908186189999
 20
95.66152426218218
 30
0.0
 10
164.5600512314582
 20
95.6141440000134
 30
0.0
 10
164.4786849029291
 20
95.4594447540565
 30
0.0
 10
164.4390040469244
 20
95.34350708197358
 30
0.0
 10
164.384140691064
 20
95.11813475980603
 30
0.0
 10
164.3696785583306
 20
95.00743321550628
 30
0.0
 10
164.3696822539115
 20
94.81387727829024
 30
0.0
 10
164.3841814754859
 20
94.72869001946735
 30
0.0
 10
164.4389917025613
 20
94.58113599033325
 30
0.0
 10
164.4786345277946
 20
94.51832355912457
 30
0.0
 10
164.5599415480531
 20
94.40603670197783
 30
0.0
 10
164.5906755848644
 20
94.36526692191742
 30
0.0
 10
164.6573820635799
 20
94.27281775289018
 30
0.0
 10
164.6942083426049
 20
94.21968209310364
 30
0.0
 10
164.8034694896452
 20
94.05398002241768
 30
0.0
 10
164.8770927884393
 20
93.9329697657758
 30
0.0
 10
164.9482372761627
 20
93.81525071649348
 30
0.0
  0
SPLINE
  5
132
330
1F
100
AcDbEntity
  8
0
  6
HIDDEN
 62
     7
370
     0
100
AcDbSpline
210
0.0
220
0.0
230
1.0
 70
     8
 71
     3
 72
    18
 73
    14
 74
     0
 42
0.00000001
 43
0.00000001
 40
0.0
 40
0.0
 40
0.0
 40
0.0
 40
0.2500000000000026
 40
0.2500000000000026
 40
0.3750000000000034
 40
0.3750000000000034
 40
0.5000000000000028
 40
0.5000000000000028
 40
0.6250000000000021
 40
0.6250000000000021
 40
0.7500000000000013
 40
0.7500000000000013
 40
1.0
 40
1.0
 40
1.0
 40
1.0
 10
164.9482372761634
 20
93.8152507164939
 30
0.0
 10
165.0271078016143
 20
93.85313593608097
 30
0.0
 10
165.1024240815655
 20
93.91056812736953
 30
0.0
 10
165.18686896548
 20
94.03397335810607
 30
0.0
 10
165.2093488792966
 20
94.08059657973315
 30
0.0
 10
165.2374478421778
 20
94.18684593502122
 30
0.0
 10
165.2425112319189
 20
94.24668818816079
 30
0.0
 10
165.2323511747412
 20
94.37285193171053
 30
0.0
 10
165.2171073709412
 20
94.44098842998251
 30
0.0
 10
165.1716616733445
 20
94.58037047993159
 30
0.0
 10
165.142022550633
 20
94.6511434858511
 30
0.0
 10
165.0406900485212
 20
94.86806191983662
 30
0.0
 10
164.9582829692518
 20
95.01653883266457
 30
0.0
 10
164.8760622512465
 20
95.1685448408499
 30
0.0
  0
LWPOLYLINE
  5
133
330
1F
100
AcDbEntity
  8
0
  6
HIDDEN
 62
     7
370
     0
100
AcDbPolyline
 90
       20
 70
   128
 43
0.0
 10
166.3696791542
 20
92.7866420935
 10
165.7202828241
 20
92.8632675896
 10
165.1412535025
 20
93.0848422687
 10
164.6953474296
 20
93.4273529093
 10
164.4308816207
 20
93.8536863069
 10
164.3765110088
 20
94.3176395486
 10
164.5381327284
 20
94.7689379792
 10
164.8982341898
 20
95.1586750562
 10
165.4177855266
 20
95.444618095
 10
166.0404901517
 20
95.5957801308
 10
166.6988681568
 20
95.5957801308
 10
167.3215765072
 20
95.444618095
 10
167.8411278439
 20
95.1586750562
 10
168.2012255801
 20
94.7689379792
 10
168.3628510249
 20
94.3176395486
 10
168.308480413
 20
93.8536863069
 10
168.0440146042
 20
93.4273529093
 10
167.598104806
 20
93.0848422687
 10
167.0190792096
 20
92.8632675896
 10
166.3696791542
 20
92.7866420935
  0
LINE
  5
134
330
1F
100
AcDbEntity
  8
0
  6
HIDDEN
 62
     7
370
     0
100
AcDbLine
 10
88.0696799172
 20
82.3872036527
 30
0.0
 11
88.0696799172
 21
75.8878703455
 31
0.0
  0
LINE
  5
135
330
1F
100
AcDbEntity
  8
0
  6
HIDDEN
 62
     7
370
     0
100
AcDbLine
 10
83.0696809603
 20
137.1272041689
 30
0.0
 11
83.0696809603
 21
143.5018110315
 31
0.0
  0
LINE
  5
136
330
1F
100
AcDbEntity
  8
0
  6
HIDDEN
 62
     7
370
     0
100
AcDbLine
 10
74.6196794821
 20
137.1272041689
 30
0.0
 11
74.6196794821
 21
142.0054885785
 31
0.0
  0
ARC
  5
137
330
1F
100
AcDbEntity
  8
0
  6
HIDDEN
 62
     7
370
     0
100
AcDbCircle
 10
149.8255651953
 20
95.5523454958
 30
0.0
 40
15.124783530776
100
AcDbArc
 50
0.9570523197
 51
5.6810515699
  0
ARC
  5
138
330
1F
100
AcDbEntity
  8
0
  6
HIDDEN
 62
     7
370
     0
100
AcDbCircle
 10
184.8555936318
 20
95.5555745967
 30
0.0
 40
19.98328064811328
100
AcDbArc
 50
181.1097545596
 51
184.996161453
  0
LINE
  5
139
330
1F
100
AcDbEntity
  8
0
  6
HIDDEN
 62
     7
370
     0
100
AcDbLine
 10
147.1696801049
 20
96.7572036426
 30
0.0
 11
147.1696801049
 21
122.757204179
 31
0.0
  0
LINE
  5
13A
330
1F
100
AcDbEntity
  8
0
  6
HIDDEN
 62
     7
370
     0
100
AcDbLine
 10
151.1696807606
 20
96.7572036426
 30
0.0
 11
151.1696807606
 21
122.757204179
 31
0.0
  0
SPLINE
  5
13B
330
1F
100
AcDbEntity
  8
0
  6
HIDDEN
 62
     7
370
     0
100
AcDbSpline
210
0.0
220
0.0
230
1.0
 70
     8
 71
     3
 72
    60
 73
    56
 74
     0
 42
0.00000001
 43
0.00000001
 40
-0.0625000000000006
 40
-0.0625000000000006
 40
0.0
 40
0.0
 40
0.0312499999999988
 40
0.0312499999999988
 40
0.0624999999999977
 40
0.0624999999999977
 40
0.0937499999999965
 40
0.0937499999999965
 40
0.1249999999999953
 40
0.1249999999999953
 40
0.1874999999999943
 40
0.1874999999999943
 40
0.2499999999999933
 40
0.2499999999999933
 40
0.2812499999999927
 40
0.2812499999999927
 40
0.3124999999999921
 40
0.3124999999999921
 40
0.3437499999999915
 40
0.3437499999999915
 40
0.3749999999999909
 40
0.3749999999999909
 40
0.4062499999999903
 40
0.4062499999999903
 40
0.4374999999999897
 40
0.4374999999999897
 40
0.4687499999999892
 40
0.4687499999999892
 40
0.4999999999999887
 40
0.4999999999999887
 40
0.5624999999999892
 40
0.5624999999999892
 40
0.5937499999999902
 40
0.5937499999999902
 40
0.6249999999999912
 40
0.6249999999999912
 40
0.6562499999999921
 40
0.6562499999999921
 40
0.6874999999999931
 40
0.6874999999999931
 40
0.718749999999994
 40
0.718749999999994
 40
0.749999999999995
 40
0.749999999999995
 40
0.7812499999999959
 40
0.7812499999999959
 40
0.8124999999999969
 40
0.8124999999999969
 40
0.8437499999999978
 40
0.8437499999999978
 40
0.8749999999999988
 40
0.8749999999999988
 40
0.9374999999999994
 40
0.9374999999999994
 40
1.0
 40
1.0
 40
1.031249999999999
 40
1.031249999999999
 10
166.6343744022929
 20
117.2827890038527
 30
0.0
 10
166.2373334077617
 20
117.2827890038528
 30
0.0
 10
166.1072392095798
 20
117.2934549284867
 30
0.0
 10
165.8513593225918
 20
117.3350484364836
 30
0.0
 10
165.7242325291064
 20
117.3664899748879
 30
0.0
 10
165.482134089646
 20
117.4478814126221
 30
0.0
 10
165.3673420468253
 20
117.4974580899423
 30
0.0
 10
165.1500940665452
 20
117.6135252887341
 30
0.0
 10
165.0473920212974
 20
117.6805162536491
 30
0.0
 10
164.7711434815
 20
117.8976142846764
 30
0.0
 10
164.6221950894569
 20
118.0696400869573
 30
0.0
 10
164.4225669713757
 20
118.4302575717279
 30
0.0
 10
164.3698293595929
 20
118.6225772447557
 30
0.0
 10
164.3696064143999
 20
118.8997607969503
 30
0.0
 10
164.3826368238295
 20
118.9921700152045
 30
0.0
 10
164.4337439393728
 20
119.1681128278852
 30
0.0
 10
164.4715554855873
 20
119.2522787749643
 30
0.0
 10
164.5718819742473
 20
119.4134148569776
 30
0.0
 10
164.6344154164551
 20
119.4898284749149
 30
0.0
 10
164.7790615232678
 20
119.6295641568151
 30
0.0
 10
164.8618907051285
 20
119.6939066229006
 30
0.0
 10
165.0481572702805
 20
119.8110532581821
 30
0.0
 10
165.1489335381146
 20
119.862250440722
 30
0.0
 10
165.3652977104688
 20
119.9512550017103
 30
0.0
 10
165.4823067123767
 20
119.9893610037583
 30
0.0
 10
165.7242603850149
 20
120.0499871863229
 30
0.0
 10
165.8489159695138
 20
120.0726875553437
 30
0.0
 10
166.1055965784741
 20
120.103375188995
 30
0.0
 10
166.2382851829499
 20
120.1111859126114
 30
0.0
 10
166.6301460097018
 20
120.11127629247
 30
0.0
 10
166.8936998145231
 20
120.0802546509644
 30
0.0
 10
167.2548661453525
 20
119.9899843898409
 30
0.0
 10
167.3714416480238
 20
119.9522302295949
 30
0.0
 10
167.5897000759295
 20
119.8626511583571
 30
0.0
 10
167.6902962531657
 20
119.8114678245941
 30
0.0
 10
167.8748290121483
 20
119.6957207290478
 30
0.0
 10
167.9592855776704
 20
119.6304290490789
 30
0.0
 10
168.1043938877513
 20
119.4904744373688
 30
0.0
 10
168.1659502076306
 20
119.4154542700934
 30
0.0
 10
168.2667180206491
 20
119.2544301843399
 30
0.0
 10
168.3052877140772
 20
119.1688639369504
 30
0.0
 10
168.3564228730046
 20
118.9935840138563
 30
0.0
 10
168.3695699828841
 20
118.9027975860034
 30
0.0
 10
168.3697894505696
 20
118.7158918074361
 30
0.0
 10
168.3569225658255
 20
118.6224956779675
 30
0.0
 10
168.3062138567431
 20
118.4359639535234
 30
0.0
 10
168.2677130389881
 20
118.3418042573148
 30
0.0
 10
168.1675484270124
 20
118.1604479094795
 30
0.0
 10
168.106219858406
 20
118.0731486411925
 30
0.0
 10
167.9611427394567
 20
117.9059146270954
 30
0.0
 10
167.8769531173438
 20
117.8259810846575
 30
0.0
 10
167.6009974727338
 20
117.6088461743448
 30
0.0
 10
167.3782810509265
 20
117.4887754479357
 30
0.0
 10
166.897303617459
 20
117.3266830404461
 30
0.0
 10
166.6343744022929
 20
117.2827890038527
 30
0.0
 10
166.2373334077617
 20
117.2827890038528
 30
0.0
  0
LINE
  5
13C
330
1F
100
AcDbEntity
  8
0
  6
HIDDEN
 62
     7
370
     0
100
AcDbLine
 10
163.8696815384
 20
97.3572035546
 30
0.0
 11
163.8696815384
 21
122.1572033356
 31
0.0
  0
LINE
  5
13D
330
1F
100
AcDbEntity
  8
0
  6
HIDDEN
 62
     7
370
     0
100
AcDbLine
 10
169.8696787966
 20
116.3715820986
 30
0.0
 11
169.8696787966
 21
122.257204097
 31
0.0
  0
LINE
  5
13E
330
1F
100
AcDbEntity
  8
0
  6
HIDDEN
 62
     7
370
     0
100
AcDbLine
 10
169.8696787966
 20
116.363094956
 30
0.0
 11
169.8696787966
 21
103.114751004
 31
0.0
  0
LINE
  5
13F
330
1F
100
AcDbEntity
  8
0
  6
HIDDEN
 62
     7
370
     0
100
AcDbLine
 10
169.8696787966
 20
97.2572037245
 30
0.0
 11
169.8696787966
 21
103.142825723
 31
0.0
  0
LINE
  5
140
330
1F
100
AcDbEntity
  8
0
  6
HIDDEN
 62
     7
370
     0
100
AcDbLine
 10
136.0696803344
 20
98.5072034637
 30
0.0
 11
136.0696803344
 21
121.0072043578
 31
0.0
  0
ELLIPSE
  5
141
330
1F
100
AcDbEntity
  8
0
  6
HIDDEN
 62
     7
370
     0
100
AcDbEllipse
 10
66.6850072057
 20
109.7572039108
 30
0.0
 11
31.0810857081166
 21
1.421085471520200E-14
 31
0.0
210
0.0
220
0.0
230
1.0
 40
0.8164965809
 41
1.31264926821481
 42
1.367189972061496
  0
ELLIPSE
  5
142
330
1F
100
AcDbEntity
  8
0
  6
HIDDEN
 62
     7
370
     0
100
AcDbEllipse
 10
66.6850072057
 20
109.7572039108
 30
0.0
 11
31.0810857081166
 21
-1.421085471520200E-14
 31
0.0
210
0.0
220
0.0
230
1.0
 40
0.8164965809
 41
4.915995335118103
 42
4.970536038964788
  0
LINE
  5
143
330
1F
100
AcDbEntity
  8
0
  6
HIDDEN
 62
     7
370
     0
100
AcDbLine
 10
151.8196805877
 20
65.8572021167
 30
0.0
 11
137.8196801556
 21
65.8572021167
 31
0.0
  0
LINE
  5
144
330
1F
100
AcDbEntity
  8
0
  6
HIDDEN
 62
     7
370
     0
100
AcDbLine
 10
127.8196803791
 20
59.7672055702
 30
0.0
 11
127.8196803791
 21
65.8572021167
 31
0.0
  0
LINE
  5
145
330
1F
100
AcDbEntity
  8
0
  6
HIDDEN
 62
     7
370
     0
100
AcDbLine
 10
137.8196801556
 20
65.8572021167
 30
0.0
 11
127.8196803791
 21
65.8572021167
 31
0.0
  0
LINE
  5
146
330
1F
100
AcDbEntity
  8
0
  6
HIDDEN
 62
     7
370
     0
100
AcDbLine
 10
88.0696799172
 20
82.3872036527
 30
0.0
 11
88.0696799172
 21
84.528690506
 31
0.0
  0
LINE
  5
147
330
1F
100
AcDbEntity
  8
0
  6
HIDDEN
 62
     7
370
     0
100
AcDbLine
 10
74.6196794821
 20
82.3872036527
 30
0.0
 11
74.6196794821
 21
85.2204992662
 31
0.0
  0
LINE
  5
148
330
1F
100
AcDbEntity
  8
0
  6
HIDDEN
 62
     7
370
     0
100
AcDbLine
 10
74.6196794821
 20
137.1272041689
 30
0.0
 11
74.6196794821
 21
134.2939085553
 31
0.0
  0
LINE
  5
149
330
1F
100
AcDbEntity
  8
0
  6
HIDDEN
 62
     7
370
     0
100
AcDbLine
 10
83.0696809603
 20
137.1272041689
 30
0.0
 11
83.0696809603
 21
134.9857173155
 31
0.0
  0
LINE
  5
14A
330
1F
100
AcDbEntity
  8
0
  6
HIDDEN
 62
     7
370
     0
100
AcDbLine
 10
137.8196801556
 20
153.6572057049
 30
0.0
 11
127.8196803791
 21
153.6572057049
 31
0.0
  0
LINE
  5
14B
330
1F
100
AcDbEntity
  8
0
  6
HIDDEN
 62
     7
370
     0
100
AcDbLine
 10
151.8196805877
 20
153.6572057049
 30
0.0
 11
137.8196801556
 21
153.6572057049
 31
0.0
  0
SPLINE
  5
14C
330
1F
100
AcDbEntity
  8
0
  6
HIDDEN
 62
     7
370
     0
100
AcDbSpline
210
0.0
220
0.0
230
1.0
 70
     8
 71
     3
 72
    30
 73
    26
 74
     0
 42
0.00000001
 43
0.00000001
 40
0.0
 40
0.0
 40
0.0
 40
0.0
 40
0.0531240990024064
 40
0.1125060184497205
 40
0.1779045282362003
 40
0.2129292173723161
 40
0.2494830298309983
 40
0.2912496255711546
 40
0.3260926071415453
 40
0.3540082718263902
 40
0.3749939023952907
 40
0.4414527802003781
 40
0.5001714734328747
 40
0.5546871979453013
 40
0.6144324039940107
 40
0.6794590016308285
 40
0.7140166089978873
 40
0.749914199624719
 40
0.791379498645699
 40
0.8260470296092767
 40
0.8539131622628999
 40
0.8749748957075343
 40
0.9411625832411673
 40
0.9999141561400158
 40
0.9999999999999999
 40
0.9999999999999999
 40
0.9999999999999999
 40
0.9999999999999999
 10
113.8691862610819
 20
72.65728742284284
 30
0.0
 10
113.8529938517243
 20
72.66218552824114
 30
0.0
 10
113.8187016276651
 20
72.67255871755928
 30
0.0
 10
113.51740780137
 20
72.7482101685891
 30
0.0
 10
113.0752410494614
 20
72.84449711219627
 30
0.0
 10
112.5804086590659
 20
72.94415840531319
 30
0.0
 10
112.1099327119688
 20
73.0364389389893
 30
0.0
 10
111.579011160674
 20
73.13206886991577
 30
0.0
 10
111.0408605375126
 20
73.21771844676486
 30
0.0
 10
110.5828136013675
 20
73.28501266587695
 30
0.0
 10
109.927248788648
 20
73.37335546608199
 30
0.0
 10
109.0439429445119
 20
73.47001971512968
 30
0.0
 10
107.9152805820064
 20
73.55679123650808
 30
0.0
 10
106.825519048278
 20
73.59487244249594
 30
0.0
 10
105.7294908636477
 20
73.59672319783667
 30
0.0
 10
104.8240996226359
 20
73.57056134590731
 30
0.0
 10
104.1277961551984
 20
73.53395510872845
 30
0.0
 10
103.601118556399
 20
73.49493656824862
 30
0.0
 10
103.1344698363413
 20
73.45272830191296
 30
0.0
 10
102.7632574176969
 20
73.41572389797032
 30
0.0
 10
102.5092074602343
 20
73.38702263500184
 30
0.0
 10
102.208159846254
 20
73.35064222445634
 30
0.0
 10
101.9526260472849
 20
73.31784542742834
 30
0.0
 10
101.8535281359927
 20
73.30155873346392
 30
0.0
 10
101.8697296941294
 20
73.30411702069162
 30
0.0
 10
101.8697533322217
 20
73.30412075323568
 30
0.0
  0
SPLINE
  5
14D
330
1F
100
AcDbEntity
  8
0
  6
HIDDEN
 62
     7
370
     0
100
AcDbSpline
210
0.0
220
0.0
230
1.0
 70
     8
 71
     3
 72
    30
 73
    26
 74
     0
 42
0.00000001
 43
0.00000001
 40
0.0
 40
0.0
 40
0.0
 40
0.0
 40
0.0001200588498144
 40
0.0285506262547115
 40
0.0588539493829405
 40
0.0910342297100333
 40
0.1250948553672866
 40
0.1546831799975633
 40
0.1963616518647117
 40
0.2501159433002954
 40
0.3205306629515491
 40
0.3856152227574799
 40
0.4454081113489194
 40
0.499961024921476
 40
0.52835311055331
 40
0.5586374618652117
 40
0.5908217662713976
 40
0.6249123836483821
 40
0.6541871338792499
 40
0.6958653761871779
 40
0.7499326696524065
 40
0.8215919011534804
 40
0.8871431612576248
 40
0.9466382805470211
 40
1.0
 40
1.0
 40
1.0
 40
1.0
 10
101.8697831345441
 20
146.2102125625085
 30
0.0
 10
101.869748855831
 20
146.2102200392088
 30
0.0
 10
101.8615971974931
 20
146.2119980378876
 30
0.0
 10
101.8903339008877
 20
146.2065285196354
 30
0.0
 10
101.963688219727
 20
146.1959928196303
 30
0.0
 10
102.1073558016824
 20
146.1763053718529
 30
0.0
 10
102.3083876688075
 20
146.1514651061889
 30
0.0
 10
102.591020746195
 20
146.1172545422397
 30
0.0
 10
103.0044277772381
 20
146.0735805678277
 30
0.0
 10
103.6807158354645
 20
146.0105356463929
 30
0.0
 10
104.6191474147614
 20
145.9492360758159
 30
0.0
 10
105.7286401658389
 20
145.9179461462687
 30
0.0
 10
106.8261205671212
 20
145.9196080572835
 30
0.0
 10
107.7261520963934
 20
145.9509048812676
 30
0.0
 10
108.4374928285862
 20
145.9977468401216
 30
0.0
 10
109.002910422774
 20
146.0449061814557
 30
0.0
 10
109.5918329605063
 20
146.1043532680294
 30
0.0
 10
110.1562430589186
 20
146.1707042290502
 30
0.0
 10
110.750439347171
 20
146.2526246895504
 30
0.0
 10
111.4170466934135
 20
146.3542768127058
 30
0.0
 10
112.2183803135324
 20
146.4964097078155
 30
0.0
 10
112.9708901796381
 20
146.6476547192443
 30
0.0
 10
113.5161759810132
 20
146.7655106393556
 30
0.0
 10
113.8188974989715
 20
146.8417339107422
 30
0.0
 10
113.8531885877533
 20
146.8521884092255
 30
0.0
 10
113.8694023279192
 20
146.8571315745781
 30
0.0
  0
LINE
  5
14E
330
1F
100
AcDbEntity
  8
0
  6
HIDDEN
 62
     7
370
     0
100
AcDbLine
 10
159.8196800364
 20
77.8345543186
 30
0.0
 11
154.8196810795
 21
77.8345543186
 31
0.0
  0
LINE
  5
14F
330
1F
100
AcDbEntity
  8
0
  6
HIDDEN
 62
     7
370
     0
100
AcDbLine
 10
157.3196786953
 20
141.6798535029
 30
0.0
 11
159.8196800364
 21
141.6798535029
 31
0.0
  0
LINE
  5
150
330
1F
100
AcDbEntity
  8
0
  6
HIDDEN
 62
     7
370
     0
100
AcDbLine
 10
154.8196810795
 20
141.6798535029
 30
0.0
 11
157.3196786953
 21
141.6798535029
 31
0.0
  0
LINE
  5
151
330
1F
100
AcDbEntity
  8
0
  6
HIDDEN
 62
     7
370
     0
100
AcDbLine
 10
157.3196786953
 20
128.2572041492
 30
0.0
 11
159.8196800364
 21
128.2572041492
 31
0.0
  0
LINE
  5
152
330
1F
100
AcDbEntity
  8
0
  6
HIDDEN
 62
     7
370
     0
100
AcDbLine
 10
154.8196810795
 20
128.2572041492
 30
0.0
 11
157.3196786953
 21
128.2572041492
 31
0.0
  0
LINE
  5
153
330
1F
100
AcDbEntity
  8
0
  6
HIDDEN
 62
     7
370
     0
100
AcDbLine
 10
159.8196800364
 20
91.2572036724
 30
0.0
 11
154.8196810795
 21
91.2572036724
 31
0.0
  0
LWPOLYLINE
  5
154
330
1F
100
AcDbEntity
  8
0
  6
HIDDEN
 62
     7
370
     0
100
AcDbPolyline
 90
       17
 70
   128
 43
0.0
 10
168.1289773
 20
125.6326365511
 10
167.7247125221
 20
126.0001643787
 10
167.1735744489
 20
126.2549425702
 10
166.535294385
 20
126.3693555484
 10
165.8790621472
 20
126.3310018222
 10
165.2760121537
 20
126.1440388153
 10
164.7915120734
 20
125.8287302445
 10
164.4780773235
 20
125.4192556481
 10
164.3696788264
 20
124.9599999974
 10
164.4780773235
 20
124.5007443468
 10
164.7915120734
 20
124.0912697504
 10
165.2760121537
 20
123.7759611796
 10
165.8790621472
 20
123.5889972414
 10
166.535294385
 20
123.5506435151
 10
167.1735744489
 20
123.6650564934
 10
167.7247125221
 20
123.9198356162
 10
168.1289773
 20
124.2873634438
  0
SPLINE
  5
155
330
1F
100
AcDbEntity
  8
0
  6
HIDDEN
 62
     7
370
     0
100
AcDbSpline
210
0.0
220
0.0
230
1.0
 70
     8
 71
     3
 72
    46
 73
    42
 74
     0
 42
0.00000001
 43
0.00000001
 40
0.0
 40
0.0
 40
0.0
 40
0.0
 40
0.0625000000000013
 40
0.0625000000000013
 40
0.1250000000000026
 40
0.1250000000000026
 40
0.156250000000003
 40
0.156250000000003
 40
0.1875000000000038
 40
0.1875000000000038
 40
0.2187500000000046
 40
0.2187500000000046
 40
0.2500000000000053
 40
0.2500000000000053
 40
0.3125000000000054
 40
0.3125000000000054
 40
0.3750000000000056
 40
0.3750000000000056
 40
0.4062500000000056
 40
0.4062500000000056
 40
0.4375000000000055
 40
0.4375000000000055
 40
0.5000000000000054
 40
0.5000000000000054
 40
0.5312500000000052
 40
0.5312500000000052
 40
0.562500000000005
 40
0.562500000000005
 40
0.6250000000000042
 40
0.6250000000000042
 40
0.6875000000000036
 40
0.6875000000000036
 40
0.7500000000000028
 40
0.7500000000000028
 40
0.8125000000000021
 40
0.8125000000000021
 40
0.8750000000000014
 40
0.8750000000000014
 40
0.9375000000000007
 40
0.9375000000000007
 40
1.0
 40
1.0
 40
1.0
 40
1.0
 10
168.1289759289859
 20
124.2873633771352
 30
0.0
 10
168.0523376543217
 20
124.1184974012492
 30
0.0
 10
167.9662088479849
 20
123.9544507135342
 30
0.0
 10
167.7901628970357
 20
123.6282327404712
 30
0.0
 10
167.7006050648
 20
123.4683692168775
 30
0.0
 10
167.5920195181502
 20
123.2345126873689
 30
0.0
 10
167.5601738908494
 20
123.1568161461332
 30
0.0
 10
167.5149654511982
 20
123.0080139895425
 30
0.0
 10
167.5014271943869
 20
122.9349356171173
 30
0.0
 10
167.4987060627026
 20
122.8019567114001
 30
0.0
 10
167.5092170555127
 20
122.7409513462473
 30
0.0
 10
167.5493331101057
 20
122.6329976596478
 30
0.0
 10
167.5780264558558
 20
122.5870226497756
 30
0.0
 10
167.6792852837626
 20
122.4681494658572
 30
0.0
 10
167.7650154494963
 20
122.4155410181985
 30
0.0
 10
167.9356017947351
 20
122.3567577829268
 30
0.0
 10
168.0228562159156
 20
122.3506794486793
 30
0.0
 10
168.1376772017636
 20
122.3800257492557
 30
0.0
 10
168.173644906109
 20
122.3961742021627
 30
0.0
 10
168.239196943479
 20
122.4430748709315
 30
0.0
 10
168.2686849849483
 20
122.4740583305824
 30
0.0
 10
168.3410478870817
 20
122.5879400899366
 30
0.0
 10
168.3689617648779
 20
122.6955769356344
 30
0.0
 10
168.3700181596894
 20
122.8916394859795
 30
0.0
 10
168.3637114318794
 20
122.9640605178134
 30
0.0
 10
168.3387207496038
 20
123.115429288513
 30
0.0
 10
168.3202402142375
 20
123.1943597511008
 30
0.0
 10
168.2487646278804
 20
123.4403518584247
 30
0.0
 10
168.1810215526355
 20
123.6113093221218
 30
0.0
 10
168.026504868938
 20
123.9499166021572
 30
0.0
 10
167.941192674272
 20
124.1146694611705
 30
0.0
 10
167.7689596657468
 20
124.442373836776
 30
0.0
 10
167.6837855436305
 20
124.6006318072442
 30
0.0
 10
167.5478769576846
 20
124.9093450751086
 30
0.0
 10
167.4984900162794
 20
125.0638303390291
 30
0.0
 10
167.5014724442378
 20
125.3290902146966
 30
0.0
 10
167.5536056828566
 20
125.4342453199819
 30
0.0
 10
167.6975579006684
 20
125.5817759790284
 30
0.0
 10
167.7879405613768
 20
125.6273713725715
 30
0.0
 10
167.9636963364042
 20
125.6684194717316
 30
0.0
 10
168.0521101859848
 20
125.6643129405301
 30
0.0
 10
168.1289759289859
 20
125.6326360354364
 30
0.0
  0
SPLINE
  5
156
330
1F
100
AcDbEntity
  8
0
  6
HIDDEN
 62
     7
370
     0
100
AcDbSpline
210
0.0
220
0.0
230
1.0
 70
     8
 71
     3
 72
    28
 73
    24
 74
     0
 42
0.00000001
 43
0.00000001
 40
0.0
 40
0.0
 40
0.0
 40
0.0
 40
0.0624999999999991
 40
0.0624999999999991
 40
0.1249999999999983
 40
0.1249999999999983
 40
0.1874999999999974
 40
0.1874999999999974
 40
0.2499999999999965
 40
0.2499999999999965
 40
0.3749999999999981
 40
0.3749999999999981
 40
0.4999999999999997
 40
0.4999999999999997
 40
0.6250000000000012
 40
0.6250000000000012
 40
0.7500000000000028
 40
0.7500000000000028
 40
0.8125000000000019
 40
0.8125000000000019
 40
0.8750000000000009
 40
0.8750000000000009
 40
1.0
 40
1.0
 40
1.0
 40
1.0
 10
164.9482372761634
 20
123.7094337932289
 30
0.0
 10
164.912794062306
 20
123.7014284900534
 30
0.0
 10
164.8772030403359
 20
123.6973872786401
 30
0.0
 10
164.8048947551407
 20
123.7017795893875
 30
0.0
 10
164.7676163761854
 20
123.7105238651053
 30
0.0
 10
164.6945901299132
 20
123.7473002098353
 30
0.0
 10
164.6580007123017
 20
123.7762522177504
 30
0.0
 10
164.590818619
 20
123.8528835593681
 30
0.0
 10
164.5600512314582
 20
123.9002638215368
 30
0.0
 10
164.4786849029291
 20
124.0549630674937
 30
0.0
 10
164.4390040469245
 20
124.1709007395766
 30
0.0
 10
164.384140691064
 20
124.3962730617441
 30
0.0
 10
164.3696785583306
 20
124.5069746060438
 30
0.0
 10
164.3696822539115
 20
124.7005305432598
 30
0.0
 10
164.3841814754859
 20
124.7857178020827
 30
0.0
 10
164.4389917025613
 20
124.9332718312168
 30
0.0
 10
164.4786345277946
 20
124.9960842624254
 30
0.0
 10
164.5599415480531
 20
125.1083711195721
 30
0.0
 10
164.5906755848644
 20
125.1491408996325
 30
0.0
 10
164.6573820635799
 20
125.2415900686598
 30
0.0
 10
164.6942083426049
 20
125.2947257284463
 30
0.0
 10
164.8034694896452
 20
125.4604277991323
 30
0.0
 10
164.8770927884393
 20
125.5814380557742
 30
0.0
 10
164.9482372761627
 20
125.6991571050565
 30
0.0
  0
SPLINE
  5
157
330
1F
100
AcDbEntity
  8
0
  6
HIDDEN
 62
     7
370
     0
100
AcDbSpline
210
0.0
220
0.0
230
1.0
 70
     8
 71
     3
 72
    18
 73
    14
 74
     0
 42
0.00000001
 43
0.00000001
 40
0.0
 40
0.0
 40
0.0
 40
0.0
 40
0.2499999999999975
 40
0.2499999999999975
 40
0.3749999999999979
 40
0.3749999999999979
 40
0.4999999999999983
 40
0.4999999999999983
 40
0.6249999999999988
 40
0.6249999999999988
 40
0.7499999999999991
 40
0.7499999999999991
 40
1.0
 40
1.0
 40
1.0
 40
1.0
 10
164.9482372761634
 20
125.699157105056
 30
0.0
 10
165.0271078016143
 20
125.6612718854689
 30
0.0
 10
165.1024240815654
 20
125.6038396941805
 30
0.0
 10
165.1868689654798
 20
125.4804344634439
 30
0.0
 10
165.2093488792964
 20
125.4338112418169
 30
0.0
 10
165.2374478421776
 20
125.3275618865288
 30
0.0
 10
165.2425112319187
 20
125.2677196333893
 30
0.0
 10
165.232351174741
 20
125.1415558898396
 30
0.0
 10
165.2171073709411
 20
125.0734193915676
 30
0.0
 10
165.1716616733443
 20
124.9340373416185
 30
0.0
 10
165.1420225506329
 20
124.8632643356991
 30
0.0
 10
165.0406900485211
 20
124.6463459017136
 30
0.0
 10
164.9582829692517
 20
124.4978689888857
 30
0.0
 10
164.8760622512465
 20
124.3458629807003
 30
0.0
  0
SPLINE
  5
158
330
1F
100
AcDbEntity
  8
0
  6
HIDDEN
 62
     7
370
     0
100
AcDbSpline
210
0.0
220
0.0
230
1.0
 70
     8
 71
     3
 72
    28
 73
    24
 74
     0
 42
0.00000001
 43
0.00000001
 40
0.0
 40
0.0
 40
0.0
 40
0.0
 40
0.0625000000000009
 40
0.0625000000000009
 40
0.1250000000000019
 40
0.1250000000000019
 40
0.1875000000000028
 40
0.1875000000000028
 40
0.2500000000000037
 40
0.2500000000000037
 40
0.3750000000000041
 40
0.3750000000000041
 40
0.5000000000000044
 40
0.5000000000000044
 40
0.6250000000000049
 40
0.6250000000000049
 40
0.7500000000000052
 40
0.7500000000000052
 40
0.8125000000000037
 40
0.8125000000000037
 40
0.875000000000002
 40
0.875000000000002
 40
1.0
 40
1.0
 40
1.0
 40
1.0
 10
164.8760622512464
 20
124.3458629807005
 30
0.0
 10
164.8455465726458
 20
124.3536724300058
 30
0.0
 10
164.8147711614189
 20
124.35768896818
 30
0.0
 10
164.7520369983586
 20
124.3539613878817
 30
0.0
 10
164.7196057505629
 20
124.3458988189365
 30
0.0
 10
164.6560664114552
 20
124.3126150112153
 30
0.0
 10
164.6243699261544
 20
124.2868406347648
 30
0.0
 10
164.5654184584574
 20
124.2190490253041
 30
0.0
 10
164.5384893545161
 20
124.177854513022
 30
0.0
 10
164.4660761440488
 20
124.0415174614418
 30
0.0
 10
164.4305144327415
 20
123.9388206667135
 30
0.0
 10
164.3820650681814
 20
123.7373641934631
 30
0.0
 10
164.369666406181
 20
123.6375909975035
 30
0.0
 10
164.3696944300754
 20
123.4581257929062
 30
0.0
 10
164.3816673616685
 20
123.3771190049275
 30
0.0
 10
164.4298624823696
 20
123.2249723900705
 30
0.0
 10
164.4655993027754
 20
123.1558649308775
 30
0.0
 10
164.5371429885108
 20
123.0390013985954
 30
0.0
 10
164.5645309336804
 20
122.9967209120685
 30
0.0
 10
164.623081366004
 20
122.9047030208086
 30
0.0
 10
164.654647116527
 20
122.8541417318088
 30
0.0
 10
164.7509861465551
 20
122.6930260262181
 30
0.0
 10
164.8146439696024
 20
122.5781063394438
 30
0.0
 10
164.8760622512465
 20
122.4648500578454
 30
0.0
  0
SPLINE
  5
159
330
1F
100
AcDbEntity
  8
0
  6
HIDDEN
 62
     7
370
     0
100
AcDbSpline
210
0.0
220
0.0
230
1.0
 70
     8
 71
     3
 72
    16
 73
    12
 74
     0
 42
0.00000001
 43
0.00000001
 40
0.0
 40
0.0
 40
0.0
 40
0.0
 40
0.2500000000000001
 40
0.2500000000000001
 40
0.3749999999999995
 40
0.3749999999999995
 40
0.499999999999999
 40
0.499999999999999
 40
0.7499999999999994
 40
0.7499999999999994
 40
1.0
 40
1.0
 40
1.0
 40
1.0
 10
164.8760622512465
 20
122.4648500578454
 30
0.0
 10
164.9582961406225
 20
122.4862847906586
 30
0.0
 10
165.039645895461
 20
122.528258856653
 30
0.0
 10
165.14182569011
 20
122.629254550915
 30
0.0
 10
165.1716315692424
 20
122.6688411050947
 30
0.0
 10
165.2169660784458
 20
122.7612107423238
 30
0.0
 10
165.2323655868023
 20
122.8150013491504
 30
0.0
 10
165.2475870251055
 20
122.9896079097259
 30
0.0
 10
165.2147870483506
 20
123.1280946705201
 30
0.0
 10
165.103293375749
 20
123.4113542787333
 30
0.0
 10
165.0271407945568
 20
123.5587965843612
 30
0.0
 10
164.9482372761633
 20
123.709433793229
 30
0.0
  0
LWPOLYLINE
  5
15A
330
1F
100
AcDbEntity
  8
0
  6
HIDDEN
 62
     7
370
     0
100
AcDbPolyline
 90
       31
 70
   128
 43
0.0
 10
131.8696800185
 20
155.0699102919
 10
132.9092390401
 20
155.0361442606
 10
133.9033634899
 20
154.9363288323
 10
134.8086062384
 20
154.774826322
 10
135.5854047028
 20
154.5586887042
 10
136.1998075185
 20
154.2973670403
 10
136.6249627931
 20
154.0022830705
 10
136.8422897098
 20
153.6863300244
 10
136.8422897098
 20
153.3633212785
 10
136.6249627931
 20
153.0473682324
 10
136.1998075185
 20
152.7522805373
 10
135.5854047028
 20
152.4909625987
 10
134.8086062384
 20
152.2748249809
 10
133.9033634899
 20
152.1133187453
 10
132.9092390401
 20
152.0135033171
 10
131.8696800185
 20
151.9797410111
 10
130.8301219282
 20
152.0135033171
 10
129.8359970128
 20
152.1133187453
 10
128.9307542642
 20
152.2748249809
 10
128.1539562655
 20
152.4909625987
 10
127.5395534498
 20
152.7522805373
 10
127.1143977096
 20
153.0473682324
 10
126.8970707928
 20
153.3633212785
 10
126.8970707928
 20
153.6863300244
 10
127.1143977096
 20
154.0022830705
 10
127.5395534498
 20
154.2973670403
 10
128.1539562655
 20
154.5586887042
 10
128.9307542642
 20
154.774826322
 10
129.8359970128
 20
154.9363288323
 10
130.8301219282
 20
155.0361442606
 10
131.8696800185
 20
155.0699102919
  0
LINE
  5
15B
330
1F
100
AcDbEntity
  8
0
  6
HIDDEN
 62
     7
370
     0
100
AcDbLine
 10
146.1317099197
 20
148.7081649939
 30
0.0
 11
146.1317099197
 21
141.1072056035
 31
0.0
  0
LINE
  5
15C
330
1F
100
AcDbEntity
  8
0
  6
HIDDEN
 62
     7
370
     0
100
AcDbLine
 10
144.7796809984
 20
144.4714407663
 30
0.0
 11
144.7796809984
 21
141.1072056035
 31
0.0
  0
LINE
  5
15D
330
1F
100
AcDbEntity
  8
0
  6
HIDDEN
 62
     7
370
     0
100
AcDbLine
 10
140.959680782
 20
144.4714407663
 30
0.0
 11
140.959680782
 21
141.1072056035
 31
0.0
  0
SPLINE
  5
15E
330
1F
100
AcDbEntity
  8
0
  6
HIDDEN
 62
     7
370
     0
100
AcDbSpline
210
0.0
220
0.0
230
1.0
 70
     8
 71
     3
 72
    16
 73
    12
 74
     0
 42
0.00000001
 43
0.00000001
 40
0.0
 40
0.0
 40
0.0
 40
0.0
 40
0.2500000000000012
 40
0.2500000000000012
 40
0.5000000000000023
 40
0.5000000000000023
 40
0.75
 40
0.75
 40
0.8750000000000001
 40
0.8750000000000001
 40
1.0
 40
1.0
 40
1.0
 40
1.0
 10
168.1289759289859
 20
125.6326360354364
 30
0.0
 10
168.0274508998023
 20
125.6109000680982
 30
0.0
 10
167.9514624716617
 20
125.5656015219197
 30
0.0
 10
167.8636475900758
 20
125.4123647908683
 30
0.0
 10
167.8485981085743
 20
125.3068987666773
 30
0.0
 10
167.8487429826998
 20
125.0542170399627
 30
0.0
 10
167.864386369638
 20
124.9046221085956
 30
0.0
 10
167.9293903476957
 20
124.6724040518481
 30
0.0
 10
167.9589677137257
 20
124.5920346732482
 30
0.0
 10
168.0334142553158
 20
124.4360291139394
 30
0.0
 10
168.0779211626786
 20
124.3604737974134
 30
0.0
 10
168.1289759289859
 20
124.2873633771352
 30
0.0
  0
ARC
  5
15F
330
1F
100
AcDbEntity
  8
0
  6
HIDDEN
 62
     7
370
     0
100
AcDbCircle
 10
184.8555936318
 20
123.9588332249
 30
0.0
 40
19.98328064811308
100
AcDbArc
 50
175.003838547
 51
178.8902454404
  0
ARC
  5
160
330
1F
100
AcDbEntity
  8
0
  6
HIDDEN
 62
     7
370
     0
100
AcDbCircle
 10
149.8255651953
 20
123.9620623257
 30
0.0
 40
15.124783530776
100
AcDbArc
 50
354.3189484301
 51
359.0429476803
  0
SPLINE
  5
161
330
1F
100
AcDbEntity
  8
0
  6
HIDDEN
 62
     7
370
     0
100
AcDbSpline
210
0.0
220
0.0
230
1.0
 70
     8
 71
     3
 72
    14
 73
    10
 74
     0
 42
0.00000001
 43
0.00000001
 40
0.0
 40
0.0
 40
0.0
 40
0.0
 40
0.2500000000000012
 40
0.2500000000000012
 40
0.5000000000000023
 40
0.5000000000000023
 40
0.7500000000000011
 40
0.7500000000000011
 40
1.0
 40
1.0
 40
1.0
 40
1.0
 10
164.9723829948196
 20
124.6187633548294
 30
0.0
 10
165.0141680993207
 20
124.7333012642912
 30
0.0
 10
165.0390078620976
 20
124.8495421936174
 30
0.0
 10
165.0674487481464
 20
125.0664131619971
 30
0.0
 10
165.0722651003462
 20
125.1684746903304
 30
0.0
 10
165.0722156630373
 20
125.3497382345594
 30
0.0
 10
165.0672640835243
 20
125.4307298609098
 30
0.0
 10
165.0389326720808
 20
125.564364398723
 30
0.0
 10
165.0143912629674
 20
125.6188228671338
 30
0.0
 10
164.9723829948201
 20
125.6589318905181
 30
0.0
  0
SPLINE
  5
162
330
1F
100
AcDbEntity
  8
0
  6
HIDDEN
 62
     7
370
     0
100
AcDbSpline
210
0.0
220
0.0
230
1.0
 70
     8
 71
     3
 72
    10
 73
     6
 74
     0
 42
0.00000001
 43
0.00000001
 40
0.0
 40
0.0
 40
0.0
 40
0.0
 40
0.5
 40
0.5
 40
1.0
 40
1.0
 40
1.0
 40
1.0
 10
164.9723829948194
 20
125.6589318905178
 30
0.0
 10
164.934158779796
 20
125.5217673559385
 30
0.0
 10
164.9148008351112
 20
125.3682176080605
 30
0.0
 10
164.9146521782718
 20
125.0169540151102
 30
0.0
 10
164.9341231801447
 20
124.822822780021
 30
0.0
 10
164.9723829948196
 20
124.6187633548294
 30
0.0
  0
ARC
  5
163
330
1F
100
AcDbEntity
  8
0
  6
HIDDEN
 62
     7
370
     0
100
AcDbCircle
 10
146.1599711419
 20
125.1388474594
 30
0.0
 40
18.81959892129264
100
AcDbArc
 50
358.4164160154
 51
1.5835839846
  0
CIRCLE
  5
164
330
1F
100
AcDbEntity
  8
0
  6
HIDDEN
 62
     7
370
     0
100
AcDbCircle
 10
129.8696804059
 20
109.7572039108
 30
0.0
 40
5.0
  0
LINE
  5
165
330
1F
100
AcDbEntity
  8
0
  6
HIDDEN
 62
     7
370
     0
100
AcDbLine
 10
215.6074668778
 20
98.8275206874
 30
0.0
 11
214.8794408453
 21
98.0572945665
 31
0.0
  0
LINE
  5
166
330
1F
100
AcDbEntity
  8
0
  6
HIDDEN
 62
     7
370
     0
100
AcDbLine
 10
214.9488430036
 20
95.5592229257
 30
0.0
 11
215.718510331
 21
94.8306055034
 31
0.0
  0
LINE
  5
167
330
1F
100
AcDbEntity
  8
0
  6
HIDDEN
 62
     7
370
     0
100
AcDbLine
 10
222.628402294
 20
99.0233498852
 30
0.0
 11
215.6089867962
 21
98.8283346633
 31
0.0
  0
LINE
  5
168
330
1F
100
AcDbEntity
  8
0
  6
HIDDEN
 62
     7
370
     0
100
AcDbLine
 10
215.7200749529
 20
94.8298772092
 30
0.0
 11
222.7394904507
 21
95.0248933624
 31
0.0
  0
LINE
  5
169
330
1F
100
AcDbEntity
  8
0
  6
HIDDEN
 62
     7
370
     0
100
AcDbLine
 10
222.7420981539
 20
95.0272812734
 30
0.0
 11
222.8696818961
 21
95.2635373215
 31
0.0
  0
LINE
  5
16A
330
1F
100
AcDbEntity
  8
0
  6
HIDDEN
 62
     7
370
     0
100
AcDbLine
 10
222.8664259923
 20
98.6379481147
 30
0.0
 11
222.6311366571
 21
99.0211100544
 31
0.0
  0
LINE
  5
16B
330
1F
100
AcDbEntity
  8
0
  6
HIDDEN
 62
     7
370
     0
100
AcDbLine
 10
222.5526149882
 20
120.4954789246
 30
0.0
 11
222.787911774
 21
120.8786408643
 31
0.0
  0
LINE
  5
16C
330
1F
100
AcDbEntity
  8
0
  6
HIDDEN
 62
     7
370
     0
100
AcDbLine
 10
222.8696818961
 20
124.1076535772
 30
0.0
 11
222.663576485
 21
124.4893077056
 31
0.0
  0
LINE
  5
16D
330
1F
100
AcDbEntity
  8
0
  6
HIDDEN
 62
     7
370
     0
100
AcDbLine
 10
222.6609687818
 20
124.491696548
 30
0.0
 11
215.641553284
 21
124.6867117698
 31
0.0
  0
LINE
  5
16E
330
1F
100
AcDbEntity
  8
0
  6
HIDDEN
 62
     7
370
     0
100
AcDbLine
 10
215.5304651273
 20
120.6882543157
 30
0.0
 11
222.5498880757
 21
120.4932390938
 31
0.0
  0
LINE
  5
16F
330
1F
100
AcDbEntity
  8
0
  6
HIDDEN
 62
     7
370
     0
100
AcDbLine
 10
215.6399886621
 20
124.6859834756
 30
0.0
 11
214.8703287853
 21
123.9573660533
 31
0.0
  0
LINE
  5
170
330
1F
100
AcDbEntity
  8
0
  6
HIDDEN
 62
     7
370
     0
100
AcDbLine
 10
214.800926627
 20
121.4592944126
 30
0.0
 11
215.5289452089
 21
120.6890682916
 31
0.0
  0
LINE
  5
171
330
1F
100
AcDbEntity
  8
0
  6
HIDDEN
 62
     7
370
     0
100
AcDbLine
 10
122.8696804059
 20
70.3525210957
 30
0.0
 11
122.9592820268
 21
70.9900710027
 31
0.0
  0
LINE
  5
172
330
1F
100
AcDbEntity
  8
0
  6
HIDDEN
 62
     7
370
     0
100
AcDbLine
 10
122.9592820268
 20
148.5243368189
 30
0.0
 11
122.8696804059
 21
149.1618867258
 31
0.0
  0
ARC
  5
173
330
1F
100
AcDbEntity
  8
0
  6
HIDDEN
 62
     7
370
     0
100
AcDbCircle
 10
121.9727434875
 20
71.1287185863
 30
0.0
 40
0.9962338214386983
100
AcDbArc
 50
352.0
 51
0.0
  0
ARC
  5
174
330
1F
100
AcDbEntity
  8
0
  6
HIDDEN
 62
     7
370
     0
100
AcDbCircle
 10
121.9727434875
 20
71.1287185863
 30
0.0
 40
0.9962338214386932
100
AcDbArc
 50
0.0
 51
25.7988228126
  0
ARC
  5
175
330
1F
100
AcDbEntity
  8
0
  6
HIDDEN
 62
     7
370
     0
100
AcDbCircle
 10
121.9727434875
 20
148.3856892352
 30
0.0
 40
0.9962338214386963
100
AcDbArc
 50
348.75
 51
8.0
  0
LWPOLYLINE
  5
176
330
1F
100
AcDbEntity
  8
0
  6
HIDDEN
 62
     7
370
     0
100
AcDbPolyline
 90
        3
 70
   128
 43
0.0
 10
122.9498349525
 20
148.1913331191
 10
122.8931435248
 20
148.0044464807
 10
122.8696804059
 20
147.9521173279
  0
LINE
  5
177
330
1F
100
AcDbEntity
  8
0
  6
HIDDEN
 62
     7
370
     0
100
AcDbLine
 10
122.9689773058
 20
71.128718857
 30
0.0
 11
122.9689773058
 21
148.3856889646
 31
0.0
  0
ARC
  5
178
330
1F
100
AcDbEntity
  8
0
  6
HIDDEN
 62
     7
370
     0
100
AcDbCircle
 10
113.1228860611
 20
90.2572039108
 30
0.0
 40
11.99999999999999
100
AcDbArc
 50
273.171627117
 51
324.3146652873
  0
ARC
  5
179
330
1F
100
AcDbEntity
  8
0
  6
HIDDEN
 62
     7
370
     0
100
AcDbCircle
 10
113.1228860611
 20
129.2572039108
 30
0.0
 40
12.0
100
AcDbArc
 50
35.6853347127
 51
86.8289799182
  0
LINE
  5
17A
330
1F
100
AcDbEntity
  8
0
  6
HIDDEN
 62
     7
370
     0
100
AcDbLine
 10
96.3304068459
 20
78.2572034041
 30
0.0
 11
101.915511073
 21
78.2572034041
 31
0.0
  0
LINE
  5
17B
330
1F
100
AcDbEntity
  8
0
  6
HIDDEN
 62
     7
370
     0
100
AcDbLine
 10
101.915511073
 20
141.2572044174
 30
0.0
 11
96.3304068459
 21
141.2572044174
 31
0.0
  0
ARC
  5
17C
330
1F
100
AcDbEntity
  8
0
  6
HIDDEN
 62
     7
370
     0
100
AcDbCircle
 10
96.3304063481
 20
79.2572039108
 30
0.0
 40
1.000000000000008
100
AcDbArc
 50
210.0
 51
270.0
  0
ARC
  5
17D
330
1F
100
AcDbEntity
  8
0
  6
HIDDEN
 62
     7
370
     0
100
AcDbCircle
 10
96.3304063481
 20
140.2572039108
 30
0.0
 40
1.0
100
AcDbArc
 50
90.0
 51
150.0
  0
LINE
  5
17E
330
1F
100
AcDbEntity
  8
0
  6
HIDDEN
 62
     7
370
     0
100
AcDbLine
 10
95.4643811596
 20
140.7572034041
 30
0.0
 11
92.8663041008
 21
136.2572035979
 31
0.0
  0
LINE
  5
17F
330
1F
100
AcDbEntity
  8
0
  6
HIDDEN
 62
     7
370
     0
100
AcDbLine
 10
92.8663041008
 20
83.2572042237
 30
0.0
 11
95.4643811596
 21
78.7572044174
 31
0.0
  0
ARC
  5
180
330
1F
100
AcDbEntity
  8
0
  6
HIDDEN
 62
     7
370
     0
100
AcDbCircle
 10
133.3196804059
 20
84.8822039108
 30
0.0
 40
2.000000000000032
100
AcDbArc
 50
234.3409123039
 51
0.0
  0
ARC
  5
181
330
1F
100
AcDbEntity
  8
0
  6
HIDDEN
 62
     7
370
     0
100
AcDbCircle
 10
133.3196804059
 20
134.6322039108
 30
0.0
 40
2.00000000000002
100
AcDbArc
 50
0.0
 51
125.6590876961
  0
LINE
  5
182
330
1F
100
AcDbEntity
  8
0
  6
HIDDEN
 62
     7
370
     0
100
AcDbLine
 10
88.0696799172
 20
83.2572042237
 30
0.0
 11
92.8663041008
 21
83.2572042237
 31
0.0
  0
LINE
  5
183
330
1F
100
AcDbEntity
  8
0
  6
HIDDEN
 62
     7
370
     0
100
AcDbLine
 10
92.8663041008
 20
136.2572035979
 30
0.0
 11
83.0696809603
 21
136.2572035979
 31
0.0
  0
LINE
  5
184
330
1F
100
AcDbEntity
  8
0
  6
HIDDEN
 62
     7
370
     0
100
AcDbLine
 10
122.8696804059
 20
83.2572042237
 30
0.0
 11
132.1537576182
 21
83.2572042237
 31
0.0
  0
LINE
  5
185
330
1F
100
AcDbEntity
  8
0
  6
HIDDEN
 62
     7
370
     0
100
AcDbLine
 10
132.1537576182
 20
136.2572035979
 30
0.0
 11
122.8696804059
 21
136.2572035979
 31
0.0
  0
LINE
  5
186
330
1F
100
AcDbEntity
  8
0
  6
HIDDEN
 62
     7
370
     0
100
AcDbLine
 10
126.8696805959
 20
155.4287563304
 30
0.0
 11
126.8696805959
 21
151.7346169095
 31
0.0
  0
LINE
  5
187
330
1F
100
AcDbEntity
  8
0
  6
HIDDEN
 62
     7
370
     0
100
AcDbLine
 10
136.8696808381
 20
151.7346169095
 30
0.0
 11
136.8696808381
 21
155.4342660348
 31
0.0
  0
LINE
  5
188
330
1F
100
AcDbEntity
  8
0
  6
HIDDEN
 62
     7
370
     0
100
AcDbLine
 10
168.3696794821
 20
96.6713170747
 30
0.0
 11
168.3696794821
 21
100.7089543383
 31
0.0
  0
LINE
  5
189
330
1F
100
AcDbEntity
  8
0
  6
HIDDEN
 62
     7
370
     0
100
AcDbLine
 10
168.3696794821
 20
94.2008544917
 30
0.0
 11
168.3696794821
 21
94.3589045892
 31
0.0
  0
LINE
  5
18A
330
1F
100
AcDbEntity
  8
0
  6
HIDDEN
 62
     7
370
     0
100
AcDbLine
 10
164.3696788264
 20
94.9218481074
 30
0.0
 11
164.3696788264
 21
94.2008544917
 31
0.0
  0
LINE
  5
18B
330
1F
100
AcDbEntity
  8
0
  6
HIDDEN
 62
     7
370
     0
100
AcDbLine
 10
164.3696788264
 20
100.7065263803
 30
0.0
 11
164.3696788264
 21
95.9529004286
 31
0.0
  0
LINE
  5
18C
330
1F
100
AcDbEntity
  8
0
  6
HIDDEN
 62
     7
370
     0
100
AcDbLine
 10
164.4888769401
 20
96.3957368622
 30
0.0
 11
163.9237392259
 21
95.3916277031
 31
0.0
  0
LINE
  5
18D
330
1F
100
AcDbEntity
  8
0
  6
HIDDEN
 62
     7
370
     0
100
AcDbLine
 10
163.9237392259
 20
95.3916277031
 30
0.0
 11
164.4885975433
 21
94.5068414549
 31
0.0
  0
LINE
  5
18E
330
1F
100
AcDbEntity
  8
0
  6
HIDDEN
 62
     7
370
     0
100
AcDbLine
 10
167.994427265
 20
93.854084913
 30
0.0
 11
222.8696818961
 21
95.3786450664
 31
0.0
  0
LINE
  5
18F
330
1F
100
AcDbEntity
  8
0
  6
HIDDEN
 62
     7
370
     0
100
AcDbLine
 10
222.8696818961
 20
98.6799181665
 30
0.0
 11
167.9918679906
 21
97.1552863012
 31
0.0
  0
ARC
  5
190
330
1F
100
AcDbEntity
  8
0
  6
HIDDEN
 62
     7
370
     0
100
AcDbCircle
 10
222.3696804059
 20
96.7572039108
 30
0.0
 40
0.5
100
AcDbArc
 50
0.0
 51
90.0
  0
ARC
  5
191
330
1F
100
AcDbEntity
  8
0
  6
HIDDEN
 62
     7
370
     0
100
AcDbCircle
 10
222.3696804059
 20
122.7572039108
 30
0.0
 40
0.5
100
AcDbArc
 50
270.0
 51
0.0
  0
LINE
  5
192
330
1F
100
AcDbEntity
  8
0
  6
HIDDEN
 62
     7
370
     0
100
AcDbLine
 10
147.1696801049
 20
96.7572036426
 30
0.0
 11
151.1696807606
 21
96.7572036426
 31
0.0
  0
LINE
  5
193
330
1F
100
AcDbEntity
  8
0
  6
HIDDEN
 62
     7
370
     0
100
AcDbLine
 10
151.1696807606
 20
122.757204179
 30
0.0
 11
147.1696801049
 21
122.757204179
 31
0.0
  0
LINE
  5
194
330
1F
100
AcDbEntity
  8
0
  6
HIDDEN
 62
     7
370
     0
100
AcDbLine
 10
164.2696808589
 20
96.9572042341
 30
0.0
 11
168.9749050451
 21
96.9572042341
 31
0.0
  0
LINE
  5
195
330
1F
100
AcDbEntity
  8
0
  6
HIDDEN
 62
     7
370
     0
100
AcDbLine
 10
168.9749050451
 20
122.5572035874
 30
0.0
 11
164.2696808589
 21
122.5572035874
 31
0.0
  0
ARC
  5
196
330
1F
100
AcDbEntity
  8
0
  6
HIDDEN
 62
     7
370
     0
100
AcDbCircle
 10
164.2696804059
 20
97.3572039108
 30
0.0
 40
0.3999999999999915
100
AcDbArc
 50
180.0
 51
270.0
  0
ARC
  5
197
330
1F
100
AcDbEntity
  8
0
  6
HIDDEN
 62
     7
370
     0
100
AcDbCircle
 10
164.2696804059
 20
122.1572039108
 30
0.0
 40
0.4000000000000057
100
AcDbArc
 50
90.0
 51
180.0
  0
LINE
  5
198
330
1F
100
AcDbEntity
  8
0
  6
HIDDEN
 62
     7
370
     0
100
AcDbLine
 10
169.8696787966
 20
97.2572037245
 30
0.0
 11
222.3696808828
 21
97.2572037245
 31
0.0
  0
LINE
  5
199
330
1F
100
AcDbEntity
  8
0
  6
HIDDEN
 62
     7
370
     0
100
AcDbLine
 10
222.3696808828
 20
122.257204097
 30
0.0
 11
169.8696787966
 21
122.257204097
 31
0.0
  0
LINE
  5
19A
330
1F
100
AcDbEntity
  8
0
  6
HIDDEN
 62
     7
370
     0
100
AcDbLine
 10
135.3196806771
 20
97.7572038065
 30
0.0
 11
136.0696803344
 21
98.5072034637
 31
0.0
  0
LINE
  5
19B
330
1F
100
AcDbEntity
  8
0
  6
HIDDEN
 62
     7
370
     0
100
AcDbLine
 10
136.0696803344
 20
121.0072043578
 30
0.0
 11
135.3196806771
 21
121.7572040151
 31
0.0
  0
ARC
  5
19C
330
1F
100
AcDbEntity
  8
0
  6
HIDDEN
 62
     7
370
     0
100
AcDbCircle
 10
168.9749063878
 20
97.3572039108
 30
0.0
 40
0.3999999999999915
100
AcDbArc
 50
270.0
 51
290.0
  0
ARC
  5
19D
330
1F
100
AcDbEntity
  8
0
  6
HIDDEN
 62
     7
370
     0
100
AcDbCircle
 10
168.9749063878
 20
122.1572039108
 30
0.0
 40
0.4000000000000057
100
AcDbArc
 50
70.0
 51
90.0
  0
LINE
  5
19E
330
1F
100
AcDbEntity
  8
0
  6
HIDDEN
 62
     7
370
     0
100
AcDbLine
 10
169.111712606
 20
96.9813264201
 30
0.0
 11
169.8696787966
 21
97.2572037245
 31
0.0
  0
LINE
  5
19F
330
1F
100
AcDbEntity
  8
0
  6
HIDDEN
 62
     7
370
     0
100
AcDbLine
 10
169.8696787966
 20
122.257204097
 30
0.0
 11
169.111712606
 21
122.5330814014
 31
0.0
  0
LINE
  5
1A0
330
1F
100
AcDbEntity
  8
0
  6
HIDDEN
 62
     7
370
     0
100
AcDbLine
 10
136.0696803344
 20
98.5072034637
 30
0.0
 11
147.1696801049
 21
98.5072034637
 31
0.0
  0
LINE
  5
1A1
330
1F
100
AcDbEntity
  8
0
  6
HIDDEN
 62
     7
370
     0
100
AcDbLine
 10
147.1696801049
 20
121.0072043578
 30
0.0
 11
136.0696803344
 21
121.0072043578
 31
0.0
  0
LINE
  5
1A2
330
1F
100
AcDbEntity
  8
0
  6
HIDDEN
 62
     7
370
     0
100
AcDbLine
 10
127.8196803791
 20
159.7572046558
 30
0.0
 11
127.8196803791
 21
153.6572057049
 31
0.0
  0
LINE
  5
1A3
330
1F
100
AcDbEntity
  8
0
  6
HIDDEN
 62
     7
370
     0
100
AcDbLine
 10
114.3023928193
 20
72.1789228956
 30
0.0
 11
113.8696835873
 21
72.6571495871
 31
0.0
  0
LINE
  5
1A4
330
1F
100
AcDbEntity
  8
0
  6
HIDDEN
 62
     7
370
     0
100
AcDbLine
 10
101.8696806891
 20
73.3041095774
 30
0.0
 11
101.389053048
 21
72.8258866112
 31
0.0
  0
LINE
  5
1A5
330
1F
100
AcDbEntity
  8
0
  6
HIDDEN
 62
     7
370
     0
100
AcDbLine
 10
101.3889357013
 20
146.6885174851
 30
0.0
 11
101.8696806891
 21
146.2102349143
 31
0.0
  0
LINE
  5
1A6
330
1F
100
AcDbEntity
  8
0
  6
HIDDEN
 62
     7
370
     0
100
AcDbLine
 10
113.8696807934
 20
146.8572098057
 30
0.0
 11
114.3025017841
 21
147.3354886512
 31
0.0
  0
LINE
  5
1A7
330
1F
100
AcDbEntity
  8
0
  6
HIDDEN
 62
     7
370
     0
100
AcDbLine
 10
113.8696807934
 20
72.5570212345
 30
0.0
 11
113.8696807934
 21
78.2913270633
 31
0.0
  0
LINE
  5
1A8
330
1F
100
AcDbEntity
  8
0
  6
HIDDEN
 62
     7
370
     0
100
AcDbLine
 10
101.8696806891
 20
78.2656821649
 30
0.0
 11
101.8696806891
 21
73.3041505556
 31
0.0
  0
LINE
  5
1A9
330
1F
100
AcDbEntity
  8
0
  6
HIDDEN
 62
     7
370
     0
100
AcDbLine
 10
113.8696807934
 20
141.2230807583
 30
0.0
 11
113.8696807934
 21
146.9572114984
 31
0.0
  0
LINE
  5
1AA
330
1F
100
AcDbEntity
  8
0
  6
HIDDEN
 62
     7
370
     0
100
AcDbLine
 10
101.8696806891
 20
146.2102274637
 30
0.0
 11
101.8696806891
 21
141.2487256567
 31
0.0
  0
LINE
  5
1AB
330
1F
100
AcDbEntity
  8
0
  6
HIDDEN
 62
     7
370
     0
100
AcDbLine
 10
151.1696807606
 20
103.7572038586
 30
0.0
 11
163.8696815384
 21
103.7572038586
 31
0.0
  0
LINE
  5
1AC
330
1F
100
AcDbEntity
  8
0
  6
HIDDEN
 62
     7
370
     0
100
AcDbLine
 10
163.8696815384
 20
115.7572039629
 30
0.0
 11
151.1696807606
 21
115.7572039629
 31
0.0
  0
LINE
  5
1AD
330
1F
100
AcDbEntity
  8
0
  6
HIDDEN
 62
     7
370
     0
100
AcDbLine
 10
160.8196820629
 20
77.2572051029
 30
0.0
 11
159.8196800364
 21
77.8345543186
 31
0.0
  0
LINE
  5
1AE
330
1F
100
AcDbEntity
  8
0
  6
HIDDEN
 62
     7
370
     0
100
AcDbLine
 10
154.8196810795
 20
77.8345543186
 30
0.0
 11
153.8196809156
 21
77.2572051029
 31
0.0
  0
LINE
  5
1AF
330
1F
100
AcDbEntity
  8
0
  6
HIDDEN
 62
     7
370
     0
100
AcDbLine
 10
153.8196809156
 20
142.2572027187
 30
0.0
 11
154.8196810795
 21
141.6798535029
 31
0.0
  0
LINE
  5
1B0
330
1F
100
AcDbEntity
  8
0
  6
HIDDEN
 62
     7
370
     0
100
AcDbLine
 10
159.8196800364
 20
141.6798535029
 30
0.0
 11
160.8196820629
 21
142.2572027187
 31
0.0
  0
LINE
  5
1B1
330
1F
100
AcDbEntity
  8
0
  6
HIDDEN
 62
     7
370
     0
100
AcDbLine
 10
154.8196810795
 20
141.6798535029
 30
0.0
 11
154.8196810795
 21
128.2572041492
 31
0.0
  0
LINE
  5
1B2
330
1F
100
AcDbEntity
  8
0
  6
HIDDEN
 62
     7
370
     0
100
AcDbLine
 10
159.8196800364
 20
128.2572041492
 30
0.0
 11
159.8196800364
 21
141.6798535029
 31
0.0
  0
LINE
  5
1B3
330
1F
100
AcDbEntity
  8
0
  6
HIDDEN
 62
     7
370
     0
100
AcDbLine
 10
154.8196810795
 20
128.2572041492
 30
0.0
 11
157.3196786953
 21
126.7550516169
 31
0.0
  0
LINE
  5
1B4
330
1F
100
AcDbEntity
  8
0
  6
HIDDEN
 62
     7
370
     0
100
AcDbLine
 10
157.3196786953
 20
126.7550516169
 30
0.0
 11
159.8196800364
 21
128.2572041492
 31
0.0
  0
LINE
  5
1B5
330
1F
100
AcDbEntity
  8
0
  6
HIDDEN
 62
     7
370
     0
100
AcDbLine
 10
159.8196800364
 20
91.2572036724
 30
0.0
 11
157.3196786953
 21
92.7593562047
 31
0.0
  0
LINE
  5
1B6
330
1F
100
AcDbEntity
  8
0
  6
HIDDEN
 62
     7
370
     0
100
AcDbLine
 10
157.3196786953
 20
92.7593562047
 30
0.0
 11
154.8196810795
 21
91.2572036724
 31
0.0
  0
LINE
  5
1B7
330
1F
100
AcDbEntity
  8
0
  6
HIDDEN
 62
     7
370
     0
100
AcDbLine
 10
159.8196800364
 20
77.8345543186
 30
0.0
 11
159.8196800364
 21
91.2572036724
 31
0.0
  0
LINE
  5
1B8
330
1F
100
AcDbEntity
  8
0
  6
HIDDEN
 62
     7
370
     0
100
AcDbLine
 10
154.8196810795
 20
91.2572036724
 30
0.0
 11
154.8196810795
 21
77.8345543186
 31
0.0
  0
LINE
  5
1B9
330
1F
100
AcDbEntity
  8
0
  6
HIDDEN
 62
     7
370
     0
100
AcDbLine
 10
168.3696794821
 20
118.8078814412
 30
0.0
 11
168.3696794821
 21
122.8427675779
 31
0.0
  0
LINE
  5
1BA
330
1F
100
AcDbEntity
  8
0
  6
HIDDEN
 62
     7
370
     0
100
AcDbLine
 10
164.3696788264
 20
123.5615073929
 30
0.0
 11
164.3696788264
 21
118.8054534833
 31
0.0
  0
LINE
  5
1BB
330
1F
100
AcDbEntity
  8
0
  6
HIDDEN
 62
     7
370
     0
100
AcDbLine
 10
164.3696788264
 20
124.9599999974
 30
0.0
 11
164.3696788264
 21
124.5925597141
 31
0.0
  0
LINE
  5
1BC
330
1F
100
AcDbEntity
  8
0
  6
HIDDEN
 62
     7
370
     0
100
AcDbLine
 10
126.8696805959
 20
157.3040749173
 30
0.0
 11
126.8696805959
 21
155.4287563304
 31
0.0
  0
LINE
  5
1BD
330
1F
100
AcDbEntity
  8
0
  6
HIDDEN
 62
     7
370
     0
100
AcDbLine
 10
136.8696808381
 20
155.4342660348
 30
0.0
 11
136.8696808381
 21
157.309808139
 31
0.0
  0
LINE
  5
1BE
330
1F
100
AcDbEntity
  8
0
  6
HIDDEN
 62
     7
370
     0
100
AcDbLine
 10
167.9886642409
 20
122.359209996
 30
0.0
 11
222.8696818961
 21
120.834489655
 31
0.0
  0
LINE
  5
1BF
330
1F
100
AcDbEntity
  8
0
  6
HIDDEN
 62
     7
370
     0
100
AcDbLine
 10
222.8696818961
 20
124.1357627551
 30
0.0
 11
167.9943713857
 21
125.6603247712
 31
0.0
  0
LINE
  5
1C0
330
1F
100
AcDbEntity
  8
0
  6
HIDDEN
 62
     7
370
     0
100
AcDbLine
 10
164.4885975433
 20
125.0075663666
 30
0.0
 11
163.9237392259
 21
124.1227801184
 31
0.0
  0
LINE
  5
1C1
330
1F
100
AcDbEntity
  8
0
  6
HIDDEN
 62
     7
370
     0
100
AcDbLine
 10
163.9237392259
 20
124.1227801184
 30
0.0
 11
164.4888769401
 21
123.1186709593
 31
0.0
  0
DIMENSION
  5
1C2
330
1F
100
AcDbEntity
  8
VERMASSUNG
100
AcDbDimension
  2
*D1
 10
67.5802145086
 20
59.7572039108
 30
0.0
 11
67.5802145086
 21
108.8247549023
 31
0.0
 70
   160
  1
HSK A %%c<>
 71
     2
 42
-1.0
  3
SLDDIMSTYLE0
100
AcDbAlignedDimension
 13
123.3696804059
 23
159.7572039108
 33
0.0
 14
123.3696804059
 24
59.7572039108
 34
0.0
 50
90.0
100
AcDbRotatedDimension
  0
DIMENSION
  5
1CF
330
1F
100
AcDbEntity
  8
VERMASSUNG
100
AcDbDimension
  2
*D2
 10
232.1729615477
 20
97.2572039108
 30
0.0
 11
232.1729615477
 21
109.7572039108
 31
0.0
 70
   160
  1
%%c<>
 71
     2
 42
-1.0
  3
SLDDIMSTYLE0
100
AcDbAlignedDimension
 13
222.3696804059
 23
122.2572039108
 33
0.0
 14
222.3696804059
 24
97.2572039108
 34
0.0
 50
90.0
100
AcDbRotatedDimension
  0
DIMENSION
  5
1DA
330
1F
100
AcDbEntity
  8
VERMASSUNG
100
AcDbDimension
  2
*D3
 10
222.8696804059
 20
174.5384481744
 30
0.0
 11
147.9196804059
 21
174.5384481744
 31
0.0
 70
   160
 71
     2
 42
-1.0
  3
SLDDIMSTYLE0
100
AcDbAlignedDimension
 13
72.9696804059
 23
140.2598736533
 33
0.0
 14
222.8696804059
 24
131.428776786
 34
0.0
100
AcDbRotatedDimension
  0
DIMENSION
  5
1E4
330
1F
100
AcDbEntity
  8
VERMASSUNG
100
AcDbDimension
  2
*D4
 10
222.8696804059
 20
168.5384481744
 30
0.0
 11
172.8696804059
 21
168.5384481744
 31
0.0
 70
   160
 71
     2
 42
-1.0
  3
SLDDIMSTYLE0
100
AcDbAlignedDimension
 13
122.8696804059
 23
159.2572039108
 33
0.0
 14
222.8696804059
 24
131.428776786
 34
0.0
100
AcDbRotatedDimension
  0
DIMENSION
  5
1EE
330
1F
100
AcDbEntity
  8
VERMASSUNG
100
AcDbDimension
  2
*D5
 10
222.8696804059
 20
162.5384481744
 30
0.0
 11
187.3446804059
 21
162.5384481744
 31
0.0
 70
   160
 71
     2
 42
-1.0
  3
SLDDIMSTYLE0
100
AcDbAlignedDimension
 13
151.8196804059
 23
157.7259437316
 33
0.0
 14
222.8696804059
 24
131.428776786
 34
0.0
100
AcDbRotatedDimension
  0
DIMENSION
  5
1F8
330
1F
100
AcDbEntity
  8
VERMASSUNG
100
AcDbDimension
  2
*D6
 10
238.1729615477
 20
77.2572039108
 30
0.0
 11
238.1729615477
 21
109.7572039108
 31
0.0
 70
   160
  1
%%c<>
 71
     2
 42
-1.0
  3
SLDDIMSTYLE0
100
AcDbAlignedDimension
 13
212.0412532812
 23
142.2572039108
 33
0.0
 14
212.0412532812
 24
77.2572039108
 34
0.0
 50
90.0
100
AcDbRotatedDimension
  0
LINE
  5
203
330
1F
100
AcDbEntity
  8
VERMASSUNG
  6
CENTERX2
 62
     7
370
     0
100
AcDbLine
 10
70.719211045
 20
109.7572039108
 30
0.0
 11
227.6162365733
 21
109.7572039108
 31
0.0
  0
OLE2FRAME
  5
204
330
1F
100
AcDbEntity
  8
0
100
AcDbOle2Frame
 70
     2
  3
Bitmap Image
 10
13.8511154363
 20
38.264191557
 30
0.0
 11
51.6290888628
 21
31.9806341108
 31
0.0
 71
     2
 72
     0
 73
     1
 90
    12928
310
80552BED0767C5B32B40DDAF6807D121434000000000000000006FFBDDFB85D0
310
4940DDAF6807D121434000000000000000006FFBDDFB85D04940416F4BD60AFB
310
3F4000000000000000002BED0767C5B32B40416F4BD60AFB3F40000000000000
310
0000000000000100000000010000010000000100000000000100000000320000
310
D0CF11E0A1B11AE1000000000000000000000000000000003E000300FEFF0900
310
0600000000000000000000000100000001000000000000000010000002000000
310
01000000FEFFFFFF0000000000000000FFFFFFFFFFFFFFFFFFFFFFFFFFFFFFFF
310
FFFFFFFFFFFFFFFFFFFFFFFFFFFFFFFFFFFFFFFFFFFFFFFFFFFFFFFFFFFFFFFF
310
FFFFFFFFFFFFFFFFFFFFFFFFFFFFFFFFFFFFFFFFFFFFFFFFFFFFFFFFFFFFFFFF
310
FFFFFFFFFFFFFFFFFFFFFFFFFFFFFFFFFFFFFFFFFFFFFFFFFFFFFFFFFFFFFFFF
310
FFFFFFFFFFFFFFFFFFFFFFFFFFFFFFFFFFFFFFFFFFFFFFFFFFFFFFFFFFFFFFFF
310
FFFFFFFFFFFFFFFFFFFFFFFFFFFFFFFFFFFFFFFFFFFFFFFFFFFFFFFFFFFFFFFF
310
FFFFFFFFFFFFFFFFFFFFFFFFFFFFFFFFFFFFFFFFFFFFFFFFFFFFFFFFFFFFFFFF
310
FFFFFFFFFFFFFFFFFFFFFFFFFFFFFFFFFFFFFFFFFFFFFFFFFFFFFFFFFFFFFFFF
310
FFFFFFFFFFFFFFFFFFFFFFFFFFFFFFFFFFFFFFFFFFFFFFFFFFFFFFFFFFFFFFFF
310
FFFFFFFFFFFFFFFFFFFFFFFFFFFFFFFFFFFFFFFFFFFFFFFFFFFFFFFFFFFFFFFF
310
FFFFFFFFFFFFFFFFFFFFFFFFFFFFFFFFFFFFFFFFFFFFFFFFFFFFFFFFFFFFFFFF
310
FFFFFFFFFFFFFFFFFFFFFFFFFFFFFFFFFFFFFFFFFFFFFFFFFFFFFFFFFFFFFFFF
310
FFFFFFFFFFFFFFFFFFFFFFFFFFFFFFFFFFFFFFFFFFFFFFFFFFFFFFFFFFFFFFFF
310
FFFFFFFFFFFFFFFFFFFFFFFFFFFFFFFFFFFFFFFFFFFFFFFFFFFFFFFFFFFFFFFF
310
FDFFFFFFFEFFFFFFFEFFFFFFFEFFFFFF05000000060000000700000008000000
310
090000000A0000000B0000000C0000000D0000000E0000000F00000010000000
310
11000000120000001300000014000000150000001600000017000000FEFFFFFF
310
FFFFFFFFFFFFFFFFFFFFFFFFFFFFFFFFFFFFFFFFFFFFFFFFFFFFFFFFFFFFFFFF
310
FFFFFFFFFFFFFFFFFFFFFFFFFFFFFFFFFFFFFFFFFFFFFFFFFFFFFFFFFFFFFFFF
310
FFFFFFFFFFFFFFFFFFFFFFFFFFFFFFFFFFFFFFFFFFFFFFFFFFFFFFFFFFFFFFFF
310
FFFFFFFFFFFFFFFFFFFFFFFFFFFFFFFFFFFFFFFFFFFFFFFFFFFFFFFFFFFFFFFF
310
FFFFFFFFFFFFFFFFFFFFFFFFFFFFFFFFFFFFFFFFFFFFFFFFFFFFFFFFFFFFFFFF
310
FFFFFFFFFFFFFFFFFFFFFFFFFFFFFFFFFFFFFFFFFFFFFFFFFFFFFFFFFFFFFFFF
310
FFFFFFFFFFFFFFFFFFFFFFFFFFFFFFFFFFFFFFFFFFFFFFFFFFFFFFFFFFFFFFFF
310
FFFFFFFFFFFFFFFFFFFFFFFFFFFFFFFFFFFFFFFFFFFFFFFFFFFFFFFFFFFFFFFF
310
FFFFFFFFFFFFFFFFFFFFFFFFFFFFFFFFFFFFFFFFFFFFFFFFFFFFFFFFFFFFFFFF
310
FFFFFFFFFFFFFFFFFFFFFFFFFFFFFFFFFFFFFFFFFFFFFFFFFFFFFFFFFFFFFFFF
310
FFFFFFFFFFFFFFFFFFFFFFFFFFFFFFFFFFFFFFFFFFFFFFFFFFFFFFFFFFFFFFFF
310
FFFFFFFFFFFFFFFFFFFFFFFFFFFFFFFFFFFFFFFFFFFFFFFFFFFFFFFFFFFFFFFF
310
FFFFFFFFFFFFFFFFFFFFFFFFFFFFFFFFFFFFFFFFFFFFFFFFFFFFFFFFFFFFFFFF
310
52006F006F007400200045006E00740072007900000000000000000000000000
310
0000000000000000000000000000000000000000000000000000000000000000
310
16000500FFFFFFFFFFFFFFFF020000000A00030000000000C000000000000046
310
000000000000000000000000B04EB4BA0F00CC0103000000C000000000000000
310
01004F006C006500000000000000000000000000000000000000000000000000
310
0000000000000000000000000000000000000000000000000000000000000000
310
0A000200FFFFFFFFFFFFFFFFFFFFFFFF00000000000000000000000000000000
310
0000000000000000000000000000000000000000000000001400000000000000
310
010043006F006D0070004F0062006A0000000000000000000000000000000000
310
0000000000000000000000000000000000000000000000000000000000000000
310
120002010100000003000000FFFFFFFF00000000000000000000000000000000
310
0000000000000000000000000000000000000000010000004D00000000000000
310
01004F006C006500310030004E00610074006900760065000000000000000000
310
0000000000000000000000000000000000000000000000000000000000000000
310
1A000200FFFFFFFFFFFFFFFFFFFFFFFF00000000000000000000000000000000
310
0000000000000000000000000000000000000000040000002426000000000000
310
FEFFFFFF02000000FEFFFFFFFFFFFFFFFFFFFFFFFFFFFFFFFFFFFFFFFFFFFFFF
310
FFFFFFFFFFFFFFFFFFFFFFFFFFFFFFFFFFFFFFFFFFFFFFFFFFFFFFFFFFFFFFFF
310
FFFFFFFFFFFFFFFFFFFFFFFFFFFFFFFFFFFFFFFFFFFFFFFFFFFFFFFFFFFFFFFF
310
FFFFFFFFFFFFFFFFFFFFFFFFFFFFFFFFFFFFFFFFFFFFFFFFFFFFFFFFFFFFFFFF
310
FFFFFFFFFFFFFFFFFFFFFFFFFFFFFFFFFFFFFFFFFFFFFFFFFFFFFFFFFFFFFFFF
310
FFFFFFFFFFFFFFFFFFFFFFFFFFFFFFFFFFFFFFFFFFFFFFFFFFFFFFFFFFFFFFFF
310
FFFFFFFFFFFFFFFFFFFFFFFFFFFFFFFFFFFFFFFFFFFFFFFFFFFFFFFFFFFFFFFF
310
FFFFFFFFFFFFFFFFFFFFFFFFFFFFFFFFFFFFFFFFFFFFFFFFFFFFFFFFFFFFFFFF
310
FFFFFFFFFFFFFFFFFFFFFFFFFFFFFFFFFFFFFFFFFFFFFFFFFFFFFFFFFFFFFFFF
310
FFFFFFFFFFFFFFFFFFFFFFFFFFFFFFFFFFFFFFFFFFFFFFFFFFFFFFFFFFFFFFFF
310
FFFFFFFFFFFFFFFFFFFFFFFFFFFFFFFFFFFFFFFFFFFFFFFFFFFFFFFFFFFFFFFF
310
FFFFFFFFFFFFFFFFFFFFFFFFFFFFFFFFFFFFFFFFFFFFFFFFFFFFFFFFFFFFFFFF
310
FFFFFFFFFFFFFFFFFFFFFFFFFFFFFFFFFFFFFFFFFFFFFFFFFFFFFFFFFFFFFFFF
310
FFFFFFFFFFFFFFFFFFFFFFFFFFFFFFFFFFFFFFFFFFFFFFFFFFFFFFFFFFFFFFFF
310
FFFFFFFFFFFFFFFFFFFFFFFFFFFFFFFFFFFFFFFFFFFFFFFFFFFFFFFFFFFFFFFF
310
FFFFFFFFFFFFFFFFFFFFFFFFFFFFFFFFFFFFFFFFFFFFFFFFFFFFFFFFFFFFFFFF
310
0100000200000000000000000000000000000000610072003D0082005C003107
310
9806250000000000604E280000000000680061007200650064005C003B004300
310
0100FEFF030A0000FFFFFFFF0A00030000000000C00000000000004607000000
310
5042727573680007000000504272757368000700000050427275736800F439B2
310
71000000000000000000000000004100540049002E004100430045005C004300
310
6F00720065002D005300740061007400690063003B0043003A005C0050007200
310
6F006700720061006D002000460069006C006500730020002800780038003600
310
29005C0043006F006D006D006F006E002000460069006C00650073005C004100
310
750074006F006400650073006B0020005300680061007200650064005C003B00
310
43003A005C00500072006F006700720061006D002000460069006C0065007300
310
5C004E006F0072006D0061006E005C004E0070006D005C00420069006E000000
310
43003A005C00500072006F006700720061006D002000460069006C0065007300
310
5C0053006F006C006900640057006F0072006B007300200043006F0072007000
310
5C0053006F006C006900640057006F0072006B00730020002800320029005C00
310
730065007400750070005C0069003300380036005C0073007700610063007400
310
770069007A002E006500780065000000220043003A005C00500072006F006700
310
20260000424D0E260000000000003E00000028000000B40200006E0000000100
310
01000000000000000000130B0000130B00000200000002000000000000FFFFFF
310
FFFFFFFFFFFFFFFFFFFFFFFFFFFFFFFFFFFFFFFFFFFFFFFFFFFFFFFFFFFFFFFF
310
FFFFFFFFFFFFFFFFFFFFFFFFFFFFFFFFFFFFFFFFFFFFFFFFFFFFFFFFFFFFFFFF
310
FFFFFFFFFFFFFFFFFFFFFFFFFFFFFFFFFFFFFFFFFFFFFFFFF000FFFFFFFFFFFF
310
FFFFFFFFFFFFFFFFFFFFFFFFFFFFFFFFFFFFFFFFFFFFFFFFFFFFFFFFFFFFFFFF
310
FFFFFFFFFFFFFFFFFFFFFFFFFFFFFFFFFFFFFFFFFFFFFFFFFFFFFFFFFFFFFFFF
310
FFFFFFFFFFFFFFFFFFFFFFFFFFFFFFFFF000FFFFFFFFFFFFFFFFFFFFFFFFFFFF
310
FFFFFFFFFFFFFFFFFFFFFFFFFFFFFFFFFFFFFFFFFFFFFFFFFFFFFFFFFFFFFFFF
310
FFFFFFFFFFFFFFFFFFFFFFFFFFFFFFFFFFFFFFFFFFFFFFFFFFFFFFFFFFFFFFFF
310
FFFFFFFFFFFFFFFFF000FFFFFFFFFFFFFFFFFFFFFFFFFFFFFFFFFFFFFFFFFFFF
310
FFFFFFFFFFFFFFFFFFFFFFFFFFFFFFFFFFFFFFFFFFFFFFFFFFFFFFFFFFFFFFFF
310
FFFFFFFFFFFFFFFFFFFFFFFFFFFFFFFFFFFFFFFFFFFFFFFFFFFFFFFFFFFFFFFF
310
F000FFFFFFFFFFFFFFFFFFFFFFFFFFFFFFFFFFFFFFFFFFFFFFFFFFFFFFFFFFFF
310
FFFFFFFFFFFFFFFFFFFFFFFFFFFFFFFFFFFFFFFFFFFFFFFFFFFFFFFFFFFFFFFF
310
FFFFFFFFFFFFFFFFFFFFFFFFFFFFFFFFFFFFFFFFFFFFFFFFF000FFFFFFFFFFFF
310
FFFFFFFFFFFFFFFFFFFFFFFFFFFFFFFFFFFFFFFFFFFFFFFFFFFFFFFFFFFFFFFF
310
FFFFFFFFFFFFFFFFFFFFFFFFFFFFFFFFFFFFFFFFFFFFFFFFFFFFFFFFFFFFFFFF
310
FFFFFFFFFFFFFFFFFFFFFFFFFFFFFFFFF000FFFFFFFFFFFFFFFFFFFFFFFFFFFF
310
FFFFFFFFFFFFFFFFFFFFFFFFFFFFFFFFFFFFFFFFFFFFFFFFFFFFFFFFFFFFFFFF
310
FFFFFFFFFFFFFFFFFFFFFFFFFFFFFFFFFFFFFFFFFFFFFFFFFFFFFFFFFFFFFFFF
310
FFFFFFFFFFFFFFFFF000FFFFFFFFFFFFFFFFFFFFFFFFFFFFFFFFFFFFFFFFFFFF
310
FFFFFFFFFFFFFFFFFFFFFFFFFFFFFFFFFFFFFFFFFFFFFFFFFFFFFFFFFFFFFFFF
310
FFFFFFFFFFFFFFFFFFFFFFFFFFFFFFFFFFFFFFFFFFFFFFFFFFFFFFFFFFFFFFFF
310
F000FFFFFFFFFFFFFFFFFFFFFFFFFFFFFFFFFFFFFFFFFFFFFFFFFFFFFFFFFFFF
310
FFFFFFFFFFFFFFFFFFFFFFFFFFFFFFFFFFFFFFFFFFFFFFFFFFFFFFFFFFFFFFFF
310
FFFFFFFFFFFFFFFFFFFFFFFFFFFFFFFFFFFFFFFFFFFFFFFFF000FFFFFFFFFFFF
310
FFFFFFFFFFFFFFFFFFFFFFFFFFFFFFFFFFFFFFFFFFFFFFFFFFFFFFFFFFFFFFFF
310
FFFFFFFFFFFFFFFFFFFFFFFFFFFFFFFFFFFFFFFFFFFFFFFFFFFFFFFFFFFFFFFF
310
FFFFFFFFFFFFFFFFFFFFFFFFFFFFFFFFF000FFFFFFFFFFFFFFFFFFFFFFFFFFFF
310
FFFFFFFFFFFFFFFFFFFFFFFFFFFFFFFFFFFFFFFFFFFFFFFFFFFFFFFFFFFFFFFF
310
FFFFFFFFFFFFFFFFFFFFFFFFFFFFFFFFFFFFFFFFFFFFFFFFFFFFFFFFFFFFFFFF
310
FFFFFFFFFFFFFFFFF000FFFFFFFFFFFFFFFFFFFFFFFFFFFFFFFFFFFFFFFFFFFF
310
FFFFFFFFFFFFFFFFFFFFFFFFFFFFFFFFFFFFFFFFFFFFFFFFFFFFFFFFFFFFFFFF
310
FFFFFFFFFFFFFFFFFFFFFFFFFFFFFFFFFFFFFFFFFFFFFFFFFFFFFFFFFFFFFFFF
310
F000FFFFFFFFFFFFFFFFFFFFFFFFFFFFFFFFFFFFFFFFFFFFFFFFFFFFFFFFFFFF
310
FFFFFFFFFFFFFFFFFFFFFFFFFFFFFFFFFFFFFFFFFFFFFFFFFFFFFFFFFFFFFFFF
310
FFFFFFFFFFFFFFFFFFFFFFFFFFFFFFFFFFFFFFFFFFFFFFFFF000FFFFFFFFFFFF
310
FFFFFFFFFFFFFFFFFFFFFFFFFFFFFFFFFFFFFFFFFFFFFFFFFFFFFFFFFFFFFFFF
310
FFFFFFFFFFFFFFFFFFFFFFFFFFFFFFFFFFFFFFFFFFFFFFFFFFFFFFFFFFFFFFFF
310
FFFFFFFFFFFFFFFFFFFFFFFFFFFFFFFFF000FFFFFFFFFFFFFFFFFFFFFFFFFFFF
310
FFFFFFFFFFFFFFFFFFFFFFFFFFFFFFFFFFFFFFFFFFFFFFFFFFFFFFFFFFFFFFFF
310
FFFFFFFFFFFFFFFFFFFFFFFFFFFFFFFFFFFFFFFFFFFFFFFFFFFFFFFFFFFFFFFF
310
FFFFFFFFFFFFFFFFF000FFFFFFFFFFFFFFFFFFFFFFFFFFFFFFFFFFFFFFFFFFFF
310
FFFFFFFFFFFFFFFFFFFFFFFFFFFFFFFFFFFFFFFFFFFFFFFFFFFFFFFFFFFFFFFF
310
FFFFFFFFFFFFFFFFFFFFFFFFFFFFFFFFFFFFFFFFFFFFFFFFFFFFFFFFFFFFFFFF
310
F000FFFFFFFFFFFFFFFFFFFFFFFFFFFFFFFFFFFFFFFFFFFFFFFFFFFFFFFFFFFF
310
FFFFFFFFFFFFFFFFFFFFFFFFFFFFFFFFFFFFFFFFFFFFFFFFFFFFFFFFFFFFFFFF
310
FFFFFFFFFFFFFFFFFFFFFFFFFFFFFFFFFFFFFFFFFFFFFFFFF000FFFFFFFFFFFF
310
FFFFFFFFFFFFFFFFFFFFFFFFFFFFFFFFFFFFFFFFFFFFFFFFFFFFFFFFFFFFFFFF
310
FFFFFFFFFFFFFFFFFFFFFFFFFFFFFFFFFFFFFFFFFFFFFFFFFFFFFFFFFFFFFFFF
310
FFFFFFFFFFFFFFFFFFFFFFFFFFFFFFFFF000FFFFFFFFFFFFFFFFFFFFFFFFFFFF
310
FFFFFFFFFFFFFFFFFFFFFFFFFFFFFFFFFFFFFFFFFFFFFFFFFFFFFFFFFFFFFFFF
310
FFFFFFFFFFFFFFFFFFFFFFFFFFFFFFFFFFFFFFFFFFFFFFFFFFFFFFFFFFFFFFFF
310
FFFFFFFFFFFFFFFFF000FFFFF80003FFFFFFFFFFFFFFFFFFFFFFFFFFFFFFFFFF
310
FFFFF00007FFFFFFFFFF00007FFFFFF800000000000000007FFFFFFFFFFFFFFF
310
FFFFFFFC001FFFFFFFFFFFFFFC001FFFFFFFFFFFFFFFFFFFFFFFFFFE0007FFFF
310
F000FFFF8000007FFFFFFFF8000FFFFFC0007FFFFF80007FFFFF0000007FFFFF
310
FFF8000007FFFFF800000000000000007FFFFFF0001FFFFFFFFFFFC00001FFFF
310
FFFFFFFFC00001FFFFFFFF000000000003FFFFE000007FFFF000FFFE0000000F
310
FFFFFFF0000FFFFF80007FFFFF80007FFFFC0000001FFFFFFFC0000001FFFFF8
310
00000000000000007FFFFFF0001FFFFFFFFFFE0000003FFFFFFFFFFE0000003F
310
FFFFFF000000000003FFFF0000000FFFF000FFF800000003FFFFFFF00007FFFF
310
80007FFFFF80007FFFF000000007FFFFFF000000003FFFF80000000000000000
310
7FFFFFF0001FFFFFFFFFF80000000FFFFFFFFFF80000000FFFFFFF0000000000
310
03FFFC00000003FFF000FFE000000000FFFFFFF00007FFFF80003FFFFF80007F
310
FFC000000001FFFFFC000000001FFFF800000000000000007FFFFFF0001FFFFF
310
FFFFE000000003FFFFFFFFE000000003FFFFFF000000000003FFF000000000FF
310
F000FF80000000007FFFFFF00007FFFF80003FFFFF80007FFF8000000000FFFF
310
F80000000007FFF800000000000000007FFFFFF0001FFFFFFFFFC000000001FF
310
FFFFFFC000000001FFFFFF000000000003FFC0000000007FF000FF0000000000
310
3FFFFFE00007FFFF00003FFFFF80007FFE00000000003FFFF00000000003FFF8
310
00000000000000007FFFFFF0001FFFFFFFFF8000000000FFFFFFFF8000000000
310
FFFFFF000000000003FF80000000003FF000FE00000000001FFFFFE00003FFFF
310
00003FFFFF80007FFC00000000001FFFE00000000001FFF8000001FFFE000000
310
7FFFFFF0001FFFFFFFFE00000000003FFFFFFE00000000003FFFFF0000000000
310
03FF00000000001FF000FC00000000000FFFFFE00003FFFF00001FFFFF80007F
310
F800000000001FFFC00000000000FFF8000001FFFE0000007FFFFFF0001FFFFF
310
FFFC00000000001FFFFFFC00000000001FFFFF000000000003FE00000000000F
310
F000F8000000000007FFFFE00003FFFF00001FFFFF80007FF800000000000FFF
310
800000000000FFF8000001FFFE0000007FFFFFF0001FFFFFFFF800000000000F
310
FFFFF800000000000FFFFF000000000003FC000000000007F000F80000000000
310
03FFFFC00003FFFE00001FFFFF80007FF0000000000007FF0000000000007FF8
310
000001FFFE0000007FFFFFF0001FFFFFFFF0000000000007FFFFF00000000000
310
07FFFF000000000003F8000000000003F000F0000000000003FFFFC00001FFFE
310
00001FFFFF80007FE0000000000007FE0000000000003FF8000001FFFE000000
310
7FFFFFF0001FFFFFFFF0000000000007FFFFF0000000000007FFFF0000000000
310
03F800001F800003F000E00001FFF00001FFFFC00001FFFE00000FFFFF80007F
310
E00001FFE00003FE00001FFF00003FF8000001FFFE0000007FFFFFF0001FFFFF
310
FFE000003E000003FFFFE000003E000003FFFF000000000003F00001FFF80001
310
F000E00007FFFC0001FFFFC00001FFFE00000FFFFF80007FC0000FFFFC0003FC
310
0000FFFFC0001FF8000001FFFE0000007FFFFFF0001FFFFFFFC00003FFE00001
310
FFFFC00003FFE00001FFFF0001FFFFFFFFF00007FFFE0001F000E0000FFFFF00
310
00FFFF800001FFFC00000FFFFF80007FC0001FFFFE0001FC0001FFFFE0001FF8
310
000001FFFE0000007FFFFFF0001FFFFFFF80000FFFF80000FFFF80000FFFF800
310
00FFFF0003FFFFFFFFE0000FFFFF8000F000C0003FFFFF8000FFFF800000FFFC
310
000007FFFF80007F80003FFFFF0001FC0003FFFFF0001FF8000001FFFE000000
310
7FFFFFF0001FFFFFFF80003FFFFE0000FFFF80003FFFFE0000FFFF0003FFFFFF
310
FFE0003FFFFF8000F000C0003FFFFF8000FFFF800000FFFC000007FFFF80007F
310
80007FFFFF8001F80007FFFFF8000FF8000001FFFE0000007FFFFFF0001FFFFF
310
FF00007FFFFF00007FFF00007FFFFF00007FFF0003FFFFFFFFE0003FFFFFC000
310
F000C0007FFFFFC000FFFF000000FFFC000007FFFF80007F8000FFFFFF8000F8
310
000FFFFFF8000FF8000001FFFE0000007FFFFFF0001FFFFFFF0000FFFFFF8000
310
7FFF0000FFFFFF80007FFF0003FFFFFFFFC0007FFFFFC00070008000FFFFFFC0
310
00FFFF000000FFF8000007FFFF80007F8000FFFFFF8000F8000FFFFFF8000FF8
310
000001FFFE0000007FFFFFF0001FFFFFFE0001FFFFFFC0003FFE0001FFFFFFC0
310
003FFF0003FFFFFFFFC0007FFFFFE00070008000FFFFFFC0007FFF0000007FF8
310
000003FFFF80007F0001FFFFFF8000F8000FFFFFF8000FF8000001FFFE000000
310
7FFFFFF0001FFFFFFE0001FFFFFFC0003FFE0001FFFFFFC0003FFF0003FFFFFF
310
FFC000FFFFFFE00070008000FFFFFFC0007FFF0000007FF8000003FFFF80007F
310
0001FFFFFF8000F8001FFFFFF8000FF8000001FFFE0000007FFFFFF0001FFFFF
310
FE0003FFFFFFE0003FFE0003FFFFFFE0003FFF0003FFFFFFFFC000FFFFFFE000
310
70008000FFFFFFC0007FFE0000007FF8000003FFFF80007F0001FFFFFF8000F0
310
001FFFFFF8000FF8000001FFFE0000007FFFFFF0001FFFFFFC0003FFFFFFE000
310
1FFC0003FFFFFFE0001FFF0003FFFFFFFFC000FFFFFFC00070008000FFFFFF80
310
007FFE0000007FF0000003FFFF80007F0001FFFFFF0000F0001FFFFFF8000FF8
310
000001FFFE0000007FFFFFF0001FFFFFFC0007FFFFFFF0001FFC0007FFFFFFF0
310
001FFF0003FFFFFFFFC000FFFFFFC00070008001FFFFFF0000FFFE0000003FF0
310
000001FFFF80007F0001FFFFFF0000F8001FFFFFF0000FF8000001FFFE000000
310
7FFFFFF0001FFFFFFC0007FFFFFFF0001FFC0007FFFFFFF0001FFF0003FFFFFF
310
FFC001FFFFFF80007000FFFFFFFFFE0000FFFE0008003FF0008001FFFF80007F
310
FFFFFFFFFC0000FFFFFFFFFFE0000FF8000001FFFE0000007FFFFFF0001FFFFF
310
F8000FFFFFFFF8000FF8000FFFFFFFF8000FFF0003FFFFFFFFFFFFFFFFFF0000
310
7000FFFFFFFFFC0000FFFC0008003FF0008001FFFF80007FFFFFFFFFF80001FF
310
FFFFFFFF80000FF8000001FFFE0000007FFFFFF0001FFFFFF8000FFFFFFFF800
310
0FF8000FFFFFFFF8000FFF0003FFFFFFFFFFFFFFFFFE0000F000FFFFFFFFE000
310
00FFFC000C003FE000C001FFFF80007FFFFFFFFFC00001FFFFFFFFFE00001FF8
310
000001FFFE0000007FFFFFF0001FFFFFF8000FFFFFFFF8000FF8000FFFFFFFF8
310
000FFF0003FFFFFFFFFFFFFFFFF00000F000FFFFFFFE000001FFFC000C001FE0
310
00C000FFFF80007FFFFFFFFE000001FFFFFFFFE000001FF80FFFFFFFFFFFFFC0
310
7FFFFFF0001FFFFFF8000FFFFFFFF8000FF8000FFFFFFFF8000FFF0003FFFFFF
310
FFFFFFFFFF800000F000FFFFFFC0000001FFFC001C001FE001C000FFFF80007F
310
FFFFFF80000003FFFFFFF80000001FF80FFFFFFFFFFFFFC07FFFFFF0001FFFFF
310
F8001FFFFFFFFC000FF8001FFFFFFFFC000FFF0003FFFFFFFFFFFFFFF0000001
310
F000FFFFF800000001FFF8001C001FE001C000FFFF80007FFFFFF800000003FF
310
FFFF800000003FF80FFFFFFFFFFFFFC07FFFFFF0001FFFFFF8001FFFFFFFFC00
310
0FF8001FFFFFFFFC000FFF0003FFFFFFFFFFFFFE00000001F000FFFFC0000000
310
03FFF8001E001FC001E000FFFF80007FFFFF8000000007FFFFFC000000003FF8
310
0FFFFFFFFFFFFFC07FFFFFF0001FFFFFF8001FFFFFFFFC000FF8001FFFFFFFFC
310
000FFF0003FFFFFFFFFFFFE000000003F000FFFE0000000007FFF8001E000FC0
310
01E0007FFF80007FFFFE0000000007FFFFE0000000007FF80FFFFFFFFFFFFFC0
310
7FFFFFF0001FFFFFF0001FFFFFFFFC0007F0001FFFFFFFFC0007FF0003FFFFFF
310
FFFFFF0000000003F000FFF80000000007FFF8001E000FC003E0007FFF80007F
310
FFF0000000000FFFFF8000000000FFF80FFFFFFFFFFFFFC07FFFFFF0001FFFFF
310
F0001FFFFFFFFC0007F0001FFFFFFFFC0007FF0003FFFFFFFFFFFC0000000007
310
F000FFE0000000000FFFF0003E000FC003E0007FFF80007FFFC0000000001FFF
310
FE0000000001FFF80FFFFFFFFFFFFFC07FFFFFF0001FFFFFF0001FFFFFFFFC00
310
07F0001FFFFFFFFC0007FF0003FFFFFFFFFFF0000000000FF000FFC000000000
310
1FFFF0003F000F8003F0003FFF80007FFF80000000003FFFF80000000003FFF8
310
0FFFFFFFFFFFFFC07FFFFFF0001FFFFFF0001FFFFFFFFC0007F0001FFFFFFFFC
310
0007FF0003FFFFFFFFFFE0000000001FF000FF00000000007FFFF0003F000780
310
03F0003FFF80007FFF00000000007FFFF00000000007FFF80FFFFFFFFFFFFFC0
310
7FFFFFF0001FFFFFF0001FFFFFFFFC0007F0001FFFFFFFFC0007FF0003FFFFFF
310
FFFF80000000007FF000FE0000000000FFFFE0003F00078007F0003FFF80007F
310
FE0000000001FFFFE0000000001FFFF80FFFFFFFFFFFFFC07FFFFFF0001FFFFF
310
F0001FFFFFFFFC0007F0001FFFFFFFFC0007FF0003FFFFFFFFFF0000000000FF
310
F000FC0000000003FFFFE0007F00078007F0003FFF80007FFC0000000007FFFF
310
C0000000007FFFF80FFFFFFFFFFFFFC07FFFFFF0001FFFFFF8001FFFFFFFFC00
310
0FF8001FFFFFFFFC000FFF0003FFFFFFFFFE0000000003FFF000FC000000000F
310
FFFFE0007F80070007F8001FFF80007FF8000000001FFFFF8000000001FFFFF8
310
0FFFFFFFFFFFFFC07FFFFFF0001FFFFFF8001FFFFFFFFC000FF8001FFFFFFFFC
310
000FFF0003FFFFFFFFFC000000000FFFF000F8000000007FFFFFE0007F800700
310
07F8001FFF80007FF000000000FFFFFF800000000FFFFFF80FFFFFFFFFFFFFC0
310
7FFFFFF0001FFFFFF8000FFFFFFFF8000FF8000FFFFFFFF8000FFF0003FFFFFF
310
FFFC000000007FFFF000F800000007FFFFFFC0007F8003000FF8001FFF80007F
310
F000000007FFFFFF000000007FFFFFF80FFFFFFFFFFFFFC07FFFFFF0001FFFFF
310
F8000FFFFFFFF8000FF8000FFFFFFFF8000FFF0003FFFFFFFFF80000000FFFFF
310
F000F0000000FFFFFFFFC000FF8003000FF8001FFF80007FE0000000FFFFFFFF
310
0000000FFFFFFFF8000001FFFE0000007FFFFFF0001FFFFFF8000FFFFFFFF800
310
0FF8000FFFFFFFF8000FFF0003FFFFFFFFF8000000FFFFFFF000F000000FFFFF
310
FFFFC000FFC002000FF8000FFF80007FE000001FFFFFFFFE000001FFFFFFFFF8
310
000001FFFE0000007FFFFFF0001FFFFFF8000FFFFFFFF8000FF8000FFFFFFFF8
310
000FFF0003FFFFFFFFF000001FFFFFFFF000E00000FFFFFFFFFFC000FFC00200
310
0FFC000FFF80007FE00001FFFFFFFFFE00001FFFFFFFFFF8000001FFFE000000
310
7FFFFFF0001FFFFFFC000FFFFFFFF8001FFC000FFFFFFFF8001FFF0003FFFFFF
310
FFF00001FFFFFFFFF000E00007FFFFFFFFFF8000FFC000001FFC000FFF80007F
310
C0000FFFFFFFFFFE0000FFFFFFFFFFF8000001FFFE0000007FFFFFF0001FFFFF
310
FC0007FFFFFFF0001FFC0007FFFFFFF0001FFF0003FFFFFFFFF00007FFFFFFFF
310
F000E0001FFFFFFFFFFF8000FFC000001FFC000FFF80007FC0003FFFFFFFFFFE
310
0001FFFFFFFFFFF8000001FFFE0000007FFFFFF0001FFFFFFC0007FFFFFFF000
310
1FFC0007FFFFFFF0001FFF0003FFFFFFFFF0001FFFFFFFFFF000E0003FFFFF00
310
03FF8001FFE000001FFC0007FF80007FC0007FFFFF0007FC0003FFFFF0003FF8
310
000001FFFE0000007FFFFFF0001FFFFFFC0003FFFFFFE0001FFC0003FFFFFFE0
310
001FFF0003FFFFFFFFF0003FFFFFFFFFF000E0003FFFFF0001FF8001FFE00000
310
1FFE0007FF80007FC0007FFFFE0003FC0007FFFFE0003FF8000001FFFE000000
310
7FFFFFF0001FFFFFFE0003FFFFFFE0003FFE0003FFFFFFE0003FFF0003FFFFFF
310
FFF0003FFFFF8001F000E0003FFFFF0001FF0001FFE000001FFE0007FF80007F
310
C0007FFFFE0003FC0007FFFFE0003FF8000001FFFE0000007FFFFFF0001FFFFF
310
FE0001FFFFFFC0003FFE0001FFFFFFC0003FFF0003FFFFFFFFF0003FFFFF0001
310
F000E0003FFFFF0003FF0001FFE000003FFE0007FF80007FC0007FFFFE0003FC
310
0007FFFFE0003FF8000001FFFE0000007FFFFFF0001FFFFFFF0001FFFFFFC000
310
7FFF0001FFFFFFC0007FFF0003FFFFFFFFF0003FFFFF0001F000E0003FFFFE00
310
03FF0003FFF000003FFE0003FF80007FC0007FFFFC0003FE0007FFFFE0003FF8
310
000001FFFE0000007FFFFFF0001FFFFFFF0000FFFFFF80007FFF0000FFFFFF80
310
007FFF0003FFFFFFFFF0003FFFFF0001F000E0003FFFFE0003FF0003FFF00000
310
3FFF0003FF80007FC0007FFFFC0007FE0007FFFFC0003FF8000001FFFE000000
310
7FFFFFF0001FFFFFFF80007FFFFF0000FFFF80007FFFFF0000FFFF0003FFFFFF
310
FFF0003FFFFF0003F000E0003FFFFC0003FE0003FFF000003FFF0003FF80007F
310
E0003FFFF80007FE0003FFFFC0007FF8000001FFFE0000007FFFFFF0001FFFFF
310
FF80003FFFFE0000FFFF80003FFFFE0000FFFF0003FFFFFFFFF0001FFFFE0003
310
F000F0001FFFF80003FE0003FFF000007FFF0001FF80007FE0003FFFF00007FE
310
0001FFFF80007FF8000001FFFE0000007FFFFFF0001FFFFFFFC0000FFFF80001
310
FFFFC0000FFFF80001FFFF0003FFFFFFFFF0001FFFFC0003F000F0000FFFF000
310
07FE0007FFF800007FFF0001FF80007FE0001FFFE00007FF0000FFFE00007FF8
310
000001FFFE0000007FFFFFF0001FFFFFFFC00003FFE00001FFFFC00003FFE000
310
01FFFF0003FFFFFFFFF8000FFFF80003F000F00003FFC00007FC0007FFF80000
310
7FFF8001FF80007FF00007FF80000FFF00007FF80000FFF8000001FFFE000000
310
7F80000000000001FFE000003E000003FFFFE000003E000003FFFF0003FFFFFF
310
FFF80003FFE00007F000F800000000000FFC0007FFF800007FFF8001FF80007F
310
F000000000000FFF000000000000FFF8000001FFFE0000007F80000000000001
310
FFF0000000000007FFFFF0000000000007FFFF0003FFFFFFFFFC00007E000007
310
F000F800000000000FFC0007FFF80000FFFF8000FF80007FF800000000001FFF
310
800000000001FFF8000001FFFE0000007F80000000000001FFF800000000000F
310
FFFFF800000000000FFFFF0003FFFFFFFFFC00000000000FF000FC0000000000
310
1FFC0007FFFC0000FFFF8000FF80007FF800000000003FFFC00000000001FFF8
310
000001FFFE0000007F80000000000001FFF800000000000FFFFFF80000000000
310
0FFFFF0003FFFFFFFFFE00000000001FF000FE00000000003FF8000FFFFC0000
310
FFFF8000FF80007FFC00000000003FFFC00000000003FFF8000001FFFE000000
310
7F80000000000001FFFC00000000001FFFFFFC00000000001FFFFF0003FFFFFF
310
FFFF00000000001FF000FF00000000003FF8000FFFFC0000FFFFC000FF80007F
310
FE00000000007FFFE00000000007FFF8000001FFFE0000007F80000000000001
310
FFFE00000000003FFFFFFE00000000003FFFFF0003FFFFFFFFFF80000000003F
310
F000FF80000000007FF8000FFFFC0001FFFFC0007F80007FFF0000000000FFFF
310
F0000000000FFFF800000000000000007F80000000000001FFFF8000000000FF
310
FFFFFF8000000000FFFFFF0003FFFFFFFFFFC0000000007FF000FFC000000000
310
FFF8000FFFFE0001FFFFC0007F80007FFF8000000001FFFFF8000000001FFFF8
310
00000000000000007F80000000000001FFFFC000000001FFFFFFFFC000000001
310
FFFFFF0003FFFFFFFFFFE000000000FFF000FFE000000003FFF0001FFFFE0001
310
FFFFC0007F80007FFFC000000007FFFFFE000000003FFFF80000000000000000
310
7F80000000000001FFFFE000000003FFFFFFFFE000000003FFFFFF0003FFFFFF
310
FFFFF000000003FFF000FFF80000000FFFF0001FFFFE0001FFFFE0007F80007F
310
FFF00000000FFFFFFF00000000FFFFF800000000000000007F80000000000001
310
FFFFF80000000FFFFFFFFFF80000000FFFFFFF0003FFFFFFFFFFFC0000000FFF
310
F000FFFE0000003FFFF0001FFFFE0003FFFFE0003F80007FFFFC0000003FFFFF
310
FFC0000003FFFFF800000000000000007F80000000000001FFFFFE0000003FFF
310
FFFFFFFE0000003FFFFFFF0003FFFFFFFFFFFF0000003FFFF000FFFF800000FF
310
FFF0001FFFFF0003FFFFE0003F80007FFFFF000001FFFFFFFFF800001FFFFFF8
310
00000000000000007F80000000000001FFFFFFC00001FFFFFFFFFFFFC00001FF
310
FFFFFF0003FFFFFFFFFFFFC00000FFFFF000FFFFF8000FFFFFFFFFFFFFFFFFFF
310
FFFFFFFFFFFFFFFFFFFFF0001FFFFFFFFFFF0000FFFFFFF80000000000000000
310
7FFFFFFFFFFFFFFFFFFFFFFC001FFFFFFFFFFFFFFC001FFFFFFFFFFFFFFFFFFF
310
FFFFFFFC001FFFFFF000FFFFFFFFFFFFFFFFFFFFFFFFFFFFFFFFFFFFFFFFFFFF
310
FFFFFFFFFFFFFFFFFFFFFFFFFFFFFFFFFFFFFFFFFFFFFFFFFFFFFFFFFFFFFFFF
310
FFFFFFFFFFFFFFFFFFFFFFFFFFFFFFFFFFFFFFFFFFFFFFFFFFFFFFFFFFFFFFFF
310
F000FFFFFFFFFFFFFFFFFFFFFFFFFFFFFFFFFFFFFFFFFFFFFFFFFFFFFFFFFFFF
310
FFFFFFFFFFFFFFFFFFFFFFFFFFFFFFFFFFFFFFFFFFFFFFFFFFFFFFFFFFFFFFFF
310
FFFFFFFFFFFFFFFFFFFFFFFFFFFFFFFFFFFFFFFFFFFFFFFFF000FFFFFFFFFFFF
310
FFFFFFFFFFFFFFFFFFFFFFFFFFFFFFFFFFFFFFFFFFFFFFFFFFFFFFFFFFFFFFFF
310
FFFFFFFFFFFFFFFFFFFFFFFFFFFFFFFFFFFFFFFFFFFFFFFFFFFFFFFFFFFFFFFF
310
FFFFFFFFFFFFFFFFFFFFFFFFFFFFFFFFF000FFFFFFFFFFFFFFFFFFFFFFFFFFFF
310
FFFFFFFFFFFFFFFFFFFFFFFFFFFFFFFFFFFFFFFFFFFFFFFFFFFFFFFFFFFFFFFF
310
FFFFFFFFFFFFFFFFFFFFFFFFFFFFFFFFFFFFFFFFFFFFFFFFFFFFFFFFFFFFFFFF
310
FFFFFFFFFFFFFFFFF000FFFFFFFFFFFFFFFFFFFFFFFFFFFFFFFFFFFFFFFFFFFF
310
FFFFFFFFFFFFFFFFFFFFFFFFFFFFFFFFFFFFFFFFFFFFFFFFFFFFFFFFFFFFFFFF
310
FFFFFFFFFFFFFFFFFFFFFFFFFFFFFFFFFFFFFFFFFFFFFFFFFFFFFFFFFFFFFFFF
310
F000FFFFFFFFFFFFFFFFFFFFFFFFFFFFFFFFFFFFFFFFFFFFFFFFFFFFFFFFFFFF
310
FFFFFFFFFFFFFFFFFFFFFFFFFFFFFFFFFFFFFFFFFFFFFFFFFFFFFFFFFFFFFFFF
310
FFFFFFFFFFFFFFFFFFFFFFFFFFFFFFFFFFFFFFFFFFFFFFFFF000FFFFFFFFFFFF
310
FFFFFFFFFFFFFFFFFFFFFFFFFFFFFFFFFFFFFFFFFFFFFFFFFFFFFFFFFFFFFFFF
310
FFFFFFFFFFFFFFFFFFFFFFFFFFFFFFFFFFFFFFFFFFFFFFFFFFFFFFFFFFFFFFFF
310
FFFFFFFFFFFFFFFFFFFFFFFFFFFFFFFFF000FFFFFFFFFFFFFFFFFFFFFFFFFFFF
310
FFFFFFFFFFFFFFFFFFFFFFFFFFFFFFFFFFFFFFFFFFFFFFFFFFFFFFFFFFFFFFFF
310
FFFFFFFFFFFFFFFFFFFFFFFFFFFFFFFFFFFFFFFFFFFFFFFFFFFFFFFFFFFFFFFF
310
FFFFFFFFFFFFFFFFF000FFFFFFFFFFFFFFFFFFFFFFFFFFFFFFFFFFFFFFFFFFFF
310
FFFFFFFFFFFFFFFFFFFFFFFFFFFFFFFFFFFFFFFFFFFFFFFFFFFFFFFFFFFFFFFF
310
FFFFFFFFFFFFFFFFFFFFFFFFFFFFFFFFFFFFFFFFFFFFFFFFFFFFFFFFFFFFFFFF
310
F000FFFFFFFFFFFFFFFFFFFFFFFFFFFFFFFFFFFFFFFFFFFFFFFFFFFFFFFFFFFF
310
FFFFFFFFFFFFFFFFFFFFFFFFFFFFFFFFFFFFFFFFFFFFFFFFFFFFFFFFFFFFFFFF
310
FFFFFFFFFFFFFFFFFFFFFFFFFFFFFFFFFFFFFFFFFFFFFFFFF000FFFFFFFFFFFF
310
FFFFFFFFFFFFFFFFFFFFFFFFFFFFFFFFFFFFFFFFFFFFFFFFFFFFFFFFFFFFFFFF
310
FFFFFFFFFFFFFFFFFFFFFFFFFFFFFFFFFFFFFFFFFFFFFFFFFFFFFFFFFFFFFFFF
310
FFFFFFFFFFFFFFFFFFFFFFFFFFFFFFFFF000FFFFFFFFFFFFFFFFFFFFFFFFFFFF
310
FFFFFFFFFFFFFFFFFFFFFFFFFFFFFFFFFFFFFFFFFFFFFFFFFFFFFFFFFFFFFFFF
310
FFFFFFFFFFFFFFFFFFFFFFFFFFFFFFFFFFFFFFFFFFFFFFFFFFFFFFFFFFFFFFFF
310
FFFFFFFFFFFFFFFFF000FFFFFFFFFFFFFFFFFFFFFFFFFFFFFFFFFFFFFFFFFFFF
310
FFFFFFFFFFFFFFFFFFFFFFFFFFFFFFFFFFFFFFFFFFFFFFFFFFFFFFFFFFFFFFFF
310
FFFFFFFFFFFFFFFFFFFFFFFFFFFFFFFFFFFFFFFFFFFFFFFFFFFFFFFFFFFFFFFF
310
F000FFFFFFFFFFFFFFFFFFFFFFFFFFFFFFFFFFFFFFFFFFFFFFFFFFFFFFFFFFFF
310
FFFFFFFFFFFFFFFFFFFFFFFFFFFFFFFFFFFFFFFFFFFFFFFFFFFFFFFFFFFFFFFF
310
FFFFFFFFFFFFFFFFFFFFFFFFFFFFFFFFFFFFFFFFFFFFFFFFF000FFFFFFFFFFFF
310
FFFFFFFFFFFFFFFFFFFFFFFFFFFFFFFFFFFFFFFFFFFFFFFFFFFFFFFFFFFFFFFF
310
FFFFFFFFFFFFFFFFFFFFFFFFFFFFFFFFFFFFFFFFFFFFFFFFFFFFFFFFFFFFFFFF
310
FFFFFFFFFFFFFFFFFFFFFFFFFFFFFFFFF000FFFFFFFFFFFFFFFFFFFFFFFFFFFF
310
FFFFFFFFFFFFFFFFFFFFFFFFFFFFFFFFFFFFFFFFFFFFFFFFFFFFFFFFFFFFFFFF
310
FFFFFFFFFFFFFFFFFFFFFFFFFFFFFFFFFFFFFFFFFFFFFFFFFFFFFFFFFFFFFFFF
310
FFFFFFFFFFFFFFFFF000FFFFFFFFFFFFFFFFFFFFFFFFFFFFFFFFFFFFFFFFFFFF
310
FFFFFFFFFFFFFFFFFFFFFFFFFFFFFFFFFFFFFFFFFFFFFFFFFFFFFFFFFFFFFFFF
310
FFFFFFFFFFFFFFFFFFFFFFFFFFFFFFFFFFFFFFFFFFFFFFFFFFFFFFFFFFFFFFFF
310
F000FFFFFFFFFFFFFFFFFFFFFFFFFFFFFFFFFFFFFFFFFFFFFFFFFFFFFFFFFFFF
310
FFFFFFFFFFFFFFFFFFFFFFFFFFFFFFFFFFFFFFFFFFFFFFFFFFFFFFFFFFFFFFFF
310
FFFFFFFFFFFFFFFFFFFFFFFFFFFFFFFFFFFFFFFFFFFFFFFFF000FFFFFFFFFFFF
310
FFFFFFFFFFFFFFFFFFFFFFFFFFFFFFFFFFFFFFFFFFFFFFFFFFFFFFFFFFFFFFFF
310
FFFFFFFFFFFFFFFFFFFFFFFFFFFFFFFFFFFFFFFFFFFFFFFFFFFFFFFFFFFFFFFF
310
FFFFFFFFFFFFFFFFFFFFFFFFFFFFFFFFF000FFFFFFFFFFFFFFFFFFFFFFFFFFFF
310
FFFFFFFFFFFFFFFFFFFFFFFFFFFFFFFFFFFFFFFFFFFFFFFFFFFFFFFFFFFFFFFF
310
FFFFFFFFFFFFFFFFFFFFFFFFFFFFFFFFFFFFFFFFFFFFFFFFFFFFFFFFFFFFFFFF
310
FFFFFFFFFFFFFFFFF000FFFFFFFFFFFFFFFFFFFFFFFFFFFFFFFFFFFFFFFFFFFF
310
FFFFFFFFFFFFFFFFFFFFFFFFFFFFFFFFFFFFFFFFFFFFFFFFFFFFFFFFFFFFFFFF
310
FFFFFFFFFFFFFFFFFFFFFFFFFFFFFFFFFFFFFFFFFFFFFFFFFFFFFFFFFFFFFFFF
310
F000FFFFFFFFFFFFFFFFFFFFFFFFFFFFFFFFFFFFFFFFFFFFFFFFFFFFFFFFFFFF
310
FFFFFFFFFFFFFFFFFFFFFFFFFFFFFFFFFFFFFFFFFFFFFFFFFFFFFFFFFFFFFFFF
310
FFFFFFFFFFFFFFFFFFFFFFFFFFFFFFFFFFFFFFFFFFFFFFFFF000FFFFFFFFFFFF
310
FFFFFFFFFFFFFFFFFFFFFFFFFFFFFFFFFFFFFFFFFFFFFFFFFFFFFFFFFFFFFFFF
310
FFFFFFFFFFFFFFFFFFFFFFFFFFFFFFFFFFFFFFFFFFFFFFFFFFFFFFFFFFFFFFFF
310
FFFFFFFFFFFFFFFFFFFFFFFFFFFFFFFFF0000000000000000000000000000000
310
0000000001000000000000000100000001000000010000000100000001000000
310
0100000000000000010000000100000001000000010000000100000001000000
310
0000000001000000010000000100000001000000010000000100000000000000
310
0100000000000000010000000000000001000000010000000100000001000000
310
0100000001000000010000000100000001000000010000000100000001000000
310
0100000001000000010000000100000001000000010000000100000001000000
310
0100000001000000010000000100000001000000010000000100000001000000
310
0100000001000000010000000100000001000000010000000100000001000000
310
0100000001000000010000000100000001000000010000000100000000000000
310
0100000001000000010000000100000001000000000000000100000001000000
310
0100000001000000000000000100000001000000010000000100000001000000
310
0100000000000000010000000000000001000000010000000100000000000000
310
0100000001000000000000000100000001000000010000000100000001000000
310
0100000001000000000000000100000001000000010000000100000001000000
310
0000000001000000010000000100000001000000010000000100000001000000
  1
OLE
  0
ENDSEC
  0
SECTION
  2
OBJECTS
  0
DICTIONARY
  5
C
330
0
100
AcDbDictionary
281
     1
  3
ACAD_GROUP
350
D
  3
ACAD_LAYOUT
350
1A
  3
ACAD_MLEADERSTYLE
350
206
  3
ACAD_MLINESTYLE
350
17
  3
ACAD_PLOTSETTINGS
350
19
  3
ACAD_PLOTSTYLENAME
350
E
  3
ACAD_TABLESTYLE
350
205
  3
ACAD_VISUALSTYLE
350
2A
  3
AcDbVariableDictionary
350
207
  0
DICTIONARY
  5
D
102
{ACAD_REACTORS
330
C
102
}
330
C
100
AcDbDictionary
281
     1
  0
DICTIONARY
  5
1A
102
{ACAD_REACTORS
330
C
102
}
330
C
100
AcDbDictionary
281
     1
  3
Layout1
350
1E
  3
Layout2
350
26
  3
Model
350
22
  0
DICTIONARY
  5
206
102
{ACAD_REACTORS
330
C
102
}
330
C
100
AcDbDictionary
281
     1
  0
DICTIONARY
  5
17
102
{ACAD_REACTORS
330
C
102
}
330
C
100
AcDbDictionary
281
     1
  3
Standard
350
18
  0
DICTIONARY
  5
19
102
{ACAD_REACTORS
330
C
102
}
330
C
100
AcDbDictionary
281
     1
  0
ACDBDICTIONARYWDFLT
  5
E
102
{ACAD_REACTORS
330
C
102
}
330
C
100
AcDbDictionary
281
     1
  3
Normal
350
F
100
AcDbDictionaryWithDefault
340
F
  0
DICTIONARY
  5
205
102
{ACAD_REACTORS
330
C
102
}
330
C
100
AcDbDictionary
281
     1
  0
DICTIONARY
  5
2A
102
{ACAD_REACTORS
330
C
102
}
330
C
100
AcDbDictionary
281
     1
  3
2dWireframe
350
2F
  3
3D Hidden
350
31
  3
3dWireframe
350
30
  3
Basic
350
32
  3
Brighten
350
36
  3
ColorChange
350
3A
  3
Conceptual
350
34
  3
Dim
350
35
  3
Facepattern
350
39
  3
Flat
350
2B
  3
FlatWithEdges
350
2C
  3
Gouraud
350
2D
  3
GouraudWithEdges
350
2E
  3
Linepattern
350
38
  3
Realistic
350
33
  3
Thicken
350
37
  0
DICTIONARY
  5
207
102
{ACAD_REACTORS
330
C
102
}
330
C
100
AcDbDictionary
281
     1
  3
PSOLHEIGHT
350
209
  3
PSOLWIDTH
350
208
  0
LAYOUT
  5
1E
102
{ACAD_REACTORS
330
1A
102
}
330
1A
100
AcDbPlotSettings
  1

  2
none_device
  4

  6

 40
0.0
 41
0.0
 42
0.0
 43
0.0
 44
0.0
 45
0.0
 46
0.0
 47
0.0
 48
0.0
 49
0.0
140
0.0
141
0.0
142
1.0
143
1.0
 70
   688
 72
     0
 73
     0
 74
     5
  7

 75
    16
147
1.0
148
0.0
149
0.0
100
AcDbLayout
  1
Layout1
 70
     1
 71
     1
 10
0.0
 20
0.0
 11
420.0
 21
297.0
 12
0.0
 22
0.0
 32
0.0
 14
1.0000000000E+20
 24
1.0000000000E+20
 34
1.0000000000E+20
 15
-1.0000000000E+20
 25
-1.0000000000E+20
 35
-1.0000000000E+20
146
0.0
 13
0.0
 23
0.0
 33
0.0
 16
1.0
 26
0.0
 36
0.0
 17
0.0
 27
1.0
 37
0.0
 76
     0
330
1B
  0
LAYOUT
  5
26
102
{ACAD_REACTORS
330
1A
102
}
330
1A
100
AcDbPlotSettings
  1

  2
none_device
  4

  6

 40
0.0
 41
0.0
 42
0.0
 43
0.0
 44
0.0
 45
0.0
 46
0.0
 47
0.0
 48
0.0
 49
0.0
140
0.0
141
0.0
142
1.0
143
1.0
 70
   688
 72
     0
 73
     0
 74
     5
  7

 75
    16
147
1.0
148
0.0
149
0.0
100
AcDbLayout
  1
Layout2
 70
     1
 71
     2
 10
0.0
 20
0.0
 11
0.0
 21
0.0
 12
0.0
 22
0.0
 32
0.0
 14
0.0
 24
0.0
 34
0.0
 15
0.0
 25
0.0
 35
0.0
146
0.0
 13
0.0
 23
0.0
 33
0.0
 16
1.0
 26
0.0
 36
0.0
 17
0.0
 27
1.0
 37
0.0
 76
     0
330
23
  0
LAYOUT
  5
22
102
{ACAD_REACTORS
330
1A
102
}
330
1A
100
AcDbPlotSettings
  1

  2
none_device
  4

  6

 40
0.0
 41
0.0
 42
0.0
 43
0.0
 44
0.0
 45
0.0
 46
0.0
 47
0.0
 48
0.0
 49
0.0
140
0.0
141
0.0
142
1.0
143
1.0
 70
  1712
 72
     0
 73
     0
 74
     0
  7

 75
     0
147
1.0
148
0.0
149
0.0
100
AcDbLayout
  1
Model
 70
     1
 71
     0
 10
0.0
 20
0.0
 11
297.0
 21
210.0
 12
0.0
 22
0.0
 32
0.0
 14
0.0
 24
0.0
 34
0.0
 15
297.0
 25
210.0
 35
0.0
146
0.0
 13
0.0
 23
0.0
 33
0.0
 16
1.0
 26
0.0
 36
0.0
 17
0.0
 27
1.0
 37
0.0
 76
     0
330
1F
331
29
  0
MLINESTYLE
  5
18
102
{ACAD_REACTORS
330
17
102
}
330
17
100
AcDbMlineStyle
  2
Standard
 70
     0
  3

 62
   256
 51
90.0
 52
90.0
 71
     2
 49
0.5
 62
   256
  6
BYLAYER
 49
-0.5
 62
   256
  6
BYLAYER
  0
ACDBPLACEHOLDER
  5
F
102
{ACAD_REACTORS
330
E
102
}
330
E
  0
VISUALSTYLE
  5
2F
102
{ACAD_REACTORS
330
2A
102
}
330
2A
100
AcDbVisualStyle
  2
2dWireframe
 70
     4
 71
     0
 72
     2
 73
     0
 90
        0
 40
-0.6
 41
-30.0
 62
     5
 63
     7
 74
     1
 91
        4
 64
     7
 65
   257
 75
     1
175
     1
 42
1.0
 92
        0
 66
   257
 43
1.0
 76
     1
 77
     6
 78
     2
 67
     7
 79
     5
170
     0
171
     0
290
     0
174
     0
 93
        1
 44
0.0
173
     0
291
     0
 45
0.0
1001
ACAD
1000
AcDbSavedByObjectVersion
1070
     0
  0
VISUALSTYLE
  5
31
102
{ACAD_REACTORS
330
2A
102
}
330
2A
100
AcDbVisualStyle
  2
3D Hidden
 70
     6
 71
     1
 72
     2
 73
     2
 90
        0
 40
-0.6
 41
-30.0
 62
     5
 63
     7
 74
     2
 91
        2
 64
     7
 65
   257
 75
     2
175
     1
 42
40.0
 92
        0
 66
   257
 43
1.0
 76
     1
 77
     6
 78
     2
 67
     7
 79
     3
170
     0
171
     0
290
     0
174
     0
 93
        1
 44
0.0
173
     0
291
     0
 45
0.0
1001
ACAD
1000
AcDbSavedByObjectVersion
1070
     0
  0
VISUALSTYLE
  5
30
102
{ACAD_REACTORS
330
2A
102
}
330
2A
100
AcDbVisualStyle
  2
3dWireframe
 70
     5
 71
     0
 72
     2
 73
     0
 90
        0
 40
-0.6
 41
-30.0
 62
     5
 63
     7
 74
     1
 91
        4
 64
     7
 65
   257
 75
     1
175
     1
 42
1.0
 92
        0
 66
   257
 43
1.0
 76
     1
 77
     6
 78
     2
 67
     7
 79
     5
170
     0
171
     0
290
     0
174
     0
 93
        1
 44
0.0
173
     0
291
     0
 45
0.0
1001
ACAD
1000
AcDbSavedByObjectVersion
1070
     0
  0
VISUALSTYLE
  5
32
102
{ACAD_REACTORS
330
2A
102
}
330
2A
100
AcDbVisualStyle
  2
Basic
 70
     7
 71
     1
 72
     0
 73
     1
 90
        0
 40
-0.6
 41
-30.0
 62
     5
 63
     7
 74
     0
 91
        4
 64
     7
 65
   257
 75
     1
175
     1
 42
1.0
 92
        8
 66
     7
 43
1.0
 76
     1
 77
     6
 78
     2
 67
     7
 79
     5
170
     0
171
     0
290
     0
174
     0
 93
        1
 44
0.0
173
     0
291
     1
 45
0.0
1001
ACAD
1000
AcDbSavedByObjectVersion
1070
     0
  0
VISUALSTYLE
  5
36
102
{ACAD_REACTORS
330
2A
102
}
330
2A
100
AcDbVisualStyle
  2
Brighten
 70
    12
 71
     2
 72
     2
 73
     0
 90
        0
 40
-0.6
 41
-30.0
 62
     5
 63
     7
 74
     1
 91
        4
 64
     7
 65
   257
 75
     1
175
     1
 42
1.0
 92
        8
 66
     7
 43
1.0
 76
     1
 77
     6
 78
     2
 67
     7
 79
     5
170
     0
171
     0
290
     0
174
     0
 93
        1
 44
50.0
173
     0
291
     1
 45
0.0
1001
ACAD
1000
AcDbSavedByObjectVersion
1070
     0
  0
VISUALSTYLE
  5
3A
102
{ACAD_REACTORS
330
2A
102
}
330
2A
100
AcDbVisualStyle
  2
ColorChange
 70
    16
 71
     2
 72
     2
 73
     3
 90
        0
 40
-0.6
 41
-30.0
 62
     5
 63
     8
 74
     1
 91
        4
 64
     7
 65
   257
 75
     1
175
     1
 42
1.0
 92
        8
 66
     8
 43
1.0
 76
     1
 77
     6
 78
     2
 67
     7
 79
     5
170
     0
171
     0
290
     0
174
     0
 93
        1
 44
0.0
173
     0
291
     1
 45
0.0
1001
ACAD
1000
AcDbSavedByObjectVersion
1070
     0
  0
VISUALSTYLE
  5
34
102
{ACAD_REACTORS
330
2A
102
}
330
2A
100
AcDbVisualStyle
  2
Conceptual
 70
     9
 71
     3
 72
     2
 73
     0
 90
        0
 40
-0.6
 41
-30.0
 62
     5
 63
     7
 74
     2
 91
        2
 64
     7
 65
   257
 75
     1
175
     1
 42
40.0
 92
        8
 66
     7
 43
1.0
 76
     1
 77
     6
 78
     2
 67
     7
 79
     3
170
     0
171
     0
290
     0
174
     0
 93
        1
 44
0.0
173
     0
291
     0
 45
0.0
1001
ACAD
1000
AcDbSavedByObjectVersion
1070
     0
  0
VISUALSTYLE
  5
35
102
{ACAD_REACTORS
330
2A
102
}
330
2A
100
AcDbVisualStyle
  2
Dim
 70
    11
 71
     2
 72
     2
 73
     0
 90
        0
 40
-0.6
 41
-30.0
 62
     5
 63
     7
 74
     1
 91
        4
 64
     7
 65
   257
 75
     1
175
     1
 42
1.0
 92
        8
 66
     7
 43
1.0
 76
     1
 77
     6
 78
     2
 67
     7
 79
     5
170
     0
171
     0
290
     0
174
     0
 93
        1
 44
-50.0
173
     0
291
     1
 45
0.0
1001
ACAD
1000
AcDbSavedByObjectVersion
1070
     0
  0
VISUALSTYLE
  5
39
102
{ACAD_REACTORS
330
2A
102
}
330
2A
100
AcDbVisualStyle
  2
Facepattern
 70
    15
 71
     2
 72
     2
 73
     0
 90
        0
 40
-0.6
 41
-30.0
 62
     5
 63
     7
 74
     1
 91
        4
 64
     7
 65
   257
 75
     1
175
     1
 42
1.0
 92
        8
 66
     7
 43
1.0
 76
     1
 77
     6
 78
     2
 67
     7
 79
     5
170
     0
171
     0
290
     0
174
     0
 93
        1
 44
0.0
173
     0
291
     1
 45
0.0
1001
ACAD
1000
AcDbSavedByObjectVersion
1070
     0
  0
VISUALSTYLE
  5
2B
102
{ACAD_REACTORS
330
2A
102
}
330
2A
100
AcDbVisualStyle
  2
Flat
 70
     0
 71
     2
 72
     1
 73
     1
 90
        2
 40
-0.6
 41
30.0
 62
     5
 63
     7
 74
     0
 91
        4
 64
     7
 65
   257
 75
     1
175
     1
 42
1.0
 92
        8
 66
     7
 43
1.0
 76
     1
 77
     6
 78
     2
 67
     7
 79
     5
170
     0
171
     0
290
     0
174
     0
 93
       13
 44
0.0
173
     0
291
     1
 45
0.0
1001
ACAD
1000
AcDbSavedByObjectVersion
1070
     0
  0
VISUALSTYLE
  5
2C
102
{ACAD_REACTORS
330
2A
102
}
330
2A
100
AcDbVisualStyle
  2
FlatWithEdges
 70
     1
 71
     2
 72
     1
 73
     1
 90
        2
 40
-0.6
 41
30.0
 62
     5
 63
     7
 74
     1
 91
        4
 64
     7
 65
   257
 75
     1
175
     1
 42
1.0
 92
        0
 66
   257
 43
1.0
 76
     1
 77
     6
 78
     2
 67
     7
 79
     5
170
     0
171
     0
290
     0
174
     0
 93
       13
 44
0.0
173
     0
291
     1
 45
0.0
1001
ACAD
1000
AcDbSavedByObjectVersion
1070
     0
  0
VISUALSTYLE
  5
2D
102
{ACAD_REACTORS
330
2A
102
}
330
2A
100
AcDbVisualStyle
  2
Gouraud
 70
     2
 71
     2
 72
     2
 73
     1
 90
        2
 40
-0.6
 41
30.0
 62
     5
 63
     7
 74
     0
 91
        4
 64
     7
 65
   257
 75
     1
175
     1
 42
1.0
 92
        0
 66
     7
 43
1.0
 76
     1
 77
     6
 78
     2
 67
     7
 79
     5
170
     0
171
     0
290
     0
174
     0
 93
       13
 44
0.0
173
     0
291
     1
 45
0.0
1001
ACAD
1000
AcDbSavedByObjectVersion
1070
     0
  0
VISUALSTYLE
  5
2E
102
{ACAD_REACTORS
330
2A
102
}
330
2A
100
AcDbVisualStyle
  2
GouraudWithEdges
 70
     3
 71
     2
 72
     2
 73
     1
 90
        2
 40
-0.6
 41
30.0
 62
     5
 63
     7
 74
     1
 91
        4
 64
     7
 65
   257
 75
     1
175
     1
 42
1.0
 92
        0
 66
   257
 43
1.0
 76
     1
 77
     6
 78
     2
 67
     7
 79
     5
170
     0
171
     0
290
     0
174
     0
 93
       13
 44
0.0
173
     0
291
     1
 45
0.0
1001
ACAD
1000
AcDbSavedByObjectVersion
1070
     0
  0
VISUALSTYLE
  5
38
102
{ACAD_REACTORS
330
2A
102
}
330
2A
100
AcDbVisualStyle
  2
Linepattern
 70
    14
 71
     2
 72
     2
 73
     0
 90
        0
 40
-0.6
 41
-30.0
 62
     5
 63
     7
 74
     1
 91
        4
 64
     7
 65
   257
 75
     7
175
     7
 42
1.0
 92
        8
 66
     7
 43
1.0
 76
     1
 77
     6
 78
     2
 67
     7
 79
     5
170
     0
171
     0
290
     0
174
     0
 93
        1
 44
0.0
173
     0
291
     1
 45
0.0
1001
ACAD
1000
AcDbSavedByObjectVersion
1070
     0
  0
VISUALSTYLE
  5
33
102
{ACAD_REACTORS
330
2A
102
}
330
2A
100
AcDbVisualStyle
  2
Realistic
 70
     8
 71
     2
 72
     2
 73
     0
 90
        0
 40
-0.6
 41
-30.0
 62
     5
 63
     7
 74
     1
 91
        0
 64
     7
 65
   257
 75
     1
175
     1
 42
1.0
 92
        8
 66
     8
 43
1.0
 76
     1
 77
     6
 78
     2
 67
     7
 79
     5
170
     0
171
     0
290
     0
174
     0
 93
       13
 44
0.0
173
     0
291
     0
 45
0.0
1001
ACAD
1000
AcDbSavedByObjectVersion
1070
     0
  0
VISUALSTYLE
  5
37
102
{ACAD_REACTORS
330
2A
102
}
330
2A
100
AcDbVisualStyle
  2
Thicken
 70
    13
 71
     2
 72
     2
 73
     0
 90
        0
 40
-0.6
 41
-30.0
 62
     5
 63
     7
 74
     1
 91
        4
 64
     7
 65
   257
 75
     1
175
     1
 42
1.0
 92
       12
 66
     7
 43
1.0
 76
     1
 77
     6
 78
     2
 67
     7
 79
     5
170
     0
171
     0
290
     0
174
     0
 93
        1
 44
0.0
173
     0
291
     1
 45
0.0
1001
ACAD
1000
AcDbSavedByObjectVersion
1070
     0
  0
DICTIONARYVAR
  5
209
102
{ACAD_REACTORS
330
207
102
}
330
207
100
DictionaryVariables
280
     0
  1
80.000000
  0
DICTIONARYVAR
  5
208
102
{ACAD_REACTORS
330
207
102
}
330
207
100
DictionaryVariables
280
     0
  1
5.000000
  0
ENDSEC
  0
EOF
