  0
SECTION
  2
HEADER
  9
$ACADVER
  1
AC1015
  9
$ACADMAINTVER
 70
     6
  9
$DWGCODEPAGE
  3
ANSI_1252
  9
$INSBASE
 10
0.0
 20
0.0
 30
0.0
  9
$EXTMIN
 10
0.0
 20
0.0
 30
0.0
  9
$EXTMAX
 10
297.0
 20
210.0
 30
0.0
  9
$LIMMIN
 10
0.0
 20
0.0
  9
$LIMMAX
 10
297.0
 20
210.0
  9
$ORTHOMODE
 70
     0
  9
$REGENMODE
 70
     1
  9
$FILLMODE
 70
     1
  9
$QTEXTMODE
 70
     0
  9
$MIRRTEXT
 70
     1
  9
$LTSCALE
 40
1.0
  9
$ATTMODE
 70
     1
  9
$TEXTSIZE
 40
2.0
  9
$TRACEWID
 40
1.0
  9
$TEXTSTYLE
  7
Standard
  9
$CLAYER
  8
0
  9
$CELTYPE
  6
ByLayer
  9
$CECOLOR
 62
   256
  9
$CELTSCALE
 40
1.0
  9
$DISPSILH
 70
     0
  9
$DIMSCALE
 40
1.0
  9
$DIMASZ
 40
3.0
  9
$DIMEXO
 40
0.0
  9
$DIMDLI
 40
3.75
  9
$DIMRND
 40
0.0
  9
$DIMDLE
 40
0.0
  9
$DIMEXE
 40
1.0
  9
$DIMTP
 40
0.0
  9
$DIMTM
 40
0.0
  9
$DIMTXT
 40
2.0
  9
$DIMCEN
 40
2.5
  9
$DIMTSZ
 40
0.0
  9
$DIMTOL
 70
     0
  9
$DIMLIM
 70
     0
  9
$DIMTIH
 70
     1
  9
$DIMTOH
 70
     1
  9
$DIMSE1
 70
     0
  9
$DIMSE2
 70
     0
  9
$DIMTAD
 70
     1
  9
$DIMZIN
 70
     0
  9
$DIMBLK
  1

  9
$DIMASO
 70
     1
  9
$DIMSHO
 70
     1
  9
$DIMPOST
  1

  9
$DIMAPOST
  1

  9
$DIMALT
 70
     0
  9
$DIMALTD
 70
     3
  9
$DIMALTF
 40
0.0393700787
  9
$DIMLFAC
 40
1.0
  9
$DIMTOFL
 70
     1
  9
$DIMTVP
 40
0.0
  9
$DIMTIX
 70
     0
  9
$DIMSOXD
 70
     0
  9
$DIMSAH
 70
     0
  9
$DIMBLK1
  1

  9
$DIMBLK2
  1

  9
$DIMSTYLE
  2
ISO-25
  9
$DIMCLRD
 70
     0
  9
$DIMCLRE
 70
     0
  9
$DIMCLRT
 70
     0
  9
$DIMTFAC
 40
1.0
  9
$DIMGAP
 40
1.524
  9
$DIMJUST
 70
     0
  9
$DIMSD1
 70
     0
  9
$DIMSD2
 70
     0
  9
$DIMTOLJ
 70
     0
  9
$DIMTZIN
 70
     0
  9
$DIMALTZ
 70
     0
  9
$DIMALTTZ
 70
     0
  9
$DIMUPT
 70
     0
  9
$DIMDEC
 70
     2
  9
$DIMTDEC
 70
     3
  9
$DIMALTU
 70
     2
  9
$DIMALTTD
 70
     3
  9
$DIMTXSTY
  7
Standard
  9
$DIMAUNIT
 70
     0
  9
$DIMADEC
 70
     2
  9
$DIMALTRND
 40
0.0
  9
$DIMAZIN
 70
     0
  9
$DIMDSEP
 70
    44
  9
$DIMATFIT
 70
     3
  9
$DIMFRAC
 70
     0
  9
$DIMLDRBLK
  1

  9
$DIMLUNIT
 70
     2
  9
$DIMLWD
 70
    -2
  9
$DIMLWE
 70
    -2
  9
$DIMTMOVE
 70
     0
  9
$LUNITS
 70
     2
  9
$LUPREC
 70
     2
  9
$SKETCHINC
 40
1.0
  9
$FILLETRAD
 40
10.0
  9
$AUNITS
 70
     0
  9
$AUPREC
 70
     2
  9
$MENU
  1
.
  9
$ELEVATION
 40
0.0
  9
$PELEVATION
 40
0.0
  9
$THICKNESS
 40
0.0
  9
$LIMCHECK
 70
     0
  9
$CHAMFERA
 40
10.0
  9
$CHAMFERB
 40
10.0
  9
$CHAMFERC
 40
20.0
  9
$CHAMFERD
 40
0.0
  9
$SKPOLY
 70
     0
  9
$TDCREATE
 40
2455673.489726609
  9
$TDUCREATE
 40
2455673.406393276
  9
$TDUPDATE
 40
2455673.48972662
  9
$TDUUPDATE
 40
2455673.406393287
  9
$TDINDWG
 40
0.0000000116
  9
$TDUSRTIMER
 40
0.0000000116
  9
$USRTIMER
 70
     1
  9
$ANGBASE
 50
0.0
  9
$ANGDIR
 70
     0
  9
$PDMODE
 70
     0
  9
$PDSIZE
 40
-1.0
  9
$PLINEWID
 40
0.0
  9
$SPLFRAME
 70
     0
  9
$SPLINETYPE
 70
     6
  9
$SPLINESEGS
 70
     8
  9
$HANDSEED
  5
1F5
  9
$SURFTAB1
 70
     6
  9
$SURFTAB2
 70
     6
  9
$SURFTYPE
 70
     6
  9
$SURFU
 70
     6
  9
$SURFV
 70
     6
  9
$UCSBASE
  2

  9
$UCSNAME
  2

  9
$UCSORG
 10
0.0
 20
0.0
 30
0.0
  9
$UCSXDIR
 10
1.0
 20
0.0
 30
0.0
  9
$UCSYDIR
 10
0.0
 20
1.0
 30
0.0
  9
$UCSORTHOREF
  2

  9
$UCSORTHOVIEW
 70
     0
  9
$UCSORGTOP
 10
0.0
 20
0.0
 30
0.0
  9
$UCSORGBOTTOM
 10
0.0
 20
0.0
 30
0.0
  9
$UCSORGLEFT
 10
0.0
 20
0.0
 30
0.0
  9
$UCSORGRIGHT
 10
0.0
 20
0.0
 30
0.0
  9
$UCSORGFRONT
 10
0.0
 20
0.0
 30
0.0
  9
$UCSORGBACK
 10
0.0
 20
0.0
 30
0.0
  9
$PUCSBASE
  2

  9
$PUCSNAME
  2

  9
$PUCSORG
 10
0.0
 20
0.0
 30
0.0
  9
$PUCSXDIR
 10
1.0
 20
0.0
 30
0.0
  9
$PUCSYDIR
 10
0.0
 20
1.0
 30
0.0
  9
$PUCSORTHOREF
  2

  9
$PUCSORTHOVIEW
 70
     0
  9
$PUCSORGTOP
 10
0.0
 20
0.0
 30
0.0
  9
$PUCSORGBOTTOM
 10
0.0
 20
0.0
 30
0.0
  9
$PUCSORGLEFT
 10
0.0
 20
0.0
 30
0.0
  9
$PUCSORGRIGHT
 10
0.0
 20
0.0
 30
0.0
  9
$PUCSORGFRONT
 10
0.0
 20
0.0
 30
0.0
  9
$PUCSORGBACK
 10
0.0
 20
0.0
 30
0.0
  9
$USERI1
 70
     0
  9
$USERI2
 70
     0
  9
$USERI3
 70
     0
  9
$USERI4
 70
     0
  9
$USERI5
 70
     0
  9
$USERR1
 40
0.0
  9
$USERR2
 40
0.0
  9
$USERR3
 40
0.0
  9
$USERR4
 40
0.0
  9
$USERR5
 40
0.0
  9
$WORLDVIEW
 70
     1
  9
$SHADEDGE
 70
     3
  9
$SHADEDIF
 70
    70
  9
$TILEMODE
 70
     1
  9
$MAXACTVP
 70
    64
  9
$PINSBASE
 10
0.0
 20
0.0
 30
0.0
  9
$PLIMCHECK
 70
     0
  9
$PEXTMIN
 10
1.0000000000E+20
 20
1.0000000000E+20
 30
1.0000000000E+20
  9
$PEXTMAX
 10
-1.0000000000E+20
 20
-1.0000000000E+20
 30
-1.0000000000E+20
  9
$PLIMMIN
 10
0.0
 20
0.0
  9
$PLIMMAX
 10
420.0
 20
297.0
  9
$UNITMODE
 70
     0
  9
$VISRETAIN
 70
     1
  9
$PLINEGEN
 70
     0
  9
$PSLTSCALE
 70
     1
  9
$TREEDEPTH
 70
  3020
  9
$CMLSTYLE
  2
Standard
  9
$CMLJUST
 70
     0
  9
$CMLSCALE
 40
20.0
  9
$PROXYGRAPHICS
 70
     1
  9
$MEASUREMENT
 70
     1
  9
$CELWEIGHT
370
    -1
  9
$ENDCAPS
280
     0
  9
$JOINSTYLE
280
     0
  9
$LWDISPLAY
290
     1
  9
$INSUNITS
 70
     4
  9
$HYPERLINKBASE
  1

  9
$STYLESHEET
  1

  9
$XEDIT
290
     1
  9
$CEPSNTYPE
380
     0
  9
$PSTYLEMODE
290
     1
  9
$FINGERPRINTGUID
  2
{C6021B3D-C9CC-498B-8A67-E24CBFE2D28A}
  9
$VERSIONGUID
  2
{FAEB1C32-E019-11D5-929B-00C0DF256EC4}
  9
$EXTNAMES
290
     1
  9
$PSVPSCALE
 40
0.0
  9
$OLESTARTUP
290
     0
  0
ENDSEC
  0
SECTION
  2
CLASSES
  0
CLASS
  1
ACDBDICTIONARYWDFLT
  2
AcDbDictionaryWithDefault
  3
ObjectDBX Classes
 90
        0
280
     0
281
     0
  0
CLASS
  1
VISUALSTYLE
  2
AcDbVisualStyle
  3
ObjectDBX Classes
 90
     4095
280
     0
281
     0
  0
CLASS
  1
DICTIONARYVAR
  2
AcDbDictionaryVar
  3
ObjectDBX Classes
 90
        0
280
     0
281
     0
  0
CLASS
  1
ACDBPLACEHOLDER
  2
AcDbPlaceHolder
  3
ObjectDBX Classes
 90
        0
280
     0
281
     0
  0
CLASS
  1
LAYOUT
  2
AcDbLayout
  3
ObjectDBX Classes
 90
        0
280
     0
281
     0
  0
ENDSEC
  0
SECTION
  2
TABLES
  0
TABLE
  2
VPORT
  5
8
330
0
100
AcDbSymbolTable
 70
     1
  0
VPORT
  5
29
330
8
100
AcDbSymbolTableRecord
100
AcDbViewportTableRecord
  2
*Active
 70
     0
 10
0.0
 20
0.0
 11
1.0
 21
1.0
 12
148.5
 22
105.0
 13
0.0
 23
0.0
 14
10.0
 24
10.0
 15
10.0
 25
10.0
 16
0.0
 26
0.0
 36
1.0
 17
0.0
 27
0.0
 37
0.0
 40
210.0
 41
1.4142857143
 42
50.0
 43
0.0
 44
0.0
 50
0.0
 51
0.0
 71
     0
 72
  2000
 73
     1
 74
     3
 75
     0
 76
     0
 77
     0
 78
     0
281
     0
 65
     1
110
0.0
120
0.0
130
0.0
111
1.0
121
0.0
131
0.0
112
0.0
122
1.0
132
0.0
 79
     0
146
0.0
  0
ENDTAB
  0
TABLE
  2
LTYPE
  5
5
330
0
100
AcDbSymbolTable
 70
     6
  0
LTYPE
  5
14
330
5
100
AcDbSymbolTableRecord
100
AcDbLinetypeTableRecord
  2
ByBlock
 70
     0
  3

 72
    65
 73
     0
 40
0.0
  0
LTYPE
  5
15
330
5
100
AcDbSymbolTableRecord
100
AcDbLinetypeTableRecord
  2
ByLayer
 70
     0
  3

 72
    65
 73
     0
 40
0.0
  0
LTYPE
  5
16
330
5
100
AcDbSymbolTableRecord
100
AcDbLinetypeTableRecord
  2
Continuous
 70
     0
  3
Solid line
 72
    65
 73
     0
 40
0.0
  0
LTYPE
  5
3B
330
5
100
AcDbSymbolTableRecord
100
AcDbLinetypeTableRecord
  2
HIDDEN
 70
     0
  3
Hidden __ __ __ __ __ __ __ __ __ __ __ __ __ __
 72
    65
 73
     2
 40
1.905
 49
1.27
 74
     0
 49
-0.635
 74
     0
  0
LTYPE
  5
3C
330
5
100
AcDbSymbolTableRecord
100
AcDbLinetypeTableRecord
  2
PHANTOM
 70
     0
  3
Phantom ______  __  __  ______  __  __  ______
 72
    65
 73
     6
 40
12.7
 49
6.35
 74
     0
 49
-1.27
 74
     0
 49
1.27
 74
     0
 49
-1.27
 74
     0
 49
1.27
 74
     0
 49
-1.27
 74
     0
  0
LTYPE
  5
3D
330
5
100
AcDbSymbolTableRecord
100
AcDbLinetypeTableRecord
  2
CENTER
 70
     0
  3
Center ____ _ ____ _ ____ _ ____ _ ____ _ ____
 72
    65
 73
     4
 40
10.16
 49
6.35
 74
     0
 49
-1.27
 74
     0
 49
1.27
 74
     0
 49
-1.27
 74
     0
  0
LTYPE
  5
3E
330
5
100
AcDbSymbolTableRecord
100
AcDbLinetypeTableRecord
  2
CENTERX2
 70
     0
  3
Center (2x) ________  __  ________  __  _____
 72
    65
 73
     4
 40
20.32
 49
12.7
 74
     0
 49
-2.54
 74
     0
 49
2.54
 74
     0
 49
-2.54
 74
     0
  0
LTYPE
  5
3F
330
5
100
AcDbSymbolTableRecord
100
AcDbLinetypeTableRecord
  2
DOT2
 70
     0
  3
Dot (.5x) ........................................
 72
    65
 73
     2
 40
0.635
 49
0.0
 74
     0
 49
-0.635
 74
     0
  0
ENDTAB
  0
TABLE
  2
LAYER
  5
2
330
0
100
AcDbSymbolTable
 70
     5
  0
LAYER
  5
10
330
2
100
AcDbSymbolTableRecord
100
AcDbLayerTableRecord
  2
0
 70
     0
 62
     7
  6
Continuous
370
    -3
390
F
  0
LAYER
  5
40
330
2
100
AcDbSymbolTableRecord
100
AcDbLayerTableRecord
  2
FORMAT
 70
     0
 62
     7
  6
Continuous
370
    -3
390
F
  0
LAYER
  5
41
330
2
100
AcDbSymbolTableRecord
100
AcDbLayerTableRecord
  2
VERMASSUNG
 70
     0
 62
     7
  6
Continuous
370
    -3
390
F
  0
LAYER
  5
42
330
2
100
AcDbSymbolTableRecord
100
AcDbLayerTableRecord
  2
KOPF_DÜNN
 70
     0
 62
     7
  6
Continuous
370
    -3
390
F
  0
LAYER
  5
43
330
2
100
AcDbSymbolTableRecord
100
AcDbLayerTableRecord
  2
KOPF_DICK
 70
     0
 62
     7
  6
Continuous
370
    15
390
F
  0
ENDTAB
  0
TABLE
  2
STYLE
  5
3
330
0
100
AcDbSymbolTable
 70
     3
  0
STYLE
  5
11
330
3
100
AcDbSymbolTableRecord
100
AcDbTextStyleTableRecord
  2
Standard
 70
     0
 40
0.0
 41
1.0
 50
0.0
 71
     0
 42
2.5
  3
txt
  4

  0
STYLE
  5
44
330
3
100
AcDbSymbolTableRecord
100
AcDbTextStyleTableRecord
  2
SLDTEXTSTYLE0
 70
     0
 40
0.0
 41
0.7
 50
0.0
 71
     0
 42
0.2
  3
TXT
  4

  0
STYLE
  5
48
330
3
100
AcDbSymbolTableRecord
100
AcDbTextStyleTableRecord
  2
SLDTEXTSTYLE1
 70
     0
 40
0.0
 41
0.65
 50
0.0
 71
     0
 42
0.2
  3
TXT
  4

  0
ENDTAB
  0
TABLE
  2
VIEW
  5
6
330
0
100
AcDbSymbolTable
 70
     0
  0
ENDTAB
  0
TABLE
  2
UCS
  5
7
330
0
100
AcDbSymbolTable
 70
     0
  0
ENDTAB
  0
TABLE
  2
APPID
  5
9
330
0
100
AcDbSymbolTable
 70
     1
  0
APPID
  5
12
330
9
100
AcDbSymbolTableRecord
100
AcDbRegAppTableRecord
  2
ACAD
 70
     0
  0
ENDTAB
  0
TABLE
  2
DIMSTYLE
  5
A
330
0
100
AcDbSymbolTable
 70
     2
100
AcDbDimStyleTable
  0
DIMSTYLE
105
27
330
A
100
AcDbSymbolTableRecord
100
AcDbDimStyleTableRecord
  2
ISO-25
 70
     0
 41
2.5
 42
0.625
 43
3.75
 44
1.25
 73
     0
 74
     0
 77
     1
 78
     8
140
2.5
141
2.5
143
0.0393700787
147
0.625
171
     3
172
     1
271
     2
272
     2
274
     3
278
    44
283
     0
284
     8
340
11
  0
DIMSTYLE
105
1AE
102
{ACAD_REACTORS
330
1AD
330
1BA
330
1C4
330
1CE
330
1D8
330
1E3
102
}
330
A
100
AcDbSymbolTableRecord
100
AcDbDimStyleTableRecord
  2
SLDDIMSTYLE0
 70
     0
 41
3.0
 44
0.0
 45
0.000000001
 73
     0
 74
     0
 77
     1
 78
    12
140
2.0
147
0.5
173
     1
271
     2
272
     3
284
    12
340
44
  0
ENDTAB
  0
TABLE
  2
BLOCK_RECORD
  5
1
330
0
100
AcDbSymbolTable
 70
     7
  0
BLOCK_RECORD
  5
1F
330
1
100
AcDbSymbolTableRecord
100
AcDbBlockTableRecord
  2
*Model_Space
340
22
  0
BLOCK_RECORD
  5
1B
330
1
100
AcDbSymbolTableRecord
100
AcDbBlockTableRecord
  2
*Paper_Space
340
1E
  0
BLOCK_RECORD
  5
23
330
1
100
AcDbSymbolTableRecord
100
AcDbBlockTableRecord
  2
*Paper_Space0
340
26
  0
BLOCK_RECORD
  5
1AF
330
1
100
AcDbSymbolTableRecord
100
AcDbBlockTableRecord
  2
*D1
340
0
  0
BLOCK_RECORD
  5
1BB
330
1
100
AcDbSymbolTableRecord
100
AcDbBlockTableRecord
  2
*D2
340
0
  0
BLOCK_RECORD
  5
1C5
330
1
100
AcDbSymbolTableRecord
100
AcDbBlockTableRecord
  2
*D3
340
0
  0
BLOCK_RECORD
  5
1CF
330
1
100
AcDbSymbolTableRecord
100
AcDbBlockTableRecord
  2
*D4
340
0
  0
BLOCK_RECORD
  5
1D9
330
1
100
AcDbSymbolTableRecord
100
AcDbBlockTableRecord
  2
*D5
340
0
  0
BLOCK_RECORD
  5
1E4
330
1
100
AcDbSymbolTableRecord
100
AcDbBlockTableRecord
  2
*D6
340
0
  0
ENDTAB
  0
ENDSEC
  0
SECTION
  2
BLOCKS
  0
BLOCK
  5
20
330
1F
100
AcDbEntity
  8
0
100
AcDbBlockBegin
  2
*Model_Space
 70
     0
 10
0.0
 20
0.0
 30
0.0
  3
*Model_Space
  1

  0
ENDBLK
  5
21
330
1F
100
AcDbEntity
  8
0
100
AcDbBlockEnd
  0
BLOCK
  5
1C
330
1B
100
AcDbEntity
 67
     1
  8
0
100
AcDbBlockBegin
  2
*Paper_Space
 70
     0
 10
0.0
 20
0.0
 30
0.0
  3
*Paper_Space
  1

  0
ENDBLK
  5
1D
330
1B
100
AcDbEntity
 67
     1
  8
0
100
AcDbBlockEnd
  0
BLOCK
  5
24
330
23
100
AcDbEntity
  8
0
100
AcDbBlockBegin
  2
*Paper_Space0
 70
     0
 10
0.0
 20
0.0
 30
0.0
  3
*Paper_Space0
  1

  0
ENDBLK
  5
25
330
23
100
AcDbEntity
  8
0
100
AcDbBlockEnd
  0
BLOCK
  5
1B0
330
1AF
100
AcDbEntity
  8
0
100
AcDbBlockBegin
  2
*D1
 70
     1
 10
0.0
 20
0.0
 30
0.0
  3
*D1
  1

  0
SOLID
  5
1B2
330
1AF
100
AcDbEntity
  8
VERMASSUNG
100
AcDbTrace
 10
66.360885129
 20
167.9750947908
 30
0.0
 11
65.910885129
 21
164.9750947908
 31
0.0
 12
66.810885129
 22
164.9750947908
 32
0.0
 13
66.810885129
 23
164.9750947908
 33
0.0
  0
SOLID
  5
1B3
330
1AF
100
AcDbEntity
  8
VERMASSUNG
100
AcDbTrace
 10
66.360885129
 20
67.9750947908
 30
0.0
 11
66.810885129
 21
70.9750947908
 31
0.0
 12
65.910885129
 22
70.9750947908
 32
0.0
 13
65.910885129
 23
70.9750947908
 33
0.0
  0
LINE
  5
1B4
330
1AF
100
AcDbEntity
  8
VERMASSUNG
100
AcDbLine
 10
121.8228176761
 20
167.9750947908
 30
0.0
 11
65.360885129
 21
167.9750947908
 31
0.0
  0
LINE
  5
1B5
330
1AF
100
AcDbEntity
  8
VERMASSUNG
100
AcDbLine
 10
121.8228176761
 20
67.9750947908
 30
0.0
 11
65.360885129
 21
67.9750947908
 31
0.0
  0
LINE
  5
1B6
330
1AF
100
AcDbEntity
  8
VERMASSUNG
100
AcDbLine
 10
66.360885129
 20
167.9750947908
 30
0.0
 11
66.360885129
 21
67.9750947908
 31
0.0
  0
MTEXT
  5
1B7
330
1AF
100
AcDbEntity
  8
VERMASSUNG
100
AcDbMText
 10
63.58274964
 20
109.7714436532
 30
0.0
 40
2.0
 41
0.0
 71
     1
 72
     1
  1
HSK A 
  7
SLDTEXTSTYLE0
 11
-7.044195017643634E-15
 21
1.0
 31
0.0
 73
     1
 44
1.0
  0
MTEXT
  5
1B8
330
1AF
100
AcDbEntity
  8
VERMASSUNG
100
AcDbMText
 10
63.7827496495
 20
118.771444197
 30
0.0
 40
2.0
 41
0.0
 71
     1
 72
     1
  1
%%c
  7
SLDTEXTSTYLE0
 11
-7.044195017643634E-15
 21
1.0
 31
0.0
 73
     1
 44
1.0
  0
MTEXT
  5
1B9
330
1AF
100
AcDbEntity
  8
VERMASSUNG
100
AcDbMText
 10
63.7827497659
 20
122.3797708471
 30
0.0
 40
2.0
 41
0.0
 71
     1
 72
     1
  1
100
  7
SLDTEXTSTYLE0
 11
-7.044195017643634E-15
 21
1.0
 31
0.0
 73
     1
 44
1.0
  0
ENDBLK
  5
1B1
330
1AF
100
AcDbEntity
  8
0
100
AcDbBlockEnd
  0
BLOCK
  5
1BC
330
1BB
100
AcDbEntity
  8
0
100
AcDbBlockBegin
  2
*D2
 70
     1
 10
0.0
 20
0.0
 30
0.0
  3
*D2
  1

  0
SOLID
  5
1BE
330
1BB
100
AcDbEntity
  8
VERMASSUNG
100
AcDbTrace
 10
71.4228176761
 20
181.9679970321
 30
0.0
 11
74.4228176761
 21
181.5179970321
 31
0.0
 12
74.4228176761
 22
182.4179970321
 32
0.0
 13
74.4228176761
 23
182.4179970321
 33
0.0
  0
SOLID
  5
1BF
330
1BB
100
AcDbEntity
  8
VERMASSUNG
100
AcDbTrace
 10
221.3228176761
 20
181.9679970321
 30
0.0
 11
218.3228176761
 21
182.4179970321
 31
0.0
 12
218.3228176761
 22
181.5179970321
 32
0.0
 13
218.3228176761
 23
181.5179970321
 33
0.0
  0
LINE
  5
1C0
330
1BB
100
AcDbEntity
  8
VERMASSUNG
100
AcDbLine
 10
71.4228176761
 20
148.4777645333
 30
0.0
 11
71.4228176761
 21
182.9679970321
 31
0.0
  0
LINE
  5
1C1
330
1BB
100
AcDbEntity
  8
VERMASSUNG
100
AcDbLine
 10
221.3228176761
 20
135.7009542691
 30
0.0
 11
221.3228176761
 21
182.9679970321
 31
0.0
  0
LINE
  5
1C2
330
1BB
100
AcDbEntity
  8
VERMASSUNG
100
AcDbLine
 10
71.4228176761
 20
181.9679970321
 30
0.0
 11
221.3228176761
 21
181.9679970321
 31
0.0
  0
MTEXT
  5
1C3
330
1BB
100
AcDbEntity
  8
VERMASSUNG
100
AcDbMText
 10
143.3733214681
 20
184.5461323953
 30
0.0
 40
2.0
 41
0.0
 71
     1
 72
     1
  1
149.9
  7
SLDTEXTSTYLE0
 73
     1
 44
1.0
  0
ENDBLK
  5
1BD
330
1BB
100
AcDbEntity
  8
0
100
AcDbBlockEnd
  0
BLOCK
  5
1C6
330
1C5
100
AcDbEntity
  8
0
100
AcDbBlockBegin
  2
*D3
 70
     1
 10
0.0
 20
0.0
 30
0.0
  3
*D3
  1

  0
SOLID
  5
1C8
330
1C5
100
AcDbEntity
  8
VERMASSUNG
100
AcDbTrace
 10
121.3228176761
 20
175.9679970321
 30
0.0
 11
124.3228176761
 21
175.5179970321
 31
0.0
 12
124.3228176761
 22
176.4179970321
 32
0.0
 13
124.3228176761
 23
176.4179970321
 33
0.0
  0
SOLID
  5
1C9
330
1C5
100
AcDbEntity
  8
VERMASSUNG
100
AcDbTrace
 10
221.3228176761
 20
175.9679970321
 30
0.0
 11
218.3228176761
 21
176.4179970321
 31
0.0
 12
218.3228176761
 22
175.5179970321
 32
0.0
 13
218.3228176761
 23
175.5179970321
 33
0.0
  0
LINE
  5
1CA
330
1C5
100
AcDbEntity
  8
VERMASSUNG
100
AcDbLine
 10
121.3228176761
 20
167.4750947908
 30
0.0
 11
121.3228176761
 21
176.9679970321
 31
0.0
  0
LINE
  5
1CB
330
1C5
100
AcDbEntity
  8
VERMASSUNG
100
AcDbLine
 10
221.3228176761
 20
135.7009542691
 30
0.0
 11
221.3228176761
 21
176.9679970321
 31
0.0
  0
LINE
  5
1CC
330
1C5
100
AcDbEntity
  8
VERMASSUNG
100
AcDbLine
 10
121.3228176761
 20
175.9679970321
 30
0.0
 11
221.3228176761
 21
175.9679970321
 31
0.0
  0
MTEXT
  5
1CD
330
1C5
100
AcDbEntity
  8
VERMASSUNG
100
AcDbMText
 10
169.4233301355
 20
178.5461323953
 30
0.0
 40
2.0
 41
0.0
 71
     1
 72
     1
  1
100
  7
SLDTEXTSTYLE0
 73
     1
 44
1.0
  0
ENDBLK
  5
1C7
330
1C5
100
AcDbEntity
  8
0
100
AcDbBlockEnd
  0
BLOCK
  5
1D0
330
1CF
100
AcDbEntity
  8
0
100
AcDbBlockBegin
  2
*D4
 70
     1
 10
0.0
 20
0.0
 30
0.0
  3
*D4
  1

  0
SOLID
  5
1D2
330
1CF
100
AcDbEntity
  8
VERMASSUNG
100
AcDbTrace
 10
150.2728176761
 20
169.9679970321
 30
0.0
 11
153.2728176761
 21
169.5179970321
 31
0.0
 12
153.2728176761
 22
170.4179970321
 32
0.0
 13
153.2728176761
 23
170.4179970321
 33
0.0
  0
SOLID
  5
1D3
330
1CF
100
AcDbEntity
  8
VERMASSUNG
100
AcDbTrace
 10
221.3228176761
 20
169.9679970321
 30
0.0
 11
218.3228176761
 21
170.4179970321
 31
0.0
 12
218.3228176761
 22
169.5179970321
 32
0.0
 13
218.3228176761
 23
169.5179970321
 33
0.0
  0
LINE
  5
1D4
330
1CF
100
AcDbEntity
  8
VERMASSUNG
100
AcDbLine
 10
150.2728176761
 20
165.9438346116
 30
0.0
 11
150.2728176761
 21
170.9679970321
 31
0.0
  0
LINE
  5
1D5
330
1CF
100
AcDbEntity
  8
VERMASSUNG
100
AcDbLine
 10
221.3228176761
 20
135.7009542691
 30
0.0
 11
221.3228176761
 21
170.9679970321
 31
0.0
  0
LINE
  5
1D6
330
1CF
100
AcDbEntity
  8
VERMASSUNG
100
AcDbLine
 10
150.2728176761
 20
169.9679970321
 30
0.0
 11
221.3228176761
 21
169.9679970321
 31
0.0
  0
MTEXT
  5
1D7
330
1CF
100
AcDbEntity
  8
VERMASSUNG
100
AcDbMText
 10
182.8981112839
 20
172.5461323953
 30
0.0
 40
2.0
 41
0.0
 71
     1
 72
     1
  1
71.05
  7
SLDTEXTSTYLE0
 73
     1
 44
1.0
  0
ENDBLK
  5
1D1
330
1CF
100
AcDbEntity
  8
0
100
AcDbBlockEnd
  0
BLOCK
  5
1DA
330
1D9
100
AcDbEntity
  8
0
100
AcDbBlockBegin
  2
*D5
 70
     1
 10
0.0
 20
0.0
 30
0.0
  3
*D5
  1

  0
SOLID
  5
1DC
330
1D9
100
AcDbEntity
  8
VERMASSUNG
100
AcDbTrace
 10
230.2025303992
 20
126.9750947908
 30
0.0
 11
229.7525303992
 21
123.9750947908
 31
0.0
 12
230.6525303992
 22
123.9750947908
 32
0.0
 13
230.6525303992
 23
123.9750947908
 33
0.0
  0
SOLID
  5
1DD
330
1D9
100
AcDbEntity
  8
VERMASSUNG
100
AcDbTrace
 10
230.2025303992
 20
108.9750947908
 30
0.0
 11
230.6525303992
 21
111.9750947908
 31
0.0
 12
229.7525303992
 22
111.9750947908
 32
0.0
 13
229.7525303992
 23
111.9750947908
 33
0.0
  0
LINE
  5
1DE
330
1D9
100
AcDbEntity
  8
VERMASSUNG
100
AcDbLine
 10
221.0228176761
 20
126.9750947908
 30
0.0
 11
231.2025303992
 21
126.9750947908
 31
0.0
  0
LINE
  5
1DF
330
1D9
100
AcDbEntity
  8
VERMASSUNG
100
AcDbLine
 10
221.0228176761
 20
108.9750947908
 30
0.0
 11
231.2025303992
 21
108.9750947908
 31
0.0
  0
LINE
  5
1E0
330
1D9
100
AcDbEntity
  8
VERMASSUNG
100
AcDbLine
 10
230.2025303992
 20
126.9750947908
 30
0.0
 11
230.2025303992
 21
108.9750947908
 31
0.0
  0
MTEXT
  5
1E1
330
1D9
100
AcDbEntity
  8
VERMASSUNG
100
AcDbMText
 10
227.6243949197
 20
114.970957196
 30
0.0
 40
2.0
 41
0.0
 71
     1
 72
     1
  1
%%c
  7
SLDTEXTSTYLE0
 11
-7.044195017643634E-15
 21
1.0
 31
0.0
 73
     1
 44
1.0
  0
MTEXT
  5
1E2
330
1D9
100
AcDbEntity
  8
VERMASSUNG
100
AcDbMText
 10
227.6243950361
 20
118.5796354191
 30
0.0
 40
2.0
 41
0.0
 71
     1
 72
     1
  1
18
  7
SLDTEXTSTYLE0
 11
-7.044195017643634E-15
 21
1.0
 31
0.0
 73
     1
 44
1.0
  0
ENDBLK
  5
1DB
330
1D9
100
AcDbEntity
  8
0
100
AcDbBlockEnd
  0
BLOCK
  5
1E5
330
1E4
100
AcDbEntity
  8
0
100
AcDbBlockBegin
  2
*D6
 70
     1
 10
0.0
 20
0.0
 30
0.0
  3
*D6
  1

  0
SOLID
  5
1E7
330
1E4
100
AcDbEntity
  8
VERMASSUNG
100
AcDbTrace
 10
236.2025303992
 20
141.9750947908
 30
0.0
 11
235.7525303992
 21
138.9750947908
 31
0.0
 12
236.6525303992
 22
138.9750947908
 32
0.0
 13
236.6525303992
 23
138.9750947908
 33
0.0
  0
SOLID
  5
1E8
330
1E4
100
AcDbEntity
  8
VERMASSUNG
100
AcDbTrace
 10
236.2025303992
 20
93.9750947908
 30
0.0
 11
236.6525303992
 21
96.9750947908
 31
0.0
 12
235.7525303992
 22
96.9750947908
 32
0.0
 13
235.7525303992
 23
96.9750947908
 33
0.0
  0
LINE
  5
1E9
330
1E4
100
AcDbEntity
  8
VERMASSUNG
100
AcDbLine
 10
210.6002830736
 20
141.9750947908
 30
0.0
 11
237.2025303992
 21
141.9750947908
 31
0.0
  0
LINE
  5
1EA
330
1E4
100
AcDbEntity
  8
VERMASSUNG
100
AcDbLine
 10
210.6002830736
 20
93.9750947908
 30
0.0
 11
237.2025303992
 21
93.9750947908
 31
0.0
  0
LINE
  5
1EB
330
1E4
100
AcDbEntity
  8
VERMASSUNG
100
AcDbLine
 10
236.2025303992
 20
141.9750947908
 30
0.0
 11
236.2025303992
 21
93.9750947908
 31
0.0
  0
MTEXT
  5
1EC
330
1E4
100
AcDbEntity
  8
VERMASSUNG
100
AcDbMText
 10
233.6243949197
 20
114.6715877485
 30
0.0
 40
2.0
 41
0.0
 71
     1
 72
     1
  1
%%c
  7
SLDTEXTSTYLE0
 11
-7.044195017643634E-15
 21
1.0
 31
0.0
 73
     1
 44
1.0
  0
MTEXT
  5
1ED
330
1E4
100
AcDbEntity
  8
VERMASSUNG
100
AcDbMText
 10
233.6243950361
 20
118.2802659717
 30
0.0
 40
2.0
 41
0.0
 71
     1
 72
     1
  1
48
  7
SLDTEXTSTYLE0
 11
-7.044195017643634E-15
 21
1.0
 31
0.0
 73
     1
 44
1.0
  0
ENDBLK
  5
1E6
330
1E4
100
AcDbEntity
  8
0
100
AcDbBlockEnd
  0
ENDSEC
  0
SECTION
  2
ENTITIES
  0
MTEXT
  5
45
330
1F
100
AcDbEntity
  8
KOPF_DÜNN
100
AcDbMText
 10
13.8892156294
 20
23.8442973028
 30
0.0
 40
3.0
 41
0.0
 71
     1
 72
     1
  1
HA0.W18.K21.100
  7
SLDTEXTSTYLE0
 73
     1
 44
1.0
  0
MTEXT
  5
46
330
1F
100
AcDbEntity
  8
VERMASSUNG
100
AcDbMText
 10
13.9329988022
 20
28.8834360957
 30
0.0
 40
3.0
 41
0.0
 71
     1
 72
     1
  1
Flächenspannfutter_End mill adapter Weldon ø18
  7
SLDTEXTSTYLE0
 73
     1
 44
1.0
  0
MTEXT
  5
47
330
1F
100
AcDbEntity
  8
VERMASSUNG
100
AcDbMText
 10
98.8601118557
 20
13.8365368179
 30
0.0
 40
2.0
 41
0.0
 71
     1
 72
     1
  1
Datum: 10.10.2006
  7
SLDTEXTSTYLE0
 73
     1
 44
1.0
  0
MTEXT
  5
49
330
1F
100
AcDbEntity
  8
VERMASSUNG
100
AcDbMText
 10
13.933048693
 20
18.0482802738
 30
0.0
 40
2.0
 41
0.0
 71
     1
 72
     1
  1
DIN 69 893 HSK A 100
  7
SLDTEXTSTYLE1
 73
     1
 44
1.0
  0
MTEXT
  5
4A
330
1F
100
AcDbEntity
  8
VERMASSUNG
100
AcDbMText
 10
13.9808475933
 20
13.9090973692
 30
0.0
 40
2.0
 41
0.0
 71
     1
 72
     1
  1
Gewicht: 2842g
  7
SLDTEXTSTYLE0
 73
     1
 44
1.0
  0
LINE
  5
4B
330
1F
100
AcDbEntity
  8
0
  6
Continuous
 62
     7
370
    15
100
AcDbLine
 10
121.8228176761
 20
67.9750947908
 30
0.0
 11
126.2728176761
 21
67.9750947908
 31
0.0
  0
LINE
  5
4C
330
1F
100
AcDbEntity
  8
0
  6
Continuous
 62
     7
370
    15
100
AcDbLine
 10
126.3068905086
 20
167.9750947908
 30
0.0
 11
121.8228176761
 21
167.9750947908
 31
0.0
  0
ARC
  5
4D
330
1F
100
AcDbEntity
  8
0
  6
Continuous
 62
     7
370
    15
100
AcDbCircle
 10
121.8228176761
 20
68.4750947908
 30
0.0
 40
0.5
100
AcDbArc
 50
180.0
 51
270.0
  0
ARC
  5
4E
330
1F
100
AcDbEntity
  8
0
  6
Continuous
 62
     7
370
    15
100
AcDbCircle
 10
121.8228176761
 20
167.4750947908
 30
0.0
 40
0.5
100
AcDbArc
 50
90.0
 51
180.0
  0
ARC
  5
4F
330
1F
100
AcDbEntity
  8
0
  6
Continuous
 62
     7
370
    15
100
AcDbCircle
 10
120.4258807577
 20
79.3466094663
 30
0.0
 40
0.9962338214386921
100
AcDbArc
 50
25.7988228126
 51
90.0
  0
ARC
  5
50
330
1F
100
AcDbEntity
  8
0
  6
Continuous
 62
     7
370
    15
100
AcDbCircle
 10
120.4258807577
 20
156.6035801152
 30
0.0
 40
0.9962338214386932
100
AcDbArc
 50
270.0
 51
334.2011771874
  0
LINE
  5
51
330
1F
100
AcDbEntity
  8
0
  6
Continuous
 62
     7
370
    15
100
AcDbLine
 10
118.8228176761
 20
80.0928432877
 30
0.0
 11
119.6286638305
 21
80.308769114
 31
0.0
  0
LINE
  5
52
330
1F
100
AcDbEntity
  8
0
  6
Continuous
 62
     7
370
    15
100
AcDbLine
 10
119.6286638305
 20
155.6414204675
 30
0.0
 11
118.8228176761
 21
155.8573462938
 31
0.0
  0
LINE
  5
53
330
1F
100
AcDbEntity
  8
0
  6
Continuous
 62
     7
370
    15
100
AcDbLine
 10
99.8421387575
 20
154.9064104762
 30
0.0
 11
81.5228176761
 21
153.9886088188
 31
0.0
  0
LINE
  5
54
330
1F
100
AcDbEntity
  8
0
  6
Continuous
 62
     7
370
    15
100
AcDbLine
 10
118.8228176761
 20
155.8573462938
 30
0.0
 11
112.7547785217
 21
155.5533363161
 31
0.0
  0
LINE
  5
55
330
1F
100
AcDbEntity
  8
0
  6
Continuous
 62
     7
370
    15
100
AcDbLine
 10
112.7549017981
 20
80.3968470892
 30
0.0
 11
118.8228176761
 21
80.0928432877
 31
0.0
  0
LINE
  5
56
330
1F
100
AcDbEntity
  8
0
  6
Continuous
 62
     7
370
    15
100
AcDbLine
 10
86.5228176761
 20
81.7110797607
 30
0.0
 11
99.8427688301
 21
81.0437475386
 31
0.0
  0
ARC
  5
57
330
1F
100
AcDbEntity
  8
0
  6
Continuous
 62
     7
370
    15
100
AcDbCircle
 10
119.8874828756
 20
79.3428432877
 30
0.0
 40
0.9999999999999858
100
AcDbArc
 50
90.0
 51
105.0
  0
ARC
  5
58
330
1F
100
AcDbEntity
  8
0
  6
Continuous
 62
     7
370
    15
100
AcDbCircle
 10
119.8874828756
 20
156.6073462938
 30
0.0
 40
0.9999999999999719
100
AcDbArc
 50
255.0
 51
270.0
  0
LINE
  5
59
330
1F
100
AcDbEntity
  8
0
  6
Continuous
 62
     7
370
    15
100
AcDbLine
 10
119.8874828756
 20
80.3428432877
 30
0.0
 11
120.4258807577
 21
80.3428432877
 31
0.0
  0
LINE
  5
5A
330
1F
100
AcDbEntity
  8
0
  6
Continuous
 62
     7
370
    15
100
AcDbLine
 10
120.4258807577
 20
155.6073462938
 30
0.0
 11
119.8874828756
 21
155.6073462938
 31
0.0
  0
ARC
  5
5B
330
1F
100
AcDbEntity
  8
0
  6
Continuous
 62
     7
370
    15
100
AcDbCircle
 10
155.2728176761
 20
88.9750947908
 30
0.0
 40
5.000000000000028
100
AcDbArc
 50
90.0
 51
180.0
  0
ARC
  5
5C
330
1F
100
AcDbEntity
  8
0
  6
Continuous
 62
     7
370
    15
100
AcDbCircle
 10
155.2728176761
 20
146.9750947908
 30
0.0
 40
5.000000000000028
100
AcDbArc
 50
180.0
 51
270.0
  0
LINE
  5
5D
330
1F
100
AcDbEntity
  8
0
  6
Continuous
 62
     7
370
    15
100
AcDbLine
 10
166.7609658674
 20
93.9750947908
 30
0.0
 11
210.6002830736
 21
93.9750947908
 31
0.0
  0
LINE
  5
5E
330
1F
100
AcDbEntity
  8
0
  6
Continuous
 62
     7
370
    15
100
AcDbLine
 10
155.2728176761
 20
93.9750947908
 30
0.0
 11
159.7750512792
 21
93.9750947908
 31
0.0
  0
LINE
  5
5F
330
1F
100
AcDbEntity
  8
0
  6
Continuous
 62
     7
370
    15
100
AcDbLine
 10
159.7846030467
 20
141.9750947908
 30
0.0
 11
155.2728176761
 21
141.9750947908
 31
0.0
  0
LINE
  5
60
330
1F
100
AcDbEntity
  8
0
  6
Continuous
 62
     7
370
    15
100
AcDbLine
 10
210.6002830736
 20
141.9750947908
 30
0.0
 11
166.7712912967
 21
141.9750947908
 31
0.0
  0
LINE
  5
61
330
1F
100
AcDbEntity
  8
0
  6
Continuous
 62
     7
370
    15
100
AcDbLine
 10
210.6002830736
 20
93.9750947908
 30
0.0
 11
220.1680541996
 21
98.4366197383
 31
0.0
  0
LINE
  5
62
330
1F
100
AcDbEntity
  8
0
  6
Continuous
 62
     7
370
    15
100
AcDbLine
 10
220.1680541996
 20
137.5135698432
 30
0.0
 11
210.6002830736
 21
141.9750947908
 31
0.0
  0
ARC
  5
63
330
1F
100
AcDbEntity
  8
0
  6
Continuous
 62
     7
370
    15
100
AcDbCircle
 10
219.3228176761
 20
100.2492353124
 30
0.0
 40
2.000000000000001
100
AcDbArc
 50
295.0
 51
0.0
  0
ARC
  5
64
330
1F
100
AcDbEntity
  8
0
  6
Continuous
 62
     7
370
    15
100
AcDbCircle
 10
219.3228176761
 20
135.7009542691
 30
0.0
 40
2.000000000000001
100
AcDbArc
 50
0.0
 51
65.0
  0
LINE
  5
65
330
1F
100
AcDbEntity
  8
0
  6
Continuous
 62
     7
370
    15
100
AcDbLine
 10
73.0728176761
 20
85.7250947908
 30
0.0
 11
84.6228176761
 21
85.7250947908
 31
0.0
  0
ARC
  5
66
330
1F
100
AcDbEntity
  8
0
  6
Continuous
 62
     7
370
    15
100
AcDbCircle
 10
84.6228176761
 20
83.8250947908
 30
0.0
 40
1.900000000000007
100
AcDbArc
 50
35.6630613694
 51
90.0
  0
ARC
  5
67
330
1F
100
AcDbEntity
  8
0
  6
Continuous
 62
     7
370
    15
100
AcDbCircle
 10
79.6228176761
 20
152.1250947908
 30
0.0
 40
1.899999999999996
100
AcDbArc
 50
270.0
 51
310.9212832533
  0
LINE
  5
68
330
1F
100
AcDbEntity
  8
0
  6
Continuous
 62
     7
370
    15
100
AcDbLine
 10
73.0728176761
 20
150.2250947908
 30
0.0
 11
71.4735015572
 21
148.6257786719
 31
0.0
  0
LINE
  5
69
330
1F
100
AcDbEntity
  8
0
  6
Continuous
 62
     7
370
    15
100
AcDbLine
 10
71.4743389272
 20
87.3235735397
 30
0.0
 11
73.0728176761
 21
85.7250947908
 31
0.0
  0
LINE
  5
6A
330
1F
100
AcDbEntity
  8
0
  6
Continuous
 62
     7
370
    15
100
AcDbLine
 10
79.6228176761
 20
150.2250947908
 30
0.0
 11
73.0728176761
 21
150.2250947908
 31
0.0
  0
LINE
  5
6B
330
1F
100
AcDbEntity
  8
0
  6
Continuous
 62
     7
370
    15
100
AcDbLine
 10
221.3228176761
 20
106.7386640477
 30
0.0
 11
221.3877186118
 21
106.8588445937
 31
0.0
  0
LINE
  5
6C
330
1F
100
AcDbEntity
  8
0
  6
Continuous
 62
     7
370
    15
100
AcDbLine
 10
221.3288288881
 20
129.0929810798
 30
0.0
 11
221.3228176761
 21
129.1041123637
 31
0.0
  0
LINE
  5
6D
330
1F
100
AcDbEntity
  8
0
  6
Continuous
 62
     7
370
    15
100
AcDbLine
 10
197.3842452402
 20
121.4113215322
 30
0.0
 11
194.6276718069
 21
119.3133932905
 31
0.0
  0
LINE
  5
6E
330
1F
100
AcDbEntity
  8
0
  6
Continuous
 62
     7
370
    15
100
AcDbLine
 10
195.0662442429
 20
115.8771665491
 30
0.0
 11
194.6276718069
 21
119.3133932905
 31
0.0
  0
LINE
  5
6F
330
1F
100
AcDbEntity
  8
0
  6
Continuous
 62
     7
370
    15
100
AcDbLine
 10
198.2613901121
 20
114.5388680493
 30
0.0
 11
195.0662442429
 21
115.8771665491
 31
0.0
  0
LINE
  5
70
330
1F
100
AcDbEntity
  8
0
  6
Continuous
 62
     7
370
    15
100
AcDbLine
 10
198.2613901121
 20
114.5388680493
 30
0.0
 11
201.0179635453
 21
116.636796291
 31
0.0
  0
LINE
  5
71
330
1F
100
AcDbEntity
  8
0
  6
Continuous
 62
     7
370
    15
100
AcDbLine
 10
200.5793911094
 20
120.0730230324
 30
0.0
 11
201.0179635453
 21
116.636796291
 31
0.0
  0
LINE
  5
72
330
1F
100
AcDbEntity
  8
0
  6
Continuous
 62
     7
370
    15
100
AcDbLine
 10
200.5793911094
 20
120.0730230324
 30
0.0
 11
197.3842452402
 21
121.4113215322
 31
0.0
  0
CIRCLE
  5
73
330
1F
100
AcDbEntity
  8
0
  6
Continuous
 62
     7
370
    15
100
AcDbCircle
 10
197.8228176761
 20
117.9750947908
 30
0.0
 40
5.999999999999983
  0
LINE
  5
74
330
1F
100
AcDbEntity
  8
0
  6
Continuous
 62
     7
370
    15
100
AcDbLine
 10
139.4128176761
 20
71.6037065037
 30
0.0
 11
139.4128176761
 21
149.3250947908
 31
0.0
  0
SPLINE
  5
75
330
1F
100
AcDbEntity
  8
0
  6
Continuous
 62
     7
370
    15
100
AcDbSpline
210
0.0
220
0.0
230
1.0
 70
     8
 71
     3
 72
     8
 73
     4
 74
     0
 42
0.00000001
 43
0.00000001
 40
0.0
 40
0.0
 40
0.0
 40
0.0
 40
1.0
 40
1.0
 40
1.0
 40
1.0
 10
139.4128176761259
 20
71.60370650372744
 30
0.0
 10
138.9625912118481
 20
70.80225114110267
 30
0.0
 10
138.5118933846047
 20
70.00106112954202
 30
0.0
 10
138.0607886552044
 20
69.2001011977221
 30
0.0
  0
LINE
  5
76
330
1F
100
AcDbEntity
  8
0
  6
Continuous
 62
     7
370
    15
100
AcDbLine
 10
138.0607886552
 20
69.2001011977
 30
0.0
 11
138.0607886552
 21
149.3250947908
 31
0.0
  0
SPLINE
  5
77
330
1F
100
AcDbEntity
  8
0
  6
Continuous
 62
     7
370
    15
100
AcDbSpline
210
0.0
220
0.0
230
1.0
 70
    24
 71
     3
 72
     8
 73
     4
 74
     0
 42
0.00000001
 43
0.00000001
 40
0.0
 40
0.0
 40
0.0
 40
0.0
 40
1.0
 40
1.0
 40
1.0
 40
1.0
 10
138.0607886552044
 20
149.3250947907509
 30
0.0
 10
138.5175902275327
 20
149.3250947907509
 30
0.0
 10
138.9686047937719
 20
149.3250947907509
 30
0.0
 10
139.4128176761259
 20
149.3250947907509
 30
0.0
  0
LINE
  5
78
330
1F
100
AcDbEntity
  8
0
  6
Continuous
 62
     7
370
    15
100
AcDbLine
 10
126.2728176761
 20
149.3250947908
 30
0.0
 11
138.0607886552
 21
149.3250947908
 31
0.0
  0
LINE
  5
79
330
1F
100
AcDbEntity
  8
0
  6
Continuous
 62
     7
370
    15
100
AcDbLine
 10
138.0607886552
 20
69.2001011977
 30
0.0
 11
136.2728176761
 21
69.2001011977
 31
0.0
  0
SPLINE
  5
7A
330
1F
100
AcDbEntity
  8
0
  6
Continuous
 62
     7
370
    15
100
AcDbSpline
210
0.0
220
0.0
230
1.0
 70
     8
 71
     3
 72
    30
 73
    26
 74
     0
 42
0.00000001
 43
0.00000001
 40
0.0
 40
0.0
 40
0.0
 40
0.0
 40
0.1250000000000002
 40
0.1250000000000002
 40
0.1875000000000003
 40
0.1875000000000003
 40
0.2500000000000004
 40
0.2500000000000004
 40
0.3750000000000001
 40
0.3750000000000001
 40
0.4374999999999998
 40
0.4374999999999998
 40
0.4999999999999996
 40
0.4999999999999996
 40
0.6249999999999996
 40
0.6249999999999996
 40
0.6874999999999997
 40
0.6874999999999997
 40
0.7499999999999997
 40
0.7499999999999997
 40
0.8124999999999998
 40
0.8124999999999998
 40
0.8749999999999999
 40
0.8749999999999999
 40
1.0
 40
1.0
 40
1.0
 40
1.0
 10
136.2728176761258
 20
69.2001011977221
 30
0.0
 10
135.6100729822808
 20
69.2001011977221
 30
0.0
 10
134.9588171231651
 20
69.1852611211333
 30
0.0
 10
133.9983665849068
 20
69.14289155690368
 30
0.0
 10
133.6809751416739
 20
69.1254134541245
 30
0.0
 10
133.051811640119
 20
69.0840851675722
 30
0.0
 10
132.7396634536773
 20
69.06015989411449
 30
0.0
 10
131.832356151829
 20
68.98135337764758
 30
0.0
 10
131.2589311941878
 20
68.91904735767113
 30
0.0
 10
130.4450543246131
 20
68.81591803743176
 30
0.0
 10
130.1802481280432
 20
68.77973411838525
 30
0.0
 10
129.6733407172289
 20
68.70593933418475
 30
0.0
 10
129.4319465658754
 20
68.6684654754131
 30
0.0
 10
128.7428050937431
 20
68.55575353207335
 30
0.0
 10
128.3297502788788
 20
68.4802174345996
 30
0.0
 10
127.7815954595038
 20
68.37182417758208
 30
0.0
 10
127.6121328521582
 20
68.33675194591882
 30
0.0
 10
127.3041156041428
 20
68.27051648531898
 30
0.0
 10
127.1647355835345
 20
68.23918978856425
 30
0.0
 10
126.9149500709077
 20
68.18078101698333
 30
0.0
 10
126.8045439582538
 20
68.15369778180047
 30
0.0
 10
126.6132861046161
 20
68.10443802718689
 30
0.0
 10
126.5321665863318
 20
68.08217604737924
 30
0.0
 10
126.3380196662234
 20
68.02460914021097
 30
0.0
 10
126.2728176761258
 20
67.99834953542496
 30
0.0
 10
126.2728176761258
 20
67.98509579095094
 30
0.0
  0
LINE
  5
7B
330
1F
100
AcDbEntity
  8
0
  6
Continuous
 62
     7
370
    15
100
AcDbLine
 10
126.2728176761
 20
67.985095791
 30
0.0
 11
126.2728176761
 21
67.9750947908
 31
0.0
  0
SPLINE
  5
7C
330
1F
100
AcDbEntity
  8
0
  6
Continuous
 62
     7
370
    15
100
AcDbSpline
210
0.0
220
0.0
230
1.0
 70
     8
 71
     3
 72
    17
 73
    13
 74
     0
 42
0.00000001
 43
0.00000001
 40
0.0
 40
0.0
 40
0.0
 40
0.0
 40
0.104384384054747
 40
0.2118345768143993
 40
0.316208200519045
 40
0.4235375806108392
 40
0.5292276236193852
 40
0.6379275864803491
 40
0.7444714844189683
 40
0.8541836219421859
 40
0.9593080534965217
 40
1.0
 40
1.0
 40
1.0
 40
1.0
 10
136.2728176761258
 20
166.9648896464145
 30
0.0
 10
135.7248792282665
 20
166.9702578501632
 30
0.0
 10
134.6129091738018
 20
166.9811519238282
 30
0.0
 10
133.0000532605868
 20
167.0663292980871
 30
0.0
 10
131.4665400436099
 20
167.1927040043797
 30
0.0
 10
130.0755191942732
 20
167.3496068249565
 30
0.0
 10
128.8400026770429
 20
167.521305654477
 30
0.0
 10
127.8166469098876
 20
167.6866419305781
 30
0.0
 10
127.0163049116225
 20
167.8303554101647
 30
0.0
 10
126.5059728097089
 20
167.9285102173438
 30
0.0
 10
126.2660643808844
 20
167.9764386142137
 30
0.0
 10
126.2979831603042
 20
167.9700712149741
 30
0.0
 10
126.3068905085864
 20
167.9682943098508
 30
0.0
  0
LINE
  5
7D
330
1F
100
AcDbEntity
  8
0
  6
Continuous
 62
     7
370
    15
100
AcDbLine
 10
138.0607886552
 20
166.9648896464
 30
0.0
 11
136.2728176761
 21
166.9648896464
 31
0.0
  0
LINE
  5
7E
330
1F
100
AcDbEntity
  8
0
  6
Continuous
 62
     7
370
    15
100
AcDbLine
 10
138.0607886552
 20
156.9260575516
 30
0.0
 11
138.0607886552
 21
166.9648896464
 31
0.0
  0
LINE
  5
7F
330
1F
100
AcDbEntity
  8
0
  6
Continuous
 62
     7
370
    15
100
AcDbLine
 10
135.9807845243
 20
156.9260575516
 30
0.0
 11
138.0607886552
 21
156.9260575516
 31
0.0
  0
SPLINE
  5
80
330
1F
100
AcDbEntity
  8
0
  6
Continuous
 62
     7
370
    15
100
AcDbSpline
210
0.0
220
0.0
230
1.0
 70
     8
 71
     3
 72
    22
 73
    18
 74
     0
 42
0.00000001
 43
0.00000001
 40
0.0
 40
0.0
 40
0.0
 40
0.0
 40
0.2500000000000002
 40
0.2500000000000002
 40
0.3750000000000003
 40
0.3750000000000003
 40
0.5000000000000004
 40
0.5000000000000004
 40
0.6250000000000004
 40
0.6250000000000004
 40
0.7500000000000004
 40
0.7500000000000004
 40
0.8750000000000004
 40
0.8750000000000004
 40
0.9375000000000002
 40
0.9375000000000002
 40
1.0
 40
1.0
 40
1.0
 40
1.0
 10
126.2728176761258
 20
149.3250947907509
 30
0.0
 10
126.4755426320449
 20
150.3443411326155
 30
0.0
 10
126.7902863538403
 20
151.3034492825548
 30
0.0
 10
127.4983418235113
 20
152.6459283600641
 30
0.0
 10
127.7768044537289
 20
153.0801369428041
 30
0.0
 10
128.4155718603661
 20
153.8917646583062
 30
0.0
 10
128.7759855401563
 20
154.2710449512431
 30
0.0
 10
129.5935177721456
 20
154.974003530264
 30
0.0
 10
130.0546857554327
 20
155.2990323479647
 30
0.0
 10
131.0526760019165
 20
155.8640476713555
 30
0.0
 10
131.5924351959088
 20
156.1077512655621
 30
0.0
 10
132.7670281599401
 20
156.511951193207
 30
0.0
 10
133.378764345932
 20
156.6643883862525
 30
0.0
 10
134.3306735707937
 20
156.8197159338612
 30
0.0
 10
134.6539067350544
 20
156.8592207139113
 30
0.0
 10
135.3129699063296
 20
156.91252983458
 30
0.0
 10
135.6470339169036
 20
156.9260575516379
 30
0.0
 10
135.9807845243051
 20
156.9260575516378
 30
0.0
  0
SPLINE
  5
81
330
1F
100
AcDbEntity
  8
0
  6
Continuous
 62
     7
370
    15
100
AcDbSpline
210
0.0
220
0.0
230
1.0
 70
     8
 71
     3
 72
    80
 73
    76
 74
     0
 42
0.00000001
 43
0.00000001
 40
-0.0312499999999993
 40
-0.0312499999999993
 40
0.0
 40
0.0
 40
0.03125
 40
0.03125
 40
0.046875
 40
0.046875
 40
0.0625
 40
0.0625
 40
0.09375
 40
0.09375
 40
0.1250000000000001
 40
0.1250000000000001
 40
0.1562500000000001
 40
0.1562500000000001
 40
0.1875000000000001
 40
0.1875000000000001
 40
0.2187500000000002
 40
0.2187500000000002
 40
0.2500000000000002
 40
0.2500000000000002
 40
0.2812500000000003
 40
0.2812500000000003
 40
0.3125000000000003
 40
0.3125000000000003
 40
0.3281250000000004
 40
0.3281250000000004
 40
0.3437500000000006
 40
0.3437500000000006
 40
0.3750000000000011
 40
0.3750000000000011
 40
0.4062500000000016
 40
0.4062500000000016
 40
0.4218750000000018
 40
0.4218750000000018
 40
0.437500000000002
 40
0.437500000000002
 40
0.4687500000000023
 40
0.4687500000000023
 40
0.5000000000000027
 40
0.5000000000000027
 40
0.531250000000003
 40
0.531250000000003
 40
0.5625000000000033
 40
0.5625000000000033
 40
0.5937500000000037
 40
0.5937500000000037
 40
0.6250000000000039
 40
0.6250000000000039
 40
0.6562500000000042
 40
0.6562500000000042
 40
0.6875000000000046
 40
0.6875000000000046
 40
0.7031250000000047
 40
0.7031250000000047
 40
0.7187500000000048
 40
0.7187500000000048
 40
0.7500000000000048
 40
0.7500000000000048
 40
0.7812500000000048
 40
0.7812500000000048
 40
0.7968750000000044
 40
0.7968750000000044
 40
0.8125000000000041
 40
0.8125000000000041
 40
0.8437500000000034
 40
0.8437500000000034
 40
0.8750000000000027
 40
0.8750000000000027
 40
0.906250000000002
 40
0.906250000000002
 40
0.9375000000000013
 40
0.9375000000000013
 40
0.9687500000000007
 40
0.9687500000000007
 40
1.0
 40
1.0
 40
1.03125
 40
1.03125
 10
130.6533629889022
 20
161.3897242543822
 30
0.0
 10
129.9922723633495
 20
161.3897242543822
 30
0.0
 10
129.6672922340979
 20
161.4059324857643
 30
0.0
 10
129.1878188228515
 20
161.4532971177839
 30
0.0
 10
129.0293370050107
 20
161.4729513296746
 30
0.0
 10
128.7151174725064
 20
161.5200624858672
 30
0.0
 10
128.558997188826
 20
161.5476438053619
 30
0.0
 10
128.1049431598694
 20
161.6401795921556
 30
0.0
 10
127.8178397769296
 20
161.7152500257522
 30
0.0
 10
127.2744852209026
 20
161.8904883343628
 30
0.0
 10
127.017381609697
 20
161.9914896322011
 30
0.0
 10
126.5564753547582
 20
162.2088458306619
 30
0.0
 10
126.3495776455432
 20
162.3260101624341
 30
0.0
 10
125.9840523315511
 20
162.5760800866628
 30
0.0
 10
125.8288468094251
 20
162.7070261754218
 30
0.0
 10
125.5794164228254
 20
162.9727611191341
 30
0.0
 10
125.4833264670402
 20
163.1095147124451
 30
0.0
 10
125.3548076178466
 20
163.3835802872841
 30
0.0
 10
125.3229967476688
 20
163.5185203777529
 30
0.0
 10
125.3226400978956
 20
163.7839920148216
 30
0.0
 10
125.3551373500926
 20
163.9158164919629
 30
0.0
 10
125.4827628238071
 20
164.1652660915833
 30
0.0
 10
125.577191224859
 20
164.2836987835113
 30
0.0
 10
125.7650520448446
 20
164.4525679806054
 30
0.0
 10
125.8358800436478
 20
164.5076539757256
 30
0.0
 10
125.990601935613
 20
164.612906804214
 30
0.0
 10
126.0745784057964
 20
164.6632420329743
 30
0.0
 10
126.3459020754409
 20
164.8078178655124
 30
0.0
 10
126.5524512940432
 20
164.8956794519294
 30
0.0
 10
127.0190614342322
 20
165.0554005449289
 30
0.0
 10
127.2714270038577
 20
165.1246388413961
 30
0.0
 10
127.6773283455364
 20
165.2144262306259
 30
0.0
 10
127.8172289630139
 20
165.2419921927122
 30
0.0
 10
128.1064528982608
 20
165.2924829936385
 30
0.0
 10
128.2562923545501
 20
165.3154464324891
 30
0.0
 10
128.7104089241608
 20
165.376076948908
 30
0.0
 10
129.0220601428977
 20
165.4061509777038
 30
0.0
 10
129.6630566078101
 20
165.4467405649625
 30
0.0
 10
129.9945842357623
 20
165.4570527951786
 30
0.0
 10
130.6473752808338
 20
165.4571283623443
 30
0.0
 10
130.9719114858656
 20
165.4472267568765
 30
0.0
 10
131.617180935282
 20
165.4067402263513
 30
0.0
 10
131.9329239414447
 20
165.3762789264666
 30
0.0
 10
132.5348132364284
 20
165.29612825503
 30
0.0
 10
132.8255624672399
 20
165.2458460232228
 30
0.0
 10
133.3724742589244
 20
165.1251758404499
 30
0.0
 10
133.6242516227613
 20
165.0559519812799
 30
0.0
 10
134.0856396153824
 20
164.8985002536392
 30
0.0
 10
134.2969088949805
 20
164.8091517789655
 30
0.0
 10
134.6602132473567
 20
164.6159039082646
 30
0.0
 10
134.8140198957995
 20
164.5117759163853
 30
0.0
 10
135.0026393653969
 20
164.3431515302019
 30
0.0
 10
135.058669851606
 20
164.2845231285269
 30
0.0
 10
135.1542436133422
 20
164.1650682137007
 30
0.0
 10
135.1940065303672
 20
164.1041484248625
 30
0.0
 10
135.2897782806793
 20
163.9177436986886
 30
0.0
 10
135.3225011198054
 20
163.7886308808936
 30
0.0
 10
135.3231297061345
 20
163.5199739579377
 30
0.0
 10
135.2909435613998
 20
163.3846032171809
 30
0.0
 10
135.1960328595441
 20
163.181052908945
 30
0.0
 10
135.1565660761452
 20
163.1130809848815
 30
0.0
 10
135.0616360774243
 20
162.9769887617506
 30
0.0
 10
135.0058792496609
 20
162.9086386615412
 30
0.0
 10
134.8179391316911
 20
162.7079356484991
 30
0.0
 10
134.6645776619749
 20
162.5785473746864
 30
0.0
 10
134.3023134270945
 20
162.3298819426365
 30
0.0
 10
134.0914649536286
 20
162.2100723002683
 30
0.0
 10
133.6307949833097
 20
161.9925500126957
 30
0.0
 10
133.3794206037259
 20
161.8934649128597
 30
0.0
 10
132.8335127168278
 20
161.7167924389429
 30
0.0
 10
132.5426901421765
 20
161.6407353508089
 30
0.0
 10
131.9413635273965
 20
161.5178903734559
 30
0.0
 10
131.6268449427841
 20
161.4701842484028
 30
0.0
 10
130.9802634866642
 20
161.4059357132832
 30
0.0
 10
130.6533629889022
 20
161.3897242543822
 30
0.0
 10
129.9922723633495
 20
161.3897242543822
 30
0.0
  0
LINE
  5
82
330
1F
100
AcDbEntity
  8
0
  6
Continuous
 62
     7
370
    15
100
AcDbLine
 10
121.3228176761
 20
68.4750947908
 30
0.0
 11
121.3228176761
 21
167.475094786
 31
0.0
  0
LINE
  5
83
330
1F
100
AcDbEntity
  8
0
  6
Continuous
 62
     7
370
    15
100
AcDbLine
 10
144.584846697
 20
69.2001011977
 30
0.0
 11
144.584846697
 21
149.3250947908
 31
0.0
  0
SPLINE
  5
84
330
1F
100
AcDbEntity
  8
0
  6
Continuous
 62
     7
370
    15
100
AcDbSpline
210
0.0
220
0.0
230
1.0
 70
     8
 71
     3
 72
     8
 73
     4
 74
     0
 42
0.00000001
 43
0.00000001
 40
0.0
 40
0.0
 40
0.0
 40
0.0
 40
1.0
 40
1.0
 40
1.0
 40
1.0
 10
144.5848466970473
 20
69.2001011977221
 30
0.0
 10
144.133741967647
 20
70.00106112954202
 30
0.0
 10
143.6830441404036
 20
70.80225114110267
 30
0.0
 10
143.2328176761258
 20
71.60370650372744
 30
0.0
  0
LINE
  5
85
330
1F
100
AcDbEntity
  8
0
  6
Continuous
 62
     7
370
    15
100
AcDbLine
 10
143.2328176761
 20
71.6037065037
 30
0.0
 11
143.2328176761
 21
149.3250947908
 31
0.0
  0
SPLINE
  5
86
330
1F
100
AcDbEntity
  8
0
  6
Continuous
 62
     7
370
    15
100
AcDbSpline
210
0.0
220
0.0
230
1.0
 70
    24
 71
     3
 72
     8
 73
     4
 74
     0
 42
0.00000001
 43
0.00000001
 40
0.0
 40
0.0
 40
0.0
 40
0.0
 40
1.0
 40
1.0
 40
1.0
 40
1.0
 10
143.2328176761259
 20
149.3250947907509
 30
0.0
 10
143.6770305584798
 20
149.3250947907509
 30
0.0
 10
144.128045124719
 20
149.3250947907509
 30
0.0
 10
144.5848466970473
 20
149.3250947907509
 30
0.0
  0
LINE
  5
87
330
1F
100
AcDbEntity
  8
0
  6
Continuous
 62
     7
370
    15
100
AcDbLine
 10
150.2728176761
 20
70.2257492455
 30
0.0
 11
150.2728176761
 21
149.3250947908
 31
0.0
  0
SPLINE
  5
88
330
1F
100
AcDbEntity
  8
0
  6
Continuous
 62
     7
370
    15
100
AcDbSpline
210
0.0
220
0.0
230
1.0
 70
     8
 71
     3
 72
    14
 73
    10
 74
     0
 42
0.00000001
 43
0.00000001
 40
0.0
 40
0.0
 40
0.0
 40
0.0
 40
0.25
 40
0.25
 40
0.5
 40
0.5
 40
0.75
 40
0.75
 40
1.0
 40
1.0
 40
1.0
 40
1.0
 10
150.2728176761258
 20
70.2257492454976
 30
0.0
 10
150.2728176761258
 20
70.09232354944305
 30
0.0
 10
150.247506576215
 20
69.96047574159873
 30
0.0
 10
150.1491718123702
 20
69.7139531929046
 30
0.0
 10
150.0760278081142
 20
69.60014800466408
 30
0.0
 10
149.8925897470185
 20
69.40969082771679
 30
0.0
 10
149.7809034126799
 20
69.33205596386688
 30
0.0
 10
149.5383999823736
 20
69.2277645537544
 30
0.0
 10
149.4050255536794
 20
69.20010119772205
 30
0.0
 10
149.2728176761258
 20
69.20010119772206
 30
0.0
  0
SPLINE
  5
89
330
1F
100
AcDbEntity
  8
0
  6
Continuous
 62
     7
370
    15
100
AcDbSpline
210
0.0
220
0.0
230
1.0
 70
    24
 71
     3
 72
    12
 73
     8
 74
     0
 42
0.00000001
 43
0.00000001
 40
0.0
 40
0.0
 40
0.0
 40
0.0
 40
0.2500000000000032
 40
0.2500000000000032
 40
0.5000000000000064
 40
0.5000000000000064
 40
1.0
 40
1.0
 40
1.0
 40
1.0
 10
149.2728176761258
 20
149.3250947907509
 30
0.0
 10
149.4249079130708
 20
149.3250947907509
 30
0.0
 10
149.5733671741463
 20
149.3250947907509
 30
0.0
 10
149.830770806412
 20
149.3250947907509
 30
0.0
 10
149.9398755542539
 20
149.3250947907509
 30
0.0
 10
150.1939350306614
 20
149.3250947907509
 30
0.0
 10
150.2728176761258
 20
149.3250947907509
 30
0.0
 10
150.2728176761258
 20
149.3250947907509
 30
0.0
  0
LINE
  5
8A
330
1F
100
AcDbEntity
  8
0
  6
Continuous
 62
     7
370
    15
100
AcDbLine
 10
149.2728176761
 20
69.2001011977
 30
0.0
 11
144.584846697
 21
69.2001011977
 31
0.0
  0
LINE
  5
8B
330
1F
100
AcDbEntity
  8
0
  6
Continuous
 62
     7
370
    15
100
AcDbLine
 10
144.584846697
 20
149.3250947908
 30
0.0
 11
149.2728176761
 21
149.3250947908
 31
0.0
  0
SPLINE
  5
8C
330
1F
100
AcDbEntity
  8
0
  6
Continuous
 62
     7
370
    15
100
AcDbSpline
210
0.0
220
0.0
230
1.0
 70
     8
 71
     3
 72
    14
 73
    10
 74
     0
 42
0.00000001
 43
0.00000001
 40
0.0
 40
0.0
 40
0.0
 40
0.0
 40
0.25
 40
0.25
 40
0.5
 40
0.5
 40
0.75
 40
0.75
 40
1.0
 40
1.0
 40
1.0
 40
1.0
 10
143.2328176761259
 20
72.51191600835602
 30
0.0
 10
143.2328176761259
 20
72.6189600893504
 30
0.0
 10
143.2126999889677
 20
72.72419522959284
 30
0.0
 10
143.1342087997021
 20
72.92204571644054
 30
0.0
 10
143.0760521749009
 20
73.01309748000546
 30
0.0
 10
142.9295369192828
 20
73.16626357393024
 30
0.0
 10
142.8408943706417
 20
73.22855802013964
 30
0.0
 10
142.6451710478414
 20
73.31335180567564
 30
0.0
 10
142.5399398567704
 20
73.33541933270125
 30
0.0
 10
142.4328176761259
 20
73.33541933270126
 30
0.0
  0
SPLINE
  5
8D
330
1F
100
AcDbEntity
  8
0
  6
Continuous
 62
     7
370
    15
100
AcDbSpline
210
0.0
220
0.0
230
1.0
 70
    24
 71
     3
 72
    14
 73
    10
 74
     0
 42
0.00000001
 43
0.00000001
 40
0.0
 40
0.0
 40
0.0
 40
0.0
 40
0.25
 40
0.25
 40
0.5
 40
0.5
 40
0.75
 40
0.75
 40
1.0
 40
1.0
 40
1.0
 40
1.0
 10
142.4328176761259
 20
149.3250947907509
 30
0.0
 10
142.556587440891
 20
149.3250947907509
 30
0.0
 10
142.6809545448979
 20
149.3250947907509
 30
0.0
 10
142.8873110136239
 20
149.3250947907509
 30
0.0
 10
142.9726391570423
 20
149.3250947907509
 30
0.0
 10
143.1048312157575
 20
149.3250947907509
 30
0.0
 10
143.1534764595081
 20
149.3250947907509
 30
0.0
 10
143.2170122512368
 20
149.3250947907509
 30
0.0
 10
143.2328176761259
 20
149.3250947907509
 30
0.0
 10
143.2328176761259
 20
149.3250947907509
 30
0.0
  0
SPLINE
  5
8E
330
1F
100
AcDbEntity
  8
0
  6
Continuous
 62
     7
370
    15
100
AcDbSpline
210
0.0
220
0.0
230
1.0
 70
     8
 71
     3
 72
    12
 73
     8
 74
     0
 42
0.00000001
 43
0.00000001
 40
0.0
 40
0.0
 40
0.0
 40
0.0
 40
0.25
 40
0.25
 40
0.5
 40
0.5
 40
1.0
 40
1.0
 40
1.0
 40
1.0
 10
140.2128176761258
 20
73.33541933270126
 30
0.0
 10
140.1070570227769
 20
73.33541933270124
 30
0.0
 10
139.999069394594
 20
73.31287982670085
 30
0.0
 10
139.8044747293284
 20
73.22830919470555
 30
0.0
 10
139.7156028164895
 20
73.16582754194675
 30
0.0
 10
139.4964105241637
 20
72.9364385904746
 30
0.0
 10
139.4128176761258
 20
72.7238552529522
 30
0.0
 10
139.4128176761258
 20
72.51191600835602
 30
0.0
  0
SPLINE
  5
8F
330
1F
100
AcDbEntity
  8
0
  6
Continuous
 62
     7
370
    15
100
AcDbSpline
210
0.0
220
0.0
230
1.0
 70
    24
 71
     3
 72
    14
 73
    10
 74
     0
 42
0.00000001
 43
0.00000001
 40
0.0
 40
0.0
 40
0.0
 40
0.0
 40
0.25
 40
0.25
 40
0.5
 40
0.5
 40
0.75
 40
0.75
 40
1.0
 40
1.0
 40
1.0
 40
1.0
 10
139.4128176761259
 20
149.3250947907509
 30
0.0
 10
139.4128176761258
 20
149.3250947907509
 30
0.0
 10
139.4285319965918
 20
149.3250947907509
 30
0.0
 10
139.4922159750602
 20
149.3250947907509
 30
0.0
 10
139.5408191694706
 20
149.3250947907509
 30
0.0
 10
139.6735026918962
 20
149.3250947907509
 30
0.0
 10
139.7586047962069
 20
149.3250947907509
 30
0.0
 10
139.9650470311169
 20
149.3250947907509
 30
0.0
 10
140.0891279727399
 20
149.3250947907509
 30
0.0
 10
140.2128176761258
 20
149.3250947907509
 30
0.0
  0
LINE
  5
90
330
1F
100
AcDbEntity
  8
0
  6
Continuous
 62
     7
370
    15
100
AcDbLine
 10
142.4328176761
 20
73.3354193327
 30
0.0
 11
140.2128176761
 21
73.3354193327
 31
0.0
  0
LINE
  5
91
330
1F
100
AcDbEntity
  8
0
  6
Continuous
 62
     7
370
    15
100
AcDbLine
 10
140.2128176761
 20
149.3250947908
 30
0.0
 11
142.4328176761
 21
149.3250947908
 31
0.0
  0
LINE
  5
92
330
1F
100
AcDbEntity
  8
0
  6
Continuous
 62
     7
370
    15
100
AcDbLine
 10
118.8228176761
 20
80.0928432877
 30
0.0
 11
118.8228176761
 21
155.8573462938
 31
0.0
  0
LINE
  5
93
330
1F
100
AcDbEntity
  8
0
  6
Continuous
 62
     7
370
    15
100
AcDbLine
 10
86.5228176761
 20
81.7110797607
 30
0.0
 11
86.5228176761
 21
84.1057615254
 31
0.0
  0
SPLINE
  5
94
330
1F
100
AcDbEntity
  8
0
  6
Continuous
 62
     7
370
    15
100
AcDbSpline
210
0.0
220
0.0
230
1.0
 70
     8
 71
     3
 72
    14
 73
    10
 74
     0
 42
0.00000001
 43
0.00000001
 40
0.0
 40
0.0
 40
0.0
 40
0.0
 40
0.25
 40
0.25
 40
0.5
 40
0.5
 40
0.75
 40
0.75
 40
1.0
 40
1.0
 40
1.0
 40
1.0
 10
85.51839520478889
 20
85.80861344700737
 30
0.0
 10
85.6071637827342
 20
85.65007931569943
 30
0.0
 10
85.72888162141312
 20
85.49763663881086
 30
0.0
 10
85.96393123126995
 20
85.20050201498195
 30
0.0
 10
86.07956141748684
 20
85.05581937136458
 30
0.0
 10
86.27996635091468
 20
84.77253016886118
 30
0.0
 10
86.36536664289898
 20
84.63397617582433
 30
0.0
 10
86.48707227661623
 20
84.36259214579079
 30
0.0
 10
86.52281767612887
 20
84.23045627715616
 30
0.0
 10
86.52281767612885
 20
84.1057615253854
 30
0.0
  0
SPLINE
  5
95
330
1F
100
AcDbEntity
  8
0
  6
Continuous
 62
     7
370
    15
100
AcDbSpline
210
0.0
220
0.0
230
1.0
 70
     8
 71
     3
 72
    14
 73
    10
 74
     0
 42
0.00000001
 43
0.00000001
 40
0.0
 40
0.0
 40
0.0
 40
0.0
 40
0.124999999999999
 40
0.124999999999999
 40
0.249999999999998
 40
0.249999999999998
 40
0.5000000000000007
 40
0.5000000000000007
 40
1.0
 40
1.0
 40
1.0
 40
1.0
 10
84.62281767612583
 20
86.43744338610747
 30
0.0
 10
84.69039997591034
 20
86.44459927120887
 30
0.0
 10
84.76288755365825
 20
86.44017480116986
 30
0.0
 10
84.89517866292418
 20
86.41046864339953
 30
0.0
 10
84.95245604231435
 20
86.38718436182128
 30
0.0
 10
85.10210646951464
 20
86.30969912197097
 30
0.0
 10
85.17581976503614
 20
86.24784729506959
 30
0.0
 10
85.36362774836238
 20
86.06316984242127
 30
0.0
 10
85.44766805472382
 20
85.93492691913008
 30
0.0
 10
85.5183952047901
 20
85.80861344700747
 30
0.0
  0
SPLINE
  5
96
330
1F
100
AcDbEntity
  8
0
  6
Continuous
 62
     7
370
    15
100
AcDbSpline
210
0.0
220
0.0
230
1.0
 70
     8
 71
     3
 72
     8
 73
     4
 74
     0
 42
0.00000001
 43
0.00000001
 40
0.0
 40
0.0
 40
0.0
 40
0.0
 40
1.0
 40
1.0
 40
1.0
 40
1.0
 10
81.07817728804505
 20
86.01939480131571
 30
0.0
 10
82.24347559875393
 20
86.17458227320232
 30
0.0
 10
83.42809081279374
 20
86.31094091151265
 30
0.0
 10
84.62281767612583
 20
86.43744338610747
 30
0.0
  0
SPLINE
  5
97
330
1F
100
AcDbEntity
  8
0
  6
Continuous
 62
     7
370
    15
100
AcDbSpline
210
0.0
220
0.0
230
1.0
 70
     8
 71
     3
 72
    14
 73
    10
 74
     0
 42
0.00000001
 43
0.00000001
 40
0.0
 40
0.0
 40
0.0
 40
0.0
 40
0.4999999999999972
 40
0.4999999999999972
 40
0.7499999999999971
 40
0.7499999999999971
 40
0.8749999999999986
 40
0.8749999999999986
 40
1.0
 40
1.0
 40
1.0
 40
1.0
 10
73.32274279209715
 20
85.72926262218577
 30
0.0
 10
74.63104435463089
 20
85.7362773459269
 30
0.0
 10
75.93610372928771
 20
85.7516859223714
 30
0.0
 10
77.88197978077604
 20
85.80558247783807
 30
0.0
 10
78.52867728451503
 20
85.82861404244076
 30
0.0
 10
79.49251964836937
 20
85.87955656731151
 30
0.0
 10
79.81275834030345
 20
85.8992914895447
 30
0.0
 10
80.44945356664586
 20
85.94877861801628
 30
0.0
 10
80.76616897492877
 20
85.9778433969455
 30
0.0
 10
81.07817728804508
 20
86.01939480131566
 30
0.0
  0
SPLINE
  5
98
330
1F
100
AcDbEntity
  8
0
  6
Continuous
 62
     7
370
    15
100
AcDbSpline
210
0.0
220
0.0
230
1.0
 70
     8
 71
     3
 72
    12
 73
     8
 74
     0
 42
0.00000001
 43
0.00000001
 40
0.0
 40
0.0
 40
0.0
 40
0.0
 40
0.2500000000000009
 40
0.2500000000000009
 40
0.5000000000000018
 40
0.5000000000000018
 40
1.0
 40
1.0
 40
1.0
 40
1.0
 10
79.62281767612585
 20
150.0616176822473
 30
0.0
 10
79.10411885429767
 20
150.0941404570956
 30
0.0
 10
78.58240728109267
 20
150.117437198266
 30
0.0
 10
77.53611526459709
 20
150.1552827126881
 30
0.0
 10
77.01144363892682
 20
150.1695511871843
 30
0.0
 10
75.4345976163876
 20
150.2037606746426
 30
0.0
 10
74.37964230184069
 20
150.2152601785865
 30
0.0
 10
73.32274279209545
 20
150.220926959316
 30
0.0
  0
SPLINE
  5
99
330
1F
100
AcDbEntity
  8
0
  6
Continuous
 62
     7
370
    15
100
AcDbSpline
210
0.0
220
0.0
230
1.0
 70
     8
 71
     3
 72
    20
 73
    16
 74
     0
 42
0.00000001
 43
0.00000001
 40
0.0
 40
0.0
 40
0.0
 40
0.0
 40
0.2500000000000011
 40
0.2500000000000011
 40
0.5000000000000021
 40
0.5000000000000021
 40
0.7500000000000031
 40
0.7500000000000031
 40
0.8750000000000008
 40
0.8750000000000008
 40
0.9375000000000006
 40
0.9375000000000006
 40
0.9687500000000003
 40
0.9687500000000003
 40
1.0
 40
1.0
 40
1.0
 40
1.0
 10
81.52281767612585
 20
151.7197035277355
 30
0.0
 10
81.52281767612585
 20
151.5840212079887
 30
0.0
 10
81.47410588690921
 20
151.4429342218486
 30
0.0
 10
81.30494446368402
 20
151.1508625031181
 30
0.0
 10
81.18316404976572
 20
150.9992137610277
 30
0.0
 10
80.8856169550162
 20
150.6968053208745
 30
0.0
 10
80.71170434931344
 20
150.5442166847513
 30
0.0
 10
80.3922895154316
 20
150.3189459209089
 30
0.0
 10
80.27724873998434
 20
150.2442228263982
 30
0.0
 10
80.07016441596792
 20
150.1448124171412
 30
0.0
 10
79.99405658116154
 20
150.1132473247966
 30
0.0
 10
79.86266204160819
 20
150.0788039406037
 30
0.0
 10
79.81610882260674
 20
150.069752368836
 30
0.0
 10
79.71977547152602
 20
150.0595767199976
 30
0.0
 10
79.67051604817057
 20
150.0586269613225
 30
0.0
 10
79.62281767612386
 20
150.0616176822371
 30
0.0
  0
LINE
  5
9A
330
1F
100
AcDbEntity
  8
0
  6
Continuous
 62
     7
370
    15
100
AcDbLine
 10
81.5228176761
 20
151.7197035277
 30
0.0
 11
81.5228176761
 21
153.9886088188
 31
0.0
  0
SPLINE
  5
9B
330
1F
100
AcDbEntity
  8
0
  6
Continuous
 62
     7
370
    15
100
AcDbSpline
210
0.0
220
0.0
230
1.0
 70
     8
 71
     3
 72
    24
 73
    20
 74
     0
 42
0.00000001
 43
0.00000001
 40
0.0
 40
0.0
 40
0.0
 40
0.0
 40
0.0002934293894791
 40
0.062808005175641
 40
0.1260453927228619
 40
0.18907467666103
 40
0.2513200540860133
 40
0.3133304633786588
 40
0.3759158453762907
 40
0.4383740564599686
 40
0.5000631094857209
 40
0.5616593988040849
 40
0.6245050380644152
 40
0.6872231506510951
 40
0.7494953263230465
 40
0.8117583797535242
 40
0.8747365508229858
 40
0.9378980306234599
 40
1.0
 40
1.0
 40
1.0
 40
1.0
 10
99.84277393996527
 20
81.04384953243854
 30
0.0
 10
99.8425790870805
 20
81.04382522504456
 30
0.0
 10
99.80087119606934
 20
81.03862227339035
 30
0.0
 10
99.94598958759977
 20
81.05725689672084
 30
0.0
 10
100.301068529139
 20
81.09977667526958
 30
0.0
 10
100.9056441666822
 20
81.16791295887141
 30
0.0
 10
101.7120794754984
 20
81.24116849588728
 30
0.0
 10
102.6975568994173
 20
81.30568783670516
 30
0.0
 10
103.8292264960969
 20
81.34425206476624
 30
0.0
 10
105.0515189662592
 20
81.34794657076763
 30
0.0
 10
106.318847647711
 20
81.30552059071866
 30
0.0
 10
107.5853331781375
 20
81.21727344993768
 30
0.0
 10
108.8014705419575
 20
81.08888017967101
 30
0.0
 10
109.9268810377982
 20
80.93623919107849
 30
0.0
 10
110.9042980993522
 20
80.77446457597415
 30
0.0
 10
111.7075635778947
 20
80.62193568287326
 30
0.0
 10
112.2960571008959
 20
80.49792193960586
 30
0.0
 10
112.684963212548
 20
80.41299801332957
 30
0.0
 10
112.731724343286
 20
80.40227170205078
 30
0.0
 10
112.7549071498284
 20
80.3969539093592
 30
0.0
  0
SPLINE
  5
9C
330
1F
100
AcDbEntity
  8
0
  6
Continuous
 62
     7
370
    15
100
AcDbSpline
210
0.0
220
0.0
230
1.0
 70
     8
 71
     3
 72
    41
 73
    37
 74
     0
 42
0.00000001
 43
0.00000001
 40
0.0
 40
0.0
 40
0.0
 40
0.0
 40
0.0619930061482746
 40
0.1254347783466151
 40
0.1886508898234768
 40
0.2510246408607227
 40
0.3131658188976554
 40
0.3756581641417402
 40
0.4382227146727798
 40
0.4998044922940677
 40
0.56151641971787
 40
0.6240683094121985
 40
0.686725723240935
 40
0.7488365305144522
 40
0.8110685944253986
 40
0.8741742884451361
 40
0.9373212787645211
 40
0.9685511709617411
 40
0.9842086872487193
 40
0.9920641182531791
 40
0.996000486125535
 40
0.9979710794120144
 40
0.9989570090489596
 40
0.9994501359395065
 40
0.9996967403802177
 40
0.9998200529090742
 40
0.9998817117580818
 40
0.999912541829664
 40
0.9999279570273361
 40
0.9999356646666602
 40
0.9999395184964466
 40
0.9999414454138695
 40
0.9999424088732151
 40
0.9999433723329806
 40
0.9999501697010513
 40
1.0
 40
1.0
 40
1.0
 40
1.0
 10
112.7547858193504
 20
155.5531906541911
 30
0.0
 10
112.7312141740068
 20
155.5478811745412
 30
0.0
 10
112.6835200179618
 20
155.5371381336017
 30
0.0
 10
112.2914780285362
 20
155.4519089971463
 30
0.0
 10
111.700963979266
 20
155.3273402185055
 30
0.0
 10
110.8969265332209
 20
155.1743932723537
 30
0.0
 10
109.9208511330394
 20
155.0126367184001
 30
0.0
 10
108.7990423977589
 20
154.8604039504679
 30
0.0
 10
107.5855114779717
 20
154.7326240092665
 30
0.0
 10
106.3206807715724
 20
154.6447754575839
 30
0.0
 10
105.0526377341297
 20
154.6023899737133
 30
0.0
 10
103.8291303764286
 20
154.6061257816849
 30
0.0
 10
102.6956318360146
 20
154.6447212521331
 30
0.0
 10
101.7095260250404
 20
154.7091606234242
 30
0.0
 10
100.9008982162532
 20
154.7826704307053
 30
0.0
 10
100.304279521144
 20
154.8499841155171
 30
0.0
 10
99.9888882316859
 20
154.8879486667851
 30
0.0
 10
99.87882166288797
 20
154.9017477261169
 30
0.0
 10
99.85140227507378
 20
154.9052338000376
 30
0.0
 10
99.84448022424428
 20
154.9061130257309
 30
0.0
 10
99.84271198406086
 20
154.9063338003373
 30
0.0
 10
99.8422516048875
 20
154.906389003048
 30
0.0
 10
99.84212744620268
 20
154.9064027428351
 30
0.0
 10
99.8420918917095
 20
154.9064061386661
 30
0.0
 10
99.84208074763943
 20
154.9064069669864
 30
0.0
 10
99.8420768344433
 20
154.9064071635752
 30
0.0
 10
99.84207529223849
 20
154.9064072075052
 30
0.0
 10
99.84207462523698
 20
154.906407215812
 30
0.0
 10
99.84207431705923
 20
154.9064072166423
 30
0.0
 10
99.84207417029317
 20
154.9064072160971
 30
0.0
 10
99.84207409734073
 20
154.9064072157672
 30
0.0
 10
99.84207406294834
 20
154.9064072153299
 30
0.0
 10
99.84207404070318
 20
154.9064072154184
 30
0.0
 10
99.84207401359375
 20
154.9064072125834
 30
0.0
 10
99.84207149403238
 20
154.9064074994385
 30
0.0
 10
99.84210758395042
 20
154.9064028793379
 30
0.0
 10
99.84213934177308
 20
154.9063988138164
 30
0.0
  0
SPLINE
  5
9D
330
1F
100
AcDbEntity
  8
0
  6
Continuous
 62
     7
370
    15
100
AcDbSpline
210
0.0
220
0.0
230
1.0
 70
     8
 71
     3
 72
    20
 73
    16
 74
     0
 42
0.00000001
 43
0.00000001
 40
0.0
 40
0.0
 40
0.0
 40
0.0
 40
0.249999999999986
 40
0.249999999999986
 40
0.3749999999999789
 40
0.3749999999999789
 40
0.4374999999999789
 40
0.4374999999999789
 40
0.4999999999999789
 40
0.4999999999999789
 40
0.6249999999999835
 40
0.6249999999999835
 40
0.7499999999999879
 40
0.7499999999999879
 40
1.0
 40
1.0
 40
1.0
 40
1.0
 10
71.71363190784186
 20
87.2966116380502
 30
0.0
 10
71.73990412505526
 20
87.31592957913266
 30
0.0
 10
71.7705842673101
 20
87.33031829023444
 30
0.0
 10
71.84205513769203
 20
87.32341392839842
 30
0.0
 10
71.87008217473637
 20
87.31624792505
 30
0.0
 10
71.92516576423387
 20
87.28654889834641
 30
0.0
 10
71.9460570927863
 20
87.27307525578507
 30
0.0
 10
71.99126574023177
 20
87.23787699026907
 30
0.0
 10
72.01566995262733
 20
87.2159687615418
 30
0.0
 10
72.08700227067877
 20
87.14384390154625
 30
0.0
 10
72.12889905549905
 20
87.0915033605962
 30
0.0
 10
72.20047501435492
 20
86.99401996869547
 30
0.0
 10
72.23130300417222
 20
86.94726619881705
 30
0.0
 10
72.31440293700778
 20
86.81397298297793
 30
0.0
 10
72.3592578423781
 20
86.73133558506271
 30
0.0
 10
72.39936991783067
 20
86.65222869027194
 30
0.0
  0
SPLINE
  5
9E
330
1F
100
AcDbEntity
  8
0
  6
Continuous
 62
     7
370
    15
100
AcDbSpline
210
0.0
220
0.0
230
1.0
 70
     8
 71
     3
 72
    14
 73
    10
 74
     0
 42
0.00000001
 43
0.00000001
 40
0.0
 40
0.0
 40
0.0
 40
0.0
 40
0.25
 40
0.25
 40
0.5
 40
0.5
 40
0.75
 40
0.75
 40
1.0
 40
1.0
 40
1.0
 40
1.0
 10
71.42281767612585
 20
87.47242504818298
 30
0.0
 10
71.42281767612586
 20
87.43117811715862
 30
0.0
 10
71.4314273925071
 20
87.39427114487614
 30
0.0
 10
71.46251357207744
 20
87.33337108497675
 30
0.0
 10
71.4849031255615
 20
87.30919016543704
 30
0.0
 10
71.53964705673762
 20
87.2752225745538
 30
0.0
 10
71.57209729632281
 20
87.2653024905856
 30
0.0
 10
71.64209881105089
 20
87.26395128168076
 30
0.0
 10
71.68030931117342
 20
87.27210955837691
 30
0.0
 10
71.7136319078465
 20
87.29661163804501
 30
0.0
  0
LINE
  5
9F
330
1F
100
AcDbEntity
  8
0
  6
Continuous
 62
     7
370
    15
100
AcDbLine
 10
71.4228176761
 20
87.4724250482
 30
0.0
 11
71.4228176761
 21
148.4777645333
 31
0.0
  0
SPLINE
  5
A0
330
1F
100
AcDbEntity
  8
0
  6
Continuous
 62
     7
370
    15
100
AcDbSpline
210
0.0
220
0.0
230
1.0
 70
     8
 71
     3
 72
     9
 73
     5
 74
     0
 42
0.00000001
 43
0.00000001
 40
0.0
 40
0.0
 40
0.0
 40
0.0
 40
0.0592950272321202
 40
1.0
 40
1.0
 40
1.0
 40
1.0
 10
71.71363190784649
 20
148.6535779434568
 30
0.0
 10
71.7087490663843
 20
148.6568707888503
 30
0.0
 10
71.62640082083796
 20
148.7124040358559
 30
0.0
 10
71.56026877035643
 20
148.6551146333434
 30
0.0
 10
71.49805802160913
 20
148.601222207513
 30
0.0
  0
SPLINE
  5
A1
330
1F
100
AcDbEntity
  8
0
  6
Continuous
 62
     7
370
    15
100
AcDbSpline
210
0.0
220
0.0
230
1.0
 70
     8
 71
     3
 72
     8
 73
     4
 74
     0
 42
0.00000001
 43
0.00000001
 40
0.0
 40
0.0
 40
0.0
 40
0.0
 40
1.0
 40
1.0
 40
1.0
 40
1.0
 10
71.44645134506206
 20
148.5853440343885
 30
0.0
 10
71.43110230642603
 20
148.5548339793925
 30
0.0
 10
71.42281767612585
 20
148.5185224238802
 30
0.0
 10
71.42281767612585
 20
148.4777645333188
 30
0.0
  0
SPLINE
  5
A2
330
1F
100
AcDbEntity
  8
0
  6
Continuous
 62
     7
370
    15
100
AcDbSpline
210
0.0
220
0.0
230
1.0
 70
     8
 71
     3
 72
    20
 73
    16
 74
     0
 42
0.00000001
 43
0.00000001
 40
0.0
 40
0.0
 40
0.0
 40
0.0
 40
0.2500000000000037
 40
0.2500000000000037
 40
0.3750000000000055
 40
0.3750000000000055
 40
0.5000000000000073
 40
0.5000000000000073
 40
0.5625000000000057
 40
0.5625000000000057
 40
0.625000000000004
 40
0.625000000000004
 40
0.7500000000000027
 40
0.7500000000000027
 40
1.0
 40
1.0
 40
1.0
 40
1.0
 10
72.39936991782828
 20
149.2979608912291
 30
0.0
 10
72.35937370000445
 20
149.2190824846716
 30
0.0
 10
72.31426007216679
 20
149.1359528379801
 30
0.0
 10
72.23100585780026
 20
149.0024641736292
 30
0.0
 10
72.20078652917975
 20
148.9565991177472
 30
0.0
 10
72.12869829403834
 20
148.8584075653423
 30
0.0
 10
72.08678097662724
 20
148.8060977458187
 30
0.0
 10
72.01553037207579
 20
148.7340918430842
 30
0.0
 10
71.99129455969647
 20
148.7123216307826
 30
0.0
 10
71.94569636951181
 20
148.6768469724537
 30
0.0
 10
71.9248938799121
 20
148.6634767882761
 30
0.0
 10
71.86995288149298
 20
148.6339068761408
 30
0.0
 10
71.84188389340618
 20
148.6267803538389
 30
0.0
 10
71.77138106334334
 20
148.6199059823562
 30
0.0
 10
71.73995697555246
 20
148.6342211414434
 30
0.0
 10
71.71363190784388
 20
148.6535779434539
 30
0.0
  0
SPLINE
  5
A3
330
1F
100
AcDbEntity
  8
0
  6
Continuous
 62
     7
370
    15
100
AcDbSpline
210
0.0
220
0.0
230
1.0
 70
     8
 71
     3
 72
    10
 73
     6
 74
     0
 42
0.00000001
 43
0.00000001
 40
0.0
 40
0.0
 40
0.0
 40
0.0
 40
0.4999999999999989
 40
0.4999999999999989
 40
1.0
 40
1.0
 40
1.0
 40
1.0
 10
73.07281767612587
 20
150.2233799925709
 30
0.0
 10
72.94792940537566
 20
150.0923837144994
 30
0.0
 10
72.82647928731521
 20
149.9486708778344
 30
0.0
 10
72.59689531235777
 20
149.6381005851452
 30
0.0
 10
72.48662033696179
 20
149.4700315120821
 30
0.0
 10
72.39936991782828
 20
149.2979608912291
 30
0.0
  0
SPLINE
  5
A4
330
1F
100
AcDbEntity
  8
0
  6
Continuous
 62
     7
370
    15
100
AcDbSpline
210
0.0
220
0.0
230
1.0
 70
     8
 71
     3
 72
     8
 73
     4
 74
     0
 42
0.00000001
 43
0.00000001
 40
0.0
 40
0.0
 40
0.0
 40
0.0
 40
1.0
 40
1.0
 40
1.0
 40
1.0
 10
73.32274279209159
 20
150.2209269593155
 30
0.0
 10
73.23572476224322
 20
150.2213935241026
 30
0.0
 10
73.1527707358633
 20
150.2224335436787
 30
0.0
 10
73.07281767612355
 20
150.223379992571
 30
0.0
  0
SPLINE
  5
A5
330
1F
100
AcDbEntity
  8
0
  6
Continuous
 62
     7
370
    15
100
AcDbSpline
210
0.0
220
0.0
230
1.0
 70
     8
 71
     3
 72
     8
 73
     4
 74
     0
 42
0.00000001
 43
0.00000001
 40
0.0
 40
0.0
 40
0.0
 40
0.0
 40
1.0
 40
1.0
 40
1.0
 40
1.0
 10
73.07281767612355
 20
85.72680958893082
 30
0.0
 10
73.15277073586383
 20
85.7277560378231
 30
0.0
 10
73.2357247622443
 20
85.72879605739922
 30
0.0
 10
73.32274279209328
 20
85.72926262218628
 30
0.0
  0
SPLINE
  5
A6
330
1F
100
AcDbEntity
  8
0
  6
Continuous
 62
     7
370
    15
100
AcDbSpline
210
0.0
220
0.0
230
1.0
 70
     8
 71
     3
 72
    10
 73
     6
 74
     0
 42
0.00000001
 43
0.00000001
 40
0.0
 40
0.0
 40
0.0
 40
0.0
 40
0.4999999999999989
 40
0.4999999999999989
 40
1.0
 40
1.0
 40
1.0
 40
1.0
 10
72.39936991782734
 20
86.6522286902745
 30
0.0
 10
72.48662033696083
 20
86.48015806942114
 30
0.0
 10
72.59689531235698
 20
86.3120889963577
 30
0.0
 10
72.82647928731481
 20
86.00151870366787
 30
0.0
 10
72.94792940537545
 20
85.85780586700261
 30
0.0
 10
73.07281767612587
 20
85.72680958893089
 30
0.0
  0
SPLINE
  5
A7
330
1F
100
AcDbEntity
  8
0
  6
Continuous
 62
     7
370
    15
100
AcDbSpline
210
0.0
220
0.0
230
1.0
 70
     8
 71
     3
 72
     8
 73
     4
 74
     0
 42
0.00000001
 43
0.00000001
 40
0.0
 40
0.0
 40
0.0
 40
0.0
 40
1.0
 40
1.0
 40
1.0
 40
1.0
 10
138.0607886552044
 20
156.9260575516379
 30
0.0
 10
138.517715009004
 20
155.9101395819635
 30
0.0
 10
138.968920650807
 20
154.8913437528724
 30
0.0
 10
139.4128176761259
 20
153.8705422968887
 30
0.0
  0
LINE
  5
A8
330
1F
100
AcDbEntity
  8
0
  6
Continuous
 62
     7
370
    15
100
AcDbLine
 10
139.4128176761
 20
153.8705422969
 30
0.0
 11
139.4128176761
 21
152.6893299832
 31
0.0
  0
SPLINE
  5
A9
330
1F
100
AcDbEntity
  8
0
  6
Continuous
 62
     7
370
    15
100
AcDbSpline
210
0.0
220
0.0
230
1.0
 70
     8
 71
     3
 72
    14
 73
    10
 74
     0
 42
0.00000001
 43
0.00000001
 40
0.0
 40
0.0
 40
0.0
 40
0.0
 40
0.25
 40
0.25
 40
0.5
 40
0.5
 40
0.75
 40
0.75
 40
1.0
 40
1.0
 40
1.0
 40
1.0
 10
139.4128176761259
 20
152.6893299832479
 30
0.0
 10
139.4128176761259
 20
152.5654631064587
 30
0.0
 10
139.4286768037534
 20
152.4412034296213
 30
0.0
 10
139.4920384492733
 20
152.2035950672154
 30
0.0
 10
139.5406281573227
 20
152.0868146824629
 30
0.0
 10
139.6729137620975
 20
151.8780121538539
 30
0.0
 10
139.7582385533581
 20
151.7835014502613
 30
0.0
 10
139.9651298016643
 20
151.645544649459
 30
0.0
 10
140.0890977475543
 20
151.6036262038233
 30
0.0
 10
140.2128176761258
 20
151.6036262038233
 30
0.0
  0
LINE
  5
AA
330
1F
100
AcDbEntity
  8
0
  6
Continuous
 62
     7
370
    15
100
AcDbLine
 10
140.2128176761
 20
151.6036262038
 30
0.0
 11
142.4328176761
 21
151.6036262038
 31
0.0
  0
SPLINE
  5
AB
330
1F
100
AcDbEntity
  8
0
  6
Continuous
 62
     7
370
    15
100
AcDbSpline
210
0.0
220
0.0
230
1.0
 70
     8
 71
     3
 72
    12
 73
     8
 74
     0
 42
0.00000001
 43
0.00000001
 40
0.0
 40
0.0
 40
0.0
 40
0.0
 40
0.250000000000002
 40
0.250000000000002
 40
0.500000000000004
 40
0.500000000000004
 40
1.0
 40
1.0
 40
1.0
 40
1.0
 10
142.4328176761258
 20
151.6036262038234
 30
0.0
 10
142.5565186261058
 20
151.6036262038234
 30
0.0
 10
142.680615238376
 20
151.6456198155559
 30
0.0
 10
142.887270401463
 20
151.7834151422003
 30
0.0
 10
142.9723111681899
 20
151.8773887406651
 30
0.0
 10
143.1717897366635
 20
152.1921769468861
 30
0.0
 10
143.2328176761259
 20
152.4424159391137
 30
0.0
 10
143.2328176761259
 20
152.6893299832479
 30
0.0
  0
LINE
  5
AC
330
1F
100
AcDbEntity
  8
0
  6
Continuous
 62
     7
370
    15
100
AcDbLine
 10
143.2328176761
 20
152.6893299832
 30
0.0
 11
143.2328176761
 21
153.8705422969
 31
0.0
  0
SPLINE
  5
AD
330
1F
100
AcDbEntity
  8
0
  6
Continuous
 62
     7
370
    15
100
AcDbSpline
210
0.0
220
0.0
230
1.0
 70
     8
 71
     3
 72
     8
 73
     4
 74
     0
 42
0.00000001
 43
0.00000001
 40
0.0
 40
0.0
 40
0.0
 40
0.0
 40
1.0
 40
1.0
 40
1.0
 40
1.0
 10
143.2328176761259
 20
153.8705422968887
 30
0.0
 10
143.6769676871513
 20
154.8919255278404
 30
0.0
 10
144.1280419974093
 20
155.9104100646087
 30
0.0
 10
144.5848466970473
 20
156.9260575516378
 30
0.0
  0
LINE
  5
AE
330
1F
100
AcDbEntity
  8
0
  6
Continuous
 62
     7
370
    15
100
AcDbLine
 10
144.584846697
 20
156.9260575516
 30
0.0
 11
149.2728176761
 21
156.9260575516
 31
0.0
  0
SPLINE
  5
AF
330
1F
100
AcDbEntity
  8
0
  6
Continuous
 62
     7
370
    15
100
AcDbSpline
210
0.0
220
0.0
230
1.0
 70
     8
 71
     3
 72
    16
 73
    12
 74
     0
 42
0.00000001
 43
0.00000001
 40
0.0
 40
0.0
 40
0.0
 40
0.0
 40
0.1249999999999978
 40
0.1249999999999978
 40
0.2499999999999955
 40
0.2499999999999955
 40
0.499999999999997
 40
0.499999999999997
 40
0.7499999999999984
 40
0.7499999999999984
 40
1.0
 40
1.0
 40
1.0
 40
1.0
 10
149.2728176761258
 20
156.9260575516379
 30
0.0
 10
149.3484553825371
 20
156.9260575516378
 30
0.0
 10
149.4247710469552
 20
156.9147125515029
 30
0.0
 10
149.5691817848472
 20
156.8720600008644
 30
0.0
 10
149.6376282339556
 20
156.8411256761815
 30
0.0
 10
149.8325594865688
 20
156.7218693044139
 30
0.0
 10
149.9404006603497
 20
156.6117172907934
 30
0.0
 10
150.1091134085617
 20
156.3635812051353
 30
0.0
 10
150.1714778212852
 20
156.2232388811316
 30
0.0
 10
150.2527817457936
 20
155.934967189643
 30
0.0
 10
150.2728176761258
 20
155.7841622166631
 30
0.0
 10
150.2728176761258
 20
155.6337923253179
 30
0.0
  0
LINE
  5
B0
330
1F
100
AcDbEntity
  8
0
  6
Continuous
 62
     7
370
    15
100
AcDbLine
 10
150.2728176761
 20
155.6337923253
 30
0.0
 11
150.2728176761
 21
149.3250947908
 31
0.0
  0
SPLINE
  5
B1
330
1F
100
AcDbEntity
  8
0
  6
Continuous
 62
     7
370
    15
100
AcDbSpline
210
0.0
220
0.0
230
1.0
 70
     8
 71
     3
 72
    12
 73
     8
 74
     0
 42
0.00000001
 43
0.00000001
 40
0.0
 40
0.0
 40
0.0
 40
0.0
 40
0.4999999999999953
 40
0.4999999999999953
 40
0.7499999999999977
 40
0.7499999999999977
 40
1.0
 40
1.0
 40
1.0
 40
1.0
 10
150.2728176761258
 20
165.9438346115967
 30
0.0
 10
150.2728176761258
 20
166.2091040443632
 30
0.0
 10
150.1682109326394
 20
166.4716191500156
 30
0.0
 10
149.8915425808941
 20
166.7571567560528
 30
0.0
 10
149.7811773215421
 20
166.8334783729142
 30
0.0
 10
149.5371052729263
 20
166.9378205377544
 30
0.0
 10
149.4053528115946
 20
166.9648896464145
 30
0.0
 10
149.2728176761258
 20
166.9648896464145
 30
0.0
  0
LINE
  5
B2
330
1F
100
AcDbEntity
  8
0
  6
Continuous
 62
     7
370
    15
100
AcDbLine
 10
150.2728176761
 20
155.6337923253
 30
0.0
 11
150.2728176761
 21
165.9438346116
 31
0.0
  0
SPLINE
  5
B3
330
1F
100
AcDbEntity
  8
0
  6
Continuous
 62
     7
370
    15
100
AcDbSpline
210
0.0
220
0.0
230
1.0
 70
     8
 71
     3
 72
     8
 73
     4
 74
     0
 42
0.00000001
 43
0.00000001
 40
0.0
 40
0.0
 40
0.0
 40
0.0
 40
1.0
 40
1.0
 40
1.0
 40
1.0
 10
144.5848466970473
 20
166.9648896464145
 30
0.0
 10
144.133819728334
 20
166.1675790762266
 30
0.0
 10
143.6831259118104
 20
165.3700807765694
 30
0.0
 10
143.2328176761259
 20
164.5723656514558
 30
0.0
  0
LINE
  5
B4
330
1F
100
AcDbEntity
  8
0
  6
Continuous
 62
     7
370
    15
100
AcDbLine
 10
144.584846697
 20
156.9260575516
 30
0.0
 11
144.584846697
 21
166.9648896464
 31
0.0
  0
LINE
  5
B5
330
1F
100
AcDbEntity
  8
0
  6
Continuous
 62
     7
370
    15
100
AcDbLine
 10
143.2328176761
 20
153.8705422969
 30
0.0
 11
143.2328176761
 21
164.5723656515
 31
0.0
  0
SPLINE
  5
B6
330
1F
100
AcDbEntity
  8
0
  6
Continuous
 62
     7
370
    15
100
AcDbSpline
210
0.0
220
0.0
230
1.0
 70
     8
 71
     3
 72
     8
 73
     4
 74
     0
 42
0.00000001
 43
0.00000001
 40
0.0
 40
0.0
 40
0.0
 40
0.0
 40
1.0
 40
1.0
 40
1.0
 40
1.0
 10
139.4128176761259
 20
164.5723656514558
 30
0.0
 10
138.9625094404413
 20
165.3700807765694
 30
0.0
 10
138.5118156239177
 20
166.1675790762266
 30
0.0
 10
138.0607886552044
 20
166.9648896464145
 30
0.0
  0
LINE
  5
B7
330
1F
100
AcDbEntity
  8
0
  6
Continuous
 62
     7
370
    15
100
AcDbLine
 10
139.4128176761
 20
153.8705422969
 30
0.0
 11
139.4128176761
 21
164.5723656515
 31
0.0
  0
SPLINE
  5
B8
330
1F
100
AcDbEntity
  8
0
  6
Continuous
 62
     7
370
    15
100
AcDbSpline
210
0.0
220
0.0
230
1.0
 70
     8
 71
     3
 72
    10
 73
     6
 74
     0
 42
0.00000001
 43
0.00000001
 40
0.0
 40
0.0
 40
0.0
 40
0.0
 40
0.5
 40
0.5
 40
1.0
 40
1.0
 40
1.0
 40
1.0
 10
140.2128176761258
 20
162.8493705509233
 30
0.0
 10
140.0002813622695
 20
162.8493705509233
 30
0.0
 10
139.7903451906155
 20
162.9407831375535
 30
0.0
 10
139.4966380496043
 20
163.2455280034577
 30
0.0
 10
139.4128176761259
 20
163.4576829733664
 30
0.0
 10
139.4128176761259
 20
163.6686460315989
 30
0.0
  0
LINE
  5
B9
330
1F
100
AcDbEntity
  8
0
  6
Continuous
 62
     7
370
    15
100
AcDbLine
 10
149.2728176761
 20
166.9648896464
 30
0.0
 11
144.584846697
 21
166.9648896464
 31
0.0
  0
SPLINE
  5
BA
330
1F
100
AcDbEntity
  8
0
  6
Continuous
 62
     7
370
    15
100
AcDbSpline
210
0.0
220
0.0
230
1.0
 70
     8
 71
     3
 72
    14
 73
    10
 74
     0
 42
0.00000001
 43
0.00000001
 40
0.0
 40
0.0
 40
0.0
 40
0.0
 40
0.25
 40
0.25
 40
0.5
 40
0.5
 40
0.75
 40
0.75
 40
1.0
 40
1.0
 40
1.0
 40
1.0
 10
143.2328176761259
 20
163.6686460315989
 30
0.0
 10
143.2328176761259
 20
163.5622893378466
 30
0.0
 10
143.2124301199846
 20
163.4564488500864
 30
0.0
 10
143.1337957745231
 20
163.25988393655
 30
0.0
 10
143.0750644148844
 20
163.1687131942628
 30
0.0
 10
142.9284555092819
 20
163.0168021052312
 30
0.0
 10
142.8390501892553
 20
162.9547332684116
 30
0.0
 10
142.645159456655
 20
162.8714652206529
 30
0.0
 10
142.5386544667652
 20
162.8493705509233
 30
0.0
 10
142.4328176761259
 20
162.8493705509233
 30
0.0
  0
LINE
  5
BB
330
1F
100
AcDbEntity
  8
0
  6
Continuous
 62
     7
370
    15
100
AcDbLine
 10
142.4328176761
 20
162.8493705509
 30
0.0
 11
140.2128176761
 21
162.8493705509
 31
0.0
  0
ARC
  5
BC
330
1F
100
AcDbEntity
  8
0
  6
Continuous
 62
     7
370
    15
100
AcDbCircle
 10
130.3228717313
 20
150.6184417237
 30
0.0
 40
11.37423968197962
100
AcDbArc
 50
77.8281974113
 51
102.1903534332
  0
SPLINE
  5
BD
330
1F
100
AcDbEntity
  8
0
  6
Continuous
 62
     7
370
    15
100
AcDbSpline
210
0.0
220
0.0
230
1.0
 70
     8
 71
     3
 72
    39
 73
    35
 74
     0
 42
0.00000001
 43
0.00000001
 40
-0.0929035514958684
 40
-0.0617844675330091
 40
-0.0305606518844097
 40
0.0
 40
0.0305833544991337
 40
0.0618207632592212
 40
0.092957407327399
 40
0.1240731578172038
 40
0.1552546267380327
 40
0.1868126884168838
 40
0.2185638838475925
 40
0.2499315075259423
 40
0.2813251124599952
 40
0.3131464055674968
 40
0.3447816985844708
 40
0.3760142222481838
 40
0.4071224531654553
 40
0.4382110606589222
 40
0.4693931316499394
 40
0.5000117158875025
 40
0.5306249294237197
 40
0.5618454474694672
 40
0.5929501996317587
 40
0.6240749381356989
 40
0.6552854313495922
 40
0.6868966152746568
 40
0.7186677897632002
 40
0.7500607090513594
 40
0.7814251173831794
 40
0.8132188904409183
 40
0.8447997037959765
 40
0.8760022562479011
 40
0.9070964485041315
 40
0.9382155324669907
 40
0.9694393481155902
 40
0.9999999999999999
 40
1.030583354499134
 40
1.061820763259221
 40
1.092957407327399
 10
199.1570568396947
 20
111.1222043987478
 30
0.0
 10
197.8224862659452
 20
110.9861799895715
 30
0.0
 10
196.4877398133387
 20
111.1224169883834
 30
0.0
 10
195.2071014537708
 20
111.531088007996
 30
0.0
 10
194.0241692434147
 20
112.1725434086922
 30
0.0
 10
192.9985525060106
 20
113.0367068485964
 30
0.0
 10
192.1559322085715
 20
114.0879677609202
 30
0.0
 10
191.5315675128822
 20
115.2965255881976
 30
0.0
 10
191.1348132434615
 20
116.6070624123896
 30
0.0
 10
191.0033958054885
 20
117.9724059615492
 30
0.0
 10
191.1356628510447
 20
119.3386669270495
 30
0.0
 10
191.5330057452643
 20
120.6515901955417
 30
0.0
 10
192.1577535441212
 20
121.8631544997353
 30
0.0
 10
193.0010495720416
 20
122.9161094025649
 30
0.0
 10
194.02631446202
 20
123.7805265447129
 30
0.0
 10
195.2077826201367
 20
124.421438475737
 30
0.0
 10
196.4879504309978
 20
124.8286377729037
 30
0.0
 10
197.8232056591754
 20
124.963790111928
 30
0.0
 10
199.158981075274
 20
124.8282245897298
 30
0.0
 10
200.4396492257765
 20
124.420296176528
 30
0.0
 10
201.6219320645692
 20
123.7787503233464
 30
0.0
 10
202.6469143232156
 20
122.9137112390438
 30
0.0
 10
203.4894301726916
 20
121.8607141769132
 30
0.0
 10
204.1133816130916
 20
120.6502751980591
 30
0.0
 10
204.5099186140628
 20
119.3382585893149
 30
0.0
 10
204.642225846903
 20
117.9728184141843
 30
0.0
 10
204.5109371256643
 20
116.6068764873964
 30
0.0
 10
204.113566084227
 20
115.2955709843867
 30
0.0
 10
203.4885573384445
 20
114.0859589704802
 30
0.0
 10
202.6452408356297
 20
113.034806394247
 30
0.0
 10
201.6194090218223
 20
112.1713193745899
 30
0.0
 10
200.4369807070849
 20
111.5305565054035
 30
0.0
 10
199.1570568396947
 20
111.1222043987478
 30
0.0
 10
197.8224862659452
 20
110.9861799895715
 30
0.0
 10
196.4877398133387
 20
111.1224169883834
 30
0.0
  0
LINE
  5
BE
330
1F
100
AcDbEntity
  8
0
  6
Continuous
 62
     7
370
    15
100
AcDbLine
 10
210.6002830736
 20
93.9750947908
 30
0.0
 11
210.6002830736
 21
141.9750947908
 31
0.0
  0
LINE
  5
BF
330
1F
100
AcDbEntity
  8
0
  6
Continuous
 62
     7
370
    15
100
AcDbLine
 10
160.9092207925
 20
141.8634382387
 30
0.0
 11
161.154435552
 21
141.8458343321
 31
0.0
  0
SPLINE
  5
C0
330
1F
100
AcDbEntity
  8
0
  6
Continuous
 62
     7
370
    15
100
AcDbSpline
210
0.0
220
0.0
230
1.0
 70
     8
 71
     3
 72
    24
 73
    20
 74
     0
 42
0.00000001
 43
0.00000001
 40
0.0
 40
0.0
 40
0.0
 40
0.0
 40
0.0017565876297798
 40
0.0497626246813217
 40
0.139444866340731
 40
0.2328544096345423
 40
0.3353787658363312
 40
0.3913589349165726
 40
0.4487654027043137
 40
0.5084710217724543
 40
0.5698369200231231
 40
0.6307052646879194
 40
0.6934303961991739
 40
0.75255855197025
 40
0.8137105105589031
 40
0.8678636342018846
 40
0.9240094406530366
 40
0.9720026301629735
 40
1.0
 40
1.0
 40
1.0
 40
1.0
 10
166.7712912967199
 20
141.9749179809686
 30
0.0
 10
166.7717969067857
 20
141.9749765431545
 30
0.0
 10
166.7861204073673
 20
141.9766355597779
 30
0.0
 10
166.7136814906633
 20
141.9682036129976
 30
0.0
 10
166.4482431761252
 20
141.9378972341472
 30
0.0
 10
165.8197884947218
 20
141.8755007351714
 30
0.0
 10
165.0868750747837
 20
141.821297843371
 30
0.0
 10
164.3861664415678
 20
141.7878618534461
 30
0.0
 10
163.7964287793027
 20
141.7710955421268
 30
0.0
 10
163.1746201664501
 20
141.766380818511
 30
0.0
 10
162.5431741047948
 20
141.7753625841372
 30
0.0
 10
161.9218591151713
 20
141.7975861240377
 30
0.0
 10
161.3467045337693
 20
141.8300185009703
 30
0.0
 10
160.8285567985574
 20
141.8687443940621
 30
0.0
 10
160.4079897307105
 20
141.9068100340307
 30
0.0
 10
160.0817620947362
 20
141.9402672828259
 30
0.0
 10
159.8787158155807
 20
141.9628230193628
 30
0.0
 10
159.7784745335321
 20
141.9744338140552
 30
0.0
 10
159.7829530258429
 20
141.9739158441917
 30
0.0
 10
159.7846030466694
 20
141.9737250074093
 30
0.0
  0
SPLINE
  5
C1
330
1F
100
AcDbEntity
  8
0
  6
Continuous
 62
     7
370
    15
100
AcDbSpline
210
0.0
220
0.0
230
1.0
 70
     8
 71
     3
 72
    68
 73
    64
 74
     0
 42
0.00000001
 43
0.00000001
 40
-0.0312500000000007
 40
-0.0312500000000007
 40
0.0
 40
0.0
 40
0.0312499999999997
 40
0.0312499999999997
 40
0.0624999999999993
 40
0.0624999999999993
 40
0.093749999999999
 40
0.093749999999999
 40
0.1249999999999986
 40
0.1249999999999986
 40
0.1562499999999983
 40
0.1562499999999983
 40
0.1874999999999979
 40
0.1874999999999979
 40
0.2187499999999976
 40
0.2187499999999976
 40
0.2499999999999973
 40
0.2499999999999973
 40
0.2812499999999969
 40
0.2812499999999969
 40
0.3124999999999966
 40
0.3124999999999966
 40
0.3437499999999963
 40
0.3437499999999963
 40
0.3749999999999959
 40
0.3749999999999959
 40
0.4062499999999956
 40
0.4062499999999956
 40
0.4374999999999952
 40
0.4374999999999952
 40
0.4687499999999949
 40
0.4687499999999949
 40
0.4999999999999946
 40
0.4999999999999946
 40
0.5312499999999942
 40
0.5312499999999942
 40
0.5624999999999939
 40
0.5624999999999939
 40
0.5937499999999936
 40
0.5937499999999936
 40
0.6249999999999932
 40
0.6249999999999932
 40
0.6874999999999934
 40
0.6874999999999934
 40
0.7187499999999941
 40
0.7187499999999941
 40
0.7499999999999947
 40
0.7499999999999947
 40
0.7812499999999953
 40
0.7812499999999953
 40
0.812499999999996
 40
0.812499999999996
 40
0.8437499999999967
 40
0.8437499999999967
 40
0.8749999999999973
 40
0.8749999999999973
 40
0.906249999999998
 40
0.906249999999998
 40
0.9374999999999987
 40
0.9374999999999987
 40
0.9687499999999993
 40
0.9687499999999993
 40
1.0
 40
1.0
 40
1.03125
 40
1.03125
 10
160.7402065926334
 20
120.1481135502652
 30
0.0
 10
161.078234992353
 20
120.4268127903185
 30
0.0
 10
161.2577697227901
 20
120.5478525663502
 30
0.0
 10
161.6360256642336
 20
120.7566885867499
 30
0.0
 10
161.8362344198437
 20
120.8449265756807
 30
0.0
 10
162.2494885186199
 20
120.9852849402279
 30
0.0
 10
162.4598736160124
 20
121.0368087788369
 30
0.0
 10
162.8878509077277
 20
121.1041666394406
 30
0.0
 10
163.1075053117154
 20
121.1198744336423
 30
0.0
 10
163.5426989766286
 20
121.1139804155284
 30
0.0
 10
163.7579240610931
 20
121.0928186170763
 30
0.0
 10
164.1836688938403
 20
121.0143213391715
 30
0.0
 10
164.3962471955614
 20
120.9561048160161
 30
0.0
 10
164.8035012670447
 20
120.8051538195133
 30
0.0
 10
164.9985044423129
 20
120.7128463671163
 30
0.0
 10
165.3708759653003
 20
120.4936794217203
 30
0.0
 10
165.5500793600714
 20
120.365027824542
 30
0.0
 10
165.8762303495091
 20
120.0795007987373
 30
0.0
 10
166.0239774463538
 20
119.9227990164592
 30
0.0
 10
166.2870889037371
 20
119.5798227887554
 30
0.0
 10
166.4032246034688
 20
119.391071642265
 30
0.0
 10
166.5883150794319
 20
118.9996877410016
 30
0.0
 10
166.6589532013437
 20
118.7956964694227
 30
0.0
 10
166.7532919733462
 20
118.3698920547482
 30
0.0
 10
166.7757185644265
 20
118.1503022106393
 30
0.0
 10
166.7693041304936
 20
117.7171390694835
 30
0.0
 10
166.7403489530695
 20
117.4980572128924
 30
0.0
 10
166.6335910305378
 20
117.0750585345523
 30
0.0
 10
166.5568499916722
 20
116.8721332646479
 30
0.0
 10
166.3587016866662
 20
116.4826355259316
 30
0.0
 10
166.2383509152577
 20
116.2990723254414
 30
0.0
 10
165.9650551186033
 20
115.9622429090071
 30
0.0
 10
165.8094576690001
 20
115.8059941889469
 30
0.0
 10
165.4743405628722
 20
115.5285216843669
 30
0.0
 10
165.2950647438394
 20
115.4067822788187
 30
0.0
 10
164.9141739243746
 20
115.1955646104396
 30
0.0
 10
164.7127111470755
 20
115.1066993098569
 30
0.0
 10
164.3024034556615
 20
114.966724824156
 30
0.0
 10
164.0917917192432
 20
114.9145602159969
 30
0.0
 10
163.6595642778351
 20
114.8460768135473
 30
0.0
 10
163.4414407737607
 20
114.8305199750573
 30
0.0
 10
162.7919366357181
 20
114.8385750409127
 30
0.0
 10
162.3541426891817
 20
114.9185964205645
 30
0.0
 10
161.7461679568361
 20
115.143340340956
 30
0.0
 10
161.5501514967211
 20
115.2355967858457
 30
0.0
 10
161.1725007924054
 20
115.4578081653586
 30
0.0
 10
160.9964224695658
 20
115.5845865665949
 30
0.0
 10
160.6717851207656
 20
115.8684235848656
 30
0.0
 10
160.5224093930172
 20
116.0262258211283
 30
0.0
 10
160.2558014896474
 20
116.374131495294
 30
0.0
 10
160.1427575317914
 20
116.5585812504355
 30
0.0
 10
159.9579619324873
 20
116.9489494626194
 30
0.0
 10
159.8856231257475
 20
117.1579996699381
 30
0.0
 10
159.7918418757633
 20
117.5838558235747
 30
0.0
 10
159.7698342624358
 20
117.7993393461212
 30
0.0
 10
159.7764423643473
 20
118.2355089828277
 30
0.0
 10
159.8058760100562
 20
118.4550935570011
 30
0.0
 10
159.9124442563229
 20
118.876084819233
 30
0.0
 10
159.9907908780843
 20
119.0827586530577
 30
0.0
 10
160.1892813173289
 20
119.47139180862
 30
0.0
 10
160.3084187477028
 20
119.6529172512145
 30
0.0
 10
160.5841683813597
 20
119.9919600257334
 30
0.0
 10
160.7402065926334
 20
120.1481135502652
 30
0.0
 10
161.078234992353
 20
120.4268127903185
 30
0.0
  0
LINE
  5
C2
330
1F
100
AcDbEntity
  8
0
  6
Continuous
 62
     7
370
    15
100
AcDbLine
 10
160.9092207925
 20
94.0867513428
 30
0.0
 11
160.7830871288
 21
94.0758780385
 31
0.0
  0
SPLINE
  5
C3
330
1F
100
AcDbEntity
  8
0
  6
Continuous
 62
     7
370
    15
100
AcDbSpline
210
0.0
220
0.0
230
1.0
 70
     8
 71
     3
 72
    24
 73
    20
 74
     0
 42
0.00000001
 43
0.00000001
 40
0.0
 40
0.0
 40
0.0
 40
0.0
 40
0.0026240630241738
 40
0.0505677080857758
 40
0.140249010298186
 40
0.2337201646266605
 40
0.3363373150217109
 40
0.3923591541129
 40
0.4498093974942843
 40
0.5095367723517895
 40
0.5709263240993038
 40
0.6317923591224947
 40
0.6945168048274132
 40
0.7536145298622525
 40
0.8147370963593392
 40
0.8688348773621551
 40
0.9249233404516687
 40
0.9728692624768932
 40
1.0
 40
1.0
 40
1.0
 40
1.0
 10
159.7750512791994
 20
93.97535360024705
 30
0.0
 10
159.774314570458
 20
93.97526824893052
 30
0.0
 10
159.760117627687
 20
93.97362346356542
 30
0.0
 10
159.8336417435088
 20
93.98218279813909
 30
0.0
 10
160.1018048626374
 20
94.01277380519551
 30
0.0
 10
160.7325626350313
 20
94.07528522628228
 30
0.0
 10
161.4674480201516
 20
94.12944052627142
 30
0.0
 10
162.1694874267709
 20
94.16271248837953
 30
0.0
 10
162.7599617779256
 20
94.17928885471063
 30
0.0
 10
163.382185443583
 20
94.18377050016093
 30
0.0
 10
164.0135848382052
 20
94.17454554956967
 30
0.0
 10
164.6344429800232
 20
94.15210546223257
 30
0.0
 10
165.2086404038637
 20
94.11952769680222
 30
0.0
 10
165.7254290457814
 20
94.08074684929613
 30
0.0
 10
166.1442628063133
 20
94.04273490337604
 30
0.0
 10
166.4685635113418
 20
94.00941591111756
 30
0.0
 10
166.6695615902765
 20
93.98706465379874
 30
0.0
 10
166.7679134735841
 20
93.9756678760647
 30
0.0
 10
166.7628100947946
 20
93.97625880521126
 30
0.0
 10
166.7609658674243
 20
93.9764723515207
 30
0.0
  0
LINE
  5
C4
330
1F
100
AcDbEntity
  8
0
  6
Continuous
 62
     7
370
    15
100
AcDbLine
 10
161.4339929491
 20
94.1218811844
 30
0.0
 11
160.9092207919
 21
94.0867513473
 31
0.0
  0
CIRCLE
  5
C5
330
1F
100
AcDbEntity
  8
0
  6
Continuous
 62
     7
370
    15
100
AcDbCircle
 10
163.2728176761
 20
117.9750947908
 30
0.0
 40
2.499999999999986
  0
LINE
  5
C6
330
1F
100
AcDbEntity
  8
0
  6
Continuous
 62
     7
370
    15
100
AcDbLine
 10
221.3228176761
 20
100.2492353124
 30
0.0
 11
221.3228176761
 21
135.7009542691
 31
0.0
  0
LINE
  5
C7
330
1F
100
AcDbEntity
  8
0
  6
Continuous
 62
     7
370
    15
100
AcDbLine
 10
73.0728176761
 20
85.7250947908
 30
0.0
 11
73.0728176761
 21
85.7268095889
 31
0.0
  0
LINE
  5
C8
330
1F
100
AcDbEntity
  8
0
  6
Continuous
 62
     7
370
    15
100
AcDbLine
 10
73.0728176761
 20
150.2250947908
 30
0.0
 11
73.0728176761
 21
150.2233799926
 31
0.0
  0
LINE
  5
C9
330
1F
100
AcDbEntity
  8
0
  6
Continuous
 62
     7
370
    15
100
AcDbLine
 10
221.3937255353
 20
106.8990471016
 30
0.0
 11
221.3877186118
 21
106.8588445937
 31
0.0
  0
ARC
  5
CA
330
1F
100
AcDbEntity
  8
0
  6
Continuous
 62
     7
370
    15
100
AcDbCircle
 10
200.5075097231
 20
107.4733458782
 30
0.0
 40
20.89410993644814
100
AcDbArc
 50
358.4249608716
 51
4.9777245001
  0
LWPOLYLINE
  5
CB
330
1F
100
AcDbEntity
  8
0
  6
Continuous
 62
     7
370
    15
100
AcDbPolyline
 90
        7
 70
   128
 43
0.0
 10
221.3228176761
 20
127.7253730212
 10
221.3272272098
 20
127.8749376782
 10
221.3376057137
 20
128.3414760102
 10
221.3412501596
 20
128.7370596781
 10
221.3376057137
 20
129.0014646544
 10
221.3272272098
 20
129.0944376782
 10
221.3228176761
 20
129.0852849668
  0
CIRCLE
  5
CC
330
1F
100
AcDbEntity
  8
0
  6
HIDDEN
 62
     7
370
     0
100
AcDbCircle
 10
197.8228176761
 20
117.9750947908
 30
0.0
 40
7.000000000000012
  0
CIRCLE
  5
CD
330
1F
100
AcDbEntity
  8
0
  6
HIDDEN
 62
     7
370
     0
100
AcDbCircle
 10
197.8228176761
 20
117.9750947908
 30
0.0
 40
5.000000000000007
  0
CIRCLE
  5
CE
330
1F
100
AcDbEntity
  8
0
  6
HIDDEN
 62
     7
370
     0
100
AcDbCircle
 10
197.8228176761
 20
117.9750947908
 30
0.0
 40
3.750000000000004
  0
LINE
  5
CF
330
1F
100
AcDbEntity
  8
0
  6
HIDDEN
 62
     7
370
     0
100
AcDbLine
 10
138.0607886552
 20
156.9260575516
 30
0.0
 11
138.0607886552
 21
149.3250947908
 31
0.0
  0
SPLINE
  5
D0
330
1F
100
AcDbEntity
  8
0
  6
HIDDEN
 62
     7
370
     0
100
AcDbSpline
210
0.0
220
0.0
230
1.0
 70
     8
 71
     3
 72
    80
 73
    76
 74
     0
 42
0.00000001
 43
0.00000001
 40
-0.0312500000000003
 40
-0.0312500000000003
 40
0.0
 40
0.0
 40
0.03125
 40
0.03125
 40
0.046875
 40
0.046875
 40
0.0624999999999999
 40
0.0624999999999999
 40
0.0937499999999998
 40
0.0937499999999998
 40
0.1249999999999996
 40
0.1249999999999996
 40
0.1562499999999995
 40
0.1562499999999995
 40
0.1874999999999994
 40
0.1874999999999994
 40
0.2187499999999993
 40
0.2187499999999993
 40
0.2499999999999992
 40
0.2499999999999992
 40
0.2812499999999991
 40
0.2812499999999991
 40
0.3124999999999989
 40
0.3124999999999989
 40
0.3281249999999988
 40
0.3281249999999988
 40
0.3437499999999986
 40
0.3437499999999986
 40
0.3749999999999983
 40
0.3749999999999983
 40
0.4062499999999981
 40
0.4062499999999981
 40
0.4218749999999979
 40
0.4218749999999979
 40
0.4374999999999978
 40
0.4374999999999978
 40
0.4687499999999977
 40
0.4687499999999977
 40
0.4999999999999975
 40
0.4999999999999975
 40
0.5312499999999972
 40
0.5312499999999972
 40
0.562499999999997
 40
0.562499999999997
 40
0.5937499999999968
 40
0.5937499999999968
 40
0.6249999999999966
 40
0.6249999999999966
 40
0.6562499999999964
 40
0.6562499999999964
 40
0.6874999999999962
 40
0.6874999999999962
 40
0.7031249999999962
 40
0.7031249999999962
 40
0.7187499999999963
 40
0.7187499999999963
 40
0.7499999999999968
 40
0.7499999999999968
 40
0.7812499999999972
 40
0.7812499999999972
 40
0.7968749999999976
 40
0.7968749999999976
 40
0.8124999999999978
 40
0.8124999999999978
 40
0.8437499999999981
 40
0.8437499999999981
 40
0.8749999999999984
 40
0.8749999999999984
 40
0.9062499999999989
 40
0.9062499999999989
 40
0.9374999999999992
 40
0.9374999999999992
 40
0.9687499999999997
 40
0.9687499999999997
 40
1.0
 40
1.0
 40
1.03125
 40
1.03125
 10
130.6533629889022
 20
166.8346440472289
 30
0.0
 10
129.9922723633495
 20
166.8346440472289
 30
0.0
 10
129.6672922340979
 20
166.827745901402
 30
0.0
 10
129.1878188228515
 20
166.8072194734215
 30
0.0
 10
129.0293370050107
 20
166.798663246334
 30
0.0
 10
128.7151174725064
 20
166.7779368711163
 30
0.0
 10
128.558997188826
 20
166.76570957091
 30
0.0
 10
128.1049431598694
 20
166.7241402770807
 30
0.0
 10
127.8178397769296
 20
166.689795991983
 30
0.0
 10
127.2744852209026
 20
166.6064718676607
 30
0.0
 10
127.017381609697
 20
166.5570336448862
 30
0.0
 10
126.5564753547582
 20
166.4456539151263
 30
0.0
 10
126.3495776455432
 20
166.3833594016141
 30
0.0
 10
125.9840523315511
 20
166.2434297587432
 30
0.0
 10
125.8288468094251
 20
166.1668138609941
 30
0.0
 10
125.5794164228254
 20
166.0028552411384
 30
0.0
 10
125.4833264670402
 20
165.9142983870426
 30
0.0
 10
125.3548076178466
 20
165.7268177049368
 30
0.0
 10
125.3229967476689
 20
165.6295812434824
 30
0.0
 10
125.3226400978956
 20
165.4279486041553
 30
0.0
 10
125.3551373500927
 20
165.3223998123172
 30
0.0
 10
125.4827628238072
 20
165.1122850296287
 30
0.0
 10
125.577191224859
 20
165.0072195216597
 30
0.0
 10
125.7650520448446
 20
164.8503418144087
 30
0.0
 10
125.8358800436478
 20
164.7979080807029
 30
0.0
 10
125.9906019356131
 20
164.6954696350732
 30
0.0
 10
126.0745784057964
 20
164.6453219064214
 30
0.0
 10
126.3459020754409
 20
164.4983059499879
 30
0.0
 10
126.5524512940432
 20
164.4048181295534
 30
0.0
 10
127.0190614342323
 20
164.2290312719391
 30
0.0
 10
127.2714270038577
 20
164.1496527968554
 30
0.0
 10
127.6773283455364
 20
164.0441703593613
 30
0.0
 10
127.8172289630139
 20
164.0112847945212
 30
0.0
 10
128.1064528982608
 20
163.9503693152925
 30
0.0
 10
128.2562923545501
 20
163.9222887436501
 30
0.0
 10
128.7104089241609
 20
163.8474867016073
 30
0.0
 10
129.0220601428977
 20
163.8094486433612
 30
0.0
 10
129.6630566078101
 20
163.7578367168371
 30
0.0
 10
129.9945842357623
 20
163.7445227833156
 30
0.0
 10
130.6473752808338
 20
163.7444256969875
 30
0.0
 10
130.9719114858656
 20
163.7572137821485
 30
0.0
 10
131.617180935282
 20
163.8087039717445
 30
0.0
 10
131.9329239414447
 20
163.8472285510646
 30
0.0
 10
132.5348132364284
 20
163.9461311139226
 30
0.0
 10
132.8255624672399
 20
164.0072352118476
 30
0.0
 10
133.3724742589244
 20
164.1490446449583
 30
0.0
 10
133.6242516227613
 20
164.2283791295375
 30
0.0
 10
134.0856396153824
 20
164.401757874199
 30
0.0
 10
134.2969088949805
 20
164.496917818953
 30
0.0
 10
134.6602132473567
 20
164.6934903423289
 30
0.0
 10
134.8140198957995
 20
164.7952465707353
 30
0.0
 10
135.0026393653969
 20
164.9520325335208
 30
0.0
 10
135.058669851606
 20
165.0052865672708
 30
0.0
 10
135.1542436133422
 20
165.1110911288235
 30
0.0
 10
135.1940065303672
 20
165.1637441931791
 30
0.0
 10
135.2897782806793
 20
165.3208179126383
 30
0.0
 10
135.3225011198054
 20
165.4243429479654
 30
0.0
 10
135.3231297061345
 20
165.6285576821925
 30
0.0
 10
135.2909435613997
 20
165.7260615197772
 30
0.0
 10
135.1960328595441
 20
165.8653885701289
 30
0.0
 10
135.1565660761452
 20
165.9107053016334
 30
0.0
 10
135.0616360774243
 20
165.9991451226222
 30
0.0
 10
135.0058792496609
 20
166.0423993730822
 30
0.0
 10
134.817939131691
 20
166.1662908476721
 30
0.0
 10
134.6645776619749
 20
166.2419931384462
 30
0.0
 10
134.3023134270945
 20
166.3812475099044
 30
0.0
 10
134.0914649536286
 20
166.4450093514331
 30
0.0
 10
133.6307949833097
 20
166.556506190901
 30
0.0
 10
133.3794206037259
 20
166.6050322632176
 30
0.0
 10
132.8335127168278
 20
166.6890862465981
 30
0.0
 10
132.5426901421765
 20
166.7238848002647
 30
0.0
 10
131.9413635273965
 20
166.7790812650286
 30
0.0
 10
131.6268449427841
 20
166.7998991137825
 30
0.0
 10
130.9802634866642
 20
166.8277464466932
 30
0.0
 10
130.6533629889022
 20
166.8346440472289
 30
0.0
 10
129.9922723633495
 20
166.8346440472289
 30
0.0
  0
LINE
  5
D1
330
1F
100
AcDbEntity
  8
0
  6
HIDDEN
 62
     7
370
     0
100
AcDbLine
 10
101.7362424256
 20
81.2392884285
 30
0.0
 11
101.4662867247
 21
81.2153623292
 31
0.0
  0
SPLINE
  5
D2
330
1F
100
AcDbEntity
  8
0
  6
HIDDEN
 62
     7
370
     0
100
AcDbSpline
210
0.0
220
0.0
230
1.0
 70
     8
 71
     3
 72
    12
 73
     8
 74
     0
 42
0.00000001
 43
0.00000001
 40
0.0
 40
0.0
 40
0.0
 40
0.0
 40
0.1661348616735903
 40
0.3322013257393936
 40
0.5008932044678248
 40
0.752137078264078
 40
1.0
 40
1.0
 40
1.0
 40
1.0
 10
99.84213934177308
 20
154.9063988138164
 30
0.0
 10
99.85253196588113
 20
154.905020689755
 30
0.0
 10
99.87331293546109
 20
154.9022650090049
 30
0.0
 10
100.046612424908
 20
154.8806616340428
 30
0.0
 10
100.3685640141517
 20
154.842796682101
 30
0.0
 10
100.889729850071
 20
154.7824129153848
 30
0.0
 10
101.4552877899088
 20
154.7346197782354
 30
0.0
 10
101.7361512135968
 20
154.710885085142
 30
0.0
  0
SPLINE
  5
D3
330
1F
100
AcDbEntity
  8
0
  6
HIDDEN
 62
     7
370
     0
100
AcDbSpline
210
0.0
220
0.0
230
1.0
 70
     8
 71
     3
 72
    15
 73
    11
 74
     0
 42
0.00000001
 43
0.00000001
 40
0.0
 40
0.0
 40
0.0
 40
0.0
 40
0.1285821516379736
 40
0.2571635483376876
 40
0.385323567199189
 40
0.5113778119466696
 40
0.6369260966772228
 40
0.7643185820319293
 40
0.8930603485208921
 40
1.0
 40
1.0
 40
1.0
 40
1.0
 10
111.5760233313169
 20
86.60877257000382
 30
0.0
 10
111.1905012100767
 20
86.67057836058775
 30
0.0
 10
110.4194592310941
 20
86.79418957887823
 30
0.0
 10
108.6409013843375
 20
86.98493816288398
 30
0.0
 10
106.6470900888978
 20
87.07258559998931
 30
0.0
 10
104.6230521816631
 20
87.02568043728687
 30
0.0
 10
102.7949436147041
 20
86.86543022954537
 30
0.0
 10
101.363512393425
 20
86.66425087166628
 30
0.0
 10
100.4596289159495
 20
86.50170913701955
 30
0.0
 10
100.3970449781933
 20
86.48930885031922
 30
0.0
 10
100.3686477267277
 20
86.48368226189572
 30
0.0
  0
SPLINE
  5
D4
330
1F
100
AcDbEntity
  8
0
  6
HIDDEN
 62
     7
370
     0
100
AcDbSpline
210
0.0
220
0.0
230
1.0
 70
     8
 71
     3
 72
    16
 73
    12
 74
     0
 42
0.00000001
 43
0.00000001
 40
0.0
 40
0.0
 40
0.0
 40
0.0
 40
0.0205567982654305
 40
0.1461296737692548
 40
0.2720439921275847
 40
0.3999539720187822
 40
0.528504097482051
 40
0.655245546444081
 40
0.7805594897978894
 40
0.9070378665747952
 40
1.0
 40
1.0
 40
1.0
 40
1.0
 10
100.3686477267277
 20
149.4665073196061
 30
0.0
 10
100.3539805144447
 20
149.4692536962108
 30
0.0
 10
100.249717442037
 20
149.4887765378571
 30
0.0
 10
100.7004974528836
 20
149.4024019801002
 30
0.0
 10
101.7137365834584
 20
149.2312693781662
 30
0.0
 10
103.3080649014397
 20
149.0277285932288
 30
0.0
 10
105.2345642635742
 20
148.8953376272541
 30
0.0
 10
107.2810560641259
 20
148.8915414485633
 30
0.0
 10
109.1942154798488
 20
149.014318021193
 30
0.0
 10
110.678923865248
 20
149.1961328813145
 30
0.0
 10
111.3090720683824
 20
149.2981845902295
 30
0.0
 10
111.5760233313169
 20
149.341417011498
 30
0.0
  0
SPLINE
  5
D5
330
1F
100
AcDbEntity
  8
0
  6
HIDDEN
 62
     7
370
     0
100
AcDbSpline
210
0.0
220
0.0
230
1.0
 70
     8
 71
     3
 72
     9
 73
     5
 74
     0
 42
0.00000001
 43
0.00000001
 40
0.0
 40
0.0
 40
0.0
 40
0.0
 40
0.6612244306033583
 40
1.0
 40
1.0
 40
1.0
 40
1.0
 10
111.5760233313169
 20
149.341417011498
 30
0.0
 10
111.8675261824833
 20
149.3852026189015
 30
0.0
 10
112.3083792993297
 20
149.451421598989
 30
0.0
 10
112.2569686724755
 20
149.4436166270749
 30
0.0
 10
112.2395520080899
 20
149.4409724932705
 30
0.0
  0
SPLINE
  5
D6
330
1F
100
AcDbEntity
  8
0
  6
HIDDEN
 62
     7
370
     0
100
AcDbSpline
210
0.0
220
0.0
230
1.0
 70
     8
 71
     3
 72
     9
 73
     5
 74
     0
 42
0.00000001
 43
0.00000001
 40
0.0
 40
0.0
 40
0.0
 40
0.0
 40
0.3224719622234747
 40
1.0
 40
1.0
 40
1.0
 40
1.0
 10
112.2395520333292
 20
86.50921708488366
 30
0.0
 10
112.2581933901224
 20
86.50644917768861
 30
0.0
 10
112.3160010725785
 20
86.49786577348827
 30
0.0
 10
111.8748890764759
 20
86.56397900320367
 30
0.0
 10
111.5760233313169
 20
86.60877257000382
 30
0.0
  0
LINE
  5
D7
330
1F
100
AcDbEntity
  8
0
  6
HIDDEN
 62
     7
370
     0
100
AcDbLine
 10
91.3194420032
 20
91.4750947908
 30
0.0
 11
91.3194420032
 21
144.4750947908
 31
0.0
  0
LINE
  5
D8
330
1F
100
AcDbEntity
  8
0
  6
HIDDEN
 62
     7
370
     0
100
AcDbLine
 10
130.6068952945
 20
91.4750947908
 30
0.0
 11
130.6068952945
 21
144.4750947908
 31
0.0
  0
LINE
  5
D9
330
1F
100
AcDbEntity
  8
0
  6
HIDDEN
 62
     7
370
     0
100
AcDbLine
 10
133.7728176761
 20
93.1000947908
 30
0.0
 11
133.7728176761
 21
142.8500947623
 31
0.0
  0
SPLINE
  5
DA
330
1F
100
AcDbEntity
  8
0
  6
HIDDEN
 62
     7
370
     0
100
AcDbSpline
210
0.0
220
0.0
230
1.0
 70
     8
 71
     3
 72
    20
 73
    16
 74
     0
 42
0.00000001
 43
0.00000001
 40
0.0
 40
0.0
 40
0.0
 40
0.0
 40
0.2499999999999978
 40
0.2499999999999978
 40
0.3749999999999982
 40
0.3749999999999982
 40
0.4999999999999986
 40
0.4999999999999986
 40
0.6249999999999989
 40
0.6249999999999989
 40
0.7499999999999992
 40
0.7499999999999992
 40
0.8749999999999997
 40
0.8749999999999997
 40
1.0
 40
1.0
 40
1.0
 40
1.0
 10
81.52281767612585
 20
143.2036084211652
 30
0.0
 10
81.52281767612585
 20
143.1244054346329
 30
0.0
 10
81.47583518091311
 20
143.04330921623
 30
0.0
 10
81.33801359013553
 20
142.9231125244791
 30
0.0
 10
81.28173130622555
 20
142.884185820477
 30
0.0
 10
81.14864645475834
 20
142.8089970880526
 30
0.0
 10
81.07080651252527
 20
142.7723548827107
 30
0.0
 10
80.89817415641093
 20
142.7047643498788
 30
0.0
 10
80.80378115931985
 20
142.6738061681032
 30
0.0
 10
80.5983438530047
 20
142.6182817467335
 30
0.0
 10
80.48599761301753
 20
142.5935732329003
 30
0.0
 10
80.25375674911788
 20
142.553777005792
 30
0.0
 10
80.13304610669516
 20
142.538357168395
 30
0.0
 10
79.88197524742614
 20
142.5172771935554
 30
0.0
 10
79.75245325101035
 20
142.5117999485344
 30
0.0
 10
79.62281767612586
 20
142.5117999485344
 30
0.0
  0
LINE
  5
DB
330
1F
100
AcDbEntity
  8
0
  6
HIDDEN
 62
     7
370
     0
100
AcDbLine
 10
79.6228176761
 20
142.5117999485
 30
0.0
 11
73.0728176761
 21
142.5117999485
 31
0.0
  0
LINE
  5
DC
330
1F
100
AcDbEntity
  8
0
  6
HIDDEN
 62
     7
370
     0
100
AcDbLine
 10
73.0728176761
 20
93.438389633
 30
0.0
 11
84.6228176761
 21
93.438389633
 31
0.0
  0
SPLINE
  5
DD
330
1F
100
AcDbEntity
  8
0
  6
HIDDEN
 62
     7
370
     0
100
AcDbSpline
210
0.0
220
0.0
230
1.0
 70
     8
 71
     3
 72
    18
 73
    14
 74
     0
 42
0.00000001
 43
0.00000001
 40
0.0
 40
0.0
 40
0.0
 40
0.0
 40
0.1249999999999982
 40
0.1249999999999982
 40
0.2499999999999964
 40
0.2499999999999964
 40
0.4999999999999988
 40
0.4999999999999988
 40
0.7500000000000011
 40
0.7500000000000011
 40
0.8750000000000006
 40
0.8750000000000006
 40
1.0
 40
1.0
 40
1.0
 40
1.0
 10
84.62281767612583
 20
93.43838963296739
 30
0.0
 10
84.75228498908308
 20
93.43838963296739
 30
0.0
 10
84.8792957379797
 20
93.43303663437474
 30
0.0
 10
85.12865905917695
 20
93.41229866168597
 30
0.0
 10
85.25228271380539
 20
93.39662675743168
 30
0.0
 10
85.60131505073943
 20
93.33693202902958
 30
0.0
 10
85.81182681554623
 20
93.27916684934858
 30
0.0
 10
86.15574349324572
 20
93.1446450080711
 30
0.0
 10
86.29209389476355
 20
93.0669758945657
 30
0.0
 10
86.42913195132608
 20
92.94768476047835
 30
0.0
 10
86.46435097003899
 20
92.90676575134331
 30
0.0
 10
86.51097454697754
 20
92.82610975805328
 30
0.0
 10
86.52281767612587
 20
92.78614123786042
 30
0.0
 10
86.52281767612585
 20
92.7465811603366
 30
0.0
  0
LINE
  5
DE
330
1F
100
AcDbEntity
  8
0
  6
HIDDEN
 62
     7
370
     0
100
AcDbLine
 10
73.0728176761
 20
93.438389633
 30
0.0
 11
73.0728176761
 21
142.5117999485
 31
0.0
  0
LWPOLYLINE
  5
DF
330
1F
100
AcDbEntity
  8
0
  6
HIDDEN
 62
     7
370
     0
100
AcDbPolyline
 90
       14
 70
   128
 43
0.0
 10
130.3228176761
 20
157.918825354
 10
131.3623761302
 20
157.9632662117
 10
132.3565008915
 20
158.0946465057
 10
133.2617439376
 20
158.307224287
 10
134.0385418035
 20
158.5917088864
 10
134.652944695
 20
158.9356669617
 10
135.0781002576
 20
159.3240658947
 10
135.295427153
 20
159.7399307882
 10
135.295427153
 20
160.1650863507
 10
135.0781002576
 20
160.5809512442
 10
134.652944695
 20
160.9693501771
 10
134.0385418035
 20
161.3133082525
 10
133.2617439376
 20
161.5977928518
 10
132.7210590531
 20
161.736985959
  0
LWPOLYLINE
  5
E0
330
1F
100
AcDbEntity
  8
0
  6
HIDDEN
 62
     7
370
     0
100
AcDbPolyline
 90
       14
 70
   128
 43
0.0
 10
127.9210846472
 20
161.7362089072
 10
127.3838914147
 20
161.5977928518
 10
126.6070935487
 20
161.3133082525
 10
125.9926906572
 20
160.9693501771
 10
125.5675350947
 20
160.5809512442
 10
125.3502081993
 20
160.1650863507
 10
125.3502081993
 20
159.7399307882
 10
125.5675350947
 20
159.3240658947
 10
125.9926906572
 20
158.9356669617
 10
126.6070935487
 20
158.5917088864
 10
127.3838914147
 20
158.307224287
 10
128.2891344607
 20
158.0946465057
 10
129.283259222
 20
157.9632662117
 10
130.3228176761
 20
157.918825354
  0
SPLINE
  5
E1
330
1F
100
AcDbEntity
  8
0
  6
HIDDEN
 62
     7
370
     0
100
AcDbSpline
210
0.0
220
0.0
230
1.0
 70
     8
 71
     3
 72
    43
 73
    39
 74
     0
 42
0.00000001
 43
0.00000001
 40
-0.0801624898433015
 40
-0.0624517874774243
 40
-0.0297160539841295
 40
0.0
 40
0.0297073985852846
 40
0.0624149912524728
 40
0.0901337064950457
 40
0.124956790556087
 40
0.148510375753033
 40
0.1693705616785351
 40
0.1875422011078736
 40
0.2201296716104744
 40
0.2499386603981702
 40
0.279752136589261
 40
0.3123513443111048
 40
0.3406275752927338
 40
0.3749249989934947
 40
0.3990296689724609
 40
0.4198969595409852
 40
0.4375301221058044
 40
0.4702368940847206
 40
0.4999891146274696
 40
0.5297219999563991
 40
0.5624132421486611
 40
0.5900380497746939
 40
0.624927983750746
 40
0.6484965424927198
 40
0.6693874599140855
 40
0.6876056206600041
 40
0.7202333973536047
 40
0.750069156608694
 40
0.7798602090134996
 40
0.8124265101364874
 40
0.8406391111765674
 40
0.8749111523669688
 40
0.8989596270893337
 40
0.9198375101566985
 40
0.9375482125225757
 40
0.9702839460158705
 40
1.0
 40
1.029707398585285
 40
1.062414991252473
 40
1.090133706495046
 10
196.6567988150472
 20
112.0495868534864
 30
0.0
 10
197.8226884522556
 20
111.9396527087002
 30
0.0
 10
198.9883443828351
 20
112.0495519494036
 30
0.0
 10
200.0827220345679
 20
112.3779351473254
 30
0.0
 10
201.1442292449754
 20
112.9320685998781
 30
0.0
 10
201.9881190941891
 20
113.6098869900898
 30
0.0
 10
202.6354113986221
 20
114.359775969367
 30
0.0
 10
203.0611166873223
 20
115.0187564999185
 30
0.0
 10
203.4533263706341
 20
115.8276782717029
 30
0.0
 10
203.7476990133752
 20
116.8062510378883
 30
0.0
 10
203.8584991503418
 20
117.9727704706173
 30
0.0
 10
203.7485479024793
 20
119.1396433331111
 30
0.0
 10
203.4181630068406
 20
120.2409939700989
 30
0.0
 10
202.8624755409194
 20
121.3016645166288
 30
0.0
 10
202.1787231037509
 20
122.1500590149104
 30
0.0
 10
201.4273484154286
 20
122.796388836783
 30
0.0
 10
200.7669442844041
 20
123.2197976209115
 30
0.0
 10
199.9624978646855
 20
123.6081384070036
 30
0.0
 10
198.9897912098709
 20
123.9004232696027
 30
0.0
 10
197.8234925140629
 20
124.0106107898655
 30
0.0
 10
196.6572470178526
 20
123.9006414198818
 30
0.0
 10
195.5639078249505
 20
123.5725133002301
 30
0.0
 10
194.5027875202865
 20
123.0189975441151
 30
0.0
 10
193.6587067304991
 20
122.3415762771699
 30
0.0
 10
193.0103724698156
 20
121.5906788740103
 30
0.0
 10
192.5840322455521
 20
120.9306932185281
 30
0.0
 10
192.1913752510322
 20
120.1203090735126
 30
0.0
 10
191.8971091723733
 20
119.1401755293426
 30
0.0
 10
191.787130936507
 20
117.9730041160437
 30
0.0
 10
191.8979390447125
 20
116.806579561495
 30
0.0
 10
192.2285338212034
 20
115.706890598769
 30
0.0
 10
192.7837735036401
 20
114.6477978768754
 30
0.0
 10
193.4663438467419
 20
113.8008584716806
 30
0.0
 10
194.216846909201
 20
113.1549297345109
 30
0.0
 10
194.8774247058996
 20
112.7310273468358
 30
0.0
 10
195.683173210821
 20
112.3419279566947
 30
0.0
 10
196.6567988150472
 20
112.0495868534864
 30
0.0
 10
197.8226884522556
 20
111.9396527087002
 30
0.0
 10
198.9883443828351
 20
112.0495519494036
 30
0.0
  0
SPLINE
  5
E2
330
1F
100
AcDbEntity
  8
0
  6
HIDDEN
 62
     7
370
     0
100
AcDbSpline
210
0.0
220
0.0
230
1.0
 70
     8
 71
     3
 72
    13
 73
     9
 74
     0
 42
0.00000001
 43
0.00000001
 40
0.0
 40
0.0
 40
0.0
 40
0.0
 40
0.1709847769599427
 40
0.3419531002492397
 40
0.5131971390677326
 40
0.684384129366535
 40
0.8508982386843746
 40
1.0
 40
1.0
 40
1.0
 40
1.0
 10
197.8228176761259
 20
111.6373683718793
 30
0.0
 10
197.4152021891588
 20
111.6564378647329
 30
0.0
 10
196.6000104395996
 20
111.6945750154042
 30
0.0
 10
195.4096781112478
 20
111.9960812442226
 30
0.0
 10
194.2863089006338
 20
112.4771993722166
 30
0.0
 10
193.2767682062941
 20
113.1407577067976
 30
0.0
 10
192.4260975617612
 20
113.9284862432985
 30
0.0
 10
192.0098862320391
 20
114.5505858428161
 30
0.0
 10
191.8132616382994
 20
114.8444752021048
 30
0.0
  0
SPLINE
  5
E3
330
1F
100
AcDbEntity
  8
0
  6
HIDDEN
 62
     7
370
     0
100
AcDbSpline
210
0.0
220
0.0
230
1.0
 70
     8
 71
     3
 72
    17
 73
    13
 74
     0
 42
0.00000001
 43
0.00000001
 40
0.0
 40
0.0
 40
0.0
 40
0.0
 40
0.1257767863962564
 40
0.2724778817012695
 40
0.4310559036356316
 40
0.5151374479806898
 40
0.5992178610869813
 40
0.684881375054813
 40
0.7705244948065298
 40
0.8542363151053287
 40
0.9379077019052042
 40
1.0
 40
1.0
 40
1.0
 40
1.0
 10
191.7268583091839
 20
120.9352493613792
 30
0.0
 10
192.0670416112223
 20
121.4417739182055
 30
0.0
 10
192.8040013331661
 20
122.5390887902751
 30
0.0
 10
194.5830229315587
 20
123.7020427408946
 30
0.0
 10
196.4094483153283
 20
124.2546803575369
 30
0.0
 10
197.9981505507678
 20
124.3421796997346
 30
0.0
 10
199.2275216973333
 20
124.2177188193803
 30
0.0
 10
200.4242088777525
 20
123.8900560481986
 30
0.0
 10
201.5471343242002
 20
123.3713985593237
 30
0.0
 10
202.5430387850831
 20
122.664415732811
 30
0.0
 10
203.33843009294
 20
121.8849833637288
 30
0.0
 10
203.7100550783138
 20
121.2872538627941
 30
0.0
 10
203.8683595928298
 20
121.0326335272908
 30
0.0
  0
SPLINE
  5
E4
330
1F
100
AcDbEntity
  8
0
  6
HIDDEN
 62
     7
370
     0
100
AcDbSpline
210
0.0
220
0.0
230
1.0
 70
     8
 71
     3
 72
    11
 73
     7
 74
     0
 42
0.00000001
 43
0.00000001
 40
0.0
 40
0.0
 40
0.0
 40
0.0
 40
0.1941123432107967
 40
0.4583177085034964
 40
0.7442173360176086
 40
1.0
 40
1.0
 40
1.0
 40
1.0
 10
204.1251191720688
 20
115.4793513106052
 30
0.0
 10
203.8965059408502
 20
115.0260902406513
 30
0.0
 10
203.3567283536417
 20
113.955897735121
 30
0.0
 10
201.8430926065585
 20
112.6922094232783
 30
0.0
 10
199.9119698454367
 20
111.7946969228911
 30
0.0
 10
198.4929021778437
 20
111.6878306719776
 30
0.0
 10
197.8228176761233
 20
111.6373683718847
 30
0.0
  0
LINE
  5
E5
330
1F
100
AcDbEntity
  8
0
  6
HIDDEN
 62
     7
370
     0
100
AcDbLine
 10
73.0728176761
 20
90.6050947908
 30
0.0
 11
73.0728176761
 21
85.7268095889
 31
0.0
  0
LINE
  5
E6
330
1F
100
AcDbEntity
  8
0
  6
HIDDEN
 62
     7
370
     0
100
AcDbLine
 10
86.5228176761
 20
90.6050947908
 30
0.0
 11
86.5228176761
 21
84.1057615254
 31
0.0
  0
LINE
  5
E7
330
1F
100
AcDbEntity
  8
0
  6
HIDDEN
 62
     7
370
     0
100
AcDbLine
 10
81.5228176761
 20
145.3450947908
 30
0.0
 11
81.5228176761
 21
151.7197035277
 31
0.0
  0
LINE
  5
E8
330
1F
100
AcDbEntity
  8
0
  6
HIDDEN
 62
     7
370
     0
100
AcDbLine
 10
73.0728176761
 20
145.3450947908
 30
0.0
 11
73.0728176761
 21
150.2233799926
 31
0.0
  0
SPLINE
  5
E9
330
1F
100
AcDbEntity
  8
0
  6
HIDDEN
 62
     7
370
     0
100
AcDbSpline
210
0.0
220
0.0
230
1.0
 70
     8
 71
     3
 72
    14
 73
    10
 74
     0
 42
0.00000001
 43
0.00000001
 40
0.0
 40
0.0
 40
0.0
 40
0.0
 40
0.25
 40
0.25
 40
0.5
 40
0.5
 40
0.75
 40
0.75
 40
1.0
 40
1.0
 40
1.0
 40
1.0
 10
173.3390376076012
 20
106.3164905710051
 30
0.0
 10
173.3073908783189
 20
106.2801225179785
 30
0.0
 10
173.2771935497424
 20
106.2443691644421
 30
0.0
 10
173.2291199449176
 20
106.1624020575108
 30
0.0
 10
173.2116344765861
 20
106.1137230926885
 30
0.0
 10
173.2213443129455
 20
105.9807622151274
 30
0.0
 10
173.2466690871832
 20
105.9021545965345
 30
0.0
 10
173.3063641038826
 20
105.749307415857
 30
0.0
 10
173.341227032298
 20
105.6734738023539
 30
0.0
 10
173.3776370945772
 20
105.5988929566296
 30
0.0
  0
SPLINE
  5
EA
330
1F
100
AcDbEntity
  8
0
  6
HIDDEN
 62
     7
370
     0
100
AcDbSpline
210
0.0
220
0.0
230
1.0
 70
     8
 71
     3
 72
    14
 73
    10
 74
     0
 42
0.00000001
 43
0.00000001
 40
0.0
 40
0.0
 40
0.0
 40
0.0
 40
0.25
 40
0.25
 40
0.5
 40
0.5
 40
0.75
 40
0.75
 40
1.0
 40
1.0
 40
1.0
 40
1.0
 10
173.3776370945776
 20
105.5988929566293
 30
0.0
 10
173.4132103485287
 20
105.6319093180573
 30
0.0
 10
173.4441121795478
 20
105.6719600925839
 30
0.0
 10
173.486666300128
 20
105.7704227346906
 30
0.0
 10
173.4968929502876
 20
105.8272383853152
 30
0.0
 10
173.488558843791
 20
105.9551757501229
 30
0.0
 10
173.4699412069563
 20
106.0249088468628
 30
0.0
 10
173.4144358244034
 20
106.1684276135083
 30
0.0
 10
173.378343175044
 20
106.2417531922256
 30
0.0
 10
173.3390376076017
 20
106.3164905710062
 30
0.0
  0
SPLINE
  5
EB
330
1F
100
AcDbEntity
  8
0
  6
HIDDEN
 62
     7
370
     0
100
AcDbSpline
210
0.0
220
0.0
230
1.0
 70
     8
 71
     3
 72
    10
 73
     6
 74
     0
 42
0.00000001
 43
0.00000001
 40
0.0
 40
0.0
 40
0.0
 40
0.0
 40
0.5
 40
0.5
 40
1.0
 40
1.0
 40
1.0
 40
1.0
 10
172.8228176761255
 20
106.9973917473529
 30
0.0
 10
172.8228176761255
 20
107.0206451639373
 30
0.0
 10
172.8238973229423
 20
107.0417405598141
 30
0.0
 10
172.8280505799395
 20
107.079822582342
 30
0.0
 10
172.8311251455755
 20
107.0968117011357
 30
0.0
 10
172.8351280268282
 20
107.1116772273124
 30
0.0
  0
SPLINE
  5
EC
330
1F
100
AcDbEntity
  8
0
  6
HIDDEN
 62
     7
370
     0
100
AcDbSpline
210
0.0
220
0.0
230
1.0
 70
     8
 71
     3
 72
    18
 73
    14
 74
     0
 42
0.00000001
 43
0.00000001
 40
0.0
 40
0.0
 40
0.0
 40
0.0
 40
0.072546817043673
 40
0.161446557082176
 40
0.2237901744065816
 40
0.2739496779913435
 40
0.3241523600612602
 40
0.3940486994924045
 40
0.5073064483300159
 40
0.6272500531558488
 40
0.7710998847881667
 40
0.9051909783953925
 40
0.9999999999999999
 40
0.9999999999999999
 40
0.9999999999999999
 40
0.9999999999999999
 10
172.8513616182777
 20
107.1411850809946
 30
0.0
 10
172.8564673357098
 20
107.1528394962724
 30
0.0
 10
172.8678296605428
 20
107.1787753718642
 30
0.0
 10
172.8896535574265
 20
107.1768809248345
 30
0.0
 10
172.9045867089598
 20
107.1537703729157
 30
0.0
 10
172.9095901548442
 20
107.111697252996
 30
0.0
 10
172.9053400843986
 20
107.0488606355245
 30
0.0
 10
172.8887166888315
 20
106.9481239974782
 30
0.0
 10
172.8611226006892
 20
106.8124643689551
 30
0.0
 10
172.8325641933716
 20
106.6494791810537
 30
0.0
 10
172.8191028418547
 20
106.4985334130536
 30
0.0
 10
172.8270448154434
 20
106.3909272490001
 30
0.0
 10
172.8438792551232
 20
106.3627836804142
 30
0.0
 10
172.8508519766259
 20
106.3511267871897
 30
0.0
  0
LWPOLYLINE
  5
ED
330
1F
100
AcDbEntity
  8
0
  6
HIDDEN
 62
     7
370
     0
100
AcDbPolyline
 90
        9
 70
   128
 43
0.0
 10
172.8582442929
 20
106.3348747183
 10
172.8886020265
 20
106.330461172
 10
172.9026847301
 20
106.3542569418
 10
172.908091353
 20
106.3930324722
 10
172.9050410685
 20
106.4502298888
 10
172.8928000332
 20
106.5291521049
 10
172.8670412553
 20
106.658970745
 10
172.8353162853
 20
106.8390972745
 10
172.8228176761
 20
106.9973917474
  0
SPLINE
  5
EE
330
1F
100
AcDbEntity
  8
0
  6
HIDDEN
 62
     7
370
     0
100
AcDbSpline
210
0.0
220
0.0
230
1.0
 70
     8
 71
     3
 72
     8
 73
     4
 74
     0
 42
0.00000001
 43
0.00000001
 40
0.0
 40
0.0
 40
0.0
 40
0.0
 40
1.0
 40
1.0
 40
1.0
 40
1.0
 10
175.5648517153363
 20
112.0377822410222
 30
0.0
 10
175.5236306756398
 20
112.074093186651
 30
0.0
 10
175.4780760103068
 20
112.1125359721977
 30
0.0
 10
175.428043658006
 20
112.1553214230255
 30
0.0
  0
SPLINE
  5
EF
330
1F
100
AcDbEntity
  8
0
  6
HIDDEN
 62
     7
370
     0
100
AcDbSpline
210
0.0
220
0.0
230
1.0
 70
     8
 71
     3
 72
    34
 73
    30
 74
     0
 42
0.00000001
 43
0.00000001
 40
0.0
 40
0.0
 40
0.0
 40
0.0
 40
0.062500000000001
 40
0.062500000000001
 40
0.1250000000000019
 40
0.1250000000000019
 40
0.250000000000001
 40
0.250000000000001
 40
0.3125000000000005
 40
0.3125000000000005
 40
0.3750000000000001
 40
0.3750000000000001
 40
0.5000000000000003
 40
0.5000000000000003
 40
0.5625000000000003
 40
0.5625000000000003
 40
0.6250000000000002
 40
0.6250000000000002
 40
0.6875000000000002
 40
0.6875000000000002
 40
0.7500000000000002
 40
0.7500000000000002
 40
0.8125000000000002
 40
0.8125000000000002
 40
0.8750000000000001
 40
0.8750000000000001
 40
0.9375000000000001
 40
0.9375000000000001
 40
1.0
 40
1.0
 40
1.0
 40
1.0
 10
175.428043658006
 20
112.1553214230255
 30
0.0
 10
175.3258837185462
 20
112.2426840766953
 30
0.0
 10
175.2098524235101
 20
112.3174151951003
 30
0.0
 10
174.9502628218412
 20
112.4398558080977
 30
0.0
 10
174.8099881747941
 20
112.4855377087673
 30
0.0
 10
174.3718283103355
 20
112.5693984151281
 30
0.0
 10
174.0569589487719
 20
112.5503616887299
 30
0.0
 10
173.6395470709469
 20
112.4179988651384
 30
0.0
 10
173.506841208591
 20
112.3562352213666
 30
0.0
 10
173.2733970734762
 20
112.2084902710019
 30
0.0
 10
173.1692462393585
 20
112.1204323707446
 30
0.0
 10
172.9164579175609
 20
111.8353777894699
 30
0.0
 10
172.8228901844696
 20
111.6122695867376
 30
0.0
 10
172.822781487057
 20
111.2927505320119
 30
0.0
 10
172.8450763375457
 20
111.1904773176628
 30
0.0
 10
172.934390106704
 20
110.995929076403
 30
0.0
 10
172.9993025540136
 20
110.9078524448996
 30
0.0
 10
173.1692515669471
 20
110.7480287214242
 30
0.0
 10
173.2715347564822
 20
110.6792288579217
 30
0.0
 10
173.5061074644857
 20
110.5640320525131
 30
0.0
 10
173.6375176268262
 20
110.5183757378128
 30
0.0
 10
173.9161447382911
 20
110.4530803077968
 30
0.0
 10
174.0653203491839
 20
110.433156205988
 30
0.0
 10
174.3635339273847
 20
110.4203688955174
 30
0.0
 10
174.5165410260611
 20
110.4274031087736
 30
0.0
 10
174.8075681014601
 20
110.467580509851
 30
0.0
 10
174.9498937715449
 20
110.5013178967299
 30
0.0
 10
175.2076633021157
 20
110.592709540281
 30
0.0
 10
175.3258820535403
 20
110.6510229064276
 30
0.0
 10
175.428043658006
 20
110.7211139561805
 30
0.0
  0
SPLINE
  5
F0
330
1F
100
AcDbEntity
  8
0
  6
HIDDEN
 62
     7
370
     0
100
AcDbSpline
210
0.0
220
0.0
230
1.0
 70
     8
 71
     3
 72
     8
 73
     4
 74
     0
 42
0.00000001
 43
0.00000001
 40
0.0
 40
0.0
 40
0.0
 40
0.0
 40
1.0
 40
1.0
 40
1.0
 40
1.0
 10
175.428043658006
 20
110.7211139561805
 30
0.0
 10
175.4780760103068
 20
110.7554401603617
 30
0.0
 10
175.5236306756398
 20
110.7985909255828
 30
0.0
 10
175.5648517153363
 20
110.8483694065173
 30
0.0
  0
SPLINE
  5
F1
330
1F
100
AcDbEntity
  8
0
  6
HIDDEN
 62
     7
370
     0
100
AcDbSpline
210
0.0
220
0.0
230
1.0
 70
     8
 71
     3
 72
    12
 73
     8
 74
     0
 42
0.00000001
 43
0.00000001
 40
0.0
 40
0.0
 40
0.0
 40
0.0
 40
0.25
 40
0.25
 40
0.5
 40
0.5
 40
1.0
 40
1.0
 40
1.0
 40
1.0
 10
175.5648517153363
 20
110.8483694065173
 30
0.0
 10
175.6485163624411
 20
110.9494027397727
 30
0.0
 10
175.7124024450582
 20
111.0532118896803
 30
0.0
 10
175.8003541268102
 20
111.2681241212624
 30
0.0
 10
175.8226801852842
 20
111.3760362090157
 30
0.0
 10
175.8230907618031
 20
111.6923588989621
 30
0.0
 10
175.7321889318013
 20
111.8903775997647
 30
0.0
 10
175.5648517153363
 20
112.0377822410222
 30
0.0
  0
SPLINE
  5
F2
330
1F
100
AcDbEntity
  8
0
  6
HIDDEN
 62
     7
370
     0
100
AcDbSpline
210
0.0
220
0.0
230
1.0
 70
     8
 71
     3
 72
    14
 73
    10
 74
     0
 42
0.00000001
 43
0.00000001
 40
0.0
 40
0.0
 40
0.0
 40
0.0
 40
0.25
 40
0.25
 40
0.5
 40
0.5
 40
0.75
 40
0.75
 40
1.0
 40
1.0
 40
1.0
 40
1.0
 10
173.3776370945774
 20
107.2460928038034
 30
0.0
 10
173.3411680989436
 20
107.2789417802993
 30
0.0
 10
173.3062251667835
 20
107.3105576246526
 30
0.0
 10
173.2464878254388
 20
107.3813547676225
 30
0.0
 10
173.2211986261157
 20
107.4212965695916
 30
0.0
 10
173.2117115268846
 20
107.539044927409
 30
0.0
 10
173.2292065296375
 20
107.6153414803855
 30
0.0
 10
173.277401098895
 20
107.7666779833204
 30
0.0
 10
173.3074536488726
 20
107.8427479577503
 30
0.0
 10
173.3390376075999
 20
107.9178504785669
 30
0.0
  0
SPLINE
  5
F3
330
1F
100
AcDbEntity
  8
0
  6
HIDDEN
 62
     7
370
     0
100
AcDbSpline
210
0.0
220
0.0
230
1.0
 70
     8
 71
     3
 72
    10
 73
     6
 74
     0
 42
0.00000001
 43
0.00000001
 40
0.0
 40
0.0
 40
0.0
 40
0.0
 40
0.5
 40
0.5
 40
1.0
 40
1.0
 40
1.0
 40
1.0
 10
173.3390376076017
 20
107.9178504785686
 30
0.0
 10
173.4175179256541
 20
107.8650517202729
 30
0.0
 10
173.4839279857497
 20
107.7798933670994
 30
0.0
 10
173.5013718478787
 20
107.5384437624926
 30
0.0
 10
173.4488114791535
 20
107.3938326192261
 30
0.0
 10
173.3776370945777
 20
107.2460928038032
 30
0.0
  0
SPLINE
  5
F4
330
1F
100
AcDbEntity
  8
0
  6
HIDDEN
 62
     7
370
     0
100
AcDbSpline
210
0.0
220
0.0
230
1.0
 70
     8
 71
     3
 72
    48
 73
    44
 74
     0
 42
0.00000001
 43
0.00000001
 40
-0.0624999999999989
 40
-0.0624999999999989
 40
0.0
 40
0.0
 40
0.0312500000000002
 40
0.0312500000000002
 40
0.0625000000000005
 40
0.0625000000000005
 40
0.125000000000001
 40
0.125000000000001
 40
0.1875000000000015
 40
0.1875000000000015
 40
0.2500000000000021
 40
0.2500000000000021
 40
0.3125000000000026
 40
0.3125000000000026
 40
0.3437500000000026
 40
0.3437500000000026
 40
0.3750000000000027
 40
0.3750000000000027
 40
0.4062500000000028
 40
0.4062500000000028
 40
0.4375000000000028
 40
0.4375000000000028
 40
0.5000000000000024
 40
0.5000000000000024
 40
0.5625000000000021
 40
0.5625000000000021
 40
0.6250000000000019
 40
0.6250000000000019
 40
0.6875000000000016
 40
0.6875000000000016
 40
0.7500000000000012
 40
0.7500000000000012
 40
0.812500000000001
 40
0.812500000000001
 40
0.843750000000001
 40
0.843750000000001
 40
0.875000000000001
 40
0.875000000000001
 40
0.906250000000001
 40
0.906250000000001
 40
0.9375000000000011
 40
0.9375000000000011
 40
1.0
 40
1.0
 40
1.03125
 40
1.03125
 10
175.4536076534774
 20
105.5507653330248
 30
0.0
 10
175.5756754839944
 20
105.5541566582467
 30
0.0
 10
175.614137813912
 20
105.562603474193
 30
0.0
 10
175.6842872896785
 20
105.5948783382472
 30
0.0
 10
175.7163044224536
 20
105.619151095713
 30
0.0
 10
175.7950400093713
 20
105.7159737572343
 30
0.0
 10
175.8247684101922
 20
105.8151233949693
 30
0.0
 10
175.8206566561621
 20
106.064045196739
 30
0.0
 10
175.7866105634967
 20
106.2146466438335
 30
0.0
 10
175.6752444049719
 20
106.5235618143621
 30
0.0
 10
175.5988454813813
 20
106.6823216939879
 30
0.0
 10
175.435672301117
 20
106.9900929408262
 30
0.0
 10
175.3470328351015
 20
107.1408304737363
 30
0.0
 10
175.2378187343725
 20
107.3587556872588
 30
0.0
 10
175.2048971866606
 20
107.4319113469513
 30
0.0
 10
175.1604464736608
 20
107.5714479905971
 30
0.0
 10
175.1492136552367
 20
107.6394486259657
 30
0.0
 10
175.1560014536607
 20
107.7593821374768
 30
0.0
 10
175.1737484169462
 20
107.8128008721317
 30
0.0
 10
175.2258989434189
 20
107.9009479504612
 30
0.0
 10
175.2602721078862
 20
107.9370701365455
 30
0.0
 10
175.3722187685842
 20
108.0231694868963
 30
0.0
 10
175.4577027457377
 20
108.0522665042906
 30
0.0
 10
175.6158542236381
 20
108.0558050997253
 30
0.0
 10
175.688099099073
 20
108.0298402462452
 30
0.0
 10
175.7937891554579
 20
107.9081431822978
 30
0.0
 10
175.8242882012162
 20
107.8112944230701
 30
0.0
 10
175.8212318252982
 20
107.5621453526029
 30
0.0
 10
175.7873091749038
 20
107.4092100297361
 30
0.0
 10
175.6773437473057
 20
107.0963291335699
 30
0.0
 10
175.6021884819128
 20
106.9353732115106
 30
0.0
 10
175.4434285521664
 20
106.6258707493066
 30
0.0
 10
175.3567838315247
 20
106.4729922827758
 30
0.0
 10
175.2483136970789
 20
106.2543686672839
 30
0.0
 10
175.2153641304282
 20
106.1822216814987
 30
0.0
 10
175.1665745906679
 20
106.0398736716369
 30
0.0
 10
175.1519829965442
 20
105.9715850197159
 30
0.0
 10
175.1519647597127
 20
105.8465042577266
 30
0.0
 10
175.1666469866719
 20
105.791642702246
 30
0.0
 10
175.2166593626965
 20
105.6996966787986
 30
0.0
 10
175.2506456687273
 20
105.6633781137261
 30
0.0
 10
175.3649432373198
 20
105.5769050247871
 30
0.0
 10
175.4536076534774
 20
105.5507653330248
 30
0.0
 10
175.5756754839944
 20
105.5541566582467
 30
0.0
  0
LWPOLYLINE
  5
F5
330
1F
100
AcDbEntity
  8
0
  6
HIDDEN
 62
     7
370
     0
100
AcDbPolyline
 90
       17
 70
   128
 43
0.0
 10
174.3228176761
 20
104.7521979826
 10
173.7487925276
 20
104.8329359307
 10
173.2621575043
 20
105.0628581543
 10
172.9369983774
 20
105.4069610792
 10
172.8228176761
 20
105.8128581543
 10
172.9369983774
 20
106.2187552295
 10
173.2621575043
 20
106.5628581543
 10
173.7487925276
 20
106.792780378
 10
174.3228176761
 20
106.8735183261
 10
174.8968428247
 20
106.792780378
 10
175.3834778479
 20
106.5628581543
 10
175.7086369749
 20
106.2187552295
 10
175.8228176761
 20
105.8128581543
 10
175.7086369749
 20
105.4069610792
 10
175.3834778479
 20
105.0628581543
 10
174.8968428247
 20
104.8329359307
 10
174.3228176761
 20
104.7521979826
  0
LINE
  5
F6
330
1F
100
AcDbEntity
  8
0
  6
HIDDEN
 62
     7
370
     0
100
AcDbLine
 10
145.6228176761
 20
104.9750947908
 30
0.0
 11
145.6228176761
 21
130.9750947908
 31
0.0
  0
LINE
  5
F7
330
1F
100
AcDbEntity
  8
0
  6
HIDDEN
 62
     7
370
     0
100
AcDbLine
 10
149.6228176761
 20
104.9750947908
 30
0.0
 11
149.6228176761
 21
130.9750947908
 31
0.0
  0
ARC
  5
F8
330
1F
100
AcDbEntity
  8
0
  6
HIDDEN
 62
     7
370
     0
100
AcDbCircle
 10
160.1999741303
 20
106.8258863907
 30
0.0
 40
13.18436098674336
100
AcDbArc
 50
1.8264163085
 51
4.7508319696
  0
LINE
  5
F9
330
1F
100
AcDbEntity
  8
0
  6
HIDDEN
 62
     7
370
     0
100
AcDbLine
 10
134.5228176761
 20
106.7250947908
 30
0.0
 11
134.5228176761
 21
129.2250947908
 31
0.0
  0
ELLIPSE
  5
FA
330
1F
100
AcDbEntity
  8
0
  6
HIDDEN
 62
     7
370
     0
100
AcDbEllipse
 10
65.1381444758
 20
117.9750947908
 30
0.0
 11
31.08108570811662
 21
1.421085471520200E-14
 31
0.0
210
0.0
220
0.0
230
1.0
 40
0.8164965809
 41
1.312649268214811
 42
1.367189972061496
  0
ELLIPSE
  5
FB
330
1F
100
AcDbEntity
  8
0
  6
HIDDEN
 62
     7
370
     0
100
AcDbEllipse
 10
65.1381444758
 20
117.9750947908
 30
0.0
 11
31.08108570811662
 21
-1.421085471520200E-14
 31
0.0
210
0.0
220
0.0
230
1.0
 40
0.8164965809
 41
4.915995335118103
 42
4.970536038964788
  0
LINE
  5
FC
330
1F
100
AcDbEntity
  8
0
  6
HIDDEN
 62
     7
370
     0
100
AcDbLine
 10
150.2728176761
 20
74.0750947908
 30
0.0
 11
136.2728176761
 21
74.0750947908
 31
0.0
  0
LINE
  5
FD
330
1F
100
AcDbEntity
  8
0
  6
HIDDEN
 62
     7
370
     0
100
AcDbLine
 10
126.2728176761
 20
67.985095791
 30
0.0
 11
126.2728176761
 21
74.0750947908
 31
0.0
  0
LINE
  5
FE
330
1F
100
AcDbEntity
  8
0
  6
HIDDEN
 62
     7
370
     0
100
AcDbLine
 10
136.2728176761
 20
74.0750947908
 30
0.0
 11
126.2728176761
 21
74.0750947908
 31
0.0
  0
ARC
  5
FF
330
1F
100
AcDbEntity
  8
0
  6
HIDDEN
 62
     7
370
     0
100
AcDbCircle
 10
189.54700836
 20
106.8284783763
 30
0.0
 40
16.21605523623104
100
AcDbArc
 50
181.8092943
 51
184.3486370525
  0
LINE
  5
100
330
1F
100
AcDbEntity
  8
0
  6
HIDDEN
 62
     7
370
     0
100
AcDbLine
 10
86.5228176761
 20
90.6050947908
 30
0.0
 11
86.5228176761
 21
92.7465811603
 31
0.0
  0
LINE
  5
101
330
1F
100
AcDbEntity
  8
0
  6
HIDDEN
 62
     7
370
     0
100
AcDbLine
 10
73.0728176761
 20
90.6050947908
 30
0.0
 11
73.0728176761
 21
93.438389633
 31
0.0
  0
LINE
  5
102
330
1F
100
AcDbEntity
  8
0
  6
HIDDEN
 62
     7
370
     0
100
AcDbLine
 10
81.5228176761
 20
145.3450947908
 30
0.0
 11
81.5228176761
 21
143.2036084212
 31
0.0
  0
LINE
  5
103
330
1F
100
AcDbEntity
  8
0
  6
HIDDEN
 62
     7
370
     0
100
AcDbLine
 10
73.0728176761
 20
145.3450947908
 30
0.0
 11
73.0728176761
 21
142.5117999485
 31
0.0
  0
LINE
  5
104
330
1F
100
AcDbEntity
  8
0
  6
HIDDEN
 62
     7
370
     0
100
AcDbLine
 10
136.2728176761
 20
161.8750947908
 30
0.0
 11
126.2728176761
 21
161.8750947908
 31
0.0
  0
LINE
  5
105
330
1F
100
AcDbEntity
  8
0
  6
HIDDEN
 62
     7
370
     0
100
AcDbLine
 10
150.2728176761
 20
161.8750947908
 30
0.0
 11
136.2728176761
 21
161.8750947908
 31
0.0
  0
SPLINE
  5
106
330
1F
100
AcDbEntity
  8
0
  6
HIDDEN
 62
     7
370
     0
100
AcDbSpline
210
0.0
220
0.0
230
1.0
 70
     8
 71
     3
 72
    34
 73
    30
 74
     0
 42
0.00000001
 43
0.00000001
 40
0.0
 40
0.0
 40
0.0
 40
0.0
 40
0.0624999999999982
 40
0.0624999999999982
 40
0.1249999999999964
 40
0.1249999999999964
 40
0.2499999999999957
 40
0.2499999999999957
 40
0.3124999999999953
 40
0.3124999999999953
 40
0.3749999999999949
 40
0.3749999999999949
 40
0.4999999999999957
 40
0.4999999999999957
 40
0.5624999999999962
 40
0.5624999999999962
 40
0.6249999999999968
 40
0.6249999999999968
 40
0.6874999999999973
 40
0.6874999999999973
 40
0.7499999999999979
 40
0.7499999999999979
 40
0.8124999999999984
 40
0.8124999999999984
 40
0.874999999999999
 40
0.874999999999999
 40
0.9374999999999996
 40
0.9374999999999996
 40
1.0
 40
1.0
 40
1.0
 40
1.0
 10
175.428043658006
 20
123.7948681584763
 30
0.0
 10
175.3258837185462
 20
123.7075055048065
 30
0.0
 10
175.2098524235101
 20
123.6327743864015
 30
0.0
 10
174.9502628218412
 20
123.5103337734041
 30
0.0
 10
174.8099881747941
 20
123.4646518727345
 30
0.0
 10
174.3718283103355
 20
123.3807911663737
 30
0.0
 10
174.0569589487719
 20
123.3998278927719
 30
0.0
 10
173.6395470709469
 20
123.5321907163634
 30
0.0
 10
173.506841208591
 20
123.5939543601352
 30
0.0
 10
173.2733970734762
 20
123.7416993104999
 30
0.0
 10
173.1692462393585
 20
123.8297572107572
 30
0.0
 10
172.9164579175609
 20
124.1148117920319
 30
0.0
 10
172.8228901844696
 20
124.3379199947641
 30
0.0
 10
172.822781487057
 20
124.6574390494899
 30
0.0
 10
172.8450763375457
 20
124.759712263839
 30
0.0
 10
172.9343901067041
 20
124.9542605050988
 30
0.0
 10
172.9993025540136
 20
125.0423371366021
 30
0.0
 10
173.1692515669471
 20
125.2021608600776
 30
0.0
 10
173.2715347564822
 20
125.27096072358
 30
0.0
 10
173.5061074644857
 20
125.3861575289887
 30
0.0
 10
173.6375176268262
 20
125.431813843689
 30
0.0
 10
173.9161447382911
 20
125.497109273705
 30
0.0
 10
174.0653203491839
 20
125.5170333755138
 30
0.0
 10
174.3635339273847
 20
125.5298206859844
 30
0.0
 10
174.5165410260611
 20
125.5227864727281
 30
0.0
 10
174.8075681014601
 20
125.4826090716507
 30
0.0
 10
174.9498937715449
 20
125.4488716847719
 30
0.0
 10
175.2076633021157
 20
125.3574800412207
 30
0.0
 10
175.3258820535403
 20
125.2991666750742
 30
0.0
 10
175.428043658006
 20
125.2290756253213
 30
0.0
  0
LINE
  5
107
330
1F
100
AcDbEntity
  8
0
  6
HIDDEN
 62
     7
370
     0
100
AcDbLine
 10
172.3228176761
 20
109.0750947908
 30
0.0
 11
172.3228176761
 21
126.8750946218
 31
0.0
  0
SPLINE
  5
108
330
1F
100
AcDbEntity
  8
0
  6
HIDDEN
 62
     7
370
     0
100
AcDbSpline
210
0.0
220
0.0
230
1.0
 70
     8
 71
     3
 72
     8
 73
     4
 74
     0
 42
0.00000001
 43
0.00000001
 40
0.0
 40
0.0
 40
0.0
 40
0.0
 40
1.0
 40
1.0
 40
1.0
 40
1.0
 10
175.428043658006
 20
125.2290756253213
 30
0.0
 10
175.4780760103068
 20
125.19474942114
 30
0.0
 10
175.5236306756398
 20
125.151598655919
 30
0.0
 10
175.5648517153363
 20
125.1018201749845
 30
0.0
  0
SPLINE
  5
109
330
1F
100
AcDbEntity
  8
0
  6
HIDDEN
 62
     7
370
     0
100
AcDbSpline
210
0.0
220
0.0
230
1.0
 70
     8
 71
     3
 72
    12
 73
     8
 74
     0
 42
0.00000001
 43
0.00000001
 40
0.0
 40
0.0
 40
0.0
 40
0.0
 40
0.2499999999999994
 40
0.2499999999999994
 40
0.4999999999999989
 40
0.4999999999999989
 40
1.0
 40
1.0
 40
1.0
 40
1.0
 10
175.5648517153363
 20
125.1018201749845
 30
0.0
 10
175.6485163624411
 20
125.0007868417291
 30
0.0
 10
175.7124024450582
 20
124.8969776918215
 30
0.0
 10
175.8003541268103
 20
124.6820654602394
 30
0.0
 10
175.8226801852842
 20
124.5741533724861
 30
0.0
 10
175.8230907618031
 20
124.2578306825397
 30
0.0
 10
175.7321889318013
 20
124.0598119817371
 30
0.0
 10
175.5648517153363
 20
123.9124073404795
 30
0.0
  0
LINE
  5
10A
330
1F
100
AcDbEntity
  8
0
  6
HIDDEN
 62
     7
370
     0
100
AcDbLine
 10
176.3228176761
 20
108.9750947908
 30
0.0
 11
176.3228176761
 21
126.9750947908
 31
0.0
  0
SPLINE
  5
10B
330
1F
100
AcDbEntity
  8
0
  6
HIDDEN
 62
     7
370
     0
100
AcDbSpline
210
0.0
220
0.0
230
1.0
 70
     8
 71
     3
 72
    30
 73
    26
 74
     0
 42
0.00000001
 43
0.00000001
 40
0.0
 40
0.0
 40
0.0
 40
0.0
 40
0.0531240803608312
 40
0.1125059988685758
 40
0.1779044870208582
 40
0.2129292088635752
 40
0.2494830018711864
 40
0.2912496091675454
 40
0.3260925930850084
 40
0.3540082411754764
 40
0.3749939061514337
 40
0.4414527814300359
 40
0.5001714506909403
 40
0.5546871467499898
 40
0.6144324374262521
 40
0.6794589596313931
 40
0.7140165893750993
 40
0.7499142179657889
 40
0.7913794799604176
 40
0.8260470497237092
 40
0.8539131433730247
 40
0.8749749087556327
 40
0.9411625814258556
 40
0.9999141552924076
 40
0.9999999999999999
 40
0.9999999999999999
 40
0.9999999999999999
 40
0.9999999999999999
 10
112.322323675564
 20
80.87517738089811
 30
0.0
 10
112.306131035104
 20
80.88007653813234
 30
0.0
 10
112.271838315552
 20
80.8904519568597
 30
0.0
 10
111.9705445077778
 20
80.96609969909386
 30
0.0
 10
111.5283787285975
 20
81.062385276355
 30
0.0
 10
111.0335456017349
 20
81.16205021525231
 30
0.0
 10
110.5630700159612
 20
81.25432833668208
 30
0.0
 10
110.0321485664622
 20
81.34996037684664
 30
0.0
 10
109.4939980698983
 20
81.43561061825508
 30
0.0
 10
109.0359507345795
 20
81.5029024115817
 30
0.0
 10
108.3803864137109
 20
81.59125058047827
 30
0.0
 10
107.4970799755701
 20
81.68790866477076
 30
0.0
 10
106.3684182428988
 20
81.77468384152093
 30
0.0
 10
105.2786564931431
 20
81.81276253923694
 30
0.0
 10
104.1826282147156
 20
81.81461297399959
 30
0.0
 10
103.277236967771
 20
81.78845151841469
 30
0.0
 10
102.5809342573561
 20
81.75184429328577
 30
0.0
 10
102.054254529081
 20
81.71282741780871
 30
0.0
 10
101.5876084140484
 20
81.67061829033678
 30
0.0
 10
101.2163931383246
 20
81.6336142007674
 30
0.0
 10
100.9623466610825
 20
81.60491344032306
 30
0.0
 10
100.6612915083731
 20
81.56853348973317
 30
0.0
 10
100.4058077135692
 20
81.53575332274673
 30
0.0
 10
100.3065869886238
 20
81.51941543803781
 30
0.0
 10
100.3228675459065
 20
81.52200902421104
 30
0.0
 10
100.3228912994924
 20
81.52201280829355
 30
0.0
  0
SPLINE
  5
10C
330
1F
100
AcDbEntity
  8
0
  6
HIDDEN
 62
     7
370
     0
100
AcDbSpline
210
0.0
220
0.0
230
1.0
 70
     8
 71
     3
 72
    30
 73
    26
 74
     0
 42
0.00000001
 43
0.00000001
 40
0.0
 40
0.0
 40
0.0
 40
0.0
 40
0.0001200707549341
 40
0.0285506370810472
 40
0.0588539667860429
 40
0.0910342344622855
 40
0.1250948652896306
 40
0.1546831593356711
 40
0.1963616785227372
 40
0.2501159558905076
 40
0.3205306482872659
 40
0.3856151871318485
 40
0.4454081550266782
 40
0.4999610409727114
 40
0.5283530907557765
 40
0.558637444445505
 40
0.5908217647170266
 40
0.6249123757161792
 40
0.6541871351724965
 40
0.6958653627413168
 40
0.7499326654591103
 40
0.821591909961664
 40
0.8871431648084007
 40
0.9466382880600801
 40
1.0
 40
1.0
 40
1.0
 40
1.0
 10
100.3229195730675
 20
154.4281050678821
 30
0.0
 10
100.3228855088738
 20
154.4281124955469
 30
0.0
 10
100.3147856644623
 20
154.4298786588593
 30
0.0
 10
100.3434450066199
 20
154.4244242068523
 30
0.0
 10
100.4168343770321
 20
154.4138808533216
 30
0.0
 10
100.5604901792845
 20
154.3941957943193
 30
0.0
 10
100.7615260864911
 20
154.3693564889048
 30
0.0
 10
101.0441565825069
 20
154.3351480344448
 30
0.0
 10
101.4575657281004
 20
154.2914681336704
 30
0.0
 10
102.1338532212658
 20
154.2284250677448
 30
0.0
 10
103.0722841250973
 20
154.1671278967274
 30
0.0
 10
104.181777337818
 20
154.1358394533823
 30
0.0
 10
105.2792580686904
 20
154.1374946209422
 30
0.0
 10
106.179289307108
 20
154.1688008230474
 30
0.0
 10
106.8906302329642
 20
154.2156339718488
 30
0.0
 10
107.4560471339538
 20
154.262800833745
 30
0.0
 10
108.0449705567825
 20
154.3222398402949
 30
0.0
 10
108.6093802092599
 20
154.3885970469029
 30
0.0
 10
109.2035764031961
 20
154.4705164533345
 30
0.0
 10
109.8701845641666
 20
154.5721644360849
 30
0.0
 10
110.6715173098668
 20
154.7143033466852
 30
0.0
 10
111.4240272943747
 20
154.8655479174516
 30
0.0
 10
111.9693137893409
 20
154.983398790711
 30
0.0
 10
112.2720353208398
 20
155.0596280224602
 30
0.0
 10
112.3063257714528
 20
155.0700803319547
 30
0.0
 10
112.3225392081028
 20
155.0750224617549
 30
0.0
  0
SPLINE
  5
10D
330
1F
100
AcDbEntity
  8
0
  6
HIDDEN
 62
     7
370
     0
100
AcDbSpline
210
0.0
220
0.0
230
1.0
 70
     8
 71
     3
 72
     8
 73
     4
 74
     0
 42
0.00000001
 43
0.00000001
 40
0.0
 40
0.0
 40
0.0
 40
0.0
 40
1.0
 40
1.0
 40
1.0
 40
1.0
 10
175.5648517153363
 20
123.9124073404795
 30
0.0
 10
175.5236306756398
 20
123.8760963948507
 30
0.0
 10
175.4780760103068
 20
123.8376536093041
 30
0.0
 10
175.428043658006
 20
123.7948681584763
 30
0.0
  0
LINE
  5
10E
330
1F
100
AcDbEntity
  8
0
  6
HIDDEN
 62
     7
370
     0
100
AcDbLine
 10
165.7728176761
 20
94.5524450599
 30
0.0
 11
160.7728176761
 21
94.5524450599
 31
0.0
  0
LINE
  5
10F
330
1F
100
AcDbEntity
  8
0
  6
HIDDEN
 62
     7
370
     0
100
AcDbLine
 10
163.2728176761
 20
141.3977445216
 30
0.0
 11
165.7728176761
 21
141.3977445216
 31
0.0
  0
LINE
  5
110
330
1F
100
AcDbEntity
  8
0
  6
HIDDEN
 62
     7
370
     0
100
AcDbLine
 10
160.7728176761
 20
141.3977445216
 30
0.0
 11
163.2728176761
 21
141.3977445216
 31
0.0
  0
LINE
  5
111
330
1F
100
AcDbEntity
  8
0
  6
HIDDEN
 62
     7
370
     0
100
AcDbLine
 10
163.2728176761
 20
129.9750947908
 30
0.0
 11
165.7728176761
 21
129.9750947908
 31
0.0
  0
LINE
  5
112
330
1F
100
AcDbEntity
  8
0
  6
HIDDEN
 62
     7
370
     0
100
AcDbLine
 10
160.7728176761
 20
129.9750947908
 30
0.0
 11
163.2728176761
 21
129.9750947908
 31
0.0
  0
LINE
  5
113
330
1F
100
AcDbEntity
  8
0
  6
HIDDEN
 62
     7
370
     0
100
AcDbLine
 10
165.7728176761
 20
105.9750947908
 30
0.0
 11
160.7728176761
 21
105.9750947908
 31
0.0
  0
LWPOLYLINE
  5
114
330
1F
100
AcDbEntity
  8
0
  6
HIDDEN
 62
     7
370
     0
100
AcDbPolyline
 90
       16
 70
   128
 43
0.0
 10
175.7897050279
 20
130.2175420827
 10
175.5597026692
 20
130.5959581998
 10
175.143178823
 20
130.8838874323
 10
174.6029450262
 20
131.0379102311
 10
174.0204681993
 20
131.034800054
 10
173.4835854854
 20
130.8750259137
 10
173.0732584638
 20
130.5826816512
 10
172.851364194
 20
130.2018525994
 10
172.851364194
 20
129.7899675424
 10
173.0732584638
 20
129.4091384906
 10
173.4835854854
 20
129.1167942281
 10
174.0204681993
 20
128.9570200878
 10
174.6029450262
 20
128.9539099107
 10
175.143178823
 20
129.1079327095
 10
175.5597026692
 20
129.3958619421
 10
175.7897050279
 20
129.7742780591
  0
SPLINE
  5
115
330
1F
100
AcDbEntity
  8
0
  6
HIDDEN
 62
     7
370
     0
100
AcDbSpline
210
0.0
220
0.0
230
1.0
 70
     8
 71
     3
 72
    46
 73
    42
 74
     0
 42
0.00000001
 43
0.00000001
 40
0.0
 40
0.0
 40
0.0
 40
0.0
 40
0.0625000000000007
 40
0.0625000000000007
 40
0.1250000000000014
 40
0.1250000000000014
 40
0.1562500000000014
 40
0.1562500000000014
 40
0.1875000000000014
 40
0.1875000000000014
 40
0.2187500000000014
 40
0.2187500000000014
 40
0.2500000000000014
 40
0.2500000000000014
 40
0.3125000000000006
 40
0.3125000000000006
 40
0.3749999999999997
 40
0.3749999999999997
 40
0.4374999999999988
 40
0.4374999999999988
 40
0.4687499999999987
 40
0.4687499999999987
 40
0.4999999999999987
 40
0.4999999999999987
 40
0.562499999999999
 40
0.562499999999999
 40
0.6249999999999994
 40
0.6249999999999994
 40
0.6874999999999998
 40
0.6874999999999998
 40
0.7500000000000002
 40
0.7500000000000002
 40
0.7812500000000003
 40
0.7812500000000003
 40
0.8125000000000004
 40
0.8125000000000004
 40
0.8750000000000003
 40
0.8750000000000003
 40
0.9375000000000001
 40
0.9375000000000001
 40
1.0
 40
1.0
 40
1.0
 40
1.0
 10
175.7897050278708
 20
129.7742780591427
 30
0.0
 10
175.7565731473439
 20
129.6371337224586
 30
0.0
 10
175.7014598556391
 20
129.4932197056411
 30
0.0
 10
175.567201893646
 20
129.2032903744502
 30
0.0
 10
175.4886337726575
 20
129.059345267729
 30
0.0
 10
175.3732007640271
 20
128.8503806961107
 30
0.0
 10
175.3352486358248
 20
128.7820001126823
 30
0.0
 10
175.2643413112571
 20
128.646058217667
 30
0.0
 10
175.2311675242736
 20
128.5779711274568
 30
0.0
 10
175.1796341612093
 20
128.4464561351109
 30
0.0
 10
175.1610446996144
 20
128.3812642418478
 30
0.0
 10
175.1482237277085
 20
128.2620469351778
 30
0.0
 10
175.1539779520651
 20
128.2065643293761
 30
0.0
 10
175.2018370389252
 20
128.0630308877508
 30
0.0
 10
175.2703475266256
 20
127.9965441944253
 30
0.0
 10
175.4148664926344
 20
127.911598158367
 30
0.0
 10
175.4938842118889
 20
127.8920309996054
 30
0.0
 10
175.6361081984834
 20
127.901485626316
 30
0.0
 10
175.701559663393
 20
127.9311643616164
 30
0.0
 10
175.7715778373191
 20
128.0193944503108
 30
0.0
 10
175.7905671797546
 20
128.0567795259204
 30
0.0
 10
175.8159246730053
 20
128.1443214747169
 30
0.0
 10
175.8226582550836
 20
128.1946386643419
 30
0.0
 10
175.8231281919828
 20
128.3669658119363
 30
0.0
 10
175.7958607645569
 20
128.5042033913375
 30
0.0
 10
175.7029054315682
 20
128.7898877515942
 30
0.0
 10
175.6376821071989
 20
128.9386125193499
 30
0.0
 10
175.4953844028782
 20
129.2269030204199
 30
0.0
 10
175.4163598944928
 20
129.3697874067452
 30
0.0
 10
175.2715204066764
 20
129.6446020813201
 30
0.0
 10
175.2026548685142
 20
129.7804831546259
 30
0.0
 10
175.1540328202974
 20
129.9719897136608
 30
0.0
 10
175.1481392621373
 20
130.031769260647
 30
0.0
 10
175.1609685684462
 20
130.1407202090836
 30
0.0
 10
175.1791839952294
 20
130.1874119315657
 30
0.0
 10
175.2570383622033
 20
130.3063624702521
 30
0.0
 10
175.3346468293813
 20
130.3545797552831
 30
0.0
 10
175.4885934773203
 20
130.4035115440014
 30
0.0
 10
175.5666976636546
 20
130.4038510588881
 30
0.0
 10
175.7008680135961
 20
130.3520794560451
 30
0.0
 10
175.7565922866177
 20
130.2996360208927
 30
0.0
 10
175.7897050278708
 20
130.2175420827016
 30
0.0
  0
SPLINE
  5
116
330
1F
100
AcDbEntity
  8
0
  6
HIDDEN
 62
     7
370
     0
100
AcDbSpline
210
0.0
220
0.0
230
1.0
 70
     8
 71
     3
 72
    14
 73
    10
 74
     0
 42
0.00000001
 43
0.00000001
 40
0.0
 40
0.0
 40
0.0
 40
0.0
 40
0.25
 40
0.25
 40
0.5
 40
0.5
 40
0.75
 40
0.75
 40
1.0
 40
1.0
 40
1.0
 40
1.0
 10
173.3776370945775
 20
128.7040967776985
 30
0.0
 10
173.3411680989436
 20
128.6712478012027
 30
0.0
 10
173.3062251667835
 20
128.6396319568493
 30
0.0
 10
173.2464878254387
 20
128.5688348138795
 30
0.0
 10
173.2211986261156
 20
128.5288930119104
 30
0.0
 10
173.2117115268844
 20
128.4111446540929
 30
0.0
 10
173.2292065296374
 20
128.3348481011163
 30
0.0
 10
173.277401098895
 20
128.1835115981813
 30
0.0
 10
173.3074536488725
 20
128.1074416237514
 30
0.0
 10
173.3390376075999
 20
128.0323391029347
 30
0.0
  0
SPLINE
  5
117
330
1F
100
AcDbEntity
  8
0
  6
HIDDEN
 62
     7
370
     0
100
AcDbSpline
210
0.0
220
0.0
230
1.0
 70
     8
 71
     3
 72
    10
 73
     6
 74
     0
 42
0.00000001
 43
0.00000001
 40
0.0
 40
0.0
 40
0.0
 40
0.0
 40
0.5
 40
0.5
 40
1.0
 40
1.0
 40
1.0
 40
1.0
 10
173.3390376076016
 20
128.032339102933
 30
0.0
 10
173.4175179256541
 20
128.0851378612287
 30
0.0
 10
173.4839279857498
 20
128.1702962144022
 30
0.0
 10
173.5013718478788
 20
128.4117458190092
 30
0.0
 10
173.4488114791536
 20
128.5563569622758
 30
0.0
 10
173.3776370945777
 20
128.7040967776988
 30
0.0
  0
SPLINE
  5
118
330
1F
100
AcDbEntity
  8
0
  6
HIDDEN
 62
     7
370
     0
100
AcDbSpline
210
0.0
220
0.0
230
1.0
 70
     8
 71
     3
 72
    10
 73
     6
 74
     0
 42
0.00000001
 43
0.00000001
 40
0.0
 40
0.0
 40
0.0
 40
0.0
 40
0.5041480232558315
 40
0.9976150031749019
 40
1.0
 40
1.0
 40
1.0
 40
1.0
 10
172.8422081008619
 20
129.2500905491518
 30
0.0
 10
172.8349575460776
 20
129.3059106451146
 30
0.0
 10
172.8206100491116
 20
129.4163682144044
 30
0.0
 10
172.8201507993566
 20
129.5123038423817
 30
0.0
 10
172.8280811707246
 20
129.5366195338666
 30
0.0
 10
172.8281193149923
 20
129.5367364898327
 30
0.0
  0
SPLINE
  5
119
330
1F
100
AcDbEntity
  8
0
  6
HIDDEN
 62
     7
370
     0
100
AcDbSpline
210
0.0
220
0.0
230
1.0
 70
     8
 71
     3
 72
    18
 73
    14
 74
     0
 42
0.00000001
 43
0.00000001
 40
0.0
 40
0.0
 40
0.0
 40
0.0
 40
0.0034843705632088
 40
0.1447456796354276
 40
0.2135437618056268
 40
0.2697776213437068
 40
0.3264104371965554
 40
0.3870862909225831
 40
0.4810758529987436
 40
0.6213704360341231
 40
0.7638466556597286
 40
0.9105219170619919
 40
1.0
 40
1.0
 40
1.0
 40
1.0
 10
172.8499895138265
 20
129.6040075259436
 30
0.0
 10
172.8501877433773
 20
129.6046264419492
 30
0.0
 10
172.858422479188
 20
129.6303370878877
 30
0.0
 10
172.8807865734847
 20
129.6295960720913
 30
0.0
 10
172.9011740041026
 20
129.6071708786149
 30
0.0
 10
172.9094906325388
 20
129.5673912097542
 30
0.0
 10
172.9071047138339
 20
129.5066300664888
 30
0.0
 10
172.8928559558219
 20
129.4166308589572
 30
0.0
 10
172.8654683666884
 20
129.285593230237
 30
0.0
 10
172.8343588172565
 20
129.1234414165853
 30
0.0
 10
172.8190419555652
 20
128.963678304128
 30
0.0
 10
172.8261604432849
 20
128.8504295757527
 30
0.0
 10
172.8444604313016
 20
128.8199319484948
 30
0.0
 10
172.851394264274
 20
128.8083764516678
 30
0.0
  0
LWPOLYLINE
  5
11A
330
1F
100
AcDbEntity
  8
0
  6
HIDDEN
 62
     7
370
     0
100
AcDbPolyline
 90
        8
 70
   128
 43
0.0
 10
172.8631817864
 20
128.7830436273
 10
172.8889288703
 20
128.7776380491
 10
172.9028947478
 20
128.7989415143
 10
172.908082628
 20
128.8356261439
 10
172.9055327808
 20
128.8891645308
 10
172.8931399323
 20
128.9733299594
 10
172.8658073268
 20
129.1169162496
 10
172.8422081009
 20
129.2500905492
  0
SPLINE
  5
11B
330
1F
100
AcDbEntity
  8
0
  6
HIDDEN
 62
     7
370
     0
100
AcDbSpline
210
0.0
220
0.0
230
1.0
 70
     8
 71
     3
 72
    14
 73
    10
 74
     0
 42
0.00000001
 43
0.00000001
 40
0.0
 40
0.0
 40
0.0
 40
0.0
 40
0.25
 40
0.25
 40
0.5
 40
0.5
 40
0.75
 40
0.75
 40
1.0
 40
1.0
 40
1.0
 40
1.0
 10
173.3390376076012
 20
129.6336990104969
 30
0.0
 10
173.307390878319
 20
129.6700670635234
 30
0.0
 10
173.2771935497425
 20
129.7058204170598
 30
0.0
 10
173.2291199449177
 20
129.7877875239911
 30
0.0
 10
173.2116344765863
 20
129.8364664888135
 30
0.0
 10
173.2213443129456
 20
129.9694273663745
 30
0.0
 10
173.2466690871833
 20
130.0480349849673
 30
0.0
 10
173.3063641038826
 20
130.2008821656447
 30
0.0
 10
173.341227032298
 20
130.2767157791478
 30
0.0
 10
173.3776370945772
 20
130.351296624872
 30
0.0
  0
SPLINE
  5
11C
330
1F
100
AcDbEntity
  8
0
  6
HIDDEN
 62
     7
370
     0
100
AcDbSpline
210
0.0
220
0.0
230
1.0
 70
     8
 71
     3
 72
    14
 73
    10
 74
     0
 42
0.00000001
 43
0.00000001
 40
0.0
 40
0.0
 40
0.0
 40
0.0
 40
0.25
 40
0.25
 40
0.5
 40
0.5
 40
0.75
 40
0.75
 40
1.0
 40
1.0
 40
1.0
 40
1.0
 10
173.3776370945776
 20
130.3512966248722
 30
0.0
 10
173.4132103485287
 20
130.3182802634443
 30
0.0
 10
173.4441121795477
 20
130.2782294889177
 30
0.0
 10
173.4866663001278
 20
130.1797668468111
 30
0.0
 10
173.4968929502875
 20
130.1229511961864
 30
0.0
 10
173.4885588437909
 20
129.9950138313789
 30
0.0
 10
173.4699412069562
 20
129.925280734639
 30
0.0
 10
173.4144358244034
 20
129.7817619679936
 30
0.0
 10
173.378343175044
 20
129.7084363892764
 30
0.0
 10
173.3390376076018
 20
129.6336990104959
 30
0.0
  0
SPLINE
  5
11D
330
1F
100
AcDbEntity
  8
0
  6
HIDDEN
 62
     7
370
     0
100
AcDbSpline
210
0.0
220
0.0
230
1.0
 70
     8
 71
     3
 72
    10
 73
     6
 74
     0
 42
0.00000001
 43
0.00000001
 40
0.0
 40
0.0
 40
0.0
 40
0.0
 40
0.5
 40
0.5
 40
1.0
 40
1.0
 40
1.0
 40
1.0
 10
175.7897050278708
 20
130.2175420827016
 30
0.0
 10
175.7653904253855
 20
130.1659741657264
 30
0.0
 10
175.7539776948946
 20
130.1003047254523
 30
0.0
 10
175.7539570041328
 20
129.9502239478189
 30
0.0
 10
175.765317976411
 20
129.8640271355376
 30
0.0
 10
175.7897050278708
 20
129.7742780591428
 30
0.0
  0
LWPOLYLINE
  5
11E
330
1F
100
AcDbEntity
  8
0
  6
HIDDEN
 62
     7
370
     0
100
AcDbPolyline
 90
       31
 70
   128
 43
0.0
 10
130.3228176761
 20
163.2878006425
 10
131.3623761302
 20
163.2540368288
 10
132.3565008915
 20
163.1542210284
 10
133.2617439376
 20
162.9927156707
 10
134.0385418035
 20
162.7765793148
 10
134.652944695
 20
162.5152581566
 10
135.0781002576
 20
162.2201731847
 10
135.295427153
 20
161.9042210284
 10
135.295427153
 20
161.5812103129
 10
135.0781002576
 20
161.2652581566
 10
134.652944695
 20
160.9701731847
 10
134.0385418035
 20
160.7088520265
 10
133.2617439376
 20
160.4927156707
 10
132.3565008915
 20
160.3312103129
 10
131.3623761302
 20
160.2313945125
 10
130.3228176761
 20
160.1976306988
 10
129.283259222
 20
160.2313945125
 10
128.2891344607
 20
160.3312103129
 10
127.3838914147
 20
160.4927156707
 10
126.6070935487
 20
160.7088520265
 10
125.9926906572
 20
160.9701731847
 10
125.5675350947
 20
161.2652581566
 10
125.3502081993
 20
161.5812103129
 10
125.3502081993
 20
161.9042210284
 10
125.5675350947
 20
162.2201731847
 10
125.9926906572
 20
162.5152581566
 10
126.6070935487
 20
162.7765793148
 10
127.3838914147
 20
162.9927156707
 10
128.2891344607
 20
163.1542210284
 10
129.283259222
 20
163.2540368288
 10
130.3228176761
 20
163.2878006425
  0
LINE
  5
11F
330
1F
100
AcDbEntity
  8
0
  6
HIDDEN
 62
     7
370
     0
100
AcDbLine
 10
144.584846697
 20
156.9260575516
 30
0.0
 11
144.584846697
 21
149.3250947908
 31
0.0
  0
LINE
  5
120
330
1F
100
AcDbEntity
  8
0
  6
HIDDEN
 62
     7
370
     0
100
AcDbLine
 10
143.2328176761
 20
152.6893299832
 30
0.0
 11
143.2328176761
 21
149.3250947908
 31
0.0
  0
LINE
  5
121
330
1F
100
AcDbEntity
  8
0
  6
HIDDEN
 62
     7
370
     0
100
AcDbLine
 10
139.4128176761
 20
152.6893299832
 30
0.0
 11
139.4128176761
 21
149.3250947908
 31
0.0
  0
ARC
  5
122
330
1F
100
AcDbEntity
  8
0
  6
HIDDEN
 62
     7
370
     0
100
AcDbCircle
 10
189.5470083578
 20
129.1217112053
 30
0.0
 40
16.21605523404047
100
AcDbArc
 50
175.6513629474
 51
178.1907057002
  0
ARC
  5
123
330
1F
100
AcDbEntity
  8
0
  6
HIDDEN
 62
     7
370
     0
100
AcDbCircle
 10
160.1999741297
 20
129.1243031908
 30
0.0
 40
13.18436098735999
100
AcDbArc
 50
355.2491680305
 51
358.1735836914
  0
CIRCLE
  5
124
330
1F
100
AcDbEntity
  8
0
  6
HIDDEN
 62
     7
370
     0
100
AcDbCircle
 10
128.3228176761
 20
117.9750947908
 30
0.0
 40
5.000000000000014
  0
LWPOLYLINE
  5
125
330
1F
100
AcDbEntity
  8
0
  6
HIDDEN
 62
     7
370
     0
100
AcDbPolyline
 90
       17
 70
   128
 43
0.0
 10
215.9075028353
 20
106.4755524854
 10
215.8923526309
 20
106.4370635602
 10
215.8717446207
 20
106.624906588
 10
215.8488161872
 20
107.0104841706
 10
215.8270579768
 20
107.5350956165
 10
215.8097824797
 20
108.1188735885
 10
215.7996197337
 20
108.6729431823
 10
215.7981169247
 20
109.1129523251
 10
215.8055028419
 20
109.3719136134
 10
215.8206530463
 20
109.4104025386
 10
215.8412610566
 20
109.2225595108
 10
215.86418949
 20
108.8369819282
 10
215.8859477004
 20
108.3123704823
 10
215.9032231976
 20
107.7285925103
 10
215.9133859436
 20
107.1745229165
 10
215.9148887525
 20
106.7345137737
 10
215.9075028353
 20
106.4755524854
  0
LWPOLYLINE
  5
126
330
1F
100
AcDbEntity
  8
0
  6
HIDDEN
 62
     7
370
     0
100
AcDbPolyline
 90
       17
 70
   128
 43
0.0
 10
215.3908883183
 20
106.9443988991
 10
215.380788182
 20
106.9187396156
 10
215.3670495085
 20
107.0439683008
 10
215.3517638862
 20
107.3010200226
 10
215.3372584126
 20
107.6507609865
 10
215.3257414145
 20
108.0399463011
 10
215.3189662505
 20
108.4093260304
 10
215.3179643779
 20
108.7026654589
 10
215.3228883227
 20
108.8753063178
 10
215.332988459
 20
108.9009656012
 10
215.3467271325
 20
108.775736916
 10
215.3620127548
 20
108.5186851943
 10
215.3765182284
 20
108.1689442304
 10
215.3880352265
 20
107.7797589157
 10
215.3948103905
 20
107.4103791865
 10
215.3958122631
 20
107.117039758
 10
215.3908883183
 20
106.9443988991
  0
LWPOLYLINE
  5
127
330
1F
100
AcDbEntity
  8
0
  6
HIDDEN
 62
     7
370
     0
100
AcDbPolyline
 90
       17
 70
   128
 43
0.0
 10
221.2414406392
 20
106.6237415515
 10
221.2262904348
 20
106.5852526263
 10
221.2056824246
 20
106.7730956541
 10
221.1827539911
 20
107.1586732367
 10
221.1609957807
 20
107.6832846826
 10
221.1437202836
 20
108.2670626546
 10
221.1335575375
 20
108.8211322484
 10
221.1320547286
 20
109.2611413912
 10
221.1394406458
 20
109.5201026795
 10
221.1545908502
 20
109.5585916047
 10
221.1751988605
 20
109.3707485769
 10
221.1981272939
 20
108.9851709943
 10
221.2198855043
 20
108.4605595484
 10
221.2371610015
 20
107.8767815764
 10
221.2473237475
 20
107.3227119826
 10
221.2488265564
 20
106.8827028398
 10
221.2414406392
 20
106.6237415515
  0
ARC
  5
128
330
1F
100
AcDbEntity
  8
0
  6
HIDDEN
 62
     7
370
     0
100
AcDbCircle
 10
234.7957648196
 20
108.4319183904
 30
0.0
 40
13.50000978818051
100
AcDbArc
 50
176.3714903393
 51
186.6915291025
  0
LINE
  5
129
330
1F
100
AcDbEntity
  8
0
  6
HIDDEN
 62
     7
370
     0
100
AcDbLine
 10
219.3832493273
 20
107.7971611335
 30
0.0
 11
219.3832493273
 21
107.1847886978
 31
0.0
  0
LINE
  5
12A
330
1F
100
AcDbEntity
  8
0
  6
HIDDEN
 62
     7
370
     0
100
AcDbLine
 10
221.3817073998
 20
107.8526828974
 30
0.0
 11
221.3817073998
 21
107.2403104617
 31
0.0
  0
LINE
  5
12B
330
1F
100
AcDbEntity
  8
0
  6
HIDDEN
 62
     7
370
     0
100
AcDbLine
 10
219.3832493273
 20
107.7971611335
 30
0.0
 11
221.3817073998
 21
107.8526828974
 31
0.0
  0
LINE
  5
12C
330
1F
100
AcDbEntity
  8
0
  6
HIDDEN
 62
     7
370
     0
100
AcDbLine
 10
219.3832493273
 20
107.7971611335
 30
0.0
 11
219.3538044655
 21
108.6332685719
 31
0.0
  0
LINE
  5
12D
330
1F
100
AcDbEntity
  8
0
  6
HIDDEN
 62
     7
370
     0
100
AcDbLine
 10
221.3817073998
 20
107.8526828974
 30
0.0
 11
221.3522625379
 21
108.6887903358
 31
0.0
  0
LINE
  5
12E
330
1F
100
AcDbEntity
  8
0
  6
HIDDEN
 62
     7
370
     0
100
AcDbLine
 10
219.3538044655
 20
108.6332685719
 30
0.0
 11
221.3522625379
 21
108.6887903358
 31
0.0
  0
LINE
  5
12F
330
1F
100
AcDbEntity
  8
0
  6
HIDDEN
 62
     7
370
     0
100
AcDbLine
 10
219.3538044655
 20
108.6332685719
 30
0.0
 11
219.3243596036
 21
108.8570035747
 31
0.0
  0
LINE
  5
130
330
1F
100
AcDbEntity
  8
0
  6
HIDDEN
 62
     7
370
     0
100
AcDbLine
 10
221.3522625379
 20
108.6887903358
 30
0.0
 11
221.3228176761
 21
108.9125253386
 31
0.0
  0
LINE
  5
131
330
1F
100
AcDbEntity
  8
0
  6
HIDDEN
 62
     7
370
     0
100
AcDbLine
 10
219.3538044655
 20
107.4085237005
 30
0.0
 11
221.3522625379
 21
107.4640454644
 31
0.0
  0
LINE
  5
132
330
1F
100
AcDbEntity
  8
0
  6
HIDDEN
 62
     7
370
     0
100
AcDbLine
 10
219.3832493273
 20
107.1847886978
 30
0.0
 11
221.3817073998
 21
107.2403104617
 31
0.0
  0
LINE
  5
133
330
1F
100
AcDbEntity
  8
0
  6
HIDDEN
 62
     7
370
     0
100
AcDbLine
 10
219.3538044655
 20
107.4085237005
 30
0.0
 11
219.3832493273
 21
107.1847886978
 31
0.0
  0
LINE
  5
134
330
1F
100
AcDbEntity
  8
0
  6
HIDDEN
 62
     7
370
     0
100
AcDbLine
 10
221.3522625379
 20
107.4640454644
 30
0.0
 11
221.3817073998
 21
107.2403104617
 31
0.0
  0
LINE
  5
135
330
1F
100
AcDbEntity
  8
0
  6
HIDDEN
 62
     7
370
     0
100
AcDbLine
 10
219.3243596036
 20
108.244631139
 30
0.0
 11
221.3228176761
 21
108.3001529029
 31
0.0
  0
LINE
  5
136
330
1F
100
AcDbEntity
  8
0
  6
HIDDEN
 62
     7
370
     0
100
AcDbLine
 10
219.3243596036
 20
108.8570035747
 30
0.0
 11
221.3228176761
 21
108.9125253386
 31
0.0
  0
LINE
  5
137
330
1F
100
AcDbEntity
  8
0
  6
HIDDEN
 62
     7
370
     0
100
AcDbLine
 10
219.3243596036
 20
108.244631139
 30
0.0
 11
219.3243596036
 21
108.8570035747
 31
0.0
  0
LINE
  5
138
330
1F
100
AcDbEntity
  8
0
  6
HIDDEN
 62
     7
370
     0
100
AcDbLine
 10
219.3538044655
 20
107.4085237005
 30
0.0
 11
219.3243596036
 21
108.244631139
 31
0.0
  0
LINE
  5
139
330
1F
100
AcDbEntity
  8
0
  6
HIDDEN
 62
     7
370
     0
100
AcDbLine
 10
221.3522625379
 20
107.4640454644
 30
0.0
 11
221.3228176761
 21
108.3001529029
 31
0.0
  0
LWPOLYLINE
  5
13A
330
1F
100
AcDbEntity
  8
0
  6
HIDDEN
 62
     7
370
     0
100
AcDbPolyline
 90
        3
 70
   128
 43
0.0
 10
221.2933728143
 20
127.0130910537
 10
221.3116946811
 20
127.408470914
 10
221.3228176761
 20
127.7253730212
  0
LWPOLYLINE
  5
13B
330
1F
100
AcDbEntity
  8
0
  6
HIDDEN
 62
     7
370
     0
100
AcDbPolyline
 90
       12
 70
   128
 43
0.0
 10
221.3228176761
 20
129.0852849668
 10
221.3116946811
 20
129.0018244496
 10
221.2933728143
 20
128.737724493
 10
221.2750509475
 20
128.3423446328
 10
221.2595184188
 20
127.8758778685
 10
221.2491399149
 20
127.4093395365
 10
221.245495469
 20
127.0137558687
 10
221.2491399149
 20
126.7493508924
 10
221.2595184188
 20
126.6563778685
 10
221.2750509475
 20
126.7489910972
 10
221.2933728143
 20
127.0130910537
 10
221.2933728143
 20
127.0130910537
  0
LWPOLYLINE
  5
13C
330
1F
100
AcDbEntity
  8
0
  6
HIDDEN
 62
     7
370
     0
100
AcDbPolyline
 90
       17
 70
   128
 43
0.0
 10
221.1315509189
 20
126.8192433862
 10
221.1540870404
 20
127.3055654775
 10
221.1731922418
 20
127.8793253352
 10
221.1859579292
 20
128.453173222
 10
221.1904406425
 20
128.9397459992
 10
221.1859579292
 20
129.2649673723
 10
221.1731922418
 20
129.3793253352
 10
221.1540870404
 20
129.2654099248
 10
221.1315509189
 20
128.9405637298
 10
221.1090147973
 20
128.4542416385
 10
221.0899095959
 20
127.8804817808
 10
221.0771439085
 20
127.306633894
 10
221.0726611952
 20
126.8200611168
 10
221.0771439085
 20
126.4948397438
 10
221.0899095959
 20
126.3804817808
 10
221.1090147973
 20
126.4943971912
 10
221.1315509189
 20
126.8192433862
  0
LWPOLYLINE
  5
13D
330
1F
100
AcDbEntity
  8
0
  6
HIDDEN
 62
     7
370
     0
100
AcDbPolyline
 90
       17
 70
   128
 43
0.0
 10
215.797613115
 20
126.9674324523
 10
215.8201492366
 20
127.4537545436
 10
215.8392544379
 20
128.0275144013
 10
215.8520201253
 20
128.6013622881
 10
215.8565028386
 20
129.0879350653
 10
215.8520201253
 20
129.4131564384
 10
215.8392544379
 20
129.5275144013
 10
215.8201492366
 20
129.413598991
 10
215.797613115
 20
129.0887527959
 10
215.7750769934
 20
128.6024307046
 10
215.7559717921
 20
128.0286708469
 10
215.7432061046
 20
127.4548229601
 10
215.7387233913
 20
126.9682501829
 10
215.7432061046
 20
126.6430288099
 10
215.7559717921
 20
126.5286708469
 10
215.7750769934
 20
126.6425862573
 10
215.797613115
 20
126.9674324523
  0
LWPOLYLINE
  5
13E
330
1F
100
AcDbEntity
  8
0
  6
HIDDEN
 62
     7
370
     0
100
AcDbPolyline
 90
       17
 70
   128
 43
0.0
 10
215.2979985969
 20
127.3348662839
 10
215.3130226779
 20
127.6590810114
 10
215.3257594788
 20
128.0415875832
 10
215.3342699371
 20
128.4241528411
 10
215.3372584126
 20
128.7485346926
 10
215.3342699371
 20
128.9653489413
 10
215.3257594788
 20
129.0415875832
 10
215.3130226779
 20
128.9656439763
 10
215.2979985969
 20
128.7490798463
 10
215.2829745158
 20
128.4248651187
 10
215.2702377149
 20
128.042358547
 10
215.2617272566
 20
127.6597932891
 10
215.2587387811
 20
127.3354114376
 10
215.2617272566
 20
127.1185971889
 10
215.2702377149
 20
127.042358547
 10
215.2829745158
 20
127.1183021539
 10
215.2979985969
 20
127.3348662839
  0
LINE
  5
13F
330
1F
100
AcDbEntity
  8
0
  6
HIDDEN
 62
     7
370
     0
100
AcDbLine
 10
221.3228176761
 20
128.7115152118
 30
0.0
 11
221.2933728143
 21
128.4877802091
 31
0.0
  0
LINE
  5
140
330
1F
100
AcDbEntity
  8
0
  6
HIDDEN
 62
     7
370
     0
100
AcDbLine
 10
221.2639279525
 20
127.6516727706
 30
0.0
 11
221.2933728143
 21
128.4877802091
 31
0.0
  0
LINE
  5
141
330
1F
100
AcDbEntity
  8
0
  6
HIDDEN
 62
     7
370
     0
100
AcDbLine
 10
221.2639279525
 20
127.0393003349
 30
0.0
 11
221.2639279525
 21
127.6516727706
 31
0.0
  0
LINE
  5
142
330
1F
100
AcDbEntity
  8
0
  6
HIDDEN
 62
     7
370
     0
100
AcDbLine
 10
221.2639279525
 20
127.0393003349
 30
0.0
 11
221.2933728143
 21
127.2630353377
 31
0.0
  0
LINE
  5
143
330
1F
100
AcDbEntity
  8
0
  6
HIDDEN
 62
     7
370
     0
100
AcDbLine
 10
221.3228176761
 20
128.0991427762
 30
0.0
 11
221.2933728143
 21
127.2630353377
 31
0.0
  0
LINE
  5
144
330
1F
100
AcDbEntity
  8
0
  6
HIDDEN
 62
     7
370
     0
100
AcDbLine
 10
219.26546988
 20
127.0948220988
 30
0.0
 11
219.2949147418
 21
127.3185571016
 31
0.0
  0
LINE
  5
145
330
1F
100
AcDbEntity
  8
0
  6
HIDDEN
 62
     7
370
     0
100
AcDbLine
 10
219.26546988
 20
127.0948220988
 30
0.0
 11
219.26546988
 21
127.7071945345
 31
0.0
  0
LINE
  5
146
330
1F
100
AcDbEntity
  8
0
  6
HIDDEN
 62
     7
370
     0
100
AcDbLine
 10
219.3243596036
 20
128.7670369758
 30
0.0
 11
219.2949147418
 21
128.543301973
 31
0.0
  0
LINE
  5
147
330
1F
100
AcDbEntity
  8
0
  6
HIDDEN
 62
     7
370
     0
100
AcDbLine
 10
219.3243596036
 20
128.1546645401
 30
0.0
 11
219.3243596036
 21
128.7670369758
 31
0.0
  0
LINE
  5
148
330
1F
100
AcDbEntity
  8
0
  6
HIDDEN
 62
     7
370
     0
100
AcDbLine
 10
219.3243596036
 20
128.1546645401
 30
0.0
 11
219.2949147418
 21
127.3185571016
 31
0.0
  0
LINE
  5
149
330
1F
100
AcDbEntity
  8
0
  6
HIDDEN
 62
     7
370
     0
100
AcDbLine
 10
219.26546988
 20
127.7071945345
 30
0.0
 11
219.2949147418
 21
128.543301973
 31
0.0
  0
LINE
  5
14A
330
1F
100
AcDbEntity
  8
0
  6
HIDDEN
 62
     7
370
     0
100
AcDbLine
 10
219.26546988
 20
127.7071945345
 30
0.0
 11
221.2639279525
 21
127.6516727706
 31
0.0
  0
LINE
  5
14B
330
1F
100
AcDbEntity
  8
0
  6
HIDDEN
 62
     7
370
     0
100
AcDbLine
 10
219.2949147418
 20
128.543301973
 30
0.0
 11
221.2933728143
 21
128.4877802091
 31
0.0
  0
LINE
  5
14C
330
1F
100
AcDbEntity
  8
0
  6
HIDDEN
 62
     7
370
     0
100
AcDbLine
 10
219.2949147418
 20
127.3185571016
 30
0.0
 11
221.2933728143
 21
127.2630353377
 31
0.0
  0
LINE
  5
14D
330
1F
100
AcDbEntity
  8
0
  6
HIDDEN
 62
     7
370
     0
100
AcDbLine
 10
219.26546988
 20
127.0948220988
 30
0.0
 11
221.2639279525
 21
127.0393003349
 31
0.0
  0
LINE
  5
14E
330
1F
100
AcDbEntity
  8
0
  6
HIDDEN
 62
     7
370
     0
100
AcDbLine
 10
219.3243596036
 20
128.1546645401
 30
0.0
 11
221.3228176761
 21
128.0991427762
 31
0.0
  0
LINE
  5
14F
330
1F
100
AcDbEntity
  8
0
  6
HIDDEN
 62
     7
370
     0
100
AcDbLine
 10
219.3243596036
 20
128.7670369758
 30
0.0
 11
221.3228176761
 21
128.7115152118
 31
0.0
  0
LINE
  5
150
330
1F
100
AcDbEntity
  8
0
  6
HIDDEN
 62
     7
370
     0
100
AcDbLine
 10
121.3228176761
 20
78.5704118342
 30
0.0
 11
121.4124193
 21
79.2079605161
 31
0.0
  0
LINE
  5
151
330
1F
100
AcDbEntity
  8
0
  6
HIDDEN
 62
     7
370
     0
100
AcDbLine
 10
121.4124193
 20
156.7422290654
 30
0.0
 11
121.3228176761
 21
157.3797777473
 31
0.0
  0
ARC
  5
152
330
1F
100
AcDbEntity
  8
0
  6
HIDDEN
 62
     7
370
     0
100
AcDbCircle
 10
120.4258807577
 20
79.3466094663
 30
0.0
 40
0.9962338214387002
100
AcDbArc
 50
352.0
 51
0.0
  0
ARC
  5
153
330
1F
100
AcDbEntity
  8
0
  6
HIDDEN
 62
     7
370
     0
100
AcDbCircle
 10
120.4258807577
 20
79.3466094663
 30
0.0
 40
0.9962338214386932
100
AcDbArc
 50
0.0
 51
25.7988228126
  0
ARC
  5
154
330
1F
100
AcDbEntity
  8
0
  6
HIDDEN
 62
     7
370
     0
100
AcDbCircle
 10
120.4258807577
 20
156.6035801152
 30
0.0
 40
0.9962338214387078
100
AcDbArc
 50
348.75
 51
8.0
  0
LWPOLYLINE
  5
155
330
1F
100
AcDbEntity
  8
0
  6
HIDDEN
 62
     7
370
     0
100
AcDbPolyline
 90
        3
 70
   128
 43
0.0
 10
121.4029722256
 20
156.4092245382
 10
121.3462807949
 20
156.222337937
 10
121.3228176761
 20
156.1700066021
  0
LINE
  5
156
330
1F
100
AcDbEntity
  8
0
  6
HIDDEN
 62
     7
370
     0
100
AcDbLine
 10
121.4221145791
 20
79.3466094663
 30
0.0
 11
121.4221145791
 21
156.6035801152
 31
0.0
  0
LINE
  5
157
330
1F
100
AcDbEntity
  8
0
  6
HIDDEN
 62
     7
370
     0
100
AcDbLine
 10
94.7835436183
 20
86.4750947908
 30
0.0
 11
100.3686477267
 21
86.4750947908
 31
0.0
  0
LINE
  5
158
330
1F
100
AcDbEntity
  8
0
  6
HIDDEN
 62
     7
370
     0
100
AcDbLine
 10
100.3686477267
 20
149.4750947908
 30
0.0
 11
94.7835436183
 21
149.4750947908
 31
0.0
  0
ARC
  5
159
330
1F
100
AcDbEntity
  8
0
  6
HIDDEN
 62
     7
370
     0
100
AcDbCircle
 10
111.5760233313
 20
98.4750947908
 30
0.0
 40
11.99999999999999
100
AcDbArc
 50
273.1716185283
 51
324.3146652873
  0
ARC
  5
15A
330
1F
100
AcDbEntity
  8
0
  6
HIDDEN
 62
     7
370
     0
100
AcDbCircle
 10
111.5760233313
 20
137.4750947908
 30
0.0
 40
12.00000000000001
100
AcDbArc
 50
35.6853347127
 51
86.8289728944
  0
ARC
  5
15B
330
1F
100
AcDbEntity
  8
0
  6
HIDDEN
 62
     7
370
     0
100
AcDbCircle
 10
94.7835436183
 20
87.4750947908
 30
0.0
 40
1.000000000000008
100
AcDbArc
 50
210.0
 51
270.0
  0
ARC
  5
15C
330
1F
100
AcDbEntity
  8
0
  6
HIDDEN
 62
     7
370
     0
100
AcDbCircle
 10
94.7835436183
 20
148.4750947908
 30
0.0
 40
1.000000000000008
100
AcDbArc
 50
90.0
 51
150.0
  0
LINE
  5
15D
330
1F
100
AcDbEntity
  8
0
  6
HIDDEN
 62
     7
370
     0
100
AcDbLine
 10
93.9175182145
 20
148.9750947908
 30
0.0
 11
91.3194420032
 21
144.4750947908
 31
0.0
  0
LINE
  5
15E
330
1F
100
AcDbEntity
  8
0
  6
HIDDEN
 62
     7
370
     0
100
AcDbLine
 10
91.3194420032
 20
91.4750947908
 30
0.0
 11
93.9175182145
 21
86.9750947908
 31
0.0
  0
ARC
  5
15F
330
1F
100
AcDbEntity
  8
0
  6
HIDDEN
 62
     7
370
     0
100
AcDbCircle
 10
131.7728176761
 20
93.1000947908
 30
0.0
 40
2.000000000000032
100
AcDbArc
 50
234.3409123039
 51
0.0
  0
ARC
  5
160
330
1F
100
AcDbEntity
  8
0
  6
HIDDEN
 62
     7
370
     0
100
AcDbCircle
 10
131.7728176761
 20
142.8500947908
 30
0.0
 40
2.000000000000043
100
AcDbArc
 50
0.0
 51
125.6590876961
  0
LINE
  5
161
330
1F
100
AcDbEntity
  8
0
  6
HIDDEN
 62
     7
370
     0
100
AcDbLine
 10
86.5228176761
 20
91.4750947908
 30
0.0
 11
91.3194420032
 21
91.4750947908
 31
0.0
  0
LINE
  5
162
330
1F
100
AcDbEntity
  8
0
  6
HIDDEN
 62
     7
370
     0
100
AcDbLine
 10
91.3194420032
 20
144.4750947908
 30
0.0
 11
81.5228176761
 21
144.4750947908
 31
0.0
  0
LINE
  5
163
330
1F
100
AcDbEntity
  8
0
  6
HIDDEN
 62
     7
370
     0
100
AcDbLine
 10
121.3228176761
 20
91.4750947908
 30
0.0
 11
130.6068952945
 21
91.4750947908
 31
0.0
  0
LINE
  5
164
330
1F
100
AcDbEntity
  8
0
  6
HIDDEN
 62
     7
370
     0
100
AcDbLine
 10
130.6068952945
 20
144.4750947908
 30
0.0
 11
121.3228176761
 21
144.4750947908
 31
0.0
  0
LINE
  5
165
330
1F
100
AcDbEntity
  8
0
  6
HIDDEN
 62
     7
370
     0
100
AcDbLine
 10
125.3228176761
 20
163.6466481699
 30
0.0
 11
125.3228176761
 21
159.9525085694
 31
0.0
  0
LINE
  5
166
330
1F
100
AcDbEntity
  8
0
  6
HIDDEN
 62
     7
370
     0
100
AcDbLine
 10
135.3228176761
 20
159.9525085694
 30
0.0
 11
135.3228176761
 21
163.6521564283
 31
0.0
  0
LINE
  5
167
330
1F
100
AcDbEntity
  8
0
  6
HIDDEN
 62
     7
370
     0
100
AcDbLine
 10
175.8228176761
 20
107.6876506701
 30
0.0
 11
175.8228176761
 21
111.4805757785
 31
0.0
  0
LINE
  5
168
330
1F
100
AcDbEntity
  8
0
  6
HIDDEN
 62
     7
370
     0
100
AcDbLine
 10
175.8228176761
 20
105.8128581543
 30
0.0
 11
175.8228176761
 21
105.9354545208
 31
0.0
  0
LINE
  5
169
330
1F
100
AcDbEntity
  8
0
  6
HIDDEN
 62
     7
370
     0
100
AcDbLine
 10
172.8228176761
 20
106.4934051796
 30
0.0
 11
172.8228176761
 21
105.8128581543
 31
0.0
  0
LINE
  5
16A
330
1F
100
AcDbEntity
  8
0
  6
HIDDEN
 62
     7
370
     0
100
AcDbLine
 10
172.8228176761
 20
111.4000815129
 30
0.0
 11
172.8228176761
 21
106.9973917474
 31
0.0
  0
LINE
  5
16B
330
1F
100
AcDbEntity
  8
0
  6
HIDDEN
 62
     7
370
     0
100
AcDbLine
 10
145.6228176761
 20
104.9750947908
 30
0.0
 11
149.6228176761
 21
104.9750947908
 31
0.0
  0
LINE
  5
16C
330
1F
100
AcDbEntity
  8
0
  6
HIDDEN
 62
     7
370
     0
100
AcDbLine
 10
149.6228176761
 20
130.9750947908
 30
0.0
 11
145.6228176761
 21
130.9750947908
 31
0.0
  0
LINE
  5
16D
330
1F
100
AcDbEntity
  8
0
  6
HIDDEN
 62
     7
370
     0
100
AcDbLine
 10
175.5349862072
 20
105.5530262165
 30
0.0
 11
221.3228176761
 21
106.825117537
 31
0.0
  0
LINE
  5
16E
330
1F
100
AcDbEntity
  8
0
  6
HIDDEN
 62
     7
370
     0
100
AcDbLine
 10
221.3228176761
 20
109.3260821712
 30
0.0
 11
175.5306059639
 21
108.0538691575
 31
0.0
  0
LINE
  5
16F
330
1F
100
AcDbEntity
  8
0
  6
HIDDEN
 62
     7
370
     0
100
AcDbLine
 10
133.7728176761
 20
105.9750947908
 30
0.0
 11
134.5228176761
 21
106.7250947908
 31
0.0
  0
LINE
  5
170
330
1F
100
AcDbEntity
  8
0
  6
HIDDEN
 62
     7
370
     0
100
AcDbLine
 10
134.5228176761
 20
129.2250947908
 30
0.0
 11
133.7728176761
 21
129.9750947908
 31
0.0
  0
LINE
  5
171
330
1F
100
AcDbEntity
  8
0
  6
HIDDEN
 62
     7
370
     0
100
AcDbLine
 10
172.8466259722
 20
107.1438492443
 30
0.0
 11
172.609327215
 21
106.7222269946
 31
0.0
  0
LINE
  5
172
330
1F
100
AcDbEntity
  8
0
  6
HIDDEN
 62
     7
370
     0
100
AcDbLine
 10
172.609327215
 20
106.7222269946
 30
0.0
 11
172.8475828293
 21
106.349026092
 31
0.0
  0
LINE
  5
173
330
1F
100
AcDbEntity
  8
0
  6
HIDDEN
 62
     7
370
     0
100
AcDbLine
 10
134.5228176761
 20
106.7250947908
 30
0.0
 11
145.6228176761
 21
106.7250947908
 31
0.0
  0
LINE
  5
174
330
1F
100
AcDbEntity
  8
0
  6
HIDDEN
 62
     7
370
     0
100
AcDbLine
 10
145.6228176761
 20
129.2250947908
 30
0.0
 11
134.5228176761
 21
129.2250947908
 31
0.0
  0
LINE
  5
175
330
1F
100
AcDbEntity
  8
0
  6
HIDDEN
 62
     7
370
     0
100
AcDbLine
 10
126.2728176761
 20
167.9750947908
 30
0.0
 11
126.2728176761
 21
161.8750947908
 31
0.0
  0
LINE
  5
176
330
1F
100
AcDbEntity
  8
0
  6
HIDDEN
 62
     7
370
     0
100
AcDbLine
 10
172.7228176761
 20
108.6750947908
 30
0.0
 11
175.428043658
 21
108.6750947908
 31
0.0
  0
LINE
  5
177
330
1F
100
AcDbEntity
  8
0
  6
HIDDEN
 62
     7
370
     0
100
AcDbLine
 10
175.428043658
 20
127.2750947908
 30
0.0
 11
172.7228176761
 21
127.2750947908
 31
0.0
  0
ARC
  5
178
330
1F
100
AcDbEntity
  8
0
  6
HIDDEN
 62
     7
370
     0
100
AcDbCircle
 10
172.7228176761
 20
109.0750947908
 30
0.0
 40
0.4000000000000057
100
AcDbArc
 50
180.0
 51
270.0
  0
ARC
  5
179
330
1F
100
AcDbEntity
  8
0
  6
HIDDEN
 62
     7
370
     0
100
AcDbCircle
 10
172.7228176761
 20
126.8750947908
 30
0.0
 40
0.4000000000000057
100
AcDbArc
 50
90.0
 51
180.0
  0
ARC
  5
17A
330
1F
100
AcDbEntity
  8
0
  6
HIDDEN
 62
     7
370
     0
100
AcDbCircle
 10
221.0228176761
 20
108.6750947908
 30
0.0
 40
0.3000000000000114
100
AcDbArc
 50
0.0
 51
90.0
  0
ARC
  5
17B
330
1F
100
AcDbEntity
  8
0
  6
HIDDEN
 62
     7
370
     0
100
AcDbCircle
 10
221.0228176761
 20
127.2750947908
 30
0.0
 40
0.2999999999999972
100
AcDbArc
 50
270.0
 51
0.0
  0
ARC
  5
17C
330
1F
100
AcDbEntity
  8
0
  6
HIDDEN
 62
     7
370
     0
100
AcDbCircle
 10
175.428043658
 20
126.8750947908
 30
0.0
 40
0.3999999999999941
100
AcDbArc
 50
70.0
 51
90.0
  0
LINE
  5
17D
330
1F
100
AcDbEntity
  8
0
  6
HIDDEN
 62
     7
370
     0
100
AcDbLine
 10
175.5648517153
 20
108.6992177424
 30
0.0
 11
176.3228176761
 21
108.9750947908
 31
0.0
  0
LINE
  5
17E
330
1F
100
AcDbEntity
  8
0
  6
HIDDEN
 62
     7
370
     0
100
AcDbLine
 10
176.3228176761
 20
126.9750947908
 30
0.0
 11
175.5648517153
 21
127.2509718391
 31
0.0
  0
LINE
  5
17F
330
1F
100
AcDbEntity
  8
0
  6
HIDDEN
 62
     7
370
     0
100
AcDbLine
 10
176.3228176761
 20
108.9750947908
 30
0.0
 11
221.0228176761
 21
108.9750947908
 31
0.0
  0
LINE
  5
180
330
1F
100
AcDbEntity
  8
0
  6
HIDDEN
 62
     7
370
     0
100
AcDbLine
 10
221.0228176761
 20
126.9750947908
 30
0.0
 11
176.3228176761
 21
126.9750947908
 31
0.0
  0
LINE
  5
181
330
1F
100
AcDbEntity
  8
0
  6
HIDDEN
 62
     7
370
     0
100
AcDbLine
 10
112.7555302922
 20
80.3968152201
 30
0.0
 11
112.3228210057
 21
80.8750399375
 31
0.0
  0
LINE
  5
182
330
1F
100
AcDbEntity
  8
0
  6
HIDDEN
 62
     7
370
     0
100
AcDbLine
 10
100.3228181342
 20
81.5220012942
 30
0.0
 11
99.8421908289
 21
81.0437765834
 31
0.0
  0
LINE
  5
183
330
1F
100
AcDbEntity
  8
0
  6
HIDDEN
 62
     7
370
     0
100
AcDbLine
 10
99.8420724874
 20
154.906407082
 30
0.0
 11
100.3228179515
 21
154.4281274101
 31
0.0
  0
LINE
  5
184
330
1F
100
AcDbEntity
  8
0
  6
HIDDEN
 62
     7
370
     0
100
AcDbLine
 10
112.3228176782
 20
155.0750997975
 30
0.0
 11
112.755639348
 21
155.5533794704
 31
0.0
  0
LINE
  5
185
330
1F
100
AcDbEntity
  8
0
  6
HIDDEN
 62
     7
370
     0
100
AcDbLine
 10
112.3228176761
 20
80.774911095
 30
0.0
 11
112.3228176761
 21
86.5092168637
 31
0.0
  0
LINE
  5
186
330
1F
100
AcDbEntity
  8
0
  6
HIDDEN
 62
     7
370
     0
100
AcDbLine
 10
100.3228176761
 20
86.4835741587
 30
0.0
 11
100.3228176761
 21
81.5220397087
 31
0.0
  0
LINE
  5
187
330
1F
100
AcDbEntity
  8
0
  6
HIDDEN
 62
     7
370
     0
100
AcDbLine
 10
112.3228176761
 20
149.4409727178
 30
0.0
 11
112.3228176761
 21
155.1751036235
 31
0.0
  0
LINE
  5
188
330
1F
100
AcDbEntity
  8
0
  6
HIDDEN
 62
     7
370
     0
100
AcDbLine
 10
100.3228176761
 20
154.4281169108
 30
0.0
 11
100.3228176761
 21
149.4666154228
 31
0.0
  0
LINE
  5
189
330
1F
100
AcDbEntity
  8
0
  6
HIDDEN
 62
     7
370
     0
100
AcDbLine
 10
149.6228176761
 20
111.9750947908
 30
0.0
 11
172.3228176761
 21
111.9750947908
 31
0.0
  0
LINE
  5
18A
330
1F
100
AcDbEntity
  8
0
  6
HIDDEN
 62
     7
370
     0
100
AcDbLine
 10
172.3228176761
 20
123.9750947908
 30
0.0
 11
149.6228176761
 21
123.9750947908
 31
0.0
  0
ARC
  5
18B
330
1F
100
AcDbEntity
  8
0
  6
HIDDEN
 62
     7
370
     0
100
AcDbCircle
 10
175.428043658
 20
109.0750947908
 30
0.0
 40
0.4000000000000057
100
AcDbArc
 50
270.0
 51
290.0
  0
LINE
  5
18C
330
1F
100
AcDbEntity
  8
0
  6
HIDDEN
 62
     7
370
     0
100
AcDbLine
 10
166.7728176761
 20
93.9750947908
 30
0.0
 11
165.7728176761
 21
94.5524450599
 31
0.0
  0
LINE
  5
18D
330
1F
100
AcDbEntity
  8
0
  6
HIDDEN
 62
     7
370
     0
100
AcDbLine
 10
160.7728176761
 20
94.5524450599
 30
0.0
 11
159.7728176761
 21
93.9750947908
 31
0.0
  0
LINE
  5
18E
330
1F
100
AcDbEntity
  8
0
  6
HIDDEN
 62
     7
370
     0
100
AcDbLine
 10
159.7728176761
 20
141.9750947908
 30
0.0
 11
160.7728176761
 21
141.3977445216
 31
0.0
  0
LINE
  5
18F
330
1F
100
AcDbEntity
  8
0
  6
HIDDEN
 62
     7
370
     0
100
AcDbLine
 10
165.7728176761
 20
141.3977445216
 30
0.0
 11
166.7728176761
 21
141.9750947908
 31
0.0
  0
LINE
  5
190
330
1F
100
AcDbEntity
  8
0
  6
HIDDEN
 62
     7
370
     0
100
AcDbLine
 10
160.7728176761
 20
141.3977445216
 30
0.0
 11
160.7728176761
 21
129.9750947908
 31
0.0
  0
LINE
  5
191
330
1F
100
AcDbEntity
  8
0
  6
HIDDEN
 62
     7
370
     0
100
AcDbLine
 10
165.7728176761
 20
129.9750947908
 30
0.0
 11
165.7728176761
 21
141.3977445216
 31
0.0
  0
LINE
  5
192
330
1F
100
AcDbEntity
  8
0
  6
HIDDEN
 62
     7
370
     0
100
AcDbLine
 10
160.7728176761
 20
129.9750947908
 30
0.0
 11
163.2728176761
 21
128.4729432432
 31
0.0
  0
LINE
  5
193
330
1F
100
AcDbEntity
  8
0
  6
HIDDEN
 62
     7
370
     0
100
AcDbLine
 10
163.2728176761
 20
128.4729432432
 30
0.0
 11
165.7728176761
 21
129.9750947908
 31
0.0
  0
LINE
  5
194
330
1F
100
AcDbEntity
  8
0
  6
HIDDEN
 62
     7
370
     0
100
AcDbLine
 10
165.7728176761
 20
94.5524450599
 30
0.0
 11
165.7728176761
 21
105.9750947908
 31
0.0
  0
LINE
  5
195
330
1F
100
AcDbEntity
  8
0
  6
HIDDEN
 62
     7
370
     0
100
AcDbLine
 10
160.7728176761
 20
105.9750947908
 30
0.0
 11
160.7728176761
 21
94.5524450599
 31
0.0
  0
LINE
  5
196
330
1F
100
AcDbEntity
  8
0
  6
HIDDEN
 62
     7
370
     0
100
AcDbLine
 10
165.7728176761
 20
105.9750947908
 30
0.0
 11
163.2728176761
 21
107.4772463383
 31
0.0
  0
LINE
  5
197
330
1F
100
AcDbEntity
  8
0
  6
HIDDEN
 62
     7
370
     0
100
AcDbLine
 10
163.2728176761
 20
107.4772463383
 30
0.0
 11
160.7728176761
 21
105.9750947908
 31
0.0
  0
LINE
  5
198
330
1F
100
AcDbEntity
  8
0
  6
HIDDEN
 62
     7
370
     0
100
AcDbLine
 10
175.8228176761
 20
124.469613803
 30
0.0
 11
175.8228176761
 21
128.2557108469
 31
0.0
  0
LINE
  5
199
330
1F
100
AcDbEntity
  8
0
  6
HIDDEN
 62
     7
370
     0
100
AcDbLine
 10
172.8228176761
 20
128.9551866883
 30
0.0
 11
172.8228176761
 21
124.5501080686
 31
0.0
  0
LINE
  5
19A
330
1F
100
AcDbEntity
  8
0
  6
HIDDEN
 62
     7
370
     0
100
AcDbLine
 10
172.8228176761
 20
129.9959100709
 30
0.0
 11
172.8228176761
 21
129.4534613353
 31
0.0
  0
LINE
  5
19B
330
1F
100
AcDbEntity
  8
0
  6
HIDDEN
 62
     7
370
     0
100
AcDbLine
 10
175.5286765578
 20
127.8963740274
 30
0.0
 11
221.3228176761
 21
126.6241074103
 31
0.0
  0
LINE
  5
19C
330
1F
100
AcDbEntity
  8
0
  6
HIDDEN
 62
     7
370
     0
100
AcDbLine
 10
221.3228176761
 20
129.1250720445
 30
0.0
 11
175.5327604753
 21
130.3972252009
 31
0.0
  0
LINE
  5
19D
330
1F
100
AcDbEntity
  8
0
  6
HIDDEN
 62
     7
370
     0
100
AcDbLine
 10
125.3228176761
 20
165.5219662542
 30
0.0
 11
125.3228176761
 21
163.6466481699
 31
0.0
  0
LINE
  5
19E
330
1F
100
AcDbEntity
  8
0
  6
HIDDEN
 62
     7
370
     0
100
AcDbLine
 10
135.3228176761
 20
163.6521564283
 30
0.0
 11
135.3228176761
 21
165.527700687
 31
0.0
  0
LINE
  5
19F
330
1F
100
AcDbEntity
  8
0
  6
HIDDEN
 62
     7
370
     0
100
AcDbLine
 10
172.8495713201
 20
129.6042782389
 30
0.0
 11
172.609327215
 21
129.2279625869
 31
0.0
  0
LINE
  5
1A0
330
1F
100
AcDbEntity
  8
0
  6
HIDDEN
 62
     7
370
     0
100
AcDbLine
 10
172.609327215
 20
129.2279625869
 30
0.0
 11
172.8468986543
 21
128.8058558474
 31
0.0
  0
LINE
  5
1A1
330
1F
100
AcDbEntity
  8
0
  6
HIDDEN
 62
     7
370
     0
100
AcDbLine
 10
215.8137055286
 20
109.4225440416
 30
0.0
 11
215.3283567805
 21
108.9090599366
 31
0.0
  0
LINE
  5
1A2
330
1F
100
AcDbEntity
  8
0
  6
HIDDEN
 62
     7
370
     0
100
AcDbLine
 10
215.3838785279
 20
106.9106024585
 30
0.0
 11
215.8969881497
 21
106.4248578245
 31
0.0
  0
LINE
  5
1A3
330
1F
100
AcDbEntity
  8
0
  6
HIDDEN
 62
     7
370
     0
100
AcDbLine
 10
221.1487832645
 20
109.5713435582
 30
0.0
 11
215.8148454606
 21
109.4231544921
 31
0.0
  0
LINE
  5
1A4
330
1F
100
AcDbEntity
  8
0
  6
HIDDEN
 62
     7
370
     0
100
AcDbLine
 10
215.8981602166
 20
106.4243116067
 30
0.0
 11
221.2320980205
 21
106.5725006728
 31
0.0
  0
LINE
  5
1A5
330
1F
100
AcDbEntity
  8
0
  6
HIDDEN
 62
     7
370
     0
100
AcDbLine
 10
221.2340520494
 20
106.5742919723
 30
0.0
 11
221.3228176761
 21
106.7386640477
 31
0.0
  0
LINE
  5
1A6
330
1F
100
AcDbEntity
  8
0
  6
HIDDEN
 62
     7
370
     0
100
AcDbLine
 10
221.3200621224
 20
109.2940816562
 30
0.0
 11
221.1508337354
 21
109.5696635129
 31
0.0
  0
LINE
  5
1A7
330
1F
100
AcDbEntity
  8
0
  6
HIDDEN
 62
     7
370
     0
100
AcDbLine
 10
221.0919440117
 20
126.3821621606
 30
0.0
 11
221.2611723988
 21
126.6577440173
 31
0.0
  0
LINE
  5
1A8
330
1F
100
AcDbEntity
  8
0
  6
HIDDEN
 62
     7
370
     0
100
AcDbLine
 10
221.3228176761
 20
129.1041123637
 30
0.0
 11
221.1751623258
 21
129.3775337012
 31
0.0
  0
LINE
  5
1A9
330
1F
100
AcDbEntity
  8
0
  6
HIDDEN
 62
     7
370
     0
100
AcDbLine
 10
221.1732082969
 20
129.3793250007
 30
0.0
 11
215.839270493
 21
129.5275140668
 31
0.0
  0
LINE
  5
1AA
330
1F
100
AcDbEntity
  8
0
  6
HIDDEN
 62
     7
370
     0
100
AcDbLine
 10
215.755955737
 20
126.5286711814
 30
0.0
 11
221.0898935409
 21
126.3804821153
 31
0.0
  0
LINE
  5
1AB
330
1F
100
AcDbEntity
  8
0
  6
HIDDEN
 62
     7
370
     0
100
AcDbLine
 10
215.838098426
 20
129.526967849
 30
0.0
 11
215.3249888042
 21
129.041223215
 31
0.0
  0
LINE
  5
1AC
330
1F
100
AcDbEntity
  8
0
  6
HIDDEN
 62
     7
370
     0
100
AcDbLine
 10
215.2694670568
 20
127.0427657369
 30
0.0
 11
215.7548158049
 21
126.5292816319
 31
0.0
  0
DIMENSION
  5
1AD
330
1F
100
AcDbEntity
  8
VERMASSUNG
100
AcDbDimension
  2
*D1
 10
66.360885129
 20
67.9750947908
 30
0.0
 11
66.360885129
 21
117.9750947908
 31
0.0
 70
   160
  1
HSK A %%c<>
 71
     2
 42
-1.0
  3
SLDDIMSTYLE0
100
AcDbAlignedDimension
 13
121.8228176761
 23
167.9750947908
 33
0.0
 14
121.8228176761
 24
67.9750947908
 34
0.0
 50
90.0
100
AcDbRotatedDimension
  0
DIMENSION
  5
1BA
330
1F
100
AcDbEntity
  8
VERMASSUNG
100
AcDbDimension
  2
*D2
 10
221.3228176761
 20
181.9679970321
 30
0.0
 11
146.3728176761
 21
181.9679970321
 31
0.0
 70
   160
 71
     2
 42
-1.0
  3
SLDDIMSTYLE0
100
AcDbAlignedDimension
 13
71.4228176761
 23
148.4777645333
 33
0.0
 14
221.3228176761
 24
135.7009542691
 34
0.0
100
AcDbRotatedDimension
  0
DIMENSION
  5
1C4
330
1F
100
AcDbEntity
  8
VERMASSUNG
100
AcDbDimension
  2
*D3
 10
221.3228176761
 20
175.9679970321
 30
0.0
 11
171.3228176761
 21
175.9679970321
 31
0.0
 70
   160
 71
     2
 42
-1.0
  3
SLDDIMSTYLE0
100
AcDbAlignedDimension
 13
121.3228176761
 23
167.4750947908
 33
0.0
 14
221.3228176761
 24
135.7009542691
 34
0.0
100
AcDbRotatedDimension
  0
DIMENSION
  5
1CE
330
1F
100
AcDbEntity
  8
VERMASSUNG
100
AcDbDimension
  2
*D4
 10
221.3228176761
 20
169.9679970321
 30
0.0
 11
185.7978176761
 21
169.9679970321
 31
0.0
 70
   160
 71
     2
 42
-1.0
  3
SLDDIMSTYLE0
100
AcDbAlignedDimension
 13
150.2728176761
 23
165.9438346116
 33
0.0
 14
221.3228176761
 24
135.7009542691
 34
0.0
100
AcDbRotatedDimension
  0
DIMENSION
  5
1D8
330
1F
100
AcDbEntity
  8
VERMASSUNG
100
AcDbDimension
  2
*D5
 10
230.2025303992
 20
108.9750947908
 30
0.0
 11
230.2025303992
 21
117.9750947908
 31
0.0
 70
   160
  1
%%c<>
 71
     2
 42
-1.0
  3
SLDDIMSTYLE0
100
AcDbAlignedDimension
 13
221.0228176761
 23
126.9750947908
 33
0.0
 14
221.0228176761
 24
108.9750947908
 34
0.0
 50
90.0
100
AcDbRotatedDimension
  0
DIMENSION
  5
1E3
330
1F
100
AcDbEntity
  8
VERMASSUNG
100
AcDbDimension
  2
*D6
 10
236.2025303992
 20
93.9750947908
 30
0.0
 11
236.2025303992
 21
117.9750947908
 31
0.0
 70
   160
  1
%%c<>
 71
     2
 42
-1.0
  3
SLDDIMSTYLE0
100
AcDbAlignedDimension
 13
210.6002830736
 23
141.9750947908
 33
0.0
 14
210.6002830736
 24
93.9750947908
 34
0.0
 50
90.0
100
AcDbRotatedDimension
  0
LINE
  5
1EE
330
1F
100
AcDbEntity
  8
VERMASSUNG
  6
CENTERX2
 62
     7
370
     0
100
AcDbLine
 10
69.1723483152
 20
117.9750947908
 30
0.0
 11
223.6338424966
 21
117.9750947908
 31
0.0
  0
OLE2FRAME
  5
1EF
330
1F
100
AcDbEntity
  8
0
100
AcDbOle2Frame
 70
     2
  3
Bitmap Image
 10
13.8511154363
 20
38.264191557
 30
0.0
 11
51.6290888628
 21
31.9806341108
 31
0.0
 71
     2
 72
     0
 73
     1
 90
    12928
310
80552BED0767C5B32B40DDAF6807D121434000000000000000006FFBDDFB85D0
310
4940DDAF6807D121434000000000000000006FFBDDFB85D04940416F4BD60AFB
310
3F4000000000000000002BED0767C5B32B40416F4BD60AFB3F40000000000000
310
0000000000000100000000010000010000000100000000000100000000320000
310
D0CF11E0A1B11AE1000000000000000000000000000000003E000300FEFF0900
310
0600000000000000000000000100000001000000000000000010000002000000
310
01000000FEFFFFFF0000000000000000FFFFFFFFFFFFFFFFFFFFFFFFFFFFFFFF
310
FFFFFFFFFFFFFFFFFFFFFFFFFFFFFFFFFFFFFFFFFFFFFFFFFFFFFFFFFFFFFFFF
310
FFFFFFFFFFFFFFFFFFFFFFFFFFFFFFFFFFFFFFFFFFFFFFFFFFFFFFFFFFFFFFFF
310
FFFFFFFFFFFFFFFFFFFFFFFFFFFFFFFFFFFFFFFFFFFFFFFFFFFFFFFFFFFFFFFF
310
FFFFFFFFFFFFFFFFFFFFFFFFFFFFFFFFFFFFFFFFFFFFFFFFFFFFFFFFFFFFFFFF
310
FFFFFFFFFFFFFFFFFFFFFFFFFFFFFFFFFFFFFFFFFFFFFFFFFFFFFFFFFFFFFFFF
310
FFFFFFFFFFFFFFFFFFFFFFFFFFFFFFFFFFFFFFFFFFFFFFFFFFFFFFFFFFFFFFFF
310
FFFFFFFFFFFFFFFFFFFFFFFFFFFFFFFFFFFFFFFFFFFFFFFFFFFFFFFFFFFFFFFF
310
FFFFFFFFFFFFFFFFFFFFFFFFFFFFFFFFFFFFFFFFFFFFFFFFFFFFFFFFFFFFFFFF
310
FFFFFFFFFFFFFFFFFFFFFFFFFFFFFFFFFFFFFFFFFFFFFFFFFFFFFFFFFFFFFFFF
310
FFFFFFFFFFFFFFFFFFFFFFFFFFFFFFFFFFFFFFFFFFFFFFFFFFFFFFFFFFFFFFFF
310
FFFFFFFFFFFFFFFFFFFFFFFFFFFFFFFFFFFFFFFFFFFFFFFFFFFFFFFFFFFFFFFF
310
FFFFFFFFFFFFFFFFFFFFFFFFFFFFFFFFFFFFFFFFFFFFFFFFFFFFFFFFFFFFFFFF
310
FFFFFFFFFFFFFFFFFFFFFFFFFFFFFFFFFFFFFFFFFFFFFFFFFFFFFFFFFFFFFFFF
310
FDFFFFFFFEFFFFFFFEFFFFFFFEFFFFFF05000000060000000700000008000000
310
090000000A0000000B0000000C0000000D0000000E0000000F00000010000000
310
11000000120000001300000014000000150000001600000017000000FEFFFFFF
310
FFFFFFFFFFFFFFFFFFFFFFFFFFFFFFFFFFFFFFFFFFFFFFFFFFFFFFFFFFFFFFFF
310
FFFFFFFFFFFFFFFFFFFFFFFFFFFFFFFFFFFFFFFFFFFFFFFFFFFFFFFFFFFFFFFF
310
FFFFFFFFFFFFFFFFFFFFFFFFFFFFFFFFFFFFFFFFFFFFFFFFFFFFFFFFFFFFFFFF
310
FFFFFFFFFFFFFFFFFFFFFFFFFFFFFFFFFFFFFFFFFFFFFFFFFFFFFFFFFFFFFFFF
310
FFFFFFFFFFFFFFFFFFFFFFFFFFFFFFFFFFFFFFFFFFFFFFFFFFFFFFFFFFFFFFFF
310
FFFFFFFFFFFFFFFFFFFFFFFFFFFFFFFFFFFFFFFFFFFFFFFFFFFFFFFFFFFFFFFF
310
FFFFFFFFFFFFFFFFFFFFFFFFFFFFFFFFFFFFFFFFFFFFFFFFFFFFFFFFFFFFFFFF
310
FFFFFFFFFFFFFFFFFFFFFFFFFFFFFFFFFFFFFFFFFFFFFFFFFFFFFFFFFFFFFFFF
310
FFFFFFFFFFFFFFFFFFFFFFFFFFFFFFFFFFFFFFFFFFFFFFFFFFFFFFFFFFFFFFFF
310
FFFFFFFFFFFFFFFFFFFFFFFFFFFFFFFFFFFFFFFFFFFFFFFFFFFFFFFFFFFFFFFF
310
FFFFFFFFFFFFFFFFFFFFFFFFFFFFFFFFFFFFFFFFFFFFFFFFFFFFFFFFFFFFFFFF
310
FFFFFFFFFFFFFFFFFFFFFFFFFFFFFFFFFFFFFFFFFFFFFFFFFFFFFFFFFFFFFFFF
310
FFFFFFFFFFFFFFFFFFFFFFFFFFFFFFFFFFFFFFFFFFFFFFFFFFFFFFFFFFFFFFFF
310
52006F006F007400200045006E00740072007900000000000000000000000000
310
0000000000000000000000000000000000000000000000000000000000000000
310
16000500FFFFFFFFFFFFFFFF020000000A00030000000000C000000000000046
310
000000000000000000000000802B54CF0800CC0103000000C000000000000000
310
01004F006C006500000000000000000000000000000000000000000000000000
310
0000000000000000000000000000000000000000000000000000000000000000
310
0A000200FFFFFFFFFFFFFFFFFFFFFFFF00000000000000000000000000000000
310
0000000000000000000000000000000000000000000000001400000000000000
310
010043006F006D0070004F0062006A0000000000000000000000000000000000
310
0000000000000000000000000000000000000000000000000000000000000000
310
120002010100000003000000FFFFFFFF00000000000000000000000000000000
310
0000000000000000000000000000000000000000010000004D00000000000000
310
01004F006C006500310030004E00610074006900760065000000000000000000
310
0000000000000000000000000000000000000000000000000000000000000000
310
1A000200FFFFFFFFFFFFFFFFFFFFFFFF00000000000000000000000000000000
310
0000000000000000000000000000000000000000040000002426000000000000
310
FEFFFFFF02000000FEFFFFFFFFFFFFFFFFFFFFFFFFFFFFFFFFFFFFFFFFFFFFFF
310
FFFFFFFFFFFFFFFFFFFFFFFFFFFFFFFFFFFFFFFFFFFFFFFFFFFFFFFFFFFFFFFF
310
FFFFFFFFFFFFFFFFFFFFFFFFFFFFFFFFFFFFFFFFFFFFFFFFFFFFFFFFFFFFFFFF
310
FFFFFFFFFFFFFFFFFFFFFFFFFFFFFFFFFFFFFFFFFFFFFFFFFFFFFFFFFFFFFFFF
310
FFFFFFFFFFFFFFFFFFFFFFFFFFFFFFFFFFFFFFFFFFFFFFFFFFFFFFFFFFFFFFFF
310
FFFFFFFFFFFFFFFFFFFFFFFFFFFFFFFFFFFFFFFFFFFFFFFFFFFFFFFFFFFFFFFF
310
FFFFFFFFFFFFFFFFFFFFFFFFFFFFFFFFFFFFFFFFFFFFFFFFFFFFFFFFFFFFFFFF
310
FFFFFFFFFFFFFFFFFFFFFFFFFFFFFFFFFFFFFFFFFFFFFFFFFFFFFFFFFFFFFFFF
310
FFFFFFFFFFFFFFFFFFFFFFFFFFFFFFFFFFFFFFFFFFFFFFFFFFFFFFFFFFFFFFFF
310
FFFFFFFFFFFFFFFFFFFFFFFFFFFFFFFFFFFFFFFFFFFFFFFFFFFFFFFFFFFFFFFF
310
FFFFFFFFFFFFFFFFFFFFFFFFFFFFFFFFFFFFFFFFFFFFFFFFFFFFFFFFFFFFFFFF
310
FFFFFFFFFFFFFFFFFFFFFFFFFFFFFFFFFFFFFFFFFFFFFFFFFFFFFFFFFFFFFFFF
310
FFFFFFFFFFFFFFFFFFFFFFFFFFFFFFFFFFFFFFFFFFFFFFFFFFFFFFFFFFFFFFFF
310
FFFFFFFFFFFFFFFFFFFFFFFFFFFFFFFFFFFFFFFFFFFFFFFFFFFFFFFFFFFFFFFF
310
FFFFFFFFFFFFFFFFFFFFFFFFFFFFFFFFFFFFFFFFFFFFFFFFFFFFFFFFFFFFFFFF
310
FFFFFFFFFFFFFFFFFFFFFFFFFFFFFFFFFFFFFFFFFFFFFFFFFFFFFFFFFFFFFFFF
310
0100000200000000000000000000000000000000610072003D0082005C003107
310
9806250000000000604E280000000000680061007200650064005C003B004300
310
0100FEFF030A0000FFFFFFFF0A00030000000000C00000000000004607000000
310
5042727573680007000000504272757368000700000050427275736800F439B2
310
71000000000000000000000000004100540049002E004100430045005C004300
310
6F00720065002D005300740061007400690063003B0043003A005C0050007200
310
6F006700720061006D002000460069006C006500730020002800780038003600
310
29005C0043006F006D006D006F006E002000460069006C00650073005C004100
310
750074006F006400650073006B0020005300680061007200650064005C003B00
310
43003A005C00500072006F006700720061006D002000460069006C0065007300
310
5C004E006F0072006D0061006E005C004E0070006D005C00420069006E000000
310
43003A005C00500072006F006700720061006D002000460069006C0065007300
310
5C0053006F006C006900640057006F0072006B007300200043006F0072007000
310
5C0053006F006C006900640057006F0072006B00730020002800320029005C00
310
730065007400750070005C0069003300380036005C0073007700610063007400
310
770069007A002E006500780065000000220043003A005C00500072006F006700
310
20260000424D0E260000000000003E00000028000000B40200006E0000000100
310
01000000000000000000130B0000130B00000200000002000000000000FFFFFF
310
FFFFFFFFFFFFFFFFFFFFFFFFFFFFFFFFFFFFFFFFFFFFFFFFFFFFFFFFFFFFFFFF
310
FFFFFFFFFFFFFFFFFFFFFFFFFFFFFFFFFFFFFFFFFFFFFFFFFFFFFFFFFFFFFFFF
310
FFFFFFFFFFFFFFFFFFFFFFFFFFFFFFFFFFFFFFFFFFFFFFFFF000FFFFFFFFFFFF
310
FFFFFFFFFFFFFFFFFFFFFFFFFFFFFFFFFFFFFFFFFFFFFFFFFFFFFFFFFFFFFFFF
310
FFFFFFFFFFFFFFFFFFFFFFFFFFFFFFFFFFFFFFFFFFFFFFFFFFFFFFFFFFFFFFFF
310
FFFFFFFFFFFFFFFFFFFFFFFFFFFFFFFFF000FFFFFFFFFFFFFFFFFFFFFFFFFFFF
310
FFFFFFFFFFFFFFFFFFFFFFFFFFFFFFFFFFFFFFFFFFFFFFFFFFFFFFFFFFFFFFFF
310
FFFFFFFFFFFFFFFFFFFFFFFFFFFFFFFFFFFFFFFFFFFFFFFFFFFFFFFFFFFFFFFF
310
FFFFFFFFFFFFFFFFF000FFFFFFFFFFFFFFFFFFFFFFFFFFFFFFFFFFFFFFFFFFFF
310
FFFFFFFFFFFFFFFFFFFFFFFFFFFFFFFFFFFFFFFFFFFFFFFFFFFFFFFFFFFFFFFF
310
FFFFFFFFFFFFFFFFFFFFFFFFFFFFFFFFFFFFFFFFFFFFFFFFFFFFFFFFFFFFFFFF
310
F000FFFFFFFFFFFFFFFFFFFFFFFFFFFFFFFFFFFFFFFFFFFFFFFFFFFFFFFFFFFF
310
FFFFFFFFFFFFFFFFFFFFFFFFFFFFFFFFFFFFFFFFFFFFFFFFFFFFFFFFFFFFFFFF
310
FFFFFFFFFFFFFFFFFFFFFFFFFFFFFFFFFFFFFFFFFFFFFFFFF000FFFFFFFFFFFF
310
FFFFFFFFFFFFFFFFFFFFFFFFFFFFFFFFFFFFFFFFFFFFFFFFFFFFFFFFFFFFFFFF
310
FFFFFFFFFFFFFFFFFFFFFFFFFFFFFFFFFFFFFFFFFFFFFFFFFFFFFFFFFFFFFFFF
310
FFFFFFFFFFFFFFFFFFFFFFFFFFFFFFFFF000FFFFFFFFFFFFFFFFFFFFFFFFFFFF
310
FFFFFFFFFFFFFFFFFFFFFFFFFFFFFFFFFFFFFFFFFFFFFFFFFFFFFFFFFFFFFFFF
310
FFFFFFFFFFFFFFFFFFFFFFFFFFFFFFFFFFFFFFFFFFFFFFFFFFFFFFFFFFFFFFFF
310
FFFFFFFFFFFFFFFFF000FFFFFFFFFFFFFFFFFFFFFFFFFFFFFFFFFFFFFFFFFFFF
310
FFFFFFFFFFFFFFFFFFFFFFFFFFFFFFFFFFFFFFFFFFFFFFFFFFFFFFFFFFFFFFFF
310
FFFFFFFFFFFFFFFFFFFFFFFFFFFFFFFFFFFFFFFFFFFFFFFFFFFFFFFFFFFFFFFF
310
F000FFFFFFFFFFFFFFFFFFFFFFFFFFFFFFFFFFFFFFFFFFFFFFFFFFFFFFFFFFFF
310
FFFFFFFFFFFFFFFFFFFFFFFFFFFFFFFFFFFFFFFFFFFFFFFFFFFFFFFFFFFFFFFF
310
FFFFFFFFFFFFFFFFFFFFFFFFFFFFFFFFFFFFFFFFFFFFFFFFF000FFFFFFFFFFFF
310
FFFFFFFFFFFFFFFFFFFFFFFFFFFFFFFFFFFFFFFFFFFFFFFFFFFFFFFFFFFFFFFF
310
FFFFFFFFFFFFFFFFFFFFFFFFFFFFFFFFFFFFFFFFFFFFFFFFFFFFFFFFFFFFFFFF
310
FFFFFFFFFFFFFFFFFFFFFFFFFFFFFFFFF000FFFFFFFFFFFFFFFFFFFFFFFFFFFF
310
FFFFFFFFFFFFFFFFFFFFFFFFFFFFFFFFFFFFFFFFFFFFFFFFFFFFFFFFFFFFFFFF
310
FFFFFFFFFFFFFFFFFFFFFFFFFFFFFFFFFFFFFFFFFFFFFFFFFFFFFFFFFFFFFFFF
310
FFFFFFFFFFFFFFFFF000FFFFFFFFFFFFFFFFFFFFFFFFFFFFFFFFFFFFFFFFFFFF
310
FFFFFFFFFFFFFFFFFFFFFFFFFFFFFFFFFFFFFFFFFFFFFFFFFFFFFFFFFFFFFFFF
310
FFFFFFFFFFFFFFFFFFFFFFFFFFFFFFFFFFFFFFFFFFFFFFFFFFFFFFFFFFFFFFFF
310
F000FFFFFFFFFFFFFFFFFFFFFFFFFFFFFFFFFFFFFFFFFFFFFFFFFFFFFFFFFFFF
310
FFFFFFFFFFFFFFFFFFFFFFFFFFFFFFFFFFFFFFFFFFFFFFFFFFFFFFFFFFFFFFFF
310
FFFFFFFFFFFFFFFFFFFFFFFFFFFFFFFFFFFFFFFFFFFFFFFFF000FFFFFFFFFFFF
310
FFFFFFFFFFFFFFFFFFFFFFFFFFFFFFFFFFFFFFFFFFFFFFFFFFFFFFFFFFFFFFFF
310
FFFFFFFFFFFFFFFFFFFFFFFFFFFFFFFFFFFFFFFFFFFFFFFFFFFFFFFFFFFFFFFF
310
FFFFFFFFFFFFFFFFFFFFFFFFFFFFFFFFF000FFFFFFFFFFFFFFFFFFFFFFFFFFFF
310
FFFFFFFFFFFFFFFFFFFFFFFFFFFFFFFFFFFFFFFFFFFFFFFFFFFFFFFFFFFFFFFF
310
FFFFFFFFFFFFFFFFFFFFFFFFFFFFFFFFFFFFFFFFFFFFFFFFFFFFFFFFFFFFFFFF
310
FFFFFFFFFFFFFFFFF000FFFFFFFFFFFFFFFFFFFFFFFFFFFFFFFFFFFFFFFFFFFF
310
FFFFFFFFFFFFFFFFFFFFFFFFFFFFFFFFFFFFFFFFFFFFFFFFFFFFFFFFFFFFFFFF
310
FFFFFFFFFFFFFFFFFFFFFFFFFFFFFFFFFFFFFFFFFFFFFFFFFFFFFFFFFFFFFFFF
310
F000FFFFFFFFFFFFFFFFFFFFFFFFFFFFFFFFFFFFFFFFFFFFFFFFFFFFFFFFFFFF
310
FFFFFFFFFFFFFFFFFFFFFFFFFFFFFFFFFFFFFFFFFFFFFFFFFFFFFFFFFFFFFFFF
310
FFFFFFFFFFFFFFFFFFFFFFFFFFFFFFFFFFFFFFFFFFFFFFFFF000FFFFFFFFFFFF
310
FFFFFFFFFFFFFFFFFFFFFFFFFFFFFFFFFFFFFFFFFFFFFFFFFFFFFFFFFFFFFFFF
310
FFFFFFFFFFFFFFFFFFFFFFFFFFFFFFFFFFFFFFFFFFFFFFFFFFFFFFFFFFFFFFFF
310
FFFFFFFFFFFFFFFFFFFFFFFFFFFFFFFFF000FFFFFFFFFFFFFFFFFFFFFFFFFFFF
310
FFFFFFFFFFFFFFFFFFFFFFFFFFFFFFFFFFFFFFFFFFFFFFFFFFFFFFFFFFFFFFFF
310
FFFFFFFFFFFFFFFFFFFFFFFFFFFFFFFFFFFFFFFFFFFFFFFFFFFFFFFFFFFFFFFF
310
FFFFFFFFFFFFFFFFF000FFFFF80003FFFFFFFFFFFFFFFFFFFFFFFFFFFFFFFFFF
310
FFFFF00007FFFFFFFFFF00007FFFFFF800000000000000007FFFFFFFFFFFFFFF
310
FFFFFFFC001FFFFFFFFFFFFFFC001FFFFFFFFFFFFFFFFFFFFFFFFFFE0007FFFF
310
F000FFFF8000007FFFFFFFF8000FFFFFC0007FFFFF80007FFFFF0000007FFFFF
310
FFF8000007FFFFF800000000000000007FFFFFF0001FFFFFFFFFFFC00001FFFF
310
FFFFFFFFC00001FFFFFFFF000000000003FFFFE000007FFFF000FFFE0000000F
310
FFFFFFF0000FFFFF80007FFFFF80007FFFFC0000001FFFFFFFC0000001FFFFF8
310
00000000000000007FFFFFF0001FFFFFFFFFFE0000003FFFFFFFFFFE0000003F
310
FFFFFF000000000003FFFF0000000FFFF000FFF800000003FFFFFFF00007FFFF
310
80007FFFFF80007FFFF000000007FFFFFF000000003FFFF80000000000000000
310
7FFFFFF0001FFFFFFFFFF80000000FFFFFFFFFF80000000FFFFFFF0000000000
310
03FFFC00000003FFF000FFE000000000FFFFFFF00007FFFF80003FFFFF80007F
310
FFC000000001FFFFFC000000001FFFF800000000000000007FFFFFF0001FFFFF
310
FFFFE000000003FFFFFFFFE000000003FFFFFF000000000003FFF000000000FF
310
F000FF80000000007FFFFFF00007FFFF80003FFFFF80007FFF8000000000FFFF
310
F80000000007FFF800000000000000007FFFFFF0001FFFFFFFFFC000000001FF
310
FFFFFFC000000001FFFFFF000000000003FFC0000000007FF000FF0000000000
310
3FFFFFE00007FFFF00003FFFFF80007FFE00000000003FFFF00000000003FFF8
310
00000000000000007FFFFFF0001FFFFFFFFF8000000000FFFFFFFF8000000000
310
FFFFFF000000000003FF80000000003FF000FE00000000001FFFFFE00003FFFF
310
00003FFFFF80007FFC00000000001FFFE00000000001FFF8000001FFFE000000
310
7FFFFFF0001FFFFFFFFE00000000003FFFFFFE00000000003FFFFF0000000000
310
03FF00000000001FF000FC00000000000FFFFFE00003FFFF00001FFFFF80007F
310
F800000000001FFFC00000000000FFF8000001FFFE0000007FFFFFF0001FFFFF
310
FFFC00000000001FFFFFFC00000000001FFFFF000000000003FE00000000000F
310
F000F8000000000007FFFFE00003FFFF00001FFFFF80007FF800000000000FFF
310
800000000000FFF8000001FFFE0000007FFFFFF0001FFFFFFFF800000000000F
310
FFFFF800000000000FFFFF000000000003FC000000000007F000F80000000000
310
03FFFFC00003FFFE00001FFFFF80007FF0000000000007FF0000000000007FF8
310
000001FFFE0000007FFFFFF0001FFFFFFFF0000000000007FFFFF00000000000
310
07FFFF000000000003F8000000000003F000F0000000000003FFFFC00001FFFE
310
00001FFFFF80007FE0000000000007FE0000000000003FF8000001FFFE000000
310
7FFFFFF0001FFFFFFFF0000000000007FFFFF0000000000007FFFF0000000000
310
03F800001F800003F000E00001FFF00001FFFFC00001FFFE00000FFFFF80007F
310
E00001FFE00003FE00001FFF00003FF8000001FFFE0000007FFFFFF0001FFFFF
310
FFE000003E000003FFFFE000003E000003FFFF000000000003F00001FFF80001
310
F000E00007FFFC0001FFFFC00001FFFE00000FFFFF80007FC0000FFFFC0003FC
310
0000FFFFC0001FF8000001FFFE0000007FFFFFF0001FFFFFFFC00003FFE00001
310
FFFFC00003FFE00001FFFF0001FFFFFFFFF00007FFFE0001F000E0000FFFFF00
310
00FFFF800001FFFC00000FFFFF80007FC0001FFFFE0001FC0001FFFFE0001FF8
310
000001FFFE0000007FFFFFF0001FFFFFFF80000FFFF80000FFFF80000FFFF800
310
00FFFF0003FFFFFFFFE0000FFFFF8000F000C0003FFFFF8000FFFF800000FFFC
310
000007FFFF80007F80003FFFFF0001FC0003FFFFF0001FF8000001FFFE000000
310
7FFFFFF0001FFFFFFF80003FFFFE0000FFFF80003FFFFE0000FFFF0003FFFFFF
310
FFE0003FFFFF8000F000C0003FFFFF8000FFFF800000FFFC000007FFFF80007F
310
80007FFFFF8001F80007FFFFF8000FF8000001FFFE0000007FFFFFF0001FFFFF
310
FF00007FFFFF00007FFF00007FFFFF00007FFF0003FFFFFFFFE0003FFFFFC000
310
F000C0007FFFFFC000FFFF000000FFFC000007FFFF80007F8000FFFFFF8000F8
310
000FFFFFF8000FF8000001FFFE0000007FFFFFF0001FFFFFFF0000FFFFFF8000
310
7FFF0000FFFFFF80007FFF0003FFFFFFFFC0007FFFFFC00070008000FFFFFFC0
310
00FFFF000000FFF8000007FFFF80007F8000FFFFFF8000F8000FFFFFF8000FF8
310
000001FFFE0000007FFFFFF0001FFFFFFE0001FFFFFFC0003FFE0001FFFFFFC0
310
003FFF0003FFFFFFFFC0007FFFFFE00070008000FFFFFFC0007FFF0000007FF8
310
000003FFFF80007F0001FFFFFF8000F8000FFFFFF8000FF8000001FFFE000000
310
7FFFFFF0001FFFFFFE0001FFFFFFC0003FFE0001FFFFFFC0003FFF0003FFFFFF
310
FFC000FFFFFFE00070008000FFFFFFC0007FFF0000007FF8000003FFFF80007F
310
0001FFFFFF8000F8001FFFFFF8000FF8000001FFFE0000007FFFFFF0001FFFFF
310
FE0003FFFFFFE0003FFE0003FFFFFFE0003FFF0003FFFFFFFFC000FFFFFFE000
310
70008000FFFFFFC0007FFE0000007FF8000003FFFF80007F0001FFFFFF8000F0
310
001FFFFFF8000FF8000001FFFE0000007FFFFFF0001FFFFFFC0003FFFFFFE000
310
1FFC0003FFFFFFE0001FFF0003FFFFFFFFC000FFFFFFC00070008000FFFFFF80
310
007FFE0000007FF0000003FFFF80007F0001FFFFFF0000F0001FFFFFF8000FF8
310
000001FFFE0000007FFFFFF0001FFFFFFC0007FFFFFFF0001FFC0007FFFFFFF0
310
001FFF0003FFFFFFFFC000FFFFFFC00070008001FFFFFF0000FFFE0000003FF0
310
000001FFFF80007F0001FFFFFF0000F8001FFFFFF0000FF8000001FFFE000000
310
7FFFFFF0001FFFFFFC0007FFFFFFF0001FFC0007FFFFFFF0001FFF0003FFFFFF
310
FFC001FFFFFF80007000FFFFFFFFFE0000FFFE0008003FF0008001FFFF80007F
310
FFFFFFFFFC0000FFFFFFFFFFE0000FF8000001FFFE0000007FFFFFF0001FFFFF
310
F8000FFFFFFFF8000FF8000FFFFFFFF8000FFF0003FFFFFFFFFFFFFFFFFF0000
310
7000FFFFFFFFFC0000FFFC0008003FF0008001FFFF80007FFFFFFFFFF80001FF
310
FFFFFFFF80000FF8000001FFFE0000007FFFFFF0001FFFFFF8000FFFFFFFF800
310
0FF8000FFFFFFFF8000FFF0003FFFFFFFFFFFFFFFFFE0000F000FFFFFFFFE000
310
00FFFC000C003FE000C001FFFF80007FFFFFFFFFC00001FFFFFFFFFE00001FF8
310
000001FFFE0000007FFFFFF0001FFFFFF8000FFFFFFFF8000FF8000FFFFFFFF8
310
000FFF0003FFFFFFFFFFFFFFFFF00000F000FFFFFFFE000001FFFC000C001FE0
310
00C000FFFF80007FFFFFFFFE000001FFFFFFFFE000001FF80FFFFFFFFFFFFFC0
310
7FFFFFF0001FFFFFF8000FFFFFFFF8000FF8000FFFFFFFF8000FFF0003FFFFFF
310
FFFFFFFFFF800000F000FFFFFFC0000001FFFC001C001FE001C000FFFF80007F
310
FFFFFF80000003FFFFFFF80000001FF80FFFFFFFFFFFFFC07FFFFFF0001FFFFF
310
F8001FFFFFFFFC000FF8001FFFFFFFFC000FFF0003FFFFFFFFFFFFFFF0000001
310
F000FFFFF800000001FFF8001C001FE001C000FFFF80007FFFFFF800000003FF
310
FFFF800000003FF80FFFFFFFFFFFFFC07FFFFFF0001FFFFFF8001FFFFFFFFC00
310
0FF8001FFFFFFFFC000FFF0003FFFFFFFFFFFFFE00000001F000FFFFC0000000
310
03FFF8001E001FC001E000FFFF80007FFFFF8000000007FFFFFC000000003FF8
310
0FFFFFFFFFFFFFC07FFFFFF0001FFFFFF8001FFFFFFFFC000FF8001FFFFFFFFC
310
000FFF0003FFFFFFFFFFFFE000000003F000FFFE0000000007FFF8001E000FC0
310
01E0007FFF80007FFFFE0000000007FFFFE0000000007FF80FFFFFFFFFFFFFC0
310
7FFFFFF0001FFFFFF0001FFFFFFFFC0007F0001FFFFFFFFC0007FF0003FFFFFF
310
FFFFFF0000000003F000FFF80000000007FFF8001E000FC003E0007FFF80007F
310
FFF0000000000FFFFF8000000000FFF80FFFFFFFFFFFFFC07FFFFFF0001FFFFF
310
F0001FFFFFFFFC0007F0001FFFFFFFFC0007FF0003FFFFFFFFFFFC0000000007
310
F000FFE0000000000FFFF0003E000FC003E0007FFF80007FFFC0000000001FFF
310
FE0000000001FFF80FFFFFFFFFFFFFC07FFFFFF0001FFFFFF0001FFFFFFFFC00
310
07F0001FFFFFFFFC0007FF0003FFFFFFFFFFF0000000000FF000FFC000000000
310
1FFFF0003F000F8003F0003FFF80007FFF80000000003FFFF80000000003FFF8
310
0FFFFFFFFFFFFFC07FFFFFF0001FFFFFF0001FFFFFFFFC0007F0001FFFFFFFFC
310
0007FF0003FFFFFFFFFFE0000000001FF000FF00000000007FFFF0003F000780
310
03F0003FFF80007FFF00000000007FFFF00000000007FFF80FFFFFFFFFFFFFC0
310
7FFFFFF0001FFFFFF0001FFFFFFFFC0007F0001FFFFFFFFC0007FF0003FFFFFF
310
FFFF80000000007FF000FE0000000000FFFFE0003F00078007F0003FFF80007F
310
FE0000000001FFFFE0000000001FFFF80FFFFFFFFFFFFFC07FFFFFF0001FFFFF
310
F0001FFFFFFFFC0007F0001FFFFFFFFC0007FF0003FFFFFFFFFF0000000000FF
310
F000FC0000000003FFFFE0007F00078007F0003FFF80007FFC0000000007FFFF
310
C0000000007FFFF80FFFFFFFFFFFFFC07FFFFFF0001FFFFFF8001FFFFFFFFC00
310
0FF8001FFFFFFFFC000FFF0003FFFFFFFFFE0000000003FFF000FC000000000F
310
FFFFE0007F80070007F8001FFF80007FF8000000001FFFFF8000000001FFFFF8
310
0FFFFFFFFFFFFFC07FFFFFF0001FFFFFF8001FFFFFFFFC000FF8001FFFFFFFFC
310
000FFF0003FFFFFFFFFC000000000FFFF000F8000000007FFFFFE0007F800700
310
07F8001FFF80007FF000000000FFFFFF800000000FFFFFF80FFFFFFFFFFFFFC0
310
7FFFFFF0001FFFFFF8000FFFFFFFF8000FF8000FFFFFFFF8000FFF0003FFFFFF
310
FFFC000000007FFFF000F800000007FFFFFFC0007F8003000FF8001FFF80007F
310
F000000007FFFFFF000000007FFFFFF80FFFFFFFFFFFFFC07FFFFFF0001FFFFF
310
F8000FFFFFFFF8000FF8000FFFFFFFF8000FFF0003FFFFFFFFF80000000FFFFF
310
F000F0000000FFFFFFFFC000FF8003000FF8001FFF80007FE0000000FFFFFFFF
310
0000000FFFFFFFF8000001FFFE0000007FFFFFF0001FFFFFF8000FFFFFFFF800
310
0FF8000FFFFFFFF8000FFF0003FFFFFFFFF8000000FFFFFFF000F000000FFFFF
310
FFFFC000FFC002000FF8000FFF80007FE000001FFFFFFFFE000001FFFFFFFFF8
310
000001FFFE0000007FFFFFF0001FFFFFF8000FFFFFFFF8000FF8000FFFFFFFF8
310
000FFF0003FFFFFFFFF000001FFFFFFFF000E00000FFFFFFFFFFC000FFC00200
310
0FFC000FFF80007FE00001FFFFFFFFFE00001FFFFFFFFFF8000001FFFE000000
310
7FFFFFF0001FFFFFFC000FFFFFFFF8001FFC000FFFFFFFF8001FFF0003FFFFFF
310
FFF00001FFFFFFFFF000E00007FFFFFFFFFF8000FFC000001FFC000FFF80007F
310
C0000FFFFFFFFFFE0000FFFFFFFFFFF8000001FFFE0000007FFFFFF0001FFFFF
310
FC0007FFFFFFF0001FFC0007FFFFFFF0001FFF0003FFFFFFFFF00007FFFFFFFF
310
F000E0001FFFFFFFFFFF8000FFC000001FFC000FFF80007FC0003FFFFFFFFFFE
310
0001FFFFFFFFFFF8000001FFFE0000007FFFFFF0001FFFFFFC0007FFFFFFF000
310
1FFC0007FFFFFFF0001FFF0003FFFFFFFFF0001FFFFFFFFFF000E0003FFFFF00
310
03FF8001FFE000001FFC0007FF80007FC0007FFFFF0007FC0003FFFFF0003FF8
310
000001FFFE0000007FFFFFF0001FFFFFFC0003FFFFFFE0001FFC0003FFFFFFE0
310
001FFF0003FFFFFFFFF0003FFFFFFFFFF000E0003FFFFF0001FF8001FFE00000
310
1FFE0007FF80007FC0007FFFFE0003FC0007FFFFE0003FF8000001FFFE000000
310
7FFFFFF0001FFFFFFE0003FFFFFFE0003FFE0003FFFFFFE0003FFF0003FFFFFF
310
FFF0003FFFFF8001F000E0003FFFFF0001FF0001FFE000001FFE0007FF80007F
310
C0007FFFFE0003FC0007FFFFE0003FF8000001FFFE0000007FFFFFF0001FFFFF
310
FE0001FFFFFFC0003FFE0001FFFFFFC0003FFF0003FFFFFFFFF0003FFFFF0001
310
F000E0003FFFFF0003FF0001FFE000003FFE0007FF80007FC0007FFFFE0003FC
310
0007FFFFE0003FF8000001FFFE0000007FFFFFF0001FFFFFFF0001FFFFFFC000
310
7FFF0001FFFFFFC0007FFF0003FFFFFFFFF0003FFFFF0001F000E0003FFFFE00
310
03FF0003FFF000003FFE0003FF80007FC0007FFFFC0003FE0007FFFFE0003FF8
310
000001FFFE0000007FFFFFF0001FFFFFFF0000FFFFFF80007FFF0000FFFFFF80
310
007FFF0003FFFFFFFFF0003FFFFF0001F000E0003FFFFE0003FF0003FFF00000
310
3FFF0003FF80007FC0007FFFFC0007FE0007FFFFC0003FF8000001FFFE000000
310
7FFFFFF0001FFFFFFF80007FFFFF0000FFFF80007FFFFF0000FFFF0003FFFFFF
310
FFF0003FFFFF0003F000E0003FFFFC0003FE0003FFF000003FFF0003FF80007F
310
E0003FFFF80007FE0003FFFFC0007FF8000001FFFE0000007FFFFFF0001FFFFF
310
FF80003FFFFE0000FFFF80003FFFFE0000FFFF0003FFFFFFFFF0001FFFFE0003
310
F000F0001FFFF80003FE0003FFF000007FFF0001FF80007FE0003FFFF00007FE
310
0001FFFF80007FF8000001FFFE0000007FFFFFF0001FFFFFFFC0000FFFF80001
310
FFFFC0000FFFF80001FFFF0003FFFFFFFFF0001FFFFC0003F000F0000FFFF000
310
07FE0007FFF800007FFF0001FF80007FE0001FFFE00007FF0000FFFE00007FF8
310
000001FFFE0000007FFFFFF0001FFFFFFFC00003FFE00001FFFFC00003FFE000
310
01FFFF0003FFFFFFFFF8000FFFF80003F000F00003FFC00007FC0007FFF80000
310
7FFF8001FF80007FF00007FF80000FFF00007FF80000FFF8000001FFFE000000
310
7F80000000000001FFE000003E000003FFFFE000003E000003FFFF0003FFFFFF
310
FFF80003FFE00007F000F800000000000FFC0007FFF800007FFF8001FF80007F
310
F000000000000FFF000000000000FFF8000001FFFE0000007F80000000000001
310
FFF0000000000007FFFFF0000000000007FFFF0003FFFFFFFFFC00007E000007
310
F000F800000000000FFC0007FFF80000FFFF8000FF80007FF800000000001FFF
310
800000000001FFF8000001FFFE0000007F80000000000001FFF800000000000F
310
FFFFF800000000000FFFFF0003FFFFFFFFFC00000000000FF000FC0000000000
310
1FFC0007FFFC0000FFFF8000FF80007FF800000000003FFFC00000000001FFF8
310
000001FFFE0000007F80000000000001FFF800000000000FFFFFF80000000000
310
0FFFFF0003FFFFFFFFFE00000000001FF000FE00000000003FF8000FFFFC0000
310
FFFF8000FF80007FFC00000000003FFFC00000000003FFF8000001FFFE000000
310
7F80000000000001FFFC00000000001FFFFFFC00000000001FFFFF0003FFFFFF
310
FFFF00000000001FF000FF00000000003FF8000FFFFC0000FFFFC000FF80007F
310
FE00000000007FFFE00000000007FFF8000001FFFE0000007F80000000000001
310
FFFE00000000003FFFFFFE00000000003FFFFF0003FFFFFFFFFF80000000003F
310
F000FF80000000007FF8000FFFFC0001FFFFC0007F80007FFF0000000000FFFF
310
F0000000000FFFF800000000000000007F80000000000001FFFF8000000000FF
310
FFFFFF8000000000FFFFFF0003FFFFFFFFFFC0000000007FF000FFC000000000
310
FFF8000FFFFE0001FFFFC0007F80007FFF8000000001FFFFF8000000001FFFF8
310
00000000000000007F80000000000001FFFFC000000001FFFFFFFFC000000001
310
FFFFFF0003FFFFFFFFFFE000000000FFF000FFE000000003FFF0001FFFFE0001
310
FFFFC0007F80007FFFC000000007FFFFFE000000003FFFF80000000000000000
310
7F80000000000001FFFFE000000003FFFFFFFFE000000003FFFFFF0003FFFFFF
310
FFFFF000000003FFF000FFF80000000FFFF0001FFFFE0001FFFFE0007F80007F
310
FFF00000000FFFFFFF00000000FFFFF800000000000000007F80000000000001
310
FFFFF80000000FFFFFFFFFF80000000FFFFFFF0003FFFFFFFFFFFC0000000FFF
310
F000FFFE0000003FFFF0001FFFFE0003FFFFE0003F80007FFFFC0000003FFFFF
310
FFC0000003FFFFF800000000000000007F80000000000001FFFFFE0000003FFF
310
FFFFFFFE0000003FFFFFFF0003FFFFFFFFFFFF0000003FFFF000FFFF800000FF
310
FFF0001FFFFF0003FFFFE0003F80007FFFFF000001FFFFFFFFF800001FFFFFF8
310
00000000000000007F80000000000001FFFFFFC00001FFFFFFFFFFFFC00001FF
310
FFFFFF0003FFFFFFFFFFFFC00000FFFFF000FFFFF8000FFFFFFFFFFFFFFFFFFF
310
FFFFFFFFFFFFFFFFFFFFF0001FFFFFFFFFFF0000FFFFFFF80000000000000000
310
7FFFFFFFFFFFFFFFFFFFFFFC001FFFFFFFFFFFFFFC001FFFFFFFFFFFFFFFFFFF
310
FFFFFFFC001FFFFFF000FFFFFFFFFFFFFFFFFFFFFFFFFFFFFFFFFFFFFFFFFFFF
310
FFFFFFFFFFFFFFFFFFFFFFFFFFFFFFFFFFFFFFFFFFFFFFFFFFFFFFFFFFFFFFFF
310
FFFFFFFFFFFFFFFFFFFFFFFFFFFFFFFFFFFFFFFFFFFFFFFFFFFFFFFFFFFFFFFF
310
F000FFFFFFFFFFFFFFFFFFFFFFFFFFFFFFFFFFFFFFFFFFFFFFFFFFFFFFFFFFFF
310
FFFFFFFFFFFFFFFFFFFFFFFFFFFFFFFFFFFFFFFFFFFFFFFFFFFFFFFFFFFFFFFF
310
FFFFFFFFFFFFFFFFFFFFFFFFFFFFFFFFFFFFFFFFFFFFFFFFF000FFFFFFFFFFFF
310
FFFFFFFFFFFFFFFFFFFFFFFFFFFFFFFFFFFFFFFFFFFFFFFFFFFFFFFFFFFFFFFF
310
FFFFFFFFFFFFFFFFFFFFFFFFFFFFFFFFFFFFFFFFFFFFFFFFFFFFFFFFFFFFFFFF
310
FFFFFFFFFFFFFFFFFFFFFFFFFFFFFFFFF000FFFFFFFFFFFFFFFFFFFFFFFFFFFF
310
FFFFFFFFFFFFFFFFFFFFFFFFFFFFFFFFFFFFFFFFFFFFFFFFFFFFFFFFFFFFFFFF
310
FFFFFFFFFFFFFFFFFFFFFFFFFFFFFFFFFFFFFFFFFFFFFFFFFFFFFFFFFFFFFFFF
310
FFFFFFFFFFFFFFFFF000FFFFFFFFFFFFFFFFFFFFFFFFFFFFFFFFFFFFFFFFFFFF
310
FFFFFFFFFFFFFFFFFFFFFFFFFFFFFFFFFFFFFFFFFFFFFFFFFFFFFFFFFFFFFFFF
310
FFFFFFFFFFFFFFFFFFFFFFFFFFFFFFFFFFFFFFFFFFFFFFFFFFFFFFFFFFFFFFFF
310
F000FFFFFFFFFFFFFFFFFFFFFFFFFFFFFFFFFFFFFFFFFFFFFFFFFFFFFFFFFFFF
310
FFFFFFFFFFFFFFFFFFFFFFFFFFFFFFFFFFFFFFFFFFFFFFFFFFFFFFFFFFFFFFFF
310
FFFFFFFFFFFFFFFFFFFFFFFFFFFFFFFFFFFFFFFFFFFFFFFFF000FFFFFFFFFFFF
310
FFFFFFFFFFFFFFFFFFFFFFFFFFFFFFFFFFFFFFFFFFFFFFFFFFFFFFFFFFFFFFFF
310
FFFFFFFFFFFFFFFFFFFFFFFFFFFFFFFFFFFFFFFFFFFFFFFFFFFFFFFFFFFFFFFF
310
FFFFFFFFFFFFFFFFFFFFFFFFFFFFFFFFF000FFFFFFFFFFFFFFFFFFFFFFFFFFFF
310
FFFFFFFFFFFFFFFFFFFFFFFFFFFFFFFFFFFFFFFFFFFFFFFFFFFFFFFFFFFFFFFF
310
FFFFFFFFFFFFFFFFFFFFFFFFFFFFFFFFFFFFFFFFFFFFFFFFFFFFFFFFFFFFFFFF
310
FFFFFFFFFFFFFFFFF000FFFFFFFFFFFFFFFFFFFFFFFFFFFFFFFFFFFFFFFFFFFF
310
FFFFFFFFFFFFFFFFFFFFFFFFFFFFFFFFFFFFFFFFFFFFFFFFFFFFFFFFFFFFFFFF
310
FFFFFFFFFFFFFFFFFFFFFFFFFFFFFFFFFFFFFFFFFFFFFFFFFFFFFFFFFFFFFFFF
310
F000FFFFFFFFFFFFFFFFFFFFFFFFFFFFFFFFFFFFFFFFFFFFFFFFFFFFFFFFFFFF
310
FFFFFFFFFFFFFFFFFFFFFFFFFFFFFFFFFFFFFFFFFFFFFFFFFFFFFFFFFFFFFFFF
310
FFFFFFFFFFFFFFFFFFFFFFFFFFFFFFFFFFFFFFFFFFFFFFFFF000FFFFFFFFFFFF
310
FFFFFFFFFFFFFFFFFFFFFFFFFFFFFFFFFFFFFFFFFFFFFFFFFFFFFFFFFFFFFFFF
310
FFFFFFFFFFFFFFFFFFFFFFFFFFFFFFFFFFFFFFFFFFFFFFFFFFFFFFFFFFFFFFFF
310
FFFFFFFFFFFFFFFFFFFFFFFFFFFFFFFFF000FFFFFFFFFFFFFFFFFFFFFFFFFFFF
310
FFFFFFFFFFFFFFFFFFFFFFFFFFFFFFFFFFFFFFFFFFFFFFFFFFFFFFFFFFFFFFFF
310
FFFFFFFFFFFFFFFFFFFFFFFFFFFFFFFFFFFFFFFFFFFFFFFFFFFFFFFFFFFFFFFF
310
FFFFFFFFFFFFFFFFF000FFFFFFFFFFFFFFFFFFFFFFFFFFFFFFFFFFFFFFFFFFFF
310
FFFFFFFFFFFFFFFFFFFFFFFFFFFFFFFFFFFFFFFFFFFFFFFFFFFFFFFFFFFFFFFF
310
FFFFFFFFFFFFFFFFFFFFFFFFFFFFFFFFFFFFFFFFFFFFFFFFFFFFFFFFFFFFFFFF
310
F000FFFFFFFFFFFFFFFFFFFFFFFFFFFFFFFFFFFFFFFFFFFFFFFFFFFFFFFFFFFF
310
FFFFFFFFFFFFFFFFFFFFFFFFFFFFFFFFFFFFFFFFFFFFFFFFFFFFFFFFFFFFFFFF
310
FFFFFFFFFFFFFFFFFFFFFFFFFFFFFFFFFFFFFFFFFFFFFFFFF000FFFFFFFFFFFF
310
FFFFFFFFFFFFFFFFFFFFFFFFFFFFFFFFFFFFFFFFFFFFFFFFFFFFFFFFFFFFFFFF
310
FFFFFFFFFFFFFFFFFFFFFFFFFFFFFFFFFFFFFFFFFFFFFFFFFFFFFFFFFFFFFFFF
310
FFFFFFFFFFFFFFFFFFFFFFFFFFFFFFFFF000FFFFFFFFFFFFFFFFFFFFFFFFFFFF
310
FFFFFFFFFFFFFFFFFFFFFFFFFFFFFFFFFFFFFFFFFFFFFFFFFFFFFFFFFFFFFFFF
310
FFFFFFFFFFFFFFFFFFFFFFFFFFFFFFFFFFFFFFFFFFFFFFFFFFFFFFFFFFFFFFFF
310
FFFFFFFFFFFFFFFFF000FFFFFFFFFFFFFFFFFFFFFFFFFFFFFFFFFFFFFFFFFFFF
310
FFFFFFFFFFFFFFFFFFFFFFFFFFFFFFFFFFFFFFFFFFFFFFFFFFFFFFFFFFFFFFFF
310
FFFFFFFFFFFFFFFFFFFFFFFFFFFFFFFFFFFFFFFFFFFFFFFFFFFFFFFFFFFFFFFF
310
F000FFFFFFFFFFFFFFFFFFFFFFFFFFFFFFFFFFFFFFFFFFFFFFFFFFFFFFFFFFFF
310
FFFFFFFFFFFFFFFFFFFFFFFFFFFFFFFFFFFFFFFFFFFFFFFFFFFFFFFFFFFFFFFF
310
FFFFFFFFFFFFFFFFFFFFFFFFFFFFFFFFFFFFFFFFFFFFFFFFF000FFFFFFFFFFFF
310
FFFFFFFFFFFFFFFFFFFFFFFFFFFFFFFFFFFFFFFFFFFFFFFFFFFFFFFFFFFFFFFF
310
FFFFFFFFFFFFFFFFFFFFFFFFFFFFFFFFFFFFFFFFFFFFFFFFFFFFFFFFFFFFFFFF
310
FFFFFFFFFFFFFFFFFFFFFFFFFFFFFFFFF000FFFFFFFFFFFFFFFFFFFFFFFFFFFF
310
FFFFFFFFFFFFFFFFFFFFFFFFFFFFFFFFFFFFFFFFFFFFFFFFFFFFFFFFFFFFFFFF
310
FFFFFFFFFFFFFFFFFFFFFFFFFFFFFFFFFFFFFFFFFFFFFFFFFFFFFFFFFFFFFFFF
310
FFFFFFFFFFFFFFFFF000FFFFFFFFFFFFFFFFFFFFFFFFFFFFFFFFFFFFFFFFFFFF
310
FFFFFFFFFFFFFFFFFFFFFFFFFFFFFFFFFFFFFFFFFFFFFFFFFFFFFFFFFFFFFFFF
310
FFFFFFFFFFFFFFFFFFFFFFFFFFFFFFFFFFFFFFFFFFFFFFFFFFFFFFFFFFFFFFFF
310
F000FFFFFFFFFFFFFFFFFFFFFFFFFFFFFFFFFFFFFFFFFFFFFFFFFFFFFFFFFFFF
310
FFFFFFFFFFFFFFFFFFFFFFFFFFFFFFFFFFFFFFFFFFFFFFFFFFFFFFFFFFFFFFFF
310
FFFFFFFFFFFFFFFFFFFFFFFFFFFFFFFFFFFFFFFFFFFFFFFFF000FFFFFFFFFFFF
310
FFFFFFFFFFFFFFFFFFFFFFFFFFFFFFFFFFFFFFFFFFFFFFFFFFFFFFFFFFFFFFFF
310
FFFFFFFFFFFFFFFFFFFFFFFFFFFFFFFFFFFFFFFFFFFFFFFFFFFFFFFFFFFFFFFF
310
FFFFFFFFFFFFFFFFFFFFFFFFFFFFFFFFF0000000000000000000000000000000
310
0000000001000000010000000100000001000000010000000100000001000000
310
0100000001000000010000000100000001000000010000000100000001000000
310
0100000001000000000000000100000000000000010000000100000001000000
310
0100000001000000010000000100000001000000010000000100000001000000
310
0100000001000000010000000100000001000000010000000000000001000000
310
0000000001000000010000000100000001000000010000000100000001000000
310
0100000001000000010000000100000001000000010000000100000001000000
310
0100000001000000010000000100000001000000010000000000000001000000
310
0100000001000000010000000100000001000000010000000100000001000000
310
0100000001000000010000000100000001000000010000000100000001000000
310
0100000001000000010000000100000001000000010000000100000001000000
310
0100000001000000010000000100000001000000000000000100000000000000
310
0100000000000000010000000000000001000000010000000100000001000000
310
0100000001000000010000000100000000000000010000000100000001000000
310
0100000001000000010000000000000000000000000000000000000000000000
  1
OLE
  0
ENDSEC
  0
SECTION
  2
OBJECTS
  0
DICTIONARY
  5
C
330
0
100
AcDbDictionary
281
     1
  3
ACAD_GROUP
350
D
  3
ACAD_LAYOUT
350
1A
  3
ACAD_MLEADERSTYLE
350
1F1
  3
ACAD_MLINESTYLE
350
17
  3
ACAD_PLOTSETTINGS
350
19
  3
ACAD_PLOTSTYLENAME
350
E
  3
ACAD_TABLESTYLE
350
1F0
  3
ACAD_VISUALSTYLE
350
2A
  3
AcDbVariableDictionary
350
1F2
  0
DICTIONARY
  5
D
102
{ACAD_REACTORS
330
C
102
}
330
C
100
AcDbDictionary
281
     1
  0
DICTIONARY
  5
1A
102
{ACAD_REACTORS
330
C
102
}
330
C
100
AcDbDictionary
281
     1
  3
Layout1
350
1E
  3
Layout2
350
26
  3
Model
350
22
  0
DICTIONARY
  5
1F1
102
{ACAD_REACTORS
330
C
102
}
330
C
100
AcDbDictionary
281
     1
  0
DICTIONARY
  5
17
102
{ACAD_REACTORS
330
C
102
}
330
C
100
AcDbDictionary
281
     1
  3
Standard
350
18
  0
DICTIONARY
  5
19
102
{ACAD_REACTORS
330
C
102
}
330
C
100
AcDbDictionary
281
     1
  0
ACDBDICTIONARYWDFLT
  5
E
102
{ACAD_REACTORS
330
C
102
}
330
C
100
AcDbDictionary
281
     1
  3
Normal
350
F
100
AcDbDictionaryWithDefault
340
F
  0
DICTIONARY
  5
1F0
102
{ACAD_REACTORS
330
C
102
}
330
C
100
AcDbDictionary
281
     1
  0
DICTIONARY
  5
2A
102
{ACAD_REACTORS
330
C
102
}
330
C
100
AcDbDictionary
281
     1
  3
2dWireframe
350
2F
  3
3D Hidden
350
31
  3
3dWireframe
350
30
  3
Basic
350
32
  3
Brighten
350
36
  3
ColorChange
350
3A
  3
Conceptual
350
34
  3
Dim
350
35
  3
Facepattern
350
39
  3
Flat
350
2B
  3
FlatWithEdges
350
2C
  3
Gouraud
350
2D
  3
GouraudWithEdges
350
2E
  3
Linepattern
350
38
  3
Realistic
350
33
  3
Thicken
350
37
  0
DICTIONARY
  5
1F2
102
{ACAD_REACTORS
330
C
102
}
330
C
100
AcDbDictionary
281
     1
  3
PSOLHEIGHT
350
1F4
  3
PSOLWIDTH
350
1F3
  0
LAYOUT
  5
1E
102
{ACAD_REACTORS
330
1A
102
}
330
1A
100
AcDbPlotSettings
  1

  2
none_device
  4

  6

 40
0.0
 41
0.0
 42
0.0
 43
0.0
 44
0.0
 45
0.0
 46
0.0
 47
0.0
 48
0.0
 49
0.0
140
0.0
141
0.0
142
1.0
143
1.0
 70
   688
 72
     0
 73
     0
 74
     5
  7

 75
    16
147
1.0
148
0.0
149
0.0
100
AcDbLayout
  1
Layout1
 70
     1
 71
     1
 10
0.0
 20
0.0
 11
420.0
 21
297.0
 12
0.0
 22
0.0
 32
0.0
 14
1.0000000000E+20
 24
1.0000000000E+20
 34
1.0000000000E+20
 15
-1.0000000000E+20
 25
-1.0000000000E+20
 35
-1.0000000000E+20
146
0.0
 13
0.0
 23
0.0
 33
0.0
 16
1.0
 26
0.0
 36
0.0
 17
0.0
 27
1.0
 37
0.0
 76
     0
330
1B
  0
LAYOUT
  5
26
102
{ACAD_REACTORS
330
1A
102
}
330
1A
100
AcDbPlotSettings
  1

  2
none_device
  4

  6

 40
0.0
 41
0.0
 42
0.0
 43
0.0
 44
0.0
 45
0.0
 46
0.0
 47
0.0
 48
0.0
 49
0.0
140
0.0
141
0.0
142
1.0
143
1.0
 70
   688
 72
     0
 73
     0
 74
     5
  7

 75
    16
147
1.0
148
0.0
149
0.0
100
AcDbLayout
  1
Layout2
 70
     1
 71
     2
 10
0.0
 20
0.0
 11
0.0
 21
0.0
 12
0.0
 22
0.0
 32
0.0
 14
0.0
 24
0.0
 34
0.0
 15
0.0
 25
0.0
 35
0.0
146
0.0
 13
0.0
 23
0.0
 33
0.0
 16
1.0
 26
0.0
 36
0.0
 17
0.0
 27
1.0
 37
0.0
 76
     0
330
23
  0
LAYOUT
  5
22
102
{ACAD_REACTORS
330
1A
102
}
330
1A
100
AcDbPlotSettings
  1

  2
none_device
  4

  6

 40
0.0
 41
0.0
 42
0.0
 43
0.0
 44
0.0
 45
0.0
 46
0.0
 47
0.0
 48
0.0
 49
0.0
140
0.0
141
0.0
142
1.0
143
1.0
 70
  1712
 72
     0
 73
     0
 74
     0
  7

 75
     0
147
1.0
148
0.0
149
0.0
100
AcDbLayout
  1
Model
 70
     1
 71
     0
 10
0.0
 20
0.0
 11
297.0
 21
210.0
 12
0.0
 22
0.0
 32
0.0
 14
0.0
 24
0.0
 34
0.0
 15
297.0
 25
210.0
 35
0.0
146
0.0
 13
0.0
 23
0.0
 33
0.0
 16
1.0
 26
0.0
 36
0.0
 17
0.0
 27
1.0
 37
0.0
 76
     0
330
1F
331
29
  0
MLINESTYLE
  5
18
102
{ACAD_REACTORS
330
17
102
}
330
17
100
AcDbMlineStyle
  2
Standard
 70
     0
  3

 62
   256
 51
90.0
 52
90.0
 71
     2
 49
0.5
 62
   256
  6
BYLAYER
 49
-0.5
 62
   256
  6
BYLAYER
  0
ACDBPLACEHOLDER
  5
F
102
{ACAD_REACTORS
330
E
102
}
330
E
  0
VISUALSTYLE
  5
2F
102
{ACAD_REACTORS
330
2A
102
}
330
2A
100
AcDbVisualStyle
  2
2dWireframe
 70
     4
 71
     0
 72
     2
 73
     0
 90
        0
 40
-0.6
 41
-30.0
 62
     5
 63
     7
 74
     1
 91
        4
 64
     7
 65
   257
 75
     1
175
     1
 42
1.0
 92
        0
 66
   257
 43
1.0
 76
     1
 77
     6
 78
     2
 67
     7
 79
     5
170
     0
171
     0
290
     0
174
     0
 93
        1
 44
0.0
173
     0
291
     0
 45
0.0
1001
ACAD
1000
AcDbSavedByObjectVersion
1070
     0
  0
VISUALSTYLE
  5
31
102
{ACAD_REACTORS
330
2A
102
}
330
2A
100
AcDbVisualStyle
  2
3D Hidden
 70
     6
 71
     1
 72
     2
 73
     2
 90
        0
 40
-0.6
 41
-30.0
 62
     5
 63
     7
 74
     2
 91
        2
 64
     7
 65
   257
 75
     2
175
     1
 42
40.0
 92
        0
 66
   257
 43
1.0
 76
     1
 77
     6
 78
     2
 67
     7
 79
     3
170
     0
171
     0
290
     0
174
     0
 93
        1
 44
0.0
173
     0
291
     0
 45
0.0
1001
ACAD
1000
AcDbSavedByObjectVersion
1070
     0
  0
VISUALSTYLE
  5
30
102
{ACAD_REACTORS
330
2A
102
}
330
2A
100
AcDbVisualStyle
  2
3dWireframe
 70
     5
 71
     0
 72
     2
 73
     0
 90
        0
 40
-0.6
 41
-30.0
 62
     5
 63
     7
 74
     1
 91
        4
 64
     7
 65
   257
 75
     1
175
     1
 42
1.0
 92
        0
 66
   257
 43
1.0
 76
     1
 77
     6
 78
     2
 67
     7
 79
     5
170
     0
171
     0
290
     0
174
     0
 93
        1
 44
0.0
173
     0
291
     0
 45
0.0
1001
ACAD
1000
AcDbSavedByObjectVersion
1070
     0
  0
VISUALSTYLE
  5
32
102
{ACAD_REACTORS
330
2A
102
}
330
2A
100
AcDbVisualStyle
  2
Basic
 70
     7
 71
     1
 72
     0
 73
     1
 90
        0
 40
-0.6
 41
-30.0
 62
     5
 63
     7
 74
     0
 91
        4
 64
     7
 65
   257
 75
     1
175
     1
 42
1.0
 92
        8
 66
     7
 43
1.0
 76
     1
 77
     6
 78
     2
 67
     7
 79
     5
170
     0
171
     0
290
     0
174
     0
 93
        1
 44
0.0
173
     0
291
     1
 45
0.0
1001
ACAD
1000
AcDbSavedByObjectVersion
1070
     0
  0
VISUALSTYLE
  5
36
102
{ACAD_REACTORS
330
2A
102
}
330
2A
100
AcDbVisualStyle
  2
Brighten
 70
    12
 71
     2
 72
     2
 73
     0
 90
        0
 40
-0.6
 41
-30.0
 62
     5
 63
     7
 74
     1
 91
        4
 64
     7
 65
   257
 75
     1
175
     1
 42
1.0
 92
        8
 66
     7
 43
1.0
 76
     1
 77
     6
 78
     2
 67
     7
 79
     5
170
     0
171
     0
290
     0
174
     0
 93
        1
 44
50.0
173
     0
291
     1
 45
0.0
1001
ACAD
1000
AcDbSavedByObjectVersion
1070
     0
  0
VISUALSTYLE
  5
3A
102
{ACAD_REACTORS
330
2A
102
}
330
2A
100
AcDbVisualStyle
  2
ColorChange
 70
    16
 71
     2
 72
     2
 73
     3
 90
        0
 40
-0.6
 41
-30.0
 62
     5
 63
     8
 74
     1
 91
        4
 64
     7
 65
   257
 75
     1
175
     1
 42
1.0
 92
        8
 66
     8
 43
1.0
 76
     1
 77
     6
 78
     2
 67
     7
 79
     5
170
     0
171
     0
290
     0
174
     0
 93
        1
 44
0.0
173
     0
291
     1
 45
0.0
1001
ACAD
1000
AcDbSavedByObjectVersion
1070
     0
  0
VISUALSTYLE
  5
34
102
{ACAD_REACTORS
330
2A
102
}
330
2A
100
AcDbVisualStyle
  2
Conceptual
 70
     9
 71
     3
 72
     2
 73
     0
 90
        0
 40
-0.6
 41
-30.0
 62
     5
 63
     7
 74
     2
 91
        2
 64
     7
 65
   257
 75
     1
175
     1
 42
40.0
 92
        8
 66
     7
 43
1.0
 76
     1
 77
     6
 78
     2
 67
     7
 79
     3
170
     0
171
     0
290
     0
174
     0
 93
        1
 44
0.0
173
     0
291
     0
 45
0.0
1001
ACAD
1000
AcDbSavedByObjectVersion
1070
     0
  0
VISUALSTYLE
  5
35
102
{ACAD_REACTORS
330
2A
102
}
330
2A
100
AcDbVisualStyle
  2
Dim
 70
    11
 71
     2
 72
     2
 73
     0
 90
        0
 40
-0.6
 41
-30.0
 62
     5
 63
     7
 74
     1
 91
        4
 64
     7
 65
   257
 75
     1
175
     1
 42
1.0
 92
        8
 66
     7
 43
1.0
 76
     1
 77
     6
 78
     2
 67
     7
 79
     5
170
     0
171
     0
290
     0
174
     0
 93
        1
 44
-50.0
173
     0
291
     1
 45
0.0
1001
ACAD
1000
AcDbSavedByObjectVersion
1070
     0
  0
VISUALSTYLE
  5
39
102
{ACAD_REACTORS
330
2A
102
}
330
2A
100
AcDbVisualStyle
  2
Facepattern
 70
    15
 71
     2
 72
     2
 73
     0
 90
        0
 40
-0.6
 41
-30.0
 62
     5
 63
     7
 74
     1
 91
        4
 64
     7
 65
   257
 75
     1
175
     1
 42
1.0
 92
        8
 66
     7
 43
1.0
 76
     1
 77
     6
 78
     2
 67
     7
 79
     5
170
     0
171
     0
290
     0
174
     0
 93
        1
 44
0.0
173
     0
291
     1
 45
0.0
1001
ACAD
1000
AcDbSavedByObjectVersion
1070
     0
  0
VISUALSTYLE
  5
2B
102
{ACAD_REACTORS
330
2A
102
}
330
2A
100
AcDbVisualStyle
  2
Flat
 70
     0
 71
     2
 72
     1
 73
     1
 90
        2
 40
-0.6
 41
30.0
 62
     5
 63
     7
 74
     0
 91
        4
 64
     7
 65
   257
 75
     1
175
     1
 42
1.0
 92
        8
 66
     7
 43
1.0
 76
     1
 77
     6
 78
     2
 67
     7
 79
     5
170
     0
171
     0
290
     0
174
     0
 93
       13
 44
0.0
173
     0
291
     1
 45
0.0
1001
ACAD
1000
AcDbSavedByObjectVersion
1070
     0
  0
VISUALSTYLE
  5
2C
102
{ACAD_REACTORS
330
2A
102
}
330
2A
100
AcDbVisualStyle
  2
FlatWithEdges
 70
     1
 71
     2
 72
     1
 73
     1
 90
        2
 40
-0.6
 41
30.0
 62
     5
 63
     7
 74
     1
 91
        4
 64
     7
 65
   257
 75
     1
175
     1
 42
1.0
 92
        0
 66
   257
 43
1.0
 76
     1
 77
     6
 78
     2
 67
     7
 79
     5
170
     0
171
     0
290
     0
174
     0
 93
       13
 44
0.0
173
     0
291
     1
 45
0.0
1001
ACAD
1000
AcDbSavedByObjectVersion
1070
     0
  0
VISUALSTYLE
  5
2D
102
{ACAD_REACTORS
330
2A
102
}
330
2A
100
AcDbVisualStyle
  2
Gouraud
 70
     2
 71
     2
 72
     2
 73
     1
 90
        2
 40
-0.6
 41
30.0
 62
     5
 63
     7
 74
     0
 91
        4
 64
     7
 65
   257
 75
     1
175
     1
 42
1.0
 92
        0
 66
     7
 43
1.0
 76
     1
 77
     6
 78
     2
 67
     7
 79
     5
170
     0
171
     0
290
     0
174
     0
 93
       13
 44
0.0
173
     0
291
     1
 45
0.0
1001
ACAD
1000
AcDbSavedByObjectVersion
1070
     0
  0
VISUALSTYLE
  5
2E
102
{ACAD_REACTORS
330
2A
102
}
330
2A
100
AcDbVisualStyle
  2
GouraudWithEdges
 70
     3
 71
     2
 72
     2
 73
     1
 90
        2
 40
-0.6
 41
30.0
 62
     5
 63
     7
 74
     1
 91
        4
 64
     7
 65
   257
 75
     1
175
     1
 42
1.0
 92
        0
 66
   257
 43
1.0
 76
     1
 77
     6
 78
     2
 67
     7
 79
     5
170
     0
171
     0
290
     0
174
     0
 93
       13
 44
0.0
173
     0
291
     1
 45
0.0
1001
ACAD
1000
AcDbSavedByObjectVersion
1070
     0
  0
VISUALSTYLE
  5
38
102
{ACAD_REACTORS
330
2A
102
}
330
2A
100
AcDbVisualStyle
  2
Linepattern
 70
    14
 71
     2
 72
     2
 73
     0
 90
        0
 40
-0.6
 41
-30.0
 62
     5
 63
     7
 74
     1
 91
        4
 64
     7
 65
   257
 75
     7
175
     7
 42
1.0
 92
        8
 66
     7
 43
1.0
 76
     1
 77
     6
 78
     2
 67
     7
 79
     5
170
     0
171
     0
290
     0
174
     0
 93
        1
 44
0.0
173
     0
291
     1
 45
0.0
1001
ACAD
1000
AcDbSavedByObjectVersion
1070
     0
  0
VISUALSTYLE
  5
33
102
{ACAD_REACTORS
330
2A
102
}
330
2A
100
AcDbVisualStyle
  2
Realistic
 70
     8
 71
     2
 72
     2
 73
     0
 90
        0
 40
-0.6
 41
-30.0
 62
     5
 63
     7
 74
     1
 91
        0
 64
     7
 65
   257
 75
     1
175
     1
 42
1.0
 92
        8
 66
     8
 43
1.0
 76
     1
 77
     6
 78
     2
 67
     7
 79
     5
170
     0
171
     0
290
     0
174
     0
 93
       13
 44
0.0
173
     0
291
     0
 45
0.0
1001
ACAD
1000
AcDbSavedByObjectVersion
1070
     0
  0
VISUALSTYLE
  5
37
102
{ACAD_REACTORS
330
2A
102
}
330
2A
100
AcDbVisualStyle
  2
Thicken
 70
    13
 71
     2
 72
     2
 73
     0
 90
        0
 40
-0.6
 41
-30.0
 62
     5
 63
     7
 74
     1
 91
        4
 64
     7
 65
   257
 75
     1
175
     1
 42
1.0
 92
       12
 66
     7
 43
1.0
 76
     1
 77
     6
 78
     2
 67
     7
 79
     5
170
     0
171
     0
290
     0
174
     0
 93
        1
 44
0.0
173
     0
291
     1
 45
0.0
1001
ACAD
1000
AcDbSavedByObjectVersion
1070
     0
  0
DICTIONARYVAR
  5
1F4
102
{ACAD_REACTORS
330
1F2
102
}
330
1F2
100
DictionaryVariables
280
     0
  1
80.000000
  0
DICTIONARYVAR
  5
1F3
102
{ACAD_REACTORS
330
1F2
102
}
330
1F2
100
DictionaryVariables
280
     0
  1
5.000000
  0
ENDSEC
  0
EOF
