  0
SECTION
  2
HEADER
  9
$ACADVER
  1
AC1015
  9
$ACADMAINTVER
 70
     6
  9
$DWGCODEPAGE
  3
ANSI_1252
  9
$INSBASE
 10
0.0
 20
0.0
 30
0.0
  9
$EXTMIN
 10
0.0
 20
0.0
 30
0.0
  9
$EXTMAX
 10
297.0
 20
210.0
 30
0.0
  9
$LIMMIN
 10
0.0
 20
0.0
  9
$LIMMAX
 10
297.0
 20
210.0
  9
$ORTHOMODE
 70
     0
  9
$REGENMODE
 70
     1
  9
$FILLMODE
 70
     1
  9
$QTEXTMODE
 70
     0
  9
$MIRRTEXT
 70
     1
  9
$LTSCALE
 40
1.0
  9
$ATTMODE
 70
     1
  9
$TEXTSIZE
 40
2.0
  9
$TRACEWID
 40
1.0
  9
$TEXTSTYLE
  7
Standard
  9
$CLAYER
  8
0
  9
$CELTYPE
  6
ByLayer
  9
$CECOLOR
 62
   256
  9
$CELTSCALE
 40
1.0
  9
$DISPSILH
 70
     0
  9
$DIMSCALE
 40
1.0
  9
$DIMASZ
 40
3.0
  9
$DIMEXO
 40
0.0
  9
$DIMDLI
 40
3.75
  9
$DIMRND
 40
0.0
  9
$DIMDLE
 40
0.0
  9
$DIMEXE
 40
1.0
  9
$DIMTP
 40
0.0
  9
$DIMTM
 40
0.0
  9
$DIMTXT
 40
2.0
  9
$DIMCEN
 40
2.5
  9
$DIMTSZ
 40
0.0
  9
$DIMTOL
 70
     0
  9
$DIMLIM
 70
     0
  9
$DIMTIH
 70
     1
  9
$DIMTOH
 70
     1
  9
$DIMSE1
 70
     0
  9
$DIMSE2
 70
     0
  9
$DIMTAD
 70
     1
  9
$DIMZIN
 70
     0
  9
$DIMBLK
  1

  9
$DIMASO
 70
     1
  9
$DIMSHO
 70
     1
  9
$DIMPOST
  1

  9
$DIMAPOST
  1

  9
$DIMALT
 70
     0
  9
$DIMALTD
 70
     3
  9
$DIMALTF
 40
0.0393700787
  9
$DIMLFAC
 40
1.0
  9
$DIMTOFL
 70
     1
  9
$DIMTVP
 40
0.0
  9
$DIMTIX
 70
     0
  9
$DIMSOXD
 70
     0
  9
$DIMSAH
 70
     0
  9
$DIMBLK1
  1

  9
$DIMBLK2
  1

  9
$DIMSTYLE
  2
ISO-25
  9
$DIMCLRD
 70
     0
  9
$DIMCLRE
 70
     0
  9
$DIMCLRT
 70
     0
  9
$DIMTFAC
 40
1.0
  9
$DIMGAP
 40
1.524
  9
$DIMJUST
 70
     0
  9
$DIMSD1
 70
     0
  9
$DIMSD2
 70
     0
  9
$DIMTOLJ
 70
     0
  9
$DIMTZIN
 70
     0
  9
$DIMALTZ
 70
     0
  9
$DIMALTTZ
 70
     0
  9
$DIMUPT
 70
     0
  9
$DIMDEC
 70
     2
  9
$DIMTDEC
 70
     3
  9
$DIMALTU
 70
     2
  9
$DIMALTTD
 70
     3
  9
$DIMTXSTY
  7
Standard
  9
$DIMAUNIT
 70
     0
  9
$DIMADEC
 70
     2
  9
$DIMALTRND
 40
0.0
  9
$DIMAZIN
 70
     0
  9
$DIMDSEP
 70
    44
  9
$DIMATFIT
 70
     3
  9
$DIMFRAC
 70
     0
  9
$DIMLDRBLK
  1

  9
$DIMLUNIT
 70
     2
  9
$DIMLWD
 70
    -2
  9
$DIMLWE
 70
    -2
  9
$DIMTMOVE
 70
     0
  9
$LUNITS
 70
     2
  9
$LUPREC
 70
     2
  9
$SKETCHINC
 40
1.0
  9
$FILLETRAD
 40
10.0
  9
$AUNITS
 70
     0
  9
$AUPREC
 70
     2
  9
$MENU
  1
.
  9
$ELEVATION
 40
0.0
  9
$PELEVATION
 40
0.0
  9
$THICKNESS
 40
0.0
  9
$LIMCHECK
 70
     0
  9
$CHAMFERA
 40
10.0
  9
$CHAMFERB
 40
10.0
  9
$CHAMFERC
 40
20.0
  9
$CHAMFERD
 40
0.0
  9
$SKPOLY
 70
     0
  9
$TDCREATE
 40
2455673.476306111
  9
$TDUCREATE
 40
2455673.392972778
  9
$TDUPDATE
 40
2455673.476306123
  9
$TDUUPDATE
 40
2455673.392972789
  9
$TDINDWG
 40
0.0000000116
  9
$TDUSRTIMER
 40
0.0000000116
  9
$USRTIMER
 70
     1
  9
$ANGBASE
 50
0.0
  9
$ANGDIR
 70
     0
  9
$PDMODE
 70
     0
  9
$PDSIZE
 40
-1.0
  9
$PLINEWID
 40
0.0
  9
$SPLFRAME
 70
     0
  9
$SPLINETYPE
 70
     6
  9
$SPLINESEGS
 70
     8
  9
$HANDSEED
  5
1F5
  9
$SURFTAB1
 70
     6
  9
$SURFTAB2
 70
     6
  9
$SURFTYPE
 70
     6
  9
$SURFU
 70
     6
  9
$SURFV
 70
     6
  9
$UCSBASE
  2

  9
$UCSNAME
  2

  9
$UCSORG
 10
0.0
 20
0.0
 30
0.0
  9
$UCSXDIR
 10
1.0
 20
0.0
 30
0.0
  9
$UCSYDIR
 10
0.0
 20
1.0
 30
0.0
  9
$UCSORTHOREF
  2

  9
$UCSORTHOVIEW
 70
     0
  9
$UCSORGTOP
 10
0.0
 20
0.0
 30
0.0
  9
$UCSORGBOTTOM
 10
0.0
 20
0.0
 30
0.0
  9
$UCSORGLEFT
 10
0.0
 20
0.0
 30
0.0
  9
$UCSORGRIGHT
 10
0.0
 20
0.0
 30
0.0
  9
$UCSORGFRONT
 10
0.0
 20
0.0
 30
0.0
  9
$UCSORGBACK
 10
0.0
 20
0.0
 30
0.0
  9
$PUCSBASE
  2

  9
$PUCSNAME
  2

  9
$PUCSORG
 10
0.0
 20
0.0
 30
0.0
  9
$PUCSXDIR
 10
1.0
 20
0.0
 30
0.0
  9
$PUCSYDIR
 10
0.0
 20
1.0
 30
0.0
  9
$PUCSORTHOREF
  2

  9
$PUCSORTHOVIEW
 70
     0
  9
$PUCSORGTOP
 10
0.0
 20
0.0
 30
0.0
  9
$PUCSORGBOTTOM
 10
0.0
 20
0.0
 30
0.0
  9
$PUCSORGLEFT
 10
0.0
 20
0.0
 30
0.0
  9
$PUCSORGRIGHT
 10
0.0
 20
0.0
 30
0.0
  9
$PUCSORGFRONT
 10
0.0
 20
0.0
 30
0.0
  9
$PUCSORGBACK
 10
0.0
 20
0.0
 30
0.0
  9
$USERI1
 70
     0
  9
$USERI2
 70
     0
  9
$USERI3
 70
     0
  9
$USERI4
 70
     0
  9
$USERI5
 70
     0
  9
$USERR1
 40
0.0
  9
$USERR2
 40
0.0
  9
$USERR3
 40
0.0
  9
$USERR4
 40
0.0
  9
$USERR5
 40
0.0
  9
$WORLDVIEW
 70
     1
  9
$SHADEDGE
 70
     3
  9
$SHADEDIF
 70
    70
  9
$TILEMODE
 70
     1
  9
$MAXACTVP
 70
    64
  9
$PINSBASE
 10
0.0
 20
0.0
 30
0.0
  9
$PLIMCHECK
 70
     0
  9
$PEXTMIN
 10
1.0000000000E+20
 20
1.0000000000E+20
 30
1.0000000000E+20
  9
$PEXTMAX
 10
-1.0000000000E+20
 20
-1.0000000000E+20
 30
-1.0000000000E+20
  9
$PLIMMIN
 10
0.0
 20
0.0
  9
$PLIMMAX
 10
420.0
 20
297.0
  9
$UNITMODE
 70
     0
  9
$VISRETAIN
 70
     1
  9
$PLINEGEN
 70
     0
  9
$PSLTSCALE
 70
     1
  9
$TREEDEPTH
 70
  3020
  9
$CMLSTYLE
  2
Standard
  9
$CMLJUST
 70
     0
  9
$CMLSCALE
 40
20.0
  9
$PROXYGRAPHICS
 70
     1
  9
$MEASUREMENT
 70
     1
  9
$CELWEIGHT
370
    -1
  9
$ENDCAPS
280
     0
  9
$JOINSTYLE
280
     0
  9
$LWDISPLAY
290
     1
  9
$INSUNITS
 70
     4
  9
$HYPERLINKBASE
  1

  9
$STYLESHEET
  1

  9
$XEDIT
290
     1
  9
$CEPSNTYPE
380
     0
  9
$PSTYLEMODE
290
     1
  9
$FINGERPRINTGUID
  2
{1320B420-CAEA-48C2-A944-9A6D59407FF1}
  9
$VERSIONGUID
  2
{FAEB1C32-E019-11D5-929B-00C0DF256EC4}
  9
$EXTNAMES
290
     1
  9
$PSVPSCALE
 40
0.0
  9
$OLESTARTUP
290
     0
  0
ENDSEC
  0
SECTION
  2
CLASSES
  0
CLASS
  1
ACDBDICTIONARYWDFLT
  2
AcDbDictionaryWithDefault
  3
ObjectDBX Classes
 90
        0
280
     0
281
     0
  0
CLASS
  1
VISUALSTYLE
  2
AcDbVisualStyle
  3
ObjectDBX Classes
 90
     4095
280
     0
281
     0
  0
CLASS
  1
DICTIONARYVAR
  2
AcDbDictionaryVar
  3
ObjectDBX Classes
 90
        0
280
     0
281
     0
  0
CLASS
  1
ACDBPLACEHOLDER
  2
AcDbPlaceHolder
  3
ObjectDBX Classes
 90
        0
280
     0
281
     0
  0
CLASS
  1
LAYOUT
  2
AcDbLayout
  3
ObjectDBX Classes
 90
        0
280
     0
281
     0
  0
ENDSEC
  0
SECTION
  2
TABLES
  0
TABLE
  2
VPORT
  5
8
330
0
100
AcDbSymbolTable
 70
     1
  0
VPORT
  5
29
330
8
100
AcDbSymbolTableRecord
100
AcDbViewportTableRecord
  2
*Active
 70
     0
 10
0.0
 20
0.0
 11
1.0
 21
1.0
 12
148.5
 22
105.0
 13
0.0
 23
0.0
 14
10.0
 24
10.0
 15
10.0
 25
10.0
 16
0.0
 26
0.0
 36
1.0
 17
0.0
 27
0.0
 37
0.0
 40
210.0
 41
1.4142857143
 42
50.0
 43
0.0
 44
0.0
 50
0.0
 51
0.0
 71
     0
 72
  2000
 73
     1
 74
     3
 75
     0
 76
     0
 77
     0
 78
     0
281
     0
 65
     1
110
0.0
120
0.0
130
0.0
111
1.0
121
0.0
131
0.0
112
0.0
122
1.0
132
0.0
 79
     0
146
0.0
  0
ENDTAB
  0
TABLE
  2
LTYPE
  5
5
330
0
100
AcDbSymbolTable
 70
     6
  0
LTYPE
  5
14
330
5
100
AcDbSymbolTableRecord
100
AcDbLinetypeTableRecord
  2
ByBlock
 70
     0
  3

 72
    65
 73
     0
 40
0.0
  0
LTYPE
  5
15
330
5
100
AcDbSymbolTableRecord
100
AcDbLinetypeTableRecord
  2
ByLayer
 70
     0
  3

 72
    65
 73
     0
 40
0.0
  0
LTYPE
  5
16
330
5
100
AcDbSymbolTableRecord
100
AcDbLinetypeTableRecord
  2
Continuous
 70
     0
  3
Solid line
 72
    65
 73
     0
 40
0.0
  0
LTYPE
  5
3B
330
5
100
AcDbSymbolTableRecord
100
AcDbLinetypeTableRecord
  2
HIDDEN
 70
     0
  3
Hidden __ __ __ __ __ __ __ __ __ __ __ __ __ __
 72
    65
 73
     2
 40
1.905
 49
1.27
 74
     0
 49
-0.635
 74
     0
  0
LTYPE
  5
3C
330
5
100
AcDbSymbolTableRecord
100
AcDbLinetypeTableRecord
  2
PHANTOM
 70
     0
  3
Phantom ______  __  __  ______  __  __  ______
 72
    65
 73
     6
 40
12.7
 49
6.35
 74
     0
 49
-1.27
 74
     0
 49
1.27
 74
     0
 49
-1.27
 74
     0
 49
1.27
 74
     0
 49
-1.27
 74
     0
  0
LTYPE
  5
3D
330
5
100
AcDbSymbolTableRecord
100
AcDbLinetypeTableRecord
  2
CENTER
 70
     0
  3
Center ____ _ ____ _ ____ _ ____ _ ____ _ ____
 72
    65
 73
     4
 40
10.16
 49
6.35
 74
     0
 49
-1.27
 74
     0
 49
1.27
 74
     0
 49
-1.27
 74
     0
  0
LTYPE
  5
3E
330
5
100
AcDbSymbolTableRecord
100
AcDbLinetypeTableRecord
  2
CENTERX2
 70
     0
  3
Center (2x) ________  __  ________  __  _____
 72
    65
 73
     4
 40
20.32
 49
12.7
 74
     0
 49
-2.54
 74
     0
 49
2.54
 74
     0
 49
-2.54
 74
     0
  0
LTYPE
  5
3F
330
5
100
AcDbSymbolTableRecord
100
AcDbLinetypeTableRecord
  2
DOT2
 70
     0
  3
Dot (.5x) ........................................
 72
    65
 73
     2
 40
0.635
 49
0.0
 74
     0
 49
-0.635
 74
     0
  0
ENDTAB
  0
TABLE
  2
LAYER
  5
2
330
0
100
AcDbSymbolTable
 70
     5
  0
LAYER
  5
10
330
2
100
AcDbSymbolTableRecord
100
AcDbLayerTableRecord
  2
0
 70
     0
 62
     7
  6
Continuous
370
    -3
390
F
  0
LAYER
  5
40
330
2
100
AcDbSymbolTableRecord
100
AcDbLayerTableRecord
  2
FORMAT
 70
     0
 62
     7
  6
Continuous
370
    -3
390
F
  0
LAYER
  5
41
330
2
100
AcDbSymbolTableRecord
100
AcDbLayerTableRecord
  2
VERMASSUNG
 70
     0
 62
     7
  6
Continuous
370
    -3
390
F
  0
LAYER
  5
42
330
2
100
AcDbSymbolTableRecord
100
AcDbLayerTableRecord
  2
KOPF_DÜNN
 70
     0
 62
     7
  6
Continuous
370
    -3
390
F
  0
LAYER
  5
43
330
2
100
AcDbSymbolTableRecord
100
AcDbLayerTableRecord
  2
KOPF_DICK
 70
     0
 62
     7
  6
Continuous
370
    15
390
F
  0
ENDTAB
  0
TABLE
  2
STYLE
  5
3
330
0
100
AcDbSymbolTable
 70
     3
  0
STYLE
  5
11
330
3
100
AcDbSymbolTableRecord
100
AcDbTextStyleTableRecord
  2
Standard
 70
     0
 40
0.0
 41
1.0
 50
0.0
 71
     0
 42
2.5
  3
txt
  4

  0
STYLE
  5
44
330
3
100
AcDbSymbolTableRecord
100
AcDbTextStyleTableRecord
  2
SLDTEXTSTYLE0
 70
     0
 40
0.0
 41
0.7
 50
0.0
 71
     0
 42
0.2
  3
TXT
  4

  0
STYLE
  5
48
330
3
100
AcDbSymbolTableRecord
100
AcDbTextStyleTableRecord
  2
SLDTEXTSTYLE1
 70
     0
 40
0.0
 41
0.65
 50
0.0
 71
     0
 42
0.2
  3
TXT
  4

  0
ENDTAB
  0
TABLE
  2
VIEW
  5
6
330
0
100
AcDbSymbolTable
 70
     0
  0
ENDTAB
  0
TABLE
  2
UCS
  5
7
330
0
100
AcDbSymbolTable
 70
     0
  0
ENDTAB
  0
TABLE
  2
APPID
  5
9
330
0
100
AcDbSymbolTable
 70
     1
  0
APPID
  5
12
330
9
100
AcDbSymbolTableRecord
100
AcDbRegAppTableRecord
  2
ACAD
 70
     0
  0
ENDTAB
  0
TABLE
  2
DIMSTYLE
  5
A
330
0
100
AcDbSymbolTable
 70
     2
100
AcDbDimStyleTable
  0
DIMSTYLE
105
27
330
A
100
AcDbSymbolTableRecord
100
AcDbDimStyleTableRecord
  2
ISO-25
 70
     0
 41
2.5
 42
0.625
 43
3.75
 44
1.25
 73
     0
 74
     0
 77
     1
 78
     8
140
2.5
141
2.5
143
0.0393700787
147
0.625
171
     3
172
     1
271
     2
272
     2
274
     3
278
    44
283
     0
284
     8
340
11
  0
DIMSTYLE
105
1AE
102
{ACAD_REACTORS
330
1AD
330
1BA
330
1C4
330
1CE
330
1D8
330
1E3
102
}
330
A
100
AcDbSymbolTableRecord
100
AcDbDimStyleTableRecord
  2
SLDDIMSTYLE0
 70
     0
 41
3.0
 44
0.0
 45
0.000000001
 73
     0
 74
     0
 77
     1
 78
    12
140
2.0
147
0.5
173
     1
271
     2
272
     3
284
    12
340
44
  0
ENDTAB
  0
TABLE
  2
BLOCK_RECORD
  5
1
330
0
100
AcDbSymbolTable
 70
     7
  0
BLOCK_RECORD
  5
1F
330
1
100
AcDbSymbolTableRecord
100
AcDbBlockTableRecord
  2
*Model_Space
340
22
  0
BLOCK_RECORD
  5
1B
330
1
100
AcDbSymbolTableRecord
100
AcDbBlockTableRecord
  2
*Paper_Space
340
1E
  0
BLOCK_RECORD
  5
23
330
1
100
AcDbSymbolTableRecord
100
AcDbBlockTableRecord
  2
*Paper_Space0
340
26
  0
BLOCK_RECORD
  5
1AF
330
1
100
AcDbSymbolTableRecord
100
AcDbBlockTableRecord
  2
*D1
340
0
  0
BLOCK_RECORD
  5
1BB
330
1
100
AcDbSymbolTableRecord
100
AcDbBlockTableRecord
  2
*D2
340
0
  0
BLOCK_RECORD
  5
1C5
330
1
100
AcDbSymbolTableRecord
100
AcDbBlockTableRecord
  2
*D3
340
0
  0
BLOCK_RECORD
  5
1CF
330
1
100
AcDbSymbolTableRecord
100
AcDbBlockTableRecord
  2
*D4
340
0
  0
BLOCK_RECORD
  5
1D9
330
1
100
AcDbSymbolTableRecord
100
AcDbBlockTableRecord
  2
*D5
340
0
  0
BLOCK_RECORD
  5
1E4
330
1
100
AcDbSymbolTableRecord
100
AcDbBlockTableRecord
  2
*D6
340
0
  0
ENDTAB
  0
ENDSEC
  0
SECTION
  2
BLOCKS
  0
BLOCK
  5
20
330
1F
100
AcDbEntity
  8
0
100
AcDbBlockBegin
  2
*Model_Space
 70
     0
 10
0.0
 20
0.0
 30
0.0
  3
*Model_Space
  1

  0
ENDBLK
  5
21
330
1F
100
AcDbEntity
  8
0
100
AcDbBlockEnd
  0
BLOCK
  5
1C
330
1B
100
AcDbEntity
 67
     1
  8
0
100
AcDbBlockBegin
  2
*Paper_Space
 70
     0
 10
0.0
 20
0.0
 30
0.0
  3
*Paper_Space
  1

  0
ENDBLK
  5
1D
330
1B
100
AcDbEntity
 67
     1
  8
0
100
AcDbBlockEnd
  0
BLOCK
  5
24
330
23
100
AcDbEntity
  8
0
100
AcDbBlockBegin
  2
*Paper_Space0
 70
     0
 10
0.0
 20
0.0
 30
0.0
  3
*Paper_Space0
  1

  0
ENDBLK
  5
25
330
23
100
AcDbEntity
  8
0
100
AcDbBlockEnd
  0
BLOCK
  5
1B0
330
1AF
100
AcDbEntity
  8
0
100
AcDbBlockBegin
  2
*D1
 70
     1
 10
0.0
 20
0.0
 30
0.0
  3
*D1
  1

  0
SOLID
  5
1B2
330
1AF
100
AcDbEntity
  8
VERMASSUNG
100
AcDbTrace
 10
79.9548078789
 20
160.6875797463
 30
0.0
 11
79.5048078789
 21
157.6875797463
 31
0.0
 12
80.4048078789
 22
157.6875797463
 32
0.0
 13
80.4048078789
 23
157.6875797463
 33
0.0
  0
SOLID
  5
1B3
330
1AF
100
AcDbEntity
  8
VERMASSUNG
100
AcDbTrace
 10
79.9548078789
 20
60.6875797463
 30
0.0
 11
80.4048078789
 21
63.6875797463
 31
0.0
 12
79.5048078789
 22
63.6875797463
 32
0.0
 13
79.5048078789
 23
63.6875797463
 33
0.0
  0
LINE
  5
1B4
330
1AF
100
AcDbEntity
  8
VERMASSUNG
100
AcDbLine
 10
134.9526017478
 20
160.6875797463
 30
0.0
 11
78.9548078789
 21
160.6875797463
 31
0.0
  0
LINE
  5
1B5
330
1AF
100
AcDbEntity
  8
VERMASSUNG
100
AcDbLine
 10
134.9526017478
 20
60.6875797463
 30
0.0
 11
78.9548078789
 21
60.6875797463
 31
0.0
  0
LINE
  5
1B6
330
1AF
100
AcDbEntity
  8
VERMASSUNG
100
AcDbLine
 10
79.9548078789
 20
160.6875797463
 30
0.0
 11
79.9548078789
 21
60.6875797463
 31
0.0
  0
MTEXT
  5
1B7
330
1AF
100
AcDbEntity
  8
VERMASSUNG
100
AcDbMText
 10
77.1766723899
 20
101.3235819131
 30
0.0
 40
2.0
 41
0.0
 71
     1
 72
     1
  1
HSK A 
  7
SLDTEXTSTYLE0
 11
-7.044195017643634E-15
 21
1.0
 31
0.0
 73
     1
 44
1.0
  0
MTEXT
  5
1B8
330
1AF
100
AcDbEntity
  8
VERMASSUNG
100
AcDbMText
 10
77.3766723994
 20
110.323582457
 30
0.0
 40
2.0
 41
0.0
 71
     1
 72
     1
  1
%%c
  7
SLDTEXTSTYLE0
 11
-7.044195017643634E-15
 21
1.0
 31
0.0
 73
     1
 44
1.0
  0
MTEXT
  5
1B9
330
1AF
100
AcDbEntity
  8
VERMASSUNG
100
AcDbMText
 10
77.3766725158
 20
113.9319091071
 30
0.0
 40
2.0
 41
0.0
 71
     1
 72
     1
  1
100
  7
SLDTEXTSTYLE0
 11
-7.044195017643634E-15
 21
1.0
 31
0.0
 73
     1
 44
1.0
  0
ENDBLK
  5
1B1
330
1AF
100
AcDbEntity
  8
0
100
AcDbBlockEnd
  0
BLOCK
  5
1BC
330
1BB
100
AcDbEntity
  8
0
100
AcDbBlockBegin
  2
*D2
 70
     1
 10
0.0
 20
0.0
 30
0.0
  3
*D2
  1

  0
SOLID
  5
1BE
330
1BB
100
AcDbEntity
  8
VERMASSUNG
100
AcDbTrace
 10
163.4026017478
 20
163.8295774648
 30
0.0
 11
166.4026017478
 21
163.3795774648
 31
0.0
 12
166.4026017478
 22
164.2795774648
 32
0.0
 13
166.4026017478
 23
164.2795774648
 33
0.0
  0
SOLID
  5
1BF
330
1BB
100
AcDbEntity
  8
VERMASSUNG
100
AcDbTrace
 10
214.4526017478
 20
163.8295774648
 30
0.0
 11
211.4526017478
 21
164.2795774648
 31
0.0
 12
211.4526017478
 22
163.3795774648
 32
0.0
 13
211.4526017478
 23
163.3795774648
 33
0.0
  0
LINE
  5
1C0
330
1BB
100
AcDbEntity
  8
VERMASSUNG
100
AcDbLine
 10
163.4026017478
 20
148.3462772809
 30
0.0
 11
163.4026017478
 21
164.8295774648
 31
0.0
  0
LINE
  5
1C1
330
1BB
100
AcDbEntity
  8
VERMASSUNG
100
AcDbLine
 10
214.4526017478
 20
124.4134392247
 30
0.0
 11
214.4526017478
 21
164.8295774648
 31
0.0
  0
LINE
  5
1C2
330
1BB
100
AcDbEntity
  8
VERMASSUNG
100
AcDbLine
 10
163.4026017478
 20
163.8295774648
 30
0.0
 11
214.4526017478
 21
163.8295774648
 31
0.0
  0
MTEXT
  5
1C3
330
1BB
100
AcDbEntity
  8
VERMASSUNG
100
AcDbMText
 10
186.0278953556
 20
166.4077128279
 30
0.0
 40
2.0
 41
0.0
 71
     1
 72
     1
  1
51.05
  7
SLDTEXTSTYLE0
 73
     1
 44
1.0
  0
ENDBLK
  5
1BD
330
1BB
100
AcDbEntity
  8
0
100
AcDbBlockEnd
  0
BLOCK
  5
1C6
330
1C5
100
AcDbEntity
  8
0
100
AcDbBlockBegin
  2
*D3
 70
     1
 10
0.0
 20
0.0
 30
0.0
  3
*D3
  1

  0
SOLID
  5
1C8
330
1C5
100
AcDbEntity
  8
VERMASSUNG
100
AcDbTrace
 10
134.4526017478
 20
169.8295774648
 30
0.0
 11
137.4526017478
 21
169.3795774648
 31
0.0
 12
137.4526017478
 22
170.2795774648
 32
0.0
 13
137.4526017478
 23
170.2795774648
 33
0.0
  0
SOLID
  5
1C9
330
1C5
100
AcDbEntity
  8
VERMASSUNG
100
AcDbTrace
 10
214.4526017478
 20
169.8295774648
 30
0.0
 11
211.4526017478
 21
170.2795774648
 31
0.0
 12
211.4526017478
 22
169.3795774648
 32
0.0
 13
211.4526017478
 23
169.3795774648
 33
0.0
  0
LINE
  5
1CA
330
1C5
100
AcDbEntity
  8
VERMASSUNG
100
AcDbLine
 10
134.4526017478
 20
160.1875797463
 30
0.0
 11
134.4526017478
 21
170.8295774648
 31
0.0
  0
LINE
  5
1CB
330
1C5
100
AcDbEntity
  8
VERMASSUNG
100
AcDbLine
 10
214.4526017478
 20
124.4134392247
 30
0.0
 11
214.4526017478
 21
170.8295774648
 31
0.0
  0
LINE
  5
1CC
330
1C5
100
AcDbEntity
  8
VERMASSUNG
100
AcDbLine
 10
134.4526017478
 20
169.8295774648
 30
0.0
 11
214.4526017478
 21
169.8295774648
 31
0.0
  0
MTEXT
  5
1CD
330
1C5
100
AcDbEntity
  8
VERMASSUNG
100
AcDbMText
 10
173.053223633
 20
172.4077128279
 30
0.0
 40
2.0
 41
0.0
 71
     1
 72
     1
  1
80
  7
SLDTEXTSTYLE0
 73
     1
 44
1.0
  0
ENDBLK
  5
1C7
330
1C5
100
AcDbEntity
  8
0
100
AcDbBlockEnd
  0
BLOCK
  5
1D0
330
1CF
100
AcDbEntity
  8
0
100
AcDbBlockBegin
  2
*D4
 70
     1
 10
0.0
 20
0.0
 30
0.0
  3
*D4
  1

  0
SOLID
  5
1D2
330
1CF
100
AcDbEntity
  8
VERMASSUNG
100
AcDbTrace
 10
214.4526017478
 20
175.8295774648
 30
0.0
 11
211.4526017478
 21
176.2795774648
 31
0.0
 12
211.4526017478
 22
175.3795774648
 32
0.0
 13
211.4526017478
 23
175.3795774648
 33
0.0
  0
SOLID
  5
1D3
330
1CF
100
AcDbEntity
  8
VERMASSUNG
100
AcDbTrace
 10
84.5526017478
 20
175.8295774648
 30
0.0
 11
87.5526017478
 21
175.3795774648
 31
0.0
 12
87.5526017478
 22
176.2795774648
 32
0.0
 13
87.5526017478
 23
176.2795774648
 33
0.0
  0
LINE
  5
1D4
330
1CF
100
AcDbEntity
  8
VERMASSUNG
100
AcDbLine
 10
214.4526017478
 20
124.4134392247
 30
0.0
 11
214.4526017478
 21
176.8295774648
 31
0.0
  0
LINE
  5
1D5
330
1CF
100
AcDbEntity
  8
VERMASSUNG
100
AcDbLine
 10
84.5526017478
 20
141.1902494889
 30
0.0
 11
84.5526017478
 21
176.8295774648
 31
0.0
  0
LINE
  5
1D6
330
1CF
100
AcDbEntity
  8
VERMASSUNG
100
AcDbLine
 10
214.4526017478
 20
175.8295774648
 30
0.0
 11
84.5526017478
 21
175.8295774648
 31
0.0
  0
MTEXT
  5
1D7
330
1CF
100
AcDbEntity
  8
VERMASSUNG
100
AcDbMText
 10
146.6028953556
 20
178.4077128279
 30
0.0
 40
2.0
 41
0.0
 71
     1
 72
     1
  1
129.9
  7
SLDTEXTSTYLE0
 73
     1
 44
1.0
  0
ENDBLK
  5
1D1
330
1CF
100
AcDbEntity
  8
0
100
AcDbBlockEnd
  0
BLOCK
  5
1DA
330
1D9
100
AcDbEntity
  8
0
100
AcDbBlockBegin
  2
*D5
 70
     1
 10
0.0
 20
0.0
 30
0.0
  3
*D5
  1

  0
SOLID
  5
1DC
330
1D9
100
AcDbEntity
  8
VERMASSUNG
100
AcDbTrace
 10
221.9739641122
 20
116.6875797463
 30
0.0
 11
221.5239641122
 21
113.6875797463
 31
0.0
 12
222.4239641122
 22
113.6875797463
 32
0.0
 13
222.4239641122
 23
113.6875797463
 33
0.0
  0
SOLID
  5
1DD
330
1D9
100
AcDbEntity
  8
VERMASSUNG
100
AcDbTrace
 10
221.9739641122
 20
104.6875797463
 30
0.0
 11
222.4239641122
 21
107.6875797463
 31
0.0
 12
221.5239641122
 22
107.6875797463
 32
0.0
 13
221.5239641122
 23
107.6875797463
 33
0.0
  0
LINE
  5
1DE
330
1D9
100
AcDbEntity
  8
VERMASSUNG
100
AcDbLine
 10
214.1526017478
 20
116.6875797463
 30
0.0
 11
222.9739641122
 21
116.6875797463
 31
0.0
  0
LINE
  5
1DF
330
1D9
100
AcDbEntity
  8
VERMASSUNG
100
AcDbLine
 10
214.1526017478
 20
104.6875797463
 30
0.0
 11
222.9739641122
 21
104.6875797463
 31
0.0
  0
LINE
  5
1E0
330
1D9
100
AcDbEntity
  8
VERMASSUNG
100
AcDbLine
 10
221.9739641122
 20
116.6875797463
 30
0.0
 11
221.9739641122
 21
104.6875797463
 31
0.0
  0
MTEXT
  5
1E1
330
1D9
100
AcDbEntity
  8
VERMASSUNG
100
AcDbMText
 10
219.3958286326
 20
107.6834421515
 30
0.0
 40
2.0
 41
0.0
 71
     1
 72
     1
  1
%%c
  7
SLDTEXTSTYLE0
 11
-7.044195017643634E-15
 21
1.0
 31
0.0
 73
     1
 44
1.0
  0
MTEXT
  5
1E2
330
1D9
100
AcDbEntity
  8
VERMASSUNG
100
AcDbMText
 10
219.395828749
 20
111.2921203747
 30
0.0
 40
2.0
 41
0.0
 71
     1
 72
     1
  1
12
  7
SLDTEXTSTYLE0
 11
-7.044195017643634E-15
 21
1.0
 31
0.0
 73
     1
 44
1.0
  0
ENDBLK
  5
1DB
330
1D9
100
AcDbEntity
  8
0
100
AcDbBlockEnd
  0
BLOCK
  5
1E5
330
1E4
100
AcDbEntity
  8
0
100
AcDbBlockBegin
  2
*D6
 70
     1
 10
0.0
 20
0.0
 30
0.0
  3
*D6
  1

  0
SOLID
  5
1E7
330
1E4
100
AcDbEntity
  8
VERMASSUNG
100
AcDbTrace
 10
227.9739641122
 20
131.6875797463
 30
0.0
 11
227.5239641122
 21
128.6875797463
 31
0.0
 12
228.4239641122
 22
128.6875797463
 32
0.0
 13
228.4239641122
 23
128.6875797463
 33
0.0
  0
SOLID
  5
1E8
330
1E4
100
AcDbEntity
  8
VERMASSUNG
100
AcDbTrace
 10
227.9739641122
 20
89.6875797463
 30
0.0
 11
228.4239641122
 21
92.6875797463
 31
0.0
 12
227.5239641122
 22
92.6875797463
 32
0.0
 13
227.5239641122
 23
92.6875797463
 33
0.0
  0
LINE
  5
1E9
330
1E4
100
AcDbEntity
  8
VERMASSUNG
100
AcDbLine
 10
201.5855602247
 20
131.6875797463
 30
0.0
 11
228.9739641122
 21
131.6875797463
 31
0.0
  0
LINE
  5
1EA
330
1E4
100
AcDbEntity
  8
VERMASSUNG
100
AcDbLine
 10
201.5855602247
 20
89.6875797463
 30
0.0
 11
228.9739641122
 21
89.6875797463
 31
0.0
  0
LINE
  5
1EB
330
1E4
100
AcDbEntity
  8
VERMASSUNG
100
AcDbLine
 10
227.9739641122
 20
131.6875797463
 30
0.0
 11
227.9739641122
 21
89.6875797463
 31
0.0
  0
MTEXT
  5
1EC
330
1E4
100
AcDbEntity
  8
VERMASSUNG
100
AcDbMText
 10
225.3958286326
 20
107.384072704
 30
0.0
 40
2.0
 41
0.0
 71
     1
 72
     1
  1
%%c
  7
SLDTEXTSTYLE0
 11
-7.044195017643634E-15
 21
1.0
 31
0.0
 73
     1
 44
1.0
  0
MTEXT
  5
1ED
330
1E4
100
AcDbEntity
  8
VERMASSUNG
100
AcDbMText
 10
225.395828749
 20
110.9927509272
 30
0.0
 40
2.0
 41
0.0
 71
     1
 72
     1
  1
42
  7
SLDTEXTSTYLE0
 11
-7.044195017643634E-15
 21
1.0
 31
0.0
 73
     1
 44
1.0
  0
ENDBLK
  5
1E6
330
1E4
100
AcDbEntity
  8
0
100
AcDbBlockEnd
  0
ENDSEC
  0
SECTION
  2
ENTITIES
  0
MTEXT
  5
45
330
1F
100
AcDbEntity
  8
KOPF_DÜNN
100
AcDbMText
 10
13.8892156294
 20
23.8442973028
 30
0.0
 40
3.0
 41
0.0
 71
     1
 72
     1
  1
HA0.W12.K21.080
  7
SLDTEXTSTYLE0
 73
     1
 44
1.0
  0
MTEXT
  5
46
330
1F
100
AcDbEntity
  8
VERMASSUNG
100
AcDbMText
 10
13.9329988022
 20
28.8834360957
 30
0.0
 40
3.0
 41
0.0
 71
     1
 72
     1
  1
Flächenspannfutter_End mill adapter Weldon ø12
  7
SLDTEXTSTYLE0
 73
     1
 44
1.0
  0
MTEXT
  5
47
330
1F
100
AcDbEntity
  8
VERMASSUNG
100
AcDbMText
 10
98.8601118557
 20
13.8365368179
 30
0.0
 40
2.0
 41
0.0
 71
     1
 72
     1
  1
Datum: 09.10.2006
  7
SLDTEXTSTYLE0
 73
     1
 44
1.0
  0
MTEXT
  5
49
330
1F
100
AcDbEntity
  8
VERMASSUNG
100
AcDbMText
 10
13.933048693
 20
18.0482802738
 30
0.0
 40
2.0
 41
0.0
 71
     1
 72
     1
  1
DIN 69 893 HSK A 100
  7
SLDTEXTSTYLE1
 73
     1
 44
1.0
  0
MTEXT
  5
4A
330
1F
100
AcDbEntity
  8
VERMASSUNG
100
AcDbMText
 10
13.9808475933
 20
13.9090973692
 30
0.0
 40
2.0
 41
0.0
 71
     1
 72
     1
  1
Gewicht: 2456g
  7
SLDTEXTSTYLE0
 73
     1
 44
1.0
  0
LINE
  5
4B
330
1F
100
AcDbEntity
  8
0
  6
Continuous
 62
     7
370
    15
100
AcDbLine
 10
214.4526017478
 20
101.9260227374
 30
0.0
 11
214.5175026834
 21
102.0462032834
 31
0.0
  0
LINE
  5
4C
330
1F
100
AcDbEntity
  8
0
  6
Continuous
 62
     7
370
    15
100
AcDbLine
 10
214.4586129598
 20
119.3305923012
 30
0.0
 11
214.4526017478
 21
119.3417235851
 31
0.0
  0
LINE
  5
4D
330
1F
100
AcDbEntity
  8
0
  6
Continuous
 62
     7
370
    15
100
AcDbLine
 10
134.9526017478
 20
60.6875797463
 30
0.0
 11
139.4026017478
 21
60.6875797463
 31
0.0
  0
LINE
  5
4E
330
1F
100
AcDbEntity
  8
0
  6
Continuous
 62
     7
370
    15
100
AcDbLine
 10
139.4366745803
 20
160.6875797463
 30
0.0
 11
134.9526017478
 21
160.6875797463
 31
0.0
  0
ARC
  5
4F
330
1F
100
AcDbEntity
  8
0
  6
Continuous
 62
     7
370
    15
100
AcDbCircle
 10
134.9526017478
 20
61.1875797463
 30
0.0
 40
0.5000000000000071
100
AcDbArc
 50
180.0
 51
270.0
  0
ARC
  5
50
330
1F
100
AcDbEntity
  8
0
  6
Continuous
 62
     7
370
    15
100
AcDbCircle
 10
134.9526017478
 20
160.1875797463
 30
0.0
 40
0.5
100
AcDbArc
 50
90.0
 51
180.0
  0
ARC
  5
51
330
1F
100
AcDbEntity
  8
0
  6
Continuous
 62
     7
370
    15
100
AcDbCircle
 10
133.5556648293
 20
72.0590944218
 30
0.0
 40
0.9962338214386921
100
AcDbArc
 50
25.7988228126
 51
90.0
  0
ARC
  5
52
330
1F
100
AcDbEntity
  8
0
  6
Continuous
 62
     7
370
    15
100
AcDbCircle
 10
133.5556648293
 20
149.3160650707
 30
0.0
 40
0.9962338214386932
100
AcDbArc
 50
270.0
 51
334.2011771874
  0
LINE
  5
53
330
1F
100
AcDbEntity
  8
0
  6
Continuous
 62
     7
370
    15
100
AcDbLine
 10
112.9719063265
 20
147.6188946049
 30
0.0
 11
94.6526017478
 21
146.7010937743
 31
0.0
  0
LINE
  5
54
330
1F
100
AcDbEntity
  8
0
  6
Continuous
 62
     7
370
    15
100
AcDbLine
 10
131.9526017478
 20
148.5698312493
 30
0.0
 11
125.8845625933
 21
148.2658212716
 31
0.0
  0
LINE
  5
55
330
1F
100
AcDbEntity
  8
0
  6
Continuous
 62
     7
370
    15
100
AcDbLine
 10
125.8846858698
 20
73.1093320448
 30
0.0
 11
131.9526017478
 21
72.8053282433
 31
0.0
  0
LINE
  5
56
330
1F
100
AcDbEntity
  8
0
  6
Continuous
 62
     7
370
    15
100
AcDbLine
 10
99.6526017478
 20
74.4235647162
 30
0.0
 11
112.9725529017
 21
73.7562324941
 31
0.0
  0
LINE
  5
57
330
1F
100
AcDbEntity
  8
0
  6
Continuous
 62
     7
370
    15
100
AcDbLine
 10
131.9526017478
 20
72.8053282433
 30
0.0
 11
132.7584479022
 21
73.0212540696
 31
0.0
  0
LINE
  5
58
330
1F
100
AcDbEntity
  8
0
  6
Continuous
 62
     7
370
    15
100
AcDbLine
 10
132.7584479022
 20
148.353905423
 30
0.0
 11
131.9526017478
 21
148.5698312493
 31
0.0
  0
ARC
  5
59
330
1F
100
AcDbEntity
  8
0
  6
Continuous
 62
     7
370
    15
100
AcDbCircle
 10
133.0172669473
 20
72.0553282433
 30
0.0
 40
0.9999999999999858
100
AcDbArc
 50
90.0
 51
105.0
  0
ARC
  5
5A
330
1F
100
AcDbEntity
  8
0
  6
Continuous
 62
     7
370
    15
100
AcDbCircle
 10
133.0172669473
 20
149.3198312493
 30
0.0
 40
1.0
100
AcDbArc
 50
255.0
 51
270.0
  0
LINE
  5
5B
330
1F
100
AcDbEntity
  8
0
  6
Continuous
 62
     7
370
    15
100
AcDbLine
 10
133.0172669473
 20
73.0553282433
 30
0.0
 11
133.5556648293
 21
73.0553282433
 31
0.0
  0
LINE
  5
5C
330
1F
100
AcDbEntity
  8
0
  6
Continuous
 62
     7
370
    15
100
AcDbLine
 10
133.5556648293
 20
148.3198312493
 30
0.0
 11
133.0172669473
 21
148.3198312493
 31
0.0
  0
ARC
  5
5D
330
1F
100
AcDbEntity
  8
0
  6
Continuous
 62
     7
370
    15
100
AcDbCircle
 10
168.4026017478
 20
84.6875797463
 30
0.0
 40
5.000000000000014
100
AcDbArc
 50
90.0
 51
180.0
  0
ARC
  5
5E
330
1F
100
AcDbEntity
  8
0
  6
Continuous
 62
     7
370
    15
100
AcDbCircle
 10
168.4026017478
 20
136.6875797463
 30
0.0
 40
5.0
100
AcDbArc
 50
180.0
 51
270.0
  0
LINE
  5
5F
330
1F
100
AcDbEntity
  8
0
  6
Continuous
 62
     7
370
    15
100
AcDbLine
 10
179.8703880042
 20
89.6875797463
 30
0.0
 11
201.5855602247
 21
89.6875797463
 31
0.0
  0
LINE
  5
60
330
1F
100
AcDbEntity
  8
0
  6
Continuous
 62
     7
370
    15
100
AcDbLine
 10
168.4026017478
 20
89.6875797463
 30
0.0
 11
172.9450584737
 21
89.6875797463
 31
0.0
  0
LINE
  5
61
330
1F
100
AcDbEntity
  8
0
  6
Continuous
 62
     7
370
    15
100
AcDbLine
 10
172.9393280913
 20
131.6875797463
 30
0.0
 11
168.4026017478
 21
131.6875797463
 31
0.0
  0
LINE
  5
62
330
1F
100
AcDbEntity
  8
0
  6
Continuous
 62
     7
370
    15
100
AcDbLine
 10
201.5855602247
 20
131.6875797463
 30
0.0
 11
179.8617584461
 21
131.6875797463
 31
0.0
  0
LINE
  5
63
330
1F
100
AcDbEntity
  8
0
  6
Continuous
 62
     7
370
    15
100
AcDbLine
 10
201.5855602247
 20
89.6875797463
 30
0.0
 11
213.2978382713
 21
95.1491046938
 31
0.0
  0
LINE
  5
64
330
1F
100
AcDbEntity
  8
0
  6
Continuous
 62
     7
370
    15
100
AcDbLine
 10
213.2978382713
 20
126.2260547987
 30
0.0
 11
201.5855602247
 21
131.6875797463
 31
0.0
  0
LINE
  5
65
330
1F
100
AcDbEntity
  8
0
  6
Continuous
 62
     7
370
    15
100
AcDbLine
 10
86.2026017478
 20
78.4375797463
 30
0.0
 11
97.7526017478
 21
78.4375797463
 31
0.0
  0
ARC
  5
66
330
1F
100
AcDbEntity
  8
0
  6
Continuous
 62
     7
370
    15
100
AcDbCircle
 10
97.7526017478
 20
76.5375797463
 30
0.0
 40
1.900000000000007
100
AcDbArc
 50
35.6630613694
 51
90.0
  0
ARC
  5
67
330
1F
100
AcDbEntity
  8
0
  6
Continuous
 62
     7
370
    15
100
AcDbCircle
 10
92.7526017478
 20
144.8375797463
 30
0.0
 40
1.899999999999986
100
AcDbArc
 50
270.0
 51
310.9212832533
  0
LINE
  5
68
330
1F
100
AcDbEntity
  8
0
  6
Continuous
 62
     7
370
    15
100
AcDbLine
 10
86.2026017478
 20
142.9375797463
 30
0.0
 11
84.6032856289
 21
141.3382636274
 31
0.0
  0
LINE
  5
69
330
1F
100
AcDbEntity
  8
0
  6
Continuous
 62
     7
370
    15
100
AcDbLine
 10
84.6041229988
 20
80.0360584952
 30
0.0
 11
86.2026017478
 21
78.4375797463
 31
0.0
  0
LINE
  5
6A
330
1F
100
AcDbEntity
  8
0
  6
Continuous
 62
     7
370
    15
100
AcDbLine
 10
92.7526017478
 20
142.9375797463
 30
0.0
 11
86.2026017478
 21
142.9375797463
 31
0.0
  0
ARC
  5
6B
330
1F
100
AcDbEntity
  8
0
  6
Continuous
 62
     7
370
    15
100
AcDbCircle
 10
212.4526017478
 20
96.9617202679
 30
0.0
 40
2.000000000000001
100
AcDbArc
 50
295.0
 51
0.0
  0
ARC
  5
6C
330
1F
100
AcDbEntity
  8
0
  6
Continuous
 62
     7
370
    15
100
AcDbCircle
 10
212.4526017478
 20
124.4134392247
 30
0.0
 40
2.000000000000001
100
AcDbArc
 50
0.0
 51
65.0
  0
LINE
  5
6D
330
1F
100
AcDbEntity
  8
0
  6
Continuous
 62
     7
370
    15
100
AcDbLine
 10
192.1525905919
 20
114.1386655618
 30
0.0
 11
189.3138681829
 21
112.1533053716
 31
0.0
  0
LINE
  5
6E
330
1F
100
AcDbEntity
  8
0
  6
Continuous
 62
     7
370
    15
100
AcDbLine
 10
189.6138793389
 20
108.7022195561
 30
0.0
 11
189.3138681829
 21
112.1533053716
 31
0.0
  0
LINE
  5
6F
330
1F
100
AcDbEntity
  8
0
  6
Continuous
 62
     7
370
    15
100
AcDbLine
 10
192.7526129037
 20
107.2364939307
 30
0.0
 11
189.6138793389
 21
108.7022195561
 31
0.0
  0
LINE
  5
70
330
1F
100
AcDbEntity
  8
0
  6
Continuous
 62
     7
370
    15
100
AcDbLine
 10
192.7526129037
 20
107.2364939307
 30
0.0
 11
195.5913353127
 21
109.221854121
 31
0.0
  0
LINE
  5
71
330
1F
100
AcDbEntity
  8
0
  6
Continuous
 62
     7
370
    15
100
AcDbLine
 10
195.2913241567
 20
112.6729399365
 30
0.0
 11
192.1525905919
 21
114.1386655618
 31
0.0
  0
CIRCLE
  5
72
330
1F
100
AcDbEntity
  8
0
  6
Continuous
 62
     7
370
    15
100
AcDbCircle
 10
192.4526017478
 20
110.6875797463
 30
0.0
 40
5.099999999999981
  0
LINE
  5
73
330
1F
100
AcDbEntity
  8
0
  6
Continuous
 62
     7
370
    15
100
AcDbLine
 10
195.2913241567
 20
112.6729399365
 30
0.0
 11
195.5913353127
 21
109.221854121
 31
0.0
  0
LINE
  5
74
330
1F
100
AcDbEntity
  8
0
  6
Continuous
 62
     7
370
    15
100
AcDbLine
 10
214.5235096069
 20
102.0864057913
 30
0.0
 11
214.5175026834
 21
102.0462032834
 31
0.0
  0
ARC
  5
75
330
1F
100
AcDbEntity
  8
0
  6
Continuous
 62
     7
370
    15
100
AcDbCircle
 10
193.6372937948
 20
102.6607045679
 30
0.0
 40
20.89410993639533
100
AcDbArc
 50
358.4249608716
 51
4.9777245001
  0
LWPOLYLINE
  5
76
330
1F
100
AcDbEntity
  8
0
  6
Continuous
 62
     7
370
    15
100
AcDbPolyline
 90
        7
 70
   128
 43
0.0
 10
214.4526017478
 20
117.9629842425
 10
214.4570112815
 20
118.1125488996
 10
214.4673897854
 20
118.5790872316
 10
214.4710342313
 20
118.9746708995
 10
214.4673897854
 20
119.2390758758
 10
214.4570112815
 20
119.3320488996
 10
214.4526017478
 20
119.3228961882
  0
LINE
  5
77
330
1F
100
AcDbEntity
  8
0
  6
Continuous
 62
     7
370
    15
100
AcDbLine
 10
139.4026017478
 20
142.0375797463
 30
0.0
 11
151.1905727269
 21
142.0375797463
 31
0.0
  0
LINE
  5
78
330
1F
100
AcDbEntity
  8
0
  6
Continuous
 62
     7
370
    15
100
AcDbLine
 10
151.1905727269
 20
61.9125861533
 30
0.0
 11
151.1905727269
 21
142.0375797463
 31
0.0
  0
LINE
  5
79
330
1F
100
AcDbEntity
  8
0
  6
Continuous
 62
     7
370
    15
100
AcDbLine
 10
151.1905727269
 20
61.9125861533
 30
0.0
 11
149.4026017478
 21
61.9125861533
 31
0.0
  0
SPLINE
  5
7A
330
1F
100
AcDbEntity
  8
0
  6
Continuous
 62
     7
370
    15
100
AcDbSpline
210
0.0
220
0.0
230
1.0
 70
     8
 71
     3
 72
    30
 73
    26
 74
     0
 42
0.00000001
 43
0.00000001
 40
0.0
 40
0.0
 40
0.0
 40
0.0
 40
0.1250000000000002
 40
0.1250000000000002
 40
0.1875000000000003
 40
0.1875000000000003
 40
0.2500000000000004
 40
0.2500000000000004
 40
0.3750000000000001
 40
0.3750000000000001
 40
0.4374999999999998
 40
0.4374999999999998
 40
0.4999999999999996
 40
0.4999999999999996
 40
0.6249999999999996
 40
0.6249999999999996
 40
0.6874999999999997
 40
0.6874999999999997
 40
0.7499999999999997
 40
0.7499999999999997
 40
0.8124999999999998
 40
0.8124999999999998
 40
0.8749999999999999
 40
0.8749999999999999
 40
1.0
 40
1.0
 40
1.0
 40
1.0
 10
149.4026017477963
 20
61.91258615326175
 30
0.0
 10
148.7398570539513
 20
61.91258615326176
 30
0.0
 10
148.0886011948356
 20
61.89774607667295
 30
0.0
 10
147.1281506565773
 20
61.85537651244332
 30
0.0
 10
146.8107592133443
 20
61.83789840966415
 30
0.0
 10
146.1815957117895
 20
61.79657012311184
 30
0.0
 10
145.8694475253477
 20
61.77264484965415
 30
0.0
 10
144.9621402234995
 20
61.69383833318724
 30
0.0
 10
144.3887152658583
 20
61.63153231321077
 30
0.0
 10
143.5748383962836
 20
61.52840299297141
 30
0.0
 10
143.3100321997137
 20
61.4922190739249
 30
0.0
 10
142.8031247888994
 20
61.4184242897244
 30
0.0
 10
142.5617306375459
 20
61.38095043095275
 30
0.0
 10
141.8725891654136
 20
61.26823848761302
 30
0.0
 10
141.4595343505493
 20
61.19270239013923
 30
0.0
 10
140.9113795311743
 20
61.08430913312174
 30
0.0
 10
140.7419169238287
 20
61.04923690145848
 30
0.0
 10
140.4338996758133
 20
60.98300144085863
 30
0.0
 10
140.294519655205
 20
60.9516747441039
 30
0.0
 10
140.0447341425782
 20
60.89326597252298
 30
0.0
 10
139.9343280299243
 20
60.86618273734013
 30
0.0
 10
139.7430701762866
 20
60.81692298272654
 30
0.0
 10
139.6619506580023
 20
60.79466100291889
 30
0.0
 10
139.4678037378939
 20
60.73709409575062
 30
0.0
 10
139.4026017477963
 20
60.71083449096463
 30
0.0
 10
139.4026017477963
 20
60.6975807464906
 30
0.0
  0
LINE
  5
7B
330
1F
100
AcDbEntity
  8
0
  6
Continuous
 62
     7
370
    15
100
AcDbLine
 10
139.4026017478
 20
60.6975807465
 30
0.0
 11
139.4026017478
 21
60.6875797463
 31
0.0
  0
SPLINE
  5
7C
330
1F
100
AcDbEntity
  8
0
  6
Continuous
 62
     7
370
    15
100
AcDbSpline
210
0.0
220
0.0
230
1.0
 70
     8
 71
     3
 72
    17
 73
    13
 74
     0
 42
0.00000001
 43
0.00000001
 40
0.0
 40
0.0
 40
0.0
 40
0.0
 40
0.104384384054747
 40
0.2118345768143993
 40
0.316208200519045
 40
0.4235375806108392
 40
0.5292276236193852
 40
0.6379275864803491
 40
0.7444714844189683
 40
0.8541836219421859
 40
0.9593080534965217
 40
1.0
 40
1.0
 40
1.0
 40
1.0
 10
149.4026017477963
 20
159.6773746019541
 30
0.0
 10
148.854663299937
 20
159.6827428057029
 30
0.0
 10
147.7426932454722
 20
159.6936368793679
 30
0.0
 10
146.1298373322573
 20
159.7788142536267
 30
0.0
 10
144.5963241152803
 20
159.9051889599193
 30
0.0
 10
143.2053032659437
 20
160.0620917804961
 30
0.0
 10
141.9697867487134
 20
160.2337906100167
 30
0.0
 10
140.9464309815581
 20
160.3991268861178
 30
0.0
 10
140.146088983293
 20
160.5428403657043
 30
0.0
 10
139.6357568813794
 20
160.6409951728835
 30
0.0
 10
139.3958484525549
 20
160.6889235697534
 30
0.0
 10
139.4277672319747
 20
160.6825561705138
 30
0.0
 10
139.4366745802569
 20
160.6807792653905
 30
0.0
  0
LINE
  5
7D
330
1F
100
AcDbEntity
  8
0
  6
Continuous
 62
     7
370
    15
100
AcDbLine
 10
151.1905727269
 20
159.677374602
 30
0.0
 11
149.4026017478
 21
159.677374602
 31
0.0
  0
LINE
  5
7E
330
1F
100
AcDbEntity
  8
0
  6
Continuous
 62
     7
370
    15
100
AcDbLine
 10
151.1905727269
 20
149.6385425072
 30
0.0
 11
151.1905727269
 21
159.677374602
 31
0.0
  0
LINE
  5
7F
330
1F
100
AcDbEntity
  8
0
  6
Continuous
 62
     7
370
    15
100
AcDbLine
 10
149.110568596
 20
149.6385425072
 30
0.0
 11
151.1905727269
 21
149.6385425072
 31
0.0
  0
SPLINE
  5
80
330
1F
100
AcDbEntity
  8
0
  6
Continuous
 62
     7
370
    15
100
AcDbSpline
210
0.0
220
0.0
230
1.0
 70
     8
 71
     3
 72
    22
 73
    18
 74
     0
 42
0.00000001
 43
0.00000001
 40
0.0
 40
0.0
 40
0.0
 40
0.0
 40
0.2500000000000002
 40
0.2500000000000002
 40
0.3750000000000003
 40
0.3750000000000003
 40
0.5000000000000004
 40
0.5000000000000004
 40
0.6250000000000004
 40
0.6250000000000004
 40
0.7500000000000004
 40
0.7500000000000004
 40
0.8750000000000004
 40
0.8750000000000004
 40
0.9375000000000002
 40
0.9375000000000002
 40
1.0
 40
1.0
 40
1.0
 40
1.0
 10
139.4026017477963
 20
142.0375797462906
 30
0.0
 10
139.6053267037154
 20
143.0568260881552
 30
0.0
 10
139.9200704255108
 20
144.0159342380945
 30
0.0
 10
140.6281258951818
 20
145.3584133156038
 30
0.0
 10
140.9065885253994
 20
145.7926218983438
 30
0.0
 10
141.5453559320366
 20
146.6042496138459
 30
0.0
 10
141.9057696118268
 20
146.9835299067827
 30
0.0
 10
142.7233018438161
 20
147.6864884858037
 30
0.0
 10
143.1844698271032
 20
148.0115173035043
 30
0.0
 10
144.182460073587
 20
148.5765326268952
 30
0.0
 10
144.7222192675793
 20
148.8202362211017
 30
0.0
 10
145.8968122316106
 20
149.2244361487467
 30
0.0
 10
146.5085484176025
 20
149.3768733417922
 30
0.0
 10
147.4604576424642
 20
149.5322008894009
 30
0.0
 10
147.7836908067248
 20
149.5717056694509
 30
0.0
 10
148.4427539780001
 20
149.6250147901196
 30
0.0
 10
148.7768179885741
 20
149.6385425071775
 30
0.0
 10
149.1105685959756
 20
149.6385425071775
 30
0.0
  0
SPLINE
  5
81
330
1F
100
AcDbEntity
  8
0
  6
Continuous
 62
     7
370
    15
100
AcDbSpline
210
0.0
220
0.0
230
1.0
 70
     8
 71
     3
 72
    80
 73
    76
 74
     0
 42
0.00000001
 43
0.00000001
 40
-0.0312499999999993
 40
-0.0312499999999993
 40
0.0
 40
0.0
 40
0.03125
 40
0.03125
 40
0.046875
 40
0.046875
 40
0.0625
 40
0.0625
 40
0.09375
 40
0.09375
 40
0.1250000000000001
 40
0.1250000000000001
 40
0.1562500000000001
 40
0.1562500000000001
 40
0.1875000000000001
 40
0.1875000000000001
 40
0.2187500000000002
 40
0.2187500000000002
 40
0.2500000000000002
 40
0.2500000000000002
 40
0.2812500000000003
 40
0.2812500000000003
 40
0.3125000000000003
 40
0.3125000000000003
 40
0.3281250000000004
 40
0.3281250000000004
 40
0.3437500000000006
 40
0.3437500000000006
 40
0.3750000000000011
 40
0.3750000000000011
 40
0.4062500000000016
 40
0.4062500000000016
 40
0.4218750000000018
 40
0.4218750000000018
 40
0.437500000000002
 40
0.437500000000002
 40
0.4687500000000023
 40
0.4687500000000023
 40
0.5000000000000027
 40
0.5000000000000027
 40
0.531250000000003
 40
0.531250000000003
 40
0.5625000000000033
 40
0.5625000000000033
 40
0.5937500000000037
 40
0.5937500000000037
 40
0.6250000000000039
 40
0.6250000000000039
 40
0.6562500000000042
 40
0.6562500000000042
 40
0.6875000000000046
 40
0.6875000000000046
 40
0.7031250000000047
 40
0.7031250000000047
 40
0.7187500000000048
 40
0.7187500000000048
 40
0.7500000000000048
 40
0.7500000000000048
 40
0.7812500000000048
 40
0.7812500000000048
 40
0.7968750000000044
 40
0.7968750000000044
 40
0.8125000000000041
 40
0.8125000000000041
 40
0.8437500000000034
 40
0.8437500000000034
 40
0.8750000000000027
 40
0.8750000000000027
 40
0.906250000000002
 40
0.906250000000002
 40
0.9375000000000013
 40
0.9375000000000013
 40
0.9687500000000007
 40
0.9687500000000007
 40
1.0
 40
1.0
 40
1.03125
 40
1.03125
 10
143.7831470605726
 20
154.1022092099219
 30
0.0
 10
143.12205643502
 20
154.1022092099218
 30
0.0
 10
142.7970763057684
 20
154.118417441304
 30
0.0
 10
142.317602894522
 20
154.1657820733236
 30
0.0
 10
142.1591210766812
 20
154.1854362852142
 30
0.0
 10
141.8449015441769
 20
154.2325474414069
 30
0.0
 10
141.6887812604965
 20
154.2601287609016
 30
0.0
 10
141.2347272315399
 20
154.3526645476953
 30
0.0
 10
140.9476238486001
 20
154.4277349812919
 30
0.0
 10
140.404269292573
 20
154.6029732899025
 30
0.0
 10
140.1471656813675
 20
154.7039745877407
 30
0.0
 10
139.6862594264287
 20
154.9213307862016
 30
0.0
 10
139.4793617172137
 20
155.0384951179738
 30
0.0
 10
139.1138364032215
 20
155.2885650422025
 30
0.0
 10
138.9586308810956
 20
155.4195111309614
 30
0.0
 10
138.7092004944958
 20
155.6852460746738
 30
0.0
 10
138.6131105387107
 20
155.8219996679847
 30
0.0
 10
138.4845916895171
 20
156.0960652428237
 30
0.0
 10
138.4527808193393
 20
156.2310053332926
 30
0.0
 10
138.4524241695661
 20
156.4964769703613
 30
0.0
 10
138.4849214217631
 20
156.6283014475026
 30
0.0
 10
138.6125468954776
 20
156.877751047123
 30
0.0
 10
138.7069752965295
 20
156.996183739051
 30
0.0
 10
138.8948361165151
 20
157.1650529361451
 30
0.0
 10
138.9656641153182
 20
157.2201389312652
 30
0.0
 10
139.1203860072835
 20
157.3253917597537
 30
0.0
 10
139.2043624774669
 20
157.375726988514
 30
0.0
 10
139.4756861471113
 20
157.5203028210521
 30
0.0
 10
139.6822353657137
 20
157.608164407469
 30
0.0
 10
140.1488455059027
 20
157.7678855004686
 30
0.0
 10
140.4012110755282
 20
157.8371237969358
 30
0.0
 10
140.8071124172069
 20
157.9269111861656
 30
0.0
 10
140.9470130346844
 20
157.9544771482518
 30
0.0
 10
141.2362369699313
 20
158.0049679491781
 30
0.0
 10
141.3860764262206
 20
158.0279313880288
 30
0.0
 10
141.8401929958313
 20
158.0885619044477
 30
0.0
 10
142.1518442145682
 20
158.1186359332435
 30
0.0
 10
142.7928406794806
 20
158.1592255205021
 30
0.0
 10
143.1243683074327
 20
158.1695377507182
 30
0.0
 10
143.7771593525042
 20
158.1696133178839
 30
0.0
 10
144.1016955575361
 20
158.1597117124162
 30
0.0
 10
144.7469650069525
 20
158.119225181891
 30
0.0
 10
145.0627080131152
 20
158.0887638820063
 30
0.0
 10
145.6645973080989
 20
158.0086132105697
 30
0.0
 10
145.9553465389104
 20
157.9583309787625
 30
0.0
 10
146.5022583305949
 20
157.8376607959895
 30
0.0
 10
146.7540356944318
 20
157.7684369368195
 30
0.0
 10
147.2154236870529
 20
157.6109852091789
 30
0.0
 10
147.426692966651
 20
157.5216367345051
 30
0.0
 10
147.7899973190272
 20
157.3283888638043
 30
0.0
 10
147.94380396747
 20
157.224260871925
 30
0.0
 10
148.1324234370674
 20
157.0556364857416
 30
0.0
 10
148.1884539232765
 20
156.9970080840666
 30
0.0
 10
148.2840276850127
 20
156.8775531692404
 30
0.0
 10
148.3237906020377
 20
156.8166333804022
 30
0.0
 10
148.4195623523498
 20
156.6302286542283
 30
0.0
 10
148.4522851914759
 20
156.5011158364333
 30
0.0
 10
148.452913777805
 20
156.2324589134774
 30
0.0
 10
148.4207276330702
 20
156.0970881727206
 30
0.0
 10
148.3258169312146
 20
155.8935378644846
 30
0.0
 10
148.2863501478157
 20
155.8255659404212
 30
0.0
 10
148.1914201490948
 20
155.6894737172903
 30
0.0
 10
148.1356633213314
 20
155.6211236170809
 30
0.0
 10
147.9477232033616
 20
155.4204206040388
 30
0.0
 10
147.7943617336454
 20
155.2910323302261
 30
0.0
 10
147.432097498765
 20
155.0423668981762
 30
0.0
 10
147.2212490252991
 20
154.922557255808
 30
0.0
 10
146.7605790549802
 20
154.7050349682353
 30
0.0
 10
146.5092046753963
 20
154.6059498683994
 30
0.0
 10
145.9632967884982
 20
154.4292773944826
 30
0.0
 10
145.672474213847
 20
154.3532203063486
 30
0.0
 10
145.071147599067
 20
154.2303753289956
 30
0.0
 10
144.7566290144546
 20
154.1826692039425
 30
0.0
 10
144.1100475583347
 20
154.1184206688228
 30
0.0
 10
143.7831470605726
 20
154.1022092099219
 30
0.0
 10
143.12205643502
 20
154.1022092099218
 30
0.0
  0
LINE
  5
82
330
1F
100
AcDbEntity
  8
0
  6
Continuous
 62
     7
370
    15
100
AcDbLine
 10
134.4526017478
 20
61.1875797463
 30
0.0
 11
134.4526017478
 21
160.1875797403
 31
0.0
  0
LINE
  5
83
330
1F
100
AcDbEntity
  8
0
  6
Continuous
 62
     7
370
    15
100
AcDbLine
 10
163.4026017478
 20
62.938234201
 30
0.0
 11
163.4026017478
 21
142.0375797463
 31
0.0
  0
SPLINE
  5
84
330
1F
100
AcDbEntity
  8
0
  6
Continuous
 62
     7
370
    15
100
AcDbSpline
210
0.0
220
0.0
230
1.0
 70
     8
 71
     3
 72
    14
 73
    10
 74
     0
 42
0.00000001
 43
0.00000001
 40
0.0
 40
0.0
 40
0.0
 40
0.0
 40
0.25
 40
0.25
 40
0.5
 40
0.5
 40
0.75
 40
0.75
 40
1.0
 40
1.0
 40
1.0
 40
1.0
 10
163.4026017477963
 20
62.93823420103725
 30
0.0
 10
163.4026017477963
 20
62.80480850498271
 30
0.0
 10
163.3772906478854
 20
62.67296069713837
 30
0.0
 10
163.2789558840407
 20
62.42643814844426
 30
0.0
 10
163.2058118797846
 20
62.31263296020372
 30
0.0
 10
163.0223738186889
 20
62.12217578325644
 30
0.0
 10
162.9106874843504
 20
62.04454091940653
 30
0.0
 10
162.6681840540441
 20
61.94024950929406
 30
0.0
 10
162.5348096253499
 20
61.91258615326171
 30
0.0
 10
162.4026017477963
 20
61.91258615326171
 30
0.0
  0
SPLINE
  5
85
330
1F
100
AcDbEntity
  8
0
  6
Continuous
 62
     7
370
    15
100
AcDbSpline
210
0.0
220
0.0
230
1.0
 70
    24
 71
     3
 72
    12
 73
     8
 74
     0
 42
0.00000001
 43
0.00000001
 40
0.0
 40
0.0
 40
0.0
 40
0.0
 40
0.2500000000000032
 40
0.2500000000000032
 40
0.5000000000000064
 40
0.5000000000000064
 40
1.0
 40
1.0
 40
1.0
 40
1.0
 10
162.4026017477963
 20
142.0375797462906
 30
0.0
 10
162.5546919847413
 20
142.0375797462906
 30
0.0
 10
162.7031512458167
 20
142.0375797462906
 30
0.0
 10
162.9605548780824
 20
142.0375797462906
 30
0.0
 10
163.0696596259244
 20
142.0375797462906
 30
0.0
 10
163.3237191023319
 20
142.0375797462906
 30
0.0
 10
163.4026017477963
 20
142.0375797462906
 30
0.0
 10
163.4026017477963
 20
142.0375797462906
 30
0.0
  0
LINE
  5
86
330
1F
100
AcDbEntity
  8
0
  6
Continuous
 62
     7
370
    15
100
AcDbLine
 10
162.4026017478
 20
61.9125861533
 30
0.0
 11
157.7146307687
 21
61.9125861533
 31
0.0
  0
LINE
  5
87
330
1F
100
AcDbEntity
  8
0
  6
Continuous
 62
     7
370
    15
100
AcDbLine
 10
157.7146307687
 20
61.9125861533
 30
0.0
 11
157.7146307687
 21
142.0375797463
 31
0.0
  0
LINE
  5
88
330
1F
100
AcDbEntity
  8
0
  6
Continuous
 62
     7
370
    15
100
AcDbLine
 10
157.7146307687
 20
142.0375797463
 30
0.0
 11
162.4026017478
 21
142.0375797463
 31
0.0
  0
SPLINE
  5
89
330
1F
100
AcDbEntity
  8
0
  6
Continuous
 62
     7
370
    15
100
AcDbSpline
210
0.0
220
0.0
230
1.0
 70
     8
 71
     3
 72
     8
 73
     4
 74
     0
 42
0.00000001
 43
0.00000001
 40
0.0
 40
0.0
 40
0.0
 40
0.0
 40
1.0
 40
1.0
 40
1.0
 40
1.0
 10
157.7146307687177
 20
61.91258615326175
 30
0.0
 10
157.2635260393175
 20
62.71354608508167
 30
0.0
 10
156.8128282120741
 20
63.51473609664232
 30
0.0
 10
156.3626017477963
 20
64.31619145926709
 30
0.0
  0
LINE
  5
8A
330
1F
100
AcDbEntity
  8
0
  6
Continuous
 62
     7
370
    15
100
AcDbLine
 10
156.3626017478
 20
64.3161914593
 30
0.0
 11
156.3626017478
 21
142.0375797463
 31
0.0
  0
SPLINE
  5
8B
330
1F
100
AcDbEntity
  8
0
  6
Continuous
 62
     7
370
    15
100
AcDbSpline
210
0.0
220
0.0
230
1.0
 70
    24
 71
     3
 72
     8
 73
     4
 74
     0
 42
0.00000001
 43
0.00000001
 40
0.0
 40
0.0
 40
0.0
 40
0.0
 40
1.0
 40
1.0
 40
1.0
 40
1.0
 10
156.3626017477963
 20
142.0375797462906
 30
0.0
 10
156.8068146301503
 20
142.0375797462906
 30
0.0
 10
157.2578291963895
 20
142.0375797462906
 30
0.0
 10
157.7146307687177
 20
142.0375797462906
 30
0.0
  0
LINE
  5
8C
330
1F
100
AcDbEntity
  8
0
  6
Continuous
 62
     7
370
    15
100
AcDbLine
 10
152.5426017478
 20
64.3161914593
 30
0.0
 11
152.5426017478
 21
142.0375797463
 31
0.0
  0
SPLINE
  5
8D
330
1F
100
AcDbEntity
  8
0
  6
Continuous
 62
     7
370
    15
100
AcDbSpline
210
0.0
220
0.0
230
1.0
 70
     8
 71
     3
 72
     8
 73
     4
 74
     0
 42
0.00000001
 43
0.00000001
 40
0.0
 40
0.0
 40
0.0
 40
0.0
 40
1.0
 40
1.0
 40
1.0
 40
1.0
 10
152.5426017477963
 20
64.31619145926709
 30
0.0
 10
152.0923752835185
 20
63.51473609664232
 30
0.0
 10
151.6416774562751
 20
62.71354608508167
 30
0.0
 10
151.1905727268749
 20
61.91258615326175
 30
0.0
  0
SPLINE
  5
8E
330
1F
100
AcDbEntity
  8
0
  6
Continuous
 62
     7
370
    15
100
AcDbSpline
210
0.0
220
0.0
230
1.0
 70
    24
 71
     3
 72
     8
 73
     4
 74
     0
 42
0.00000001
 43
0.00000001
 40
0.0
 40
0.0
 40
0.0
 40
0.0
 40
1.0
 40
1.0
 40
1.0
 40
1.0
 10
151.1905727268749
 20
142.0375797462906
 30
0.0
 10
151.6473742992032
 20
142.0375797462906
 30
0.0
 10
152.0983888654424
 20
142.0375797462906
 30
0.0
 10
152.5426017477963
 20
142.0375797462906
 30
0.0
  0
SPLINE
  5
8F
330
1F
100
AcDbEntity
  8
0
  6
Continuous
 62
     7
370
    15
100
AcDbSpline
210
0.0
220
0.0
230
1.0
 70
     8
 71
     3
 72
    14
 73
    10
 74
     0
 42
0.00000001
 43
0.00000001
 40
0.0
 40
0.0
 40
0.0
 40
0.0
 40
0.25
 40
0.25
 40
0.5
 40
0.5
 40
0.75
 40
0.75
 40
1.0
 40
1.0
 40
1.0
 40
1.0
 10
156.3626017477963
 20
65.22440096389568
 30
0.0
 10
156.3626017477963
 20
65.33144504489005
 30
0.0
 10
156.3424840606382
 20
65.43668018513249
 30
0.0
 10
156.2639928713726
 20
65.63453067198019
 30
0.0
 10
156.2058362465713
 20
65.7255824355451
 30
0.0
 10
156.0593209909533
 20
65.87874852946989
 30
0.0
 10
155.9706784423122
 20
65.9410429756793
 30
0.0
 10
155.7749551195119
 20
66.02583676121529
 30
0.0
 10
155.6697239284409
 20
66.04790428824091
 30
0.0
 10
155.5626017477964
 20
66.04790428824091
 30
0.0
  0
SPLINE
  5
90
330
1F
100
AcDbEntity
  8
0
  6
Continuous
 62
     7
370
    15
100
AcDbSpline
210
0.0
220
0.0
230
1.0
 70
    24
 71
     3
 72
    14
 73
    10
 74
     0
 42
0.00000001
 43
0.00000001
 40
0.0
 40
0.0
 40
0.0
 40
0.0
 40
0.25
 40
0.25
 40
0.5
 40
0.5
 40
0.75
 40
0.75
 40
1.0
 40
1.0
 40
1.0
 40
1.0
 10
155.5626017477964
 20
142.0375797462906
 30
0.0
 10
155.6863715125615
 20
142.0375797462906
 30
0.0
 10
155.8107386165684
 20
142.0375797462906
 30
0.0
 10
156.0170950852944
 20
142.0375797462906
 30
0.0
 10
156.1024232287128
 20
142.0375797462906
 30
0.0
 10
156.234615287428
 20
142.0375797462906
 30
0.0
 10
156.2832605311786
 20
142.0375797462906
 30
0.0
 10
156.3467963229073
 20
142.0375797462906
 30
0.0
 10
156.3626017477963
 20
142.0375797462906
 30
0.0
 10
156.3626017477963
 20
142.0375797462906
 30
0.0
  0
SPLINE
  5
91
330
1F
100
AcDbEntity
  8
0
  6
Continuous
 62
     7
370
    15
100
AcDbSpline
210
0.0
220
0.0
230
1.0
 70
     8
 71
     3
 72
    12
 73
     8
 74
     0
 42
0.00000001
 43
0.00000001
 40
0.0
 40
0.0
 40
0.0
 40
0.0
 40
0.25
 40
0.25
 40
0.5
 40
0.5
 40
1.0
 40
1.0
 40
1.0
 40
1.0
 10
153.3426017477963
 20
66.04790428824091
 30
0.0
 10
153.2368410944474
 20
66.0479042882409
 30
0.0
 10
153.1288534662644
 20
66.0253647822405
 30
0.0
 10
152.9342588009989
 20
65.9407941502452
 30
0.0
 10
152.84538688816
 20
65.8783124974864
 30
0.0
 10
152.6261945958341
 20
65.64892354601425
 30
0.0
 10
152.5426017477963
 20
65.43634020849186
 30
0.0
 10
152.5426017477963
 20
65.22440096389568
 30
0.0
  0
SPLINE
  5
92
330
1F
100
AcDbEntity
  8
0
  6
Continuous
 62
     7
370
    15
100
AcDbSpline
210
0.0
220
0.0
230
1.0
 70
    24
 71
     3
 72
    14
 73
    10
 74
     0
 42
0.00000001
 43
0.00000001
 40
0.0
 40
0.0
 40
0.0
 40
0.0
 40
0.25
 40
0.25
 40
0.5
 40
0.5
 40
0.75
 40
0.75
 40
1.0
 40
1.0
 40
1.0
 40
1.0
 10
152.5426017477963
 20
142.0375797462906
 30
0.0
 10
152.5426017477963
 20
142.0375797462906
 30
0.0
 10
152.5583160682623
 20
142.0375797462906
 30
0.0
 10
152.6220000467306
 20
142.0375797462906
 30
0.0
 10
152.6706032411411
 20
142.0375797462906
 30
0.0
 10
152.8032867635667
 20
142.0375797462906
 30
0.0
 10
152.8883888678774
 20
142.0375797462906
 30
0.0
 10
153.0948311027874
 20
142.0375797462906
 30
0.0
 10
153.2189120444104
 20
142.0375797462906
 30
0.0
 10
153.3426017477963
 20
142.0375797462906
 30
0.0
  0
LINE
  5
93
330
1F
100
AcDbEntity
  8
0
  6
Continuous
 62
     7
370
    15
100
AcDbLine
 10
155.5626017478
 20
66.0479042882
 30
0.0
 11
153.3426017478
 21
66.0479042882
 31
0.0
  0
LINE
  5
94
330
1F
100
AcDbEntity
  8
0
  6
Continuous
 62
     7
370
    15
100
AcDbLine
 10
153.3426017478
 20
142.0375797463
 30
0.0
 11
155.5626017478
 21
142.0375797463
 31
0.0
  0
LINE
  5
95
330
1F
100
AcDbEntity
  8
0
  6
Continuous
 62
     7
370
    15
100
AcDbLine
 10
99.6526017478
 20
74.4235647162
 30
0.0
 11
99.6526017478
 21
76.8182464809
 31
0.0
  0
SPLINE
  5
96
330
1F
100
AcDbEntity
  8
0
  6
Continuous
 62
     7
370
    15
100
AcDbSpline
210
0.0
220
0.0
230
1.0
 70
     8
 71
     3
 72
    14
 73
    10
 74
     0
 42
0.00000001
 43
0.00000001
 40
0.0
 40
0.0
 40
0.0
 40
0.0
 40
0.25
 40
0.25
 40
0.5
 40
0.5
 40
0.75
 40
0.75
 40
1.0
 40
1.0
 40
1.0
 40
1.0
 10
98.64817927645937
 20
78.52109840254704
 30
0.0
 10
98.73694785440469
 20
78.36256427123908
 30
0.0
 10
98.85866569308361
 20
78.21012159435053
 30
0.0
 10
99.09371530294044
 20
77.9129869705216
 30
0.0
 10
99.20934548915733
 20
77.76830432690424
 30
0.0
 10
99.40975042258515
 20
77.48501512440083
 30
0.0
 10
99.49515071456946
 20
77.34646113136398
 30
0.0
 10
99.6168563482867
 20
77.07507710133044
 30
0.0
 10
99.65260174779934
 20
76.94294123269582
 30
0.0
 10
99.65260174779932
 20
76.81824648092505
 30
0.0
  0
SPLINE
  5
97
330
1F
100
AcDbEntity
  8
0
  6
Continuous
 62
     7
370
    15
100
AcDbSpline
210
0.0
220
0.0
230
1.0
 70
     8
 71
     3
 72
    14
 73
    10
 74
     0
 42
0.00000001
 43
0.00000001
 40
0.0
 40
0.0
 40
0.0
 40
0.0
 40
0.124999999999999
 40
0.124999999999999
 40
0.249999999999998
 40
0.249999999999998
 40
0.5000000000000007
 40
0.5000000000000007
 40
1.0
 40
1.0
 40
1.0
 40
1.0
 10
97.75260174779632
 20
79.14992834164714
 30
0.0
 10
97.82018404758082
 20
79.15708422674852
 30
0.0
 10
97.89267162532872
 20
79.15265975670951
 30
0.0
 10
98.02496273459465
 20
79.12295359893918
 30
0.0
 10
98.08224011398484
 20
79.09966931736093
 30
0.0
 10
98.23189054118511
 20
79.02218407751062
 30
0.0
 10
98.30560383670661
 20
78.96033225060926
 30
0.0
 10
98.49341182003285
 20
78.77565479796094
 30
0.0
 10
98.5774521263943
 20
78.64741187466973
 30
0.0
 10
98.64817927646058
 20
78.52109840254714
 30
0.0
  0
SPLINE
  5
98
330
1F
100
AcDbEntity
  8
0
  6
Continuous
 62
     7
370
    15
100
AcDbSpline
210
0.0
220
0.0
230
1.0
 70
     8
 71
     3
 72
     8
 73
     4
 74
     0
 42
0.00000001
 43
0.00000001
 40
0.0
 40
0.0
 40
0.0
 40
0.0
 40
1.0
 40
1.0
 40
1.0
 40
1.0
 10
94.20796135971554
 20
78.73187975685536
 30
0.0
 10
95.37325967042442
 20
78.88706722874197
 30
0.0
 10
96.55787488446423
 20
79.0234258670523
 30
0.0
 10
97.75260174779632
 20
79.14992834164714
 30
0.0
  0
SPLINE
  5
99
330
1F
100
AcDbEntity
  8
0
  6
Continuous
 62
     7
370
    15
100
AcDbSpline
210
0.0
220
0.0
230
1.0
 70
     8
 71
     3
 72
    14
 73
    10
 74
     0
 42
0.00000001
 43
0.00000001
 40
0.0
 40
0.0
 40
0.0
 40
0.0
 40
0.4999999999999972
 40
0.4999999999999972
 40
0.7499999999999971
 40
0.7499999999999971
 40
0.8749999999999986
 40
0.8749999999999986
 40
1.0
 40
1.0
 40
1.0
 40
1.0
 10
86.45252686376763
 20
78.44174757772542
 30
0.0
 10
87.76082842630137
 20
78.44876230146654
 30
0.0
 10
89.06588780095818
 20
78.46417087791104
 30
0.0
 10
91.0117638524465
 20
78.51806743337772
 30
0.0
 10
91.65846135618551
 20
78.54109899798041
 30
0.0
 10
92.62230372003985
 20
78.59204152285116
 30
0.0
 10
92.94254241197393
 20
78.61177644508436
 30
0.0
 10
93.57923763831634
 20
78.66126357355593
 30
0.0
 10
93.89595304659926
 20
78.69032835248515
 30
0.0
 10
94.20796135971557
 20
78.7318797568553
 30
0.0
  0
SPLINE
  5
9A
330
1F
100
AcDbEntity
  8
0
  6
Continuous
 62
     7
370
    15
100
AcDbSpline
210
0.0
220
0.0
230
1.0
 70
     8
 71
     3
 72
    12
 73
     8
 74
     0
 42
0.00000001
 43
0.00000001
 40
0.0
 40
0.0
 40
0.0
 40
0.0
 40
0.2500000000000009
 40
0.2500000000000009
 40
0.5000000000000018
 40
0.5000000000000018
 40
1.0
 40
1.0
 40
1.0
 40
1.0
 10
92.75260174779633
 20
142.774102637787
 30
0.0
 10
92.23390292596814
 20
142.8066254126352
 30
0.0
 10
91.71219135276316
 20
142.8299221538057
 30
0.0
 10
90.66589933626756
 20
142.8677676682278
 30
0.0
 10
90.1412277105973
 20
142.8820361427239
 30
0.0
 10
88.56438168805808
 20
142.9162456301822
 30
0.0
 10
87.50942637351116
 20
142.9277451341262
 30
0.0
 10
86.45252686376594
 20
142.9334119148557
 30
0.0
  0
SPLINE
  5
9B
330
1F
100
AcDbEntity
  8
0
  6
Continuous
 62
     7
370
    15
100
AcDbSpline
210
0.0
220
0.0
230
1.0
 70
     8
 71
     3
 72
    20
 73
    16
 74
     0
 42
0.00000001
 43
0.00000001
 40
0.0
 40
0.0
 40
0.0
 40
0.0
 40
0.2500000000000011
 40
0.2500000000000011
 40
0.5000000000000021
 40
0.5000000000000021
 40
0.7500000000000031
 40
0.7500000000000031
 40
0.8750000000000008
 40
0.8750000000000008
 40
0.9375000000000006
 40
0.9375000000000006
 40
0.9687500000000003
 40
0.9687500000000003
 40
1.0
 40
1.0
 40
1.0
 40
1.0
 10
94.65260174779633
 20
144.4321884832751
 30
0.0
 10
94.65260174779633
 20
144.2965061635283
 30
0.0
 10
94.6038899585797
 20
144.1554191773883
 30
0.0
 10
94.43472853535451
 20
143.8633474586577
 30
0.0
 10
94.31294812143621
 20
143.7116987165673
 30
0.0
 10
94.01540102668667
 20
143.4092902764142
 30
0.0
 10
93.84148842098392
 20
143.2567016402909
 30
0.0
 10
93.52207358710208
 20
143.0314308764486
 30
0.0
 10
93.40703281165483
 20
142.9567077819379
 30
0.0
 10
93.19994848763841
 20
142.8572973726809
 30
0.0
 10
93.12384065283203
 20
142.8257322803363
 30
0.0
 10
92.99244611327867
 20
142.7912888961433
 30
0.0
 10
92.94589289427721
 20
142.7822373243757
 30
0.0
 10
92.8495595431965
 20
142.7720616755372
 30
0.0
 10
92.80030011984105
 20
142.7711119168622
 30
0.0
 10
92.75260174779434
 20
142.7741026377768
 30
0.0
  0
LINE
  5
9C
330
1F
100
AcDbEntity
  8
0
  6
Continuous
 62
     7
370
    15
100
AcDbLine
 10
94.6526017478
 20
144.4321884833
 30
0.0
 11
94.6526017478
 21
146.7010937743
 31
0.0
  0
LINE
  5
9D
330
1F
100
AcDbEntity
  8
0
  6
Continuous
 62
     7
370
    15
100
AcDbLine
 10
131.9526017478
 20
72.8053282433
 30
0.0
 11
131.9526017478
 21
148.5698312493
 31
0.0
  0
SPLINE
  5
9E
330
1F
100
AcDbEntity
  8
0
  6
Continuous
 62
     7
370
    15
100
AcDbSpline
210
0.0
220
0.0
230
1.0
 70
     8
 71
     3
 72
    24
 73
    20
 74
     0
 42
0.00000001
 43
0.00000001
 40
0.0
 40
0.0
 40
0.0
 40
0.0
 40
0.0002934293894791
 40
0.062808005175641
 40
0.1260453927228619
 40
0.18907467666103
 40
0.2513200540860133
 40
0.3133304633786588
 40
0.3759158453762907
 40
0.4383740564599686
 40
0.5000631094857209
 40
0.5616593988040849
 40
0.6245050380644152
 40
0.6872231506510951
 40
0.7494953263230465
 40
0.8117583797535242
 40
0.8747365508229858
 40
0.9378980306234599
 40
1.0
 40
1.0
 40
1.0
 40
1.0
 10
112.9725580116358
 20
73.7563344879782
 30
0.0
 10
112.972363158751
 20
73.75631018058421
 30
0.0
 10
112.9306552677398
 20
73.75110722893
 30
0.0
 10
113.0757736592703
 20
73.7697418522605
 30
0.0
 10
113.4308526008095
 20
73.81226163080923
 30
0.0
 10
114.0354282383527
 20
73.88039791441106
 30
0.0
 10
114.8418635471689
 20
73.95365345142693
 30
0.0
 10
115.8273409710878
 20
74.01817279224481
 30
0.0
 10
116.9590105677674
 20
74.05673702030589
 30
0.0
 10
118.1813030379297
 20
74.06043152630728
 30
0.0
 10
119.4486317193815
 20
74.01800554625831
 30
0.0
 10
120.715117249808
 20
73.92975840547733
 30
0.0
 10
121.9312546136279
 20
73.80136513521066
 30
0.0
 10
123.0566651094687
 20
73.64872414661814
 30
0.0
 10
124.0340821710227
 20
73.4869495315138
 30
0.0
 10
124.8373476495652
 20
73.33442063841292
 30
0.0
 10
125.4258411725664
 20
73.21040689514552
 30
0.0
 10
125.8147472842185
 20
73.12548296886922
 30
0.0
 10
125.8615084149565
 20
73.11475665759043
 30
0.0
 10
125.8846912214989
 20
73.10943886489885
 30
0.0
  0
SPLINE
  5
9F
330
1F
100
AcDbEntity
  8
0
  6
Continuous
 62
     7
370
    15
100
AcDbSpline
210
0.0
220
0.0
230
1.0
 70
     8
 71
     3
 72
    41
 73
    37
 74
     0
 42
0.00000001
 43
0.00000001
 40
0.0
 40
0.0
 40
0.0
 40
0.0
 40
0.0619930088506718
 40
0.125434783814564
 40
0.1886508980471406
 40
0.2510246518033811
 40
0.3131658325491701
 40
0.3756581805174193
 40
0.4382227337757709
 40
0.4998045140815297
 40
0.5615164441954765
 40
0.624068336616565
 40
0.6867257531766615
 40
0.7488365631577111
 40
0.8110686297814758
 40
0.8741743265521147
 40
0.9373213196242014
 40
0.9685512131827939
 40
0.9842087301523141
 40
0.9920641614992075
 40
0.9960005295431575
 40
0.9979711229155388
 40
0.9989570525954627
 40
0.999450179507506
 40
0.9996967839589672
 40
0.9998200964931991
 40
0.9998817553448945
 40
0.9999125854178207
 40
0.9999280006161647
 40
0.9999357082558249
 40
0.9999395620857793
 40
0.9999414890032862
 40
0.9999424524626737
 40
0.9999434159224813
 40
0.9999502132908483
 40
1.0
 40
1.0
 40
1.0
 40
1.0
 10
125.8845698910209
 20
148.2656756097307
 30
0.0
 10
125.8609982456773
 20
148.2603661300809
 30
0.0
 10
125.8133040896322
 20
148.2496230891414
 30
0.0
 10
125.4212621002067
 20
148.1643939526859
 30
0.0
 10
124.8307480509365
 20
148.0398251740451
 30
0.0
 10
124.0267106048914
 20
147.8868782278933
 30
0.0
 10
123.0506352047099
 20
147.7251216739398
 30
0.0
 10
121.9288264694294
 20
147.5728889060075
 30
0.0
 10
120.7152955496421
 20
147.4451089648062
 30
0.0
 10
119.4504648432429
 20
147.3572604131235
 30
0.0
 10
118.1824218058002
 20
147.3148749292529
 30
0.0
 10
116.9589144480991
 20
147.3186107372246
 30
0.0
 10
115.8254159076851
 20
147.3572062076727
 30
0.0
 10
114.8393100967108
 20
147.4216455789638
 30
0.0
 10
114.0306822879238
 20
147.495155386245
 30
0.0
 10
113.4340635928141
 20
147.5624690710568
 30
0.0
 10
113.1186723033575
 20
147.6004336223246
 30
0.0
 10
113.008605734557
 20
147.6142326816568
 30
0.0
 10
112.9811863467464
 20
147.6177187555769
 30
0.0
 10
112.9742642959118
 20
147.618597981271
 30
0.0
 10
112.9724960557355
 20
147.6188187558764
 30
0.0
 10
112.9720356765521
 20
147.6188739585884
 30
0.0
 10
112.9719115178815
 20
147.6188876983737
 30
0.0
 10
112.9718759633682
 20
147.6188910942072
 30
0.0
 10
112.9718648193265
 20
147.618891922524
 30
0.0
 10
112.9718609060903
 20
147.6188921191177
 30
0.0
 10
112.9718593639421
 20
147.6188921630408
 30
0.0
 10
112.9718586968607
 20
147.6188921713574
 30
0.0
 10
112.9718583887957
 20
147.6188921721737
 30
0.0
 10
112.9718582418705
 20
147.6188921716483
 30
0.0
 10
112.9718581691427
 20
147.6188921712905
 30
0.0
 10
112.9718581344331
 20
147.6188921708927
 30
0.0
 10
112.9718581126997
 20
147.6188921709175
 30
0.0
 10
112.9718580808446
 20
147.6188921686729
 30
0.0
 10
112.9718561315039
 20
147.6188923846188
 30
0.0
 10
112.9718830663667
 20
147.6188889034882
 30
0.0
 10
112.971906765581
 20
147.6188858405411
 30
0.0
  0
SPLINE
  5
A0
330
1F
100
AcDbEntity
  8
0
  6
Continuous
 62
     7
370
    15
100
AcDbSpline
210
0.0
220
0.0
230
1.0
 70
     8
 71
     3
 72
    20
 73
    16
 74
     0
 42
0.00000001
 43
0.00000001
 40
0.0
 40
0.0
 40
0.0
 40
0.0
 40
0.249999999999986
 40
0.249999999999986
 40
0.3749999999999789
 40
0.3749999999999789
 40
0.4374999999999789
 40
0.4374999999999789
 40
0.4999999999999789
 40
0.4999999999999789
 40
0.6249999999999835
 40
0.6249999999999835
 40
0.7499999999999879
 40
0.7499999999999879
 40
1.0
 40
1.0
 40
1.0
 40
1.0
 10
84.84341597951234
 20
80.00909659358985
 30
0.0
 10
84.86968819672575
 20
80.02841453467231
 30
0.0
 10
84.90036833898058
 20
80.0428032457741
 30
0.0
 10
84.9718392093625
 20
80.03589888393809
 30
0.0
 10
84.99986624640685
 20
80.02873288058966
 30
0.0
 10
85.05494983590435
 20
79.99903385388608
 30
0.0
 10
85.07584116445678
 20
79.98556021132474
 30
0.0
 10
85.12104981190224
 20
79.95036194580872
 30
0.0
 10
85.1454540242978
 20
79.92845371708145
 30
0.0
 10
85.21678634234925
 20
79.85632885708591
 30
0.0
 10
85.25868312716953
 20
79.80398831613586
 30
0.0
 10
85.3302590860254
 20
79.70650492423512
 30
0.0
 10
85.36108707584269
 20
79.6597511543567
 30
0.0
 10
85.44418700867827
 20
79.52645793851758
 30
0.0
 10
85.48904191404857
 20
79.44382054060236
 30
0.0
 10
85.52915398950114
 20
79.36471364581159
 30
0.0
  0
SPLINE
  5
A1
330
1F
100
AcDbEntity
  8
0
  6
Continuous
 62
     7
370
    15
100
AcDbSpline
210
0.0
220
0.0
230
1.0
 70
     8
 71
     3
 72
    14
 73
    10
 74
     0
 42
0.00000001
 43
0.00000001
 40
0.0
 40
0.0
 40
0.0
 40
0.0
 40
0.25
 40
0.25
 40
0.5
 40
0.5
 40
0.75
 40
0.75
 40
1.0
 40
1.0
 40
1.0
 40
1.0
 10
84.55260174779633
 20
80.18491000372263
 30
0.0
 10
84.55260174779634
 20
80.14366307269829
 30
0.0
 10
84.56121146417759
 20
80.10675610041581
 30
0.0
 10
84.59229764374793
 20
80.0458560405164
 30
0.0
 10
84.61468719723199
 20
80.0216751209767
 30
0.0
 10
84.6694311284081
 20
79.98770753009345
 30
0.0
 10
84.7018813679933
 20
79.97778744612526
 30
0.0
 10
84.77188288272136
 20
79.97643623722041
 30
0.0
 10
84.8100933828439
 20
79.98459451391656
 30
0.0
 10
84.84341597951699
 20
80.00909659358466
 30
0.0
  0
LINE
  5
A2
330
1F
100
AcDbEntity
  8
0
  6
Continuous
 62
     7
370
    15
100
AcDbLine
 10
84.5526017478
 20
80.1849100037
 30
0.0
 11
84.5526017478
 21
141.1902494889
 31
0.0
  0
SPLINE
  5
A3
330
1F
100
AcDbEntity
  8
0
  6
Continuous
 62
     7
370
    15
100
AcDbSpline
210
0.0
220
0.0
230
1.0
 70
     8
 71
     3
 72
     9
 73
     5
 74
     0
 42
0.00000001
 43
0.00000001
 40
0.0
 40
0.0
 40
0.0
 40
0.0
 40
0.0592950272321202
 40
1.0
 40
1.0
 40
1.0
 40
1.0
 10
84.84341597951698
 20
141.3660628989964
 30
0.0
 10
84.83853313805479
 20
141.3693557443899
 30
0.0
 10
84.75618489250844
 20
141.4248889913956
 30
0.0
 10
84.69005284202692
 20
141.3675995888831
 30
0.0
 10
84.6278420932796
 20
141.3137071630526
 30
0.0
  0
SPLINE
  5
A4
330
1F
100
AcDbEntity
  8
0
  6
Continuous
 62
     7
370
    15
100
AcDbSpline
210
0.0
220
0.0
230
1.0
 70
     8
 71
     3
 72
     8
 73
     4
 74
     0
 42
0.00000001
 43
0.00000001
 40
0.0
 40
0.0
 40
0.0
 40
0.0
 40
1.0
 40
1.0
 40
1.0
 40
1.0
 10
84.57623541673254
 20
141.2978289899281
 30
0.0
 10
84.5608863780965
 20
141.2673189349322
 30
0.0
 10
84.55260174779633
 20
141.2310073794199
 30
0.0
 10
84.55260174779633
 20
141.1902494888585
 30
0.0
  0
SPLINE
  5
A5
330
1F
100
AcDbEntity
  8
0
  6
Continuous
 62
     7
370
    15
100
AcDbSpline
210
0.0
220
0.0
230
1.0
 70
     8
 71
     3
 72
    20
 73
    16
 74
     0
 42
0.00000001
 43
0.00000001
 40
0.0
 40
0.0
 40
0.0
 40
0.0
 40
0.2500000000000037
 40
0.2500000000000037
 40
0.3750000000000055
 40
0.3750000000000055
 40
0.5000000000000073
 40
0.5000000000000073
 40
0.5625000000000057
 40
0.5625000000000057
 40
0.625000000000004
 40
0.625000000000004
 40
0.7500000000000027
 40
0.7500000000000027
 40
1.0
 40
1.0
 40
1.0
 40
1.0
 10
85.52915398949875
 20
142.0104458467687
 30
0.0
 10
85.48915777167493
 20
141.9315674402113
 30
0.0
 10
85.44404414383727
 20
141.8484377935198
 30
0.0
 10
85.36078992947074
 20
141.7149491291688
 30
0.0
 10
85.33057060085024
 20
141.6690840732869
 30
0.0
 10
85.25848236570882
 20
141.570892520882
 30
0.0
 10
85.21656504829772
 20
141.5185827013584
 30
0.0
 10
85.14531444374626
 20
141.4465767986239
 30
0.0
 10
85.12107863136694
 20
141.4248065863223
 30
0.0
 10
85.0754804411823
 20
141.3893319279933
 30
0.0
 10
85.05467795158259
 20
141.3759617438157
 30
0.0
 10
84.99973695316346
 20
141.3463918316805
 30
0.0
 10
84.97166796507666
 20
141.3392653093785
 30
0.0
 10
84.90116513501383
 20
141.3323909378958
 30
0.0
 10
84.86974104722294
 20
141.346706096983
 30
0.0
 10
84.84341597951435
 20
141.3660628989936
 30
0.0
  0
SPLINE
  5
A6
330
1F
100
AcDbEntity
  8
0
  6
Continuous
 62
     7
370
    15
100
AcDbSpline
210
0.0
220
0.0
230
1.0
 70
     8
 71
     3
 72
    10
 73
     6
 74
     0
 42
0.00000001
 43
0.00000001
 40
0.0
 40
0.0
 40
0.0
 40
0.0
 40
0.4999999999999989
 40
0.4999999999999989
 40
1.0
 40
1.0
 40
1.0
 40
1.0
 10
86.20260174779634
 20
142.9358649481105
 30
0.0
 10
86.07771347704615
 20
142.8048686700391
 30
0.0
 10
85.9562633589857
 20
142.6611558333741
 30
0.0
 10
85.72667938402826
 20
142.3505855406848
 30
0.0
 10
85.61640440863228
 20
142.1825164676218
 30
0.0
 10
85.52915398949875
 20
142.0104458467687
 30
0.0
  0
SPLINE
  5
A7
330
1F
100
AcDbEntity
  8
0
  6
Continuous
 62
     7
370
    15
100
AcDbSpline
210
0.0
220
0.0
230
1.0
 70
     8
 71
     3
 72
     8
 73
     4
 74
     0
 42
0.00000001
 43
0.00000001
 40
0.0
 40
0.0
 40
0.0
 40
0.0
 40
1.0
 40
1.0
 40
1.0
 40
1.0
 10
86.45252686376206
 20
142.9334119148552
 30
0.0
 10
86.36550883391371
 20
142.9338784796422
 30
0.0
 10
86.28255480753377
 20
142.9349184992184
 30
0.0
 10
86.20260174779402
 20
142.9358649481106
 30
0.0
  0
SPLINE
  5
A8
330
1F
100
AcDbEntity
  8
0
  6
Continuous
 62
     7
370
    15
100
AcDbSpline
210
0.0
220
0.0
230
1.0
 70
     8
 71
     3
 72
     8
 73
     4
 74
     0
 42
0.00000001
 43
0.00000001
 40
0.0
 40
0.0
 40
0.0
 40
0.0
 40
1.0
 40
1.0
 40
1.0
 40
1.0
 10
86.20260174779402
 20
78.43929454447047
 30
0.0
 10
86.2825548075343
 20
78.44024099336275
 30
0.0
 10
86.36550883391477
 20
78.44128101293887
 30
0.0
 10
86.45252686376375
 20
78.44174757772595
 30
0.0
  0
SPLINE
  5
A9
330
1F
100
AcDbEntity
  8
0
  6
Continuous
 62
     7
370
    15
100
AcDbSpline
210
0.0
220
0.0
230
1.0
 70
     8
 71
     3
 72
    10
 73
     6
 74
     0
 42
0.00000001
 43
0.00000001
 40
0.0
 40
0.0
 40
0.0
 40
0.0
 40
0.4999999999999989
 40
0.4999999999999989
 40
1.0
 40
1.0
 40
1.0
 40
1.0
 10
85.52915398949783
 20
79.36471364581415
 30
0.0
 10
85.6164044086313
 20
79.19264302496079
 30
0.0
 10
85.72667938402746
 20
79.02457395189735
 30
0.0
 10
85.9562633589853
 20
78.71400365920752
 30
0.0
 10
86.07771347704593
 20
78.57029082254226
 30
0.0
 10
86.20260174779634
 20
78.43929454447054
 30
0.0
  0
SPLINE
  5
AA
330
1F
100
AcDbEntity
  8
0
  6
Continuous
 62
     7
370
    15
100
AcDbSpline
210
0.0
220
0.0
230
1.0
 70
     8
 71
     3
 72
     8
 73
     4
 74
     0
 42
0.00000001
 43
0.00000001
 40
0.0
 40
0.0
 40
0.0
 40
0.0
 40
1.0
 40
1.0
 40
1.0
 40
1.0
 10
151.1905727268749
 20
149.6385425071775
 30
0.0
 10
151.6474990806745
 20
148.6226245375032
 30
0.0
 10
152.0987047224775
 20
147.603828708412
 30
0.0
 10
152.5426017477963
 20
146.5830272524284
 30
0.0
  0
LINE
  5
AB
330
1F
100
AcDbEntity
  8
0
  6
Continuous
 62
     7
370
    15
100
AcDbLine
 10
152.5426017478
 20
146.5830272524
 30
0.0
 11
152.5426017478
 21
145.4018149388
 31
0.0
  0
SPLINE
  5
AC
330
1F
100
AcDbEntity
  8
0
  6
Continuous
 62
     7
370
    15
100
AcDbSpline
210
0.0
220
0.0
230
1.0
 70
     8
 71
     3
 72
    14
 73
    10
 74
     0
 42
0.00000001
 43
0.00000001
 40
0.0
 40
0.0
 40
0.0
 40
0.0
 40
0.25
 40
0.25
 40
0.5
 40
0.5
 40
0.75
 40
0.75
 40
1.0
 40
1.0
 40
1.0
 40
1.0
 10
152.5426017477963
 20
145.4018149387876
 30
0.0
 10
152.5426017477963
 20
145.2779480619984
 30
0.0
 10
152.5584608754239
 20
145.1536883851609
 30
0.0
 10
152.6218225209438
 20
144.916080022755
 30
0.0
 10
152.6704122289932
 20
144.7992996380026
 30
0.0
 10
152.802697833768
 20
144.5904971093936
 30
0.0
 10
152.8880226250286
 20
144.4959864058009
 30
0.0
 10
153.0949138733348
 20
144.3580296049986
 30
0.0
 10
153.2188818192248
 20
144.316111159363
 30
0.0
 10
153.3426017477963
 20
144.316111159363
 30
0.0
  0
LINE
  5
AD
330
1F
100
AcDbEntity
  8
0
  6
Continuous
 62
     7
370
    15
100
AcDbLine
 10
153.3426017478
 20
144.3161111594
 30
0.0
 11
155.5626017478
 21
144.3161111594
 31
0.0
  0
SPLINE
  5
AE
330
1F
100
AcDbEntity
  8
0
  6
Continuous
 62
     7
370
    15
100
AcDbSpline
210
0.0
220
0.0
230
1.0
 70
     8
 71
     3
 72
    12
 73
     8
 74
     0
 42
0.00000001
 43
0.00000001
 40
0.0
 40
0.0
 40
0.0
 40
0.0
 40
0.250000000000002
 40
0.250000000000002
 40
0.500000000000004
 40
0.500000000000004
 40
1.0
 40
1.0
 40
1.0
 40
1.0
 10
155.5626017477963
 20
144.3161111593631
 30
0.0
 10
155.6863026977763
 20
144.3161111593631
 30
0.0
 10
155.8103993100465
 20
144.3581047710956
 30
0.0
 10
156.0170544731335
 20
144.49590009774
 30
0.0
 10
156.1020952398604
 20
144.5898736962048
 30
0.0
 10
156.301573808334
 20
144.9046619024258
 30
0.0
 10
156.3626017477963
 20
145.1549008946534
 30
0.0
 10
156.3626017477963
 20
145.4018149387876
 30
0.0
  0
LINE
  5
AF
330
1F
100
AcDbEntity
  8
0
  6
Continuous
 62
     7
370
    15
100
AcDbLine
 10
156.3626017478
 20
145.4018149388
 30
0.0
 11
156.3626017478
 21
146.5830272524
 31
0.0
  0
SPLINE
  5
B0
330
1F
100
AcDbEntity
  8
0
  6
Continuous
 62
     7
370
    15
100
AcDbSpline
210
0.0
220
0.0
230
1.0
 70
     8
 71
     3
 72
     8
 73
     4
 74
     0
 42
0.00000001
 43
0.00000001
 40
0.0
 40
0.0
 40
0.0
 40
0.0
 40
1.0
 40
1.0
 40
1.0
 40
1.0
 10
156.3626017477963
 20
146.5830272524284
 30
0.0
 10
156.8067517588218
 20
147.60441048338
 30
0.0
 10
157.2578260690798
 20
148.6228950201483
 30
0.0
 10
157.7146307687177
 20
149.6385425071775
 30
0.0
  0
LINE
  5
B1
330
1F
100
AcDbEntity
  8
0
  6
Continuous
 62
     7
370
    15
100
AcDbLine
 10
157.7146307687
 20
149.6385425072
 30
0.0
 11
162.4026017478
 21
149.6385425072
 31
0.0
  0
SPLINE
  5
B2
330
1F
100
AcDbEntity
  8
0
  6
Continuous
 62
     7
370
    15
100
AcDbSpline
210
0.0
220
0.0
230
1.0
 70
     8
 71
     3
 72
    16
 73
    12
 74
     0
 42
0.00000001
 43
0.00000001
 40
0.0
 40
0.0
 40
0.0
 40
0.0
 40
0.1249999999999978
 40
0.1249999999999978
 40
0.2499999999999955
 40
0.2499999999999955
 40
0.499999999999997
 40
0.499999999999997
 40
0.7499999999999984
 40
0.7499999999999984
 40
1.0
 40
1.0
 40
1.0
 40
1.0
 10
162.4026017477963
 20
149.6385425071775
 30
0.0
 10
162.4782394542075
 20
149.6385425071775
 30
0.0
 10
162.5545551186257
 20
149.6271975070426
 30
0.0
 10
162.6989658565177
 20
149.584544956404
 30
0.0
 10
162.7674123056261
 20
149.5536106317212
 30
0.0
 10
162.9623435582392
 20
149.4343542599536
 30
0.0
 10
163.0701847320202
 20
149.324202246333
 30
0.0
 10
163.2388974802322
 20
149.0760661606749
 30
0.0
 10
163.3012618929557
 20
148.9357238366713
 30
0.0
 10
163.3825658174641
 20
148.6474521451826
 30
0.0
 10
163.4026017477963
 20
148.4966471722028
 30
0.0
 10
163.4026017477963
 20
148.3462772808575
 30
0.0
  0
LINE
  5
B3
330
1F
100
AcDbEntity
  8
0
  6
Continuous
 62
     7
370
    15
100
AcDbLine
 10
163.4026017478
 20
148.3462772809
 30
0.0
 11
163.4026017478
 21
142.0375797463
 31
0.0
  0
SPLINE
  5
B4
330
1F
100
AcDbEntity
  8
0
  6
Continuous
 62
     7
370
    15
100
AcDbSpline
210
0.0
220
0.0
230
1.0
 70
     8
 71
     3
 72
     8
 73
     4
 74
     0
 42
0.00000001
 43
0.00000001
 40
0.0
 40
0.0
 40
0.0
 40
0.0
 40
1.0
 40
1.0
 40
1.0
 40
1.0
 10
152.5426017477963
 20
157.2848506069954
 30
0.0
 10
152.0922935121118
 20
158.0825657321091
 30
0.0
 10
151.6415996955882
 20
158.8800640317662
 30
0.0
 10
151.1905727268749
 20
159.6773746019541
 30
0.0
  0
LINE
  5
B5
330
1F
100
AcDbEntity
  8
0
  6
Continuous
 62
     7
370
    15
100
AcDbLine
 10
152.5426017478
 20
146.5830272524
 30
0.0
 11
152.5426017478
 21
157.284850607
 31
0.0
  0
SPLINE
  5
B6
330
1F
100
AcDbEntity
  8
0
  6
Continuous
 62
     7
370
    15
100
AcDbSpline
210
0.0
220
0.0
230
1.0
 70
     8
 71
     3
 72
    12
 73
     8
 74
     0
 42
0.00000001
 43
0.00000001
 40
0.0
 40
0.0
 40
0.0
 40
0.0
 40
0.4999999999999953
 40
0.4999999999999953
 40
0.7499999999999977
 40
0.7499999999999977
 40
1.0
 40
1.0
 40
1.0
 40
1.0
 10
163.4026017477963
 20
158.6563195671364
 30
0.0
 10
163.4026017477963
 20
158.9215889999028
 30
0.0
 10
163.2979950043099
 20
159.1841041055552
 30
0.0
 10
163.0213266525646
 20
159.4696417115925
 30
0.0
 10
162.9109613932126
 20
159.5459633284539
 30
0.0
 10
162.6668893445968
 20
159.650305493294
 30
0.0
 10
162.5351368832651
 20
159.6773746019541
 30
0.0
 10
162.4026017477963
 20
159.6773746019541
 30
0.0
  0
LINE
  5
B7
330
1F
100
AcDbEntity
  8
0
  6
Continuous
 62
     7
370
    15
100
AcDbLine
 10
163.4026017478
 20
148.3462772809
 30
0.0
 11
163.4026017478
 21
158.6563195671
 31
0.0
  0
SPLINE
  5
B8
330
1F
100
AcDbEntity
  8
0
  6
Continuous
 62
     7
370
    15
100
AcDbSpline
210
0.0
220
0.0
230
1.0
 70
     8
 71
     3
 72
     8
 73
     4
 74
     0
 42
0.00000001
 43
0.00000001
 40
0.0
 40
0.0
 40
0.0
 40
0.0
 40
1.0
 40
1.0
 40
1.0
 40
1.0
 10
157.7146307687177
 20
159.6773746019541
 30
0.0
 10
157.2636038000045
 20
158.8800640317662
 30
0.0
 10
156.8129099834809
 20
158.0825657321091
 30
0.0
 10
156.3626017477963
 20
157.2848506069954
 30
0.0
  0
LINE
  5
B9
330
1F
100
AcDbEntity
  8
0
  6
Continuous
 62
     7
370
    15
100
AcDbLine
 10
157.7146307687
 20
149.6385425072
 30
0.0
 11
157.7146307687
 21
159.677374602
 31
0.0
  0
LINE
  5
BA
330
1F
100
AcDbEntity
  8
0
  6
Continuous
 62
     7
370
    15
100
AcDbLine
 10
156.3626017478
 20
146.5830272524
 30
0.0
 11
156.3626017478
 21
157.284850607
 31
0.0
  0
SPLINE
  5
BB
330
1F
100
AcDbEntity
  8
0
  6
Continuous
 62
     7
370
    15
100
AcDbSpline
210
0.0
220
0.0
230
1.0
 70
     8
 71
     3
 72
    10
 73
     6
 74
     0
 42
0.00000001
 43
0.00000001
 40
0.0
 40
0.0
 40
0.0
 40
0.0
 40
0.5
 40
0.5
 40
1.0
 40
1.0
 40
1.0
 40
1.0
 10
153.3426017477963
 20
155.561855506463
 30
0.0
 10
153.13006543394
 20
155.561855506463
 30
0.0
 10
152.920129262286
 20
155.6532680930931
 30
0.0
 10
152.6264221212747
 20
155.9580129589974
 30
0.0
 10
152.5426017477963
 20
156.170167928906
 30
0.0
 10
152.5426017477963
 20
156.3811309871385
 30
0.0
  0
SPLINE
  5
BC
330
1F
100
AcDbEntity
  8
0
  6
Continuous
 62
     7
370
    15
100
AcDbSpline
210
0.0
220
0.0
230
1.0
 70
     8
 71
     3
 72
    14
 73
    10
 74
     0
 42
0.00000001
 43
0.00000001
 40
0.0
 40
0.0
 40
0.0
 40
0.0
 40
0.25
 40
0.25
 40
0.5
 40
0.5
 40
0.75
 40
0.75
 40
1.0
 40
1.0
 40
1.0
 40
1.0
 10
156.3626017477963
 20
156.3811309871385
 30
0.0
 10
156.3626017477963
 20
156.2747742933862
 30
0.0
 10
156.3422141916551
 20
156.1689338056261
 30
0.0
 10
156.2635798461936
 20
155.9723688920896
 30
0.0
 10
156.2048484865549
 20
155.8811981498025
 30
0.0
 10
156.0582395809523
 20
155.7292870607709
 30
0.0
 10
155.9688342609258
 20
155.6672182239513
 30
0.0
 10
155.7749435283255
 20
155.5839501761926
 30
0.0
 10
155.6684385384357
 20
155.561855506463
 30
0.0
 10
155.5626017477964
 20
155.561855506463
 30
0.0
  0
LINE
  5
BD
330
1F
100
AcDbEntity
  8
0
  6
Continuous
 62
     7
370
    15
100
AcDbLine
 10
162.4026017478
 20
159.677374602
 30
0.0
 11
157.7146307687
 21
159.677374602
 31
0.0
  0
LINE
  5
BE
330
1F
100
AcDbEntity
  8
0
  6
Continuous
 62
     7
370
    15
100
AcDbLine
 10
155.5626017478
 20
155.5618555065
 30
0.0
 11
153.3426017478
 21
155.5618555065
 31
0.0
  0
ARC
  5
BF
330
1F
100
AcDbEntity
  8
0
  6
Continuous
 62
     7
370
    15
100
AcDbCircle
 10
143.4519913983
 20
143.198935485
 30
0.0
 40
11.50331444617436
100
AcDbArc
 50
77.8954183428
 51
101.9535316326
  0
SPLINE
  5
C0
330
1F
100
AcDbEntity
  8
0
  6
Continuous
 62
     7
370
    15
100
AcDbSpline
210
0.0
220
0.0
230
1.0
 70
     8
 71
     3
 72
    39
 73
    35
 74
     0
 42
0.00000001
 43
0.00000001
 40
-0.0927617886639913
 40
-0.0616743377207727
 40
-0.0305000762237047
 40
0.0
 40
0.0305246490384811
 40
0.0617091123274741
 40
0.0928114042028392
 40
0.1239166645987863
 40
0.155109744853857
 40
0.1867024395609558
 40
0.2185028643369631
 40
0.249929786455635
 40
0.2813812011889788
 40
0.3132533287757983
 40
0.3449219026485201
 40
0.3761678706300229
 40
0.4072644120174586
 40
0.4383207438064716
 40
0.4694504179500641
 40
0.5000106032944084
 40
0.5305632149021476
 40
0.561734187952272
 40
0.5928054546986152
 40
0.6239201523279307
 40
0.6551420271758376
 40
0.686788168994005
 40
0.718608051522435
 40
0.7500598449507654
 40
0.7814816996031232
 40
0.8133257226904314
 40
0.8449400523414601
 40
0.8761556140443499
 40
0.9072382113360087
 40
0.9383256622792273
 40
0.9694999237762953
 40
1.0
 40
1.030524649038481
 40
1.061709112327474
 40
1.092811404202839
 10
193.6140314956233
 20
104.6999395483832
 30
0.0
 10
192.4522879707032
 20
104.5810574647818
 30
0.0
 10
191.2904410019518
 20
104.7001418465474
 30
0.0
 10
190.1757534990461
 20
105.0572600291
 30
0.0
 10
189.1461733907021
 20
105.617829287831
 30
0.0
 10
188.2535844710775
 20
106.3729567022999
 30
0.0
 10
187.5202887035408
 20
107.2915215147991
 30
0.0
 10
186.9769744096404
 20
108.3474181552356
 30
0.0
 10
186.6317240511328
 20
109.4923819813261
 30
0.0
 10
186.5173691176695
 20
110.6851494472469
 30
0.0
 10
186.6324350634195
 20
111.8787396925359
 30
0.0
 10
186.9781626278644
 20
113.025781163685
 30
0.0
 10
187.521794229648
 20
114.0843359632979
 30
0.0
 10
188.2556515815596
 20
115.0043890437331
 30
0.0
 10
189.1479429346971
 20
115.7597775028411
 30
0.0
 10
190.1762551552877
 20
116.319892461789
 30
0.0
 10
191.2905570250351
 20
116.6757739364988
 30
0.0
 10
192.452861430254
 20
116.793910909791
 30
0.0
 10
193.6156563932832
 20
116.6754264304532
 30
0.0
 10
194.7303889799431
 20
116.3189120592976
 30
0.0
 10
195.7594587634336
 20
115.7582496732337
 30
0.0
 10
196.6515140449791
 20
115.0023611894181
 30
0.0
 10
197.3847261638095
 20
114.0822805823568
 30
0.0
 10
197.9276628893735
 20
113.0247413415977
 30
0.0
 10
198.2727061837465
 20
111.8784904102184
 30
0.0
 10
198.3878204511478
 20
110.6856533974098
 30
0.0
 10
198.2736034862425
 20
109.4923605949068
 30
0.0
 10
197.9278622086283
 20
108.3467368270143
 30
0.0
 10
197.3840157740587
 20
107.2898861393518
 30
0.0
 10
196.6501307316745
 20
106.3714104582034
 30
0.0
 10
195.7573247982637
 20
105.6168451059509
 30
0.0
 10
194.7281258518236
 20
105.0568605123458
 30
0.0
 10
193.6140314956233
 20
104.6999395483832
 30
0.0
 10
192.4522879707032
 20
104.5810574647818
 30
0.0
 10
191.2904410019518
 20
104.7001418465474
 30
0.0
  0
LINE
  5
C1
330
1F
100
AcDbEntity
  8
0
  6
Continuous
 62
     7
370
    15
100
AcDbLine
 10
201.5855602247
 20
89.6875797463
 30
0.0
 11
201.5855602247
 21
131.6875797463
 31
0.0
  0
LINE
  5
C2
330
1F
100
AcDbEntity
  8
0
  6
Continuous
 62
     7
370
    15
100
AcDbLine
 10
174.0494589645
 20
131.5623976369
 30
0.0
 11
174.2207705623
 21
131.550525695
 31
0.0
  0
SPLINE
  5
C3
330
1F
100
AcDbEntity
  8
0
  6
Continuous
 62
     7
370
    15
100
AcDbSpline
210
0.0
220
0.0
230
1.0
 70
     8
 71
     3
 72
    17
 73
    13
 74
     0
 42
0.00000001
 43
0.00000001
 40
0.0
 40
0.0
 40
0.0
 40
0.0
 40
0.0542202894766767
 40
0.1420892182871308
 40
0.2345666524162096
 40
0.3374089948943938
 40
0.4519628983876227
 40
0.5747573081170002
 40
0.7000390424374547
 40
0.8214998011125978
 40
0.9315117978015316
 40
1.0
 40
1.0
 40
1.0
 40
1.0
 10
179.8617584461251
 20
131.6823298350228
 30
0.0
 10
179.8664488792856
 20
131.682915584305
 30
0.0
 10
179.8787405875674
 20
131.6844505937713
 30
0.0
 10
179.543191391269
 20
131.6419672506433
 30
0.0
 10
178.9306007970447
 20
131.5751553733552
 30
0.0
 10
178.0260764986164
 20
131.5008641571168
 30
0.0
 10
176.8841287022647
 20
131.4520001257398
 30
0.0
 10
175.6141507502486
 20
131.4586110934397
 30
0.0
 10
174.3998699968962
 20
131.52612214961
 30
0.0
 10
173.4716944703404
 20
131.6162839797037
 30
0.0
 10
172.9540107543426
 20
131.6808277513149
 30
0.0
 10
172.9433994937924
 20
131.6823070724364
 30
0.0
 10
172.9393280912804
 20
131.6828746686896
 30
0.0
  0
SPLINE
  5
C4
330
1F
100
AcDbEntity
  8
0
  6
Continuous
 62
     7
370
    15
100
AcDbSpline
210
0.0
220
0.0
230
1.0
 70
     8
 71
     3
 72
     9
 73
     5
 74
     0
 42
0.00000001
 43
0.00000001
 40
0.0
 40
0.0
 40
0.0
 40
0.0
 40
0.2980247898909205
 40
0.9999999999999999
 40
0.9999999999999999
 40
0.9999999999999999
 40
0.9999999999999999
 10
173.5511154364647
 20
131.6118919175547
 30
0.0
 10
173.5897433143616
 20
131.6074630390338
 30
0.0
 10
173.7193562835078
 20
131.5926022668057
 30
0.0
 10
173.9133089791357
 20
131.5748554542929
 30
0.0
 10
174.0494589634003
 20
131.5623976318504
 30
0.0
  0
SPLINE
  5
C5
330
1F
100
AcDbEntity
  8
0
  6
Continuous
 62
     7
370
    15
100
AcDbSpline
210
0.0
220
0.0
230
1.0
 70
     8
 71
     3
 72
    70
 73
    66
 74
     0
 42
0.00000001
 43
0.00000001
 40
-0.03125
 40
-0.03125
 40
0.0
 40
0.0
 40
0.03125
 40
0.03125
 40
0.0625
 40
0.0625
 40
0.09375
 40
0.09375
 40
0.125
 40
0.125
 40
0.15625
 40
0.15625
 40
0.1875
 40
0.1875
 40
0.21875
 40
0.21875
 40
0.25
 40
0.25
 40
0.28125
 40
0.28125
 40
0.3125
 40
0.3125
 40
0.34375
 40
0.34375
 40
0.375
 40
0.375
 40
0.40625
 40
0.40625
 40
0.4375
 40
0.4375
 40
0.46875
 40
0.46875
 40
0.5
 40
0.5
 40
0.53125
 40
0.53125
 40
0.5625
 40
0.5625
 40
0.59375
 40
0.59375
 40
0.625
 40
0.625
 40
0.65625
 40
0.65625
 40
0.6875
 40
0.6875
 40
0.71875
 40
0.71875
 40
0.75
 40
0.75
 40
0.78125
 40
0.78125
 40
0.8125
 40
0.8125
 40
0.84375
 40
0.84375
 40
0.875
 40
0.875
 40
0.90625
 40
0.90625
 40
0.9375
 40
0.9375
 40
0.96875
 40
0.96875
 40
1.0
 40
1.0
 40
1.03125
 40
1.03125
 10
173.8801735794963
 20
112.8403778538134
 30
0.0
 10
174.2187443495366
 20
113.1138550132519
 30
0.0
 10
174.3982307525135
 20
113.2324385607404
 30
0.0
 10
174.7757286347471
 20
113.436821148332
 30
0.0
 10
174.975066931092
 20
113.5230027838954
 30
0.0
 10
175.3867069218102
 20
113.6601859996253
 30
0.0
 10
175.5960589441678
 20
113.7104682845282
 30
0.0
 10
176.0215201934718
 20
113.7761124518267
 30
0.0
 10
176.2395721772981
 20
113.7913748232195
 30
0.0
 10
176.6724806116601
 20
113.7854488043863
 30
0.0
 10
176.8864595260916
 20
113.7646568484833
 30
0.0
 10
177.3095275230736
 20
113.6878067815974
 30
0.0
 10
177.5205944656618
 20
113.6309650707313
 30
0.0
 10
177.9266924102581
 20
113.4829330659701
 30
0.0
 10
178.1210977401297
 20
113.3924383745697
 30
0.0
 10
178.4923293073318
 20
113.1777722879161
 30
0.0
 10
178.6710082906708
 20
113.0519478769048
 30
0.0
 10
178.9984294184648
 20
112.7707199376683
 30
0.0
 10
179.1467219009812
 20
112.6164242837723
 30
0.0
 10
179.4109004661016
 20
112.2789214257259
 30
0.0
 10
179.528007174255
 20
112.0927924788757
 30
0.0
 10
179.715589267552
 20
111.704505969938
 30
0.0
 10
179.7870479124476
 20
111.502353137127
 30
0.0
 10
179.8825368796219
 20
111.0809898299345
 30
0.0
 10
179.905566108008
 20
110.8616113639848
 30
0.0
 10
179.8990079206825
 20
110.4308550001601
 30
0.0
 10
179.8696985466196
 20
110.2138985686359
 30
0.0
 10
179.7611373425621
 20
109.793138458902
 30
0.0
 10
179.6832491262831
 20
109.5919874358121
 30
0.0
 10
179.4831095079797
 20
109.2069757952511
 30
0.0
 10
179.3614735753319
 20
109.0253858213153
 30
0.0
 10
179.0864458688548
 20
108.6933666916487
 30
0.0
 10
178.9303324183234
 20
108.5397784253287
 30
0.0
 10
178.5945362048773
 20
108.2671427479631
 30
0.0
 10
178.4152610559242
 20
108.1477570971389
 30
0.0
 10
178.0351562120148
 20
107.940885339253
 30
0.0
 10
177.8342635972469
 20
107.8538914373056
 30
0.0
 10
177.4255726905982
 20
107.7169820424483
 30
0.0
 10
177.216034714447
 20
107.6660369281273
 30
0.0
 10
176.7865286105155
 20
107.5992097348645
 30
0.0
 10
176.5692569080078
 20
107.5840038671381
 30
0.0
 10
176.1387354794422
 20
107.5893655064919
 30
0.0
 10
175.9240987019634
 20
107.6096996075598
 30
0.0
 10
175.4961218777253
 20
107.6871043489586
 30
0.0
 10
175.2863940100051
 20
107.7437381718267
 30
0.0
 10
174.8826987991657
 20
107.8905083486607
 30
0.0
 10
174.6875244199574
 20
107.9808280388039
 30
0.0
 10
174.3115323649166
 20
108.1980798039899
 30
0.0
 10
174.1342569466646
 20
108.3232902959887
 30
0.0
 10
173.8090990400618
 20
108.6023118541717
 30
0.0
 10
173.6599249691909
 20
108.7567896787637
 30
0.0
 10
173.3917424010849
 20
109.099611374814
 30
0.0
 10
173.2768513698847
 20
109.283134711795
 30
0.0
 10
173.0902358436407
 20
109.6693132217029
 30
0.0
 10
173.0172666455694
 20
109.8752704875801
 30
0.0
 10
172.9217315726753
 20
110.2997822132951
 30
0.0
 10
172.8995219366279
 20
110.5140995970723
 30
0.0
 10
172.9063594130484
 20
110.9468723579592
 30
0.0
 10
172.9364123569199
 20
111.165821042307
 30
0.0
 10
173.0448537208806
 20
111.5840138070218
 30
0.0
 10
173.1242303922213
 20
111.7884929931293
 30
0.0
 10
173.3253535871928
 20
112.1734853643359
 30
0.0
 10
173.4457231577962
 20
112.3527169327928
 30
0.0
 10
173.7232459172433
 20
112.6866614709366
 30
0.0
 10
173.8801735794963
 20
112.8403778538134
 30
0.0
 10
174.2187443495366
 20
113.1138550132519
 30
0.0
  0
LINE
  5
C6
330
1F
100
AcDbEntity
  8
0
  6
Continuous
 62
     7
370
    15
100
AcDbLine
 10
174.0494589645
 20
89.8127618557
 30
0.0
 11
173.9330875464
 21
89.8009289855
 31
0.0
  0
SPLINE
  5
C7
330
1F
100
AcDbEntity
  8
0
  6
Continuous
 62
     7
370
    15
100
AcDbSpline
210
0.0
220
0.0
230
1.0
 70
     8
 71
     3
 72
    17
 73
    13
 74
     0
 42
0.00000001
 43
0.00000001
 40
0.0
 40
0.0
 40
0.0
 40
0.0
 40
0.0491562653956103
 40
0.1370091040880036
 40
0.2290240496865686
 40
0.3311799420731131
 40
0.445107852851828
 40
0.5675744530796927
 40
0.6928687407637478
 40
0.8147505754860527
 40
0.9255923612973901
 40
0.9999999999999999
 40
0.9999999999999999
 40
0.9999999999999999
 40
0.9999999999999999
 10
172.9450584736526
 20
89.69303921410551
 30
0.0
 10
172.9378113894144
 20
89.6921184569158
 30
0.0
 10
172.9176122040059
 20
89.68955210821882
 30
0.0
 10
173.2353122967787
 20
89.72997214106759
 30
0.0
 10
173.8306735743259
 20
89.79563957689413
 30
0.0
 10
174.7199390746999
 20
89.87037882665697
 30
0.0
 10
175.8500119426601
 20
89.92161474984975
 30
0.0
 10
177.1173464125606
 20
89.91872127937377
 30
0.0
 10
178.3405067362217
 20
89.85411604888178
 30
0.0
 10
179.2905714290326
 20
89.76378434196438
 30
0.0
 10
179.838485683956
 20
89.69601582783267
 30
0.0
 10
179.8612460371084
 20
89.69293513922365
 30
0.0
 10
179.8703880041538
 20
89.69169774393578
 30
0.0
  0
LINE
  5
C8
330
1F
100
AcDbEntity
  8
0
  6
Continuous
 62
     7
370
    15
100
AcDbLine
 10
174.4392543684
 20
89.8415612018
 30
0.0
 11
174.0494589638
 21
89.8127618608
 31
0.0
  0
CIRCLE
  5
C9
330
1F
100
AcDbEntity
  8
0
  6
Continuous
 62
     7
370
    15
100
AcDbCircle
 10
176.4026017478
 20
110.6875797463
 30
0.0
 40
2.5
  0
LINE
  5
CA
330
1F
100
AcDbEntity
  8
0
  6
Continuous
 62
     7
370
    15
100
AcDbLine
 10
86.2026017478
 20
78.4375797463
 30
0.0
 11
86.2026017478
 21
78.4392945445
 31
0.0
  0
LINE
  5
CB
330
1F
100
AcDbEntity
  8
0
  6
Continuous
 62
     7
370
    15
100
AcDbLine
 10
86.2026017478
 20
142.9375797463
 30
0.0
 11
86.2026017478
 21
142.9358649481
 31
0.0
  0
LINE
  5
CC
330
1F
100
AcDbEntity
  8
0
  6
Continuous
 62
     7
370
    15
100
AcDbLine
 10
214.4526017478
 20
96.9617202679
 30
0.0
 11
214.4526017478
 21
124.4134391537
 31
0.0
  0
CIRCLE
  5
CD
330
1F
100
AcDbEntity
  8
0
  6
HIDDEN
 62
     7
370
     0
100
AcDbCircle
 10
192.4526017478
 20
110.6875797463
 30
0.0
 40
5.999999999999995
  0
CIRCLE
  5
CE
330
1F
100
AcDbEntity
  8
0
  6
HIDDEN
 62
     7
370
     0
100
AcDbCircle
 10
192.4526017478
 20
110.6875797463
 30
0.0
 40
2.749999999999984
  0
CIRCLE
  5
CF
330
1F
100
AcDbEntity
  8
0
  6
HIDDEN
 62
     7
370
     0
100
AcDbCircle
 10
192.4526017478
 20
110.6875797463
 30
0.0
 40
4.000000000000009
  0
LWPOLYLINE
  5
D0
330
1F
100
AcDbEntity
  8
0
  6
HIDDEN
 62
     7
370
     0
100
AcDbPolyline
 90
       18
 70
   128
 43
0.0
 10
209.037286907
 20
101.6629111751
 10
209.02320628
 20
101.6203115462
 10
209.0041394875
 20
101.779050043
 10
208.9826616055
 20
102.117688152
 10
208.9616733411
 20
102.5904909201
 10
208.9440092755
 20
103.1336037135
 10
208.9320550388
 20
103.6736761401
 10
208.9274251169
 20
104.1377684258
 10
208.9307448063
 20
104.4632023361
 10
208.9415657646
 20
104.6060262179
 10
208.9584265615
 20
104.5469509146
 10
208.9790500528
 20
104.2939548733
 10
209.0006509219
 20
103.8812066113
 10
209.0203118515
 20
103.3644500684
 10
209.0353775244
 20
102.8134760792
 10
209.0438132378
 20
102.3026967341
 10
209.0444797019
 20
101.9010956138
 10
209.037286907
 20
101.6629111751
  0
LWPOLYLINE
  5
D1
330
1F
100
AcDbEntity
  8
0
  6
HIDDEN
 62
     7
370
     0
100
AcDbPolyline
 90
       17
 70
   128
 43
0.0
 10
208.52067239
 20
102.1317575888
 10
208.5105722537
 20
102.1060983053
 10
208.4968335802
 20
102.2313269905
 10
208.4815479579
 20
102.4883787123
 10
208.4670424843
 20
102.8381196762
 10
208.4555254862
 20
103.2273049908
 10
208.4487503222
 20
103.5966847201
 10
208.4477484496
 20
103.8900241486
 10
208.4526723944
 20
104.0626650075
 10
208.4627725306
 20
104.0883242909
 10
208.4765112041
 20
103.9630956057
 10
208.4917968264
 20
103.706043884
 10
208.5063023001
 20
103.3563029201
 10
208.5178192981
 20
102.9671176054
 10
208.5245944621
 20
102.5977378762
 10
208.5255963348
 20
102.3043984477
 10
208.52067239
 20
102.1317575888
  0
LWPOLYLINE
  5
D2
330
1F
100
AcDbEntity
  8
0
  6
HIDDEN
 62
     7
370
     0
100
AcDbPolyline
 90
       18
 70
   128
 43
0.0
 10
214.3712247109
 20
101.8111002412
 10
214.3571440839
 20
101.7685006123
 10
214.3380772914
 20
101.9272391091
 10
214.3165994094
 20
102.2658772181
 10
214.295611145
 20
102.7386799862
 10
214.2779470794
 20
103.2817927796
 10
214.2659928427
 20
103.8218652062
 10
214.2613629208
 20
104.285957492
 10
214.2646826102
 20
104.6113914022
 10
214.2755035685
 20
104.754215284
 10
214.2923643654
 20
104.6951399807
 10
214.3129878567
 20
104.4421439395
 10
214.3345887258
 20
104.0293956774
 10
214.3542496554
 20
103.5126391345
 10
214.3693153283
 20
102.9616651453
 10
214.3777510417
 20
102.4508858002
 10
214.3784175057
 20
102.0492846799
 10
214.3712247109
 20
101.8111002412
  0
ARC
  5
D3
330
1F
100
AcDbEntity
  8
0
  6
HIDDEN
 62
     7
370
     0
100
AcDbCircle
 10
227.9255488913
 20
103.6192770801
 30
0.0
 40
13.5000097882024
100
AcDbArc
 50
176.3714903393
 51
186.6915291025
  0
LINE
  5
D4
330
1F
100
AcDbEntity
  8
0
  6
HIDDEN
 62
     7
370
     0
100
AcDbLine
 10
212.513033399
 20
102.9845198232
 30
0.0
 11
212.513033399
 21
102.3721473875
 31
0.0
  0
LINE
  5
D5
330
1F
100
AcDbEntity
  8
0
  6
HIDDEN
 62
     7
370
     0
100
AcDbLine
 10
214.5114914714
 20
103.0400415871
 30
0.0
 11
214.5114914714
 21
102.4276691514
 31
0.0
  0
LINE
  5
D6
330
1F
100
AcDbEntity
  8
0
  6
HIDDEN
 62
     7
370
     0
100
AcDbLine
 10
212.513033399
 20
102.9845198232
 30
0.0
 11
214.5114914714
 21
103.0400415871
 31
0.0
  0
LINE
  5
D7
330
1F
100
AcDbEntity
  8
0
  6
HIDDEN
 62
     7
370
     0
100
AcDbLine
 10
212.513033399
 20
102.9845198232
 30
0.0
 11
212.4835885371
 21
103.8206272616
 31
0.0
  0
LINE
  5
D8
330
1F
100
AcDbEntity
  8
0
  6
HIDDEN
 62
     7
370
     0
100
AcDbLine
 10
214.5114914714
 20
103.0400415871
 30
0.0
 11
214.4820466096
 21
103.8761490255
 31
0.0
  0
LINE
  5
D9
330
1F
100
AcDbEntity
  8
0
  6
HIDDEN
 62
     7
370
     0
100
AcDbLine
 10
212.4835885371
 20
103.8206272616
 30
0.0
 11
214.4820466096
 21
103.8761490255
 31
0.0
  0
LINE
  5
DA
330
1F
100
AcDbEntity
  8
0
  6
HIDDEN
 62
     7
370
     0
100
AcDbLine
 10
212.4835885371
 20
103.8206272616
 30
0.0
 11
212.4541436753
 21
104.0443622644
 31
0.0
  0
LINE
  5
DB
330
1F
100
AcDbEntity
  8
0
  6
HIDDEN
 62
     7
370
     0
100
AcDbLine
 10
214.4820466096
 20
103.8761490255
 30
0.0
 11
214.4526017478
 21
104.0998840283
 31
0.0
  0
LINE
  5
DC
330
1F
100
AcDbEntity
  8
0
  6
HIDDEN
 62
     7
370
     0
100
AcDbLine
 10
212.4835885371
 20
102.5958823902
 30
0.0
 11
214.4820466096
 21
102.6514041541
 31
0.0
  0
LINE
  5
DD
330
1F
100
AcDbEntity
  8
0
  6
HIDDEN
 62
     7
370
     0
100
AcDbLine
 10
212.513033399
 20
102.3721473875
 30
0.0
 11
214.5114914714
 21
102.4276691514
 31
0.0
  0
LINE
  5
DE
330
1F
100
AcDbEntity
  8
0
  6
HIDDEN
 62
     7
370
     0
100
AcDbLine
 10
212.4835885371
 20
102.5958823902
 30
0.0
 11
212.513033399
 21
102.3721473875
 31
0.0
  0
LINE
  5
DF
330
1F
100
AcDbEntity
  8
0
  6
HIDDEN
 62
     7
370
     0
100
AcDbLine
 10
214.4820466096
 20
102.6514041541
 30
0.0
 11
214.5114914714
 21
102.4276691514
 31
0.0
  0
LINE
  5
E0
330
1F
100
AcDbEntity
  8
0
  6
HIDDEN
 62
     7
370
     0
100
AcDbLine
 10
212.4541436753
 20
103.4319898287
 30
0.0
 11
214.4526017478
 21
103.4875115926
 31
0.0
  0
LINE
  5
E1
330
1F
100
AcDbEntity
  8
0
  6
HIDDEN
 62
     7
370
     0
100
AcDbLine
 10
212.4541436753
 20
104.0443622644
 30
0.0
 11
214.4526017478
 21
104.0998840283
 31
0.0
  0
LINE
  5
E2
330
1F
100
AcDbEntity
  8
0
  6
HIDDEN
 62
     7
370
     0
100
AcDbLine
 10
212.4541436753
 20
103.4319898287
 30
0.0
 11
212.4541436753
 21
104.0443622644
 31
0.0
  0
LINE
  5
E3
330
1F
100
AcDbEntity
  8
0
  6
HIDDEN
 62
     7
370
     0
100
AcDbLine
 10
212.4835885371
 20
102.5958823902
 30
0.0
 11
212.4541436753
 21
103.4319898287
 31
0.0
  0
LINE
  5
E4
330
1F
100
AcDbEntity
  8
0
  6
HIDDEN
 62
     7
370
     0
100
AcDbLine
 10
214.4820466096
 20
102.6514041541
 30
0.0
 11
214.4526017478
 21
103.4875115926
 31
0.0
  0
LWPOLYLINE
  5
E5
330
1F
100
AcDbEntity
  8
0
  6
HIDDEN
 62
     7
370
     0
100
AcDbPolyline
 90
        3
 70
   128
 43
0.0
 10
214.423156886
 20
117.2507022751
 10
214.4414787528
 20
117.6460821353
 10
214.4526017478
 20
117.9629842425
  0
LWPOLYLINE
  5
E6
330
1F
100
AcDbEntity
  8
0
  6
HIDDEN
 62
     7
370
     0
100
AcDbPolyline
 90
       12
 70
   128
 43
0.0
 10
214.4526017478
 20
119.3228961882
 10
214.4414787528
 20
119.239435671
 10
214.423156886
 20
118.9753357144
 10
214.4048350191
 20
118.5799558542
 10
214.3893024904
 20
118.1134890899
 10
214.3789239866
 20
117.6469507579
 10
214.3752795407
 20
117.2513670901
 10
214.3789239866
 20
116.9869621138
 10
214.3893024904
 20
116.8939890899
 10
214.4048350191
 20
116.9866023185
 10
214.423156886
 20
117.2507022751
 10
214.423156886
 20
117.2507022751
  0
LWPOLYLINE
  5
E7
330
1F
100
AcDbEntity
  8
0
  6
HIDDEN
 62
     7
370
     0
100
AcDbPolyline
 90
       18
 70
   128
 43
0.0
 10
214.2613349905
 20
117.0568546076
 10
214.2826084124
 20
117.5113378737
 10
214.3010087408
 20
118.0476886899
 10
214.3140509094
 20
118.5934699064
 10
214.319973501
 20
119.0749707456
 10
214.3179766369
 20
119.4271618511
 10
214.3083300045
 20
119.6024778626
 10
214.2923364351
 20
119.5772413813
 10
214.2721559489
 20
119.3548607337
 10
214.2505140322
 20
118.9653696586
 10
214.230333546
 20
118.461371084
 10
214.2143399766
 20
117.91093281
 10
214.2046933442
 20
117.3883945758
 10
214.2026964801
 20
116.9643280652
 10
214.2086190717
 20
116.6960058104
 10
214.2216612403
 20
116.6196662187
 10
214.2400615687
 20
116.745619375
 10
214.2613349905
 20
117.0568546076
  0
LWPOLYLINE
  5
E8
330
1F
100
AcDbEntity
  8
0
  6
HIDDEN
 62
     7
370
     0
100
AcDbPolyline
 90
       18
 70
   128
 43
0.0
 10
208.9273971867
 20
117.2050436737
 10
208.9486706085
 20
117.6595269398
 10
208.9670709369
 20
118.195877756
 10
208.9801131055
 20
118.7416589725
 10
208.9860356971
 20
119.2231598117
 10
208.984038833
 20
119.5753509173
 10
208.9743922006
 20
119.7506669287
 10
208.9583986312
 20
119.7254304474
 10
208.938218145
 20
119.5030497998
 10
208.9165762283
 20
119.1135587247
 10
208.8963957421
 20
118.6095601501
 10
208.8804021727
 20
118.0591218761
 10
208.8707555403
 20
117.5365836419
 10
208.8687586762
 20
117.1125171313
 10
208.8746812678
 20
116.8441948765
 10
208.8877234364
 20
116.7678552848
 10
208.9061237648
 20
116.8938084411
 10
208.9273971867
 20
117.2050436737
  0
LWPOLYLINE
  5
E9
330
1F
100
AcDbEntity
  8
0
  6
HIDDEN
 62
     7
370
     0
100
AcDbPolyline
 90
       17
 70
   128
 43
0.0
 10
208.4277826685
 20
117.5724775053
 10
208.4428067496
 20
117.8966922328
 10
208.4555435505
 20
118.2791988046
 10
208.4640540088
 20
118.6617640625
 10
208.4670424843
 20
118.986145914
 10
208.4640540088
 20
119.2029601626
 10
208.4555435505
 20
119.2791988046
 10
208.4428067496
 20
119.2032551977
 10
208.4277826685
 20
118.9866910677
 10
208.4127585875
 20
118.6624763401
 10
208.4000217866
 20
118.2799697684
 10
208.3915113283
 20
117.8974045105
 10
208.3885228528
 20
117.573022659
 10
208.3915113283
 20
117.3562084103
 10
208.4000217866
 20
117.2799697684
 10
208.4127585875
 20
117.3559133753
 10
208.4277826685
 20
117.5724775053
  0
LINE
  5
EA
330
1F
100
AcDbEntity
  8
0
  6
HIDDEN
 62
     7
370
     0
100
AcDbLine
 10
214.4526017478
 20
118.9491264332
 30
0.0
 11
214.423156886
 21
118.7253914305
 31
0.0
  0
LINE
  5
EB
330
1F
100
AcDbEntity
  8
0
  6
HIDDEN
 62
     7
370
     0
100
AcDbLine
 10
214.3937120242
 20
117.889283992
 30
0.0
 11
214.423156886
 21
118.7253914305
 31
0.0
  0
LINE
  5
EC
330
1F
100
AcDbEntity
  8
0
  6
HIDDEN
 62
     7
370
     0
100
AcDbLine
 10
214.3937120242
 20
117.2769115563
 30
0.0
 11
214.3937120242
 21
117.889283992
 31
0.0
  0
LINE
  5
ED
330
1F
100
AcDbEntity
  8
0
  6
HIDDEN
 62
     7
370
     0
100
AcDbLine
 10
214.3937120242
 20
117.2769115563
 30
0.0
 11
214.423156886
 21
117.5006465591
 31
0.0
  0
LINE
  5
EE
330
1F
100
AcDbEntity
  8
0
  6
HIDDEN
 62
     7
370
     0
100
AcDbLine
 10
214.4526017478
 20
118.3367539975
 30
0.0
 11
214.423156886
 21
117.5006465591
 31
0.0
  0
LINE
  5
EF
330
1F
100
AcDbEntity
  8
0
  6
HIDDEN
 62
     7
370
     0
100
AcDbLine
 10
212.3952539517
 20
117.3324333202
 30
0.0
 11
212.4246988135
 21
117.556168323
 31
0.0
  0
LINE
  5
F0
330
1F
100
AcDbEntity
  8
0
  6
HIDDEN
 62
     7
370
     0
100
AcDbLine
 10
212.3952539517
 20
117.3324333202
 30
0.0
 11
212.3952539517
 21
117.9448057559
 31
0.0
  0
LINE
  5
F1
330
1F
100
AcDbEntity
  8
0
  6
HIDDEN
 62
     7
370
     0
100
AcDbLine
 10
212.4541436753
 20
119.0046481971
 30
0.0
 11
212.4246988135
 21
118.7809131944
 31
0.0
  0
LINE
  5
F2
330
1F
100
AcDbEntity
  8
0
  6
HIDDEN
 62
     7
370
     0
100
AcDbLine
 10
212.4541436753
 20
118.3922757614
 30
0.0
 11
212.4541436753
 21
119.0046481971
 31
0.0
  0
LINE
  5
F3
330
1F
100
AcDbEntity
  8
0
  6
HIDDEN
 62
     7
370
     0
100
AcDbLine
 10
212.4541436753
 20
118.3922757614
 30
0.0
 11
212.4246988135
 21
117.556168323
 31
0.0
  0
LINE
  5
F4
330
1F
100
AcDbEntity
  8
0
  6
HIDDEN
 62
     7
370
     0
100
AcDbLine
 10
212.3952539517
 20
117.9448057559
 30
0.0
 11
212.4246988135
 21
118.7809131944
 31
0.0
  0
LINE
  5
F5
330
1F
100
AcDbEntity
  8
0
  6
HIDDEN
 62
     7
370
     0
100
AcDbLine
 10
212.3952539517
 20
117.9448057559
 30
0.0
 11
214.3937120242
 21
117.889283992
 31
0.0
  0
LINE
  5
F6
330
1F
100
AcDbEntity
  8
0
  6
HIDDEN
 62
     7
370
     0
100
AcDbLine
 10
212.4246988135
 20
118.7809131944
 30
0.0
 11
214.423156886
 21
118.7253914305
 31
0.0
  0
LINE
  5
F7
330
1F
100
AcDbEntity
  8
0
  6
HIDDEN
 62
     7
370
     0
100
AcDbLine
 10
212.4246988135
 20
117.556168323
 30
0.0
 11
214.423156886
 21
117.5006465591
 31
0.0
  0
LINE
  5
F8
330
1F
100
AcDbEntity
  8
0
  6
HIDDEN
 62
     7
370
     0
100
AcDbLine
 10
212.3952539517
 20
117.3324333202
 30
0.0
 11
214.3937120242
 21
117.2769115563
 31
0.0
  0
LINE
  5
F9
330
1F
100
AcDbEntity
  8
0
  6
HIDDEN
 62
     7
370
     0
100
AcDbLine
 10
212.4541436753
 20
118.3922757614
 30
0.0
 11
214.4526017478
 21
118.3367539975
 31
0.0
  0
LINE
  5
FA
330
1F
100
AcDbEntity
  8
0
  6
HIDDEN
 62
     7
370
     0
100
AcDbLine
 10
212.4541436753
 20
119.0046481971
 30
0.0
 11
214.4526017478
 21
118.9491264332
 31
0.0
  0
LINE
  5
FB
330
1F
100
AcDbEntity
  8
0
  6
HIDDEN
 62
     7
370
     0
100
AcDbLine
 10
151.1905727269
 20
149.6385425072
 30
0.0
 11
151.1905727269
 21
142.0375797463
 31
0.0
  0
SPLINE
  5
FC
330
1F
100
AcDbEntity
  8
0
  6
HIDDEN
 62
     7
370
     0
100
AcDbSpline
210
0.0
220
0.0
230
1.0
 70
     8
 71
     3
 72
    80
 73
    76
 74
     0
 42
0.00000001
 43
0.00000001
 40
-0.0312500000000003
 40
-0.0312500000000003
 40
0.0
 40
0.0
 40
0.03125
 40
0.03125
 40
0.046875
 40
0.046875
 40
0.0624999999999999
 40
0.0624999999999999
 40
0.0937499999999998
 40
0.0937499999999998
 40
0.1249999999999996
 40
0.1249999999999996
 40
0.1562499999999995
 40
0.1562499999999995
 40
0.1874999999999994
 40
0.1874999999999994
 40
0.2187499999999993
 40
0.2187499999999993
 40
0.2499999999999992
 40
0.2499999999999992
 40
0.2812499999999991
 40
0.2812499999999991
 40
0.3124999999999989
 40
0.3124999999999989
 40
0.3281249999999988
 40
0.3281249999999988
 40
0.3437499999999986
 40
0.3437499999999986
 40
0.3749999999999983
 40
0.3749999999999983
 40
0.4062499999999981
 40
0.4062499999999981
 40
0.4218749999999979
 40
0.4218749999999979
 40
0.4374999999999978
 40
0.4374999999999978
 40
0.4687499999999977
 40
0.4687499999999977
 40
0.4999999999999975
 40
0.4999999999999975
 40
0.5312499999999972
 40
0.5312499999999972
 40
0.562499999999997
 40
0.562499999999997
 40
0.5937499999999968
 40
0.5937499999999968
 40
0.6249999999999966
 40
0.6249999999999966
 40
0.6562499999999964
 40
0.6562499999999964
 40
0.6874999999999962
 40
0.6874999999999962
 40
0.7031249999999962
 40
0.7031249999999962
 40
0.7187499999999963
 40
0.7187499999999963
 40
0.7499999999999968
 40
0.7499999999999968
 40
0.7812499999999972
 40
0.7812499999999972
 40
0.7968749999999976
 40
0.7968749999999976
 40
0.8124999999999978
 40
0.8124999999999978
 40
0.8437499999999981
 40
0.8437499999999981
 40
0.8749999999999984
 40
0.8749999999999984
 40
0.9062499999999989
 40
0.9062499999999989
 40
0.9374999999999992
 40
0.9374999999999992
 40
0.9687499999999997
 40
0.9687499999999997
 40
1.0
 40
1.0
 40
1.03125
 40
1.03125
 10
143.7831470605726
 20
159.5471290027685
 30
0.0
 10
143.12205643502
 20
159.5471290027685
 30
0.0
 10
142.7970763057684
 20
159.5402308569417
 30
0.0
 10
142.317602894522
 20
159.5197044289612
 30
0.0
 10
142.1591210766812
 20
159.5111482018737
 30
0.0
 10
141.8449015441769
 20
159.490421826656
 30
0.0
 10
141.6887812604965
 20
159.4781945264496
 30
0.0
 10
141.2347272315399
 20
159.4366252326204
 30
0.0
 10
140.9476238486001
 20
159.4022809475226
 30
0.0
 10
140.404269292573
 20
159.3189568232004
 30
0.0
 10
140.1471656813675
 20
159.2695186004258
 30
0.0
 10
139.6862594264287
 20
159.1581388706659
 30
0.0
 10
139.4793617172137
 20
159.0958443571538
 30
0.0
 10
139.1138364032215
 20
158.9559147142828
 30
0.0
 10
138.9586308810956
 20
158.8792988165337
 30
0.0
 10
138.7092004944959
 20
158.715340196678
 30
0.0
 10
138.6131105387107
 20
158.6267833425823
 30
0.0
 10
138.4845916895171
 20
158.4393026604765
 30
0.0
 10
138.4527808193394
 20
158.3420661990221
 30
0.0
 10
138.4524241695661
 20
158.140433559695
 30
0.0
 10
138.4849214217631
 20
158.0348847678569
 30
0.0
 10
138.6125468954776
 20
157.8247699851684
 30
0.0
 10
138.7069752965295
 20
157.7197044771994
 30
0.0
 10
138.8948361165151
 20
157.5628267699483
 30
0.0
 10
138.9656641153182
 20
157.5103930362426
 30
0.0
 10
139.1203860072835
 20
157.4079545906129
 30
0.0
 10
139.2043624774669
 20
157.3578068619611
 30
0.0
 10
139.4756861471114
 20
157.2107909055275
 30
0.0
 10
139.6822353657137
 20
157.1173030850931
 30
0.0
 10
140.1488455059027
 20
156.9415162274788
 30
0.0
 10
140.4012110755282
 20
156.8621377523951
 30
0.0
 10
140.8071124172069
 20
156.756655314901
 30
0.0
 10
140.9470130346844
 20
156.7237697500608
 30
0.0
 10
141.2362369699313
 20
156.6628542708322
 30
0.0
 10
141.3860764262206
 20
156.6347736991898
 30
0.0
 10
141.8401929958314
 20
156.5599716571469
 30
0.0
 10
142.1518442145682
 20
156.5219335989008
 30
0.0
 10
142.7928406794806
 20
156.4703216723767
 30
0.0
 10
143.1243683074328
 20
156.4570077388552
 30
0.0
 10
143.7771593525042
 20
156.4569106525272
 30
0.0
 10
144.1016955575361
 20
156.4696987376882
 30
0.0
 10
144.7469650069525
 20
156.5211889272842
 30
0.0
 10
145.0627080131152
 20
156.5597135066042
 30
0.0
 10
145.6645973080989
 20
156.6586160694623
 30
0.0
 10
145.9553465389104
 20
156.7197201673873
 30
0.0
 10
146.5022583305949
 20
156.861529600498
 30
0.0
 10
146.7540356944318
 20
156.9408640850772
 30
0.0
 10
147.2154236870529
 20
157.1142428297387
 30
0.0
 10
147.426692966651
 20
157.2094027744927
 30
0.0
 10
147.7899973190272
 20
157.4059752978686
 30
0.0
 10
147.94380396747
 20
157.5077315262749
 30
0.0
 10
148.1324234370674
 20
157.6645174890604
 30
0.0
 10
148.1884539232765
 20
157.7177715228104
 30
0.0
 10
148.2840276850126
 20
157.8235760843632
 30
0.0
 10
148.3237906020377
 20
157.8762291487187
 30
0.0
 10
148.4195623523498
 20
158.0333028681779
 30
0.0
 10
148.4522851914759
 20
158.136827903505
 30
0.0
 10
148.452913777805
 20
158.3410426377321
 30
0.0
 10
148.4207276330702
 20
158.4385464753169
 30
0.0
 10
148.3258169312146
 20
158.5778735256685
 30
0.0
 10
148.2863501478157
 20
158.623190257173
 30
0.0
 10
148.1914201490948
 20
158.7116300781618
 30
0.0
 10
148.1356633213314
 20
158.7548843286218
 30
0.0
 10
147.9477232033615
 20
158.8787758032118
 30
0.0
 10
147.7943617336454
 20
158.9544780939859
 30
0.0
 10
147.432097498765
 20
159.093732465444
 30
0.0
 10
147.2212490252991
 20
159.1574943069728
 30
0.0
 10
146.7605790549802
 20
159.2689911464406
 30
0.0
 10
146.5092046753963
 20
159.3175172187572
 30
0.0
 10
145.9632967884982
 20
159.4015712021377
 30
0.0
 10
145.672474213847
 20
159.4363697558044
 30
0.0
 10
145.071147599067
 20
159.4915662205682
 30
0.0
 10
144.7566290144546
 20
159.5123840693221
 30
0.0
 10
144.1100475583347
 20
159.5402314022328
 30
0.0
 10
143.7831470605726
 20
159.5471290027685
 30
0.0
 10
143.12205643502
 20
159.5471290027685
 30
0.0
  0
LINE
  5
FD
330
1F
100
AcDbEntity
  8
0
  6
HIDDEN
 62
     7
370
     0
100
AcDbLine
 10
114.8660264972
 20
73.951773384
 30
0.0
 11
114.5960707964
 21
73.9278472847
 31
0.0
  0
SPLINE
  5
FE
330
1F
100
AcDbEntity
  8
0
  6
HIDDEN
 62
     7
370
     0
100
AcDbSpline
210
0.0
220
0.0
230
1.0
 70
     8
 71
     3
 72
    13
 73
     9
 74
     0
 42
0.00000001
 43
0.00000001
 40
0.0
 40
0.0
 40
0.0
 40
0.0
 40
0.1247122447407212
 40
0.2490589432165421
 40
0.3740779474703908
 40
0.5009711379560823
 40
0.7521757810472769
 40
1.0
 40
1.0
 40
1.0
 40
1.0
 10
112.971906765581
 20
147.6188858405411
 30
0.0
 10
112.9776933591441
 20
147.6181095938595
 30
0.0
 10
112.9892495850836
 20
147.6165593757669
 30
0.0
 10
113.0862599546738
 20
147.6043430971494
 30
0.0
 10
113.2415545205233
 20
147.58541627784
 30
0.0
 10
113.53174155172
 20
147.5514431205098
 30
0.0
 10
114.0192694799442
 20
147.4949167202753
 30
0.0
 10
114.5849907497796
 20
147.4471109884532
 30
0.0
 10
114.8659352852673
 20
147.4233700406817
 30
0.0
  0
SPLINE
  5
FF
330
1F
100
AcDbEntity
  8
0
  6
HIDDEN
 62
     7
370
     0
100
AcDbSpline
210
0.0
220
0.0
230
1.0
 70
     8
 71
     3
 72
     9
 73
     5
 74
     0
 42
0.00000001
 43
0.00000001
 40
0.0
 40
0.0
 40
0.0
 40
0.0
 40
0.6612086425810448
 40
0.9999999999999999
 40
0.9999999999999999
 40
0.9999999999999999
 40
0.9999999999999999
 10
124.7058074029874
 20
142.0539019670376
 30
0.0
 10
124.9973085411702
 20
142.0976873168519
 30
0.0
 10
125.4381695938099
 20
142.1639074885112
 30
0.0
 10
125.3867551487119
 20
142.1561019406605
 30
0.0
 10
125.3693363790663
 20
142.1534574885087
 30
0.0
  0
SPLINE
  5
100
330
1F
100
AcDbEntity
  8
0
  6
HIDDEN
 62
     7
370
     0
100
AcDbSpline
210
0.0
220
0.0
230
1.0
 70
     8
 71
     3
 72
     9
 73
     5
 74
     0
 42
0.00000001
 43
0.00000001
 40
0.0
 40
0.0
 40
0.0
 40
0.0
 40
0.322474830666213
 40
0.9999999999999999
 40
0.9999999999999999
 40
0.9999999999999999
 40
0.9999999999999999
 10
125.3693360519283
 20
79.22170204746246
 30
0.0
 10
125.3879778072966
 20
79.21893408089622
 30
0.0
 10
125.4457862115363
 20
79.21035056893497
 30
0.0
 10
125.0046728249379
 20
79.27646400713306
 30
0.0
 10
124.7058074029874
 20
79.32125752554347
 30
0.0
  0
SPLINE
  5
101
330
1F
100
AcDbEntity
  8
0
  6
HIDDEN
 62
     7
370
     0
100
AcDbSpline
210
0.0
220
0.0
230
1.0
 70
     8
 71
     3
 72
    15
 73
    11
 74
     0
 42
0.00000001
 43
0.00000001
 40
0.0
 40
0.0
 40
0.0
 40
0.0
 40
0.1285821516379736
 40
0.2571635483376876
 40
0.385323567199189
 40
0.5113778119466696
 40
0.6369260966772228
 40
0.7643185820319293
 40
0.8930603485208921
 40
1.0
 40
1.0
 40
1.0
 40
1.0
 10
124.7058074029874
 20
79.32125752554347
 30
0.0
 10
124.3202852817472
 20
79.3830633161274
 30
0.0
 10
123.5492433027646
 20
79.50667453441788
 30
0.0
 10
121.770685456008
 20
79.69742311842363
 30
0.0
 10
119.7768741605683
 20
79.78507055552897
 30
0.0
 10
117.7528362533336
 20
79.73816539282652
 30
0.0
 10
115.9247276863746
 20
79.57791518508502
 30
0.0
 10
114.4932964650955
 20
79.37673582720593
 30
0.0
 10
113.58941298762
 20
79.2141940925592
 30
0.0
 10
113.5268290498638
 20
79.20179380585887
 30
0.0
 10
113.4984317983981
 20
79.19616721743537
 30
0.0
  0
SPLINE
  5
102
330
1F
100
AcDbEntity
  8
0
  6
HIDDEN
 62
     7
370
     0
100
AcDbSpline
210
0.0
220
0.0
230
1.0
 70
     8
 71
     3
 72
    16
 73
    12
 74
     0
 42
0.00000001
 43
0.00000001
 40
0.0
 40
0.0
 40
0.0
 40
0.0
 40
0.0205567982654305
 40
0.1461296737692548
 40
0.2720439921275847
 40
0.3999539720187822
 40
0.528504097482051
 40
0.655245546444081
 40
0.7805594897978894
 40
0.9070378665747952
 40
1.0
 40
1.0
 40
1.0
 40
1.0
 10
113.4984317983981
 20
142.1789922751457
 30
0.0
 10
113.4837645861151
 20
142.1817386517504
 30
0.0
 10
113.3795015137074
 20
142.2012614933968
 30
0.0
 10
113.8302815245541
 20
142.1148869356398
 30
0.0
 10
114.8435206551289
 20
141.9437543337058
 30
0.0
 10
116.4378489731102
 20
141.7402135487685
 30
0.0
 10
118.3643483352447
 20
141.6078225827937
 30
0.0
 10
120.4108401357963
 20
141.6040264041029
 30
0.0
 10
122.3239995515193
 20
141.7268029767327
 30
0.0
 10
123.8087079369185
 20
141.9086178368541
 30
0.0
 10
124.4388561400529
 20
142.0106695457691
 30
0.0
 10
124.7058074029874
 20
142.0539019670376
 30
0.0
  0
LINE
  5
103
330
1F
100
AcDbEntity
  8
0
  6
HIDDEN
 62
     7
370
     0
100
AcDbLine
 10
104.4492260748
 20
84.1875797463
 30
0.0
 11
104.4492260748
 21
137.1875797463
 31
0.0
  0
LINE
  5
104
330
1F
100
AcDbEntity
  8
0
  6
HIDDEN
 62
     7
370
     0
100
AcDbLine
 10
143.7366793662
 20
84.1875797463
 30
0.0
 11
143.7366793662
 21
137.1875797463
 31
0.0
  0
LINE
  5
105
330
1F
100
AcDbEntity
  8
0
  6
HIDDEN
 62
     7
370
     0
100
AcDbLine
 10
146.9026017478
 20
85.8125797463
 30
0.0
 11
146.9026017478
 21
135.5625797272
 31
0.0
  0
SPLINE
  5
106
330
1F
100
AcDbEntity
  8
0
  6
HIDDEN
 62
     7
370
     0
100
AcDbSpline
210
0.0
220
0.0
230
1.0
 70
     8
 71
     3
 72
    20
 73
    16
 74
     0
 42
0.00000001
 43
0.00000001
 40
0.0
 40
0.0
 40
0.0
 40
0.0
 40
0.2499999999999978
 40
0.2499999999999978
 40
0.3749999999999982
 40
0.3749999999999982
 40
0.4999999999999986
 40
0.4999999999999986
 40
0.6249999999999989
 40
0.6249999999999989
 40
0.7499999999999992
 40
0.7499999999999992
 40
0.8749999999999997
 40
0.8749999999999997
 40
1.0
 40
1.0
 40
1.0
 40
1.0
 10
94.65260174779633
 20
135.9160933767049
 30
0.0
 10
94.65260174779633
 20
135.8368903901726
 30
0.0
 10
94.6056192525836
 20
135.7557941717697
 30
0.0
 10
94.46779766180602
 20
135.6355974800187
 30
0.0
 10
94.41151537789604
 20
135.5966707760167
 30
0.0
 10
94.27843052642882
 20
135.5214820435923
 30
0.0
 10
94.20059058419575
 20
135.4848398382503
 30
0.0
 10
94.02795822808142
 20
135.4172493054185
 30
0.0
 10
93.93356523099034
 20
135.3862911236428
 30
0.0
 10
93.72812792467519
 20
135.3307667022731
 30
0.0
 10
93.61578168468802
 20
135.3060581884399
 30
0.0
 10
93.38354082078837
 20
135.2662619613317
 30
0.0
 10
93.26283017836565
 20
135.2508421239347
 30
0.0
 10
93.01175931909663
 20
135.2297621490951
 30
0.0
 10
92.88223732268084
 20
135.2242849040741
 30
0.0
 10
92.75260174779635
 20
135.2242849040741
 30
0.0
  0
LINE
  5
107
330
1F
100
AcDbEntity
  8
0
  6
HIDDEN
 62
     7
370
     0
100
AcDbLine
 10
92.7526017478
 20
135.2242849041
 30
0.0
 11
86.2026017478
 21
135.2242849041
 31
0.0
  0
LINE
  5
108
330
1F
100
AcDbEntity
  8
0
  6
HIDDEN
 62
     7
370
     0
100
AcDbLine
 10
86.2026017478
 20
86.1508745885
 30
0.0
 11
97.7526017478
 21
86.1508745885
 31
0.0
  0
SPLINE
  5
109
330
1F
100
AcDbEntity
  8
0
  6
HIDDEN
 62
     7
370
     0
100
AcDbSpline
210
0.0
220
0.0
230
1.0
 70
     8
 71
     3
 72
    18
 73
    14
 74
     0
 42
0.00000001
 43
0.00000001
 40
0.0
 40
0.0
 40
0.0
 40
0.0
 40
0.1249999999999982
 40
0.1249999999999982
 40
0.2499999999999964
 40
0.2499999999999964
 40
0.4999999999999988
 40
0.4999999999999988
 40
0.7500000000000011
 40
0.7500000000000011
 40
0.8750000000000006
 40
0.8750000000000006
 40
1.0
 40
1.0
 40
1.0
 40
1.0
 10
97.75260174779632
 20
86.15087458850704
 30
0.0
 10
97.88206906075355
 20
86.15087458850704
 30
0.0
 10
98.00907980965017
 20
86.1455215899144
 30
0.0
 10
98.25844313084743
 20
86.12478361722562
 30
0.0
 10
98.38206678547587
 20
86.10911171297133
 30
0.0
 10
98.7310991224099
 20
86.04941698456923
 30
0.0
 10
98.9416108872167
 20
85.99165180488824
 30
0.0
 10
99.28552756491621
 20
85.85712996361075
 30
0.0
 10
99.42187796643404
 20
85.77946085010535
 30
0.0
 10
99.55891602299656
 20
85.660169716018
 30
0.0
 10
99.59413504170946
 20
85.61925070688297
 30
0.0
 10
99.64075861864802
 20
85.53859471359293
 30
0.0
 10
99.65260174779634
 20
85.49862619340007
 30
0.0
 10
99.65260174779633
 20
85.45906611587625
 30
0.0
  0
LINE
  5
10A
330
1F
100
AcDbEntity
  8
0
  6
HIDDEN
 62
     7
370
     0
100
AcDbLine
 10
86.2026017478
 20
86.1508745885
 30
0.0
 11
86.2026017478
 21
135.2242849041
 31
0.0
  0
LWPOLYLINE
  5
10B
330
1F
100
AcDbEntity
  8
0
  6
HIDDEN
 62
     7
370
     0
100
AcDbPolyline
 90
       15
 70
   128
 43
0.0
 10
143.4526017478
 20
150.6313103096
 10
144.4590943482
 20
150.6729399245
 10
145.4243810234
 20
150.7961244478
 10
146.3089428233
 20
150.9958206908
 10
147.0765656839
 20
151.2638530657
 10
147.6958230353
 20
151.5892482956
 10
148.1413624085
 20
151.9586846616
 10
148.3949433694
 20
152.3570373955
 10
148.4461842837
 20
152.7679978895
 10
148.2929873421
 20
153.1747413727
 10
147.9416244457
 20
153.5606157191
 10
147.4064804325
 20
153.9098231877
 10
146.7094641614
 20
154.2080671836
 10
145.8791115605
 20
154.4431375626
 10
145.8641990596
 20
154.4464906614
  0
LWPOLYLINE
  5
10C
330
1F
100
AcDbEntity
  8
0
  6
HIDDEN
 62
     7
370
     0
100
AcDbPolyline
 90
       15
 70
   128
 43
0.0
 10
141.0694442429
 20
154.4528109197
 10
141.0260919351
 20
154.4431375626
 10
140.1957393342
 20
154.2080671836
 10
139.4987230631
 20
153.9098231877
 10
138.9635790499
 20
153.5606157191
 10
138.6122161535
 20
153.1747413727
 10
138.4590192119
 20
152.7679978895
 10
138.5102601262
 20
152.3570373955
 10
138.7638410871
 20
151.9586846616
 10
139.2093804603
 20
151.5892482956
 10
139.8286378117
 20
151.2638530657
 10
140.5962606723
 20
150.9958206908
 10
141.4808224722
 20
150.7961244478
 10
142.4461091474
 20
150.6729399245
 10
143.4526017478
 20
150.6313103096
  0
SPLINE
  5
10D
330
1F
100
AcDbEntity
  8
0
  6
HIDDEN
 62
     7
370
     0
100
AcDbSpline
210
0.0
220
0.0
230
1.0
 70
     8
 71
     3
 72
    45
 73
    41
 74
     0
 42
0.00000001
 43
0.00000001
 40
-0.0754525583468586
 40
-0.0624582876444569
 40
-0.0297178004929081
 40
0.0
 40
0.0297087962993435
 40
0.0624230266872746
 40
0.0901528007810845
 40
0.1249931446062162
 40
0.1466449327579917
 40
0.1670227894590524
 40
0.1861328429910193
 40
0.2039826041944758
 40
0.2205813722442486
 40
0.2359407968743611
 40
0.2500756715097942
 40
0.2849470597658254
 40
0.3265208474019693
 40
0.3749037100796179
 40
0.393301603944076
 40
0.4098753360592924
 40
0.424626316392979
 40
0.4375568183423294
 40
0.470268811526526
 40
0.5000240066429451
 40
0.5297575339394933
 40
0.562455489900842
 40
0.5900900246880271
 40
0.6249974600184639
 40
0.6485780340275361
 40
0.6694778225515446
 40
0.6877019222769908
 40
0.7203344941551648
 40
0.750172746424407
 40
0.7849806724431504
 40
0.8265068160218447
 40
0.8748580847785432
 40
0.8932075216395228
 40
0.9097701516977632
 40
0.9245474416531414
 40
0.9375417123555431
 40
0.9702821995070919
 40
1.0
 40
1.029708796299343
 40
1.062423026687275
 40
1.090152800781085
 10
191.4566047502821
 20
105.626209612806
 30
0.0
 10
192.4524797111466
 20
105.5323057064152
 30
0.0
 10
193.4482243892204
 20
105.6261879145555
 30
0.0
 10
194.3830266511602
 20
105.9067091832165
 30
0.0
 10
195.2897207208566
 20
106.3800457964054
 30
0.0
 10
195.9944990600512
 20
106.9461519941873
 30
0.0
 10
196.5340842732094
 20
107.5637879846364
 30
0.0
 10
196.8966386792262
 20
108.1087350770355
 30
0.0
 10
197.1715434416803
 20
108.658962094664
 30
0.0
 10
197.3675934314509
 20
109.2004521897507
 30
0.0
 10
197.494639514774
 20
109.7218628788162
 30
0.0
 10
197.563174173478
 20
110.2146794690324
 30
0.0
 10
197.5945825168888
 20
110.9092706635204
 30
0.0
 10
197.4863152837991
 20
111.8893384291867
 30
0.0
 10
197.0200458597699
 20
113.1605183501419
 30
0.0
 10
196.3233454025109
 20
114.1066345103387
 30
0.0
 10
195.6606079975202
 20
114.6973518905592
 30
0.0
 10
195.2282761514657
 20
115.0056186877353
 30
0.0
 10
194.8179879214181
 20
115.2412907419989
 30
0.0
 10
194.2315398150475
 20
115.5137716945954
 30
0.0
 10
193.4494028884322
 20
115.7488005480037
 30
0.0
 10
192.4531676966176
 20
115.8429174685181
 30
0.0
 10
191.4569138295216
 20
115.7489685535035
 30
0.0
 10
190.5230208183496
 20
115.4686681363022
 30
0.0
 10
189.6166660075379
 20
114.995862698146
 30
0.0
 10
188.8957271694948
 20
114.4172515216248
 30
0.0
 10
188.3419600904898
 20
113.7758769296445
 30
0.0
 10
187.9777926751886
 20
113.2121285014034
 30
0.0
 10
187.6424164368403
 20
112.5199651715626
 30
0.0
 10
187.3910789208485
 20
111.6827410274207
 30
0.0
 10
187.2919436452253
 20
110.6316664271146
 30
0.0
 10
187.419600160753
 20
109.4836685921539
 30
0.0
 10
187.8856708589194
 20
108.2138928294179
 30
0.0
 10
188.5815424091898
 20
107.2690230273153
 30
0.0
 10
189.2433972697642
 20
106.6788106320118
 30
0.0
 10
189.6753116567336
 20
106.3705707434694
 30
0.0
 10
190.0862538769908
 20
106.1343214675086
 30
0.0
 10
190.6738461177482
 20
105.861248203688
 30
0.0
 10
191.4566047502821
 20
105.626209612806
 30
0.0
 10
192.4524797111466
 20
105.5323057064152
 30
0.0
 10
193.4482243892204
 20
105.6261879145555
 30
0.0
  0
SPLINE
  5
10E
330
1F
100
AcDbEntity
  8
0
  6
HIDDEN
 62
     7
370
     0
100
AcDbSpline
210
0.0
220
0.0
230
1.0
 70
     8
 71
     3
 72
    90
 73
    86
 74
     0
 42
0.00000001
 43
0.00000001
 40
-0.0312499999999996
 40
-0.0312499999999996
 40
0.0
 40
0.0
 40
0.031250000000001
 40
0.031250000000001
 40
0.0468750000000015
 40
0.0468750000000015
 40
0.062500000000002
 40
0.062500000000002
 40
0.0937500000000024
 40
0.0937500000000024
 40
0.1250000000000029
 40
0.1250000000000029
 40
0.1562500000000033
 40
0.1562500000000033
 40
0.1718750000000036
 40
0.1718750000000036
 40
0.1875000000000038
 40
0.1875000000000038
 40
0.2187500000000041
 40
0.2187500000000041
 40
0.2500000000000044
 40
0.2500000000000044
 40
0.2656250000000046
 40
0.2656250000000046
 40
0.2812500000000047
 40
0.2812500000000047
 40
0.3125000000000049
 40
0.3125000000000049
 40
0.3281250000000049
 40
0.3281250000000049
 40
0.343750000000005
 40
0.343750000000005
 40
0.3593750000000051
 40
0.3593750000000051
 40
0.3750000000000051
 40
0.3750000000000051
 40
0.4062500000000047
 40
0.4062500000000047
 40
0.4375000000000044
 40
0.4375000000000044
 40
0.4687500000000041
 40
0.4687500000000041
 40
0.4843750000000039
 40
0.4843750000000039
 40
0.5000000000000037
 40
0.5000000000000037
 40
0.5312500000000039
 40
0.5312500000000039
 40
0.5625000000000041
 40
0.5625000000000041
 40
0.5781250000000041
 40
0.5781250000000041
 40
0.5937500000000042
 40
0.5937500000000042
 40
0.6250000000000044
 40
0.6250000000000044
 40
0.6562500000000042
 40
0.6562500000000042
 40
0.687500000000004
 40
0.687500000000004
 40
0.7031250000000039
 40
0.7031250000000039
 40
0.7187500000000039
 40
0.7187500000000039
 40
0.7500000000000033
 40
0.7500000000000033
 40
0.7812500000000029
 40
0.7812500000000029
 40
0.8125000000000024
 40
0.8125000000000024
 40
0.843750000000002
 40
0.843750000000002
 40
0.8593750000000019
 40
0.8593750000000019
 40
0.8750000000000017
 40
0.8750000000000017
 40
0.8906250000000016
 40
0.8906250000000016
 40
0.9062500000000013
 40
0.9062500000000013
 40
0.9375000000000009
 40
0.9375000000000009
 40
0.9687500000000004
 40
0.9687500000000004
 40
1.0
 40
1.0
 40
1.031250000000001
 40
1.031250000000001
 10
192.8275045044291
 20
105.1702400939165
 30
0.0
 10
192.0776989911635
 20
105.1702400939165
 30
0.0
 10
191.7087513249902
 20
105.2041282723762
 30
0.0
 10
191.1639145553778
 20
105.3040064902087
 30
0.0
 10
190.9837431846553
 20
105.3455348875475
 30
0.0
 10
190.6263446023011
 20
105.4454998611601
 30
0.0
 10
190.4482519083886
 20
105.5043196832244
 30
0.0
 10
189.9283742549382
 20
105.703534054862
 30
0.0
 10
189.5989262829223
 20
105.8666243985252
 30
0.0
 10
188.9740018187317
 20
106.2538317079875
 30
0.0
 10
188.6758301350262
 20
106.480985359517
 30
0.0
 10
188.1378775595427
 20
106.9826262213953
 30
0.0
 10
187.8959110423594
 20
107.2575204614563
 30
0.0
 10
187.574359147553
 20
107.7074617632657
 30
0.0
 10
187.4735848884823
 20
107.8647607548121
 30
0.0
 10
187.2898494059581
 20
108.1871180140409
 30
0.0
 10
187.2068638356186
 20
108.3519233182216
 30
0.0
 10
186.9840100169227
 20
108.8570746017597
 30
0.0
 10
186.8699578149557
 20
109.2080414690204
 30
0.0
 10
186.7146015845148
 20
109.9402146363816
 30
0.0
 10
186.6759604312298
 20
110.310129590499
 30
0.0
 10
186.6751873131252
 20
110.8650972863186
 30
0.0
 10
186.6844733845058
 20
111.0504066663806
 30
0.0
 10
186.7226388517115
 20
111.4216821112887
 30
0.0
 10
186.7516676027211
 20
111.6075673234305
 30
0.0
 10
186.8660716086586
 20
112.1527384329835
 30
0.0
 10
186.9788151845922
 20
112.5042664423278
 30
0.0
 10
187.2023420004432
 20
113.0139599976601
 30
0.0
 10
187.2864202392863
 20
113.1814748825341
 30
0.0
 10
187.4692960241128
 20
113.5034016134129
 30
0.0
 10
187.5683910498118
 20
113.6586676450926
 30
0.0
 10
187.7815037655336
 20
113.9581894878485
 30
0.0
 10
187.8955225901949
 20
114.1024443006771
 30
0.0
 10
188.1385476776381
 20
114.379996368085
 30
0.0
 10
188.2683093599516
 20
114.5139545766371
 30
0.0
 10
188.6740890364992
 20
114.8929558726063
 30
0.0
 10
188.9661261727272
 20
115.1157760475123
 30
0.0
 10
189.5918205354322
 20
115.5047883711065
 30
0.0
 10
189.9284826002334
 20
115.6715507759718
 30
0.0
 10
190.6181811067182
 20
115.9360714129766
 30
0.0
 10
190.9735491270257
 20
116.0358734383616
 30
0.0
 10
191.5224969230886
 20
116.1370739296163
 30
0.0
 10
191.7088333188752
 20
116.1626552100088
 30
0.0
 10
192.0795151109594
 20
116.1964292800851
 30
0.0
 10
192.2646425546334
 20
116.2048273537755
 30
0.0
 10
192.8193976417768
 20
116.2051012329801
 30
0.0
 10
193.1884039130948
 20
116.1723072243408
 30
0.0
 10
193.9246859346471
 20
116.0377307838425
 30
0.0
 10
194.2813633567221
 20
115.9377676174116
 30
0.0
 10
194.7971995658894
 20
115.7406330635171
 30
0.0
 10
194.9660753127703
 20
115.6669715271456
 30
0.0
 10
195.2975500427592
 20
115.5032664375416
 30
0.0
 10
195.4610163673166
 20
115.4126457321961
 30
0.0
 10
195.9333804954395
 20
115.1200016708952
 30
0.0
 10
196.2250319166793
 20
114.8976386683992
 30
0.0
 10
196.7622501665241
 20
114.3978401372466
 30
0.0
 10
197.010099930716
 20
114.116627126485
 30
0.0
 10
197.4384029431256
 20
113.5170747738009
 30
0.0
 10
197.6206231271262
 20
113.1984045405936
 30
0.0
 10
197.8451070657635
 20
112.6910385999006
 30
0.0
 10
197.9120659133886
 20
112.5158499483403
 30
0.0
 10
198.0266409238487
 20
112.1615466081013
 30
0.0
 10
198.074362156888
 20
111.9826140719529
 30
0.0
 10
198.1894728733556
 20
111.4405711616507
 30
0.0
 10
198.229121210221
 20
111.0720212331927
 30
0.0
 10
198.2303908124751
 20
110.3212786762715
 30
0.0
 10
198.192038103926
 20
109.952642965309
 30
0.0
 10
198.0406760591504
 20
109.2282236234783
 30
0.0
 10
197.9255543037058
 20
108.8688276905072
 30
0.0
 10
197.6284162634555
 20
108.1916109622383
 30
0.0
 10
197.446738343748
 20
107.871330864424
 30
0.0
 10
197.1245415519334
 20
107.4179839908781
 30
0.0
 10
197.0087916957168
 20
107.271629390011
 30
0.0
 10
196.7657175312889
 20
106.9941623248962
 30
0.0
 10
196.6378188060075
 20
106.8621963916098
 30
0.0
 10
196.3695633033109
 20
106.6113900089496
 30
0.0
 10
196.2292059312749
 20
106.49255040189
 30
0.0
 10
195.9359326443124
 20
106.2679751269944
 30
0.0
 10
195.7822168774874
 20
106.1618021309186
 30
0.0
 10
195.3104334880194
 20
105.8686512963861
 30
0.0
 10
194.9805243875825
 20
105.7053366722178
 30
0.0
 10
194.290732124034
 20
105.4402445940982
 30
0.0
 10
193.9280006473244
 20
105.3384341205963
 30
0.0
 10
193.1976865216521
 20
105.2041562067184
 30
0.0
 10
192.8275045044291
 20
105.1702400939165
 30
0.0
 10
192.0776989911635
 20
105.1702400939165
 30
0.0
  0
LINE
  5
10F
330
1F
100
AcDbEntity
  8
0
  6
HIDDEN
 62
     7
370
     0
100
AcDbLine
 10
86.2026017478
 20
83.3175797463
 30
0.0
 11
86.2026017478
 21
78.4392945445
 31
0.0
  0
LINE
  5
110
330
1F
100
AcDbEntity
  8
0
  6
HIDDEN
 62
     7
370
     0
100
AcDbLine
 10
99.6526017478
 20
83.3175797463
 30
0.0
 11
99.6526017478
 21
76.8182464809
 31
0.0
  0
LINE
  5
111
330
1F
100
AcDbEntity
  8
0
  6
HIDDEN
 62
     7
370
     0
100
AcDbLine
 10
94.6526017478
 20
138.0575797463
 30
0.0
 11
94.6526017478
 21
144.4321884833
 31
0.0
  0
LINE
  5
112
330
1F
100
AcDbEntity
  8
0
  6
HIDDEN
 62
     7
370
     0
100
AcDbLine
 10
86.2026017478
 20
138.0575797463
 30
0.0
 11
86.2026017478
 21
142.9358649481
 31
0.0
  0
LINE
  5
113
330
1F
100
AcDbEntity
  8
0
  6
HIDDEN
 62
     7
370
     0
100
AcDbLine
 10
158.7526017478
 20
97.6875797463
 30
0.0
 11
158.7526017478
 21
123.6875797463
 31
0.0
  0
LINE
  5
114
330
1F
100
AcDbEntity
  8
0
  6
HIDDEN
 62
     7
370
     0
100
AcDbLine
 10
162.7526017478
 20
97.6875797463
 30
0.0
 11
162.7526017478
 21
123.6875797463
 31
0.0
  0
LINE
  5
115
330
1F
100
AcDbEntity
  8
0
  6
HIDDEN
 62
     7
370
     0
100
AcDbLine
 10
147.6526017478
 20
99.4375797463
 30
0.0
 11
147.6526017478
 21
121.9375797463
 31
0.0
  0
ELLIPSE
  5
116
330
1F
100
AcDbEntity
  8
0
  6
HIDDEN
 62
     7
370
     0
100
AcDbEllipse
 10
78.2679285475
 20
110.6875797463
 30
0.0
 11
31.08108570811662
 21
-1.421085471520200E-14
 31
0.0
210
0.0
220
0.0
230
1.0
 40
0.8164965809
 41
4.915995335118103
 42
4.970536038964788
  0
ELLIPSE
  5
117
330
1F
100
AcDbEntity
  8
0
  6
HIDDEN
 62
     7
370
     0
100
AcDbEllipse
 10
78.2679285475
 20
110.6875797463
 30
0.0
 11
31.08108570811662
 21
1.421085471520200E-14
 31
0.0
210
0.0
220
0.0
230
1.0
 40
0.8164965809
 41
1.312649268214811
 42
1.367189972061495
  0
LINE
  5
118
330
1F
100
AcDbEntity
  8
0
  6
HIDDEN
 62
     7
370
     0
100
AcDbLine
 10
163.4026017478
 20
66.7875797463
 30
0.0
 11
149.4026017478
 21
66.7875797463
 31
0.0
  0
LINE
  5
119
330
1F
100
AcDbEntity
  8
0
  6
HIDDEN
 62
     7
370
     0
100
AcDbLine
 10
139.4026017478
 20
60.6975807465
 30
0.0
 11
139.4026017478
 21
66.7875797463
 31
0.0
  0
LINE
  5
11A
330
1F
100
AcDbEntity
  8
0
  6
HIDDEN
 62
     7
370
     0
100
AcDbLine
 10
149.4026017478
 20
66.7875797463
 30
0.0
 11
139.4026017478
 21
66.7875797463
 31
0.0
  0
SPLINE
  5
11B
330
1F
100
AcDbEntity
  8
0
  6
HIDDEN
 62
     7
370
     0
100
AcDbSpline
210
0.0
220
0.0
230
1.0
 70
     8
 71
     3
 72
    14
 73
    10
 74
     0
 42
0.00000001
 43
0.00000001
 40
0.0
 40
0.0
 40
0.0
 40
0.0
 40
0.25
 40
0.25
 40
0.5
 40
0.5
 40
0.75
 40
0.75
 40
1.0
 40
1.0
 40
1.0
 40
1.0
 10
169.4663273943005
 20
101.5919322168298
 30
0.0
 10
169.4339745009351
 20
101.5555411800317
 30
0.0
 10
169.4030003166972
 20
101.5199705488546
 30
0.0
 10
169.3531540760036
 20
101.4386998010796
 30
0.0
 10
169.334454233328
 20
101.3906592083562
 30
0.0
 10
169.3444953896179
 20
101.2554223520088
 30
0.0
 10
169.3710859941653
 20
101.1752253329625
 30
0.0
 10
169.4325030924381
 20
101.0201125257765
 30
0.0
 10
169.4681433454074
 20
100.9432194365657
 30
0.0
 10
169.5052825277848
 20
100.8676277314372
 30
0.0
  0
SPLINE
  5
11C
330
1F
100
AcDbEntity
  8
0
  6
HIDDEN
 62
     7
370
     0
100
AcDbSpline
210
0.0
220
0.0
230
1.0
 70
     8
 71
     3
 72
    14
 73
    10
 74
     0
 42
0.00000001
 43
0.00000001
 40
0.0
 40
0.0
 40
0.0
 40
0.0
 40
0.2499999999999983
 40
0.2499999999999983
 40
0.4999999999999967
 40
0.4999999999999967
 40
0.7499999999999983
 40
0.7499999999999983
 40
1.0
 40
1.0
 40
1.0
 40
1.0
 10
169.5052825277854
 20
100.8676277314367
 30
0.0
 10
169.541402272692
 20
100.9006768432095
 30
0.0
 10
169.5728539907844
 20
100.94088973328
 30
0.0
 10
169.6162589593561
 20
101.0400676892198
 30
0.0
 10
169.626732885216
 20
101.0973456877978
 30
0.0
 10
169.6182715317008
 20
101.2267174127824
 30
0.0
 10
169.5993058221641
 20
101.2971472027007
 30
0.0
 10
169.5427953686113
 20
101.442353442904
 30
0.0
 10
169.5061749995428
 20
101.5163765334601
 30
0.0
 10
169.4663273943007
 20
101.5919322168305
 30
0.0
  0
SPLINE
  5
11D
330
1F
100
AcDbEntity
  8
0
  6
HIDDEN
 62
     7
370
     0
100
AcDbSpline
210
0.0
220
0.0
230
1.0
 70
     8
 71
     3
 72
    10
 73
     6
 74
     0
 42
0.00000001
 43
0.00000001
 40
0.0
 40
0.0
 40
0.0
 40
0.0
 40
0.5
 40
0.5
 40
1.0
 40
1.0
 40
1.0
 40
1.0
 10
168.9526017477959
 20
102.2710141348552
 30
0.0
 10
168.9526017477959
 20
102.2946549987848
 30
0.0
 10
168.9537176246223
 20
102.3161061618123
 30
0.0
 10
168.9580108079591
 20
102.3548442094702
 30
0.0
 10
168.961189081189
 20
102.37213350897
 30
0.0
 10
168.9653280910643
 20
102.3872780487914
 30
0.0
  0
SPLINE
  5
11E
330
1F
100
AcDbEntity
  8
0
  6
HIDDEN
 62
     7
370
     0
100
AcDbSpline
210
0.0
220
0.0
230
1.0
 70
     8
 71
     3
 72
    18
 73
    14
 74
     0
 42
0.00000001
 43
0.00000001
 40
0.0
 40
0.0
 40
0.0
 40
0.0
 40
0.0737501331173386
 40
0.1624121644508207
 40
0.2240281320612256
 40
0.2729194914005904
 40
0.3218740121895636
 40
0.3894563753153213
 40
0.5009270566267549
 40
0.6197456719438903
 40
0.7649252634868513
 40
0.8997851949351715
 40
1.0
 40
1.0
 40
1.0
 40
1.0
 10
168.9819061941425
 20
102.4170831059885
 30
0.0
 10
168.9872692697687
 20
102.4291891831762
 30
0.0
 10
168.9990798073738
 20
102.4558491241954
 30
0.0
 10
169.0217808047188
 20
102.4546974909962
 30
0.0
 10
169.0373476261525
 20
102.432450693342
 30
0.0
 10
169.0427728857319
 20
102.3913915608132
 30
0.0
 10
169.038796281321
 20
102.3298380401126
 30
0.0
 10
169.0221926631221
 20
102.2301676207882
 30
0.0
 10
168.9940519483329
 20
102.0948530874093
 30
0.0
 10
168.9640449179677
 20
101.9295884104272
 30
0.0
 10
168.9488445600157
 20
101.7739330809736
 30
0.0
 10
168.9562260698169
 20
101.6605545706983
 30
0.0
 10
168.9737920941385
 20
101.6296662739173
 30
0.0
 10
168.9812806730019
 20
101.6164982717466
 30
0.0
  0
LWPOLYLINE
  5
11F
330
1F
100
AcDbEntity
  8
0
  6
HIDDEN
 62
     7
370
     0
100
AcDbPolyline
 90
       10
 70
   128
 43
0.0
 10
168.9875749219
 20
101.6018985324
 10
169.0251085472
 20
101.5988485683
 10
169.0371588187
 20
101.6241270312
 10
169.0412866692
 20
101.6730464536
 10
169.0359188825
 20
101.7318814305
 10
169.0202083316
 20
101.8211431705
 10
168.9896726304
 20
101.9704741464
 10
168.9597728111
 20
102.1553593085
 10
168.9526017478
 20
102.2710141349
 10
168.9526017478
 20
102.2710141349
  0
SPLINE
  5
120
330
1F
100
AcDbEntity
  8
0
  6
HIDDEN
 62
     7
370
     0
100
AcDbSpline
210
0.0
220
0.0
230
1.0
 70
     8
 71
     3
 72
     8
 73
     4
 74
     0
 42
0.00000001
 43
0.00000001
 40
0.0
 40
0.0
 40
0.0
 40
0.0
 40
1.0
 40
1.0
 40
1.0
 40
1.0
 10
171.6946357870068
 20
106.8846003357401
 30
0.0
 10
171.6532611676083
 20
106.9229027808771
 30
0.0
 10
171.6076487040107
 20
106.9633523336781
 30
0.0
 10
171.5578277296766
 20
107.0080072083108
 30
0.0
  0
SPLINE
  5
121
330
1F
100
AcDbEntity
  8
0
  6
HIDDEN
 62
     7
370
     0
100
AcDbSpline
210
0.0
220
0.0
230
1.0
 70
     8
 71
     3
 72
    36
 73
    32
 74
     0
 42
0.00000001
 43
0.00000001
 40
0.0
 40
0.0
 40
0.0
 40
0.0
 40
0.0625000000000005
 40
0.0625000000000005
 40
0.125000000000001
 40
0.125000000000001
 40
0.1875000000000014
 40
0.1875000000000014
 40
0.2500000000000019
 40
0.2500000000000019
 40
0.3125000000000024
 40
0.3125000000000024
 40
0.3750000000000029
 40
0.3750000000000029
 40
0.5000000000000023
 40
0.5000000000000023
 40
0.562500000000002
 40
0.562500000000002
 40
0.6250000000000018
 40
0.6250000000000018
 40
0.6875000000000014
 40
0.6875000000000014
 40
0.7500000000000011
 40
0.7500000000000011
 40
0.8125000000000009
 40
0.8125000000000009
 40
0.8750000000000006
 40
0.8750000000000006
 40
0.9375000000000003
 40
0.9375000000000003
 40
1.0
 40
1.0
 40
1.0
 40
1.0
 10
171.5578277296766
 20
107.0080072083108
 30
0.0
 10
171.4558770820639
 20
107.0993862599792
 30
0.0
 10
171.3401237615835
 20
107.1782306566923
 30
0.0
 10
171.0809241303378
 20
107.3080771770555
 30
0.0
 10
170.9407204457549
 20
107.3569322538895
 30
0.0
 10
170.6483947322823
 20
107.4168633354296
 30
0.0
 10
170.4959891675897
 20
107.4276068687422
 30
0.0
 10
170.1968465332803
 20
107.4089252635917
 30
0.0
 10
170.0472526949325
 20
107.3791900682353
 30
0.0
 10
169.7688657821766
 20
107.2850464206302
 30
0.0
 10
169.6364042459955
 20
107.2194479014015
 30
0.0
 10
169.4033355506506
 20
107.0637593567223
 30
0.0
 10
169.2993553964548
 20
106.9714921605784
 30
0.0
 10
169.0468756467292
 20
106.6755418908724
 30
0.0
 10
168.9527296154175
 20
106.4464866167544
 30
0.0
 10
168.9525380158776
 20
106.1266412485349
 30
0.0
 10
168.9750142974206
 20
106.0250595880016
 30
0.0
 10
169.064338852626
 20
105.8354055468146
 30
0.0
 10
169.1292414680891
 20
105.7506573780707
 30
0.0
 10
169.2994898436908
 20
105.5984665695775
 30
0.0
 10
169.4010215046815
 20
105.5344911097226
 30
0.0
 10
169.6356567429865
 20
105.4274476761307
 30
0.0
 10
169.7662516937282
 20
105.3858515875905
 30
0.0
 10
170.0451795975659
 20
105.3261853016465
 30
0.0
 10
170.1941760075946
 20
105.3081904762555
 30
0.0
 10
170.4930870800152
 20
105.296558573032
 30
0.0
 10
170.6463130705699
 20
105.3028880739625
 30
0.0
 10
170.93777073994
 20
105.3393519663395
 30
0.0
 10
171.0801124087814
 20
105.370029153179
 30
0.0
 10
171.3375299650313
 20
105.4539602196869
 30
0.0
 10
171.4558688098974
 20
105.5080434651759
 30
0.0
 10
171.5578277296766
 20
105.5737997414659
 30
0.0
  0
SPLINE
  5
122
330
1F
100
AcDbEntity
  8
0
  6
HIDDEN
 62
     7
370
     0
100
AcDbSpline
210
0.0
220
0.0
230
1.0
 70
     8
 71
     3
 72
     8
 73
     4
 74
     0
 42
0.00000001
 43
0.00000001
 40
0.0
 40
0.0
 40
0.0
 40
0.0
 40
1.0
 40
1.0
 40
1.0
 40
1.0
 10
171.5578277296766
 20
105.5737997414659
 30
0.0
 10
171.6076487040107
 20
105.6059307385424
 30
0.0
 10
171.6532611676083
 20
105.6470797712648
 30
0.0
 10
171.6946357870068
 20
105.6951875012353
 30
0.0
  0
SPLINE
  5
123
330
1F
100
AcDbEntity
  8
0
  6
HIDDEN
 62
     7
370
     0
100
AcDbSpline
210
0.0
220
0.0
230
1.0
 70
     8
 71
     3
 72
    12
 73
     8
 74
     0
 42
0.00000001
 43
0.00000001
 40
0.0
 40
0.0
 40
0.0
 40
0.0
 40
0.25
 40
0.25
 40
0.5
 40
0.5
 40
1.0
 40
1.0
 40
1.0
 40
1.0
 10
171.6946357870068
 20
105.6951875012353
 30
0.0
 10
171.7785194554635
 20
105.7927220025724
 30
0.0
 10
171.8423831610952
 20
105.8933507287542
 30
0.0
 10
171.9301948362535
 20
106.1034575954832
 30
0.0
 10
171.9524656890137
 20
106.2100524416686
 30
0.0
 10
171.9528720016511
 20
106.5257674239336
 30
0.0
 10
171.8624020778919
 20
106.7292911329998
 30
0.0
 10
171.6946357870068
 20
106.8846003357401
 30
0.0
  0
SPLINE
  5
124
330
1F
100
AcDbEntity
  8
0
  6
HIDDEN
 62
     7
370
     0
100
AcDbSpline
210
0.0
220
0.0
230
1.0
 70
     8
 71
     3
 72
    14
 73
    10
 74
     0
 42
0.00000001
 43
0.00000001
 40
0.0
 40
0.0
 40
0.0
 40
0.0
 40
0.25
 40
0.25
 40
0.5
 40
0.5
 40
0.75
 40
0.75
 40
1.0
 40
1.0
 40
1.0
 40
1.0
 10
169.5052825277853
 20
102.5123686200867
 30
0.0
 10
169.4680704408153
 20
102.5452427201167
 30
0.0
 10
169.4323318847599
 20
102.5766968151322
 30
0.0
 10
169.3708361555772
 20
102.6467321104567
 30
0.0
 10
169.3443292896412
 20
102.6858335192155
 30
0.0
 10
169.334545949206
 20
102.8050120600767
 30
0.0
 10
169.3533291450153
 20
102.883297143486
 30
0.0
 10
169.4032477536006
 20
103.0369407627676
 30
0.0
 10
169.4340564880159
 20
103.1140942324926
 30
0.0
 10
169.4663273943007
 20
103.1902206136078
 30
0.0
  0
SPLINE
  5
125
330
1F
100
AcDbEntity
  8
0
  6
HIDDEN
 62
     7
370
     0
100
AcDbSpline
210
0.0
220
0.0
230
1.0
 70
     8
 71
     3
 72
    10
 73
     6
 74
     0
 42
0.00000001
 43
0.00000001
 40
0.0
 40
0.0
 40
0.0
 40
0.0
 40
0.5
 40
0.5
 40
1.0
 40
1.0
 40
1.0
 40
1.0
 10
169.4663273943007
 20
103.1902206136078
 30
0.0
 10
169.5458974574696
 20
103.1375489837212
 30
0.0
 10
169.613592840628
 20
103.0519974213218
 30
0.0
 10
169.6312670637975
 20
102.8078625156124
 30
0.0
 10
169.57754534439
 20
102.6617304239068
 30
0.0
 10
169.5052825277855
 20
102.5123686200866
 30
0.0
  0
SPLINE
  5
126
330
1F
100
AcDbEntity
  8
0
  6
HIDDEN
 62
     7
370
     0
100
AcDbSpline
210
0.0
220
0.0
230
1.0
 70
     8
 71
     3
 72
    48
 73
    44
 74
     0
 42
0.00000001
 43
0.00000001
 40
-0.0625
 40
-0.0625
 40
0.0
 40
0.0
 40
0.0312500000000008
 40
0.0312500000000008
 40
0.0625000000000015
 40
0.0625000000000015
 40
0.1250000000000015
 40
0.1250000000000015
 40
0.1875000000000015
 40
0.1875000000000015
 40
0.2500000000000015
 40
0.2500000000000015
 40
0.3125000000000015
 40
0.3125000000000015
 40
0.3437500000000021
 40
0.3437500000000021
 40
0.3750000000000026
 40
0.3750000000000026
 40
0.4062500000000032
 40
0.4062500000000032
 40
0.4375000000000037
 40
0.4375000000000037
 40
0.5000000000000032
 40
0.5000000000000032
 40
0.5625000000000029
 40
0.5625000000000029
 40
0.6250000000000023
 40
0.6250000000000023
 40
0.6875000000000019
 40
0.6875000000000019
 40
0.7500000000000014
 40
0.7500000000000014
 40
0.812500000000001
 40
0.812500000000001
 40
0.8437500000000008
 40
0.8437500000000008
 40
0.8750000000000004
 40
0.8750000000000004
 40
0.9062500000000002
 40
0.9062500000000002
 40
0.9375
 40
0.9375
 40
1.0
 40
1.0
 40
1.031250000000001
 40
1.031250000000001
 10
171.5833917251479
 20
100.8214709260134
 30
0.0
 10
171.7054595556649
 20
100.8248622512353
 30
0.0
 10
171.7439218855825
 20
100.8333090671816
 30
0.0
 10
171.814071361349
 20
100.8655839312358
 30
0.0
 10
171.8460884941241
 20
100.8898566887016
 30
0.0
 10
171.9248240810418
 20
100.9866793502229
 30
0.0
 10
171.9545524818627
 20
101.0858289879579
 30
0.0
 10
171.9504407278326
 20
101.3347507897276
 30
0.0
 10
171.9163946351671
 20
101.4853522368221
 30
0.0
 10
171.8050284766423
 20
101.7942674073507
 30
0.0
 10
171.7286295530518
 20
101.9530272869765
 30
0.0
 10
171.5654563727875
 20
102.2607985338148
 30
0.0
 10
171.4768169067719
 20
102.4115360667249
 30
0.0
 10
171.367602806043
 20
102.6294612802474
 30
0.0
 10
171.3346812583311
 20
102.7026169399399
 30
0.0
 10
171.2902305453312
 20
102.8421535835857
 30
0.0
 10
171.2789977269072
 20
102.9101542189542
 30
0.0
 10
171.2857855253311
 20
103.0300877304654
 30
0.0
 10
171.3035324886167
 20
103.0835064651203
 30
0.0
 10
171.3556830150894
 20
103.1716535434498
 30
0.0
 10
171.3900561795567
 20
103.2077757295341
 30
0.0
 10
171.5020028402546
 20
103.2938750798849
 30
0.0
 10
171.5874868174081
 20
103.3229720972792
 30
0.0
 10
171.7456382953086
 20
103.3265106927139
 30
0.0
 10
171.8178831707434
 20
103.3005458392337
 30
0.0
 10
171.9235732271284
 20
103.1788487752864
 30
0.0
 10
171.9540722728867
 20
103.0820000160587
 30
0.0
 10
171.9510158969687
 20
102.8328509455915
 30
0.0
 10
171.9170932465743
 20
102.6799156227247
 30
0.0
 10
171.8071278189762
 20
102.3670347265585
 30
0.0
 10
171.7319725535833
 20
102.2060788044992
 30
0.0
 10
171.5732126238369
 20
101.8965763422952
 30
0.0
 10
171.4865679031952
 20
101.7436978757644
 30
0.0
 10
171.3780977687495
 20
101.5250742602725
 30
0.0
 10
171.3451482020987
 20
101.4529272744873
 30
0.0
 10
171.2963586623384
 20
101.3105792646255
 30
0.0
 10
171.2817670682147
 20
101.2422906127045
 30
0.0
 10
171.2817488313832
 20
101.1172098507152
 30
0.0
 10
171.2964310583424
 20
101.0623482952346
 30
0.0
 10
171.346443434367
 20
100.9704022717872
 30
0.0
 10
171.3804297403977
 20
100.9340837067148
 30
0.0
 10
171.4947273089903
 20
100.8476106177757
 30
0.0
 10
171.5833917251479
 20
100.8214709260134
 30
0.0
 10
171.7054595556649
 20
100.8248622512353
 30
0.0
  0
LWPOLYLINE
  5
127
330
1F
100
AcDbEntity
  8
0
  6
HIDDEN
 62
     7
370
     0
100
AcDbPolyline
 90
       18
 70
   128
 43
0.0
 10
170.4526017478
 20
99.7274246379
 10
169.9107392485
 20
99.7990486547
 10
169.4420582823
 20
100.0042474846
 10
169.1098568108
 20
100.3153078887
 10
168.9590004834
 20
100.6902194357
 10
169.009863283
 20
101.0783482437
 10
169.2555759069
 20
101.4272753666
 10
169.6629535035
 20
101.6898762629
 10
170.1769774711
 20
101.8306852264
 10
170.7282260245
 20
101.8306852264
 10
171.2422499921
 20
101.6898762629
 10
171.6496275887
 20
101.4272753666
 10
171.8953402126
 20
101.0783482437
 10
171.9462030122
 20
100.6902194357
 10
171.7953466848
 20
100.3153078887
 10
171.4631452133
 20
100.0042474846
 10
170.9944642471
 20
99.7990486547
 10
170.4526017478
 20
99.7274246379
  0
LINE
  5
128
330
1F
100
AcDbEntity
  8
0
  6
HIDDEN
 62
     7
370
     0
100
AcDbLine
 10
99.6526017478
 20
83.3175797463
 30
0.0
 11
99.6526017478
 21
85.4590661159
 31
0.0
  0
LINE
  5
129
330
1F
100
AcDbEntity
  8
0
  6
HIDDEN
 62
     7
370
     0
100
AcDbLine
 10
86.2026017478
 20
83.3175797463
 30
0.0
 11
86.2026017478
 21
86.1508745885
 31
0.0
  0
LINE
  5
12A
330
1F
100
AcDbEntity
  8
0
  6
HIDDEN
 62
     7
370
     0
100
AcDbLine
 10
86.2026017478
 20
138.0575797463
 30
0.0
 11
86.2026017478
 21
135.2242849041
 31
0.0
  0
LINE
  5
12B
330
1F
100
AcDbEntity
  8
0
  6
HIDDEN
 62
     7
370
     0
100
AcDbLine
 10
94.6526017478
 20
138.0575797463
 30
0.0
 11
94.6526017478
 21
135.9160933767
 31
0.0
  0
LINE
  5
12C
330
1F
100
AcDbEntity
  8
0
  6
HIDDEN
 62
     7
370
     0
100
AcDbLine
 10
149.4026017478
 20
154.5875797463
 30
0.0
 11
139.4026017478
 21
154.5875797463
 31
0.0
  0
LINE
  5
12D
330
1F
100
AcDbEntity
  8
0
  6
HIDDEN
 62
     7
370
     0
100
AcDbLine
 10
163.4026017478
 20
154.5875797463
 30
0.0
 11
149.4026017478
 21
154.5875797463
 31
0.0
  0
ARC
  5
12E
330
1F
100
AcDbEntity
  8
0
  6
HIDDEN
 62
     7
370
     0
100
AcDbCircle
 10
156.3571876288
 20
102.0968127454
 30
0.0
 40
13.15466024484349
100
AcDbArc
 50
1.810275534
 51
4.7678934514
  0
ARC
  5
12F
330
1F
100
AcDbEntity
  8
0
  6
HIDDEN
 62
     7
370
     0
100
AcDbCircle
 10
185.6549521044
 20
102.099402209
 30
0.0
 40
16.19657666904114
100
AcDbArc
 50
181.7954811518
 51
184.3616432552
  0
SPLINE
  5
130
330
1F
100
AcDbEntity
  8
0
  6
HIDDEN
 62
     7
370
     0
100
AcDbSpline
210
0.0
220
0.0
230
1.0
 70
     8
 71
     3
 72
    30
 73
    26
 74
     0
 42
0.00000001
 43
0.00000001
 40
0.0
 40
0.0
 40
0.0
 40
0.0
 40
0.0531112987298264
 40
0.1124940188185966
 40
0.1778933897680085
 40
0.2129185844003079
 40
0.2494728708380342
 40
0.2912400419309284
 40
0.326083496184741
 40
0.3539995211012595
 40
0.3749854693572334
 40
0.4414452417468541
 40
0.5001647036357555
 40
0.5546811355879633
 40
0.6144272327503173
 40
0.6794546327315164
 40
0.7140127289596506
 40
0.7499108421230631
 40
0.7913766638464454
 40
0.8260447015782167
 40
0.8539111713846603
 40
0.8749732210745442
 40
0.9411617871948926
 40
0.9999141541336123
 40
0.9999999999999999
 40
0.9999999999999999
 40
0.9999999999999999
 40
0.9999999999999999
 10
125.452086552043
 20
73.5876681934529
 30
0.0
 10
125.4358965720695
 20
73.59256645446858
 30
0.0
 10
125.4016048873365
 20
73.6029413667764
 30
0.0
 10
125.1003268745396
 20
73.67858506343278
 30
0.0
 10
124.6581630377138
 20
73.77487017496043
 30
0.0
 10
124.1633296247008
 20
73.87453518247024
 30
0.0
 10
123.6928541031302
 20
73.96681328850552
 30
0.0
 10
123.161932634514
 20
74.06244533325396
 30
0.0
 10
122.6237821422721
 20
74.1480955736261
 30
0.0
 10
122.1657348061313
 20
74.2153873671498
 30
0.0
 10
121.510170485482
 20
74.30373553599381
 30
0.0
 10
120.6268640472072
 20
74.40039362031838
 30
0.0
 10
119.4982023145771
 20
74.48716879705871
 30
0.0
 10
118.4084405648114
 20
74.52524749477713
 30
0.0
 10
117.3124122863868
 20
74.52709792953904
 30
0.0
 10
116.4070210394414
 20
74.5009364739544
 30
0.0
 10
115.7107183290266
 20
74.46432924882541
 30
0.0
 10
115.1840386007515
 20
74.42531237334838
 30
0.0
 10
114.7173924857189
 20
74.38310324587643
 30
0.0
 10
114.3461772099951
 20
74.34609915630705
 30
0.0
 10
114.092130732753
 20
74.31739839586271
 30
0.0
 10
113.7910755800436
 20
74.28101844527279
 30
0.0
 10
113.5355917852404
 20
74.24823827828669
 30
0.0
 10
113.4363710602931
 20
74.23190039357686
 30
0.0
 10
113.4526516175769
 20
74.23449397975071
 30
0.0
 10
113.4526753711629
 20
74.2344977638332
 30
0.0
  0
SPLINE
  5
131
330
1F
100
AcDbEntity
  8
0
  6
HIDDEN
 62
     7
370
     0
100
AcDbSpline
210
0.0
220
0.0
230
1.0
 70
     8
 71
     3
 72
    30
 73
    26
 74
     0
 42
0.00000001
 43
0.00000001
 40
0.0
 40
0.0
 40
0.0
 40
0.0
 40
0.0001272136037053
 40
0.0285575768301964
 40
0.0588606900570981
 40
0.0910407278469526
 40
0.1251011153551471
 40
0.1546891980310985
 40
0.1963674194790553
 40
0.2501213128420439
 40
0.3205355022169049
 40
0.3856195761166429
 40
0.445412116868058
 40
0.499964613104284
 40
0.5283564600628781
 40
0.5586405974100715
 40
0.5908246877662545
 40
0.624915055232087
 40
0.6541896055581143
 40
0.6958675353899085
 40
0.749934451866759
 40
0.8215931844567005
 40
0.8871439710245103
 40
0.9466386692604897
 40
1.0
 40
1.0
 40
1.0
 40
1.0
 10
113.4527097016584
 20
147.1405887023104
 30
0.0
 10
113.4526736026384
 20
147.1405965735246
 30
0.0
 10
113.4445699053351
 20
147.1423635449596
 30
0.0
 10
113.4732272790897
 20
147.136909523182
 30
0.0
 10
113.5466189770639
 20
147.1263657029101
 30
0.0
 10
113.6902740957818
 20
147.1066807809755
 30
0.0
 10
113.8913101940881
 20
147.0818414372402
 30
0.0
 10
114.1739406410002
 20
147.0476329926268
 30
0.0
 10
114.5873498050527
 20
147.003953088151
 30
0.0
 10
115.2636372908258
 20
146.9409100237076
 30
0.0
 10
116.2020681973459
 20
146.8796128521511
 30
0.0
 10
117.3115614093516
 20
146.8483244089494
 30
0.0
 10
118.4090421403935
 20
146.8499795764753
 30
0.0
 10
119.3090733787744
 20
146.8812857785879
 30
0.0
 10
120.0204143046356
 20
146.9281189273883
 30
0.0
 10
120.585831205624
 20
146.9752857892847
 30
0.0
 10
121.1747546284531
 20
147.0347247958346
 30
0.0
 10
121.7391642809304
 20
147.1010820024426
 30
0.0
 10
122.3333604748666
 20
147.1830014088741
 30
0.0
 10
122.9999686358371
 20
147.2846493916246
 30
0.0
 10
123.8013013815373
 20
147.4267883022248
 30
0.0
 10
124.5538113660452
 20
147.5780328729912
 30
0.0
 10
125.0990978610114
 20
147.6958837462506
 30
0.0
 10
125.4018193925102
 20
147.7721129779999
 30
0.0
 10
125.4361098431233
 20
147.7825652874944
 30
0.0
 10
125.4523232797733
 20
147.7875074172946
 30
0.0
  0
SPLINE
  5
132
330
1F
100
AcDbEntity
  8
0
  6
HIDDEN
 62
     7
370
     0
100
AcDbSpline
210
0.0
220
0.0
230
1.0
 70
     8
 71
     3
 72
    36
 73
    32
 74
     0
 42
0.00000001
 43
0.00000001
 40
0.0
 40
0.0
 40
0.0
 40
0.0
 40
0.0625000000000006
 40
0.0625000000000006
 40
0.1250000000000012
 40
0.1250000000000012
 40
0.1875000000000018
 40
0.1875000000000018
 40
0.2500000000000024
 40
0.2500000000000024
 40
0.3125000000000031
 40
0.3125000000000031
 40
0.3750000000000037
 40
0.3750000000000037
 40
0.5000000000000031
 40
0.5000000000000031
 40
0.5625000000000027
 40
0.5625000000000027
 40
0.6250000000000023
 40
0.6250000000000023
 40
0.6875000000000019
 40
0.6875000000000019
 40
0.7500000000000016
 40
0.7500000000000016
 40
0.8125000000000011
 40
0.8125000000000011
 40
0.8750000000000008
 40
0.8750000000000008
 40
0.9375000000000003
 40
0.9375000000000003
 40
1.0
 40
1.0
 40
1.0
 40
1.0
 10
171.5578277296766
 20
114.3671522842703
 30
0.0
 10
171.4558770820639
 20
114.2757732326019
 30
0.0
 10
171.3401237615835
 20
114.1969288358888
 30
0.0
 10
171.0809241303378
 20
114.0670823155257
 30
0.0
 10
170.9407204457549
 20
114.0182272386916
 30
0.0
 10
170.6483947322824
 20
113.9582961571515
 30
0.0
 10
170.4959891675897
 20
113.9475526238389
 30
0.0
 10
170.1968465332803
 20
113.9662342289894
 30
0.0
 10
170.0472526949324
 20
113.9959694243458
 30
0.0
 10
169.7688657821766
 20
114.0901130719509
 30
0.0
 10
169.6364042459955
 20
114.1557115911796
 30
0.0
 10
169.4033355506506
 20
114.3114001358588
 30
0.0
 10
169.2993553964548
 20
114.4036673320027
 30
0.0
 10
169.0468756467292
 20
114.6996176017087
 30
0.0
 10
168.9527296154175
 20
114.9286728758267
 30
0.0
 10
168.9525380158776
 20
115.2485182440462
 30
0.0
 10
168.9750142974206
 20
115.3500999045795
 30
0.0
 10
169.064338852626
 20
115.5397539457665
 30
0.0
 10
169.1292414680891
 20
115.6245021145104
 30
0.0
 10
169.2994898436908
 20
115.7766929230036
 30
0.0
 10
169.4010215046815
 20
115.8406683828585
 30
0.0
 10
169.6356567429865
 20
115.9477118164504
 30
0.0
 10
169.7662516937282
 20
115.9893079049906
 30
0.0
 10
170.045179597566
 20
116.0489741909346
 30
0.0
 10
170.1941760075945
 20
116.0669690163256
 30
0.0
 10
170.4930870800153
 20
116.0786009195491
 30
0.0
 10
170.64631307057
 20
116.0722714186186
 30
0.0
 10
170.93777073994
 20
116.0358075262416
 30
0.0
 10
171.0801124087814
 20
116.0051303394021
 30
0.0
 10
171.3375299650313
 20
115.9211992728942
 30
0.0
 10
171.4558688098974
 20
115.8671160274052
 30
0.0
 10
171.5578277296766
 20
115.8013597511152
 30
0.0
  0
SPLINE
  5
133
330
1F
100
AcDbEntity
  8
0
  6
HIDDEN
 62
     7
370
     0
100
AcDbSpline
210
0.0
220
0.0
230
1.0
 70
     8
 71
     3
 72
     8
 73
     4
 74
     0
 42
0.00000001
 43
0.00000001
 40
0.0
 40
0.0
 40
0.0
 40
0.0
 40
1.0
 40
1.0
 40
1.0
 40
1.0
 10
171.5578277296766
 20
115.8013597511152
 30
0.0
 10
171.6076487040107
 20
115.7692287540387
 30
0.0
 10
171.6532611676083
 20
115.7280797213163
 30
0.0
 10
171.6946357870068
 20
115.6799719913458
 30
0.0
  0
LINE
  5
134
330
1F
100
AcDbEntity
  8
0
  6
HIDDEN
 62
     7
370
     0
100
AcDbLine
 10
168.4526017478
 20
104.7875797463
 30
0.0
 11
168.4526017478
 21
116.5875797463
 31
0.0
  0
SPLINE
  5
135
330
1F
100
AcDbEntity
  8
0
  6
HIDDEN
 62
     7
370
     0
100
AcDbSpline
210
0.0
220
0.0
230
1.0
 70
     8
 71
     3
 72
    12
 73
     8
 74
     0
 42
0.00000001
 43
0.00000001
 40
0.0
 40
0.0
 40
0.0
 40
0.0
 40
0.2499999999999998
 40
0.2499999999999998
 40
0.4999999999999996
 40
0.4999999999999996
 40
1.0
 40
1.0
 40
1.0
 40
1.0
 10
171.6946357870068
 20
115.6799719913458
 30
0.0
 10
171.7785194554636
 20
115.5824374900087
 30
0.0
 10
171.8423831610952
 20
115.4818087638269
 30
0.0
 10
171.9301948362535
 20
115.2717018970979
 30
0.0
 10
171.9524656890137
 20
115.1651070509125
 30
0.0
 10
171.9528720016511
 20
114.8493920686475
 30
0.0
 10
171.8624020778919
 20
114.6458683595813
 30
0.0
 10
171.6946357870068
 20
114.490559156841
 30
0.0
  0
LINE
  5
136
330
1F
100
AcDbEntity
  8
0
  6
HIDDEN
 62
     7
370
     0
100
AcDbLine
 10
172.4526017478
 20
104.6875797463
 30
0.0
 11
172.4526017478
 21
116.6875797463
 31
0.0
  0
SPLINE
  5
137
330
1F
100
AcDbEntity
  8
0
  6
HIDDEN
 62
     7
370
     0
100
AcDbSpline
210
0.0
220
0.0
230
1.0
 70
     8
 71
     3
 72
     8
 73
     4
 74
     0
 42
0.00000001
 43
0.00000001
 40
0.0
 40
0.0
 40
0.0
 40
0.0
 40
1.0
 40
1.0
 40
1.0
 40
1.0
 10
171.6946357870068
 20
114.490559156841
 30
0.0
 10
171.6532611676083
 20
114.452256711704
 30
0.0
 10
171.6076487040107
 20
114.411807158903
 30
0.0
 10
171.5578277296766
 20
114.3671522842703
 30
0.0
  0
LINE
  5
138
330
1F
100
AcDbEntity
  8
0
  6
HIDDEN
 62
     7
370
     0
100
AcDbLine
 10
176.4026017478
 20
131.1102294771
 30
0.0
 11
178.9026017478
 21
131.1102294771
 31
0.0
  0
LINE
  5
139
330
1F
100
AcDbEntity
  8
0
  6
HIDDEN
 62
     7
370
     0
100
AcDbLine
 10
173.9026017478
 20
131.1102294771
 30
0.0
 11
176.4026017478
 21
131.1102294771
 31
0.0
  0
LINE
  5
13A
330
1F
100
AcDbEntity
  8
0
  6
HIDDEN
 62
     7
370
     0
100
AcDbLine
 10
178.9026017478
 20
90.2649300155
 30
0.0
 11
173.9026017478
 21
90.2649300155
 31
0.0
  0
LINE
  5
13B
330
1F
100
AcDbEntity
  8
0
  6
HIDDEN
 62
     7
370
     0
100
AcDbLine
 10
176.4026017478
 20
122.6875797463
 30
0.0
 11
178.9026017478
 21
122.6875797463
 31
0.0
  0
LINE
  5
13C
330
1F
100
AcDbEntity
  8
0
  6
HIDDEN
 62
     7
370
     0
100
AcDbLine
 10
173.9026017478
 20
122.6875797463
 30
0.0
 11
176.4026017478
 21
122.6875797463
 31
0.0
  0
LINE
  5
13D
330
1F
100
AcDbEntity
  8
0
  6
HIDDEN
 62
     7
370
     0
100
AcDbLine
 10
178.9026017478
 20
98.6875797463
 30
0.0
 11
173.9026017478
 21
98.6875797463
 31
0.0
  0
SPLINE
  5
13E
330
1F
100
AcDbEntity
  8
0
  6
HIDDEN
 62
     7
370
     0
100
AcDbSpline
210
0.0
220
0.0
230
1.0
 70
     8
 71
     3
 72
    48
 73
    44
 74
     0
 42
0.00000001
 43
0.00000001
 40
-0.0624999999999997
 40
-0.0624999999999997
 40
0.0
 40
0.0
 40
0.0625000000000002
 40
0.0625000000000002
 40
0.1250000000000004
 40
0.1250000000000004
 40
0.1875000000000005
 40
0.1875000000000005
 40
0.2500000000000005
 40
0.2500000000000005
 40
0.3125000000000005
 40
0.3125000000000005
 40
0.3437500000000005
 40
0.3437500000000005
 40
0.3750000000000005
 40
0.3750000000000005
 40
0.4062500000000005
 40
0.4062500000000005
 40
0.4375000000000005
 40
0.4375000000000005
 40
0.5000000000000004
 40
0.5000000000000004
 40
0.5625000000000006
 40
0.5625000000000006
 40
0.6250000000000006
 40
0.6250000000000006
 40
0.6562500000000006
 40
0.6562500000000006
 40
0.6875000000000006
 40
0.6875000000000006
 40
0.7500000000000004
 40
0.7500000000000004
 40
0.8125000000000003
 40
0.8125000000000003
 40
0.8437500000000003
 40
0.8437500000000003
 40
0.8750000000000003
 40
0.8750000000000003
 40
0.9062500000000003
 40
0.9062500000000003
 40
0.9375000000000003
 40
0.9375000000000003
 40
1.0
 40
1.0
 40
1.0625
 40
1.0625
 10
171.7463479568212
 20
119.4579218778875
 30
0.0
 10
171.5831926008308
 20
119.1458977504352
 30
0.0
 10
171.4954886915795
 20
118.9965664971355
 30
0.0
 10
171.3434968621286
 20
118.7010824605509
 30
0.0
 10
171.2826092444369
 20
118.5561191335887
 30
0.0
 10
171.2809254079918
 20
118.3048770467288
 30
0.0
 10
171.3393721084955
 20
118.212581455144
 30
0.0
 10
171.4843951778546
 20
118.0897855633234
 30
0.0
 10
171.5699142861151
 20
118.0570256357014
 30
0.0
 10
171.7292066283929
 20
118.0454337483307
 30
0.0
 10
171.803920670178
 20
118.0671809195568
 30
0.0
 10
171.8875750772286
 20
118.1517374815498
 30
0.0
 10
171.9101384350597
 20
118.1881297097663
 30
0.0
 10
171.941975408391
 20
118.278059164646
 30
0.0
 10
171.9511264070079
 20
118.3323076429359
 30
0.0
 10
171.9537381811974
 20
118.4528709958393
 30
0.0
 10
171.9472831938043
 20
118.5209667835438
 30
0.0
 10
171.9200958433278
 20
118.6648559189433
 30
0.0
 10
171.8995760588578
 20
118.7405551542864
 30
0.0
 10
171.8211604893373
 20
118.9749044621311
 30
0.0
 10
171.7479744949605
 20
119.1356114468789
 30
0.0
 10
171.5909952392377
 20
119.4457576447528
 30
0.0
 10
171.5046199381881
 20
119.5987186312273
 30
0.0
 10
171.3555184839331
 20
119.89267912614
 30
0.0
 10
171.2907661346651
 20
120.0399242610033
 30
0.0
 10
171.2785935974
 20
120.2317137767383
 30
0.0
 10
171.2889748252651
 20
120.2888362353048
 30
0.0
 10
171.3326157566177
 20
120.3858315310181
 30
0.0
 10
171.3644146308958
 20
120.4246358720858
 30
0.0
 10
171.4744681899579
 20
120.5184363789743
 30
0.0
 10
171.5621346968873
 20
120.5487586890156
 30
0.0
 10
171.726871364506
 20
120.5540054302553
 30
0.0
 10
171.8021845561602
 20
120.5281499587219
 30
0.0
 10
171.8868985020944
 20
120.438825086633
 30
0.0
 10
171.9095955700182
 20
120.4013016718775
 30
0.0
 10
171.9418488380295
 20
120.3091744640318
 30
0.0
 10
171.9510075796773
 20
120.2547342227697
 30
0.0
 10
171.9538068785104
 20
120.1341365084415
 30
0.0
 10
171.9474129368078
 20
120.0661937032722
 30
0.0
 10
171.9203198727255
 20
119.9237366890355
 30
0.0
 10
171.8996981009351
 20
119.848608246077
 30
0.0
 10
171.8206032845948
 20
119.6167392422186
 30
0.0
 10
171.7463479568212
 20
119.4579218778875
 30
0.0
 10
171.5831926008308
 20
119.1458977504352
 30
0.0
  0
SPLINE
  5
13F
330
1F
100
AcDbEntity
  8
0
  6
HIDDEN
 62
     7
370
     0
100
AcDbSpline
210
0.0
220
0.0
230
1.0
 70
     8
 71
     3
 72
    14
 73
    10
 74
     0
 42
0.00000001
 43
0.00000001
 40
0.0
 40
0.0
 40
0.0
 40
0.0
 40
0.25
 40
0.25
 40
0.5
 40
0.5
 40
0.75
 40
0.75
 40
1.0
 40
1.0
 40
1.0
 40
1.0
 10
169.5052825277853
 20
118.8627908724945
 30
0.0
 10
169.4680704408153
 20
118.8299167724645
 30
0.0
 10
169.4323318847599
 20
118.798462677449
 30
0.0
 10
169.3708361555771
 20
118.7284273821246
 30
0.0
 10
169.3443292896411
 20
118.6893259733658
 30
0.0
 10
169.3345459492059
 20
118.5701474325044
 30
0.0
 10
169.3533291450152
 20
118.4918623490951
 30
0.0
 10
169.4032477536005
 20
118.3382187298134
 30
0.0
 10
169.4340564880159
 20
118.2610652600884
 30
0.0
 10
169.4663273943007
 20
118.1849388789731
 30
0.0
  0
SPLINE
  5
140
330
1F
100
AcDbEntity
  8
0
  6
HIDDEN
 62
     7
370
     0
100
AcDbSpline
210
0.0
220
0.0
230
1.0
 70
     8
 71
     3
 72
    10
 73
     6
 74
     0
 42
0.00000001
 43
0.00000001
 40
0.0
 40
0.0
 40
0.0
 40
0.0
 40
0.5000000000000008
 40
0.5000000000000008
 40
1.0
 40
1.0
 40
1.0
 40
1.0
 10
169.4663273943007
 20
118.1849388789731
 30
0.0
 10
169.5458974574696
 20
118.2376105088597
 30
0.0
 10
169.6135928406281
 20
118.323162071259
 30
0.0
 10
169.6312670637976
 20
118.5672969769687
 30
0.0
 10
169.5775453443901
 20
118.7134290686745
 30
0.0
 10
169.5052825277854
 20
118.8627908724948
 30
0.0
  0
LWPOLYLINE
  5
141
330
1F
100
AcDbEntity
  8
0
  6
HIDDEN
 62
     7
370
     0
100
AcDbPolyline
 90
       18
 70
   128
 43
0.0
 10
170.4526017478
 20
119.5264145111
 10
170.9944642471
 20
119.5980385279
 10
171.4631452133
 20
119.8032373578
 10
171.7953466848
 20
120.1142977619
 10
171.9462030122
 20
120.4892093089
 10
171.8953402126
 20
120.877338117
 10
171.6496275887
 20
121.2262652398
 10
171.2422499921
 20
121.4888661361
 10
170.7282260245
 20
121.6296750997
 10
170.1769774711
 20
121.6296750997
 10
169.6629535035
 20
121.4888661361
 10
169.2555759069
 20
121.2262652398
 10
169.009863283
 20
120.877338117
 10
168.9590004834
 20
120.4892093089
 10
169.1098568108
 20
120.1142977619
 10
169.4420582823
 20
119.8032373578
 10
169.9107392485
 20
119.5980385279
 10
170.4526017478
 20
119.5264145111
  0
SPLINE
  5
142
330
1F
100
AcDbEntity
  8
0
  6
HIDDEN
 62
     7
370
     0
100
AcDbSpline
210
0.0
220
0.0
230
1.0
 70
     8
 71
     3
 72
    10
 73
     6
 74
     0
 42
0.00000001
 43
0.00000001
 40
0.0
 40
0.0
 40
0.0
 40
0.0
 40
0.5
 40
0.5
 40
1.0
 40
1.0
 40
1.0
 40
1.0
 10
168.9720351926161
 20
119.4073764167227
 30
0.0
 10
168.9626491172422
 20
119.4668982462979
 30
0.0
 10
168.9562322293574
 20
119.5217348322468
 30
0.0
 10
168.9512519893653
 20
119.6213590979675
 30
0.0
 10
168.952863632769
 20
119.6630844126356
 30
0.0
 10
168.9583182297463
 20
119.6967520127799
 30
0.0
  0
SPLINE
  5
143
330
1F
100
AcDbEntity
  8
0
  6
HIDDEN
 62
     7
370
     0
100
AcDbSpline
210
0.0
220
0.0
230
1.0
 70
     8
 71
     3
 72
    18
 73
    14
 74
     0
 42
0.00000001
 43
0.00000001
 40
0.0
 40
0.0
 40
0.0
 40
0.0
 40
0.0076718188810297
 40
0.1498533731987408
 40
0.216191255335696
 40
0.2711456016041776
 40
0.3265075728915944
 40
0.3858179275283574
 40
0.4791596105432663
 40
0.6205994107433815
 40
0.7642808016212734
 40
0.9113576187215944
 40
1.0
 40
1.0
 40
1.0
 40
1.0
 10
168.9806308115601
 20
119.762226766627
 30
0.0
 10
168.9810854770296
 20
119.7636035406218
 30
0.0
 10
168.9899664419398
 20
119.7904960195062
 30
0.0
 10
169.0133395110551
 20
119.7899549591321
 30
0.0
 10
169.034259293371
 20
119.7669542945495
 30
0.0
 10
169.0426913966744
 20
119.7278159404937
 30
0.0
 10
169.0402700888492
 20
119.667439507068
 30
0.0
 10
169.0256730099838
 20
119.5774412453827
 30
0.0
 10
168.9972936786204
 20
119.4448689599017
 30
0.0
 10
168.9647731873141
 20
119.2794360278394
 30
0.0
 10
168.9486839911705
 20
119.1158781678779
 30
0.0
 10
168.9559652614778
 20
119.0004743141369
 30
0.0
 10
168.9748460738191
 20
118.9692358025269
 30
0.0
 10
168.9819462174558
 20
118.9574885368152
 30
0.0
  0
LWPOLYLINE
  5
144
330
1F
100
AcDbEntity
  8
0
  6
HIDDEN
 62
     7
370
     0
100
AcDbPolyline
 90
        8
 70
   128
 43
0.0
 10
168.9943527805
 20
118.9311152432
 10
169.0212101786
 20
118.9248467184
 10
169.0356820438
 20
118.945408244
 10
169.041207395
 20
118.9811108847
 10
169.0388795278
 20
119.0337934337
 10
169.0266561055
 20
119.1161853538
 10
168.9988321657
 20
119.2593499278
 10
168.9720351926
 20
119.4073764167
  0
SPLINE
  5
145
330
1F
100
AcDbEntity
  8
0
  6
HIDDEN
 62
     7
370
     0
100
AcDbSpline
210
0.0
220
0.0
230
1.0
 70
     8
 71
     3
 72
    14
 73
    10
 74
     0
 42
0.00000001
 43
0.00000001
 40
0.0
 40
0.0
 40
0.0
 40
0.0
 40
0.25
 40
0.25
 40
0.5
 40
0.5
 40
0.75
 40
0.75
 40
1.0
 40
1.0
 40
1.0
 40
1.0
 10
169.4663273943005
 20
119.7832272757514
 30
0.0
 10
169.4339745009351
 20
119.8196183125495
 30
0.0
 10
169.4030003166972
 20
119.8551889437266
 30
0.0
 10
169.3531540760038
 20
119.9364596915017
 30
0.0
 10
169.3344542333282
 20
119.984500284225
 30
0.0
 10
169.3444953896181
 20
120.1197371405724
 30
0.0
 10
169.3710859941654
 20
120.1999341596186
 30
0.0
 10
169.4325030924381
 20
120.3550469668045
 30
0.0
 10
169.4681433454074
 20
120.4319400560153
 30
0.0
 10
169.5052825277848
 20
120.5075317611438
 30
0.0
  0
SPLINE
  5
146
330
1F
100
AcDbEntity
  8
0
  6
HIDDEN
 62
     7
370
     0
100
AcDbSpline
210
0.0
220
0.0
230
1.0
 70
     8
 71
     3
 72
    14
 73
    10
 74
     0
 42
0.00000001
 43
0.00000001
 40
0.0
 40
0.0
 40
0.0
 40
0.0
 40
0.25
 40
0.25
 40
0.5
 40
0.5
 40
0.75
 40
0.75
 40
1.0
 40
1.0
 40
1.0
 40
1.0
 10
169.5052825277854
 20
120.5075317611443
 30
0.0
 10
169.541402272692
 20
120.4744826493716
 30
0.0
 10
169.5728539907844
 20
120.434269759301
 30
0.0
 10
169.616258959356
 20
120.3350918033612
 30
0.0
 10
169.6267328852159
 20
120.2778138047832
 30
0.0
 10
169.6182715317007
 20
120.1484420797987
 30
0.0
 10
169.599305822164
 20
120.0780122898804
 30
0.0
 10
169.5427953686113
 20
119.9328060496772
 30
0.0
 10
169.5061749995427
 20
119.858782959121
 30
0.0
 10
169.4663273943007
 20
119.7832272757505
 30
0.0
  0
ARC
  5
147
330
1F
100
AcDbEntity
  8
0
  6
HIDDEN
 62
     7
370
     0
100
AcDbCircle
 10
185.654952103
 20
119.2757572837
 30
0.0
 40
16.19657666771085
100
AcDbArc
 50
175.6383567447
 51
178.2045188483
  0
ARC
  5
148
330
1F
100
AcDbEntity
  8
0
  6
HIDDEN
 62
     7
370
     0
100
AcDbCircle
 10
156.3571876285
 20
119.2783467472
 30
0.0
 40
13.15466024516582
100
AcDbArc
 50
355.2321065486
 51
358.189724466
  0
LWPOLYLINE
  5
149
330
1F
100
AcDbEntity
  8
0
  6
HIDDEN
 62
     7
370
     0
100
AcDbPolyline
 90
       32
 70
   128
 43
0.0
 10
143.4526017478
 20
156.0002855981
 10
144.4590943482
 20
155.9686576179
 10
145.4243810234
 20
155.8750685307
 10
146.3089428233
 20
155.7233498847
 10
147.0765656839
 20
155.519713059
 10
147.6958230353
 20
155.2724949692
 10
148.1413624085
 20
154.991816753
 10
148.3949433694
 20
154.6891694095
 10
148.4461842837
 20
154.3769433566
 10
148.2929873421
 20
154.0679211654
 10
147.9416244457
 20
153.7747542409
 10
147.4064804325
 20
153.5094448714
 10
146.7094641614
 20
153.2828548535
 10
145.8791115605
 20
153.1042608094
 10
144.9494173627
 20
152.9809744001
 10
143.9584433577
 20
152.9180429856
 10
142.9467601379
 20
152.9180429856
 10
141.9557861329
 20
152.9809744001
 10
141.0260919351
 20
153.1042608094
 10
140.1957393342
 20
153.2828548535
 10
139.4987230631
 20
153.5094448714
 10
138.9635790499
 20
153.7747542409
 10
138.6122161535
 20
154.0679211654
 10
138.4590192119
 20
154.3769433566
 10
138.5102601262
 20
154.6891694095
 10
138.7638410871
 20
154.991816753
 10
139.2093804603
 20
155.2724949692
 10
139.8286378117
 20
155.519713059
 10
140.5962606723
 20
155.7233498847
 10
141.4808224722
 20
155.8750685307
 10
142.4461091474
 20
155.9686576179
 10
143.4526017478
 20
156.0002855981
  0
LINE
  5
14A
330
1F
100
AcDbEntity
  8
0
  6
HIDDEN
 62
     7
370
     0
100
AcDbLine
 10
157.7146307687
 20
149.6385425072
 30
0.0
 11
157.7146307687
 21
142.0375797463
 31
0.0
  0
LINE
  5
14B
330
1F
100
AcDbEntity
  8
0
  6
HIDDEN
 62
     7
370
     0
100
AcDbLine
 10
156.3626017478
 20
145.4018149388
 30
0.0
 11
156.3626017478
 21
142.0375797463
 31
0.0
  0
LINE
  5
14C
330
1F
100
AcDbEntity
  8
0
  6
HIDDEN
 62
     7
370
     0
100
AcDbLine
 10
152.5426017478
 20
145.4018149388
 30
0.0
 11
152.5426017478
 21
142.0375797463
 31
0.0
  0
CIRCLE
  5
14D
330
1F
100
AcDbEntity
  8
0
  6
HIDDEN
 62
     7
370
     0
100
AcDbCircle
 10
141.4526017478
 20
110.6875797463
 30
0.0
 40
5.0
  0
LINE
  5
14E
330
1F
100
AcDbEntity
  8
0
  6
HIDDEN
 62
     7
370
     0
100
AcDbLine
 10
208.9434896002
 20
104.6099027313
 30
0.0
 11
208.4581408521
 21
104.0964186263
 31
0.0
  0
LINE
  5
14F
330
1F
100
AcDbEntity
  8
0
  6
HIDDEN
 62
     7
370
     0
100
AcDbLine
 10
208.5136625995
 20
102.0979611482
 30
0.0
 11
209.0267722213
 21
101.6122165142
 31
0.0
  0
LINE
  5
150
330
1F
100
AcDbEntity
  8
0
  6
HIDDEN
 62
     7
370
     0
100
AcDbLine
 10
214.2785673362
 20
104.7587022479
 30
0.0
 11
208.9446295323
 21
104.6105131818
 31
0.0
  0
LINE
  5
151
330
1F
100
AcDbEntity
  8
0
  6
HIDDEN
 62
     7
370
     0
100
AcDbLine
 10
209.0279442883
 20
101.6116702964
 30
0.0
 11
214.3618820922
 21
101.7598593625
 31
0.0
  0
LINE
  5
152
330
1F
100
AcDbEntity
  8
0
  6
HIDDEN
 62
     7
370
     0
100
AcDbLine
 10
214.3638361211
 20
101.761650662
 30
0.0
 11
214.4526017478
 21
101.9260227374
 31
0.0
  0
LINE
  5
153
330
1F
100
AcDbEntity
  8
0
  6
HIDDEN
 62
     7
370
     0
100
AcDbLine
 10
214.4498461941
 20
104.4814403459
 30
0.0
 11
214.280617807
 21
104.7570222026
 31
0.0
  0
LINE
  5
154
330
1F
100
AcDbEntity
  8
0
  6
HIDDEN
 62
     7
370
     0
100
AcDbLine
 10
214.2217280834
 20
116.619773382
 30
0.0
 11
214.3909564705
 21
116.8953552387
 31
0.0
  0
LINE
  5
155
330
1F
100
AcDbEntity
  8
0
  6
HIDDEN
 62
     7
370
     0
100
AcDbLine
 10
214.4526017478
 20
119.3417235851
 30
0.0
 11
214.3049463974
 21
119.6151449226
 31
0.0
  0
LINE
  5
156
330
1F
100
AcDbEntity
  8
0
  6
HIDDEN
 62
     7
370
     0
100
AcDbLine
 10
214.3029923685
 20
119.6169362221
 30
0.0
 11
208.9690545646
 21
119.7651252882
 31
0.0
  0
LINE
  5
157
330
1F
100
AcDbEntity
  8
0
  6
HIDDEN
 62
     7
370
     0
100
AcDbLine
 10
208.8857398087
 20
116.7662824028
 30
0.0
 11
214.2196776125
 21
116.6180933367
 31
0.0
  0
LINE
  5
158
330
1F
100
AcDbEntity
  8
0
  6
HIDDEN
 62
     7
370
     0
100
AcDbLine
 10
208.9678824977
 20
119.7645790704
 30
0.0
 11
208.4547728759
 21
119.2788344364
 31
0.0
  0
LINE
  5
159
330
1F
100
AcDbEntity
  8
0
  6
HIDDEN
 62
     7
370
     0
100
AcDbLine
 10
208.3992511285
 20
117.2803769583
 30
0.0
 11
208.8845998766
 21
116.7668928533
 31
0.0
  0
LINE
  5
15A
330
1F
100
AcDbEntity
  8
0
  6
HIDDEN
 62
     7
370
     0
100
AcDbLine
 10
134.4526017478
 20
71.2828967897
 30
0.0
 11
134.5422033717
 21
71.9204454716
 31
0.0
  0
LINE
  5
15B
330
1F
100
AcDbEntity
  8
0
  6
HIDDEN
 62
     7
370
     0
100
AcDbLine
 10
134.5422033717
 20
149.4547140209
 30
0.0
 11
134.4526017478
 21
150.0922627029
 31
0.0
  0
ARC
  5
15C
330
1F
100
AcDbEntity
  8
0
  6
HIDDEN
 62
     7
370
     0
100
AcDbCircle
 10
133.5556648293
 20
72.0590944218
 30
0.0
 40
0.9962338214387002
100
AcDbArc
 50
352.0
 51
0.0
  0
ARC
  5
15D
330
1F
100
AcDbEntity
  8
0
  6
HIDDEN
 62
     7
370
     0
100
AcDbCircle
 10
133.5556648293
 20
72.0590944218
 30
0.0
 40
0.9962338214386921
100
AcDbArc
 50
0.0
 51
25.7988228126
  0
ARC
  5
15E
330
1F
100
AcDbEntity
  8
0
  6
HIDDEN
 62
     7
370
     0
100
AcDbCircle
 10
133.5556648293
 20
149.3160650707
 30
0.0
 40
0.9962338214387002
100
AcDbArc
 50
348.75
 51
8.0
  0
LWPOLYLINE
  5
15F
330
1F
100
AcDbEntity
  8
0
  6
HIDDEN
 62
     7
370
     0
100
AcDbPolyline
 90
        3
 70
   128
 43
0.0
 10
134.5327562973
 20
149.1217094937
 10
134.4760648666
 20
148.9348228925
 10
134.4526017478
 20
148.8824915576
  0
LINE
  5
160
330
1F
100
AcDbEntity
  8
0
  6
HIDDEN
 62
     7
370
     0
100
AcDbLine
 10
134.5518986508
 20
72.0590944218
 30
0.0
 11
134.5518986508
 21
149.3160650707
 31
0.0
  0
ARC
  5
161
330
1F
100
AcDbEntity
  8
0
  6
HIDDEN
 62
     7
370
     0
100
AcDbCircle
 10
124.705807403
 20
91.1875797463
 30
0.0
 40
12.00000000000001
100
AcDbArc
 50
273.1723835378
 51
324.3146652873
  0
ARC
  5
162
330
1F
100
AcDbEntity
  8
0
  6
HIDDEN
 62
     7
370
     0
100
AcDbCircle
 10
124.705807403
 20
130.1875797463
 30
0.0
 40
11.99999999999999
100
AcDbArc
 50
35.6853347127
 51
86.8182501262
  0
ARC
  5
163
330
1F
100
AcDbEntity
  8
0
  6
HIDDEN
 62
     7
370
     0
100
AcDbCircle
 10
107.91332769
 20
80.1875797463
 30
0.0
 40
1.000000000000008
100
AcDbArc
 50
210.0
 51
270.0
  0
ARC
  5
164
330
1F
100
AcDbEntity
  8
0
  6
HIDDEN
 62
     7
370
     0
100
AcDbCircle
 10
107.91332769
 20
141.1875797463
 30
0.0
 40
1.000000000000008
100
AcDbArc
 50
90.0
 51
150.0
  0
LINE
  5
165
330
1F
100
AcDbEntity
  8
0
  6
HIDDEN
 62
     7
370
     0
100
AcDbLine
 10
107.91332769
 20
79.1875797463
 30
0.0
 11
113.4984317984
 21
79.1875797463
 31
0.0
  0
LINE
  5
166
330
1F
100
AcDbEntity
  8
0
  6
HIDDEN
 62
     7
370
     0
100
AcDbLine
 10
113.4984317984
 20
142.1875797463
 30
0.0
 11
107.91332769
 21
142.1875797463
 31
0.0
  0
LINE
  5
167
330
1F
100
AcDbEntity
  8
0
  6
HIDDEN
 62
     7
370
     0
100
AcDbLine
 10
107.0473022862
 20
141.6875797463
 30
0.0
 11
104.4492260748
 21
137.1875797463
 31
0.0
  0
LINE
  5
168
330
1F
100
AcDbEntity
  8
0
  6
HIDDEN
 62
     7
370
     0
100
AcDbLine
 10
104.4492260748
 20
84.1875797463
 30
0.0
 11
107.0473022862
 21
79.6875797463
 31
0.0
  0
ARC
  5
169
330
1F
100
AcDbEntity
  8
0
  6
HIDDEN
 62
     7
370
     0
100
AcDbCircle
 10
144.9026017478
 20
85.8125797463
 30
0.0
 40
2.000000000000032
100
AcDbArc
 50
234.3409123039
 51
0.0
  0
ARC
  5
16A
330
1F
100
AcDbEntity
  8
0
  6
HIDDEN
 62
     7
370
     0
100
AcDbCircle
 10
144.9026017478
 20
135.5625797463
 30
0.0
 40
2.000000000000043
100
AcDbArc
 50
0.0
 51
125.6590876961
  0
LINE
  5
16B
330
1F
100
AcDbEntity
  8
0
  6
HIDDEN
 62
     7
370
     0
100
AcDbLine
 10
99.6526017478
 20
84.1875797463
 30
0.0
 11
104.4492260748
 21
84.1875797463
 31
0.0
  0
LINE
  5
16C
330
1F
100
AcDbEntity
  8
0
  6
HIDDEN
 62
     7
370
     0
100
AcDbLine
 10
104.4492260748
 20
137.1875797463
 30
0.0
 11
94.6526017478
 21
137.1875797463
 31
0.0
  0
LINE
  5
16D
330
1F
100
AcDbEntity
  8
0
  6
HIDDEN
 62
     7
370
     0
100
AcDbLine
 10
134.4526017478
 20
84.1875797463
 30
0.0
 11
143.7366793662
 21
84.1875797463
 31
0.0
  0
LINE
  5
16E
330
1F
100
AcDbEntity
  8
0
  6
HIDDEN
 62
     7
370
     0
100
AcDbLine
 10
143.7366793662
 20
137.1875797463
 30
0.0
 11
134.4526017478
 21
137.1875797463
 31
0.0
  0
LINE
  5
16F
330
1F
100
AcDbEntity
  8
0
  6
HIDDEN
 62
     7
370
     0
100
AcDbLine
 10
138.4526017478
 20
156.3591331254
 30
0.0
 11
138.4526017478
 21
152.664993525
 31
0.0
  0
LINE
  5
170
330
1F
100
AcDbEntity
  8
0
  6
HIDDEN
 62
     7
370
     0
100
AcDbLine
 10
148.4526017478
 20
152.664993525
 30
0.0
 11
148.4526017478
 21
156.3646413838
 31
0.0
  0
LINE
  5
171
330
1F
100
AcDbEntity
  8
0
  6
HIDDEN
 62
     7
370
     0
100
AcDbLine
 10
158.7526017478
 20
97.6875797463
 30
0.0
 11
162.7526017478
 21
97.6875797463
 31
0.0
  0
LINE
  5
172
330
1F
100
AcDbEntity
  8
0
  6
HIDDEN
 62
     7
370
     0
100
AcDbLine
 10
162.7526017478
 20
123.6875797463
 30
0.0
 11
158.7526017478
 21
123.6875797463
 31
0.0
  0
LINE
  5
173
330
1F
100
AcDbEntity
  8
0
  6
HIDDEN
 62
     7
370
     0
100
AcDbLine
 10
146.9026017478
 20
98.6875797463
 30
0.0
 11
147.6526017478
 21
99.4375797463
 31
0.0
  0
LINE
  5
174
330
1F
100
AcDbEntity
  8
0
  6
HIDDEN
 62
     7
370
     0
100
AcDbLine
 10
147.6526017478
 20
121.9375797463
 30
0.0
 11
146.9026017478
 21
122.6875797463
 31
0.0
  0
LINE
  5
175
330
1F
100
AcDbEntity
  8
0
  6
HIDDEN
 62
     7
370
     0
100
AcDbLine
 10
147.6526017478
 20
99.4375797463
 30
0.0
 11
158.7526017478
 21
99.4375797463
 31
0.0
  0
LINE
  5
176
330
1F
100
AcDbEntity
  8
0
  6
HIDDEN
 62
     7
370
     0
100
AcDbLine
 10
158.7526017478
 20
121.9375797463
 30
0.0
 11
147.6526017478
 21
121.9375797463
 31
0.0
  0
LINE
  5
177
330
1F
100
AcDbEntity
  8
0
  6
HIDDEN
 62
     7
370
     0
100
AcDbLine
 10
171.9526017478
 20
102.9583562631
 30
0.0
 11
171.9526017478
 21
106.3150203698
 31
0.0
  0
LINE
  5
178
330
1F
100
AcDbEntity
  8
0
  6
HIDDEN
 62
     7
370
     0
100
AcDbLine
 10
171.9526017478
 20
100.7880848097
 30
0.0
 11
171.9526017478
 21
101.2061601138
 31
0.0
  0
LINE
  5
179
330
1F
100
AcDbEntity
  8
0
  6
HIDDEN
 62
     7
370
     0
100
AcDbLine
 10
168.9526017478
 20
101.7624641044
 30
0.0
 11
168.9526017478
 21
100.7880848097
 31
0.0
  0
LINE
  5
17A
330
1F
100
AcDbEntity
  8
0
  6
HIDDEN
 62
     7
370
     0
100
AcDbLine
 10
168.9526017478
 20
106.2346337369
 30
0.0
 11
168.9526017478
 21
102.2710141349
 31
0.0
  0
LINE
  5
17B
330
1F
100
AcDbEntity
  8
0
  6
HIDDEN
 62
     7
370
     0
100
AcDbLine
 10
139.4026017478
 20
160.6875797463
 30
0.0
 11
139.4026017478
 21
154.5875797463
 31
0.0
  0
LINE
  5
17C
330
1F
100
AcDbEntity
  8
0
  6
HIDDEN
 62
     7
370
     0
100
AcDbLine
 10
171.6647702788
 20
100.8237318095
 30
0.0
 11
214.4526017478
 21
102.0124762267
 31
0.0
  0
LINE
  5
17D
330
1F
100
AcDbEntity
  8
0
  6
HIDDEN
 62
     7
370
     0
100
AcDbLine
 10
214.4526017478
 20
104.5134408609
 30
0.0
 11
171.6603900356
 21
103.3245747505
 31
0.0
  0
LINE
  5
17E
330
1F
100
AcDbEntity
  8
0
  6
HIDDEN
 62
     7
370
     0
100
AcDbLine
 10
168.9770835902
 20
102.419796754
 30
0.0
 11
168.7367983954
 21
101.9928683301
 31
0.0
  0
LINE
  5
17F
330
1F
100
AcDbEntity
  8
0
  6
HIDDEN
 62
     7
370
     0
100
AcDbLine
 10
168.7367983954
 20
101.9928683301
 30
0.0
 11
168.9783010702
 21
101.6145812687
 31
0.0
  0
LINE
  5
180
330
1F
100
AcDbEntity
  8
0
  6
HIDDEN
 62
     7
370
     0
100
AcDbLine
 10
125.8853143638
 20
73.1093001757
 30
0.0
 11
125.4526050773
 21
73.5875248931
 31
0.0
  0
LINE
  5
181
330
1F
100
AcDbEntity
  8
0
  6
HIDDEN
 62
     7
370
     0
100
AcDbLine
 10
113.4526022058
 20
74.2344862497
 30
0.0
 11
112.9719749006
 21
73.7562615389
 31
0.0
  0
LINE
  5
182
330
1F
100
AcDbEntity
  8
0
  6
HIDDEN
 62
     7
370
     0
100
AcDbLine
 10
112.9718565591
 20
147.6188920375
 30
0.0
 11
113.4526020232
 21
147.1406123657
 31
0.0
  0
LINE
  5
183
330
1F
100
AcDbEntity
  8
0
  6
HIDDEN
 62
     7
370
     0
100
AcDbLine
 10
125.4526017499
 20
147.787584753
 30
0.0
 11
125.8854234196
 21
148.2658644259
 31
0.0
  0
ARC
  5
184
330
1F
100
AcDbEntity
  8
0
  6
HIDDEN
 62
     7
370
     0
100
AcDbCircle
 10
214.1526017478
 20
104.3875797463
 30
0.0
 40
0.3000000000000114
100
AcDbArc
 50
0.0
 51
90.0
  0
ARC
  5
185
330
1F
100
AcDbEntity
  8
0
  6
HIDDEN
 62
     7
370
     0
100
AcDbCircle
 10
214.1526017478
 20
116.9875797463
 30
0.0
 40
0.3000000000000114
100
AcDbArc
 50
270.0
 51
0.0
  0
LINE
  5
186
330
1F
100
AcDbEntity
  8
0
  6
HIDDEN
 62
     7
370
     0
100
AcDbLine
 10
168.8526017478
 20
104.3875797463
 30
0.0
 11
171.5578277297
 21
104.3875797463
 31
0.0
  0
LINE
  5
187
330
1F
100
AcDbEntity
  8
0
  6
HIDDEN
 62
     7
370
     0
100
AcDbLine
 10
171.5578277297
 20
116.9875797463
 30
0.0
 11
168.8526017478
 21
116.9875797463
 31
0.0
  0
ARC
  5
188
330
1F
100
AcDbEntity
  8
0
  6
HIDDEN
 62
     7
370
     0
100
AcDbCircle
 10
171.5578277297
 20
116.5875797463
 30
0.0
 40
0.3999999999999977
100
AcDbArc
 50
70.0
 51
90.0
  0
ARC
  5
189
330
1F
100
AcDbEntity
  8
0
  6
HIDDEN
 62
     7
370
     0
100
AcDbCircle
 10
168.8526017478
 20
104.7875797463
 30
0.0
 40
0.3999999999999915
100
AcDbArc
 50
180.0
 51
270.0
  0
ARC
  5
18A
330
1F
100
AcDbEntity
  8
0
  6
HIDDEN
 62
     7
370
     0
100
AcDbCircle
 10
168.8526017478
 20
116.5875797463
 30
0.0
 40
0.3999999999999915
100
AcDbArc
 50
90.0
 51
180.0
  0
LINE
  5
18B
330
1F
100
AcDbEntity
  8
0
  6
HIDDEN
 62
     7
370
     0
100
AcDbLine
 10
171.694635787
 20
104.411702698
 30
0.0
 11
172.4526017478
 21
104.6875797463
 31
0.0
  0
LINE
  5
18C
330
1F
100
AcDbEntity
  8
0
  6
HIDDEN
 62
     7
370
     0
100
AcDbLine
 10
172.4526017478
 20
116.6875797463
 30
0.0
 11
171.694635787
 21
116.9634567946
 31
0.0
  0
LINE
  5
18D
330
1F
100
AcDbEntity
  8
0
  6
HIDDEN
 62
     7
370
     0
100
AcDbLine
 10
125.4526017478
 20
73.5876439622
 30
0.0
 11
125.4526017478
 21
79.2217018192
 31
0.0
  0
LINE
  5
18E
330
1F
100
AcDbEntity
  8
0
  6
HIDDEN
 62
     7
370
     0
100
AcDbLine
 10
113.4526017478
 20
79.1960591143
 30
0.0
 11
113.4526017478
 21
74.2345246643
 31
0.0
  0
LINE
  5
18F
330
1F
100
AcDbEntity
  8
0
  6
HIDDEN
 62
     7
370
     0
100
AcDbLine
 10
125.4526017478
 20
142.1534576734
 30
0.0
 11
125.4526017478
 21
147.7874327511
 31
0.0
  0
LINE
  5
190
330
1F
100
AcDbEntity
  8
0
  6
HIDDEN
 62
     7
370
     0
100
AcDbLine
 10
113.4526017478
 20
147.1406018664
 30
0.0
 11
113.4526017478
 21
142.1791003783
 31
0.0
  0
LINE
  5
191
330
1F
100
AcDbEntity
  8
0
  6
HIDDEN
 62
     7
370
     0
100
AcDbLine
 10
172.4526017478
 20
104.6875797463
 30
0.0
 11
214.1526017478
 21
104.6875797463
 31
0.0
  0
LINE
  5
192
330
1F
100
AcDbEntity
  8
0
  6
HIDDEN
 62
     7
370
     0
100
AcDbLine
 10
214.1526017478
 20
116.6875797463
 30
0.0
 11
193.1095903787
 21
116.6875797463
 31
0.0
  0
LINE
  5
193
330
1F
100
AcDbEntity
  8
0
  6
HIDDEN
 62
     7
370
     0
100
AcDbLine
 10
191.7946316656
 20
116.6875797463
 30
0.0
 11
172.4526017478
 21
116.6875797463
 31
0.0
  0
LINE
  5
194
330
1F
100
AcDbEntity
  8
0
  6
HIDDEN
 62
     7
370
     0
100
AcDbLine
 10
162.7526017478
 20
106.4375797463
 30
0.0
 11
168.4526017478
 21
106.4375797463
 31
0.0
  0
LINE
  5
195
330
1F
100
AcDbEntity
  8
0
  6
HIDDEN
 62
     7
370
     0
100
AcDbLine
 10
168.4526017478
 20
114.9375797463
 30
0.0
 11
162.7526017478
 21
114.9375797463
 31
0.0
  0
ARC
  5
196
330
1F
100
AcDbEntity
  8
0
  6
HIDDEN
 62
     7
370
     0
100
AcDbCircle
 10
171.5578277297
 20
104.7875797463
 30
0.0
 40
0.3999999999999977
100
AcDbArc
 50
270.0
 51
290.0
  0
LINE
  5
197
330
1F
100
AcDbEntity
  8
0
  6
HIDDEN
 62
     7
370
     0
100
AcDbLine
 10
172.9026017478
 20
131.6875797463
 30
0.0
 11
173.9026017478
 21
131.1102294771
 31
0.0
  0
LINE
  5
198
330
1F
100
AcDbEntity
  8
0
  6
HIDDEN
 62
     7
370
     0
100
AcDbLine
 10
178.9026017478
 20
131.1102294771
 30
0.0
 11
179.9026017478
 21
131.6875797463
 31
0.0
  0
LINE
  5
199
330
1F
100
AcDbEntity
  8
0
  6
HIDDEN
 62
     7
370
     0
100
AcDbLine
 10
179.9026017478
 20
89.6875797463
 30
0.0
 11
178.9026017478
 21
90.2649300155
 31
0.0
  0
LINE
  5
19A
330
1F
100
AcDbEntity
  8
0
  6
HIDDEN
 62
     7
370
     0
100
AcDbLine
 10
173.9026017478
 20
90.2649300155
 30
0.0
 11
172.9026017478
 21
89.6875797463
 31
0.0
  0
LINE
  5
19B
330
1F
100
AcDbEntity
  8
0
  6
HIDDEN
 62
     7
370
     0
100
AcDbLine
 10
173.9026017478
 20
131.1102294771
 30
0.0
 11
173.9026017478
 21
122.6875797463
 31
0.0
  0
LINE
  5
19C
330
1F
100
AcDbEntity
  8
0
  6
HIDDEN
 62
     7
370
     0
100
AcDbLine
 10
178.9026017478
 20
122.6875797463
 30
0.0
 11
178.9026017478
 21
131.1102294771
 31
0.0
  0
LINE
  5
19D
330
1F
100
AcDbEntity
  8
0
  6
HIDDEN
 62
     7
370
     0
100
AcDbLine
 10
173.9026017478
 20
122.6875797463
 30
0.0
 11
176.4026017478
 21
121.1854281987
 31
0.0
  0
LINE
  5
19E
330
1F
100
AcDbEntity
  8
0
  6
HIDDEN
 62
     7
370
     0
100
AcDbLine
 10
176.4026017478
 20
121.1854281987
 30
0.0
 11
178.9026017478
 21
122.6875797463
 31
0.0
  0
LINE
  5
19F
330
1F
100
AcDbEntity
  8
0
  6
HIDDEN
 62
     7
370
     0
100
AcDbLine
 10
178.9026017478
 20
90.2649300155
 30
0.0
 11
178.9026017478
 21
98.6875797463
 31
0.0
  0
LINE
  5
1A0
330
1F
100
AcDbEntity
  8
0
  6
HIDDEN
 62
     7
370
     0
100
AcDbLine
 10
173.9026017478
 20
98.6875797463
 30
0.0
 11
173.9026017478
 21
90.2649300155
 31
0.0
  0
LINE
  5
1A1
330
1F
100
AcDbEntity
  8
0
  6
HIDDEN
 62
     7
370
     0
100
AcDbLine
 10
178.9026017478
 20
98.6875797463
 30
0.0
 11
176.4026017478
 21
100.1897312939
 31
0.0
  0
LINE
  5
1A2
330
1F
100
AcDbEntity
  8
0
  6
HIDDEN
 62
     7
370
     0
100
AcDbLine
 10
176.4026017478
 20
100.1897312939
 30
0.0
 11
173.9026017478
 21
98.6875797463
 31
0.0
  0
LINE
  5
1A3
330
1F
100
AcDbEntity
  8
0
  6
HIDDEN
 62
     7
370
     0
100
AcDbLine
 10
171.9526017478
 20
120.1690583997
 30
0.0
 11
171.9526017478
 21
120.5870746829
 31
0.0
  0
LINE
  5
1A4
330
1F
100
AcDbEntity
  8
0
  6
HIDDEN
 62
     7
370
     0
100
AcDbLine
 10
171.9526017478
 20
115.0601391228
 30
0.0
 11
171.9526017478
 21
118.4171385899
 31
0.0
  0
LINE
  5
1A5
330
1F
100
AcDbEntity
  8
0
  6
HIDDEN
 62
     7
370
     0
100
AcDbLine
 10
168.9526017478
 20
119.1066218686
 30
0.0
 11
168.9526017478
 21
115.1405257557
 31
0.0
  0
LINE
  5
1A6
330
1F
100
AcDbEntity
  8
0
  6
HIDDEN
 62
     7
370
     0
100
AcDbLine
 10
168.9526017478
 20
120.5870746829
 30
0.0
 11
168.9526017478
 21
119.6104061343
 31
0.0
  0
LINE
  5
1A7
330
1F
100
AcDbEntity
  8
0
  6
HIDDEN
 62
     7
370
     0
100
AcDbLine
 10
171.6635930456
 20
118.0504957551
 30
0.0
 11
214.4526017478
 21
116.8617186316
 31
0.0
  0
LINE
  5
1A8
330
1F
100
AcDbEntity
  8
0
  6
HIDDEN
 62
     7
370
     0
100
AcDbLine
 10
214.4526017478
 20
119.3626832659
 30
0.0
 11
171.6611913324
 21
120.5515271145
 31
0.0
  0
LINE
  5
1A9
330
1F
100
AcDbEntity
  8
0
  6
HIDDEN
 62
     7
370
     0
100
AcDbLine
 10
168.9797267826
 20
119.7628114437
 30
0.0
 11
168.7367983954
 21
119.3822911625
 31
0.0
  0
LINE
  5
1AA
330
1F
100
AcDbEntity
  8
0
  6
HIDDEN
 62
     7
370
     0
100
AcDbLine
 10
168.7367983954
 20
119.3822911625
 30
0.0
 11
168.9773407216
 21
118.9549058784
 31
0.0
  0
LINE
  5
1AB
330
1F
100
AcDbEntity
  8
0
  6
HIDDEN
 62
     7
370
     0
100
AcDbLine
 10
138.4526017478
 20
158.2344512097
 30
0.0
 11
138.4526017478
 21
156.3591331254
 31
0.0
  0
LINE
  5
1AC
330
1F
100
AcDbEntity
  8
0
  6
HIDDEN
 62
     7
370
     0
100
AcDbLine
 10
148.4526017478
 20
156.3646413838
 30
0.0
 11
148.4526017478
 21
158.2401856425
 31
0.0
  0
DIMENSION
  5
1AD
330
1F
100
AcDbEntity
  8
VERMASSUNG
100
AcDbDimension
  2
*D1
 10
79.9548078789
 20
60.6875797463
 30
0.0
 11
79.9548078789
 21
109.5272330507
 31
0.0
 70
   160
  1
HSK A %%c<>
 71
     2
 42
-1.0
  3
SLDDIMSTYLE0
100
AcDbAlignedDimension
 13
134.9526017478
 23
160.6875797463
 33
0.0
 14
134.9526017478
 24
60.6875797463
 34
0.0
 50
90.0
100
AcDbRotatedDimension
  0
DIMENSION
  5
1BA
330
1F
100
AcDbEntity
  8
VERMASSUNG
100
AcDbDimension
  2
*D2
 10
214.4526017478
 20
163.8295774648
 30
0.0
 11
188.9276017478
 21
163.8295774648
 31
0.0
 70
   160
 71
     2
 42
-1.0
  3
SLDDIMSTYLE0
100
AcDbAlignedDimension
 13
163.4026017478
 23
148.3462772809
 33
0.0
 14
214.4526017478
 24
124.4134392247
 34
0.0
100
AcDbRotatedDimension
  0
DIMENSION
  5
1C4
330
1F
100
AcDbEntity
  8
VERMASSUNG
100
AcDbDimension
  2
*D3
 10
214.4526017478
 20
169.8295774648
 30
0.0
 11
174.4526017478
 21
169.8295774648
 31
0.0
 70
   160
 71
     2
 42
-1.0
  3
SLDDIMSTYLE0
100
AcDbAlignedDimension
 13
134.4526017478
 23
160.1875797463
 33
0.0
 14
214.4526017478
 24
124.4134392247
 34
0.0
100
AcDbRotatedDimension
  0
DIMENSION
  5
1CE
330
1F
100
AcDbEntity
  8
VERMASSUNG
100
AcDbDimension
  2
*D4
 10
84.5526017478
 20
175.8295774648
 30
0.0
 11
149.5026017478
 21
175.8295774648
 31
0.0
 70
   160
 71
     2
 42
-1.0
  3
SLDDIMSTYLE0
100
AcDbAlignedDimension
 13
214.4526017478
 23
124.4134392247
 33
0.0
 14
84.5526017478
 24
141.1902494889
 34
0.0
100
AcDbRotatedDimension
  0
DIMENSION
  5
1D8
330
1F
100
AcDbEntity
  8
VERMASSUNG
100
AcDbDimension
  2
*D5
 10
221.9739641122
 20
104.6875797463
 30
0.0
 11
221.9739641122
 21
110.6875797463
 31
0.0
 70
   160
  1
%%c<>
 71
     2
 42
-1.0
  3
SLDDIMSTYLE0
100
AcDbAlignedDimension
 13
214.1526017478
 23
116.6875797463
 33
0.0
 14
214.1526017478
 24
104.6875797463
 34
0.0
 50
90.0
100
AcDbRotatedDimension
  0
DIMENSION
  5
1E3
330
1F
100
AcDbEntity
  8
VERMASSUNG
100
AcDbDimension
  2
*D6
 10
227.9739641122
 20
89.6875797463
 30
0.0
 11
227.9739641122
 21
110.6875797463
 31
0.0
 70
   160
  1
%%c<>
 71
     2
 42
-1.0
  3
SLDDIMSTYLE0
100
AcDbAlignedDimension
 13
201.5855602247
 23
131.6875797463
 33
0.0
 14
201.5855602247
 24
89.6875797463
 34
0.0
 50
90.0
100
AcDbRotatedDimension
  0
LINE
  5
1EE
330
1F
100
AcDbEntity
  8
VERMASSUNG
  6
CENTERX2
 62
     7
370
     0
100
AcDbLine
 10
82.3021323868
 20
110.6875797463
 30
0.0
 11
216.3910562077
 21
110.6875797463
 31
0.0
  0
OLE2FRAME
  5
1EF
330
1F
100
AcDbEntity
  8
0
100
AcDbOle2Frame
 70
     2
  3
Bitmap Image
 10
13.8511154363
 20
38.264191557
 30
0.0
 11
51.6290888628
 21
31.9806341108
 31
0.0
 71
     2
 72
     0
 73
     1
 90
    12928
310
80552BED0767C5B32B40DDAF6807D121434000000000000000006FFBDDFB85D0
310
4940DDAF6807D121434000000000000000006FFBDDFB85D04940416F4BD60AFB
310
3F4000000000000000002BED0767C5B32B40416F4BD60AFB3F40000000000000
310
0000000000000100000000010000010000000100000000000100000000320000
310
D0CF11E0A1B11AE1000000000000000000000000000000003E000300FEFF0900
310
0600000000000000000000000100000001000000000000000010000002000000
310
01000000FEFFFFFF0000000000000000FFFFFFFFFFFFFFFFFFFFFFFFFFFFFFFF
310
FFFFFFFFFFFFFFFFFFFFFFFFFFFFFFFFFFFFFFFFFFFFFFFFFFFFFFFFFFFFFFFF
310
FFFFFFFFFFFFFFFFFFFFFFFFFFFFFFFFFFFFFFFFFFFFFFFFFFFFFFFFFFFFFFFF
310
FFFFFFFFFFFFFFFFFFFFFFFFFFFFFFFFFFFFFFFFFFFFFFFFFFFFFFFFFFFFFFFF
310
FFFFFFFFFFFFFFFFFFFFFFFFFFFFFFFFFFFFFFFFFFFFFFFFFFFFFFFFFFFFFFFF
310
FFFFFFFFFFFFFFFFFFFFFFFFFFFFFFFFFFFFFFFFFFFFFFFFFFFFFFFFFFFFFFFF
310
FFFFFFFFFFFFFFFFFFFFFFFFFFFFFFFFFFFFFFFFFFFFFFFFFFFFFFFFFFFFFFFF
310
FFFFFFFFFFFFFFFFFFFFFFFFFFFFFFFFFFFFFFFFFFFFFFFFFFFFFFFFFFFFFFFF
310
FFFFFFFFFFFFFFFFFFFFFFFFFFFFFFFFFFFFFFFFFFFFFFFFFFFFFFFFFFFFFFFF
310
FFFFFFFFFFFFFFFFFFFFFFFFFFFFFFFFFFFFFFFFFFFFFFFFFFFFFFFFFFFFFFFF
310
FFFFFFFFFFFFFFFFFFFFFFFFFFFFFFFFFFFFFFFFFFFFFFFFFFFFFFFFFFFFFFFF
310
FFFFFFFFFFFFFFFFFFFFFFFFFFFFFFFFFFFFFFFFFFFFFFFFFFFFFFFFFFFFFFFF
310
FFFFFFFFFFFFFFFFFFFFFFFFFFFFFFFFFFFFFFFFFFFFFFFFFFFFFFFFFFFFFFFF
310
FFFFFFFFFFFFFFFFFFFFFFFFFFFFFFFFFFFFFFFFFFFFFFFFFFFFFFFFFFFFFFFF
310
FDFFFFFFFEFFFFFFFEFFFFFFFEFFFFFF05000000060000000700000008000000
310
090000000A0000000B0000000C0000000D0000000E0000000F00000010000000
310
11000000120000001300000014000000150000001600000017000000FEFFFFFF
310
FFFFFFFFFFFFFFFFFFFFFFFFFFFFFFFFFFFFFFFFFFFFFFFFFFFFFFFFFFFFFFFF
310
FFFFFFFFFFFFFFFFFFFFFFFFFFFFFFFFFFFFFFFFFFFFFFFFFFFFFFFFFFFFFFFF
310
FFFFFFFFFFFFFFFFFFFFFFFFFFFFFFFFFFFFFFFFFFFFFFFFFFFFFFFFFFFFFFFF
310
FFFFFFFFFFFFFFFFFFFFFFFFFFFFFFFFFFFFFFFFFFFFFFFFFFFFFFFFFFFFFFFF
310
FFFFFFFFFFFFFFFFFFFFFFFFFFFFFFFFFFFFFFFFFFFFFFFFFFFFFFFFFFFFFFFF
310
FFFFFFFFFFFFFFFFFFFFFFFFFFFFFFFFFFFFFFFFFFFFFFFFFFFFFFFFFFFFFFFF
310
FFFFFFFFFFFFFFFFFFFFFFFFFFFFFFFFFFFFFFFFFFFFFFFFFFFFFFFFFFFFFFFF
310
FFFFFFFFFFFFFFFFFFFFFFFFFFFFFFFFFFFFFFFFFFFFFFFFFFFFFFFFFFFFFFFF
310
FFFFFFFFFFFFFFFFFFFFFFFFFFFFFFFFFFFFFFFFFFFFFFFFFFFFFFFFFFFFFFFF
310
FFFFFFFFFFFFFFFFFFFFFFFFFFFFFFFFFFFFFFFFFFFFFFFFFFFFFFFFFFFFFFFF
310
FFFFFFFFFFFFFFFFFFFFFFFFFFFFFFFFFFFFFFFFFFFFFFFFFFFFFFFFFFFFFFFF
310
FFFFFFFFFFFFFFFFFFFFFFFFFFFFFFFFFFFFFFFFFFFFFFFFFFFFFFFFFFFFFFFF
310
FFFFFFFFFFFFFFFFFFFFFFFFFFFFFFFFFFFFFFFFFFFFFFFFFFFFFFFFFFFFFFFF
310
52006F006F007400200045006E00740072007900000000000000000000000000
310
0000000000000000000000000000000000000000000000000000000000000000
310
16000500FFFFFFFFFFFFFFFF020000000A00030000000000C000000000000046
310
000000000000000000000000D038341C0600CC0103000000C000000000000000
310
01004F006C006500000000000000000000000000000000000000000000000000
310
0000000000000000000000000000000000000000000000000000000000000000
310
0A000200FFFFFFFFFFFFFFFFFFFFFFFF00000000000000000000000000000000
310
0000000000000000000000000000000000000000000000001400000000000000
310
010043006F006D0070004F0062006A0000000000000000000000000000000000
310
0000000000000000000000000000000000000000000000000000000000000000
310
120002010100000003000000FFFFFFFF00000000000000000000000000000000
310
0000000000000000000000000000000000000000010000004D00000000000000
310
01004F006C006500310030004E00610074006900760065000000000000000000
310
0000000000000000000000000000000000000000000000000000000000000000
310
1A000200FFFFFFFFFFFFFFFFFFFFFFFF00000000000000000000000000000000
310
0000000000000000000000000000000000000000040000002426000000000000
310
FEFFFFFF02000000FEFFFFFFFFFFFFFFFFFFFFFFFFFFFFFFFFFFFFFFFFFFFFFF
310
FFFFFFFFFFFFFFFFFFFFFFFFFFFFFFFFFFFFFFFFFFFFFFFFFFFFFFFFFFFFFFFF
310
FFFFFFFFFFFFFFFFFFFFFFFFFFFFFFFFFFFFFFFFFFFFFFFFFFFFFFFFFFFFFFFF
310
FFFFFFFFFFFFFFFFFFFFFFFFFFFFFFFFFFFFFFFFFFFFFFFFFFFFFFFFFFFFFFFF
310
FFFFFFFFFFFFFFFFFFFFFFFFFFFFFFFFFFFFFFFFFFFFFFFFFFFFFFFFFFFFFFFF
310
FFFFFFFFFFFFFFFFFFFFFFFFFFFFFFFFFFFFFFFFFFFFFFFFFFFFFFFFFFFFFFFF
310
FFFFFFFFFFFFFFFFFFFFFFFFFFFFFFFFFFFFFFFFFFFFFFFFFFFFFFFFFFFFFFFF
310
FFFFFFFFFFFFFFFFFFFFFFFFFFFFFFFFFFFFFFFFFFFFFFFFFFFFFFFFFFFFFFFF
310
FFFFFFFFFFFFFFFFFFFFFFFFFFFFFFFFFFFFFFFFFFFFFFFFFFFFFFFFFFFFFFFF
310
FFFFFFFFFFFFFFFFFFFFFFFFFFFFFFFFFFFFFFFFFFFFFFFFFFFFFFFFFFFFFFFF
310
FFFFFFFFFFFFFFFFFFFFFFFFFFFFFFFFFFFFFFFFFFFFFFFFFFFFFFFFFFFFFFFF
310
FFFFFFFFFFFFFFFFFFFFFFFFFFFFFFFFFFFFFFFFFFFFFFFFFFFFFFFFFFFFFFFF
310
FFFFFFFFFFFFFFFFFFFFFFFFFFFFFFFFFFFFFFFFFFFFFFFFFFFFFFFFFFFFFFFF
310
FFFFFFFFFFFFFFFFFFFFFFFFFFFFFFFFFFFFFFFFFFFFFFFFFFFFFFFFFFFFFFFF
310
FFFFFFFFFFFFFFFFFFFFFFFFFFFFFFFFFFFFFFFFFFFFFFFFFFFFFFFFFFFFFFFF
310
FFFFFFFFFFFFFFFFFFFFFFFFFFFFFFFFFFFFFFFFFFFFFFFFFFFFFFFFFFFFFFFF
310
010000020000000000000000000000000000000061007200510082005C003107
310
D807250000000000D807250000000000680061007200650064005C003B004300
310
0100FEFF030A0000FFFFFFFF0A00030000000000C00000000000004607000000
310
5042727573680007000000504272757368000700000050427275736800F439B2
310
71000000000000000000000000004100540049002E004100430045005C004300
310
6F00720065002D005300740061007400690063003B0043003A005C0050007200
310
6F006700720061006D002000460069006C006500730020002800780038003600
310
29005C0043006F006D006D006F006E002000460069006C00650073005C004100
310
750074006F006400650073006B0020005300680061007200650064005C003B00
310
43003A005C00500072006F006700720061006D002000460069006C0065007300
310
5C004E006F0072006D0061006E005C004E0070006D005C00420069006E000000
310
43003A005C00500072006F006700720061006D002000460069006C0065007300
310
5C0053006F006C006900640057006F0072006B007300200043006F0072007000
310
5C0053006F006C006900640057006F0072006B00730020002800320029005C00
310
730065007400750070005C0069003300380036005C0073007700610063007400
310
770069007A002E006500780065000000220043003A005C00500072006F006700
310
20260000424D0E260000000000003E00000028000000B40200006E0000000100
310
01000000000000000000130B0000130B00000200000002000000000000FFFFFF
310
FFFFFFFFFFFFFFFFFFFFFFFFFFFFFFFFFFFFFFFFFFFFFFFFFFFFFFFFFFFFFFFF
310
FFFFFFFFFFFFFFFFFFFFFFFFFFFFFFFFFFFFFFFFFFFFFFFFFFFFFFFFFFFFFFFF
310
FFFFFFFFFFFFFFFFFFFFFFFFFFFFFFFFFFFFFFFFFFFFFFFFF000FFFFFFFFFFFF
310
FFFFFFFFFFFFFFFFFFFFFFFFFFFFFFFFFFFFFFFFFFFFFFFFFFFFFFFFFFFFFFFF
310
FFFFFFFFFFFFFFFFFFFFFFFFFFFFFFFFFFFFFFFFFFFFFFFFFFFFFFFFFFFFFFFF
310
FFFFFFFFFFFFFFFFFFFFFFFFFFFFFFFFF000FFFFFFFFFFFFFFFFFFFFFFFFFFFF
310
FFFFFFFFFFFFFFFFFFFFFFFFFFFFFFFFFFFFFFFFFFFFFFFFFFFFFFFFFFFFFFFF
310
FFFFFFFFFFFFFFFFFFFFFFFFFFFFFFFFFFFFFFFFFFFFFFFFFFFFFFFFFFFFFFFF
310
FFFFFFFFFFFFFFFFF000FFFFFFFFFFFFFFFFFFFFFFFFFFFFFFFFFFFFFFFFFFFF
310
FFFFFFFFFFFFFFFFFFFFFFFFFFFFFFFFFFFFFFFFFFFFFFFFFFFFFFFFFFFFFFFF
310
FFFFFFFFFFFFFFFFFFFFFFFFFFFFFFFFFFFFFFFFFFFFFFFFFFFFFFFFFFFFFFFF
310
F000FFFFFFFFFFFFFFFFFFFFFFFFFFFFFFFFFFFFFFFFFFFFFFFFFFFFFFFFFFFF
310
FFFFFFFFFFFFFFFFFFFFFFFFFFFFFFFFFFFFFFFFFFFFFFFFFFFFFFFFFFFFFFFF
310
FFFFFFFFFFFFFFFFFFFFFFFFFFFFFFFFFFFFFFFFFFFFFFFFF000FFFFFFFFFFFF
310
FFFFFFFFFFFFFFFFFFFFFFFFFFFFFFFFFFFFFFFFFFFFFFFFFFFFFFFFFFFFFFFF
310
FFFFFFFFFFFFFFFFFFFFFFFFFFFFFFFFFFFFFFFFFFFFFFFFFFFFFFFFFFFFFFFF
310
FFFFFFFFFFFFFFFFFFFFFFFFFFFFFFFFF000FFFFFFFFFFFFFFFFFFFFFFFFFFFF
310
FFFFFFFFFFFFFFFFFFFFFFFFFFFFFFFFFFFFFFFFFFFFFFFFFFFFFFFFFFFFFFFF
310
FFFFFFFFFFFFFFFFFFFFFFFFFFFFFFFFFFFFFFFFFFFFFFFFFFFFFFFFFFFFFFFF
310
FFFFFFFFFFFFFFFFF000FFFFFFFFFFFFFFFFFFFFFFFFFFFFFFFFFFFFFFFFFFFF
310
FFFFFFFFFFFFFFFFFFFFFFFFFFFFFFFFFFFFFFFFFFFFFFFFFFFFFFFFFFFFFFFF
310
FFFFFFFFFFFFFFFFFFFFFFFFFFFFFFFFFFFFFFFFFFFFFFFFFFFFFFFFFFFFFFFF
310
F000FFFFFFFFFFFFFFFFFFFFFFFFFFFFFFFFFFFFFFFFFFFFFFFFFFFFFFFFFFFF
310
FFFFFFFFFFFFFFFFFFFFFFFFFFFFFFFFFFFFFFFFFFFFFFFFFFFFFFFFFFFFFFFF
310
FFFFFFFFFFFFFFFFFFFFFFFFFFFFFFFFFFFFFFFFFFFFFFFFF000FFFFFFFFFFFF
310
FFFFFFFFFFFFFFFFFFFFFFFFFFFFFFFFFFFFFFFFFFFFFFFFFFFFFFFFFFFFFFFF
310
FFFFFFFFFFFFFFFFFFFFFFFFFFFFFFFFFFFFFFFFFFFFFFFFFFFFFFFFFFFFFFFF
310
FFFFFFFFFFFFFFFFFFFFFFFFFFFFFFFFF000FFFFFFFFFFFFFFFFFFFFFFFFFFFF
310
FFFFFFFFFFFFFFFFFFFFFFFFFFFFFFFFFFFFFFFFFFFFFFFFFFFFFFFFFFFFFFFF
310
FFFFFFFFFFFFFFFFFFFFFFFFFFFFFFFFFFFFFFFFFFFFFFFFFFFFFFFFFFFFFFFF
310
FFFFFFFFFFFFFFFFF000FFFFFFFFFFFFFFFFFFFFFFFFFFFFFFFFFFFFFFFFFFFF
310
FFFFFFFFFFFFFFFFFFFFFFFFFFFFFFFFFFFFFFFFFFFFFFFFFFFFFFFFFFFFFFFF
310
FFFFFFFFFFFFFFFFFFFFFFFFFFFFFFFFFFFFFFFFFFFFFFFFFFFFFFFFFFFFFFFF
310
F000FFFFFFFFFFFFFFFFFFFFFFFFFFFFFFFFFFFFFFFFFFFFFFFFFFFFFFFFFFFF
310
FFFFFFFFFFFFFFFFFFFFFFFFFFFFFFFFFFFFFFFFFFFFFFFFFFFFFFFFFFFFFFFF
310
FFFFFFFFFFFFFFFFFFFFFFFFFFFFFFFFFFFFFFFFFFFFFFFFF000FFFFFFFFFFFF
310
FFFFFFFFFFFFFFFFFFFFFFFFFFFFFFFFFFFFFFFFFFFFFFFFFFFFFFFFFFFFFFFF
310
FFFFFFFFFFFFFFFFFFFFFFFFFFFFFFFFFFFFFFFFFFFFFFFFFFFFFFFFFFFFFFFF
310
FFFFFFFFFFFFFFFFFFFFFFFFFFFFFFFFF000FFFFFFFFFFFFFFFFFFFFFFFFFFFF
310
FFFFFFFFFFFFFFFFFFFFFFFFFFFFFFFFFFFFFFFFFFFFFFFFFFFFFFFFFFFFFFFF
310
FFFFFFFFFFFFFFFFFFFFFFFFFFFFFFFFFFFFFFFFFFFFFFFFFFFFFFFFFFFFFFFF
310
FFFFFFFFFFFFFFFFF000FFFFFFFFFFFFFFFFFFFFFFFFFFFFFFFFFFFFFFFFFFFF
310
FFFFFFFFFFFFFFFFFFFFFFFFFFFFFFFFFFFFFFFFFFFFFFFFFFFFFFFFFFFFFFFF
310
FFFFFFFFFFFFFFFFFFFFFFFFFFFFFFFFFFFFFFFFFFFFFFFFFFFFFFFFFFFFFFFF
310
F000FFFFFFFFFFFFFFFFFFFFFFFFFFFFFFFFFFFFFFFFFFFFFFFFFFFFFFFFFFFF
310
FFFFFFFFFFFFFFFFFFFFFFFFFFFFFFFFFFFFFFFFFFFFFFFFFFFFFFFFFFFFFFFF
310
FFFFFFFFFFFFFFFFFFFFFFFFFFFFFFFFFFFFFFFFFFFFFFFFF000FFFFFFFFFFFF
310
FFFFFFFFFFFFFFFFFFFFFFFFFFFFFFFFFFFFFFFFFFFFFFFFFFFFFFFFFFFFFFFF
310
FFFFFFFFFFFFFFFFFFFFFFFFFFFFFFFFFFFFFFFFFFFFFFFFFFFFFFFFFFFFFFFF
310
FFFFFFFFFFFFFFFFFFFFFFFFFFFFFFFFF000FFFFFFFFFFFFFFFFFFFFFFFFFFFF
310
FFFFFFFFFFFFFFFFFFFFFFFFFFFFFFFFFFFFFFFFFFFFFFFFFFFFFFFFFFFFFFFF
310
FFFFFFFFFFFFFFFFFFFFFFFFFFFFFFFFFFFFFFFFFFFFFFFFFFFFFFFFFFFFFFFF
310
FFFFFFFFFFFFFFFFF000FFFFF80003FFFFFFFFFFFFFFFFFFFFFFFFFFFFFFFFFF
310
FFFFF00007FFFFFFFFFF00007FFFFFF800000000000000007FFFFFFFFFFFFFFF
310
FFFFFFFC001FFFFFFFFFFFFFFC001FFFFFFFFFFFFFFFFFFFFFFFFFFE0007FFFF
310
F000FFFF8000007FFFFFFFF8000FFFFFC0007FFFFF80007FFFFF0000007FFFFF
310
FFF8000007FFFFF800000000000000007FFFFFF0001FFFFFFFFFFFC00001FFFF
310
FFFFFFFFC00001FFFFFFFF000000000003FFFFE000007FFFF000FFFE0000000F
310
FFFFFFF0000FFFFF80007FFFFF80007FFFFC0000001FFFFFFFC0000001FFFFF8
310
00000000000000007FFFFFF0001FFFFFFFFFFE0000003FFFFFFFFFFE0000003F
310
FFFFFF000000000003FFFF0000000FFFF000FFF800000003FFFFFFF00007FFFF
310
80007FFFFF80007FFFF000000007FFFFFF000000003FFFF80000000000000000
310
7FFFFFF0001FFFFFFFFFF80000000FFFFFFFFFF80000000FFFFFFF0000000000
310
03FFFC00000003FFF000FFE000000000FFFFFFF00007FFFF80003FFFFF80007F
310
FFC000000001FFFFFC000000001FFFF800000000000000007FFFFFF0001FFFFF
310
FFFFE000000003FFFFFFFFE000000003FFFFFF000000000003FFF000000000FF
310
F000FF80000000007FFFFFF00007FFFF80003FFFFF80007FFF8000000000FFFF
310
F80000000007FFF800000000000000007FFFFFF0001FFFFFFFFFC000000001FF
310
FFFFFFC000000001FFFFFF000000000003FFC0000000007FF000FF0000000000
310
3FFFFFE00007FFFF00003FFFFF80007FFE00000000003FFFF00000000003FFF8
310
00000000000000007FFFFFF0001FFFFFFFFF8000000000FFFFFFFF8000000000
310
FFFFFF000000000003FF80000000003FF000FE00000000001FFFFFE00003FFFF
310
00003FFFFF80007FFC00000000001FFFE00000000001FFF8000001FFFE000000
310
7FFFFFF0001FFFFFFFFE00000000003FFFFFFE00000000003FFFFF0000000000
310
03FF00000000001FF000FC00000000000FFFFFE00003FFFF00001FFFFF80007F
310
F800000000001FFFC00000000000FFF8000001FFFE0000007FFFFFF0001FFFFF
310
FFFC00000000001FFFFFFC00000000001FFFFF000000000003FE00000000000F
310
F000F8000000000007FFFFE00003FFFF00001FFFFF80007FF800000000000FFF
310
800000000000FFF8000001FFFE0000007FFFFFF0001FFFFFFFF800000000000F
310
FFFFF800000000000FFFFF000000000003FC000000000007F000F80000000000
310
03FFFFC00003FFFE00001FFFFF80007FF0000000000007FF0000000000007FF8
310
000001FFFE0000007FFFFFF0001FFFFFFFF0000000000007FFFFF00000000000
310
07FFFF000000000003F8000000000003F000F0000000000003FFFFC00001FFFE
310
00001FFFFF80007FE0000000000007FE0000000000003FF8000001FFFE000000
310
7FFFFFF0001FFFFFFFF0000000000007FFFFF0000000000007FFFF0000000000
310
03F800001F800003F000E00001FFF00001FFFFC00001FFFE00000FFFFF80007F
310
E00001FFE00003FE00001FFF00003FF8000001FFFE0000007FFFFFF0001FFFFF
310
FFE000003E000003FFFFE000003E000003FFFF000000000003F00001FFF80001
310
F000E00007FFFC0001FFFFC00001FFFE00000FFFFF80007FC0000FFFFC0003FC
310
0000FFFFC0001FF8000001FFFE0000007FFFFFF0001FFFFFFFC00003FFE00001
310
FFFFC00003FFE00001FFFF0001FFFFFFFFF00007FFFE0001F000E0000FFFFF00
310
00FFFF800001FFFC00000FFFFF80007FC0001FFFFE0001FC0001FFFFE0001FF8
310
000001FFFE0000007FFFFFF0001FFFFFFF80000FFFF80000FFFF80000FFFF800
310
00FFFF0003FFFFFFFFE0000FFFFF8000F000C0003FFFFF8000FFFF800000FFFC
310
000007FFFF80007F80003FFFFF0001FC0003FFFFF0001FF8000001FFFE000000
310
7FFFFFF0001FFFFFFF80003FFFFE0000FFFF80003FFFFE0000FFFF0003FFFFFF
310
FFE0003FFFFF8000F000C0003FFFFF8000FFFF800000FFFC000007FFFF80007F
310
80007FFFFF8001F80007FFFFF8000FF8000001FFFE0000007FFFFFF0001FFFFF
310
FF00007FFFFF00007FFF00007FFFFF00007FFF0003FFFFFFFFE0003FFFFFC000
310
F000C0007FFFFFC000FFFF000000FFFC000007FFFF80007F8000FFFFFF8000F8
310
000FFFFFF8000FF8000001FFFE0000007FFFFFF0001FFFFFFF0000FFFFFF8000
310
7FFF0000FFFFFF80007FFF0003FFFFFFFFC0007FFFFFC00070008000FFFFFFC0
310
00FFFF000000FFF8000007FFFF80007F8000FFFFFF8000F8000FFFFFF8000FF8
310
000001FFFE0000007FFFFFF0001FFFFFFE0001FFFFFFC0003FFE0001FFFFFFC0
310
003FFF0003FFFFFFFFC0007FFFFFE00070008000FFFFFFC0007FFF0000007FF8
310
000003FFFF80007F0001FFFFFF8000F8000FFFFFF8000FF8000001FFFE000000
310
7FFFFFF0001FFFFFFE0001FFFFFFC0003FFE0001FFFFFFC0003FFF0003FFFFFF
310
FFC000FFFFFFE00070008000FFFFFFC0007FFF0000007FF8000003FFFF80007F
310
0001FFFFFF8000F8001FFFFFF8000FF8000001FFFE0000007FFFFFF0001FFFFF
310
FE0003FFFFFFE0003FFE0003FFFFFFE0003FFF0003FFFFFFFFC000FFFFFFE000
310
70008000FFFFFFC0007FFE0000007FF8000003FFFF80007F0001FFFFFF8000F0
310
001FFFFFF8000FF8000001FFFE0000007FFFFFF0001FFFFFFC0003FFFFFFE000
310
1FFC0003FFFFFFE0001FFF0003FFFFFFFFC000FFFFFFC00070008000FFFFFF80
310
007FFE0000007FF0000003FFFF80007F0001FFFFFF0000F0001FFFFFF8000FF8
310
000001FFFE0000007FFFFFF0001FFFFFFC0007FFFFFFF0001FFC0007FFFFFFF0
310
001FFF0003FFFFFFFFC000FFFFFFC00070008001FFFFFF0000FFFE0000003FF0
310
000001FFFF80007F0001FFFFFF0000F8001FFFFFF0000FF8000001FFFE000000
310
7FFFFFF0001FFFFFFC0007FFFFFFF0001FFC0007FFFFFFF0001FFF0003FFFFFF
310
FFC001FFFFFF80007000FFFFFFFFFE0000FFFE0008003FF0008001FFFF80007F
310
FFFFFFFFFC0000FFFFFFFFFFE0000FF8000001FFFE0000007FFFFFF0001FFFFF
310
F8000FFFFFFFF8000FF8000FFFFFFFF8000FFF0003FFFFFFFFFFFFFFFFFF0000
310
7000FFFFFFFFFC0000FFFC0008003FF0008001FFFF80007FFFFFFFFFF80001FF
310
FFFFFFFF80000FF8000001FFFE0000007FFFFFF0001FFFFFF8000FFFFFFFF800
310
0FF8000FFFFFFFF8000FFF0003FFFFFFFFFFFFFFFFFE0000F000FFFFFFFFE000
310
00FFFC000C003FE000C001FFFF80007FFFFFFFFFC00001FFFFFFFFFE00001FF8
310
000001FFFE0000007FFFFFF0001FFFFFF8000FFFFFFFF8000FF8000FFFFFFFF8
310
000FFF0003FFFFFFFFFFFFFFFFF00000F000FFFFFFFE000001FFFC000C001FE0
310
00C000FFFF80007FFFFFFFFE000001FFFFFFFFE000001FF80FFFFFFFFFFFFFC0
310
7FFFFFF0001FFFFFF8000FFFFFFFF8000FF8000FFFFFFFF8000FFF0003FFFFFF
310
FFFFFFFFFF800000F000FFFFFFC0000001FFFC001C001FE001C000FFFF80007F
310
FFFFFF80000003FFFFFFF80000001FF80FFFFFFFFFFFFFC07FFFFFF0001FFFFF
310
F8001FFFFFFFFC000FF8001FFFFFFFFC000FFF0003FFFFFFFFFFFFFFF0000001
310
F000FFFFF800000001FFF8001C001FE001C000FFFF80007FFFFFF800000003FF
310
FFFF800000003FF80FFFFFFFFFFFFFC07FFFFFF0001FFFFFF8001FFFFFFFFC00
310
0FF8001FFFFFFFFC000FFF0003FFFFFFFFFFFFFE00000001F000FFFFC0000000
310
03FFF8001E001FC001E000FFFF80007FFFFF8000000007FFFFFC000000003FF8
310
0FFFFFFFFFFFFFC07FFFFFF0001FFFFFF8001FFFFFFFFC000FF8001FFFFFFFFC
310
000FFF0003FFFFFFFFFFFFE000000003F000FFFE0000000007FFF8001E000FC0
310
01E0007FFF80007FFFFE0000000007FFFFE0000000007FF80FFFFFFFFFFFFFC0
310
7FFFFFF0001FFFFFF0001FFFFFFFFC0007F0001FFFFFFFFC0007FF0003FFFFFF
310
FFFFFF0000000003F000FFF80000000007FFF8001E000FC003E0007FFF80007F
310
FFF0000000000FFFFF8000000000FFF80FFFFFFFFFFFFFC07FFFFFF0001FFFFF
310
F0001FFFFFFFFC0007F0001FFFFFFFFC0007FF0003FFFFFFFFFFFC0000000007
310
F000FFE0000000000FFFF0003E000FC003E0007FFF80007FFFC0000000001FFF
310
FE0000000001FFF80FFFFFFFFFFFFFC07FFFFFF0001FFFFFF0001FFFFFFFFC00
310
07F0001FFFFFFFFC0007FF0003FFFFFFFFFFF0000000000FF000FFC000000000
310
1FFFF0003F000F8003F0003FFF80007FFF80000000003FFFF80000000003FFF8
310
0FFFFFFFFFFFFFC07FFFFFF0001FFFFFF0001FFFFFFFFC0007F0001FFFFFFFFC
310
0007FF0003FFFFFFFFFFE0000000001FF000FF00000000007FFFF0003F000780
310
03F0003FFF80007FFF00000000007FFFF00000000007FFF80FFFFFFFFFFFFFC0
310
7FFFFFF0001FFFFFF0001FFFFFFFFC0007F0001FFFFFFFFC0007FF0003FFFFFF
310
FFFF80000000007FF000FE0000000000FFFFE0003F00078007F0003FFF80007F
310
FE0000000001FFFFE0000000001FFFF80FFFFFFFFFFFFFC07FFFFFF0001FFFFF
310
F0001FFFFFFFFC0007F0001FFFFFFFFC0007FF0003FFFFFFFFFF0000000000FF
310
F000FC0000000003FFFFE0007F00078007F0003FFF80007FFC0000000007FFFF
310
C0000000007FFFF80FFFFFFFFFFFFFC07FFFFFF0001FFFFFF8001FFFFFFFFC00
310
0FF8001FFFFFFFFC000FFF0003FFFFFFFFFE0000000003FFF000FC000000000F
310
FFFFE0007F80070007F8001FFF80007FF8000000001FFFFF8000000001FFFFF8
310
0FFFFFFFFFFFFFC07FFFFFF0001FFFFFF8001FFFFFFFFC000FF8001FFFFFFFFC
310
000FFF0003FFFFFFFFFC000000000FFFF000F8000000007FFFFFE0007F800700
310
07F8001FFF80007FF000000000FFFFFF800000000FFFFFF80FFFFFFFFFFFFFC0
310
7FFFFFF0001FFFFFF8000FFFFFFFF8000FF8000FFFFFFFF8000FFF0003FFFFFF
310
FFFC000000007FFFF000F800000007FFFFFFC0007F8003000FF8001FFF80007F
310
F000000007FFFFFF000000007FFFFFF80FFFFFFFFFFFFFC07FFFFFF0001FFFFF
310
F8000FFFFFFFF8000FF8000FFFFFFFF8000FFF0003FFFFFFFFF80000000FFFFF
310
F000F0000000FFFFFFFFC000FF8003000FF8001FFF80007FE0000000FFFFFFFF
310
0000000FFFFFFFF8000001FFFE0000007FFFFFF0001FFFFFF8000FFFFFFFF800
310
0FF8000FFFFFFFF8000FFF0003FFFFFFFFF8000000FFFFFFF000F000000FFFFF
310
FFFFC000FFC002000FF8000FFF80007FE000001FFFFFFFFE000001FFFFFFFFF8
310
000001FFFE0000007FFFFFF0001FFFFFF8000FFFFFFFF8000FF8000FFFFFFFF8
310
000FFF0003FFFFFFFFF000001FFFFFFFF000E00000FFFFFFFFFFC000FFC00200
310
0FFC000FFF80007FE00001FFFFFFFFFE00001FFFFFFFFFF8000001FFFE000000
310
7FFFFFF0001FFFFFFC000FFFFFFFF8001FFC000FFFFFFFF8001FFF0003FFFFFF
310
FFF00001FFFFFFFFF000E00007FFFFFFFFFF8000FFC000001FFC000FFF80007F
310
C0000FFFFFFFFFFE0000FFFFFFFFFFF8000001FFFE0000007FFFFFF0001FFFFF
310
FC0007FFFFFFF0001FFC0007FFFFFFF0001FFF0003FFFFFFFFF00007FFFFFFFF
310
F000E0001FFFFFFFFFFF8000FFC000001FFC000FFF80007FC0003FFFFFFFFFFE
310
0001FFFFFFFFFFF8000001FFFE0000007FFFFFF0001FFFFFFC0007FFFFFFF000
310
1FFC0007FFFFFFF0001FFF0003FFFFFFFFF0001FFFFFFFFFF000E0003FFFFF00
310
03FF8001FFE000001FFC0007FF80007FC0007FFFFF0007FC0003FFFFF0003FF8
310
000001FFFE0000007FFFFFF0001FFFFFFC0003FFFFFFE0001FFC0003FFFFFFE0
310
001FFF0003FFFFFFFFF0003FFFFFFFFFF000E0003FFFFF0001FF8001FFE00000
310
1FFE0007FF80007FC0007FFFFE0003FC0007FFFFE0003FF8000001FFFE000000
310
7FFFFFF0001FFFFFFE0003FFFFFFE0003FFE0003FFFFFFE0003FFF0003FFFFFF
310
FFF0003FFFFF8001F000E0003FFFFF0001FF0001FFE000001FFE0007FF80007F
310
C0007FFFFE0003FC0007FFFFE0003FF8000001FFFE0000007FFFFFF0001FFFFF
310
FE0001FFFFFFC0003FFE0001FFFFFFC0003FFF0003FFFFFFFFF0003FFFFF0001
310
F000E0003FFFFF0003FF0001FFE000003FFE0007FF80007FC0007FFFFE0003FC
310
0007FFFFE0003FF8000001FFFE0000007FFFFFF0001FFFFFFF0001FFFFFFC000
310
7FFF0001FFFFFFC0007FFF0003FFFFFFFFF0003FFFFF0001F000E0003FFFFE00
310
03FF0003FFF000003FFE0003FF80007FC0007FFFFC0003FE0007FFFFE0003FF8
310
000001FFFE0000007FFFFFF0001FFFFFFF0000FFFFFF80007FFF0000FFFFFF80
310
007FFF0003FFFFFFFFF0003FFFFF0001F000E0003FFFFE0003FF0003FFF00000
310
3FFF0003FF80007FC0007FFFFC0007FE0007FFFFC0003FF8000001FFFE000000
310
7FFFFFF0001FFFFFFF80007FFFFF0000FFFF80007FFFFF0000FFFF0003FFFFFF
310
FFF0003FFFFF0003F000E0003FFFFC0003FE0003FFF000003FFF0003FF80007F
310
E0003FFFF80007FE0003FFFFC0007FF8000001FFFE0000007FFFFFF0001FFFFF
310
FF80003FFFFE0000FFFF80003FFFFE0000FFFF0003FFFFFFFFF0001FFFFE0003
310
F000F0001FFFF80003FE0003FFF000007FFF0001FF80007FE0003FFFF00007FE
310
0001FFFF80007FF8000001FFFE0000007FFFFFF0001FFFFFFFC0000FFFF80001
310
FFFFC0000FFFF80001FFFF0003FFFFFFFFF0001FFFFC0003F000F0000FFFF000
310
07FE0007FFF800007FFF0001FF80007FE0001FFFE00007FF0000FFFE00007FF8
310
000001FFFE0000007FFFFFF0001FFFFFFFC00003FFE00001FFFFC00003FFE000
310
01FFFF0003FFFFFFFFF8000FFFF80003F000F00003FFC00007FC0007FFF80000
310
7FFF8001FF80007FF00007FF80000FFF00007FF80000FFF8000001FFFE000000
310
7F80000000000001FFE000003E000003FFFFE000003E000003FFFF0003FFFFFF
310
FFF80003FFE00007F000F800000000000FFC0007FFF800007FFF8001FF80007F
310
F000000000000FFF000000000000FFF8000001FFFE0000007F80000000000001
310
FFF0000000000007FFFFF0000000000007FFFF0003FFFFFFFFFC00007E000007
310
F000F800000000000FFC0007FFF80000FFFF8000FF80007FF800000000001FFF
310
800000000001FFF8000001FFFE0000007F80000000000001FFF800000000000F
310
FFFFF800000000000FFFFF0003FFFFFFFFFC00000000000FF000FC0000000000
310
1FFC0007FFFC0000FFFF8000FF80007FF800000000003FFFC00000000001FFF8
310
000001FFFE0000007F80000000000001FFF800000000000FFFFFF80000000000
310
0FFFFF0003FFFFFFFFFE00000000001FF000FE00000000003FF8000FFFFC0000
310
FFFF8000FF80007FFC00000000003FFFC00000000003FFF8000001FFFE000000
310
7F80000000000001FFFC00000000001FFFFFFC00000000001FFFFF0003FFFFFF
310
FFFF00000000001FF000FF00000000003FF8000FFFFC0000FFFFC000FF80007F
310
FE00000000007FFFE00000000007FFF8000001FFFE0000007F80000000000001
310
FFFE00000000003FFFFFFE00000000003FFFFF0003FFFFFFFFFF80000000003F
310
F000FF80000000007FF8000FFFFC0001FFFFC0007F80007FFF0000000000FFFF
310
F0000000000FFFF800000000000000007F80000000000001FFFF8000000000FF
310
FFFFFF8000000000FFFFFF0003FFFFFFFFFFC0000000007FF000FFC000000000
310
FFF8000FFFFE0001FFFFC0007F80007FFF8000000001FFFFF8000000001FFFF8
310
00000000000000007F80000000000001FFFFC000000001FFFFFFFFC000000001
310
FFFFFF0003FFFFFFFFFFE000000000FFF000FFE000000003FFF0001FFFFE0001
310
FFFFC0007F80007FFFC000000007FFFFFE000000003FFFF80000000000000000
310
7F80000000000001FFFFE000000003FFFFFFFFE000000003FFFFFF0003FFFFFF
310
FFFFF000000003FFF000FFF80000000FFFF0001FFFFE0001FFFFE0007F80007F
310
FFF00000000FFFFFFF00000000FFFFF800000000000000007F80000000000001
310
FFFFF80000000FFFFFFFFFF80000000FFFFFFF0003FFFFFFFFFFFC0000000FFF
310
F000FFFE0000003FFFF0001FFFFE0003FFFFE0003F80007FFFFC0000003FFFFF
310
FFC0000003FFFFF800000000000000007F80000000000001FFFFFE0000003FFF
310
FFFFFFFE0000003FFFFFFF0003FFFFFFFFFFFF0000003FFFF000FFFF800000FF
310
FFF0001FFFFF0003FFFFE0003F80007FFFFF000001FFFFFFFFF800001FFFFFF8
310
00000000000000007F80000000000001FFFFFFC00001FFFFFFFFFFFFC00001FF
310
FFFFFF0003FFFFFFFFFFFFC00000FFFFF000FFFFF8000FFFFFFFFFFFFFFFFFFF
310
FFFFFFFFFFFFFFFFFFFFF0001FFFFFFFFFFF0000FFFFFFF80000000000000000
310
7FFFFFFFFFFFFFFFFFFFFFFC001FFFFFFFFFFFFFFC001FFFFFFFFFFFFFFFFFFF
310
FFFFFFFC001FFFFFF000FFFFFFFFFFFFFFFFFFFFFFFFFFFFFFFFFFFFFFFFFFFF
310
FFFFFFFFFFFFFFFFFFFFFFFFFFFFFFFFFFFFFFFFFFFFFFFFFFFFFFFFFFFFFFFF
310
FFFFFFFFFFFFFFFFFFFFFFFFFFFFFFFFFFFFFFFFFFFFFFFFFFFFFFFFFFFFFFFF
310
F000FFFFFFFFFFFFFFFFFFFFFFFFFFFFFFFFFFFFFFFFFFFFFFFFFFFFFFFFFFFF
310
FFFFFFFFFFFFFFFFFFFFFFFFFFFFFFFFFFFFFFFFFFFFFFFFFFFFFFFFFFFFFFFF
310
FFFFFFFFFFFFFFFFFFFFFFFFFFFFFFFFFFFFFFFFFFFFFFFFF000FFFFFFFFFFFF
310
FFFFFFFFFFFFFFFFFFFFFFFFFFFFFFFFFFFFFFFFFFFFFFFFFFFFFFFFFFFFFFFF
310
FFFFFFFFFFFFFFFFFFFFFFFFFFFFFFFFFFFFFFFFFFFFFFFFFFFFFFFFFFFFFFFF
310
FFFFFFFFFFFFFFFFFFFFFFFFFFFFFFFFF000FFFFFFFFFFFFFFFFFFFFFFFFFFFF
310
FFFFFFFFFFFFFFFFFFFFFFFFFFFFFFFFFFFFFFFFFFFFFFFFFFFFFFFFFFFFFFFF
310
FFFFFFFFFFFFFFFFFFFFFFFFFFFFFFFFFFFFFFFFFFFFFFFFFFFFFFFFFFFFFFFF
310
FFFFFFFFFFFFFFFFF000FFFFFFFFFFFFFFFFFFFFFFFFFFFFFFFFFFFFFFFFFFFF
310
FFFFFFFFFFFFFFFFFFFFFFFFFFFFFFFFFFFFFFFFFFFFFFFFFFFFFFFFFFFFFFFF
310
FFFFFFFFFFFFFFFFFFFFFFFFFFFFFFFFFFFFFFFFFFFFFFFFFFFFFFFFFFFFFFFF
310
F000FFFFFFFFFFFFFFFFFFFFFFFFFFFFFFFFFFFFFFFFFFFFFFFFFFFFFFFFFFFF
310
FFFFFFFFFFFFFFFFFFFFFFFFFFFFFFFFFFFFFFFFFFFFFFFFFFFFFFFFFFFFFFFF
310
FFFFFFFFFFFFFFFFFFFFFFFFFFFFFFFFFFFFFFFFFFFFFFFFF000FFFFFFFFFFFF
310
FFFFFFFFFFFFFFFFFFFFFFFFFFFFFFFFFFFFFFFFFFFFFFFFFFFFFFFFFFFFFFFF
310
FFFFFFFFFFFFFFFFFFFFFFFFFFFFFFFFFFFFFFFFFFFFFFFFFFFFFFFFFFFFFFFF
310
FFFFFFFFFFFFFFFFFFFFFFFFFFFFFFFFF000FFFFFFFFFFFFFFFFFFFFFFFFFFFF
310
FFFFFFFFFFFFFFFFFFFFFFFFFFFFFFFFFFFFFFFFFFFFFFFFFFFFFFFFFFFFFFFF
310
FFFFFFFFFFFFFFFFFFFFFFFFFFFFFFFFFFFFFFFFFFFFFFFFFFFFFFFFFFFFFFFF
310
FFFFFFFFFFFFFFFFF000FFFFFFFFFFFFFFFFFFFFFFFFFFFFFFFFFFFFFFFFFFFF
310
FFFFFFFFFFFFFFFFFFFFFFFFFFFFFFFFFFFFFFFFFFFFFFFFFFFFFFFFFFFFFFFF
310
FFFFFFFFFFFFFFFFFFFFFFFFFFFFFFFFFFFFFFFFFFFFFFFFFFFFFFFFFFFFFFFF
310
F000FFFFFFFFFFFFFFFFFFFFFFFFFFFFFFFFFFFFFFFFFFFFFFFFFFFFFFFFFFFF
310
FFFFFFFFFFFFFFFFFFFFFFFFFFFFFFFFFFFFFFFFFFFFFFFFFFFFFFFFFFFFFFFF
310
FFFFFFFFFFFFFFFFFFFFFFFFFFFFFFFFFFFFFFFFFFFFFFFFF000FFFFFFFFFFFF
310
FFFFFFFFFFFFFFFFFFFFFFFFFFFFFFFFFFFFFFFFFFFFFFFFFFFFFFFFFFFFFFFF
310
FFFFFFFFFFFFFFFFFFFFFFFFFFFFFFFFFFFFFFFFFFFFFFFFFFFFFFFFFFFFFFFF
310
FFFFFFFFFFFFFFFFFFFFFFFFFFFFFFFFF000FFFFFFFFFFFFFFFFFFFFFFFFFFFF
310
FFFFFFFFFFFFFFFFFFFFFFFFFFFFFFFFFFFFFFFFFFFFFFFFFFFFFFFFFFFFFFFF
310
FFFFFFFFFFFFFFFFFFFFFFFFFFFFFFFFFFFFFFFFFFFFFFFFFFFFFFFFFFFFFFFF
310
FFFFFFFFFFFFFFFFF000FFFFFFFFFFFFFFFFFFFFFFFFFFFFFFFFFFFFFFFFFFFF
310
FFFFFFFFFFFFFFFFFFFFFFFFFFFFFFFFFFFFFFFFFFFFFFFFFFFFFFFFFFFFFFFF
310
FFFFFFFFFFFFFFFFFFFFFFFFFFFFFFFFFFFFFFFFFFFFFFFFFFFFFFFFFFFFFFFF
310
F000FFFFFFFFFFFFFFFFFFFFFFFFFFFFFFFFFFFFFFFFFFFFFFFFFFFFFFFFFFFF
310
FFFFFFFFFFFFFFFFFFFFFFFFFFFFFFFFFFFFFFFFFFFFFFFFFFFFFFFFFFFFFFFF
310
FFFFFFFFFFFFFFFFFFFFFFFFFFFFFFFFFFFFFFFFFFFFFFFFF000FFFFFFFFFFFF
310
FFFFFFFFFFFFFFFFFFFFFFFFFFFFFFFFFFFFFFFFFFFFFFFFFFFFFFFFFFFFFFFF
310
FFFFFFFFFFFFFFFFFFFFFFFFFFFFFFFFFFFFFFFFFFFFFFFFFFFFFFFFFFFFFFFF
310
FFFFFFFFFFFFFFFFFFFFFFFFFFFFFFFFF000FFFFFFFFFFFFFFFFFFFFFFFFFFFF
310
FFFFFFFFFFFFFFFFFFFFFFFFFFFFFFFFFFFFFFFFFFFFFFFFFFFFFFFFFFFFFFFF
310
FFFFFFFFFFFFFFFFFFFFFFFFFFFFFFFFFFFFFFFFFFFFFFFFFFFFFFFFFFFFFFFF
310
FFFFFFFFFFFFFFFFF000FFFFFFFFFFFFFFFFFFFFFFFFFFFFFFFFFFFFFFFFFFFF
310
FFFFFFFFFFFFFFFFFFFFFFFFFFFFFFFFFFFFFFFFFFFFFFFFFFFFFFFFFFFFFFFF
310
FFFFFFFFFFFFFFFFFFFFFFFFFFFFFFFFFFFFFFFFFFFFFFFFFFFFFFFFFFFFFFFF
310
F000FFFFFFFFFFFFFFFFFFFFFFFFFFFFFFFFFFFFFFFFFFFFFFFFFFFFFFFFFFFF
310
FFFFFFFFFFFFFFFFFFFFFFFFFFFFFFFFFFFFFFFFFFFFFFFFFFFFFFFFFFFFFFFF
310
FFFFFFFFFFFFFFFFFFFFFFFFFFFFFFFFFFFFFFFFFFFFFFFFF000FFFFFFFFFFFF
310
FFFFFFFFFFFFFFFFFFFFFFFFFFFFFFFFFFFFFFFFFFFFFFFFFFFFFFFFFFFFFFFF
310
FFFFFFFFFFFFFFFFFFFFFFFFFFFFFFFFFFFFFFFFFFFFFFFFFFFFFFFFFFFFFFFF
310
FFFFFFFFFFFFFFFFFFFFFFFFFFFFFFFFF000FFFFFFFFFFFFFFFFFFFFFFFFFFFF
310
FFFFFFFFFFFFFFFFFFFFFFFFFFFFFFFFFFFFFFFFFFFFFFFFFFFFFFFFFFFFFFFF
310
FFFFFFFFFFFFFFFFFFFFFFFFFFFFFFFFFFFFFFFFFFFFFFFFFFFFFFFFFFFFFFFF
310
FFFFFFFFFFFFFFFFF000FFFFFFFFFFFFFFFFFFFFFFFFFFFFFFFFFFFFFFFFFFFF
310
FFFFFFFFFFFFFFFFFFFFFFFFFFFFFFFFFFFFFFFFFFFFFFFFFFFFFFFFFFFFFFFF
310
FFFFFFFFFFFFFFFFFFFFFFFFFFFFFFFFFFFFFFFFFFFFFFFFFFFFFFFFFFFFFFFF
310
F000FFFFFFFFFFFFFFFFFFFFFFFFFFFFFFFFFFFFFFFFFFFFFFFFFFFFFFFFFFFF
310
FFFFFFFFFFFFFFFFFFFFFFFFFFFFFFFFFFFFFFFFFFFFFFFFFFFFFFFFFFFFFFFF
310
FFFFFFFFFFFFFFFFFFFFFFFFFFFFFFFFFFFFFFFFFFFFFFFFF000FFFFFFFFFFFF
310
FFFFFFFFFFFFFFFFFFFFFFFFFFFFFFFFFFFFFFFFFFFFFFFFFFFFFFFFFFFFFFFF
310
FFFFFFFFFFFFFFFFFFFFFFFFFFFFFFFFFFFFFFFFFFFFFFFFFFFFFFFFFFFFFFFF
310
FFFFFFFFFFFFFFFFFFFFFFFFFFFFFFFFF0000000000000000000000000000000
310
0000000000000000010000000100000001000000010000000100000001000000
310
0100000001000000010000000100000001000000010000000100000001000000
310
0100000001000000010000000100000001000000000000000100000000000000
310
0100000001000000010000000100000001000000010000000100000001000000
310
0100000001000000000000000100000000000000010000000100000001000000
310
0100000001000000010000000100000001000000010000000100000001000000
310
0100000001000000010000000100000001000000010000000100000001000000
310
0100000001000000010000000000000001000000000000000100000000000000
310
0100000001000000010000000100000001000000010000000100000001000000
310
0100000001000000010000000100000001000000010000000100000001000000
310
0100000001000000010000000100000001000000010000000100000001000000
310
0100000001000000010000000000000000000000000000000000000000000000
310
0000000000000000000000000000000050639D63FF070000E4001C03FF000007
310
D0BDF36900000000C054056A0000000000000000000000000000000000000000
310
0000000000000000000000000000000000000000000000000000000000000000
  1
OLE
  0
ENDSEC
  0
SECTION
  2
OBJECTS
  0
DICTIONARY
  5
C
330
0
100
AcDbDictionary
281
     1
  3
ACAD_GROUP
350
D
  3
ACAD_LAYOUT
350
1A
  3
ACAD_MLEADERSTYLE
350
1F1
  3
ACAD_MLINESTYLE
350
17
  3
ACAD_PLOTSETTINGS
350
19
  3
ACAD_PLOTSTYLENAME
350
E
  3
ACAD_TABLESTYLE
350
1F0
  3
ACAD_VISUALSTYLE
350
2A
  3
AcDbVariableDictionary
350
1F2
  0
DICTIONARY
  5
D
102
{ACAD_REACTORS
330
C
102
}
330
C
100
AcDbDictionary
281
     1
  0
DICTIONARY
  5
1A
102
{ACAD_REACTORS
330
C
102
}
330
C
100
AcDbDictionary
281
     1
  3
Layout1
350
1E
  3
Layout2
350
26
  3
Model
350
22
  0
DICTIONARY
  5
1F1
102
{ACAD_REACTORS
330
C
102
}
330
C
100
AcDbDictionary
281
     1
  0
DICTIONARY
  5
17
102
{ACAD_REACTORS
330
C
102
}
330
C
100
AcDbDictionary
281
     1
  3
Standard
350
18
  0
DICTIONARY
  5
19
102
{ACAD_REACTORS
330
C
102
}
330
C
100
AcDbDictionary
281
     1
  0
ACDBDICTIONARYWDFLT
  5
E
102
{ACAD_REACTORS
330
C
102
}
330
C
100
AcDbDictionary
281
     1
  3
Normal
350
F
100
AcDbDictionaryWithDefault
340
F
  0
DICTIONARY
  5
1F0
102
{ACAD_REACTORS
330
C
102
}
330
C
100
AcDbDictionary
281
     1
  0
DICTIONARY
  5
2A
102
{ACAD_REACTORS
330
C
102
}
330
C
100
AcDbDictionary
281
     1
  3
2dWireframe
350
2F
  3
3D Hidden
350
31
  3
3dWireframe
350
30
  3
Basic
350
32
  3
Brighten
350
36
  3
ColorChange
350
3A
  3
Conceptual
350
34
  3
Dim
350
35
  3
Facepattern
350
39
  3
Flat
350
2B
  3
FlatWithEdges
350
2C
  3
Gouraud
350
2D
  3
GouraudWithEdges
350
2E
  3
Linepattern
350
38
  3
Realistic
350
33
  3
Thicken
350
37
  0
DICTIONARY
  5
1F2
102
{ACAD_REACTORS
330
C
102
}
330
C
100
AcDbDictionary
281
     1
  3
PSOLHEIGHT
350
1F4
  3
PSOLWIDTH
350
1F3
  0
LAYOUT
  5
1E
102
{ACAD_REACTORS
330
1A
102
}
330
1A
100
AcDbPlotSettings
  1

  2
none_device
  4

  6

 40
0.0
 41
0.0
 42
0.0
 43
0.0
 44
0.0
 45
0.0
 46
0.0
 47
0.0
 48
0.0
 49
0.0
140
0.0
141
0.0
142
1.0
143
1.0
 70
   688
 72
     0
 73
     0
 74
     5
  7

 75
    16
147
1.0
148
0.0
149
0.0
100
AcDbLayout
  1
Layout1
 70
     1
 71
     1
 10
0.0
 20
0.0
 11
420.0
 21
297.0
 12
0.0
 22
0.0
 32
0.0
 14
1.0000000000E+20
 24
1.0000000000E+20
 34
1.0000000000E+20
 15
-1.0000000000E+20
 25
-1.0000000000E+20
 35
-1.0000000000E+20
146
0.0
 13
0.0
 23
0.0
 33
0.0
 16
1.0
 26
0.0
 36
0.0
 17
0.0
 27
1.0
 37
0.0
 76
     0
330
1B
  0
LAYOUT
  5
26
102
{ACAD_REACTORS
330
1A
102
}
330
1A
100
AcDbPlotSettings
  1

  2
none_device
  4

  6

 40
0.0
 41
0.0
 42
0.0
 43
0.0
 44
0.0
 45
0.0
 46
0.0
 47
0.0
 48
0.0
 49
0.0
140
0.0
141
0.0
142
1.0
143
1.0
 70
   688
 72
     0
 73
     0
 74
     5
  7

 75
    16
147
1.0
148
0.0
149
0.0
100
AcDbLayout
  1
Layout2
 70
     1
 71
     2
 10
0.0
 20
0.0
 11
0.0
 21
0.0
 12
0.0
 22
0.0
 32
0.0
 14
0.0
 24
0.0
 34
0.0
 15
0.0
 25
0.0
 35
0.0
146
0.0
 13
0.0
 23
0.0
 33
0.0
 16
1.0
 26
0.0
 36
0.0
 17
0.0
 27
1.0
 37
0.0
 76
     0
330
23
  0
LAYOUT
  5
22
102
{ACAD_REACTORS
330
1A
102
}
330
1A
100
AcDbPlotSettings
  1

  2
none_device
  4

  6

 40
0.0
 41
0.0
 42
0.0
 43
0.0
 44
0.0
 45
0.0
 46
0.0
 47
0.0
 48
0.0
 49
0.0
140
0.0
141
0.0
142
1.0
143
1.0
 70
  1712
 72
     0
 73
     0
 74
     0
  7

 75
     0
147
1.0
148
0.0
149
0.0
100
AcDbLayout
  1
Model
 70
     1
 71
     0
 10
0.0
 20
0.0
 11
297.0
 21
210.0
 12
0.0
 22
0.0
 32
0.0
 14
0.0
 24
0.0
 34
0.0
 15
297.0
 25
210.0
 35
0.0
146
0.0
 13
0.0
 23
0.0
 33
0.0
 16
1.0
 26
0.0
 36
0.0
 17
0.0
 27
1.0
 37
0.0
 76
     0
330
1F
331
29
  0
MLINESTYLE
  5
18
102
{ACAD_REACTORS
330
17
102
}
330
17
100
AcDbMlineStyle
  2
Standard
 70
     0
  3

 62
   256
 51
90.0
 52
90.0
 71
     2
 49
0.5
 62
   256
  6
BYLAYER
 49
-0.5
 62
   256
  6
BYLAYER
  0
ACDBPLACEHOLDER
  5
F
102
{ACAD_REACTORS
330
E
102
}
330
E
  0
VISUALSTYLE
  5
2F
102
{ACAD_REACTORS
330
2A
102
}
330
2A
100
AcDbVisualStyle
  2
2dWireframe
 70
     4
 71
     0
 72
     2
 73
     0
 90
        0
 40
-0.6
 41
-30.0
 62
     5
 63
     7
 74
     1
 91
        4
 64
     7
 65
   257
 75
     1
175
     1
 42
1.0
 92
        0
 66
   257
 43
1.0
 76
     1
 77
     6
 78
     2
 67
     7
 79
     5
170
     0
171
     0
290
     0
174
     0
 93
        1
 44
0.0
173
     0
291
     0
 45
0.0
1001
ACAD
1000
AcDbSavedByObjectVersion
1070
     0
  0
VISUALSTYLE
  5
31
102
{ACAD_REACTORS
330
2A
102
}
330
2A
100
AcDbVisualStyle
  2
3D Hidden
 70
     6
 71
     1
 72
     2
 73
     2
 90
        0
 40
-0.6
 41
-30.0
 62
     5
 63
     7
 74
     2
 91
        2
 64
     7
 65
   257
 75
     2
175
     1
 42
40.0
 92
        0
 66
   257
 43
1.0
 76
     1
 77
     6
 78
     2
 67
     7
 79
     3
170
     0
171
     0
290
     0
174
     0
 93
        1
 44
0.0
173
     0
291
     0
 45
0.0
1001
ACAD
1000
AcDbSavedByObjectVersion
1070
     0
  0
VISUALSTYLE
  5
30
102
{ACAD_REACTORS
330
2A
102
}
330
2A
100
AcDbVisualStyle
  2
3dWireframe
 70
     5
 71
     0
 72
     2
 73
     0
 90
        0
 40
-0.6
 41
-30.0
 62
     5
 63
     7
 74
     1
 91
        4
 64
     7
 65
   257
 75
     1
175
     1
 42
1.0
 92
        0
 66
   257
 43
1.0
 76
     1
 77
     6
 78
     2
 67
     7
 79
     5
170
     0
171
     0
290
     0
174
     0
 93
        1
 44
0.0
173
     0
291
     0
 45
0.0
1001
ACAD
1000
AcDbSavedByObjectVersion
1070
     0
  0
VISUALSTYLE
  5
32
102
{ACAD_REACTORS
330
2A
102
}
330
2A
100
AcDbVisualStyle
  2
Basic
 70
     7
 71
     1
 72
     0
 73
     1
 90
        0
 40
-0.6
 41
-30.0
 62
     5
 63
     7
 74
     0
 91
        4
 64
     7
 65
   257
 75
     1
175
     1
 42
1.0
 92
        8
 66
     7
 43
1.0
 76
     1
 77
     6
 78
     2
 67
     7
 79
     5
170
     0
171
     0
290
     0
174
     0
 93
        1
 44
0.0
173
     0
291
     1
 45
0.0
1001
ACAD
1000
AcDbSavedByObjectVersion
1070
     0
  0
VISUALSTYLE
  5
36
102
{ACAD_REACTORS
330
2A
102
}
330
2A
100
AcDbVisualStyle
  2
Brighten
 70
    12
 71
     2
 72
     2
 73
     0
 90
        0
 40
-0.6
 41
-30.0
 62
     5
 63
     7
 74
     1
 91
        4
 64
     7
 65
   257
 75
     1
175
     1
 42
1.0
 92
        8
 66
     7
 43
1.0
 76
     1
 77
     6
 78
     2
 67
     7
 79
     5
170
     0
171
     0
290
     0
174
     0
 93
        1
 44
50.0
173
     0
291
     1
 45
0.0
1001
ACAD
1000
AcDbSavedByObjectVersion
1070
     0
  0
VISUALSTYLE
  5
3A
102
{ACAD_REACTORS
330
2A
102
}
330
2A
100
AcDbVisualStyle
  2
ColorChange
 70
    16
 71
     2
 72
     2
 73
     3
 90
        0
 40
-0.6
 41
-30.0
 62
     5
 63
     8
 74
     1
 91
        4
 64
     7
 65
   257
 75
     1
175
     1
 42
1.0
 92
        8
 66
     8
 43
1.0
 76
     1
 77
     6
 78
     2
 67
     7
 79
     5
170
     0
171
     0
290
     0
174
     0
 93
        1
 44
0.0
173
     0
291
     1
 45
0.0
1001
ACAD
1000
AcDbSavedByObjectVersion
1070
     0
  0
VISUALSTYLE
  5
34
102
{ACAD_REACTORS
330
2A
102
}
330
2A
100
AcDbVisualStyle
  2
Conceptual
 70
     9
 71
     3
 72
     2
 73
     0
 90
        0
 40
-0.6
 41
-30.0
 62
     5
 63
     7
 74
     2
 91
        2
 64
     7
 65
   257
 75
     1
175
     1
 42
40.0
 92
        8
 66
     7
 43
1.0
 76
     1
 77
     6
 78
     2
 67
     7
 79
     3
170
     0
171
     0
290
     0
174
     0
 93
        1
 44
0.0
173
     0
291
     0
 45
0.0
1001
ACAD
1000
AcDbSavedByObjectVersion
1070
     0
  0
VISUALSTYLE
  5
35
102
{ACAD_REACTORS
330
2A
102
}
330
2A
100
AcDbVisualStyle
  2
Dim
 70
    11
 71
     2
 72
     2
 73
     0
 90
        0
 40
-0.6
 41
-30.0
 62
     5
 63
     7
 74
     1
 91
        4
 64
     7
 65
   257
 75
     1
175
     1
 42
1.0
 92
        8
 66
     7
 43
1.0
 76
     1
 77
     6
 78
     2
 67
     7
 79
     5
170
     0
171
     0
290
     0
174
     0
 93
        1
 44
-50.0
173
     0
291
     1
 45
0.0
1001
ACAD
1000
AcDbSavedByObjectVersion
1070
     0
  0
VISUALSTYLE
  5
39
102
{ACAD_REACTORS
330
2A
102
}
330
2A
100
AcDbVisualStyle
  2
Facepattern
 70
    15
 71
     2
 72
     2
 73
     0
 90
        0
 40
-0.6
 41
-30.0
 62
     5
 63
     7
 74
     1
 91
        4
 64
     7
 65
   257
 75
     1
175
     1
 42
1.0
 92
        8
 66
     7
 43
1.0
 76
     1
 77
     6
 78
     2
 67
     7
 79
     5
170
     0
171
     0
290
     0
174
     0
 93
        1
 44
0.0
173
     0
291
     1
 45
0.0
1001
ACAD
1000
AcDbSavedByObjectVersion
1070
     0
  0
VISUALSTYLE
  5
2B
102
{ACAD_REACTORS
330
2A
102
}
330
2A
100
AcDbVisualStyle
  2
Flat
 70
     0
 71
     2
 72
     1
 73
     1
 90
        2
 40
-0.6
 41
30.0
 62
     5
 63
     7
 74
     0
 91
        4
 64
     7
 65
   257
 75
     1
175
     1
 42
1.0
 92
        8
 66
     7
 43
1.0
 76
     1
 77
     6
 78
     2
 67
     7
 79
     5
170
     0
171
     0
290
     0
174
     0
 93
       13
 44
0.0
173
     0
291
     1
 45
0.0
1001
ACAD
1000
AcDbSavedByObjectVersion
1070
     0
  0
VISUALSTYLE
  5
2C
102
{ACAD_REACTORS
330
2A
102
}
330
2A
100
AcDbVisualStyle
  2
FlatWithEdges
 70
     1
 71
     2
 72
     1
 73
     1
 90
        2
 40
-0.6
 41
30.0
 62
     5
 63
     7
 74
     1
 91
        4
 64
     7
 65
   257
 75
     1
175
     1
 42
1.0
 92
        0
 66
   257
 43
1.0
 76
     1
 77
     6
 78
     2
 67
     7
 79
     5
170
     0
171
     0
290
     0
174
     0
 93
       13
 44
0.0
173
     0
291
     1
 45
0.0
1001
ACAD
1000
AcDbSavedByObjectVersion
1070
     0
  0
VISUALSTYLE
  5
2D
102
{ACAD_REACTORS
330
2A
102
}
330
2A
100
AcDbVisualStyle
  2
Gouraud
 70
     2
 71
     2
 72
     2
 73
     1
 90
        2
 40
-0.6
 41
30.0
 62
     5
 63
     7
 74
     0
 91
        4
 64
     7
 65
   257
 75
     1
175
     1
 42
1.0
 92
        0
 66
     7
 43
1.0
 76
     1
 77
     6
 78
     2
 67
     7
 79
     5
170
     0
171
     0
290
     0
174
     0
 93
       13
 44
0.0
173
     0
291
     1
 45
0.0
1001
ACAD
1000
AcDbSavedByObjectVersion
1070
     0
  0
VISUALSTYLE
  5
2E
102
{ACAD_REACTORS
330
2A
102
}
330
2A
100
AcDbVisualStyle
  2
GouraudWithEdges
 70
     3
 71
     2
 72
     2
 73
     1
 90
        2
 40
-0.6
 41
30.0
 62
     5
 63
     7
 74
     1
 91
        4
 64
     7
 65
   257
 75
     1
175
     1
 42
1.0
 92
        0
 66
   257
 43
1.0
 76
     1
 77
     6
 78
     2
 67
     7
 79
     5
170
     0
171
     0
290
     0
174
     0
 93
       13
 44
0.0
173
     0
291
     1
 45
0.0
1001
ACAD
1000
AcDbSavedByObjectVersion
1070
     0
  0
VISUALSTYLE
  5
38
102
{ACAD_REACTORS
330
2A
102
}
330
2A
100
AcDbVisualStyle
  2
Linepattern
 70
    14
 71
     2
 72
     2
 73
     0
 90
        0
 40
-0.6
 41
-30.0
 62
     5
 63
     7
 74
     1
 91
        4
 64
     7
 65
   257
 75
     7
175
     7
 42
1.0
 92
        8
 66
     7
 43
1.0
 76
     1
 77
     6
 78
     2
 67
     7
 79
     5
170
     0
171
     0
290
     0
174
     0
 93
        1
 44
0.0
173
     0
291
     1
 45
0.0
1001
ACAD
1000
AcDbSavedByObjectVersion
1070
     0
  0
VISUALSTYLE
  5
33
102
{ACAD_REACTORS
330
2A
102
}
330
2A
100
AcDbVisualStyle
  2
Realistic
 70
     8
 71
     2
 72
     2
 73
     0
 90
        0
 40
-0.6
 41
-30.0
 62
     5
 63
     7
 74
     1
 91
        0
 64
     7
 65
   257
 75
     1
175
     1
 42
1.0
 92
        8
 66
     8
 43
1.0
 76
     1
 77
     6
 78
     2
 67
     7
 79
     5
170
     0
171
     0
290
     0
174
     0
 93
       13
 44
0.0
173
     0
291
     0
 45
0.0
1001
ACAD
1000
AcDbSavedByObjectVersion
1070
     0
  0
VISUALSTYLE
  5
37
102
{ACAD_REACTORS
330
2A
102
}
330
2A
100
AcDbVisualStyle
  2
Thicken
 70
    13
 71
     2
 72
     2
 73
     0
 90
        0
 40
-0.6
 41
-30.0
 62
     5
 63
     7
 74
     1
 91
        4
 64
     7
 65
   257
 75
     1
175
     1
 42
1.0
 92
       12
 66
     7
 43
1.0
 76
     1
 77
     6
 78
     2
 67
     7
 79
     5
170
     0
171
     0
290
     0
174
     0
 93
        1
 44
0.0
173
     0
291
     1
 45
0.0
1001
ACAD
1000
AcDbSavedByObjectVersion
1070
     0
  0
DICTIONARYVAR
  5
1F4
102
{ACAD_REACTORS
330
1F2
102
}
330
1F2
100
DictionaryVariables
280
     0
  1
80.000000
  0
DICTIONARYVAR
  5
1F3
102
{ACAD_REACTORS
330
1F2
102
}
330
1F2
100
DictionaryVariables
280
     0
  1
5.000000
  0
ENDSEC
  0
EOF
