  0
SECTION
  2
HEADER
  9
$ACADVER
  1
AC1015
  9
$ACADMAINTVER
 70
     6
  9
$DWGCODEPAGE
  3
ANSI_1252
  9
$INSBASE
 10
0.0
 20
0.0
 30
0.0
  9
$EXTMIN
 10
0.0
 20
0.0
 30
0.0
  9
$EXTMAX
 10
297.0
 20
210.0
 30
0.0
  9
$LIMMIN
 10
0.0
 20
0.0
  9
$LIMMAX
 10
297.0
 20
210.0
  9
$ORTHOMODE
 70
     0
  9
$REGENMODE
 70
     1
  9
$FILLMODE
 70
     1
  9
$QTEXTMODE
 70
     0
  9
$MIRRTEXT
 70
     1
  9
$LTSCALE
 40
1.0
  9
$ATTMODE
 70
     1
  9
$TEXTSIZE
 40
2.0
  9
$TRACEWID
 40
1.0
  9
$TEXTSTYLE
  7
Standard
  9
$CLAYER
  8
0
  9
$CELTYPE
  6
ByLayer
  9
$CECOLOR
 62
   256
  9
$CELTSCALE
 40
1.0
  9
$DISPSILH
 70
     0
  9
$DIMSCALE
 40
1.0
  9
$DIMASZ
 40
3.0
  9
$DIMEXO
 40
0.0
  9
$DIMDLI
 40
3.75
  9
$DIMRND
 40
0.0
  9
$DIMDLE
 40
0.0
  9
$DIMEXE
 40
1.0
  9
$DIMTP
 40
0.0
  9
$DIMTM
 40
0.0
  9
$DIMTXT
 40
2.0
  9
$DIMCEN
 40
2.5
  9
$DIMTSZ
 40
0.0
  9
$DIMTOL
 70
     0
  9
$DIMLIM
 70
     0
  9
$DIMTIH
 70
     1
  9
$DIMTOH
 70
     1
  9
$DIMSE1
 70
     0
  9
$DIMSE2
 70
     0
  9
$DIMTAD
 70
     1
  9
$DIMZIN
 70
     0
  9
$DIMBLK
  1

  9
$DIMASO
 70
     1
  9
$DIMSHO
 70
     1
  9
$DIMPOST
  1

  9
$DIMAPOST
  1

  9
$DIMALT
 70
     0
  9
$DIMALTD
 70
     3
  9
$DIMALTF
 40
0.0393700787
  9
$DIMLFAC
 40
1.0
  9
$DIMTOFL
 70
     1
  9
$DIMTVP
 40
0.0
  9
$DIMTIX
 70
     0
  9
$DIMSOXD
 70
     0
  9
$DIMSAH
 70
     0
  9
$DIMBLK1
  1

  9
$DIMBLK2
  1

  9
$DIMSTYLE
  2
ISO-25
  9
$DIMCLRD
 70
     0
  9
$DIMCLRE
 70
     0
  9
$DIMCLRT
 70
     0
  9
$DIMTFAC
 40
1.0
  9
$DIMGAP
 40
1.524
  9
$DIMJUST
 70
     0
  9
$DIMSD1
 70
     0
  9
$DIMSD2
 70
     0
  9
$DIMTOLJ
 70
     0
  9
$DIMTZIN
 70
     0
  9
$DIMALTZ
 70
     0
  9
$DIMALTTZ
 70
     0
  9
$DIMUPT
 70
     0
  9
$DIMDEC
 70
     2
  9
$DIMTDEC
 70
     3
  9
$DIMALTU
 70
     2
  9
$DIMALTTD
 70
     3
  9
$DIMTXSTY
  7
Standard
  9
$DIMAUNIT
 70
     0
  9
$DIMADEC
 70
     2
  9
$DIMALTRND
 40
0.0
  9
$DIMAZIN
 70
     0
  9
$DIMDSEP
 70
    44
  9
$DIMATFIT
 70
     3
  9
$DIMFRAC
 70
     0
  9
$DIMLDRBLK
  1

  9
$DIMLUNIT
 70
     2
  9
$DIMLWD
 70
    -2
  9
$DIMLWE
 70
    -2
  9
$DIMTMOVE
 70
     0
  9
$LUNITS
 70
     2
  9
$LUPREC
 70
     2
  9
$SKETCHINC
 40
1.0
  9
$FILLETRAD
 40
10.0
  9
$AUNITS
 70
     0
  9
$AUPREC
 70
     2
  9
$MENU
  1
.
  9
$ELEVATION
 40
0.0
  9
$PELEVATION
 40
0.0
  9
$THICKNESS
 40
0.0
  9
$LIMCHECK
 70
     0
  9
$CHAMFERA
 40
10.0
  9
$CHAMFERB
 40
10.0
  9
$CHAMFERC
 40
20.0
  9
$CHAMFERD
 40
0.0
  9
$SKPOLY
 70
     0
  9
$TDCREATE
 40
2455673.473698507
  9
$TDUCREATE
 40
2455673.390365174
  9
$TDUPDATE
 40
2455673.473698519
  9
$TDUUPDATE
 40
2455673.390365185
  9
$TDINDWG
 40
0.0000000116
  9
$TDUSRTIMER
 40
0.0000000116
  9
$USRTIMER
 70
     1
  9
$ANGBASE
 50
0.0
  9
$ANGDIR
 70
     0
  9
$PDMODE
 70
     0
  9
$PDSIZE
 40
-1.0
  9
$PLINEWID
 40
0.0
  9
$SPLFRAME
 70
     0
  9
$SPLINETYPE
 70
     6
  9
$SPLINESEGS
 70
     8
  9
$HANDSEED
  5
1F4
  9
$SURFTAB1
 70
     6
  9
$SURFTAB2
 70
     6
  9
$SURFTYPE
 70
     6
  9
$SURFU
 70
     6
  9
$SURFV
 70
     6
  9
$UCSBASE
  2

  9
$UCSNAME
  2

  9
$UCSORG
 10
0.0
 20
0.0
 30
0.0
  9
$UCSXDIR
 10
1.0
 20
0.0
 30
0.0
  9
$UCSYDIR
 10
0.0
 20
1.0
 30
0.0
  9
$UCSORTHOREF
  2

  9
$UCSORTHOVIEW
 70
     0
  9
$UCSORGTOP
 10
0.0
 20
0.0
 30
0.0
  9
$UCSORGBOTTOM
 10
0.0
 20
0.0
 30
0.0
  9
$UCSORGLEFT
 10
0.0
 20
0.0
 30
0.0
  9
$UCSORGRIGHT
 10
0.0
 20
0.0
 30
0.0
  9
$UCSORGFRONT
 10
0.0
 20
0.0
 30
0.0
  9
$UCSORGBACK
 10
0.0
 20
0.0
 30
0.0
  9
$PUCSBASE
  2

  9
$PUCSNAME
  2

  9
$PUCSORG
 10
0.0
 20
0.0
 30
0.0
  9
$PUCSXDIR
 10
1.0
 20
0.0
 30
0.0
  9
$PUCSYDIR
 10
0.0
 20
1.0
 30
0.0
  9
$PUCSORTHOREF
  2

  9
$PUCSORTHOVIEW
 70
     0
  9
$PUCSORGTOP
 10
0.0
 20
0.0
 30
0.0
  9
$PUCSORGBOTTOM
 10
0.0
 20
0.0
 30
0.0
  9
$PUCSORGLEFT
 10
0.0
 20
0.0
 30
0.0
  9
$PUCSORGRIGHT
 10
0.0
 20
0.0
 30
0.0
  9
$PUCSORGFRONT
 10
0.0
 20
0.0
 30
0.0
  9
$PUCSORGBACK
 10
0.0
 20
0.0
 30
0.0
  9
$USERI1
 70
     0
  9
$USERI2
 70
     0
  9
$USERI3
 70
     0
  9
$USERI4
 70
     0
  9
$USERI5
 70
     0
  9
$USERR1
 40
0.0
  9
$USERR2
 40
0.0
  9
$USERR3
 40
0.0
  9
$USERR4
 40
0.0
  9
$USERR5
 40
0.0
  9
$WORLDVIEW
 70
     1
  9
$SHADEDGE
 70
     3
  9
$SHADEDIF
 70
    70
  9
$TILEMODE
 70
     1
  9
$MAXACTVP
 70
    64
  9
$PINSBASE
 10
0.0
 20
0.0
 30
0.0
  9
$PLIMCHECK
 70
     0
  9
$PEXTMIN
 10
1.0000000000E+20
 20
1.0000000000E+20
 30
1.0000000000E+20
  9
$PEXTMAX
 10
-1.0000000000E+20
 20
-1.0000000000E+20
 30
-1.0000000000E+20
  9
$PLIMMIN
 10
0.0
 20
0.0
  9
$PLIMMAX
 10
420.0
 20
297.0
  9
$UNITMODE
 70
     0
  9
$VISRETAIN
 70
     1
  9
$PLINEGEN
 70
     0
  9
$PSLTSCALE
 70
     1
  9
$TREEDEPTH
 70
  3020
  9
$CMLSTYLE
  2
Standard
  9
$CMLJUST
 70
     0
  9
$CMLSCALE
 40
20.0
  9
$PROXYGRAPHICS
 70
     1
  9
$MEASUREMENT
 70
     1
  9
$CELWEIGHT
370
    -1
  9
$ENDCAPS
280
     0
  9
$JOINSTYLE
280
     0
  9
$LWDISPLAY
290
     1
  9
$INSUNITS
 70
     4
  9
$HYPERLINKBASE
  1

  9
$STYLESHEET
  1

  9
$XEDIT
290
     1
  9
$CEPSNTYPE
380
     0
  9
$PSTYLEMODE
290
     1
  9
$FINGERPRINTGUID
  2
{E3928A5F-6152-4CD3-9519-0141FD0E05F8}
  9
$VERSIONGUID
  2
{FAEB1C32-E019-11D5-929B-00C0DF256EC4}
  9
$EXTNAMES
290
     1
  9
$PSVPSCALE
 40
0.0
  9
$OLESTARTUP
290
     0
  0
ENDSEC
  0
SECTION
  2
CLASSES
  0
CLASS
  1
ACDBDICTIONARYWDFLT
  2
AcDbDictionaryWithDefault
  3
ObjectDBX Classes
 90
        0
280
     0
281
     0
  0
CLASS
  1
VISUALSTYLE
  2
AcDbVisualStyle
  3
ObjectDBX Classes
 90
     4095
280
     0
281
     0
  0
CLASS
  1
DICTIONARYVAR
  2
AcDbDictionaryVar
  3
ObjectDBX Classes
 90
        0
280
     0
281
     0
  0
CLASS
  1
ACDBPLACEHOLDER
  2
AcDbPlaceHolder
  3
ObjectDBX Classes
 90
        0
280
     0
281
     0
  0
CLASS
  1
LAYOUT
  2
AcDbLayout
  3
ObjectDBX Classes
 90
        0
280
     0
281
     0
  0
ENDSEC
  0
SECTION
  2
TABLES
  0
TABLE
  2
VPORT
  5
8
330
0
100
AcDbSymbolTable
 70
     1
  0
VPORT
  5
29
330
8
100
AcDbSymbolTableRecord
100
AcDbViewportTableRecord
  2
*Active
 70
     0
 10
0.0
 20
0.0
 11
1.0
 21
1.0
 12
148.5
 22
105.0
 13
0.0
 23
0.0
 14
10.0
 24
10.0
 15
10.0
 25
10.0
 16
0.0
 26
0.0
 36
1.0
 17
0.0
 27
0.0
 37
0.0
 40
210.0
 41
1.4142857143
 42
50.0
 43
0.0
 44
0.0
 50
0.0
 51
0.0
 71
     0
 72
  2000
 73
     1
 74
     3
 75
     0
 76
     0
 77
     0
 78
     0
281
     0
 65
     1
110
0.0
120
0.0
130
0.0
111
1.0
121
0.0
131
0.0
112
0.0
122
1.0
132
0.0
 79
     0
146
0.0
  0
ENDTAB
  0
TABLE
  2
LTYPE
  5
5
330
0
100
AcDbSymbolTable
 70
     6
  0
LTYPE
  5
14
330
5
100
AcDbSymbolTableRecord
100
AcDbLinetypeTableRecord
  2
ByBlock
 70
     0
  3

 72
    65
 73
     0
 40
0.0
  0
LTYPE
  5
15
330
5
100
AcDbSymbolTableRecord
100
AcDbLinetypeTableRecord
  2
ByLayer
 70
     0
  3

 72
    65
 73
     0
 40
0.0
  0
LTYPE
  5
16
330
5
100
AcDbSymbolTableRecord
100
AcDbLinetypeTableRecord
  2
Continuous
 70
     0
  3
Solid line
 72
    65
 73
     0
 40
0.0
  0
LTYPE
  5
3B
330
5
100
AcDbSymbolTableRecord
100
AcDbLinetypeTableRecord
  2
HIDDEN
 70
     0
  3
Hidden __ __ __ __ __ __ __ __ __ __ __ __ __ __
 72
    65
 73
     2
 40
1.905
 49
1.27
 74
     0
 49
-0.635
 74
     0
  0
LTYPE
  5
3C
330
5
100
AcDbSymbolTableRecord
100
AcDbLinetypeTableRecord
  2
PHANTOM
 70
     0
  3
Phantom ______  __  __  ______  __  __  ______
 72
    65
 73
     6
 40
12.7
 49
6.35
 74
     0
 49
-1.27
 74
     0
 49
1.27
 74
     0
 49
-1.27
 74
     0
 49
1.27
 74
     0
 49
-1.27
 74
     0
  0
LTYPE
  5
3D
330
5
100
AcDbSymbolTableRecord
100
AcDbLinetypeTableRecord
  2
CENTER
 70
     0
  3
Center ____ _ ____ _ ____ _ ____ _ ____ _ ____
 72
    65
 73
     4
 40
10.16
 49
6.35
 74
     0
 49
-1.27
 74
     0
 49
1.27
 74
     0
 49
-1.27
 74
     0
  0
LTYPE
  5
3E
330
5
100
AcDbSymbolTableRecord
100
AcDbLinetypeTableRecord
  2
CENTERX2
 70
     0
  3
Center (2x) ________  __  ________  __  _____
 72
    65
 73
     4
 40
20.32
 49
12.7
 74
     0
 49
-2.54
 74
     0
 49
2.54
 74
     0
 49
-2.54
 74
     0
  0
LTYPE
  5
3F
330
5
100
AcDbSymbolTableRecord
100
AcDbLinetypeTableRecord
  2
DOT2
 70
     0
  3
Dot (.5x) ........................................
 72
    65
 73
     2
 40
0.635
 49
0.0
 74
     0
 49
-0.635
 74
     0
  0
ENDTAB
  0
TABLE
  2
LAYER
  5
2
330
0
100
AcDbSymbolTable
 70
     5
  0
LAYER
  5
10
330
2
100
AcDbSymbolTableRecord
100
AcDbLayerTableRecord
  2
0
 70
     0
 62
     7
  6
Continuous
370
    -3
390
F
  0
LAYER
  5
40
330
2
100
AcDbSymbolTableRecord
100
AcDbLayerTableRecord
  2
FORMAT
 70
     0
 62
     7
  6
Continuous
370
    -3
390
F
  0
LAYER
  5
41
330
2
100
AcDbSymbolTableRecord
100
AcDbLayerTableRecord
  2
VERMASSUNG
 70
     0
 62
     7
  6
Continuous
370
    -3
390
F
  0
LAYER
  5
42
330
2
100
AcDbSymbolTableRecord
100
AcDbLayerTableRecord
  2
KOPF_DÜNN
 70
     0
 62
     7
  6
Continuous
370
    -3
390
F
  0
LAYER
  5
43
330
2
100
AcDbSymbolTableRecord
100
AcDbLayerTableRecord
  2
KOPF_DICK
 70
     0
 62
     7
  6
Continuous
370
    15
390
F
  0
ENDTAB
  0
TABLE
  2
STYLE
  5
3
330
0
100
AcDbSymbolTable
 70
     3
  0
STYLE
  5
11
330
3
100
AcDbSymbolTableRecord
100
AcDbTextStyleTableRecord
  2
Standard
 70
     0
 40
0.0
 41
1.0
 50
0.0
 71
     0
 42
2.5
  3
txt
  4

  0
STYLE
  5
44
330
3
100
AcDbSymbolTableRecord
100
AcDbTextStyleTableRecord
  2
SLDTEXTSTYLE0
 70
     0
 40
0.0
 41
0.7
 50
0.0
 71
     0
 42
0.2
  3
TXT
  4

  0
STYLE
  5
48
330
3
100
AcDbSymbolTableRecord
100
AcDbTextStyleTableRecord
  2
SLDTEXTSTYLE1
 70
     0
 40
0.0
 41
0.65
 50
0.0
 71
     0
 42
0.2
  3
TXT
  4

  0
ENDTAB
  0
TABLE
  2
VIEW
  5
6
330
0
100
AcDbSymbolTable
 70
     0
  0
ENDTAB
  0
TABLE
  2
UCS
  5
7
330
0
100
AcDbSymbolTable
 70
     0
  0
ENDTAB
  0
TABLE
  2
APPID
  5
9
330
0
100
AcDbSymbolTable
 70
     1
  0
APPID
  5
12
330
9
100
AcDbSymbolTableRecord
100
AcDbRegAppTableRecord
  2
ACAD
 70
     0
  0
ENDTAB
  0
TABLE
  2
DIMSTYLE
  5
A
330
0
100
AcDbSymbolTable
 70
     2
100
AcDbDimStyleTable
  0
DIMSTYLE
105
27
330
A
100
AcDbSymbolTableRecord
100
AcDbDimStyleTableRecord
  2
ISO-25
 70
     0
 41
2.5
 42
0.625
 43
3.75
 44
1.25
 73
     0
 74
     0
 77
     1
 78
     8
140
2.5
141
2.5
143
0.0393700787
147
0.625
171
     3
172
     1
271
     2
272
     2
274
     3
278
    44
283
     0
284
     8
340
11
  0
DIMSTYLE
105
1AD
102
{ACAD_REACTORS
330
1AC
330
1B9
330
1C3
330
1CD
330
1D7
330
1E2
102
}
330
A
100
AcDbSymbolTableRecord
100
AcDbDimStyleTableRecord
  2
SLDDIMSTYLE0
 70
     0
 41
3.0
 44
0.0
 45
0.000000001
 73
     0
 74
     0
 77
     1
 78
    12
140
2.0
147
0.5
173
     1
271
     2
272
     3
284
    12
340
44
  0
ENDTAB
  0
TABLE
  2
BLOCK_RECORD
  5
1
330
0
100
AcDbSymbolTable
 70
     7
  0
BLOCK_RECORD
  5
1F
330
1
100
AcDbSymbolTableRecord
100
AcDbBlockTableRecord
  2
*Model_Space
340
22
  0
BLOCK_RECORD
  5
1B
330
1
100
AcDbSymbolTableRecord
100
AcDbBlockTableRecord
  2
*Paper_Space
340
1E
  0
BLOCK_RECORD
  5
23
330
1
100
AcDbSymbolTableRecord
100
AcDbBlockTableRecord
  2
*Paper_Space0
340
26
  0
BLOCK_RECORD
  5
1AE
330
1
100
AcDbSymbolTableRecord
100
AcDbBlockTableRecord
  2
*D1
340
0
  0
BLOCK_RECORD
  5
1BA
330
1
100
AcDbSymbolTableRecord
100
AcDbBlockTableRecord
  2
*D2
340
0
  0
BLOCK_RECORD
  5
1C4
330
1
100
AcDbSymbolTableRecord
100
AcDbBlockTableRecord
  2
*D3
340
0
  0
BLOCK_RECORD
  5
1CE
330
1
100
AcDbSymbolTableRecord
100
AcDbBlockTableRecord
  2
*D4
340
0
  0
BLOCK_RECORD
  5
1D8
330
1
100
AcDbSymbolTableRecord
100
AcDbBlockTableRecord
  2
*D5
340
0
  0
BLOCK_RECORD
  5
1E3
330
1
100
AcDbSymbolTableRecord
100
AcDbBlockTableRecord
  2
*D6
340
0
  0
ENDTAB
  0
ENDSEC
  0
SECTION
  2
BLOCKS
  0
BLOCK
  5
20
330
1F
100
AcDbEntity
  8
0
100
AcDbBlockBegin
  2
*Model_Space
 70
     0
 10
0.0
 20
0.0
 30
0.0
  3
*Model_Space
  1

  0
ENDBLK
  5
21
330
1F
100
AcDbEntity
  8
0
100
AcDbBlockEnd
  0
BLOCK
  5
1C
330
1B
100
AcDbEntity
 67
     1
  8
0
100
AcDbBlockBegin
  2
*Paper_Space
 70
     0
 10
0.0
 20
0.0
 30
0.0
  3
*Paper_Space
  1

  0
ENDBLK
  5
1D
330
1B
100
AcDbEntity
 67
     1
  8
0
100
AcDbBlockEnd
  0
BLOCK
  5
24
330
23
100
AcDbEntity
  8
0
100
AcDbBlockBegin
  2
*Paper_Space0
 70
     0
 10
0.0
 20
0.0
 30
0.0
  3
*Paper_Space0
  1

  0
ENDBLK
  5
25
330
23
100
AcDbEntity
  8
0
100
AcDbBlockEnd
  0
BLOCK
  5
1AF
330
1AE
100
AcDbEntity
  8
0
100
AcDbBlockBegin
  2
*D1
 70
     1
 10
0.0
 20
0.0
 30
0.0
  3
*D1
  1

  0
SOLID
  5
1B1
330
1AE
100
AcDbEntity
  8
VERMASSUNG
100
AcDbTrace
 10
80.720161768
 20
156.7105639918
 30
0.0
 11
80.270161768
 21
153.7105639918
 31
0.0
 12
81.170161768
 22
153.7105639918
 32
0.0
 13
81.170161768
 23
153.7105639918
 33
0.0
  0
SOLID
  5
1B2
330
1AE
100
AcDbEntity
  8
VERMASSUNG
100
AcDbTrace
 10
80.720161768
 20
56.7105639918
 30
0.0
 11
81.170161768
 21
59.7105639918
 31
0.0
 12
80.270161768
 22
59.7105639918
 32
0.0
 13
80.270161768
 23
59.7105639918
 33
0.0
  0
LINE
  5
1B3
330
1AE
100
AcDbEntity
  8
VERMASSUNG
100
AcDbLine
 10
135.7179556369
 20
156.7105639918
 30
0.0
 11
79.720161768
 21
156.7105639918
 31
0.0
  0
LINE
  5
1B4
330
1AE
100
AcDbEntity
  8
VERMASSUNG
100
AcDbLine
 10
135.7179556369
 20
56.7105639918
 30
0.0
 11
79.720161768
 21
56.7105639918
 31
0.0
  0
LINE
  5
1B5
330
1AE
100
AcDbEntity
  8
VERMASSUNG
100
AcDbLine
 10
80.720161768
 20
156.7105639918
 30
0.0
 11
80.720161768
 21
56.7105639918
 31
0.0
  0
MTEXT
  5
1B6
330
1AE
100
AcDbEntity
  8
VERMASSUNG
100
AcDbMText
 10
77.942026279
 20
97.5786354977
 30
0.0
 40
2.0
 41
0.0
 71
     1
 72
     1
  1
HSK A 
  7
SLDTEXTSTYLE0
 11
-7.044195017643634E-15
 21
1.0
 31
0.0
 73
     1
 44
1.0
  0
MTEXT
  5
1B7
330
1AE
100
AcDbEntity
  8
VERMASSUNG
100
AcDbMText
 10
78.1420262885
 20
106.5786360416
 30
0.0
 40
2.0
 41
0.0
 71
     1
 72
     1
  1
%%c
  7
SLDTEXTSTYLE0
 11
-7.044195017643634E-15
 21
1.0
 31
0.0
 73
     1
 44
1.0
  0
MTEXT
  5
1B8
330
1AE
100
AcDbEntity
  8
VERMASSUNG
100
AcDbMText
 10
78.1420264049
 20
110.1869626916
 30
0.0
 40
2.0
 41
0.0
 71
     1
 72
     1
  1
100
  7
SLDTEXTSTYLE0
 11
-7.044195017643634E-15
 21
1.0
 31
0.0
 73
     1
 44
1.0
  0
ENDBLK
  5
1B0
330
1AE
100
AcDbEntity
  8
0
100
AcDbBlockEnd
  0
BLOCK
  5
1BB
330
1BA
100
AcDbEntity
  8
0
100
AcDbBlockBegin
  2
*D2
 70
     1
 10
0.0
 20
0.0
 30
0.0
  3
*D2
  1

  0
SOLID
  5
1BD
330
1BA
100
AcDbEntity
  8
VERMASSUNG
100
AcDbTrace
 10
85.3179556369
 20
174.0892556775
 30
0.0
 11
88.3179556369
 21
173.6392556775
 31
0.0
 12
88.3179556369
 22
174.5392556775
 32
0.0
 13
88.3179556369
 23
174.5392556775
 33
0.0
  0
SOLID
  5
1BE
330
1BA
100
AcDbEntity
  8
VERMASSUNG
100
AcDbTrace
 10
215.2179556369
 20
174.0892556775
 30
0.0
 11
212.2179556369
 21
174.5392556775
 31
0.0
 12
212.2179556369
 22
173.6392556775
 32
0.0
 13
212.2179556369
 23
173.6392556775
 33
0.0
  0
LINE
  5
1BF
330
1BA
100
AcDbEntity
  8
VERMASSUNG
100
AcDbLine
 10
85.3179556369
 20
137.2132337343
 30
0.0
 11
85.3179556369
 21
175.0892556775
 31
0.0
  0
LINE
  5
1C0
330
1BA
100
AcDbEntity
  8
VERMASSUNG
100
AcDbLine
 10
215.2179556369
 20
117.9364234701
 30
0.0
 11
215.2179556369
 21
175.0892556775
 31
0.0
  0
LINE
  5
1C1
330
1BA
100
AcDbEntity
  8
VERMASSUNG
100
AcDbLine
 10
85.3179556369
 20
174.0892556775
 30
0.0
 11
215.2179556369
 21
174.0892556775
 31
0.0
  0
MTEXT
  5
1C2
330
1BA
100
AcDbEntity
  8
VERMASSUNG
100
AcDbMText
 10
147.3682492447
 20
176.6673910407
 30
0.0
 40
2.0
 41
0.0
 71
     1
 72
     1
  1
129.9
  7
SLDTEXTSTYLE0
 73
     1
 44
1.0
  0
ENDBLK
  5
1BC
330
1BA
100
AcDbEntity
  8
0
100
AcDbBlockEnd
  0
BLOCK
  5
1C5
330
1C4
100
AcDbEntity
  8
0
100
AcDbBlockBegin
  2
*D3
 70
     1
 10
0.0
 20
0.0
 30
0.0
  3
*D3
  1

  0
SOLID
  5
1C7
330
1C4
100
AcDbEntity
  8
VERMASSUNG
100
AcDbTrace
 10
135.2179556369
 20
168.0892556775
 30
0.0
 11
138.2179556369
 21
167.6392556775
 31
0.0
 12
138.2179556369
 22
168.5392556775
 32
0.0
 13
138.2179556369
 23
168.5392556775
 33
0.0
  0
SOLID
  5
1C8
330
1C4
100
AcDbEntity
  8
VERMASSUNG
100
AcDbTrace
 10
215.2179556369
 20
168.0892556775
 30
0.0
 11
212.2179556369
 21
168.5392556775
 31
0.0
 12
212.2179556369
 22
167.6392556775
 32
0.0
 13
212.2179556369
 23
167.6392556775
 33
0.0
  0
LINE
  5
1C9
330
1C4
100
AcDbEntity
  8
VERMASSUNG
100
AcDbLine
 10
135.2179556369
 20
156.2105639918
 30
0.0
 11
135.2179556369
 21
169.0892556775
 31
0.0
  0
LINE
  5
1CA
330
1C4
100
AcDbEntity
  8
VERMASSUNG
100
AcDbLine
 10
215.2179556369
 20
117.9364234701
 30
0.0
 11
215.2179556369
 21
169.0892556775
 31
0.0
  0
LINE
  5
1CB
330
1C4
100
AcDbEntity
  8
VERMASSUNG
100
AcDbLine
 10
135.2179556369
 20
168.0892556775
 30
0.0
 11
215.2179556369
 21
168.0892556775
 31
0.0
  0
MTEXT
  5
1CC
330
1C4
100
AcDbEntity
  8
VERMASSUNG
100
AcDbMText
 10
173.8185775221
 20
170.6673910407
 30
0.0
 40
2.0
 41
0.0
 71
     1
 72
     1
  1
80
  7
SLDTEXTSTYLE0
 73
     1
 44
1.0
  0
ENDBLK
  5
1C6
330
1C4
100
AcDbEntity
  8
0
100
AcDbBlockEnd
  0
BLOCK
  5
1CF
330
1CE
100
AcDbEntity
  8
0
100
AcDbBlockBegin
  2
*D4
 70
     1
 10
0.0
 20
0.0
 30
0.0
  3
*D4
  1

  0
SOLID
  5
1D1
330
1CE
100
AcDbEntity
  8
VERMASSUNG
100
AcDbTrace
 10
164.1679556369
 20
162.0892556775
 30
0.0
 11
167.1679556369
 21
161.6392556775
 31
0.0
 12
167.1679556369
 22
162.5392556775
 32
0.0
 13
167.1679556369
 23
162.5392556775
 33
0.0
  0
SOLID
  5
1D2
330
1CE
100
AcDbEntity
  8
VERMASSUNG
100
AcDbTrace
 10
215.2179556369
 20
162.0892556775
 30
0.0
 11
212.2179556369
 21
162.5392556775
 31
0.0
 12
212.2179556369
 22
161.6392556775
 32
0.0
 13
212.2179556369
 23
161.6392556775
 33
0.0
  0
LINE
  5
1D3
330
1CE
100
AcDbEntity
  8
VERMASSUNG
100
AcDbLine
 10
164.1679556369
 20
154.6793038126
 30
0.0
 11
164.1679556369
 21
163.0892556775
 31
0.0
  0
LINE
  5
1D4
330
1CE
100
AcDbEntity
  8
VERMASSUNG
100
AcDbLine
 10
215.2179556369
 20
117.9364234701
 30
0.0
 11
215.2179556369
 21
163.0892556775
 31
0.0
  0
LINE
  5
1D5
330
1CE
100
AcDbEntity
  8
VERMASSUNG
100
AcDbLine
 10
164.1679556369
 20
162.0892556775
 30
0.0
 11
215.2179556369
 21
162.0892556775
 31
0.0
  0
MTEXT
  5
1D6
330
1CE
100
AcDbEntity
  8
VERMASSUNG
100
AcDbMText
 10
186.7932492447
 20
164.6673910407
 30
0.0
 40
2.0
 41
0.0
 71
     1
 72
     1
  1
51.05
  7
SLDTEXTSTYLE0
 73
     1
 44
1.0
  0
ENDBLK
  5
1D0
330
1CE
100
AcDbEntity
  8
0
100
AcDbBlockEnd
  0
BLOCK
  5
1D9
330
1D8
100
AcDbEntity
  8
0
100
AcDbBlockBegin
  2
*D5
 70
     1
 10
0.0
 20
0.0
 30
0.0
  3
*D5
  1

  0
SOLID
  5
1DB
330
1D8
100
AcDbEntity
  8
VERMASSUNG
100
AcDbTrace
 10
220.5204268308
 20
111.7105639918
 30
0.0
 11
220.0704268308
 21
108.7105639918
 31
0.0
 12
220.9704268308
 22
108.7105639918
 32
0.0
 13
220.9704268308
 23
108.7105639918
 33
0.0
  0
SOLID
  5
1DC
330
1D8
100
AcDbEntity
  8
VERMASSUNG
100
AcDbTrace
 10
220.5204268308
 20
101.7105639918
 30
0.0
 11
220.9704268308
 21
104.7105639918
 31
0.0
 12
220.0704268308
 22
104.7105639918
 32
0.0
 13
220.0704268308
 23
104.7105639918
 33
0.0
  0
LINE
  5
1DD
330
1D8
100
AcDbEntity
  8
VERMASSUNG
100
AcDbLine
 10
214.9179556369
 20
111.7105639918
 30
0.0
 11
221.5204268308
 21
111.7105639918
 31
0.0
  0
LINE
  5
1DE
330
1D8
100
AcDbEntity
  8
VERMASSUNG
100
AcDbLine
 10
214.9179556369
 20
101.7105639918
 30
0.0
 11
221.5204268308
 21
101.7105639918
 31
0.0
  0
LINE
  5
1DF
330
1D8
100
AcDbEntity
  8
VERMASSUNG
100
AcDbLine
 10
220.5204268308
 20
111.7105639918
 30
0.0
 11
220.5204268308
 21
101.7105639918
 31
0.0
  0
MTEXT
  5
1E0
330
1D8
100
AcDbEntity
  8
VERMASSUNG
100
AcDbMText
 10
217.9422913513
 20
103.706426397
 30
0.0
 40
2.0
 41
0.0
 71
     1
 72
     1
  1
%%c
  7
SLDTEXTSTYLE0
 11
-7.044195017643634E-15
 21
1.0
 31
0.0
 73
     1
 44
1.0
  0
MTEXT
  5
1E1
330
1D8
100
AcDbEntity
  8
VERMASSUNG
100
AcDbMText
 10
217.9422914677
 20
107.3151046201
 30
0.0
 40
2.0
 41
0.0
 71
     1
 72
     1
  1
10
  7
SLDTEXTSTYLE0
 11
-7.044195017643634E-15
 21
1.0
 31
0.0
 73
     1
 44
1.0
  0
ENDBLK
  5
1DA
330
1D8
100
AcDbEntity
  8
0
100
AcDbBlockEnd
  0
BLOCK
  5
1E4
330
1E3
100
AcDbEntity
  8
0
100
AcDbBlockBegin
  2
*D6
 70
     1
 10
0.0
 20
0.0
 30
0.0
  3
*D6
  1

  0
SOLID
  5
1E6
330
1E3
100
AcDbEntity
  8
VERMASSUNG
100
AcDbTrace
 10
226.5204268308
 20
124.2105639918
 30
0.0
 11
226.0704268308
 21
121.2105639918
 31
0.0
 12
226.9704268308
 22
121.2105639918
 32
0.0
 13
226.9704268308
 23
121.2105639918
 33
0.0
  0
SOLID
  5
1E7
330
1E3
100
AcDbEntity
  8
VERMASSUNG
100
AcDbTrace
 10
226.5204268308
 20
89.2105639918
 30
0.0
 11
226.9704268308
 21
92.2105639918
 31
0.0
 12
226.0704268308
 22
92.2105639918
 32
0.0
 13
226.0704268308
 23
92.2105639918
 33
0.0
  0
LINE
  5
1E8
330
1E3
100
AcDbEntity
  8
VERMASSUNG
100
AcDbLine
 10
204.4954210344
 20
124.2105639918
 30
0.0
 11
227.5204268308
 21
124.2105639918
 31
0.0
  0
LINE
  5
1E9
330
1E3
100
AcDbEntity
  8
VERMASSUNG
100
AcDbLine
 10
204.4954210344
 20
89.2105639918
 30
0.0
 11
227.5204268308
 21
89.2105639918
 31
0.0
  0
LINE
  5
1EA
330
1E3
100
AcDbEntity
  8
VERMASSUNG
100
AcDbLine
 10
226.5204268308
 20
124.2105639918
 30
0.0
 11
226.5204268308
 21
89.2105639918
 31
0.0
  0
MTEXT
  5
1EB
330
1E3
100
AcDbEntity
  8
VERMASSUNG
100
AcDbMText
 10
223.9422913513
 20
103.5068467653
 30
0.0
 40
2.0
 41
0.0
 71
     1
 72
     1
  1
%%c
  7
SLDTEXTSTYLE0
 11
-7.044195017643634E-15
 21
1.0
 31
0.0
 73
     1
 44
1.0
  0
MTEXT
  5
1EC
330
1E3
100
AcDbEntity
  8
VERMASSUNG
100
AcDbMText
 10
223.9422914677
 20
107.1155249885
 30
0.0
 40
2.0
 41
0.0
 71
     1
 72
     1
  1
35
  7
SLDTEXTSTYLE0
 11
-7.044195017643634E-15
 21
1.0
 31
0.0
 73
     1
 44
1.0
  0
ENDBLK
  5
1E5
330
1E3
100
AcDbEntity
  8
0
100
AcDbBlockEnd
  0
ENDSEC
  0
SECTION
  2
ENTITIES
  0
MTEXT
  5
45
330
1F
100
AcDbEntity
  8
KOPF_DÜNN
100
AcDbMText
 10
13.8892156294
 20
23.8442973028
 30
0.0
 40
3.0
 41
0.0
 71
     1
 72
     1
  1
HA0.W10.K21.080
  7
SLDTEXTSTYLE0
 73
     1
 44
1.0
  0
MTEXT
  5
46
330
1F
100
AcDbEntity
  8
VERMASSUNG
100
AcDbMText
 10
13.9329988022
 20
28.8834360957
 30
0.0
 40
3.0
 41
0.0
 71
     1
 72
     1
  1
Flächenspannfutter_End mill adapter Weldon ø10
  7
SLDTEXTSTYLE0
 73
     1
 44
1.0
  0
MTEXT
  5
47
330
1F
100
AcDbEntity
  8
VERMASSUNG
100
AcDbMText
 10
98.8601118557
 20
13.8365368179
 30
0.0
 40
2.0
 41
0.0
 71
     1
 72
     1
  1
Datum: 09.10.2006
  7
SLDTEXTSTYLE0
 73
     1
 44
1.0
  0
MTEXT
  5
49
330
1F
100
AcDbEntity
  8
VERMASSUNG
100
AcDbMText
 10
13.933048693
 20
18.0482802738
 30
0.0
 40
2.0
 41
0.0
 71
     1
 72
     1
  1
DIN 69 893 HSK A 100
  7
SLDTEXTSTYLE1
 73
     1
 44
1.0
  0
MTEXT
  5
4A
330
1F
100
AcDbEntity
  8
VERMASSUNG
100
AcDbMText
 10
13.9808475933
 20
13.9090973692
 30
0.0
 40
2.0
 41
0.0
 71
     1
 72
     1
  1
Gewicht: 2316g
  7
SLDTEXTSTYLE0
 73
     1
 44
1.0
  0
LINE
  5
4B
330
1F
100
AcDbEntity
  8
0
  6
Continuous
 62
     7
370
    15
100
AcDbLine
 10
215.2239668489
 20
114.2929163749
 30
0.0
 11
215.2179556369
 21
114.3040476588
 31
0.0
  0
LINE
  5
4C
330
1F
100
AcDbEntity
  8
0
  6
Continuous
 62
     7
370
    15
100
AcDbLine
 10
215.2179556369
 20
99.0096671546
 30
0.0
 11
215.2828565725
 21
99.1298477006
 31
0.0
  0
LINE
  5
4D
330
1F
100
AcDbEntity
  8
0
  6
Continuous
 62
     7
370
    15
100
AcDbLine
 10
135.7179556369
 20
56.7105639918
 30
0.0
 11
140.1679556369
 21
56.7105639918
 31
0.0
  0
LINE
  5
4E
330
1F
100
AcDbEntity
  8
0
  6
Continuous
 62
     7
370
    15
100
AcDbLine
 10
140.2020284694
 20
156.7105639918
 30
0.0
 11
135.7179556369
 21
156.7105639918
 31
0.0
  0
ARC
  5
4F
330
1F
100
AcDbEntity
  8
0
  6
Continuous
 62
     7
370
    15
100
AcDbCircle
 10
135.7179556369
 20
57.2105639918
 30
0.0
 40
0.5
100
AcDbArc
 50
180.0
 51
270.0
  0
ARC
  5
50
330
1F
100
AcDbEntity
  8
0
  6
Continuous
 62
     7
370
    15
100
AcDbCircle
 10
135.7179556369
 20
156.2105639918
 30
0.0
 40
0.5
100
AcDbArc
 50
90.0
 51
180.0
  0
ARC
  5
51
330
1F
100
AcDbEntity
  8
0
  6
Continuous
 62
     7
370
    15
100
AcDbCircle
 10
134.3210187185
 20
68.0820786673
 30
0.0
 40
0.9962338214386921
100
AcDbArc
 50
25.7988228126
 51
90.0
  0
ARC
  5
52
330
1F
100
AcDbEntity
  8
0
  6
Continuous
 62
     7
370
    15
100
AcDbCircle
 10
134.3210187185
 20
145.3390493162
 30
0.0
 40
0.9962338214386932
100
AcDbArc
 50
270.0
 51
334.2011771874
  0
LINE
  5
53
330
1F
100
AcDbEntity
  8
0
  6
Continuous
 62
     7
370
    15
100
AcDbLine
 10
113.7372602156
 20
143.6418788504
 30
0.0
 11
95.4179556369
 21
142.7240780198
 31
0.0
  0
LINE
  5
54
330
1F
100
AcDbEntity
  8
0
  6
Continuous
 62
     7
370
    15
100
AcDbLine
 10
132.7179556369
 20
144.5928154948
 30
0.0
 11
126.6499164824
 21
144.2888055171
 31
0.0
  0
LINE
  5
55
330
1F
100
AcDbEntity
  8
0
  6
Continuous
 62
     7
370
    15
100
AcDbLine
 10
126.6500397589
 20
69.1323162903
 30
0.0
 11
132.7179556369
 21
68.8283124888
 31
0.0
  0
LINE
  5
56
330
1F
100
AcDbEntity
  8
0
  6
Continuous
 62
     7
370
    15
100
AcDbLine
 10
100.4179556369
 20
70.4465489617
 30
0.0
 11
113.7379067908
 21
69.7792167396
 31
0.0
  0
LINE
  5
57
330
1F
100
AcDbEntity
  8
0
  6
Continuous
 62
     7
370
    15
100
AcDbLine
 10
132.7179556369
 20
68.8283124888
 30
0.0
 11
133.5238017913
 21
69.044238315
 31
0.0
  0
LINE
  5
58
330
1F
100
AcDbEntity
  8
0
  6
Continuous
 62
     7
370
    15
100
AcDbLine
 10
133.5238017913
 20
144.3768896685
 30
0.0
 11
132.7179556369
 21
144.5928154948
 31
0.0
  0
ARC
  5
59
330
1F
100
AcDbEntity
  8
0
  6
Continuous
 62
     7
370
    15
100
AcDbCircle
 10
133.7826208364
 20
68.0783124888
 30
0.0
 40
0.9999999999999957
100
AcDbArc
 50
90.0
 51
105.0
  0
ARC
  5
5A
330
1F
100
AcDbEntity
  8
0
  6
Continuous
 62
     7
370
    15
100
AcDbCircle
 10
133.7826208364
 20
145.3428154948
 30
0.0
 40
0.9999999999999716
100
AcDbArc
 50
255.0
 51
270.0
  0
LINE
  5
5B
330
1F
100
AcDbEntity
  8
0
  6
Continuous
 62
     7
370
    15
100
AcDbLine
 10
133.7826208364
 20
69.0783124888
 30
0.0
 11
134.3210187185
 21
69.0783124888
 31
0.0
  0
LINE
  5
5C
330
1F
100
AcDbEntity
  8
0
  6
Continuous
 62
     7
370
    15
100
AcDbLine
 10
134.3210187185
 20
144.3428154948
 30
0.0
 11
133.7826208364
 21
144.3428154948
 31
0.0
  0
ARC
  5
5D
330
1F
100
AcDbEntity
  8
0
  6
Continuous
 62
     7
370
    15
100
AcDbCircle
 10
169.1679556369
 20
84.2105639918
 30
0.0
 40
5.0
100
AcDbArc
 50
90.0
 51
180.0
  0
ARC
  5
5E
330
1F
100
AcDbEntity
  8
0
  6
Continuous
 62
     7
370
    15
100
AcDbCircle
 10
169.1679556369
 20
129.2105639918
 30
0.0
 40
5.0
100
AcDbArc
 50
180.0
 51
270.0
  0
LINE
  5
5F
330
1F
100
AcDbEntity
  8
0
  6
Continuous
 62
     7
370
    15
100
AcDbLine
 10
86.9679556369
 20
74.4605639918
 30
0.0
 11
98.5179556369
 21
74.4605639918
 31
0.0
  0
LINE
  5
60
330
1F
100
AcDbEntity
  8
0
  6
Continuous
 62
     7
370
    15
100
AcDbLine
 10
180.6617187546
 20
89.2105639918
 30
0.0
 11
204.4954210344
 21
89.2105639918
 31
0.0
  0
LINE
  5
61
330
1F
100
AcDbEntity
  8
0
  6
Continuous
 62
     7
370
    15
100
AcDbLine
 10
169.1679556369
 20
89.2105639918
 30
0.0
 11
173.7095319323
 21
89.2105639918
 31
0.0
  0
LINE
  5
62
330
1F
100
AcDbEntity
  8
0
  6
Continuous
 62
     7
370
    15
100
AcDbLine
 10
173.694495519
 20
124.2105639918
 30
0.0
 11
169.1679556369
 21
124.2105639918
 31
0.0
  0
LINE
  5
63
330
1F
100
AcDbEntity
  8
0
  6
Continuous
 62
     7
370
    15
100
AcDbLine
 10
204.4954210344
 20
124.2105639918
 30
0.0
 11
180.6331018486
 21
124.2105639918
 31
0.0
  0
LINE
  5
64
330
1F
100
AcDbEntity
  8
0
  6
Continuous
 62
     7
370
    15
100
AcDbLine
 10
204.4954210344
 20
89.2105639918
 30
0.0
 11
214.0631921604
 21
93.6720889393
 31
0.0
  0
LINE
  5
65
330
1F
100
AcDbEntity
  8
0
  6
Continuous
 62
     7
370
    15
100
AcDbLine
 10
214.0631921604
 20
119.7490390442
 30
0.0
 11
204.4954210344
 21
124.2105639918
 31
0.0
  0
ARC
  5
66
330
1F
100
AcDbEntity
  8
0
  6
Continuous
 62
     7
370
    15
100
AcDbCircle
 10
98.5179556369
 20
72.5605639918
 30
0.0
 40
1.900000000000007
100
AcDbArc
 50
35.6630613694
 51
90.0
  0
ARC
  5
67
330
1F
100
AcDbEntity
  8
0
  6
Continuous
 62
     7
370
    15
100
AcDbCircle
 10
93.5179556369
 20
140.8605639918
 30
0.0
 40
1.899999999999986
100
AcDbArc
 50
270.0
 51
310.9212832533
  0
LINE
  5
68
330
1F
100
AcDbEntity
  8
0
  6
Continuous
 62
     7
370
    15
100
AcDbLine
 10
86.9679556369
 20
138.9605639918
 30
0.0
 11
85.368639518
 21
137.3612478729
 31
0.0
  0
LINE
  5
69
330
1F
100
AcDbEntity
  8
0
  6
Continuous
 62
     7
370
    15
100
AcDbLine
 10
85.369476888
 20
76.0590427407
 30
0.0
 11
86.9679556369
 21
74.4605639918
 31
0.0
  0
LINE
  5
6A
330
1F
100
AcDbEntity
  8
0
  6
Continuous
 62
     7
370
    15
100
AcDbLine
 10
93.5179556369
 20
138.9605639918
 30
0.0
 11
86.9679556369
 21
138.9605639918
 31
0.0
  0
ARC
  5
6B
330
1F
100
AcDbEntity
  8
0
  6
Continuous
 62
     7
370
    15
100
AcDbCircle
 10
213.2179556369
 20
95.4847045134
 30
0.0
 40
2.0
100
AcDbArc
 50
295.0
 51
0.0
  0
ARC
  5
6C
330
1F
100
AcDbEntity
  8
0
  6
Continuous
 62
     7
370
    15
100
AcDbCircle
 10
213.2179556369
 20
117.9364234701
 30
0.0
 40
2.0
100
AcDbArc
 50
0.0
 51
65.0
  0
LINE
  5
6D
330
1F
100
AcDbEntity
  8
0
  6
Continuous
 62
     7
370
    15
100
AcDbLine
 10
195.3845429909
 20
109.5779965264
 30
0.0
 11
193.0679798953
 21
107.8555364377
 31
0.0
  0
LINE
  5
6E
330
1F
100
AcDbEntity
  8
0
  6
Continuous
 62
     7
370
    15
100
AcDbLine
 10
196.0513682829
 20
103.8431314571
 30
0.0
 11
193.4013925412
 21
104.9881039031
 31
0.0
  0
LINE
  5
6F
330
1F
100
AcDbEntity
  8
0
  6
Continuous
 62
     7
370
    15
100
AcDbLine
 10
196.0513682829
 20
103.8431314571
 30
0.0
 11
198.3679313786
 21
105.5655915458
 31
0.0
  0
LINE
  5
70
330
1F
100
AcDbEntity
  8
0
  6
Continuous
 62
     7
370
    15
100
AcDbLine
 10
198.0345187326
 20
108.4330240804
 30
0.0
 11
195.3845429909
 21
109.5779965264
 31
0.0
  0
CIRCLE
  5
71
330
1F
100
AcDbEntity
  8
0
  6
Continuous
 62
     7
370
    15
100
AcDbCircle
 10
195.7179556369
 20
106.7105639918
 30
0.0
 40
4.200000000000021
  0
LINE
  5
72
330
1F
100
AcDbEntity
  8
0
  6
Continuous
 62
     7
370
    15
100
AcDbLine
 10
193.4013925412
 20
104.9881039031
 30
0.0
 11
193.0679798953
 21
107.8555364377
 31
0.0
  0
LINE
  5
73
330
1F
100
AcDbEntity
  8
0
  6
Continuous
 62
     7
370
    15
100
AcDbLine
 10
198.0345187326
 20
108.4330240804
 30
0.0
 11
198.3679313786
 21
105.5655915458
 31
0.0
  0
LWPOLYLINE
  5
74
330
1F
100
AcDbEntity
  8
0
  6
Continuous
 62
     7
370
    15
100
AcDbPolyline
 90
        7
 70
   128
 43
0.0
 10
215.2179556369
 20
112.9253083162
 10
215.2223651706
 20
113.0748729733
 10
215.2327436745
 20
113.5414113053
 10
215.2363881204
 20
113.9369949732
 10
215.2327436745
 20
114.2013999494
 10
215.2223651706
 20
114.2943729733
 10
215.2179556369
 20
114.2852202619
  0
LINE
  5
75
330
1F
100
AcDbEntity
  8
0
  6
Continuous
 62
     7
370
    15
100
AcDbLine
 10
215.288863496
 20
99.1700502085
 30
0.0
 11
215.2828565725
 21
99.1298477006
 31
0.0
  0
ARC
  5
76
330
1F
100
AcDbEntity
  8
0
  6
Continuous
 62
     7
370
    15
100
AcDbCircle
 10
194.4026476839
 20
99.7443489852
 30
0.0
 40
20.8941099364418
100
AcDbArc
 50
358.4249608716
 51
4.9777245001
  0
LINE
  5
77
330
1F
100
AcDbEntity
  8
0
  6
Continuous
 62
     7
370
    15
100
AcDbLine
 10
140.1679556369
 20
138.0605639918
 30
0.0
 11
151.955926616
 21
138.0605639918
 31
0.0
  0
LINE
  5
78
330
1F
100
AcDbEntity
  8
0
  6
Continuous
 62
     7
370
    15
100
AcDbLine
 10
151.955926616
 20
57.9355703987
 30
0.0
 11
151.955926616
 21
138.0605639918
 31
0.0
  0
LINE
  5
79
330
1F
100
AcDbEntity
  8
0
  6
Continuous
 62
     7
370
    15
100
AcDbLine
 10
151.955926616
 20
57.9355703987
 30
0.0
 11
150.1679556369
 21
57.9355703987
 31
0.0
  0
SPLINE
  5
7A
330
1F
100
AcDbEntity
  8
0
  6
Continuous
 62
     7
370
    15
100
AcDbSpline
210
0.0
220
0.0
230
1.0
 70
     8
 71
     3
 72
    30
 73
    26
 74
     0
 42
0.00000001
 43
0.00000001
 40
0.0
 40
0.0
 40
0.0
 40
0.0
 40
0.1250000000000002
 40
0.1250000000000002
 40
0.1875000000000003
 40
0.1875000000000003
 40
0.2500000000000004
 40
0.2500000000000004
 40
0.3750000000000001
 40
0.3750000000000001
 40
0.4374999999999998
 40
0.4374999999999998
 40
0.4999999999999996
 40
0.4999999999999996
 40
0.6249999999999996
 40
0.6249999999999996
 40
0.6874999999999997
 40
0.6874999999999997
 40
0.7499999999999997
 40
0.7499999999999997
 40
0.8124999999999998
 40
0.8124999999999998
 40
0.8749999999999999
 40
0.8749999999999999
 40
1.0
 40
1.0
 40
1.0
 40
1.0
 10
150.1679556369129
 20
57.93557039872945
 30
0.0
 10
149.5052109430679
 20
57.93557039872946
 30
0.0
 10
148.8539550839522
 20
57.92073032214064
 30
0.0
 10
147.8935045456939
 20
57.87836075791103
 30
0.0
 10
147.5761131024609
 20
57.86088265513185
 30
0.0
 10
146.9469496009061
 20
57.81955436857955
 30
0.0
 10
146.6348014144644
 20
57.79562909512185
 30
0.0
 10
145.7274941126161
 20
57.71682257865493
 30
0.0
 10
145.1540691549749
 20
57.65451655867847
 30
0.0
 10
144.3401922854002
 20
57.55138723843911
 30
0.0
 10
144.0753860888303
 20
57.5152033193926
 30
0.0
 10
143.568478678016
 20
57.4414085351921
 30
0.0
 10
143.3270845266625
 20
57.40393467642045
 30
0.0
 10
142.6379430545302
 20
57.29122273308072
 30
0.0
 10
142.2248882396659
 20
57.21568663560694
 30
0.0
 10
141.6767334202909
 20
57.10729337858944
 30
0.0
 10
141.5072708129453
 20
57.07222114692618
 30
0.0
 10
141.1992535649299
 20
57.00598568632633
 30
0.0
 10
141.0598735443216
 20
56.97465898957161
 30
0.0
 10
140.8100880316948
 20
56.91625021799067
 30
0.0
 10
140.6996819190409
 20
56.88916698280783
 30
0.0
 10
140.5084240654032
 20
56.83990722819424
 30
0.0
 10
140.4273045471189
 20
56.8176452483866
 30
0.0
 10
140.2331576270105
 20
56.76007834121832
 30
0.0
 10
140.1679556369129
 20
56.73381873643233
 30
0.0
 10
140.1679556369129
 20
56.7205649919583
 30
0.0
  0
LINE
  5
7B
330
1F
100
AcDbEntity
  8
0
  6
Continuous
 62
     7
370
    15
100
AcDbLine
 10
140.1679556369
 20
56.720564992
 30
0.0
 11
140.1679556369
 21
56.7105639918
 31
0.0
  0
SPLINE
  5
7C
330
1F
100
AcDbEntity
  8
0
  6
Continuous
 62
     7
370
    15
100
AcDbSpline
210
0.0
220
0.0
230
1.0
 70
     8
 71
     3
 72
    17
 73
    13
 74
     0
 42
0.00000001
 43
0.00000001
 40
0.0
 40
0.0
 40
0.0
 40
0.0
 40
0.104384384054747
 40
0.2118345768143993
 40
0.316208200519045
 40
0.4235375806108392
 40
0.5292276236193852
 40
0.6379275864803491
 40
0.7444714844189683
 40
0.8541836219421859
 40
0.9593080534965217
 40
1.0
 40
1.0
 40
1.0
 40
1.0
 10
150.1679556369129
 20
155.7003588474218
 30
0.0
 10
149.6200171890536
 20
155.7057270511706
 30
0.0
 10
148.5080471345888
 20
155.7166211248356
 30
0.0
 10
146.8951912213739
 20
155.8017984990944
 30
0.0
 10
145.3616780043969
 20
155.9281732053871
 30
0.0
 10
143.9706571550603
 20
156.0850760259638
 30
0.0
 10
142.73514063783
 20
156.2567748554844
 30
0.0
 10
141.7117848706747
 20
156.4221111315855
 30
0.0
 10
140.9114428724096
 20
156.565824611172
 30
0.0
 10
140.401110770496
 20
156.6639794183512
 30
0.0
 10
140.1612023416715
 20
156.7119078152211
 30
0.0
 10
140.1931211210913
 20
156.7055404159815
 30
0.0
 10
140.2020284693735
 20
156.7037635108582
 30
0.0
  0
LINE
  5
7D
330
1F
100
AcDbEntity
  8
0
  6
Continuous
 62
     7
370
    15
100
AcDbLine
 10
151.955926616
 20
155.7003588474
 30
0.0
 11
150.1679556369
 21
155.7003588474
 31
0.0
  0
LINE
  5
7E
330
1F
100
AcDbEntity
  8
0
  6
Continuous
 62
     7
370
    15
100
AcDbLine
 10
151.955926616
 20
145.6615267526
 30
0.0
 11
151.955926616
 21
155.7003588474
 31
0.0
  0
LINE
  5
7F
330
1F
100
AcDbEntity
  8
0
  6
Continuous
 62
     7
370
    15
100
AcDbLine
 10
149.8759224851
 20
145.6615267526
 30
0.0
 11
151.955926616
 21
145.6615267526
 31
0.0
  0
SPLINE
  5
80
330
1F
100
AcDbEntity
  8
0
  6
Continuous
 62
     7
370
    15
100
AcDbSpline
210
0.0
220
0.0
230
1.0
 70
     8
 71
     3
 72
    22
 73
    18
 74
     0
 42
0.00000001
 43
0.00000001
 40
0.0
 40
0.0
 40
0.0
 40
0.0
 40
0.2500000000000002
 40
0.2500000000000002
 40
0.3750000000000003
 40
0.3750000000000003
 40
0.5000000000000004
 40
0.5000000000000004
 40
0.6250000000000004
 40
0.6250000000000004
 40
0.7500000000000004
 40
0.7500000000000004
 40
0.8750000000000004
 40
0.8750000000000004
 40
0.9375000000000002
 40
0.9375000000000002
 40
1.0
 40
1.0
 40
1.0
 40
1.0
 10
140.1679556369129
 20
138.0605639917582
 30
0.0
 10
140.370680592832
 20
139.0798103336229
 30
0.0
 10
140.6854243146274
 20
140.0389184835622
 30
0.0
 10
141.3934797842984
 20
141.3813975610715
 30
0.0
 10
141.671942414516
 20
141.8156061438115
 30
0.0
 10
142.3107098211532
 20
142.6272338593136
 30
0.0
 10
142.6711235009434
 20
143.0065141522504
 30
0.0
 10
143.4886557329327
 20
143.7094727312714
 30
0.0
 10
143.9498237162198
 20
144.034501548972
 30
0.0
 10
144.9478139627036
 20
144.5995168723629
 30
0.0
 10
145.4875731566959
 20
144.8432204665694
 30
0.0
 10
146.6621661207272
 20
145.2474203942144
 30
0.0
 10
147.2739023067191
 20
145.3998575872599
 30
0.0
 10
148.2258115315808
 20
145.5551851348686
 30
0.0
 10
148.5490446958414
 20
145.5946899149186
 30
0.0
 10
149.2081078671167
 20
145.6479990355873
 30
0.0
 10
149.5421718776907
 20
145.6615267526452
 30
0.0
 10
149.8759224850922
 20
145.6615267526452
 30
0.0
  0
SPLINE
  5
81
330
1F
100
AcDbEntity
  8
0
  6
Continuous
 62
     7
370
    15
100
AcDbSpline
210
0.0
220
0.0
230
1.0
 70
     8
 71
     3
 72
    80
 73
    76
 74
     0
 42
0.00000001
 43
0.00000001
 40
-0.0312499999999993
 40
-0.0312499999999993
 40
0.0
 40
0.0
 40
0.03125
 40
0.03125
 40
0.046875
 40
0.046875
 40
0.0625
 40
0.0625
 40
0.09375
 40
0.09375
 40
0.1250000000000001
 40
0.1250000000000001
 40
0.1562500000000001
 40
0.1562500000000001
 40
0.1875000000000001
 40
0.1875000000000001
 40
0.2187500000000002
 40
0.2187500000000002
 40
0.2500000000000002
 40
0.2500000000000002
 40
0.2812500000000003
 40
0.2812500000000003
 40
0.3125000000000003
 40
0.3125000000000003
 40
0.3281250000000004
 40
0.3281250000000004
 40
0.3437500000000006
 40
0.3437500000000006
 40
0.3750000000000011
 40
0.3750000000000011
 40
0.4062500000000016
 40
0.4062500000000016
 40
0.4218750000000018
 40
0.4218750000000018
 40
0.437500000000002
 40
0.437500000000002
 40
0.4687500000000023
 40
0.4687500000000023
 40
0.5000000000000027
 40
0.5000000000000027
 40
0.531250000000003
 40
0.531250000000003
 40
0.5625000000000033
 40
0.5625000000000033
 40
0.5937500000000037
 40
0.5937500000000037
 40
0.6250000000000039
 40
0.6250000000000039
 40
0.6562500000000042
 40
0.6562500000000042
 40
0.6875000000000046
 40
0.6875000000000046
 40
0.7031250000000047
 40
0.7031250000000047
 40
0.7187500000000048
 40
0.7187500000000048
 40
0.7500000000000048
 40
0.7500000000000048
 40
0.7812500000000048
 40
0.7812500000000048
 40
0.7968750000000044
 40
0.7968750000000044
 40
0.8125000000000041
 40
0.8125000000000041
 40
0.8437500000000034
 40
0.8437500000000034
 40
0.8750000000000027
 40
0.8750000000000027
 40
0.906250000000002
 40
0.906250000000002
 40
0.9375000000000013
 40
0.9375000000000013
 40
0.9687500000000007
 40
0.9687500000000007
 40
1.0
 40
1.0
 40
1.03125
 40
1.03125
 10
144.5485009496892
 20
150.1251934553895
 30
0.0
 10
143.8874103241366
 20
150.1251934553895
 30
0.0
 10
143.562430194885
 20
150.1414016867717
 30
0.0
 10
143.0829567836386
 20
150.1887663187913
 30
0.0
 10
142.9244749657978
 20
150.2084205306819
 30
0.0
 10
142.6102554332935
 20
150.2555316868745
 30
0.0
 10
142.4541351496131
 20
150.2831130063693
 30
0.0
 10
142.0000811206565
 20
150.375648793163
 30
0.0
 10
141.7129777377167
 20
150.4507192267596
 30
0.0
 10
141.1696231816896
 20
150.6259575353701
 30
0.0
 10
140.9125195704841
 20
150.7269588332084
 30
0.0
 10
140.4516133155453
 20
150.9443150316693
 30
0.0
 10
140.2447156063303
 20
151.0614793634415
 30
0.0
 10
139.8791902923381
 20
151.3115492876701
 30
0.0
 10
139.7239847702122
 20
151.4424953764291
 30
0.0
 10
139.4745543836125
 20
151.7082303201415
 30
0.0
 10
139.3784644278273
 20
151.8449839134524
 30
0.0
 10
139.2499455786337
 20
152.1190494882914
 30
0.0
 10
139.2181347084559
 20
152.2539895787603
 30
0.0
 10
139.2177780586827
 20
152.519461215829
 30
0.0
 10
139.2502753108797
 20
152.6512856929702
 30
0.0
 10
139.3779007845942
 20
152.9007352925907
 30
0.0
 10
139.4723291856461
 20
153.0191679845187
 30
0.0
 10
139.6601900056316
 20
153.1880371816128
 30
0.0
 10
139.7310180044348
 20
153.243123176733
 30
0.0
 10
139.8857398964001
 20
153.3483760052214
 30
0.0
 10
139.9697163665835
 20
153.3987112339817
 30
0.0
 10
140.241040036228
 20
153.5432870665198
 30
0.0
 10
140.4475892548303
 20
153.6311486529368
 30
0.0
 10
140.9141993950193
 20
153.7908697459363
 30
0.0
 10
141.1665649646447
 20
153.8601080424035
 30
0.0
 10
141.5724663063235
 20
153.9498954316333
 30
0.0
 10
141.712366923801
 20
153.9774613937195
 30
0.0
 10
142.0015908590479
 20
154.0279521946458
 30
0.0
 10
142.1514303153372
 20
154.0509156334965
 30
0.0
 10
142.605546884948
 20
154.1115461499153
 30
0.0
 10
142.9171981036848
 20
154.1416201787112
 30
0.0
 10
143.5581945685972
 20
154.1822097659698
 30
0.0
 10
143.8897221965494
 20
154.1925219961859
 30
0.0
 10
144.5425132416208
 20
154.1925975633517
 30
0.0
 10
144.8670494466527
 20
154.1826959578839
 30
0.0
 10
145.5123188960691
 20
154.1422094273586
 30
0.0
 10
145.8280619022318
 20
154.111748127474
 30
0.0
 10
146.4299511972155
 20
154.0315974560374
 30
0.0
 10
146.720700428027
 20
153.9813152242302
 30
0.0
 10
147.2676122197115
 20
153.8606450414572
 30
0.0
 10
147.5193895835484
 20
153.7914211822872
 30
0.0
 10
147.9807775761695
 20
153.6339694546465
 30
0.0
 10
148.1920468557676
 20
153.5446209799728
 30
0.0
 10
148.5553512081438
 20
153.351373109272
 30
0.0
 10
148.7091578565866
 20
153.2472451173927
 30
0.0
 10
148.897777326184
 20
153.0786207312093
 30
0.0
 10
148.9538078123931
 20
153.0199923295343
 30
0.0
 10
149.0493815741293
 20
152.9005374147081
 30
0.0
 10
149.0891444911543
 20
152.8396176258699
 30
0.0
 10
149.1849162414664
 20
152.653212899696
 30
0.0
 10
149.2176390805925
 20
152.524100081901
 30
0.0
 10
149.2182676669216
 20
152.2554431589451
 30
0.0
 10
149.1860815221868
 20
152.1200724181883
 30
0.0
 10
149.0911708203312
 20
151.9165221099524
 30
0.0
 10
149.0517040369323
 20
151.8485501858889
 30
0.0
 10
148.9567740382114
 20
151.712457962758
 30
0.0
 10
148.901017210448
 20
151.6441078625486
 30
0.0
 10
148.7130770924782
 20
151.4434048495065
 30
0.0
 10
148.559715622762
 20
151.3140165756938
 30
0.0
 10
148.1974513878816
 20
151.0653511436439
 30
0.0
 10
147.9866029144157
 20
150.9455415012757
 30
0.0
 10
147.5259329440968
 20
150.728019213703
 30
0.0
 10
147.274558564513
 20
150.6289341138671
 30
0.0
 10
146.7286506776148
 20
150.4522616399503
 30
0.0
 10
146.4378281029636
 20
150.3762045518163
 30
0.0
 10
145.8365014881836
 20
150.2533595744633
 30
0.0
 10
145.5219829035712
 20
150.2056534494102
 30
0.0
 10
144.8754014474513
 20
150.1414049142905
 30
0.0
 10
144.5485009496892
 20
150.1251934553895
 30
0.0
 10
143.8874103241366
 20
150.1251934553895
 30
0.0
  0
LINE
  5
82
330
1F
100
AcDbEntity
  8
0
  6
Continuous
 62
     7
370
    15
100
AcDbLine
 10
135.2179556369
 20
57.2105639918
 30
0.0
 11
135.2179556369
 21
156.2105639858
 31
0.0
  0
LINE
  5
83
330
1F
100
AcDbEntity
  8
0
  6
Continuous
 62
     7
370
    15
100
AcDbLine
 10
164.1679556369
 20
58.9612184465
 30
0.0
 11
164.1679556369
 21
138.0605639918
 31
0.0
  0
SPLINE
  5
84
330
1F
100
AcDbEntity
  8
0
  6
Continuous
 62
     7
370
    15
100
AcDbSpline
210
0.0
220
0.0
230
1.0
 70
     8
 71
     3
 72
    14
 73
    10
 74
     0
 42
0.00000001
 43
0.00000001
 40
0.0
 40
0.0
 40
0.0
 40
0.0
 40
0.25
 40
0.25
 40
0.5
 40
0.5
 40
0.75
 40
0.75
 40
1.0
 40
1.0
 40
1.0
 40
1.0
 10
164.167955636913
 20
58.96121844650496
 30
0.0
 10
164.167955636913
 20
58.82779275045042
 30
0.0
 10
164.1426445370021
 20
58.69594494260607
 30
0.0
 10
164.0443097731574
 20
58.44942239391197
 30
0.0
 10
163.9711657689012
 20
58.33561720567143
 30
0.0
 10
163.7877277078055
 20
58.14516002872415
 30
0.0
 10
163.676041373467
 20
58.06752516487423
 30
0.0
 10
163.4335379431607
 20
57.96323375476176
 30
0.0
 10
163.3001635144665
 20
57.93557039872941
 30
0.0
 10
163.167955636913
 20
57.93557039872942
 30
0.0
  0
SPLINE
  5
85
330
1F
100
AcDbEntity
  8
0
  6
Continuous
 62
     7
370
    15
100
AcDbSpline
210
0.0
220
0.0
230
1.0
 70
    24
 71
     3
 72
    12
 73
     8
 74
     0
 42
0.00000001
 43
0.00000001
 40
0.0
 40
0.0
 40
0.0
 40
0.0
 40
0.2500000000000032
 40
0.2500000000000032
 40
0.5000000000000064
 40
0.5000000000000064
 40
1.0
 40
1.0
 40
1.0
 40
1.0
 10
163.167955636913
 20
138.0605639917582
 30
0.0
 10
163.3200458738579
 20
138.0605639917582
 30
0.0
 10
163.4685051349334
 20
138.0605639917582
 30
0.0
 10
163.7259087671991
 20
138.0605639917582
 30
0.0
 10
163.835013515041
 20
138.0605639917582
 30
0.0
 10
164.0890729914485
 20
138.0605639917582
 30
0.0
 10
164.167955636913
 20
138.0605639917582
 30
0.0
 10
164.167955636913
 20
138.0605639917582
 30
0.0
  0
LINE
  5
86
330
1F
100
AcDbEntity
  8
0
  6
Continuous
 62
     7
370
    15
100
AcDbLine
 10
163.1679556369
 20
57.9355703987
 30
0.0
 11
158.4799846578
 21
57.9355703987
 31
0.0
  0
LINE
  5
87
330
1F
100
AcDbEntity
  8
0
  6
Continuous
 62
     7
370
    15
100
AcDbLine
 10
158.4799846578
 20
57.9355703987
 30
0.0
 11
158.4799846578
 21
138.0605639918
 31
0.0
  0
LINE
  5
88
330
1F
100
AcDbEntity
  8
0
  6
Continuous
 62
     7
370
    15
100
AcDbLine
 10
158.4799846578
 20
138.0605639918
 30
0.0
 11
163.1679556369
 21
138.0605639918
 31
0.0
  0
SPLINE
  5
89
330
1F
100
AcDbEntity
  8
0
  6
Continuous
 62
     7
370
    15
100
AcDbSpline
210
0.0
220
0.0
230
1.0
 70
     8
 71
     3
 72
     8
 73
     4
 74
     0
 42
0.00000001
 43
0.00000001
 40
0.0
 40
0.0
 40
0.0
 40
0.0
 40
1.0
 40
1.0
 40
1.0
 40
1.0
 10
158.4799846578343
 20
57.93557039872945
 30
0.0
 10
158.0288799284341
 20
58.73653033054937
 30
0.0
 10
157.5781821011907
 20
59.53772034211003
 30
0.0
 10
157.127955636913
 20
60.33917570473479
 30
0.0
  0
LINE
  5
8A
330
1F
100
AcDbEntity
  8
0
  6
Continuous
 62
     7
370
    15
100
AcDbLine
 10
157.1279556369
 20
60.3391757047
 30
0.0
 11
157.1279556369
 21
138.0605639918
 31
0.0
  0
SPLINE
  5
8B
330
1F
100
AcDbEntity
  8
0
  6
Continuous
 62
     7
370
    15
100
AcDbSpline
210
0.0
220
0.0
230
1.0
 70
    24
 71
     3
 72
     8
 73
     4
 74
     0
 42
0.00000001
 43
0.00000001
 40
0.0
 40
0.0
 40
0.0
 40
0.0
 40
1.0
 40
1.0
 40
1.0
 40
1.0
 10
157.127955636913
 20
138.0605639917582
 30
0.0
 10
157.5721685192669
 20
138.0605639917582
 30
0.0
 10
158.0231830855061
 20
138.0605639917582
 30
0.0
 10
158.4799846578343
 20
138.0605639917582
 30
0.0
  0
LINE
  5
8C
330
1F
100
AcDbEntity
  8
0
  6
Continuous
 62
     7
370
    15
100
AcDbLine
 10
153.3079556369
 20
60.3391757047
 30
0.0
 11
153.3079556369
 21
138.0605639918
 31
0.0
  0
SPLINE
  5
8D
330
1F
100
AcDbEntity
  8
0
  6
Continuous
 62
     7
370
    15
100
AcDbSpline
210
0.0
220
0.0
230
1.0
 70
     8
 71
     3
 72
     8
 73
     4
 74
     0
 42
0.00000001
 43
0.00000001
 40
0.0
 40
0.0
 40
0.0
 40
0.0
 40
1.0
 40
1.0
 40
1.0
 40
1.0
 10
153.307955636913
 20
60.33917570473479
 30
0.0
 10
152.8577291726351
 20
59.53772034211003
 30
0.0
 10
152.4070313453918
 20
58.73653033054937
 30
0.0
 10
151.9559266159916
 20
57.93557039872945
 30
0.0
  0
SPLINE
  5
8E
330
1F
100
AcDbEntity
  8
0
  6
Continuous
 62
     7
370
    15
100
AcDbSpline
210
0.0
220
0.0
230
1.0
 70
    24
 71
     3
 72
     8
 73
     4
 74
     0
 42
0.00000001
 43
0.00000001
 40
0.0
 40
0.0
 40
0.0
 40
0.0
 40
1.0
 40
1.0
 40
1.0
 40
1.0
 10
151.9559266159916
 20
138.0605639917582
 30
0.0
 10
152.4127281883198
 20
138.0605639917582
 30
0.0
 10
152.863742754559
 20
138.0605639917582
 30
0.0
 10
153.3079556369129
 20
138.0605639917582
 30
0.0
  0
SPLINE
  5
8F
330
1F
100
AcDbEntity
  8
0
  6
Continuous
 62
     7
370
    15
100
AcDbSpline
210
0.0
220
0.0
230
1.0
 70
     8
 71
     3
 72
    14
 73
    10
 74
     0
 42
0.00000001
 43
0.00000001
 40
0.0
 40
0.0
 40
0.0
 40
0.0
 40
0.25
 40
0.25
 40
0.5
 40
0.5
 40
0.75
 40
0.75
 40
1.0
 40
1.0
 40
1.0
 40
1.0
 10
157.127955636913
 20
61.24738520936337
 30
0.0
 10
157.127955636913
 20
61.35442929035776
 30
0.0
 10
157.1078379497548
 20
61.4596644306002
 30
0.0
 10
157.0293467604891
 20
61.65751491744788
 30
0.0
 10
156.9711901356879
 20
61.7485666810128
 30
0.0
 10
156.8246748800699
 20
61.90173277493759
 30
0.0
 10
156.7360323314288
 20
61.96402722114699
 30
0.0
 10
156.5403090086285
 20
62.04882100668299
 30
0.0
 10
156.4350778175575
 20
62.07088853370861
 30
0.0
 10
156.3279556369129
 20
62.07088853370862
 30
0.0
  0
SPLINE
  5
90
330
1F
100
AcDbEntity
  8
0
  6
Continuous
 62
     7
370
    15
100
AcDbSpline
210
0.0
220
0.0
230
1.0
 70
    24
 71
     3
 72
    14
 73
    10
 74
     0
 42
0.00000001
 43
0.00000001
 40
0.0
 40
0.0
 40
0.0
 40
0.0
 40
0.25
 40
0.25
 40
0.5
 40
0.5
 40
0.75
 40
0.75
 40
1.0
 40
1.0
 40
1.0
 40
1.0
 10
156.3279556369129
 20
138.0605639917582
 30
0.0
 10
156.4517254016781
 20
138.0605639917582
 30
0.0
 10
156.576092505685
 20
138.0605639917582
 30
0.0
 10
156.782448974411
 20
138.0605639917582
 30
0.0
 10
156.8677771178294
 20
138.0605639917582
 30
0.0
 10
156.9999691765446
 20
138.0605639917582
 30
0.0
 10
157.0486144202952
 20
138.0605639917582
 30
0.0
 10
157.1121502120239
 20
138.0605639917582
 30
0.0
 10
157.127955636913
 20
138.0605639917582
 30
0.0
 10
157.127955636913
 20
138.0605639917582
 30
0.0
  0
SPLINE
  5
91
330
1F
100
AcDbEntity
  8
0
  6
Continuous
 62
     7
370
    15
100
AcDbSpline
210
0.0
220
0.0
230
1.0
 70
     8
 71
     3
 72
    12
 73
     8
 74
     0
 42
0.00000001
 43
0.00000001
 40
0.0
 40
0.0
 40
0.0
 40
0.0
 40
0.25
 40
0.25
 40
0.5
 40
0.5
 40
1.0
 40
1.0
 40
1.0
 40
1.0
 10
154.1079556369129
 20
62.07088853370862
 30
0.0
 10
154.002194983564
 20
62.0708885337086
 30
0.0
 10
153.8942073553811
 20
62.04834902770821
 30
0.0
 10
153.6996126901155
 20
61.9637783957129
 30
0.0
 10
153.6107407772766
 20
61.90129674295412
 30
0.0
 10
153.3915484849507
 20
61.67190779148195
 30
0.0
 10
153.3079556369129
 20
61.45932445395956
 30
0.0
 10
153.3079556369129
 20
61.24738520936337
 30
0.0
  0
SPLINE
  5
92
330
1F
100
AcDbEntity
  8
0
  6
Continuous
 62
     7
370
    15
100
AcDbSpline
210
0.0
220
0.0
230
1.0
 70
    24
 71
     3
 72
    14
 73
    10
 74
     0
 42
0.00000001
 43
0.00000001
 40
0.0
 40
0.0
 40
0.0
 40
0.0
 40
0.25
 40
0.25
 40
0.5
 40
0.5
 40
0.75
 40
0.75
 40
1.0
 40
1.0
 40
1.0
 40
1.0
 10
153.3079556369129
 20
138.0605639917582
 30
0.0
 10
153.3079556369129
 20
138.0605639917582
 30
0.0
 10
153.3236699573789
 20
138.0605639917582
 30
0.0
 10
153.3873539358473
 20
138.0605639917582
 30
0.0
 10
153.4359571302577
 20
138.0605639917582
 30
0.0
 10
153.5686406526833
 20
138.0605639917582
 30
0.0
 10
153.6537427569939
 20
138.0605639917582
 30
0.0
 10
153.860184991904
 20
138.0605639917582
 30
0.0
 10
153.984265933527
 20
138.0605639917582
 30
0.0
 10
154.1079556369129
 20
138.0605639917582
 30
0.0
  0
LINE
  5
93
330
1F
100
AcDbEntity
  8
0
  6
Continuous
 62
     7
370
    15
100
AcDbLine
 10
156.3279556369
 20
62.0708885337
 30
0.0
 11
154.1079556369
 21
62.0708885337
 31
0.0
  0
LINE
  5
94
330
1F
100
AcDbEntity
  8
0
  6
Continuous
 62
     7
370
    15
100
AcDbLine
 10
154.1079556369
 20
138.0605639918
 30
0.0
 11
156.3279556369
 21
138.0605639918
 31
0.0
  0
LINE
  5
95
330
1F
100
AcDbEntity
  8
0
  6
Continuous
 62
     7
370
    15
100
AcDbLine
 10
100.4179556369
 20
70.4465489617
 30
0.0
 11
100.4179556369
 21
72.8412307264
 31
0.0
  0
SPLINE
  5
96
330
1F
100
AcDbEntity
  8
0
  6
Continuous
 62
     7
370
    15
100
AcDbSpline
210
0.0
220
0.0
230
1.0
 70
     8
 71
     3
 72
    14
 73
    10
 74
     0
 42
0.00000001
 43
0.00000001
 40
0.0
 40
0.0
 40
0.0
 40
0.0
 40
0.25
 40
0.25
 40
0.5
 40
0.5
 40
0.75
 40
0.75
 40
1.0
 40
1.0
 40
1.0
 40
1.0
 10
99.41353316557598
 20
74.54408264801474
 30
0.0
 10
99.5023017435213
 20
74.38554851670679
 30
0.0
 10
99.62401958220022
 20
74.23310583981822
 30
0.0
 10
99.85906919205705
 20
73.9359712159893
 30
0.0
 10
99.97469937827394
 20
73.79128857237194
 30
0.0
 10
100.1751043117018
 20
73.50799936986853
 30
0.0
 10
100.2605046036861
 20
73.36944537683168
 30
0.0
 10
100.3822102374033
 20
73.09806134679813
 30
0.0
 10
100.4179556369159
 20
72.96592547816353
 30
0.0
 10
100.4179556369159
 20
72.84123072639275
 30
0.0
  0
SPLINE
  5
97
330
1F
100
AcDbEntity
  8
0
  6
Continuous
 62
     7
370
    15
100
AcDbSpline
210
0.0
220
0.0
230
1.0
 70
     8
 71
     3
 72
    14
 73
    10
 74
     0
 42
0.00000001
 43
0.00000001
 40
0.0
 40
0.0
 40
0.0
 40
0.0
 40
0.124999999999999
 40
0.124999999999999
 40
0.249999999999998
 40
0.249999999999998
 40
0.5000000000000007
 40
0.5000000000000007
 40
1.0
 40
1.0
 40
1.0
 40
1.0
 10
98.51795563691293
 20
75.17291258711484
 30
0.0
 10
98.58553793669743
 20
75.18006847221622
 30
0.0
 10
98.65802551444533
 20
75.17564400217722
 30
0.0
 10
98.79031662371126
 20
75.14593784440687
 30
0.0
 10
98.84759400310145
 20
75.12265356282865
 30
0.0
 10
98.99724443030172
 20
75.04516832297833
 30
0.0
 10
99.07095772582322
 20
74.98331649607695
 30
0.0
 10
99.25876570914946
 20
74.79863904342864
 30
0.0
 10
99.34280601551092
 20
74.67039612013743
 30
0.0
 10
99.41353316557719
 20
74.54408264801484
 30
0.0
  0
SPLINE
  5
98
330
1F
100
AcDbEntity
  8
0
  6
Continuous
 62
     7
370
    15
100
AcDbSpline
210
0.0
220
0.0
230
1.0
 70
     8
 71
     3
 72
     8
 73
     4
 74
     0
 42
0.00000001
 43
0.00000001
 40
0.0
 40
0.0
 40
0.0
 40
0.0
 40
1.0
 40
1.0
 40
1.0
 40
1.0
 10
94.97331524883215
 20
74.75486400232306
 30
0.0
 10
96.13861355954103
 20
74.91005147420968
 30
0.0
 10
97.32322877358084
 20
75.04641011252001
 30
0.0
 10
98.51795563691293
 20
75.17291258711484
 30
0.0
  0
SPLINE
  5
99
330
1F
100
AcDbEntity
  8
0
  6
Continuous
 62
     7
370
    15
100
AcDbSpline
210
0.0
220
0.0
230
1.0
 70
     8
 71
     3
 72
    14
 73
    10
 74
     0
 42
0.00000001
 43
0.00000001
 40
0.0
 40
0.0
 40
0.0
 40
0.0
 40
0.4999999999999972
 40
0.4999999999999972
 40
0.7499999999999971
 40
0.7499999999999971
 40
0.8749999999999986
 40
0.8749999999999986
 40
1.0
 40
1.0
 40
1.0
 40
1.0
 10
87.21788075288424
 20
74.46473182319313
 30
0.0
 10
88.52618231541798
 20
74.47174654693426
 30
0.0
 10
89.83124169007479
 20
74.48715512337876
 30
0.0
 10
91.77711774156312
 20
74.54105167884542
 30
0.0
 10
92.42381524530212
 20
74.56408324344811
 30
0.0
 10
93.38765760915646
 20
74.61502576831887
 30
0.0
 10
93.70789630109054
 20
74.63476069055206
 30
0.0
 10
94.34459152743295
 20
74.68424781902364
 30
0.0
 10
94.66130693571587
 20
74.71331259795286
 30
0.0
 10
94.97331524883218
 20
74.754864002323
 30
0.0
  0
SPLINE
  5
9A
330
1F
100
AcDbEntity
  8
0
  6
Continuous
 62
     7
370
    15
100
AcDbSpline
210
0.0
220
0.0
230
1.0
 70
     8
 71
     3
 72
    12
 73
     8
 74
     0
 42
0.00000001
 43
0.00000001
 40
0.0
 40
0.0
 40
0.0
 40
0.0
 40
0.2500000000000009
 40
0.2500000000000009
 40
0.5000000000000018
 40
0.5000000000000018
 40
1.0
 40
1.0
 40
1.0
 40
1.0
 10
93.51795563691294
 20
138.7970868832547
 30
0.0
 10
92.99925681508475
 20
138.8296096581029
 30
0.0
 10
92.47754524187977
 20
138.8529063992734
 30
0.0
 10
91.43125322538417
 20
138.8907519136955
 30
0.0
 10
90.90658159971392
 20
138.9050203881916
 30
0.0
 10
89.32973557717469
 20
138.9392298756499
 30
0.0
 10
88.27478026262777
 20
138.9507293795938
 30
0.0
 10
87.21788075288255
 20
138.9563961603234
 30
0.0
  0
SPLINE
  5
9B
330
1F
100
AcDbEntity
  8
0
  6
Continuous
 62
     7
370
    15
100
AcDbSpline
210
0.0
220
0.0
230
1.0
 70
     8
 71
     3
 72
    20
 73
    16
 74
     0
 42
0.00000001
 43
0.00000001
 40
0.0
 40
0.0
 40
0.0
 40
0.0
 40
0.2500000000000011
 40
0.2500000000000011
 40
0.5000000000000021
 40
0.5000000000000021
 40
0.7500000000000031
 40
0.7500000000000031
 40
0.8750000000000008
 40
0.8750000000000008
 40
0.9375000000000006
 40
0.9375000000000006
 40
0.9687500000000003
 40
0.9687500000000003
 40
1.0
 40
1.0
 40
1.0
 40
1.0
 10
95.41795563691294
 20
140.4551727287428
 30
0.0
 10
95.41795563691294
 20
140.319490408996
 30
0.0
 10
95.36924384769631
 20
140.178403422856
 30
0.0
 10
95.20008242447112
 20
139.8863317041254
 30
0.0
 10
95.07830201055282
 20
139.734682962035
 30
0.0
 10
94.78075491580329
 20
139.4322745218819
 30
0.0
 10
94.60684231010052
 20
139.2796858857586
 30
0.0
 10
94.2874274762187
 20
139.0544151219163
 30
0.0
 10
94.17238670077144
 20
138.9796920274056
 30
0.0
 10
93.96530237675502
 20
138.8802816181486
 30
0.0
 10
93.88919454194864
 20
138.848716525804
 30
0.0
 10
93.75780000239529
 20
138.814273141611
 30
0.0
 10
93.71124678339382
 20
138.8052215698434
 30
0.0
 10
93.61491343231312
 20
138.7950459210049
 30
0.0
 10
93.56565400895767
 20
138.7940961623299
 30
0.0
 10
93.51795563691095
 20
138.7970868832445
 30
0.0
  0
LINE
  5
9C
330
1F
100
AcDbEntity
  8
0
  6
Continuous
 62
     7
370
    15
100
AcDbLine
 10
95.4179556369
 20
140.4551727287
 30
0.0
 11
95.4179556369
 21
142.7240780198
 31
0.0
  0
LINE
  5
9D
330
1F
100
AcDbEntity
  8
0
  6
Continuous
 62
     7
370
    15
100
AcDbLine
 10
132.7179556369
 20
68.8283124888
 30
0.0
 11
132.7179556369
 21
144.5928154948
 31
0.0
  0
SPLINE
  5
9E
330
1F
100
AcDbEntity
  8
0
  6
Continuous
 62
     7
370
    15
100
AcDbSpline
210
0.0
220
0.0
230
1.0
 70
     8
 71
     3
 72
    24
 73
    20
 74
     0
 42
0.00000001
 43
0.00000001
 40
0.0
 40
0.0
 40
0.0
 40
0.0
 40
0.0002934293894791
 40
0.062808005175641
 40
0.1260453927228619
 40
0.18907467666103
 40
0.2513200540860133
 40
0.3133304633786588
 40
0.3759158453762907
 40
0.4383740564599686
 40
0.5000631094857209
 40
0.5616593988040849
 40
0.6245050380644152
 40
0.6872231506510951
 40
0.7494953263230465
 40
0.8117583797535242
 40
0.8747365508229858
 40
0.9378980306234599
 40
1.0
 40
1.0
 40
1.0
 40
1.0
 10
113.7379119007524
 20
69.77931873344589
 30
0.0
 10
113.7377170478676
 20
69.7792944260519
 30
0.0
 10
113.6960091568564
 20
69.7740914743977
 30
0.0
 10
113.8411275483869
 20
69.7927260977282
 30
0.0
 10
114.1962064899261
 20
69.83524587627693
 30
0.0
 10
114.8007821274693
 20
69.90338215987876
 30
0.0
 10
115.6072174362855
 20
69.97663769689463
 30
0.0
 10
116.5926948602044
 20
70.04115703771252
 30
0.0
 10
117.724364456884
 20
70.0797212657736
 30
0.0
 10
118.9466569270463
 20
70.08341577177498
 30
0.0
 10
120.2139856084981
 20
70.04098979172602
 30
0.0
 10
121.4804711389246
 20
69.95274265094503
 30
0.0
 10
122.6966085027446
 20
69.82434938067836
 30
0.0
 10
123.8220189985853
 20
69.67170839208583
 30
0.0
 10
124.7994360601393
 20
69.5099337769815
 30
0.0
 10
125.6027015386818
 20
69.35740488388062
 30
0.0
 10
126.191195061683
 20
69.23339114061322
 30
0.0
 10
126.5801011733351
 20
69.14846721433693
 30
0.0
 10
126.6268623040731
 20
69.13774090305813
 30
0.0
 10
126.6500451106155
 20
69.13242311036655
 30
0.0
  0
SPLINE
  5
9F
330
1F
100
AcDbEntity
  8
0
  6
Continuous
 62
     7
370
    15
100
AcDbSpline
210
0.0
220
0.0
230
1.0
 70
     8
 71
     3
 72
    41
 73
    37
 74
     0
 42
0.00000001
 43
0.00000001
 40
0.0
 40
0.0
 40
0.0
 40
0.0
 40
0.0619930088506718
 40
0.125434783814564
 40
0.1886508980471406
 40
0.2510246518033811
 40
0.3131658325491701
 40
0.3756581805174193
 40
0.4382227337757709
 40
0.4998045140815297
 40
0.5615164441954765
 40
0.624068336616565
 40
0.6867257531766615
 40
0.7488365631577111
 40
0.8110686297814758
 40
0.8741743265521147
 40
0.9373213196242014
 40
0.9685512131827939
 40
0.9842087301523141
 40
0.9920641614992075
 40
0.9960005295431575
 40
0.9979711229155388
 40
0.9989570525954627
 40
0.999450179507506
 40
0.9996967839589672
 40
0.9998200964931991
 40
0.9998817553448945
 40
0.9999125854178207
 40
0.9999280006161647
 40
0.9999357082558249
 40
0.9999395620857793
 40
0.9999414890032862
 40
0.9999424524626737
 40
0.9999434159224813
 40
0.9999502132908483
 40
1.0
 40
1.0
 40
1.0
 40
1.0
 10
126.6499237801375
 20
144.2886598551985
 30
0.0
 10
126.6263521347939
 20
144.2833503755486
 30
0.0
 10
126.5786579787488
 20
144.2726073346091
 30
0.0
 10
126.1866159893233
 20
144.1873781981536
 30
0.0
 10
125.5961019400531
 20
144.0628094195129
 30
0.0
 10
124.792064494008
 20
143.909862473361
 30
0.0
 10
123.8159890938265
 20
143.7481059194075
 30
0.0
 10
122.694180358546
 20
143.5958731514752
 30
0.0
 10
121.4806494387587
 20
143.4680932102739
 30
0.0
 10
120.2158187323595
 20
143.3802446585912
 30
0.0
 10
118.9477756949168
 20
143.3378591747206
 30
0.0
 10
117.7242683372157
 20
143.3415949826923
 30
0.0
 10
116.5907697968017
 20
143.3801904531404
 30
0.0
 10
115.6046639858274
 20
143.4446298244315
 30
0.0
 10
114.7960361770404
 20
143.5181396317127
 30
0.0
 10
114.1994174819307
 20
143.5854533165245
 30
0.0
 10
113.8840261924741
 20
143.6234178677923
 30
0.0
 10
113.7739596236736
 20
143.6372169271245
 30
0.0
 10
113.746540235863
 20
143.6407030010446
 30
0.0
 10
113.7396181850284
 20
143.6415822267387
 30
0.0
 10
113.7378499448521
 20
143.6418030013441
 30
0.0
 10
113.7373895656687
 20
143.6418582040561
 30
0.0
 10
113.7372654069981
 20
143.6418719438414
 30
0.0
 10
113.7372298524848
 20
143.6418753396749
 30
0.0
 10
113.7372187084431
 20
143.6418761679917
 30
0.0
 10
113.7372147952069
 20
143.6418763645854
 30
0.0
 10
113.7372132530587
 20
143.6418764085085
 30
0.0
 10
113.7372125859773
 20
143.6418764168251
 30
0.0
 10
113.7372122779123
 20
143.6418764176414
 30
0.0
 10
113.7372121309871
 20
143.641876417116
 30
0.0
 10
113.7372120582593
 20
143.6418764167582
 30
0.0
 10
113.7372120235498
 20
143.6418764163604
 30
0.0
 10
113.7372120018163
 20
143.6418764163852
 30
0.0
 10
113.7372119699612
 20
143.6418764141406
 30
0.0
 10
113.7372100206205
 20
143.6418766300865
 30
0.0
 10
113.7372369554833
 20
143.6418731489559
 30
0.0
 10
113.7372606546976
 20
143.6418700860088
 30
0.0
  0
SPLINE
  5
A0
330
1F
100
AcDbEntity
  8
0
  6
Continuous
 62
     7
370
    15
100
AcDbSpline
210
0.0
220
0.0
230
1.0
 70
     8
 71
     3
 72
    20
 73
    16
 74
     0
 42
0.00000001
 43
0.00000001
 40
0.0
 40
0.0
 40
0.0
 40
0.0
 40
0.249999999999986
 40
0.249999999999986
 40
0.3749999999999789
 40
0.3749999999999789
 40
0.4374999999999789
 40
0.4374999999999789
 40
0.4999999999999789
 40
0.4999999999999789
 40
0.6249999999999835
 40
0.6249999999999835
 40
0.7499999999999879
 40
0.7499999999999879
 40
1.0
 40
1.0
 40
1.0
 40
1.0
 10
85.60876986862895
 20
76.03208083905754
 30
0.0
 10
85.63504208584236
 20
76.05139878014002
 30
0.0
 10
85.6657222280972
 20
76.06578749124179
 30
0.0
 10
85.73719309847911
 20
76.05888312940579
 30
0.0
 10
85.76522013552346
 20
76.05171712605737
 30
0.0
 10
85.82030372502096
 20
76.02201809935377
 30
0.0
 10
85.84119505357339
 20
76.00854445679244
 30
0.0
 10
85.88640370101885
 20
75.97334619127642
 30
0.0
 10
85.91080791341442
 20
75.95143796254916
 30
0.0
 10
85.98214023146586
 20
75.87931310255361
 30
0.0
 10
86.02403701628614
 20
75.82697256160357
 30
0.0
 10
86.09561297514202
 20
75.72948916970282
 30
0.0
 10
86.1264409649593
 20
75.6827353998244
 30
0.0
 10
86.20954089779488
 20
75.54944218398528
 30
0.0
 10
86.25439580316518
 20
75.46680478607007
 30
0.0
 10
86.29450787861775
 20
75.38769789127929
 30
0.0
  0
SPLINE
  5
A1
330
1F
100
AcDbEntity
  8
0
  6
Continuous
 62
     7
370
    15
100
AcDbSpline
210
0.0
220
0.0
230
1.0
 70
     8
 71
     3
 72
    14
 73
    10
 74
     0
 42
0.00000001
 43
0.00000001
 40
0.0
 40
0.0
 40
0.0
 40
0.0
 40
0.25
 40
0.25
 40
0.5
 40
0.5
 40
0.75
 40
0.75
 40
1.0
 40
1.0
 40
1.0
 40
1.0
 10
85.31795563691294
 20
76.20789424919033
 30
0.0
 10
85.31795563691296
 20
76.16664731816599
 30
0.0
 10
85.3265653532942
 20
76.1297403458835
 30
0.0
 10
85.35765153286454
 20
76.0688402859841
 30
0.0
 10
85.3800410863486
 20
76.0446593664444
 30
0.0
 10
85.43478501752472
 20
76.01069177556114
 30
0.0
 10
85.4672352571099
 20
76.00077169159296
 30
0.0
 10
85.53723677183797
 20
75.99942048268811
 30
0.0
 10
85.57544727196051
 20
76.00757875938427
 30
0.0
 10
85.6087698686336
 20
76.03208083905236
 30
0.0
  0
LINE
  5
A2
330
1F
100
AcDbEntity
  8
0
  6
Continuous
 62
     7
370
    15
100
AcDbLine
 10
85.3179556369
 20
76.2078942492
 30
0.0
 11
85.3179556369
 21
137.2132337343
 31
0.0
  0
SPLINE
  5
A3
330
1F
100
AcDbEntity
  8
0
  6
Continuous
 62
     7
370
    15
100
AcDbSpline
210
0.0
220
0.0
230
1.0
 70
     8
 71
     3
 72
     9
 73
     5
 74
     0
 42
0.00000001
 43
0.00000001
 40
0.0
 40
0.0
 40
0.0
 40
0.0
 40
0.0592950272321202
 40
1.0
 40
1.0
 40
1.0
 40
1.0
 10
85.60876986863359
 20
137.3890471444641
 30
0.0
 10
85.6038870271714
 20
137.3923399898576
 30
0.0
 10
85.52153878162505
 20
137.4478732368633
 30
0.0
 10
85.45540673114351
 20
137.3905838343508
 30
0.0
 10
85.39319598239621
 20
137.3366914085203
 30
0.0
  0
SPLINE
  5
A4
330
1F
100
AcDbEntity
  8
0
  6
Continuous
 62
     7
370
    15
100
AcDbSpline
210
0.0
220
0.0
230
1.0
 70
     8
 71
     3
 72
     8
 73
     4
 74
     0
 42
0.00000001
 43
0.00000001
 40
0.0
 40
0.0
 40
0.0
 40
0.0
 40
1.0
 40
1.0
 40
1.0
 40
1.0
 10
85.34158930584914
 20
137.3208132353959
 30
0.0
 10
85.32624026721311
 20
137.2903031803999
 30
0.0
 10
85.31795563691294
 20
137.2539916248876
 30
0.0
 10
85.31795563691294
 20
137.2132337343262
 30
0.0
  0
SPLINE
  5
A5
330
1F
100
AcDbEntity
  8
0
  6
Continuous
 62
     7
370
    15
100
AcDbSpline
210
0.0
220
0.0
230
1.0
 70
     8
 71
     3
 72
    20
 73
    16
 74
     0
 42
0.00000001
 43
0.00000001
 40
0.0
 40
0.0
 40
0.0
 40
0.0
 40
0.2500000000000037
 40
0.2500000000000037
 40
0.3750000000000055
 40
0.3750000000000055
 40
0.5000000000000073
 40
0.5000000000000073
 40
0.5625000000000057
 40
0.5625000000000057
 40
0.625000000000004
 40
0.625000000000004
 40
0.7500000000000027
 40
0.7500000000000027
 40
1.0
 40
1.0
 40
1.0
 40
1.0
 10
86.29450787861536
 20
138.0334300922364
 30
0.0
 10
86.25451166079154
 20
137.954551685679
 30
0.0
 10
86.20939803295389
 20
137.8714220389875
 30
0.0
 10
86.12614381858735
 20
137.7379333746365
 30
0.0
 10
86.09592448996685
 20
137.6920683187546
 30
0.0
 10
86.02383625482543
 20
137.5938767663497
 30
0.0
 10
85.98191893741433
 20
137.5415669468261
 30
0.0
 10
85.91066833286287
 20
137.4695610440916
 30
0.0
 10
85.88643252048355
 20
137.44779083179
 30
0.0
 10
85.8408343302989
 20
137.412316173461
 30
0.0
 10
85.8200318406992
 20
137.3989459892834
 30
0.0
 10
85.76509084228007
 20
137.3693760771482
 30
0.0
 10
85.73702185419327
 20
137.3622495548462
 30
0.0
 10
85.66651902413044
 20
137.3553751833635
 30
0.0
 10
85.63509493633956
 20
137.3696903424507
 30
0.0
 10
85.60876986863096
 20
137.3890471444613
 30
0.0
  0
SPLINE
  5
A6
330
1F
100
AcDbEntity
  8
0
  6
Continuous
 62
     7
370
    15
100
AcDbSpline
210
0.0
220
0.0
230
1.0
 70
     8
 71
     3
 72
    10
 73
     6
 74
     0
 42
0.00000001
 43
0.00000001
 40
0.0
 40
0.0
 40
0.0
 40
0.0
 40
0.4999999999999989
 40
0.4999999999999989
 40
1.0
 40
1.0
 40
1.0
 40
1.0
 10
86.96795563691295
 20
138.9588491935783
 30
0.0
 10
86.84306736616274
 20
138.8278529155068
 30
0.0
 10
86.7216172481023
 20
138.6841400788418
 30
0.0
 10
86.49203327314487
 20
138.3735697861526
 30
0.0
 10
86.38175829774889
 20
138.2055007130895
 30
0.0
 10
86.29450787861536
 20
138.0334300922364
 30
0.0
  0
SPLINE
  5
A7
330
1F
100
AcDbEntity
  8
0
  6
Continuous
 62
     7
370
    15
100
AcDbSpline
210
0.0
220
0.0
230
1.0
 70
     8
 71
     3
 72
     8
 73
     4
 74
     0
 42
0.00000001
 43
0.00000001
 40
0.0
 40
0.0
 40
0.0
 40
0.0
 40
1.0
 40
1.0
 40
1.0
 40
1.0
 10
87.21788075287867
 20
138.9563961603228
 30
0.0
 10
87.13086272303032
 20
138.9568627251099
 30
0.0
 10
87.04790869665038
 20
138.9579027446861
 30
0.0
 10
86.96795563691063
 20
138.9588491935783
 30
0.0
  0
SPLINE
  5
A8
330
1F
100
AcDbEntity
  8
0
  6
Continuous
 62
     7
370
    15
100
AcDbSpline
210
0.0
220
0.0
230
1.0
 70
     8
 71
     3
 72
     8
 73
     4
 74
     0
 42
0.00000001
 43
0.00000001
 40
0.0
 40
0.0
 40
0.0
 40
0.0
 40
1.0
 40
1.0
 40
1.0
 40
1.0
 10
86.96795563691063
 20
74.46227878993818
 30
0.0
 10
87.04790869665091
 20
74.46322523883045
 30
0.0
 10
87.13086272303138
 20
74.46426525840657
 30
0.0
 10
87.21788075288036
 20
74.46473182319365
 30
0.0
  0
SPLINE
  5
A9
330
1F
100
AcDbEntity
  8
0
  6
Continuous
 62
     7
370
    15
100
AcDbSpline
210
0.0
220
0.0
230
1.0
 70
     8
 71
     3
 72
    10
 73
     6
 74
     0
 42
0.00000001
 43
0.00000001
 40
0.0
 40
0.0
 40
0.0
 40
0.0
 40
0.4999999999999989
 40
0.4999999999999989
 40
1.0
 40
1.0
 40
1.0
 40
1.0
 10
86.29450787861444
 20
75.38769789128186
 30
0.0
 10
86.38175829774791
 20
75.2156272704285
 30
0.0
 10
86.49203327314407
 20
75.04755819736505
 30
0.0
 10
86.72161724810191
 20
74.73698790467523
 30
0.0
 10
86.84306736616254
 20
74.59327506800996
 30
0.0
 10
86.96795563691295
 20
74.46227878993825
 30
0.0
  0
SPLINE
  5
AA
330
1F
100
AcDbEntity
  8
0
  6
Continuous
 62
     7
370
    15
100
AcDbSpline
210
0.0
220
0.0
230
1.0
 70
     8
 71
     3
 72
     8
 73
     4
 74
     0
 42
0.00000001
 43
0.00000001
 40
0.0
 40
0.0
 40
0.0
 40
0.0
 40
1.0
 40
1.0
 40
1.0
 40
1.0
 10
151.9559266159915
 20
145.6615267526452
 30
0.0
 10
152.4128529697911
 20
144.6456087829709
 30
0.0
 10
152.8640586115941
 20
143.6268129538797
 30
0.0
 10
153.3079556369129
 20
142.6060114978961
 30
0.0
  0
LINE
  5
AB
330
1F
100
AcDbEntity
  8
0
  6
Continuous
 62
     7
370
    15
100
AcDbLine
 10
153.3079556369
 20
142.6060114979
 30
0.0
 11
153.3079556369
 21
141.4247991843
 31
0.0
  0
SPLINE
  5
AC
330
1F
100
AcDbEntity
  8
0
  6
Continuous
 62
     7
370
    15
100
AcDbSpline
210
0.0
220
0.0
230
1.0
 70
     8
 71
     3
 72
    14
 73
    10
 74
     0
 42
0.00000001
 43
0.00000001
 40
0.0
 40
0.0
 40
0.0
 40
0.0
 40
0.25
 40
0.25
 40
0.5
 40
0.5
 40
0.75
 40
0.75
 40
1.0
 40
1.0
 40
1.0
 40
1.0
 10
153.3079556369129
 20
141.4247991842553
 30
0.0
 10
153.3079556369129
 20
141.3009323074661
 30
0.0
 10
153.3238147645405
 20
141.1766726306286
 30
0.0
 10
153.3871764100604
 20
140.9390642682227
 30
0.0
 10
153.4357661181098
 20
140.8222838834702
 30
0.0
 10
153.5680517228846
 20
140.6134813548612
 30
0.0
 10
153.6533765141452
 20
140.5189706512686
 30
0.0
 10
153.8602677624514
 20
140.3810138504664
 30
0.0
 10
153.9842357083414
 20
140.3390954048307
 30
0.0
 10
154.1079556369129
 20
140.3390954048307
 30
0.0
  0
LINE
  5
AD
330
1F
100
AcDbEntity
  8
0
  6
Continuous
 62
     7
370
    15
100
AcDbLine
 10
154.1079556369
 20
140.3390954048
 30
0.0
 11
156.3279556369
 21
140.3390954048
 31
0.0
  0
SPLINE
  5
AE
330
1F
100
AcDbEntity
  8
0
  6
Continuous
 62
     7
370
    15
100
AcDbSpline
210
0.0
220
0.0
230
1.0
 70
     8
 71
     3
 72
    12
 73
     8
 74
     0
 42
0.00000001
 43
0.00000001
 40
0.0
 40
0.0
 40
0.0
 40
0.0
 40
0.250000000000002
 40
0.250000000000002
 40
0.500000000000004
 40
0.500000000000004
 40
1.0
 40
1.0
 40
1.0
 40
1.0
 10
156.3279556369129
 20
140.3390954048307
 30
0.0
 10
156.4516565868929
 20
140.3390954048307
 30
0.0
 10
156.5757531991631
 20
140.3810890165633
 30
0.0
 10
156.7824083622501
 20
140.5188843432077
 30
0.0
 10
156.867449128977
 20
140.6128579416725
 30
0.0
 10
157.0669276974506
 20
140.9276461478935
 30
0.0
 10
157.127955636913
 20
141.177885140121
 30
0.0
 10
157.127955636913
 20
141.4247991842553
 30
0.0
  0
LINE
  5
AF
330
1F
100
AcDbEntity
  8
0
  6
Continuous
 62
     7
370
    15
100
AcDbLine
 10
157.1279556369
 20
141.4247991843
 30
0.0
 11
157.1279556369
 21
142.6060114979
 31
0.0
  0
SPLINE
  5
B0
330
1F
100
AcDbEntity
  8
0
  6
Continuous
 62
     7
370
    15
100
AcDbSpline
210
0.0
220
0.0
230
1.0
 70
     8
 71
     3
 72
     8
 73
     4
 74
     0
 42
0.00000001
 43
0.00000001
 40
0.0
 40
0.0
 40
0.0
 40
0.0
 40
1.0
 40
1.0
 40
1.0
 40
1.0
 10
157.127955636913
 20
142.6060114978961
 30
0.0
 10
157.5721056479384
 20
143.6273947288477
 30
0.0
 10
158.0231799581964
 20
144.6458792656161
 30
0.0
 10
158.4799846578343
 20
145.6615267526452
 30
0.0
  0
LINE
  5
B1
330
1F
100
AcDbEntity
  8
0
  6
Continuous
 62
     7
370
    15
100
AcDbLine
 10
158.4799846578
 20
145.6615267526
 30
0.0
 11
163.1679556369
 21
145.6615267526
 31
0.0
  0
SPLINE
  5
B2
330
1F
100
AcDbEntity
  8
0
  6
Continuous
 62
     7
370
    15
100
AcDbSpline
210
0.0
220
0.0
230
1.0
 70
     8
 71
     3
 72
    16
 73
    12
 74
     0
 42
0.00000001
 43
0.00000001
 40
0.0
 40
0.0
 40
0.0
 40
0.0
 40
0.1249999999999978
 40
0.1249999999999978
 40
0.2499999999999955
 40
0.2499999999999955
 40
0.499999999999997
 40
0.499999999999997
 40
0.7499999999999984
 40
0.7499999999999984
 40
1.0
 40
1.0
 40
1.0
 40
1.0
 10
163.167955636913
 20
145.6615267526452
 30
0.0
 10
163.2435933433241
 20
145.6615267526452
 30
0.0
 10
163.3199090077424
 20
145.6501817525103
 30
0.0
 10
163.4643197456343
 20
145.6075292018717
 30
0.0
 10
163.5327661947427
 20
145.5765948771889
 30
0.0
 10
163.7276974473559
 20
145.4573385054213
 30
0.0
 10
163.8355386211367
 20
145.3471864918007
 30
0.0
 10
164.0042513693488
 20
145.0990504061426
 30
0.0
 10
164.0666157820723
 20
144.9587080821389
 30
0.0
 10
164.1479197065807
 20
144.6704363906503
 30
0.0
 10
164.167955636913
 20
144.5196314176705
 30
0.0
 10
164.167955636913
 20
144.3692615263252
 30
0.0
  0
LINE
  5
B3
330
1F
100
AcDbEntity
  8
0
  6
Continuous
 62
     7
370
    15
100
AcDbLine
 10
164.1679556369
 20
144.3692615263
 30
0.0
 11
164.1679556369
 21
138.0605639918
 31
0.0
  0
SPLINE
  5
B4
330
1F
100
AcDbEntity
  8
0
  6
Continuous
 62
     7
370
    15
100
AcDbSpline
210
0.0
220
0.0
230
1.0
 70
     8
 71
     3
 72
     8
 73
     4
 74
     0
 42
0.00000001
 43
0.00000001
 40
0.0
 40
0.0
 40
0.0
 40
0.0
 40
1.0
 40
1.0
 40
1.0
 40
1.0
 10
153.3079556369129
 20
153.3078348524631
 30
0.0
 10
152.8576474012284
 20
154.1055499775768
 30
0.0
 10
152.4069535847048
 20
154.9030482772339
 30
0.0
 10
151.9559266159916
 20
155.7003588474218
 30
0.0
  0
LINE
  5
B5
330
1F
100
AcDbEntity
  8
0
  6
Continuous
 62
     7
370
    15
100
AcDbLine
 10
153.3079556369
 20
142.6060114979
 30
0.0
 11
153.3079556369
 21
153.3078348525
 31
0.0
  0
SPLINE
  5
B6
330
1F
100
AcDbEntity
  8
0
  6
Continuous
 62
     7
370
    15
100
AcDbSpline
210
0.0
220
0.0
230
1.0
 70
     8
 71
     3
 72
    12
 73
     8
 74
     0
 42
0.00000001
 43
0.00000001
 40
0.0
 40
0.0
 40
0.0
 40
0.0
 40
0.4999999999999953
 40
0.4999999999999953
 40
0.7499999999999977
 40
0.7499999999999977
 40
1.0
 40
1.0
 40
1.0
 40
1.0
 10
164.167955636913
 20
154.6793038126041
 30
0.0
 10
164.167955636913
 20
154.9445732453705
 30
0.0
 10
164.0633488934265
 20
155.2070883510229
 30
0.0
 10
163.7866805416812
 20
155.4926259570601
 30
0.0
 10
163.6763152823292
 20
155.5689475739215
 30
0.0
 10
163.4322432337135
 20
155.6732897387617
 30
0.0
 10
163.3004907723817
 20
155.7003588474218
 30
0.0
 10
163.167955636913
 20
155.7003588474218
 30
0.0
  0
LINE
  5
B7
330
1F
100
AcDbEntity
  8
0
  6
Continuous
 62
     7
370
    15
100
AcDbLine
 10
164.1679556369
 20
144.3692615263
 30
0.0
 11
164.1679556369
 21
154.6793038126
 31
0.0
  0
SPLINE
  5
B8
330
1F
100
AcDbEntity
  8
0
  6
Continuous
 62
     7
370
    15
100
AcDbSpline
210
0.0
220
0.0
230
1.0
 70
     8
 71
     3
 72
     8
 73
     4
 74
     0
 42
0.00000001
 43
0.00000001
 40
0.0
 40
0.0
 40
0.0
 40
0.0
 40
1.0
 40
1.0
 40
1.0
 40
1.0
 10
158.4799846578343
 20
155.7003588474218
 30
0.0
 10
158.0289576891211
 20
154.9030482772339
 30
0.0
 10
157.5782638725975
 20
154.1055499775768
 30
0.0
 10
157.127955636913
 20
153.3078348524631
 30
0.0
  0
LINE
  5
B9
330
1F
100
AcDbEntity
  8
0
  6
Continuous
 62
     7
370
    15
100
AcDbLine
 10
158.4799846578
 20
145.6615267526
 30
0.0
 11
158.4799846578
 21
155.7003588474
 31
0.0
  0
LINE
  5
BA
330
1F
100
AcDbEntity
  8
0
  6
Continuous
 62
     7
370
    15
100
AcDbLine
 10
157.1279556369
 20
142.6060114979
 30
0.0
 11
157.1279556369
 21
153.3078348525
 31
0.0
  0
SPLINE
  5
BB
330
1F
100
AcDbEntity
  8
0
  6
Continuous
 62
     7
370
    15
100
AcDbSpline
210
0.0
220
0.0
230
1.0
 70
     8
 71
     3
 72
    10
 73
     6
 74
     0
 42
0.00000001
 43
0.00000001
 40
0.0
 40
0.0
 40
0.0
 40
0.0
 40
0.5
 40
0.5
 40
1.0
 40
1.0
 40
1.0
 40
1.0
 10
154.1079556369129
 20
151.5848397519307
 30
0.0
 10
153.8954193230566
 20
151.5848397519307
 30
0.0
 10
153.6854831514026
 20
151.6762523385609
 30
0.0
 10
153.3917760103913
 20
151.9809972044651
 30
0.0
 10
153.3079556369129
 20
152.1931521743737
 30
0.0
 10
153.3079556369129
 20
152.4041152326062
 30
0.0
  0
SPLINE
  5
BC
330
1F
100
AcDbEntity
  8
0
  6
Continuous
 62
     7
370
    15
100
AcDbSpline
210
0.0
220
0.0
230
1.0
 70
     8
 71
     3
 72
    14
 73
    10
 74
     0
 42
0.00000001
 43
0.00000001
 40
0.0
 40
0.0
 40
0.0
 40
0.0
 40
0.25
 40
0.25
 40
0.5
 40
0.5
 40
0.75
 40
0.75
 40
1.0
 40
1.0
 40
1.0
 40
1.0
 10
157.127955636913
 20
152.4041152326062
 30
0.0
 10
157.127955636913
 20
152.2977585388539
 30
0.0
 10
157.1075680807717
 20
152.1919180510938
 30
0.0
 10
157.0289337353102
 20
151.9953531375573
 30
0.0
 10
156.9702023756715
 20
151.9041823952702
 30
0.0
 10
156.823593470069
 20
151.7522713062386
 30
0.0
 10
156.7341881500424
 20
151.690202469419
 30
0.0
 10
156.5402974174421
 20
151.6069344216603
 30
0.0
 10
156.4337924275523
 20
151.5848397519307
 30
0.0
 10
156.3279556369129
 20
151.5848397519306
 30
0.0
  0
LINE
  5
BD
330
1F
100
AcDbEntity
  8
0
  6
Continuous
 62
     7
370
    15
100
AcDbLine
 10
163.1679556369
 20
155.7003588474
 30
0.0
 11
158.4799846578
 21
155.7003588474
 31
0.0
  0
LINE
  5
BE
330
1F
100
AcDbEntity
  8
0
  6
Continuous
 62
     7
370
    15
100
AcDbLine
 10
156.3279556369
 20
151.5848397519
 30
0.0
 11
154.1079556369
 21
151.5848397519
 31
0.0
  0
ARC
  5
BF
330
1F
100
AcDbEntity
  8
0
  6
Continuous
 62
     7
370
    15
100
AcDbCircle
 10
144.2173452874
 20
139.2219197304
 30
0.0
 40
11.50331444617425
100
AcDbArc
 50
77.8954183428
 51
101.9535316326
  0
LINE
  5
C0
330
1F
100
AcDbEntity
  8
0
  6
Continuous
 62
     7
370
    15
100
AcDbLine
 10
86.9679556369
 20
74.4605639918
 30
0.0
 11
86.9679556369
 21
74.4622787899
 31
0.0
  0
SPLINE
  5
C1
330
1F
100
AcDbEntity
  8
0
  6
Continuous
 62
     7
370
    15
100
AcDbSpline
210
0.0
220
0.0
230
1.0
 70
     8
 71
     3
 72
    49
 73
    45
 74
     0
 42
0.00000001
 43
0.00000001
 40
-0.0453289120057859
 40
-0.0288496406631674
 40
-0.0137448999166613
 40
0.0
 40
0.016174930051845
 40
0.0341951114539007
 40
0.0540821746210252
 40
0.0758519784576427
 40
0.0995163878705274
 40
0.1250844199077898
 40
0.1502122363036166
 40
0.1736095456493553
 40
0.1952861273052835
 40
0.2152544869626823
 40
0.2335308377909188
 40
0.2501365530631893
 40
0.2850050262091338
 40
0.3265790049414214
 40
0.3749615561882159
 40
0.39703639479003
 40
0.4177011086868666
 40
0.436961129738259
 40
0.4548232786286948
 40
0.4712962209788729
 40
0.4863911248993653
 40
0.5001226324881586
 40
0.5342115554735076
 40
0.57577108688401
 40
0.6248974126761521
 40
0.6465640803625464
 40
0.6669596739971905
 40
0.6860901303059148
 40
0.7039627233113143
 40
0.720586455565412
 40
0.7359725999378384
 40
0.7501354635862408
 40
0.7849405197656116
 40
0.8264670213201823
 40
0.8748182531463247
 40
0.8968858172441626
 40
0.9175466010991794
 40
0.9368060714701633
 40
0.954671087994214
 40
0.9711503593368325
 40
0.9862551000833386
 40
0.9999999999999999
 40
1.016174930051845
 40
1.034195111453901
 40
1.054082174621025
 10
195.3367329450694
 20
102.4717877209918
 30
0.0
 10
195.7396927878434
 20
102.4542696025131
 30
0.0
 10
196.1688292618041
 20
102.476227785394
 30
0.0
 10
196.6467383429822
 20
102.5529208521042
 30
0.0
 10
197.1591957422534
 20
102.6994759499113
 30
0.0
 10
197.6931081824307
 20
102.9311703578134
 30
0.0
 10
198.2306525164314
 20
103.2621029557706
 30
0.0
 10
198.7324093661661
 20
103.6895588702293
 30
0.0
 10
199.1591493579062
 20
104.1887337720115
 30
0.0
 10
199.4884719180385
 20
104.7189918289434
 30
0.0
 10
199.7218894515225
 20
105.2495806636665
 30
0.0
 10
199.8716689308475
 20
105.7635048514278
 30
0.0
 10
199.9513568248122
 20
106.2480455978079
 30
0.0
 10
199.9844765890605
 20
106.8721994670744
 30
0.0
 10
199.8923177562324
 20
107.706845632785
 30
0.0
 10
199.5056836806828
 20
108.7611064714476
 30
0.0
 10
198.9085352323098
 20
109.5721976443396
 30
0.0
 10
198.3007175083968
 20
110.1015804661041
 30
0.0
 10
197.8413137330703
 20
110.4049262494703
 30
0.0
 10
197.3803999725521
 20
110.6323806261093
 30
0.0
 10
196.9302974267935
 20
110.7926114838871
 30
0.0
 10
196.5008084562748
 20
110.8949889673626
 30
0.0
 10
196.0990925491019
 20
110.9493281439125
 30
0.0
 10
195.5361560590705
 20
110.9738723374896
 30
0.0
 10
194.734527885073
 20
110.8870889242888
 30
0.0
 10
193.6792828841954
 20
110.5057589892954
 30
0.0
 10
192.8640315213605
 20
109.9086690497758
 30
0.0
 10
192.3334416799844
 20
109.3011884181781
 30
0.0
 10
192.0324163885706
 20
108.8487681646378
 30
0.0
 10
191.804276385391
 20
108.3919292966616
 30
0.0
 10
191.6416223550436
 20
107.9422627950738
 30
0.0
 10
191.5363123331074
 20
107.5092095944816
 30
0.0
 10
191.4796333017913
 20
107.0998462518979
 30
0.0
 10
191.454034801188
 20
106.5240259298258
 30
0.0
 10
191.5441892826535
 20
105.7122900078902
 30
0.0
 10
191.9306771677852
 20
104.6594158078657
 30
0.0
 10
192.5273679813467
 20
103.849002234155
 30
0.0
 10
193.1348382816583
 20
103.3198274124733
 30
0.0
 10
193.5941095159924
 20
103.016485218009
 30
0.0
 10
194.0549761306806
 20
102.7889735134467
 30
0.0
 10
194.5051277787804
 20
102.6286548590908
 30
0.0
 10
194.9347825734431
 20
102.5261953359844
 30
0.0
 10
195.3367329450694
 20
102.4717877209918
 30
0.0
 10
195.7396927878434
 20
102.4542696025131
 30
0.0
 10
196.1688292618041
 20
102.476227785394
 30
0.0
  0
SPLINE
  5
C2
330
1F
100
AcDbEntity
  8
0
  6
Continuous
 62
     7
370
    15
100
AcDbSpline
210
0.0
220
0.0
230
1.0
 70
     8
 71
     3
 72
    39
 73
    35
 74
     0
 42
0.00000001
 43
0.00000001
 40
-0.0928043551751273
 40
-0.0617048467358882
 40
-0.0305245298601122
 40
0.0
 40
0.030537953771286
 40
0.0617396733444306
 40
0.0928511562863619
 40
0.1239581635814537
 40
0.1551451718001425
 40
0.1867314500165853
 40
0.2185162744052328
 40
0.2499298363871428
 40
0.2813650559776855
 40
0.3132232878484308
 40
0.3448819419195426
 40
0.3761241187089447
 40
0.4072203283788162
 40
0.4382883502617104
 40
0.4694286048559637
 40
0.5000111438430792
 40
0.5305819932537645
 40
0.5617670451414779
 40
0.5928468450963279
 40
0.623963755631813
 40
0.6551794805646073
 40
0.6868189513443594
 40
0.7186229856217898
 40
0.750061496863887
 40
0.7814671780315849
 40
0.8132975981519868
 40
0.8449019848428347
 40
0.8761138750536822
 40
0.9071956448248726
 40
0.9382951532641117
 40
0.9694754701398877
 40
0.9999999999999999
 40
1.030537953771286
 40
1.06173967334443
 40
1.092851156286362
 10
196.6769660534602
 20
101.7713577910314
 30
0.0
 10
195.7178156817073
 20
101.6732719772983
 30
0.0
 10
194.7584450115404
 20
101.7714224886538
 30
0.0
 10
193.8380127521545
 20
102.0659967086459
 30
0.0
 10
192.9877318051173
 20
102.528395321792
 30
0.0
 10
192.2505659426342
 20
103.1513266250928
 30
0.0
 10
191.6449470885686
 20
103.9091283579871
 30
0.0
 10
191.1962834285484
 20
104.7801895243568
 30
0.0
 10
190.911186243781
 20
105.7246836008766
 30
0.0
 10
190.8167653605123
 20
106.7085281878722
 30
0.0
 10
190.9117641646405
 20
107.6930681479723
 30
0.0
 10
191.1972220091525
 20
108.6392378291737
 30
0.0
 10
191.6461373378754
 20
109.5125032383777
 30
0.0
 10
192.2521890542977
 20
110.2715178011698
 30
0.0
 10
192.9891157537036
 20
110.8946949487212
 30
0.0
 10
193.8382755300039
 20
111.3567300399979
 30
0.0
 10
194.7584435942915
 20
111.6502665538032
 30
0.0
 10
195.7181415693404
 20
111.7476991287585
 30
0.0
 10
196.6782830626189
 20
111.6500015214377
 30
0.0
 10
197.5987705675618
 20
111.3559487410956
 30
0.0
 10
198.4485837238891
 20
110.8934559863959
 30
0.0
 10
199.1852981580515
 20
110.2698900298386
 30
0.0
 10
199.7908463185603
 20
109.5108324077363
 30
0.0
 10
200.2391876616206
 20
108.6384158734148
 30
0.0
 10
200.5240995201925
 20
107.69285985078
 30
0.0
 10
200.6191345120046
 20
106.7089584382744
 30
0.0
 10
200.5248231186239
 20
105.7246608425348
 30
0.0
 10
200.2393380605518
 20
104.7796624649235
 30
0.0
 10
199.7902328743904
 20
103.9078070061774
 30
0.0
 10
199.1841623586572
 20
103.1500975599342
 30
0.0
 10
198.4468070668304
 20
102.5276071525626
 30
0.0
 10
197.5969529959843
 20
102.065705987381
 30
0.0
 10
196.6769660534602
 20
101.7713577910314
 30
0.0
 10
195.7178156817073
 20
101.6732719772983
 30
0.0
 10
194.7584450115404
 20
101.7714224886538
 30
0.0
  0
LINE
  5
C3
330
1F
100
AcDbEntity
  8
0
  6
Continuous
 62
     7
370
    15
100
AcDbLine
 10
204.4954210344
 20
89.2105639918
 30
0.0
 11
204.4954210344
 21
124.2105639918
 31
0.0
  0
LINE
  5
C4
330
1F
100
AcDbEntity
  8
0
  6
Continuous
 62
     7
370
    15
100
AcDbLine
 10
174.8293649943
 20
124.0648664094
 30
0.0
 11
174.9624889516
 21
124.054314465
 31
0.0
  0
SPLINE
  5
C5
330
1F
100
AcDbEntity
  8
0
  6
Continuous
 62
     7
370
    15
100
AcDbSpline
210
0.0
220
0.0
230
1.0
 70
     8
 71
     3
 72
    17
 73
    13
 74
     0
 42
0.00000001
 43
0.00000001
 40
0.0
 40
0.0
 40
0.0
 40
0.0
 40
0.0606112914698973
 40
0.1453894212149748
 40
0.2361936858518632
 40
0.3392241009762882
 40
0.4557099049916212
 40
0.5812041267552062
 40
0.7091061988464119
 40
0.8325178742702815
 40
0.9248681589885002
 40
1.0
 40
1.0
 40
1.0
 40
1.0
 10
180.6331018486121
 20
124.2054245440226
 30
0.0
 10
180.6323119249448
 20
124.2052734680994
 30
0.0
 10
180.6304171204948
 20
124.2049110794998
 30
0.0
 10
180.2786525005588
 20
124.1541260978287
 30
0.0
 10
179.6624542932298
 20
124.0774661096293
 30
0.0
 10
178.7553379234047
 20
123.9925159124623
 30
0.0
 10
177.6029585621903
 20
123.9371715211225
 30
0.0
 10
176.31938908282
 20
123.9480793372051
 30
0.0
 10
175.0989667885196
 20
124.0303537492262
 30
0.0
 10
174.2222916757213
 20
124.1312773162351
 30
0.0
 10
173.7336391975442
 20
124.2006414711702
 30
0.0
 10
173.7066173959044
 20
124.2048031221369
 30
0.0
 10
173.6944955190426
 20
124.206670022843
 30
0.0
  0
SPLINE
  5
C6
330
1F
100
AcDbEntity
  8
0
  6
Continuous
 62
     7
370
    15
100
AcDbSpline
210
0.0
220
0.0
230
1.0
 70
     8
 71
     3
 72
     9
 73
     5
 74
     0
 42
0.00000001
 43
0.00000001
 40
0.0
 40
0.0
 40
0.0
 40
0.0
 40
0.2142840594191928
 40
1.0
 40
1.0
 40
1.0
 40
1.0
 10
174.2437912485099
 20
124.1322459952755
 30
0.0
 10
174.2748069056338
 20
124.12808540707
 30
0.0
 10
174.4195477566706
 20
124.1086691788314
 30
0.0
 10
174.6490451963629
 20
124.0841396475915
 30
0.0
 10
174.8293649930516
 20
124.0648664038813
 30
0.0
  0
SPLINE
  5
C7
330
1F
100
AcDbEntity
  8
0
  6
Continuous
 62
     7
370
    15
100
AcDbSpline
210
0.0
220
0.0
230
1.0
 70
     8
 71
     3
 72
    68
 73
    64
 74
     0
 42
0.00000001
 43
0.00000001
 40
-0.0625
 40
-0.0625
 40
0.0
 40
0.0
 40
0.03125
 40
0.03125
 40
0.0625
 40
0.0625
 40
0.09375
 40
0.09375
 40
0.125
 40
0.125
 40
0.15625
 40
0.15625
 40
0.1875
 40
0.1875
 40
0.21875
 40
0.21875
 40
0.25
 40
0.25
 40
0.28125
 40
0.28125
 40
0.3125
 40
0.3125
 40
0.34375
 40
0.34375
 40
0.375
 40
0.375
 40
0.40625
 40
0.40625
 40
0.4375
 40
0.4375
 40
0.46875
 40
0.46875
 40
0.5
 40
0.5
 40
0.53125
 40
0.53125
 40
0.5625
 40
0.5625
 40
0.59375
 40
0.59375
 40
0.625
 40
0.625
 40
0.65625
 40
0.65625
 40
0.6875
 40
0.6875
 40
0.71875
 40
0.71875
 40
0.75
 40
0.75
 40
0.78125
 40
0.78125
 40
0.8125
 40
0.8125
 40
0.84375
 40
0.84375
 40
0.875
 40
0.875
 40
0.90625
 40
0.90625
 40
0.9375
 40
0.9375
 40
1.0
 40
1.0
 40
1.03125
 40
1.03125
 10
174.4902984991027
 20
108.6983096183798
 30
0.0
 10
174.998898241935
 20
109.0969163956812
 30
0.0
 10
175.1781576727635
 20
109.2119003595515
 30
0.0
 10
175.5542387868156
 20
109.4098221569159
 30
0.0
 10
175.7521142664135
 20
109.4930465806935
 30
0.0
 10
176.1611481825005
 20
109.6257565919436
 30
0.0
 10
176.3688772986579
 20
109.6743263577707
 30
0.0
 10
176.790461361363
 20
109.7376912289944
 30
0.0
 10
177.0059525687551
 20
109.7524219704134
 30
0.0
 10
177.4354473190957
 20
109.7467119787143
 30
0.0
 10
177.6475726168137
 20
109.7265921530247
 30
0.0
 10
178.0666780527641
 20
109.6524139357655
 30
0.0
 10
178.2751356784582
 20
109.597825332289
 30
0.0
 10
178.6796425621935
 20
109.454369398499
 30
0.0
 10
178.8732263618698
 20
109.3666803031622
 30
0.0
 10
179.24291670175
 20
109.1589118691374
 30
0.0
 10
179.4201765278566
 20
109.0379200197771
 30
0.0
 10
179.7499557179761
 20
108.7633048546835
 30
0.0
 10
179.899281553357
 20
108.6126903201727
 30
0.0
 10
180.1654900376449
 20
108.2835214048772
 30
0.0
 10
180.2835605893443
 20
108.1026560002196
 30
0.0
 10
180.4757982245254
 20
107.7187842464989
 30
0.0
 10
180.5488441396156
 20
107.5192866764516
 30
0.0
 10
180.6466582067149
 20
107.1044111248225
 30
0.0
 10
180.6708034435507
 20
106.8863451262144
 30
0.0
 10
180.6645522337529
 20
106.4587770154618
 30
0.0
 10
180.6349901242893
 20
106.2453845276802
 30
0.0
 10
180.5240601271572
 20
105.8277443795353
 30
0.0
 10
180.4445880976307
 20
105.6291902682975
 30
0.0
 10
180.2417676757058
 20
105.250768781393
 30
0.0
 10
180.1184497241653
 20
105.0722287379712
 30
0.0
 10
179.8412057221755
 20
104.7472868872368
 30
0.0
 10
179.6845458046959
 20
104.5976035780536
 30
0.0
 10
179.3481194570044
 20
104.331954737989
 30
0.0
 10
179.1690341380503
 20
104.2159338277534
 30
0.0
 10
178.7904524041112
 20
104.0151966092745
 30
0.0
 10
178.5905591902593
 20
103.9307932042465
 30
0.0
 10
178.1844931887663
 20
103.7980310722716
 30
0.0
 10
177.9766467588524
 20
103.7486872776835
 30
0.0
 10
177.5513364838504
 20
103.6838964592609
 30
0.0
 10
177.3354034262655
 20
103.6690036081118
 30
0.0
 10
176.9085572830805
 20
103.6739499773153
 30
0.0
 10
176.6959650015852
 20
103.6934971741815
 30
0.0
 10
176.2724922343133
 20
103.7678339828413
 30
0.0
 10
176.0631949970555
 20
103.8226939020104
 30
0.0
 10
175.6617107162187
 20
103.9645841686357
 30
0.0
 10
175.4676880536163
 20
104.0518687290744
 30
0.0
 10
175.0939457117969
 20
104.2614524013108
 30
0.0
 10
174.915220772928
 20
104.3837607959422
 30
0.0
 10
174.5888126704722
 20
104.6553199986776
 30
0.0
 10
174.4390389805792
 20
104.8055848507571
 30
0.0
 10
174.169456831715
 20
105.1386734907414
 30
0.0
 10
174.0509983712574
 20
105.3208889429593
 30
0.0
 10
173.8599457496717
 20
105.702963494211
 30
0.0
 10
173.7850168912114
 20
105.9077791885112
 30
0.0
 10
173.6876605921824
 20
106.3263339310387
 30
0.0
 10
173.6647181796575
 20
106.5386204638654
 30
0.0
 10
173.6719193874625
 20
106.9694077122019
 30
0.0
 10
173.7027756250608
 20
107.1850244435889
 30
0.0
 10
173.8138757546481
 20
107.5986248263289
 30
0.0
 10
173.8955783984788
 20
107.8014313448549
 30
0.0
 10
174.2013935936024
 20
108.3672448566794
 30
0.0
 10
174.4902984991027
 20
108.6983096183798
 30
0.0
 10
174.998898241935
 20
109.0969163956812
 30
0.0
  0
LINE
  5
C8
330
1F
100
AcDbEntity
  8
0
  6
Continuous
 62
     7
370
    15
100
AcDbLine
 10
174.8293649943
 20
89.3562615741
 30
0.0
 11
174.682744197
 21
89.3391282766
 31
0.0
  0
SPLINE
  5
C9
330
1F
100
AcDbEntity
  8
0
  6
Continuous
 62
     7
370
    15
100
AcDbSpline
210
0.0
220
0.0
230
1.0
 70
     8
 71
     3
 72
    17
 73
    13
 74
     0
 42
0.00000001
 43
0.00000001
 40
0.0
 40
0.0
 40
0.0
 40
0.0
 40
0.0475612281216825
 40
0.1322078467912296
 40
0.2215502593939317
 40
0.3224433928990774
 40
0.4369891405584921
 40
0.5614992962475107
 40
0.6894055454480698
 40
0.8140492059180592
 40
0.9085498959564314
 40
1.0
 40
1.0
 40
1.0
 40
1.0
 10
173.7095319322651
 20
89.21670605375897
 30
0.0
 10
173.7022622060738
 20
89.2156439582155
 30
0.0
 10
173.6820542576152
 20
89.21269160878228
 30
0.0
 10
173.9869263647962
 20
89.25727944583153
 30
0.0
 10
174.5581475270632
 20
89.33042492667059
 30
0.0
 10
175.4234156466913
 20
89.41643814588305
 30
0.0
 10
176.5421998137248
 20
89.47898348043215
 30
0.0
 10
177.8173766093473
 20
89.47984609388878
 30
0.0
 10
179.0616968994236
 20
89.40677573358587
 30
0.0
 10
179.9948172755796
 20
89.3052710704201
 30
0.0
 10
180.566962850877
 20
89.22589375392403
 30
0.0
 10
180.6304807978676
 20
89.21622562310161
 30
0.0
 10
180.6617187546056
 20
89.21147086217691
 30
0.0
  0
LINE
  5
CA
330
1F
100
AcDbEntity
  8
0
  6
Continuous
 62
     7
370
    15
100
AcDbLine
 10
175.0241733679
 20
89.3716135605
 30
0.0
 11
174.8293649937
 21
89.3562615797
 31
0.0
  0
CIRCLE
  5
CB
330
1F
100
AcDbEntity
  8
0
  6
Continuous
 62
     7
370
    15
100
AcDbCircle
 10
177.1679556369
 20
106.7105639918
 30
0.0
 40
2.5
  0
LINE
  5
CC
330
1F
100
AcDbEntity
  8
0
  6
Continuous
 62
     7
370
    15
100
AcDbLine
 10
86.9679556369
 20
138.9605639918
 30
0.0
 11
86.9679556369
 21
138.9588491936
 31
0.0
  0
LINE
  5
CD
330
1F
100
AcDbEntity
  8
0
  6
Continuous
 62
     7
370
    15
100
AcDbLine
 10
215.2179556369
 20
95.4847045134
 30
0.0
 11
215.2179556369
 21
117.9364095337
 31
0.0
  0
ARC
  5
CE
330
1F
100
AcDbEntity
  8
0
  6
HIDDEN
 62
     7
370
     0
100
AcDbCircle
 10
195.7179556369
 20
106.7105639918
 30
0.0
 40
5.000000000000012
100
AcDbArc
 50
336.6323225558
 51
33.9997732066
  0
LWPOLYLINE
  5
CF
330
1F
100
AcDbEntity
  8
0
  6
HIDDEN
 62
     7
370
     0
100
AcDbPolyline
 90
        3
 70
   128
 43
0.0
 10
195.6562671306
 20
101.7109445534
 10
196.462854405
 20
101.7663627595
 10
197.4028629967
 20
102.0030075992
  0
LWPOLYLINE
  5
D0
330
1F
100
AcDbEntity
  8
0
  6
HIDDEN
 62
     7
370
     0
100
AcDbPolyline
 90
        3
 70
   128
 43
0.0
 10
199.7807411979
 20
103.7961560784
 10
199.814687638
 20
103.8440701558
 10
200.3078482603
 20
104.7274135421
  0
CIRCLE
  5
D1
330
1F
100
AcDbEntity
  8
0
  6
HIDDEN
 62
     7
370
     0
100
AcDbCircle
 10
195.7179556369
 20
106.7105639918
 30
0.0
 40
2.499999999999992
  0
CIRCLE
  5
D2
330
1F
100
AcDbEntity
  8
0
  6
HIDDEN
 62
     7
370
     0
100
AcDbCircle
 10
195.7179556369
 20
106.7105639918
 30
0.0
 40
3.500000000000008
  0
LWPOLYLINE
  5
D3
330
1F
100
AcDbEntity
  8
0
  6
HIDDEN
 62
     7
370
     0
100
AcDbPolyline
 90
        3
 70
   128
 43
0.0
 10
215.1885107751
 20
112.2130263488
 10
215.2068326419
 20
112.608406209
 10
215.2179556369
 20
112.9253083162
  0
LWPOLYLINE
  5
D4
330
1F
100
AcDbEntity
  8
0
  6
HIDDEN
 62
     7
370
     0
100
AcDbPolyline
 90
       12
 70
   128
 43
0.0
 10
215.2179556369
 20
114.2852202619
 10
215.2068326419
 20
114.2017597447
 10
215.1885107751
 20
113.9376597881
 10
215.1701889083
 20
113.5422799279
 10
215.1546563796
 20
113.0758131636
 10
215.1442778757
 20
112.6092748316
 10
215.1406334298
 20
112.2136911637
 10
215.1442778757
 20
111.9492861875
 10
215.1546563796
 20
111.8563131636
 10
215.1701889083
 20
111.9489263922
 10
215.1885107751
 20
112.2130263488
 10
215.1885107751
 20
112.2130263488
  0
LWPOLYLINE
  5
D5
330
1F
100
AcDbEntity
  8
0
  6
HIDDEN
 62
     7
370
     0
100
AcDbPolyline
 90
       18
 70
   128
 43
0.0
 10
215.0266888797
 20
112.0191786813
 10
215.0479623015
 20
112.4736619474
 10
215.0663626299
 20
113.0100127636
 10
215.0794047985
 20
113.5557939801
 10
215.0853273901
 20
114.0372948193
 10
215.083330526
 20
114.3894859248
 10
215.0736838936
 20
114.5648019363
 10
215.0576903242
 20
114.539565455
 10
215.037509838
 20
114.3171848074
 10
215.0158679213
 20
113.9276937323
 10
214.9956874351
 20
113.4236951577
 10
214.9796938657
 20
112.8732568837
 10
214.9700472333
 20
112.3507186494
 10
214.9680503692
 20
111.9266521389
 10
214.9739729608
 20
111.6583298841
 10
214.9870151294
 20
111.5819902924
 10
215.0054154578
 20
111.7079434487
 10
215.0266888797
 20
112.0191786813
  0
LWPOLYLINE
  5
D6
330
1F
100
AcDbEntity
  8
0
  6
HIDDEN
 62
     7
370
     0
100
AcDbPolyline
 90
       18
 70
   128
 43
0.0
 10
209.6927510758
 20
112.1673677474
 10
209.7140244977
 20
112.6218510135
 10
209.732424826
 20
113.1582018297
 10
209.7454669946
 20
113.7039830462
 10
209.7513895862
 20
114.1854838854
 10
209.7493927221
 20
114.5376749909
 10
209.7397460897
 20
114.7129910024
 10
209.7237525204
 20
114.6877545211
 10
209.7035720341
 20
114.4653738735
 10
209.6819301174
 20
114.0758827984
 10
209.6617496312
 20
113.5718842238
 10
209.6457560618
 20
113.0214459498
 10
209.6361094295
 20
112.4989077156
 10
209.6341125653
 20
112.074841205
 10
209.6400351569
 20
111.8065189502
 10
209.6530773255
 20
111.7301793585
 10
209.6714776539
 20
111.8561325148
 10
209.6927510758
 20
112.1673677474
  0
LWPOLYLINE
  5
D7
330
1F
100
AcDbEntity
  8
0
  6
HIDDEN
 62
     7
370
     0
100
AcDbPolyline
 90
       17
 70
   128
 43
0.0
 10
209.1931365576
 20
112.534801579
 10
209.2081606387
 20
112.8590163065
 10
209.2208974396
 20
113.2415228783
 10
209.2294078979
 20
113.6240881362
 10
209.2323963734
 20
113.9484699877
 10
209.2294078979
 20
114.1652842363
 10
209.2208974396
 20
114.2415228783
 10
209.2081606387
 20
114.1655792714
 10
209.1931365576
 20
113.9490151414
 10
209.1781124766
 20
113.6248004138
 10
209.1653756757
 20
113.242293842
 10
209.1568652174
 20
112.8597285841
 10
209.1538767419
 20
112.5353467327
 10
209.1568652174
 20
112.318532484
 10
209.1653756757
 20
112.242293842
 10
209.1781124766
 20
112.3182374489
 10
209.1931365576
 20
112.534801579
  0
LINE
  5
D8
330
1F
100
AcDbEntity
  8
0
  6
HIDDEN
 62
     7
370
     0
100
AcDbLine
 10
215.2179556369
 20
113.9114505069
 30
0.0
 11
215.1885107751
 21
113.6877155042
 31
0.0
  0
LINE
  5
D9
330
1F
100
AcDbEntity
  8
0
  6
HIDDEN
 62
     7
370
     0
100
AcDbLine
 10
215.1590659133
 20
112.8516080657
 30
0.0
 11
215.1885107751
 21
113.6877155042
 31
0.0
  0
LINE
  5
DA
330
1F
100
AcDbEntity
  8
0
  6
HIDDEN
 62
     7
370
     0
100
AcDbLine
 10
215.1590659133
 20
112.23923563
 30
0.0
 11
215.1590659133
 21
112.8516080657
 31
0.0
  0
LINE
  5
DB
330
1F
100
AcDbEntity
  8
0
  6
HIDDEN
 62
     7
370
     0
100
AcDbLine
 10
215.1590659133
 20
112.23923563
 30
0.0
 11
215.1885107751
 21
112.4629706328
 31
0.0
  0
LINE
  5
DC
330
1F
100
AcDbEntity
  8
0
  6
HIDDEN
 62
     7
370
     0
100
AcDbLine
 10
215.2179556369
 20
113.2990780712
 30
0.0
 11
215.1885107751
 21
112.4629706328
 31
0.0
  0
LINE
  5
DD
330
1F
100
AcDbEntity
  8
0
  6
HIDDEN
 62
     7
370
     0
100
AcDbLine
 10
213.1606078408
 20
112.2947573939
 30
0.0
 11
213.1900527026
 21
112.5184923967
 31
0.0
  0
LINE
  5
DE
330
1F
100
AcDbEntity
  8
0
  6
HIDDEN
 62
     7
370
     0
100
AcDbLine
 10
213.1606078408
 20
112.2947573939
 30
0.0
 11
213.1606078408
 21
112.9071298296
 31
0.0
  0
LINE
  5
DF
330
1F
100
AcDbEntity
  8
0
  6
HIDDEN
 62
     7
370
     0
100
AcDbLine
 10
213.2194975644
 20
113.9669722708
 30
0.0
 11
213.1900527026
 21
113.7432372681
 31
0.0
  0
LINE
  5
E0
330
1F
100
AcDbEntity
  8
0
  6
HIDDEN
 62
     7
370
     0
100
AcDbLine
 10
213.2194975644
 20
113.3545998351
 30
0.0
 11
213.2194975644
 21
113.9669722708
 31
0.0
  0
LINE
  5
E1
330
1F
100
AcDbEntity
  8
0
  6
HIDDEN
 62
     7
370
     0
100
AcDbLine
 10
213.2194975644
 20
113.3545998351
 30
0.0
 11
213.1900527026
 21
112.5184923967
 31
0.0
  0
LINE
  5
E2
330
1F
100
AcDbEntity
  8
0
  6
HIDDEN
 62
     7
370
     0
100
AcDbLine
 10
213.1606078408
 20
112.9071298296
 30
0.0
 11
213.1900527026
 21
113.7432372681
 31
0.0
  0
LINE
  5
E3
330
1F
100
AcDbEntity
  8
0
  6
HIDDEN
 62
     7
370
     0
100
AcDbLine
 10
213.1606078408
 20
112.9071298296
 30
0.0
 11
215.1590659133
 21
112.8516080657
 31
0.0
  0
LINE
  5
E4
330
1F
100
AcDbEntity
  8
0
  6
HIDDEN
 62
     7
370
     0
100
AcDbLine
 10
213.1900527026
 20
113.7432372681
 30
0.0
 11
215.1885107751
 21
113.6877155042
 31
0.0
  0
LINE
  5
E5
330
1F
100
AcDbEntity
  8
0
  6
HIDDEN
 62
     7
370
     0
100
AcDbLine
 10
213.1900527026
 20
112.5184923967
 30
0.0
 11
215.1885107751
 21
112.4629706328
 31
0.0
  0
LINE
  5
E6
330
1F
100
AcDbEntity
  8
0
  6
HIDDEN
 62
     7
370
     0
100
AcDbLine
 10
213.1606078408
 20
112.2947573939
 30
0.0
 11
215.1590659133
 21
112.23923563
 31
0.0
  0
LINE
  5
E7
330
1F
100
AcDbEntity
  8
0
  6
HIDDEN
 62
     7
370
     0
100
AcDbLine
 10
213.2194975644
 20
113.3545998351
 30
0.0
 11
215.2179556369
 21
113.2990780712
 31
0.0
  0
LINE
  5
E8
330
1F
100
AcDbEntity
  8
0
  6
HIDDEN
 62
     7
370
     0
100
AcDbLine
 10
213.2194975644
 20
113.9669722708
 30
0.0
 11
215.2179556369
 21
113.9114505069
 31
0.0
  0
LWPOLYLINE
  5
E9
330
1F
100
AcDbEntity
  8
0
  6
HIDDEN
 62
     7
370
     0
100
AcDbPolyline
 90
       18
 70
   128
 43
0.0
 10
209.8026407961
 20
98.7465555923
 10
209.7885601691
 20
98.7039559634
 10
209.7694933766
 20
98.8626944603
 10
209.7480154947
 20
99.2013325693
 10
209.7270272302
 20
99.6741353373
 10
209.7093631647
 20
100.2172481308
 10
209.697408928
 20
100.7573205573
 10
209.692779006
 20
101.2214128431
 10
209.6960986954
 20
101.5468467533
 10
209.7069196537
 20
101.6896706352
 10
209.7237804506
 20
101.6305953319
 10
209.7444039419
 20
101.3775992906
 10
209.766004811
 20
100.9648510285
 10
209.7856657407
 20
100.4480944857
 10
209.8007314135
 20
99.8971204965
 10
209.8091671269
 20
99.3863411513
 10
209.809833591
 20
98.9847400311
 10
209.8026407961
 20
98.7465555923
  0
LWPOLYLINE
  5
EA
330
1F
100
AcDbEntity
  8
0
  6
HIDDEN
 62
     7
370
     0
100
AcDbPolyline
 90
       17
 70
   128
 43
0.0
 10
209.2860262791
 20
99.215402006
 10
209.2759261428
 20
99.1897427225
 10
209.2621874693
 20
99.3149714077
 10
209.246901847
 20
99.5720231295
 10
209.2323963734
 20
99.9217640934
 10
209.2208793753
 20
100.3109494081
 10
209.2141042113
 20
100.6803291373
 10
209.2131023387
 20
100.9736685658
 10
209.2180262835
 20
101.1463094247
 10
209.2281264197
 20
101.1719687082
 10
209.2418650933
 20
101.046740023
 10
209.2571507155
 20
100.7896883012
 10
209.2716561892
 20
100.4399473373
 10
209.2831731873
 20
100.0507620227
 10
209.2899483513
 20
99.6813822934
 10
209.2909502239
 20
99.3880428649
 10
209.2860262791
 20
99.215402006
  0
LWPOLYLINE
  5
EB
330
1F
100
AcDbEntity
  8
0
  6
HIDDEN
 62
     7
370
     0
100
AcDbPolyline
 90
       18
 70
   128
 43
0.0
 10
215.1365786
 20
98.8947446585
 10
215.122497973
 20
98.8521450296
 10
215.1034311805
 20
99.0108835264
 10
215.0819532986
 20
99.3495216354
 10
215.0609650341
 20
99.8223244035
 10
215.0433009686
 20
100.3654371969
 10
215.0313467319
 20
100.9055096234
 10
215.0267168099
 20
101.3696019092
 10
215.0300364993
 20
101.6950358195
 10
215.0408574576
 20
101.8378597013
 10
215.0577182545
 20
101.778784398
 10
215.0783417458
 20
101.5257883567
 10
215.0999426149
 20
101.1130400947
 10
215.1196035446
 20
100.5962835518
 10
215.1346692174
 20
100.0453095626
 10
215.1431049308
 20
99.5345302174
 10
215.1437713949
 20
99.1329290972
 10
215.1365786
 20
98.8947446585
  0
ARC
  5
EC
330
1F
100
AcDbEntity
  8
0
  6
HIDDEN
 62
     7
370
     0
100
AcDbCircle
 10
228.6909027804
 20
100.7029214974
 30
0.0
 40
13.5000097881927
100
AcDbArc
 50
176.3714903393
 51
186.6915291025
  0
LINE
  5
ED
330
1F
100
AcDbEntity
  8
0
  6
HIDDEN
 62
     7
370
     0
100
AcDbLine
 10
215.2768453606
 20
100.1236860043
 30
0.0
 11
215.2768453606
 21
99.5113135686
 31
0.0
  0
LINE
  5
EE
330
1F
100
AcDbEntity
  8
0
  6
HIDDEN
 62
     7
370
     0
100
AcDbLine
 10
213.2783872881
 20
100.0681642404
 30
0.0
 11
213.2783872881
 21
99.4557918047
 31
0.0
  0
LINE
  5
EF
330
1F
100
AcDbEntity
  8
0
  6
HIDDEN
 62
     7
370
     0
100
AcDbLine
 10
213.2783872881
 20
100.0681642404
 30
0.0
 11
213.2489424263
 21
100.9042716789
 31
0.0
  0
LINE
  5
F0
330
1F
100
AcDbEntity
  8
0
  6
HIDDEN
 62
     7
370
     0
100
AcDbLine
 10
213.2783872881
 20
100.0681642404
 30
0.0
 11
215.2768453606
 21
100.1236860043
 31
0.0
  0
LINE
  5
F1
330
1F
100
AcDbEntity
  8
0
  6
HIDDEN
 62
     7
370
     0
100
AcDbLine
 10
215.2768453606
 20
100.1236860043
 30
0.0
 11
215.2474004987
 21
100.9597934428
 31
0.0
  0
LINE
  5
F2
330
1F
100
AcDbEntity
  8
0
  6
HIDDEN
 62
     7
370
     0
100
AcDbLine
 10
213.2489424263
 20
100.9042716789
 30
0.0
 11
215.2474004987
 21
100.9597934428
 31
0.0
  0
LINE
  5
F3
330
1F
100
AcDbEntity
  8
0
  6
HIDDEN
 62
     7
370
     0
100
AcDbLine
 10
213.2489424263
 20
100.9042716789
 30
0.0
 11
213.2194975644
 21
101.1280066816
 31
0.0
  0
LINE
  5
F4
330
1F
100
AcDbEntity
  8
0
  6
HIDDEN
 62
     7
370
     0
100
AcDbLine
 10
215.2474004987
 20
100.9597934428
 30
0.0
 11
215.2179556369
 21
101.1835284455
 31
0.0
  0
LINE
  5
F5
330
1F
100
AcDbEntity
  8
0
  6
HIDDEN
 62
     7
370
     0
100
AcDbLine
 10
213.2489424263
 20
99.6795268075
 30
0.0
 11
215.2474004987
 21
99.7350485714
 31
0.0
  0
LINE
  5
F6
330
1F
100
AcDbEntity
  8
0
  6
HIDDEN
 62
     7
370
     0
100
AcDbLine
 10
213.2489424263
 20
99.6795268075
 30
0.0
 11
213.2783872881
 21
99.4557918047
 31
0.0
  0
LINE
  5
F7
330
1F
100
AcDbEntity
  8
0
  6
HIDDEN
 62
     7
370
     0
100
AcDbLine
 10
213.2783872881
 20
99.4557918047
 30
0.0
 11
215.2768453606
 21
99.5113135686
 31
0.0
  0
LINE
  5
F8
330
1F
100
AcDbEntity
  8
0
  6
HIDDEN
 62
     7
370
     0
100
AcDbLine
 10
215.2474004987
 20
99.7350485714
 30
0.0
 11
215.2768453606
 21
99.5113135686
 31
0.0
  0
LINE
  5
F9
330
1F
100
AcDbEntity
  8
0
  6
HIDDEN
 62
     7
370
     0
100
AcDbLine
 10
213.2194975644
 20
100.5156342459
 30
0.0
 11
215.2179556369
 21
100.5711560098
 31
0.0
  0
LINE
  5
FA
330
1F
100
AcDbEntity
  8
0
  6
HIDDEN
 62
     7
370
     0
100
AcDbLine
 10
213.2194975644
 20
101.1280066816
 30
0.0
 11
215.2179556369
 21
101.1835284455
 31
0.0
  0
LINE
  5
FB
330
1F
100
AcDbEntity
  8
0
  6
HIDDEN
 62
     7
370
     0
100
AcDbLine
 10
213.2194975644
 20
100.5156342459
 30
0.0
 11
213.2194975644
 21
101.1280066816
 31
0.0
  0
LINE
  5
FC
330
1F
100
AcDbEntity
  8
0
  6
HIDDEN
 62
     7
370
     0
100
AcDbLine
 10
213.2489424263
 20
99.6795268075
 30
0.0
 11
213.2194975644
 21
100.5156342459
 31
0.0
  0
LINE
  5
FD
330
1F
100
AcDbEntity
  8
0
  6
HIDDEN
 62
     7
370
     0
100
AcDbLine
 10
215.2474004987
 20
99.7350485714
 30
0.0
 11
215.2179556369
 21
100.5711560098
 31
0.0
  0
LINE
  5
FE
330
1F
100
AcDbEntity
  8
0
  6
HIDDEN
 62
     7
370
     0
100
AcDbLine
 10
151.955926616
 20
145.6615267526
 30
0.0
 11
151.955926616
 21
138.0605639918
 31
0.0
  0
SPLINE
  5
FF
330
1F
100
AcDbEntity
  8
0
  6
HIDDEN
 62
     7
370
     0
100
AcDbSpline
210
0.0
220
0.0
230
1.0
 70
     8
 71
     3
 72
    80
 73
    76
 74
     0
 42
0.00000001
 43
0.00000001
 40
-0.0312500000000003
 40
-0.0312500000000003
 40
0.0
 40
0.0
 40
0.03125
 40
0.03125
 40
0.046875
 40
0.046875
 40
0.0624999999999999
 40
0.0624999999999999
 40
0.0937499999999998
 40
0.0937499999999998
 40
0.1249999999999996
 40
0.1249999999999996
 40
0.1562499999999995
 40
0.1562499999999995
 40
0.1874999999999994
 40
0.1874999999999994
 40
0.2187499999999993
 40
0.2187499999999993
 40
0.2499999999999992
 40
0.2499999999999992
 40
0.2812499999999991
 40
0.2812499999999991
 40
0.3124999999999989
 40
0.3124999999999989
 40
0.3281249999999988
 40
0.3281249999999988
 40
0.3437499999999986
 40
0.3437499999999986
 40
0.3749999999999983
 40
0.3749999999999983
 40
0.4062499999999981
 40
0.4062499999999981
 40
0.4218749999999979
 40
0.4218749999999979
 40
0.4374999999999978
 40
0.4374999999999978
 40
0.4687499999999977
 40
0.4687499999999977
 40
0.4999999999999975
 40
0.4999999999999975
 40
0.5312499999999972
 40
0.5312499999999972
 40
0.562499999999997
 40
0.562499999999997
 40
0.5937499999999968
 40
0.5937499999999968
 40
0.6249999999999966
 40
0.6249999999999966
 40
0.6562499999999964
 40
0.6562499999999964
 40
0.6874999999999962
 40
0.6874999999999962
 40
0.7031249999999962
 40
0.7031249999999962
 40
0.7187499999999963
 40
0.7187499999999963
 40
0.7499999999999968
 40
0.7499999999999968
 40
0.7812499999999972
 40
0.7812499999999972
 40
0.7968749999999976
 40
0.7968749999999976
 40
0.8124999999999978
 40
0.8124999999999978
 40
0.8437499999999981
 40
0.8437499999999981
 40
0.8749999999999984
 40
0.8749999999999984
 40
0.9062499999999989
 40
0.9062499999999989
 40
0.9374999999999992
 40
0.9374999999999992
 40
0.9687499999999997
 40
0.9687499999999997
 40
1.0
 40
1.0
 40
1.03125
 40
1.03125
 10
144.5485009496892
 20
155.5701132482362
 30
0.0
 10
143.8874103241366
 20
155.5701132482362
 30
0.0
 10
143.562430194885
 20
155.5632151024094
 30
0.0
 10
143.0829567836386
 20
155.5426886744289
 30
0.0
 10
142.9244749657978
 20
155.5341324473414
 30
0.0
 10
142.6102554332935
 20
155.5134060721237
 30
0.0
 10
142.4541351496131
 20
155.5011787719174
 30
0.0
 10
142.0000811206565
 20
155.4596094780881
 30
0.0
 10
141.7129777377167
 20
155.4252651929903
 30
0.0
 10
141.1696231816896
 20
155.3419410686681
 30
0.0
 10
140.9125195704841
 20
155.2925028458936
 30
0.0
 10
140.4516133155453
 20
155.1811231161336
 30
0.0
 10
140.2447156063303
 20
155.1188286026215
 30
0.0
 10
139.8791902923381
 20
154.9788989597505
 30
0.0
 10
139.7239847702122
 20
154.9022830620015
 30
0.0
 10
139.4745543836125
 20
154.7383244421457
 30
0.0
 10
139.3784644278273
 20
154.64976758805
 30
0.0
 10
139.2499455786337
 20
154.4622869059442
 30
0.0
 10
139.2181347084559
 20
154.3650504444898
 30
0.0
 10
139.2177780586827
 20
154.1634178051627
 30
0.0
 10
139.2502753108797
 20
154.0578690133246
 30
0.0
 10
139.3779007845942
 20
153.8477542306361
 30
0.0
 10
139.4723291856461
 20
153.7426887226671
 30
0.0
 10
139.6601900056317
 20
153.5858110154161
 30
0.0
 10
139.7310180044349
 20
153.5333772817103
 30
0.0
 10
139.8857398964002
 20
153.4309388360806
 30
0.0
 10
139.9697163665836
 20
153.3807911074288
 30
0.0
 10
140.241040036228
 20
153.2337751509952
 30
0.0
 10
140.4475892548303
 20
153.1402873305608
 30
0.0
 10
140.9141993950194
 20
152.9645004729465
 30
0.0
 10
141.1665649646448
 20
152.8851219978628
 30
0.0
 10
141.5724663063235
 20
152.7796395603687
 30
0.0
 10
141.712366923801
 20
152.7467539955285
 30
0.0
 10
142.0015908590479
 20
152.6858385162999
 30
0.0
 10
142.1514303153372
 20
152.6577579446575
 30
0.0
 10
142.605546884948
 20
152.5829559026146
 30
0.0
 10
142.9171981036848
 20
152.5449178443685
 30
0.0
 10
143.5581945685972
 20
152.4933059178444
 30
0.0
 10
143.8897221965494
 20
152.4799919843229
 30
0.0
 10
144.5425132416208
 20
152.4798948979949
 30
0.0
 10
144.8670494466527
 20
152.4926829831559
 30
0.0
 10
145.5123188960691
 20
152.5441731727518
 30
0.0
 10
145.8280619022318
 20
152.5826977520719
 30
0.0
 10
146.4299511972155
 20
152.68160031493
 30
0.0
 10
146.720700428027
 20
152.742704412855
 30
0.0
 10
147.2676122197115
 20
152.8845138459657
 30
0.0
 10
147.5193895835484
 20
152.9638483305449
 30
0.0
 10
147.9807775761695
 20
153.1372270752064
 30
0.0
 10
148.1920468557676
 20
153.2323870199604
 30
0.0
 10
148.5553512081438
 20
153.4289595433363
 30
0.0
 10
148.7091578565866
 20
153.5307157717426
 30
0.0
 10
148.897777326184
 20
153.6875017345281
 30
0.0
 10
148.9538078123931
 20
153.7407557682781
 30
0.0
 10
149.0493815741293
 20
153.8465603298309
 30
0.0
 10
149.0891444911543
 20
153.8992133941864
 30
0.0
 10
149.1849162414664
 20
154.0562871136456
 30
0.0
 10
149.2176390805925
 20
154.1598121489727
 30
0.0
 10
149.2182676669216
 20
154.3640268831998
 30
0.0
 10
149.1860815221868
 20
154.4615307207846
 30
0.0
 10
149.0911708203312
 20
154.6008577711362
 30
0.0
 10
149.0517040369323
 20
154.6461745026407
 30
0.0
 10
148.9567740382114
 20
154.7346143236295
 30
0.0
 10
148.901017210448
 20
154.7778685740895
 30
0.0
 10
148.7130770924781
 20
154.9017600486795
 30
0.0
 10
148.559715622762
 20
154.9774623394536
 30
0.0
 10
148.1974513878816
 20
155.1167167109118
 30
0.0
 10
147.9866029144157
 20
155.1804785524405
 30
0.0
 10
147.5259329440968
 20
155.2919753919083
 30
0.0
 10
147.274558564513
 20
155.3405014642249
 30
0.0
 10
146.7286506776148
 20
155.4245554476054
 30
0.0
 10
146.4378281029636
 20
155.4593540012721
 30
0.0
 10
145.8365014881836
 20
155.5145504660359
 30
0.0
 10
145.5219829035712
 20
155.5353683147898
 30
0.0
 10
144.8754014474513
 20
155.5632156477005
 30
0.0
 10
144.5485009496892
 20
155.5701132482362
 30
0.0
 10
143.8874103241366
 20
155.5701132482362
 30
0.0
  0
LINE
  5
100
330
1F
100
AcDbEntity
  8
0
  6
HIDDEN
 62
     7
370
     0
100
AcDbLine
 10
115.6313803863
 20
69.9747576295
 30
0.0
 11
115.3614246855
 21
69.9508315302
 31
0.0
  0
SPLINE
  5
101
330
1F
100
AcDbEntity
  8
0
  6
HIDDEN
 62
     7
370
     0
100
AcDbSpline
210
0.0
220
0.0
230
1.0
 70
     8
 71
     3
 72
    13
 73
     9
 74
     0
 42
0.00000001
 43
0.00000001
 40
0.0
 40
0.0
 40
0.0
 40
0.0
 40
0.1247122447407212
 40
0.2490589432165421
 40
0.3740779474703908
 40
0.5009711379560823
 40
0.7521757810472769
 40
1.0
 40
1.0
 40
1.0
 40
1.0
 10
113.7372606546976
 20
143.6418700860088
 30
0.0
 10
113.7430472482607
 20
143.6410938393273
 30
0.0
 10
113.7546034742002
 20
143.6395436212345
 30
0.0
 10
113.8516138437905
 20
143.6273273426171
 30
0.0
 10
114.0069084096399
 20
143.6084005233076
 30
0.0
 10
114.2970954408366
 20
143.5744273659775
 30
0.0
 10
114.7846233690609
 20
143.517900965743
 30
0.0
 10
115.3503446388962
 20
143.4700952339209
 30
0.0
 10
115.6312891743839
 20
143.4463542861494
 30
0.0
  0
SPLINE
  5
102
330
1F
100
AcDbEntity
  8
0
  6
HIDDEN
 62
     7
370
     0
100
AcDbSpline
210
0.0
220
0.0
230
1.0
 70
     8
 71
     3
 72
     9
 73
     5
 74
     0
 42
0.00000001
 43
0.00000001
 40
0.0
 40
0.0
 40
0.0
 40
0.0
 40
0.6612086425810448
 40
0.9999999999999999
 40
0.9999999999999999
 40
0.9999999999999999
 40
0.9999999999999999
 10
125.471161292104
 20
138.0768862125053
 30
0.0
 10
125.7626624302868
 20
138.1206715623196
 30
0.0
 10
126.2035234829266
 20
138.1868917339789
 30
0.0
 10
126.1521090378286
 20
138.1790861861282
 30
0.0
 10
126.1346902681829
 20
138.1764417339764
 30
0.0
  0
SPLINE
  5
103
330
1F
100
AcDbEntity
  8
0
  6
HIDDEN
 62
     7
370
     0
100
AcDbSpline
210
0.0
220
0.0
230
1.0
 70
     8
 71
     3
 72
     9
 73
     5
 74
     0
 42
0.00000001
 43
0.00000001
 40
0.0
 40
0.0
 40
0.0
 40
0.0
 40
0.322474830666213
 40
0.9999999999999999
 40
0.9999999999999999
 40
0.9999999999999999
 40
0.9999999999999999
 10
126.1346899410449
 20
75.24468629293015
 30
0.0
 10
126.1533316964132
 20
75.24191832636393
 30
0.0
 10
126.2111401006529
 20
75.23333481440267
 30
0.0
 10
125.7700267140545
 20
75.29944825260077
 30
0.0
 10
125.471161292104
 20
75.34424177101118
 30
0.0
  0
SPLINE
  5
104
330
1F
100
AcDbEntity
  8
0
  6
HIDDEN
 62
     7
370
     0
100
AcDbSpline
210
0.0
220
0.0
230
1.0
 70
     8
 71
     3
 72
    15
 73
    11
 74
     0
 42
0.00000001
 43
0.00000001
 40
0.0
 40
0.0
 40
0.0
 40
0.0
 40
0.1285821516379736
 40
0.2571635483376876
 40
0.385323567199189
 40
0.5113778119466696
 40
0.6369260966772228
 40
0.7643185820319293
 40
0.8930603485208921
 40
1.0
 40
1.0
 40
1.0
 40
1.0
 10
125.471161292104
 20
75.34424177101118
 30
0.0
 10
125.0856391708638
 20
75.4060475615951
 30
0.0
 10
124.3145971918812
 20
75.52965877988558
 30
0.0
 10
122.5360393451246
 20
75.72040736389134
 30
0.0
 10
120.5422280496849
 20
75.80805480099667
 30
0.0
 10
118.5181901424502
 20
75.76114963829423
 30
0.0
 10
116.6900815754912
 20
75.60089943055272
 30
0.0
 10
115.2586503542121
 20
75.39972007267363
 30
0.0
 10
114.3547668767366
 20
75.2371783380269
 30
0.0
 10
114.2921829389804
 20
75.22477805132658
 30
0.0
 10
114.2637856875147
 20
75.21915146290307
 30
0.0
  0
SPLINE
  5
105
330
1F
100
AcDbEntity
  8
0
  6
HIDDEN
 62
     7
370
     0
100
AcDbSpline
210
0.0
220
0.0
230
1.0
 70
     8
 71
     3
 72
    16
 73
    12
 74
     0
 42
0.00000001
 43
0.00000001
 40
0.0
 40
0.0
 40
0.0
 40
0.0
 40
0.0205567982654305
 40
0.1461296737692548
 40
0.2720439921275847
 40
0.3999539720187822
 40
0.528504097482051
 40
0.655245546444081
 40
0.7805594897978894
 40
0.9070378665747952
 40
1.0
 40
1.0
 40
1.0
 40
1.0
 10
114.2637856875147
 20
138.2019765206134
 30
0.0
 10
114.2491184752318
 20
138.2047228972181
 30
0.0
 10
114.144855402824
 20
138.2242457388645
 30
0.0
 10
114.5956354136707
 20
138.1378711811075
 30
0.0
 10
115.6088745442455
 20
137.9667385791735
 30
0.0
 10
117.2032028622268
 20
137.7631977942362
 30
0.0
 10
119.1297022243613
 20
137.6308068282614
 30
0.0
 10
121.1761940249129
 20
137.6270106495707
 30
0.0
 10
123.0893534406359
 20
137.7497872222004
 30
0.0
 10
124.5740618260351
 20
137.9316020823218
 30
0.0
 10
125.2042100291695
 20
138.0336537912368
 30
0.0
 10
125.471161292104
 20
138.0768862125053
 30
0.0
  0
LINE
  5
106
330
1F
100
AcDbEntity
  8
0
  6
HIDDEN
 62
     7
370
     0
100
AcDbLine
 10
105.2145799639
 20
80.2105639918
 30
0.0
 11
105.2145799639
 21
133.2105639918
 31
0.0
  0
LINE
  5
107
330
1F
100
AcDbEntity
  8
0
  6
HIDDEN
 62
     7
370
     0
100
AcDbLine
 10
144.5020332553
 20
80.2105639918
 30
0.0
 11
144.5020332553
 21
133.2105639918
 31
0.0
  0
LINE
  5
108
330
1F
100
AcDbEntity
  8
0
  6
HIDDEN
 62
     7
370
     0
100
AcDbLine
 10
147.6679556369
 20
81.8355639918
 30
0.0
 11
147.6679556369
 21
131.5855639726
 31
0.0
  0
SPLINE
  5
109
330
1F
100
AcDbEntity
  8
0
  6
HIDDEN
 62
     7
370
     0
100
AcDbSpline
210
0.0
220
0.0
230
1.0
 70
     8
 71
     3
 72
    20
 73
    16
 74
     0
 42
0.00000001
 43
0.00000001
 40
0.0
 40
0.0
 40
0.0
 40
0.0
 40
0.2499999999999978
 40
0.2499999999999978
 40
0.3749999999999982
 40
0.3749999999999982
 40
0.4999999999999986
 40
0.4999999999999986
 40
0.6249999999999989
 40
0.6249999999999989
 40
0.7499999999999992
 40
0.7499999999999992
 40
0.8749999999999997
 40
0.8749999999999997
 40
1.0
 40
1.0
 40
1.0
 40
1.0
 10
95.41795563691294
 20
131.9390776221726
 30
0.0
 10
95.41795563691294
 20
131.8598746356403
 30
0.0
 10
95.3709731417002
 20
131.7787784172373
 30
0.0
 10
95.23315155092263
 20
131.6585817254864
 30
0.0
 10
95.17686926701265
 20
131.6196550214843
 30
0.0
 10
95.04378441554542
 20
131.54446628906
 30
0.0
 10
94.96594447331236
 20
131.507824083718
 30
0.0
 10
94.79331211719801
 20
131.4402335508861
 30
0.0
 10
94.69891912010695
 20
131.4092753691105
 30
0.0
 10
94.4934818137918
 20
131.3537509477408
 30
0.0
 10
94.38113557380461
 20
131.3290424339076
 30
0.0
 10
94.14889470990498
 20
131.2892462067994
 30
0.0
 10
94.02818406748226
 20
131.2738263694023
 30
0.0
 10
93.77711320821324
 20
131.2527463945627
 30
0.0
 10
93.64759121179745
 20
131.2472691495418
 30
0.0
 10
93.51795563691296
 20
131.2472691495418
 30
0.0
  0
LINE
  5
10A
330
1F
100
AcDbEntity
  8
0
  6
HIDDEN
 62
     7
370
     0
100
AcDbLine
 10
93.5179556369
 20
131.2472691495
 30
0.0
 11
86.9679556369
 21
131.2472691495
 31
0.0
  0
LINE
  5
10B
330
1F
100
AcDbEntity
  8
0
  6
HIDDEN
 62
     7
370
     0
100
AcDbLine
 10
86.9679556369
 20
82.173858834
 30
0.0
 11
98.5179556369
 21
82.173858834
 31
0.0
  0
SPLINE
  5
10C
330
1F
100
AcDbEntity
  8
0
  6
HIDDEN
 62
     7
370
     0
100
AcDbSpline
210
0.0
220
0.0
230
1.0
 70
     8
 71
     3
 72
    18
 73
    14
 74
     0
 42
0.00000001
 43
0.00000001
 40
0.0
 40
0.0
 40
0.0
 40
0.0
 40
0.1249999999999982
 40
0.1249999999999982
 40
0.2499999999999964
 40
0.2499999999999964
 40
0.4999999999999988
 40
0.4999999999999988
 40
0.7500000000000011
 40
0.7500000000000011
 40
0.8750000000000006
 40
0.8750000000000006
 40
1.0
 40
1.0
 40
1.0
 40
1.0
 10
98.51795563691293
 20
82.17385883397473
 30
0.0
 10
98.64742294987016
 20
82.17385883397473
 30
0.0
 10
98.77443369876679
 20
82.1685058353821
 30
0.0
 10
99.02379701996404
 20
82.14776786269331
 30
0.0
 10
99.14742067459248
 20
82.13209595843902
 30
0.0
 10
99.49645301152651
 20
82.07240123003693
 30
0.0
 10
99.70696477633331
 20
82.01463605035595
 30
0.0
 10
100.0508814540328
 20
81.88011420907846
 30
0.0
 10
100.1872318555506
 20
81.80244509557305
 30
0.0
 10
100.3242699121132
 20
81.6831539614857
 30
0.0
 10
100.3594889308261
 20
81.64223495235066
 30
0.0
 10
100.4061125077646
 20
81.56157895906063
 30
0.0
 10
100.417955636913
 20
81.52161043886777
 30
0.0
 10
100.4179556369129
 20
81.48205036134395
 30
0.0
  0
LINE
  5
10D
330
1F
100
AcDbEntity
  8
0
  6
HIDDEN
 62
     7
370
     0
100
AcDbLine
 10
86.9679556369
 20
82.173858834
 30
0.0
 11
86.9679556369
 21
131.2472691495
 31
0.0
  0
LWPOLYLINE
  5
10E
330
1F
100
AcDbEntity
  8
0
  6
HIDDEN
 62
     7
370
     0
100
AcDbPolyline
 90
       15
 70
   128
 43
0.0
 10
144.2179556369
 20
146.6542945551
 10
145.2244482374
 20
146.6959241699
 10
146.1897349125
 20
146.8191086933
 10
147.0742967124
 20
147.0188049363
 10
147.8419195731
 20
147.2868373112
 10
148.4611769244
 20
147.6122325411
 10
148.9067162976
 20
147.9816689071
 10
149.1602972586
 20
148.380021641
 10
149.2115381728
 20
148.790982135
 10
149.0583412312
 20
149.1977256182
 10
148.7069783348
 20
149.5835999646
 10
148.1718343216
 20
149.9328074332
 10
147.4748180505
 20
150.2310514291
 10
146.6444654496
 20
150.4661218081
 10
146.6295529488
 20
150.4694749068
  0
LWPOLYLINE
  5
10F
330
1F
100
AcDbEntity
  8
0
  6
HIDDEN
 62
     7
370
     0
100
AcDbPolyline
 90
       15
 70
   128
 43
0.0
 10
141.834798132
 20
150.4757951651
 10
141.7914458243
 20
150.4661218081
 10
140.9610932233
 20
150.2310514291
 10
140.2640769522
 20
149.9328074332
 10
139.7289329391
 20
149.5835999646
 10
139.3775700426
 20
149.1977256182
 10
139.2243731011
 20
148.790982135
 10
139.2756140153
 20
148.380021641
 10
139.5291949762
 20
147.9816689071
 10
139.9747343494
 20
147.6122325411
 10
140.5939917008
 20
147.2868373112
 10
141.3616145614
 20
147.0188049363
 10
142.2461763613
 20
146.8191086933
 10
143.2114630365
 20
146.6959241699
 10
144.2179556369
 20
146.6542945551
  0
LINE
  5
110
330
1F
100
AcDbEntity
  8
0
  6
HIDDEN
 62
     7
370
     0
100
AcDbLine
 10
86.9679556369
 20
79.3405639918
 30
0.0
 11
86.9679556369
 21
74.4622787899
 31
0.0
  0
SPLINE
  5
111
330
1F
100
AcDbEntity
  8
0
  6
HIDDEN
 62
     7
370
     0
100
AcDbSpline
210
0.0
220
0.0
230
1.0
 70
     8
 71
     3
 72
    83
 73
    79
 74
     0
 42
0.00000001
 43
0.00000001
 40
-0.0312500000000003
 40
-0.0312500000000003
 40
0.0
 40
0.0
 40
0.0312499999999993
 40
0.0312499999999993
 40
0.0468749999999993
 40
0.0468749999999993
 40
0.0624999999999993
 40
0.0624999999999993
 40
0.0937499999999992
 40
0.0937499999999992
 40
0.1249999999999991
 40
0.1249999999999991
 40
0.156249999999999
 40
0.156249999999999
 40
0.1874999999999989
 40
0.1874999999999989
 40
0.2187499999999988
 40
0.2187499999999988
 40
0.2343749999999988
 40
0.2343749999999988
 40
0.2499999999999987
 40
0.2656249999999987
 40
0.2656249999999987
 40
0.2812499999999986
 40
0.2812499999999986
 40
0.3124999999999985
 40
0.3124999999999985
 40
0.3281249999999985
 40
0.3281249999999985
 40
0.3437499999999984
 40
0.3437499999999984
 40
0.3593749999999984
 40
0.3593749999999984
 40
0.3749999999999983
 40
0.3749999999999983
 40
0.4062499999999982
 40
0.4062499999999982
 40
0.4374999999999981
 40
0.4374999999999981
 40
0.4687499999999981
 40
0.4687499999999981
 40
0.4999999999999979
 40
0.4999999999999979
 40
0.5312499999999978
 40
0.5312499999999978
 40
0.5624999999999977
 40
0.5624999999999977
 40
0.5781249999999977
 40
0.5781249999999977
 40
0.5937499999999977
 40
0.5937499999999977
 40
0.6249999999999977
 40
0.6249999999999977
 40
0.6562499999999978
 40
0.6562499999999978
 40
0.6874999999999978
 40
0.6874999999999978
 40
0.7031249999999978
 40
0.7031249999999978
 40
0.7187499999999978
 40
0.7187499999999978
 40
0.749999999999998
 40
0.749999999999998
 40
0.7812499999999982
 40
0.7812499999999982
 40
0.8124999999999984
 40
0.8124999999999984
 40
0.8437499999999987
 40
0.8437499999999987
 40
0.8749999999999989
 40
0.8749999999999989
 40
0.9062499999999992
 40
0.9062499999999992
 40
0.9374999999999994
 40
0.9374999999999994
 40
0.9687499999999997
 40
0.9687499999999997
 40
1.0
 40
1.0
 40
1.031249999999999
 40
1.031249999999999
 10
195.5828756983702
 20
101.401242592471
 30
0.0
 10
194.8530355754557
 20
101.401242592471
 30
0.0
 10
194.4937776179289
 20
101.4331432727168
 30
0.0
 10
193.9630616179607
 20
101.5272738023369
 30
0.0
 10
193.7875275103873
 20
101.5664217591519
 30
0.0
 10
193.439260211455
 20
101.6606924474599
 30
0.0
 10
193.2656313991021
 20
101.7161812646017
 30
0.0
 10
192.7576958843795
 20
101.9046325422311
 30
0.0
 10
192.4355224108242
 20
102.0591195019064
 30
0.0
 10
191.8238032367234
 20
102.4265899996263
 30
0.0
 10
191.5313076171821
 20
102.6425764387068
 30
0.0
 10
191.001332065092
 20
103.1223945109693
 30
0.0
 10
190.7627349235277
 20
103.3857603652093
 30
0.0
 10
190.3394231902135
 20
103.9615840570139
 30
0.0
 10
190.1543782991747
 20
104.2767706897519
 30
0.0
 10
189.8587795301132
 20
104.9289101877528
 30
0.0
 10
189.745286351124
 20
105.268949436964
 30
0.0
 10
189.6290919291876
 20
105.8013158362887
 30
0.0
 10
189.5997372735832
 20
105.9818416150231
 30
0.0
 10
189.5607864075589
 20
106.3411293328466
 30
0.0
 10
189.5410713245905
 20
106.7008549894863
 30
0.0
 10
189.5594434700852
 20
107.0614488276933
 30
0.0
 10
189.5973102772058
 20
107.4224865359621
 30
0.0
 10
189.6262052729985
 20
107.6035831167371
 30
0.0
 10
189.7401160045835
 20
108.1340863146128
 30
0.0
 10
189.852322426702
 20
108.4753451655475
 30
0.0
 10
190.0743745465968
 20
108.9690886093057
 30
0.0
 10
190.1577881529625
 20
109.1310438360621
 30
0.0
 10
190.3389435584834
 20
109.4417635892131
 30
0.0
 10
190.4370285820194
 20
109.5914355278807
 30
0.0
 10
190.6478021096235
 20
109.8798365178334
 30
0.0
 10
190.7604919672985
 20
110.0185643401383
 30
0.0
 10
191.0005181541395
 20
110.2851754867185
 30
0.0
 10
191.128505762905
 20
110.4135690054109
 30
0.0
 10
191.5272161338793
 20
110.7754354504914
 30
0.0
 10
191.8139037667875
 20
110.9878158992544
 30
0.0
 10
192.4277255691903
 20
111.3580780593073
 30
0.0
 10
192.7567107643645
 20
111.5159103368913
 30
0.0
 10
193.4295983118026
 20
111.7659983231928
 30
0.0
 10
193.7763725795097
 20
111.8603492954344
 30
0.0
 10
194.4908318500033
 20
111.9878480532116
 30
0.0
 10
194.8539940276735
 20
112.0196549968971
 30
0.0
 10
195.5740260868556
 20
112.0201132737448
 30
0.0
 10
195.9340613292612
 20
111.9892222178789
 30
0.0
 10
196.6515266030819
 20
111.8623556593732
 30
0.0
 10
196.9985910508264
 20
111.7682819057219
 30
0.0
 10
197.5022276322327
 20
111.5819670664654
 30
0.0
 10
197.6672604673514
 20
111.51227340434
 30
0.0
 10
197.9914891451534
 20
111.3571613575767
 30
0.0
 10
198.1515251411764
 20
111.271197088595
 30
0.0
 10
198.6142317677337
 20
110.9933044509776
 30
0.0
 10
198.900562030691
 20
110.7816337995518
 30
0.0
 10
199.4290735774044
 20
110.304284578557
 30
0.0
 10
199.6736702150845
 20
110.034845959706
 30
0.0
 10
200.0975367724306
 20
109.4579667286013
 30
0.0
 10
200.2782282022313
 20
109.1506515230198
 30
0.0
 10
200.5012658457742
 20
108.6600767197226
 30
0.0
 10
200.567890301008
 20
108.4904947099933
 30
0.0
 10
200.6822262993086
 20
108.1463588960853
 30
0.0
 10
200.7298622610362
 20
107.9724804878439
 30
0.0
 10
200.8448301479217
 20
107.4455080432088
 30
0.0
 10
200.8845462301084
 20
107.0870156054117
 30
0.0
 10
200.8860855345081
 20
106.3555518727145
 30
0.0
 10
200.8479013050692
 20
105.9966469326657
 30
0.0
 10
200.6970816361418
 20
105.2918251371483
 30
0.0
 10
200.5823560773082
 20
104.9427442360141
 30
0.0
 10
200.2873177463963
 20
104.2873088522525
 30
0.0
 10
200.107044744828
 20
103.9777799375252
 30
0.0
 10
199.6808491385954
 20
103.3944384154132
 30
0.0
 10
199.4401607444724
 20
103.1282147969033
 30
0.0
 10
198.9116284598901
 20
102.6481874784401
 30
0.0
 10
198.6196703855936
 20
102.4316550762586
 30
0.0
 10
198.0047886502913
 20
102.061250349009
 30
0.0
 10
197.6821242636475
 20
101.9064247557618
 30
0.0
 10
197.0068542695315
 20
101.6552110058838
 30
0.0
 10
196.6534422360581
 20
101.5594501653294
 30
0.0
 10
195.9432186017007
 20
101.4331911482044
 30
0.0
 10
195.5828756983702
 20
101.401242592471
 30
0.0
 10
194.8530355754557
 20
101.401242592471
 30
0.0
  0
LINE
  5
112
330
1F
100
AcDbEntity
  8
0
  6
HIDDEN
 62
     7
370
     0
100
AcDbLine
 10
100.4179556369
 20
79.3405639918
 30
0.0
 11
100.4179556369
 21
72.8412307264
 31
0.0
  0
LINE
  5
113
330
1F
100
AcDbEntity
  8
0
  6
HIDDEN
 62
     7
370
     0
100
AcDbLine
 10
95.4179556369
 20
134.0805639918
 30
0.0
 11
95.4179556369
 21
140.4551727287
 31
0.0
  0
LINE
  5
114
330
1F
100
AcDbEntity
  8
0
  6
HIDDEN
 62
     7
370
     0
100
AcDbLine
 10
86.9679556369
 20
134.0805639918
 30
0.0
 11
86.9679556369
 21
138.9588491936
 31
0.0
  0
LINE
  5
115
330
1F
100
AcDbEntity
  8
0
  6
HIDDEN
 62
     7
370
     0
100
AcDbLine
 10
159.5179556369
 20
93.7105639918
 30
0.0
 11
159.5179556369
 21
119.7105639918
 31
0.0
  0
LINE
  5
116
330
1F
100
AcDbEntity
  8
0
  6
HIDDEN
 62
     7
370
     0
100
AcDbLine
 10
163.5179556369
 20
93.7105639918
 30
0.0
 11
163.5179556369
 21
119.7105639918
 31
0.0
  0
LINE
  5
117
330
1F
100
AcDbEntity
  8
0
  6
HIDDEN
 62
     7
370
     0
100
AcDbLine
 10
148.4179556369
 20
95.4605639918
 30
0.0
 11
148.4179556369
 21
117.9605639918
 31
0.0
  0
ELLIPSE
  5
118
330
1F
100
AcDbEntity
  8
0
  6
HIDDEN
 62
     7
370
     0
100
AcDbEllipse
 10
79.0332824366
 20
106.7105639918
 30
0.0
 11
31.08108570811662
 21
-1.421085471520200E-14
 31
0.0
210
0.0
220
0.0
230
1.0
 40
0.8164965809
 41
4.915995335118103
 42
4.970536038964788
  0
ELLIPSE
  5
119
330
1F
100
AcDbEntity
  8
0
  6
HIDDEN
 62
     7
370
     0
100
AcDbEllipse
 10
79.0332824366
 20
106.7105639918
 30
0.0
 11
31.08108570811662
 21
1.421085471520200E-14
 31
0.0
210
0.0
220
0.0
230
1.0
 40
0.8164965809
 41
1.312649268214811
 42
1.367189972061495
  0
LINE
  5
11A
330
1F
100
AcDbEntity
  8
0
  6
HIDDEN
 62
     7
370
     0
100
AcDbLine
 10
164.1679556369
 20
62.8105639918
 30
0.0
 11
150.1679556369
 21
62.8105639918
 31
0.0
  0
LINE
  5
11B
330
1F
100
AcDbEntity
  8
0
  6
HIDDEN
 62
     7
370
     0
100
AcDbLine
 10
140.1679556369
 20
56.720564992
 30
0.0
 11
140.1679556369
 21
62.8105639918
 31
0.0
  0
LINE
  5
11C
330
1F
100
AcDbEntity
  8
0
  6
HIDDEN
 62
     7
370
     0
100
AcDbLine
 10
150.1679556369
 20
62.8105639918
 30
0.0
 11
140.1679556369
 21
62.8105639918
 31
0.0
  0
SPLINE
  5
11D
330
1F
100
AcDbEntity
  8
0
  6
HIDDEN
 62
     7
370
     0
100
AcDbSpline
210
0.0
220
0.0
230
1.0
 70
     8
 71
     3
 72
    14
 73
    10
 74
     0
 42
0.00000001
 43
0.00000001
 40
0.0
 40
0.0
 40
0.0
 40
0.0
 40
0.25
 40
0.25
 40
0.5
 40
0.5
 40
0.75
 40
0.75
 40
1.0
 40
1.0
 40
1.0
 40
1.0
 10
175.2670693951488
 20
98.08695799830674
 30
0.0
 10
175.3040954123202
 20
98.12004988334421
 30
0.0
 10
175.3364628143018
 20
98.16052191820923
 30
0.0
 10
175.3812906869465
 20
98.26087220473477
 30
0.0
 10
175.3921812582051
 20
98.31891346309648
 30
0.0
 10
175.3835038190297
 20
98.45067467438822
 30
0.0
 10
175.3639545277788
 20
98.52225342254526
 30
0.0
 10
175.3057570433077
 20
98.67027727976458
 30
0.0
 10
175.2682709628636
 20
98.74543396242636
 30
0.0
 10
175.2275267661138
 20
98.82234795719255
 30
0.0
  0
SPLINE
  5
11E
330
1F
100
AcDbEntity
  8
0
  6
HIDDEN
 62
     7
370
     0
100
AcDbSpline
210
0.0
220
0.0
230
1.0
 70
     8
 71
     3
 72
    14
 73
    10
 74
     0
 42
0.00000001
 43
0.00000001
 40
0.0
 40
0.0
 40
0.0
 40
0.0
 40
0.25
 40
0.25
 40
0.5
 40
0.5
 40
0.75
 40
0.75
 40
1.0
 40
1.0
 40
1.0
 40
1.0
 10
175.2275267661138
 20
98.82234795719245
 30
0.0
 10
175.1939780496206
 20
98.78593500991806
 30
0.0
 10
175.1616923206963
 20
98.75070219358604
 30
0.0
 10
175.1087475410092
 20
98.67084739492248
 30
0.0
 10
175.0877428020253
 20
98.62429392274822
 30
0.0
 10
175.0983876628029
 20
98.48497001935976
 30
0.0
 10
175.1274239280594
 20
98.4016869022007
 30
0.0
 10
175.1917786218984
 20
98.24286630025055
 30
0.0
 10
175.2287146811138
 20
98.16422162772321
 30
0.0
 10
175.2670693951484
 20
98.08695799830481
 30
0.0
  0
SPLINE
  5
11F
330
1F
100
AcDbEntity
  8
0
  6
HIDDEN
 62
     7
370
     0
100
AcDbSpline
210
0.0
220
0.0
230
1.0
 70
     8
 71
     3
 72
    48
 73
    44
 74
     0
 42
0.00000001
 43
0.00000001
 40
-0.0625000000000001
 40
-0.0625000000000001
 40
0.0
 40
0.0
 40
0.03125
 40
0.03125
 40
0.0625
 40
0.0625
 40
0.124999999999999
 40
0.124999999999999
 40
0.187499999999998
 40
0.187499999999998
 40
0.2499999999999967
 40
0.2499999999999967
 40
0.3124999999999954
 40
0.3124999999999954
 40
0.3437499999999954
 40
0.3437499999999954
 40
0.3749999999999954
 40
0.3749999999999954
 40
0.4062499999999954
 40
0.4062499999999954
 40
0.4374999999999954
 40
0.4374999999999954
 40
0.4999999999999959
 40
0.4999999999999959
 40
0.5624999999999964
 40
0.5624999999999964
 40
0.624999999999997
 40
0.624999999999997
 40
0.6874999999999976
 40
0.6874999999999976
 40
0.7499999999999981
 40
0.7499999999999981
 40
0.8124999999999986
 40
0.8124999999999986
 40
0.8437499999999989
 40
0.8437499999999989
 40
0.8749999999999992
 40
0.8749999999999992
 40
0.9062499999999996
 40
0.9062499999999996
 40
0.9374999999999999
 40
0.9374999999999999
 40
1.0
 40
1.0
 40
1.03125
 40
1.03125
 10
177.3487456142645
 20
98.0440268487543
 30
0.0
 10
177.4708134447815
 20
98.04741817397617
 30
0.0
 10
177.5092757746991
 20
98.05586498992245
 30
0.0
 10
177.5794252504656
 20
98.08813985397667
 30
0.0
 10
177.6114423832408
 20
98.1124126114425
 30
0.0
 10
177.6901779701584
 20
98.20923527296377
 30
0.0
 10
177.7199063709793
 20
98.30838491069873
 30
0.0
 10
177.7157946169492
 20
98.55730671246849
 30
0.0
 10
177.6817485242837
 20
98.707908159563
 30
0.0
 10
177.570382365759
 20
99.01682333009151
 30
0.0
 10
177.4939834421684
 20
99.17558320971735
 30
0.0
 10
177.330810261904
 20
99.48335445655562
 30
0.0
 10
177.2421707958885
 20
99.6340919894658
 30
0.0
 10
177.1329566951595
 20
99.8520172029883
 30
0.0
 10
177.1000351474476
 20
99.92517286268075
 30
0.0
 10
177.0555844344478
 20
100.0647095063265
 30
0.0
 10
177.0443516160238
 20
100.1327101416951
 30
0.0
 10
177.0511394144477
 20
100.2526436532062
 30
0.0
 10
177.0688863777333
 20
100.3060623878611
 30
0.0
 10
177.1210369042061
 20
100.3942094661907
 30
0.0
 10
177.1554100686732
 20
100.430331652275
 30
0.0
 10
177.2673567293712
 20
100.5164310026258
 30
0.0
 10
177.3528407065247
 20
100.5455280200201
 30
0.0
 10
177.5109921844251
 20
100.5490666154548
 30
0.0
 10
177.58323705986
 20
100.5231017619746
 30
0.0
 10
177.688927116245
 20
100.4014046980273
 30
0.0
 10
177.7194261620033
 20
100.3045559387996
 30
0.0
 10
177.7163697860853
 20
100.0554068683324
 30
0.0
 10
177.6824471356909
 20
99.90247154546563
 30
0.0
 10
177.5724817080928
 20
99.58959064929935
 30
0.0
 10
177.4973264426999
 20
99.42863472724011
 30
0.0
 10
177.3385665129535
 20
99.11913226503609
 30
0.0
 10
177.2519217923118
 20
98.96625379850525
 30
0.0
 10
177.1434516578661
 20
98.74763018301334
 30
0.0
 10
177.1105020912153
 20
98.67548319722815
 30
0.0
 10
177.061712551455
 20
98.53313518736634
 30
0.0
 10
177.0471209573313
 20
98.46484653544537
 30
0.0
 10
177.0471027204998
 20
98.33976577345607
 30
0.0
 10
177.061784947459
 20
98.28490421797548
 30
0.0
 10
177.1117973234836
 20
98.19295819452803
 30
0.0
 10
177.1457836295144
 20
98.15663962945563
 30
0.0
 10
177.2600811981069
 20
98.0701665405166
 30
0.0
 10
177.3487456142645
 20
98.0440268487543
 30
0.0
 10
177.4708134447815
 20
98.04741817397617
 30
0.0
  0
SPLINE
  5
120
330
1F
100
AcDbEntity
  8
0
  6
HIDDEN
 62
     7
370
     0
100
AcDbSpline
210
0.0
220
0.0
230
1.0
 70
     8
 71
     3
 72
    38
 73
    34
 74
     0
 42
0.00000001
 43
0.00000001
 40
0.0
 40
0.0
 40
0.0
 40
0.0
 40
0.0625
 40
0.0625
 40
0.125
 40
0.125
 40
0.1875
 40
0.1875
 40
0.25
 40
0.25
 40
0.3125
 40
0.3125
 40
0.375
 40
0.375
 40
0.4375
 40
0.4375
 40
0.5
 40
0.5
 40
0.5625
 40
0.5625
 40
0.625
 40
0.625
 40
0.6875
 40
0.6875
 40
0.75
 40
0.75
 40
0.8125
 40
0.8125
 40
0.875
 40
0.875
 40
0.9375
 40
0.9375
 40
1.0
 40
1.0
 40
1.0
 40
1.0
 10
177.3231816187931
 20
103.7492492830359
 30
0.0
 10
177.2213919361998
 20
103.8429822169227
 30
0.0
 10
177.1058556847962
 20
103.9242626654425
 30
0.0
 10
176.8469707543925
 20
104.0585645794614
 30
0.0
 10
176.7068274281137
 20
104.1093710437838
 30
0.0
 10
176.4143413203131
 20
104.1718038883025
 30
0.0
 10
176.2616571888315
 20
104.1830645650073
 30
0.0
 10
175.9620891484278
 20
104.1636266319016
 30
0.0
 10
175.8123477950977
 20
104.1326286406429
 30
0.0
 10
175.5338761115422
 20
104.0348772155885
 30
0.0
 10
175.4016156532869
 20
103.9669817859086
 30
0.0
 10
175.1688241907982
 20
103.8065753030203
 30
0.0
 10
175.0649912523982
 20
103.7118578446402
 30
0.0
 10
174.8968070522319
 20
103.5103225676983
 30
0.0
 10
174.8301055148478
 20
103.4008053666514
 30
0.0
 10
174.7411448376114
 20
103.1814787753638
 30
0.0
 10
174.7180416210176
 20
103.0702098720753
 30
0.0
 10
174.7178701371866
 20
102.8567917883194
 30
0.0
 10
174.7404767592486
 20
102.75555021727
 30
0.0
 10
174.8298273523418
 20
102.5687731381898
 30
0.0
 10
174.8949431981846
 20
102.485798982844
 30
0.0
 10
175.0650291419866
 20
102.338475585162
 30
0.0
 10
175.1661912923807
 20
102.2772559254238
 30
0.0
 10
175.4009232591703
 20
102.1750916397631
 30
0.0
 10
175.5308227614583
 20
102.1359897348421
 30
0.0
 10
175.8100522616093
 20
102.0797230822085
 30
0.0
 10
175.9588273035596
 20
102.0629187699699
 30
0.0
 10
176.2583487786613
 20
102.0519910140213
 30
0.0
 10
176.4116877331544
 20
102.0578895217923
 30
0.0
 10
176.7035532477615
 20
102.092109631587
 30
0.0
 10
176.845806900182
 20
102.1209104922246
 30
0.0
 10
177.1030519005434
 20
102.2003696382995
 30
0.0
 10
177.2213750637637
 20
102.2518823747023
 30
0.0
 10
177.3231816187931
 20
102.3150418161909
 30
0.0
  0
SPLINE
  5
121
330
1F
100
AcDbEntity
  8
0
  6
HIDDEN
 62
     7
370
     0
100
AcDbSpline
210
0.0
220
0.0
230
1.0
 70
     8
 71
     3
 72
     8
 73
     4
 74
     0
 42
0.00000001
 43
0.00000001
 40
0.0
 40
0.0
 40
0.0
 40
0.0
 40
1.0
 40
1.0
 40
1.0
 40
1.0
 10
177.3231816187931
 20
102.3150418161909
 30
0.0
 10
177.372874853256
 20
102.3458708422151
 30
0.0
 10
177.4185206314699
 20
102.3858339808272
 30
0.0
 10
177.4599896761234
 20
102.4329560564438
 30
0.0
  0
SPLINE
  5
122
330
1F
100
AcDbEntity
  8
0
  6
HIDDEN
 62
     7
370
     0
100
AcDbSpline
210
0.0
220
0.0
230
1.0
 70
     8
 71
     3
 72
    12
 73
     8
 74
     0
 42
0.00000001
 43
0.00000001
 40
0.0
 40
0.0
 40
0.0
 40
0.0
 40
0.25
 40
0.25
 40
0.5
 40
0.5
 40
1.0
 40
1.0
 40
1.0
 40
1.0
 10
177.4599896761234
 20
102.4329560564438
 30
0.0
 10
177.5439737894114
 20
102.5283888249102
 30
0.0
 10
177.6078230442229
 20
102.6271174419257
 30
0.0
 10
177.6955719835596
 20
102.8344080592722
 30
0.0
 10
177.7178201402283
 20
102.9402334202682
 30
0.0
 10
177.7182247790048
 20
103.2556882849551
 30
0.0
 10
177.627952798452
 20
103.4624405596099
 30
0.0
 10
177.4599896761234
 20
103.6223688909486
 30
0.0
  0
SPLINE
  5
123
330
1F
100
AcDbEntity
  8
0
  6
HIDDEN
 62
     7
370
     0
100
AcDbSpline
210
0.0
220
0.0
230
1.0
 70
     8
 71
     3
 72
    12
 73
     8
 74
     0
 42
0.00000001
 43
0.00000001
 40
0.0
 40
0.0
 40
0.0
 40
0.0
 40
0.4999999999999991
 40
0.4999999999999991
 40
0.7499999999999996
 40
0.7499999999999996
 40
1.0
 40
1.0
 40
1.0
 40
1.0
 10
175.2275267661138
 20
100.4154899168982
 30
0.0
 10
175.3089009293232
 20
100.3630553899101
 30
0.0
 10
175.3787504028083
 20
100.2768751026112
 30
0.0
 10
175.3922913052743
 20
100.0904189294677
 30
0.0
 10
175.3813397756082
 20
100.0221682090817
 30
0.0
 10
175.336490141717
 20
99.87738394443794
 30
0.0
 10
175.3041025268059
 20
99.80360330399208
 30
0.0
 10
175.2670693951488
 20
99.72757700052753
 30
0.0
  0
SPLINE
  5
124
330
1F
100
AcDbEntity
  8
0
  6
HIDDEN
 62
     7
370
     0
100
AcDbSpline
210
0.0
220
0.0
230
1.0
 70
     8
 71
     3
 72
    14
 73
    10
 74
     0
 42
0.00000001
 43
0.00000001
 40
0.0
 40
0.0
 40
0.0
 40
0.0
 40
0.25
 40
0.25
 40
0.5
 40
0.5
 40
0.75
 40
0.75
 40
1.0
 40
1.0
 40
1.0
 40
1.0
 10
175.2670693951488
 20
99.7275770005276
 30
0.0
 10
175.2285658846347
 20
99.76050787950346
 30
0.0
 10
175.1914529609946
 20
99.79168564281974
 30
0.0
 10
175.1268711827777
 20
99.8603073741474
 30
0.0
 10
175.0981255885
 20
99.89761629180444
 30
0.0
 10
175.0878882843245
 20
100.0196059089119
 30
0.0
 10
175.1092209346032
 20
100.1015336222432
 30
0.0
 10
175.1620952148513
 20
100.2588602402259
 30
0.0
 10
175.194138798596
 20
100.3377379958214
 30
0.0
 10
175.2275267661138
 20
100.4154899168982
 30
0.0
  0
SPLINE
  5
125
330
1F
100
AcDbEntity
  8
0
  6
HIDDEN
 62
     7
370
     0
100
AcDbSpline
210
0.0
220
0.0
230
1.0
 70
     8
 71
     3
 72
    10
 73
     6
 74
     0
 42
0.00000001
 43
0.00000001
 40
0.0
 40
0.0
 40
0.0
 40
0.0
 40
0.5
 40
0.5
 40
1.0
 40
1.0
 40
1.0
 40
1.0
 10
174.7179556369125
 20
99.49843138178541
 30
0.0
 10
174.7179556369125
 20
99.5227255389425
 30
0.0
 10
174.7191339510109
 20
99.5447770959555
 30
0.0
 10
174.7236683730411
 20
99.58462410666665
 30
0.0
 10
174.7270254619423
 20
99.60242180919066
 30
0.0
 10
174.7313993811747
 20
99.61804132124713
 30
0.0
  0
SPLINE
  5
126
330
1F
100
AcDbEntity
  8
0
  6
HIDDEN
 62
     7
370
     0
100
AcDbSpline
210
0.0
220
0.0
230
1.0
 70
     8
 71
     3
 72
    18
 73
    14
 74
     0
 42
0.00000001
 43
0.00000001
 40
0.0
 40
0.0
 40
0.0
 40
0.0
 40
0.0757600260704939
 40
0.1641802044744388
 40
0.2246502474317305
 40
0.2713909958758068
 40
0.3182331105062924
 40
0.3816605563069523
 40
0.4894613630155958
 40
0.6369005483259615
 40
0.7838540878389555
 40
0.9175662669722929
 40
0.9999999999999999
 40
0.9999999999999999
 40
0.9999999999999999
 40
0.9999999999999999
 10
174.7485612103282
 20
99.64836208011694
 30
0.0
 10
174.7543753084211
 20
99.66124881656714
 30
0.0
 10
174.7669750904332
 20
99.6891757740293
 30
0.0
 10
174.7912437383939
 20
99.68939979871439
 30
0.0
 10
174.8079649157376
 20
99.66878280143466
 30
0.0
 10
174.8141839140858
 20
99.62964441734711
 30
0.0
 10
174.8107559886982
 20
99.57057688876036
 30
0.0
 10
174.794341607249
 20
99.47332202772579
 30
0.0
 10
174.7623711549554
 20
99.32525228455668
 30
0.0
 10
174.7278081238496
 20
99.14255602068125
 30
0.0
 10
174.7137981105088
 20
98.97575982244928
 30
0.0
 10
174.7235805145768
 20
98.86915185385818
 30
0.0
 10
174.7413284919531
 20
98.8428336713863
 30
0.0
 10
174.7480972159794
 20
98.83279644234055
 30
0.0
  0
LWPOLYLINE
  5
127
330
1F
100
AcDbEntity
  8
0
  6
HIDDEN
 62
     7
370
     0
100
AcDbPolyline
 90
        9
 70
   128
 43
0.0
 10
174.759406581
 20
98.8111698266
 10
174.7925859077
 20
98.8084113351
 10
174.8069543647
 20
98.8313773982
 10
174.8126842244
 20
98.8686114332
 10
174.8096902747
 20
98.9239375073
 10
174.7971535371
 20
99.0005076669
 10
174.7693289753
 20
99.13214739
 10
174.7329474681
 20
99.3241708793
 10
174.7179556369
 20
99.4984313818
  0
LWPOLYLINE
  5
128
330
1F
100
AcDbEntity
  8
0
  6
HIDDEN
 62
     7
370
     0
100
AcDbPolyline
 90
       18
 70
   128
 43
0.0
 10
176.2179556369
 20
96.4575156646
 10
175.6760931376
 20
96.5291396813
 10
175.2074121714
 20
96.7343385112
 10
174.8752106999
 20
97.0453989153
 10
174.7243543725
 20
97.4203104623
 10
174.7752171722
 20
97.8084392704
 10
175.020929796
 20
98.1573663933
 10
175.4283073926
 20
98.4199672896
 10
175.9423313602
 20
98.5607762531
 10
176.4935799136
 20
98.5607762531
 10
177.0076038812
 20
98.4199672896
 10
177.4149814778
 20
98.1573663933
 10
177.6606941017
 20
97.8084392704
 10
177.7115569014
 20
97.4203104623
 10
177.5607005739
 20
97.0453989153
 10
177.2284991024
 20
96.7343385112
 10
176.7598181362
 20
96.5291396813
 10
176.2179556369
 20
96.4575156646
  0
LINE
  5
129
330
1F
100
AcDbEntity
  8
0
  6
HIDDEN
 62
     7
370
     0
100
AcDbLine
 10
100.4179556369
 20
79.3405639918
 30
0.0
 11
100.4179556369
 21
81.4820503613
 31
0.0
  0
LINE
  5
12A
330
1F
100
AcDbEntity
  8
0
  6
HIDDEN
 62
     7
370
     0
100
AcDbLine
 10
86.9679556369
 20
79.3405639918
 30
0.0
 11
86.9679556369
 21
82.173858834
 31
0.0
  0
LINE
  5
12B
330
1F
100
AcDbEntity
  8
0
  6
HIDDEN
 62
     7
370
     0
100
AcDbLine
 10
95.4179556369
 20
134.0805639918
 30
0.0
 11
95.4179556369
 21
131.9390776222
 31
0.0
  0
LINE
  5
12C
330
1F
100
AcDbEntity
  8
0
  6
HIDDEN
 62
     7
370
     0
100
AcDbLine
 10
86.9679556369
 20
134.0805639918
 30
0.0
 11
86.9679556369
 21
131.2472691495
 31
0.0
  0
LINE
  5
12D
330
1F
100
AcDbEntity
  8
0
  6
HIDDEN
 62
     7
370
     0
100
AcDbLine
 10
150.1679556369
 20
150.6105639918
 30
0.0
 11
140.1679556369
 21
150.6105639918
 31
0.0
  0
LINE
  5
12E
330
1F
100
AcDbEntity
  8
0
  6
HIDDEN
 62
     7
370
     0
100
AcDbLine
 10
164.1679556369
 20
150.6105639918
 30
0.0
 11
150.1679556369
 21
150.6105639918
 31
0.0
  0
ARC
  5
12F
330
1F
100
AcDbEntity
  8
0
  6
HIDDEN
 62
     7
370
     0
100
AcDbCircle
 10
162.168521204
 20
99.3197388493
 30
0.0
 40
13.10489590468236
100
AcDbArc
 50
1.7833929067
 51
4.7963217298
  0
ARC
  5
130
330
1F
100
AcDbEntity
  8
0
  6
HIDDEN
 62
     7
370
     0
100
AcDbCircle
 10
191.3837218855
 20
99.3223240858
 30
0.0
 40
16.16392949946947
100
AcDbArc
 50
181.7725326002
 51
184.3832381173
  0
SPLINE
  5
131
330
1F
100
AcDbEntity
  8
0
  6
HIDDEN
 62
     7
370
     0
100
AcDbSpline
210
0.0
220
0.0
230
1.0
 70
     8
 71
     3
 72
    30
 73
    26
 74
     0
 42
0.00000001
 43
0.00000001
 40
0.0
 40
0.0
 40
0.0
 40
0.0
 40
0.0531112987298264
 40
0.1124940188185966
 40
0.1778933897680085
 40
0.2129185844003079
 40
0.2494728708380342
 40
0.2912400419309284
 40
0.326083496184741
 40
0.3539995211012595
 40
0.3749854693572334
 40
0.4414452417468541
 40
0.5001647036357555
 40
0.5546811355879633
 40
0.6144272327503173
 40
0.6794546327315164
 40
0.7140127289596506
 40
0.7499108421230631
 40
0.7913766638464454
 40
0.8260447015782167
 40
0.8539111713846603
 40
0.8749732210745442
 40
0.9411617871948926
 40
0.9999141541336123
 40
0.9999999999999999
 40
0.9999999999999999
 40
0.9999999999999999
 40
0.9999999999999999
 10
126.2174404411596
 20
69.61065243892061
 30
0.0
 10
126.2012504611861
 20
69.61555069993629
 30
0.0
 10
126.1669587764531
 20
69.6259256122441
 30
0.0
 10
125.8656807636563
 20
69.70156930890047
 30
0.0
 10
125.4235169268304
 20
69.79785442042812
 30
0.0
 10
124.9286835138174
 20
69.89751942793794
 30
0.0
 10
124.4582079922468
 20
69.98979753397322
 30
0.0
 10
123.9272865236306
 20
70.08542957872166
 30
0.0
 10
123.3891360313887
 20
70.17107981909379
 30
0.0
 10
122.9310886952479
 20
70.23837161261751
 30
0.0
 10
122.2755243745986
 20
70.32671978146152
 30
0.0
 10
121.3922179363239
 20
70.4233778657861
 30
0.0
 10
120.2635562036937
 20
70.51015304252643
 30
0.0
 10
119.173794453928
 20
70.54823174024484
 30
0.0
 10
118.0777661755034
 20
70.55008217500675
 30
0.0
 10
117.172374928558
 20
70.5239207194221
 30
0.0
 10
116.4760722181432
 20
70.4873134942931
 30
0.0
 10
115.9493924898681
 20
70.44829661881607
 30
0.0
 10
115.4827463748355
 20
70.40608749134412
 30
0.0
 10
115.1115310991117
 20
70.36908340177474
 30
0.0
 10
114.8574846218696
 20
70.34038264133041
 30
0.0
 10
114.5564294691602
 20
70.3040026907405
 30
0.0
 10
114.300945674357
 20
70.27122252375439
 30
0.0
 10
114.2017249494097
 20
70.25488463904458
 30
0.0
 10
114.2180055066935
 20
70.2574782252184
 30
0.0
 10
114.2180292602795
 20
70.2574820093009
 30
0.0
  0
SPLINE
  5
132
330
1F
100
AcDbEntity
  8
0
  6
HIDDEN
 62
     7
370
     0
100
AcDbSpline
210
0.0
220
0.0
230
1.0
 70
     8
 71
     3
 72
    30
 73
    26
 74
     0
 42
0.00000001
 43
0.00000001
 40
0.0
 40
0.0
 40
0.0
 40
0.0
 40
0.0001272136037053
 40
0.0285575768301964
 40
0.0588606900570981
 40
0.0910407278469526
 40
0.1251011153551471
 40
0.1546891980310985
 40
0.1963674194790553
 40
0.2501213128420439
 40
0.3205355022169049
 40
0.3856195761166429
 40
0.445412116868058
 40
0.499964613104284
 40
0.5283564600628781
 40
0.5586405974100715
 40
0.5908246877662545
 40
0.624915055232087
 40
0.6541896055581143
 40
0.6958675353899085
 40
0.749934451866759
 40
0.8215931844567005
 40
0.8871439710245103
 40
0.9466386692604897
 40
1.0
 40
1.0
 40
1.0
 40
1.0
 10
114.218063590775
 20
143.1635729477781
 30
0.0
 10
114.2180274917551
 20
143.1635808189923
 30
0.0
 10
114.2099237944517
 20
143.1653477904273
 30
0.0
 10
114.2385811682063
 20
143.1598937686497
 30
0.0
 10
114.3119728661806
 20
143.1493499483777
 30
0.0
 10
114.4556279848984
 20
143.1296650264432
 30
0.0
 10
114.6566640832047
 20
143.1048256827079
 30
0.0
 10
114.9392945301168
 20
143.0706172380945
 30
0.0
 10
115.3527036941693
 20
143.0269373336187
 30
0.0
 10
116.0289911799425
 20
142.9638942691753
 30
0.0
 10
116.9674220864625
 20
142.9025970976188
 30
0.0
 10
118.0769152984682
 20
142.8713086544171
 30
0.0
 10
119.1743960295101
 20
142.872963821943
 30
0.0
 10
120.0744272678911
 20
142.9042700240556
 30
0.0
 10
120.7857681937522
 20
142.951103172856
 30
0.0
 10
121.3511850947407
 20
142.9982700347524
 30
0.0
 10
121.9401085175697
 20
143.0577090413023
 30
0.0
 10
122.504518170047
 20
143.1240662479103
 30
0.0
 10
123.0987143639832
 20
143.2059856543418
 30
0.0
 10
123.7653225249537
 20
143.3076336370923
 30
0.0
 10
124.5666552706539
 20
143.4497725476926
 30
0.0
 10
125.3191652551618
 20
143.6010171184589
 30
0.0
 10
125.864451750128
 20
143.7188679917183
 30
0.0
 10
126.1671732816269
 20
143.7950972234676
 30
0.0
 10
126.2014637322399
 20
143.8055495329621
 30
0.0
 10
126.2176771688899
 20
143.8104916627623
 30
0.0
  0
SPLINE
  5
133
330
1F
100
AcDbEntity
  8
0
  6
HIDDEN
 62
     7
370
     0
100
AcDbSpline
210
0.0
220
0.0
230
1.0
 70
     8
 71
     3
 72
    38
 73
    34
 74
     0
 42
0.00000001
 43
0.00000001
 40
0.0
 40
0.0
 40
0.0
 40
0.0
 40
0.0625000000000001
 40
0.0625000000000001
 40
0.1250000000000001
 40
0.1250000000000001
 40
0.1875000000000002
 40
0.1875000000000002
 40
0.2500000000000002
 40
0.2500000000000002
 40
0.3125000000000003
 40
0.3125000000000003
 40
0.3750000000000003
 40
0.3750000000000003
 40
0.4375000000000004
 40
0.4375000000000004
 40
0.5000000000000004
 40
0.5000000000000004
 40
0.5625000000000003
 40
0.5625000000000003
 40
0.6250000000000003
 40
0.6250000000000003
 40
0.6875000000000002
 40
0.6875000000000002
 40
0.7500000000000002
 40
0.7500000000000002
 40
0.8125000000000001
 40
0.8125000000000001
 40
0.8750000000000001
 40
0.8750000000000001
 40
0.9375
 40
0.9375
 40
1.0
 40
1.0
 40
1.0
 40
1.0
 10
177.3231816187931
 20
109.6718787004807
 30
0.0
 10
177.2213919361998
 20
109.5781457665938
 30
0.0
 10
177.1058556847962
 20
109.496865318074
 30
0.0
 10
176.8469707543925
 20
109.3625634040551
 30
0.0
 10
176.7068274281137
 20
109.3117569397327
 30
0.0
 10
176.4143413203131
 20
109.249324095214
 30
0.0
 10
176.2616571888315
 20
109.2380634185092
 30
0.0
 10
175.9620891484278
 20
109.2575013516149
 30
0.0
 10
175.8123477950976
 20
109.2884993428736
 30
0.0
 10
175.5338761115422
 20
109.386250767928
 30
0.0
 10
175.4016156532869
 20
109.4541461976079
 30
0.0
 10
175.1688241907982
 20
109.6145526804962
 30
0.0
 10
175.0649912523982
 20
109.7092701388763
 30
0.0
 10
174.8968070522319
 20
109.9108054158182
 30
0.0
 10
174.8301055148478
 20
110.0203226168651
 30
0.0
 10
174.7411448376114
 20
110.2396492081527
 30
0.0
 10
174.7180416210176
 20
110.3509181114412
 30
0.0
 10
174.7178701371866
 20
110.5643361951971
 30
0.0
 10
174.7404767592486
 20
110.6655777662465
 30
0.0
 10
174.8298273523417
 20
110.8523548453267
 30
0.0
 10
174.8949431981846
 20
110.9353290006725
 30
0.0
 10
175.0650291419866
 20
111.0826523983545
 30
0.0
 10
175.1661912923807
 20
111.1438720580927
 30
0.0
 10
175.4009232591703
 20
111.2460363437534
 30
0.0
 10
175.5308227614583
 20
111.2851382486744
 30
0.0
 10
175.8100522616093
 20
111.3414049013081
 30
0.0
 10
175.9588273035596
 20
111.3582092135466
 30
0.0
 10
176.2583487786613
 20
111.3691369694952
 30
0.0
 10
176.4116877331544
 20
111.3632384617242
 30
0.0
 10
176.7035532477615
 20
111.3290183519295
 30
0.0
 10
176.845806900182
 20
111.3002174912919
 30
0.0
 10
177.1030519005434
 20
111.220758345217
 30
0.0
 10
177.2213750637637
 20
111.1692456088142
 30
0.0
 10
177.3231816187931
 20
111.1060861673256
 30
0.0
  0
SPLINE
  5
134
330
1F
100
AcDbEntity
  8
0
  6
HIDDEN
 62
     7
370
     0
100
AcDbSpline
210
0.0
220
0.0
230
1.0
 70
     8
 71
     3
 72
     8
 73
     4
 74
     0
 42
0.00000001
 43
0.00000001
 40
0.0
 40
0.0
 40
0.0
 40
0.0
 40
1.0
 40
1.0
 40
1.0
 40
1.0
 10
177.3231816187931
 20
111.1060861673256
 30
0.0
 10
177.372874853256
 20
111.0752571413014
 30
0.0
 10
177.4185206314699
 20
111.0352940026893
 30
0.0
 10
177.4599896761234
 20
110.9881719270727
 30
0.0
  0
LINE
  5
135
330
1F
100
AcDbEntity
  8
0
  6
HIDDEN
 62
     7
370
     0
100
AcDbLine
 10
174.2179556369
 20
101.8105639918
 30
0.0
 11
174.2179556369
 21
111.6105637214
 31
0.0
  0
SPLINE
  5
136
330
1F
100
AcDbEntity
  8
0
  6
HIDDEN
 62
     7
370
     0
100
AcDbSpline
210
0.0
220
0.0
230
1.0
 70
     8
 71
     3
 72
    12
 73
     8
 74
     0
 42
0.00000001
 43
0.00000001
 40
0.0
 40
0.0
 40
0.0
 40
0.0
 40
0.25
 40
0.25
 40
0.5
 40
0.5
 40
1.0
 40
1.0
 40
1.0
 40
1.0
 10
177.4599896761234
 20
110.9881719270727
 30
0.0
 10
177.5439737894114
 20
110.8927391586063
 30
0.0
 10
177.6078230442229
 20
110.7940105415908
 30
0.0
 10
177.6955719835596
 20
110.5867199242443
 30
0.0
 10
177.7178201402283
 20
110.4808945632483
 30
0.0
 10
177.7182247790048
 20
110.1654396985614
 30
0.0
 10
177.627952798452
 20
109.9586874239066
 30
0.0
 10
177.4599896761234
 20
109.7987590925679
 30
0.0
  0
LINE
  5
137
330
1F
100
AcDbEntity
  8
0
  6
HIDDEN
 62
     7
370
     0
100
AcDbLine
 10
178.2179556369
 20
101.7105639918
 30
0.0
 11
178.2179556369
 21
111.7105639918
 31
0.0
  0
LINE
  5
138
330
1F
100
AcDbEntity
  8
0
  6
HIDDEN
 62
     7
370
     0
100
AcDbLine
 10
177.1679556369
 20
123.6332137226
 30
0.0
 11
179.6679556369
 21
123.6332137226
 31
0.0
  0
LINE
  5
139
330
1F
100
AcDbEntity
  8
0
  6
HIDDEN
 62
     7
370
     0
100
AcDbLine
 10
174.6679556369
 20
123.6332137226
 30
0.0
 11
177.1679556369
 21
123.6332137226
 31
0.0
  0
LINE
  5
13A
330
1F
100
AcDbEntity
  8
0
  6
HIDDEN
 62
     7
370
     0
100
AcDbLine
 10
179.6679556369
 20
89.7879142609
 30
0.0
 11
174.6679556369
 21
89.7879142609
 31
0.0
  0
LINE
  5
13B
330
1F
100
AcDbEntity
  8
0
  6
HIDDEN
 62
     7
370
     0
100
AcDbLine
 10
177.1679556369
 20
115.2105639918
 30
0.0
 11
179.6679556369
 21
115.2105639918
 31
0.0
  0
LINE
  5
13C
330
1F
100
AcDbEntity
  8
0
  6
HIDDEN
 62
     7
370
     0
100
AcDbLine
 10
174.6679556369
 20
115.2105639918
 30
0.0
 11
177.1679556369
 21
115.2105639918
 31
0.0
  0
LINE
  5
13D
330
1F
100
AcDbEntity
  8
0
  6
HIDDEN
 62
     7
370
     0
100
AcDbLine
 10
179.6679556369
 20
98.2105639918
 30
0.0
 11
174.6679556369
 21
98.2105639918
 31
0.0
  0
SPLINE
  5
13E
330
1F
100
AcDbEntity
  8
0
  6
HIDDEN
 62
     7
370
     0
100
AcDbSpline
210
0.0
220
0.0
230
1.0
 70
     8
 71
     3
 72
    18
 73
    14
 74
     0
 42
0.00000001
 43
0.00000001
 40
0.0
 40
0.0
 40
0.0
 40
0.0
 40
0.141973547684454
 40
0.223033987950679
 40
0.280292763095383
 40
0.3249366566092005
 40
0.3696379614129853
 40
0.4323523035297951
 40
0.5385280270242865
 40
0.6827697978162868
 40
0.8270425123097458
 40
0.9668376238362668
 40
0.9999999999999999
 40
0.9999999999999999
 40
0.9999999999999999
 40
0.9999999999999999
 10
174.7374539128691
 20
114.5767558191889
 30
0.0
 10
174.7495698687628
 20
114.5956752059438
 30
0.0
 10
174.7686034845657
 20
114.6253967022813
 30
0.0
 10
174.7973789987101
 20
114.6135037402489
 30
0.0
 10
174.8110332034427
 20
114.5832509141476
 30
0.0
 10
174.8141188705129
 20
114.5378561459695
 30
0.0
 10
174.8076604554813
 20
114.4740084098273
 30
0.0
 10
174.7880326043547
 20
114.3726830259252
 30
0.0
 10
174.7541176474288
 20
114.2228136534567
 30
0.0
 10
174.7217096896977
 20
114.0427927877543
 30
0.0
 10
174.7145613066517
 20
113.8848128535806
 30
0.0
 10
174.7279484569602
 20
113.7906757447705
 30
0.0
 10
174.7446469632935
 20
113.7739580245352
 30
0.0
 10
174.7478486873461
 20
113.7707526164639
 30
0.0
  0
LWPOLYLINE
  5
13F
330
1F
100
AcDbEntity
  8
0
  6
HIDDEN
 62
     7
370
     0
100
AcDbPolyline
 90
       11
 70
   128
 43
0.0
 10
174.778365113
 20
113.7348680013
 10
174.7983313839
 20
113.7416419761
 10
174.8100822233
 20
113.7686077754
 10
174.8127437761
 20
113.8084607716
 10
174.8081144996
 20
113.8615495187
 10
174.7917069242
 20
113.95639118
 10
174.7575524813
 20
114.1241182034
 10
174.7289936504
 20
114.2938935561
 10
174.7181163575
 20
114.4579492552
 10
174.7319424296
 20
114.5612933534
 10
174.7374539129
 20
114.5767558192
  0
SPLINE
  5
140
330
1F
100
AcDbEntity
  8
0
  6
HIDDEN
 62
     7
370
     0
100
AcDbSpline
210
0.0
220
0.0
230
1.0
 70
     8
 71
     3
 72
    14
 73
    10
 74
     0
 42
0.00000001
 43
0.00000001
 40
0.0
 40
0.0
 40
0.0
 40
0.0
 40
0.25
 40
0.25
 40
0.5
 40
0.5
 40
0.75
 40
0.75
 40
1.0
 40
1.0
 40
1.0
 40
1.0
 10
175.2670693951488
 20
115.3341699852096
 30
0.0
 10
175.3040954123202
 20
115.3010781001722
 30
0.0
 10
175.3364628143017
 20
115.2606060653072
 30
0.0
 10
175.3812906869464
 20
115.1602557787816
 30
0.0
 10
175.392181258205
 20
115.1022145204199
 30
0.0
 10
175.3835038190296
 20
114.9704533091283
 30
0.0
 10
175.3639545277787
 20
114.8988745609713
 30
0.0
 10
175.3057570433077
 20
114.750850703752
 30
0.0
 10
175.2682709628636
 20
114.6756940210903
 30
0.0
 10
175.2275267661139
 20
114.5987800263241
 30
0.0
  0
SPLINE
  5
141
330
1F
100
AcDbEntity
  8
0
  6
HIDDEN
 62
     7
370
     0
100
AcDbSpline
210
0.0
220
0.0
230
1.0
 70
     8
 71
     3
 72
    14
 73
    10
 74
     0
 42
0.00000001
 43
0.00000001
 40
0.0
 40
0.0
 40
0.0
 40
0.0
 40
0.25
 40
0.25
 40
0.5
 40
0.5
 40
0.75
 40
0.75
 40
1.0
 40
1.0
 40
1.0
 40
1.0
 10
175.2275267661138
 20
114.5987800263242
 30
0.0
 10
175.1939780496206
 20
114.6351929735986
 30
0.0
 10
175.1616923206963
 20
114.6704257899306
 30
0.0
 10
175.1087475410093
 20
114.7502805885942
 30
0.0
 10
175.0877428020254
 20
114.7968340607684
 30
0.0
 10
175.098387662803
 20
114.9361579641569
 30
0.0
 10
175.1274239280595
 20
115.0194410813159
 30
0.0
 10
175.1917786218984
 20
115.1782616832659
 30
0.0
 10
175.2287146811138
 20
115.2569063557932
 30
0.0
 10
175.2670693951484
 20
115.3341699852116
 30
0.0
  0
LWPOLYLINE
  5
142
330
1F
100
AcDbEntity
  8
0
  6
HIDDEN
 62
     7
370
     0
100
AcDbPolyline
 90
       18
 70
   128
 43
0.0
 10
176.2179556369
 20
114.4887385848
 10
176.7598181362
 20
114.5603626016
 10
177.2284991024
 20
114.7655614315
 10
177.5607005739
 20
115.0766218356
 10
177.7115569014
 20
115.4515333826
 10
177.6606941017
 20
115.8396621906
 10
177.4149814778
 20
116.1885893135
 10
177.0076038812
 20
116.4511902098
 10
176.4935799136
 20
116.5919991734
 10
175.9423313602
 20
116.5919991734
 10
175.4283073926
 20
116.4511902098
 10
175.020929796
 20
116.1885893135
 10
174.7752171722
 20
115.8396621906
 10
174.7243543725
 20
115.4515333826
 10
174.8752106999
 20
115.0766218356
 10
175.2074121714
 20
114.7655614315
 10
175.6760931376
 20
114.5603626016
 10
176.2179556369
 20
114.4887385848
  0
SPLINE
  5
143
330
1F
100
AcDbEntity
  8
0
  6
HIDDEN
 62
     7
370
     0
100
AcDbSpline
210
0.0
220
0.0
230
1.0
 70
     8
 71
     3
 72
    48
 73
    44
 74
     0
 42
0.00000001
 43
0.00000001
 40
-0.0624999999999992
 40
-0.0624999999999992
 40
0.0
 40
0.0
 40
0.0625000000000002
 40
0.0625000000000002
 40
0.1250000000000003
 40
0.1250000000000003
 40
0.1875000000000004
 40
0.1875000000000004
 40
0.2500000000000009
 40
0.2500000000000009
 40
0.3125000000000011
 40
0.3125000000000011
 40
0.3437500000000012
 40
0.3437500000000012
 40
0.3750000000000014
 40
0.3750000000000014
 40
0.4062500000000016
 40
0.4062500000000016
 40
0.4375000000000018
 40
0.4375000000000018
 40
0.5000000000000018
 40
0.5000000000000018
 40
0.562500000000002
 40
0.562500000000002
 40
0.6250000000000023
 40
0.6250000000000023
 40
0.6562500000000021
 40
0.6562500000000021
 40
0.687500000000002
 40
0.687500000000002
 40
0.7500000000000016
 40
0.7500000000000016
 40
0.8125000000000012
 40
0.8125000000000012
 40
0.8437500000000012
 40
0.8437500000000012
 40
0.875000000000001
 40
0.875000000000001
 40
0.9062500000000009
 40
0.9062500000000009
 40
0.9375000000000008
 40
0.9375000000000008
 40
1.0
 40
1.0
 40
1.0625
 40
1.0625
 10
177.5117018459378
 20
114.281334446082
 30
0.0
 10
177.3485464899473
 20
113.9693103186298
 30
0.0
 10
177.2608425806961
 20
113.81997906533
 30
0.0
 10
177.1088507512452
 20
113.5244950287454
 30
0.0
 10
177.0479631335535
 20
113.3795317017832
 30
0.0
 10
177.0462792971084
 20
113.1282896149233
 30
0.0
 10
177.1047259976121
 20
113.0359940233385
 30
0.0
 10
177.2497490669712
 20
112.913198131518
 30
0.0
 10
177.3352681752318
 20
112.8804382038959
 30
0.0
 10
177.4945605175095
 20
112.8688463165253
 30
0.0
 10
177.5692745592946
 20
112.8905934877513
 30
0.0
 10
177.6529289663452
 20
112.9751500497443
 30
0.0
 10
177.6754923241763
 20
113.0115422779609
 30
0.0
 10
177.7073292975076
 20
113.1014717328406
 30
0.0
 10
177.7164802961245
 20
113.1557202111305
 30
0.0
 10
177.719092070314
 20
113.2762835640338
 30
0.0
 10
177.7126370829208
 20
113.3443793517383
 30
0.0
 10
177.6854497324444
 20
113.4882684871378
 30
0.0
 10
177.6649299479744
 20
113.5639677224809
 30
0.0
 10
177.5865143784539
 20
113.7983170303257
 30
0.0
 10
177.5133283840771
 20
113.9590240150734
 30
0.0
 10
177.3563491283543
 20
114.2691702129473
 30
0.0
 10
177.2699738273047
 20
114.4221311994218
 30
0.0
 10
177.1208723730497
 20
114.7160916943346
 30
0.0
 10
177.0561200237817
 20
114.8633368291978
 30
0.0
 10
177.0439474865165
 20
115.0551263449328
 30
0.0
 10
177.0543287143817
 20
115.1122488034993
 30
0.0
 10
177.0979696457343
 20
115.2092440992127
 30
0.0
 10
177.1297685200124
 20
115.2480484402803
 30
0.0
 10
177.2398220790744
 20
115.3418489471688
 30
0.0
 10
177.3274885860039
 20
115.3721712572102
 30
0.0
 10
177.4922252536226
 20
115.3774179984499
 30
0.0
 10
177.5675384452769
 20
115.3515625269165
 30
0.0
 10
177.652252391211
 20
115.2622376548275
 30
0.0
 10
177.6749494591348
 20
115.224714240072
 30
0.0
 10
177.7072027271461
 20
115.1325870322264
 30
0.0
 10
177.7163614687938
 20
115.0781467909642
 30
0.0
 10
177.719160767627
 20
114.9575490766361
 30
0.0
 10
177.7127668259245
 20
114.8896062714667
 30
0.0
 10
177.6856737618421
 20
114.74714925723
 30
0.0
 10
177.6650519900518
 20
114.6720208142715
 30
0.0
 10
177.5859571737114
 20
114.4401518104131
 30
0.0
 10
177.5117018459378
 20
114.281334446082
 30
0.0
 10
177.3485464899473
 20
113.9693103186298
 30
0.0
  0
SPLINE
  5
144
330
1F
100
AcDbEntity
  8
0
  6
HIDDEN
 62
     7
370
     0
100
AcDbSpline
210
0.0
220
0.0
230
1.0
 70
     8
 71
     3
 72
    12
 73
     8
 74
     0
 42
0.00000001
 43
0.00000001
 40
0.0
 40
0.0
 40
0.0
 40
0.0
 40
0.4999999999999978
 40
0.4999999999999978
 40
0.7499999999999989
 40
0.7499999999999989
 40
1.0
 40
1.0
 40
1.0
 40
1.0
 10
175.2275267661138
 20
113.0056380666182
 30
0.0
 10
175.3089009293232
 20
113.0580725936063
 30
0.0
 10
175.3787504028084
 20
113.1442528809052
 30
0.0
 10
175.3922913052744
 20
113.3307090540488
 30
0.0
 10
175.3813397756083
 20
113.3989597744349
 30
0.0
 10
175.3364901417171
 20
113.5437440390786
 30
0.0
 10
175.304102526806
 20
113.6175246795245
 30
0.0
 10
175.2670693951488
 20
113.6935509829891
 30
0.0
  0
SPLINE
  5
145
330
1F
100
AcDbEntity
  8
0
  6
HIDDEN
 62
     7
370
     0
100
AcDbSpline
210
0.0
220
0.0
230
1.0
 70
     8
 71
     3
 72
    14
 73
    10
 74
     0
 42
0.00000001
 43
0.00000001
 40
0.0
 40
0.0
 40
0.0
 40
0.0
 40
0.25
 40
0.25
 40
0.5
 40
0.5
 40
0.75
 40
0.75
 40
1.0
 40
1.0
 40
1.0
 40
1.0
 10
175.2670693951488
 20
113.693550982989
 30
0.0
 10
175.2285658846347
 20
113.6606201040131
 30
0.0
 10
175.1914529609945
 20
113.6294423406969
 30
0.0
 10
175.1268711827776
 20
113.5608206093692
 30
0.0
 10
175.0981255884998
 20
113.5235116917122
 30
0.0
 10
175.0878882843244
 20
113.4015220746047
 30
0.0
 10
175.1092209346031
 20
113.3195943612733
 30
0.0
 10
175.1620952148513
 20
113.1622677432905
 30
0.0
 10
175.194138798596
 20
113.083389987695
 30
0.0
 10
175.2275267661138
 20
113.0056380666182
 30
0.0
  0
ARC
  5
146
330
1F
100
AcDbEntity
  8
0
  6
HIDDEN
 62
     7
370
     0
100
AcDbCircle
 10
191.3837218855
 20
114.0988038977
 30
0.0
 40
16.16392949945813
100
AcDbArc
 50
175.6167618827
 51
178.2274673998
  0
ARC
  5
147
330
1F
100
AcDbEntity
  8
0
  6
HIDDEN
 62
     7
370
     0
100
AcDbCircle
 10
162.168521204
 20
114.1013891342
 30
0.0
 40
13.10489590468571
100
AcDbArc
 50
355.2036782702
 51
358.2166070933
  0
LWPOLYLINE
  5
148
330
1F
100
AcDbEntity
  8
0
  6
HIDDEN
 62
     7
370
     0
100
AcDbPolyline
 90
       32
 70
   128
 43
0.0
 10
144.2179556369
 20
152.0232698435
 10
145.2244482374
 20
151.9916418634
 10
146.1897349125
 20
151.8980527762
 10
147.0742967124
 20
151.7463341301
 10
147.8419195731
 20
151.5426973044
 10
148.4611769244
 20
151.2954792147
 10
148.9067162976
 20
151.0148009985
 10
149.1602972586
 20
150.712153655
 10
149.2115381728
 20
150.3999276021
 10
149.0583412312
 20
150.0909054109
 10
148.7069783348
 20
149.7977384864
 10
148.1718343216
 20
149.5324291168
 10
147.4748180505
 20
149.305839099
 10
146.6444654496
 20
149.1272450548
 10
145.7147712518
 20
149.0039586455
 10
144.7237972469
 20
148.9410272311
 10
143.712114027
 20
148.9410272311
 10
142.721140022
 20
149.0039586455
 10
141.7914458243
 20
149.1272450548
 10
140.9610932233
 20
149.305839099
 10
140.2640769522
 20
149.5324291168
 10
139.7289329391
 20
149.7977384864
 10
139.3775700426
 20
150.0909054109
 10
139.2243731011
 20
150.3999276021
 10
139.2756140153
 20
150.712153655
 10
139.5291949762
 20
151.0148009985
 10
139.9747343494
 20
151.2954792147
 10
140.5939917008
 20
151.5426973044
 10
141.3616145614
 20
151.7463341301
 10
142.2461763613
 20
151.8980527762
 10
143.2114630365
 20
151.9916418634
 10
144.2179556369
 20
152.0232698435
  0
LINE
  5
149
330
1F
100
AcDbEntity
  8
0
  6
HIDDEN
 62
     7
370
     0
100
AcDbLine
 10
158.4799846578
 20
145.6615267526
 30
0.0
 11
158.4799846578
 21
138.0605639918
 31
0.0
  0
LINE
  5
14A
330
1F
100
AcDbEntity
  8
0
  6
HIDDEN
 62
     7
370
     0
100
AcDbLine
 10
157.1279556369
 20
141.4247991843
 30
0.0
 11
157.1279556369
 21
138.0605639918
 31
0.0
  0
LINE
  5
14B
330
1F
100
AcDbEntity
  8
0
  6
HIDDEN
 62
     7
370
     0
100
AcDbLine
 10
153.3079556369
 20
141.4247991843
 30
0.0
 11
153.3079556369
 21
138.0605639918
 31
0.0
  0
CIRCLE
  5
14C
330
1F
100
AcDbEntity
  8
0
  6
HIDDEN
 62
     7
370
     0
100
AcDbCircle
 10
142.2179556369
 20
106.7105639918
 30
0.0
 40
5.0
  0
LINE
  5
14D
330
1F
100
AcDbEntity
  8
0
  6
HIDDEN
 62
     7
370
     0
100
AcDbLine
 10
214.9870819725
 20
111.5820974556
 30
0.0
 11
215.1563103596
 21
111.8576793123
 31
0.0
  0
LINE
  5
14E
330
1F
100
AcDbEntity
  8
0
  6
HIDDEN
 62
     7
370
     0
100
AcDbLine
 10
215.2179556369
 20
114.3040476588
 30
0.0
 11
215.0703002866
 21
114.5774689963
 31
0.0
  0
LINE
  5
14F
330
1F
100
AcDbEntity
  8
0
  6
HIDDEN
 62
     7
370
     0
100
AcDbLine
 10
215.0683462577
 20
114.5792602958
 30
0.0
 11
209.7344084538
 21
114.7274493619
 31
0.0
  0
LINE
  5
150
330
1F
100
AcDbEntity
  8
0
  6
HIDDEN
 62
     7
370
     0
100
AcDbLine
 10
209.6510936978
 20
111.7286064765
 30
0.0
 11
214.9850315017
 21
111.5804174104
 31
0.0
  0
LINE
  5
151
330
1F
100
AcDbEntity
  8
0
  6
HIDDEN
 62
     7
370
     0
100
AcDbLine
 10
209.7332363868
 20
114.7269031441
 30
0.0
 11
209.220126765
 21
114.2411585101
 31
0.0
  0
LINE
  5
152
330
1F
100
AcDbEntity
  8
0
  6
HIDDEN
 62
     7
370
     0
100
AcDbLine
 10
209.1646050176
 20
112.242701032
 30
0.0
 11
209.6499537657
 21
111.7292169269
 31
0.0
  0
LINE
  5
153
330
1F
100
AcDbEntity
  8
0
  6
HIDDEN
 62
     7
370
     0
100
AcDbLine
 10
209.7088434894
 20
101.6935471486
 30
0.0
 11
209.2234947413
 21
101.1800630435
 31
0.0
  0
LINE
  5
154
330
1F
100
AcDbEntity
  8
0
  6
HIDDEN
 62
     7
370
     0
100
AcDbLine
 10
209.2790164886
 20
99.1816055654
 30
0.0
 11
209.7921261104
 21
98.6958609315
 31
0.0
  0
LINE
  5
155
330
1F
100
AcDbEntity
  8
0
  6
HIDDEN
 62
     7
370
     0
100
AcDbLine
 10
215.0439212253
 20
101.8423466652
 30
0.0
 11
209.7099834214
 21
101.6941575991
 31
0.0
  0
LINE
  5
156
330
1F
100
AcDbEntity
  8
0
  6
HIDDEN
 62
     7
370
     0
100
AcDbLine
 10
209.7932981774
 20
98.6953147136
 30
0.0
 11
215.1272359813
 21
98.8435037797
 31
0.0
  0
LINE
  5
157
330
1F
100
AcDbEntity
  8
0
  6
HIDDEN
 62
     7
370
     0
100
AcDbLine
 10
215.1291900102
 20
98.8452950792
 30
0.0
 11
215.2179556369
 21
99.0096671546
 31
0.0
  0
LINE
  5
158
330
1F
100
AcDbEntity
  8
0
  6
HIDDEN
 62
     7
370
     0
100
AcDbLine
 10
215.2152000832
 20
101.5650847632
 30
0.0
 11
215.0459716962
 21
101.8406666199
 31
0.0
  0
LINE
  5
159
330
1F
100
AcDbEntity
  8
0
  6
HIDDEN
 62
     7
370
     0
100
AcDbLine
 10
135.2179556369
 20
67.3058810352
 30
0.0
 11
135.3075572608
 21
67.9434297171
 31
0.0
  0
LINE
  5
15A
330
1F
100
AcDbEntity
  8
0
  6
HIDDEN
 62
     7
370
     0
100
AcDbLine
 10
135.3075572608
 20
145.4776982664
 30
0.0
 11
135.2179556369
 21
146.1152469483
 31
0.0
  0
ARC
  5
15B
330
1F
100
AcDbEntity
  8
0
  6
HIDDEN
 62
     7
370
     0
100
AcDbCircle
 10
134.3210187185
 20
68.0820786673
 30
0.0
 40
0.9962338214386983
100
AcDbArc
 50
352.0
 51
0.0
  0
ARC
  5
15C
330
1F
100
AcDbEntity
  8
0
  6
HIDDEN
 62
     7
370
     0
100
AcDbCircle
 10
134.3210187185
 20
68.0820786673
 30
0.0
 40
0.9962338214386932
100
AcDbArc
 50
0.0
 51
25.7988228126
  0
ARC
  5
15D
330
1F
100
AcDbEntity
  8
0
  6
HIDDEN
 62
     7
370
     0
100
AcDbCircle
 10
134.3210187185
 20
145.3390493162
 30
0.0
 40
0.9962338214387078
100
AcDbArc
 50
348.75
 51
8.0
  0
LWPOLYLINE
  5
15E
330
1F
100
AcDbEntity
  8
0
  6
HIDDEN
 62
     7
370
     0
100
AcDbPolyline
 90
        3
 70
   128
 43
0.0
 10
135.2981101864
 20
145.1446937392
 10
135.2414187557
 20
144.957807138
 10
135.2179556369
 20
144.9054758031
  0
LINE
  5
15F
330
1F
100
AcDbEntity
  8
0
  6
HIDDEN
 62
     7
370
     0
100
AcDbLine
 10
135.3172525399
 20
68.0820786673
 30
0.0
 11
135.3172525399
 21
145.3390493162
 31
0.0
  0
ARC
  5
160
330
1F
100
AcDbEntity
  8
0
  6
HIDDEN
 62
     7
370
     0
100
AcDbCircle
 10
125.4711612921
 20
87.2105639918
 30
0.0
 40
11.99999999999999
100
AcDbArc
 50
273.1723835378
 51
324.3146652873
  0
ARC
  5
161
330
1F
100
AcDbEntity
  8
0
  6
HIDDEN
 62
     7
370
     0
100
AcDbCircle
 10
125.4711612921
 20
126.2105639918
 30
0.0
 40
12.0
100
AcDbArc
 50
35.6853347127
 51
86.8182501262
  0
ARC
  5
162
330
1F
100
AcDbEntity
  8
0
  6
HIDDEN
 62
     7
370
     0
100
AcDbCircle
 10
108.6786815791
 20
76.2105639918
 30
0.0
 40
1.000000000000008
100
AcDbArc
 50
210.0
 51
270.0
  0
ARC
  5
163
330
1F
100
AcDbEntity
  8
0
  6
HIDDEN
 62
     7
370
     0
100
AcDbCircle
 10
108.6786815791
 20
137.2105639918
 30
0.0
 40
1.000000000000008
100
AcDbArc
 50
90.0
 51
150.0
  0
LINE
  5
164
330
1F
100
AcDbEntity
  8
0
  6
HIDDEN
 62
     7
370
     0
100
AcDbLine
 10
108.6786815791
 20
75.2105639918
 30
0.0
 11
114.2637856875
 21
75.2105639918
 31
0.0
  0
LINE
  5
165
330
1F
100
AcDbEntity
  8
0
  6
HIDDEN
 62
     7
370
     0
100
AcDbLine
 10
114.2637856875
 20
138.2105639918
 30
0.0
 11
108.6786815791
 21
138.2105639918
 31
0.0
  0
LINE
  5
166
330
1F
100
AcDbEntity
  8
0
  6
HIDDEN
 62
     7
370
     0
100
AcDbLine
 10
107.8126561753
 20
137.7105639918
 30
0.0
 11
105.2145799639
 21
133.2105639918
 31
0.0
  0
LINE
  5
167
330
1F
100
AcDbEntity
  8
0
  6
HIDDEN
 62
     7
370
     0
100
AcDbLine
 10
105.2145799639
 20
80.2105639918
 30
0.0
 11
107.8126561753
 21
75.7105639918
 31
0.0
  0
ARC
  5
168
330
1F
100
AcDbEntity
  8
0
  6
HIDDEN
 62
     7
370
     0
100
AcDbCircle
 10
145.6679556369
 20
81.8355639918
 30
0.0
 40
2.0
100
AcDbArc
 50
234.3409123039
 51
0.0
  0
ARC
  5
169
330
1F
100
AcDbEntity
  8
0
  6
HIDDEN
 62
     7
370
     0
100
AcDbCircle
 10
145.6679556369
 20
131.5855639918
 30
0.0
 40
2.0
100
AcDbArc
 50
0.0
 51
125.6590876961
  0
LINE
  5
16A
330
1F
100
AcDbEntity
  8
0
  6
HIDDEN
 62
     7
370
     0
100
AcDbLine
 10
100.4179556369
 20
80.2105639918
 30
0.0
 11
105.2145799639
 21
80.2105639918
 31
0.0
  0
LINE
  5
16B
330
1F
100
AcDbEntity
  8
0
  6
HIDDEN
 62
     7
370
     0
100
AcDbLine
 10
105.2145799639
 20
133.2105639918
 30
0.0
 11
95.4179556369
 21
133.2105639918
 31
0.0
  0
LINE
  5
16C
330
1F
100
AcDbEntity
  8
0
  6
HIDDEN
 62
     7
370
     0
100
AcDbLine
 10
135.2179556369
 20
80.2105639918
 30
0.0
 11
144.5020332553
 21
80.2105639918
 31
0.0
  0
LINE
  5
16D
330
1F
100
AcDbEntity
  8
0
  6
HIDDEN
 62
     7
370
     0
100
AcDbLine
 10
144.5020332553
 20
133.2105639918
 30
0.0
 11
135.2179556369
 21
133.2105639918
 31
0.0
  0
LINE
  5
16E
330
1F
100
AcDbEntity
  8
0
  6
HIDDEN
 62
     7
370
     0
100
AcDbLine
 10
139.2179556369
 20
152.3821173709
 30
0.0
 11
139.2179556369
 21
148.6879777704
 31
0.0
  0
LINE
  5
16F
330
1F
100
AcDbEntity
  8
0
  6
HIDDEN
 62
     7
370
     0
100
AcDbLine
 10
149.2179556369
 20
148.6879777704
 30
0.0
 11
149.2179556369
 21
152.3876256293
 31
0.0
  0
LINE
  5
170
330
1F
100
AcDbEntity
  8
0
  6
HIDDEN
 62
     7
370
     0
100
AcDbLine
 10
159.5179556369
 20
93.7105639918
 30
0.0
 11
163.5179556369
 21
93.7105639918
 31
0.0
  0
LINE
  5
171
330
1F
100
AcDbEntity
  8
0
  6
HIDDEN
 62
     7
370
     0
100
AcDbLine
 10
163.5179556369
 20
119.7105639918
 30
0.0
 11
159.5179556369
 21
119.7105639918
 31
0.0
  0
LINE
  5
172
330
1F
100
AcDbEntity
  8
0
  6
HIDDEN
 62
     7
370
     0
100
AcDbLine
 10
147.6679556369
 20
94.7105639918
 30
0.0
 11
148.4179556369
 21
95.4605639918
 31
0.0
  0
LINE
  5
173
330
1F
100
AcDbEntity
  8
0
  6
HIDDEN
 62
     7
370
     0
100
AcDbLine
 10
148.4179556369
 20
117.9605639918
 30
0.0
 11
147.6679556369
 21
118.7105639918
 31
0.0
  0
LINE
  5
174
330
1F
100
AcDbEntity
  8
0
  6
HIDDEN
 62
     7
370
     0
100
AcDbLine
 10
148.4179556369
 20
95.4605639918
 30
0.0
 11
159.5179556369
 21
95.4605639918
 31
0.0
  0
LINE
  5
175
330
1F
100
AcDbEntity
  8
0
  6
HIDDEN
 62
     7
370
     0
100
AcDbLine
 10
159.5179556369
 20
117.9605639918
 30
0.0
 11
148.4179556369
 21
117.9605639918
 31
0.0
  0
LINE
  5
176
330
1F
100
AcDbEntity
  8
0
  6
HIDDEN
 62
     7
370
     0
100
AcDbLine
 10
177.7179556369
 20
100.1809121859
 30
0.0
 11
177.7179556369
 21
103.0455439854
 31
0.0
  0
LINE
  5
177
330
1F
100
AcDbEntity
  8
0
  6
HIDDEN
 62
     7
370
     0
100
AcDbLine
 10
177.7179556369
 20
97.5181758363
 30
0.0
 11
177.7179556369
 21
98.4287160366
 31
0.0
  0
LINE
  5
178
330
1F
100
AcDbEntity
  8
0
  6
HIDDEN
 62
     7
370
     0
100
AcDbLine
 10
174.7179556369
 20
98.9784871327
 30
0.0
 11
174.7179556369
 21
97.5181758363
 31
0.0
  0
LINE
  5
179
330
1F
100
AcDbEntity
  8
0
  6
HIDDEN
 62
     7
370
     0
100
AcDbLine
 10
174.7179556369
 20
102.9652608758
 30
0.0
 11
174.7179556369
 21
99.4984313818
 31
0.0
  0
LINE
  5
17A
330
1F
100
AcDbEntity
  8
0
  6
HIDDEN
 62
     7
370
     0
100
AcDbLine
 10
140.1679556369
 20
156.7105639918
 30
0.0
 11
140.1679556369
 21
150.6105639918
 31
0.0
  0
LINE
  5
17B
330
1F
100
AcDbEntity
  8
0
  6
HIDDEN
 62
     7
370
     0
100
AcDbLine
 10
177.4301241679
 20
98.0462877322
 30
0.0
 11
215.2179556369
 21
99.096120644
 31
0.0
  0
LINE
  5
17C
330
1F
100
AcDbEntity
  8
0
  6
HIDDEN
 62
     7
370
     0
100
AcDbLine
 10
215.2179556369
 20
101.5970852782
 30
0.0
 11
177.4257439247
 21
100.5471306732
 31
0.0
  0
LINE
  5
17D
330
1F
100
AcDbEntity
  8
0
  6
HIDDEN
 62
     7
370
     0
100
AcDbLine
 10
174.7435976512
 20
99.6511560013
 30
0.0
 11
174.4982974657
 21
99.2153171571
 31
0.0
  0
LINE
  5
17E
330
1F
100
AcDbEntity
  8
0
  6
HIDDEN
 62
     7
370
     0
100
AcDbLine
 10
174.4982974657
 20
99.2153171571
 30
0.0
 11
174.744127237
 21
98.8302521807
 31
0.0
  0
LINE
  5
17F
330
1F
100
AcDbEntity
  8
0
  6
HIDDEN
 62
     7
370
     0
100
AcDbLine
 10
126.650668253
 20
69.1322844212
 30
0.0
 11
126.2179589665
 21
69.6105091385
 31
0.0
  0
LINE
  5
180
330
1F
100
AcDbEntity
  8
0
  6
HIDDEN
 62
     7
370
     0
100
AcDbLine
 10
114.2179560949
 20
70.2574704952
 30
0.0
 11
113.7373287897
 21
69.7792457844
 31
0.0
  0
LINE
  5
181
330
1F
100
AcDbEntity
  8
0
  6
HIDDEN
 62
     7
370
     0
100
AcDbLine
 10
113.7372104482
 20
143.641876283
 30
0.0
 11
114.2179559123
 21
143.1635966111
 31
0.0
  0
LINE
  5
182
330
1F
100
AcDbEntity
  8
0
  6
HIDDEN
 62
     7
370
     0
100
AcDbLine
 10
126.217955639
 20
143.8105689985
 30
0.0
 11
126.6507773088
 21
144.2888486714
 31
0.0
  0
LINE
  5
183
330
1F
100
AcDbEntity
  8
0
  6
HIDDEN
 62
     7
370
     0
100
AcDbLine
 10
126.2179556369
 20
69.6106282077
 30
0.0
 11
126.2179556369
 21
75.2446860647
 31
0.0
  0
LINE
  5
184
330
1F
100
AcDbEntity
  8
0
  6
HIDDEN
 62
     7
370
     0
100
AcDbLine
 10
114.2179556369
 20
75.2190433597
 30
0.0
 11
114.2179556369
 21
70.2575089097
 31
0.0
  0
LINE
  5
185
330
1F
100
AcDbEntity
  8
0
  6
HIDDEN
 62
     7
370
     0
100
AcDbLine
 10
126.2179556369
 20
138.1764419188
 30
0.0
 11
126.2179556369
 21
143.8104169966
 31
0.0
  0
LINE
  5
186
330
1F
100
AcDbEntity
  8
0
  6
HIDDEN
 62
     7
370
     0
100
AcDbLine
 10
114.2179556369
 20
143.1635861119
 30
0.0
 11
114.2179556369
 21
138.2020846238
 31
0.0
  0
ARC
  5
187
330
1F
100
AcDbEntity
  8
0
  6
HIDDEN
 62
     7
370
     0
100
AcDbCircle
 10
214.9179556369
 20
101.4105639918
 30
0.0
 40
0.2999999999999829
100
AcDbArc
 50
0.0
 51
90.0
  0
ARC
  5
188
330
1F
100
AcDbEntity
  8
0
  6
HIDDEN
 62
     7
370
     0
100
AcDbCircle
 10
214.9179556369
 20
112.0105639918
 30
0.0
 40
0.2999999999999829
100
AcDbArc
 50
270.0
 51
0.0
  0
LINE
  5
189
330
1F
100
AcDbEntity
  8
0
  6
HIDDEN
 62
     7
370
     0
100
AcDbLine
 10
174.6179556369
 20
101.4105639918
 30
0.0
 11
177.3231816188
 21
101.4105639918
 31
0.0
  0
LINE
  5
18A
330
1F
100
AcDbEntity
  8
0
  6
HIDDEN
 62
     7
370
     0
100
AcDbLine
 10
177.3231816188
 20
112.0105639918
 30
0.0
 11
174.6179556369
 21
112.0105639918
 31
0.0
  0
ARC
  5
18B
330
1F
100
AcDbEntity
  8
0
  6
HIDDEN
 62
     7
370
     0
100
AcDbCircle
 10
177.3231816188
 20
111.6105639918
 30
0.0
 40
0.4000000000000171
100
AcDbArc
 50
70.0
 51
90.0
  0
ARC
  5
18C
330
1F
100
AcDbEntity
  8
0
  6
HIDDEN
 62
     7
370
     0
100
AcDbCircle
 10
174.6179556369
 20
101.8105639918
 30
0.0
 40
0.4000000000000057
100
AcDbArc
 50
180.0
 51
270.0
  0
ARC
  5
18D
330
1F
100
AcDbEntity
  8
0
  6
HIDDEN
 62
     7
370
     0
100
AcDbCircle
 10
174.6179556369
 20
111.6105639918
 30
0.0
 40
0.3999999999999915
100
AcDbArc
 50
90.0
 51
180.0
  0
LINE
  5
18E
330
1F
100
AcDbEntity
  8
0
  6
HIDDEN
 62
     7
370
     0
100
AcDbLine
 10
177.4599896761
 20
101.4346869434
 30
0.0
 11
178.2179556369
 21
101.7105639918
 31
0.0
  0
LINE
  5
18F
330
1F
100
AcDbEntity
  8
0
  6
HIDDEN
 62
     7
370
     0
100
AcDbLine
 10
178.2179556369
 20
111.7105639918
 30
0.0
 11
177.4599896761
 21
111.9864410401
 31
0.0
  0
LINE
  5
190
330
1F
100
AcDbEntity
  8
0
  6
HIDDEN
 62
     7
370
     0
100
AcDbLine
 10
178.2179556369
 20
101.7105639918
 30
0.0
 11
214.9179556369
 21
101.7105639918
 31
0.0
  0
LINE
  5
191
330
1F
100
AcDbEntity
  8
0
  6
HIDDEN
 62
     7
370
     0
100
AcDbLine
 10
214.9179556369
 20
111.7105639918
 30
0.0
 11
195.765449671
 21
111.7105639918
 31
0.0
  0
LINE
  5
192
330
1F
100
AcDbEntity
  8
0
  6
HIDDEN
 62
     7
370
     0
100
AcDbLine
 10
195.6709580133
 20
111.7105639918
 30
0.0
 11
178.2179556369
 21
111.7105639918
 31
0.0
  0
LINE
  5
193
330
1F
100
AcDbEntity
  8
0
  6
HIDDEN
 62
     7
370
     0
100
AcDbLine
 10
163.5179556369
 20
103.3105639918
 30
0.0
 11
174.2179556369
 21
103.3105639918
 31
0.0
  0
LINE
  5
194
330
1F
100
AcDbEntity
  8
0
  6
HIDDEN
 62
     7
370
     0
100
AcDbLine
 10
174.2179556369
 20
110.1105639918
 30
0.0
 11
163.5179556369
 21
110.1105639918
 31
0.0
  0
LINE
  5
195
330
1F
100
AcDbEntity
  8
0
  6
HIDDEN
 62
     7
370
     0
100
AcDbLine
 10
173.6679556369
 20
124.2105639918
 30
0.0
 11
174.6679556369
 21
123.6332137226
 31
0.0
  0
LINE
  5
196
330
1F
100
AcDbEntity
  8
0
  6
HIDDEN
 62
     7
370
     0
100
AcDbLine
 10
179.6679556369
 20
123.6332137226
 30
0.0
 11
180.6679556369
 21
124.2105639918
 31
0.0
  0
LINE
  5
197
330
1F
100
AcDbEntity
  8
0
  6
HIDDEN
 62
     7
370
     0
100
AcDbLine
 10
180.6679556369
 20
89.2105639918
 30
0.0
 11
179.6679556369
 21
89.7879142609
 31
0.0
  0
LINE
  5
198
330
1F
100
AcDbEntity
  8
0
  6
HIDDEN
 62
     7
370
     0
100
AcDbLine
 10
174.6679556369
 20
89.7879142609
 30
0.0
 11
173.6679556369
 21
89.2105639918
 31
0.0
  0
ARC
  5
199
330
1F
100
AcDbEntity
  8
0
  6
HIDDEN
 62
     7
370
     0
100
AcDbCircle
 10
177.3231816188
 20
101.8105639918
 30
0.0
 40
0.4000000000000171
100
AcDbArc
 50
270.0
 51
290.0
  0
LINE
  5
19A
330
1F
100
AcDbEntity
  8
0
  6
HIDDEN
 62
     7
370
     0
100
AcDbLine
 10
174.6679556369
 20
123.6332137226
 30
0.0
 11
174.6679556369
 21
115.2105639918
 31
0.0
  0
LINE
  5
19B
330
1F
100
AcDbEntity
  8
0
  6
HIDDEN
 62
     7
370
     0
100
AcDbLine
 10
179.6679556369
 20
115.2105639918
 30
0.0
 11
179.6679556369
 21
123.6332137226
 31
0.0
  0
LINE
  5
19C
330
1F
100
AcDbEntity
  8
0
  6
HIDDEN
 62
     7
370
     0
100
AcDbLine
 10
174.6679556369
 20
115.2105639918
 30
0.0
 11
177.1679556369
 21
113.7084124442
 31
0.0
  0
LINE
  5
19D
330
1F
100
AcDbEntity
  8
0
  6
HIDDEN
 62
     7
370
     0
100
AcDbLine
 10
177.1679556369
 20
113.7084124442
 30
0.0
 11
179.6679556369
 21
115.2105639918
 31
0.0
  0
LINE
  5
19E
330
1F
100
AcDbEntity
  8
0
  6
HIDDEN
 62
     7
370
     0
100
AcDbLine
 10
179.6679556369
 20
98.2105639918
 30
0.0
 11
177.1679556369
 21
99.7127155393
 31
0.0
  0
LINE
  5
19F
330
1F
100
AcDbEntity
  8
0
  6
HIDDEN
 62
     7
370
     0
100
AcDbLine
 10
177.1679556369
 20
99.7127155393
 30
0.0
 11
174.6679556369
 21
98.2105639918
 31
0.0
  0
LINE
  5
1A0
330
1F
100
AcDbEntity
  8
0
  6
HIDDEN
 62
     7
370
     0
100
AcDbLine
 10
179.6679556369
 20
89.7879142609
 30
0.0
 11
179.6679556369
 21
98.2105639918
 31
0.0
  0
LINE
  5
1A1
330
1F
100
AcDbEntity
  8
0
  6
HIDDEN
 62
     7
370
     0
100
AcDbLine
 10
174.6679556369
 20
98.2105639918
 30
0.0
 11
174.6679556369
 21
89.7879142609
 31
0.0
  0
LINE
  5
1A2
330
1F
100
AcDbEntity
  8
0
  6
HIDDEN
 62
     7
370
     0
100
AcDbLine
 10
177.7179556369
 20
114.9924709679
 30
0.0
 11
177.7179556369
 21
115.5493987566
 31
0.0
  0
LINE
  5
1A3
330
1F
100
AcDbEntity
  8
0
  6
HIDDEN
 62
     7
370
     0
100
AcDbLine
 10
177.7179556369
 20
110.3755839981
 30
0.0
 11
177.7179556369
 21
113.2405511581
 31
0.0
  0
LINE
  5
1A4
330
1F
100
AcDbEntity
  8
0
  6
HIDDEN
 62
     7
370
     0
100
AcDbLine
 10
174.7179556369
 20
113.9270490532
 30
0.0
 11
174.7179556369
 21
110.4558671077
 31
0.0
  0
LINE
  5
1A5
330
1F
100
AcDbEntity
  8
0
  6
HIDDEN
 62
     7
370
     0
100
AcDbLine
 10
174.7179556369
 20
115.5493987566
 30
0.0
 11
174.7179556369
 21
114.4402629784
 31
0.0
  0
LINE
  5
1A6
330
1F
100
AcDbEntity
  8
0
  6
HIDDEN
 62
     7
370
     0
100
AcDbLine
 10
177.4289469347
 20
112.8739083233
 30
0.0
 11
215.2179556369
 21
111.8240427053
 31
0.0
  0
LINE
  5
1A7
330
1F
100
AcDbEntity
  8
0
  6
HIDDEN
 62
     7
370
     0
100
AcDbLine
 10
215.2179556369
 20
114.3250073395
 30
0.0
 11
177.4265452215
 21
115.3749396826
 31
0.0
  0
LINE
  5
1A8
330
1F
100
AcDbEntity
  8
0
  6
HIDDEN
 62
     7
370
     0
100
AcDbLine
 10
174.7300641985
 20
114.5688476182
 30
0.0
 11
174.4982974657
 21
114.2058108264
 31
0.0
  0
LINE
  5
1A9
330
1F
100
AcDbEntity
  8
0
  6
HIDDEN
 62
     7
370
     0
100
AcDbLine
 10
174.4982974657
 20
114.2058108264
 30
0.0
 11
174.7442929275
 21
113.7687366452
 31
0.0
  0
LINE
  5
1AA
330
1F
100
AcDbEntity
  8
0
  6
HIDDEN
 62
     7
370
     0
100
AcDbLine
 10
139.2179556369
 20
154.2574354552
 30
0.0
 11
139.2179556369
 21
152.3821173709
 31
0.0
  0
LINE
  5
1AB
330
1F
100
AcDbEntity
  8
0
  6
HIDDEN
 62
     7
370
     0
100
AcDbLine
 10
149.2179556369
 20
152.3876256293
 30
0.0
 11
149.2179556369
 21
154.263169888
 31
0.0
  0
DIMENSION
  5
1AC
330
1F
100
AcDbEntity
  8
VERMASSUNG
100
AcDbDimension
  2
*D1
 10
80.720161768
 20
56.7105639918
 30
0.0
 11
80.720161768
 21
105.7822866353
 31
0.0
 70
   160
  1
HSK A %%c<>
 71
     2
 42
-1.0
  3
SLDDIMSTYLE0
100
AcDbAlignedDimension
 13
135.7179556369
 23
156.7105639918
 33
0.0
 14
135.7179556369
 24
56.7105639918
 34
0.0
 50
90.0
100
AcDbRotatedDimension
  0
DIMENSION
  5
1B9
330
1F
100
AcDbEntity
  8
VERMASSUNG
100
AcDbDimension
  2
*D2
 10
215.2179556369
 20
174.0892556775
 30
0.0
 11
150.2679556369
 21
174.0892556775
 31
0.0
 70
   160
 71
     2
 42
-1.0
  3
SLDDIMSTYLE0
100
AcDbAlignedDimension
 13
85.3179556369
 23
137.2132337343
 33
0.0
 14
215.2179556369
 24
117.9364234701
 34
0.0
100
AcDbRotatedDimension
  0
DIMENSION
  5
1C3
330
1F
100
AcDbEntity
  8
VERMASSUNG
100
AcDbDimension
  2
*D3
 10
215.2179556369
 20
168.0892556775
 30
0.0
 11
175.2179556369
 21
168.0892556775
 31
0.0
 70
   160
 71
     2
 42
-1.0
  3
SLDDIMSTYLE0
100
AcDbAlignedDimension
 13
135.2179556369
 23
156.2105639918
 33
0.0
 14
215.2179556369
 24
117.9364234701
 34
0.0
100
AcDbRotatedDimension
  0
DIMENSION
  5
1CD
330
1F
100
AcDbEntity
  8
VERMASSUNG
100
AcDbDimension
  2
*D4
 10
215.2179556369
 20
162.0892556775
 30
0.0
 11
189.6929556369
 21
162.0892556775
 31
0.0
 70
   160
 71
     2
 42
-1.0
  3
SLDDIMSTYLE0
100
AcDbAlignedDimension
 13
164.1679556369
 23
154.6793038126
 33
0.0
 14
215.2179556369
 24
117.9364234701
 34
0.0
100
AcDbRotatedDimension
  0
DIMENSION
  5
1D7
330
1F
100
AcDbEntity
  8
VERMASSUNG
100
AcDbDimension
  2
*D5
 10
220.5204268308
 20
101.7105639918
 30
0.0
 11
220.5204268308
 21
106.7105639918
 31
0.0
 70
   160
  1
%%c<>
 71
     2
 42
-1.0
  3
SLDDIMSTYLE0
100
AcDbAlignedDimension
 13
214.9179556369
 23
111.7105639918
 33
0.0
 14
214.9179556369
 24
101.7105639918
 34
0.0
 50
90.0
100
AcDbRotatedDimension
  0
DIMENSION
  5
1E2
330
1F
100
AcDbEntity
  8
VERMASSUNG
100
AcDbDimension
  2
*D6
 10
226.5204268308
 20
89.2105639918
 30
0.0
 11
226.5204268308
 21
106.7105639918
 31
0.0
 70
   160
  1
%%c<>
 71
     2
 42
-1.0
  3
SLDDIMSTYLE0
100
AcDbAlignedDimension
 13
204.4954210344
 23
124.2105639918
 33
0.0
 14
204.4954210344
 24
89.2105639918
 34
0.0
 50
90.0
100
AcDbRotatedDimension
  0
LINE
  5
1ED
330
1F
100
AcDbEntity
  8
VERMASSUNG
  6
CENTERX2
 62
     7
370
     0
100
AcDbLine
 10
83.0674862759
 20
106.7105639918
 30
0.0
 11
217.1967712464
 21
106.7105639918
 31
0.0
  0
OLE2FRAME
  5
1EE
330
1F
100
AcDbEntity
  8
0
100
AcDbOle2Frame
 70
     2
  3
Bitmap Image
 10
13.8511154363
 20
38.264191557
 30
0.0
 11
51.6290888628
 21
31.9806341108
 31
0.0
 71
     2
 72
     0
 73
     1
 90
    12928
310
80552BED0767C5B32B40DDAF6807D121434000000000000000006FFBDDFB85D0
310
4940DDAF6807D121434000000000000000006FFBDDFB85D04940416F4BD60AFB
310
3F4000000000000000002BED0767C5B32B40416F4BD60AFB3F40000000000000
310
0000000000000100000000010000010000000100000000000100000000320000
310
D0CF11E0A1B11AE1000000000000000000000000000000003E000300FEFF0900
310
0600000000000000000000000100000001000000000000000010000002000000
310
01000000FEFFFFFF0000000000000000FFFFFFFFFFFFFFFFFFFFFFFFFFFFFFFF
310
FFFFFFFFFFFFFFFFFFFFFFFFFFFFFFFFFFFFFFFFFFFFFFFFFFFFFFFFFFFFFFFF
310
FFFFFFFFFFFFFFFFFFFFFFFFFFFFFFFFFFFFFFFFFFFFFFFFFFFFFFFFFFFFFFFF
310
FFFFFFFFFFFFFFFFFFFFFFFFFFFFFFFFFFFFFFFFFFFFFFFFFFFFFFFFFFFFFFFF
310
FFFFFFFFFFFFFFFFFFFFFFFFFFFFFFFFFFFFFFFFFFFFFFFFFFFFFFFFFFFFFFFF
310
FFFFFFFFFFFFFFFFFFFFFFFFFFFFFFFFFFFFFFFFFFFFFFFFFFFFFFFFFFFFFFFF
310
FFFFFFFFFFFFFFFFFFFFFFFFFFFFFFFFFFFFFFFFFFFFFFFFFFFFFFFFFFFFFFFF
310
FFFFFFFFFFFFFFFFFFFFFFFFFFFFFFFFFFFFFFFFFFFFFFFFFFFFFFFFFFFFFFFF
310
FFFFFFFFFFFFFFFFFFFFFFFFFFFFFFFFFFFFFFFFFFFFFFFFFFFFFFFFFFFFFFFF
310
FFFFFFFFFFFFFFFFFFFFFFFFFFFFFFFFFFFFFFFFFFFFFFFFFFFFFFFFFFFFFFFF
310
FFFFFFFFFFFFFFFFFFFFFFFFFFFFFFFFFFFFFFFFFFFFFFFFFFFFFFFFFFFFFFFF
310
FFFFFFFFFFFFFFFFFFFFFFFFFFFFFFFFFFFFFFFFFFFFFFFFFFFFFFFFFFFFFFFF
310
FFFFFFFFFFFFFFFFFFFFFFFFFFFFFFFFFFFFFFFFFFFFFFFFFFFFFFFFFFFFFFFF
310
FFFFFFFFFFFFFFFFFFFFFFFFFFFFFFFFFFFFFFFFFFFFFFFFFFFFFFFFFFFFFFFF
310
FDFFFFFFFEFFFFFFFEFFFFFFFEFFFFFF05000000060000000700000008000000
310
090000000A0000000B0000000C0000000D0000000E0000000F00000010000000
310
11000000120000001300000014000000150000001600000017000000FEFFFFFF
310
FFFFFFFFFFFFFFFFFFFFFFFFFFFFFFFFFFFFFFFFFFFFFFFFFFFFFFFFFFFFFFFF
310
FFFFFFFFFFFFFFFFFFFFFFFFFFFFFFFFFFFFFFFFFFFFFFFFFFFFFFFFFFFFFFFF
310
FFFFFFFFFFFFFFFFFFFFFFFFFFFFFFFFFFFFFFFFFFFFFFFFFFFFFFFFFFFFFFFF
310
FFFFFFFFFFFFFFFFFFFFFFFFFFFFFFFFFFFFFFFFFFFFFFFFFFFFFFFFFFFFFFFF
310
FFFFFFFFFFFFFFFFFFFFFFFFFFFFFFFFFFFFFFFFFFFFFFFFFFFFFFFFFFFFFFFF
310
FFFFFFFFFFFFFFFFFFFFFFFFFFFFFFFFFFFFFFFFFFFFFFFFFFFFFFFFFFFFFFFF
310
FFFFFFFFFFFFFFFFFFFFFFFFFFFFFFFFFFFFFFFFFFFFFFFFFFFFFFFFFFFFFFFF
310
FFFFFFFFFFFFFFFFFFFFFFFFFFFFFFFFFFFFFFFFFFFFFFFFFFFFFFFFFFFFFFFF
310
FFFFFFFFFFFFFFFFFFFFFFFFFFFFFFFFFFFFFFFFFFFFFFFFFFFFFFFFFFFFFFFF
310
FFFFFFFFFFFFFFFFFFFFFFFFFFFFFFFFFFFFFFFFFFFFFFFFFFFFFFFFFFFFFFFF
310
FFFFFFFFFFFFFFFFFFFFFFFFFFFFFFFFFFFFFFFFFFFFFFFFFFFFFFFFFFFFFFFF
310
FFFFFFFFFFFFFFFFFFFFFFFFFFFFFFFFFFFFFFFFFFFFFFFFFFFFFFFFFFFFFFFF
310
FFFFFFFFFFFFFFFFFFFFFFFFFFFFFFFFFFFFFFFFFFFFFFFFFFFFFFFFFFFFFFFF
310
52006F006F007400200045006E00740072007900000000000000000000000000
310
0000000000000000000000000000000000000000000000000000000000000000
310
16000500FFFFFFFFFFFFFFFF020000000A00030000000000C000000000000046
310
000000000000000000000000C0A0EA950500CC0103000000C000000000000000
310
01004F006C006500000000000000000000000000000000000000000000000000
310
0000000000000000000000000000000000000000000000000000000000000000
310
0A000200FFFFFFFFFFFFFFFFFFFFFFFF00000000000000000000000000000000
310
0000000000000000000000000000000000000000000000001400000000000000
310
010043006F006D0070004F0062006A0000000000000000000000000000000000
310
0000000000000000000000000000000000000000000000000000000000000000
310
120002010100000003000000FFFFFFFF00000000000000000000000000000000
310
0000000000000000000000000000000000000000010000004D00000000000000
310
01004F006C006500310030004E00610074006900760065000000000000000000
310
0000000000000000000000000000000000000000000000000000000000000000
310
1A000200FFFFFFFFFFFFFFFFFFFFFFFF00000000000000000000000000000000
310
0000000000000000000000000000000000000000040000002426000000000000
310
FEFFFFFF02000000FEFFFFFFFFFFFFFFFFFFFFFFFFFFFFFFFFFFFFFFFFFFFFFF
310
FFFFFFFFFFFFFFFFFFFFFFFFFFFFFFFFFFFFFFFFFFFFFFFFFFFFFFFFFFFFFFFF
310
FFFFFFFFFFFFFFFFFFFFFFFFFFFFFFFFFFFFFFFFFFFFFFFFFFFFFFFFFFFFFFFF
310
FFFFFFFFFFFFFFFFFFFFFFFFFFFFFFFFFFFFFFFFFFFFFFFFFFFFFFFFFFFFFFFF
310
FFFFFFFFFFFFFFFFFFFFFFFFFFFFFFFFFFFFFFFFFFFFFFFFFFFFFFFFFFFFFFFF
310
FFFFFFFFFFFFFFFFFFFFFFFFFFFFFFFFFFFFFFFFFFFFFFFFFFFFFFFFFFFFFFFF
310
FFFFFFFFFFFFFFFFFFFFFFFFFFFFFFFFFFFFFFFFFFFFFFFFFFFFFFFFFFFFFFFF
310
FFFFFFFFFFFFFFFFFFFFFFFFFFFFFFFFFFFFFFFFFFFFFFFFFFFFFFFFFFFFFFFF
310
FFFFFFFFFFFFFFFFFFFFFFFFFFFFFFFFFFFFFFFFFFFFFFFFFFFFFFFFFFFFFFFF
310
FFFFFFFFFFFFFFFFFFFFFFFFFFFFFFFFFFFFFFFFFFFFFFFFFFFFFFFFFFFFFFFF
310
FFFFFFFFFFFFFFFFFFFFFFFFFFFFFFFFFFFFFFFFFFFFFFFFFFFFFFFFFFFFFFFF
310
FFFFFFFFFFFFFFFFFFFFFFFFFFFFFFFFFFFFFFFFFFFFFFFFFFFFFFFFFFFFFFFF
310
FFFFFFFFFFFFFFFFFFFFFFFFFFFFFFFFFFFFFFFFFFFFFFFFFFFFFFFFFFFFFFFF
310
FFFFFFFFFFFFFFFFFFFFFFFFFFFFFFFFFFFFFFFFFFFFFFFFFFFFFFFFFFFFFFFF
310
FFFFFFFFFFFFFFFFFFFFFFFFFFFFFFFFFFFFFFFFFFFFFFFFFFFFFFFFFFFFFFFF
310
FFFFFFFFFFFFFFFFFFFFFFFFFFFFFFFFFFFFFFFFFFFFFFFFFFFFFFFFFFFFFFFF
310
010000020000000000000000000000000000000061007200510082005C003107
310
D807250000000000D807250000000000680061007200650064005C003B004300
310
0100FEFF030A0000FFFFFFFF0A00030000000000C00000000000004607000000
310
5042727573680007000000504272757368000700000050427275736800F439B2
310
71000000000000000000000000004100540049002E004100430045005C004300
310
6F00720065002D005300740061007400690063003B0043003A005C0050007200
310
6F006700720061006D002000460069006C006500730020002800780038003600
310
29005C0043006F006D006D006F006E002000460069006C00650073005C004100
310
750074006F006400650073006B0020005300680061007200650064005C003B00
310
43003A005C00500072006F006700720061006D002000460069006C0065007300
310
5C004E006F0072006D0061006E005C004E0070006D005C00420069006E000000
310
43003A005C00500072006F006700720061006D002000460069006C0065007300
310
5C0053006F006C006900640057006F0072006B007300200043006F0072007000
310
5C0053006F006C006900640057006F0072006B00730020002800320029005C00
310
730065007400750070005C0069003300380036005C0073007700610063007400
310
770069007A002E006500780065000000220043003A005C00500072006F006700
310
20260000424D0E260000000000003E00000028000000B40200006E0000000100
310
01000000000000000000130B0000130B00000200000002000000000000FFFFFF
310
FFFFFFFFFFFFFFFFFFFFFFFFFFFFFFFFFFFFFFFFFFFFFFFFFFFFFFFFFFFFFFFF
310
FFFFFFFFFFFFFFFFFFFFFFFFFFFFFFFFFFFFFFFFFFFFFFFFFFFFFFFFFFFFFFFF
310
FFFFFFFFFFFFFFFFFFFFFFFFFFFFFFFFFFFFFFFFFFFFFFFFF000FFFFFFFFFFFF
310
FFFFFFFFFFFFFFFFFFFFFFFFFFFFFFFFFFFFFFFFFFFFFFFFFFFFFFFFFFFFFFFF
310
FFFFFFFFFFFFFFFFFFFFFFFFFFFFFFFFFFFFFFFFFFFFFFFFFFFFFFFFFFFFFFFF
310
FFFFFFFFFFFFFFFFFFFFFFFFFFFFFFFFF000FFFFFFFFFFFFFFFFFFFFFFFFFFFF
310
FFFFFFFFFFFFFFFFFFFFFFFFFFFFFFFFFFFFFFFFFFFFFFFFFFFFFFFFFFFFFFFF
310
FFFFFFFFFFFFFFFFFFFFFFFFFFFFFFFFFFFFFFFFFFFFFFFFFFFFFFFFFFFFFFFF
310
FFFFFFFFFFFFFFFFF000FFFFFFFFFFFFFFFFFFFFFFFFFFFFFFFFFFFFFFFFFFFF
310
FFFFFFFFFFFFFFFFFFFFFFFFFFFFFFFFFFFFFFFFFFFFFFFFFFFFFFFFFFFFFFFF
310
FFFFFFFFFFFFFFFFFFFFFFFFFFFFFFFFFFFFFFFFFFFFFFFFFFFFFFFFFFFFFFFF
310
F000FFFFFFFFFFFFFFFFFFFFFFFFFFFFFFFFFFFFFFFFFFFFFFFFFFFFFFFFFFFF
310
FFFFFFFFFFFFFFFFFFFFFFFFFFFFFFFFFFFFFFFFFFFFFFFFFFFFFFFFFFFFFFFF
310
FFFFFFFFFFFFFFFFFFFFFFFFFFFFFFFFFFFFFFFFFFFFFFFFF000FFFFFFFFFFFF
310
FFFFFFFFFFFFFFFFFFFFFFFFFFFFFFFFFFFFFFFFFFFFFFFFFFFFFFFFFFFFFFFF
310
FFFFFFFFFFFFFFFFFFFFFFFFFFFFFFFFFFFFFFFFFFFFFFFFFFFFFFFFFFFFFFFF
310
FFFFFFFFFFFFFFFFFFFFFFFFFFFFFFFFF000FFFFFFFFFFFFFFFFFFFFFFFFFFFF
310
FFFFFFFFFFFFFFFFFFFFFFFFFFFFFFFFFFFFFFFFFFFFFFFFFFFFFFFFFFFFFFFF
310
FFFFFFFFFFFFFFFFFFFFFFFFFFFFFFFFFFFFFFFFFFFFFFFFFFFFFFFFFFFFFFFF
310
FFFFFFFFFFFFFFFFF000FFFFFFFFFFFFFFFFFFFFFFFFFFFFFFFFFFFFFFFFFFFF
310
FFFFFFFFFFFFFFFFFFFFFFFFFFFFFFFFFFFFFFFFFFFFFFFFFFFFFFFFFFFFFFFF
310
FFFFFFFFFFFFFFFFFFFFFFFFFFFFFFFFFFFFFFFFFFFFFFFFFFFFFFFFFFFFFFFF
310
F000FFFFFFFFFFFFFFFFFFFFFFFFFFFFFFFFFFFFFFFFFFFFFFFFFFFFFFFFFFFF
310
FFFFFFFFFFFFFFFFFFFFFFFFFFFFFFFFFFFFFFFFFFFFFFFFFFFFFFFFFFFFFFFF
310
FFFFFFFFFFFFFFFFFFFFFFFFFFFFFFFFFFFFFFFFFFFFFFFFF000FFFFFFFFFFFF
310
FFFFFFFFFFFFFFFFFFFFFFFFFFFFFFFFFFFFFFFFFFFFFFFFFFFFFFFFFFFFFFFF
310
FFFFFFFFFFFFFFFFFFFFFFFFFFFFFFFFFFFFFFFFFFFFFFFFFFFFFFFFFFFFFFFF
310
FFFFFFFFFFFFFFFFFFFFFFFFFFFFFFFFF000FFFFFFFFFFFFFFFFFFFFFFFFFFFF
310
FFFFFFFFFFFFFFFFFFFFFFFFFFFFFFFFFFFFFFFFFFFFFFFFFFFFFFFFFFFFFFFF
310
FFFFFFFFFFFFFFFFFFFFFFFFFFFFFFFFFFFFFFFFFFFFFFFFFFFFFFFFFFFFFFFF
310
FFFFFFFFFFFFFFFFF000FFFFFFFFFFFFFFFFFFFFFFFFFFFFFFFFFFFFFFFFFFFF
310
FFFFFFFFFFFFFFFFFFFFFFFFFFFFFFFFFFFFFFFFFFFFFFFFFFFFFFFFFFFFFFFF
310
FFFFFFFFFFFFFFFFFFFFFFFFFFFFFFFFFFFFFFFFFFFFFFFFFFFFFFFFFFFFFFFF
310
F000FFFFFFFFFFFFFFFFFFFFFFFFFFFFFFFFFFFFFFFFFFFFFFFFFFFFFFFFFFFF
310
FFFFFFFFFFFFFFFFFFFFFFFFFFFFFFFFFFFFFFFFFFFFFFFFFFFFFFFFFFFFFFFF
310
FFFFFFFFFFFFFFFFFFFFFFFFFFFFFFFFFFFFFFFFFFFFFFFFF000FFFFFFFFFFFF
310
FFFFFFFFFFFFFFFFFFFFFFFFFFFFFFFFFFFFFFFFFFFFFFFFFFFFFFFFFFFFFFFF
310
FFFFFFFFFFFFFFFFFFFFFFFFFFFFFFFFFFFFFFFFFFFFFFFFFFFFFFFFFFFFFFFF
310
FFFFFFFFFFFFFFFFFFFFFFFFFFFFFFFFF000FFFFFFFFFFFFFFFFFFFFFFFFFFFF
310
FFFFFFFFFFFFFFFFFFFFFFFFFFFFFFFFFFFFFFFFFFFFFFFFFFFFFFFFFFFFFFFF
310
FFFFFFFFFFFFFFFFFFFFFFFFFFFFFFFFFFFFFFFFFFFFFFFFFFFFFFFFFFFFFFFF
310
FFFFFFFFFFFFFFFFF000FFFFFFFFFFFFFFFFFFFFFFFFFFFFFFFFFFFFFFFFFFFF
310
FFFFFFFFFFFFFFFFFFFFFFFFFFFFFFFFFFFFFFFFFFFFFFFFFFFFFFFFFFFFFFFF
310
FFFFFFFFFFFFFFFFFFFFFFFFFFFFFFFFFFFFFFFFFFFFFFFFFFFFFFFFFFFFFFFF
310
F000FFFFFFFFFFFFFFFFFFFFFFFFFFFFFFFFFFFFFFFFFFFFFFFFFFFFFFFFFFFF
310
FFFFFFFFFFFFFFFFFFFFFFFFFFFFFFFFFFFFFFFFFFFFFFFFFFFFFFFFFFFFFFFF
310
FFFFFFFFFFFFFFFFFFFFFFFFFFFFFFFFFFFFFFFFFFFFFFFFF000FFFFFFFFFFFF
310
FFFFFFFFFFFFFFFFFFFFFFFFFFFFFFFFFFFFFFFFFFFFFFFFFFFFFFFFFFFFFFFF
310
FFFFFFFFFFFFFFFFFFFFFFFFFFFFFFFFFFFFFFFFFFFFFFFFFFFFFFFFFFFFFFFF
310
FFFFFFFFFFFFFFFFFFFFFFFFFFFFFFFFF000FFFFFFFFFFFFFFFFFFFFFFFFFFFF
310
FFFFFFFFFFFFFFFFFFFFFFFFFFFFFFFFFFFFFFFFFFFFFFFFFFFFFFFFFFFFFFFF
310
FFFFFFFFFFFFFFFFFFFFFFFFFFFFFFFFFFFFFFFFFFFFFFFFFFFFFFFFFFFFFFFF
310
FFFFFFFFFFFFFFFFF000FFFFF80003FFFFFFFFFFFFFFFFFFFFFFFFFFFFFFFFFF
310
FFFFF00007FFFFFFFFFF00007FFFFFF800000000000000007FFFFFFFFFFFFFFF
310
FFFFFFFC001FFFFFFFFFFFFFFC001FFFFFFFFFFFFFFFFFFFFFFFFFFE0007FFFF
310
F000FFFF8000007FFFFFFFF8000FFFFFC0007FFFFF80007FFFFF0000007FFFFF
310
FFF8000007FFFFF800000000000000007FFFFFF0001FFFFFFFFFFFC00001FFFF
310
FFFFFFFFC00001FFFFFFFF000000000003FFFFE000007FFFF000FFFE0000000F
310
FFFFFFF0000FFFFF80007FFFFF80007FFFFC0000001FFFFFFFC0000001FFFFF8
310
00000000000000007FFFFFF0001FFFFFFFFFFE0000003FFFFFFFFFFE0000003F
310
FFFFFF000000000003FFFF0000000FFFF000FFF800000003FFFFFFF00007FFFF
310
80007FFFFF80007FFFF000000007FFFFFF000000003FFFF80000000000000000
310
7FFFFFF0001FFFFFFFFFF80000000FFFFFFFFFF80000000FFFFFFF0000000000
310
03FFFC00000003FFF000FFE000000000FFFFFFF00007FFFF80003FFFFF80007F
310
FFC000000001FFFFFC000000001FFFF800000000000000007FFFFFF0001FFFFF
310
FFFFE000000003FFFFFFFFE000000003FFFFFF000000000003FFF000000000FF
310
F000FF80000000007FFFFFF00007FFFF80003FFFFF80007FFF8000000000FFFF
310
F80000000007FFF800000000000000007FFFFFF0001FFFFFFFFFC000000001FF
310
FFFFFFC000000001FFFFFF000000000003FFC0000000007FF000FF0000000000
310
3FFFFFE00007FFFF00003FFFFF80007FFE00000000003FFFF00000000003FFF8
310
00000000000000007FFFFFF0001FFFFFFFFF8000000000FFFFFFFF8000000000
310
FFFFFF000000000003FF80000000003FF000FE00000000001FFFFFE00003FFFF
310
00003FFFFF80007FFC00000000001FFFE00000000001FFF8000001FFFE000000
310
7FFFFFF0001FFFFFFFFE00000000003FFFFFFE00000000003FFFFF0000000000
310
03FF00000000001FF000FC00000000000FFFFFE00003FFFF00001FFFFF80007F
310
F800000000001FFFC00000000000FFF8000001FFFE0000007FFFFFF0001FFFFF
310
FFFC00000000001FFFFFFC00000000001FFFFF000000000003FE00000000000F
310
F000F8000000000007FFFFE00003FFFF00001FFFFF80007FF800000000000FFF
310
800000000000FFF8000001FFFE0000007FFFFFF0001FFFFFFFF800000000000F
310
FFFFF800000000000FFFFF000000000003FC000000000007F000F80000000000
310
03FFFFC00003FFFE00001FFFFF80007FF0000000000007FF0000000000007FF8
310
000001FFFE0000007FFFFFF0001FFFFFFFF0000000000007FFFFF00000000000
310
07FFFF000000000003F8000000000003F000F0000000000003FFFFC00001FFFE
310
00001FFFFF80007FE0000000000007FE0000000000003FF8000001FFFE000000
310
7FFFFFF0001FFFFFFFF0000000000007FFFFF0000000000007FFFF0000000000
310
03F800001F800003F000E00001FFF00001FFFFC00001FFFE00000FFFFF80007F
310
E00001FFE00003FE00001FFF00003FF8000001FFFE0000007FFFFFF0001FFFFF
310
FFE000003E000003FFFFE000003E000003FFFF000000000003F00001FFF80001
310
F000E00007FFFC0001FFFFC00001FFFE00000FFFFF80007FC0000FFFFC0003FC
310
0000FFFFC0001FF8000001FFFE0000007FFFFFF0001FFFFFFFC00003FFE00001
310
FFFFC00003FFE00001FFFF0001FFFFFFFFF00007FFFE0001F000E0000FFFFF00
310
00FFFF800001FFFC00000FFFFF80007FC0001FFFFE0001FC0001FFFFE0001FF8
310
000001FFFE0000007FFFFFF0001FFFFFFF80000FFFF80000FFFF80000FFFF800
310
00FFFF0003FFFFFFFFE0000FFFFF8000F000C0003FFFFF8000FFFF800000FFFC
310
000007FFFF80007F80003FFFFF0001FC0003FFFFF0001FF8000001FFFE000000
310
7FFFFFF0001FFFFFFF80003FFFFE0000FFFF80003FFFFE0000FFFF0003FFFFFF
310
FFE0003FFFFF8000F000C0003FFFFF8000FFFF800000FFFC000007FFFF80007F
310
80007FFFFF8001F80007FFFFF8000FF8000001FFFE0000007FFFFFF0001FFFFF
310
FF00007FFFFF00007FFF00007FFFFF00007FFF0003FFFFFFFFE0003FFFFFC000
310
F000C0007FFFFFC000FFFF000000FFFC000007FFFF80007F8000FFFFFF8000F8
310
000FFFFFF8000FF8000001FFFE0000007FFFFFF0001FFFFFFF0000FFFFFF8000
310
7FFF0000FFFFFF80007FFF0003FFFFFFFFC0007FFFFFC00070008000FFFFFFC0
310
00FFFF000000FFF8000007FFFF80007F8000FFFFFF8000F8000FFFFFF8000FF8
310
000001FFFE0000007FFFFFF0001FFFFFFE0001FFFFFFC0003FFE0001FFFFFFC0
310
003FFF0003FFFFFFFFC0007FFFFFE00070008000FFFFFFC0007FFF0000007FF8
310
000003FFFF80007F0001FFFFFF8000F8000FFFFFF8000FF8000001FFFE000000
310
7FFFFFF0001FFFFFFE0001FFFFFFC0003FFE0001FFFFFFC0003FFF0003FFFFFF
310
FFC000FFFFFFE00070008000FFFFFFC0007FFF0000007FF8000003FFFF80007F
310
0001FFFFFF8000F8001FFFFFF8000FF8000001FFFE0000007FFFFFF0001FFFFF
310
FE0003FFFFFFE0003FFE0003FFFFFFE0003FFF0003FFFFFFFFC000FFFFFFE000
310
70008000FFFFFFC0007FFE0000007FF8000003FFFF80007F0001FFFFFF8000F0
310
001FFFFFF8000FF8000001FFFE0000007FFFFFF0001FFFFFFC0003FFFFFFE000
310
1FFC0003FFFFFFE0001FFF0003FFFFFFFFC000FFFFFFC00070008000FFFFFF80
310
007FFE0000007FF0000003FFFF80007F0001FFFFFF0000F0001FFFFFF8000FF8
310
000001FFFE0000007FFFFFF0001FFFFFFC0007FFFFFFF0001FFC0007FFFFFFF0
310
001FFF0003FFFFFFFFC000FFFFFFC00070008001FFFFFF0000FFFE0000003FF0
310
000001FFFF80007F0001FFFFFF0000F8001FFFFFF0000FF8000001FFFE000000
310
7FFFFFF0001FFFFFFC0007FFFFFFF0001FFC0007FFFFFFF0001FFF0003FFFFFF
310
FFC001FFFFFF80007000FFFFFFFFFE0000FFFE0008003FF0008001FFFF80007F
310
FFFFFFFFFC0000FFFFFFFFFFE0000FF8000001FFFE0000007FFFFFF0001FFFFF
310
F8000FFFFFFFF8000FF8000FFFFFFFF8000FFF0003FFFFFFFFFFFFFFFFFF0000
310
7000FFFFFFFFFC0000FFFC0008003FF0008001FFFF80007FFFFFFFFFF80001FF
310
FFFFFFFF80000FF8000001FFFE0000007FFFFFF0001FFFFFF8000FFFFFFFF800
310
0FF8000FFFFFFFF8000FFF0003FFFFFFFFFFFFFFFFFE0000F000FFFFFFFFE000
310
00FFFC000C003FE000C001FFFF80007FFFFFFFFFC00001FFFFFFFFFE00001FF8
310
000001FFFE0000007FFFFFF0001FFFFFF8000FFFFFFFF8000FF8000FFFFFFFF8
310
000FFF0003FFFFFFFFFFFFFFFFF00000F000FFFFFFFE000001FFFC000C001FE0
310
00C000FFFF80007FFFFFFFFE000001FFFFFFFFE000001FF80FFFFFFFFFFFFFC0
310
7FFFFFF0001FFFFFF8000FFFFFFFF8000FF8000FFFFFFFF8000FFF0003FFFFFF
310
FFFFFFFFFF800000F000FFFFFFC0000001FFFC001C001FE001C000FFFF80007F
310
FFFFFF80000003FFFFFFF80000001FF80FFFFFFFFFFFFFC07FFFFFF0001FFFFF
310
F8001FFFFFFFFC000FF8001FFFFFFFFC000FFF0003FFFFFFFFFFFFFFF0000001
310
F000FFFFF800000001FFF8001C001FE001C000FFFF80007FFFFFF800000003FF
310
FFFF800000003FF80FFFFFFFFFFFFFC07FFFFFF0001FFFFFF8001FFFFFFFFC00
310
0FF8001FFFFFFFFC000FFF0003FFFFFFFFFFFFFE00000001F000FFFFC0000000
310
03FFF8001E001FC001E000FFFF80007FFFFF8000000007FFFFFC000000003FF8
310
0FFFFFFFFFFFFFC07FFFFFF0001FFFFFF8001FFFFFFFFC000FF8001FFFFFFFFC
310
000FFF0003FFFFFFFFFFFFE000000003F000FFFE0000000007FFF8001E000FC0
310
01E0007FFF80007FFFFE0000000007FFFFE0000000007FF80FFFFFFFFFFFFFC0
310
7FFFFFF0001FFFFFF0001FFFFFFFFC0007F0001FFFFFFFFC0007FF0003FFFFFF
310
FFFFFF0000000003F000FFF80000000007FFF8001E000FC003E0007FFF80007F
310
FFF0000000000FFFFF8000000000FFF80FFFFFFFFFFFFFC07FFFFFF0001FFFFF
310
F0001FFFFFFFFC0007F0001FFFFFFFFC0007FF0003FFFFFFFFFFFC0000000007
310
F000FFE0000000000FFFF0003E000FC003E0007FFF80007FFFC0000000001FFF
310
FE0000000001FFF80FFFFFFFFFFFFFC07FFFFFF0001FFFFFF0001FFFFFFFFC00
310
07F0001FFFFFFFFC0007FF0003FFFFFFFFFFF0000000000FF000FFC000000000
310
1FFFF0003F000F8003F0003FFF80007FFF80000000003FFFF80000000003FFF8
310
0FFFFFFFFFFFFFC07FFFFFF0001FFFFFF0001FFFFFFFFC0007F0001FFFFFFFFC
310
0007FF0003FFFFFFFFFFE0000000001FF000FF00000000007FFFF0003F000780
310
03F0003FFF80007FFF00000000007FFFF00000000007FFF80FFFFFFFFFFFFFC0
310
7FFFFFF0001FFFFFF0001FFFFFFFFC0007F0001FFFFFFFFC0007FF0003FFFFFF
310
FFFF80000000007FF000FE0000000000FFFFE0003F00078007F0003FFF80007F
310
FE0000000001FFFFE0000000001FFFF80FFFFFFFFFFFFFC07FFFFFF0001FFFFF
310
F0001FFFFFFFFC0007F0001FFFFFFFFC0007FF0003FFFFFFFFFF0000000000FF
310
F000FC0000000003FFFFE0007F00078007F0003FFF80007FFC0000000007FFFF
310
C0000000007FFFF80FFFFFFFFFFFFFC07FFFFFF0001FFFFFF8001FFFFFFFFC00
310
0FF8001FFFFFFFFC000FFF0003FFFFFFFFFE0000000003FFF000FC000000000F
310
FFFFE0007F80070007F8001FFF80007FF8000000001FFFFF8000000001FFFFF8
310
0FFFFFFFFFFFFFC07FFFFFF0001FFFFFF8001FFFFFFFFC000FF8001FFFFFFFFC
310
000FFF0003FFFFFFFFFC000000000FFFF000F8000000007FFFFFE0007F800700
310
07F8001FFF80007FF000000000FFFFFF800000000FFFFFF80FFFFFFFFFFFFFC0
310
7FFFFFF0001FFFFFF8000FFFFFFFF8000FF8000FFFFFFFF8000FFF0003FFFFFF
310
FFFC000000007FFFF000F800000007FFFFFFC0007F8003000FF8001FFF80007F
310
F000000007FFFFFF000000007FFFFFF80FFFFFFFFFFFFFC07FFFFFF0001FFFFF
310
F8000FFFFFFFF8000FF8000FFFFFFFF8000FFF0003FFFFFFFFF80000000FFFFF
310
F000F0000000FFFFFFFFC000FF8003000FF8001FFF80007FE0000000FFFFFFFF
310
0000000FFFFFFFF8000001FFFE0000007FFFFFF0001FFFFFF8000FFFFFFFF800
310
0FF8000FFFFFFFF8000FFF0003FFFFFFFFF8000000FFFFFFF000F000000FFFFF
310
FFFFC000FFC002000FF8000FFF80007FE000001FFFFFFFFE000001FFFFFFFFF8
310
000001FFFE0000007FFFFFF0001FFFFFF8000FFFFFFFF8000FF8000FFFFFFFF8
310
000FFF0003FFFFFFFFF000001FFFFFFFF000E00000FFFFFFFFFFC000FFC00200
310
0FFC000FFF80007FE00001FFFFFFFFFE00001FFFFFFFFFF8000001FFFE000000
310
7FFFFFF0001FFFFFFC000FFFFFFFF8001FFC000FFFFFFFF8001FFF0003FFFFFF
310
FFF00001FFFFFFFFF000E00007FFFFFFFFFF8000FFC000001FFC000FFF80007F
310
C0000FFFFFFFFFFE0000FFFFFFFFFFF8000001FFFE0000007FFFFFF0001FFFFF
310
FC0007FFFFFFF0001FFC0007FFFFFFF0001FFF0003FFFFFFFFF00007FFFFFFFF
310
F000E0001FFFFFFFFFFF8000FFC000001FFC000FFF80007FC0003FFFFFFFFFFE
310
0001FFFFFFFFFFF8000001FFFE0000007FFFFFF0001FFFFFFC0007FFFFFFF000
310
1FFC0007FFFFFFF0001FFF0003FFFFFFFFF0001FFFFFFFFFF000E0003FFFFF00
310
03FF8001FFE000001FFC0007FF80007FC0007FFFFF0007FC0003FFFFF0003FF8
310
000001FFFE0000007FFFFFF0001FFFFFFC0003FFFFFFE0001FFC0003FFFFFFE0
310
001FFF0003FFFFFFFFF0003FFFFFFFFFF000E0003FFFFF0001FF8001FFE00000
310
1FFE0007FF80007FC0007FFFFE0003FC0007FFFFE0003FF8000001FFFE000000
310
7FFFFFF0001FFFFFFE0003FFFFFFE0003FFE0003FFFFFFE0003FFF0003FFFFFF
310
FFF0003FFFFF8001F000E0003FFFFF0001FF0001FFE000001FFE0007FF80007F
310
C0007FFFFE0003FC0007FFFFE0003FF8000001FFFE0000007FFFFFF0001FFFFF
310
FE0001FFFFFFC0003FFE0001FFFFFFC0003FFF0003FFFFFFFFF0003FFFFF0001
310
F000E0003FFFFF0003FF0001FFE000003FFE0007FF80007FC0007FFFFE0003FC
310
0007FFFFE0003FF8000001FFFE0000007FFFFFF0001FFFFFFF0001FFFFFFC000
310
7FFF0001FFFFFFC0007FFF0003FFFFFFFFF0003FFFFF0001F000E0003FFFFE00
310
03FF0003FFF000003FFE0003FF80007FC0007FFFFC0003FE0007FFFFE0003FF8
310
000001FFFE0000007FFFFFF0001FFFFFFF0000FFFFFF80007FFF0000FFFFFF80
310
007FFF0003FFFFFFFFF0003FFFFF0001F000E0003FFFFE0003FF0003FFF00000
310
3FFF0003FF80007FC0007FFFFC0007FE0007FFFFC0003FF8000001FFFE000000
310
7FFFFFF0001FFFFFFF80007FFFFF0000FFFF80007FFFFF0000FFFF0003FFFFFF
310
FFF0003FFFFF0003F000E0003FFFFC0003FE0003FFF000003FFF0003FF80007F
310
E0003FFFF80007FE0003FFFFC0007FF8000001FFFE0000007FFFFFF0001FFFFF
310
FF80003FFFFE0000FFFF80003FFFFE0000FFFF0003FFFFFFFFF0001FFFFE0003
310
F000F0001FFFF80003FE0003FFF000007FFF0001FF80007FE0003FFFF00007FE
310
0001FFFF80007FF8000001FFFE0000007FFFFFF0001FFFFFFFC0000FFFF80001
310
FFFFC0000FFFF80001FFFF0003FFFFFFFFF0001FFFFC0003F000F0000FFFF000
310
07FE0007FFF800007FFF0001FF80007FE0001FFFE00007FF0000FFFE00007FF8
310
000001FFFE0000007FFFFFF0001FFFFFFFC00003FFE00001FFFFC00003FFE000
310
01FFFF0003FFFFFFFFF8000FFFF80003F000F00003FFC00007FC0007FFF80000
310
7FFF8001FF80007FF00007FF80000FFF00007FF80000FFF8000001FFFE000000
310
7F80000000000001FFE000003E000003FFFFE000003E000003FFFF0003FFFFFF
310
FFF80003FFE00007F000F800000000000FFC0007FFF800007FFF8001FF80007F
310
F000000000000FFF000000000000FFF8000001FFFE0000007F80000000000001
310
FFF0000000000007FFFFF0000000000007FFFF0003FFFFFFFFFC00007E000007
310
F000F800000000000FFC0007FFF80000FFFF8000FF80007FF800000000001FFF
310
800000000001FFF8000001FFFE0000007F80000000000001FFF800000000000F
310
FFFFF800000000000FFFFF0003FFFFFFFFFC00000000000FF000FC0000000000
310
1FFC0007FFFC0000FFFF8000FF80007FF800000000003FFFC00000000001FFF8
310
000001FFFE0000007F80000000000001FFF800000000000FFFFFF80000000000
310
0FFFFF0003FFFFFFFFFE00000000001FF000FE00000000003FF8000FFFFC0000
310
FFFF8000FF80007FFC00000000003FFFC00000000003FFF8000001FFFE000000
310
7F80000000000001FFFC00000000001FFFFFFC00000000001FFFFF0003FFFFFF
310
FFFF00000000001FF000FF00000000003FF8000FFFFC0000FFFFC000FF80007F
310
FE00000000007FFFE00000000007FFF8000001FFFE0000007F80000000000001
310
FFFE00000000003FFFFFFE00000000003FFFFF0003FFFFFFFFFF80000000003F
310
F000FF80000000007FF8000FFFFC0001FFFFC0007F80007FFF0000000000FFFF
310
F0000000000FFFF800000000000000007F80000000000001FFFF8000000000FF
310
FFFFFF8000000000FFFFFF0003FFFFFFFFFFC0000000007FF000FFC000000000
310
FFF8000FFFFE0001FFFFC0007F80007FFF8000000001FFFFF8000000001FFFF8
310
00000000000000007F80000000000001FFFFC000000001FFFFFFFFC000000001
310
FFFFFF0003FFFFFFFFFFE000000000FFF000FFE000000003FFF0001FFFFE0001
310
FFFFC0007F80007FFFC000000007FFFFFE000000003FFFF80000000000000000
310
7F80000000000001FFFFE000000003FFFFFFFFE000000003FFFFFF0003FFFFFF
310
FFFFF000000003FFF000FFF80000000FFFF0001FFFFE0001FFFFE0007F80007F
310
FFF00000000FFFFFFF00000000FFFFF800000000000000007F80000000000001
310
FFFFF80000000FFFFFFFFFF80000000FFFFFFF0003FFFFFFFFFFFC0000000FFF
310
F000FFFE0000003FFFF0001FFFFE0003FFFFE0003F80007FFFFC0000003FFFFF
310
FFC0000003FFFFF800000000000000007F80000000000001FFFFFE0000003FFF
310
FFFFFFFE0000003FFFFFFF0003FFFFFFFFFFFF0000003FFFF000FFFF800000FF
310
FFF0001FFFFF0003FFFFE0003F80007FFFFF000001FFFFFFFFF800001FFFFFF8
310
00000000000000007F80000000000001FFFFFFC00001FFFFFFFFFFFFC00001FF
310
FFFFFF0003FFFFFFFFFFFFC00000FFFFF000FFFFF8000FFFFFFFFFFFFFFFFFFF
310
FFFFFFFFFFFFFFFFFFFFF0001FFFFFFFFFFF0000FFFFFFF80000000000000000
310
7FFFFFFFFFFFFFFFFFFFFFFC001FFFFFFFFFFFFFFC001FFFFFFFFFFFFFFFFFFF
310
FFFFFFFC001FFFFFF000FFFFFFFFFFFFFFFFFFFFFFFFFFFFFFFFFFFFFFFFFFFF
310
FFFFFFFFFFFFFFFFFFFFFFFFFFFFFFFFFFFFFFFFFFFFFFFFFFFFFFFFFFFFFFFF
310
FFFFFFFFFFFFFFFFFFFFFFFFFFFFFFFFFFFFFFFFFFFFFFFFFFFFFFFFFFFFFFFF
310
F000FFFFFFFFFFFFFFFFFFFFFFFFFFFFFFFFFFFFFFFFFFFFFFFFFFFFFFFFFFFF
310
FFFFFFFFFFFFFFFFFFFFFFFFFFFFFFFFFFFFFFFFFFFFFFFFFFFFFFFFFFFFFFFF
310
FFFFFFFFFFFFFFFFFFFFFFFFFFFFFFFFFFFFFFFFFFFFFFFFF000FFFFFFFFFFFF
310
FFFFFFFFFFFFFFFFFFFFFFFFFFFFFFFFFFFFFFFFFFFFFFFFFFFFFFFFFFFFFFFF
310
FFFFFFFFFFFFFFFFFFFFFFFFFFFFFFFFFFFFFFFFFFFFFFFFFFFFFFFFFFFFFFFF
310
FFFFFFFFFFFFFFFFFFFFFFFFFFFFFFFFF000FFFFFFFFFFFFFFFFFFFFFFFFFFFF
310
FFFFFFFFFFFFFFFFFFFFFFFFFFFFFFFFFFFFFFFFFFFFFFFFFFFFFFFFFFFFFFFF
310
FFFFFFFFFFFFFFFFFFFFFFFFFFFFFFFFFFFFFFFFFFFFFFFFFFFFFFFFFFFFFFFF
310
FFFFFFFFFFFFFFFFF000FFFFFFFFFFFFFFFFFFFFFFFFFFFFFFFFFFFFFFFFFFFF
310
FFFFFFFFFFFFFFFFFFFFFFFFFFFFFFFFFFFFFFFFFFFFFFFFFFFFFFFFFFFFFFFF
310
FFFFFFFFFFFFFFFFFFFFFFFFFFFFFFFFFFFFFFFFFFFFFFFFFFFFFFFFFFFFFFFF
310
F000FFFFFFFFFFFFFFFFFFFFFFFFFFFFFFFFFFFFFFFFFFFFFFFFFFFFFFFFFFFF
310
FFFFFFFFFFFFFFFFFFFFFFFFFFFFFFFFFFFFFFFFFFFFFFFFFFFFFFFFFFFFFFFF
310
FFFFFFFFFFFFFFFFFFFFFFFFFFFFFFFFFFFFFFFFFFFFFFFFF000FFFFFFFFFFFF
310
FFFFFFFFFFFFFFFFFFFFFFFFFFFFFFFFFFFFFFFFFFFFFFFFFFFFFFFFFFFFFFFF
310
FFFFFFFFFFFFFFFFFFFFFFFFFFFFFFFFFFFFFFFFFFFFFFFFFFFFFFFFFFFFFFFF
310
FFFFFFFFFFFFFFFFFFFFFFFFFFFFFFFFF000FFFFFFFFFFFFFFFFFFFFFFFFFFFF
310
FFFFFFFFFFFFFFFFFFFFFFFFFFFFFFFFFFFFFFFFFFFFFFFFFFFFFFFFFFFFFFFF
310
FFFFFFFFFFFFFFFFFFFFFFFFFFFFFFFFFFFFFFFFFFFFFFFFFFFFFFFFFFFFFFFF
310
FFFFFFFFFFFFFFFFF000FFFFFFFFFFFFFFFFFFFFFFFFFFFFFFFFFFFFFFFFFFFF
310
FFFFFFFFFFFFFFFFFFFFFFFFFFFFFFFFFFFFFFFFFFFFFFFFFFFFFFFFFFFFFFFF
310
FFFFFFFFFFFFFFFFFFFFFFFFFFFFFFFFFFFFFFFFFFFFFFFFFFFFFFFFFFFFFFFF
310
F000FFFFFFFFFFFFFFFFFFFFFFFFFFFFFFFFFFFFFFFFFFFFFFFFFFFFFFFFFFFF
310
FFFFFFFFFFFFFFFFFFFFFFFFFFFFFFFFFFFFFFFFFFFFFFFFFFFFFFFFFFFFFFFF
310
FFFFFFFFFFFFFFFFFFFFFFFFFFFFFFFFFFFFFFFFFFFFFFFFF000FFFFFFFFFFFF
310
FFFFFFFFFFFFFFFFFFFFFFFFFFFFFFFFFFFFFFFFFFFFFFFFFFFFFFFFFFFFFFFF
310
FFFFFFFFFFFFFFFFFFFFFFFFFFFFFFFFFFFFFFFFFFFFFFFFFFFFFFFFFFFFFFFF
310
FFFFFFFFFFFFFFFFFFFFFFFFFFFFFFFFF000FFFFFFFFFFFFFFFFFFFFFFFFFFFF
310
FFFFFFFFFFFFFFFFFFFFFFFFFFFFFFFFFFFFFFFFFFFFFFFFFFFFFFFFFFFFFFFF
310
FFFFFFFFFFFFFFFFFFFFFFFFFFFFFFFFFFFFFFFFFFFFFFFFFFFFFFFFFFFFFFFF
310
FFFFFFFFFFFFFFFFF000FFFFFFFFFFFFFFFFFFFFFFFFFFFFFFFFFFFFFFFFFFFF
310
FFFFFFFFFFFFFFFFFFFFFFFFFFFFFFFFFFFFFFFFFFFFFFFFFFFFFFFFFFFFFFFF
310
FFFFFFFFFFFFFFFFFFFFFFFFFFFFFFFFFFFFFFFFFFFFFFFFFFFFFFFFFFFFFFFF
310
F000FFFFFFFFFFFFFFFFFFFFFFFFFFFFFFFFFFFFFFFFFFFFFFFFFFFFFFFFFFFF
310
FFFFFFFFFFFFFFFFFFFFFFFFFFFFFFFFFFFFFFFFFFFFFFFFFFFFFFFFFFFFFFFF
310
FFFFFFFFFFFFFFFFFFFFFFFFFFFFFFFFFFFFFFFFFFFFFFFFF000FFFFFFFFFFFF
310
FFFFFFFFFFFFFFFFFFFFFFFFFFFFFFFFFFFFFFFFFFFFFFFFFFFFFFFFFFFFFFFF
310
FFFFFFFFFFFFFFFFFFFFFFFFFFFFFFFFFFFFFFFFFFFFFFFFFFFFFFFFFFFFFFFF
310
FFFFFFFFFFFFFFFFFFFFFFFFFFFFFFFFF000FFFFFFFFFFFFFFFFFFFFFFFFFFFF
310
FFFFFFFFFFFFFFFFFFFFFFFFFFFFFFFFFFFFFFFFFFFFFFFFFFFFFFFFFFFFFFFF
310
FFFFFFFFFFFFFFFFFFFFFFFFFFFFFFFFFFFFFFFFFFFFFFFFFFFFFFFFFFFFFFFF
310
FFFFFFFFFFFFFFFFF000FFFFFFFFFFFFFFFFFFFFFFFFFFFFFFFFFFFFFFFFFFFF
310
FFFFFFFFFFFFFFFFFFFFFFFFFFFFFFFFFFFFFFFFFFFFFFFFFFFFFFFFFFFFFFFF
310
FFFFFFFFFFFFFFFFFFFFFFFFFFFFFFFFFFFFFFFFFFFFFFFFFFFFFFFFFFFFFFFF
310
F000FFFFFFFFFFFFFFFFFFFFFFFFFFFFFFFFFFFFFFFFFFFFFFFFFFFFFFFFFFFF
310
FFFFFFFFFFFFFFFFFFFFFFFFFFFFFFFFFFFFFFFFFFFFFFFFFFFFFFFFFFFFFFFF
310
FFFFFFFFFFFFFFFFFFFFFFFFFFFFFFFFFFFFFFFFFFFFFFFFF000FFFFFFFFFFFF
310
FFFFFFFFFFFFFFFFFFFFFFFFFFFFFFFFFFFFFFFFFFFFFFFFFFFFFFFFFFFFFFFF
310
FFFFFFFFFFFFFFFFFFFFFFFFFFFFFFFFFFFFFFFFFFFFFFFFFFFFFFFFFFFFFFFF
310
FFFFFFFFFFFFFFFFFFFFFFFFFFFFFFFFF000FFFFFFFFFFFFFFFFFFFFFFFFFFFF
310
FFFFFFFFFFFFFFFFFFFFFFFFFFFFFFFFFFFFFFFFFFFFFFFFFFFFFFFFFFFFFFFF
310
FFFFFFFFFFFFFFFFFFFFFFFFFFFFFFFFFFFFFFFFFFFFFFFFFFFFFFFFFFFFFFFF
310
FFFFFFFFFFFFFFFFF000FFFFFFFFFFFFFFFFFFFFFFFFFFFFFFFFFFFFFFFFFFFF
310
FFFFFFFFFFFFFFFFFFFFFFFFFFFFFFFFFFFFFFFFFFFFFFFFFFFFFFFFFFFFFFFF
310
FFFFFFFFFFFFFFFFFFFFFFFFFFFFFFFFFFFFFFFFFFFFFFFFFFFFFFFFFFFFFFFF
310
F000FFFFFFFFFFFFFFFFFFFFFFFFFFFFFFFFFFFFFFFFFFFFFFFFFFFFFFFFFFFF
310
FFFFFFFFFFFFFFFFFFFFFFFFFFFFFFFFFFFFFFFFFFFFFFFFFFFFFFFFFFFFFFFF
310
FFFFFFFFFFFFFFFFFFFFFFFFFFFFFFFFFFFFFFFFFFFFFFFFF000FFFFFFFFFFFF
310
FFFFFFFFFFFFFFFFFFFFFFFFFFFFFFFFFFFFFFFFFFFFFFFFFFFFFFFFFFFFFFFF
310
FFFFFFFFFFFFFFFFFFFFFFFFFFFFFFFFFFFFFFFFFFFFFFFFFFFFFFFFFFFFFFFF
310
FFFFFFFFFFFFFFFFFFFFFFFFFFFFFFFFF0000000000000000000000000000000
310
0000000001000000010000000100000001000000010000000100000000000000
310
0100000001000000010000000100000001000000010000000100000001000000
310
0100000001000000010000000100000001000000010000000100000001000000
310
0100000001000000010000000100000001000000010000000100000001000000
310
0100000001000000010000000100000001000000010000000000000001000000
310
0000000001000000010000000100000001000000010000000100000001000000
310
0100000001000000010000000000000001000000010000000000000001000000
310
0100000001000000010000000100000001000000010000000100000001000000
310
0100000001000000010000000100000001000000010000000100000001000000
310
0100000001000000000000000100000000000000010000000100000001000000
310
0100000001000000010000000100000001000000010000000100000000000000
310
0100000000000000010000000100000001000000010000000100000001000000
310
0100000001000000010000000100000001000000010000000100000001000000
310
0100000001000000010000000100000001000000010000000100000001000000
310
0000000001000000000000000100000001000000010000000100000001000000
  1
OLE
  0
ENDSEC
  0
SECTION
  2
OBJECTS
  0
DICTIONARY
  5
C
330
0
100
AcDbDictionary
281
     1
  3
ACAD_GROUP
350
D
  3
ACAD_LAYOUT
350
1A
  3
ACAD_MLEADERSTYLE
350
1F0
  3
ACAD_MLINESTYLE
350
17
  3
ACAD_PLOTSETTINGS
350
19
  3
ACAD_PLOTSTYLENAME
350
E
  3
ACAD_TABLESTYLE
350
1EF
  3
ACAD_VISUALSTYLE
350
2A
  3
AcDbVariableDictionary
350
1F1
  0
DICTIONARY
  5
D
102
{ACAD_REACTORS
330
C
102
}
330
C
100
AcDbDictionary
281
     1
  0
DICTIONARY
  5
1A
102
{ACAD_REACTORS
330
C
102
}
330
C
100
AcDbDictionary
281
     1
  3
Layout1
350
1E
  3
Layout2
350
26
  3
Model
350
22
  0
DICTIONARY
  5
1F0
102
{ACAD_REACTORS
330
C
102
}
330
C
100
AcDbDictionary
281
     1
  0
DICTIONARY
  5
17
102
{ACAD_REACTORS
330
C
102
}
330
C
100
AcDbDictionary
281
     1
  3
Standard
350
18
  0
DICTIONARY
  5
19
102
{ACAD_REACTORS
330
C
102
}
330
C
100
AcDbDictionary
281
     1
  0
ACDBDICTIONARYWDFLT
  5
E
102
{ACAD_REACTORS
330
C
102
}
330
C
100
AcDbDictionary
281
     1
  3
Normal
350
F
100
AcDbDictionaryWithDefault
340
F
  0
DICTIONARY
  5
1EF
102
{ACAD_REACTORS
330
C
102
}
330
C
100
AcDbDictionary
281
     1
  0
DICTIONARY
  5
2A
102
{ACAD_REACTORS
330
C
102
}
330
C
100
AcDbDictionary
281
     1
  3
2dWireframe
350
2F
  3
3D Hidden
350
31
  3
3dWireframe
350
30
  3
Basic
350
32
  3
Brighten
350
36
  3
ColorChange
350
3A
  3
Conceptual
350
34
  3
Dim
350
35
  3
Facepattern
350
39
  3
Flat
350
2B
  3
FlatWithEdges
350
2C
  3
Gouraud
350
2D
  3
GouraudWithEdges
350
2E
  3
Linepattern
350
38
  3
Realistic
350
33
  3
Thicken
350
37
  0
DICTIONARY
  5
1F1
102
{ACAD_REACTORS
330
C
102
}
330
C
100
AcDbDictionary
281
     1
  3
PSOLHEIGHT
350
1F3
  3
PSOLWIDTH
350
1F2
  0
LAYOUT
  5
1E
102
{ACAD_REACTORS
330
1A
102
}
330
1A
100
AcDbPlotSettings
  1

  2
none_device
  4

  6

 40
0.0
 41
0.0
 42
0.0
 43
0.0
 44
0.0
 45
0.0
 46
0.0
 47
0.0
 48
0.0
 49
0.0
140
0.0
141
0.0
142
1.0
143
1.0
 70
   688
 72
     0
 73
     0
 74
     5
  7

 75
    16
147
1.0
148
0.0
149
0.0
100
AcDbLayout
  1
Layout1
 70
     1
 71
     1
 10
0.0
 20
0.0
 11
420.0
 21
297.0
 12
0.0
 22
0.0
 32
0.0
 14
1.0000000000E+20
 24
1.0000000000E+20
 34
1.0000000000E+20
 15
-1.0000000000E+20
 25
-1.0000000000E+20
 35
-1.0000000000E+20
146
0.0
 13
0.0
 23
0.0
 33
0.0
 16
1.0
 26
0.0
 36
0.0
 17
0.0
 27
1.0
 37
0.0
 76
     0
330
1B
  0
LAYOUT
  5
26
102
{ACAD_REACTORS
330
1A
102
}
330
1A
100
AcDbPlotSettings
  1

  2
none_device
  4

  6

 40
0.0
 41
0.0
 42
0.0
 43
0.0
 44
0.0
 45
0.0
 46
0.0
 47
0.0
 48
0.0
 49
0.0
140
0.0
141
0.0
142
1.0
143
1.0
 70
   688
 72
     0
 73
     0
 74
     5
  7

 75
    16
147
1.0
148
0.0
149
0.0
100
AcDbLayout
  1
Layout2
 70
     1
 71
     2
 10
0.0
 20
0.0
 11
0.0
 21
0.0
 12
0.0
 22
0.0
 32
0.0
 14
0.0
 24
0.0
 34
0.0
 15
0.0
 25
0.0
 35
0.0
146
0.0
 13
0.0
 23
0.0
 33
0.0
 16
1.0
 26
0.0
 36
0.0
 17
0.0
 27
1.0
 37
0.0
 76
     0
330
23
  0
LAYOUT
  5
22
102
{ACAD_REACTORS
330
1A
102
}
330
1A
100
AcDbPlotSettings
  1

  2
none_device
  4

  6

 40
0.0
 41
0.0
 42
0.0
 43
0.0
 44
0.0
 45
0.0
 46
0.0
 47
0.0
 48
0.0
 49
0.0
140
0.0
141
0.0
142
1.0
143
1.0
 70
  1712
 72
     0
 73
     0
 74
     0
  7

 75
     0
147
1.0
148
0.0
149
0.0
100
AcDbLayout
  1
Model
 70
     1
 71
     0
 10
0.0
 20
0.0
 11
297.0
 21
210.0
 12
0.0
 22
0.0
 32
0.0
 14
0.0
 24
0.0
 34
0.0
 15
297.0
 25
210.0
 35
0.0
146
0.0
 13
0.0
 23
0.0
 33
0.0
 16
1.0
 26
0.0
 36
0.0
 17
0.0
 27
1.0
 37
0.0
 76
     0
330
1F
331
29
  0
MLINESTYLE
  5
18
102
{ACAD_REACTORS
330
17
102
}
330
17
100
AcDbMlineStyle
  2
Standard
 70
     0
  3

 62
   256
 51
90.0
 52
90.0
 71
     2
 49
0.5
 62
   256
  6
BYLAYER
 49
-0.5
 62
   256
  6
BYLAYER
  0
ACDBPLACEHOLDER
  5
F
102
{ACAD_REACTORS
330
E
102
}
330
E
  0
VISUALSTYLE
  5
2F
102
{ACAD_REACTORS
330
2A
102
}
330
2A
100
AcDbVisualStyle
  2
2dWireframe
 70
     4
 71
     0
 72
     2
 73
     0
 90
        0
 40
-0.6
 41
-30.0
 62
     5
 63
     7
 74
     1
 91
        4
 64
     7
 65
   257
 75
     1
175
     1
 42
1.0
 92
        0
 66
   257
 43
1.0
 76
     1
 77
     6
 78
     2
 67
     7
 79
     5
170
     0
171
     0
290
     0
174
     0
 93
        1
 44
0.0
173
     0
291
     0
 45
0.0
1001
ACAD
1000
AcDbSavedByObjectVersion
1070
     0
  0
VISUALSTYLE
  5
31
102
{ACAD_REACTORS
330
2A
102
}
330
2A
100
AcDbVisualStyle
  2
3D Hidden
 70
     6
 71
     1
 72
     2
 73
     2
 90
        0
 40
-0.6
 41
-30.0
 62
     5
 63
     7
 74
     2
 91
        2
 64
     7
 65
   257
 75
     2
175
     1
 42
40.0
 92
        0
 66
   257
 43
1.0
 76
     1
 77
     6
 78
     2
 67
     7
 79
     3
170
     0
171
     0
290
     0
174
     0
 93
        1
 44
0.0
173
     0
291
     0
 45
0.0
1001
ACAD
1000
AcDbSavedByObjectVersion
1070
     0
  0
VISUALSTYLE
  5
30
102
{ACAD_REACTORS
330
2A
102
}
330
2A
100
AcDbVisualStyle
  2
3dWireframe
 70
     5
 71
     0
 72
     2
 73
     0
 90
        0
 40
-0.6
 41
-30.0
 62
     5
 63
     7
 74
     1
 91
        4
 64
     7
 65
   257
 75
     1
175
     1
 42
1.0
 92
        0
 66
   257
 43
1.0
 76
     1
 77
     6
 78
     2
 67
     7
 79
     5
170
     0
171
     0
290
     0
174
     0
 93
        1
 44
0.0
173
     0
291
     0
 45
0.0
1001
ACAD
1000
AcDbSavedByObjectVersion
1070
     0
  0
VISUALSTYLE
  5
32
102
{ACAD_REACTORS
330
2A
102
}
330
2A
100
AcDbVisualStyle
  2
Basic
 70
     7
 71
     1
 72
     0
 73
     1
 90
        0
 40
-0.6
 41
-30.0
 62
     5
 63
     7
 74
     0
 91
        4
 64
     7
 65
   257
 75
     1
175
     1
 42
1.0
 92
        8
 66
     7
 43
1.0
 76
     1
 77
     6
 78
     2
 67
     7
 79
     5
170
     0
171
     0
290
     0
174
     0
 93
        1
 44
0.0
173
     0
291
     1
 45
0.0
1001
ACAD
1000
AcDbSavedByObjectVersion
1070
     0
  0
VISUALSTYLE
  5
36
102
{ACAD_REACTORS
330
2A
102
}
330
2A
100
AcDbVisualStyle
  2
Brighten
 70
    12
 71
     2
 72
     2
 73
     0
 90
        0
 40
-0.6
 41
-30.0
 62
     5
 63
     7
 74
     1
 91
        4
 64
     7
 65
   257
 75
     1
175
     1
 42
1.0
 92
        8
 66
     7
 43
1.0
 76
     1
 77
     6
 78
     2
 67
     7
 79
     5
170
     0
171
     0
290
     0
174
     0
 93
        1
 44
50.0
173
     0
291
     1
 45
0.0
1001
ACAD
1000
AcDbSavedByObjectVersion
1070
     0
  0
VISUALSTYLE
  5
3A
102
{ACAD_REACTORS
330
2A
102
}
330
2A
100
AcDbVisualStyle
  2
ColorChange
 70
    16
 71
     2
 72
     2
 73
     3
 90
        0
 40
-0.6
 41
-30.0
 62
     5
 63
     8
 74
     1
 91
        4
 64
     7
 65
   257
 75
     1
175
     1
 42
1.0
 92
        8
 66
     8
 43
1.0
 76
     1
 77
     6
 78
     2
 67
     7
 79
     5
170
     0
171
     0
290
     0
174
     0
 93
        1
 44
0.0
173
     0
291
     1
 45
0.0
1001
ACAD
1000
AcDbSavedByObjectVersion
1070
     0
  0
VISUALSTYLE
  5
34
102
{ACAD_REACTORS
330
2A
102
}
330
2A
100
AcDbVisualStyle
  2
Conceptual
 70
     9
 71
     3
 72
     2
 73
     0
 90
        0
 40
-0.6
 41
-30.0
 62
     5
 63
     7
 74
     2
 91
        2
 64
     7
 65
   257
 75
     1
175
     1
 42
40.0
 92
        8
 66
     7
 43
1.0
 76
     1
 77
     6
 78
     2
 67
     7
 79
     3
170
     0
171
     0
290
     0
174
     0
 93
        1
 44
0.0
173
     0
291
     0
 45
0.0
1001
ACAD
1000
AcDbSavedByObjectVersion
1070
     0
  0
VISUALSTYLE
  5
35
102
{ACAD_REACTORS
330
2A
102
}
330
2A
100
AcDbVisualStyle
  2
Dim
 70
    11
 71
     2
 72
     2
 73
     0
 90
        0
 40
-0.6
 41
-30.0
 62
     5
 63
     7
 74
     1
 91
        4
 64
     7
 65
   257
 75
     1
175
     1
 42
1.0
 92
        8
 66
     7
 43
1.0
 76
     1
 77
     6
 78
     2
 67
     7
 79
     5
170
     0
171
     0
290
     0
174
     0
 93
        1
 44
-50.0
173
     0
291
     1
 45
0.0
1001
ACAD
1000
AcDbSavedByObjectVersion
1070
     0
  0
VISUALSTYLE
  5
39
102
{ACAD_REACTORS
330
2A
102
}
330
2A
100
AcDbVisualStyle
  2
Facepattern
 70
    15
 71
     2
 72
     2
 73
     0
 90
        0
 40
-0.6
 41
-30.0
 62
     5
 63
     7
 74
     1
 91
        4
 64
     7
 65
   257
 75
     1
175
     1
 42
1.0
 92
        8
 66
     7
 43
1.0
 76
     1
 77
     6
 78
     2
 67
     7
 79
     5
170
     0
171
     0
290
     0
174
     0
 93
        1
 44
0.0
173
     0
291
     1
 45
0.0
1001
ACAD
1000
AcDbSavedByObjectVersion
1070
     0
  0
VISUALSTYLE
  5
2B
102
{ACAD_REACTORS
330
2A
102
}
330
2A
100
AcDbVisualStyle
  2
Flat
 70
     0
 71
     2
 72
     1
 73
     1
 90
        2
 40
-0.6
 41
30.0
 62
     5
 63
     7
 74
     0
 91
        4
 64
     7
 65
   257
 75
     1
175
     1
 42
1.0
 92
        8
 66
     7
 43
1.0
 76
     1
 77
     6
 78
     2
 67
     7
 79
     5
170
     0
171
     0
290
     0
174
     0
 93
       13
 44
0.0
173
     0
291
     1
 45
0.0
1001
ACAD
1000
AcDbSavedByObjectVersion
1070
     0
  0
VISUALSTYLE
  5
2C
102
{ACAD_REACTORS
330
2A
102
}
330
2A
100
AcDbVisualStyle
  2
FlatWithEdges
 70
     1
 71
     2
 72
     1
 73
     1
 90
        2
 40
-0.6
 41
30.0
 62
     5
 63
     7
 74
     1
 91
        4
 64
     7
 65
   257
 75
     1
175
     1
 42
1.0
 92
        0
 66
   257
 43
1.0
 76
     1
 77
     6
 78
     2
 67
     7
 79
     5
170
     0
171
     0
290
     0
174
     0
 93
       13
 44
0.0
173
     0
291
     1
 45
0.0
1001
ACAD
1000
AcDbSavedByObjectVersion
1070
     0
  0
VISUALSTYLE
  5
2D
102
{ACAD_REACTORS
330
2A
102
}
330
2A
100
AcDbVisualStyle
  2
Gouraud
 70
     2
 71
     2
 72
     2
 73
     1
 90
        2
 40
-0.6
 41
30.0
 62
     5
 63
     7
 74
     0
 91
        4
 64
     7
 65
   257
 75
     1
175
     1
 42
1.0
 92
        0
 66
     7
 43
1.0
 76
     1
 77
     6
 78
     2
 67
     7
 79
     5
170
     0
171
     0
290
     0
174
     0
 93
       13
 44
0.0
173
     0
291
     1
 45
0.0
1001
ACAD
1000
AcDbSavedByObjectVersion
1070
     0
  0
VISUALSTYLE
  5
2E
102
{ACAD_REACTORS
330
2A
102
}
330
2A
100
AcDbVisualStyle
  2
GouraudWithEdges
 70
     3
 71
     2
 72
     2
 73
     1
 90
        2
 40
-0.6
 41
30.0
 62
     5
 63
     7
 74
     1
 91
        4
 64
     7
 65
   257
 75
     1
175
     1
 42
1.0
 92
        0
 66
   257
 43
1.0
 76
     1
 77
     6
 78
     2
 67
     7
 79
     5
170
     0
171
     0
290
     0
174
     0
 93
       13
 44
0.0
173
     0
291
     1
 45
0.0
1001
ACAD
1000
AcDbSavedByObjectVersion
1070
     0
  0
VISUALSTYLE
  5
38
102
{ACAD_REACTORS
330
2A
102
}
330
2A
100
AcDbVisualStyle
  2
Linepattern
 70
    14
 71
     2
 72
     2
 73
     0
 90
        0
 40
-0.6
 41
-30.0
 62
     5
 63
     7
 74
     1
 91
        4
 64
     7
 65
   257
 75
     7
175
     7
 42
1.0
 92
        8
 66
     7
 43
1.0
 76
     1
 77
     6
 78
     2
 67
     7
 79
     5
170
     0
171
     0
290
     0
174
     0
 93
        1
 44
0.0
173
     0
291
     1
 45
0.0
1001
ACAD
1000
AcDbSavedByObjectVersion
1070
     0
  0
VISUALSTYLE
  5
33
102
{ACAD_REACTORS
330
2A
102
}
330
2A
100
AcDbVisualStyle
  2
Realistic
 70
     8
 71
     2
 72
     2
 73
     0
 90
        0
 40
-0.6
 41
-30.0
 62
     5
 63
     7
 74
     1
 91
        0
 64
     7
 65
   257
 75
     1
175
     1
 42
1.0
 92
        8
 66
     8
 43
1.0
 76
     1
 77
     6
 78
     2
 67
     7
 79
     5
170
     0
171
     0
290
     0
174
     0
 93
       13
 44
0.0
173
     0
291
     0
 45
0.0
1001
ACAD
1000
AcDbSavedByObjectVersion
1070
     0
  0
VISUALSTYLE
  5
37
102
{ACAD_REACTORS
330
2A
102
}
330
2A
100
AcDbVisualStyle
  2
Thicken
 70
    13
 71
     2
 72
     2
 73
     0
 90
        0
 40
-0.6
 41
-30.0
 62
     5
 63
     7
 74
     1
 91
        4
 64
     7
 65
   257
 75
     1
175
     1
 42
1.0
 92
       12
 66
     7
 43
1.0
 76
     1
 77
     6
 78
     2
 67
     7
 79
     5
170
     0
171
     0
290
     0
174
     0
 93
        1
 44
0.0
173
     0
291
     1
 45
0.0
1001
ACAD
1000
AcDbSavedByObjectVersion
1070
     0
  0
DICTIONARYVAR
  5
1F3
102
{ACAD_REACTORS
330
1F1
102
}
330
1F1
100
DictionaryVariables
280
     0
  1
80.000000
  0
DICTIONARYVAR
  5
1F2
102
{ACAD_REACTORS
330
1F1
102
}
330
1F1
100
DictionaryVariables
280
     0
  1
5.000000
  0
ENDSEC
  0
EOF
