  0
SECTION
  2
HEADER
  9
$ACADVER
  1
AC1015
  9
$ACADMAINTVER
 70
     6
  9
$DWGCODEPAGE
  3
ANSI_1252
  9
$INSBASE
 10
0.0
 20
0.0
 30
0.0
  9
$EXTMIN
 10
0.0
 20
0.0
 30
0.0
  9
$EXTMAX
 10
297.0
 20
210.0
 30
0.0
  9
$LIMMIN
 10
0.0
 20
0.0
  9
$LIMMAX
 10
297.0
 20
210.0
  9
$ORTHOMODE
 70
     0
  9
$REGENMODE
 70
     1
  9
$FILLMODE
 70
     1
  9
$QTEXTMODE
 70
     0
  9
$MIRRTEXT
 70
     1
  9
$LTSCALE
 40
1.0
  9
$ATTMODE
 70
     1
  9
$TEXTSIZE
 40
2.0
  9
$TRACEWID
 40
1.0
  9
$TEXTSTYLE
  7
Standard
  9
$CLAYER
  8
0
  9
$CELTYPE
  6
ByLayer
  9
$CECOLOR
 62
   256
  9
$CELTSCALE
 40
1.0
  9
$DISPSILH
 70
     0
  9
$DIMSCALE
 40
1.0
  9
$DIMASZ
 40
3.0
  9
$DIMEXO
 40
0.0
  9
$DIMDLI
 40
3.75
  9
$DIMRND
 40
0.0
  9
$DIMDLE
 40
0.0
  9
$DIMEXE
 40
1.0
  9
$DIMTP
 40
0.0
  9
$DIMTM
 40
0.0
  9
$DIMTXT
 40
2.0
  9
$DIMCEN
 40
2.5
  9
$DIMTSZ
 40
0.0
  9
$DIMTOL
 70
     0
  9
$DIMLIM
 70
     0
  9
$DIMTIH
 70
     1
  9
$DIMTOH
 70
     1
  9
$DIMSE1
 70
     0
  9
$DIMSE2
 70
     0
  9
$DIMTAD
 70
     1
  9
$DIMZIN
 70
     0
  9
$DIMBLK
  1

  9
$DIMASO
 70
     1
  9
$DIMSHO
 70
     1
  9
$DIMPOST
  1

  9
$DIMAPOST
  1

  9
$DIMALT
 70
     0
  9
$DIMALTD
 70
     3
  9
$DIMALTF
 40
0.0393700787
  9
$DIMLFAC
 40
1.0
  9
$DIMTOFL
 70
     1
  9
$DIMTVP
 40
0.0
  9
$DIMTIX
 70
     0
  9
$DIMSOXD
 70
     0
  9
$DIMSAH
 70
     0
  9
$DIMBLK1
  1

  9
$DIMBLK2
  1

  9
$DIMSTYLE
  2
ISO-25
  9
$DIMCLRD
 70
     0
  9
$DIMCLRE
 70
     0
  9
$DIMCLRT
 70
     0
  9
$DIMTFAC
 40
1.0
  9
$DIMGAP
 40
1.524
  9
$DIMJUST
 70
     0
  9
$DIMSD1
 70
     0
  9
$DIMSD2
 70
     0
  9
$DIMTOLJ
 70
     0
  9
$DIMTZIN
 70
     0
  9
$DIMALTZ
 70
     0
  9
$DIMALTTZ
 70
     0
  9
$DIMUPT
 70
     0
  9
$DIMDEC
 70
     2
  9
$DIMTDEC
 70
     3
  9
$DIMALTU
 70
     2
  9
$DIMALTTD
 70
     3
  9
$DIMTXSTY
  7
Standard
  9
$DIMAUNIT
 70
     0
  9
$DIMADEC
 70
     2
  9
$DIMALTRND
 40
0.0
  9
$DIMAZIN
 70
     0
  9
$DIMDSEP
 70
    44
  9
$DIMATFIT
 70
     3
  9
$DIMFRAC
 70
     0
  9
$DIMLDRBLK
  1

  9
$DIMLUNIT
 70
     2
  9
$DIMLWD
 70
    -2
  9
$DIMLWE
 70
    -2
  9
$DIMTMOVE
 70
     0
  9
$LUNITS
 70
     2
  9
$LUPREC
 70
     2
  9
$SKETCHINC
 40
1.0
  9
$FILLETRAD
 40
10.0
  9
$AUNITS
 70
     0
  9
$AUPREC
 70
     2
  9
$MENU
  1
.
  9
$ELEVATION
 40
0.0
  9
$PELEVATION
 40
0.0
  9
$THICKNESS
 40
0.0
  9
$LIMCHECK
 70
     0
  9
$CHAMFERA
 40
10.0
  9
$CHAMFERB
 40
10.0
  9
$CHAMFERC
 40
20.0
  9
$CHAMFERD
 40
0.0
  9
$SKPOLY
 70
     0
  9
$TDCREATE
 40
2455673.46980257
  9
$TDUCREATE
 40
2455673.386469236
  9
$TDUPDATE
 40
2455673.469802581
  9
$TDUUPDATE
 40
2455673.386469248
  9
$TDINDWG
 40
0.0000000116
  9
$TDUSRTIMER
 40
0.0000000116
  9
$USRTIMER
 70
     1
  9
$ANGBASE
 50
0.0
  9
$ANGDIR
 70
     0
  9
$PDMODE
 70
     0
  9
$PDSIZE
 40
-1.0
  9
$PLINEWID
 40
0.0
  9
$SPLFRAME
 70
     0
  9
$SPLINETYPE
 70
     6
  9
$SPLINESEGS
 70
     8
  9
$HANDSEED
  5
1FF
  9
$SURFTAB1
 70
     6
  9
$SURFTAB2
 70
     6
  9
$SURFTYPE
 70
     6
  9
$SURFU
 70
     6
  9
$SURFV
 70
     6
  9
$UCSBASE
  2

  9
$UCSNAME
  2

  9
$UCSORG
 10
0.0
 20
0.0
 30
0.0
  9
$UCSXDIR
 10
1.0
 20
0.0
 30
0.0
  9
$UCSYDIR
 10
0.0
 20
1.0
 30
0.0
  9
$UCSORTHOREF
  2

  9
$UCSORTHOVIEW
 70
     0
  9
$UCSORGTOP
 10
0.0
 20
0.0
 30
0.0
  9
$UCSORGBOTTOM
 10
0.0
 20
0.0
 30
0.0
  9
$UCSORGLEFT
 10
0.0
 20
0.0
 30
0.0
  9
$UCSORGRIGHT
 10
0.0
 20
0.0
 30
0.0
  9
$UCSORGFRONT
 10
0.0
 20
0.0
 30
0.0
  9
$UCSORGBACK
 10
0.0
 20
0.0
 30
0.0
  9
$PUCSBASE
  2

  9
$PUCSNAME
  2

  9
$PUCSORG
 10
0.0
 20
0.0
 30
0.0
  9
$PUCSXDIR
 10
1.0
 20
0.0
 30
0.0
  9
$PUCSYDIR
 10
0.0
 20
1.0
 30
0.0
  9
$PUCSORTHOREF
  2

  9
$PUCSORTHOVIEW
 70
     0
  9
$PUCSORGTOP
 10
0.0
 20
0.0
 30
0.0
  9
$PUCSORGBOTTOM
 10
0.0
 20
0.0
 30
0.0
  9
$PUCSORGLEFT
 10
0.0
 20
0.0
 30
0.0
  9
$PUCSORGRIGHT
 10
0.0
 20
0.0
 30
0.0
  9
$PUCSORGFRONT
 10
0.0
 20
0.0
 30
0.0
  9
$PUCSORGBACK
 10
0.0
 20
0.0
 30
0.0
  9
$USERI1
 70
     0
  9
$USERI2
 70
     0
  9
$USERI3
 70
     0
  9
$USERI4
 70
     0
  9
$USERI5
 70
     0
  9
$USERR1
 40
0.0
  9
$USERR2
 40
0.0
  9
$USERR3
 40
0.0
  9
$USERR4
 40
0.0
  9
$USERR5
 40
0.0
  9
$WORLDVIEW
 70
     1
  9
$SHADEDGE
 70
     3
  9
$SHADEDIF
 70
    70
  9
$TILEMODE
 70
     1
  9
$MAXACTVP
 70
    64
  9
$PINSBASE
 10
0.0
 20
0.0
 30
0.0
  9
$PLIMCHECK
 70
     0
  9
$PEXTMIN
 10
1.0000000000E+20
 20
1.0000000000E+20
 30
1.0000000000E+20
  9
$PEXTMAX
 10
-1.0000000000E+20
 20
-1.0000000000E+20
 30
-1.0000000000E+20
  9
$PLIMMIN
 10
0.0
 20
0.0
  9
$PLIMMAX
 10
420.0
 20
297.0
  9
$UNITMODE
 70
     0
  9
$VISRETAIN
 70
     1
  9
$PLINEGEN
 70
     0
  9
$PSLTSCALE
 70
     1
  9
$TREEDEPTH
 70
  3020
  9
$CMLSTYLE
  2
Standard
  9
$CMLJUST
 70
     0
  9
$CMLSCALE
 40
20.0
  9
$PROXYGRAPHICS
 70
     1
  9
$MEASUREMENT
 70
     1
  9
$CELWEIGHT
370
    -1
  9
$ENDCAPS
280
     0
  9
$JOINSTYLE
280
     0
  9
$LWDISPLAY
290
     1
  9
$INSUNITS
 70
     4
  9
$HYPERLINKBASE
  1

  9
$STYLESHEET
  1

  9
$XEDIT
290
     1
  9
$CEPSNTYPE
380
     0
  9
$PSTYLEMODE
290
     1
  9
$FINGERPRINTGUID
  2
{9865670E-6976-4ECD-89DF-EEA14B202CC3}
  9
$VERSIONGUID
  2
{FAEB1C32-E019-11D5-929B-00C0DF256EC4}
  9
$EXTNAMES
290
     1
  9
$PSVPSCALE
 40
0.0
  9
$OLESTARTUP
290
     0
  0
ENDSEC
  0
SECTION
  2
CLASSES
  0
CLASS
  1
ACDBDICTIONARYWDFLT
  2
AcDbDictionaryWithDefault
  3
ObjectDBX Classes
 90
        0
280
     0
281
     0
  0
CLASS
  1
VISUALSTYLE
  2
AcDbVisualStyle
  3
ObjectDBX Classes
 90
     4095
280
     0
281
     0
  0
CLASS
  1
DICTIONARYVAR
  2
AcDbDictionaryVar
  3
ObjectDBX Classes
 90
        0
280
     0
281
     0
  0
CLASS
  1
ACDBPLACEHOLDER
  2
AcDbPlaceHolder
  3
ObjectDBX Classes
 90
        0
280
     0
281
     0
  0
CLASS
  1
LAYOUT
  2
AcDbLayout
  3
ObjectDBX Classes
 90
        0
280
     0
281
     0
  0
ENDSEC
  0
SECTION
  2
TABLES
  0
TABLE
  2
VPORT
  5
8
330
0
100
AcDbSymbolTable
 70
     1
  0
VPORT
  5
29
330
8
100
AcDbSymbolTableRecord
100
AcDbViewportTableRecord
  2
*Active
 70
     0
 10
0.0
 20
0.0
 11
1.0
 21
1.0
 12
148.5
 22
105.0
 13
0.0
 23
0.0
 14
10.0
 24
10.0
 15
10.0
 25
10.0
 16
0.0
 26
0.0
 36
1.0
 17
0.0
 27
0.0
 37
0.0
 40
210.0
 41
1.4142857143
 42
50.0
 43
0.0
 44
0.0
 50
0.0
 51
0.0
 71
     0
 72
  2000
 73
     1
 74
     3
 75
     0
 76
     0
 77
     0
 78
     0
281
     0
 65
     1
110
0.0
120
0.0
130
0.0
111
1.0
121
0.0
131
0.0
112
0.0
122
1.0
132
0.0
 79
     0
146
0.0
  0
ENDTAB
  0
TABLE
  2
LTYPE
  5
5
330
0
100
AcDbSymbolTable
 70
     6
  0
LTYPE
  5
14
330
5
100
AcDbSymbolTableRecord
100
AcDbLinetypeTableRecord
  2
ByBlock
 70
     0
  3

 72
    65
 73
     0
 40
0.0
  0
LTYPE
  5
15
330
5
100
AcDbSymbolTableRecord
100
AcDbLinetypeTableRecord
  2
ByLayer
 70
     0
  3

 72
    65
 73
     0
 40
0.0
  0
LTYPE
  5
16
330
5
100
AcDbSymbolTableRecord
100
AcDbLinetypeTableRecord
  2
Continuous
 70
     0
  3
Solid line
 72
    65
 73
     0
 40
0.0
  0
LTYPE
  5
3B
330
5
100
AcDbSymbolTableRecord
100
AcDbLinetypeTableRecord
  2
HIDDEN
 70
     0
  3
Hidden __ __ __ __ __ __ __ __ __ __ __ __ __ __
 72
    65
 73
     2
 40
1.905
 49
1.27
 74
     0
 49
-0.635
 74
     0
  0
LTYPE
  5
3C
330
5
100
AcDbSymbolTableRecord
100
AcDbLinetypeTableRecord
  2
PHANTOM
 70
     0
  3
Phantom ______  __  __  ______  __  __  ______
 72
    65
 73
     6
 40
12.7
 49
6.35
 74
     0
 49
-1.27
 74
     0
 49
1.27
 74
     0
 49
-1.27
 74
     0
 49
1.27
 74
     0
 49
-1.27
 74
     0
  0
LTYPE
  5
3D
330
5
100
AcDbSymbolTableRecord
100
AcDbLinetypeTableRecord
  2
CENTER
 70
     0
  3
Center ____ _ ____ _ ____ _ ____ _ ____ _ ____
 72
    65
 73
     4
 40
10.16
 49
6.35
 74
     0
 49
-1.27
 74
     0
 49
1.27
 74
     0
 49
-1.27
 74
     0
  0
LTYPE
  5
3E
330
5
100
AcDbSymbolTableRecord
100
AcDbLinetypeTableRecord
  2
CENTERX2
 70
     0
  3
Center (2x) ________  __  ________  __  _____
 72
    65
 73
     4
 40
20.32
 49
12.7
 74
     0
 49
-2.54
 74
     0
 49
2.54
 74
     0
 49
-2.54
 74
     0
  0
LTYPE
  5
3F
330
5
100
AcDbSymbolTableRecord
100
AcDbLinetypeTableRecord
  2
DOT2
 70
     0
  3
Dot (.5x) ........................................
 72
    65
 73
     2
 40
0.635
 49
0.0
 74
     0
 49
-0.635
 74
     0
  0
ENDTAB
  0
TABLE
  2
LAYER
  5
2
330
0
100
AcDbSymbolTable
 70
     5
  0
LAYER
  5
10
330
2
100
AcDbSymbolTableRecord
100
AcDbLayerTableRecord
  2
0
 70
     0
 62
     7
  6
Continuous
370
    -3
390
F
  0
LAYER
  5
40
330
2
100
AcDbSymbolTableRecord
100
AcDbLayerTableRecord
  2
FORMAT
 70
     0
 62
     7
  6
Continuous
370
    -3
390
F
  0
LAYER
  5
41
330
2
100
AcDbSymbolTableRecord
100
AcDbLayerTableRecord
  2
VERMASSUNG
 70
     0
 62
     7
  6
Continuous
370
    -3
390
F
  0
LAYER
  5
42
330
2
100
AcDbSymbolTableRecord
100
AcDbLayerTableRecord
  2
KOPF_DÜNN
 70
     0
 62
     7
  6
Continuous
370
    -3
390
F
  0
LAYER
  5
43
330
2
100
AcDbSymbolTableRecord
100
AcDbLayerTableRecord
  2
KOPF_DICK
 70
     0
 62
     7
  6
Continuous
370
    15
390
F
  0
ENDTAB
  0
TABLE
  2
STYLE
  5
3
330
0
100
AcDbSymbolTable
 70
     3
  0
STYLE
  5
11
330
3
100
AcDbSymbolTableRecord
100
AcDbTextStyleTableRecord
  2
Standard
 70
     0
 40
0.0
 41
1.0
 50
0.0
 71
     0
 42
2.5
  3
txt
  4

  0
STYLE
  5
44
330
3
100
AcDbSymbolTableRecord
100
AcDbTextStyleTableRecord
  2
SLDTEXTSTYLE0
 70
     0
 40
0.0
 41
0.7
 50
0.0
 71
     0
 42
0.2
  3
TXT
  4

  0
STYLE
  5
48
330
3
100
AcDbSymbolTableRecord
100
AcDbTextStyleTableRecord
  2
SLDTEXTSTYLE1
 70
     0
 40
0.0
 41
0.65
 50
0.0
 71
     0
 42
0.2
  3
TXT
  4

  0
ENDTAB
  0
TABLE
  2
VIEW
  5
6
330
0
100
AcDbSymbolTable
 70
     0
  0
ENDTAB
  0
TABLE
  2
UCS
  5
7
330
0
100
AcDbSymbolTable
 70
     0
  0
ENDTAB
  0
TABLE
  2
APPID
  5
9
330
0
100
AcDbSymbolTable
 70
     1
  0
APPID
  5
12
330
9
100
AcDbSymbolTableRecord
100
AcDbRegAppTableRecord
  2
ACAD
 70
     0
  0
ENDTAB
  0
TABLE
  2
DIMSTYLE
  5
A
330
0
100
AcDbSymbolTable
 70
     3
100
AcDbDimStyleTable
  0
DIMSTYLE
105
27
330
A
100
AcDbSymbolTableRecord
100
AcDbDimStyleTableRecord
  2
ISO-25
 70
     0
 41
2.5
 42
0.625
 43
3.75
 44
1.25
 73
     0
 74
     0
 77
     1
 78
     8
140
2.5
141
2.5
143
0.0393700787
147
0.625
171
     3
172
     1
271
     2
272
     2
274
     3
278
    44
283
     0
284
     8
340
11
  0
DIMSTYLE
105
1B5
102
{ACAD_REACTORS
330
1B4
330
1CF
330
1D9
330
1E3
330
1ED
102
}
330
A
100
AcDbSymbolTableRecord
100
AcDbDimStyleTableRecord
  2
SLDDIMSTYLE0
 70
     0
 41
3.0
 44
0.0
 45
0.000000001
 73
     0
 74
     0
 77
     1
 78
    12
140
2.0
147
0.5
173
     1
271
     2
272
     3
284
    12
340
44
  0
DIMSTYLE
105
1C2
102
{ACAD_REACTORS
330
1C1
102
}
330
A
100
AcDbSymbolTableRecord
100
AcDbDimStyleTableRecord
  2
SLDDIMSTYLE1
 70
     0
 41
3.0
 44
0.0
 45
0.000000001
 73
     0
 74
     0
 77
     1
 78
    12
140
2.0
147
0.5
173
     1
271
     2
272
     3
284
    12
340
44
  0
ENDTAB
  0
TABLE
  2
BLOCK_RECORD
  5
1
330
0
100
AcDbSymbolTable
 70
     7
  0
BLOCK_RECORD
  5
1F
330
1
100
AcDbSymbolTableRecord
100
AcDbBlockTableRecord
  2
*Model_Space
340
22
  0
BLOCK_RECORD
  5
1B
330
1
100
AcDbSymbolTableRecord
100
AcDbBlockTableRecord
  2
*Paper_Space
340
1E
  0
BLOCK_RECORD
  5
23
330
1
100
AcDbSymbolTableRecord
100
AcDbBlockTableRecord
  2
*Paper_Space0
340
26
  0
BLOCK_RECORD
  5
1B6
330
1
100
AcDbSymbolTableRecord
100
AcDbBlockTableRecord
  2
*D1
340
0
  0
BLOCK_RECORD
  5
1C3
330
1
100
AcDbSymbolTableRecord
100
AcDbBlockTableRecord
  2
*D2
340
0
  0
BLOCK_RECORD
  5
1D0
330
1
100
AcDbSymbolTableRecord
100
AcDbBlockTableRecord
  2
*D3
340
0
  0
BLOCK_RECORD
  5
1DA
330
1
100
AcDbSymbolTableRecord
100
AcDbBlockTableRecord
  2
*D4
340
0
  0
BLOCK_RECORD
  5
1E4
330
1
100
AcDbSymbolTableRecord
100
AcDbBlockTableRecord
  2
*D5
340
0
  0
BLOCK_RECORD
  5
1EE
330
1
100
AcDbSymbolTableRecord
100
AcDbBlockTableRecord
  2
*D6
340
0
  0
ENDTAB
  0
ENDSEC
  0
SECTION
  2
BLOCKS
  0
BLOCK
  5
20
330
1F
100
AcDbEntity
  8
0
100
AcDbBlockBegin
  2
*Model_Space
 70
     0
 10
0.0
 20
0.0
 30
0.0
  3
*Model_Space
  1

  0
ENDBLK
  5
21
330
1F
100
AcDbEntity
  8
0
100
AcDbBlockEnd
  0
BLOCK
  5
1C
330
1B
100
AcDbEntity
 67
     1
  8
0
100
AcDbBlockBegin
  2
*Paper_Space
 70
     0
 10
0.0
 20
0.0
 30
0.0
  3
*Paper_Space
  1

  0
ENDBLK
  5
1D
330
1B
100
AcDbEntity
 67
     1
  8
0
100
AcDbBlockEnd
  0
BLOCK
  5
24
330
23
100
AcDbEntity
  8
0
100
AcDbBlockBegin
  2
*Paper_Space0
 70
     0
 10
0.0
 20
0.0
 30
0.0
  3
*Paper_Space0
  1

  0
ENDBLK
  5
25
330
23
100
AcDbEntity
  8
0
100
AcDbBlockEnd
  0
BLOCK
  5
1B7
330
1B6
100
AcDbEntity
  8
0
100
AcDbBlockBegin
  2
*D1
 70
     1
 10
0.0
 20
0.0
 30
0.0
  3
*D1
  1

  0
SOLID
  5
1B9
330
1B6
100
AcDbEntity
  8
VERMASSUNG
100
AcDbTrace
 10
43.6238476387
 20
167.8320649398
 30
0.0
 11
43.1738476387
 21
164.8320649398
 31
0.0
 12
44.0738476387
 22
164.8320649398
 32
0.0
 13
44.0738476387
 23
164.8320649398
 33
0.0
  0
SOLID
  5
1BA
330
1B6
100
AcDbEntity
  8
VERMASSUNG
100
AcDbTrace
 10
43.6238476387
 20
67.8320649398
 30
0.0
 11
44.0738476387
 21
70.8320649398
 31
0.0
 12
43.1738476387
 22
70.8320649398
 32
0.0
 13
43.1738476387
 23
70.8320649398
 33
0.0
  0
LINE
  5
1BB
330
1B6
100
AcDbEntity
  8
VERMASSUNG
100
AcDbLine
 10
98.3216166754
 20
167.8320649398
 30
0.0
 11
42.6238476387
 21
167.8320649398
 31
0.0
  0
LINE
  5
1BC
330
1B6
100
AcDbEntity
  8
VERMASSUNG
100
AcDbLine
 10
98.3216166754
 20
67.8320649398
 30
0.0
 11
42.6238476387
 21
67.8320649398
 31
0.0
  0
LINE
  5
1BD
330
1B6
100
AcDbEntity
  8
VERMASSUNG
100
AcDbLine
 10
43.6238476387
 20
167.8320649398
 30
0.0
 11
43.6238476387
 21
67.8320649398
 31
0.0
  0
MTEXT
  5
1BE
330
1B6
100
AcDbEntity
  8
VERMASSUNG
100
AcDbMText
 10
40.8457121497
 20
109.6284138022
 30
0.0
 40
2.0
 41
0.0
 71
     1
 72
     1
  1
HSK A 
  7
SLDTEXTSTYLE0
 11
-7.044195017643634E-15
 21
1.0
 31
0.0
 73
     1
 44
1.0
  0
MTEXT
  5
1BF
330
1B6
100
AcDbEntity
  8
VERMASSUNG
100
AcDbMText
 10
41.0457121592
 20
118.6284143461
 30
0.0
 40
2.0
 41
0.0
 71
     1
 72
     1
  1
%%c
  7
SLDTEXTSTYLE0
 11
-7.044195017643634E-15
 21
1.0
 31
0.0
 73
     1
 44
1.0
  0
MTEXT
  5
1C0
330
1B6
100
AcDbEntity
  8
VERMASSUNG
100
AcDbMText
 10
41.0457122756
 20
122.2367409961
 30
0.0
 40
2.0
 41
0.0
 71
     1
 72
     1
  1
100
  7
SLDTEXTSTYLE0
 11
-7.044195017643634E-15
 21
1.0
 31
0.0
 73
     1
 44
1.0
  0
ENDBLK
  5
1B8
330
1B6
100
AcDbEntity
  8
0
100
AcDbBlockEnd
  0
BLOCK
  5
1C4
330
1C3
100
AcDbEntity
  8
0
100
AcDbBlockBegin
  2
*D2
 70
     1
 10
0.0
 20
0.0
 30
0.0
  3
*D2
  1

  0
SOLID
  5
1C6
330
1C3
100
AcDbEntity
  8
VERMASSUNG
100
AcDbTrace
 10
264.1729879708
 20
120.8320649398
 30
0.0
 11
264.6229879708
 21
123.8320649398
 31
0.0
 12
263.7229879708
 22
123.8320649398
 32
0.0
 13
263.7229879708
 23
123.8320649398
 33
0.0
  0
SOLID
  5
1C7
330
1C3
100
AcDbEntity
  8
VERMASSUNG
100
AcDbTrace
 10
264.1729879708
 20
114.8320649398
 30
0.0
 11
263.7229879708
 21
111.8320649398
 31
0.0
 12
264.6229879708
 22
111.8320649398
 32
0.0
 13
264.6229879708
 23
111.8320649398
 33
0.0
  0
LINE
  5
1C8
330
1C3
100
AcDbEntity
  8
VERMASSUNG
100
AcDbLine
 10
257.5216166754
 20
120.8320649398
 30
0.0
 11
265.1729879708
 21
120.8320649398
 31
0.0
  0
LINE
  5
1C9
330
1C3
100
AcDbEntity
  8
VERMASSUNG
100
AcDbLine
 10
257.5216166754
 20
114.8320649398
 30
0.0
 11
265.1729879708
 21
114.8320649398
 31
0.0
  0
LINE
  5
1CA
330
1C3
100
AcDbEntity
  8
VERMASSUNG
100
AcDbLine
 10
264.1729879708
 20
120.8320649398
 30
0.0
 11
264.1729879708
 21
126.8320649398
 31
0.0
  0
LINE
  5
1CB
330
1C3
100
AcDbEntity
  8
VERMASSUNG
100
AcDbLine
 10
264.1729879708
 20
120.8320649398
 30
0.0
 11
264.1729879708
 21
114.8320649398
 31
0.0
  0
LINE
  5
1CC
330
1C3
100
AcDbEntity
  8
VERMASSUNG
100
AcDbLine
 10
264.1729879708
 20
114.8320649398
 30
0.0
 11
264.1729879708
 21
108.8320649398
 31
0.0
  0
MTEXT
  5
1CD
330
1C3
100
AcDbEntity
  8
VERMASSUNG
100
AcDbMText
 10
261.5948524913
 20
115.3280367707
 30
0.0
 40
2.0
 41
0.0
 71
     1
 72
     1
  1
%%c
  7
SLDTEXTSTYLE0
 11
-7.044195017643634E-15
 21
1.0
 31
0.0
 73
     1
 44
1.0
  0
MTEXT
  5
1CE
330
1C3
100
AcDbEntity
  8
VERMASSUNG
100
AcDbMText
 10
261.5948526077
 20
118.9367149939
 30
0.0
 40
2.0
 41
0.0
 71
     1
 72
     1
  1
6
  7
SLDTEXTSTYLE0
 11
-7.044195017643634E-15
 21
1.0
 31
0.0
 73
     1
 44
1.0
  0
ENDBLK
  5
1C5
330
1C3
100
AcDbEntity
  8
0
100
AcDbBlockEnd
  0
BLOCK
  5
1D1
330
1D0
100
AcDbEntity
  8
0
100
AcDbBlockBegin
  2
*D3
 70
     1
 10
0.0
 20
0.0
 30
0.0
  3
*D3
  1

  0
SOLID
  5
1D3
330
1D0
100
AcDbEntity
  8
VERMASSUNG
100
AcDbTrace
 10
126.7716166754
 20
172.8802816901
 30
0.0
 11
129.7716166754
 21
172.4302816901
 31
0.0
 12
129.7716166754
 22
173.3302816901
 32
0.0
 13
129.7716166754
 23
173.3302816901
 33
0.0
  0
SOLID
  5
1D4
330
1D0
100
AcDbEntity
  8
VERMASSUNG
100
AcDbTrace
 10
257.8216166754
 20
172.8802816901
 30
0.0
 11
254.8216166754
 21
173.3302816901
 31
0.0
 12
254.8216166754
 22
172.4302816901
 32
0.0
 13
254.8216166754
 23
172.4302816901
 33
0.0
  0
LINE
  5
1D5
330
1D0
100
AcDbEntity
  8
VERMASSUNG
100
AcDbLine
 10
126.7716166754
 20
165.8008047606
 30
0.0
 11
126.7716166754
 21
173.8802816901
 31
0.0
  0
LINE
  5
1D6
330
1D0
100
AcDbEntity
  8
VERMASSUNG
100
AcDbLine
 10
257.8216166754
 20
125.0579244181
 30
0.0
 11
257.8216166754
 21
173.8802816901
 31
0.0
  0
LINE
  5
1D7
330
1D0
100
AcDbEntity
  8
VERMASSUNG
100
AcDbLine
 10
126.7716166754
 20
172.8802816901
 30
0.0
 11
257.8216166754
 21
172.8802816901
 31
0.0
  0
MTEXT
  5
1D8
330
1D0
100
AcDbEntity
  8
VERMASSUNG
100
AcDbMText
 10
188.8968008574
 20
175.4584170533
 30
0.0
 40
2.0
 41
0.0
 71
     1
 72
     1
  1
131.05
  7
SLDTEXTSTYLE0
 73
     1
 44
1.0
  0
ENDBLK
  5
1D2
330
1D0
100
AcDbEntity
  8
0
100
AcDbBlockEnd
  0
BLOCK
  5
1DB
330
1DA
100
AcDbEntity
  8
0
100
AcDbBlockBegin
  2
*D4
 70
     1
 10
0.0
 20
0.0
 30
0.0
  3
*D4
  1

  0
SOLID
  5
1DD
330
1DA
100
AcDbEntity
  8
VERMASSUNG
100
AcDbTrace
 10
97.8216166754
 20
178.8802816901
 30
0.0
 11
100.8216166754
 21
178.4302816901
 31
0.0
 12
100.8216166754
 22
179.3302816901
 32
0.0
 13
100.8216166754
 23
179.3302816901
 33
0.0
  0
SOLID
  5
1DE
330
1DA
100
AcDbEntity
  8
VERMASSUNG
100
AcDbTrace
 10
257.8216166754
 20
178.8802816901
 30
0.0
 11
254.8216166754
 21
179.3302816901
 31
0.0
 12
254.8216166754
 22
178.4302816901
 32
0.0
 13
254.8216166754
 23
178.4302816901
 33
0.0
  0
LINE
  5
1DF
330
1DA
100
AcDbEntity
  8
VERMASSUNG
100
AcDbLine
 10
97.8216166754
 20
167.3320649398
 30
0.0
 11
97.8216166754
 21
179.8802816901
 31
0.0
  0
LINE
  5
1E0
330
1DA
100
AcDbEntity
  8
VERMASSUNG
100
AcDbLine
 10
257.8216166754
 20
125.0579244181
 30
0.0
 11
257.8216166754
 21
179.8802816901
 31
0.0
  0
LINE
  5
1E1
330
1DA
100
AcDbEntity
  8
VERMASSUNG
100
AcDbLine
 10
97.8216166754
 20
178.8802816901
 30
0.0
 11
257.8216166754
 21
178.8802816901
 31
0.0
  0
MTEXT
  5
1E2
330
1DA
100
AcDbEntity
  8
VERMASSUNG
100
AcDbMText
 10
175.9221291348
 20
181.4584170533
 30
0.0
 40
2.0
 41
0.0
 71
     1
 72
     1
  1
160
  7
SLDTEXTSTYLE0
 73
     1
 44
1.0
  0
ENDBLK
  5
1DC
330
1DA
100
AcDbEntity
  8
0
100
AcDbBlockEnd
  0
BLOCK
  5
1E5
330
1E4
100
AcDbEntity
  8
0
100
AcDbBlockBegin
  2
*D5
 70
     1
 10
0.0
 20
0.0
 30
0.0
  3
*D5
  1

  0
SOLID
  5
1E7
330
1E4
100
AcDbEntity
  8
VERMASSUNG
100
AcDbTrace
 10
257.8216166754
 20
184.8802816901
 30
0.0
 11
254.8216166754
 21
185.3302816901
 31
0.0
 12
254.8216166754
 22
184.4302816901
 32
0.0
 13
254.8216166754
 23
184.4302816901
 33
0.0
  0
SOLID
  5
1E8
330
1E4
100
AcDbEntity
  8
VERMASSUNG
100
AcDbTrace
 10
47.9216166754
 20
184.8802816901
 30
0.0
 11
50.9216166754
 21
184.4302816901
 31
0.0
 12
50.9216166754
 22
185.3302816901
 32
0.0
 13
50.9216166754
 23
185.3302816901
 33
0.0
  0
LINE
  5
1E9
330
1E4
100
AcDbEntity
  8
VERMASSUNG
100
AcDbLine
 10
257.8216166754
 20
125.0579244181
 30
0.0
 11
257.8216166754
 21
185.8802816901
 31
0.0
  0
LINE
  5
1EA
330
1E4
100
AcDbEntity
  8
VERMASSUNG
100
AcDbLine
 10
47.9216166754
 20
148.3347346823
 30
0.0
 11
47.9216166754
 21
185.8802816901
 31
0.0
  0
LINE
  5
1EB
330
1E4
100
AcDbEntity
  8
VERMASSUNG
100
AcDbLine
 10
257.8216166754
 20
184.8802816901
 30
0.0
 11
47.9216166754
 21
184.8802816901
 31
0.0
  0
MTEXT
  5
1EC
330
1E4
100
AcDbEntity
  8
VERMASSUNG
100
AcDbMText
 10
149.7723306516
 20
187.4584170533
 30
0.0
 40
2.0
 41
0.0
 71
     1
 72
     1
  1
209.9
  7
SLDTEXTSTYLE0
 73
     1
 44
1.0
  0
ENDBLK
  5
1E6
330
1E4
100
AcDbEntity
  8
0
100
AcDbBlockEnd
  0
BLOCK
  5
1EF
330
1EE
100
AcDbEntity
  8
0
100
AcDbBlockBegin
  2
*D6
 70
     1
 10
0.0
 20
0.0
 30
0.0
  3
*D6
  1

  0
SOLID
  5
1F1
330
1EE
100
AcDbEntity
  8
VERMASSUNG
100
AcDbTrace
 10
270.1729879708
 20
132.8320649398
 30
0.0
 11
269.7229879708
 21
129.8320649398
 31
0.0
 12
270.6229879708
 22
129.8320649398
 32
0.0
 13
270.6229879708
 23
129.8320649398
 33
0.0
  0
SOLID
  5
1F2
330
1EE
100
AcDbEntity
  8
VERMASSUNG
100
AcDbTrace
 10
270.1729879708
 20
102.8320649398
 30
0.0
 11
270.6229879708
 21
105.8320649398
 31
0.0
 12
269.7229879708
 22
105.8320649398
 32
0.0
 13
269.7229879708
 23
105.8320649398
 33
0.0
  0
LINE
  5
1F3
330
1EE
100
AcDbEntity
  8
VERMASSUNG
100
AcDbLine
 10
243.8823216921
 20
132.8320649398
 30
0.0
 11
271.1729879708
 21
132.8320649398
 31
0.0
  0
LINE
  5
1F4
330
1EE
100
AcDbEntity
  8
VERMASSUNG
100
AcDbLine
 10
243.8823216921
 20
102.8320649398
 30
0.0
 11
271.1729879708
 21
102.8320649398
 31
0.0
  0
LINE
  5
1F5
330
1EE
100
AcDbEntity
  8
VERMASSUNG
100
AcDbLine
 10
270.1729879708
 20
132.8320649398
 30
0.0
 11
270.1729879708
 21
102.8320649398
 31
0.0
  0
MTEXT
  5
1F6
330
1EE
100
AcDbEntity
  8
VERMASSUNG
100
AcDbMText
 10
267.5948524913
 20
114.6283477133
 30
0.0
 40
2.0
 41
0.0
 71
     1
 72
     1
  1
%%c
  7
SLDTEXTSTYLE0
 11
-7.044195017643634E-15
 21
1.0
 31
0.0
 73
     1
 44
1.0
  0
MTEXT
  5
1F7
330
1EE
100
AcDbEntity
  8
VERMASSUNG
100
AcDbMText
 10
267.5948526077
 20
118.2370259365
 30
0.0
 40
2.0
 41
0.0
 71
     1
 72
     1
  1
30
  7
SLDTEXTSTYLE0
 11
-7.044195017643634E-15
 21
1.0
 31
0.0
 73
     1
 44
1.0
  0
ENDBLK
  5
1F0
330
1EE
100
AcDbEntity
  8
0
100
AcDbBlockEnd
  0
ENDSEC
  0
SECTION
  2
ENTITIES
  0
MTEXT
  5
45
330
1F
100
AcDbEntity
  8
KOPF_DÜNN
100
AcDbMText
 10
13.8892156294
 20
23.8442973028
 30
0.0
 40
3.0
 41
0.0
 71
     1
 72
     1
  1
HA0.W06.K21.160
  7
SLDTEXTSTYLE0
 73
     1
 44
1.0
  0
MTEXT
  5
46
330
1F
100
AcDbEntity
  8
VERMASSUNG
100
AcDbMText
 10
13.9329988022
 20
28.8834360957
 30
0.0
 40
3.0
 41
0.0
 71
     1
 72
     1
  1
Flächenspannfutter_End mill adapter Weldon ø6
  7
SLDTEXTSTYLE0
 73
     1
 44
1.0
  0
MTEXT
  5
47
330
1F
100
AcDbEntity
  8
VERMASSUNG
100
AcDbMText
 10
98.8601118557
 20
13.8365368179
 30
0.0
 40
2.0
 41
0.0
 71
     1
 72
     1
  1
Datum: 09.10.2006
  7
SLDTEXTSTYLE0
 73
     1
 44
1.0
  0
MTEXT
  5
49
330
1F
100
AcDbEntity
  8
VERMASSUNG
100
AcDbMText
 10
13.933048693
 20
18.0482802738
 30
0.0
 40
2.0
 41
0.0
 71
     1
 72
     1
  1
DIN 69 893 HSK A 100
  7
SLDTEXTSTYLE1
 73
     1
 44
1.0
  0
MTEXT
  5
4A
330
1F
100
AcDbEntity
  8
VERMASSUNG
100
AcDbMText
 10
13.9808475933
 20
13.9090973692
 30
0.0
 40
2.0
 41
0.0
 71
     1
 72
     1
  1
Gewicht: 2680g
  7
SLDTEXTSTYLE0
 73
     1
 44
1.0
  0
LINE
  5
4B
330
1F
100
AcDbEntity
  8
0
  6
Continuous
 62
     7
370
    15
100
AcDbLine
 10
257.8216166754
 20
112.4292651415
 30
0.0
 11
257.886517611
 21
112.5494456875
 31
0.0
  0
LINE
  5
4C
330
1F
100
AcDbEntity
  8
0
  6
Continuous
 62
     7
370
    15
100
AcDbLine
 10
257.8276278874
 20
123.116320284
 30
0.0
 11
257.8216166754
 21
123.1274515679
 31
0.0
  0
ARC
  5
4D
330
1F
100
AcDbEntity
  8
0
  6
Continuous
 62
     7
370
    15
100
AcDbCircle
 10
98.3216166754
 20
68.3320649398
 30
0.0
 40
0.5000000000000142
100
AcDbArc
 50
180.0
 51
270.0
  0
ARC
  5
4E
330
1F
100
AcDbEntity
  8
0
  6
Continuous
 62
     7
370
    15
100
AcDbCircle
 10
98.3216166754
 20
167.3320649398
 30
0.0
 40
0.5
100
AcDbArc
 50
90.0
 51
180.0
  0
LINE
  5
4F
330
1F
100
AcDbEntity
  8
0
  6
Continuous
 62
     7
370
    15
100
AcDbLine
 10
98.3216166754
 20
67.8320649398
 30
0.0
 11
102.7716166754
 21
67.8320649398
 31
0.0
  0
LINE
  5
50
330
1F
100
AcDbEntity
  8
0
  6
Continuous
 62
     7
370
    15
100
AcDbLine
 10
102.8056895078
 20
167.8320649398
 30
0.0
 11
98.3216166754
 21
167.8320649398
 31
0.0
  0
ARC
  5
51
330
1F
100
AcDbEntity
  8
0
  6
Continuous
 62
     7
370
    15
100
AcDbCircle
 10
96.9246797569
 20
79.2035796153
 30
0.0
 40
0.9962338214386932
100
AcDbArc
 50
25.7988228126
 51
90.0
  0
ARC
  5
52
330
1F
100
AcDbEntity
  8
0
  6
Continuous
 62
     7
370
    15
100
AcDbCircle
 10
96.9246797569
 20
156.4605502642
 30
0.0
 40
0.9962338214387216
100
AcDbArc
 50
270.0
 51
334.2011771874
  0
LINE
  5
53
330
1F
100
AcDbEntity
  8
0
  6
Continuous
 62
     7
370
    15
100
AcDbLine
 10
95.3216166754
 20
79.9498134367
 30
0.0
 11
96.1274628298
 21
80.165739263
 31
0.0
  0
LINE
  5
54
330
1F
100
AcDbEntity
  8
0
  6
Continuous
 62
     7
370
    15
100
AcDbLine
 10
96.1274628298
 20
155.4983906165
 30
0.0
 11
95.3216166754
 21
155.7143164428
 31
0.0
  0
LINE
  5
55
330
1F
100
AcDbEntity
  8
0
  6
Continuous
 62
     7
370
    15
100
AcDbLine
 10
76.3409377567
 20
154.7633806252
 30
0.0
 11
58.0216166754
 21
153.8455789678
 31
0.0
  0
LINE
  5
56
330
1F
100
AcDbEntity
  8
0
  6
Continuous
 62
     7
370
    15
100
AcDbLine
 10
95.3216166754
 20
155.7143164428
 30
0.0
 11
89.2535775209
 21
155.4103064651
 31
0.0
  0
LINE
  5
57
330
1F
100
AcDbEntity
  8
0
  6
Continuous
 62
     7
370
    15
100
AcDbLine
 10
89.2537007974
 20
80.2538172383
 30
0.0
 11
95.3216166754
 21
79.9498134367
 31
0.0
  0
LINE
  5
58
330
1F
100
AcDbEntity
  8
0
  6
Continuous
 62
     7
370
    15
100
AcDbLine
 10
63.0216166754
 20
81.5680499097
 30
0.0
 11
76.3415678293
 21
80.9007176876
 31
0.0
  0
ARC
  5
59
330
1F
100
AcDbEntity
  8
0
  6
Continuous
 62
     7
370
    15
100
AcDbCircle
 10
96.3862818749
 20
79.1998134367
 30
0.0
 40
1.0
100
AcDbArc
 50
90.0
 51
105.0
  0
ARC
  5
5A
330
1F
100
AcDbEntity
  8
0
  6
Continuous
 62
     7
370
    15
100
AcDbCircle
 10
96.3862818749
 20
156.4643164428
 30
0.0
 40
1.0
100
AcDbArc
 50
255.0
 51
270.0
  0
LINE
  5
5B
330
1F
100
AcDbEntity
  8
0
  6
Continuous
 62
     7
370
    15
100
AcDbLine
 10
96.3862818749
 20
80.1998134367
 30
0.0
 11
96.9246797569
 21
80.1998134367
 31
0.0
  0
LINE
  5
5C
330
1F
100
AcDbEntity
  8
0
  6
Continuous
 62
     7
370
    15
100
AcDbLine
 10
96.9246797569
 20
155.4643164428
 30
0.0
 11
96.3862818749
 21
155.4643164428
 31
0.0
  0
ARC
  5
5D
330
1F
100
AcDbEntity
  8
0
  6
Continuous
 62
     7
370
    15
100
AcDbCircle
 10
131.7716166754
 20
93.9144452336
 30
0.0
 40
5.000000000000014
100
AcDbArc
 50
106.5116637356
 51
180.0
  0
ARC
  5
5E
330
1F
100
AcDbEntity
  8
0
  6
Continuous
 62
     7
370
    15
100
AcDbCircle
 10
131.7716166754
 20
141.7496846459
 30
0.0
 40
5.000000000000014
100
AcDbArc
 50
180.0
 51
253.4883362644
  0
ARC
  5
5F
330
1F
100
AcDbEntity
  8
0
  6
Continuous
 62
     7
370
    15
100
AcDbCircle
 10
158.7716166754
 20
2.8320649398
 30
0.0
 40
100.0
100
AcDbArc
 50
90.0
 51
106.5116637356
  0
ARC
  5
60
330
1F
100
AcDbEntity
  8
0
  6
Continuous
 62
     7
370
    15
100
AcDbCircle
 10
158.7716166754
 20
232.8320649398
 30
0.0
 40
100.0000000000001
100
AcDbArc
 50
253.4883362644
 51
270.0
  0
LINE
  5
61
330
1F
100
AcDbEntity
  8
0
  6
Continuous
 62
     7
370
    15
100
AcDbLine
 10
49.5716166754
 20
85.5820649398
 30
0.0
 11
61.1216166754
 21
85.5820649398
 31
0.0
  0
ARC
  5
62
330
1F
100
AcDbEntity
  8
0
  6
Continuous
 62
     7
370
    15
100
AcDbCircle
 10
61.1216166754
 20
83.6820649398
 30
0.0
 40
1.900000000000006
100
AcDbArc
 50
35.6630613694
 51
90.0
  0
ARC
  5
63
330
1F
100
AcDbEntity
  8
0
  6
Continuous
 62
     7
370
    15
100
AcDbCircle
 10
56.1216166754
 20
151.9820649398
 30
0.0
 40
1.899999999999991
100
AcDbArc
 50
270.0
 51
310.9212832533
  0
LINE
  5
64
330
1F
100
AcDbEntity
  8
0
  6
Continuous
 62
     7
370
    15
100
AcDbLine
 10
49.5716166754
 20
150.0820649398
 30
0.0
 11
47.9784003134
 21
148.4888485778
 31
0.0
  0
LINE
  5
65
330
1F
100
AcDbEntity
  8
0
  6
Continuous
 62
     7
370
    15
100
AcDbLine
 10
47.9791395758
 20
87.1745420393
 30
0.0
 11
49.5716166754
 21
85.5820649398
 31
0.0
  0
LINE
  5
66
330
1F
100
AcDbEntity
  8
0
  6
Continuous
 62
     7
370
    15
100
AcDbLine
 10
56.1216166754
 20
150.0820649398
 30
0.0
 11
49.5716166754
 21
150.0820649398
 31
0.0
  0
LINE
  5
67
330
1F
100
AcDbEntity
  8
0
  6
Continuous
 62
     7
370
    15
100
AcDbLine
 10
170.2625700131
 20
102.8320649398
 30
0.0
 11
243.8823216921
 21
102.8320649398
 31
0.0
  0
LINE
  5
68
330
1F
100
AcDbEntity
  8
0
  6
Continuous
 62
     7
370
    15
100
AcDbLine
 10
158.7716166754
 20
102.8320649398
 30
0.0
 11
163.2814110258
 21
102.8320649398
 31
0.0
  0
LINE
  5
69
330
1F
100
AcDbEntity
  8
0
  6
Continuous
 62
     7
370
    15
100
AcDbLine
 10
163.2727435633
 20
132.8320649398
 30
0.0
 11
158.7716166754
 21
132.8320649398
 31
0.0
  0
LINE
  5
6A
330
1F
100
AcDbEntity
  8
0
  6
Continuous
 62
     7
370
    15
100
AcDbLine
 10
243.8823216921
 20
132.8320649398
 30
0.0
 11
170.2684707991
 21
132.8320649398
 31
0.0
  0
LINE
  5
6B
330
1F
100
AcDbEntity
  8
0
  6
Continuous
 62
     7
370
    15
100
AcDbLine
 10
243.8823216921
 20
102.8320649398
 30
0.0
 11
256.6668531989
 21
108.7935898873
 31
0.0
  0
LINE
  5
6C
330
1F
100
AcDbEntity
  8
0
  6
Continuous
 62
     7
370
    15
100
AcDbLine
 10
256.6668531989
 20
126.8705399922
 30
0.0
 11
243.8823216921
 21
132.8320649398
 31
0.0
  0
ARC
  5
6D
330
1F
100
AcDbEntity
  8
0
  6
Continuous
 62
     7
370
    15
100
AcDbCircle
 10
255.8216166754
 20
110.6062054614
 30
0.0
 40
2.0
100
AcDbArc
 50
295.0
 51
0.0
  0
ARC
  5
6E
330
1F
100
AcDbEntity
  8
0
  6
Continuous
 62
     7
370
    15
100
AcDbCircle
 10
255.8216166754
 20
125.0579244181
 30
0.0
 40
2.000000000000013
100
AcDbArc
 50
0.0
 51
65.0
  0
CIRCLE
  5
6F
330
1F
100
AcDbEntity
  8
0
  6
Continuous
 62
     7
370
    15
100
AcDbCircle
 10
240.3216166754
 20
117.8320649398
 30
0.0
 40
2.499999999999998
  0
LINE
  5
70
330
1F
100
AcDbEntity
  8
0
  6
Continuous
 62
     7
370
    15
100
AcDbLine
 10
240.3965519534
 20
119.5624939918
 30
0.0
 11
241.8576798329
 21
118.6323836114
 31
0.0
  0
LINE
  5
71
330
1F
100
AcDbEntity
  8
0
  6
Continuous
 62
     7
370
    15
100
AcDbLine
 10
240.2466813974
 20
116.1016358877
 30
0.0
 11
241.7827445549
 21
116.9019545593
 31
0.0
  0
LINE
  5
72
330
1F
100
AcDbEntity
  8
0
  6
Continuous
 62
     7
370
    15
100
AcDbLine
 10
241.7827445549
 20
116.9019545593
 30
0.0
 11
241.8576798329
 21
118.6323836114
 31
0.0
  0
LINE
  5
73
330
1F
100
AcDbEntity
  8
0
  6
Continuous
 62
     7
370
    15
100
AcDbLine
 10
240.2466813974
 20
116.1016358877
 30
0.0
 11
238.7855535179
 21
117.0317462681
 31
0.0
  0
LINE
  5
74
330
1F
100
AcDbEntity
  8
0
  6
Continuous
 62
     7
370
    15
100
AcDbLine
 10
238.8604887959
 20
118.7621753202
 30
0.0
 11
238.7855535179
 21
117.0317462681
 31
0.0
  0
LINE
  5
75
330
1F
100
AcDbEntity
  8
0
  6
Continuous
 62
     7
370
    15
100
AcDbLine
 10
238.8604887959
 20
118.7621753202
 30
0.0
 11
240.3965519534
 21
119.5624939918
 31
0.0
  0
ARC
  5
76
330
1F
100
AcDbEntity
  8
0
  6
Continuous
 62
     7
370
    15
100
AcDbCircle
 10
238.3429936224
 20
113.2415179
 30
0.0
 40
19.5557739258538
100
AcDbArc
 50
357.9718982864
 51
5.0911211554
  0
LWPOLYLINE
  5
77
330
1F
100
AcDbEntity
  8
0
  6
Continuous
 62
     7
370
    15
100
AcDbPolyline
 90
        7
 70
   128
 43
0.0
 10
257.8216166754
 20
121.7487122254
 10
257.8260262091
 20
121.8982768824
 10
257.836404713
 20
122.3648152145
 10
257.8400491589
 20
122.7603988823
 10
257.836404713
 20
123.0248038586
 10
257.8260262091
 20
123.1177768824
 10
257.8216166754
 20
123.1086241711
  0
LINE
  5
78
330
1F
100
AcDbEntity
  8
0
  6
Continuous
 62
     7
370
    15
100
AcDbLine
 10
125.7716166754
 20
69.0570713467
 30
0.0
 11
121.0836456963
 21
69.0570713467
 31
0.0
  0
LINE
  5
79
330
1F
100
AcDbEntity
  8
0
  6
Continuous
 62
     7
370
    15
100
AcDbLine
 10
121.0836456963
 20
69.0570713467
 30
0.0
 11
121.0836456963
 21
149.1820649398
 31
0.0
  0
LINE
  5
7A
330
1F
100
AcDbEntity
  8
0
  6
Continuous
 62
     7
370
    15
100
AcDbLine
 10
121.0836456963
 20
149.1820649398
 30
0.0
 11
125.7716166754
 21
149.1820649398
 31
0.0
  0
LINE
  5
7B
330
1F
100
AcDbEntity
  8
0
  6
Continuous
 62
     7
370
    15
100
AcDbLine
 10
126.7716166754
 20
70.0827193945
 30
0.0
 11
126.7716166754
 21
149.1820649398
 31
0.0
  0
SPLINE
  5
7C
330
1F
100
AcDbEntity
  8
0
  6
Continuous
 62
     7
370
    15
100
AcDbSpline
210
0.0
220
0.0
230
1.0
 70
     8
 71
     3
 72
    14
 73
    10
 74
     0
 42
0.00000001
 43
0.00000001
 40
0.0
 40
0.0
 40
0.0
 40
0.0
 40
0.25
 40
0.25
 40
0.5
 40
0.5
 40
0.75
 40
0.75
 40
1.0
 40
1.0
 40
1.0
 40
1.0
 10
126.7716166753874
 20
70.08271939450175
 30
0.0
 10
126.7716166753874
 20
69.9492936984472
 30
0.0
 10
126.7463055754765
 20
69.81744589060284
 30
0.0
 10
126.6479708116318
 20
69.57092334190875
 30
0.0
 10
126.5748268073757
 20
69.4571181536682
 30
0.0
 10
126.39138874628
 20
69.26666097672093
 30
0.0
 10
126.2797024119414
 20
69.18902611287102
 30
0.0
 10
126.0371989816351
 20
69.08473470275855
 30
0.0
 10
125.9038245529409
 20
69.0570713467262
 30
0.0
 10
125.7716166753874
 20
69.0570713467262
 30
0.0
  0
SPLINE
  5
7D
330
1F
100
AcDbEntity
  8
0
  6
Continuous
 62
     7
370
    15
100
AcDbSpline
210
0.0
220
0.0
230
1.0
 70
    24
 71
     3
 72
    12
 73
     8
 74
     0
 42
0.00000001
 43
0.00000001
 40
0.0
 40
0.0
 40
0.0
 40
0.0
 40
0.2500000000000032
 40
0.2500000000000032
 40
0.5000000000000064
 40
0.5000000000000064
 40
1.0
 40
1.0
 40
1.0
 40
1.0
 10
125.7716166753874
 20
149.1820649397551
 30
0.0
 10
125.9237069123323
 20
149.1820649397551
 30
0.0
 10
126.0721661734078
 20
149.1820649397551
 30
0.0
 10
126.3295698056735
 20
149.1820649397551
 30
0.0
 10
126.4386745535154
 20
149.182064939755
 30
0.0
 10
126.692734029923
 20
149.1820649397551
 30
0.0
 10
126.7716166753874
 20
149.1820649397551
 30
0.0
 10
126.7716166753874
 20
149.1820649397551
 30
0.0
  0
LINE
  5
7E
330
1F
100
AcDbEntity
  8
0
  6
Continuous
 62
     7
370
    15
100
AcDbLine
 10
115.9116166754
 20
71.4606766527
 30
0.0
 11
115.9116166754
 21
149.1820649398
 31
0.0
  0
SPLINE
  5
7F
330
1F
100
AcDbEntity
  8
0
  6
Continuous
 62
     7
370
    15
100
AcDbSpline
210
0.0
220
0.0
230
1.0
 70
     8
 71
     3
 72
     8
 73
     4
 74
     0
 42
0.00000001
 43
0.00000001
 40
0.0
 40
0.0
 40
0.0
 40
0.0
 40
1.0
 40
1.0
 40
1.0
 40
1.0
 10
115.9116166753874
 20
71.46067665273156
 30
0.0
 10
115.4613902111096
 20
70.6592212901068
 30
0.0
 10
115.0106923838662
 20
69.85803127854615
 30
0.0
 10
114.559587654466
 20
69.05707134672623
 30
0.0
  0
LINE
  5
80
330
1F
100
AcDbEntity
  8
0
  6
Continuous
 62
     7
370
    15
100
AcDbLine
 10
114.5595876545
 20
69.0570713467
 30
0.0
 11
114.5595876545
 21
149.1820649398
 31
0.0
  0
SPLINE
  5
81
330
1F
100
AcDbEntity
  8
0
  6
Continuous
 62
     7
370
    15
100
AcDbSpline
210
0.0
220
0.0
230
1.0
 70
    24
 71
     3
 72
     8
 73
     4
 74
     0
 42
0.00000001
 43
0.00000001
 40
0.0
 40
0.0
 40
0.0
 40
0.0
 40
1.0
 40
1.0
 40
1.0
 40
1.0
 10
114.559587654466
 20
149.1820649397551
 30
0.0
 10
115.0163892267942
 20
149.1820649397551
 30
0.0
 10
115.4674037930334
 20
149.1820649397551
 30
0.0
 10
115.9116166753874
 20
149.1820649397551
 30
0.0
  0
LINE
  5
82
330
1F
100
AcDbEntity
  8
0
  6
Continuous
 62
     7
370
    15
100
AcDbLine
 10
97.8216166754
 20
68.3320649398
 30
0.0
 11
97.8216166754
 21
167.3320649371
 31
0.0
  0
LINE
  5
83
330
1F
100
AcDbEntity
  8
0
  6
Continuous
 62
     7
370
    15
100
AcDbLine
 10
102.7716166754
 20
149.1820649398
 30
0.0
 11
114.5595876545
 21
149.1820649398
 31
0.0
  0
LINE
  5
84
330
1F
100
AcDbEntity
  8
0
  6
Continuous
 62
     7
370
    15
100
AcDbLine
 10
114.5595876545
 20
69.0570713467
 30
0.0
 11
112.7716166754
 21
69.0570713467
 31
0.0
  0
SPLINE
  5
85
330
1F
100
AcDbEntity
  8
0
  6
Continuous
 62
     7
370
    15
100
AcDbSpline
210
0.0
220
0.0
230
1.0
 70
     8
 71
     3
 72
    30
 73
    26
 74
     0
 42
0.00000001
 43
0.00000001
 40
0.0
 40
0.0
 40
0.0
 40
0.0
 40
0.1250000000000002
 40
0.1250000000000002
 40
0.1875000000000003
 40
0.1875000000000003
 40
0.2500000000000004
 40
0.2500000000000004
 40
0.3750000000000001
 40
0.3750000000000001
 40
0.4374999999999998
 40
0.4374999999999998
 40
0.4999999999999996
 40
0.4999999999999996
 40
0.6249999999999996
 40
0.6249999999999996
 40
0.6874999999999997
 40
0.6874999999999997
 40
0.7499999999999997
 40
0.7499999999999997
 40
0.8124999999999998
 40
0.8124999999999998
 40
0.8749999999999999
 40
0.8749999999999999
 40
1.0
 40
1.0
 40
1.0
 40
1.0
 10
112.7716166753874
 20
69.05707134672623
 30
0.0
 10
112.1088719815424
 20
69.05707134672625
 30
0.0
 10
111.4576161224266
 20
69.04223127013742
 30
0.0
 10
110.4971655841684
 20
68.9998617059078
 30
0.0
 10
110.1797741409354
 20
68.98238360312864
 30
0.0
 10
109.5506106393805
 20
68.94105531657632
 30
0.0
 10
109.2384624529388
 20
68.91713004311865
 30
0.0
 10
108.3311551510906
 20
68.83832352665173
 30
0.0
 10
107.7577301934493
 20
68.77601750667525
 30
0.0
 10
106.9438533238746
 20
68.6728881864359
 30
0.0
 10
106.6790471273048
 20
68.63670426738938
 30
0.0
 10
106.1721397164904
 20
68.56290948318889
 30
0.0
 10
105.9307455651369
 20
68.52543562441724
 30
0.0
 10
105.2416040930046
 20
68.41272368107751
 30
0.0
 10
104.8285492781404
 20
68.33718758360371
 30
0.0
 10
104.2803944587653
 20
68.22879432658623
 30
0.0
 10
104.1109318514197
 20
68.19372209492298
 30
0.0
 10
103.8029146034043
 20
68.1274866343231
 30
0.0
 10
103.663534582796
 20
68.0961599375684
 30
0.0
 10
103.4137490701692
 20
68.03775116598746
 30
0.0
 10
103.3033429575153
 20
68.01066793080462
 30
0.0
 10
103.1120851038776
 20
67.96140817619103
 30
0.0
 10
103.0309655855933
 20
67.93914619638339
 30
0.0
 10
102.8368186654849
 20
67.88157928921511
 30
0.0
 10
102.7716166753874
 20
67.85531968442912
 30
0.0
 10
102.7716166753874
 20
67.84206593995509
 30
0.0
  0
LINE
  5
86
330
1F
100
AcDbEntity
  8
0
  6
Continuous
 62
     7
370
    15
100
AcDbLine
 10
102.7716166754
 20
67.84206594
 30
0.0
 11
102.7716166754
 21
67.8320649398
 31
0.0
  0
SPLINE
  5
87
330
1F
100
AcDbEntity
  8
0
  6
Continuous
 62
     7
370
    15
100
AcDbSpline
210
0.0
220
0.0
230
1.0
 70
     8
 71
     3
 72
    17
 73
    13
 74
     0
 42
0.00000001
 43
0.00000001
 40
0.0
 40
0.0
 40
0.0
 40
0.0
 40
0.104384384054747
 40
0.2118345768143993
 40
0.316208200519045
 40
0.4235375806108392
 40
0.5292276236193852
 40
0.6379275864803491
 40
0.7444714844189683
 40
0.8541836219421859
 40
0.9593080534965217
 40
1.0
 40
1.0
 40
1.0
 40
1.0
 10
112.7716166753874
 20
166.8218597954186
 30
0.0
 10
112.223678227528
 20
166.8272279991673
 30
0.0
 10
111.1117081730633
 20
166.8381220728324
 30
0.0
 10
109.4988522598483
 20
166.9232994470912
 30
0.0
 10
107.9653390428714
 20
167.0496741533838
 30
0.0
 10
106.5743181935348
 20
167.2065769739606
 30
0.0
 10
105.3388016763044
 20
167.3782758034812
 30
0.0
 10
104.3154459091491
 20
167.5436120795822
 30
0.0
 10
103.515103910884
 20
167.6873255591688
 30
0.0
 10
103.0047718089705
 20
167.785480366348
 30
0.0
 10
102.7648633801459
 20
167.8334087632179
 30
0.0
 10
102.7967821595658
 20
167.8270413639783
 30
0.0
 10
102.8056895078479
 20
167.825264458855
 30
0.0
  0
LINE
  5
88
330
1F
100
AcDbEntity
  8
0
  6
Continuous
 62
     7
370
    15
100
AcDbLine
 10
114.5595876545
 20
166.8218597954
 30
0.0
 11
112.7716166754
 21
166.8218597954
 31
0.0
  0
LINE
  5
89
330
1F
100
AcDbEntity
  8
0
  6
Continuous
 62
     7
370
    15
100
AcDbLine
 10
114.5595876545
 20
156.7830277006
 30
0.0
 11
114.5595876545
 21
166.8218597954
 31
0.0
  0
LINE
  5
8A
330
1F
100
AcDbEntity
  8
0
  6
Continuous
 62
     7
370
    15
100
AcDbLine
 10
112.4795835236
 20
156.7830277006
 30
0.0
 11
114.5595876545
 21
156.7830277006
 31
0.0
  0
SPLINE
  5
8B
330
1F
100
AcDbEntity
  8
0
  6
Continuous
 62
     7
370
    15
100
AcDbSpline
210
0.0
220
0.0
230
1.0
 70
     8
 71
     3
 72
    22
 73
    18
 74
     0
 42
0.00000001
 43
0.00000001
 40
0.0
 40
0.0
 40
0.0
 40
0.0
 40
0.2500000000000002
 40
0.2500000000000002
 40
0.3750000000000003
 40
0.3750000000000003
 40
0.5000000000000004
 40
0.5000000000000004
 40
0.6250000000000004
 40
0.6250000000000004
 40
0.7500000000000004
 40
0.7500000000000004
 40
0.8750000000000004
 40
0.8750000000000004
 40
0.9375000000000002
 40
0.9375000000000002
 40
1.0
 40
1.0
 40
1.0
 40
1.0
 10
102.7716166753873
 20
149.1820649397551
 30
0.0
 10
102.9743416313064
 20
150.2013112816197
 30
0.0
 10
103.2890853531018
 20
151.160419431559
 30
0.0
 10
103.9971408227728
 20
152.5028985090682
 30
0.0
 10
104.2756034529904
 20
152.9371070918083
 30
0.0
 10
104.9143708596276
 20
153.7487348073103
 30
0.0
 10
105.2747845394178
 20
154.1280151002472
 30
0.0
 10
106.0923167714071
 20
154.8309736792682
 30
0.0
 10
106.5534847546943
 20
155.1560024969688
 30
0.0
 10
107.551475001178
 20
155.7210178203597
 30
0.0
 10
108.0912341951703
 20
155.9647214145662
 30
0.0
 10
109.2658271592016
 20
156.3689213422112
 30
0.0
 10
109.8775633451935
 20
156.5213585352567
 30
0.0
 10
110.8294725700552
 20
156.6766860828654
 30
0.0
 10
111.1527057343159
 20
156.7161908629154
 30
0.0
 10
111.8117689055911
 20
156.7694999835841
 30
0.0
 10
112.1458329161651
 20
156.783027700642
 30
0.0
 10
112.4795835235667
 20
156.783027700642
 30
0.0
  0
SPLINE
  5
8C
330
1F
100
AcDbEntity
  8
0
  6
Continuous
 62
     7
370
    15
100
AcDbSpline
210
0.0
220
0.0
230
1.0
 70
     8
 71
     3
 72
    80
 73
    76
 74
     0
 42
0.00000001
 43
0.00000001
 40
-0.0312499999999993
 40
-0.0312499999999993
 40
0.0
 40
0.0
 40
0.03125
 40
0.03125
 40
0.046875
 40
0.046875
 40
0.0625
 40
0.0625
 40
0.09375
 40
0.09375
 40
0.1250000000000001
 40
0.1250000000000001
 40
0.1562500000000001
 40
0.1562500000000001
 40
0.1875000000000001
 40
0.1875000000000001
 40
0.2187500000000002
 40
0.2187500000000002
 40
0.2500000000000002
 40
0.2500000000000002
 40
0.2812500000000003
 40
0.2812500000000003
 40
0.3125000000000003
 40
0.3125000000000003
 40
0.3281250000000004
 40
0.3281250000000004
 40
0.3437500000000006
 40
0.3437500000000006
 40
0.3750000000000011
 40
0.3750000000000011
 40
0.4062500000000016
 40
0.4062500000000016
 40
0.4218750000000018
 40
0.4218750000000018
 40
0.437500000000002
 40
0.437500000000002
 40
0.4687500000000023
 40
0.4687500000000023
 40
0.5000000000000027
 40
0.5000000000000027
 40
0.531250000000003
 40
0.531250000000003
 40
0.5625000000000033
 40
0.5625000000000033
 40
0.5937500000000037
 40
0.5937500000000037
 40
0.6250000000000039
 40
0.6250000000000039
 40
0.6562500000000042
 40
0.6562500000000042
 40
0.6875000000000046
 40
0.6875000000000046
 40
0.7031250000000047
 40
0.7031250000000047
 40
0.7187500000000048
 40
0.7187500000000048
 40
0.7500000000000048
 40
0.7500000000000048
 40
0.7812500000000048
 40
0.7812500000000048
 40
0.7968750000000044
 40
0.7968750000000044
 40
0.8125000000000041
 40
0.8125000000000041
 40
0.8437500000000034
 40
0.8437500000000034
 40
0.8750000000000027
 40
0.8750000000000027
 40
0.906250000000002
 40
0.906250000000002
 40
0.9375000000000013
 40
0.9375000000000013
 40
0.9687500000000007
 40
0.9687500000000007
 40
1.0
 40
1.0
 40
1.03125
 40
1.03125
 10
107.1521619881637
 20
161.2466944033863
 30
0.0
 10
106.4910713626111
 20
161.2466944033863
 30
0.0
 10
106.1660912333594
 20
161.2629026347685
 30
0.0
 10
105.686617822113
 20
161.310267266788
 30
0.0
 10
105.5281360042722
 20
161.3299214786787
 30
0.0
 10
105.2139164717679
 20
161.3770326348713
 30
0.0
 10
105.0577961880875
 20
161.404613954366
 30
0.0
 10
104.6037421591309
 20
161.4971497411598
 30
0.0
 10
104.3166387761911
 20
161.5722201747563
 30
0.0
 10
103.7732842201641
 20
161.7474584833669
 30
0.0
 10
103.5161806089585
 20
161.8484597812052
 30
0.0
 10
103.0552743540197
 20
162.065815979666
 30
0.0
 10
102.8483766448048
 20
162.1829803114383
 30
0.0
 10
102.4828513308126
 20
162.4330502356669
 30
0.0
 10
102.3276458086866
 20
162.5639963244259
 30
0.0
 10
102.0782154220869
 20
162.8297312681383
 30
0.0
 10
101.9821254663017
 20
162.9664848614492
 30
0.0
 10
101.8536066171082
 20
163.2405504362882
 30
0.0
 10
101.8217957469304
 20
163.375490526757
 30
0.0
 10
101.8214390971571
 20
163.6409621638258
 30
0.0
 10
101.8539363493542
 20
163.7727866409671
 30
0.0
 10
101.9815618230687
 20
164.0222362405875
 30
0.0
 10
102.0759902241205
 20
164.1406689325155
 30
0.0
 10
102.2638510441061
 20
164.3095381296096
 30
0.0
 10
102.3346790429093
 20
164.3646241247297
 30
0.0
 10
102.4894009348746
 20
164.4698769532181
 30
0.0
 10
102.573377405058
 20
164.5202121819785
 30
0.0
 10
102.8447010747024
 20
164.6647880145165
 30
0.0
 10
103.0512502933047
 20
164.7526496009336
 30
0.0
 10
103.5178604334937
 20
164.912370693933
 30
0.0
 10
103.7702260031192
 20
164.9816089904003
 30
0.0
 10
104.1761273447979
 20
165.07139637963
 30
0.0
 10
104.3160279622754
 20
165.0989623417163
 30
0.0
 10
104.6052518975223
 20
165.1494531426426
 30
0.0
 10
104.7550913538116
 20
165.1724165814933
 30
0.0
 10
105.2092079234224
 20
165.2330470979121
 30
0.0
 10
105.5208591421593
 20
165.2631211267079
 30
0.0
 10
106.1618556070716
 20
165.3037107139666
 30
0.0
 10
106.4933832350238
 20
165.3140229441827
 30
0.0
 10
107.1461742800953
 20
165.3140985113484
 30
0.0
 10
107.4707104851271
 20
165.3041969058807
 30
0.0
 10
108.1159799345435
 20
165.2637103753554
 30
0.0
 10
108.4317229407062
 20
165.2332490754708
 30
0.0
 10
109.0336122356899
 20
165.1530984040342
 30
0.0
 10
109.3243614665014
 20
165.102816172227
 30
0.0
 10
109.8712732581859
 20
164.982145989454
 30
0.0
 10
110.1230506220228
 20
164.912922130284
 30
0.0
 10
110.584438614644
 20
164.7554704026433
 30
0.0
 10
110.795707894242
 20
164.6661219279696
 30
0.0
 10
111.1590122466182
 20
164.4728740572688
 30
0.0
 10
111.312818895061
 20
164.3687460653895
 30
0.0
 10
111.5014383646584
 20
164.200121679206
 30
0.0
 10
111.5574688508675
 20
164.1414932775311
 30
0.0
 10
111.6530426126037
 20
164.0220383627049
 30
0.0
 10
111.6928055296287
 20
163.9611185738666
 30
0.0
 10
111.7885772799409
 20
163.7747138476928
 30
0.0
 10
111.821300119067
 20
163.6456010298978
 30
0.0
 10
111.821928705396
 20
163.3769441069419
 30
0.0
 10
111.7897425606613
 20
163.2415733661851
 30
0.0
 10
111.6948318588057
 20
163.0380230579491
 30
0.0
 10
111.6553650754067
 20
162.9700511338857
 30
0.0
 10
111.5604350766858
 20
162.8339589107548
 30
0.0
 10
111.5046782489225
 20
162.7656088105454
 30
0.0
 10
111.3167381309526
 20
162.5649057975033
 30
0.0
 10
111.1633766612364
 20
162.4355175236906
 30
0.0
 10
110.801112426356
 20
162.1868520916407
 30
0.0
 10
110.5902639528901
 20
162.0670424492725
 30
0.0
 10
110.1295939825712
 20
161.8495201616998
 30
0.0
 10
109.8782196029874
 20
161.7504350618639
 30
0.0
 10
109.3323117160893
 20
161.5737625879471
 30
0.0
 10
109.041489141438
 20
161.4977054998131
 30
0.0
 10
108.440162526658
 20
161.3748605224601
 30
0.0
 10
108.1256439420456
 20
161.327154397407
 30
0.0
 10
107.4790624859257
 20
161.2629058622873
 30
0.0
 10
107.1521619881637
 20
161.2466944033863
 30
0.0
 10
106.4910713626111
 20
161.2466944033863
 30
0.0
  0
SPLINE
  5
8D
330
1F
100
AcDbEntity
  8
0
  6
Continuous
 62
     7
370
    15
100
AcDbSpline
210
0.0
220
0.0
230
1.0
 70
     8
 71
     3
 72
     8
 73
     4
 74
     0
 42
0.00000001
 43
0.00000001
 40
0.0
 40
0.0
 40
0.0
 40
0.0
 40
1.0
 40
1.0
 40
1.0
 40
1.0
 10
121.0836456963087
 20
69.05707134672623
 30
0.0
 10
120.6325409669085
 20
69.85803127854615
 30
0.0
 10
120.1818431396651
 20
70.65922129010683
 30
0.0
 10
119.7316166753874
 20
71.46067665273158
 30
0.0
  0
LINE
  5
8E
330
1F
100
AcDbEntity
  8
0
  6
Continuous
 62
     7
370
    15
100
AcDbLine
 10
119.7316166754
 20
71.4606766527
 30
0.0
 11
119.7316166754
 21
149.1820649398
 31
0.0
  0
SPLINE
  5
8F
330
1F
100
AcDbEntity
  8
0
  6
Continuous
 62
     7
370
    15
100
AcDbSpline
210
0.0
220
0.0
230
1.0
 70
    24
 71
     3
 72
     8
 73
     4
 74
     0
 42
0.00000001
 43
0.00000001
 40
0.0
 40
0.0
 40
0.0
 40
0.0
 40
1.0
 40
1.0
 40
1.0
 40
1.0
 10
119.7316166753874
 20
149.1820649397551
 30
0.0
 10
120.1758295577413
 20
149.1820649397551
 30
0.0
 10
120.6268441239805
 20
149.1820649397551
 30
0.0
 10
121.0836456963087
 20
149.1820649397551
 30
0.0
  0
SPLINE
  5
90
330
1F
100
AcDbEntity
  8
0
  6
Continuous
 62
     7
370
    15
100
AcDbSpline
210
0.0
220
0.0
230
1.0
 70
     8
 71
     3
 72
    12
 73
     8
 74
     0
 42
0.00000001
 43
0.00000001
 40
0.0
 40
0.0
 40
0.0
 40
0.0
 40
0.250000000000003
 40
0.250000000000003
 40
0.500000000000006
 40
0.500000000000006
 40
1.0
 40
1.0
 40
1.0
 40
1.0
 10
116.7116166753874
 20
73.19238948170539
 30
0.0
 10
116.6058560220384
 20
73.19238948170539
 30
0.0
 10
116.4978683938555
 20
73.16984997570499
 30
0.0
 10
116.3032737285899
 20
73.08527934370967
 30
0.0
 10
116.214401815751
 20
73.02279769095085
 30
0.0
 10
115.9952095234251
 20
72.79340873947862
 30
0.0
 10
115.9116166753873
 20
72.5808254019562
 30
0.0
 10
115.9116166753873
 20
72.36888615736001
 30
0.0
  0
SPLINE
  5
91
330
1F
100
AcDbEntity
  8
0
  6
Continuous
 62
     7
370
    15
100
AcDbSpline
210
0.0
220
0.0
230
1.0
 70
    24
 71
     3
 72
    14
 73
    10
 74
     0
 42
0.00000001
 43
0.00000001
 40
0.0
 40
0.0
 40
0.0
 40
0.0
 40
0.25
 40
0.25
 40
0.5
 40
0.5
 40
0.75
 40
0.75
 40
1.0
 40
1.0
 40
1.0
 40
1.0
 10
115.9116166753874
 20
149.1820649397551
 30
0.0
 10
115.9116166753874
 20
149.1820649397551
 30
0.0
 10
115.9273309958533
 20
149.1820649397551
 30
0.0
 10
115.9910149743217
 20
149.182064939755
 30
0.0
 10
116.0396181687321
 20
149.1820649397551
 30
0.0
 10
116.1723016911577
 20
149.1820649397551
 30
0.0
 10
116.2574037954684
 20
149.1820649397551
 30
0.0
 10
116.4638460303784
 20
149.1820649397551
 30
0.0
 10
116.5879269720015
 20
149.1820649397551
 30
0.0
 10
116.7116166753874
 20
149.1820649397551
 30
0.0
  0
SPLINE
  5
92
330
1F
100
AcDbEntity
  8
0
  6
Continuous
 62
     7
370
    15
100
AcDbSpline
210
0.0
220
0.0
230
1.0
 70
     8
 71
     3
 72
    14
 73
    10
 74
     0
 42
0.00000001
 43
0.00000001
 40
0.0
 40
0.0
 40
0.0
 40
0.0
 40
0.25
 40
0.25
 40
0.5
 40
0.5
 40
0.75
 40
0.75
 40
1.0
 40
1.0
 40
1.0
 40
1.0
 10
119.7316166753874
 20
72.36888615736015
 30
0.0
 10
119.7316166753874
 20
72.47593023835454
 30
0.0
 10
119.7114989882292
 20
72.58116537859699
 30
0.0
 10
119.6330077989636
 20
72.77901586544466
 30
0.0
 10
119.5748511741624
 20
72.8700676290096
 30
0.0
 10
119.4283359185443
 20
73.02323372293438
 30
0.0
 10
119.3396933699032
 20
73.08552816914379
 30
0.0
 10
119.1439700471029
 20
73.17032195467976
 30
0.0
 10
119.038738856032
 20
73.19238948170539
 30
0.0
 10
118.9316166753874
 20
73.19238948170539
 30
0.0
  0
SPLINE
  5
93
330
1F
100
AcDbEntity
  8
0
  6
Continuous
 62
     7
370
    15
100
AcDbSpline
210
0.0
220
0.0
230
1.0
 70
    24
 71
     3
 72
    14
 73
    10
 74
     0
 42
0.00000001
 43
0.00000001
 40
0.0
 40
0.0
 40
0.0
 40
0.0
 40
0.25
 40
0.25
 40
0.5
 40
0.5
 40
0.75
 40
0.75
 40
1.0
 40
1.0
 40
1.0
 40
1.0
 10
118.9316166753874
 20
149.1820649397551
 30
0.0
 10
119.0553864401525
 20
149.1820649397551
 30
0.0
 10
119.1797535441594
 20
149.1820649397551
 30
0.0
 10
119.3861100128855
 20
149.182064939755
 30
0.0
 10
119.4714381563038
 20
149.1820649397551
 30
0.0
 10
119.603630215019
 20
149.1820649397551
 30
0.0
 10
119.6522754587696
 20
149.1820649397551
 30
0.0
 10
119.7158112504984
 20
149.1820649397551
 30
0.0
 10
119.7316166753874
 20
149.1820649397551
 30
0.0
 10
119.7316166753874
 20
149.1820649397551
 30
0.0
  0
LINE
  5
94
330
1F
100
AcDbEntity
  8
0
  6
Continuous
 62
     7
370
    15
100
AcDbLine
 10
118.9316166754
 20
73.1923894817
 30
0.0
 11
116.7116166754
 21
73.1923894817
 31
0.0
  0
LINE
  5
95
330
1F
100
AcDbEntity
  8
0
  6
Continuous
 62
     7
370
    15
100
AcDbLine
 10
116.7116166754
 20
149.1820649398
 30
0.0
 11
118.9316166754
 21
149.1820649398
 31
0.0
  0
LINE
  5
96
330
1F
100
AcDbEntity
  8
0
  6
Continuous
 62
     7
370
    15
100
AcDbLine
 10
95.3216166754
 20
79.9498134367
 30
0.0
 11
95.3216166754
 21
155.7143164428
 31
0.0
  0
LINE
  5
97
330
1F
100
AcDbEntity
  8
0
  6
Continuous
 62
     7
370
    15
100
AcDbLine
 10
63.0216166754
 20
81.5680499097
 30
0.0
 11
63.0216166754
 21
83.9627316744
 31
0.0
  0
SPLINE
  5
98
330
1F
100
AcDbEntity
  8
0
  6
Continuous
 62
     7
370
    15
100
AcDbSpline
210
0.0
220
0.0
230
1.0
 70
     8
 71
     3
 72
    14
 73
    10
 74
     0
 42
0.00000001
 43
0.00000001
 40
0.0
 40
0.0
 40
0.0
 40
0.0
 40
0.25
 40
0.25
 40
0.5
 40
0.5
 40
0.75
 40
0.75
 40
1.0
 40
1.0
 40
1.0
 40
1.0
 10
62.01719420405041
 20
85.6655835960115
 30
0.0
 10
62.10596278199574
 20
85.50704946470356
 30
0.0
 10
62.22768062067465
 20
85.354606787815
 30
0.0
 10
62.46273023053148
 20
85.05747216398608
 30
0.0
 10
62.57836041674837
 20
84.91278952036872
 30
0.0
 10
62.77876535017618
 20
84.62950031786531
 30
0.0
 10
62.86416564216052
 20
84.49094632482846
 30
0.0
 10
62.98587127587773
 20
84.21956229479494
 30
0.0
 10
63.02161667539038
 20
84.0874264261603
 30
0.0
 10
63.02161667539037
 20
83.96273167438954
 30
0.0
  0
SPLINE
  5
99
330
1F
100
AcDbEntity
  8
0
  6
Continuous
 62
     7
370
    15
100
AcDbSpline
210
0.0
220
0.0
230
1.0
 70
     8
 71
     3
 72
    14
 73
    10
 74
     0
 42
0.00000001
 43
0.00000001
 40
0.0
 40
0.0
 40
0.0
 40
0.0
 40
0.124999999999999
 40
0.124999999999999
 40
0.249999999999998
 40
0.249999999999998
 40
0.5000000000000007
 40
0.5000000000000007
 40
1.0
 40
1.0
 40
1.0
 40
1.0
 10
61.12161667538737
 20
86.29441353511162
 30
0.0
 10
61.18919897517186
 20
86.30156942021303
 30
0.0
 10
61.26168655291976
 20
86.29714495017399
 30
0.0
 10
61.39397766218571
 20
86.26743879240364
 30
0.0
 10
61.45125504157588
 20
86.24415451082542
 30
0.0
 10
61.60090546877617
 20
86.1666692709751
 30
0.0
 10
61.67461876429767
 20
86.10481744407373
 30
0.0
 10
61.86242674762391
 20
85.92013999142542
 30
0.0
 10
61.94646705398535
 20
85.7918970681342
 30
0.0
 10
62.01719420405163
 20
85.66558359601161
 30
0.0
  0
SPLINE
  5
9A
330
1F
100
AcDbEntity
  8
0
  6
Continuous
 62
     7
370
    15
100
AcDbSpline
210
0.0
220
0.0
230
1.0
 70
     8
 71
     3
 72
     8
 73
     4
 74
     0
 42
0.00000001
 43
0.00000001
 40
0.0
 40
0.0
 40
0.0
 40
0.0
 40
1.0
 40
1.0
 40
1.0
 40
1.0
 10
57.57697628730659
 20
85.87636495031984
 30
0.0
 10
58.74227459801546
 20
86.03155242220645
 30
0.0
 10
59.92688981205526
 20
86.16791106051677
 30
0.0
 10
61.12161667538734
 20
86.29441353511163
 30
0.0
  0
SPLINE
  5
9B
330
1F
100
AcDbEntity
  8
0
  6
Continuous
 62
     7
370
    15
100
AcDbSpline
210
0.0
220
0.0
230
1.0
 70
     8
 71
     3
 72
    14
 73
    10
 74
     0
 42
0.00000001
 43
0.00000001
 40
0.0
 40
0.0
 40
0.0
 40
0.0
 40
0.5000000000000012
 40
0.5000000000000012
 40
0.7500000000000018
 40
0.7500000000000018
 40
0.8750000000000009
 40
0.8750000000000009
 40
1.0
 40
1.0
 40
1.0
 40
1.0
 10
49.82154179135703
 20
85.5862327711899
 30
0.0
 10
51.12984335389103
 20
85.59324749493102
 30
0.0
 10
52.43490272854815
 20
85.6086560713755
 30
0.0
 10
54.38077878003683
 20
85.66255262684217
 30
0.0
 10
55.027476283776
 20
85.68558419144487
 30
0.0
 10
55.99131864763054
 20
85.73652671631562
 30
0.0
 10
56.31155733956469
 20
85.75626163854882
 30
0.0
 10
56.94825256590724
 20
85.8057487670204
 30
0.0
 10
57.26496797419023
 20
85.83481354594964
 30
0.0
 10
57.57697628730662
 20
85.87636495031981
 30
0.0
  0
SPLINE
  5
9C
330
1F
100
AcDbEntity
  8
0
  6
Continuous
 62
     7
370
    15
100
AcDbSpline
210
0.0
220
0.0
230
1.0
 70
     8
 71
     3
 72
    12
 73
     8
 74
     0
 42
0.00000001
 43
0.00000001
 40
0.0
 40
0.0
 40
0.0
 40
0.0
 40
0.2500000000000001
 40
0.2500000000000001
 40
0.5000000000000001
 40
0.5000000000000001
 40
1.0
 40
1.0
 40
1.0
 40
1.0
 10
56.12161667538737
 20
149.9185878312515
 30
0.0
 10
55.60291785355918
 20
149.9511106060997
 30
0.0
 10
55.08120628035419
 20
149.9744073472702
 30
0.0
 10
54.03491426385862
 20
150.0122528616923
 30
0.0
 10
53.51024263818835
 20
150.0265213361884
 30
0.0
 10
51.93339661564914
 20
150.0607308236467
 30
0.0
 10
50.87844130110225
 20
150.0722303275906
 30
0.0
 10
49.82154179135702
 20
150.0778971083201
 30
0.0
  0
SPLINE
  5
9D
330
1F
100
AcDbEntity
  8
0
  6
Continuous
 62
     7
370
    15
100
AcDbSpline
210
0.0
220
0.0
230
1.0
 70
     8
 71
     3
 72
    20
 73
    16
 74
     0
 42
0.00000001
 43
0.00000001
 40
0.0
 40
0.0
 40
0.0
 40
0.0
 40
0.2500000000000011
 40
0.2500000000000011
 40
0.5000000000000021
 40
0.5000000000000021
 40
0.7500000000000031
 40
0.7500000000000031
 40
0.8750000000000008
 40
0.8750000000000008
 40
0.9375000000000006
 40
0.9375000000000006
 40
0.9687500000000003
 40
0.9687500000000003
 40
1.0
 40
1.0
 40
1.0
 40
1.0
 10
58.02161667538737
 20
151.5766736767396
 30
0.0
 10
58.02161667538736
 20
151.4409913569928
 30
0.0
 10
57.97290488617074
 20
151.2999043708528
 30
0.0
 10
57.80374346294556
 20
151.0078326521222
 30
0.0
 10
57.68196304902723
 20
150.8561839100318
 30
0.0
 10
57.38441595427773
 20
150.5537754698787
 30
0.0
 10
57.21050334857495
 20
150.4011868337554
 30
0.0
 10
56.89108851469313
 20
150.1759160699131
 30
0.0
 10
56.77604773924587
 20
150.1011929754024
 30
0.0
 10
56.56896341522945
 20
150.0017825661454
 30
0.0
 10
56.49285558042305
 20
149.9702174738008
 30
0.0
 10
56.36146104086973
 20
149.9357740896078
 30
0.0
 10
56.31490782186827
 20
149.9267225178402
 30
0.0
 10
56.21857447078754
 20
149.9165468690017
 30
0.0
 10
56.16931504743211
 20
149.9155971103267
 30
0.0
 10
56.12161667538537
 20
149.9185878312413
 30
0.0
  0
LINE
  5
9E
330
1F
100
AcDbEntity
  8
0
  6
Continuous
 62
     7
370
    15
100
AcDbLine
 10
58.0216166754
 20
151.5766736767
 30
0.0
 11
58.0216166754
 21
153.8455789678
 31
0.0
  0
SPLINE
  5
9F
330
1F
100
AcDbEntity
  8
0
  6
Continuous
 62
     7
370
    15
100
AcDbSpline
210
0.0
220
0.0
230
1.0
 70
     8
 71
     3
 72
    22
 73
    18
 74
     0
 42
0.00000001
 43
0.00000001
 40
0.0
 40
0.0
 40
0.0
 40
0.0
 40
0.0002937850458186
 40
0.0628841327416245
 40
0.1261981682954119
 40
0.2510182590426545
 40
0.3131038291609287
 40
0.3757650688901397
 40
0.4382989835656159
 40
0.5000628079113862
 40
0.5617337561138577
 40
0.6246555685552369
 40
0.7491916976530832
 40
0.8115302181310354
 40
0.8745847230190956
 40
0.937822758820794
 40
1.0
 40
1.0
 40
1.0
 40
1.0
 10
76.3415729392268
 20
80.90081968144267
 30
0.0
 10
76.34137808581656
 20
80.90079537412281
 30
0.0
 10
76.29967008233592
 20
80.89559243833597
 30
0.0
 10
76.44493318551987
 20
80.91420664622387
 30
0.0
 10
76.9150793626902
 20
80.97073259681986
 30
0.0
 10
77.88353544527426
 20
81.07695422624529
 30
0.0
 10
79.19599525483565
 20
81.16258703367673
 30
0.0
 10
80.32811896346821
 20
81.20124309977561
 30
0.0
 10
81.5503057400902
 20
81.2049044075541
 30
0.0
 10
82.81760412761956
 20
81.16251899278423
 30
0.0
 10
84.08431578185265
 20
81.07414201510889
 30
0.0
 10
85.6999737777172
 20
80.90409288648503
 30
0.0
 10
87.13993638774083
 20
80.68191115193159
 30
0.0
 10
88.20580554390473
 20
80.47891504379704
 30
0.0
 10
88.79500592734267
 20
80.3548896108477
 30
0.0
 10
89.18372544263326
 20
80.2699687704028
 30
0.0
 10
89.23051115546266
 20
80.25924205259847
 30
0.0
 10
89.25370614908994
 20
80.25392405836332
 30
0.0
  0
SPLINE
  5
A0
330
1F
100
AcDbEntity
  8
0
  6
Continuous
 62
     7
370
    15
100
AcDbSpline
210
0.0
220
0.0
230
1.0
 70
     8
 71
     3
 72
    41
 73
    37
 74
     0
 42
0.00000001
 43
0.00000001
 40
0.0
 40
0.0
 40
0.0
 40
0.0
 40
0.0619930061482746
 40
0.1254347783466151
 40
0.1886508898234768
 40
0.2510246408607227
 40
0.3131658188976554
 40
0.3756581641417402
 40
0.4382227146727798
 40
0.4998044922940677
 40
0.56151641971787
 40
0.6240683094121985
 40
0.686725723240935
 40
0.7488365305144522
 40
0.8110685944253986
 40
0.8741742884451361
 40
0.9373212787645211
 40
0.9685511709617411
 40
0.9842086872487193
 40
0.9920641182531791
 40
0.996000486125535
 40
0.9979710794120144
 40
0.9989570090489596
 40
0.9994501359395065
 40
0.9996967403802177
 40
0.9998200529090742
 40
0.9998817117580818
 40
0.999912541829664
 40
0.9999279570273361
 40
0.9999356646666602
 40
0.9999395184964466
 40
0.9999414454138695
 40
0.9999424088732151
 40
0.9999433723329806
 40
0.9999501697010513
 40
1.0
 40
1.0
 40
1.0
 40
1.0
 10
89.25358481861194
 20
155.4101608031953
 30
0.0
 10
89.23001317326835
 20
155.4048513235454
 30
0.0
 10
89.18231901722328
 20
155.3941082826058
 30
0.0
 10
88.79027702779774
 20
155.3088791461504
 30
0.0
 10
88.19976297852753
 20
155.1843103675096
 30
0.0
 10
87.39572553248244
 20
155.0313634213578
 30
0.0
 10
86.41965013230092
 20
154.8696068674042
 30
0.0
 10
85.29784139702043
 20
154.717374099472
 30
0.0
 10
84.08431047723317
 20
154.5895941582707
 30
0.0
 10
82.81947977083396
 20
154.501745606588
 30
0.0
 10
81.55143673339124
 20
154.4593601227174
 30
0.0
 10
80.32792937569012
 20
154.4630959306891
 30
0.0
 10
79.19443083527611
 20
154.5016914011372
 30
0.0
 10
78.20832502430191
 20
154.5661307724283
 30
0.0
 10
77.39969721551469
 20
154.6396405797095
 30
0.0
 10
76.80307852040549
 20
154.7069542645212
 30
0.0
 10
76.48768723094743
 20
154.7449188157892
 30
0.0
 10
76.3776206621495
 20
154.7587178751211
 30
0.0
 10
76.35020127433529
 20
154.7622039490417
 30
0.0
 10
76.3432792235058
 20
154.7630831747351
 30
0.0
 10
76.34151098332237
 20
154.7633039493414
 30
0.0
 10
76.34105060414902
 20
154.7633591520521
 30
0.0
 10
76.34092644546419
 20
154.7633728918392
 30
0.0
 10
76.34089089097104
 20
154.7633762876702
 30
0.0
 10
76.34087974690094
 20
154.7633771159905
 30
0.0
 10
76.34087583370483
 20
154.7633773125793
 30
0.0
 10
76.34087429150001
 20
154.7633773565094
 30
0.0
 10
76.3408736244985
 20
154.7633773648161
 30
0.0
 10
76.34087331632075
 20
154.7633773656464
 30
0.0
 10
76.34087316955468
 20
154.7633773651012
 30
0.0
 10
76.34087309660224
 20
154.7633773647713
 30
0.0
 10
76.34087306220985
 20
154.763377364334
 30
0.0
 10
76.3408730399647
 20
154.7633773644226
 30
0.0
 10
76.34087301285527
 20
154.7633773615876
 30
0.0
 10
76.3408704932939
 20
154.7633776484427
 30
0.0
 10
76.34090658321196
 20
154.763373028342
 30
0.0
 10
76.3409383410346
 20
154.7633689628206
 30
0.0
  0
SPLINE
  5
A1
330
1F
100
AcDbEntity
  8
0
  6
Continuous
 62
     7
370
    15
100
AcDbSpline
210
0.0
220
0.0
230
1.0
 70
     8
 71
     3
 72
    20
 73
    16
 74
     0
 42
0.00000001
 43
0.00000001
 40
0.0
 40
0.0
 40
0.0
 40
0.0
 40
0.249999999999986
 40
0.249999999999986
 40
0.3749999999999789
 40
0.3749999999999789
 40
0.4374999999999789
 40
0.4374999999999789
 40
0.4999999999999789
 40
0.4999999999999789
 40
0.6249999999999835
 40
0.6249999999999835
 40
0.7499999999999879
 40
0.7499999999999879
 40
1.0
 40
1.0
 40
1.0
 40
1.0
 10
48.21243090710338
 20
87.15358178705435
 30
0.0
 10
48.23870312431679
 20
87.1728997281368
 30
0.0
 10
48.26938326657162
 20
87.18728843923857
 30
0.0
 10
48.34085413695355
 20
87.18038407740255
 30
0.0
 10
48.36888117399788
 20
87.17321807405415
 30
0.0
 10
48.42396476349539
 20
87.14351904735055
 30
0.0
 10
48.44485609204782
 20
87.13004540478921
 30
0.0
 10
48.49006473949327
 20
87.09484713927321
 30
0.0
 10
48.51446895188885
 20
87.07293891054594
 30
0.0
 10
48.5858012699403
 20
87.0008140505504
 30
0.0
 10
48.62769805476056
 20
86.94847350960035
 30
0.0
 10
48.69927401361644
 20
86.85099011769961
 30
0.0
 10
48.73010200343375
 20
86.80423634782119
 30
0.0
 10
48.81320193626932
 20
86.67094313198207
 30
0.0
 10
48.85805684163962
 20
86.58830573406685
 30
0.0
 10
48.8981689170922
 20
86.50919883927608
 30
0.0
  0
SPLINE
  5
A2
330
1F
100
AcDbEntity
  8
0
  6
Continuous
 62
     7
370
    15
100
AcDbSpline
210
0.0
220
0.0
230
1.0
 70
     8
 71
     3
 72
    14
 73
    10
 74
     0
 42
0.00000001
 43
0.00000001
 40
0.0
 40
0.0
 40
0.0
 40
0.0
 40
0.2499999999999994
 40
0.2499999999999994
 40
0.4999999999999988
 40
0.4999999999999988
 40
0.7499999999999982
 40
0.7499999999999982
 40
1.0
 40
1.0
 40
1.0
 40
1.0
 10
47.92161667538738
 20
87.32939519718711
 30
0.0
 10
47.92161667538737
 20
87.28814826616276
 30
0.0
 10
47.93022639176862
 20
87.25124129388028
 30
0.0
 10
47.96131257133898
 20
87.19034123398087
 30
0.0
 10
47.98370212482303
 20
87.16616031444119
 30
0.0
 10
48.03844605599913
 20
87.13219272355792
 30
0.0
 10
48.07089629558433
 20
87.12227263958974
 30
0.0
 10
48.14089781031242
 20
87.12092143068489
 30
0.0
 10
48.17910831043493
 20
87.12907970738104
 30
0.0
 10
48.21243090710803
 20
87.15358178704915
 30
0.0
  0
LINE
  5
A3
330
1F
100
AcDbEntity
  8
0
  6
Continuous
 62
     7
370
    15
100
AcDbLine
 10
47.9216166754
 20
87.3293951972
 30
0.0
 11
47.9216166754
 21
148.3347346823
 31
0.0
  0
SPLINE
  5
A4
330
1F
100
AcDbEntity
  8
0
  6
Continuous
 62
     7
370
    15
100
AcDbSpline
210
0.0
220
0.0
230
1.0
 70
     8
 71
     3
 72
    10
 73
     6
 74
     0
 42
0.00000001
 43
0.00000001
 40
0.0
 40
0.0
 40
0.0
 40
0.0
 40
0.0592402688376383
 40
0.6438088530391344
 40
1.0
 40
1.0
 40
1.0
 40
1.0
 10
48.21243090710801
 20
148.5105480924609
 30
0.0
 10
48.20759864948682
 20
148.5137969990926
 30
0.0
 10
48.15508284735208
 20
148.5491053272482
 30
0.0
 10
48.0561326496733
 20
148.5553596238068
 30
0.0
 10
48.00670412478195
 20
148.5001593861179
 30
0.0
 10
47.98798946003765
 20
148.4792594311946
 30
0.0
  0
SPLINE
  5
A5
330
1F
100
AcDbEntity
  8
0
  6
Continuous
 62
     7
370
    15
100
AcDbSpline
210
0.0
220
0.0
230
1.0
 70
     8
 71
     3
 72
     8
 73
     4
 74
     0
 42
0.00000001
 43
0.00000001
 40
0.0
 40
0.0
 40
0.0
 40
0.0
 40
1.0
 40
1.0
 40
1.0
 40
1.0
 10
47.94525034432358
 20
148.4423141833926
 30
0.0
 10
47.92990130568754
 20
148.4118041283967
 30
0.0
 10
47.92161667538738
 20
148.3754925728844
 30
0.0
 10
47.92161667538738
 20
148.3347346823229
 30
0.0
  0
SPLINE
  5
A6
330
1F
100
AcDbEntity
  8
0
  6
Continuous
 62
     7
370
    15
100
AcDbSpline
210
0.0
220
0.0
230
1.0
 70
     8
 71
     3
 72
    20
 73
    16
 74
     0
 42
0.00000001
 43
0.00000001
 40
0.0
 40
0.0
 40
0.0
 40
0.0
 40
0.2500000000000037
 40
0.2500000000000037
 40
0.3750000000000055
 40
0.3750000000000055
 40
0.5000000000000073
 40
0.5000000000000073
 40
0.5625000000000057
 40
0.5625000000000057
 40
0.625000000000004
 40
0.625000000000004
 40
0.7500000000000027
 40
0.7500000000000027
 40
1.0
 40
1.0
 40
1.0
 40
1.0
 10
48.89816891708978
 20
149.1549310402332
 30
0.0
 10
48.85817269926596
 20
149.0760526336758
 30
0.0
 10
48.8130590714283
 20
148.9929229869842
 30
0.0
 10
48.72980485706177
 20
148.8594343226333
 30
0.0
 10
48.69958552844128
 20
148.8135692667513
 30
0.0
 10
48.62749729329985
 20
148.7153777143465
 30
0.0
 10
48.58557997588878
 20
148.6630678948228
 30
0.0
 10
48.5143293713373
 20
148.5910619920884
 30
0.0
 10
48.49009355895799
 20
148.5692917797868
 30
0.0
 10
48.44449536877335
 20
148.5338171214578
 30
0.0
 10
48.42369287917363
 20
148.5204469372802
 30
0.0
 10
48.36875188075452
 20
148.490877025145
 30
0.0
 10
48.34068289266769
 20
148.483750502843
 30
0.0
 10
48.27018006260487
 20
148.4768761313603
 30
0.0
 10
48.23875597481399
 20
148.4911912904475
 30
0.0
 10
48.21243090710539
 20
148.5105480924581
 30
0.0
  0
SPLINE
  5
A7
330
1F
100
AcDbEntity
  8
0
  6
Continuous
 62
     7
370
    15
100
AcDbSpline
210
0.0
220
0.0
230
1.0
 70
     8
 71
     3
 72
    10
 73
     6
 74
     0
 42
0.00000001
 43
0.00000001
 40
0.0
 40
0.0
 40
0.0
 40
0.0
 40
0.4999999999999989
 40
0.4999999999999989
 40
1.0
 40
1.0
 40
1.0
 40
1.0
 10
49.57161667538737
 20
150.080350141575
 30
0.0
 10
49.44672840463718
 20
149.9493538635035
 30
0.0
 10
49.32527828657673
 20
149.8056410268386
 30
0.0
 10
49.09569431161931
 20
149.4950707341493
 30
0.0
 10
48.98541933622333
 20
149.3270016610863
 30
0.0
 10
48.8981689170898
 20
149.1549310402332
 30
0.0
  0
SPLINE
  5
A8
330
1F
100
AcDbEntity
  8
0
  6
Continuous
 62
     7
370
    15
100
AcDbSpline
210
0.0
220
0.0
230
1.0
 70
     8
 71
     3
 72
     8
 73
     4
 74
     0
 42
0.00000001
 43
0.00000001
 40
0.0
 40
0.0
 40
0.0
 40
0.0
 40
1.0
 40
1.0
 40
1.0
 40
1.0
 10
49.82154179135315
 20
150.0778971083196
 30
0.0
 10
49.73452376150478
 20
150.0783636731067
 30
0.0
 10
49.65156973512483
 20
150.0794036926829
 30
0.0
 10
49.57161667538507
 20
150.0803501415751
 30
0.0
  0
SPLINE
  5
A9
330
1F
100
AcDbEntity
  8
0
  6
Continuous
 62
     7
370
    15
100
AcDbSpline
210
0.0
220
0.0
230
1.0
 70
     8
 71
     3
 72
     8
 73
     4
 74
     0
 42
0.00000001
 43
0.00000001
 40
0.0
 40
0.0
 40
0.0
 40
0.0
 40
1.0
 40
1.0
 40
1.0
 40
1.0
 10
49.57161667538507
 20
85.58377973793496
 30
0.0
 10
49.65156973512483
 20
85.58472618682723
 30
0.0
 10
49.73452376150478
 20
85.58576620640335
 30
0.0
 10
49.82154179135316
 20
85.58623277119042
 30
0.0
  0
SPLINE
  5
AA
330
1F
100
AcDbEntity
  8
0
  6
Continuous
 62
     7
370
    15
100
AcDbSpline
210
0.0
220
0.0
230
1.0
 70
     8
 71
     3
 72
    10
 73
     6
 74
     0
 42
0.00000001
 43
0.00000001
 40
0.0
 40
0.0
 40
0.0
 40
0.0
 40
0.4999999999999989
 40
0.4999999999999989
 40
1.0
 40
1.0
 40
1.0
 40
1.0
 10
48.89816891708887
 20
86.50919883927864
 30
0.0
 10
48.98541933622236
 20
86.33712821842526
 30
0.0
 10
49.0956943116185
 20
86.16905914536183
 30
0.0
 10
49.32527828657635
 20
85.85848885267202
 30
0.0
 10
49.44672840463699
 20
85.71477601600674
 30
0.0
 10
49.57161667538737
 20
85.58377973793505
 30
0.0
  0
SPLINE
  5
AB
330
1F
100
AcDbEntity
  8
0
  6
Continuous
 62
     7
370
    15
100
AcDbSpline
210
0.0
220
0.0
230
1.0
 70
     8
 71
     3
 72
     8
 73
     4
 74
     0
 42
0.00000001
 43
0.00000001
 40
0.0
 40
0.0
 40
0.0
 40
0.0
 40
1.0
 40
1.0
 40
1.0
 40
1.0
 10
121.0836456963087
 20
166.8218597954186
 30
0.0
 10
120.6326187275955
 20
166.0245492252307
 30
0.0
 10
120.1819249110719
 20
165.2270509255735
 30
0.0
 10
119.7316166753874
 20
164.4293358004599
 30
0.0
  0
LINE
  5
AC
330
1F
100
AcDbEntity
  8
0
  6
Continuous
 62
     7
370
    15
100
AcDbLine
 10
121.0836456963
 20
156.7830277006
 30
0.0
 11
121.0836456963
 21
166.8218597954
 31
0.0
  0
SPLINE
  5
AD
330
1F
100
AcDbEntity
  8
0
  6
Continuous
 62
     7
370
    15
100
AcDbSpline
210
0.0
220
0.0
230
1.0
 70
     8
 71
     3
 72
     8
 73
     4
 74
     0
 42
0.00000001
 43
0.00000001
 40
0.0
 40
0.0
 40
0.0
 40
0.0
 40
1.0
 40
1.0
 40
1.0
 40
1.0
 10
119.7316166753874
 20
153.7275124458929
 30
0.0
 10
120.1757666864129
 20
154.7488956768445
 30
0.0
 10
120.6268409966708
 20
155.7673802136129
 30
0.0
 10
121.0836456963088
 20
156.783027700642
 30
0.0
  0
LINE
  5
AE
330
1F
100
AcDbEntity
  8
0
  6
Continuous
 62
     7
370
    15
100
AcDbLine
 10
119.7316166754
 20
153.7275124459
 30
0.0
 11
119.7316166754
 21
164.4293358005
 31
0.0
  0
SPLINE
  5
AF
330
1F
100
AcDbEntity
  8
0
  6
Continuous
 62
     7
370
    15
100
AcDbSpline
210
0.0
220
0.0
230
1.0
 70
     8
 71
     3
 72
    12
 73
     8
 74
     0
 42
0.00000001
 43
0.00000001
 40
0.0
 40
0.0
 40
0.0
 40
0.0
 40
0.5
 40
0.5
 40
0.75
 40
0.75
 40
1.0
 40
1.0
 40
1.0
 40
1.0
 10
126.7716166753874
 20
165.8008047606009
 30
0.0
 10
126.7716166753874
 20
166.0660741933673
 30
0.0
 10
126.6670099319009
 20
166.3285892990197
 30
0.0
 10
126.3903415801556
 20
166.6141269050569
 30
0.0
 10
126.2799763208036
 20
166.6904485219184
 30
0.0
 10
126.0359042721879
 20
166.7947906867585
 30
0.0
 10
125.9041518108561
 20
166.8218597954186
 30
0.0
 10
125.7716166753874
 20
166.8218597954186
 30
0.0
  0
SPLINE
  5
B0
330
1F
100
AcDbEntity
  8
0
  6
Continuous
 62
     7
370
    15
100
AcDbSpline
210
0.0
220
0.0
230
1.0
 70
     8
 71
     3
 72
    16
 73
    12
 74
     0
 42
0.00000001
 43
0.00000001
 40
0.0
 40
0.0
 40
0.0
 40
0.0
 40
0.125
 40
0.125
 40
0.25
 40
0.25
 40
0.5
 40
0.5
 40
0.75
 40
0.75
 40
1.0
 40
1.0
 40
1.0
 40
1.0
 10
125.7716166753864
 20
156.783027700642
 30
0.0
 10
125.8472543817976
 20
156.7830277006421
 30
0.0
 10
125.9235700462159
 20
156.7716827005072
 30
0.0
 10
126.067980784108
 20
156.7290301498688
 30
0.0
 10
126.1364272332164
 20
156.698095825186
 30
0.0
 10
126.3313584858298
 20
156.5788394534185
 30
0.0
 10
126.4391996596108
 20
156.4686874397979
 30
0.0
 10
126.607912407823
 20
156.2205513541398
 30
0.0
 10
126.6702768205466
 20
156.080209030136
 30
0.0
 10
126.7515807450551
 20
155.7919373386473
 30
0.0
 10
126.7716166753874
 20
155.6411323656674
 30
0.0
 10
126.7716166753874
 20
155.490762474322
 30
0.0
  0
LINE
  5
B1
330
1F
100
AcDbEntity
  8
0
  6
Continuous
 62
     7
370
    15
100
AcDbLine
 10
126.7716166754
 20
155.4907624743
 30
0.0
 11
126.7716166754
 21
165.8008047606
 31
0.0
  0
SPLINE
  5
B2
330
1F
100
AcDbEntity
  8
0
  6
Continuous
 62
     7
370
    15
100
AcDbSpline
210
0.0
220
0.0
230
1.0
 70
     8
 71
     3
 72
     8
 73
     4
 74
     0
 42
0.00000001
 43
0.00000001
 40
0.0
 40
0.0
 40
0.0
 40
0.0
 40
1.0
 40
1.0
 40
1.0
 40
1.0
 10
115.9116166753874
 20
164.4293358004599
 30
0.0
 10
115.4613084397028
 20
165.2270509255736
 30
0.0
 10
115.0106146231792
 20
166.0245492252307
 30
0.0
 10
114.559587654466
 20
166.8218597954186
 30
0.0
  0
LINE
  5
B3
330
1F
100
AcDbEntity
  8
0
  6
Continuous
 62
     7
370
    15
100
AcDbLine
 10
115.9116166754
 20
153.7275124459
 30
0.0
 11
115.9116166754
 21
164.4293358005
 31
0.0
  0
SPLINE
  5
B4
330
1F
100
AcDbEntity
  8
0
  6
Continuous
 62
     7
370
    15
100
AcDbSpline
210
0.0
220
0.0
230
1.0
 70
     8
 71
     3
 72
     8
 73
     4
 74
     0
 42
0.00000001
 43
0.00000001
 40
0.0
 40
0.0
 40
0.0
 40
0.0
 40
1.0
 40
1.0
 40
1.0
 40
1.0
 10
114.559587654466
 20
156.783027700642
 30
0.0
 10
115.0165140082655
 20
155.7671097309677
 30
0.0
 10
115.4677196500685
 20
154.7483139018765
 30
0.0
 10
115.9116166753874
 20
153.7275124458929
 30
0.0
  0
LINE
  5
B5
330
1F
100
AcDbEntity
  8
0
  6
Continuous
 62
     7
370
    15
100
AcDbLine
 10
115.9116166754
 20
153.7275124459
 30
0.0
 11
115.9116166754
 21
152.5463001323
 31
0.0
  0
SPLINE
  5
B6
330
1F
100
AcDbEntity
  8
0
  6
Continuous
 62
     7
370
    15
100
AcDbSpline
210
0.0
220
0.0
230
1.0
 70
     8
 71
     3
 72
    14
 73
    10
 74
     0
 42
0.00000001
 43
0.00000001
 40
0.0
 40
0.0
 40
0.0
 40
0.0
 40
0.25
 40
0.25
 40
0.5
 40
0.5
 40
0.75
 40
0.75
 40
1.0
 40
1.0
 40
1.0
 40
1.0
 10
115.9116166753874
 20
152.5463001322521
 30
0.0
 10
115.9116166753874
 20
152.4224332554629
 30
0.0
 10
115.927475803015
 20
152.2981735786254
 30
0.0
 10
115.9908374485349
 20
152.0605652162195
 30
0.0
 10
116.0394271565842
 20
151.943784831467
 30
0.0
 10
116.1717127613591
 20
151.734982302858
 30
0.0
 10
116.2570375526197
 20
151.6404715992654
 30
0.0
 10
116.4639288009258
 20
151.5025147984631
 30
0.0
 10
116.5878967468158
 20
151.4605963528275
 30
0.0
 10
116.7116166753874
 20
151.4605963528275
 30
0.0
  0
LINE
  5
B7
330
1F
100
AcDbEntity
  8
0
  6
Continuous
 62
     7
370
    15
100
AcDbLine
 10
116.7116166754
 20
151.4605963528
 30
0.0
 11
118.9316166754
 21
151.4605963528
 31
0.0
  0
SPLINE
  5
B8
330
1F
100
AcDbEntity
  8
0
  6
Continuous
 62
     7
370
    15
100
AcDbSpline
210
0.0
220
0.0
230
1.0
 70
     8
 71
     3
 72
    12
 73
     8
 74
     0
 42
0.00000001
 43
0.00000001
 40
0.0
 40
0.0
 40
0.0
 40
0.0
 40
0.250000000000002
 40
0.250000000000002
 40
0.500000000000004
 40
0.500000000000004
 40
1.0
 40
1.0
 40
1.0
 40
1.0
 10
118.9316166753894
 20
151.4605963528275
 30
0.0
 10
119.0553176253693
 20
151.460596352828
 30
0.0
 10
119.1794142376391
 20
151.5025899645608
 30
0.0
 10
119.3860694007255
 20
151.6403852912054
 30
0.0
 10
119.4711101674522
 20
151.7343588896702
 30
0.0
 10
119.6705887359252
 20
152.049147095891
 30
0.0
 10
119.7316166753874
 20
152.2993860881182
 30
0.0
 10
119.7316166753874
 20
152.5463001322521
 30
0.0
  0
LINE
  5
B9
330
1F
100
AcDbEntity
  8
0
  6
Continuous
 62
     7
370
    15
100
AcDbLine
 10
119.7316166754
 20
152.5463001323
 30
0.0
 11
119.7316166754
 21
153.7275124459
 31
0.0
  0
LINE
  5
BA
330
1F
100
AcDbEntity
  8
0
  6
Continuous
 62
     7
370
    15
100
AcDbLine
 10
121.0836456963
 20
156.7830277006
 30
0.0
 11
125.7716166754
 21
156.7830277006
 31
0.0
  0
LINE
  5
BB
330
1F
100
AcDbEntity
  8
0
  6
Continuous
 62
     7
370
    15
100
AcDbLine
 10
126.7716166754
 20
155.4907624743
 30
0.0
 11
126.7716166754
 21
149.1820649398
 31
0.0
  0
LINE
  5
BC
330
1F
100
AcDbEntity
  8
0
  6
Continuous
 62
     7
370
    15
100
AcDbLine
 10
125.7716166754
 20
166.8218597954
 30
0.0
 11
121.0836456963
 21
166.8218597954
 31
0.0
  0
SPLINE
  5
BD
330
1F
100
AcDbEntity
  8
0
  6
Continuous
 62
     7
370
    15
100
AcDbSpline
210
0.0
220
0.0
230
1.0
 70
     8
 71
     3
 72
    14
 73
    10
 74
     0
 42
0.00000001
 43
0.00000001
 40
0.0
 40
0.0
 40
0.0
 40
0.0
 40
0.25
 40
0.25
 40
0.5
 40
0.5
 40
0.75
 40
0.75
 40
1.0
 40
1.0
 40
1.0
 40
1.0
 10
119.7316166753874
 20
163.525616180603
 30
0.0
 10
119.7316166753874
 20
163.4192594868506
 30
0.0
 10
119.7112291192461
 20
163.3134189990905
 30
0.0
 10
119.6325947737846
 20
163.1168540855541
 30
0.0
 10
119.5738634141459
 20
163.0256833432669
 30
0.0
 10
119.4272545085433
 20
162.8737722542353
 30
0.0
 10
119.3378491885167
 20
162.8117034174157
 30
0.0
 10
119.1439584559163
 20
162.728435369657
 30
0.0
 10
119.0374534660264
 20
162.7063406999274
 30
0.0
 10
118.9316166753871
 20
162.7063406999275
 30
0.0
  0
SPLINE
  5
BE
330
1F
100
AcDbEntity
  8
0
  6
Continuous
 62
     7
370
    15
100
AcDbSpline
210
0.0
220
0.0
230
1.0
 70
     8
 71
     3
 72
    10
 73
     6
 74
     0
 42
0.00000001
 43
0.00000001
 40
0.0
 40
0.0
 40
0.0
 40
0.0
 40
0.5
 40
0.5
 40
1.0
 40
1.0
 40
1.0
 40
1.0
 10
116.7116166753874
 20
162.7063406999275
 30
0.0
 10
116.499080361531
 20
162.7063406999275
 30
0.0
 10
116.289144189877
 20
162.7977532865577
 30
0.0
 10
115.9954370488658
 20
163.1024981524619
 30
0.0
 10
115.9116166753874
 20
163.3146531223705
 30
0.0
 10
115.9116166753874
 20
163.525616180603
 30
0.0
  0
LINE
  5
BF
330
1F
100
AcDbEntity
  8
0
  6
Continuous
 62
     7
370
    15
100
AcDbLine
 10
118.9316166754
 20
162.7063406999
 30
0.0
 11
116.7116166754
 21
162.7063406999
 31
0.0
  0
ARC
  5
C0
330
1F
100
AcDbEntity
  8
0
  6
Continuous
 62
     7
370
    15
100
AcDbCircle
 10
106.8216833215
 20
150.3976354407
 30
0.0
 40
11.45027678818725
100
AcDbArc
 50
77.9103159805
 51
102.108234864
  0
LINE
  5
C1
330
1F
100
AcDbEntity
  8
0
  6
Continuous
 62
     7
370
    15
100
AcDbLine
 10
49.5716166754
 20
85.5820649398
 30
0.0
 11
49.5716166754
 21
85.5837797379
 31
0.0
  0
LINE
  5
C2
330
1F
100
AcDbEntity
  8
0
  6
Continuous
 62
     7
370
    15
100
AcDbLine
 10
49.5716166754
 20
150.0820649398
 30
0.0
 11
49.5716166754
 21
150.0803501416
 31
0.0
  0
SPLINE
  5
C3
330
1F
100
AcDbEntity
  8
0
  6
Continuous
 62
     7
370
    15
100
AcDbSpline
210
0.0
220
0.0
230
1.0
 70
     8
 71
     3
 72
    39
 73
    35
 74
     0
 42
0.00000001
 43
0.00000001
 40
-0.0930101214673391
 40
-0.0618280028303742
 40
-0.0306436199915393
 40
0.0
 40
0.0306596107124981
 40
0.0618452964000478
 40
0.0930163102290566
 40
0.1240785945074863
 40
0.1552163478474721
 40
0.1868112107939513
 40
0.2185267826087683
 40
0.2499192584028094
 40
0.2813177417200464
 40
0.3130921101016688
 40
0.3447271324217635
 40
0.3759220232797273
 40
0.406977973082533
 40
0.4381192479310186
 40
0.4692677792213718
 40
0.5000093392007132
 40
0.5307192062566432
 40
0.5619180231307174
 40
0.5930486394292048
 40
0.6241331762561596
 40
0.6552964593294166
 40
0.6869387764013523
 40
0.718665975160772
 40
0.7500826423953617
 40
0.7814523712134253
 40
0.8132065805150448
 40
0.8447916839909926
 40
0.8759584677018738
 40
0.9069898785326609
 40
0.9381719971696258
 40
0.9693563800084607
 40
1.0
 40
1.030659610712498
 40
1.061845296400048
 40
1.093016310229057
 10
240.894232829034
 20
114.8871405137575
 30
0.0
 10
240.3215111772867
 20
114.82908986986
 30
0.0
 10
239.7488205654229
 20
114.8873243037485
 30
0.0
 10
239.1983366648382
 20
115.0623595904748
 30
0.0
 10
238.6892689493253
 20
115.3378992641165
 30
0.0
 10
238.2469883494482
 20
115.7098844530819
 30
0.0
 10
237.8838217557477
 20
116.1627332657369
 30
0.0
 10
237.6155065713748
 20
116.6827246854479
 30
0.0
 10
237.4452399151594
 20
117.2454818174673
 30
0.0
 10
237.3889876986061
 20
117.8306071529949
 30
0.0
 10
237.4454112437582
 20
118.4160596969331
 30
0.0
 10
237.6155112437187
 20
118.979524907402
 30
0.0
 10
237.8837158678541
 20
119.500664957849
 30
0.0
 10
238.2469447991746
 20
119.9542009657241
 30
0.0
 10
238.689006692521
 20
120.3266130714297
 30
0.0
 10
239.1974819264996
 20
120.6023439376099
 30
0.0
 10
239.7481839838118
 20
120.7771353630675
 30
0.0
 10
240.321591474408
 20
120.8349626730177
 30
0.0
 10
240.8953057203603
 20
120.7770800916073
 30
0.0
 10
241.4460071855767
 20
120.602096645973
 30
0.0
 10
241.9548392260945
 20
120.3261650193018
 30
0.0
 10
242.3967706095046
 20
119.9537036043912
 30
0.0
 10
242.7599189745694
 20
119.5000871261509
 30
0.0
 10
243.0278914072512
 20
118.9793131183546
 30
0.0
 10
243.1978382364649
 20
118.4159530032783
 30
0.0
 10
243.2542389139319
 20
117.8308207037103
 30
0.0
 10
243.1980065053048
 20
117.2454847964324
 30
0.0
 10
243.0276813292247
 20
116.6826964971488
 30
0.0
 10
242.7592206949838
 20
116.1623840146229
 30
0.0
 10
242.3960113111986
 20
115.7096452378594
 30
0.0
 10
241.9536249928014
 20
115.3377046317559
 30
0.0
 10
241.4446334435995
 20
115.0623160668261
 30
0.0
 10
240.894232829034
 20
114.8871405137575
 30
0.0
 10
240.3215111772867
 20
114.82908986986
 30
0.0
 10
239.7488205654229
 20
114.8873243037485
 30
0.0
  0
LINE
  5
C4
330
1F
100
AcDbEntity
  8
0
  6
Continuous
 62
     7
370
    15
100
AcDbLine
 10
243.8823216921
 20
102.8320649398
 30
0.0
 11
243.8823216921
 21
132.8320649398
 31
0.0
  0
SPLINE
  5
C5
330
1F
100
AcDbEntity
  8
0
  6
Continuous
 62
     7
370
    15
100
AcDbSpline
210
0.0
220
0.0
230
1.0
 70
     8
 71
     3
 72
    60
 73
    56
 74
     0
 42
0.00000001
 43
0.00000001
 40
-0.0312499999999999
 40
-0.0312499999999999
 40
0.0
 40
0.0
 40
0.0624999999999978
 40
0.0624999999999978
 40
0.0937499999999976
 40
0.0937499999999976
 40
0.1249999999999974
 40
0.1249999999999974
 40
0.1874999999999971
 40
0.1874999999999971
 40
0.2499999999999968
 40
0.2499999999999968
 40
0.2812499999999967
 40
0.2812499999999967
 40
0.3124999999999964
 40
0.3124999999999964
 40
0.3437499999999963
 40
0.3437499999999963
 40
0.3749999999999961
 40
0.3749999999999961
 40
0.4062499999999959
 40
0.4062499999999959
 40
0.4374999999999958
 40
0.4374999999999958
 40
0.4687499999999957
 40
0.4687499999999957
 40
0.4999999999999956
 40
0.4999999999999956
 40
0.562499999999997
 40
0.562499999999997
 40
0.5937499999999977
 40
0.5937499999999977
 40
0.6249999999999982
 40
0.6249999999999982
 40
0.6562499999999989
 40
0.6562499999999989
 40
0.6874999999999996
 40
0.6874999999999996
 40
0.750000000000001
 40
0.750000000000001
 40
0.7812500000000009
 40
0.7812500000000009
 40
0.8125000000000008
 40
0.8125000000000008
 40
0.8437500000000007
 40
0.8437500000000007
 40
0.8750000000000004
 40
0.8750000000000004
 40
0.9062500000000003
 40
0.9062500000000003
 40
0.9375000000000002
 40
0.9375000000000002
 40
0.9687500000000001
 40
0.9687500000000001
 40
1.0
 40
1.0
 40
1.062499999999998
 40
1.062499999999998
 10
164.2754835300123
 20
119.9207387274111
 30
0.0
 10
164.7846126540494
 20
120.3090155209047
 30
0.0
 10
165.161830809579
 20
120.4998634633742
 30
0.0
 10
165.77191587929
 20
120.6931486833856
 30
0.0
 10
165.9782171788567
 20
120.7402610769423
 30
0.0
 10
166.3964130974556
 20
120.8017196272643
 30
0.0
 10
166.6095209211731
 20
120.8160262183204
 30
0.0
 10
167.2494367146452
 20
120.8078918858413
 30
0.0
 10
167.6665602149883
 20
120.7365519184616
 30
0.0
 10
168.4731874745807
 20
120.4578530690189
 30
0.0
 10
168.8427564790988
 20
120.2583854243513
 30
0.0
 10
169.340306927246
 20
119.8560344484118
 30
0.0
 10
169.4915662015053
 20
119.7080278102098
 30
0.0
 10
169.76145511257
 20
119.3839108076068
 30
0.0
 10
169.8816492694024
 20
119.2048362279934
 30
0.0
 10
170.0756521346676
 20
118.8286299181641
 30
0.0
 10
170.1502062938625
 20
118.6318730196703
 30
0.0
 10
170.2503298731736
 20
118.2193871265087
 30
0.0
 10
170.2746726738737
 20
118.0038967865197
 30
0.0
 10
170.2679272932354
 20
117.5807669161752
 30
0.0
 10
170.2369094856802
 20
117.3667549939891
 30
0.0
 10
170.1236746541275
 20
116.956104957694
 30
0.0
 10
170.0426267203564
 20
116.7601056974152
 30
0.0
 10
169.8348321846904
 20
116.3854633057055
 30
0.0
 10
169.7114351520341
 20
116.2128890493856
 30
0.0
 10
169.4312162954942
 20
115.89452796613
 30
0.0
 10
169.2733550856005
 20
115.7484062965241
 30
0.0
 10
168.7696892554258
 20
115.3621227561751
 30
0.0
 10
168.3838442952005
 20
115.1657582324921
 30
0.0
 10
167.7790269930322
 20
114.9730724814737
 30
0.0
 10
167.5705409008541
 20
114.9248697278249
 30
0.0
 10
167.148167879573
 20
114.8624223463694
 30
0.0
 10
166.936792009796
 20
114.8483208729774
 30
0.0
 10
166.5136738553091
 20
114.8531924333537
 30
0.0
 10
166.3007294927339
 20
114.8723813442586
 30
0.0
 10
165.879827653715
 20
114.9448624428625
 30
0.0
 10
165.674965977024
 20
114.9974089206402
 30
0.0
 10
165.0769317486333
 20
115.20362230798
 30
0.0
 10
164.6951332644776
 20
115.4100284245758
 30
0.0
 10
164.2053257082395
 20
115.8061738380484
 30
0.0
 10
164.0541763297892
 20
115.9531569940335
 30
0.0
 10
163.7800708785981
 20
116.2822014178599
 30
0.0
 10
163.6621804786189
 20
116.4582726563123
 30
0.0
 10
163.4677291453066
 20
116.8350780921675
 30
0.0
 10
163.39106451058
 20
117.0383055941788
 30
0.0
 10
163.2920972676977
 20
117.4501581494488
 30
0.0
 10
163.2681712559567
 20
117.661378316969
 30
0.0
 10
163.2758568281366
 20
118.0917653492648
 30
0.0
 10
163.3071661660575
 20
118.3018512687171
 30
0.0
 10
163.4211884619394
 20
118.7124823057888
 30
0.0
 10
163.5045073393422
 20
118.9121300505167
 30
0.0
 10
163.7113217518685
 20
119.2828230576674
 30
0.0
 10
163.8370582496723
 20
119.4581420544422
 30
0.0
 10
164.1188942694996
 20
119.7764492283641
 30
0.0
 10
164.2754835300123
 20
119.9207387274111
 30
0.0
 10
164.7846126540494
 20
120.3090155209047
 30
0.0
  0
LINE
  5
C6
330
1F
100
AcDbEntity
  8
0
  6
Continuous
 62
     7
370
    15
100
AcDbLine
 10
164.4451932371
 20
102.9969702278
 30
0.0
 11
164.3726774423
 21
102.9883556734
 31
0.0
  0
SPLINE
  5
C7
330
1F
100
AcDbEntity
  8
0
  6
Continuous
 62
     7
370
    15
100
AcDbSpline
210
0.0
220
0.0
230
1.0
 70
     8
 71
     3
 72
    35
 73
    31
 74
     0
 42
0.00000001
 43
0.00000001
 40
0.0
 40
0.0
 40
0.0
 40
0.0
 40
0.0286657280790386
 40
0.0690428121816402
 40
0.11051887234791
 40
0.1524693910846555
 40
0.1953730232788581
 40
0.2430427327099058
 40
0.2917486054164711
 40
0.3469924872218192
 40
0.4035309943800372
 40
0.4341835838034135
 40
0.4650336056266383
 40
0.4964991054057422
 40
0.5281751041149519
 40
0.5601182369479696
 40
0.5922836342978441
 40
0.6251611111771608
 40
0.6582908642097187
 40
0.689831098505274
 40
0.7216136658882646
 40
0.7542134739336464
 40
0.78712302156925
 40
0.8349444375997604
 40
0.8840607387911295
 40
0.9079244153701422
 40
0.9319900449087118
 40
0.9567375383651742
 40
0.9817390371446599
 40
1.0
 40
1.0
 40
1.0
 40
1.0
 10
163.2814110258046
 20
102.8336898289712
 30
0.0
 10
163.2808178039432
 20
102.8335932575934
 30
0.0
 10
163.2793889999913
 20
102.8333606606929
 30
0.0
 10
163.3621740062997
 20
102.8470362927756
 30
0.0
 10
163.5088187536633
 20
102.8705124698383
 30
0.0
 10
163.7218481481241
 20
102.9029670299157
 30
0.0
 10
163.9993400838234
 20
102.9422723099049
 30
0.0
 10
164.3425017040973
 20
102.9861236965378
 30
0.0
 10
164.763206632353
 20
103.032482931972
 30
0.0
 10
165.250431113346
 20
103.0757289056268
 30
0.0
 10
165.7113306627869
 20
103.1047577685543
 30
0.0
 10
166.1042024125344
 20
103.1209760336029
 30
0.0
 10
166.4179692822939
 20
103.1290723700069
 30
0.0
 10
166.7374972808029
 20
103.1322207677854
 30
0.0
 10
167.0609784932578
 20
103.130150707083
 30
0.0
 10
167.384886266569
 20
103.1227931898752
 30
0.0
 10
167.7085977265843
 20
103.1101915835828
 30
0.0
 10
168.029531989323
 20
103.0925441533694
 30
0.0
 10
168.3391334990602
 20
103.0706511034902
 30
0.0
 10
168.6337097784937
 20
103.0454982285635
 30
0.0
 10
168.9129580101187
 20
103.0178609481513
 30
0.0
 10
169.179299403987
 20
102.9880685415174
 30
0.0
 10
169.4657881063438
 20
102.9525832037316
 30
0.0
 10
169.7549961465297
 20
102.9128199300794
 30
0.0
 10
169.969894824747
 20
102.8804536231608
 30
0.0
 10
170.1023581099143
 20
102.8596389495188
 30
0.0
 10
170.1810667396607
 20
102.8469692002084
 30
0.0
 10
170.2357544720266
 20
102.8380121675717
 30
0.0
 10
170.2704262783216
 20
102.8322639618663
 30
0.0
 10
170.2649018561156
 20
102.8331798318542
 30
0.0
 10
170.262570013107
 20
102.8335664179891
 30
0.0
  0
SPLINE
  5
C8
330
1F
100
AcDbEntity
  8
0
  6
Continuous
 62
     7
370
    15
100
AcDbSpline
210
0.0
220
0.0
230
1.0
 70
     8
 71
     3
 72
     9
 73
     5
 74
     0
 42
0.00000001
 43
0.00000001
 40
0.0
 40
0.0
 40
0.0
 40
0.0
 40
0.1952346606279715
 40
1.0
 40
1.0
 40
1.0
 40
1.0
 10
164.715255505425
 20
103.0257510106345
 30
0.0
 10
164.6967976391445
 20
103.0239797716681
 30
0.0
 10
164.602255685266
 20
103.0149074124844
 30
0.0
 10
164.5152291645486
 20
103.0049686219304
 30
0.0
 10
164.4451932370691
 20
102.9969702277773
 30
0.0
  0
LINE
  5
C9
330
1F
100
AcDbEntity
  8
0
  6
Continuous
 62
     7
370
    15
100
AcDbLine
 10
164.4451932368
 20
132.6671596518
 30
0.0
 11
164.5560501095
 21
132.6551551528
 31
0.0
  0
SPLINE
  5
CA
330
1F
100
AcDbEntity
  8
0
  6
Continuous
 62
     7
370
    15
100
AcDbSpline
210
0.0
220
0.0
230
1.0
 70
     8
 71
     3
 72
    35
 73
    31
 74
     0
 42
0.00000001
 43
0.00000001
 40
0.0
 40
0.0
 40
0.0
 40
0.0
 40
0.0038275935762697
 40
0.0485622248311804
 40
0.0888407285858487
 40
0.1301567593870125
 40
0.1731721621675887
 40
0.2171430361001538
 40
0.2665576523095656
 40
0.3170553599851656
 40
0.3740361306738882
 40
0.4323925066998131
 40
0.4635233162469501
 40
0.4948589228209115
 40
0.5268369247579886
 40
0.5590362309741316
 40
0.5910354962244948
 40
0.6232613944756149
 40
0.6562201444015653
 40
0.6894418923007367
 40
0.7205810649042869
 40
0.7519681796999487
 40
0.7842039714964992
 40
0.8167670691235418
 40
0.8624355845692139
 40
0.9093472488526765
 40
0.9321356358214954
 40
0.9551119451110042
 40
0.9787112869772824
 40
1.0
 40
1.0
 40
1.0
 40
1.0
 10
170.2684707991203
 20
132.8315441430176
 30
0.0
 10
170.2695012933774
 20
132.8317147269981
 30
0.0
 10
170.2825755900086
 20
132.8338789948207
 30
0.0
 10
170.2329295007987
 20
132.8256161351207
 30
0.0
 10
170.1204267728459
 20
132.8072856943917
 30
0.0
 10
169.9396951166779
 20
132.7789358463331
 30
0.0
 10
169.6980284569409
 20
132.7432755785239
 30
0.0
 10
169.3873886182216
 20
132.7011982314397
 30
0.0
 10
169.0104900948593
 20
132.6560140107015
 30
0.0
 10
168.5545285725177
 20
132.6102292900582
 30
0.0
 10
168.0339514868874
 20
132.5701315462483
 30
0.0
 10
167.549481978597
 20
132.5462084187131
 30
0.0
 10
167.1420112330602
 20
132.5353606890904
 30
0.0
 10
166.820991339348
 20
132.5319359700483
 30
0.0
 10
166.4960073589832
 20
132.5337676800868
 30
0.0
 10
166.1706458841877
 20
132.5409580796606
 30
0.0
 10
165.8486144138982
 20
132.5533068230733
 30
0.0
 10
165.5305457019766
 20
132.5705518658141
 30
0.0
 10
165.2175858946647
 20
132.5923920460794
 30
0.0
 10
164.9198180014756
 20
132.617664007862
 30
0.0
 10
164.6407592007204
 20
132.6451980825544
 30
0.0
 10
164.3804790047321
 20
132.6741418272015
 30
0.0
 10
164.1356060510917
 20
132.7042488691857
 30
0.0
 10
163.8808645204935
 20
132.7383132985008
 30
0.0
 10
163.6340176970839
 20
132.7742239356635
 30
0.0
 10
163.4618954246034
 20
132.8011052286213
 30
0.0
 10
163.3629133293168
 20
132.8170424314694
 30
0.0
 10
163.3097728683692
 20
132.8257418763914
 30
0.0
 10
163.2769923508198
 20
132.8311704985619
 30
0.0
 10
163.2741103755424
 20
132.8316503198717
 30
0.0
 10
163.272743563263
 20
132.831877881039
 30
0.0
  0
CIRCLE
  5
CB
330
1F
100
AcDbEntity
  8
0
  6
Continuous
 62
     7
370
    15
100
AcDbCircle
 10
166.7716166754
 20
117.8320649398
 30
0.0
 40
2.5
  0
LINE
  5
CC
330
1F
100
AcDbEntity
  8
0
  6
Continuous
 62
     7
370
    15
100
AcDbLine
 10
257.8216166754
 20
110.6062054614
 30
0.0
 11
257.8216166754
 21
125.0579241802
 31
0.0
  0
CIRCLE
  5
CD
330
1F
100
AcDbEntity
  8
0
  6
HIDDEN
 62
     7
370
     0
100
AcDbCircle
 10
240.3216166754
 20
117.8320649398
 30
0.0
 40
2.999999999999989
  0
CIRCLE
  5
CE
330
1F
100
AcDbEntity
  8
0
  6
HIDDEN
 62
     7
370
     0
100
AcDbCircle
 10
240.3216166754
 20
117.8320649398
 30
0.0
 40
1.249999999999964
  0
CIRCLE
  5
CF
330
1F
100
AcDbEntity
  8
0
  6
HIDDEN
 62
     7
370
     0
100
AcDbCircle
 10
240.3216166754
 20
117.8320649398
 30
0.0
 40
2.099999999999995
  0
LWPOLYLINE
  5
D0
330
1F
100
AcDbEntity
  8
0
  6
HIDDEN
 62
     7
370
     0
100
AcDbPolyline
 90
       17
 70
   128
 43
0.0
 10
252.3553018379
 20
112.5536739714
 10
252.3327657163
 20
113.0399960627
 10
252.313660515
 20
113.6137559204
 10
252.3008948275
 20
114.1876038072
 10
252.2964121142
 20
114.6741765844
 10
252.3008948275
 20
114.9993979575
 10
252.313660515
 20
115.1137559204
 10
252.3327657163
 20
114.9998405101
 10
252.3553018379
 20
114.674994315
 10
252.3778379595
 20
114.1886722237
 10
252.3969431608
 20
113.614912366
 10
252.4097088482
 20
113.0410644792
 10
252.4141915615
 20
112.554491702
 10
252.4097088482
 20
112.229270329
 10
252.3969431608
 20
112.114912366
 10
252.3778379595
 20
112.2288277764
 10
252.3553018379
 20
112.5536739714
  0
LWPOLYLINE
  5
D1
330
1F
100
AcDbEntity
  8
0
  6
HIDDEN
 62
     7
370
     0
100
AcDbPolyline
 90
       17
 70
   128
 43
0.0
 10
251.8556873198
 20
112.8933469211
 10
251.8406632387
 20
113.2175616486
 10
251.8279264378
 20
113.6000682204
 10
251.8194159795
 20
113.9826334783
 10
251.816427504
 20
114.3070153297
 10
251.8194159795
 20
114.5238295784
 10
251.8279264378
 20
114.6000682204
 10
251.8406632387
 20
114.5241246135
 10
251.8556873198
 20
114.3075604834
 10
251.8707114008
 20
113.9833457559
 10
251.8834482017
 20
113.6008391841
 10
251.89195866
 20
113.2182739262
 10
251.8949471355
 20
112.8938920748
 10
251.89195866
 20
112.6770778261
 10
251.8834482017
 20
112.6008391841
 10
251.8707114008
 20
112.676782791
 10
251.8556873198
 20
112.8933469211
  0
LWPOLYLINE
  5
D2
330
1F
100
AcDbEntity
  8
0
  6
HIDDEN
 62
     7
370
     0
100
AcDbPolyline
 90
       17
 70
   128
 43
0.0
 10
257.6892396418
 20
112.7018630375
 10
257.6667035202
 20
113.1881851288
 10
257.6475983188
 20
113.7619449865
 10
257.6348326314
 20
114.3357928734
 10
257.6303499181
 20
114.8223656506
 10
257.6348326314
 20
115.1475870236
 10
257.6475983188
 20
115.2619449865
 10
257.6667035202
 20
115.1480295762
 10
257.6892396418
 20
114.8231833811
 10
257.7117757633
 20
114.3368612898
 10
257.7308809647
 20
113.7631014321
 10
257.7436466521
 20
113.1892535453
 10
257.7481293654
 20
112.7026807681
 10
257.7436466521
 20
112.3774593951
 10
257.7308809647
 20
112.2631014321
 10
257.7117757633
 20
112.3770168425
 10
257.6892396418
 20
112.7018630375
  0
LWPOLYLINE
  5
D3
330
1F
100
AcDbEntity
  8
0
  6
HIDDEN
 62
     7
370
     0
100
AcDbPolyline
 90
        8
 70
   128
 43
0.0
 10
257.8510615372
 20
112.9047022743
 10
257.8327396704
 20
113.3000821345
 10
257.8172071417
 20
113.7665488988
 10
257.8068286378
 20
114.2330872308
 10
257.8031841919
 20
114.6286708987
 10
257.8068286378
 20
114.8930758749
 10
257.8172071417
 20
114.9860488988
 10
257.8216166754
 20
114.9768961874
  0
LWPOLYLINE
  5
D4
330
1F
100
AcDbEntity
  8
0
  6
HIDDEN
 62
     7
370
     0
100
AcDbPolyline
 90
        4
 70
   128
 43
0.0
 10
257.886517611
 20
112.5494456875
 10
257.8849159327
 20
112.5479890891
 10
257.869383404
 20
112.6406023177
 10
257.8510615372
 20
112.9047022743
  0
LINE
  5
D5
330
1F
100
AcDbEntity
  8
0
  6
HIDDEN
 62
     7
370
     0
100
AcDbLine
 10
255.8820483265
 20
113.4877622273
 30
0.0
 11
255.8526034647
 21
114.3238696657
 31
0.0
  0
LINE
  5
D6
330
1F
100
AcDbEntity
  8
0
  6
HIDDEN
 62
     7
370
     0
100
AcDbLine
 10
257.880506399
 20
113.5432839912
 30
0.0
 11
257.8510615372
 21
114.3793914296
 31
0.0
  0
LINE
  5
D7
330
1F
100
AcDbEntity
  8
0
  6
HIDDEN
 62
     7
370
     0
100
AcDbLine
 10
255.8820483265
 20
113.4877622273
 30
0.0
 11
257.880506399
 21
113.5432839912
 31
0.0
  0
LINE
  5
D8
330
1F
100
AcDbEntity
  8
0
  6
HIDDEN
 62
     7
370
     0
100
AcDbLine
 10
255.8820483265
 20
112.8753897916
 30
0.0
 11
255.8820483265
 21
113.4877622273
 31
0.0
  0
LINE
  5
D9
330
1F
100
AcDbEntity
  8
0
  6
HIDDEN
 62
     7
370
     0
100
AcDbLine
 10
257.880506399
 20
112.9309115555
 30
0.0
 11
257.880506399
 21
113.5432839912
 31
0.0
  0
LINE
  5
DA
330
1F
100
AcDbEntity
  8
0
  6
HIDDEN
 62
     7
370
     0
100
AcDbLine
 10
255.8526034647
 20
114.3238696657
 30
0.0
 11
257.8510615372
 21
114.3793914296
 31
0.0
  0
LINE
  5
DB
330
1F
100
AcDbEntity
  8
0
  6
HIDDEN
 62
     7
370
     0
100
AcDbLine
 10
255.8231586029
 20
114.5476046685
 30
0.0
 11
255.8526034647
 21
114.3238696657
 31
0.0
  0
LINE
  5
DC
330
1F
100
AcDbEntity
  8
0
  6
HIDDEN
 62
     7
370
     0
100
AcDbLine
 10
257.8216166754
 20
114.6031264324
 30
0.0
 11
257.8510615372
 21
114.3793914296
 31
0.0
  0
LINE
  5
DD
330
1F
100
AcDbEntity
  8
0
  6
HIDDEN
 62
     7
370
     0
100
AcDbLine
 10
255.8526034647
 20
113.0991247944
 30
0.0
 11
257.8510615372
 21
113.1546465583
 31
0.0
  0
LINE
  5
DE
330
1F
100
AcDbEntity
  8
0
  6
HIDDEN
 62
     7
370
     0
100
AcDbLine
 10
255.8820483265
 20
112.8753897916
 30
0.0
 11
257.880506399
 21
112.9309115555
 31
0.0
  0
LINE
  5
DF
330
1F
100
AcDbEntity
  8
0
  6
HIDDEN
 62
     7
370
     0
100
AcDbLine
 10
255.8820483265
 20
112.8753897916
 30
0.0
 11
255.8526034647
 21
113.0991247944
 31
0.0
  0
LINE
  5
E0
330
1F
100
AcDbEntity
  8
0
  6
HIDDEN
 62
     7
370
     0
100
AcDbLine
 10
257.880506399
 20
112.9309115555
 30
0.0
 11
257.8510615372
 21
113.1546465583
 31
0.0
  0
LINE
  5
E1
330
1F
100
AcDbEntity
  8
0
  6
HIDDEN
 62
     7
370
     0
100
AcDbLine
 10
255.8231586029
 20
113.9352322328
 30
0.0
 11
257.8216166754
 21
113.9907539967
 31
0.0
  0
LINE
  5
E2
330
1F
100
AcDbEntity
  8
0
  6
HIDDEN
 62
     7
370
     0
100
AcDbLine
 10
255.8231586029
 20
114.5476046685
 30
0.0
 11
257.8216166754
 21
114.6031264324
 31
0.0
  0
LINE
  5
E3
330
1F
100
AcDbEntity
  8
0
  6
HIDDEN
 62
     7
370
     0
100
AcDbLine
 10
255.8231586029
 20
113.9352322328
 30
0.0
 11
255.8231586029
 21
114.5476046685
 31
0.0
  0
LINE
  5
E4
330
1F
100
AcDbEntity
  8
0
  6
HIDDEN
 62
     7
370
     0
100
AcDbLine
 10
255.8231586029
 20
113.9352322328
 30
0.0
 11
255.8526034647
 21
113.0991247944
 31
0.0
  0
LINE
  5
E5
330
1F
100
AcDbEntity
  8
0
  6
HIDDEN
 62
     7
370
     0
100
AcDbLine
 10
257.8216166754
 20
113.9907539967
 30
0.0
 11
257.8510615372
 21
113.1546465583
 31
0.0
  0
LWPOLYLINE
  5
E6
330
1F
100
AcDbEntity
  8
0
  6
HIDDEN
 62
     7
370
     0
100
AcDbPolyline
 90
        3
 70
   128
 43
0.0
 10
257.7921718136
 20
121.0364302579
 10
257.8104936804
 20
121.4318101182
 10
257.8216166754
 20
121.7487122254
  0
LWPOLYLINE
  5
E7
330
1F
100
AcDbEntity
  8
0
  6
HIDDEN
 62
     7
370
     0
100
AcDbPolyline
 90
       12
 70
   128
 43
0.0
 10
257.8216166754
 20
123.1086241711
 10
257.8104936804
 20
123.0251636538
 10
257.7921718136
 20
122.7610636973
 10
257.7738499467
 20
122.365683837
 10
257.758317418
 20
121.8992170728
 10
257.7479389142
 20
121.4326787407
 10
257.7442944682
 20
121.0370950729
 10
257.7479389142
 20
120.7726900966
 10
257.758317418
 20
120.6797170728
 10
257.7738499467
 20
120.7723303014
 10
257.7921718136
 20
121.0364302579
 10
257.7921718136
 20
121.0364302579
  0
LWPOLYLINE
  5
E8
330
1F
100
AcDbEntity
  8
0
  6
HIDDEN
 62
     7
370
     0
100
AcDbPolyline
 90
       17
 70
   128
 43
0.0
 10
257.6303499181
 20
120.8425825904
 10
257.6528860397
 20
121.3289046817
 10
257.6719912411
 20
121.9026645394
 10
257.6847569285
 20
122.4765124262
 10
257.6892396418
 20
122.9630852034
 10
257.6847569285
 20
123.2883065765
 10
257.6719912411
 20
123.4026645394
 10
257.6528860397
 20
123.2887491291
 10
257.6303499181
 20
122.963902934
 10
257.6078137966
 20
122.4775808427
 10
257.5887085952
 20
121.903820985
 10
257.5759429078
 20
121.3299730982
 10
257.5714601945
 20
120.843400321
 10
257.5759429078
 20
120.518178948
 10
257.5887085952
 20
120.403820985
 10
257.6078137966
 20
120.5177363954
 10
257.6303499181
 20
120.8425825904
  0
LWPOLYLINE
  5
E9
330
1F
100
AcDbEntity
  8
0
  6
HIDDEN
 62
     7
370
     0
100
AcDbPolyline
 90
       17
 70
   128
 43
0.0
 10
252.2964121142
 20
120.9907716566
 10
252.3189482358
 20
121.4770937478
 10
252.3380534372
 20
122.0508536055
 10
252.3508191246
 20
122.6247014924
 10
252.3553018379
 20
123.1112742696
 10
252.3508191246
 20
123.4364956426
 10
252.3380534372
 20
123.5508536055
 10
252.3189482358
 20
123.4369381952
 10
252.2964121142
 20
123.1120920001
 10
252.2738759927
 20
122.6257699088
 10
252.2547707913
 20
122.0520100512
 10
252.2420051039
 20
121.4781621643
 10
252.2375223906
 20
120.9915893871
 10
252.2420051039
 20
120.6663680141
 10
252.2547707913
 20
120.5520100512
 10
252.2738759927
 20
120.6659254615
 10
252.2964121142
 20
120.9907716566
  0
LWPOLYLINE
  5
EA
330
1F
100
AcDbEntity
  8
0
  6
HIDDEN
 62
     7
370
     0
100
AcDbPolyline
 90
       17
 70
   128
 43
0.0
 10
251.7967975961
 20
121.3582054881
 10
251.8118216772
 20
121.6824202157
 10
251.8245584781
 20
122.0649267874
 10
251.8330689364
 20
122.4474920453
 10
251.8360574119
 20
122.7718738968
 10
251.8330689364
 20
122.9886881455
 10
251.8245584781
 20
123.0649267874
 10
251.8118216772
 20
122.9889831805
 10
251.7967975961
 20
122.7724190505
 10
251.7817735151
 20
122.448204323
 10
251.7690367142
 20
122.0656977512
 10
251.7605262559
 20
121.6831324933
 10
251.7575377804
 20
121.3587506418
 10
251.7605262559
 20
121.1419363931
 10
251.7690367142
 20
121.0656977512
 10
251.7817735151
 20
121.1416413581
 10
251.7967975961
 20
121.3582054881
  0
LINE
  5
EB
330
1F
100
AcDbEntity
  8
0
  6
HIDDEN
 62
     7
370
     0
100
AcDbLine
 10
257.8216166754
 20
122.7348544161
 30
0.0
 11
257.7921718136
 21
122.5111194133
 31
0.0
  0
LINE
  5
EC
330
1F
100
AcDbEntity
  8
0
  6
HIDDEN
 62
     7
370
     0
100
AcDbLine
 10
257.7627269517
 20
121.6750119748
 30
0.0
 11
257.7921718136
 21
122.5111194133
 31
0.0
  0
LINE
  5
ED
330
1F
100
AcDbEntity
  8
0
  6
HIDDEN
 62
     7
370
     0
100
AcDbLine
 10
257.7627269517
 20
121.0626395391
 30
0.0
 11
257.7627269517
 21
121.6750119748
 31
0.0
  0
LINE
  5
EE
330
1F
100
AcDbEntity
  8
0
  6
HIDDEN
 62
     7
370
     0
100
AcDbLine
 10
257.7627269517
 20
121.0626395391
 30
0.0
 11
257.7921718136
 21
121.2863745419
 31
0.0
  0
LINE
  5
EF
330
1F
100
AcDbEntity
  8
0
  6
HIDDEN
 62
     7
370
     0
100
AcDbLine
 10
257.8216166754
 20
122.1224819804
 30
0.0
 11
257.7921718136
 21
121.2863745419
 31
0.0
  0
LINE
  5
F0
330
1F
100
AcDbEntity
  8
0
  6
HIDDEN
 62
     7
370
     0
100
AcDbLine
 10
255.7642688793
 20
121.118161303
 30
0.0
 11
255.7937137411
 21
121.3418963058
 31
0.0
  0
LINE
  5
F1
330
1F
100
AcDbEntity
  8
0
  6
HIDDEN
 62
     7
370
     0
100
AcDbLine
 10
255.7642688793
 20
121.118161303
 30
0.0
 11
255.7642688793
 21
121.7305337387
 31
0.0
  0
LINE
  5
F2
330
1F
100
AcDbEntity
  8
0
  6
HIDDEN
 62
     7
370
     0
100
AcDbLine
 10
255.8231586029
 20
122.79037618
 30
0.0
 11
255.7937137411
 21
122.5666411772
 31
0.0
  0
LINE
  5
F3
330
1F
100
AcDbEntity
  8
0
  6
HIDDEN
 62
     7
370
     0
100
AcDbLine
 10
255.8231586029
 20
122.1780037443
 30
0.0
 11
255.8231586029
 21
122.79037618
 31
0.0
  0
LINE
  5
F4
330
1F
100
AcDbEntity
  8
0
  6
HIDDEN
 62
     7
370
     0
100
AcDbLine
 10
255.8231586029
 20
122.1780037443
 30
0.0
 11
255.7937137411
 21
121.3418963058
 31
0.0
  0
LINE
  5
F5
330
1F
100
AcDbEntity
  8
0
  6
HIDDEN
 62
     7
370
     0
100
AcDbLine
 10
255.7642688793
 20
121.7305337387
 30
0.0
 11
255.7937137411
 21
122.5666411772
 31
0.0
  0
LINE
  5
F6
330
1F
100
AcDbEntity
  8
0
  6
HIDDEN
 62
     7
370
     0
100
AcDbLine
 10
255.7642688793
 20
121.7305337387
 30
0.0
 11
257.7627269517
 21
121.6750119748
 31
0.0
  0
LINE
  5
F7
330
1F
100
AcDbEntity
  8
0
  6
HIDDEN
 62
     7
370
     0
100
AcDbLine
 10
255.7937137411
 20
122.5666411772
 30
0.0
 11
257.7921718136
 21
122.5111194133
 31
0.0
  0
LINE
  5
F8
330
1F
100
AcDbEntity
  8
0
  6
HIDDEN
 62
     7
370
     0
100
AcDbLine
 10
255.7937137411
 20
121.3418963058
 30
0.0
 11
257.7921718136
 21
121.2863745419
 31
0.0
  0
LINE
  5
F9
330
1F
100
AcDbEntity
  8
0
  6
HIDDEN
 62
     7
370
     0
100
AcDbLine
 10
255.7642688793
 20
121.118161303
 30
0.0
 11
257.7627269517
 21
121.0626395391
 31
0.0
  0
LINE
  5
FA
330
1F
100
AcDbEntity
  8
0
  6
HIDDEN
 62
     7
370
     0
100
AcDbLine
 10
255.8231586029
 20
122.1780037443
 30
0.0
 11
257.8216166754
 21
122.1224819804
 31
0.0
  0
LINE
  5
FB
330
1F
100
AcDbEntity
  8
0
  6
HIDDEN
 62
     7
370
     0
100
AcDbLine
 10
255.8231586029
 20
122.79037618
 30
0.0
 11
257.8216166754
 21
122.7348544161
 31
0.0
  0
LINE
  5
FC
330
1F
100
AcDbEntity
  8
0
  6
HIDDEN
 62
     7
370
     0
100
AcDbLine
 10
114.5595876545
 20
156.7830277006
 30
0.0
 11
114.5595876545
 21
149.1820649398
 31
0.0
  0
SPLINE
  5
FD
330
1F
100
AcDbEntity
  8
0
  6
HIDDEN
 62
     7
370
     0
100
AcDbSpline
210
0.0
220
0.0
230
1.0
 70
     8
 71
     3
 72
    80
 73
    76
 74
     0
 42
0.00000001
 43
0.00000001
 40
-0.0312500000000003
 40
-0.0312500000000003
 40
0.0
 40
0.0
 40
0.03125
 40
0.03125
 40
0.046875
 40
0.046875
 40
0.0624999999999999
 40
0.0624999999999999
 40
0.0937499999999998
 40
0.0937499999999998
 40
0.1249999999999996
 40
0.1249999999999996
 40
0.1562499999999995
 40
0.1562499999999995
 40
0.1874999999999994
 40
0.1874999999999994
 40
0.2187499999999993
 40
0.2187499999999993
 40
0.2499999999999992
 40
0.2499999999999992
 40
0.2812499999999991
 40
0.2812499999999991
 40
0.3124999999999989
 40
0.3124999999999989
 40
0.3281249999999988
 40
0.3281249999999988
 40
0.3437499999999986
 40
0.3437499999999986
 40
0.3749999999999983
 40
0.3749999999999983
 40
0.4062499999999981
 40
0.4062499999999981
 40
0.4218749999999979
 40
0.4218749999999979
 40
0.4374999999999978
 40
0.4374999999999978
 40
0.4687499999999977
 40
0.4687499999999977
 40
0.4999999999999975
 40
0.4999999999999975
 40
0.5312499999999972
 40
0.5312499999999972
 40
0.562499999999997
 40
0.562499999999997
 40
0.5937499999999968
 40
0.5937499999999968
 40
0.6249999999999966
 40
0.6249999999999966
 40
0.6562499999999964
 40
0.6562499999999964
 40
0.6874999999999962
 40
0.6874999999999962
 40
0.7031249999999962
 40
0.7031249999999962
 40
0.7187499999999963
 40
0.7187499999999963
 40
0.7499999999999968
 40
0.7499999999999968
 40
0.7812499999999972
 40
0.7812499999999972
 40
0.7968749999999976
 40
0.7968749999999976
 40
0.8124999999999978
 40
0.8124999999999978
 40
0.8437499999999981
 40
0.8437499999999981
 40
0.8749999999999984
 40
0.8749999999999984
 40
0.9062499999999989
 40
0.9062499999999989
 40
0.9374999999999992
 40
0.9374999999999992
 40
0.9687499999999997
 40
0.9687499999999997
 40
1.0
 40
1.0
 40
1.03125
 40
1.03125
 10
107.1521619881637
 20
166.691614196233
 30
0.0
 10
106.4910713626111
 20
166.691614196233
 30
0.0
 10
106.1660912333595
 20
166.6847160504062
 30
0.0
 10
105.686617822113
 20
166.6641896224257
 30
0.0
 10
105.5281360042722
 20
166.6556333953382
 30
0.0
 10
105.2139164717679
 20
166.6349070201205
 30
0.0
 10
105.0577961880875
 20
166.6226797199141
 30
0.0
 10
104.603742159131
 20
166.5811104260849
 30
0.0
 10
104.3166387761911
 20
166.5467661409871
 30
0.0
 10
103.7732842201641
 20
166.4634420166648
 30
0.0
 10
103.5161806089585
 20
166.4140037938903
 30
0.0
 10
103.0552743540197
 20
166.3026240641304
 30
0.0
 10
102.8483766448048
 20
166.2403295506183
 30
0.0
 10
102.4828513308126
 20
166.1003999077473
 30
0.0
 10
102.3276458086866
 20
166.0237840099982
 30
0.0
 10
102.0782154220869
 20
165.8598253901425
 30
0.0
 10
101.9821254663017
 20
165.7712685360468
 30
0.0
 10
101.8536066171082
 20
165.583787853941
 30
0.0
 10
101.8217957469304
 20
165.4865513924866
 30
0.0
 10
101.8214390971571
 20
165.2849187531595
 30
0.0
 10
101.8539363493542
 20
165.1793699613214
 30
0.0
 10
101.9815618230687
 20
164.9692551786329
 30
0.0
 10
102.0759902241206
 20
164.8641896706639
 30
0.0
 10
102.2638510441061
 20
164.7073119634128
 30
0.0
 10
102.3346790429093
 20
164.6548782297071
 30
0.0
 10
102.4894009348746
 20
164.5524397840774
 30
0.0
 10
102.573377405058
 20
164.5022920554255
 30
0.0
 10
102.8447010747024
 20
164.355276098992
 30
0.0
 10
103.0512502933047
 20
164.2617882785576
 30
0.0
 10
103.5178604334938
 20
164.0860014209432
 30
0.0
 10
103.7702260031192
 20
164.0066229458596
 30
0.0
 10
104.1761273447979
 20
163.9011405083655
 30
0.0
 10
104.3160279622754
 20
163.8682549435253
 30
0.0
 10
104.6052518975224
 20
163.8073394642967
 30
0.0
 10
104.7550913538116
 20
163.7792588926543
 30
0.0
 10
105.2092079234224
 20
163.7044568506115
 30
0.0
 10
105.5208591421593
 20
163.6664187923653
 30
0.0
 10
106.1618556070716
 20
163.6148068658412
 30
0.0
 10
106.4933832350238
 20
163.6014929323197
 30
0.0
 10
107.1461742800953
 20
163.6013958459916
 30
0.0
 10
107.4707104851271
 20
163.6141839311527
 30
0.0
 10
108.1159799345435
 20
163.6656741207486
 30
0.0
 10
108.4317229407062
 20
163.7041987000687
 30
0.0
 10
109.0336122356899
 20
163.8031012629268
 30
0.0
 10
109.3243614665014
 20
163.8642053608518
 30
0.0
 10
109.8712732581859
 20
164.0060147939625
 30
0.0
 10
110.1230506220228
 20
164.0853492785417
 30
0.0
 10
110.584438614644
 20
164.2587280232032
 30
0.0
 10
110.795707894242
 20
164.3538879679571
 30
0.0
 10
111.1590122466182
 20
164.550460491333
 30
0.0
 10
111.312818895061
 20
164.6522167197394
 30
0.0
 10
111.5014383646584
 20
164.8090026825249
 30
0.0
 10
111.5574688508675
 20
164.8622567162749
 30
0.0
 10
111.6530426126037
 20
164.9680612778277
 30
0.0
 10
111.6928055296287
 20
165.0207143421832
 30
0.0
 10
111.7885772799408
 20
165.1777880616424
 30
0.0
 10
111.8213001190669
 20
165.2813130969695
 30
0.0
 10
111.821928705396
 20
165.4855278311966
 30
0.0
 10
111.7897425606612
 20
165.5830316687814
 30
0.0
 10
111.6948318588057
 20
165.722358719133
 30
0.0
 10
111.6553650754067
 20
165.7676754506375
 30
0.0
 10
111.5604350766858
 20
165.8561152716263
 30
0.0
 10
111.5046782489225
 20
165.8993695220863
 30
0.0
 10
111.3167381309526
 20
166.0232609966763
 30
0.0
 10
111.1633766612364
 20
166.0989632874503
 30
0.0
 10
110.801112426356
 20
166.2382176589085
 30
0.0
 10
110.5902639528901
 20
166.3019795004372
 30
0.0
 10
110.1295939825712
 20
166.4134763399051
 30
0.0
 10
109.8782196029874
 20
166.4620024122217
 30
0.0
 10
109.3323117160893
 20
166.5460563956022
 30
0.0
 10
109.041489141438
 20
166.5808549492689
 30
0.0
 10
108.440162526658
 20
166.6360514140327
 30
0.0
 10
108.1256439420456
 20
166.6568692627866
 30
0.0
 10
107.4790624859257
 20
166.6847165956973
 30
0.0
 10
107.1521619881637
 20
166.691614196233
 30
0.0
 10
106.4910713626111
 20
166.691614196233
 30
0.0
  0
SPLINE
  5
FE
330
1F
100
AcDbEntity
  8
0
  6
HIDDEN
 62
     7
370
     0
100
AcDbSpline
210
0.0
220
0.0
230
1.0
 70
     8
 71
     3
 72
     9
 73
     5
 74
     0
 42
0.00000001
 43
0.00000001
 40
0.0
 40
0.0
 40
0.0
 40
0.0
 40
0.5038163044167481
 40
1.0
 40
1.0
 40
1.0
 40
1.0
 10
78.23504142481471
 20
81.09625857748091
 30
0.0
 10
77.95136224007622
 20
81.0721054033822
 30
0.0
 10
77.38830149303088
 20
81.02416496579214
 30
0.0
 10
77.03194045122167
 20
80.98285261750631
 30
0.0
 10
76.85511991253487
 20
80.9623541038606
 30
0.0
  0
SPLINE
  5
FF
330
1F
100
AcDbEntity
  8
0
  6
HIDDEN
 62
     7
370
     0
100
AcDbSpline
210
0.0
220
0.0
230
1.0
 70
     8
 71
     3
 72
    12
 73
     8
 74
     0
 42
0.00000001
 43
0.00000001
 40
0.0
 40
0.0
 40
0.0
 40
0.0
 40
0.1661348616735903
 40
0.3322013257393936
 40
0.5008932044678248
 40
0.752137078264078
 40
1.0
 40
1.0
 40
1.0
 40
1.0
 10
76.3409383410346
 20
154.7633689628206
 30
0.0
 10
76.35133096514265
 20
154.7619908387591
 30
0.0
 10
76.37211193472261
 20
154.759235158009
 30
0.0
 10
76.54541142416953
 20
154.737631783047
 30
0.0
 10
76.86736301341325
 20
154.6997668311051
 30
0.0
 10
77.38852884933257
 20
154.639383064389
 30
0.0
 10
77.9540867891703
 20
154.5915899272395
 30
0.0
 10
78.23495021285834
 20
154.5678552341462
 30
0.0
  0
SPLINE
  5
100
330
1F
100
AcDbEntity
  8
0
  6
HIDDEN
 62
     7
370
     0
100
AcDbSpline
210
0.0
220
0.0
230
1.0
 70
     8
 71
     3
 72
    11
 73
     7
 74
     0
 42
0.00000001
 43
0.00000001
 40
0.0
 40
0.0
 40
0.0
 40
0.0
 40
0.3257523722395619
 40
0.6609891175823827
 40
0.9867918028918143
 40
1.0
 40
1.0
 40
1.0
 40
1.0
 10
88.07482233057841
 20
149.1983871605021
 30
0.0
 10
88.22070482662778
 20
149.221652833734
 30
0.0
 10
88.51671722915137
 20
149.2688615669009
 30
0.0
 10
88.7458520066351
 20
149.2989533191162
 30
0.0
 10
88.84713585188682
 20
149.3121311970703
 30
0.0
 10
88.81945042897105
 20
149.3085227249926
 30
0.0
 10
88.81837177768915
 20
149.3083821353746
 30
0.0
  0
SPLINE
  5
101
330
1F
100
AcDbEntity
  8
0
  6
HIDDEN
 62
     7
370
     0
100
AcDbSpline
210
0.0
220
0.0
230
1.0
 70
     8
 71
     3
 72
     9
 73
     5
 74
     0
 42
0.00000001
 43
0.00000001
 40
0.0
 40
0.0
 40
0.0
 40
0.0
 40
0.3224758141376582
 40
0.9999999999999999
 40
0.9999999999999999
 40
0.9999999999999999
 40
0.9999999999999999
 10
88.73835096132323
 20
86.36618724334039
 30
0.0
 10
88.756992853348
 20
86.363419256418
 30
0.0
 10
88.81480150505914
 20
86.35483570750972
 30
0.0
 10
88.37368764171396
 20
86.42094921718841
 30
0.0
 10
88.07482233057841
 20
86.46574271900798
 30
0.0
  0
SPLINE
  5
102
330
1F
100
AcDbEntity
  8
0
  6
HIDDEN
 62
     7
370
     0
100
AcDbSpline
210
0.0
220
0.0
230
1.0
 70
     8
 71
     3
 72
    23
 73
    19
 74
     0
 42
0.00000001
 43
0.00000001
 40
0.0
 40
0.0
 40
0.0
 40
0.0
 40
0.0633571260677583
 40
0.1285545266630668
 40
0.1919098540958634
 40
0.2571115402721682
 40
0.3202403144568474
 40
0.3852600750475551
 40
0.4473665375787847
 40
0.5112910021130348
 40
0.5731724132338449
 40
0.6367989951504451
 40
0.6995859083620213
 40
0.7641543874110672
 40
0.827580116550687
 40
0.8928778468939028
 40
0.9556888039615774
 40
1.0
 40
1.0
 40
1.0
 40
1.0
 10
88.07482233057841
 20
86.46574271900798
 30
0.0
 10
87.89941692098337
 20
86.49442838643348
 30
0.0
 10
87.54351126673198
 20
86.55263292673978
 30
0.0
 10
86.8388310263342
 20
86.65194594417221
 30
0.0
 10
86.02306423566058
 20
86.74743382779072
 30
0.0
 10
85.12069902849514
 20
86.8281926065418
 30
0.0
 10
84.14419821120478
 20
86.88582303072138
 30
0.0
 10
83.14391890713249
 20
86.91261518656819
 30
0.0
 10
82.13077322016643
 20
86.90641956000373
 30
0.0
 10
81.15351573425544
 20
86.86877283520545
 30
0.0
 10
80.21635604866434
 20
86.80353638742473
 30
0.0
 10
79.35703418555298
 20
86.71884680251793
 30
0.0
 10
78.58275857062822
 20
86.62229847942099
 30
0.0
 10
77.92803060121777
 20
86.52577642564063
 30
0.0
 10
77.40204626022954
 20
86.43845786644485
 30
0.0
 10
77.04086887342326
 20
86.37350537098287
 30
0.0
 10
76.84200745346365
 20
86.33596497842063
 30
0.0
 10
76.84096500124288
 20
86.3357487022586
 30
0.0
 10
76.84053378973921
 20
86.33565923938716
 30
0.0
  0
SPLINE
  5
103
330
1F
100
AcDbEntity
  8
0
  6
HIDDEN
 62
     7
370
     0
100
AcDbSpline
210
0.0
220
0.0
230
1.0
 70
     8
 71
     3
 72
    24
 73
    20
 74
     0
 42
0.00000001
 43
0.00000001
 40
0.0
 40
0.0
 40
0.0
 40
0.0
 40
0.0203729619474678
 40
0.0822870750602629
 40
0.1459896397253447
 40
0.2080895879354084
 40
0.2719360348739573
 40
0.3350079792507124
 40
0.3998886074506655
 40
0.4632504589199175
 40
0.5284999352472107
 40
0.5909722114153436
 40
0.6552989095534106
 40
0.7170937383192271
 40
0.7806505850197497
 40
0.8430286835696731
 40
0.9071616706581624
 40
0.9532355028060499
 40
1.0
 40
1.0
 40
1.0
 40
1.0
 10
76.84053378973921
 20
149.3284706401229
 30
0.0
 10
76.83515534584338
 20
149.3294922148939
 30
0.0
 10
76.81343163096551
 20
149.3336183895796
 30
0.0
 10
76.94570510067398
 20
149.3084277778424
 30
0.0
 10
77.23162808315509
 20
149.2558603108738
 30
0.0
 10
77.68639792613305
 20
149.1774383722648
 30
0.0
 10
78.27700297928257
 20
149.0852540154532
 30
0.0
 10
79.00413206958382
 20
148.9868692486967
 30
0.0
 10
79.83763641432724
 20
148.89483104566
 30
0.0
 10
80.76708657851728
 20
148.818589033138
 30
0.0
 10
81.74546688287546
 20
148.768675850845
 30
0.0
 10
82.75987881225731
 20
148.7499118527508
 30
0.0
 10
83.75832437338909
 20
148.7642417100944
 30
0.0
 10
84.73493460005032
 20
148.8096964377318
 30
0.0
 10
85.64813161665714
 20
148.8801211058785
 30
0.0
 10
86.49353834778297
 20
148.9692555026571
 30
0.0
 10
87.16653579322931
 20
149.0573131019378
 30
0.0
 10
87.69663028689249
 20
149.1361769446171
 30
0.0
 10
87.94813463230898
 20
149.177547829821
 30
0.0
 10
88.07482233057841
 20
149.1983871605021
 30
0.0
  0
LINE
  5
104
330
1F
100
AcDbEntity
  8
0
  6
HIDDEN
 62
     7
370
     0
100
AcDbLine
 10
67.8182410024
 20
91.3320649398
 30
0.0
 11
67.8182410024
 21
144.3320649398
 31
0.0
  0
LINE
  5
105
330
1F
100
AcDbEntity
  8
0
  6
HIDDEN
 62
     7
370
     0
100
AcDbLine
 10
107.1056942938
 20
91.3320649398
 30
0.0
 11
107.1056942938
 21
144.3320649398
 31
0.0
  0
LINE
  5
106
330
1F
100
AcDbEntity
  8
0
  6
HIDDEN
 62
     7
370
     0
100
AcDbLine
 10
110.2716166754
 20
92.9570649398
 30
0.0
 11
110.2716166754
 21
142.7070649398
 31
0.0
  0
SPLINE
  5
107
330
1F
100
AcDbEntity
  8
0
  6
HIDDEN
 62
     7
370
     0
100
AcDbSpline
210
0.0
220
0.0
230
1.0
 70
     8
 71
     3
 72
    20
 73
    16
 74
     0
 42
0.00000001
 43
0.00000001
 40
0.0
 40
0.0
 40
0.0
 40
0.0
 40
0.2499999999999978
 40
0.2499999999999978
 40
0.3749999999999982
 40
0.3749999999999982
 40
0.4999999999999986
 40
0.4999999999999986
 40
0.6249999999999989
 40
0.6249999999999989
 40
0.7499999999999992
 40
0.7499999999999992
 40
0.8749999999999997
 40
0.8749999999999997
 40
1.0
 40
1.0
 40
1.0
 40
1.0
 10
58.02161667538737
 20
143.0605785701694
 30
0.0
 10
58.02161667538738
 20
142.9813755836371
 30
0.0
 10
57.97463418017464
 20
142.9002793652341
 30
0.0
 10
57.83681258939706
 20
142.7800826734832
 30
0.0
 10
57.78053030548708
 20
142.7411559694811
 30
0.0
 10
57.64744545401985
 20
142.6659672370568
 30
0.0
 10
57.5696055117868
 20
142.6293250317148
 30
0.0
 10
57.39697315567245
 20
142.5617344988829
 30
0.0
 10
57.30258015858136
 20
142.5307763171073
 30
0.0
 10
57.09714285226622
 20
142.4752518957376
 30
0.0
 10
56.98479661227905
 20
142.4505433819044
 30
0.0
 10
56.75255574837942
 20
142.4107471547962
 30
0.0
 10
56.6318451059567
 20
142.3953273173992
 30
0.0
 10
56.38077424668766
 20
142.3742473425595
 30
0.0
 10
56.25125225027189
 20
142.3687700975385
 30
0.0
 10
56.12161667538737
 20
142.3687700975385
 30
0.0
  0
LINE
  5
108
330
1F
100
AcDbEntity
  8
0
  6
HIDDEN
 62
     7
370
     0
100
AcDbLine
 10
56.1216166754
 20
142.3687700975
 30
0.0
 11
49.5716166754
 21
142.3687700975
 31
0.0
  0
LINE
  5
109
330
1F
100
AcDbEntity
  8
0
  6
HIDDEN
 62
     7
370
     0
100
AcDbLine
 10
49.5716166754
 20
93.295359782
 30
0.0
 11
61.1216166754
 21
93.295359782
 31
0.0
  0
SPLINE
  5
10A
330
1F
100
AcDbEntity
  8
0
  6
HIDDEN
 62
     7
370
     0
100
AcDbSpline
210
0.0
220
0.0
230
1.0
 70
     8
 71
     3
 72
    18
 73
    14
 74
     0
 42
0.00000001
 43
0.00000001
 40
0.0
 40
0.0
 40
0.0
 40
0.0
 40
0.1249999999999982
 40
0.1249999999999982
 40
0.2499999999999964
 40
0.2499999999999964
 40
0.4999999999999988
 40
0.4999999999999988
 40
0.7500000000000011
 40
0.7500000000000011
 40
0.8750000000000006
 40
0.8750000000000006
 40
1.0
 40
1.0
 40
1.0
 40
1.0
 10
61.12161667538737
 20
93.29535978197154
 30
0.0
 10
61.25108398834458
 20
93.29535978197153
 30
0.0
 10
61.37809473724122
 20
93.29000678337889
 30
0.0
 10
61.62745805843847
 20
93.26926881069011
 30
0.0
 10
61.75108171306691
 20
93.2535969064358
 30
0.0
 10
62.10011405000096
 20
93.19390217803372
 30
0.0
 10
62.31062581480774
 20
93.13613699835274
 30
0.0
 10
62.65454249250727
 20
93.00161515707524
 30
0.0
 10
62.79089289402506
 20
92.92394604356984
 30
0.0
 10
62.9279309505876
 20
92.80465490948251
 30
0.0
 10
62.96314996930051
 20
92.76373590034746
 30
0.0
 10
63.00977354623907
 20
92.68307990705742
 30
0.0
 10
63.02161667538738
 20
92.64311138686458
 30
0.0
 10
63.02161667538737
 20
92.60355130934074
 30
0.0
  0
LINE
  5
10B
330
1F
100
AcDbEntity
  8
0
  6
HIDDEN
 62
     7
370
     0
100
AcDbLine
 10
49.5716166754
 20
93.295359782
 30
0.0
 11
49.5716166754
 21
142.3687700975
 31
0.0
  0
LWPOLYLINE
  5
10C
330
1F
100
AcDbEntity
  8
0
  6
HIDDEN
 62
     7
370
     0
100
AcDbPolyline
 90
       13
 70
   128
 43
0.0
 10
106.8216166754
 20
157.7757955031
 10
107.9746960291
 20
157.8306136973
 10
109.0656125764
 20
157.9921130171
 10
110.0355547238
 20
158.2515869922
 10
110.8322326392
 20
158.5950473136
 10
111.4126972098
 20
159.0039779463
 10
111.7456554404
 20
159.4563333341
 10
111.8131574667
 20
159.927726881
 10
111.611564237
 20
160.3927456389
 10
111.1517436943
 20
160.8263203261
 10
110.4584848833
 20
161.2050768191
 10
109.5691615657
 20
161.5085962572
 10
109.2198580524
 20
161.593956108
  0
LWPOLYLINE
  5
10D
330
1F
100
AcDbEntity
  8
0
  6
HIDDEN
 62
     7
370
     0
100
AcDbPolyline
 90
       13
 70
   128
 43
0.0
 10
104.4198836465
 20
161.5931790562
 10
104.074071785
 20
161.5085962572
 10
103.1847484675
 20
161.2050768191
 10
102.4914896565
 20
160.8263203261
 10
102.0316691138
 20
160.3927456389
 10
101.830075884
 20
159.927726881
 10
101.8975779103
 20
159.4563333341
 10
102.230536141
 20
159.0039779463
 10
102.8110007116
 20
158.5950473136
 10
103.607678627
 20
158.2515869922
 10
104.5776207744
 20
157.9921130171
 10
105.6685373217
 20
157.8306136973
 10
106.8216166754
 20
157.7757955031
  0
LINE
  5
10E
330
1F
100
AcDbEntity
  8
0
  6
HIDDEN
 62
     7
370
     0
100
AcDbLine
 10
49.5716166754
 20
90.4620649398
 30
0.0
 11
49.5716166754
 21
85.5837797379
 31
0.0
  0
LINE
  5
10F
330
1F
100
AcDbEntity
  8
0
  6
HIDDEN
 62
     7
370
     0
100
AcDbLine
 10
63.0216166754
 20
90.4620649398
 30
0.0
 11
63.0216166754
 21
83.9627316744
 31
0.0
  0
LINE
  5
110
330
1F
100
AcDbEntity
  8
0
  6
HIDDEN
 62
     7
370
     0
100
AcDbLine
 10
58.0216166754
 20
145.2020649398
 30
0.0
 11
58.0216166754
 21
151.5766736767
 31
0.0
  0
LINE
  5
111
330
1F
100
AcDbEntity
  8
0
  6
HIDDEN
 62
     7
370
     0
100
AcDbLine
 10
49.5716166754
 20
145.2020649398
 30
0.0
 11
49.5716166754
 21
150.0803501416
 31
0.0
  0
SPLINE
  5
112
330
1F
100
AcDbEntity
  8
0
  6
HIDDEN
 62
     7
370
     0
100
AcDbSpline
210
0.0
220
0.0
230
1.0
 70
     8
 71
     3
 72
    37
 73
    33
 74
     0
 42
0.00000001
 43
0.00000001
 40
-0.0672961992399779
 40
-0.042274535415992
 40
-0.0198477749534953
 40
0.0
 40
0.0252075669987696
 40
0.0544363278070906
 40
0.0877117524171568
 40
0.1250489433360369
 40
0.162091530469176
 40
0.195255960756299
 40
0.2245582096132293
 40
0.2500241769224342
 40
0.28483421417028
 40
0.3264523844561529
 40
0.3749196230365379
 40
0.4123147764325422
 40
0.4456207602107695
 40
0.4748524896762576
 40
0.5000352833317173
 40
0.534459490646856
 40
0.5760834699271838
 40
0.6249453020700729
 40
0.662012883914015
 40
0.6952092116703134
 40
0.7245502584383039
 40
0.7500618788844172
 40
0.784814995015279
 40
0.8263926145813502
 40
0.8748356825798691
 40
0.9050763678483857
 40
0.9327038007600221
 40
0.957725464584008
 40
0.9801522250465047
 40
1.0
 40
1.02520756699877
 40
1.054436327807091
 40
1.087711752417157
 10
239.9957719252806
 20
115.3459394210658
 30
0.0
 10
240.3496991432328
 20
115.3237860231275
 30
0.0
 10
240.7395419619245
 20
115.3547887441378
 30
0.0
 10
241.1866500924548
 20
115.4692961904973
 30
0.0
 10
241.6602139014753
 20
115.6963581443669
 30
0.0
 10
242.104276164269
 20
116.047088395871
 30
0.0
 10
242.4550375077995
 20
116.490280684338
 30
0.0
 10
242.6824300748499
 20
116.9617425815675
 30
0.0
 10
242.7982902887512
 20
117.409790088252
 30
0.0
 10
242.8363512629182
 20
117.8797081514037
 30
0.0
 10
242.7776978269053
 20
118.4150270438756
 30
0.0
 10
242.5513806896353
 20
119.0353357681634
 30
0.0
 10
242.1519125840549
 20
119.5794908724253
 30
0.0
 10
241.6606294672997
 20
119.9675262146908
 30
0.0
 10
241.186607271289
 20
120.1948870875389
 30
0.0
 10
240.7394042758389
 20
120.3093359904407
 30
0.0
 10
240.2733573171086
 20
120.3464516808951
 30
0.0
 10
239.7415881229784
 20
120.2885930631982
 30
0.0
 10
239.1208131864881
 20
120.0635112155817
 30
0.0
 10
238.5759114527025
 20
119.6640977814394
 30
0.0
 10
238.1878324123454
 20
119.1732638688068
 30
0.0
 10
237.9603191047871
 20
118.7012118052625
 30
0.0
 10
237.8445943782998
 20
118.2524999143516
 30
0.0
 10
237.8069264602978
 20
117.7823961115736
 30
0.0
 10
237.8660128015626
 20
117.247405685014
 30
0.0
 10
238.0923652223033
 20
116.627890293031
 30
0.0
 10
238.4696183328854
 20
116.1144920409791
 30
0.0
 10
238.8985911344791
 20
115.7599459317324
 30
0.0
 10
239.2780977502238
 20
115.5477096801341
 30
0.0
 10
239.6489789369805
 20
115.4146140323816
 30
0.0
 10
239.9957719252806
 20
115.3459394210658
 30
0.0
 10
240.3496991432328
 20
115.3237860231275
 30
0.0
 10
240.7395419619245
 20
115.3547887441378
 30
0.0
  0
SPLINE
  5
113
330
1F
100
AcDbEntity
  8
0
  6
HIDDEN
 62
     7
370
     0
100
AcDbSpline
210
0.0
220
0.0
230
1.0
 70
     8
 71
     3
 72
    20
 73
    16
 74
     0
 42
0.00000001
 43
0.00000001
 40
0.0
 40
0.0
 40
0.0
 40
0.0
 40
0.0888208285395605
 40
0.1777842008256718
 40
0.263564402453578
 40
0.3396152455894235
 40
0.407308829803185
 40
0.4722642761333961
 40
0.5399956416564168
 40
0.6143802770891468
 40
0.6970416979282076
 40
0.7865039197158641
 40
0.8785117566195799
 40
0.967333634278474
 40
1.0
 40
1.0
 40
1.0
 40
1.0
 10
237.8216166753874
 20
113.6598569657078
 30
0.0
 10
237.2576179521301
 20
113.7106904098951
 30
0.0
 10
236.1287153745513
 20
113.8124388781165
 30
0.0
 10
234.6329736965824
 20
114.6242740706302
 30
0.0
 10
233.5680701911156
 20
115.8239765082468
 30
0.0
 10
233.0780325577251
 20
117.2245986382496
 30
0.0
 10
233.1147874757071
 20
118.5710122574053
 30
0.0
 10
233.5683679906726
 20
119.7725821985788
 30
0.0
 10
234.3931663863037
 20
120.8005374090806
 30
0.0
 10
235.5836331014108
 20
121.5942687852683
 30
0.0
 10
237.0957343810136
 20
122.0390483071872
 30
0.0
 10
238.8024485150366
 20
122.0140221022547
 30
0.0
 10
240.4102974352967
 20
121.4204027429594
 30
0.0
 10
241.5428819934786
 20
120.5887538263738
 30
0.0
 10
241.8687727637559
 20
119.8920650355191
 30
0.0
 10
241.9563999019129
 20
119.7047358734299
 30
0.0
  0
SPLINE
  5
114
330
1F
100
AcDbEntity
  8
0
  6
HIDDEN
 62
     7
370
     0
100
AcDbSpline
210
0.0
220
0.0
230
1.0
 70
     8
 71
     3
 72
    11
 73
     7
 74
     0
 42
0.00000001
 43
0.00000001
 40
0.0
 40
0.0
 40
0.0
 40
0.0
 40
0.1592547529782895
 40
0.426898471872234
 40
0.724394300830939
 40
0.9999999999999999
 40
0.9999999999999999
 40
0.9999999999999999
 40
0.9999999999999999
 10
242.0086313307364
 20
116.0005211784008
 30
0.0
 10
241.8801990582179
 20
115.7644457861762
 30
0.0
 10
241.5359233625048
 20
115.1316218214117
 30
0.0
 10
240.5631995078114
 20
114.360481774233
 30
0.0
 10
239.259755990302
 20
113.7657174673714
 30
0.0
 10
238.2886321297649
 20
113.6942336702266
 30
0.0
 10
237.8216166753872
 20
113.6598569657084
 30
0.0
  0
LINE
  5
115
330
1F
100
AcDbEntity
  8
0
  6
HIDDEN
 62
     7
370
     0
100
AcDbLine
 10
122.1216166754
 20
104.8320649398
 30
0.0
 11
122.1216166754
 21
130.8320649398
 31
0.0
  0
LINE
  5
116
330
1F
100
AcDbEntity
  8
0
  6
HIDDEN
 62
     7
370
     0
100
AcDbLine
 10
126.1216166754
 20
104.8320649398
 30
0.0
 11
126.1216166754
 21
130.8320649398
 31
0.0
  0
LINE
  5
117
330
1F
100
AcDbEntity
  8
0
  6
HIDDEN
 62
     7
370
     0
100
AcDbLine
 10
111.0216166754
 20
106.5820649398
 30
0.0
 11
111.0216166754
 21
129.0820649398
 31
0.0
  0
ELLIPSE
  5
118
330
1F
100
AcDbEntity
  8
0
  6
HIDDEN
 62
     7
370
     0
100
AcDbEllipse
 10
41.6369434751
 20
117.8320649398
 30
0.0
 11
31.08108570811661
 21
-1.421085471520200E-14
 31
0.0
210
0.0
220
0.0
230
1.0
 40
0.8164965809
 41
4.915995335118103
 42
4.970536038964787
  0
ELLIPSE
  5
119
330
1F
100
AcDbEntity
  8
0
  6
HIDDEN
 62
     7
370
     0
100
AcDbEllipse
 10
41.6369434751
 20
117.8320649398
 30
0.0
 11
31.08108570811661
 21
1.421085471520200E-14
 31
0.0
210
0.0
220
0.0
230
1.0
 40
0.8164965809
 41
1.312649268214811
 42
1.367189972061496
  0
LINE
  5
11A
330
1F
100
AcDbEntity
  8
0
  6
HIDDEN
 62
     7
370
     0
100
AcDbLine
 10
126.7716166754
 20
73.9320649398
 30
0.0
 11
112.7716166754
 21
73.9320649398
 31
0.0
  0
LINE
  5
11B
330
1F
100
AcDbEntity
  8
0
  6
HIDDEN
 62
     7
370
     0
100
AcDbLine
 10
102.7716166754
 20
67.84206594
 30
0.0
 11
102.7716166754
 21
73.9320649398
 31
0.0
  0
LINE
  5
11C
330
1F
100
AcDbEntity
  8
0
  6
HIDDEN
 62
     7
370
     0
100
AcDbLine
 10
112.7716166754
 20
73.9320649398
 30
0.0
 11
102.7716166754
 21
73.9320649398
 31
0.0
  0
LINE
  5
11D
330
1F
100
AcDbEntity
  8
0
  6
HIDDEN
 62
     7
370
     0
100
AcDbLine
 10
63.0216166754
 20
90.4620649398
 30
0.0
 11
63.0216166754
 21
92.6035513093
 31
0.0
  0
LINE
  5
11E
330
1F
100
AcDbEntity
  8
0
  6
HIDDEN
 62
     7
370
     0
100
AcDbLine
 10
49.5716166754
 20
90.4620649398
 30
0.0
 11
49.5716166754
 21
93.295359782
 31
0.0
  0
LINE
  5
11F
330
1F
100
AcDbEntity
  8
0
  6
HIDDEN
 62
     7
370
     0
100
AcDbLine
 10
49.5716166754
 20
145.2020649398
 30
0.0
 11
49.5716166754
 21
142.3687700975
 31
0.0
  0
LINE
  5
120
330
1F
100
AcDbEntity
  8
0
  6
HIDDEN
 62
     7
370
     0
100
AcDbLine
 10
58.0216166754
 20
145.2020649398
 30
0.0
 11
58.0216166754
 21
143.0605785702
 31
0.0
  0
LINE
  5
121
330
1F
100
AcDbEntity
  8
0
  6
HIDDEN
 62
     7
370
     0
100
AcDbLine
 10
126.7716166754
 20
161.7320649398
 30
0.0
 11
112.7716166754
 21
161.7320649398
 31
0.0
  0
LINE
  5
122
330
1F
100
AcDbEntity
  8
0
  6
HIDDEN
 62
     7
370
     0
100
AcDbLine
 10
112.7716166754
 20
161.7320649398
 30
0.0
 11
102.7716166754
 21
161.7320649398
 31
0.0
  0
LWPOLYLINE
  5
123
330
1F
100
AcDbEntity
  8
0
  6
HIDDEN
 62
     7
370
     0
100
AcDbPolyline
 90
       17
 70
   128
 43
0.0
 10
222.8216166754
 20
109.3467835655
 10
222.2475915268
 20
109.4275215136
 10
221.7609565036
 20
109.6574437373
 10
221.4357973766
 20
110.0015466622
 10
221.3216166754
 20
110.4074437373
 10
221.4357973766
 20
110.8133408124
 10
221.7609565036
 20
111.1574437373
 10
222.2475915268
 20
111.387365961
 10
222.8216166754
 20
111.4681039091
 10
223.3956418239
 20
111.387365961
 10
223.8822768472
 20
111.1574437373
 10
224.2074359742
 20
110.8133408124
 10
224.3216166754
 20
110.4074437373
 10
224.2074359742
 20
110.0015466622
 10
223.8822768472
 20
109.6574437373
 10
223.3956418239
 20
109.4275215136
 10
222.8216166754
 20
109.3467835655
  0
SPLINE
  5
124
330
1F
100
AcDbEntity
  8
0
  6
HIDDEN
 62
     7
370
     0
100
AcDbSpline
210
0.0
220
0.0
230
1.0
 70
     8
 71
     3
 72
    14
 73
    10
 74
     0
 42
0.00000001
 43
0.00000001
 40
0.0
 40
0.0
 40
0.0
 40
0.0
 40
0.25
 40
0.25
 40
0.5
 40
0.5
 40
0.75
 40
0.75
 40
1.0
 40
1.0
 40
1.0
 40
1.0
 10
221.8678745375295
 20
111.6151563327601
 30
0.0
 10
221.9056215151169
 20
111.6482720046839
 30
0.0
 10
221.9387207073154
 20
111.6889416624461
 30
0.0
 10
221.9846911612228
 20
111.7902123451429
 30
0.0
 10
221.9959191321447
 20
111.8488579248197
 30
0.0
 10
221.9870652307276
 20
111.9825296736484
 30
0.0
 10
221.9670457809528
 20
112.0550176398138
 30
0.0
 10
221.9074880870863
 20
112.205300212426
 30
0.0
 10
221.8693218837846
 20
112.2813384085862
 30
0.0
 10
221.8278664694366
 20
112.359334388933
 30
0.0
  0
SPLINE
  5
125
330
1F
100
AcDbEntity
  8
0
  6
HIDDEN
 62
     7
370
     0
100
AcDbSpline
210
0.0
220
0.0
230
1.0
 70
     8
 71
     3
 72
    14
 73
    10
 74
     0
 42
0.00000001
 43
0.00000001
 40
0.0
 40
0.0
 40
0.0
 40
0.0
 40
0.25
 40
0.25
 40
0.5
 40
0.5
 40
0.75
 40
0.75
 40
1.0
 40
1.0
 40
1.0
 40
1.0
 10
221.8278664694366
 20
112.3593343889328
 30
0.0
 10
221.793302043034
 20
112.3228749951628
 30
0.0
 10
221.7599118392858
 20
112.2879024639357
 30
0.0
 10
221.7043150936208
 20
112.2093160757444
 30
0.0
 10
221.6811827658905
 20
112.164306378339
 30
0.0
 10
221.6926190554244
 20
112.0210539972992
 30
0.0
 10
221.723662635976
 20
111.9358856695403
 30
0.0
 10
221.7905187449169
 20
111.7738897797845
 30
0.0
 10
221.8285208732773
 20
111.6937990292621
 30
0.0
 10
221.8678745375291
 20
111.6151563327583
 30
0.0
  0
SPLINE
  5
126
330
1F
100
AcDbEntity
  8
0
  6
HIDDEN
 62
     7
370
     0
100
AcDbSpline
210
0.0
220
0.0
230
1.0
 70
     8
 71
     3
 72
    48
 73
    44
 74
     0
 42
0.00000001
 43
0.00000001
 40
-0.0624999999999979
 40
-0.0624999999999979
 40
0.0
 40
0.0
 40
0.0312499999999988
 40
0.0312499999999988
 40
0.0624999999999976
 40
0.0624999999999976
 40
0.1249999999999956
 40
0.1249999999999956
 40
0.1874999999999935
 40
0.1874999999999935
 40
0.2499999999999914
 40
0.2499999999999914
 40
0.3124999999999893
 40
0.3124999999999893
 40
0.3437499999999903
 40
0.3437499999999903
 40
0.3749999999999914
 40
0.3749999999999914
 40
0.4062499999999925
 40
0.4062499999999925
 40
0.4374999999999934
 40
0.4374999999999934
 40
0.4999999999999956
 40
0.4999999999999956
 40
0.5624999999999977
 40
0.5624999999999977
 40
0.6249999999999997
 40
0.6249999999999997
 40
0.6875000000000018
 40
0.6875000000000018
 40
0.7500000000000039
 40
0.7500000000000039
 40
0.812500000000006
 40
0.812500000000006
 40
0.843750000000005
 40
0.843750000000005
 40
0.875000000000004
 40
0.875000000000004
 40
0.9062500000000031
 40
0.9062500000000031
 40
0.9375000000000021
 40
0.9375000000000021
 40
1.0
 40
1.0
 40
1.031249999999999
 40
1.031249999999999
 10
223.952406652739
 20
111.574754040002
 30
0.0
 10
224.074474483256
 20
111.5781453652239
 30
0.0
 10
224.1129368131736
 20
111.5865921811702
 30
0.0
 10
224.1830862889401
 20
111.6188670452244
 30
0.0
 10
224.2151034217152
 20
111.6431398026902
 30
0.0
 10
224.2938390086329
 20
111.7399624642115
 30
0.0
 10
224.3235674094537
 20
111.8391121019465
 30
0.0
 10
224.3194556554236
 20
112.0880339037162
 30
0.0
 10
224.2854095627582
 20
112.2386353508107
 30
0.0
 10
224.1740434042335
 20
112.5475505213393
 30
0.0
 10
224.0976444806428
 20
112.7063104009651
 30
0.0
 10
223.9344713003785
 20
113.0140816478034
 30
0.0
 10
223.845831834363
 20
113.1648191807135
 30
0.0
 10
223.7366177336339
 20
113.3827443942361
 30
0.0
 10
223.7036961859221
 20
113.4559000539285
 30
0.0
 10
223.6592454729222
 20
113.5954366975743
 30
0.0
 10
223.6480126544981
 20
113.6634373329429
 30
0.0
 10
223.6548004529221
 20
113.783370844454
 30
0.0
 10
223.6725474162077
 20
113.8367895791089
 30
0.0
 10
223.7246979426805
 20
113.9249366574384
 30
0.0
 10
223.7590711071477
 20
113.9610588435227
 30
0.0
 10
223.8710177678457
 20
114.0471581938735
 30
0.0
 10
223.9565017449991
 20
114.0762552112678
 30
0.0
 10
224.1146532228996
 20
114.0797938067026
 30
0.0
 10
224.1868980983345
 20
114.0538289532224
 30
0.0
 10
224.2925881547195
 20
113.9321318892751
 30
0.0
 10
224.3230872004777
 20
113.8352831300473
 30
0.0
 10
224.3200308245598
 20
113.5861340595801
 30
0.0
 10
224.2861081741654
 20
113.4331987367134
 30
0.0
 10
224.1761427465672
 20
113.1203178405471
 30
0.0
 10
224.1009874811745
 20
112.9593619184878
 30
0.0
 10
223.942227551428
 20
112.6498594562838
 30
0.0
 10
223.8555828307863
 20
112.496980989753
 30
0.0
 10
223.7471126963406
 20
112.2783573742611
 30
0.0
 10
223.7141631296898
 20
112.2062103884759
 30
0.0
 10
223.6653735899295
 20
112.0638623786141
 30
0.0
 10
223.6507819958059
 20
111.9955737266931
 30
0.0
 10
223.6507637589743
 20
111.8704929647038
 30
0.0
 10
223.6654459859335
 20
111.8156314092232
 30
0.0
 10
223.7154583619581
 20
111.7236853857758
 30
0.0
 10
223.7494446679888
 20
111.6873668207034
 30
0.0
 10
223.8637422365813
 20
111.6008937317643
 30
0.0
 10
223.952406652739
 20
111.574754040002
 30
0.0
 10
224.074474483256
 20
111.5781453652239
 30
0.0
  0
SPLINE
  5
127
330
1F
100
AcDbEntity
  8
0
  6
HIDDEN
 62
     7
370
     0
100
AcDbSpline
210
0.0
220
0.0
230
1.0
 70
     8
 71
     3
 72
     8
 73
     4
 74
     0
 42
0.00000001
 43
0.00000001
 40
0.0
 40
0.0
 40
0.0
 40
0.0
 40
1.0
 40
1.0
 40
1.0
 40
1.0
 10
224.0636507145979
 20
116.1880195853465
 30
0.0
 10
224.0217822877835
 20
116.2322051788835
 30
0.0
 10
223.9760103686976
 20
116.2785110529488
 30
0.0
 10
223.9268426572676
 20
116.3286367018896
 30
0.0
  0
SPLINE
  5
128
330
1F
100
AcDbEntity
  8
0
  6
HIDDEN
 62
     7
370
     0
100
AcDbSpline
210
0.0
220
0.0
230
1.0
 70
     8
 71
     3
 72
    34
 73
    30
 74
     0
 42
0.00000001
 43
0.00000001
 40
0.0
 40
0.0
 40
0.0
 40
0.0
 40
0.0624999999999964
 40
0.0624999999999964
 40
0.1249999999999929
 40
0.1249999999999929
 40
0.1874999999999893
 40
0.1874999999999893
 40
0.2499999999999915
 40
0.2499999999999915
 40
0.3749999999999958
 40
0.3749999999999958
 40
0.4374999999999979
 40
0.4374999999999979
 40
0.5
 40
0.5
 40
0.5625000000000021
 40
0.5625000000000021
 40
0.6250000000000042
 40
0.6250000000000042
 40
0.6875000000000063
 40
0.6875000000000063
 40
0.7500000000000084
 40
0.7500000000000084
 40
0.8125000000000105
 40
0.8125000000000105
 40
0.875000000000007
 40
0.875000000000007
 40
1.0
 40
1.0
 40
1.0
 40
1.0
 10
223.9268426572676
 20
116.3286367018896
 30
0.0
 10
223.8259393361576
 20
116.4315059285392
 30
0.0
 10
223.7116525759885
 20
116.522442780118
 30
0.0
 10
223.4547577571342
 20
116.6750583927577
 30
0.0
 10
223.3150527606485
 20
116.7343177778401
 30
0.0
 10
223.0218455436782
 20
116.8078871433655
 30
0.0
 10
222.8674507647904
 20
116.8216472306821
 30
0.0
 10
222.5654339768299
 20
116.7989999605045
 30
0.0
 10
222.4148130419785
 20
116.7624181474229
 30
0.0
 10
221.996470804129
 20
116.592702374983
 30
0.0
 10
221.7545957200548
 20
116.3978120653139
 30
0.0
 10
221.5029236509477
 20
116.0708585679298
 30
0.0
 10
221.4355690033198
 20
115.9534213268742
 30
0.0
 10
221.3456932001579
 20
115.7234012932837
 30
0.0
 10
221.3218306414722
 20
115.6074920658386
 30
0.0
 10
221.3214056493487
 20
115.392703873877
 30
0.0
 10
221.3446396825615
 20
115.2924760812182
 30
0.0
 10
221.4344141083344
 20
115.1165512369832
 30
0.0
 10
221.5009655780687
 20
115.0403123967994
 30
0.0
 10
221.6693205719953
 20
114.9131359790408
 30
0.0
 10
221.771134373918
 20
114.8618868559563
 30
0.0
 10
222.0031753696124
 20
114.7809264052531
 30
0.0
 10
222.131018727012
 20
114.7516298647315
 30
0.0
 10
222.4126662181404
 20
114.7097913862935
 30
0.0
 10
222.5589306565217
 20
114.6982670863679
 30
0.0
 10
222.8631285617275
 20
114.6904524877658
 30
0.0
 10
223.0162175872685
 20
114.6944893386313
 30
0.0
 10
223.4590660988803
 20
114.7316532507415
 30
0.0
 10
223.7247969182684
 20
114.7890113072421
 30
0.0
 10
223.9268426572676
 20
114.8944292350447
 30
0.0
  0
SPLINE
  5
129
330
1F
100
AcDbEntity
  8
0
  6
HIDDEN
 62
     7
370
     0
100
AcDbSpline
210
0.0
220
0.0
230
1.0
 70
     8
 71
     3
 72
     8
 73
     4
 74
     0
 42
0.00000001
 43
0.00000001
 40
0.0
 40
0.0
 40
0.0
 40
0.0
 40
1.0
 40
1.0
 40
1.0
 40
1.0
 10
223.9268426572676
 20
114.8944292350447
 30
0.0
 10
223.9760103686976
 20
114.9200826256058
 30
0.0
 10
224.0217822877835
 20
114.9553508610466
 30
0.0
 10
224.0636507145979
 20
114.9986067508416
 30
0.0
  0
SPLINE
  5
12A
330
1F
100
AcDbEntity
  8
0
  6
HIDDEN
 62
     7
370
     0
100
AcDbSpline
210
0.0
220
0.0
230
1.0
 70
     8
 71
     3
 72
    14
 73
    10
 74
     0
 42
0.00000001
 43
0.00000001
 40
0.0
 40
0.0
 40
0.0
 40
0.0
 40
0.2499999999999998
 40
0.2499999999999998
 40
0.4999999999999999
 40
0.4999999999999999
 40
0.7499999999999999
 40
0.7499999999999999
 40
1.0
 40
1.0
 40
1.0
 40
1.0
 10
224.0636507145979
 20
114.9986067508416
 30
0.0
 10
224.1478145427313
 20
115.0855596542934
 30
0.0
 10
224.211599223306
 20
115.1767160411739
 30
0.0
 10
224.2992466793369
 20
115.3731539031658
 30
0.0
 10
224.3214776695656
 20
115.4760405023595
 30
0.0
 10
224.3217543801092
 20
115.686107291159
 30
0.0
 10
224.2994451957846
 20
115.7936394980951
 30
0.0
 10
224.2128869304759
 20
115.9991458905062
 30
0.0
 10
224.1478097364021
 20
116.0992028656164
 30
0.0
 10
224.0636507145979
 20
116.1880195853465
 30
0.0
  0
SPLINE
  5
12B
330
1F
100
AcDbEntity
  8
0
  6
HIDDEN
 62
     7
370
     0
100
AcDbSpline
210
0.0
220
0.0
230
1.0
 70
     8
 71
     3
 72
    12
 73
     8
 74
     0
 42
0.00000001
 43
0.00000001
 40
0.0
 40
0.0
 40
0.0
 40
0.0
 40
0.5000000000000009
 40
0.5000000000000009
 40
0.7500000000000004
 40
0.7500000000000004
 40
1.0
 40
1.0
 40
1.0
 40
1.0
 10
221.8278664694366
 20
113.9483344066627
 30
0.0
 10
221.9106731146698
 20
113.8961119285523
 30
0.0
 10
221.9822565587845
 20
113.8094519961452
 30
0.0
 10
221.9960231284965
 20
113.62031282588
 30
0.0
 10
221.9846826889802
 20
113.5510573423345
 30
0.0
 10
221.9387200261944
 20
113.4043338526224
 30
0.0
 10
221.9056243037923
 20
113.3295537874663
 30
0.0
 10
221.8678745375296
 20
113.2524565095603
 30
0.0
  0
SPLINE
  5
12C
330
1F
100
AcDbEntity
  8
0
  6
HIDDEN
 62
     7
370
     0
100
AcDbSpline
210
0.0
220
0.0
230
1.0
 70
     8
 71
     3
 72
    18
 73
    14
 74
     0
 42
0.00000001
 43
0.00000001
 40
0.0
 40
0.0
 40
0.0
 40
0.0
 40
0.2500000000000125
 40
0.2500000000000125
 40
0.3750000000000127
 40
0.3750000000000127
 40
0.5000000000000128
 40
0.5000000000000128
 40
0.6250000000000128
 40
0.6250000000000128
 40
0.7500000000000129
 40
0.7500000000000129
 40
1.0
 40
1.0
 40
1.0
 40
1.0
 10
221.8678745375295
 20
113.2524565095601
 30
0.0
 10
221.8284261614011
 20
113.2853304036383
 30
0.0
 10
221.7902694808974
 20
113.3162189027332
 30
0.0
 10
221.7400391996633
 20
113.3664532700795
 30
0.0
 10
221.7245098878261
 20
113.3838494533151
 30
0.0
 10
221.699250483835
 20
113.4250923890188
 30
0.0
 10
221.6896788145253
 20
113.4495579435085
 30
0.0
 10
221.6840947066086
 20
113.5108841817364
 30
0.0
 10
221.6884260533819
 20
113.5483223822581
 30
0.0
 10
221.7058291874742
 20
113.6262058290228
 30
0.0
 10
221.7184382325922
 20
113.6669593873121
 30
0.0
 10
221.760139179466
 20
113.7880787565049
 30
0.0
 10
221.7933783766658
 20
113.8688182766896
 30
0.0
 10
221.8278664694366
 20
113.9483344066627
 30
0.0
  0
SPLINE
  5
12D
330
1F
100
AcDbEntity
  8
0
  6
HIDDEN
 62
     7
370
     0
100
AcDbSpline
210
0.0
220
0.0
230
1.0
 70
     8
 71
     3
 72
    10
 73
     6
 74
     0
 42
0.00000001
 43
0.00000001
 40
0.0
 40
0.0
 40
0.0
 40
0.0
 40
0.5
 40
0.5
 40
1.0
 40
1.0
 40
1.0
 40
1.0
 10
221.3216166753869
 20
113.0330476323847
 30
0.0
 10
221.3216166753869
 20
113.0578711631607
 30
0.0
 10
221.322846824295
 20
113.0804097212991
 30
0.0
 10
221.3275816129731
 20
113.1211580185606
 30
0.0
 10
221.3310872404168
 20
113.1393698364451
 30
0.0
 10
221.3356564806281
 20
113.1553785472547
 30
0.0
  0
SPLINE
  5
12E
330
1F
100
AcDbEntity
  8
0
  6
HIDDEN
 62
     7
370
     0
100
AcDbSpline
210
0.0
220
0.0
230
1.0
 70
     8
 71
     3
 72
    18
 73
    14
 74
     0
 42
0.00000001
 43
0.00000001
 40
0.0
 40
0.0
 40
0.0
 40
0.0
 40
0.0772759599426569
 40
0.1655767670744099
 40
0.225118795867153
 40
0.2700431158235958
 40
0.3151044203741
 40
0.3748376078086263
 40
0.4788024122396466
 40
0.6283518597251467
 40
0.7774437918839822
 40
0.9120098986051177
 40
1.0
 40
1.0
 40
1.0
 40
1.0
 10
221.3532943546538
 20
113.1861322437673
 30
0.0
 10
221.3594898677801
 20
113.1996690410698
 30
0.0
 10
221.3727647987491
 20
113.2286739105732
 30
0.0
 10
221.3983980665909
 20
113.230133339409
 30
0.0
 10
221.4161457682211
 20
113.2110053054064
 30
0.0
 10
221.4230942347275
 20
113.1736417447529
 30
0.0
 10
221.4201996781545
 20
113.1169030196323
 30
0.0
 10
221.4041118791045
 20
113.0223068506356
 30
0.0
 10
221.3711164034134
 20
112.8739029551754
 30
0.0
 10
221.3338249583128
 20
112.6864383666475
 30
0.0
 10
221.3172484474123
 20
112.5113031456033
 30
0.0
 10
221.3265523939309
 20
112.3977469894069
 30
0.0
 10
221.3453274887529
 20
112.3683504906117
 30
0.0
 10
221.3527504337746
 20
112.3567282540021
 30
0.0
  0
LWPOLYLINE
  5
12F
330
1F
100
AcDbEntity
  8
0
  6
HIDDEN
 62
     7
370
     0
100
AcDbPolyline
 90
       10
 70
   128
 43
0.0
 10
221.3628620645
 20
112.3362592123
 10
221.3996741255
 20
112.3300359689
 10
221.4147320267
 20
112.35081712
 10
221.4214827434
 20
112.3864235484
 10
221.4190319057
 20
112.4412401789
 10
221.4069734193
 20
112.5144681918
 10
221.3790212644
 20
112.6429596133
 10
221.3395950827
 20
112.8404239587
 10
221.3216166754
 20
113.0330476324
 10
221.3216166754
 20
113.0330476324
  0
SPLINE
  5
130
330
1F
100
AcDbEntity
  8
0
  6
HIDDEN
 62
     7
370
     0
100
AcDbSpline
210
0.0
220
0.0
230
1.0
 70
     8
 71
     3
 72
    30
 73
    26
 74
     0
 42
0.00000001
 43
0.00000001
 40
0.0
 40
0.0
 40
0.0
 40
0.0
 40
0.0531667895944306
 40
0.1125460296559538
 40
0.1779415679821296
 40
0.2129647100201478
 40
0.2495168542536672
 40
0.2912815776497699
 40
0.3261229899598991
 40
0.3540373789034075
 40
0.3750220973121863
 40
0.4414779749354779
 40
0.5001939956662949
 40
0.5547072327721178
 40
0.6144498286121054
 40
0.679473417768819
 40
0.7140294887762105
 40
0.7499254981893783
 40
0.7913888898760563
 40
0.8260548959441428
 40
0.8539197326816724
 40
0.8749805480645612
 40
0.9411652353121804
 40
0.9999141591644691
 40
1.0
 40
1.0
 40
1.0
 40
1.0
 10
88.82119350173647
 20
80.7321279578079
 30
0.0
 10
88.80499197350284
 20
80.73703010925745
 30
0.0
 10
88.77069579555106
 20
80.74740722035683
 30
0.0
 10
88.4693492010608
 20
80.82306848279808
 30
0.0
 10
88.02717693484205
 20
80.91935561550703
 30
0.0
 10
87.53234476365903
 20
81.01902032525358
 30
0.0
 10
87.06186896346105
 20
81.11129849809751
 30
0.0
 10
86.5309475778091
 20
81.20693052295297
 30
0.0
 10
85.99279706681092
 20
81.29258076782241
 30
0.0
 10
85.53474973423744
 20
81.35987256049079
 30
0.0
 10
84.87918541263619
 20
81.44822072956303
 30
0.0
 10
83.99587897494285
 20
81.54487881374823
 30
0.0
 10
82.86721724213443
 20
81.63165399053123
 30
0.0
 10
81.7774554924121
 20
81.66973268823932
 30
0.0
 10
80.68142721397483
 20
81.67158312300427
 30
0.0
 10
79.7760359670329
 20
81.64542166741877
 30
0.0
 10
79.07973325661756
 20
81.60881444228993
 30
0.0
 10
78.55305352834256
 20
81.56979756681285
 30
0.0
 10
78.08640741330991
 20
81.52758843934093
 30
0.0
 10
77.7151921375861
 20
81.49058434977154
 30
0.0
 10
77.46114566034404
 20
81.46188358932716
 30
0.0
 10
77.16009050763465
 20
81.4255036387375
 30
0.0
 10
76.90460671283101
 20
81.39272347174861
 30
0.0
 10
76.80538598788486
 20
81.3763855870461
 30
0.0
 10
76.82166654516797
 20
81.37897917321519
 30
0.0
 10
76.82169029875394
 20
81.37898295729771
 30
0.0
  0
SPLINE
  5
131
330
1F
100
AcDbEntity
  8
0
  6
HIDDEN
 62
     7
370
     0
100
AcDbSpline
210
0.0
220
0.0
230
1.0
 70
     8
 71
     3
 72
    30
 73
    26
 74
     0
 42
0.00000001
 43
0.00000001
 40
0.0
 40
0.0
 40
0.0
 40
0.0
 40
0.0001123288057695
 40
0.0285431152663135
 40
0.0588466796063202
 40
0.091027196450477
 40
0.1250880910051604
 40
0.1546766141497773
 40
0.1963554560485685
 40
0.2501101496291966
 40
0.320525387238388
 40
0.3856104300246703
 40
0.445403860889207
 40
0.4999571692316274
 40
0.5283494388508946
 40
0.558634027028705
 40
0.5908185964995195
 40
0.6249094714581434
 40
0.6541844575853767
 40
0.6958630078636641
 40
0.7499307292180327
 40
0.8215905285694356
 40
0.8871422909715975
 40
0.9466378748868088
 40
1.0
 40
1.0
 40
1.0
 40
1.0
 10
76.82171200748725
 20
154.2850766487834
 30
0.0
 10
76.82168014772911
 20
154.2850835959096
 30
0.0
 10
76.81358447945824
 20
154.2868488833018
 30
0.0
 10
76.84224595712764
 20
154.2813939645769
 30
0.0
 10
76.91563280328187
 20
154.2708511172307
 30
0.0
 10
77.05928934683261
 20
154.2511659095773
 30
0.0
 10
77.2603250467901
 20
154.226326645722
 30
0.0
 10
77.54295559605914
 20
154.1921181805832
 30
0.0
 10
77.9563647216338
 20
154.1484382838232
 30
0.0
 10
78.63265222281602
 20
154.0853952162899
 30
0.0
 10
79.57108312373197
 20
154.0240980458572
 30
0.0
 10
80.68057633722786
 20
153.9928096023567
 30
0.0
 10
81.7780570679166
 20
153.9944647699534
 30
0.0
 10
82.67808830637391
 20
154.0257709720507
 30
0.0
 10
83.38942923222484
 20
154.0726041208532
 30
0.0
 10
83.95484613321561
 20
154.1197709827491
 30
0.0
 10
84.54376955604394
 20
154.1792099892991
 30
0.0
 10
85.10817920852143
 20
154.2455671959071
 30
0.0
 10
85.70237540245762
 20
154.3274866023386
 30
0.0
 10
86.3689835634281
 20
154.4291345850891
 30
0.0
 10
87.17031630912834
 20
154.5712734956893
 30
0.0
 10
87.92282629363626
 20
154.7225180664557
 30
0.0
 10
88.46811278860244
 20
154.8403689397151
 30
0.0
 10
88.77083432010129
 20
154.9165981714644
 30
0.0
 10
88.80512477071431
 20
154.9270504809589
 30
0.0
 10
88.82133820736435
 20
154.9319926107591
 30
0.0
  0
ARC
  5
132
330
1F
100
AcDbEntity
  8
0
  6
HIDDEN
 62
     7
370
     0
100
AcDbCircle
 10
208.8092054636
 20
112.8507642356
 30
0.0
 40
13.06484575744483
100
AcDbArc
 50
1.7618960119
 51
4.8190653226
  0
LINE
  5
133
330
1F
100
AcDbEntity
  8
0
  6
HIDDEN
 62
     7
370
     0
100
AcDbLine
 10
155.9216166754
 20
111.8320649398
 30
0.0
 11
155.9216166754
 21
123.8320649398
 31
0.0
  0
LINE
  5
134
330
1F
100
AcDbEntity
  8
0
  6
HIDDEN
 62
     7
370
     0
100
AcDbLine
 10
158.2649730896
 20
115.7320649398
 30
0.0
 11
158.2649730896
 21
119.9320649398
 31
0.0
  0
ARC
  5
135
330
1F
100
AcDbEntity
  8
0
  6
HIDDEN
 62
     7
370
     0
100
AcDbCircle
 10
237.9579495941
 20
112.8533460687
 30
0.0
 40
16.13764633239434
100
AcDbArc
 50
181.7542339436
 51
184.4004458049
  0
LINE
  5
136
330
1F
100
AcDbEntity
  8
0
  6
HIDDEN
 62
     7
370
     0
100
AcDbLine
 10
220.8216166754
 20
114.9320649398
 30
0.0
 11
220.8216166754
 21
120.7320645904
 31
0.0
  0
SPLINE
  5
137
330
1F
100
AcDbEntity
  8
0
  6
HIDDEN
 62
     7
370
     0
100
AcDbSpline
210
0.0
220
0.0
230
1.0
 70
     8
 71
     3
 72
    34
 73
    30
 74
     0
 42
0.00000001
 43
0.00000001
 40
0.0
 40
0.0
 40
0.0
 40
0.0
 40
0.0624999999999957
 40
0.0624999999999957
 40
0.1249999999999914
 40
0.1249999999999914
 40
0.1874999999999871
 40
0.1874999999999871
 40
0.2499999999999885
 40
0.2499999999999885
 40
0.3749999999999912
 40
0.3749999999999912
 40
0.4374999999999927
 40
0.4374999999999927
 40
0.4999999999999941
 40
0.4999999999999941
 40
0.5624999999999956
 40
0.5624999999999956
 40
0.624999999999997
 40
0.624999999999997
 40
0.6874999999999984
 40
0.6874999999999984
 40
0.7499999999999999
 40
0.7499999999999999
 40
0.8125000000000014
 40
0.8125000000000014
 40
0.8749999999999973
 40
0.8749999999999973
 40
1.0
 40
1.0
 40
1.0
 40
1.0
 10
223.9268426572676
 20
119.3354931776204
 30
0.0
 10
223.8259393361576
 20
119.2326239509709
 30
0.0
 10
223.7116525759884
 20
119.141687099392
 30
0.0
 10
223.4547577571342
 20
118.9890714867524
 30
0.0
 10
223.3150527606485
 20
118.92981210167
 30
0.0
 10
223.0218455436782
 20
118.8562427361446
 30
0.0
 10
222.8674507647904
 20
118.842482648828
 30
0.0
 10
222.5654339768299
 20
118.8651299190055
 30
0.0
 10
222.4148130419785
 20
118.9017117320871
 30
0.0
 10
221.9964708041289
 20
119.0714275045271
 30
0.0
 10
221.7545957200548
 20
119.2663178141962
 30
0.0
 10
221.5029236509477
 20
119.5932713115803
 30
0.0
 10
221.4355690033198
 20
119.7107085526358
 30
0.0
 10
221.3456932001579
 20
119.9407285862263
 30
0.0
 10
221.3218306414722
 20
120.0566378136715
 30
0.0
 10
221.3214056493487
 20
120.271426005633
 30
0.0
 10
221.3446396825615
 20
120.3716537982919
 30
0.0
 10
221.4344141083344
 20
120.5475786425269
 30
0.0
 10
221.5009655780687
 20
120.6238174827107
 30
0.0
 10
221.6693205719953
 20
120.7509939004693
 30
0.0
 10
221.771134373918
 20
120.8022430235538
 30
0.0
 10
222.0031753696125
 20
120.883203474257
 30
0.0
 10
222.131018727012
 20
120.9125000147785
 30
0.0
 10
222.4126662181403
 20
120.9543384932166
 30
0.0
 10
222.5589306565217
 20
120.9658627931422
 30
0.0
 10
222.8631285617275
 20
120.9736773917443
 30
0.0
 10
223.0162175872685
 20
120.9696405408788
 30
0.0
 10
223.4590660988803
 20
120.9324766287686
 30
0.0
 10
223.7247969182684
 20
120.875118572268
 30
0.0
 10
223.9268426572676
 20
120.7697006444654
 30
0.0
  0
SPLINE
  5
138
330
1F
100
AcDbEntity
  8
0
  6
HIDDEN
 62
     7
370
     0
100
AcDbSpline
210
0.0
220
0.0
230
1.0
 70
     8
 71
     3
 72
     8
 73
     4
 74
     0
 42
0.00000001
 43
0.00000001
 40
0.0
 40
0.0
 40
0.0
 40
0.0
 40
1.0
 40
1.0
 40
1.0
 40
1.0
 10
223.9268426572676
 20
120.7697006444654
 30
0.0
 10
223.9760103686976
 20
120.7440472539043
 30
0.0
 10
224.0217822877835
 20
120.7087790184635
 30
0.0
 10
224.0636507145979
 20
120.6655231286685
 30
0.0
  0
SPLINE
  5
139
330
1F
100
AcDbEntity
  8
0
  6
HIDDEN
 62
     7
370
     0
100
AcDbSpline
210
0.0
220
0.0
230
1.0
 70
     8
 71
     3
 72
    14
 73
    10
 74
     0
 42
0.00000001
 43
0.00000001
 40
0.0
 40
0.0
 40
0.0
 40
0.0
 40
0.25
 40
0.25
 40
0.5
 40
0.5
 40
0.75
 40
0.75
 40
1.0
 40
1.0
 40
1.0
 40
1.0
 10
224.0636507145979
 20
120.6655231286685
 30
0.0
 10
224.1478145427313
 20
120.5785702252167
 30
0.0
 10
224.211599223306
 20
120.4874138383361
 30
0.0
 10
224.299246679337
 20
120.2909759763443
 30
0.0
 10
224.3214776695656
 20
120.1880893771506
 30
0.0
 10
224.3217543801091
 20
119.9780225883511
 30
0.0
 10
224.2994451957846
 20
119.870490381415
 30
0.0
 10
224.2128869304759
 20
119.6649839890039
 30
0.0
 10
224.1478097364021
 20
119.5649270138936
 30
0.0
 10
224.0636507145979
 20
119.4761102941636
 30
0.0
  0
LINE
  5
13A
330
1F
100
AcDbEntity
  8
0
  6
HIDDEN
 62
     7
370
     0
100
AcDbLine
 10
224.8216166754
 20
114.8320649398
 30
0.0
 11
224.8216166754
 21
120.8320649398
 31
0.0
  0
LINE
  5
13B
330
1F
100
AcDbEntity
  8
0
  6
HIDDEN
 62
     7
370
     0
100
AcDbLine
 10
169.2716166754
 20
103.4094152089
 30
0.0
 11
164.2716166754
 21
103.4094152089
 31
0.0
  0
LINE
  5
13C
330
1F
100
AcDbEntity
  8
0
  6
HIDDEN
 62
     7
370
     0
100
AcDbLine
 10
166.7716166754
 20
132.2547146706
 30
0.0
 11
169.2716166754
 21
132.2547146706
 31
0.0
  0
LINE
  5
13D
330
1F
100
AcDbEntity
  8
0
  6
HIDDEN
 62
     7
370
     0
100
AcDbLine
 10
164.2716166754
 20
132.2547146706
 30
0.0
 11
166.7716166754
 21
132.2547146706
 31
0.0
  0
LINE
  5
13E
330
1F
100
AcDbEntity
  8
0
  6
HIDDEN
 62
     7
370
     0
100
AcDbLine
 10
166.7716166754
 20
123.8320649398
 30
0.0
 11
169.2716166754
 21
123.8320649398
 31
0.0
  0
LINE
  5
13F
330
1F
100
AcDbEntity
  8
0
  6
HIDDEN
 62
     7
370
     0
100
AcDbLine
 10
164.2716166754
 20
123.8320649398
 30
0.0
 11
166.7716166754
 21
123.8320649398
 31
0.0
  0
LINE
  5
140
330
1F
100
AcDbEntity
  8
0
  6
HIDDEN
 62
     7
370
     0
100
AcDbLine
 10
169.2716166754
 20
111.8320649398
 30
0.0
 11
164.2716166754
 21
111.8320649398
 31
0.0
  0
SPLINE
  5
141
330
1F
100
AcDbEntity
  8
0
  6
HIDDEN
 62
     7
370
     0
100
AcDbSpline
210
0.0
220
0.0
230
1.0
 70
     8
 71
     3
 72
     8
 73
     4
 74
     0
 42
0.00000001
 43
0.00000001
 40
0.0
 40
0.0
 40
0.0
 40
0.0
 40
1.0
 40
1.0
 40
1.0
 40
1.0
 10
224.0636507145979
 20
119.4761102941636
 30
0.0
 10
224.0217822877835
 20
119.4319247006266
 30
0.0
 10
223.9760103686976
 20
119.3856188265613
 30
0.0
 10
223.9268426572676
 20
119.3354931776204
 30
0.0
  0
SPLINE
  5
142
330
1F
100
AcDbEntity
  8
0
  6
HIDDEN
 62
     7
370
     0
100
AcDbSpline
210
0.0
220
0.0
230
1.0
 70
     8
 71
     3
 72
    10
 73
     6
 74
     0
 42
0.00000001
 43
0.00000001
 40
0.0
 40
0.0
 40
0.0
 40
0.0
 40
0.5
 40
0.5
 40
1.0
 40
1.0
 40
1.0
 40
1.0
 10
221.3411609710259
 20
122.9521452832237
 30
0.0
 10
221.3311787257349
 20
123.014063681666
 30
0.0
 10
221.3246080954915
 20
123.0709650051138
 30
0.0
 10
221.3202229469965
 20
123.1737663614489
 30
0.0
 10
221.3225705920196
 20
123.2164956144298
 30
0.0
 10
221.3290827770055
 20
123.2506858905297
 30
0.0
  0
SPLINE
  5
143
330
1F
100
AcDbEntity
  8
0
  6
HIDDEN
 62
     7
370
     0
100
AcDbSpline
210
0.0
220
0.0
230
1.0
 70
     8
 71
     3
 72
    18
 73
    14
 74
     0
 42
0.00000001
 43
0.00000001
 40
0.0
 40
0.0
 40
0.0
 40
0.0
 40
0.0196114411167798
 40
0.1648741297061541
 40
0.2236902984682652
 40
0.2831430743180746
 40
0.3347406426486534
 40
0.393356017413739
 40
0.4938616378942444
 40
0.6439170356197684
 40
0.7947426143054852
 40
0.9415561435746832
 40
1.0
 40
1.0
 40
1.0
 40
1.0
 10
221.3522527110129
 20
123.3102328077958
 30
0.0
 10
221.3535674020425
 20
123.3138599535751
 30
0.0
 10
221.3646200594195
 20
123.3443535057889
 30
0.0
 10
221.3913726096645
 20
123.3444883579533
 30
0.0
 10
221.4149157806507
 20
123.3198006689772
 30
0.0
 10
221.4238569611957
 20
123.2792888971702
 30
0.0
 10
221.4191265221185
 20
123.2126392298595
 30
0.0
 10
221.400818307495
 20
123.1157189860556
 30
0.0
 10
221.3668649603227
 20
122.9703613507706
 30
0.0
 10
221.3303891784135
 20
122.7883620195569
 30
0.0
 10
221.317089214469
 20
122.6175124631195
 30
0.0
 10
221.3284245555628
 20
122.5093554096054
 30
0.0
 10
221.3476630745641
 20
122.484795810196
 30
0.0
 10
221.3531409444032
 20
122.4778028452565
 30
0.0
  0
LWPOLYLINE
  5
144
330
1F
100
AcDbEntity
  8
0
  6
HIDDEN
 62
     7
370
     0
100
AcDbPolyline
 90
        8
 70
   128
 43
0.0
 10
221.3765739678
 20
122.4412280464
 10
221.4018928081
 20
122.4401553918
 10
221.4167534108
 20
122.4620735296
 10
221.4217326875
 20
122.4967940891
 10
221.4189521007
 20
122.5468002226
 10
221.4056604721
 20
122.6287110338
 10
221.3739543743
 20
122.7801302719
 10
221.341160971
 20
122.9521452832
  0
SPLINE
  5
145
330
1F
100
AcDbEntity
  8
0
  6
HIDDEN
 62
     7
370
     0
100
AcDbSpline
210
0.0
220
0.0
230
1.0
 70
     8
 71
     3
 72
    12
 73
     8
 74
     0
 42
0.00000001
 43
0.00000001
 40
0.0
 40
0.0
 40
0.0
 40
0.0
 40
0.5000000000000017
 40
0.5000000000000017
 40
0.7500000000000008
 40
0.7500000000000008
 40
1.0
 40
1.0
 40
1.0
 40
1.0
 10
221.8278664694366
 20
121.7157954728473
 30
0.0
 10
221.9106731146698
 20
121.7680179509577
 30
0.0
 10
221.9822565587846
 20
121.8546778833648
 30
0.0
 10
221.9960231284965
 20
122.0438170536301
 30
0.0
 10
221.9846826889803
 20
122.1130725371756
 30
0.0
 10
221.9387200261943
 20
122.2597960268877
 30
0.0
 10
221.9056243037921
 20
122.334576092044
 30
0.0
 10
221.8678745375295
 20
122.41167336995
 30
0.0
  0
SPLINE
  5
146
330
1F
100
AcDbEntity
  8
0
  6
HIDDEN
 62
     7
370
     0
100
AcDbSpline
210
0.0
220
0.0
230
1.0
 70
     8
 71
     3
 72
    18
 73
    14
 74
     0
 42
0.00000001
 43
0.00000001
 40
0.0
 40
0.0
 40
0.0
 40
0.0
 40
0.2499999999999999
 40
0.2499999999999999
 40
0.3749999999999994
 40
0.3749999999999994
 40
0.4999999999999989
 40
0.4999999999999989
 40
0.6249999999999984
 40
0.6249999999999984
 40
0.7499999999999979
 40
0.7499999999999979
 40
1.0
 40
1.0
 40
1.0
 40
1.0
 10
221.8678745375294
 20
122.4116733699501
 30
0.0
 10
221.828426161401
 20
122.3787994758718
 30
0.0
 10
221.7902694808974
 20
122.3479109767769
 30
0.0
 10
221.7400391996633
 20
122.2976766094306
 30
0.0
 10
221.7245098878261
 20
122.2802804261951
 30
0.0
 10
221.699250483835
 20
122.2390374904913
 30
0.0
 10
221.6896788145252
 20
122.2145719360016
 30
0.0
 10
221.6840947066085
 20
122.1532456977737
 30
0.0
 10
221.6884260533818
 20
122.115807497252
 30
0.0
 10
221.7058291874741
 20
122.0379240504873
 30
0.0
 10
221.7184382325922
 20
121.9971704921981
 30
0.0
 10
221.7601391794659
 20
121.8760511230051
 30
0.0
 10
221.7933783766658
 20
121.7953116028204
 30
0.0
 10
221.8278664694366
 20
121.7157954728474
 30
0.0
  0
LWPOLYLINE
  5
147
330
1F
100
AcDbEntity
  8
0
  6
HIDDEN
 62
     7
370
     0
100
AcDbPolyline
 90
       17
 70
   128
 43
0.0
 10
222.8216166754
 20
123.1353657987
 10
223.3956418239
 20
123.2161037468
 10
223.8822768472
 20
123.4460259704
 10
224.2074359742
 20
123.7901288953
 10
224.3216166754
 20
124.1960259704
 10
224.2074359742
 20
124.6019230455
 10
223.8822768472
 20
124.9460259704
 10
223.3956418239
 20
125.1759481941
 10
222.8216166754
 20
125.2566861422
 10
222.2475915268
 20
125.1759481941
 10
221.7609565036
 20
124.9460259704
 10
221.4357973766
 20
124.6019230455
 10
221.3216166754
 20
124.1960259704
 10
221.4357973766
 20
123.7901288953
 10
221.7609565036
 20
123.4460259704
 10
222.2475915268
 20
123.2161037468
 10
222.8216166754
 20
123.1353657987
  0
SPLINE
  5
148
330
1F
100
AcDbEntity
  8
0
  6
HIDDEN
 62
     7
370
     0
100
AcDbSpline
210
0.0
220
0.0
230
1.0
 70
     8
 71
     3
 72
    48
 73
    44
 74
     0
 42
0.00000001
 43
0.00000001
 40
-0.0625000000000053
 40
-0.0625000000000053
 40
0.0
 40
0.0
 40
0.0624999999999979
 40
0.0624999999999979
 40
0.1249999999999958
 40
0.1249999999999958
 40
0.1874999999999937
 40
0.1874999999999937
 40
0.2499999999999916
 40
0.2499999999999916
 40
0.3124999999999895
 40
0.3124999999999895
 40
0.3437499999999885
 40
0.3437499999999885
 40
0.3749999999999876
 40
0.3749999999999876
 40
0.4062499999999866
 40
0.4062499999999866
 40
0.4374999999999857
 40
0.4374999999999857
 40
0.4999999999999841
 40
0.4999999999999841
 40
0.5624999999999826
 40
0.5624999999999826
 40
0.624999999999981
 40
0.624999999999981
 40
0.6562499999999801
 40
0.6562499999999801
 40
0.6874999999999793
 40
0.6874999999999793
 40
0.7499999999999818
 40
0.7499999999999818
 40
0.8124999999999842
 40
0.8124999999999842
 40
0.8437499999999868
 40
0.8437499999999868
 40
0.8749999999999895
 40
0.8749999999999895
 40
0.906249999999992
 40
0.906249999999992
 40
0.9374999999999947
 40
0.9374999999999947
 40
1.0
 40
1.0
 40
1.062499999999998
 40
1.062499999999998
 10
224.1153628844123
 20
122.9936091508279
 30
0.0
 10
223.9522075284218
 20
122.6815850233756
 30
0.0
 10
223.8645036191706
 20
122.5322537700759
 30
0.0
 10
223.7125117897196
 20
122.2367697334913
 30
0.0
 10
223.651624172028
 20
122.0918064065291
 30
0.0
 10
223.6499403355828
 20
121.8405643196691
 30
0.0
 10
223.7083870360866
 20
121.7482687280844
 30
0.0
 10
223.8534101054456
 20
121.6254728362638
 30
0.0
 10
223.9389292137062
 20
121.5927129086418
 30
0.0
 10
224.098221555984
 20
121.5811210212711
 30
0.0
 10
224.1729355977691
 20
121.6028681924972
 30
0.0
 10
224.2565900048197
 20
121.6874247544901
 30
0.0
 10
224.2791533626508
 20
121.7238169827067
 30
0.0
 10
224.3109903359821
 20
121.8137464375864
 30
0.0
 10
224.320141334599
 20
121.8679949158763
 30
0.0
 10
224.3227531087885
 20
121.9885582687796
 30
0.0
 10
224.3162981213953
 20
122.0566540564841
 30
0.0
 10
224.2891107709189
 20
122.2005431918837
 30
0.0
 10
224.2685909864489
 20
122.2762424272267
 30
0.0
 10
224.1901754169283
 20
122.5105917350715
 30
0.0
 10
224.1169894225516
 20
122.6712987198193
 30
0.0
 10
223.9600101668289
 20
122.9814449176931
 30
0.0
 10
223.8736348657793
 20
123.1344059041676
 30
0.0
 10
223.7245334115242
 20
123.4283663990804
 30
0.0
 10
223.6597810622562
 20
123.5756115339437
 30
0.0
 10
223.647608524991
 20
123.7674010496787
 30
0.0
 10
223.6579897528562
 20
123.8245235082452
 30
0.0
 10
223.7016306842088
 20
123.9215188039585
 30
0.0
 10
223.7334295584868
 20
123.9603231450261
 30
0.0
 10
223.8434831175489
 20
124.0541236519147
 30
0.0
 10
223.9311496244784
 20
124.084445961956
 30
0.0
 10
224.0958862920971
 20
124.0896927031958
 30
0.0
 10
224.1711994837512
 20
124.0638372316623
 30
0.0
 10
224.2559134296854
 20
123.9745123595734
 30
0.0
 10
224.2786104976094
 20
123.9369889448179
 30
0.0
 10
224.3108637656205
 20
123.8448617369723
 30
0.0
 10
224.3200225072683
 20
123.7904214957101
 30
0.0
 10
224.3228218061014
 20
123.6698237813819
 30
0.0
 10
224.316427864399
 20
123.6018809762126
 30
0.0
 10
224.2893348003167
 20
123.4594239619759
 30
0.0
 10
224.2687130285262
 20
123.3842955190174
 30
0.0
 10
224.1896182121858
 20
123.152426515159
 30
0.0
 10
224.1153628844123
 20
122.9936091508279
 30
0.0
 10
223.9522075284218
 20
122.6815850233756
 30
0.0
  0
SPLINE
  5
149
330
1F
100
AcDbEntity
  8
0
  6
HIDDEN
 62
     7
370
     0
100
AcDbSpline
210
0.0
220
0.0
230
1.0
 70
     8
 71
     3
 72
    14
 73
    10
 74
     0
 42
0.00000001
 43
0.00000001
 40
0.0
 40
0.0
 40
0.0
 40
0.0
 40
0.25
 40
0.25
 40
0.5
 40
0.5
 40
0.75
 40
0.75
 40
1.0
 40
1.0
 40
1.0
 40
1.0
 10
221.8678745375295
 20
124.0489735467498
 30
0.0
 10
221.9056215151169
 20
124.015857874826
 30
0.0
 10
221.9387207073155
 20
123.9751882170638
 30
0.0
 10
221.9846911612228
 20
123.873917534367
 30
0.0
 10
221.9959191321446
 20
123.8152719546902
 30
0.0
 10
221.9870652307275
 20
123.6816002058616
 30
0.0
 10
221.9670457809527
 20
123.6091122396962
 30
0.0
 10
221.9074880870862
 20
123.458829667084
 30
0.0
 10
221.8693218837847
 20
123.3827914709241
 30
0.0
 10
221.8278664694367
 20
123.3047954905774
 30
0.0
  0
SPLINE
  5
14A
330
1F
100
AcDbEntity
  8
0
  6
HIDDEN
 62
     7
370
     0
100
AcDbSpline
210
0.0
220
0.0
230
1.0
 70
     8
 71
     3
 72
    14
 73
    10
 74
     0
 42
0.00000001
 43
0.00000001
 40
0.0
 40
0.0
 40
0.0
 40
0.0
 40
0.25
 40
0.25
 40
0.5
 40
0.5
 40
0.75
 40
0.75
 40
1.0
 40
1.0
 40
1.0
 40
1.0
 10
221.8278664694366
 20
123.3047954905773
 30
0.0
 10
221.793302043034
 20
123.3412548843474
 30
0.0
 10
221.7599118392858
 20
123.3762274155744
 30
0.0
 10
221.7043150936209
 20
123.4548138037657
 30
0.0
 10
221.6811827658906
 20
123.4998235011711
 30
0.0
 10
221.6926190554245
 20
123.643075882211
 30
0.0
 10
221.7236626359761
 20
123.7282442099697
 30
0.0
 10
221.7905187449169
 20
123.8902400997254
 30
0.0
 10
221.8285208732773
 20
123.9703308502478
 30
0.0
 10
221.867874537529
 20
124.0489735467516
 30
0.0
  0
ARC
  5
14B
330
1F
100
AcDbEntity
  8
0
  6
HIDDEN
 62
     7
370
     0
100
AcDbCircle
 10
237.9579495941
 20
122.8107838108
 30
0.0
 40
16.13764633233974
100
AcDbArc
 50
175.5995541951
 51
178.2457660564
  0
ARC
  5
14C
330
1F
100
AcDbEntity
  8
0
  6
HIDDEN
 62
     7
370
     0
100
AcDbCircle
 10
208.8092054636
 20
122.813365644
 30
0.0
 40
13.06484575744898
100
AcDbArc
 50
355.1809346774
 51
358.2381039881
  0
LWPOLYLINE
  5
14D
330
1F
100
AcDbEntity
  8
0
  6
HIDDEN
 62
     7
370
     0
100
AcDbPolyline
 90
       28
 70
   128
 43
0.0
 10
106.8216166754
 20
163.1447707915
 10
107.9746960291
 20
163.1031228262
 10
109.0656125764
 20
162.9804241826
 10
110.0355547238
 20
162.7832895765
 10
110.8322326392
 20
162.5223465855
 10
111.4126972098
 20
162.2116627138
 10
111.7456554404
 20
161.8679870094
 10
111.8131574667
 20
161.5098471183
 10
111.611564237
 20
161.1565504549
 10
111.1517436943
 20
160.8271433337
 10
110.4584848833
 20
160.5393841779
 10
109.5691615657
 20
160.3087861581
 10
108.531717392
 20
160.1477808731
 10
107.402081246
 20
160.0650481596
 10
106.2411521048
 20
160.0650481596
 10
105.1115159588
 20
160.1477808731
 10
104.074071785
 20
160.3087861581
 10
103.1847484675
 20
160.5393841779
 10
102.4914896565
 20
160.8271433337
 10
102.0316691138
 20
161.1565504549
 10
101.830075884
 20
161.5098471183
 10
101.8975779103
 20
161.8679870094
 10
102.230536141
 20
162.2116627138
 10
102.8110007116
 20
162.5223465855
 10
103.607678627
 20
162.7832895765
 10
104.5776207744
 20
162.9804241826
 10
105.6685373217
 20
163.1031228262
 10
106.8216166754
 20
163.1447707915
  0
LINE
  5
14E
330
1F
100
AcDbEntity
  8
0
  6
HIDDEN
 62
     7
370
     0
100
AcDbLine
 10
121.0836456963
 20
156.7830277006
 30
0.0
 11
121.0836456963
 21
149.1820649398
 31
0.0
  0
LINE
  5
14F
330
1F
100
AcDbEntity
  8
0
  6
HIDDEN
 62
     7
370
     0
100
AcDbLine
 10
115.9116166754
 20
152.5463001323
 30
0.0
 11
115.9116166754
 21
149.1820649398
 31
0.0
  0
LINE
  5
150
330
1F
100
AcDbEntity
  8
0
  6
HIDDEN
 62
     7
370
     0
100
AcDbLine
 10
119.7316166754
 20
152.5463001323
 30
0.0
 11
119.7316166754
 21
149.1820649398
 31
0.0
  0
CIRCLE
  5
151
330
1F
100
AcDbEntity
  8
0
  6
HIDDEN
 62
     7
370
     0
100
AcDbCircle
 10
104.8216166754
 20
117.8320649398
 30
0.0
 40
5.000000000000014
  0
LINE
  5
152
330
1F
100
AcDbEntity
  8
0
  6
HIDDEN
 62
     7
370
     0
100
AcDbLine
 10
252.3125045278
 20
115.1131451355
 30
0.0
 11
251.8271557797
 21
114.5996610304
 31
0.0
  0
LINE
  5
153
330
1F
100
AcDbEntity
  8
0
  6
HIDDEN
 62
     7
370
     0
100
AcDbLine
 10
251.8826775271
 20
112.6012035523
 30
0.0
 11
252.3957871489
 21
112.1154589183
 31
0.0
  0
LINE
  5
154
330
1F
100
AcDbEntity
  8
0
  6
HIDDEN
 62
     7
370
     0
100
AcDbLine
 10
257.6475822638
 20
115.261944652
 30
0.0
 11
252.3136444599
 21
115.1137555859
 31
0.0
  0
LINE
  5
155
330
1F
100
AcDbEntity
  8
0
  6
HIDDEN
 62
     7
370
     0
100
AcDbLine
 10
252.3969592159
 20
112.1149127005
 30
0.0
 11
257.7308970198
 21
112.2631017666
 31
0.0
  0
LINE
  5
156
330
1F
100
AcDbEntity
  8
0
  6
HIDDEN
 62
     7
370
     0
100
AcDbLine
 10
257.7328510487
 20
112.2648930661
 30
0.0
 11
257.8216166754
 21
112.4292651415
 31
0.0
  0
LINE
  5
157
330
1F
100
AcDbEntity
  8
0
  6
HIDDEN
 62
     7
370
     0
100
AcDbLine
 10
257.8188611217
 20
114.9846827501
 30
0.0
 11
257.6496327346
 21
115.2602646068
 31
0.0
  0
LINE
  5
158
330
1F
100
AcDbEntity
  8
0
  6
HIDDEN
 62
     7
370
     0
100
AcDbLine
 10
257.590743011
 20
120.4055013648
 30
0.0
 11
257.7599713981
 21
120.6810832215
 31
0.0
  0
LINE
  5
159
330
1F
100
AcDbEntity
  8
0
  6
HIDDEN
 62
     7
370
     0
100
AcDbLine
 10
257.8216166754
 20
123.1274515679
 30
0.0
 11
257.673961325
 21
123.4008729054
 31
0.0
  0
LINE
  5
15A
330
1F
100
AcDbEntity
  8
0
  6
HIDDEN
 62
     7
370
     0
100
AcDbLine
 10
257.6720072961
 20
123.4026642049
 30
0.0
 11
252.3380694922
 21
123.550853271
 31
0.0
  0
LINE
  5
15B
330
1F
100
AcDbEntity
  8
0
  6
HIDDEN
 62
     7
370
     0
100
AcDbLine
 10
252.2547547362
 20
120.5520103856
 30
0.0
 11
257.5886925401
 21
120.4038213195
 31
0.0
  0
LINE
  5
15C
330
1F
100
AcDbEntity
  8
0
  6
HIDDEN
 62
     7
370
     0
100
AcDbLine
 10
252.3368974253
 20
123.5503070532
 30
0.0
 11
251.8237878035
 21
123.0645624192
 31
0.0
  0
LINE
  5
15D
330
1F
100
AcDbEntity
  8
0
  6
HIDDEN
 62
     7
370
     0
100
AcDbLine
 10
251.7682660561
 20
121.0661049411
 30
0.0
 11
252.2536148042
 21
120.5526208361
 31
0.0
  0
LINE
  5
15E
330
1F
100
AcDbEntity
  8
0
  6
HIDDEN
 62
     7
370
     0
100
AcDbLine
 10
97.8216166754
 20
78.4273819832
 30
0.0
 11
97.9112182993
 21
79.0649306651
 31
0.0
  0
LINE
  5
15F
330
1F
100
AcDbEntity
  8
0
  6
HIDDEN
 62
     7
370
     0
100
AcDbLine
 10
97.9112182993
 20
156.5991992144
 30
0.0
 11
97.8216166754
 21
157.2367478963
 31
0.0
  0
ARC
  5
160
330
1F
100
AcDbEntity
  8
0
  6
HIDDEN
 62
     7
370
     0
100
AcDbCircle
 10
96.9246797569
 20
79.2035796153
 30
0.0
 40
0.9962338214386842
100
AcDbArc
 50
352.0
 51
0.0
  0
ARC
  5
161
330
1F
100
AcDbEntity
  8
0
  6
HIDDEN
 62
     7
370
     0
100
AcDbCircle
 10
96.9246797569
 20
79.2035796153
 30
0.0
 40
0.9962338214386854
100
AcDbArc
 50
0.0
 51
25.7988228126
  0
ARC
  5
162
330
1F
100
AcDbEntity
  8
0
  6
HIDDEN
 62
     7
370
     0
100
AcDbCircle
 10
96.9246797569
 20
156.4605502642
 30
0.0
 40
0.9962338214386854
100
AcDbArc
 50
348.75
 51
8.0
  0
LWPOLYLINE
  5
163
330
1F
100
AcDbEntity
  8
0
  6
HIDDEN
 62
     7
370
     0
100
AcDbPolyline
 90
        3
 70
   128
 43
0.0
 10
97.9017712248
 20
156.2661946872
 10
97.8450797942
 20
156.079308086
 10
97.8216166754
 20
156.0269767511
  0
LINE
  5
164
330
1F
100
AcDbEntity
  8
0
  6
HIDDEN
 62
     7
370
     0
100
AcDbLine
 10
97.9209135784
 20
79.2035796153
 30
0.0
 11
97.9209135784
 21
156.4605502642
 31
0.0
  0
ARC
  5
165
330
1F
100
AcDbEntity
  8
0
  6
HIDDEN
 62
     7
370
     0
100
AcDbCircle
 10
88.0748223306
 20
98.3320649398
 30
0.0
 40
12.0
100
AcDbArc
 50
273.1770759295
 51
324.3146652873
  0
ARC
  5
166
330
1F
100
AcDbEntity
  8
0
  6
HIDDEN
 62
     7
370
     0
100
AcDbCircle
 10
88.0748223306
 20
137.3320649398
 30
0.0
 40
12.00000000000003
100
AcDbArc
 50
35.6853347127
 51
86.4364169238
  0
LINE
  5
167
330
1F
100
AcDbEntity
  8
0
  6
HIDDEN
 62
     7
370
     0
100
AcDbLine
 10
71.2823426176
 20
86.3320649398
 30
0.0
 11
76.8405337897
 21
86.3320649398
 31
0.0
  0
LINE
  5
168
330
1F
100
AcDbEntity
  8
0
  6
HIDDEN
 62
     7
370
     0
100
AcDbLine
 10
76.8405337897
 20
149.3320649398
 30
0.0
 11
71.2823426176
 21
149.3320649398
 31
0.0
  0
ARC
  5
169
330
1F
100
AcDbEntity
  8
0
  6
HIDDEN
 62
     7
370
     0
100
AcDbCircle
 10
71.2823426176
 20
87.3320649398
 30
0.0
 40
1.000000000000008
100
AcDbArc
 50
210.0
 51
270.0
  0
ARC
  5
16A
330
1F
100
AcDbEntity
  8
0
  6
HIDDEN
 62
     7
370
     0
100
AcDbCircle
 10
71.2823426176
 20
148.3320649398
 30
0.0
 40
1.000000000000008
100
AcDbArc
 50
90.0
 51
150.0
  0
LINE
  5
16B
330
1F
100
AcDbEntity
  8
0
  6
HIDDEN
 62
     7
370
     0
100
AcDbLine
 10
70.4163172138
 20
148.8320649398
 30
0.0
 11
67.8182410024
 21
144.3320649398
 31
0.0
  0
LINE
  5
16C
330
1F
100
AcDbEntity
  8
0
  6
HIDDEN
 62
     7
370
     0
100
AcDbLine
 10
67.8182410024
 20
91.3320649398
 30
0.0
 11
70.4163172138
 21
86.8320649398
 31
0.0
  0
ARC
  5
16D
330
1F
100
AcDbEntity
  8
0
  6
HIDDEN
 62
     7
370
     0
100
AcDbCircle
 10
108.2716166754
 20
92.9570649398
 30
0.0
 40
2.0
100
AcDbArc
 50
234.3409123039
 51
0.0
  0
ARC
  5
16E
330
1F
100
AcDbEntity
  8
0
  6
HIDDEN
 62
     7
370
     0
100
AcDbCircle
 10
108.2716166754
 20
142.7070649398
 30
0.0
 40
2.000000000000003
100
AcDbArc
 50
0.0
 51
125.6590876961
  0
LINE
  5
16F
330
1F
100
AcDbEntity
  8
0
  6
HIDDEN
 62
     7
370
     0
100
AcDbLine
 10
63.0216166754
 20
91.3320649398
 30
0.0
 11
67.8182410024
 21
91.3320649398
 31
0.0
  0
LINE
  5
170
330
1F
100
AcDbEntity
  8
0
  6
HIDDEN
 62
     7
370
     0
100
AcDbLine
 10
67.8182410024
 20
144.3320649398
 30
0.0
 11
58.0216166754
 21
144.3320649398
 31
0.0
  0
LINE
  5
171
330
1F
100
AcDbEntity
  8
0
  6
HIDDEN
 62
     7
370
     0
100
AcDbLine
 10
97.8216166754
 20
91.3320649398
 30
0.0
 11
107.1056942938
 21
91.3320649398
 31
0.0
  0
LINE
  5
172
330
1F
100
AcDbEntity
  8
0
  6
HIDDEN
 62
     7
370
     0
100
AcDbLine
 10
107.1056942938
 20
144.3320649398
 30
0.0
 11
97.8216166754
 21
144.3320649398
 31
0.0
  0
LINE
  5
173
330
1F
100
AcDbEntity
  8
0
  6
HIDDEN
 62
     7
370
     0
100
AcDbLine
 10
101.8216166754
 20
163.5036183189
 30
0.0
 11
101.8216166754
 21
159.8094787184
 31
0.0
  0
LINE
  5
174
330
1F
100
AcDbEntity
  8
0
  6
HIDDEN
 62
     7
370
     0
100
AcDbLine
 10
111.8216166754
 20
159.8094787184
 30
0.0
 11
111.8216166754
 21
163.5091265773
 31
0.0
  0
LINE
  5
175
330
1F
100
AcDbEntity
  8
0
  6
HIDDEN
 62
     7
370
     0
100
AcDbLine
 10
122.1216166754
 20
104.8320649398
 30
0.0
 11
126.1216166754
 21
104.8320649398
 31
0.0
  0
LINE
  5
176
330
1F
100
AcDbEntity
  8
0
  6
HIDDEN
 62
     7
370
     0
100
AcDbLine
 10
126.1216166754
 20
130.8320649398
 30
0.0
 11
122.1216166754
 21
130.8320649398
 31
0.0
  0
LINE
  5
177
330
1F
100
AcDbEntity
  8
0
  6
HIDDEN
 62
     7
370
     0
100
AcDbLine
 10
110.2716166754
 20
105.8320649398
 30
0.0
 11
111.0216166754
 21
106.5820649398
 31
0.0
  0
LINE
  5
178
330
1F
100
AcDbEntity
  8
0
  6
HIDDEN
 62
     7
370
     0
100
AcDbLine
 10
111.0216166754
 20
129.0820649398
 30
0.0
 11
110.2716166754
 21
129.8320649398
 31
0.0
  0
LINE
  5
179
330
1F
100
AcDbEntity
  8
0
  6
HIDDEN
 62
     7
370
     0
100
AcDbLine
 10
111.0216166754
 20
106.5820649398
 30
0.0
 11
122.1216166754
 21
106.5820649398
 31
0.0
  0
LINE
  5
17A
330
1F
100
AcDbEntity
  8
0
  6
HIDDEN
 62
     7
370
     0
100
AcDbLine
 10
122.1216166754
 20
129.0820649398
 30
0.0
 11
111.0216166754
 21
129.0820649398
 31
0.0
  0
LINE
  5
17B
330
1F
100
AcDbEntity
  8
0
  6
HIDDEN
 62
     7
370
     0
100
AcDbLine
 10
102.7716166754
 20
167.8320649398
 30
0.0
 11
102.7716166754
 21
161.7320649398
 31
0.0
  0
LINE
  5
17C
330
1F
100
AcDbEntity
  8
0
  6
HIDDEN
 62
     7
370
     0
100
AcDbLine
 10
224.3216166754
 20
113.7116393771
 30
0.0
 11
224.3216166754
 21
115.5831390105
 31
0.0
  0
LINE
  5
17D
330
1F
100
AcDbEntity
  8
0
  6
HIDDEN
 62
     7
370
     0
100
AcDbLine
 10
224.3216166754
 20
110.4074437373
 30
0.0
 11
224.3216166754
 21
111.9528386669
 31
0.0
  0
LINE
  5
17E
330
1F
100
AcDbEntity
  8
0
  6
HIDDEN
 62
     7
370
     0
100
AcDbLine
 10
221.3216166754
 20
112.5068600682
 30
0.0
 11
221.3216166754
 21
110.4074437373
 31
0.0
  0
LINE
  5
17F
330
1F
100
AcDbEntity
  8
0
  6
HIDDEN
 62
     7
370
     0
100
AcDbLine
 10
221.3216166754
 20
115.5036332586
 30
0.0
 11
221.3216166754
 21
113.0330476324
 31
0.0
  0
LINE
  5
180
330
1F
100
AcDbEntity
  8
0
  6
HIDDEN
 62
     7
370
     0
100
AcDbLine
 10
89.2543292914
 20
80.2537853691
 30
0.0
 11
88.8216200049
 21
80.7320100865
 31
0.0
  0
LINE
  5
181
330
1F
100
AcDbEntity
  8
0
  6
HIDDEN
 62
     7
370
     0
100
AcDbLine
 10
76.8216171334
 20
81.3789714432
 30
0.0
 11
76.3409898282
 21
80.9007467324
 31
0.0
  0
LINE
  5
182
330
1F
100
AcDbEntity
  8
0
  6
HIDDEN
 62
     7
370
     0
100
AcDbLine
 10
76.3408714867
 20
154.763377231
 30
0.0
 11
76.8216169508
 21
154.2850975591
 31
0.0
  0
LINE
  5
183
330
1F
100
AcDbEntity
  8
0
  6
HIDDEN
 62
     7
370
     0
100
AcDbLine
 10
88.8216166775
 20
154.9320699465
 30
0.0
 11
89.2544383472
 21
155.4103496194
 31
0.0
  0
LINE
  5
184
330
1F
100
AcDbEntity
  8
0
  6
HIDDEN
 62
     7
370
     0
100
AcDbLine
 10
224.0337852064
 20
111.5770149235
 30
0.0
 11
257.8216166754
 21
112.5157186308
 31
0.0
  0
LINE
  5
185
330
1F
100
AcDbEntity
  8
0
  6
HIDDEN
 62
     7
370
     0
100
AcDbLine
 10
257.8216166754
 20
115.016683265
 30
0.0
 11
224.0323728938
 21
114.0779403204
 31
0.0
  0
LINE
  5
186
330
1F
100
AcDbEntity
  8
0
  6
HIDDEN
 62
     7
370
     0
100
AcDbLine
 10
88.8216166754
 20
80.631881244
 30
0.0
 11
88.8216166754
 21
86.3661870127
 31
0.0
  0
LINE
  5
187
330
1F
100
AcDbEntity
  8
0
  6
HIDDEN
 62
     7
370
     0
100
AcDbLine
 10
76.8216166754
 20
86.335655763
 30
0.0
 11
76.8216166754
 21
81.3790098577
 31
0.0
  0
LINE
  5
188
330
1F
100
AcDbEntity
  8
0
  6
HIDDEN
 62
     7
370
     0
100
AcDbLine
 10
88.8216166754
 20
149.3083908425
 30
0.0
 11
88.8216166754
 21
155.0320737725
 31
0.0
  0
LINE
  5
189
330
1F
100
AcDbEntity
  8
0
  6
HIDDEN
 62
     7
370
     0
100
AcDbLine
 10
76.8216166754
 20
154.2850870598
 30
0.0
 11
76.8216166754
 21
149.3284741165
 31
0.0
  0
LINE
  5
18A
330
1F
100
AcDbEntity
  8
0
  6
HIDDEN
 62
     7
370
     0
100
AcDbLine
 10
126.1216166754
 20
111.8320649398
 30
0.0
 11
155.9216166754
 21
111.8320649398
 31
0.0
  0
LINE
  5
18B
330
1F
100
AcDbEntity
  8
0
  6
HIDDEN
 62
     7
370
     0
100
AcDbLine
 10
155.9216166754
 20
123.8320649398
 30
0.0
 11
126.1216166754
 21
123.8320649398
 31
0.0
  0
LINE
  5
18C
330
1F
100
AcDbEntity
  8
0
  6
HIDDEN
 62
     7
370
     0
100
AcDbLine
 10
155.9216166754
 20
111.8320649398
 30
0.0
 11
158.2649730896
 21
115.7320649398
 31
0.0
  0
LINE
  5
18D
330
1F
100
AcDbEntity
  8
0
  6
HIDDEN
 62
     7
370
     0
100
AcDbLine
 10
158.2649730896
 20
119.9320649398
 30
0.0
 11
155.9216166754
 21
123.8320649398
 31
0.0
  0
LINE
  5
18E
330
1F
100
AcDbEntity
  8
0
  6
HIDDEN
 62
     7
370
     0
100
AcDbLine
 10
221.3482219285
 20
113.1889882186
 30
0.0
 11
221.0988746491
 21
112.7459586718
 31
0.0
  0
LINE
  5
18F
330
1F
100
AcDbEntity
  8
0
  6
HIDDEN
 62
     7
370
     0
100
AcDbLine
 10
221.0988746491
 20
112.7459586718
 30
0.0
 11
221.3489291275
 21
112.3542761618
 31
0.0
  0
ARC
  5
190
330
1F
100
AcDbEntity
  8
0
  6
HIDDEN
 62
     7
370
     0
100
AcDbCircle
 10
221.2216166754
 20
114.9320649398
 30
0.0
 40
0.4000000000000199
100
AcDbArc
 50
180.0
 51
270.0
  0
ARC
  5
191
330
1F
100
AcDbEntity
  8
0
  6
HIDDEN
 62
     7
370
     0
100
AcDbCircle
 10
221.2216166754
 20
120.7320649398
 30
0.0
 40
0.4000000000000341
100
AcDbArc
 50
90.0
 51
180.0
  0
LINE
  5
192
330
1F
100
AcDbEntity
  8
0
  6
HIDDEN
 62
     7
370
     0
100
AcDbLine
 10
221.2216166754
 20
114.5320649398
 30
0.0
 11
223.9268426573
 21
114.5320649398
 31
0.0
  0
LINE
  5
193
330
1F
100
AcDbEntity
  8
0
  6
HIDDEN
 62
     7
370
     0
100
AcDbLine
 10
223.9268426573
 20
121.1320649398
 30
0.0
 11
221.2216166754
 21
121.1320649398
 31
0.0
  0
ARC
  5
194
330
1F
100
AcDbEntity
  8
0
  6
HIDDEN
 62
     7
370
     0
100
AcDbCircle
 10
257.5216166754
 20
114.5320649398
 30
0.0
 40
0.3000000000000114
100
AcDbArc
 50
0.0
 51
90.0
  0
ARC
  5
195
330
1F
100
AcDbEntity
  8
0
  6
HIDDEN
 62
     7
370
     0
100
AcDbCircle
 10
257.5216166754
 20
121.1320649398
 30
0.0
 40
0.3000000000000114
100
AcDbArc
 50
270.0
 51
0.0
  0
ARC
  5
196
330
1F
100
AcDbEntity
  8
0
  6
HIDDEN
 62
     7
370
     0
100
AcDbCircle
 10
223.9268426573
 20
120.7320649398
 30
0.0
 40
0.4000000000000074
100
AcDbArc
 50
70.0
 51
90.0
  0
LINE
  5
197
330
1F
100
AcDbEntity
  8
0
  6
HIDDEN
 62
     7
370
     0
100
AcDbLine
 10
224.0636507146
 20
114.5561878914
 30
0.0
 11
224.8216166754
 21
114.8320649398
 31
0.0
  0
LINE
  5
198
330
1F
100
AcDbEntity
  8
0
  6
HIDDEN
 62
     7
370
     0
100
AcDbLine
 10
224.8216166754
 20
120.8320649398
 30
0.0
 11
224.0636507146
 21
121.1079419881
 31
0.0
  0
LINE
  5
199
330
1F
100
AcDbEntity
  8
0
  6
HIDDEN
 62
     7
370
     0
100
AcDbLine
 10
170.2716166754
 20
102.8320649398
 30
0.0
 11
169.2716166754
 21
103.4094152089
 31
0.0
  0
LINE
  5
19A
330
1F
100
AcDbEntity
  8
0
  6
HIDDEN
 62
     7
370
     0
100
AcDbLine
 10
164.2716166754
 20
103.4094152089
 30
0.0
 11
163.2716166754
 21
102.8320649398
 31
0.0
  0
LINE
  5
19B
330
1F
100
AcDbEntity
  8
0
  6
HIDDEN
 62
     7
370
     0
100
AcDbLine
 10
163.2716166754
 20
132.8320649398
 30
0.0
 11
164.2716166754
 21
132.2547146706
 31
0.0
  0
LINE
  5
19C
330
1F
100
AcDbEntity
  8
0
  6
HIDDEN
 62
     7
370
     0
100
AcDbLine
 10
169.2716166754
 20
132.2547146706
 30
0.0
 11
170.2716166754
 21
132.8320649398
 31
0.0
  0
LINE
  5
19D
330
1F
100
AcDbEntity
  8
0
  6
HIDDEN
 62
     7
370
     0
100
AcDbLine
 10
224.8216166754
 20
114.8320649398
 30
0.0
 11
257.5216166754
 21
114.8320649398
 31
0.0
  0
LINE
  5
19E
330
1F
100
AcDbEntity
  8
0
  6
HIDDEN
 62
     7
370
     0
100
AcDbLine
 10
257.5216166754
 20
120.8320649398
 30
0.0
 11
224.8216166754
 21
120.8320649398
 31
0.0
  0
LINE
  5
19F
330
1F
100
AcDbEntity
  8
0
  6
HIDDEN
 62
     7
370
     0
100
AcDbLine
 10
164.2716166754
 20
132.2547146706
 30
0.0
 11
164.2716166754
 21
123.8320649398
 31
0.0
  0
LINE
  5
1A0
330
1F
100
AcDbEntity
  8
0
  6
HIDDEN
 62
     7
370
     0
100
AcDbLine
 10
169.2716166754
 20
123.8320649398
 30
0.0
 11
169.2716166754
 21
132.2547146706
 31
0.0
  0
LINE
  5
1A1
330
1F
100
AcDbEntity
  8
0
  6
HIDDEN
 62
     7
370
     0
100
AcDbLine
 10
164.2716166754
 20
123.8320649398
 30
0.0
 11
166.7716166754
 21
122.3299133922
 31
0.0
  0
LINE
  5
1A2
330
1F
100
AcDbEntity
  8
0
  6
HIDDEN
 62
     7
370
     0
100
AcDbLine
 10
166.7716166754
 20
122.3299133922
 30
0.0
 11
169.2716166754
 21
123.8320649398
 31
0.0
  0
LINE
  5
1A3
330
1F
100
AcDbEntity
  8
0
  6
HIDDEN
 62
     7
370
     0
100
AcDbLine
 10
169.2716166754
 20
103.4094152089
 30
0.0
 11
169.2716166754
 21
111.8320649398
 31
0.0
  0
LINE
  5
1A4
330
1F
100
AcDbEntity
  8
0
  6
HIDDEN
 62
     7
370
     0
100
AcDbLine
 10
164.2716166754
 20
111.8320649398
 30
0.0
 11
164.2716166754
 21
103.4094152089
 31
0.0
  0
LINE
  5
1A5
330
1F
100
AcDbEntity
  8
0
  6
HIDDEN
 62
     7
370
     0
100
AcDbLine
 10
169.2716166754
 20
111.8320649398
 30
0.0
 11
166.7716166754
 21
113.3342164873
 31
0.0
  0
LINE
  5
1A6
330
1F
100
AcDbEntity
  8
0
  6
HIDDEN
 62
     7
370
     0
100
AcDbLine
 10
166.7716166754
 20
113.3342164873
 30
0.0
 11
164.2716166754
 21
111.8320649398
 31
0.0
  0
LINE
  5
1A7
330
1F
100
AcDbEntity
  8
0
  6
HIDDEN
 62
     7
370
     0
100
AcDbLine
 10
158.2649730896
 20
115.7320649398
 30
0.0
 11
220.8216166754
 21
115.7320649398
 31
0.0
  0
LINE
  5
1A8
330
1F
100
AcDbEntity
  8
0
  6
HIDDEN
 62
     7
370
     0
100
AcDbLine
 10
220.8216166754
 20
119.9320649398
 30
0.0
 11
158.2649730896
 21
119.9320649398
 31
0.0
  0
ARC
  5
1A9
330
1F
100
AcDbEntity
  8
0
  6
HIDDEN
 62
     7
370
     0
100
AcDbCircle
 10
223.9268426573
 20
114.9320649398
 30
0.0
 40
0.4000000000000074
100
AcDbArc
 50
270.0
 51
290.0
  0
LINE
  5
1AA
330
1F
100
AcDbEntity
  8
0
  6
HIDDEN
 62
     7
370
     0
100
AcDbLine
 10
224.3216166754
 20
123.7047456726
 30
0.0
 11
224.3216166754
 21
124.1960259704
 31
0.0
  0
LINE
  5
1AB
330
1F
100
AcDbEntity
  8
0
  6
HIDDEN
 62
     7
370
     0
100
AcDbLine
 10
224.3216166754
 20
120.080990869
 30
0.0
 11
224.3216166754
 21
121.9528258628
 31
0.0
  0
LINE
  5
1AC
330
1F
100
AcDbEntity
  8
0
  6
HIDDEN
 62
     7
370
     0
100
AcDbLine
 10
221.3216166754
 20
122.6324741965
 30
0.0
 11
221.3216166754
 21
120.1604966209
 31
0.0
  0
LINE
  5
1AD
330
1F
100
AcDbEntity
  8
0
  6
HIDDEN
 62
     7
370
     0
100
AcDbLine
 10
221.3216166754
 20
124.1960259704
 30
0.0
 11
221.3216166754
 21
123.1542761841
 31
0.0
  0
LINE
  5
1AE
330
1F
100
AcDbEntity
  8
0
  6
HIDDEN
 62
     7
370
     0
100
AcDbLine
 10
224.0325829781
 20
121.5861837225
 30
0.0
 11
257.8216166754
 21
120.6474466145
 31
0.0
  0
LINE
  5
1AF
330
1F
100
AcDbEntity
  8
0
  6
HIDDEN
 62
     7
370
     0
100
AcDbLine
 10
257.8216166754
 20
123.1484112487
 30
0.0
 11
224.0326618465
 21
124.0871461655
 31
0.0
  0
LINE
  5
1B0
330
1F
100
AcDbEntity
  8
0
  6
HIDDEN
 62
     7
370
     0
100
AcDbLine
 10
221.3500700206
 20
123.3116407997
 30
0.0
 11
221.0988746491
 21
122.9181712077
 31
0.0
  0
LINE
  5
1B1
330
1F
100
AcDbEntity
  8
0
  6
HIDDEN
 62
     7
370
     0
100
AcDbLine
 10
221.0988746491
 20
122.9181712077
 30
0.0
 11
221.3482708274
 21
122.4750547793
 31
0.0
  0
LINE
  5
1B2
330
1F
100
AcDbEntity
  8
0
  6
HIDDEN
 62
     7
370
     0
100
AcDbLine
 10
101.8216166754
 20
165.3789364032
 30
0.0
 11
101.8216166754
 21
163.5036183189
 31
0.0
  0
LINE
  5
1B3
330
1F
100
AcDbEntity
  8
0
  6
HIDDEN
 62
     7
370
     0
100
AcDbLine
 10
111.8216166754
 20
163.5091265773
 30
0.0
 11
111.8216166754
 21
165.384670836
 31
0.0
  0
DIMENSION
  5
1B4
330
1F
100
AcDbEntity
  8
VERMASSUNG
100
AcDbDimension
  2
*D1
 10
43.6238476387
 20
67.8320649398
 30
0.0
 11
43.6238476387
 21
117.8320649398
 31
0.0
 70
   160
  1
HSK A %%c<>
 71
     2
 42
-1.0
  3
SLDDIMSTYLE0
100
AcDbAlignedDimension
 13
98.3216166754
 23
167.8320649398
 33
0.0
 14
98.3216166754
 24
67.8320649398
 34
0.0
 50
90.0
100
AcDbRotatedDimension
  0
DIMENSION
  5
1C1
330
1F
100
AcDbEntity
  8
VERMASSUNG
100
AcDbDimension
  2
*D2
 10
264.1729879708
 20
114.8320649398
 30
0.0
 11
264.1729879708
 21
117.8320649398
 31
0.0
 70
   160
  1
%%c<>
 71
     2
 42
-1.0
  3
SLDDIMSTYLE1
100
AcDbAlignedDimension
 13
257.5216166754
 23
120.8320649398
 33
0.0
 14
257.5216166754
 24
114.8320649398
 34
0.0
 50
90.0
100
AcDbRotatedDimension
  0
DIMENSION
  5
1CF
330
1F
100
AcDbEntity
  8
VERMASSUNG
100
AcDbDimension
  2
*D3
 10
257.8216166754
 20
172.8802816901
 30
0.0
 11
192.2966166754
 21
172.8802816901
 31
0.0
 70
   160
 71
     2
 42
-1.0
  3
SLDDIMSTYLE0
100
AcDbAlignedDimension
 13
126.7716166754
 23
165.8008047606
 33
0.0
 14
257.8216166754
 24
125.0579244181
 34
0.0
100
AcDbRotatedDimension
  0
DIMENSION
  5
1D9
330
1F
100
AcDbEntity
  8
VERMASSUNG
100
AcDbDimension
  2
*D4
 10
257.8216166754
 20
178.8802816901
 30
0.0
 11
177.8216166754
 21
178.8802816901
 31
0.0
 70
   160
 71
     2
 42
-1.0
  3
SLDDIMSTYLE0
100
AcDbAlignedDimension
 13
97.8216166754
 23
167.3320649398
 33
0.0
 14
257.8216166754
 24
125.0579244181
 34
0.0
100
AcDbRotatedDimension
  0
DIMENSION
  5
1E3
330
1F
100
AcDbEntity
  8
VERMASSUNG
100
AcDbDimension
  2
*D5
 10
47.9216166754
 20
184.8802816901
 30
0.0
 11
152.8716166754
 21
184.8802816901
 31
0.0
 70
   160
 71
     2
 42
-1.0
  3
SLDDIMSTYLE0
100
AcDbAlignedDimension
 13
257.8216166754
 23
125.0579244181
 33
0.0
 14
47.9216166754
 24
148.3347346823
 34
0.0
100
AcDbRotatedDimension
  0
DIMENSION
  5
1ED
330
1F
100
AcDbEntity
  8
VERMASSUNG
100
AcDbDimension
  2
*D6
 10
270.1729879708
 20
102.8320649398
 30
0.0
 11
270.1729879708
 21
117.8320649398
 31
0.0
 70
   160
  1
%%c<>
 71
     2
 42
-1.0
  3
SLDDIMSTYLE0
100
AcDbAlignedDimension
 13
243.8823216921
 23
132.8320649398
 33
0.0
 14
243.8823216921
 24
102.8320649398
 34
0.0
 50
90.0
100
AcDbRotatedDimension
  0
LINE
  5
1F8
330
1F
100
AcDbEntity
  8
VERMASSUNG
  6
CENTERX2
 62
     7
370
     0
100
AcDbLine
 10
45.6711473144
 20
117.8320649398
 30
0.0
 11
259.8216166754
 21
117.8320649398
 31
0.0
  0
OLE2FRAME
  5
1F9
330
1F
100
AcDbEntity
  8
0
100
AcDbOle2Frame
 70
     2
  3
Bitmap Image
 10
13.8511154363
 20
38.264191557
 30
0.0
 11
51.6290888628
 21
31.9806341108
 31
0.0
 71
     2
 72
     0
 73
     1
 90
    12928
310
80552BED0767C5B32B40DDAF6807D121434000000000000000006FFBDDFB85D0
310
4940DDAF6807D121434000000000000000006FFBDDFB85D04940416F4BD60AFB
310
3F4000000000000000002BED0767C5B32B40416F4BD60AFB3F40000000000000
310
0000000000000100000000010000010000000100000000000100000000320000
310
D0CF11E0A1B11AE1000000000000000000000000000000003E000300FEFF0900
310
0600000000000000000000000100000001000000000000000010000002000000
310
01000000FEFFFFFF0000000000000000FFFFFFFFFFFFFFFFFFFFFFFFFFFFFFFF
310
FFFFFFFFFFFFFFFFFFFFFFFFFFFFFFFFFFFFFFFFFFFFFFFFFFFFFFFFFFFFFFFF
310
FFFFFFFFFFFFFFFFFFFFFFFFFFFFFFFFFFFFFFFFFFFFFFFFFFFFFFFFFFFFFFFF
310
FFFFFFFFFFFFFFFFFFFFFFFFFFFFFFFFFFFFFFFFFFFFFFFFFFFFFFFFFFFFFFFF
310
FFFFFFFFFFFFFFFFFFFFFFFFFFFFFFFFFFFFFFFFFFFFFFFFFFFFFFFFFFFFFFFF
310
FFFFFFFFFFFFFFFFFFFFFFFFFFFFFFFFFFFFFFFFFFFFFFFFFFFFFFFFFFFFFFFF
310
FFFFFFFFFFFFFFFFFFFFFFFFFFFFFFFFFFFFFFFFFFFFFFFFFFFFFFFFFFFFFFFF
310
FFFFFFFFFFFFFFFFFFFFFFFFFFFFFFFFFFFFFFFFFFFFFFFFFFFFFFFFFFFFFFFF
310
FFFFFFFFFFFFFFFFFFFFFFFFFFFFFFFFFFFFFFFFFFFFFFFFFFFFFFFFFFFFFFFF
310
FFFFFFFFFFFFFFFFFFFFFFFFFFFFFFFFFFFFFFFFFFFFFFFFFFFFFFFFFFFFFFFF
310
FFFFFFFFFFFFFFFFFFFFFFFFFFFFFFFFFFFFFFFFFFFFFFFFFFFFFFFFFFFFFFFF
310
FFFFFFFFFFFFFFFFFFFFFFFFFFFFFFFFFFFFFFFFFFFFFFFFFFFFFFFFFFFFFFFF
310
FFFFFFFFFFFFFFFFFFFFFFFFFFFFFFFFFFFFFFFFFFFFFFFFFFFFFFFFFFFFFFFF
310
FFFFFFFFFFFFFFFFFFFFFFFFFFFFFFFFFFFFFFFFFFFFFFFFFFFFFFFFFFFFFFFF
310
FDFFFFFFFEFFFFFFFEFFFFFFFEFFFFFF05000000060000000700000008000000
310
090000000A0000000B0000000C0000000D0000000E0000000F00000010000000
310
11000000120000001300000014000000150000001600000017000000FEFFFFFF
310
FFFFFFFFFFFFFFFFFFFFFFFFFFFFFFFFFFFFFFFFFFFFFFFFFFFFFFFFFFFFFFFF
310
FFFFFFFFFFFFFFFFFFFFFFFFFFFFFFFFFFFFFFFFFFFFFFFFFFFFFFFFFFFFFFFF
310
FFFFFFFFFFFFFFFFFFFFFFFFFFFFFFFFFFFFFFFFFFFFFFFFFFFFFFFFFFFFFFFF
310
FFFFFFFFFFFFFFFFFFFFFFFFFFFFFFFFFFFFFFFFFFFFFFFFFFFFFFFFFFFFFFFF
310
FFFFFFFFFFFFFFFFFFFFFFFFFFFFFFFFFFFFFFFFFFFFFFFFFFFFFFFFFFFFFFFF
310
FFFFFFFFFFFFFFFFFFFFFFFFFFFFFFFFFFFFFFFFFFFFFFFFFFFFFFFFFFFFFFFF
310
FFFFFFFFFFFFFFFFFFFFFFFFFFFFFFFFFFFFFFFFFFFFFFFFFFFFFFFFFFFFFFFF
310
FFFFFFFFFFFFFFFFFFFFFFFFFFFFFFFFFFFFFFFFFFFFFFFFFFFFFFFFFFFFFFFF
310
FFFFFFFFFFFFFFFFFFFFFFFFFFFFFFFFFFFFFFFFFFFFFFFFFFFFFFFFFFFFFFFF
310
FFFFFFFFFFFFFFFFFFFFFFFFFFFFFFFFFFFFFFFFFFFFFFFFFFFFFFFFFFFFFFFF
310
FFFFFFFFFFFFFFFFFFFFFFFFFFFFFFFFFFFFFFFFFFFFFFFFFFFFFFFFFFFFFFFF
310
FFFFFFFFFFFFFFFFFFFFFFFFFFFFFFFFFFFFFFFFFFFFFFFFFFFFFFFFFFFFFFFF
310
FFFFFFFFFFFFFFFFFFFFFFFFFFFFFFFFFFFFFFFFFFFFFFFFFFFFFFFFFFFFFFFF
310
52006F006F007400200045006E00740072007900000000000000000000000000
310
0000000000000000000000000000000000000000000000000000000000000000
310
16000500FFFFFFFFFFFFFFFF020000000A00030000000000C000000000000046
310
000000000000000000000000B0BA45CD0400CC0103000000C000000000000000
310
01004F006C006500000000000000000000000000000000000000000000000000
310
0000000000000000000000000000000000000000000000000000000000000000
310
0A000200FFFFFFFFFFFFFFFFFFFFFFFF00000000000000000000000000000000
310
0000000000000000000000000000000000000000000000001400000000000000
310
010043006F006D0070004F0062006A0000000000000000000000000000000000
310
0000000000000000000000000000000000000000000000000000000000000000
310
120002010100000003000000FFFFFFFF00000000000000000000000000000000
310
0000000000000000000000000000000000000000010000004D00000000000000
310
01004F006C006500310030004E00610074006900760065000000000000000000
310
0000000000000000000000000000000000000000000000000000000000000000
310
1A000200FFFFFFFFFFFFFFFFFFFFFFFF00000000000000000000000000000000
310
0000000000000000000000000000000000000000040000002426000000000000
310
FEFFFFFF02000000FEFFFFFFFFFFFFFFFFFFFFFFFFFFFFFFFFFFFFFFFFFFFFFF
310
FFFFFFFFFFFFFFFFFFFFFFFFFFFFFFFFFFFFFFFFFFFFFFFFFFFFFFFFFFFFFFFF
310
FFFFFFFFFFFFFFFFFFFFFFFFFFFFFFFFFFFFFFFFFFFFFFFFFFFFFFFFFFFFFFFF
310
FFFFFFFFFFFFFFFFFFFFFFFFFFFFFFFFFFFFFFFFFFFFFFFFFFFFFFFFFFFFFFFF
310
FFFFFFFFFFFFFFFFFFFFFFFFFFFFFFFFFFFFFFFFFFFFFFFFFFFFFFFFFFFFFFFF
310
FFFFFFFFFFFFFFFFFFFFFFFFFFFFFFFFFFFFFFFFFFFFFFFFFFFFFFFFFFFFFFFF
310
FFFFFFFFFFFFFFFFFFFFFFFFFFFFFFFFFFFFFFFFFFFFFFFFFFFFFFFFFFFFFFFF
310
FFFFFFFFFFFFFFFFFFFFFFFFFFFFFFFFFFFFFFFFFFFFFFFFFFFFFFFFFFFFFFFF
310
FFFFFFFFFFFFFFFFFFFFFFFFFFFFFFFFFFFFFFFFFFFFFFFFFFFFFFFFFFFFFFFF
310
FFFFFFFFFFFFFFFFFFFFFFFFFFFFFFFFFFFFFFFFFFFFFFFFFFFFFFFFFFFFFFFF
310
FFFFFFFFFFFFFFFFFFFFFFFFFFFFFFFFFFFFFFFFFFFFFFFFFFFFFFFFFFFFFFFF
310
FFFFFFFFFFFFFFFFFFFFFFFFFFFFFFFFFFFFFFFFFFFFFFFFFFFFFFFFFFFFFFFF
310
FFFFFFFFFFFFFFFFFFFFFFFFFFFFFFFFFFFFFFFFFFFFFFFFFFFFFFFFFFFFFFFF
310
FFFFFFFFFFFFFFFFFFFFFFFFFFFFFFFFFFFFFFFFFFFFFFFFFFFFFFFFFFFFFFFF
310
FFFFFFFFFFFFFFFFFFFFFFFFFFFFFFFFFFFFFFFFFFFFFFFFFFFFFFFFFFFFFFFF
310
FFFFFFFFFFFFFFFFFFFFFFFFFFFFFFFFFFFFFFFFFFFFFFFFFFFFFFFFFFFFFFFF
310
0100000200000000000000000000000000000000610072004C0082005C003107
310
88072500000000008807250000000000680061007200650064005C003B004300
310
0100FEFF030A0000FFFFFFFF0A00030000000000C00000000000004607000000
310
5042727573680007000000504272757368000700000050427275736800F439B2
310
71000000000000000000000000004100540049002E004100430045005C004300
310
6F00720065002D005300740061007400690063003B0043003A005C0050007200
310
6F006700720061006D002000460069006C006500730020002800780038003600
310
29005C0043006F006D006D006F006E002000460069006C00650073005C004100
310
750074006F006400650073006B0020005300680061007200650064005C003B00
310
43003A005C00500072006F006700720061006D002000460069006C0065007300
310
5C004E006F0072006D0061006E005C004E0070006D005C00420069006E000000
310
43003A005C00500072006F006700720061006D002000460069006C0065007300
310
5C0053006F006C006900640057006F0072006B007300200043006F0072007000
310
5C0053006F006C006900640057006F0072006B00730020002800320029005C00
310
730065007400750070005C0069003300380036005C0073007700610063007400
310
770069007A002E006500780065000000220043003A005C00500072006F006700
310
20260000424D0E260000000000003E00000028000000B40200006E0000000100
310
01000000000000000000130B0000130B00000200000002000000000000FFFFFF
310
FFFFFFFFFFFFFFFFFFFFFFFFFFFFFFFFFFFFFFFFFFFFFFFFFFFFFFFFFFFFFFFF
310
FFFFFFFFFFFFFFFFFFFFFFFFFFFFFFFFFFFFFFFFFFFFFFFFFFFFFFFFFFFFFFFF
310
FFFFFFFFFFFFFFFFFFFFFFFFFFFFFFFFFFFFFFFFFFFFFFFFF000FFFFFFFFFFFF
310
FFFFFFFFFFFFFFFFFFFFFFFFFFFFFFFFFFFFFFFFFFFFFFFFFFFFFFFFFFFFFFFF
310
FFFFFFFFFFFFFFFFFFFFFFFFFFFFFFFFFFFFFFFFFFFFFFFFFFFFFFFFFFFFFFFF
310
FFFFFFFFFFFFFFFFFFFFFFFFFFFFFFFFF000FFFFFFFFFFFFFFFFFFFFFFFFFFFF
310
FFFFFFFFFFFFFFFFFFFFFFFFFFFFFFFFFFFFFFFFFFFFFFFFFFFFFFFFFFFFFFFF
310
FFFFFFFFFFFFFFFFFFFFFFFFFFFFFFFFFFFFFFFFFFFFFFFFFFFFFFFFFFFFFFFF
310
FFFFFFFFFFFFFFFFF000FFFFFFFFFFFFFFFFFFFFFFFFFFFFFFFFFFFFFFFFFFFF
310
FFFFFFFFFFFFFFFFFFFFFFFFFFFFFFFFFFFFFFFFFFFFFFFFFFFFFFFFFFFFFFFF
310
FFFFFFFFFFFFFFFFFFFFFFFFFFFFFFFFFFFFFFFFFFFFFFFFFFFFFFFFFFFFFFFF
310
F000FFFFFFFFFFFFFFFFFFFFFFFFFFFFFFFFFFFFFFFFFFFFFFFFFFFFFFFFFFFF
310
FFFFFFFFFFFFFFFFFFFFFFFFFFFFFFFFFFFFFFFFFFFFFFFFFFFFFFFFFFFFFFFF
310
FFFFFFFFFFFFFFFFFFFFFFFFFFFFFFFFFFFFFFFFFFFFFFFFF000FFFFFFFFFFFF
310
FFFFFFFFFFFFFFFFFFFFFFFFFFFFFFFFFFFFFFFFFFFFFFFFFFFFFFFFFFFFFFFF
310
FFFFFFFFFFFFFFFFFFFFFFFFFFFFFFFFFFFFFFFFFFFFFFFFFFFFFFFFFFFFFFFF
310
FFFFFFFFFFFFFFFFFFFFFFFFFFFFFFFFF000FFFFFFFFFFFFFFFFFFFFFFFFFFFF
310
FFFFFFFFFFFFFFFFFFFFFFFFFFFFFFFFFFFFFFFFFFFFFFFFFFFFFFFFFFFFFFFF
310
FFFFFFFFFFFFFFFFFFFFFFFFFFFFFFFFFFFFFFFFFFFFFFFFFFFFFFFFFFFFFFFF
310
FFFFFFFFFFFFFFFFF000FFFFFFFFFFFFFFFFFFFFFFFFFFFFFFFFFFFFFFFFFFFF
310
FFFFFFFFFFFFFFFFFFFFFFFFFFFFFFFFFFFFFFFFFFFFFFFFFFFFFFFFFFFFFFFF
310
FFFFFFFFFFFFFFFFFFFFFFFFFFFFFFFFFFFFFFFFFFFFFFFFFFFFFFFFFFFFFFFF
310
F000FFFFFFFFFFFFFFFFFFFFFFFFFFFFFFFFFFFFFFFFFFFFFFFFFFFFFFFFFFFF
310
FFFFFFFFFFFFFFFFFFFFFFFFFFFFFFFFFFFFFFFFFFFFFFFFFFFFFFFFFFFFFFFF
310
FFFFFFFFFFFFFFFFFFFFFFFFFFFFFFFFFFFFFFFFFFFFFFFFF000FFFFFFFFFFFF
310
FFFFFFFFFFFFFFFFFFFFFFFFFFFFFFFFFFFFFFFFFFFFFFFFFFFFFFFFFFFFFFFF
310
FFFFFFFFFFFFFFFFFFFFFFFFFFFFFFFFFFFFFFFFFFFFFFFFFFFFFFFFFFFFFFFF
310
FFFFFFFFFFFFFFFFFFFFFFFFFFFFFFFFF000FFFFFFFFFFFFFFFFFFFFFFFFFFFF
310
FFFFFFFFFFFFFFFFFFFFFFFFFFFFFFFFFFFFFFFFFFFFFFFFFFFFFFFFFFFFFFFF
310
FFFFFFFFFFFFFFFFFFFFFFFFFFFFFFFFFFFFFFFFFFFFFFFFFFFFFFFFFFFFFFFF
310
FFFFFFFFFFFFFFFFF000FFFFFFFFFFFFFFFFFFFFFFFFFFFFFFFFFFFFFFFFFFFF
310
FFFFFFFFFFFFFFFFFFFFFFFFFFFFFFFFFFFFFFFFFFFFFFFFFFFFFFFFFFFFFFFF
310
FFFFFFFFFFFFFFFFFFFFFFFFFFFFFFFFFFFFFFFFFFFFFFFFFFFFFFFFFFFFFFFF
310
F000FFFFFFFFFFFFFFFFFFFFFFFFFFFFFFFFFFFFFFFFFFFFFFFFFFFFFFFFFFFF
310
FFFFFFFFFFFFFFFFFFFFFFFFFFFFFFFFFFFFFFFFFFFFFFFFFFFFFFFFFFFFFFFF
310
FFFFFFFFFFFFFFFFFFFFFFFFFFFFFFFFFFFFFFFFFFFFFFFFF000FFFFFFFFFFFF
310
FFFFFFFFFFFFFFFFFFFFFFFFFFFFFFFFFFFFFFFFFFFFFFFFFFFFFFFFFFFFFFFF
310
FFFFFFFFFFFFFFFFFFFFFFFFFFFFFFFFFFFFFFFFFFFFFFFFFFFFFFFFFFFFFFFF
310
FFFFFFFFFFFFFFFFFFFFFFFFFFFFFFFFF000FFFFFFFFFFFFFFFFFFFFFFFFFFFF
310
FFFFFFFFFFFFFFFFFFFFFFFFFFFFFFFFFFFFFFFFFFFFFFFFFFFFFFFFFFFFFFFF
310
FFFFFFFFFFFFFFFFFFFFFFFFFFFFFFFFFFFFFFFFFFFFFFFFFFFFFFFFFFFFFFFF
310
FFFFFFFFFFFFFFFFF000FFFFFFFFFFFFFFFFFFFFFFFFFFFFFFFFFFFFFFFFFFFF
310
FFFFFFFFFFFFFFFFFFFFFFFFFFFFFFFFFFFFFFFFFFFFFFFFFFFFFFFFFFFFFFFF
310
FFFFFFFFFFFFFFFFFFFFFFFFFFFFFFFFFFFFFFFFFFFFFFFFFFFFFFFFFFFFFFFF
310
F000FFFFFFFFFFFFFFFFFFFFFFFFFFFFFFFFFFFFFFFFFFFFFFFFFFFFFFFFFFFF
310
FFFFFFFFFFFFFFFFFFFFFFFFFFFFFFFFFFFFFFFFFFFFFFFFFFFFFFFFFFFFFFFF
310
FFFFFFFFFFFFFFFFFFFFFFFFFFFFFFFFFFFFFFFFFFFFFFFFF000FFFFFFFFFFFF
310
FFFFFFFFFFFFFFFFFFFFFFFFFFFFFFFFFFFFFFFFFFFFFFFFFFFFFFFFFFFFFFFF
310
FFFFFFFFFFFFFFFFFFFFFFFFFFFFFFFFFFFFFFFFFFFFFFFFFFFFFFFFFFFFFFFF
310
FFFFFFFFFFFFFFFFFFFFFFFFFFFFFFFFF000FFFFFFFFFFFFFFFFFFFFFFFFFFFF
310
FFFFFFFFFFFFFFFFFFFFFFFFFFFFFFFFFFFFFFFFFFFFFFFFFFFFFFFFFFFFFFFF
310
FFFFFFFFFFFFFFFFFFFFFFFFFFFFFFFFFFFFFFFFFFFFFFFFFFFFFFFFFFFFFFFF
310
FFFFFFFFFFFFFFFFF000FFFFF80003FFFFFFFFFFFFFFFFFFFFFFFFFFFFFFFFFF
310
FFFFF00007FFFFFFFFFF00007FFFFFF800000000000000007FFFFFFFFFFFFFFF
310
FFFFFFFC001FFFFFFFFFFFFFFC001FFFFFFFFFFFFFFFFFFFFFFFFFFE0007FFFF
310
F000FFFF8000007FFFFFFFF8000FFFFFC0007FFFFF80007FFFFF0000007FFFFF
310
FFF8000007FFFFF800000000000000007FFFFFF0001FFFFFFFFFFFC00001FFFF
310
FFFFFFFFC00001FFFFFFFF000000000003FFFFE000007FFFF000FFFE0000000F
310
FFFFFFF0000FFFFF80007FFFFF80007FFFFC0000001FFFFFFFC0000001FFFFF8
310
00000000000000007FFFFFF0001FFFFFFFFFFE0000003FFFFFFFFFFE0000003F
310
FFFFFF000000000003FFFF0000000FFFF000FFF800000003FFFFFFF00007FFFF
310
80007FFFFF80007FFFF000000007FFFFFF000000003FFFF80000000000000000
310
7FFFFFF0001FFFFFFFFFF80000000FFFFFFFFFF80000000FFFFFFF0000000000
310
03FFFC00000003FFF000FFE000000000FFFFFFF00007FFFF80003FFFFF80007F
310
FFC000000001FFFFFC000000001FFFF800000000000000007FFFFFF0001FFFFF
310
FFFFE000000003FFFFFFFFE000000003FFFFFF000000000003FFF000000000FF
310
F000FF80000000007FFFFFF00007FFFF80003FFFFF80007FFF8000000000FFFF
310
F80000000007FFF800000000000000007FFFFFF0001FFFFFFFFFC000000001FF
310
FFFFFFC000000001FFFFFF000000000003FFC0000000007FF000FF0000000000
310
3FFFFFE00007FFFF00003FFFFF80007FFE00000000003FFFF00000000003FFF8
310
00000000000000007FFFFFF0001FFFFFFFFF8000000000FFFFFFFF8000000000
310
FFFFFF000000000003FF80000000003FF000FE00000000001FFFFFE00003FFFF
310
00003FFFFF80007FFC00000000001FFFE00000000001FFF8000001FFFE000000
310
7FFFFFF0001FFFFFFFFE00000000003FFFFFFE00000000003FFFFF0000000000
310
03FF00000000001FF000FC00000000000FFFFFE00003FFFF00001FFFFF80007F
310
F800000000001FFFC00000000000FFF8000001FFFE0000007FFFFFF0001FFFFF
310
FFFC00000000001FFFFFFC00000000001FFFFF000000000003FE00000000000F
310
F000F8000000000007FFFFE00003FFFF00001FFFFF80007FF800000000000FFF
310
800000000000FFF8000001FFFE0000007FFFFFF0001FFFFFFFF800000000000F
310
FFFFF800000000000FFFFF000000000003FC000000000007F000F80000000000
310
03FFFFC00003FFFE00001FFFFF80007FF0000000000007FF0000000000007FF8
310
000001FFFE0000007FFFFFF0001FFFFFFFF0000000000007FFFFF00000000000
310
07FFFF000000000003F8000000000003F000F0000000000003FFFFC00001FFFE
310
00001FFFFF80007FE0000000000007FE0000000000003FF8000001FFFE000000
310
7FFFFFF0001FFFFFFFF0000000000007FFFFF0000000000007FFFF0000000000
310
03F800001F800003F000E00001FFF00001FFFFC00001FFFE00000FFFFF80007F
310
E00001FFE00003FE00001FFF00003FF8000001FFFE0000007FFFFFF0001FFFFF
310
FFE000003E000003FFFFE000003E000003FFFF000000000003F00001FFF80001
310
F000E00007FFFC0001FFFFC00001FFFE00000FFFFF80007FC0000FFFFC0003FC
310
0000FFFFC0001FF8000001FFFE0000007FFFFFF0001FFFFFFFC00003FFE00001
310
FFFFC00003FFE00001FFFF0001FFFFFFFFF00007FFFE0001F000E0000FFFFF00
310
00FFFF800001FFFC00000FFFFF80007FC0001FFFFE0001FC0001FFFFE0001FF8
310
000001FFFE0000007FFFFFF0001FFFFFFF80000FFFF80000FFFF80000FFFF800
310
00FFFF0003FFFFFFFFE0000FFFFF8000F000C0003FFFFF8000FFFF800000FFFC
310
000007FFFF80007F80003FFFFF0001FC0003FFFFF0001FF8000001FFFE000000
310
7FFFFFF0001FFFFFFF80003FFFFE0000FFFF80003FFFFE0000FFFF0003FFFFFF
310
FFE0003FFFFF8000F000C0003FFFFF8000FFFF800000FFFC000007FFFF80007F
310
80007FFFFF8001F80007FFFFF8000FF8000001FFFE0000007FFFFFF0001FFFFF
310
FF00007FFFFF00007FFF00007FFFFF00007FFF0003FFFFFFFFE0003FFFFFC000
310
F000C0007FFFFFC000FFFF000000FFFC000007FFFF80007F8000FFFFFF8000F8
310
000FFFFFF8000FF8000001FFFE0000007FFFFFF0001FFFFFFF0000FFFFFF8000
310
7FFF0000FFFFFF80007FFF0003FFFFFFFFC0007FFFFFC00070008000FFFFFFC0
310
00FFFF000000FFF8000007FFFF80007F8000FFFFFF8000F8000FFFFFF8000FF8
310
000001FFFE0000007FFFFFF0001FFFFFFE0001FFFFFFC0003FFE0001FFFFFFC0
310
003FFF0003FFFFFFFFC0007FFFFFE00070008000FFFFFFC0007FFF0000007FF8
310
000003FFFF80007F0001FFFFFF8000F8000FFFFFF8000FF8000001FFFE000000
310
7FFFFFF0001FFFFFFE0001FFFFFFC0003FFE0001FFFFFFC0003FFF0003FFFFFF
310
FFC000FFFFFFE00070008000FFFFFFC0007FFF0000007FF8000003FFFF80007F
310
0001FFFFFF8000F8001FFFFFF8000FF8000001FFFE0000007FFFFFF0001FFFFF
310
FE0003FFFFFFE0003FFE0003FFFFFFE0003FFF0003FFFFFFFFC000FFFFFFE000
310
70008000FFFFFFC0007FFE0000007FF8000003FFFF80007F0001FFFFFF8000F0
310
001FFFFFF8000FF8000001FFFE0000007FFFFFF0001FFFFFFC0003FFFFFFE000
310
1FFC0003FFFFFFE0001FFF0003FFFFFFFFC000FFFFFFC00070008000FFFFFF80
310
007FFE0000007FF0000003FFFF80007F0001FFFFFF0000F0001FFFFFF8000FF8
310
000001FFFE0000007FFFFFF0001FFFFFFC0007FFFFFFF0001FFC0007FFFFFFF0
310
001FFF0003FFFFFFFFC000FFFFFFC00070008001FFFFFF0000FFFE0000003FF0
310
000001FFFF80007F0001FFFFFF0000F8001FFFFFF0000FF8000001FFFE000000
310
7FFFFFF0001FFFFFFC0007FFFFFFF0001FFC0007FFFFFFF0001FFF0003FFFFFF
310
FFC001FFFFFF80007000FFFFFFFFFE0000FFFE0008003FF0008001FFFF80007F
310
FFFFFFFFFC0000FFFFFFFFFFE0000FF8000001FFFE0000007FFFFFF0001FFFFF
310
F8000FFFFFFFF8000FF8000FFFFFFFF8000FFF0003FFFFFFFFFFFFFFFFFF0000
310
7000FFFFFFFFFC0000FFFC0008003FF0008001FFFF80007FFFFFFFFFF80001FF
310
FFFFFFFF80000FF8000001FFFE0000007FFFFFF0001FFFFFF8000FFFFFFFF800
310
0FF8000FFFFFFFF8000FFF0003FFFFFFFFFFFFFFFFFE0000F000FFFFFFFFE000
310
00FFFC000C003FE000C001FFFF80007FFFFFFFFFC00001FFFFFFFFFE00001FF8
310
000001FFFE0000007FFFFFF0001FFFFFF8000FFFFFFFF8000FF8000FFFFFFFF8
310
000FFF0003FFFFFFFFFFFFFFFFF00000F000FFFFFFFE000001FFFC000C001FE0
310
00C000FFFF80007FFFFFFFFE000001FFFFFFFFE000001FF80FFFFFFFFFFFFFC0
310
7FFFFFF0001FFFFFF8000FFFFFFFF8000FF8000FFFFFFFF8000FFF0003FFFFFF
310
FFFFFFFFFF800000F000FFFFFFC0000001FFFC001C001FE001C000FFFF80007F
310
FFFFFF80000003FFFFFFF80000001FF80FFFFFFFFFFFFFC07FFFFFF0001FFFFF
310
F8001FFFFFFFFC000FF8001FFFFFFFFC000FFF0003FFFFFFFFFFFFFFF0000001
310
F000FFFFF800000001FFF8001C001FE001C000FFFF80007FFFFFF800000003FF
310
FFFF800000003FF80FFFFFFFFFFFFFC07FFFFFF0001FFFFFF8001FFFFFFFFC00
310
0FF8001FFFFFFFFC000FFF0003FFFFFFFFFFFFFE00000001F000FFFFC0000000
310
03FFF8001E001FC001E000FFFF80007FFFFF8000000007FFFFFC000000003FF8
310
0FFFFFFFFFFFFFC07FFFFFF0001FFFFFF8001FFFFFFFFC000FF8001FFFFFFFFC
310
000FFF0003FFFFFFFFFFFFE000000003F000FFFE0000000007FFF8001E000FC0
310
01E0007FFF80007FFFFE0000000007FFFFE0000000007FF80FFFFFFFFFFFFFC0
310
7FFFFFF0001FFFFFF0001FFFFFFFFC0007F0001FFFFFFFFC0007FF0003FFFFFF
310
FFFFFF0000000003F000FFF80000000007FFF8001E000FC003E0007FFF80007F
310
FFF0000000000FFFFF8000000000FFF80FFFFFFFFFFFFFC07FFFFFF0001FFFFF
310
F0001FFFFFFFFC0007F0001FFFFFFFFC0007FF0003FFFFFFFFFFFC0000000007
310
F000FFE0000000000FFFF0003E000FC003E0007FFF80007FFFC0000000001FFF
310
FE0000000001FFF80FFFFFFFFFFFFFC07FFFFFF0001FFFFFF0001FFFFFFFFC00
310
07F0001FFFFFFFFC0007FF0003FFFFFFFFFFF0000000000FF000FFC000000000
310
1FFFF0003F000F8003F0003FFF80007FFF80000000003FFFF80000000003FFF8
310
0FFFFFFFFFFFFFC07FFFFFF0001FFFFFF0001FFFFFFFFC0007F0001FFFFFFFFC
310
0007FF0003FFFFFFFFFFE0000000001FF000FF00000000007FFFF0003F000780
310
03F0003FFF80007FFF00000000007FFFF00000000007FFF80FFFFFFFFFFFFFC0
310
7FFFFFF0001FFFFFF0001FFFFFFFFC0007F0001FFFFFFFFC0007FF0003FFFFFF
310
FFFF80000000007FF000FE0000000000FFFFE0003F00078007F0003FFF80007F
310
FE0000000001FFFFE0000000001FFFF80FFFFFFFFFFFFFC07FFFFFF0001FFFFF
310
F0001FFFFFFFFC0007F0001FFFFFFFFC0007FF0003FFFFFFFFFF0000000000FF
310
F000FC0000000003FFFFE0007F00078007F0003FFF80007FFC0000000007FFFF
310
C0000000007FFFF80FFFFFFFFFFFFFC07FFFFFF0001FFFFFF8001FFFFFFFFC00
310
0FF8001FFFFFFFFC000FFF0003FFFFFFFFFE0000000003FFF000FC000000000F
310
FFFFE0007F80070007F8001FFF80007FF8000000001FFFFF8000000001FFFFF8
310
0FFFFFFFFFFFFFC07FFFFFF0001FFFFFF8001FFFFFFFFC000FF8001FFFFFFFFC
310
000FFF0003FFFFFFFFFC000000000FFFF000F8000000007FFFFFE0007F800700
310
07F8001FFF80007FF000000000FFFFFF800000000FFFFFF80FFFFFFFFFFFFFC0
310
7FFFFFF0001FFFFFF8000FFFFFFFF8000FF8000FFFFFFFF8000FFF0003FFFFFF
310
FFFC000000007FFFF000F800000007FFFFFFC0007F8003000FF8001FFF80007F
310
F000000007FFFFFF000000007FFFFFF80FFFFFFFFFFFFFC07FFFFFF0001FFFFF
310
F8000FFFFFFFF8000FF8000FFFFFFFF8000FFF0003FFFFFFFFF80000000FFFFF
310
F000F0000000FFFFFFFFC000FF8003000FF8001FFF80007FE0000000FFFFFFFF
310
0000000FFFFFFFF8000001FFFE0000007FFFFFF0001FFFFFF8000FFFFFFFF800
310
0FF8000FFFFFFFF8000FFF0003FFFFFFFFF8000000FFFFFFF000F000000FFFFF
310
FFFFC000FFC002000FF8000FFF80007FE000001FFFFFFFFE000001FFFFFFFFF8
310
000001FFFE0000007FFFFFF0001FFFFFF8000FFFFFFFF8000FF8000FFFFFFFF8
310
000FFF0003FFFFFFFFF000001FFFFFFFF000E00000FFFFFFFFFFC000FFC00200
310
0FFC000FFF80007FE00001FFFFFFFFFE00001FFFFFFFFFF8000001FFFE000000
310
7FFFFFF0001FFFFFFC000FFFFFFFF8001FFC000FFFFFFFF8001FFF0003FFFFFF
310
FFF00001FFFFFFFFF000E00007FFFFFFFFFF8000FFC000001FFC000FFF80007F
310
C0000FFFFFFFFFFE0000FFFFFFFFFFF8000001FFFE0000007FFFFFF0001FFFFF
310
FC0007FFFFFFF0001FFC0007FFFFFFF0001FFF0003FFFFFFFFF00007FFFFFFFF
310
F000E0001FFFFFFFFFFF8000FFC000001FFC000FFF80007FC0003FFFFFFFFFFE
310
0001FFFFFFFFFFF8000001FFFE0000007FFFFFF0001FFFFFFC0007FFFFFFF000
310
1FFC0007FFFFFFF0001FFF0003FFFFFFFFF0001FFFFFFFFFF000E0003FFFFF00
310
03FF8001FFE000001FFC0007FF80007FC0007FFFFF0007FC0003FFFFF0003FF8
310
000001FFFE0000007FFFFFF0001FFFFFFC0003FFFFFFE0001FFC0003FFFFFFE0
310
001FFF0003FFFFFFFFF0003FFFFFFFFFF000E0003FFFFF0001FF8001FFE00000
310
1FFE0007FF80007FC0007FFFFE0003FC0007FFFFE0003FF8000001FFFE000000
310
7FFFFFF0001FFFFFFE0003FFFFFFE0003FFE0003FFFFFFE0003FFF0003FFFFFF
310
FFF0003FFFFF8001F000E0003FFFFF0001FF0001FFE000001FFE0007FF80007F
310
C0007FFFFE0003FC0007FFFFE0003FF8000001FFFE0000007FFFFFF0001FFFFF
310
FE0001FFFFFFC0003FFE0001FFFFFFC0003FFF0003FFFFFFFFF0003FFFFF0001
310
F000E0003FFFFF0003FF0001FFE000003FFE0007FF80007FC0007FFFFE0003FC
310
0007FFFFE0003FF8000001FFFE0000007FFFFFF0001FFFFFFF0001FFFFFFC000
310
7FFF0001FFFFFFC0007FFF0003FFFFFFFFF0003FFFFF0001F000E0003FFFFE00
310
03FF0003FFF000003FFE0003FF80007FC0007FFFFC0003FE0007FFFFE0003FF8
310
000001FFFE0000007FFFFFF0001FFFFFFF0000FFFFFF80007FFF0000FFFFFF80
310
007FFF0003FFFFFFFFF0003FFFFF0001F000E0003FFFFE0003FF0003FFF00000
310
3FFF0003FF80007FC0007FFFFC0007FE0007FFFFC0003FF8000001FFFE000000
310
7FFFFFF0001FFFFFFF80007FFFFF0000FFFF80007FFFFF0000FFFF0003FFFFFF
310
FFF0003FFFFF0003F000E0003FFFFC0003FE0003FFF000003FFF0003FF80007F
310
E0003FFFF80007FE0003FFFFC0007FF8000001FFFE0000007FFFFFF0001FFFFF
310
FF80003FFFFE0000FFFF80003FFFFE0000FFFF0003FFFFFFFFF0001FFFFE0003
310
F000F0001FFFF80003FE0003FFF000007FFF0001FF80007FE0003FFFF00007FE
310
0001FFFF80007FF8000001FFFE0000007FFFFFF0001FFFFFFFC0000FFFF80001
310
FFFFC0000FFFF80001FFFF0003FFFFFFFFF0001FFFFC0003F000F0000FFFF000
310
07FE0007FFF800007FFF0001FF80007FE0001FFFE00007FF0000FFFE00007FF8
310
000001FFFE0000007FFFFFF0001FFFFFFFC00003FFE00001FFFFC00003FFE000
310
01FFFF0003FFFFFFFFF8000FFFF80003F000F00003FFC00007FC0007FFF80000
310
7FFF8001FF80007FF00007FF80000FFF00007FF80000FFF8000001FFFE000000
310
7F80000000000001FFE000003E000003FFFFE000003E000003FFFF0003FFFFFF
310
FFF80003FFE00007F000F800000000000FFC0007FFF800007FFF8001FF80007F
310
F000000000000FFF000000000000FFF8000001FFFE0000007F80000000000001
310
FFF0000000000007FFFFF0000000000007FFFF0003FFFFFFFFFC00007E000007
310
F000F800000000000FFC0007FFF80000FFFF8000FF80007FF800000000001FFF
310
800000000001FFF8000001FFFE0000007F80000000000001FFF800000000000F
310
FFFFF800000000000FFFFF0003FFFFFFFFFC00000000000FF000FC0000000000
310
1FFC0007FFFC0000FFFF8000FF80007FF800000000003FFFC00000000001FFF8
310
000001FFFE0000007F80000000000001FFF800000000000FFFFFF80000000000
310
0FFFFF0003FFFFFFFFFE00000000001FF000FE00000000003FF8000FFFFC0000
310
FFFF8000FF80007FFC00000000003FFFC00000000003FFF8000001FFFE000000
310
7F80000000000001FFFC00000000001FFFFFFC00000000001FFFFF0003FFFFFF
310
FFFF00000000001FF000FF00000000003FF8000FFFFC0000FFFFC000FF80007F
310
FE00000000007FFFE00000000007FFF8000001FFFE0000007F80000000000001
310
FFFE00000000003FFFFFFE00000000003FFFFF0003FFFFFFFFFF80000000003F
310
F000FF80000000007FF8000FFFFC0001FFFFC0007F80007FFF0000000000FFFF
310
F0000000000FFFF800000000000000007F80000000000001FFFF8000000000FF
310
FFFFFF8000000000FFFFFF0003FFFFFFFFFFC0000000007FF000FFC000000000
310
FFF8000FFFFE0001FFFFC0007F80007FFF8000000001FFFFF8000000001FFFF8
310
00000000000000007F80000000000001FFFFC000000001FFFFFFFFC000000001
310
FFFFFF0003FFFFFFFFFFE000000000FFF000FFE000000003FFF0001FFFFE0001
310
FFFFC0007F80007FFFC000000007FFFFFE000000003FFFF80000000000000000
310
7F80000000000001FFFFE000000003FFFFFFFFE000000003FFFFFF0003FFFFFF
310
FFFFF000000003FFF000FFF80000000FFFF0001FFFFE0001FFFFE0007F80007F
310
FFF00000000FFFFFFF00000000FFFFF800000000000000007F80000000000001
310
FFFFF80000000FFFFFFFFFF80000000FFFFFFF0003FFFFFFFFFFFC0000000FFF
310
F000FFFE0000003FFFF0001FFFFE0003FFFFE0003F80007FFFFC0000003FFFFF
310
FFC0000003FFFFF800000000000000007F80000000000001FFFFFE0000003FFF
310
FFFFFFFE0000003FFFFFFF0003FFFFFFFFFFFF0000003FFFF000FFFF800000FF
310
FFF0001FFFFF0003FFFFE0003F80007FFFFF000001FFFFFFFFF800001FFFFFF8
310
00000000000000007F80000000000001FFFFFFC00001FFFFFFFFFFFFC00001FF
310
FFFFFF0003FFFFFFFFFFFFC00000FFFFF000FFFFF8000FFFFFFFFFFFFFFFFFFF
310
FFFFFFFFFFFFFFFFFFFFF0001FFFFFFFFFFF0000FFFFFFF80000000000000000
310
7FFFFFFFFFFFFFFFFFFFFFFC001FFFFFFFFFFFFFFC001FFFFFFFFFFFFFFFFFFF
310
FFFFFFFC001FFFFFF000FFFFFFFFFFFFFFFFFFFFFFFFFFFFFFFFFFFFFFFFFFFF
310
FFFFFFFFFFFFFFFFFFFFFFFFFFFFFFFFFFFFFFFFFFFFFFFFFFFFFFFFFFFFFFFF
310
FFFFFFFFFFFFFFFFFFFFFFFFFFFFFFFFFFFFFFFFFFFFFFFFFFFFFFFFFFFFFFFF
310
F000FFFFFFFFFFFFFFFFFFFFFFFFFFFFFFFFFFFFFFFFFFFFFFFFFFFFFFFFFFFF
310
FFFFFFFFFFFFFFFFFFFFFFFFFFFFFFFFFFFFFFFFFFFFFFFFFFFFFFFFFFFFFFFF
310
FFFFFFFFFFFFFFFFFFFFFFFFFFFFFFFFFFFFFFFFFFFFFFFFF000FFFFFFFFFFFF
310
FFFFFFFFFFFFFFFFFFFFFFFFFFFFFFFFFFFFFFFFFFFFFFFFFFFFFFFFFFFFFFFF
310
FFFFFFFFFFFFFFFFFFFFFFFFFFFFFFFFFFFFFFFFFFFFFFFFFFFFFFFFFFFFFFFF
310
FFFFFFFFFFFFFFFFFFFFFFFFFFFFFFFFF000FFFFFFFFFFFFFFFFFFFFFFFFFFFF
310
FFFFFFFFFFFFFFFFFFFFFFFFFFFFFFFFFFFFFFFFFFFFFFFFFFFFFFFFFFFFFFFF
310
FFFFFFFFFFFFFFFFFFFFFFFFFFFFFFFFFFFFFFFFFFFFFFFFFFFFFFFFFFFFFFFF
310
FFFFFFFFFFFFFFFFF000FFFFFFFFFFFFFFFFFFFFFFFFFFFFFFFFFFFFFFFFFFFF
310
FFFFFFFFFFFFFFFFFFFFFFFFFFFFFFFFFFFFFFFFFFFFFFFFFFFFFFFFFFFFFFFF
310
FFFFFFFFFFFFFFFFFFFFFFFFFFFFFFFFFFFFFFFFFFFFFFFFFFFFFFFFFFFFFFFF
310
F000FFFFFFFFFFFFFFFFFFFFFFFFFFFFFFFFFFFFFFFFFFFFFFFFFFFFFFFFFFFF
310
FFFFFFFFFFFFFFFFFFFFFFFFFFFFFFFFFFFFFFFFFFFFFFFFFFFFFFFFFFFFFFFF
310
FFFFFFFFFFFFFFFFFFFFFFFFFFFFFFFFFFFFFFFFFFFFFFFFF000FFFFFFFFFFFF
310
FFFFFFFFFFFFFFFFFFFFFFFFFFFFFFFFFFFFFFFFFFFFFFFFFFFFFFFFFFFFFFFF
310
FFFFFFFFFFFFFFFFFFFFFFFFFFFFFFFFFFFFFFFFFFFFFFFFFFFFFFFFFFFFFFFF
310
FFFFFFFFFFFFFFFFFFFFFFFFFFFFFFFFF000FFFFFFFFFFFFFFFFFFFFFFFFFFFF
310
FFFFFFFFFFFFFFFFFFFFFFFFFFFFFFFFFFFFFFFFFFFFFFFFFFFFFFFFFFFFFFFF
310
FFFFFFFFFFFFFFFFFFFFFFFFFFFFFFFFFFFFFFFFFFFFFFFFFFFFFFFFFFFFFFFF
310
FFFFFFFFFFFFFFFFF000FFFFFFFFFFFFFFFFFFFFFFFFFFFFFFFFFFFFFFFFFFFF
310
FFFFFFFFFFFFFFFFFFFFFFFFFFFFFFFFFFFFFFFFFFFFFFFFFFFFFFFFFFFFFFFF
310
FFFFFFFFFFFFFFFFFFFFFFFFFFFFFFFFFFFFFFFFFFFFFFFFFFFFFFFFFFFFFFFF
310
F000FFFFFFFFFFFFFFFFFFFFFFFFFFFFFFFFFFFFFFFFFFFFFFFFFFFFFFFFFFFF
310
FFFFFFFFFFFFFFFFFFFFFFFFFFFFFFFFFFFFFFFFFFFFFFFFFFFFFFFFFFFFFFFF
310
FFFFFFFFFFFFFFFFFFFFFFFFFFFFFFFFFFFFFFFFFFFFFFFFF000FFFFFFFFFFFF
310
FFFFFFFFFFFFFFFFFFFFFFFFFFFFFFFFFFFFFFFFFFFFFFFFFFFFFFFFFFFFFFFF
310
FFFFFFFFFFFFFFFFFFFFFFFFFFFFFFFFFFFFFFFFFFFFFFFFFFFFFFFFFFFFFFFF
310
FFFFFFFFFFFFFFFFFFFFFFFFFFFFFFFFF000FFFFFFFFFFFFFFFFFFFFFFFFFFFF
310
FFFFFFFFFFFFFFFFFFFFFFFFFFFFFFFFFFFFFFFFFFFFFFFFFFFFFFFFFFFFFFFF
310
FFFFFFFFFFFFFFFFFFFFFFFFFFFFFFFFFFFFFFFFFFFFFFFFFFFFFFFFFFFFFFFF
310
FFFFFFFFFFFFFFFFF000FFFFFFFFFFFFFFFFFFFFFFFFFFFFFFFFFFFFFFFFFFFF
310
FFFFFFFFFFFFFFFFFFFFFFFFFFFFFFFFFFFFFFFFFFFFFFFFFFFFFFFFFFFFFFFF
310
FFFFFFFFFFFFFFFFFFFFFFFFFFFFFFFFFFFFFFFFFFFFFFFFFFFFFFFFFFFFFFFF
310
F000FFFFFFFFFFFFFFFFFFFFFFFFFFFFFFFFFFFFFFFFFFFFFFFFFFFFFFFFFFFF
310
FFFFFFFFFFFFFFFFFFFFFFFFFFFFFFFFFFFFFFFFFFFFFFFFFFFFFFFFFFFFFFFF
310
FFFFFFFFFFFFFFFFFFFFFFFFFFFFFFFFFFFFFFFFFFFFFFFFF000FFFFFFFFFFFF
310
FFFFFFFFFFFFFFFFFFFFFFFFFFFFFFFFFFFFFFFFFFFFFFFFFFFFFFFFFFFFFFFF
310
FFFFFFFFFFFFFFFFFFFFFFFFFFFFFFFFFFFFFFFFFFFFFFFFFFFFFFFFFFFFFFFF
310
FFFFFFFFFFFFFFFFFFFFFFFFFFFFFFFFF000FFFFFFFFFFFFFFFFFFFFFFFFFFFF
310
FFFFFFFFFFFFFFFFFFFFFFFFFFFFFFFFFFFFFFFFFFFFFFFFFFFFFFFFFFFFFFFF
310
FFFFFFFFFFFFFFFFFFFFFFFFFFFFFFFFFFFFFFFFFFFFFFFFFFFFFFFFFFFFFFFF
310
FFFFFFFFFFFFFFFFF000FFFFFFFFFFFFFFFFFFFFFFFFFFFFFFFFFFFFFFFFFFFF
310
FFFFFFFFFFFFFFFFFFFFFFFFFFFFFFFFFFFFFFFFFFFFFFFFFFFFFFFFFFFFFFFF
310
FFFFFFFFFFFFFFFFFFFFFFFFFFFFFFFFFFFFFFFFFFFFFFFFFFFFFFFFFFFFFFFF
310
F000FFFFFFFFFFFFFFFFFFFFFFFFFFFFFFFFFFFFFFFFFFFFFFFFFFFFFFFFFFFF
310
FFFFFFFFFFFFFFFFFFFFFFFFFFFFFFFFFFFFFFFFFFFFFFFFFFFFFFFFFFFFFFFF
310
FFFFFFFFFFFFFFFFFFFFFFFFFFFFFFFFFFFFFFFFFFFFFFFFF000FFFFFFFFFFFF
310
FFFFFFFFFFFFFFFFFFFFFFFFFFFFFFFFFFFFFFFFFFFFFFFFFFFFFFFFFFFFFFFF
310
FFFFFFFFFFFFFFFFFFFFFFFFFFFFFFFFFFFFFFFFFFFFFFFFFFFFFFFFFFFFFFFF
310
FFFFFFFFFFFFFFFFFFFFFFFFFFFFFFFFF000FFFFFFFFFFFFFFFFFFFFFFFFFFFF
310
FFFFFFFFFFFFFFFFFFFFFFFFFFFFFFFFFFFFFFFFFFFFFFFFFFFFFFFFFFFFFFFF
310
FFFFFFFFFFFFFFFFFFFFFFFFFFFFFFFFFFFFFFFFFFFFFFFFFFFFFFFFFFFFFFFF
310
FFFFFFFFFFFFFFFFF000FFFFFFFFFFFFFFFFFFFFFFFFFFFFFFFFFFFFFFFFFFFF
310
FFFFFFFFFFFFFFFFFFFFFFFFFFFFFFFFFFFFFFFFFFFFFFFFFFFFFFFFFFFFFFFF
310
FFFFFFFFFFFFFFFFFFFFFFFFFFFFFFFFFFFFFFFFFFFFFFFFFFFFFFFFFFFFFFFF
310
F000FFFFFFFFFFFFFFFFFFFFFFFFFFFFFFFFFFFFFFFFFFFFFFFFFFFFFFFFFFFF
310
FFFFFFFFFFFFFFFFFFFFFFFFFFFFFFFFFFFFFFFFFFFFFFFFFFFFFFFFFFFFFFFF
310
FFFFFFFFFFFFFFFFFFFFFFFFFFFFFFFFFFFFFFFFFFFFFFFFF000FFFFFFFFFFFF
310
FFFFFFFFFFFFFFFFFFFFFFFFFFFFFFFFFFFFFFFFFFFFFFFFFFFFFFFFFFFFFFFF
310
FFFFFFFFFFFFFFFFFFFFFFFFFFFFFFFFFFFFFFFFFFFFFFFFFFFFFFFFFFFFFFFF
310
FFFFFFFFFFFFFFFFFFFFFFFFFFFFFFFFF0000000000000000000000000000000
310
0000000000000000E0ED3B6A0000000030292F6A00000000B0ED3B6A00000000
310
70292F6A00000000FB0005030000000700856C6A00000000D0BDF36900000000
310
D0292F6A00000000F0292F6A00000000102A2F6A00000000C032066A00000000
310
50F33B6A0000000020F33B6A00000000F0F23B6A00000000C0F23B6A00000000
310
C02D066A00000000802B066A0000000030EE116A0000000090F23B6A00000000
310
60F23B6A00000000302A2F6A0000000050362F6A0000000070362F6A00000000
310
30980C6A0000000090362F6A00000000709F0C6A00000000E0BA5F5A00000000
310
30970C6A0000000010B85F5A00000000F0AA0C6A0000000000AD0C6A00000000
310
70A30C6A0000000030AD0C6A00000000B0A30C6A0000000060AA0C6A00000000
310
F09F0C6A00000000F0AD0C6A00000000F0A20C6A0000000030A10C6A00000000
310
30F3106A00000000B0F3106A0000000010F3106A0000000030960C6A00000000
310
90F3106A0000000050EA3B6A0000000030F4106A0000000000E93B6A00000000
310
10F4106A00000000902EF7690000000090E93B6A00000000102EF76900000000
310
302EF76900000000F030F76900000000F02EF76900000000709A0C6A00000000
310
60E93B6A0000000030E93B6A00000000F0E93B6A00000000D0E83B6A00000000
  1
OLE
  0
ENDSEC
  0
SECTION
  2
OBJECTS
  0
DICTIONARY
  5
C
330
0
100
AcDbDictionary
281
     1
  3
ACAD_GROUP
350
D
  3
ACAD_LAYOUT
350
1A
  3
ACAD_MLEADERSTYLE
350
1FB
  3
ACAD_MLINESTYLE
350
17
  3
ACAD_PLOTSETTINGS
350
19
  3
ACAD_PLOTSTYLENAME
350
E
  3
ACAD_TABLESTYLE
350
1FA
  3
ACAD_VISUALSTYLE
350
2A
  3
AcDbVariableDictionary
350
1FC
  0
DICTIONARY
  5
D
102
{ACAD_REACTORS
330
C
102
}
330
C
100
AcDbDictionary
281
     1
  0
DICTIONARY
  5
1A
102
{ACAD_REACTORS
330
C
102
}
330
C
100
AcDbDictionary
281
     1
  3
Layout1
350
1E
  3
Layout2
350
26
  3
Model
350
22
  0
DICTIONARY
  5
1FB
102
{ACAD_REACTORS
330
C
102
}
330
C
100
AcDbDictionary
281
     1
  0
DICTIONARY
  5
17
102
{ACAD_REACTORS
330
C
102
}
330
C
100
AcDbDictionary
281
     1
  3
Standard
350
18
  0
DICTIONARY
  5
19
102
{ACAD_REACTORS
330
C
102
}
330
C
100
AcDbDictionary
281
     1
  0
ACDBDICTIONARYWDFLT
  5
E
102
{ACAD_REACTORS
330
C
102
}
330
C
100
AcDbDictionary
281
     1
  3
Normal
350
F
100
AcDbDictionaryWithDefault
340
F
  0
DICTIONARY
  5
1FA
102
{ACAD_REACTORS
330
C
102
}
330
C
100
AcDbDictionary
281
     1
  0
DICTIONARY
  5
2A
102
{ACAD_REACTORS
330
C
102
}
330
C
100
AcDbDictionary
281
     1
  3
2dWireframe
350
2F
  3
3D Hidden
350
31
  3
3dWireframe
350
30
  3
Basic
350
32
  3
Brighten
350
36
  3
ColorChange
350
3A
  3
Conceptual
350
34
  3
Dim
350
35
  3
Facepattern
350
39
  3
Flat
350
2B
  3
FlatWithEdges
350
2C
  3
Gouraud
350
2D
  3
GouraudWithEdges
350
2E
  3
Linepattern
350
38
  3
Realistic
350
33
  3
Thicken
350
37
  0
DICTIONARY
  5
1FC
102
{ACAD_REACTORS
330
C
102
}
330
C
100
AcDbDictionary
281
     1
  3
PSOLHEIGHT
350
1FE
  3
PSOLWIDTH
350
1FD
  0
LAYOUT
  5
1E
102
{ACAD_REACTORS
330
1A
102
}
330
1A
100
AcDbPlotSettings
  1

  2
none_device
  4

  6

 40
0.0
 41
0.0
 42
0.0
 43
0.0
 44
0.0
 45
0.0
 46
0.0
 47
0.0
 48
0.0
 49
0.0
140
0.0
141
0.0
142
1.0
143
1.0
 70
   688
 72
     0
 73
     0
 74
     5
  7

 75
    16
147
1.0
148
0.0
149
0.0
100
AcDbLayout
  1
Layout1
 70
     1
 71
     1
 10
0.0
 20
0.0
 11
420.0
 21
297.0
 12
0.0
 22
0.0
 32
0.0
 14
1.0000000000E+20
 24
1.0000000000E+20
 34
1.0000000000E+20
 15
-1.0000000000E+20
 25
-1.0000000000E+20
 35
-1.0000000000E+20
146
0.0
 13
0.0
 23
0.0
 33
0.0
 16
1.0
 26
0.0
 36
0.0
 17
0.0
 27
1.0
 37
0.0
 76
     0
330
1B
  0
LAYOUT
  5
26
102
{ACAD_REACTORS
330
1A
102
}
330
1A
100
AcDbPlotSettings
  1

  2
none_device
  4

  6

 40
0.0
 41
0.0
 42
0.0
 43
0.0
 44
0.0
 45
0.0
 46
0.0
 47
0.0
 48
0.0
 49
0.0
140
0.0
141
0.0
142
1.0
143
1.0
 70
   688
 72
     0
 73
     0
 74
     5
  7

 75
    16
147
1.0
148
0.0
149
0.0
100
AcDbLayout
  1
Layout2
 70
     1
 71
     2
 10
0.0
 20
0.0
 11
0.0
 21
0.0
 12
0.0
 22
0.0
 32
0.0
 14
0.0
 24
0.0
 34
0.0
 15
0.0
 25
0.0
 35
0.0
146
0.0
 13
0.0
 23
0.0
 33
0.0
 16
1.0
 26
0.0
 36
0.0
 17
0.0
 27
1.0
 37
0.0
 76
     0
330
23
  0
LAYOUT
  5
22
102
{ACAD_REACTORS
330
1A
102
}
330
1A
100
AcDbPlotSettings
  1

  2
none_device
  4

  6

 40
0.0
 41
0.0
 42
0.0
 43
0.0
 44
0.0
 45
0.0
 46
0.0
 47
0.0
 48
0.0
 49
0.0
140
0.0
141
0.0
142
1.0
143
1.0
 70
  1712
 72
     0
 73
     0
 74
     0
  7

 75
     0
147
1.0
148
0.0
149
0.0
100
AcDbLayout
  1
Model
 70
     1
 71
     0
 10
0.0
 20
0.0
 11
297.0
 21
210.0
 12
0.0
 22
0.0
 32
0.0
 14
0.0
 24
0.0
 34
0.0
 15
297.0
 25
210.0
 35
0.0
146
0.0
 13
0.0
 23
0.0
 33
0.0
 16
1.0
 26
0.0
 36
0.0
 17
0.0
 27
1.0
 37
0.0
 76
     0
330
1F
331
29
  0
MLINESTYLE
  5
18
102
{ACAD_REACTORS
330
17
102
}
330
17
100
AcDbMlineStyle
  2
Standard
 70
     0
  3

 62
   256
 51
90.0
 52
90.0
 71
     2
 49
0.5
 62
   256
  6
BYLAYER
 49
-0.5
 62
   256
  6
BYLAYER
  0
ACDBPLACEHOLDER
  5
F
102
{ACAD_REACTORS
330
E
102
}
330
E
  0
VISUALSTYLE
  5
2F
102
{ACAD_REACTORS
330
2A
102
}
330
2A
100
AcDbVisualStyle
  2
2dWireframe
 70
     4
 71
     0
 72
     2
 73
     0
 90
        0
 40
-0.6
 41
-30.0
 62
     5
 63
     7
 74
     1
 91
        4
 64
     7
 65
   257
 75
     1
175
     1
 42
1.0
 92
        0
 66
   257
 43
1.0
 76
     1
 77
     6
 78
     2
 67
     7
 79
     5
170
     0
171
     0
290
     0
174
     0
 93
        1
 44
0.0
173
     0
291
     0
 45
0.0
1001
ACAD
1000
AcDbSavedByObjectVersion
1070
     0
  0
VISUALSTYLE
  5
31
102
{ACAD_REACTORS
330
2A
102
}
330
2A
100
AcDbVisualStyle
  2
3D Hidden
 70
     6
 71
     1
 72
     2
 73
     2
 90
        0
 40
-0.6
 41
-30.0
 62
     5
 63
     7
 74
     2
 91
        2
 64
     7
 65
   257
 75
     2
175
     1
 42
40.0
 92
        0
 66
   257
 43
1.0
 76
     1
 77
     6
 78
     2
 67
     7
 79
     3
170
     0
171
     0
290
     0
174
     0
 93
        1
 44
0.0
173
     0
291
     0
 45
0.0
1001
ACAD
1000
AcDbSavedByObjectVersion
1070
     0
  0
VISUALSTYLE
  5
30
102
{ACAD_REACTORS
330
2A
102
}
330
2A
100
AcDbVisualStyle
  2
3dWireframe
 70
     5
 71
     0
 72
     2
 73
     0
 90
        0
 40
-0.6
 41
-30.0
 62
     5
 63
     7
 74
     1
 91
        4
 64
     7
 65
   257
 75
     1
175
     1
 42
1.0
 92
        0
 66
   257
 43
1.0
 76
     1
 77
     6
 78
     2
 67
     7
 79
     5
170
     0
171
     0
290
     0
174
     0
 93
        1
 44
0.0
173
     0
291
     0
 45
0.0
1001
ACAD
1000
AcDbSavedByObjectVersion
1070
     0
  0
VISUALSTYLE
  5
32
102
{ACAD_REACTORS
330
2A
102
}
330
2A
100
AcDbVisualStyle
  2
Basic
 70
     7
 71
     1
 72
     0
 73
     1
 90
        0
 40
-0.6
 41
-30.0
 62
     5
 63
     7
 74
     0
 91
        4
 64
     7
 65
   257
 75
     1
175
     1
 42
1.0
 92
        8
 66
     7
 43
1.0
 76
     1
 77
     6
 78
     2
 67
     7
 79
     5
170
     0
171
     0
290
     0
174
     0
 93
        1
 44
0.0
173
     0
291
     1
 45
0.0
1001
ACAD
1000
AcDbSavedByObjectVersion
1070
     0
  0
VISUALSTYLE
  5
36
102
{ACAD_REACTORS
330
2A
102
}
330
2A
100
AcDbVisualStyle
  2
Brighten
 70
    12
 71
     2
 72
     2
 73
     0
 90
        0
 40
-0.6
 41
-30.0
 62
     5
 63
     7
 74
     1
 91
        4
 64
     7
 65
   257
 75
     1
175
     1
 42
1.0
 92
        8
 66
     7
 43
1.0
 76
     1
 77
     6
 78
     2
 67
     7
 79
     5
170
     0
171
     0
290
     0
174
     0
 93
        1
 44
50.0
173
     0
291
     1
 45
0.0
1001
ACAD
1000
AcDbSavedByObjectVersion
1070
     0
  0
VISUALSTYLE
  5
3A
102
{ACAD_REACTORS
330
2A
102
}
330
2A
100
AcDbVisualStyle
  2
ColorChange
 70
    16
 71
     2
 72
     2
 73
     3
 90
        0
 40
-0.6
 41
-30.0
 62
     5
 63
     8
 74
     1
 91
        4
 64
     7
 65
   257
 75
     1
175
     1
 42
1.0
 92
        8
 66
     8
 43
1.0
 76
     1
 77
     6
 78
     2
 67
     7
 79
     5
170
     0
171
     0
290
     0
174
     0
 93
        1
 44
0.0
173
     0
291
     1
 45
0.0
1001
ACAD
1000
AcDbSavedByObjectVersion
1070
     0
  0
VISUALSTYLE
  5
34
102
{ACAD_REACTORS
330
2A
102
}
330
2A
100
AcDbVisualStyle
  2
Conceptual
 70
     9
 71
     3
 72
     2
 73
     0
 90
        0
 40
-0.6
 41
-30.0
 62
     5
 63
     7
 74
     2
 91
        2
 64
     7
 65
   257
 75
     1
175
     1
 42
40.0
 92
        8
 66
     7
 43
1.0
 76
     1
 77
     6
 78
     2
 67
     7
 79
     3
170
     0
171
     0
290
     0
174
     0
 93
        1
 44
0.0
173
     0
291
     0
 45
0.0
1001
ACAD
1000
AcDbSavedByObjectVersion
1070
     0
  0
VISUALSTYLE
  5
35
102
{ACAD_REACTORS
330
2A
102
}
330
2A
100
AcDbVisualStyle
  2
Dim
 70
    11
 71
     2
 72
     2
 73
     0
 90
        0
 40
-0.6
 41
-30.0
 62
     5
 63
     7
 74
     1
 91
        4
 64
     7
 65
   257
 75
     1
175
     1
 42
1.0
 92
        8
 66
     7
 43
1.0
 76
     1
 77
     6
 78
     2
 67
     7
 79
     5
170
     0
171
     0
290
     0
174
     0
 93
        1
 44
-50.0
173
     0
291
     1
 45
0.0
1001
ACAD
1000
AcDbSavedByObjectVersion
1070
     0
  0
VISUALSTYLE
  5
39
102
{ACAD_REACTORS
330
2A
102
}
330
2A
100
AcDbVisualStyle
  2
Facepattern
 70
    15
 71
     2
 72
     2
 73
     0
 90
        0
 40
-0.6
 41
-30.0
 62
     5
 63
     7
 74
     1
 91
        4
 64
     7
 65
   257
 75
     1
175
     1
 42
1.0
 92
        8
 66
     7
 43
1.0
 76
     1
 77
     6
 78
     2
 67
     7
 79
     5
170
     0
171
     0
290
     0
174
     0
 93
        1
 44
0.0
173
     0
291
     1
 45
0.0
1001
ACAD
1000
AcDbSavedByObjectVersion
1070
     0
  0
VISUALSTYLE
  5
2B
102
{ACAD_REACTORS
330
2A
102
}
330
2A
100
AcDbVisualStyle
  2
Flat
 70
     0
 71
     2
 72
     1
 73
     1
 90
        2
 40
-0.6
 41
30.0
 62
     5
 63
     7
 74
     0
 91
        4
 64
     7
 65
   257
 75
     1
175
     1
 42
1.0
 92
        8
 66
     7
 43
1.0
 76
     1
 77
     6
 78
     2
 67
     7
 79
     5
170
     0
171
     0
290
     0
174
     0
 93
       13
 44
0.0
173
     0
291
     1
 45
0.0
1001
ACAD
1000
AcDbSavedByObjectVersion
1070
     0
  0
VISUALSTYLE
  5
2C
102
{ACAD_REACTORS
330
2A
102
}
330
2A
100
AcDbVisualStyle
  2
FlatWithEdges
 70
     1
 71
     2
 72
     1
 73
     1
 90
        2
 40
-0.6
 41
30.0
 62
     5
 63
     7
 74
     1
 91
        4
 64
     7
 65
   257
 75
     1
175
     1
 42
1.0
 92
        0
 66
   257
 43
1.0
 76
     1
 77
     6
 78
     2
 67
     7
 79
     5
170
     0
171
     0
290
     0
174
     0
 93
       13
 44
0.0
173
     0
291
     1
 45
0.0
1001
ACAD
1000
AcDbSavedByObjectVersion
1070
     0
  0
VISUALSTYLE
  5
2D
102
{ACAD_REACTORS
330
2A
102
}
330
2A
100
AcDbVisualStyle
  2
Gouraud
 70
     2
 71
     2
 72
     2
 73
     1
 90
        2
 40
-0.6
 41
30.0
 62
     5
 63
     7
 74
     0
 91
        4
 64
     7
 65
   257
 75
     1
175
     1
 42
1.0
 92
        0
 66
     7
 43
1.0
 76
     1
 77
     6
 78
     2
 67
     7
 79
     5
170
     0
171
     0
290
     0
174
     0
 93
       13
 44
0.0
173
     0
291
     1
 45
0.0
1001
ACAD
1000
AcDbSavedByObjectVersion
1070
     0
  0
VISUALSTYLE
  5
2E
102
{ACAD_REACTORS
330
2A
102
}
330
2A
100
AcDbVisualStyle
  2
GouraudWithEdges
 70
     3
 71
     2
 72
     2
 73
     1
 90
        2
 40
-0.6
 41
30.0
 62
     5
 63
     7
 74
     1
 91
        4
 64
     7
 65
   257
 75
     1
175
     1
 42
1.0
 92
        0
 66
   257
 43
1.0
 76
     1
 77
     6
 78
     2
 67
     7
 79
     5
170
     0
171
     0
290
     0
174
     0
 93
       13
 44
0.0
173
     0
291
     1
 45
0.0
1001
ACAD
1000
AcDbSavedByObjectVersion
1070
     0
  0
VISUALSTYLE
  5
38
102
{ACAD_REACTORS
330
2A
102
}
330
2A
100
AcDbVisualStyle
  2
Linepattern
 70
    14
 71
     2
 72
     2
 73
     0
 90
        0
 40
-0.6
 41
-30.0
 62
     5
 63
     7
 74
     1
 91
        4
 64
     7
 65
   257
 75
     7
175
     7
 42
1.0
 92
        8
 66
     7
 43
1.0
 76
     1
 77
     6
 78
     2
 67
     7
 79
     5
170
     0
171
     0
290
     0
174
     0
 93
        1
 44
0.0
173
     0
291
     1
 45
0.0
1001
ACAD
1000
AcDbSavedByObjectVersion
1070
     0
  0
VISUALSTYLE
  5
33
102
{ACAD_REACTORS
330
2A
102
}
330
2A
100
AcDbVisualStyle
  2
Realistic
 70
     8
 71
     2
 72
     2
 73
     0
 90
        0
 40
-0.6
 41
-30.0
 62
     5
 63
     7
 74
     1
 91
        0
 64
     7
 65
   257
 75
     1
175
     1
 42
1.0
 92
        8
 66
     8
 43
1.0
 76
     1
 77
     6
 78
     2
 67
     7
 79
     5
170
     0
171
     0
290
     0
174
     0
 93
       13
 44
0.0
173
     0
291
     0
 45
0.0
1001
ACAD
1000
AcDbSavedByObjectVersion
1070
     0
  0
VISUALSTYLE
  5
37
102
{ACAD_REACTORS
330
2A
102
}
330
2A
100
AcDbVisualStyle
  2
Thicken
 70
    13
 71
     2
 72
     2
 73
     0
 90
        0
 40
-0.6
 41
-30.0
 62
     5
 63
     7
 74
     1
 91
        4
 64
     7
 65
   257
 75
     1
175
     1
 42
1.0
 92
       12
 66
     7
 43
1.0
 76
     1
 77
     6
 78
     2
 67
     7
 79
     5
170
     0
171
     0
290
     0
174
     0
 93
        1
 44
0.0
173
     0
291
     1
 45
0.0
1001
ACAD
1000
AcDbSavedByObjectVersion
1070
     0
  0
DICTIONARYVAR
  5
1FE
102
{ACAD_REACTORS
330
1FC
102
}
330
1FC
100
DictionaryVariables
280
     0
  1
80.000000
  0
DICTIONARYVAR
  5
1FD
102
{ACAD_REACTORS
330
1FC
102
}
330
1FC
100
DictionaryVariables
280
     0
  1
5.000000
  0
ENDSEC
  0
EOF
