  0
SECTION
  2
HEADER
  9
$ACADVER
  1
AC1015
  9
$ACADMAINTVER
 70
     6
  9
$DWGCODEPAGE
  3
ANSI_1252
  9
$INSBASE
 10
0.0
 20
0.0
 30
0.0
  9
$EXTMIN
 10
0.0
 20
0.0
 30
0.0
  9
$EXTMAX
 10
297.0
 20
210.0
 30
0.0
  9
$LIMMIN
 10
0.0
 20
0.0
  9
$LIMMAX
 10
297.0
 20
210.0
  9
$ORTHOMODE
 70
     0
  9
$REGENMODE
 70
     1
  9
$FILLMODE
 70
     1
  9
$QTEXTMODE
 70
     0
  9
$MIRRTEXT
 70
     1
  9
$LTSCALE
 40
1.0
  9
$ATTMODE
 70
     1
  9
$TEXTSIZE
 40
2.0
  9
$TRACEWID
 40
1.0
  9
$TEXTSTYLE
  7
Standard
  9
$CLAYER
  8
0
  9
$CELTYPE
  6
ByLayer
  9
$CECOLOR
 62
   256
  9
$CELTSCALE
 40
1.0
  9
$DISPSILH
 70
     0
  9
$DIMSCALE
 40
1.0
  9
$DIMASZ
 40
3.0
  9
$DIMEXO
 40
0.0
  9
$DIMDLI
 40
3.75
  9
$DIMRND
 40
0.0
  9
$DIMDLE
 40
0.0
  9
$DIMEXE
 40
1.0
  9
$DIMTP
 40
0.0
  9
$DIMTM
 40
0.0
  9
$DIMTXT
 40
2.0
  9
$DIMCEN
 40
2.5
  9
$DIMTSZ
 40
0.0
  9
$DIMTOL
 70
     0
  9
$DIMLIM
 70
     0
  9
$DIMTIH
 70
     1
  9
$DIMTOH
 70
     1
  9
$DIMSE1
 70
     0
  9
$DIMSE2
 70
     0
  9
$DIMTAD
 70
     1
  9
$DIMZIN
 70
     0
  9
$DIMBLK
  1

  9
$DIMASO
 70
     1
  9
$DIMSHO
 70
     1
  9
$DIMPOST
  1

  9
$DIMAPOST
  1

  9
$DIMALT
 70
     0
  9
$DIMALTD
 70
     3
  9
$DIMALTF
 40
0.0393700787
  9
$DIMLFAC
 40
1.0
  9
$DIMTOFL
 70
     1
  9
$DIMTVP
 40
0.0
  9
$DIMTIX
 70
     0
  9
$DIMSOXD
 70
     0
  9
$DIMSAH
 70
     0
  9
$DIMBLK1
  1

  9
$DIMBLK2
  1

  9
$DIMSTYLE
  2
ISO-25
  9
$DIMCLRD
 70
     0
  9
$DIMCLRE
 70
     0
  9
$DIMCLRT
 70
     0
  9
$DIMTFAC
 40
1.0
  9
$DIMGAP
 40
1.524
  9
$DIMJUST
 70
     0
  9
$DIMSD1
 70
     0
  9
$DIMSD2
 70
     0
  9
$DIMTOLJ
 70
     0
  9
$DIMTZIN
 70
     0
  9
$DIMALTZ
 70
     0
  9
$DIMALTTZ
 70
     0
  9
$DIMUPT
 70
     0
  9
$DIMDEC
 70
     2
  9
$DIMTDEC
 70
     3
  9
$DIMALTU
 70
     2
  9
$DIMALTTD
 70
     3
  9
$DIMTXSTY
  7
Standard
  9
$DIMAUNIT
 70
     0
  9
$DIMADEC
 70
     2
  9
$DIMALTRND
 40
0.0
  9
$DIMAZIN
 70
     0
  9
$DIMDSEP
 70
    44
  9
$DIMATFIT
 70
     3
  9
$DIMFRAC
 70
     0
  9
$DIMLDRBLK
  1

  9
$DIMLUNIT
 70
     2
  9
$DIMLWD
 70
    -2
  9
$DIMLWE
 70
    -2
  9
$DIMTMOVE
 70
     0
  9
$LUNITS
 70
     2
  9
$LUPREC
 70
     2
  9
$SKETCHINC
 40
1.0
  9
$FILLETRAD
 40
10.0
  9
$AUNITS
 70
     0
  9
$AUPREC
 70
     2
  9
$MENU
  1
.
  9
$ELEVATION
 40
0.0
  9
$PELEVATION
 40
0.0
  9
$THICKNESS
 40
0.0
  9
$LIMCHECK
 70
     0
  9
$CHAMFERA
 40
10.0
  9
$CHAMFERB
 40
10.0
  9
$CHAMFERC
 40
20.0
  9
$CHAMFERD
 40
0.0
  9
$SKPOLY
 70
     0
  9
$TDCREATE
 40
2455673.468498681
  9
$TDUCREATE
 40
2455673.385165347
  9
$TDUPDATE
 40
2455673.468498692
  9
$TDUUPDATE
 40
2455673.385165359
  9
$TDINDWG
 40
0.0000000116
  9
$TDUSRTIMER
 40
0.0000000116
  9
$USRTIMER
 70
     1
  9
$ANGBASE
 50
0.0
  9
$ANGDIR
 70
     0
  9
$PDMODE
 70
     0
  9
$PDSIZE
 40
-1.0
  9
$PLINEWID
 40
0.0
  9
$SPLFRAME
 70
     0
  9
$SPLINETYPE
 70
     6
  9
$SPLINESEGS
 70
     8
  9
$HANDSEED
  5
1F5
  9
$SURFTAB1
 70
     6
  9
$SURFTAB2
 70
     6
  9
$SURFTYPE
 70
     6
  9
$SURFU
 70
     6
  9
$SURFV
 70
     6
  9
$UCSBASE
  2

  9
$UCSNAME
  2

  9
$UCSORG
 10
0.0
 20
0.0
 30
0.0
  9
$UCSXDIR
 10
1.0
 20
0.0
 30
0.0
  9
$UCSYDIR
 10
0.0
 20
1.0
 30
0.0
  9
$UCSORTHOREF
  2

  9
$UCSORTHOVIEW
 70
     0
  9
$UCSORGTOP
 10
0.0
 20
0.0
 30
0.0
  9
$UCSORGBOTTOM
 10
0.0
 20
0.0
 30
0.0
  9
$UCSORGLEFT
 10
0.0
 20
0.0
 30
0.0
  9
$UCSORGRIGHT
 10
0.0
 20
0.0
 30
0.0
  9
$UCSORGFRONT
 10
0.0
 20
0.0
 30
0.0
  9
$UCSORGBACK
 10
0.0
 20
0.0
 30
0.0
  9
$PUCSBASE
  2

  9
$PUCSNAME
  2

  9
$PUCSORG
 10
0.0
 20
0.0
 30
0.0
  9
$PUCSXDIR
 10
1.0
 20
0.0
 30
0.0
  9
$PUCSYDIR
 10
0.0
 20
1.0
 30
0.0
  9
$PUCSORTHOREF
  2

  9
$PUCSORTHOVIEW
 70
     0
  9
$PUCSORGTOP
 10
0.0
 20
0.0
 30
0.0
  9
$PUCSORGBOTTOM
 10
0.0
 20
0.0
 30
0.0
  9
$PUCSORGLEFT
 10
0.0
 20
0.0
 30
0.0
  9
$PUCSORGRIGHT
 10
0.0
 20
0.0
 30
0.0
  9
$PUCSORGFRONT
 10
0.0
 20
0.0
 30
0.0
  9
$PUCSORGBACK
 10
0.0
 20
0.0
 30
0.0
  9
$USERI1
 70
     0
  9
$USERI2
 70
     0
  9
$USERI3
 70
     0
  9
$USERI4
 70
     0
  9
$USERI5
 70
     0
  9
$USERR1
 40
0.0
  9
$USERR2
 40
0.0
  9
$USERR3
 40
0.0
  9
$USERR4
 40
0.0
  9
$USERR5
 40
0.0
  9
$WORLDVIEW
 70
     1
  9
$SHADEDGE
 70
     3
  9
$SHADEDIF
 70
    70
  9
$TILEMODE
 70
     1
  9
$MAXACTVP
 70
    64
  9
$PINSBASE
 10
0.0
 20
0.0
 30
0.0
  9
$PLIMCHECK
 70
     0
  9
$PEXTMIN
 10
1.0000000000E+20
 20
1.0000000000E+20
 30
1.0000000000E+20
  9
$PEXTMAX
 10
-1.0000000000E+20
 20
-1.0000000000E+20
 30
-1.0000000000E+20
  9
$PLIMMIN
 10
0.0
 20
0.0
  9
$PLIMMAX
 10
420.0
 20
297.0
  9
$UNITMODE
 70
     0
  9
$VISRETAIN
 70
     1
  9
$PLINEGEN
 70
     0
  9
$PSLTSCALE
 70
     1
  9
$TREEDEPTH
 70
  3020
  9
$CMLSTYLE
  2
Standard
  9
$CMLJUST
 70
     0
  9
$CMLSCALE
 40
20.0
  9
$PROXYGRAPHICS
 70
     1
  9
$MEASUREMENT
 70
     1
  9
$CELWEIGHT
370
    -1
  9
$ENDCAPS
280
     0
  9
$JOINSTYLE
280
     0
  9
$LWDISPLAY
290
     1
  9
$INSUNITS
 70
     4
  9
$HYPERLINKBASE
  1

  9
$STYLESHEET
  1

  9
$XEDIT
290
     1
  9
$CEPSNTYPE
380
     0
  9
$PSTYLEMODE
290
     1
  9
$FINGERPRINTGUID
  2
{E4B42ED9-9DE0-4E93-94E3-ED9270632AE4}
  9
$VERSIONGUID
  2
{FAEB1C32-E019-11D5-929B-00C0DF256EC4}
  9
$EXTNAMES
290
     1
  9
$PSVPSCALE
 40
0.0
  9
$OLESTARTUP
290
     0
  0
ENDSEC
  0
SECTION
  2
CLASSES
  0
CLASS
  1
ACDBDICTIONARYWDFLT
  2
AcDbDictionaryWithDefault
  3
ObjectDBX Classes
 90
        0
280
     0
281
     0
  0
CLASS
  1
VISUALSTYLE
  2
AcDbVisualStyle
  3
ObjectDBX Classes
 90
     4095
280
     0
281
     0
  0
CLASS
  1
DICTIONARYVAR
  2
AcDbDictionaryVar
  3
ObjectDBX Classes
 90
        0
280
     0
281
     0
  0
CLASS
  1
ACDBPLACEHOLDER
  2
AcDbPlaceHolder
  3
ObjectDBX Classes
 90
        0
280
     0
281
     0
  0
CLASS
  1
LAYOUT
  2
AcDbLayout
  3
ObjectDBX Classes
 90
        0
280
     0
281
     0
  0
ENDSEC
  0
SECTION
  2
TABLES
  0
TABLE
  2
VPORT
  5
8
330
0
100
AcDbSymbolTable
 70
     1
  0
VPORT
  5
29
330
8
100
AcDbSymbolTableRecord
100
AcDbViewportTableRecord
  2
*Active
 70
     0
 10
0.0
 20
0.0
 11
1.0
 21
1.0
 12
148.5
 22
105.0
 13
0.0
 23
0.0
 14
10.0
 24
10.0
 15
10.0
 25
10.0
 16
0.0
 26
0.0
 36
1.0
 17
0.0
 27
0.0
 37
0.0
 40
210.0
 41
1.4142857143
 42
50.0
 43
0.0
 44
0.0
 50
0.0
 51
0.0
 71
     0
 72
  2000
 73
     1
 74
     3
 75
     0
 76
     0
 77
     0
 78
     0
281
     0
 65
     1
110
0.0
120
0.0
130
0.0
111
1.0
121
0.0
131
0.0
112
0.0
122
1.0
132
0.0
 79
     0
146
0.0
  0
ENDTAB
  0
TABLE
  2
LTYPE
  5
5
330
0
100
AcDbSymbolTable
 70
     6
  0
LTYPE
  5
14
330
5
100
AcDbSymbolTableRecord
100
AcDbLinetypeTableRecord
  2
ByBlock
 70
     0
  3

 72
    65
 73
     0
 40
0.0
  0
LTYPE
  5
15
330
5
100
AcDbSymbolTableRecord
100
AcDbLinetypeTableRecord
  2
ByLayer
 70
     0
  3

 72
    65
 73
     0
 40
0.0
  0
LTYPE
  5
16
330
5
100
AcDbSymbolTableRecord
100
AcDbLinetypeTableRecord
  2
Continuous
 70
     0
  3
Solid line
 72
    65
 73
     0
 40
0.0
  0
LTYPE
  5
3B
330
5
100
AcDbSymbolTableRecord
100
AcDbLinetypeTableRecord
  2
HIDDEN
 70
     0
  3
Hidden __ __ __ __ __ __ __ __ __ __ __ __ __ __
 72
    65
 73
     2
 40
1.905
 49
1.27
 74
     0
 49
-0.635
 74
     0
  0
LTYPE
  5
3C
330
5
100
AcDbSymbolTableRecord
100
AcDbLinetypeTableRecord
  2
PHANTOM
 70
     0
  3
Phantom ______  __  __  ______  __  __  ______
 72
    65
 73
     6
 40
12.7
 49
6.35
 74
     0
 49
-1.27
 74
     0
 49
1.27
 74
     0
 49
-1.27
 74
     0
 49
1.27
 74
     0
 49
-1.27
 74
     0
  0
LTYPE
  5
3D
330
5
100
AcDbSymbolTableRecord
100
AcDbLinetypeTableRecord
  2
CENTER
 70
     0
  3
Center ____ _ ____ _ ____ _ ____ _ ____ _ ____
 72
    65
 73
     4
 40
10.16
 49
6.35
 74
     0
 49
-1.27
 74
     0
 49
1.27
 74
     0
 49
-1.27
 74
     0
  0
LTYPE
  5
3E
330
5
100
AcDbSymbolTableRecord
100
AcDbLinetypeTableRecord
  2
CENTERX2
 70
     0
  3
Center (2x) ________  __  ________  __  _____
 72
    65
 73
     4
 40
20.32
 49
12.7
 74
     0
 49
-2.54
 74
     0
 49
2.54
 74
     0
 49
-2.54
 74
     0
  0
LTYPE
  5
3F
330
5
100
AcDbSymbolTableRecord
100
AcDbLinetypeTableRecord
  2
DOT2
 70
     0
  3
Dot (.5x) ........................................
 72
    65
 73
     2
 40
0.635
 49
0.0
 74
     0
 49
-0.635
 74
     0
  0
ENDTAB
  0
TABLE
  2
LAYER
  5
2
330
0
100
AcDbSymbolTable
 70
     5
  0
LAYER
  5
10
330
2
100
AcDbSymbolTableRecord
100
AcDbLayerTableRecord
  2
0
 70
     0
 62
     7
  6
Continuous
370
    -3
390
F
  0
LAYER
  5
40
330
2
100
AcDbSymbolTableRecord
100
AcDbLayerTableRecord
  2
FORMAT
 70
     0
 62
     7
  6
Continuous
370
    -3
390
F
  0
LAYER
  5
41
330
2
100
AcDbSymbolTableRecord
100
AcDbLayerTableRecord
  2
VERMASSUNG
 70
     0
 62
     7
  6
Continuous
370
    -3
390
F
  0
LAYER
  5
42
330
2
100
AcDbSymbolTableRecord
100
AcDbLayerTableRecord
  2
KOPF_DÜNN
 70
     0
 62
     7
  6
Continuous
370
    -3
390
F
  0
LAYER
  5
43
330
2
100
AcDbSymbolTableRecord
100
AcDbLayerTableRecord
  2
KOPF_DICK
 70
     0
 62
     7
  6
Continuous
370
    15
390
F
  0
ENDTAB
  0
TABLE
  2
STYLE
  5
3
330
0
100
AcDbSymbolTable
 70
     3
  0
STYLE
  5
11
330
3
100
AcDbSymbolTableRecord
100
AcDbTextStyleTableRecord
  2
Standard
 70
     0
 40
0.0
 41
1.0
 50
0.0
 71
     0
 42
2.5
  3
txt
  4

  0
STYLE
  5
44
330
3
100
AcDbSymbolTableRecord
100
AcDbTextStyleTableRecord
  2
SLDTEXTSTYLE0
 70
     0
 40
0.0
 41
0.7
 50
0.0
 71
     0
 42
0.2
  3
TXT
  4

  0
STYLE
  5
48
330
3
100
AcDbSymbolTableRecord
100
AcDbTextStyleTableRecord
  2
SLDTEXTSTYLE1
 70
     0
 40
0.0
 41
0.65
 50
0.0
 71
     0
 42
0.2
  3
TXT
  4

  0
ENDTAB
  0
TABLE
  2
VIEW
  5
6
330
0
100
AcDbSymbolTable
 70
     0
  0
ENDTAB
  0
TABLE
  2
UCS
  5
7
330
0
100
AcDbSymbolTable
 70
     0
  0
ENDTAB
  0
TABLE
  2
APPID
  5
9
330
0
100
AcDbSymbolTable
 70
     1
  0
APPID
  5
12
330
9
100
AcDbSymbolTableRecord
100
AcDbRegAppTableRecord
  2
ACAD
 70
     0
  0
ENDTAB
  0
TABLE
  2
DIMSTYLE
  5
A
330
0
100
AcDbSymbolTable
 70
     3
100
AcDbDimStyleTable
  0
DIMSTYLE
105
27
330
A
100
AcDbSymbolTableRecord
100
AcDbDimStyleTableRecord
  2
ISO-25
 70
     0
 41
2.5
 42
0.625
 43
3.75
 44
1.25
 73
     0
 74
     0
 77
     1
 78
     8
140
2.5
141
2.5
143
0.0393700787
147
0.625
171
     3
172
     1
271
     2
272
     2
274
     3
278
    44
283
     0
284
     8
340
11
  0
DIMSTYLE
105
1AB
102
{ACAD_REACTORS
330
1AA
330
1C5
330
1CF
330
1D9
330
1E3
102
}
330
A
100
AcDbSymbolTableRecord
100
AcDbDimStyleTableRecord
  2
SLDDIMSTYLE0
 70
     0
 41
3.0
 44
0.0
 45
0.000000001
 73
     0
 74
     0
 77
     1
 78
    12
140
2.0
147
0.5
173
     1
271
     2
272
     3
284
    12
340
44
  0
DIMSTYLE
105
1B8
102
{ACAD_REACTORS
330
1B7
102
}
330
A
100
AcDbSymbolTableRecord
100
AcDbDimStyleTableRecord
  2
SLDDIMSTYLE1
 70
     0
 41
3.0
 44
0.0
 45
0.000000001
 73
     0
 74
     0
 77
     1
 78
    12
140
2.0
147
0.5
173
     1
271
     2
272
     3
284
    12
340
44
  0
ENDTAB
  0
TABLE
  2
BLOCK_RECORD
  5
1
330
0
100
AcDbSymbolTable
 70
     7
  0
BLOCK_RECORD
  5
1F
330
1
100
AcDbSymbolTableRecord
100
AcDbBlockTableRecord
  2
*Model_Space
340
22
  0
BLOCK_RECORD
  5
1B
330
1
100
AcDbSymbolTableRecord
100
AcDbBlockTableRecord
  2
*Paper_Space
340
1E
  0
BLOCK_RECORD
  5
23
330
1
100
AcDbSymbolTableRecord
100
AcDbBlockTableRecord
  2
*Paper_Space0
340
26
  0
BLOCK_RECORD
  5
1AC
330
1
100
AcDbSymbolTableRecord
100
AcDbBlockTableRecord
  2
*D1
340
0
  0
BLOCK_RECORD
  5
1B9
330
1
100
AcDbSymbolTableRecord
100
AcDbBlockTableRecord
  2
*D2
340
0
  0
BLOCK_RECORD
  5
1C6
330
1
100
AcDbSymbolTableRecord
100
AcDbBlockTableRecord
  2
*D3
340
0
  0
BLOCK_RECORD
  5
1D0
330
1
100
AcDbSymbolTableRecord
100
AcDbBlockTableRecord
  2
*D4
340
0
  0
BLOCK_RECORD
  5
1DA
330
1
100
AcDbSymbolTableRecord
100
AcDbBlockTableRecord
  2
*D5
340
0
  0
BLOCK_RECORD
  5
1E4
330
1
100
AcDbSymbolTableRecord
100
AcDbBlockTableRecord
  2
*D6
340
0
  0
ENDTAB
  0
ENDSEC
  0
SECTION
  2
BLOCKS
  0
BLOCK
  5
20
330
1F
100
AcDbEntity
  8
0
100
AcDbBlockBegin
  2
*Model_Space
 70
     0
 10
0.0
 20
0.0
 30
0.0
  3
*Model_Space
  1

  0
ENDBLK
  5
21
330
1F
100
AcDbEntity
  8
0
100
AcDbBlockEnd
  0
BLOCK
  5
1C
330
1B
100
AcDbEntity
 67
     1
  8
0
100
AcDbBlockBegin
  2
*Paper_Space
 70
     0
 10
0.0
 20
0.0
 30
0.0
  3
*Paper_Space
  1

  0
ENDBLK
  5
1D
330
1B
100
AcDbEntity
 67
     1
  8
0
100
AcDbBlockEnd
  0
BLOCK
  5
24
330
23
100
AcDbEntity
  8
0
100
AcDbBlockBegin
  2
*Paper_Space0
 70
     0
 10
0.0
 20
0.0
 30
0.0
  3
*Paper_Space0
  1

  0
ENDBLK
  5
25
330
23
100
AcDbEntity
  8
0
100
AcDbBlockEnd
  0
BLOCK
  5
1AD
330
1AC
100
AcDbEntity
  8
0
100
AcDbBlockBegin
  2
*D1
 70
     1
 10
0.0
 20
0.0
 30
0.0
  3
*D1
  1

  0
SOLID
  5
1AF
330
1AC
100
AcDbEntity
  8
VERMASSUNG
100
AcDbTrace
 10
82.1416001886
 20
161.9412919738
 30
0.0
 11
81.6916001886
 21
158.9412919738
 31
0.0
 12
82.5916001886
 22
158.9412919738
 32
0.0
 13
82.5916001886
 23
158.9412919738
 33
0.0
  0
SOLID
  5
1B0
330
1AC
100
AcDbEntity
  8
VERMASSUNG
100
AcDbTrace
 10
82.1416001886
 20
61.9412919738
 30
0.0
 11
82.5916001886
 21
64.9412919738
 31
0.0
 12
81.6916001886
 22
64.9412919738
 32
0.0
 13
81.6916001886
 23
64.9412919738
 33
0.0
  0
LINE
  5
1B1
330
1AC
100
AcDbEntity
  8
VERMASSUNG
100
AcDbLine
 10
139.6921567877
 20
161.9412919738
 30
0.0
 11
81.1416001886
 21
161.9412919738
 31
0.0
  0
LINE
  5
1B2
330
1AC
100
AcDbEntity
  8
VERMASSUNG
100
AcDbLine
 10
139.6921567877
 20
61.9412919738
 30
0.0
 11
81.1416001886
 21
61.9412919738
 31
0.0
  0
LINE
  5
1B3
330
1AC
100
AcDbEntity
  8
VERMASSUNG
100
AcDbLine
 10
82.1416001886
 20
161.9412919738
 30
0.0
 11
82.1416001886
 21
61.9412919738
 31
0.0
  0
MTEXT
  5
1B4
330
1AC
100
AcDbEntity
  8
VERMASSUNG
100
AcDbMText
 10
79.3634646995
 20
103.7376408363
 30
0.0
 40
2.0
 41
0.0
 71
     1
 72
     1
  1
HSK A 
  7
SLDTEXTSTYLE0
 11
-7.044195017643634E-15
 21
1.0
 31
0.0
 73
     1
 44
1.0
  0
MTEXT
  5
1B5
330
1AC
100
AcDbEntity
  8
VERMASSUNG
100
AcDbMText
 10
79.563464709
 20
112.7376413801
 30
0.0
 40
2.0
 41
0.0
 71
     1
 72
     1
  1
%%c
  7
SLDTEXTSTYLE0
 11
-7.044195017643634E-15
 21
1.0
 31
0.0
 73
     1
 44
1.0
  0
MTEXT
  5
1B6
330
1AC
100
AcDbEntity
  8
VERMASSUNG
100
AcDbMText
 10
79.5634648255
 20
116.3459680302
 30
0.0
 40
2.0
 41
0.0
 71
     1
 72
     1
  1
100
  7
SLDTEXTSTYLE0
 11
-7.044195017643634E-15
 21
1.0
 31
0.0
 73
     1
 44
1.0
  0
ENDBLK
  5
1AE
330
1AC
100
AcDbEntity
  8
0
100
AcDbBlockEnd
  0
BLOCK
  5
1BA
330
1B9
100
AcDbEntity
  8
0
100
AcDbBlockBegin
  2
*D2
 70
     1
 10
0.0
 20
0.0
 30
0.0
  3
*D2
  1

  0
SOLID
  5
1BC
330
1B9
100
AcDbEntity
  8
VERMASSUNG
100
AcDbTrace
 10
226.7135191521
 20
114.9412919738
 30
0.0
 11
227.1635191521
 21
117.9412919738
 31
0.0
 12
226.2635191521
 22
117.9412919738
 32
0.0
 13
226.2635191521
 23
117.9412919738
 33
0.0
  0
SOLID
  5
1BD
330
1B9
100
AcDbEntity
  8
VERMASSUNG
100
AcDbTrace
 10
226.7135191521
 20
108.9412919738
 30
0.0
 11
226.2635191521
 21
105.9412919738
 31
0.0
 12
227.1635191521
 22
105.9412919738
 32
0.0
 13
227.1635191521
 23
105.9412919738
 33
0.0
  0
LINE
  5
1BE
330
1B9
100
AcDbEntity
  8
VERMASSUNG
100
AcDbLine
 10
218.8921567877
 20
114.9412919738
 30
0.0
 11
227.7135191521
 21
114.9412919738
 31
0.0
  0
LINE
  5
1BF
330
1B9
100
AcDbEntity
  8
VERMASSUNG
100
AcDbLine
 10
218.8921567877
 20
108.9412919738
 30
0.0
 11
227.7135191521
 21
108.9412919738
 31
0.0
  0
LINE
  5
1C0
330
1B9
100
AcDbEntity
  8
VERMASSUNG
100
AcDbLine
 10
226.7135191521
 20
114.9412919738
 30
0.0
 11
226.7135191521
 21
120.9412919738
 31
0.0
  0
LINE
  5
1C1
330
1B9
100
AcDbEntity
  8
VERMASSUNG
100
AcDbLine
 10
226.7135191521
 20
114.9412919738
 30
0.0
 11
226.7135191521
 21
108.9412919738
 31
0.0
  0
LINE
  5
1C2
330
1B9
100
AcDbEntity
  8
VERMASSUNG
100
AcDbLine
 10
226.7135191521
 20
108.9412919738
 30
0.0
 11
226.7135191521
 21
102.9412919738
 31
0.0
  0
MTEXT
  5
1C3
330
1B9
100
AcDbEntity
  8
VERMASSUNG
100
AcDbMText
 10
224.1353836725
 20
109.4372638048
 30
0.0
 40
2.0
 41
0.0
 71
     1
 72
     1
  1
%%c
  7
SLDTEXTSTYLE0
 11
-7.044195017643634E-15
 21
1.0
 31
0.0
 73
     1
 44
1.0
  0
MTEXT
  5
1C4
330
1B9
100
AcDbEntity
  8
VERMASSUNG
100
AcDbMText
 10
224.135383789
 20
113.045942028
 30
0.0
 40
2.0
 41
0.0
 71
     1
 72
     1
  1
6
  7
SLDTEXTSTYLE0
 11
-7.044195017643634E-15
 21
1.0
 31
0.0
 73
     1
 44
1.0
  0
ENDBLK
  5
1BB
330
1B9
100
AcDbEntity
  8
0
100
AcDbBlockEnd
  0
BLOCK
  5
1C7
330
1C6
100
AcDbEntity
  8
0
100
AcDbBlockBegin
  2
*D3
 70
     1
 10
0.0
 20
0.0
 30
0.0
  3
*D3
  1

  0
SOLID
  5
1C9
330
1C6
100
AcDbEntity
  8
VERMASSUNG
100
AcDbTrace
 10
139.1921567877
 20
174.8872659156
 30
0.0
 11
142.1921567877
 21
174.4372659156
 31
0.0
 12
142.1921567877
 22
175.3372659156
 32
0.0
 13
142.1921567877
 23
175.3372659156
 33
0.0
  0
SOLID
  5
1CA
330
1C6
100
AcDbEntity
  8
VERMASSUNG
100
AcDbTrace
 10
219.1921567877
 20
174.8872659156
 30
0.0
 11
216.1921567877
 21
175.3372659156
 31
0.0
 12
216.1921567877
 22
174.4372659156
 32
0.0
 13
216.1921567877
 23
174.4372659156
 33
0.0
  0
LINE
  5
1CB
330
1C6
100
AcDbEntity
  8
VERMASSUNG
100
AcDbLine
 10
139.1921567877
 20
161.4412919738
 30
0.0
 11
139.1921567877
 21
175.8872659156
 31
0.0
  0
LINE
  5
1CC
330
1C6
100
AcDbEntity
  8
VERMASSUNG
100
AcDbLine
 10
219.1921567877
 20
119.1671514522
 30
0.0
 11
219.1921567877
 21
175.8872659156
 31
0.0
  0
LINE
  5
1CD
330
1C6
100
AcDbEntity
  8
VERMASSUNG
100
AcDbLine
 10
139.1921567877
 20
174.8872659156
 30
0.0
 11
219.1921567877
 21
174.8872659156
 31
0.0
  0
MTEXT
  5
1CE
330
1C6
100
AcDbEntity
  8
VERMASSUNG
100
AcDbMText
 10
177.7927786729
 20
177.4654012787
 30
0.0
 40
2.0
 41
0.0
 71
     1
 72
     1
  1
80
  7
SLDTEXTSTYLE0
 73
     1
 44
1.0
  0
ENDBLK
  5
1C8
330
1C6
100
AcDbEntity
  8
0
100
AcDbBlockEnd
  0
BLOCK
  5
1D1
330
1D0
100
AcDbEntity
  8
0
100
AcDbBlockBegin
  2
*D4
 70
     1
 10
0.0
 20
0.0
 30
0.0
  3
*D4
  1

  0
SOLID
  5
1D3
330
1D0
100
AcDbEntity
  8
VERMASSUNG
100
AcDbTrace
 10
168.1421567877
 20
168.8872659156
 30
0.0
 11
171.1421567877
 21
168.4372659156
 31
0.0
 12
171.1421567877
 22
169.3372659156
 32
0.0
 13
171.1421567877
 23
169.3372659156
 33
0.0
  0
SOLID
  5
1D4
330
1D0
100
AcDbEntity
  8
VERMASSUNG
100
AcDbTrace
 10
219.1921567877
 20
168.8872659156
 30
0.0
 11
216.1921567877
 21
169.3372659156
 31
0.0
 12
216.1921567877
 22
168.4372659156
 32
0.0
 13
216.1921567877
 23
168.4372659156
 33
0.0
  0
LINE
  5
1D5
330
1D0
100
AcDbEntity
  8
VERMASSUNG
100
AcDbLine
 10
168.1421567877
 20
159.9100317947
 30
0.0
 11
168.1421567877
 21
169.8872659156
 31
0.0
  0
LINE
  5
1D6
330
1D0
100
AcDbEntity
  8
VERMASSUNG
100
AcDbLine
 10
219.1921567877
 20
119.1671514522
 30
0.0
 11
219.1921567877
 21
169.8872659156
 31
0.0
  0
LINE
  5
1D7
330
1D0
100
AcDbEntity
  8
VERMASSUNG
100
AcDbLine
 10
168.1421567877
 20
168.8872659156
 30
0.0
 11
219.1921567877
 21
168.8872659156
 31
0.0
  0
MTEXT
  5
1D8
330
1D0
100
AcDbEntity
  8
VERMASSUNG
100
AcDbMText
 10
190.7674503955
 20
171.4654012787
 30
0.0
 40
2.0
 41
0.0
 71
     1
 72
     1
  1
51.05
  7
SLDTEXTSTYLE0
 73
     1
 44
1.0
  0
ENDBLK
  5
1D2
330
1D0
100
AcDbEntity
  8
0
100
AcDbBlockEnd
  0
BLOCK
  5
1DB
330
1DA
100
AcDbEntity
  8
0
100
AcDbBlockBegin
  2
*D5
 70
     1
 10
0.0
 20
0.0
 30
0.0
  3
*D5
  1

  0
SOLID
  5
1DD
330
1DA
100
AcDbEntity
  8
VERMASSUNG
100
AcDbTrace
 10
219.1921567877
 20
180.8872659156
 30
0.0
 11
216.1921567877
 21
181.3372659156
 31
0.0
 12
216.1921567877
 22
180.4372659156
 32
0.0
 13
216.1921567877
 23
180.4372659156
 33
0.0
  0
SOLID
  5
1DE
330
1DA
100
AcDbEntity
  8
VERMASSUNG
100
AcDbTrace
 10
89.2921567877
 20
180.8872659156
 30
0.0
 11
92.2921567877
 21
180.4372659156
 31
0.0
 12
92.2921567877
 22
181.3372659156
 32
0.0
 13
92.2921567877
 23
181.3372659156
 33
0.0
  0
LINE
  5
1DF
330
1DA
100
AcDbEntity
  8
VERMASSUNG
100
AcDbLine
 10
219.1921567877
 20
119.1671514522
 30
0.0
 11
219.1921567877
 21
181.8872659156
 31
0.0
  0
LINE
  5
1E0
330
1DA
100
AcDbEntity
  8
VERMASSUNG
100
AcDbLine
 10
89.2921567877
 20
142.4439617164
 30
0.0
 11
89.2921567877
 21
181.8872659156
 31
0.0
  0
LINE
  5
1E1
330
1DA
100
AcDbEntity
  8
VERMASSUNG
100
AcDbLine
 10
219.1921567877
 20
180.8872659156
 30
0.0
 11
89.2921567877
 21
180.8872659156
 31
0.0
  0
MTEXT
  5
1E2
330
1DA
100
AcDbEntity
  8
VERMASSUNG
100
AcDbMText
 10
151.3424503955
 20
183.4654012787
 30
0.0
 40
2.0
 41
0.0
 71
     1
 72
     1
  1
129.9
  7
SLDTEXTSTYLE0
 73
     1
 44
1.0
  0
ENDBLK
  5
1DC
330
1DA
100
AcDbEntity
  8
0
100
AcDbBlockEnd
  0
BLOCK
  5
1E5
330
1E4
100
AcDbEntity
  8
0
100
AcDbBlockBegin
  2
*D6
 70
     1
 10
0.0
 20
0.0
 30
0.0
  3
*D6
  1

  0
SOLID
  5
1E7
330
1E4
100
AcDbEntity
  8
VERMASSUNG
100
AcDbTrace
 10
232.7135191521
 20
126.9412919738
 30
0.0
 11
232.2635191521
 21
123.9412919738
 31
0.0
 12
233.1635191521
 22
123.9412919738
 32
0.0
 13
233.1635191521
 23
123.9412919738
 33
0.0
  0
SOLID
  5
1E8
330
1E4
100
AcDbEntity
  8
VERMASSUNG
100
AcDbTrace
 10
232.7135191521
 20
96.9412919738
 30
0.0
 11
233.1635191521
 21
99.9412919738
 31
0.0
 12
232.2635191521
 22
99.9412919738
 32
0.0
 13
232.2635191521
 23
99.9412919738
 33
0.0
  0
LINE
  5
1E9
330
1E4
100
AcDbEntity
  8
VERMASSUNG
100
AcDbLine
 10
205.2528618044
 20
126.9412919738
 30
0.0
 11
233.7135191521
 21
126.9412919738
 31
0.0
  0
LINE
  5
1EA
330
1E4
100
AcDbEntity
  8
VERMASSUNG
100
AcDbLine
 10
205.2528618044
 20
96.9412919738
 30
0.0
 11
233.7135191521
 21
96.9412919738
 31
0.0
  0
LINE
  5
1EB
330
1E4
100
AcDbEntity
  8
VERMASSUNG
100
AcDbLine
 10
232.7135191521
 20
126.9412919738
 30
0.0
 11
232.7135191521
 21
96.9412919738
 31
0.0
  0
MTEXT
  5
1EC
330
1E4
100
AcDbEntity
  8
VERMASSUNG
100
AcDbMText
 10
230.1353836725
 20
108.7375747474
 30
0.0
 40
2.0
 41
0.0
 71
     1
 72
     1
  1
%%c
  7
SLDTEXTSTYLE0
 11
-7.044195017643634E-15
 21
1.0
 31
0.0
 73
     1
 44
1.0
  0
MTEXT
  5
1ED
330
1E4
100
AcDbEntity
  8
VERMASSUNG
100
AcDbMText
 10
230.135383789
 20
112.3462529706
 30
0.0
 40
2.0
 41
0.0
 71
     1
 72
     1
  1
30
  7
SLDTEXTSTYLE0
 11
-7.044195017643634E-15
 21
1.0
 31
0.0
 73
     1
 44
1.0
  0
ENDBLK
  5
1E6
330
1E4
100
AcDbEntity
  8
0
100
AcDbBlockEnd
  0
ENDSEC
  0
SECTION
  2
ENTITIES
  0
MTEXT
  5
45
330
1F
100
AcDbEntity
  8
KOPF_DÜNN
100
AcDbMText
 10
13.8892156294
 20
23.8442973028
 30
0.0
 40
3.0
 41
0.0
 71
     1
 72
     1
  1
HA0.W06.K21.080
  7
SLDTEXTSTYLE0
 73
     1
 44
1.0
  0
MTEXT
  5
46
330
1F
100
AcDbEntity
  8
VERMASSUNG
100
AcDbMText
 10
13.9329988022
 20
28.8834360957
 30
0.0
 40
3.0
 41
0.0
 71
     1
 72
     1
  1
Flächenspannfutter_End mill adapter Weldon ø6
  7
SLDTEXTSTYLE0
 73
     1
 44
1.0
  0
MTEXT
  5
47
330
1F
100
AcDbEntity
  8
VERMASSUNG
100
AcDbMText
 10
98.8601118557
 20
13.8365368179
 30
0.0
 40
2.0
 41
0.0
 71
     1
 72
     1
  1
Datum: 09.10.2006
  7
SLDTEXTSTYLE0
 73
     1
 44
1.0
  0
MTEXT
  5
49
330
1F
100
AcDbEntity
  8
VERMASSUNG
100
AcDbMText
 10
13.933048693
 20
18.0482802738
 30
0.0
 40
2.0
 41
0.0
 71
     1
 72
     1
  1
DIN 69 893 HSK A 100
  7
SLDTEXTSTYLE1
 73
     1
 44
1.0
  0
MTEXT
  5
4A
330
1F
100
AcDbEntity
  8
VERMASSUNG
100
AcDbMText
 10
13.9808475933
 20
13.9090973692
 30
0.0
 40
2.0
 41
0.0
 71
     1
 72
     1
  1
Gewicht: 2225g
  7
SLDTEXTSTYLE0
 73
     1
 44
1.0
  0
LINE
  5
4B
330
1F
100
AcDbEntity
  8
0
  6
Continuous
 62
     7
370
    15
100
AcDbLine
 10
219.1921567877
 20
106.5384921756
 30
0.0
 11
219.2570577233
 21
106.6586727216
 31
0.0
  0
LINE
  5
4C
330
1F
100
AcDbEntity
  8
0
  6
Continuous
 62
     7
370
    15
100
AcDbLine
 10
219.1981679997
 20
117.2255473181
 30
0.0
 11
219.1921567877
 21
117.236678602
 31
0.0
  0
LINE
  5
4D
330
1F
100
AcDbEntity
  8
0
  6
Continuous
 62
     7
370
    15
100
AcDbLine
 10
139.6921567877
 20
61.9412919738
 30
0.0
 11
144.1421567877
 21
61.9412919738
 31
0.0
  0
LINE
  5
4E
330
1F
100
AcDbEntity
  8
0
  6
Continuous
 62
     7
370
    15
100
AcDbLine
 10
144.1762296202
 20
161.9412919738
 30
0.0
 11
139.6921567877
 21
161.9412919738
 31
0.0
  0
ARC
  5
4F
330
1F
100
AcDbEntity
  8
0
  6
Continuous
 62
     7
370
    15
100
AcDbCircle
 10
139.6921567877
 20
62.4412919738
 30
0.0
 40
0.5
100
AcDbArc
 50
180.0
 51
270.0
  0
ARC
  5
50
330
1F
100
AcDbEntity
  8
0
  6
Continuous
 62
     7
370
    15
100
AcDbCircle
 10
139.6921567877
 20
161.4412919738
 30
0.0
 40
0.5
100
AcDbArc
 50
90.0
 51
180.0
  0
ARC
  5
51
330
1F
100
AcDbEntity
  8
0
  6
Continuous
 62
     7
370
    15
100
AcDbCircle
 10
138.2952198693
 20
73.3128066494
 30
0.0
 40
0.9962338214386983
100
AcDbArc
 50
25.7988228126
 51
90.0
  0
ARC
  5
52
330
1F
100
AcDbEntity
  8
0
  6
Continuous
 62
     7
370
    15
100
AcDbCircle
 10
138.2952198693
 20
150.5697772983
 30
0.0
 40
0.9962338214387216
100
AcDbArc
 50
270.0
 51
334.2011771874
  0
LINE
  5
53
330
1F
100
AcDbEntity
  8
0
  6
Continuous
 62
     7
370
    15
100
AcDbLine
 10
117.7114613664
 20
148.8726068325
 30
0.0
 11
99.3921567877
 21
147.9548060019
 31
0.0
  0
LINE
  5
54
330
1F
100
AcDbEntity
  8
0
  6
Continuous
 62
     7
370
    15
100
AcDbLine
 10
136.6921567877
 20
149.8235434769
 30
0.0
 11
130.6241176333
 21
149.5195334992
 31
0.0
  0
LINE
  5
55
330
1F
100
AcDbEntity
  8
0
  6
Continuous
 62
     7
370
    15
100
AcDbLine
 10
130.6242409097
 20
74.3630442723
 30
0.0
 11
136.6921567877
 21
74.0590404708
 31
0.0
  0
LINE
  5
56
330
1F
100
AcDbEntity
  8
0
  6
Continuous
 62
     7
370
    15
100
AcDbLine
 10
104.3921567877
 20
75.6772769438
 30
0.0
 11
117.7121079416
 21
75.0099447216
 31
0.0
  0
LINE
  5
57
330
1F
100
AcDbEntity
  8
0
  6
Continuous
 62
     7
370
    15
100
AcDbLine
 10
136.6921567877
 20
74.0590404708
 30
0.0
 11
137.4980029421
 21
74.2749662971
 31
0.0
  0
LINE
  5
58
330
1F
100
AcDbEntity
  8
0
  6
Continuous
 62
     7
370
    15
100
AcDbLine
 10
137.4980029421
 20
149.6076176506
 30
0.0
 11
136.6921567877
 21
149.8235434769
 31
0.0
  0
ARC
  5
59
330
1F
100
AcDbEntity
  8
0
  6
Continuous
 62
     7
370
    15
100
AcDbCircle
 10
137.7568219872
 20
73.3090404708
 30
0.0
 40
1.0
100
AcDbArc
 50
90.0
 51
105.0
  0
ARC
  5
5A
330
1F
100
AcDbEntity
  8
0
  6
Continuous
 62
     7
370
    15
100
AcDbCircle
 10
137.7568219872
 20
150.5735434769
 30
0.0
 40
1.0
100
AcDbArc
 50
255.0
 51
270.0
  0
LINE
  5
5B
330
1F
100
AcDbEntity
  8
0
  6
Continuous
 62
     7
370
    15
100
AcDbLine
 10
137.7568219872
 20
74.3090404708
 30
0.0
 11
138.2952198693
 21
74.3090404708
 31
0.0
  0
LINE
  5
5C
330
1F
100
AcDbEntity
  8
0
  6
Continuous
 62
     7
370
    15
100
AcDbLine
 10
138.2952198693
 20
149.5735434769
 30
0.0
 11
137.7568219872
 21
149.5735434769
 31
0.0
  0
ARC
  5
5D
330
1F
100
AcDbEntity
  8
0
  6
Continuous
 62
     7
370
    15
100
AcDbCircle
 10
173.1421567877
 20
91.9412919738
 30
0.0
 40
5.000000000000014
100
AcDbArc
 50
90.0
 51
180.0
  0
ARC
  5
5E
330
1F
100
AcDbEntity
  8
0
  6
Continuous
 62
     7
370
    15
100
AcDbCircle
 10
173.1421567877
 20
131.9412919738
 30
0.0
 40
5.0
100
AcDbArc
 50
180.0
 51
270.0
  0
LINE
  5
5F
330
1F
100
AcDbEntity
  8
0
  6
Continuous
 62
     7
370
    15
100
AcDbLine
 10
90.9421567877
 20
79.6912919738
 30
0.0
 11
102.4921567877
 21
79.6912919738
 31
0.0
  0
ARC
  5
60
330
1F
100
AcDbEntity
  8
0
  6
Continuous
 62
     7
370
    15
100
AcDbCircle
 10
102.4921567877
 20
77.7912919738
 30
0.0
 40
1.900000000000006
100
AcDbArc
 50
35.6630613694
 51
90.0
  0
ARC
  5
61
330
1F
100
AcDbEntity
  8
0
  6
Continuous
 62
     7
370
    15
100
AcDbCircle
 10
97.4921567877
 20
146.0912919738
 30
0.0
 40
1.899999999999986
100
AcDbArc
 50
270.0
 51
310.9212832533
  0
LINE
  5
62
330
1F
100
AcDbEntity
  8
0
  6
Continuous
 62
     7
370
    15
100
AcDbLine
 10
90.9421567877
 20
144.1912919738
 30
0.0
 11
89.3489404258
 21
142.5980756119
 31
0.0
  0
LINE
  5
63
330
1F
100
AcDbEntity
  8
0
  6
Continuous
 62
     7
370
    15
100
AcDbLine
 10
89.3496796882
 20
81.2837690734
 30
0.0
 11
90.9421567877
 21
79.6912919738
 31
0.0
  0
LINE
  5
64
330
1F
100
AcDbEntity
  8
0
  6
Continuous
 62
     7
370
    15
100
AcDbLine
 10
97.4921567877
 20
144.1912919738
 30
0.0
 11
90.9421567877
 21
144.1912919738
 31
0.0
  0
LINE
  5
65
330
1F
100
AcDbEntity
  8
0
  6
Continuous
 62
     7
370
    15
100
AcDbLine
 10
184.641144164
 20
96.9412919738
 30
0.0
 11
205.2528618044
 21
96.9412919738
 31
0.0
  0
LINE
  5
66
330
1F
100
AcDbEntity
  8
0
  6
Continuous
 62
     7
370
    15
100
AcDbLine
 10
173.1421567877
 20
96.9412919738
 30
0.0
 11
177.6470071562
 21
96.9412919738
 31
0.0
  0
LINE
  5
67
330
1F
100
AcDbEntity
  8
0
  6
Continuous
 62
     7
370
    15
100
AcDbLine
 10
177.6432836756
 20
126.9412919738
 30
0.0
 11
173.1421567877
 21
126.9412919738
 31
0.0
  0
LINE
  5
68
330
1F
100
AcDbEntity
  8
0
  6
Continuous
 62
     7
370
    15
100
AcDbLine
 10
205.2528618044
 20
126.9412919738
 30
0.0
 11
184.6323946281
 21
126.9412919738
 31
0.0
  0
LINE
  5
69
330
1F
100
AcDbEntity
  8
0
  6
Continuous
 62
     7
370
    15
100
AcDbLine
 10
205.2528618044
 20
96.9412919738
 30
0.0
 11
218.0373933112
 21
102.9028169214
 31
0.0
  0
LINE
  5
6A
330
1F
100
AcDbEntity
  8
0
  6
Continuous
 62
     7
370
    15
100
AcDbLine
 10
218.0373933112
 20
120.9797670263
 30
0.0
 11
205.2528618044
 21
126.9412919738
 31
0.0
  0
ARC
  5
6B
330
1F
100
AcDbEntity
  8
0
  6
Continuous
 62
     7
370
    15
100
AcDbCircle
 10
217.1921567877
 20
104.7154324955
 30
0.0
 40
2.000000000000013
100
AcDbArc
 50
295.0
 51
0.0
  0
ARC
  5
6C
330
1F
100
AcDbEntity
  8
0
  6
Continuous
 62
     7
370
    15
100
AcDbCircle
 10
217.1921567877
 20
119.1671514522
 30
0.0
 40
2.000000000000013
100
AcDbArc
 50
0.0
 51
65.0
  0
LINE
  5
6D
330
1F
100
AcDbEntity
  8
0
  6
Continuous
 62
     7
370
    15
100
AcDbLine
 10
201.9102780039
 20
110.223030313
 30
0.0
 11
200.3131591472
 21
110.8932626291
 31
0.0
  0
LINE
  5
6E
330
1F
100
AcDbEntity
  8
0
  6
Continuous
 62
     7
370
    15
100
AcDbLine
 10
203.0711544282
 20
112.9893213186
 30
0.0
 11
201.4740355715
 21
113.6595536347
 31
0.0
  0
CIRCLE
  5
6F
330
1F
100
AcDbEntity
  8
0
  6
Continuous
 62
     7
370
    15
100
AcDbCircle
 10
201.6921567877
 20
111.9412919738
 30
0.0
 40
2.499999999999998
  0
LINE
  5
70
330
1F
100
AcDbEntity
  8
0
  6
Continuous
 62
     7
370
    15
100
AcDbLine
 10
200.3131591472
 20
110.8932626291
 30
0.0
 11
200.095037931
 21
112.6115242899
 31
0.0
  0
LINE
  5
71
330
1F
100
AcDbEntity
  8
0
  6
Continuous
 62
     7
370
    15
100
AcDbLine
 10
201.9102780039
 20
110.223030313
 30
0.0
 11
203.2892756444
 21
111.2710596578
 31
0.0
  0
LINE
  5
72
330
1F
100
AcDbEntity
  8
0
  6
Continuous
 62
     7
370
    15
100
AcDbLine
 10
203.0711544282
 20
112.9893213186
 30
0.0
 11
203.2892756444
 21
111.2710596578
 31
0.0
  0
LINE
  5
73
330
1F
100
AcDbEntity
  8
0
  6
Continuous
 62
     7
370
    15
100
AcDbLine
 10
201.4740355715
 20
113.6595536347
 30
0.0
 11
200.095037931
 21
112.6115242899
 31
0.0
  0
ARC
  5
74
330
1F
100
AcDbEntity
  8
0
  6
Continuous
 62
     7
370
    15
100
AcDbCircle
 10
199.7135337348
 20
107.3507449341
 30
0.0
 40
19.55577392586856
100
AcDbArc
 50
357.9718982864
 51
5.0911211554
  0
LWPOLYLINE
  5
75
330
1F
100
AcDbEntity
  8
0
  6
Continuous
 62
     7
370
    15
100
AcDbPolyline
 90
        7
 70
   128
 43
0.0
 10
219.1921567877
 20
115.8579392595
 10
219.1965663214
 20
116.0075039165
 10
219.2069448253
 20
116.4740422485
 10
219.2105892712
 20
116.8696259164
 10
219.2069448253
 20
117.1340308927
 10
219.1965663214
 20
117.2270039165
 10
219.1921567877
 20
117.2178512051
  0
LINE
  5
76
330
1F
100
AcDbEntity
  8
0
  6
Continuous
 62
     7
370
    15
100
AcDbLine
 10
144.1421567877
 20
143.2912919738
 30
0.0
 11
155.9301277668
 21
143.2912919738
 31
0.0
  0
LINE
  5
77
330
1F
100
AcDbEntity
  8
0
  6
Continuous
 62
     7
370
    15
100
AcDbLine
 10
155.9301277668
 20
63.1662983808
 30
0.0
 11
155.9301277668
 21
143.2912919738
 31
0.0
  0
LINE
  5
78
330
1F
100
AcDbEntity
  8
0
  6
Continuous
 62
     7
370
    15
100
AcDbLine
 10
155.9301277668
 20
63.1662983808
 30
0.0
 11
154.1421567877
 21
63.1662983808
 31
0.0
  0
SPLINE
  5
79
330
1F
100
AcDbEntity
  8
0
  6
Continuous
 62
     7
370
    15
100
AcDbSpline
210
0.0
220
0.0
230
1.0
 70
     8
 71
     3
 72
    30
 73
    26
 74
     0
 42
0.00000001
 43
0.00000001
 40
0.0
 40
0.0
 40
0.0
 40
0.0
 40
0.1250000000000002
 40
0.1250000000000002
 40
0.1875000000000003
 40
0.1875000000000003
 40
0.2500000000000004
 40
0.2500000000000004
 40
0.3750000000000001
 40
0.3750000000000001
 40
0.4374999999999998
 40
0.4374999999999998
 40
0.4999999999999996
 40
0.4999999999999996
 40
0.6249999999999996
 40
0.6249999999999996
 40
0.6874999999999997
 40
0.6874999999999997
 40
0.7499999999999997
 40
0.7499999999999997
 40
0.8124999999999998
 40
0.8124999999999998
 40
0.8749999999999999
 40
0.8749999999999999
 40
1.0
 40
1.0
 40
1.0
 40
1.0
 10
154.1421567877186
 20
63.16629838082078
 30
0.0
 10
153.4794120938735
 20
63.16629838082078
 30
0.0
 10
152.8281562347578
 20
63.15145830423197
 30
0.0
 10
151.8677056964995
 20
63.10908874000234
 30
0.0
 10
151.5503142532666
 20
63.09161063722318
 30
0.0
 10
150.9211507517117
 20
63.05028235067087
 30
0.0
 10
150.60900256527
 20
63.02635707721318
 30
0.0
 10
149.7016952634218
 20
62.94755056074627
 30
0.0
 10
149.1282703057805
 20
62.8852445407698
 30
0.0
 10
148.3143934362058
 20
62.78211522053044
 30
0.0
 10
148.049587239636
 20
62.74593130148393
 30
0.0
 10
147.5426798288216
 20
62.67213651728343
 30
0.0
 10
147.3012856774681
 20
62.63466265851178
 30
0.0
 10
146.6121442053358
 20
62.52195071517205
 30
0.0
 10
146.1990893904716
 20
62.44641461769827
 30
0.0
 10
145.6509345710965
 20
62.33802136068077
 30
0.0
 10
145.4814719637509
 20
62.30294912901751
 30
0.0
 10
145.1734547157355
 20
62.23671366841766
 30
0.0
 10
145.0340746951272
 20
62.20538697166294
 30
0.0
 10
144.7842891825004
 20
62.146978200082
 30
0.0
 10
144.6738830698465
 20
62.11989496489915
 30
0.0
 10
144.4826252162088
 20
62.07063521028557
 30
0.0
 10
144.4015056979245
 20
62.04837323047793
 30
0.0
 10
144.2073587778161
 20
61.99080632330966
 30
0.0
 10
144.1421567877186
 20
61.96454671852366
 30
0.0
 10
144.1421567877186
 20
61.95129297404963
 30
0.0
  0
LINE
  5
7A
330
1F
100
AcDbEntity
  8
0
  6
Continuous
 62
     7
370
    15
100
AcDbLine
 10
144.1421567877
 20
61.951292974
 30
0.0
 11
144.1421567877
 21
61.9412919738
 31
0.0
  0
SPLINE
  5
7B
330
1F
100
AcDbEntity
  8
0
  6
Continuous
 62
     7
370
    15
100
AcDbSpline
210
0.0
220
0.0
230
1.0
 70
     8
 71
     3
 72
    17
 73
    13
 74
     0
 42
0.00000001
 43
0.00000001
 40
0.0
 40
0.0
 40
0.0
 40
0.0
 40
0.104384384054747
 40
0.2118345768143993
 40
0.316208200519045
 40
0.4235375806108392
 40
0.5292276236193852
 40
0.6379275864803491
 40
0.7444714844189683
 40
0.8541836219421859
 40
0.9593080534965217
 40
1.0
 40
1.0
 40
1.0
 40
1.0
 10
154.1421567877186
 20
160.9310868295132
 30
0.0
 10
153.5942183398592
 20
160.9364550332619
 30
0.0
 10
152.4822482853945
 20
160.9473491069269
 30
0.0
 10
150.8693923721795
 20
161.0325264811858
 30
0.0
 10
149.3358791552026
 20
161.1589011874784
 30
0.0
 10
147.9448583058659
 20
161.3158040080552
 30
0.0
 10
146.7093417886356
 20
161.4875028375757
 30
0.0
 10
145.6859860214803
 20
161.6528391136768
 30
0.0
 10
144.8856440232152
 20
161.7965525932633
 30
0.0
 10
144.3753119213017
 20
161.8947074004425
 30
0.0
 10
144.1354034924771
 20
161.9426357973124
 30
0.0
 10
144.1673222718969
 20
161.9362683980728
 30
0.0
 10
144.1762296201791
 20
161.9344914929495
 30
0.0
  0
LINE
  5
7C
330
1F
100
AcDbEntity
  8
0
  6
Continuous
 62
     7
370
    15
100
AcDbLine
 10
155.9301277668
 20
160.9310868295
 30
0.0
 11
154.1421567877
 21
160.9310868295
 31
0.0
  0
LINE
  5
7D
330
1F
100
AcDbEntity
  8
0
  6
Continuous
 62
     7
370
    15
100
AcDbLine
 10
155.9301277668
 20
150.8922547347
 30
0.0
 11
155.9301277668
 21
160.9310868295
 31
0.0
  0
LINE
  5
7E
330
1F
100
AcDbEntity
  8
0
  6
Continuous
 62
     7
370
    15
100
AcDbLine
 10
153.8501236359
 20
150.8922547347
 30
0.0
 11
155.9301277668
 21
150.8922547347
 31
0.0
  0
SPLINE
  5
7F
330
1F
100
AcDbEntity
  8
0
  6
Continuous
 62
     7
370
    15
100
AcDbSpline
210
0.0
220
0.0
230
1.0
 70
     8
 71
     3
 72
    22
 73
    18
 74
     0
 42
0.00000001
 43
0.00000001
 40
0.0
 40
0.0
 40
0.0
 40
0.0
 40
0.2500000000000002
 40
0.2500000000000002
 40
0.3750000000000003
 40
0.3750000000000003
 40
0.5000000000000004
 40
0.5000000000000004
 40
0.6250000000000004
 40
0.6250000000000004
 40
0.7500000000000004
 40
0.7500000000000004
 40
0.8750000000000004
 40
0.8750000000000004
 40
0.9375000000000002
 40
0.9375000000000002
 40
1.0
 40
1.0
 40
1.0
 40
1.0
 10
144.1421567877186
 20
143.2912919738496
 30
0.0
 10
144.3448817436377
 20
144.3105383157142
 30
0.0
 10
144.659625465433
 20
145.2696464656535
 30
0.0
 10
145.367680935104
 20
146.6121255431628
 30
0.0
 10
145.6461435653216
 20
147.0463341259028
 30
0.0
 10
146.2849109719588
 20
147.8579618414049
 30
0.0
 10
146.645324651749
 20
148.2372421343418
 30
0.0
 10
147.4628568837383
 20
148.9402007133627
 30
0.0
 10
147.9240248670255
 20
149.2652295310634
 30
0.0
 10
148.9220151135092
 20
149.8302448544542
 30
0.0
 10
149.4617743075015
 20
150.0739484486608
 30
0.0
 10
150.6363672715328
 20
150.4781483763057
 30
0.0
 10
151.2481034575247
 20
150.6305855693512
 30
0.0
 10
152.2000126823864
 20
150.7859131169599
 30
0.0
 10
152.5232458466471
 20
150.82541789701
 30
0.0
 10
153.1823090179223
 20
150.8787270176786
 30
0.0
 10
153.5163730284963
 20
150.8922547347365
 30
0.0
 10
153.8501236358979
 20
150.8922547347365
 30
0.0
  0
SPLINE
  5
80
330
1F
100
AcDbEntity
  8
0
  6
Continuous
 62
     7
370
    15
100
AcDbSpline
210
0.0
220
0.0
230
1.0
 70
     8
 71
     3
 72
    80
 73
    76
 74
     0
 42
0.00000001
 43
0.00000001
 40
-0.0312499999999993
 40
-0.0312499999999993
 40
0.0
 40
0.0
 40
0.03125
 40
0.03125
 40
0.046875
 40
0.046875
 40
0.0625
 40
0.0625
 40
0.09375
 40
0.09375
 40
0.1250000000000001
 40
0.1250000000000001
 40
0.1562500000000001
 40
0.1562500000000001
 40
0.1875000000000001
 40
0.1875000000000001
 40
0.2187500000000002
 40
0.2187500000000002
 40
0.2500000000000002
 40
0.2500000000000002
 40
0.2812500000000003
 40
0.2812500000000003
 40
0.3125000000000003
 40
0.3125000000000003
 40
0.3281250000000004
 40
0.3281250000000004
 40
0.3437500000000006
 40
0.3437500000000006
 40
0.3750000000000011
 40
0.3750000000000011
 40
0.4062500000000016
 40
0.4062500000000016
 40
0.4218750000000018
 40
0.4218750000000018
 40
0.437500000000002
 40
0.437500000000002
 40
0.4687500000000023
 40
0.4687500000000023
 40
0.5000000000000027
 40
0.5000000000000027
 40
0.531250000000003
 40
0.531250000000003
 40
0.5625000000000033
 40
0.5625000000000033
 40
0.5937500000000037
 40
0.5937500000000037
 40
0.6250000000000039
 40
0.6250000000000039
 40
0.6562500000000042
 40
0.6562500000000042
 40
0.6875000000000046
 40
0.6875000000000046
 40
0.7031250000000047
 40
0.7031250000000047
 40
0.7187500000000048
 40
0.7187500000000048
 40
0.7500000000000048
 40
0.7500000000000048
 40
0.7812500000000048
 40
0.7812500000000048
 40
0.7968750000000044
 40
0.7968750000000044
 40
0.8125000000000041
 40
0.8125000000000041
 40
0.8437500000000034
 40
0.8437500000000034
 40
0.8750000000000027
 40
0.8750000000000027
 40
0.906250000000002
 40
0.906250000000002
 40
0.9375000000000013
 40
0.9375000000000013
 40
0.9687500000000007
 40
0.9687500000000007
 40
1.0
 40
1.0
 40
1.03125
 40
1.03125
 10
148.5227021004949
 20
155.3559214374809
 30
0.0
 10
147.8616114749423
 20
155.3559214374808
 30
0.0
 10
147.5366313456906
 20
155.372129668863
 30
0.0
 10
147.0571579344442
 20
155.4194943008826
 30
0.0
 10
146.8986761166034
 20
155.4391485127733
 30
0.0
 10
146.5844565840991
 20
155.4862596689659
 30
0.0
 10
146.4283363004187
 20
155.5138409884606
 30
0.0
 10
145.9742822714621
 20
155.6063767752543
 30
0.0
 10
145.6871788885223
 20
155.6814472088509
 30
0.0
 10
145.1438243324953
 20
155.8566855174615
 30
0.0
 10
144.8867207212897
 20
155.9576868152997
 30
0.0
 10
144.4258144663509
 20
156.1750430137606
 30
0.0
 10
144.218916757136
 20
156.2922073455328
 30
0.0
 10
143.8533914431438
 20
156.5422772697615
 30
0.0
 10
143.6981859210178
 20
156.6732233585205
 30
0.0
 10
143.4487555344181
 20
156.9389583022328
 30
0.0
 10
143.3526655786329
 20
157.0757118955437
 30
0.0
 10
143.2241467294393
 20
157.3497774703827
 30
0.0
 10
143.1923358592616
 20
157.4847175608516
 30
0.0
 10
143.1919792094883
 20
157.7501891979203
 30
0.0
 10
143.2244764616854
 20
157.8820136750616
 30
0.0
 10
143.3521019353998
 20
158.131463274682
 30
0.0
 10
143.4465303364517
 20
158.24989596661
 30
0.0
 10
143.6343911564373
 20
158.4187651637041
 30
0.0
 10
143.7052191552405
 20
158.4738511588243
 30
0.0
 10
143.8599410472058
 20
158.5791039873127
 30
0.0
 10
143.9439175173892
 20
158.629439216073
 30
0.0
 10
144.2152411870336
 20
158.7740150486111
 30
0.0
 10
144.4217904056359
 20
158.8618766350281
 30
0.0
 10
144.8884005458249
 20
159.0215977280276
 30
0.0
 10
145.1407661154504
 20
159.0908360244948
 30
0.0
 10
145.5466674571291
 20
159.1806234137246
 30
0.0
 10
145.6865680746066
 20
159.2081893758108
 30
0.0
 10
145.9757920098535
 20
159.2586801767371
 30
0.0
 10
146.1256314661428
 20
159.2816436155878
 30
0.0
 10
146.5797480357536
 20
159.3422741320067
 30
0.0
 10
146.8913992544904
 20
159.3723481608025
 30
0.0
 10
147.5323957194028
 20
159.4129377480612
 30
0.0
 10
147.863923347355
 20
159.4232499782772
 30
0.0
 10
148.5167143924265
 20
159.423325545443
 30
0.0
 10
148.8412505974583
 20
159.4134239399752
 30
0.0
 10
149.4865200468747
 20
159.37293740945
 30
0.0
 10
149.8022630530374
 20
159.3424761095653
 30
0.0
 10
150.4041523480211
 20
159.2623254381287
 30
0.0
 10
150.6949015788326
 20
159.2120432063215
 30
0.0
 10
151.2418133705171
 20
159.0913730235486
 30
0.0
 10
151.493590734354
 20
159.0221491643786
 30
0.0
 10
151.9549787269751
 20
158.8646974367379
 30
0.0
 10
152.1662480065733
 20
158.7753489620641
 30
0.0
 10
152.5295523589494
 20
158.5821010913633
 30
0.0
 10
152.6833590073923
 20
158.477973099484
 30
0.0
 10
152.8719784769896
 20
158.3093487133006
 30
0.0
 10
152.9280089631987
 20
158.2507203116256
 30
0.0
 10
153.0235827249349
 20
158.1312653967994
 30
0.0
 10
153.0633456419599
 20
158.0703456079612
 30
0.0
 10
153.159117392272
 20
157.8839408817873
 30
0.0
 10
153.1918402313981
 20
157.7548280639923
 30
0.0
 10
153.1924688177272
 20
157.4861711410364
 30
0.0
 10
153.1602826729925
 20
157.3508004002796
 30
0.0
 10
153.0653719711369
 20
157.1472500920437
 30
0.0
 10
153.0259051877379
 20
157.0792781679802
 30
0.0
 10
152.9309751890171
 20
156.9431859448493
 30
0.0
 10
152.8752183612537
 20
156.8748358446399
 30
0.0
 10
152.6872782432838
 20
156.6741328315978
 30
0.0
 10
152.5339167735676
 20
156.5447445577851
 30
0.0
 10
152.1716525386873
 20
156.2960791257352
 30
0.0
 10
151.9608040652213
 20
156.176269483367
 30
0.0
 10
151.5001340949024
 20
155.9587471957944
 30
0.0
 10
151.2487597153186
 20
155.8596620959584
 30
0.0
 10
150.7028518284205
 20
155.6829896220416
 30
0.0
 10
150.4120292537692
 20
155.6069325339076
 30
0.0
 10
149.8107026389892
 20
155.4840875565546
 30
0.0
 10
149.4961840543768
 20
155.4363814315015
 30
0.0
 10
148.8496025982569
 20
155.3721328963819
 30
0.0
 10
148.5227021004949
 20
155.3559214374809
 30
0.0
 10
147.8616114749423
 20
155.3559214374808
 30
0.0
  0
LINE
  5
81
330
1F
100
AcDbEntity
  8
0
  6
Continuous
 62
     7
370
    15
100
AcDbLine
 10
139.1921567877
 20
62.4412919738
 30
0.0
 11
139.1921567877
 21
161.4412919679
 31
0.0
  0
LINE
  5
82
330
1F
100
AcDbEntity
  8
0
  6
Continuous
 62
     7
370
    15
100
AcDbLine
 10
168.1421567877
 20
64.1919464286
 30
0.0
 11
168.1421567877
 21
143.2912919738
 31
0.0
  0
SPLINE
  5
83
330
1F
100
AcDbEntity
  8
0
  6
Continuous
 62
     7
370
    15
100
AcDbSpline
210
0.0
220
0.0
230
1.0
 70
     8
 71
     3
 72
    14
 73
    10
 74
     0
 42
0.00000001
 43
0.00000001
 40
0.0
 40
0.0
 40
0.0
 40
0.0
 40
0.25
 40
0.25
 40
0.5
 40
0.5
 40
0.75
 40
0.75
 40
1.0
 40
1.0
 40
1.0
 40
1.0
 10
168.1421567877186
 20
64.1919464285963
 30
0.0
 10
168.1421567877186
 20
64.05852073254175
 30
0.0
 10
168.1168456878077
 20
63.92667292469739
 30
0.0
 10
168.018510923963
 20
63.6801503760033
 30
0.0
 10
167.9453669197069
 20
63.56634518776275
 30
0.0
 10
167.7619288586112
 20
63.37588801081548
 30
0.0
 10
167.6502425242726
 20
63.29825314696556
 30
0.0
 10
167.4077390939663
 20
63.1939617368531
 30
0.0
 10
167.2743646652721
 20
63.16629838082075
 30
0.0
 10
167.1421567877186
 20
63.16629838082075
 30
0.0
  0
SPLINE
  5
84
330
1F
100
AcDbEntity
  8
0
  6
Continuous
 62
     7
370
    15
100
AcDbSpline
210
0.0
220
0.0
230
1.0
 70
    24
 71
     3
 72
    12
 73
     8
 74
     0
 42
0.00000001
 43
0.00000001
 40
0.0
 40
0.0
 40
0.0
 40
0.0
 40
0.2500000000000032
 40
0.2500000000000032
 40
0.5000000000000064
 40
0.5000000000000064
 40
1.0
 40
1.0
 40
1.0
 40
1.0
 10
167.1421567877186
 20
143.2912919738496
 30
0.0
 10
167.2942470246635
 20
143.2912919738496
 30
0.0
 10
167.442706285739
 20
143.2912919738496
 30
0.0
 10
167.7001099180047
 20
143.2912919738496
 30
0.0
 10
167.8092146658466
 20
143.2912919738496
 30
0.0
 10
168.0632741422541
 20
143.2912919738496
 30
0.0
 10
168.1421567877186
 20
143.2912919738496
 30
0.0
 10
168.1421567877186
 20
143.2912919738496
 30
0.0
  0
LINE
  5
85
330
1F
100
AcDbEntity
  8
0
  6
Continuous
 62
     7
370
    15
100
AcDbLine
 10
167.1421567877
 20
63.1662983808
 30
0.0
 11
162.4541858086
 21
63.1662983808
 31
0.0
  0
LINE
  5
86
330
1F
100
AcDbEntity
  8
0
  6
Continuous
 62
     7
370
    15
100
AcDbLine
 10
162.4541858086
 20
63.1662983808
 30
0.0
 11
162.4541858086
 21
143.2912919738
 31
0.0
  0
LINE
  5
87
330
1F
100
AcDbEntity
  8
0
  6
Continuous
 62
     7
370
    15
100
AcDbLine
 10
162.4541858086
 20
143.2912919738
 30
0.0
 11
167.1421567877
 21
143.2912919738
 31
0.0
  0
SPLINE
  5
88
330
1F
100
AcDbEntity
  8
0
  6
Continuous
 62
     7
370
    15
100
AcDbSpline
210
0.0
220
0.0
230
1.0
 70
     8
 71
     3
 72
     8
 73
     4
 74
     0
 42
0.00000001
 43
0.00000001
 40
0.0
 40
0.0
 40
0.0
 40
0.0
 40
1.0
 40
1.0
 40
1.0
 40
1.0
 10
162.4541858086399
 20
63.16629838082078
 30
0.0
 10
162.0030810792397
 20
63.96725831264069
 30
0.0
 10
161.5523832519964
 20
64.76844832420137
 30
0.0
 10
161.1021567877185
 20
65.56990368682612
 30
0.0
  0
LINE
  5
89
330
1F
100
AcDbEntity
  8
0
  6
Continuous
 62
     7
370
    15
100
AcDbLine
 10
161.1021567877
 20
65.5699036868
 30
0.0
 11
161.1021567877
 21
143.2912919738
 31
0.0
  0
SPLINE
  5
8A
330
1F
100
AcDbEntity
  8
0
  6
Continuous
 62
     7
370
    15
100
AcDbSpline
210
0.0
220
0.0
230
1.0
 70
    24
 71
     3
 72
     8
 73
     4
 74
     0
 42
0.00000001
 43
0.00000001
 40
0.0
 40
0.0
 40
0.0
 40
0.0
 40
1.0
 40
1.0
 40
1.0
 40
1.0
 10
161.1021567877186
 20
143.2912919738496
 30
0.0
 10
161.5463696700725
 20
143.2912919738496
 30
0.0
 10
161.9973842363117
 20
143.2912919738496
 30
0.0
 10
162.4541858086399
 20
143.2912919738496
 30
0.0
  0
LINE
  5
8B
330
1F
100
AcDbEntity
  8
0
  6
Continuous
 62
     7
370
    15
100
AcDbLine
 10
157.2821567877
 20
65.5699036868
 30
0.0
 11
157.2821567877
 21
143.2912919738
 31
0.0
  0
SPLINE
  5
8C
330
1F
100
AcDbEntity
  8
0
  6
Continuous
 62
     7
370
    15
100
AcDbSpline
210
0.0
220
0.0
230
1.0
 70
     8
 71
     3
 72
     8
 73
     4
 74
     0
 42
0.00000001
 43
0.00000001
 40
0.0
 40
0.0
 40
0.0
 40
0.0
 40
1.0
 40
1.0
 40
1.0
 40
1.0
 10
157.2821567877186
 20
65.56990368682612
 30
0.0
 10
156.8319303234408
 20
64.76844832420137
 30
0.0
 10
156.3812324961974
 20
63.96725831264069
 30
0.0
 10
155.9301277667971
 20
63.16629838082078
 30
0.0
  0
SPLINE
  5
8D
330
1F
100
AcDbEntity
  8
0
  6
Continuous
 62
     7
370
    15
100
AcDbSpline
210
0.0
220
0.0
230
1.0
 70
    24
 71
     3
 72
     8
 73
     4
 74
     0
 42
0.00000001
 43
0.00000001
 40
0.0
 40
0.0
 40
0.0
 40
0.0
 40
1.0
 40
1.0
 40
1.0
 40
1.0
 10
155.9301277667971
 20
143.2912919738496
 30
0.0
 10
156.3869293391254
 20
143.2912919738496
 30
0.0
 10
156.8379439053646
 20
143.2912919738496
 30
0.0
 10
157.2821567877186
 20
143.2912919738496
 30
0.0
  0
SPLINE
  5
8E
330
1F
100
AcDbEntity
  8
0
  6
Continuous
 62
     7
370
    15
100
AcDbSpline
210
0.0
220
0.0
230
1.0
 70
     8
 71
     3
 72
    14
 73
    10
 74
     0
 42
0.00000001
 43
0.00000001
 40
0.0
 40
0.0
 40
0.0
 40
0.0
 40
0.25
 40
0.25
 40
0.5
 40
0.5
 40
0.75
 40
0.75
 40
1.0
 40
1.0
 40
1.0
 40
1.0
 10
161.1021567877186
 20
66.4781131914547
 30
0.0
 10
161.1021567877186
 20
66.58515727244908
 30
0.0
 10
161.0820391005604
 20
66.69039241269154
 30
0.0
 10
161.0035479112948
 20
66.88824289953921
 30
0.0
 10
160.9453912864936
 20
66.97929466310414
 30
0.0
 10
160.7988760308755
 20
67.13246075702892
 30
0.0
 10
160.7102334822344
 20
67.19475520323833
 30
0.0
 10
160.5145101594341
 20
67.27954898877431
 30
0.0
 10
160.4092789683632
 20
67.30161651579994
 30
0.0
 10
160.3021567877186
 20
67.30161651579994
 30
0.0
  0
SPLINE
  5
8F
330
1F
100
AcDbEntity
  8
0
  6
Continuous
 62
     7
370
    15
100
AcDbSpline
210
0.0
220
0.0
230
1.0
 70
    24
 71
     3
 72
    14
 73
    10
 74
     0
 42
0.00000001
 43
0.00000001
 40
0.0
 40
0.0
 40
0.0
 40
0.0
 40
0.25
 40
0.25
 40
0.5
 40
0.5
 40
0.75
 40
0.75
 40
1.0
 40
1.0
 40
1.0
 40
1.0
 10
160.3021567877186
 20
143.2912919738496
 30
0.0
 10
160.4259265524837
 20
143.2912919738496
 30
0.0
 10
160.5502936564906
 20
143.2912919738496
 30
0.0
 10
160.7566501252167
 20
143.2912919738496
 30
0.0
 10
160.841978268635
 20
143.2912919738496
 30
0.0
 10
160.9741703273502
 20
143.2912919738496
 30
0.0
 10
161.0228155711008
 20
143.2912919738496
 30
0.0
 10
161.0863513628296
 20
143.2912919738496
 30
0.0
 10
161.1021567877186
 20
143.2912919738496
 30
0.0
 10
161.1021567877186
 20
143.2912919738496
 30
0.0
  0
SPLINE
  5
90
330
1F
100
AcDbEntity
  8
0
  6
Continuous
 62
     7
370
    15
100
AcDbSpline
210
0.0
220
0.0
230
1.0
 70
     8
 71
     3
 72
    12
 73
     8
 74
     0
 42
0.00000001
 43
0.00000001
 40
0.0
 40
0.0
 40
0.0
 40
0.0
 40
0.25
 40
0.25
 40
0.5
 40
0.5
 40
1.0
 40
1.0
 40
1.0
 40
1.0
 10
158.0821567877186
 20
67.30161651579994
 30
0.0
 10
157.9763961343696
 20
67.30161651579994
 30
0.0
 10
157.8684085061867
 20
67.27907700979954
 30
0.0
 10
157.6738138409211
 20
67.19450637780422
 30
0.0
 10
157.5849419280823
 20
67.13202472504545
 30
0.0
 10
157.3657496357564
 20
66.90263577357328
 30
0.0
 10
157.2821567877185
 20
66.69005243605089
 30
0.0
 10
157.2821567877185
 20
66.4781131914547
 30
0.0
  0
SPLINE
  5
91
330
1F
100
AcDbEntity
  8
0
  6
Continuous
 62
     7
370
    15
100
AcDbSpline
210
0.0
220
0.0
230
1.0
 70
    24
 71
     3
 72
    14
 73
    10
 74
     0
 42
0.00000001
 43
0.00000001
 40
0.0
 40
0.0
 40
0.0
 40
0.0
 40
0.25
 40
0.25
 40
0.5
 40
0.5
 40
0.75
 40
0.75
 40
1.0
 40
1.0
 40
1.0
 40
1.0
 10
157.2821567877186
 20
143.2912919738496
 30
0.0
 10
157.2821567877185
 20
143.2912919738496
 30
0.0
 10
157.2978711081845
 20
143.2912919738496
 30
0.0
 10
157.3615550866529
 20
143.2912919738496
 30
0.0
 10
157.4101582810633
 20
143.2912919738496
 30
0.0
 10
157.5428418034889
 20
143.2912919738496
 30
0.0
 10
157.6279439077996
 20
143.2912919738496
 30
0.0
 10
157.8343861427096
 20
143.2912919738496
 30
0.0
 10
157.9584670843327
 20
143.2912919738496
 30
0.0
 10
158.0821567877186
 20
143.2912919738496
 30
0.0
  0
LINE
  5
92
330
1F
100
AcDbEntity
  8
0
  6
Continuous
 62
     7
370
    15
100
AcDbLine
 10
160.3021567877
 20
67.3016165158
 30
0.0
 11
158.0821567877
 21
67.3016165158
 31
0.0
  0
LINE
  5
93
330
1F
100
AcDbEntity
  8
0
  6
Continuous
 62
     7
370
    15
100
AcDbLine
 10
158.0821567877
 20
143.2912919738
 30
0.0
 11
160.3021567877
 21
143.2912919738
 31
0.0
  0
LINE
  5
94
330
1F
100
AcDbEntity
  8
0
  6
Continuous
 62
     7
370
    15
100
AcDbLine
 10
104.3921567877
 20
75.6772769438
 30
0.0
 11
104.3921567877
 21
78.0719587085
 31
0.0
  0
SPLINE
  5
95
330
1F
100
AcDbEntity
  8
0
  6
Continuous
 62
     7
370
    15
100
AcDbSpline
210
0.0
220
0.0
230
1.0
 70
     8
 71
     3
 72
    14
 73
    10
 74
     0
 42
0.00000001
 43
0.00000001
 40
0.0
 40
0.0
 40
0.0
 40
0.0
 40
0.25
 40
0.25
 40
0.5
 40
0.5
 40
0.75
 40
0.75
 40
1.0
 40
1.0
 40
1.0
 40
1.0
 10
103.3877343163816
 20
79.77481063010605
 30
0.0
 10
103.4765028943269
 20
79.6162764987981
 30
0.0
 10
103.5982207330058
 20
79.46383382190955
 30
0.0
 10
103.8332703428627
 20
79.16669919808062
 30
0.0
 10
103.9489005290796
 20
79.02201655446326
 30
0.0
 10
104.1493054625074
 20
78.73872735195985
 30
0.0
 10
104.2347057544917
 20
78.600173358923
 30
0.0
 10
104.356411388209
 20
78.32878932888948
 30
0.0
 10
104.3921567877216
 20
78.19665346025485
 30
0.0
 10
104.3921567877216
 20
78.07195870848409
 30
0.0
  0
SPLINE
  5
96
330
1F
100
AcDbEntity
  8
0
  6
Continuous
 62
     7
370
    15
100
AcDbSpline
210
0.0
220
0.0
230
1.0
 70
     8
 71
     3
 72
    14
 73
    10
 74
     0
 42
0.00000001
 43
0.00000001
 40
0.0
 40
0.0
 40
0.0
 40
0.0
 40
0.124999999999999
 40
0.124999999999999
 40
0.249999999999998
 40
0.249999999999998
 40
0.5000000000000007
 40
0.5000000000000007
 40
1.0
 40
1.0
 40
1.0
 40
1.0
 10
102.4921567877186
 20
80.40364056920616
 30
0.0
 10
102.5597390875031
 20
80.41079645430757
 30
0.0
 10
102.632226665251
 20
80.40637198426853
 30
0.0
 10
102.7645177745169
 20
80.37666582649818
 30
0.0
 10
102.8217951539071
 20
80.35338154491997
 30
0.0
 10
102.9714455811073
 20
80.27589630506965
 30
0.0
 10
103.0451588766288
 20
80.21404447816828
 30
0.0
 10
103.2329668599551
 20
80.02936702551996
 30
0.0
 10
103.3170071663165
 20
79.90112410222875
 30
0.0
 10
103.3877343163828
 20
79.77481063010616
 30
0.0
  0
SPLINE
  5
97
330
1F
100
AcDbEntity
  8
0
  6
Continuous
 62
     7
370
    15
100
AcDbSpline
210
0.0
220
0.0
230
1.0
 70
     8
 71
     3
 72
     8
 73
     4
 74
     0
 42
0.00000001
 43
0.00000001
 40
0.0
 40
0.0
 40
0.0
 40
0.0
 40
1.0
 40
1.0
 40
1.0
 40
1.0
 10
98.94751639963778
 20
79.98559198441438
 30
0.0
 10
100.1128147103467
 20
80.14077945630099
 30
0.0
 10
101.2974299243865
 20
80.27713809461132
 30
0.0
 10
102.4921567877186
 20
80.40364056920617
 30
0.0
  0
SPLINE
  5
98
330
1F
100
AcDbEntity
  8
0
  6
Continuous
 62
     7
370
    15
100
AcDbSpline
210
0.0
220
0.0
230
1.0
 70
     8
 71
     3
 72
    14
 73
    10
 74
     0
 42
0.00000001
 43
0.00000001
 40
0.0
 40
0.0
 40
0.0
 40
0.0
 40
0.4999999999999972
 40
0.4999999999999972
 40
0.7499999999999971
 40
0.7499999999999971
 40
0.8749999999999986
 40
0.8749999999999986
 40
1.0
 40
1.0
 40
1.0
 40
1.0
 10
91.19208190368987
 20
79.69545980528446
 30
0.0
 10
92.50038346622361
 20
79.7024745290256
 30
0.0
 10
93.80544284088042
 20
79.71788310547007
 30
0.0
 10
95.75131889236874
 20
79.77177966093674
 30
0.0
 10
96.39801639610775
 20
79.79481122553945
 30
0.0
 10
97.36185875996209
 20
79.8457537504102
 30
0.0
 10
97.68209745189617
 20
79.8654886726434
 30
0.0
 10
98.31879267823858
 20
79.91497580111495
 30
0.0
 10
98.6355080865215
 20
79.94404058004419
 30
0.0
 10
98.9475163996378
 20
79.98559198441436
 30
0.0
  0
SPLINE
  5
99
330
1F
100
AcDbEntity
  8
0
  6
Continuous
 62
     7
370
    15
100
AcDbSpline
210
0.0
220
0.0
230
1.0
 70
     8
 71
     3
 72
    12
 73
     8
 74
     0
 42
0.00000001
 43
0.00000001
 40
0.0
 40
0.0
 40
0.0
 40
0.0
 40
0.2500000000000009
 40
0.2500000000000009
 40
0.5000000000000018
 40
0.5000000000000018
 40
1.0
 40
1.0
 40
1.0
 40
1.0
 10
97.49215678771857
 20
144.027814865346
 30
0.0
 10
96.97345796589038
 20
144.0603376401942
 30
0.0
 10
96.4517463926854
 20
144.0836343813647
 30
0.0
 10
95.40545437618981
 20
144.1214798957868
 30
0.0
 10
94.88078275051954
 20
144.135748370283
 30
0.0
 10
93.30393672798031
 20
144.1699578577413
 30
0.0
 10
92.24898141343341
 20
144.1814573616852
 30
0.0
 10
91.19208190368818
 20
144.1871241424147
 30
0.0
  0
SPLINE
  5
9A
330
1F
100
AcDbEntity
  8
0
  6
Continuous
 62
     7
370
    15
100
AcDbSpline
210
0.0
220
0.0
230
1.0
 70
     8
 71
     3
 72
    20
 73
    16
 74
     0
 42
0.00000001
 43
0.00000001
 40
0.0
 40
0.0
 40
0.0
 40
0.0
 40
0.2500000000000011
 40
0.2500000000000011
 40
0.5000000000000021
 40
0.5000000000000021
 40
0.7500000000000031
 40
0.7500000000000031
 40
0.8750000000000008
 40
0.8750000000000008
 40
0.9375000000000006
 40
0.9375000000000006
 40
0.9687500000000003
 40
0.9687500000000003
 40
1.0
 40
1.0
 40
1.0
 40
1.0
 10
99.39215678771856
 20
145.6859007108341
 30
0.0
 10
99.39215678771856
 20
145.5502183910874
 30
0.0
 10
99.34344499850194
 20
145.4091314049473
 30
0.0
 10
99.17428357527675
 20
145.1170596862167
 30
0.0
 10
99.05250316135844
 20
144.9654109441263
 30
0.0
 10
98.75495606660891
 20
144.6630025039732
 30
0.0
 10
98.58104346090616
 20
144.5104138678499
 30
0.0
 10
98.26162862702432
 20
144.2851431040076
 30
0.0
 10
98.14658785157707
 20
144.2104200094969
 30
0.0
 10
97.93950352756065
 20
144.1110096002399
 30
0.0
 10
97.86339569275427
 20
144.0794445078953
 30
0.0
 10
97.73200115320091
 20
144.0450011237024
 30
0.0
 10
97.68544793419944
 20
144.0359495519347
 30
0.0
 10
97.58911458311874
 20
144.0257739030963
 30
0.0
 10
97.53985515976329
 20
144.0248241444212
 30
0.0
 10
97.49215678771658
 20
144.0278148653358
 30
0.0
  0
LINE
  5
9B
330
1F
100
AcDbEntity
  8
0
  6
Continuous
 62
     7
370
    15
100
AcDbLine
 10
99.3921567877
 20
145.6859007108
 30
0.0
 11
99.3921567877
 21
147.9548060019
 31
0.0
  0
LINE
  5
9C
330
1F
100
AcDbEntity
  8
0
  6
Continuous
 62
     7
370
    15
100
AcDbLine
 10
136.6921567877
 20
74.0590404708
 30
0.0
 11
136.6921567877
 21
149.8235434769
 31
0.0
  0
SPLINE
  5
9D
330
1F
100
AcDbEntity
  8
0
  6
Continuous
 62
     7
370
    15
100
AcDbSpline
210
0.0
220
0.0
230
1.0
 70
     8
 71
     3
 72
    24
 73
    20
 74
     0
 42
0.00000001
 43
0.00000001
 40
0.0
 40
0.0
 40
0.0
 40
0.0
 40
0.0002934293894791
 40
0.062808005175641
 40
0.1260453927228619
 40
0.18907467666103
 40
0.2513200540860133
 40
0.3133304633786588
 40
0.3759158453762907
 40
0.4383740564599686
 40
0.5000631094857209
 40
0.5616593988040849
 40
0.6245050380644152
 40
0.6872231506510951
 40
0.7494953263230465
 40
0.8117583797535242
 40
0.8747365508229858
 40
0.9378980306234599
 40
1.0
 40
1.0
 40
1.0
 40
1.0
 10
117.712113051558
 20
75.01004671553721
 30
0.0
 10
117.7119181986732
 20
75.01002240814323
 30
0.0
 10
117.6702103076621
 20
75.00481945648902
 30
0.0
 10
117.8153286991925
 20
75.02345407981953
 30
0.0
 10
118.1704076407318
 20
75.06597385836825
 30
0.0
 10
118.7749832782749
 20
75.1341101419701
 30
0.0
 10
119.5814185870911
 20
75.20736567898598
 30
0.0
 10
120.5668960110101
 20
75.27188501980383
 30
0.0
 10
121.6985656076896
 20
75.31044924786492
 30
0.0
 10
122.9208580778519
 20
75.31414375386632
 30
0.0
 10
124.1881867593037
 20
75.27171777381733
 30
0.0
 10
125.4546722897303
 20
75.18347063303638
 30
0.0
 10
126.6708096535502
 20
75.0550773627697
 30
0.0
 10
127.796220149391
 20
74.90243637417717
 30
0.0
 10
128.7736372109449
 20
74.74066175907284
 30
0.0
 10
129.5769026894874
 20
74.58813286597193
 30
0.0
 10
130.1653962124886
 20
74.46411912270453
 30
0.0
 10
130.5543023241407
 20
74.37919519642827
 30
0.0
 10
130.6010634548787
 20
74.36846888514947
 30
0.0
 10
130.6242462614211
 20
74.36315109245787
 30
0.0
  0
SPLINE
  5
9E
330
1F
100
AcDbEntity
  8
0
  6
Continuous
 62
     7
370
    15
100
AcDbSpline
210
0.0
220
0.0
230
1.0
 70
     8
 71
     3
 72
    41
 73
    37
 74
     0
 42
0.00000001
 43
0.00000001
 40
0.0
 40
0.0
 40
0.0
 40
0.0
 40
0.0619930088506718
 40
0.125434783814564
 40
0.1886508980471406
 40
0.2510246518033811
 40
0.3131658325491701
 40
0.3756581805174193
 40
0.4382227337757709
 40
0.4998045140815297
 40
0.5615164441954765
 40
0.624068336616565
 40
0.6867257531766615
 40
0.7488365631577111
 40
0.8110686297814758
 40
0.8741743265521147
 40
0.9373213196242014
 40
0.9685512131827939
 40
0.9842087301523141
 40
0.9920641614992075
 40
0.9960005295431575
 40
0.9979711229155388
 40
0.9989570525954627
 40
0.999450179507506
 40
0.9996967839589672
 40
0.9998200964931991
 40
0.9998817553448945
 40
0.9999125854178207
 40
0.9999280006161647
 40
0.9999357082558249
 40
0.9999395620857793
 40
0.9999414890032862
 40
0.9999424524626737
 40
0.9999434159224813
 40
0.9999502132908483
 40
1.0
 40
1.0
 40
1.0
 40
1.0
 10
130.6241249309431
 20
149.5193878372898
 30
0.0
 10
130.6005532855995
 20
149.5140783576399
 30
0.0
 10
130.5528591295545
 20
149.5033353167004
 30
0.0
 10
130.1608171401289
 20
149.418106180245
 30
0.0
 10
129.5703030908587
 20
149.2935374016042
 30
0.0
 10
128.7662656448136
 20
149.1405904554524
 30
0.0
 10
127.7901902446321
 20
148.9788339014988
 30
0.0
 10
126.6683815093516
 20
148.8266011335666
 30
0.0
 10
125.4548505895644
 20
148.6988211923652
 30
0.0
 10
124.1900198831652
 20
148.6109726406826
 30
0.0
 10
122.9219768457224
 20
148.568587156812
 30
0.0
 10
121.6984694880213
 20
148.5723229647836
 30
0.0
 10
120.5649709476073
 20
148.6109184352317
 30
0.0
 10
119.5788651366331
 20
148.6753578065229
 30
0.0
 10
118.770237327846
 20
148.748867613804
 30
0.0
 10
118.1736186327363
 20
148.8161812986158
 30
0.0
 10
117.8582273432797
 20
148.8541458498836
 30
0.0
 10
117.7481607744792
 20
148.8679449092158
 30
0.0
 10
117.7207413866686
 20
148.871430983136
 30
0.0
 10
117.713819335834
 20
148.87231020883
 30
0.0
 10
117.7120510956578
 20
148.8725309834354
 30
0.0
 10
117.7115907164743
 20
148.8725861861475
 30
0.0
 10
117.7114665578037
 20
148.8725999259327
 30
0.0
 10
117.7114310032905
 20
148.8726033217662
 30
0.0
 10
117.7114198592488
 20
148.872604150083
 30
0.0
 10
117.7114159460126
 20
148.8726043466768
 30
0.0
 10
117.7114144038643
 20
148.8726043905998
 30
0.0
 10
117.7114137367829
 20
148.8726043989165
 30
0.0
 10
117.711413428718
 20
148.8726043997327
 30
0.0
 10
117.7114132817927
 20
148.8726043992073
 30
0.0
 10
117.711413209065
 20
148.8726043988495
 30
0.0
 10
117.7114131743554
 20
148.8726043984517
 30
0.0
 10
117.7114131526219
 20
148.8726043984765
 30
0.0
 10
117.7114131207668
 20
148.8726043962319
 30
0.0
 10
117.7114111714261
 20
148.8726046121779
 30
0.0
 10
117.7114381062889
 20
148.8726011310472
 30
0.0
 10
117.7114618055033
 20
148.8725980681001
 30
0.0
  0
SPLINE
  5
9F
330
1F
100
AcDbEntity
  8
0
  6
Continuous
 62
     7
370
    15
100
AcDbSpline
210
0.0
220
0.0
230
1.0
 70
     8
 71
     3
 72
    20
 73
    16
 74
     0
 42
0.00000001
 43
0.00000001
 40
0.0
 40
0.0
 40
0.0
 40
0.0
 40
0.249999999999986
 40
0.249999999999986
 40
0.3749999999999789
 40
0.3749999999999789
 40
0.4374999999999789
 40
0.4374999999999789
 40
0.4999999999999789
 40
0.4999999999999789
 40
0.6249999999999835
 40
0.6249999999999835
 40
0.7499999999999879
 40
0.7499999999999879
 40
1.0
 40
1.0
 40
1.0
 40
1.0
 10
89.58297101943458
 20
81.2628088211489
 30
0.0
 10
89.60924323664798
 20
81.28212676223134
 30
0.0
 10
89.63992337890282
 20
81.29651547333312
 30
0.0
 10
89.71139424928475
 20
81.2896111114971
 30
0.0
 10
89.73942128632909
 20
81.28244510814869
 30
0.0
 10
89.79450487582659
 20
81.2527460814451
 30
0.0
 10
89.81539620437901
 20
81.23927243888376
 30
0.0
 10
89.86060485182448
 20
81.20407417336776
 30
0.0
 10
89.88500906422004
 20
81.18216594464049
 30
0.0
 10
89.95634138227149
 20
81.11004108464495
 30
0.0
 10
89.99823816709177
 20
81.05770054369489
 30
0.0
 10
90.06981412594764
 20
80.96021715179415
 30
0.0
 10
90.10064211576493
 20
80.91346338191573
 30
0.0
 10
90.18374204860051
 20
80.78017016607662
 30
0.0
 10
90.22859695397081
 20
80.6975327681614
 30
0.0
 10
90.26870902942338
 20
80.61842587337063
 30
0.0
  0
SPLINE
  5
A0
330
1F
100
AcDbEntity
  8
0
  6
Continuous
 62
     7
370
    15
100
AcDbSpline
210
0.0
220
0.0
230
1.0
 70
     8
 71
     3
 72
    14
 73
    10
 74
     0
 42
0.00000001
 43
0.00000001
 40
0.0
 40
0.0
 40
0.0
 40
0.0
 40
0.25
 40
0.25
 40
0.5
 40
0.5
 40
0.75
 40
0.75
 40
1.0
 40
1.0
 40
1.0
 40
1.0
 10
89.29215678771857
 20
81.43862223128166
 30
0.0
 10
89.29215678771858
 20
81.39737530025731
 30
0.0
 10
89.30076650409983
 20
81.36046832797483
 30
0.0
 10
89.33185268367016
 20
81.29956826807542
 30
0.0
 10
89.35424223715422
 20
81.27538734853573
 30
0.0
 10
89.40898616833034
 20
81.24141975765248
 30
0.0
 10
89.44143640791553
 20
81.23149967368428
 30
0.0
 10
89.5114379226436
 20
81.23014846477943
 30
0.0
 10
89.54964842276614
 20
81.2383067414756
 30
0.0
 10
89.58297101943923
 20
81.2628088211437
 30
0.0
  0
LINE
  5
A1
330
1F
100
AcDbEntity
  8
0
  6
Continuous
 62
     7
370
    15
100
AcDbLine
 10
89.2921567877
 20
81.4386222313
 30
0.0
 11
89.2921567877
 21
142.4439617164
 31
0.0
  0
SPLINE
  5
A2
330
1F
100
AcDbEntity
  8
0
  6
Continuous
 62
     7
370
    15
100
AcDbSpline
210
0.0
220
0.0
230
1.0
 70
     8
 71
     3
 72
    10
 73
     6
 74
     0
 42
0.00000001
 43
0.00000001
 40
0.0
 40
0.0
 40
0.0
 40
0.0
 40
0.0592402688376383
 40
0.6438088530391344
 40
1.0
 40
1.0
 40
1.0
 40
1.0
 10
89.58297101943921
 20
142.6197751265555
 30
0.0
 10
89.57813876181801
 20
142.6230240331871
 30
0.0
 10
89.52562295968328
 20
142.6583323613428
 30
0.0
 10
89.4266727620045
 20
142.6645866579014
 30
0.0
 10
89.37724423711316
 20
142.6093864202124
 30
0.0
 10
89.35852957236885
 20
142.5884864652892
 30
0.0
  0
SPLINE
  5
A3
330
1F
100
AcDbEntity
  8
0
  6
Continuous
 62
     7
370
    15
100
AcDbSpline
210
0.0
220
0.0
230
1.0
 70
     8
 71
     3
 72
     8
 73
     4
 74
     0
 42
0.00000001
 43
0.00000001
 40
0.0
 40
0.0
 40
0.0
 40
0.0
 40
1.0
 40
1.0
 40
1.0
 40
1.0
 10
89.31579045665478
 20
142.5515412174872
 30
0.0
 10
89.30044141801874
 20
142.5210311624912
 30
0.0
 10
89.29215678771857
 20
142.4847196069789
 30
0.0
 10
89.29215678771857
 20
142.4439617164175
 30
0.0
  0
SPLINE
  5
A4
330
1F
100
AcDbEntity
  8
0
  6
Continuous
 62
     7
370
    15
100
AcDbSpline
210
0.0
220
0.0
230
1.0
 70
     8
 71
     3
 72
    20
 73
    16
 74
     0
 42
0.00000001
 43
0.00000001
 40
0.0
 40
0.0
 40
0.0
 40
0.0
 40
0.2500000000000037
 40
0.2500000000000037
 40
0.3750000000000055
 40
0.3750000000000055
 40
0.5000000000000073
 40
0.5000000000000073
 40
0.5625000000000057
 40
0.5625000000000057
 40
0.625000000000004
 40
0.625000000000004
 40
0.7500000000000027
 40
0.7500000000000027
 40
1.0
 40
1.0
 40
1.0
 40
1.0
 10
90.26870902942099
 20
143.2641580743278
 30
0.0
 10
90.22871281159716
 20
143.1852796677703
 30
0.0
 10
90.18359918375951
 20
143.1021500210788
 30
0.0
 10
90.10034496939298
 20
142.9686613567279
 30
0.0
 10
90.07012564077247
 20
142.9227963008459
 30
0.0
 10
89.99803740563107
 20
142.824604748441
 30
0.0
 10
89.95612008821996
 20
142.7722949289174
 30
0.0
 10
89.8848694836685
 20
142.7002890261829
 30
0.0
 10
89.8606336712892
 20
142.6785188138813
 30
0.0
 10
89.81503548110453
 20
142.6430441555523
 30
0.0
 10
89.79423299150483
 20
142.6296739713748
 30
0.0
 10
89.7392919930857
 20
142.6001040592395
 30
0.0
 10
89.7112230049989
 20
142.5929775369376
 30
0.0
 10
89.64072017493606
 20
142.5861031654549
 30
0.0
 10
89.60929608714518
 20
142.600418324542
 30
0.0
 10
89.58297101943658
 20
142.6197751265526
 30
0.0
  0
SPLINE
  5
A5
330
1F
100
AcDbEntity
  8
0
  6
Continuous
 62
     7
370
    15
100
AcDbSpline
210
0.0
220
0.0
230
1.0
 70
     8
 71
     3
 72
    10
 73
     6
 74
     0
 42
0.00000001
 43
0.00000001
 40
0.0
 40
0.0
 40
0.0
 40
0.0
 40
0.4999999999999989
 40
0.4999999999999989
 40
1.0
 40
1.0
 40
1.0
 40
1.0
 10
90.94215678771859
 20
144.1895771756696
 30
0.0
 10
90.81726851696838
 20
144.0585808975981
 30
0.0
 10
90.69581839890793
 20
143.9148680609331
 30
0.0
 10
90.4662344239505
 20
143.6042977682439
 30
0.0
 10
90.35595944855451
 20
143.4362286951808
 30
0.0
 10
90.26870902942099
 20
143.2641580743278
 30
0.0
  0
SPLINE
  5
A6
330
1F
100
AcDbEntity
  8
0
  6
Continuous
 62
     7
370
    15
100
AcDbSpline
210
0.0
220
0.0
230
1.0
 70
     8
 71
     3
 72
     8
 73
     4
 74
     0
 42
0.00000001
 43
0.00000001
 40
0.0
 40
0.0
 40
0.0
 40
0.0
 40
1.0
 40
1.0
 40
1.0
 40
1.0
 10
91.1920819036843
 20
144.1871241424142
 30
0.0
 10
91.10506387383595
 20
144.1875907072013
 30
0.0
 10
91.02210984745601
 20
144.1886307267774
 30
0.0
 10
90.94215678771626
 20
144.1895771756697
 30
0.0
  0
SPLINE
  5
A7
330
1F
100
AcDbEntity
  8
0
  6
Continuous
 62
     7
370
    15
100
AcDbSpline
210
0.0
220
0.0
230
1.0
 70
     8
 71
     3
 72
     8
 73
     4
 74
     0
 42
0.00000001
 43
0.00000001
 40
0.0
 40
0.0
 40
0.0
 40
0.0
 40
1.0
 40
1.0
 40
1.0
 40
1.0
 10
90.94215678771626
 20
79.6930067720295
 30
0.0
 10
91.02210984745653
 20
79.69395322092178
 30
0.0
 10
91.10506387383701
 20
79.69499324049791
 30
0.0
 10
91.19208190368599
 20
79.69545980528497
 30
0.0
  0
SPLINE
  5
A8
330
1F
100
AcDbEntity
  8
0
  6
Continuous
 62
     7
370
    15
100
AcDbSpline
210
0.0
220
0.0
230
1.0
 70
     8
 71
     3
 72
    10
 73
     6
 74
     0
 42
0.00000001
 43
0.00000001
 40
0.0
 40
0.0
 40
0.0
 40
0.0
 40
0.4999999999999989
 40
0.4999999999999989
 40
1.0
 40
1.0
 40
1.0
 40
1.0
 10
90.26870902942007
 20
80.61842587337318
 30
0.0
 10
90.35595944855353
 20
80.44635525251981
 30
0.0
 10
90.4662344239497
 20
80.27828617945637
 30
0.0
 10
90.69581839890753
 20
79.96771588676657
 30
0.0
 10
90.81726851696817
 20
79.82400305010128
 30
0.0
 10
90.94215678771859
 20
79.69300677202959
 30
0.0
  0
SPLINE
  5
A9
330
1F
100
AcDbEntity
  8
0
  6
Continuous
 62
     7
370
    15
100
AcDbSpline
210
0.0
220
0.0
230
1.0
 70
     8
 71
     3
 72
     8
 73
     4
 74
     0
 42
0.00000001
 43
0.00000001
 40
0.0
 40
0.0
 40
0.0
 40
0.0
 40
1.0
 40
1.0
 40
1.0
 40
1.0
 10
155.9301277667971
 20
150.8922547347365
 30
0.0
 10
156.3870541205967
 20
149.8763367650622
 30
0.0
 10
156.8382597623997
 20
148.8575409359711
 30
0.0
 10
157.2821567877186
 20
147.8367394799874
 30
0.0
  0
LINE
  5
AA
330
1F
100
AcDbEntity
  8
0
  6
Continuous
 62
     7
370
    15
100
AcDbLine
 10
157.2821567877
 20
147.83673948
 30
0.0
 11
157.2821567877
 21
146.6555271663
 31
0.0
  0
SPLINE
  5
AB
330
1F
100
AcDbEntity
  8
0
  6
Continuous
 62
     7
370
    15
100
AcDbSpline
210
0.0
220
0.0
230
1.0
 70
     8
 71
     3
 72
    14
 73
    10
 74
     0
 42
0.00000001
 43
0.00000001
 40
0.0
 40
0.0
 40
0.0
 40
0.0
 40
0.25
 40
0.25
 40
0.5
 40
0.5
 40
0.75
 40
0.75
 40
1.0
 40
1.0
 40
1.0
 40
1.0
 10
157.2821567877186
 20
146.6555271663466
 30
0.0
 10
157.2821567877186
 20
146.5316602895574
 30
0.0
 10
157.2980159153462
 20
146.4074006127199
 30
0.0
 10
157.361377560866
 20
146.1697922503141
 30
0.0
 10
157.4099672689154
 20
146.0530118655616
 30
0.0
 10
157.5422528736902
 20
145.8442093369526
 30
0.0
 10
157.6275776649508
 20
145.74969863336
 30
0.0
 10
157.834468913257
 20
145.6117418325577
 30
0.0
 10
157.958436859147
 20
145.569823386922
 30
0.0
 10
158.0821567877186
 20
145.569823386922
 30
0.0
  0
LINE
  5
AC
330
1F
100
AcDbEntity
  8
0
  6
Continuous
 62
     7
370
    15
100
AcDbLine
 10
158.0821567877
 20
145.5698233869
 30
0.0
 11
160.3021567877
 21
145.5698233869
 31
0.0
  0
SPLINE
  5
AD
330
1F
100
AcDbEntity
  8
0
  6
Continuous
 62
     7
370
    15
100
AcDbSpline
210
0.0
220
0.0
230
1.0
 70
     8
 71
     3
 72
    12
 73
     8
 74
     0
 42
0.00000001
 43
0.00000001
 40
0.0
 40
0.0
 40
0.0
 40
0.0
 40
0.250000000000002
 40
0.250000000000002
 40
0.500000000000004
 40
0.500000000000004
 40
1.0
 40
1.0
 40
1.0
 40
1.0
 10
160.3021567877186
 20
145.5698233869221
 30
0.0
 10
160.4258577376985
 20
145.5698233869221
 30
0.0
 10
160.5499543499687
 20
145.6118169986546
 30
0.0
 10
160.7566095130558
 20
145.749612325299
 30
0.0
 10
160.8416502797826
 20
145.8435859237638
 30
0.0
 10
161.0411288482562
 20
146.1583741299848
 30
0.0
 10
161.1021567877186
 20
146.4086131222124
 30
0.0
 10
161.1021567877186
 20
146.6555271663466
 30
0.0
  0
LINE
  5
AE
330
1F
100
AcDbEntity
  8
0
  6
Continuous
 62
     7
370
    15
100
AcDbLine
 10
161.1021567877
 20
146.6555271663
 30
0.0
 11
161.1021567877
 21
147.83673948
 31
0.0
  0
SPLINE
  5
AF
330
1F
100
AcDbEntity
  8
0
  6
Continuous
 62
     7
370
    15
100
AcDbSpline
210
0.0
220
0.0
230
1.0
 70
     8
 71
     3
 72
     8
 73
     4
 74
     0
 42
0.00000001
 43
0.00000001
 40
0.0
 40
0.0
 40
0.0
 40
0.0
 40
1.0
 40
1.0
 40
1.0
 40
1.0
 10
161.1021567877186
 20
147.8367394799874
 30
0.0
 10
161.5463067987441
 20
148.8581227109391
 30
0.0
 10
161.997381109002
 20
149.8766072477074
 30
0.0
 10
162.4541858086399
 20
150.8922547347365
 30
0.0
  0
LINE
  5
B0
330
1F
100
AcDbEntity
  8
0
  6
Continuous
 62
     7
370
    15
100
AcDbLine
 10
162.4541858086
 20
150.8922547347
 30
0.0
 11
167.1421567877
 21
150.8922547347
 31
0.0
  0
SPLINE
  5
B1
330
1F
100
AcDbEntity
  8
0
  6
Continuous
 62
     7
370
    15
100
AcDbSpline
210
0.0
220
0.0
230
1.0
 70
     8
 71
     3
 72
    16
 73
    12
 74
     0
 42
0.00000001
 43
0.00000001
 40
0.0
 40
0.0
 40
0.0
 40
0.0
 40
0.1249999999999978
 40
0.1249999999999978
 40
0.2499999999999955
 40
0.2499999999999955
 40
0.499999999999997
 40
0.499999999999997
 40
0.7499999999999984
 40
0.7499999999999984
 40
1.0
 40
1.0
 40
1.0
 40
1.0
 10
167.1421567877186
 20
150.8922547347365
 30
0.0
 10
167.2177944941298
 20
150.8922547347365
 30
0.0
 10
167.294110158548
 20
150.8809097346016
 30
0.0
 10
167.4385208964399
 20
150.838257183963
 30
0.0
 10
167.5069673455483
 20
150.8073228592802
 30
0.0
 10
167.7018985981615
 20
150.6880664875126
 30
0.0
 10
167.8097397719424
 20
150.577914473892
 30
0.0
 10
167.9784525201544
 20
150.329778388234
 30
0.0
 10
168.040816932878
 20
150.1894360642303
 30
0.0
 10
168.1221208573863
 20
149.9011643727416
 30
0.0
 10
168.1421567877186
 20
149.7503593997618
 30
0.0
 10
168.1421567877186
 20
149.5999895084165
 30
0.0
  0
LINE
  5
B2
330
1F
100
AcDbEntity
  8
0
  6
Continuous
 62
     7
370
    15
100
AcDbLine
 10
168.1421567877
 20
149.5999895084
 30
0.0
 11
168.1421567877
 21
143.2912919738
 31
0.0
  0
SPLINE
  5
B3
330
1F
100
AcDbEntity
  8
0
  6
Continuous
 62
     7
370
    15
100
AcDbSpline
210
0.0
220
0.0
230
1.0
 70
     8
 71
     3
 72
     8
 73
     4
 74
     0
 42
0.00000001
 43
0.00000001
 40
0.0
 40
0.0
 40
0.0
 40
0.0
 40
1.0
 40
1.0
 40
1.0
 40
1.0
 10
157.2821567877186
 20
158.5385628345545
 30
0.0
 10
156.831848552034
 20
159.3362779596681
 30
0.0
 10
156.3811547355104
 20
160.1337762593253
 30
0.0
 10
155.9301277667971
 20
160.9310868295132
 30
0.0
  0
LINE
  5
B4
330
1F
100
AcDbEntity
  8
0
  6
Continuous
 62
     7
370
    15
100
AcDbLine
 10
157.2821567877
 20
147.83673948
 30
0.0
 11
157.2821567877
 21
158.5385628346
 31
0.0
  0
SPLINE
  5
B5
330
1F
100
AcDbEntity
  8
0
  6
Continuous
 62
     7
370
    15
100
AcDbSpline
210
0.0
220
0.0
230
1.0
 70
     8
 71
     3
 72
    12
 73
     8
 74
     0
 42
0.00000001
 43
0.00000001
 40
0.0
 40
0.0
 40
0.0
 40
0.0
 40
0.4999999999999953
 40
0.4999999999999953
 40
0.7499999999999977
 40
0.7499999999999977
 40
1.0
 40
1.0
 40
1.0
 40
1.0
 10
168.1421567877186
 20
159.9100317946954
 30
0.0
 10
168.1421567877186
 20
160.1753012274618
 30
0.0
 10
168.0375500442321
 20
160.4378163331142
 30
0.0
 10
167.7608816924868
 20
160.7233539391515
 30
0.0
 10
167.6505164331348
 20
160.7996755560129
 30
0.0
 10
167.4064443845191
 20
160.904017720853
 30
0.0
 10
167.2746919231873
 20
160.9310868295132
 30
0.0
 10
167.1421567877186
 20
160.9310868295132
 30
0.0
  0
LINE
  5
B6
330
1F
100
AcDbEntity
  8
0
  6
Continuous
 62
     7
370
    15
100
AcDbLine
 10
168.1421567877
 20
149.5999895084
 30
0.0
 11
168.1421567877
 21
159.9100317947
 31
0.0
  0
SPLINE
  5
B7
330
1F
100
AcDbEntity
  8
0
  6
Continuous
 62
     7
370
    15
100
AcDbSpline
210
0.0
220
0.0
230
1.0
 70
     8
 71
     3
 72
     8
 73
     4
 74
     0
 42
0.00000001
 43
0.00000001
 40
0.0
 40
0.0
 40
0.0
 40
0.0
 40
1.0
 40
1.0
 40
1.0
 40
1.0
 10
162.4541858086399
 20
160.9310868295132
 30
0.0
 10
162.0031588399267
 20
160.1337762593253
 30
0.0
 10
161.5524650234031
 20
159.3362779596681
 30
0.0
 10
161.1021567877186
 20
158.5385628345545
 30
0.0
  0
LINE
  5
B8
330
1F
100
AcDbEntity
  8
0
  6
Continuous
 62
     7
370
    15
100
AcDbLine
 10
162.4541858086
 20
150.8922547347
 30
0.0
 11
162.4541858086
 21
160.9310868295
 31
0.0
  0
LINE
  5
B9
330
1F
100
AcDbEntity
  8
0
  6
Continuous
 62
     7
370
    15
100
AcDbLine
 10
161.1021567877
 20
147.83673948
 30
0.0
 11
161.1021567877
 21
158.5385628346
 31
0.0
  0
SPLINE
  5
BA
330
1F
100
AcDbEntity
  8
0
  6
Continuous
 62
     7
370
    15
100
AcDbSpline
210
0.0
220
0.0
230
1.0
 70
     8
 71
     3
 72
    10
 73
     6
 74
     0
 42
0.00000001
 43
0.00000001
 40
0.0
 40
0.0
 40
0.0
 40
0.0
 40
0.5
 40
0.5
 40
1.0
 40
1.0
 40
1.0
 40
1.0
 10
158.0821567877186
 20
156.815567734022
 30
0.0
 10
157.8696204738622
 20
156.815567734022
 30
0.0
 10
157.6596843022082
 20
156.9069803206522
 30
0.0
 10
157.365977161197
 20
157.2117251865564
 30
0.0
 10
157.2821567877186
 20
157.423880156465
 30
0.0
 10
157.2821567877186
 20
157.6348432146976
 30
0.0
  0
SPLINE
  5
BB
330
1F
100
AcDbEntity
  8
0
  6
Continuous
 62
     7
370
    15
100
AcDbSpline
210
0.0
220
0.0
230
1.0
 70
     8
 71
     3
 72
    14
 73
    10
 74
     0
 42
0.00000001
 43
0.00000001
 40
0.0
 40
0.0
 40
0.0
 40
0.0
 40
0.25
 40
0.25
 40
0.5
 40
0.5
 40
0.75
 40
0.75
 40
1.0
 40
1.0
 40
1.0
 40
1.0
 10
161.1021567877186
 20
157.6348432146976
 30
0.0
 10
161.1021567877186
 20
157.5284865209452
 30
0.0
 10
161.0817692315773
 20
157.4226460331851
 30
0.0
 10
161.0031348861158
 20
157.2260811196487
 30
0.0
 10
160.9444035264771
 20
157.1349103773615
 30
0.0
 10
160.7977946208746
 20
156.9829992883299
 30
0.0
 10
160.7083893008481
 20
156.9209304515103
 30
0.0
 10
160.5144985682477
 20
156.8376624037516
 30
0.0
 10
160.4079935783579
 20
156.815567734022
 30
0.0
 10
160.3021567877186
 20
156.815567734022
 30
0.0
  0
LINE
  5
BC
330
1F
100
AcDbEntity
  8
0
  6
Continuous
 62
     7
370
    15
100
AcDbLine
 10
167.1421567877
 20
160.9310868295
 30
0.0
 11
162.4541858086
 21
160.9310868295
 31
0.0
  0
LINE
  5
BD
330
1F
100
AcDbEntity
  8
0
  6
Continuous
 62
     7
370
    15
100
AcDbLine
 10
160.3021567877
 20
156.815567734
 30
0.0
 11
158.0821567877
 21
156.815567734
 31
0.0
  0
ARC
  5
BE
330
1F
100
AcDbEntity
  8
0
  6
Continuous
 62
     7
370
    15
100
AcDbCircle
 10
148.1915451519
 20
144.4526470414
 30
0.0
 40
11.50331509192553
100
AcDbArc
 50
77.8952585624
 51
101.953373475
  0
LINE
  5
BF
330
1F
100
AcDbEntity
  8
0
  6
Continuous
 62
     7
370
    15
100
AcDbLine
 10
90.9421567877
 20
79.6912919738
 30
0.0
 11
90.9421567877
 21
79.693006772
 31
0.0
  0
LINE
  5
C0
330
1F
100
AcDbEntity
  8
0
  6
Continuous
 62
     7
370
    15
100
AcDbLine
 10
90.9421567877
 20
144.1912919738
 30
0.0
 11
90.9421567877
 21
144.1895771757
 31
0.0
  0
SPLINE
  5
C1
330
1F
100
AcDbEntity
  8
0
  6
Continuous
 62
     7
370
    15
100
AcDbSpline
210
0.0
220
0.0
230
1.0
 70
     8
 71
     3
 72
    39
 73
    35
 74
     0
 42
0.00000001
 43
0.00000001
 40
-0.0930101214670915
 40
-0.0618280028304009
 40
-0.0306436199921569
 40
0.0
 40
0.0306596107138095
 40
0.0618452964001001
 40
0.0930163102295241
 40
0.1240785945074531
 40
0.1552163478465136
 40
0.1868112107939478
 40
0.2185267826068388
 40
0.2499192584027392
 40
0.2813177417181099
 40
0.3130921101016653
 40
0.3447271324212566
 40
0.3759220232797087
 40
0.4069779730813469
 40
0.4381192479309894
 40
0.4692677792207209
 40
0.5000093392007171
 40
0.5307192062576775
 40
0.5619180231307567
 40
0.593048639429756
 40
0.6241331762561441
 40
0.6552964593283728
 40
0.6869387764013302
 40
0.7186659751608054
 40
0.7500826423953854
 40
0.781452371212799
 40
0.8132065805149987
 40
0.8447916839906523
 40
0.8759584677019073
 40
0.9069898785329084
 40
0.938171997169599
 40
0.969356380007843
 40
0.9999999999999999
 40
1.030659610713809
 40
1.0618452964001
 40
1.093016310229524
 10
202.2647729413694
 20
108.9963675478489
 30
0.0
 10
201.6920512896138
 20
108.9383169039563
 30
0.0
 10
201.1193606777447
 20
108.996551337837
 30
0.0
 10
200.5688767771589
 20
109.1715866245731
 30
0.0
 10
200.0598090616617
 20
109.4471262982233
 30
0.0
 10
199.6175284617806
 20
109.8191114871732
 30
0.0
 10
199.2543618680792
 20
110.2719602998246
 30
0.0
 10
198.9860466837116
 20
110.7919517195259
 30
0.0
 10
198.8157800275028
 20
111.354708851552
 30
0.0
 10
198.7595278109374
 20
111.9398341870657
 30
0.0
 10
198.8159513560772
 20
112.5252867310178
 30
0.0
 10
198.9860513560456
 20
113.0887519414825
 30
0.0
 10
199.254255980185
 20
113.6098919919397
 30
0.0
 10
199.6174849114984
 20
114.0634279998117
 30
0.0
 10
200.0595468048471
 20
114.4358401055188
 30
0.0
 10
200.5680220388208
 20
114.7115709716994
 30
0.0
 10
201.118724096138
 20
114.8863623971665
 30
0.0
 10
201.6921315867415
 20
114.9441897071106
 30
0.0
 10
202.2658458326987
 20
114.886307125706
 30
0.0
 10
202.8165472979172
 20
114.7113236800641
 30
0.0
 10
203.3253793384235
 20
114.4353920533875
 30
0.0
 10
203.7673107218346
 20
114.062930638489
 30
0.0
 10
204.1304590868963
 20
113.6093141602501
 30
0.0
 10
204.3984315195793
 20
113.0885401524546
 30
0.0
 10
204.5683783488026
 20
112.5251800373741
 30
0.0
 10
204.6247790262636
 20
111.9400477378082
 30
0.0
 10
204.5685466176268
 20
111.3547118305327
 30
0.0
 10
204.3982214415579
 20
110.7919235312491
 30
0.0
 10
204.1297608073261
 20
110.2716110487128
 30
0.0
 10
203.7665514235296
 20
109.8188722719545
 30
0.0
 10
203.3241651051266
 20
109.4469316658565
 30
0.0
 10
202.8151735559331
 20
109.1715431009211
 30
0.0
 10
202.2647729413694
 20
108.9963675478489
 30
0.0
 10
201.6920512896138
 20
108.9383169039563
 30
0.0
 10
201.1193606777447
 20
108.996551337837
 30
0.0
  0
LINE
  5
C2
330
1F
100
AcDbEntity
  8
0
  6
Continuous
 62
     7
370
    15
100
AcDbLine
 10
205.2528618044
 20
96.9412919738
 30
0.0
 11
205.2528618044
 21
126.9412919738
 31
0.0
  0
LINE
  5
C3
330
1F
100
AcDbEntity
  8
0
  6
Continuous
 62
     7
370
    15
100
AcDbLine
 10
178.8157333491
 20
126.7763866859
 30
0.0
 11
178.9878984553
 21
126.7577432243
 31
0.0
  0
SPLINE
  5
C4
330
1F
100
AcDbEntity
  8
0
  6
Continuous
 62
     7
370
    15
100
AcDbSpline
210
0.0
220
0.0
230
1.0
 70
     8
 71
     3
 72
    37
 73
    33
 74
     0
 42
0.00000001
 43
0.00000001
 40
0.0
 40
0.0
 40
0.0
 40
0.0
 40
0.02607456903636
 40
0.0485613789562398
 40
0.0686516358259723
 40
0.1094511196058724
 40
0.1301874919269454
 40
0.1516489175492182
 40
0.1951472409224608
 40
0.2172029083284292
 40
0.2418582355108155
 40
0.2918187188911588
 40
0.3171485545383659
 40
0.3455750682187097
 40
0.4032428283255162
 40
0.4325284642472588
 40
0.4636592982830792
 40
0.5269199854930239
 40
0.559119317038369
 40
0.5911186074605741
 40
0.6233445310618162
 40
0.6563033069143764
 40
0.6895250809470405
 40
0.7206642780458496
 40
0.7842158098972077
 40
0.8167789331396255
 40
0.8395613286466264
 40
0.8858326780637181
 40
0.9093994472971455
 40
0.9321878521921786
 40
0.9787112702307839
 40
0.9999999999999999
 40
0.9999999999999999
 40
0.9999999999999999
 40
0.9999999999999999
 10
184.6323946281006
 20
126.9396720510213
 30
0.0
 10
184.6338604856739
 20
126.9399138152409
 30
0.0
 10
184.6365905045292
 20
126.9403640778652
 30
0.0
 10
184.597069299203
 20
126.9338283282012
 30
0.0
 10
184.5313862171521
 20
126.9230986180415
 30
0.0
 10
184.4333515577137
 20
126.907385340899
 30
0.0
 10
184.3051091007246
 20
126.8876277770671
 30
0.0
 10
184.1533706368943
 20
126.8649429908372
 30
0.0
 10
183.971360909321
 20
126.8391262507554
 30
0.0
 10
183.7589083639481
 20
126.8112164575373
 30
0.0
 10
183.5146510421826
 20
126.7810184033225
 30
0.0
 10
183.2374315098575
 20
126.7503887433208
 30
0.0
 10
182.9306129946301
 20
126.7213741192805
 30
0.0
 10
182.5880123615752
 20
126.6929552037137
 30
0.0
 10
182.2147608023529
 20
126.6692544641439
 30
0.0
 10
181.8220255516567
 20
126.6528339910953
 30
0.0
 10
181.4049450254358
 20
126.6417087232553
 30
0.0
 10
180.9722710706734
 20
126.6406476397586
 30
0.0
 10
180.5412056030073
 20
126.6501866983655
 30
0.0
 10
180.2191496431198
 20
126.662533371008
 30
0.0
 10
179.9010856635535
 20
126.6797792604585
 30
0.0
 10
179.5881317997174
 20
126.7016181105036
 30
0.0
 10
179.2903355328901
 20
126.7268944849554
 30
0.0
 10
178.9176689681112
 20
126.7636574171608
 30
0.0
 10
178.5782887766266
 20
126.8038226727074
 30
0.0
 10
178.3041496655783
 20
126.8404884986983
 30
0.0
 10
178.0939770768719
 20
126.8702563012945
 30
0.0
 10
177.9324007568548
 20
126.8946849125845
 30
0.0
 10
177.807431747436
 20
126.9143575370068
 30
0.0
 10
177.708848317656
 20
126.9302312022798
 30
0.0
 10
177.6494324992456
 20
126.9400833189402
 30
0.0
 10
177.6447528041671
 20
126.9408608267936
 30
0.0
 10
177.6432836755942
 20
126.9411049151336
 30
0.0
  0
SPLINE
  5
C5
330
1F
100
AcDbEntity
  8
0
  6
Continuous
 62
     7
370
    15
100
AcDbSpline
210
0.0
220
0.0
230
1.0
 70
     8
 71
     3
 72
     9
 73
     5
 74
     0
 42
0.00000001
 43
0.00000001
 40
0.0
 40
0.0
 40
0.0
 40
0.0
 40
0.3625033216875815
 40
1.0
 40
1.0
 40
1.0
 40
1.0
 10
178.5533750572729
 20
126.8083439899952
 30
0.0
 10
178.5827408729915
 20
126.8044871418399
 30
0.0
 10
178.6637492774991
 20
126.7938476582143
 30
0.0
 10
178.756564165985
 20
126.7831844473612
 30
0.0
 10
178.8157333490927
 20
126.7763866858622
 30
0.0
  0
SPLINE
  5
C6
330
1F
100
AcDbEntity
  8
0
  6
Continuous
 62
     7
370
    15
100
AcDbSpline
210
0.0
220
0.0
230
1.0
 70
     8
 71
     3
 72
    60
 73
    56
 74
     0
 42
0.00000001
 43
0.00000001
 40
-0.0312499999999997
 40
-0.0312499999999997
 40
0.0
 40
0.0
 40
0.0625000000000012
 40
0.0625000000000012
 40
0.0937500000000018
 40
0.0937500000000018
 40
0.1250000000000024
 40
0.1250000000000024
 40
0.1875000000000026
 40
0.1875000000000026
 40
0.2500000000000028
 40
0.2500000000000028
 40
0.2812500000000029
 40
0.2812500000000029
 40
0.3125000000000029
 40
0.3125000000000029
 40
0.343750000000003
 40
0.343750000000003
 40
0.3750000000000031
 40
0.3750000000000031
 40
0.4062500000000032
 40
0.4062500000000032
 40
0.4375000000000032
 40
0.4375000000000032
 40
0.4687500000000033
 40
0.4687500000000033
 40
0.5000000000000033
 40
0.5000000000000033
 40
0.5625000000000036
 40
0.5625000000000036
 40
0.5937500000000037
 40
0.5937500000000037
 40
0.6250000000000037
 40
0.6250000000000037
 40
0.6562500000000038
 40
0.6562500000000038
 40
0.6875000000000038
 40
0.6875000000000038
 40
0.750000000000003
 40
0.750000000000003
 40
0.7812500000000027
 40
0.7812500000000027
 40
0.8125000000000023
 40
0.8125000000000023
 40
0.8437500000000019
 40
0.8437500000000019
 40
0.8750000000000016
 40
0.8750000000000016
 40
0.9062500000000011
 40
0.9062500000000011
 40
0.9375000000000008
 40
0.9375000000000008
 40
0.9687500000000003
 40
0.9687500000000003
 40
1.0
 40
1.0
 40
1.062500000000001
 40
1.062500000000001
 10
178.6460236423435
 20
114.0299657615056
 30
0.0
 10
179.1551527663806
 20
114.4182425549992
 30
0.0
 10
179.5323709219102
 20
114.6090904974687
 30
0.0
 10
180.1424559916212
 20
114.8023757174801
 30
0.0
 10
180.348757291188
 20
114.8494881110368
 30
0.0
 10
180.7669532097868
 20
114.9109466613588
 30
0.0
 10
180.9800610335043
 20
114.9252532524149
 30
0.0
 10
181.6199768269764
 20
114.9171189199358
 30
0.0
 10
182.0371003273195
 20
114.8457789525561
 30
0.0
 10
182.8437275869119
 20
114.5670801031133
 30
0.0
 10
183.21329659143
 20
114.3676124584458
 30
0.0
 10
183.7108470395772
 20
113.9652614825063
 30
0.0
 10
183.8621063138366
 20
113.8172548443043
 30
0.0
 10
184.1319952249013
 20
113.4931378417013
 30
0.0
 10
184.2521893817336
 20
113.3140632620879
 30
0.0
 10
184.4461922469988
 20
112.9378569522585
 30
0.0
 10
184.5207464061937
 20
112.7411000537647
 30
0.0
 10
184.6208699855048
 20
112.3286141606032
 30
0.0
 10
184.6452127862049
 20
112.1131238206142
 30
0.0
 10
184.6384674055666
 20
111.6899939502697
 30
0.0
 10
184.6074495980114
 20
111.4759820280836
 30
0.0
 10
184.4942147664587
 20
111.0653319917884
 30
0.0
 10
184.4131668326876
 20
110.8693327315096
 30
0.0
 10
184.2053722970215
 20
110.4946903398
 30
0.0
 10
184.0819752643652
 20
110.3221160834801
 30
0.0
 10
183.8017564078254
 20
110.0037550002245
 30
0.0
 10
183.6438951979317
 20
109.8576333306186
 30
0.0
 10
183.140229367757
 20
109.4713497902695
 30
0.0
 10
182.7543844075317
 20
109.2749852665866
 30
0.0
 10
182.1495671053633
 20
109.0822995155682
 30
0.0
 10
181.9410810131853
 20
109.0340967619194
 30
0.0
 10
181.5187079919042
 20
108.9716493804639
 30
0.0
 10
181.3073321221271
 20
108.9575479070719
 30
0.0
 10
180.8842139676403
 20
108.9624194674482
 30
0.0
 10
180.671269605065
 20
108.9816083783531
 30
0.0
 10
180.2503677660461
 20
109.054089476957
 30
0.0
 10
180.0455060893551
 20
109.1066359547347
 30
0.0
 10
179.4474718609644
 20
109.3128493420745
 30
0.0
 10
179.0656733768088
 20
109.5192554586703
 30
0.0
 10
178.5758658205706
 20
109.9154008721429
 30
0.0
 10
178.4247164421204
 20
110.062384028128
 30
0.0
 10
178.1506109909292
 20
110.3914284519544
 30
0.0
 10
178.0327205909501
 20
110.5674996904068
 30
0.0
 10
177.8382692576378
 20
110.944305126262
 30
0.0
 10
177.7616046229111
 20
111.1475326282733
 30
0.0
 10
177.6626373800289
 20
111.5593851835433
 30
0.0
 10
177.6387113682879
 20
111.7706053510635
 30
0.0
 10
177.6463969404678
 20
112.2009923833594
 30
0.0
 10
177.6777062783887
 20
112.4110783028116
 30
0.0
 10
177.7917285742706
 20
112.8217093398833
 30
0.0
 10
177.8750474516734
 20
113.0213570846112
 30
0.0
 10
178.0818618641997
 20
113.3920500917619
 30
0.0
 10
178.2075983620035
 20
113.5673690885367
 30
0.0
 10
178.4894343818308
 20
113.8856762624586
 30
0.0
 10
178.6460236423435
 20
114.0299657615056
 30
0.0
 10
179.1551527663806
 20
114.4182425549992
 30
0.0
  0
SPLINE
  5
C7
330
1F
100
AcDbEntity
  8
0
  6
Continuous
 62
     7
370
    15
100
AcDbSpline
210
0.0
220
0.0
230
1.0
 70
     8
 71
     3
 72
     9
 73
     5
 74
     0
 42
0.00000001
 43
0.00000001
 40
0.0
 40
0.0
 40
0.0
 40
0.0
 40
0.8306961451681995
 40
1.0
 40
1.0
 40
1.0
 40
1.0
 10
178.8157333494003
 20
97.10619726187183
 30
0.0
 10
178.7438231925423
 20
97.09799021044121
 30
0.0
 10
178.6572570548801
 20
97.0881104830844
 30
0.0
 10
178.5844110390785
 20
97.07840182535166
 30
0.0
 10
178.5720779277941
 20
97.07675811217226
 30
0.0
  0
SPLINE
  5
C8
330
1F
100
AcDbEntity
  8
0
  6
Continuous
 62
     7
370
    15
100
AcDbSpline
210
0.0
220
0.0
230
1.0
 70
     8
 71
     3
 72
    39
 73
    35
 74
     0
 42
0.00000001
 43
0.00000001
 40
0.0
 40
0.0
 40
0.0
 40
0.0
 40
0.0060930915915719
 40
0.0287231216979017
 40
0.0488575597471509
 40
0.0897791026067274
 40
0.110598363104435
 40
0.1315246787516575
 40
0.1739506973677878
 40
0.1954697364836937
 40
0.2192513009537091
 40
0.2674372844787161
 40
0.2918637061366429
 40
0.3194211748210433
 40
0.3753053589442903
 40
0.4036706937147609
 40
0.4343190429066383
 40
0.4965752772228865
 40
0.5282468941304289
 40
0.560185608208602
 40
0.5923465560573529
 40
0.6252194849322199
 40
0.6583446550624839
 40
0.6898805263369197
 40
0.7216586971763924
 40
0.7542539956277876
 40
0.7871589908225322
 40
0.8110125140027795
 40
0.8594545121918992
 40
0.8841254510707397
 40
0.9079858265415908
 40
0.9567347565320089
 40
0.9817327968062046
 40
1.0
 40
1.0
 40
1.0
 40
1.0
 10
177.647007156234
 20
96.94209528232741
 30
0.0
 10
177.645358637347
 20
96.94182233316639
 30
0.0
 10
177.6375874414116
 20
96.94053563792276
 30
0.0
 10
177.6571435039984
 20
96.9437823051506
 30
0.0
 10
177.698958948675
 20
96.95068383716664
 30
0.0
 10
177.7777417772992
 20
96.96352859162467
 30
0.0
 10
177.8867836287934
 20
96.98072771926617
 30
0.0
 10
178.0180891564637
 20
97.00092621981811
 30
0.0
 10
178.1791588261282
 20
97.0246527074486
 30
0.0
 10
178.3704726735437
 20
97.0510450465303
 30
0.0
 10
178.5915429657404
 20
97.08001526504565
 30
0.0
 10
178.8450713574128
 20
97.11026763608966
 30
0.0
 10
179.1289394869162
 20
97.14001798885229
 30
0.0
 10
179.4487075645957
 20
97.17012360681018
 30
0.0
 10
179.8006176210665
 20
97.19693567295661
 30
0.0
 10
180.1755845729105
 20
97.21784706289533
 30
0.0
 10
180.5792417446808
 20
97.23452986954746
 30
0.0
 10
181.0033562365607
 20
97.24212752135264
 30
0.0
 10
181.4314995359576
 20
97.23937597482977
 30
0.0
 10
181.7554315377599
 20
97.23202070298923
 30
0.0
 10
182.0791364370312
 20
97.21941848305211
 30
0.0
 10
182.400072413621
 20
97.20177123476006
 30
0.0
 10
182.7096737942169
 20
97.1798780866963
 30
0.0
 10
183.0042489189149
 20
97.15472541297989
 30
0.0
 10
183.2835019188412
 20
97.12708741790586
 30
0.0
 10
183.549824859352
 20
97.09729774815685
 30
0.0
 10
183.7757969673421
 20
97.0693066299557
 30
0.0
 10
184.0193006205357
 20
97.03690563243157
 30
0.0
 10
184.2148801114423
 20
97.00866014306551
 30
0.0
 10
184.3737259417922
 20
96.98445043728307
 30
0.0
 10
184.5068545401319
 20
96.9635255553156
 30
0.0
 10
184.5965867099407
 20
96.94884580749105
 30
0.0
 10
184.6378901132543
 20
96.94200183563156
 30
0.0
 10
184.6401781304941
 20
96.94162093672148
 30
0.0
 10
184.6411441640231
 20
96.94146011576616
 30
0.0
  0
CIRCLE
  5
C9
330
1F
100
AcDbEntity
  8
0
  6
Continuous
 62
     7
370
    15
100
AcDbCircle
 10
181.1421567877
 20
111.9412919738
 30
0.0
 40
2.5
  0
LINE
  5
CA
330
1F
100
AcDbEntity
  8
0
  6
Continuous
 62
     7
370
    15
100
AcDbLine
 10
219.1921567877
 20
104.7154324955
 30
0.0
 11
219.1921567877
 21
119.1671514522
 31
0.0
  0
CIRCLE
  5
CB
330
1F
100
AcDbEntity
  8
0
  6
HIDDEN
 62
     7
370
     0
100
AcDbCircle
 10
201.6921567877
 20
111.9412919738
 30
0.0
 40
2.999999999999988
  0
CIRCLE
  5
CC
330
1F
100
AcDbEntity
  8
0
  6
HIDDEN
 62
     7
370
     0
100
AcDbCircle
 10
201.6921567877
 20
111.9412919738
 30
0.0
 40
1.249999999999988
  0
CIRCLE
  5
CD
330
1F
100
AcDbEntity
  8
0
  6
HIDDEN
 62
     7
370
     0
100
AcDbCircle
 10
201.6921567877
 20
111.9412919738
 30
0.0
 40
2.099999999999996
  0
LWPOLYLINE
  5
CE
330
1F
100
AcDbEntity
  8
0
  6
HIDDEN
 62
     7
370
     0
100
AcDbPolyline
 90
       18
 70
   128
 43
0.0
 10
213.7258419502
 20
106.6629010055
 10
213.7045685283
 20
107.1173842717
 10
213.6861681999
 20
107.6537350878
 10
213.6731260314
 20
108.1995163043
 10
213.6672034398
 20
108.6810171435
 10
213.6692003039
 20
109.0332082491
 10
213.6788469362
 20
109.2085242606
 10
213.6948405056
 20
109.1832877792
 10
213.7150209919
 20
108.9609071316
 10
213.7366629085
 20
108.5714160565
 10
213.7568433948
 20
108.0674174819
 10
213.7728369642
 20
107.516979208
 10
213.7824835965
 20
106.9944409737
 10
213.7844804607
 20
106.5703744631
 10
213.7785578691
 20
106.3020522083
 10
213.7655157005
 20
106.2257126166
 10
213.7471153721
 20
106.3516657729
 10
213.7258419502
 20
106.6629010055
  0
LWPOLYLINE
  5
CF
330
1F
100
AcDbEntity
  8
0
  6
HIDDEN
 62
     7
370
     0
100
AcDbPolyline
 90
       17
 70
   128
 43
0.0
 10
213.2262274321
 20
107.0025739552
 10
213.211203351
 20
107.3267886827
 10
213.1984665501
 20
107.7092952545
 10
213.1899560919
 20
108.0918605124
 10
213.1869676163
 20
108.4162423638
 10
213.1899560919
 20
108.6330566125
 10
213.1984665501
 20
108.7092952545
 10
213.211203351
 20
108.6333516476
 10
213.2262274321
 20
108.4167875175
 10
213.2412515131
 20
108.09257279
 10
213.253988314
 20
107.7100662182
 10
213.2624987723
 20
107.3275009603
 10
213.2654872479
 20
107.0031191089
 10
213.2624987723
 20
106.7863048602
 10
213.253988314
 20
106.7100662182
 10
213.2412515131
 20
106.7860098251
 10
213.2262274321
 20
107.0025739552
  0
LWPOLYLINE
  5
D0
330
1F
100
AcDbEntity
  8
0
  6
HIDDEN
 62
     7
370
     0
100
AcDbPolyline
 90
       18
 70
   128
 43
0.0
 10
219.0597797541
 20
106.8110900716
 10
219.0385063322
 20
107.2655733378
 10
219.0201060038
 20
107.8019241539
 10
219.0070638353
 20
108.3477053704
 10
219.0011412436
 20
108.8292062096
 10
219.0031381078
 20
109.1813973152
 10
219.0127847401
 20
109.3567133267
 10
219.0287783095
 20
109.3314768453
 10
219.0489587958
 20
109.1090961977
 10
219.0706007124
 20
108.7196051227
 10
219.0907811987
 20
108.215606548
 10
219.1067747681
 20
107.6651682741
 10
219.1164214004
 20
107.1426300398
 10
219.1184182646
 20
106.7185635292
 10
219.1124956729
 20
106.4502412744
 10
219.0994535044
 20
106.3739016827
 10
219.081053176
 20
106.499854839
 10
219.0597797541
 20
106.8110900716
  0
LWPOLYLINE
  5
D1
330
1F
100
AcDbEntity
  8
0
  6
HIDDEN
 62
     7
370
     0
100
AcDbPolyline
 90
        8
 70
   128
 43
0.0
 10
219.2216016495
 20
107.0139293084
 10
219.2032797827
 20
107.4093091686
 10
219.187747254
 20
107.8757759329
 10
219.1773687501
 20
108.3423142649
 10
219.1737243042
 20
108.7378979328
 10
219.1773687501
 20
109.002302909
 10
219.187747254
 20
109.0952759329
 10
219.1921567877
 20
109.0861232215
  0
LWPOLYLINE
  5
D2
330
1F
100
AcDbEntity
  8
0
  6
HIDDEN
 62
     7
370
     0
100
AcDbPolyline
 90
        4
 70
   128
 43
0.0
 10
219.2570577233
 20
106.6586727216
 10
219.2554560451
 20
106.6572161232
 10
219.2399235164
 20
106.7498293518
 10
219.2216016495
 20
107.0139293084
  0
LINE
  5
D3
330
1F
100
AcDbEntity
  8
0
  6
HIDDEN
 62
     7
370
     0
100
AcDbLine
 10
217.2525884389
 20
107.5969892614
 30
0.0
 11
217.2231435771
 21
108.4330966998
 31
0.0
  0
LINE
  5
D4
330
1F
100
AcDbEntity
  8
0
  6
HIDDEN
 62
     7
370
     0
100
AcDbLine
 10
219.2510465114
 20
107.6525110253
 30
0.0
 11
219.2216016495
 21
108.4886184637
 31
0.0
  0
LINE
  5
D5
330
1F
100
AcDbEntity
  8
0
  6
HIDDEN
 62
     7
370
     0
100
AcDbLine
 10
217.2525884389
 20
107.5969892614
 30
0.0
 11
219.2510465114
 21
107.6525110253
 31
0.0
  0
LINE
  5
D6
330
1F
100
AcDbEntity
  8
0
  6
HIDDEN
 62
     7
370
     0
100
AcDbLine
 10
217.2525884389
 20
106.9846168257
 30
0.0
 11
217.2525884389
 21
107.5969892614
 31
0.0
  0
LINE
  5
D7
330
1F
100
AcDbEntity
  8
0
  6
HIDDEN
 62
     7
370
     0
100
AcDbLine
 10
219.2510465114
 20
107.0401385896
 30
0.0
 11
219.2510465114
 21
107.6525110253
 31
0.0
  0
LINE
  5
D8
330
1F
100
AcDbEntity
  8
0
  6
HIDDEN
 62
     7
370
     0
100
AcDbLine
 10
217.2231435771
 20
108.4330966998
 30
0.0
 11
219.2216016495
 21
108.4886184637
 31
0.0
  0
LINE
  5
D9
330
1F
100
AcDbEntity
  8
0
  6
HIDDEN
 62
     7
370
     0
100
AcDbLine
 10
217.1936987152
 20
108.6568317026
 30
0.0
 11
217.2231435771
 21
108.4330966998
 31
0.0
  0
LINE
  5
DA
330
1F
100
AcDbEntity
  8
0
  6
HIDDEN
 62
     7
370
     0
100
AcDbLine
 10
219.1921567877
 20
108.7123534665
 30
0.0
 11
219.2216016495
 21
108.4886184637
 31
0.0
  0
LINE
  5
DB
330
1F
100
AcDbEntity
  8
0
  6
HIDDEN
 62
     7
370
     0
100
AcDbLine
 10
217.2231435771
 20
107.2083518284
 30
0.0
 11
219.2216016495
 21
107.2638735923
 31
0.0
  0
LINE
  5
DC
330
1F
100
AcDbEntity
  8
0
  6
HIDDEN
 62
     7
370
     0
100
AcDbLine
 10
217.2525884389
 20
106.9846168257
 30
0.0
 11
219.2510465114
 21
107.0401385896
 31
0.0
  0
LINE
  5
DD
330
1F
100
AcDbEntity
  8
0
  6
HIDDEN
 62
     7
370
     0
100
AcDbLine
 10
217.2525884389
 20
106.9846168257
 30
0.0
 11
217.2231435771
 21
107.2083518284
 31
0.0
  0
LINE
  5
DE
330
1F
100
AcDbEntity
  8
0
  6
HIDDEN
 62
     7
370
     0
100
AcDbLine
 10
219.2510465114
 20
107.0401385896
 30
0.0
 11
219.2216016495
 21
107.2638735923
 31
0.0
  0
LINE
  5
DF
330
1F
100
AcDbEntity
  8
0
  6
HIDDEN
 62
     7
370
     0
100
AcDbLine
 10
217.1936987152
 20
108.0444592669
 30
0.0
 11
219.1921567877
 21
108.0999810308
 31
0.0
  0
LINE
  5
E0
330
1F
100
AcDbEntity
  8
0
  6
HIDDEN
 62
     7
370
     0
100
AcDbLine
 10
217.1936987152
 20
108.6568317026
 30
0.0
 11
219.1921567877
 21
108.7123534665
 31
0.0
  0
LINE
  5
E1
330
1F
100
AcDbEntity
  8
0
  6
HIDDEN
 62
     7
370
     0
100
AcDbLine
 10
217.1936987152
 20
108.0444592669
 30
0.0
 11
217.1936987152
 21
108.6568317026
 31
0.0
  0
LINE
  5
E2
330
1F
100
AcDbEntity
  8
0
  6
HIDDEN
 62
     7
370
     0
100
AcDbLine
 10
217.1936987152
 20
108.0444592669
 30
0.0
 11
217.2231435771
 21
107.2083518284
 31
0.0
  0
LINE
  5
E3
330
1F
100
AcDbEntity
  8
0
  6
HIDDEN
 62
     7
370
     0
100
AcDbLine
 10
219.1921567877
 20
108.0999810308
 30
0.0
 11
219.2216016495
 21
107.2638735923
 31
0.0
  0
LWPOLYLINE
  5
E4
330
1F
100
AcDbEntity
  8
0
  6
HIDDEN
 62
     7
370
     0
100
AcDbPolyline
 90
        3
 70
   128
 43
0.0
 10
219.1627119259
 20
115.145657292
 10
219.1810337927
 20
115.5410371523
 10
219.1921567877
 20
115.8579392595
  0
LWPOLYLINE
  5
E5
330
1F
100
AcDbEntity
  8
0
  6
HIDDEN
 62
     7
370
     0
100
AcDbPolyline
 90
       12
 70
   128
 43
0.0
 10
219.1921567877
 20
117.2178512051
 10
219.1810337927
 20
117.1343906879
 10
219.1627119259
 20
116.8702907313
 10
219.1443900591
 20
116.4749108711
 10
219.1288575304
 20
116.0084441068
 10
219.1184790265
 20
115.5419057748
 10
219.1148345806
 20
115.146322107
 10
219.1184790265
 20
114.8819171307
 10
219.1288575304
 20
114.7889441068
 10
219.1443900591
 20
114.8815573355
 10
219.1627119259
 20
115.145657292
 10
219.1627119259
 20
115.145657292
  0
LWPOLYLINE
  5
E6
330
1F
100
AcDbEntity
  8
0
  6
HIDDEN
 62
     7
370
     0
100
AcDbPolyline
 90
       18
 70
   128
 43
0.0
 10
219.0008900305
 20
114.9518096245
 10
219.0221634524
 20
115.4062928907
 10
219.0405637807
 20
115.9426437068
 10
219.0536059493
 20
116.4884249233
 10
219.0595285409
 20
116.9699257625
 10
219.0575316768
 20
117.3221168681
 10
219.0478850444
 20
117.4974328796
 10
219.0318914751
 20
117.4721963982
 10
219.0117109888
 20
117.2498157506
 10
218.9900690721
 20
116.8603246755
 10
218.9698885859
 20
116.3563261009
 10
218.9538950165
 20
115.805887827
 10
218.9442483842
 20
115.2833495927
 10
218.94225152
 20
114.8592830821
 10
218.9481741116
 20
114.5909608273
 10
218.9612162802
 20
114.5146212356
 10
218.9796166086
 20
114.6405743919
 10
219.0008900305
 20
114.9518096245
  0
LWPOLYLINE
  5
E7
330
1F
100
AcDbEntity
  8
0
  6
HIDDEN
 62
     7
370
     0
100
AcDbPolyline
 90
       18
 70
   128
 43
0.0
 10
213.6669522266
 20
115.0999986906
 10
213.6882256485
 20
115.5544819568
 10
213.7066259768
 20
116.0908327729
 10
213.7196681454
 20
116.6366139894
 10
213.725590737
 20
117.1181148286
 10
213.7235938729
 20
117.4703059342
 10
213.7139472405
 20
117.6456219457
 10
213.6979536712
 20
117.6203854643
 10
213.6777731849
 20
117.3980048167
 10
213.6561312683
 20
117.0085137417
 10
213.635950782
 20
116.504515167
 10
213.6199572126
 20
115.9540768931
 10
213.6103105803
 20
115.4315386588
 10
213.6083137161
 20
115.0074721482
 10
213.6142363077
 20
114.7391498934
 10
213.6272784763
 20
114.6628103017
 10
213.6456788047
 20
114.788763458
 10
213.6669522266
 20
115.0999986906
  0
LWPOLYLINE
  5
E8
330
1F
100
AcDbEntity
  8
0
  6
HIDDEN
 62
     7
370
     0
100
AcDbPolyline
 90
       17
 70
   128
 43
0.0
 10
213.1673377085
 20
115.4674325222
 10
213.1823617895
 20
115.7916472497
 10
213.1950985904
 20
116.1741538215
 10
213.2036090487
 20
116.5567190794
 10
213.2065975242
 20
116.8811009309
 10
213.2036090487
 20
117.0979151796
 10
213.1950985904
 20
117.1741538215
 10
213.1823617895
 20
117.0982102146
 10
213.1673377085
 20
116.8816460846
 10
213.1523136274
 20
116.5574313571
 10
213.1395768265
 20
116.1749247853
 10
213.1310663682
 20
115.7923595274
 10
213.1280778927
 20
115.4679776759
 10
213.1310663682
 20
115.2511634272
 10
213.1395768265
 20
115.1749247853
 10
213.1523136274
 20
115.2508683922
 10
213.1673377085
 20
115.4674325222
  0
LINE
  5
E9
330
1F
100
AcDbEntity
  8
0
  6
HIDDEN
 62
     7
370
     0
100
AcDbLine
 10
219.1921567877
 20
116.8440814502
 30
0.0
 11
219.1627119259
 21
116.6203464474
 31
0.0
  0
LINE
  5
EA
330
1F
100
AcDbEntity
  8
0
  6
HIDDEN
 62
     7
370
     0
100
AcDbLine
 10
219.1332670641
 20
115.7842390089
 30
0.0
 11
219.1627119259
 21
116.6203464474
 31
0.0
  0
LINE
  5
EB
330
1F
100
AcDbEntity
  8
0
  6
HIDDEN
 62
     7
370
     0
100
AcDbLine
 10
219.1332670641
 20
115.1718665732
 30
0.0
 11
219.1332670641
 21
115.7842390089
 31
0.0
  0
LINE
  5
EC
330
1F
100
AcDbEntity
  8
0
  6
HIDDEN
 62
     7
370
     0
100
AcDbLine
 10
219.1332670641
 20
115.1718665732
 30
0.0
 11
219.1627119259
 21
115.395601576
 31
0.0
  0
LINE
  5
ED
330
1F
100
AcDbEntity
  8
0
  6
HIDDEN
 62
     7
370
     0
100
AcDbLine
 10
219.1921567877
 20
116.2317090145
 30
0.0
 11
219.1627119259
 21
115.395601576
 31
0.0
  0
LINE
  5
EE
330
1F
100
AcDbEntity
  8
0
  6
HIDDEN
 62
     7
370
     0
100
AcDbLine
 10
217.1348089916
 20
115.2273883371
 30
0.0
 11
217.1642538534
 21
115.4511233399
 31
0.0
  0
LINE
  5
EF
330
1F
100
AcDbEntity
  8
0
  6
HIDDEN
 62
     7
370
     0
100
AcDbLine
 10
217.1348089916
 20
115.2273883371
 30
0.0
 11
217.1348089916
 21
115.8397607728
 31
0.0
  0
LINE
  5
F0
330
1F
100
AcDbEntity
  8
0
  6
HIDDEN
 62
     7
370
     0
100
AcDbLine
 10
217.1936987152
 20
116.8996032141
 30
0.0
 11
217.1642538534
 21
116.6758682113
 31
0.0
  0
LINE
  5
F1
330
1F
100
AcDbEntity
  8
0
  6
HIDDEN
 62
     7
370
     0
100
AcDbLine
 10
217.1936987152
 20
116.2872307784
 30
0.0
 11
217.1936987152
 21
116.8996032141
 31
0.0
  0
LINE
  5
F2
330
1F
100
AcDbEntity
  8
0
  6
HIDDEN
 62
     7
370
     0
100
AcDbLine
 10
217.1936987152
 20
116.2872307784
 30
0.0
 11
217.1642538534
 21
115.4511233399
 31
0.0
  0
LINE
  5
F3
330
1F
100
AcDbEntity
  8
0
  6
HIDDEN
 62
     7
370
     0
100
AcDbLine
 10
217.1348089916
 20
115.8397607728
 30
0.0
 11
217.1642538534
 21
116.6758682113
 31
0.0
  0
LINE
  5
F4
330
1F
100
AcDbEntity
  8
0
  6
HIDDEN
 62
     7
370
     0
100
AcDbLine
 10
217.1348089916
 20
115.8397607728
 30
0.0
 11
219.1332670641
 21
115.7842390089
 31
0.0
  0
LINE
  5
F5
330
1F
100
AcDbEntity
  8
0
  6
HIDDEN
 62
     7
370
     0
100
AcDbLine
 10
217.1642538534
 20
116.6758682113
 30
0.0
 11
219.1627119259
 21
116.6203464474
 31
0.0
  0
LINE
  5
F6
330
1F
100
AcDbEntity
  8
0
  6
HIDDEN
 62
     7
370
     0
100
AcDbLine
 10
217.1642538534
 20
115.4511233399
 30
0.0
 11
219.1627119259
 21
115.395601576
 31
0.0
  0
LINE
  5
F7
330
1F
100
AcDbEntity
  8
0
  6
HIDDEN
 62
     7
370
     0
100
AcDbLine
 10
217.1348089916
 20
115.2273883371
 30
0.0
 11
219.1332670641
 21
115.1718665732
 31
0.0
  0
LINE
  5
F8
330
1F
100
AcDbEntity
  8
0
  6
HIDDEN
 62
     7
370
     0
100
AcDbLine
 10
217.1936987152
 20
116.2872307784
 30
0.0
 11
219.1921567877
 21
116.2317090145
 31
0.0
  0
LINE
  5
F9
330
1F
100
AcDbEntity
  8
0
  6
HIDDEN
 62
     7
370
     0
100
AcDbLine
 10
217.1936987152
 20
116.8996032141
 30
0.0
 11
219.1921567877
 21
116.8440814502
 31
0.0
  0
LINE
  5
FA
330
1F
100
AcDbEntity
  8
0
  6
HIDDEN
 62
     7
370
     0
100
AcDbLine
 10
155.9301277668
 20
150.8922547347
 30
0.0
 11
155.9301277668
 21
143.2912919738
 31
0.0
  0
SPLINE
  5
FB
330
1F
100
AcDbEntity
  8
0
  6
HIDDEN
 62
     7
370
     0
100
AcDbSpline
210
0.0
220
0.0
230
1.0
 70
     8
 71
     3
 72
    80
 73
    76
 74
     0
 42
0.00000001
 43
0.00000001
 40
-0.0312500000000003
 40
-0.0312500000000003
 40
0.0
 40
0.0
 40
0.03125
 40
0.03125
 40
0.046875
 40
0.046875
 40
0.0624999999999999
 40
0.0624999999999999
 40
0.0937499999999998
 40
0.0937499999999998
 40
0.1249999999999996
 40
0.1249999999999996
 40
0.1562499999999995
 40
0.1562499999999995
 40
0.1874999999999994
 40
0.1874999999999994
 40
0.2187499999999993
 40
0.2187499999999993
 40
0.2499999999999992
 40
0.2499999999999992
 40
0.2812499999999991
 40
0.2812499999999991
 40
0.3124999999999989
 40
0.3124999999999989
 40
0.3281249999999988
 40
0.3281249999999988
 40
0.3437499999999986
 40
0.3437499999999986
 40
0.3749999999999983
 40
0.3749999999999983
 40
0.4062499999999981
 40
0.4062499999999981
 40
0.4218749999999979
 40
0.4218749999999979
 40
0.4374999999999978
 40
0.4374999999999978
 40
0.4687499999999977
 40
0.4687499999999977
 40
0.4999999999999975
 40
0.4999999999999975
 40
0.5312499999999972
 40
0.5312499999999972
 40
0.562499999999997
 40
0.562499999999997
 40
0.5937499999999968
 40
0.5937499999999968
 40
0.6249999999999966
 40
0.6249999999999966
 40
0.6562499999999964
 40
0.6562499999999964
 40
0.6874999999999962
 40
0.6874999999999962
 40
0.7031249999999962
 40
0.7031249999999962
 40
0.7187499999999963
 40
0.7187499999999963
 40
0.7499999999999968
 40
0.7499999999999968
 40
0.7812499999999972
 40
0.7812499999999972
 40
0.7968749999999976
 40
0.7968749999999976
 40
0.8124999999999978
 40
0.8124999999999978
 40
0.8437499999999981
 40
0.8437499999999981
 40
0.8749999999999984
 40
0.8749999999999984
 40
0.9062499999999989
 40
0.9062499999999989
 40
0.9374999999999992
 40
0.9374999999999992
 40
0.9687499999999997
 40
0.9687499999999997
 40
1.0
 40
1.0
 40
1.03125
 40
1.03125
 10
148.5227021004949
 20
160.8008412303276
 30
0.0
 10
147.8616114749423
 20
160.8008412303276
 30
0.0
 10
147.5366313456906
 20
160.7939430845007
 30
0.0
 10
147.0571579344442
 20
160.7734166565202
 30
0.0
 10
146.8986761166034
 20
160.7648604294327
 30
0.0
 10
146.5844565840991
 20
160.744134054215
 30
0.0
 10
146.4283363004187
 20
160.7319067540087
 30
0.0
 10
145.9742822714621
 20
160.6903374601794
 30
0.0
 10
145.6871788885223
 20
160.6559931750817
 30
0.0
 10
145.1438243324953
 20
160.5726690507594
 30
0.0
 10
144.8867207212897
 20
160.5232308279849
 30
0.0
 10
144.4258144663509
 20
160.411851098225
 30
0.0
 10
144.218916757136
 20
160.3495565847128
 30
0.0
 10
143.8533914431438
 20
160.2096269418418
 30
0.0
 10
143.6981859210178
 20
160.1330110440928
 30
0.0
 10
143.4487555344181
 20
159.969052424237
 30
0.0
 10
143.3526655786329
 20
159.8804955701413
 30
0.0
 10
143.2241467294394
 20
159.6930148880355
 30
0.0
 10
143.1923358592616
 20
159.5957784265811
 30
0.0
 10
143.1919792094883
 20
159.394145787254
 30
0.0
 10
143.2244764616854
 20
159.2885969954159
 30
0.0
 10
143.3521019353999
 20
159.0784822127274
 30
0.0
 10
143.4465303364518
 20
158.9734167047584
 30
0.0
 10
143.6343911564373
 20
158.8165389975074
 30
0.0
 10
143.7052191552405
 20
158.7641052638016
 30
0.0
 10
143.8599410472058
 20
158.6616668181719
 30
0.0
 10
143.9439175173892
 20
158.6115190895201
 30
0.0
 10
144.2152411870336
 20
158.4645031330865
 30
0.0
 10
144.4217904056359
 20
158.3710153126521
 30
0.0
 10
144.888400545825
 20
158.1952284550378
 30
0.0
 10
145.1407661154504
 20
158.1158499799541
 30
0.0
 10
145.5466674571291
 20
158.01036754246
 30
0.0
 10
145.6865680746066
 20
157.9774819776198
 30
0.0
 10
145.9757920098535
 20
157.9165664983912
 30
0.0
 10
146.1256314661428
 20
157.8884859267488
 30
0.0
 10
146.5797480357536
 20
157.813683884706
 30
0.0
 10
146.8913992544905
 20
157.7756458264599
 30
0.0
 10
147.5323957194028
 20
157.7240338999358
 30
0.0
 10
147.863923347355
 20
157.7107199664142
 30
0.0
 10
148.5167143924265
 20
157.7106228800862
 30
0.0
 10
148.8412505974583
 20
157.7234109652472
 30
0.0
 10
149.4865200468747
 20
157.7749011548432
 30
0.0
 10
149.8022630530374
 20
157.8134257341632
 30
0.0
 10
150.4041523480211
 20
157.9123282970213
 30
0.0
 10
150.6949015788326
 20
157.9734323949463
 30
0.0
 10
151.2418133705171
 20
158.115241828057
 30
0.0
 10
151.493590734354
 20
158.1945763126362
 30
0.0
 10
151.9549787269751
 20
158.3679550572977
 30
0.0
 10
152.1662480065733
 20
158.4631150020517
 30
0.0
 10
152.5295523589494
 20
158.6596875254276
 30
0.0
 10
152.6833590073922
 20
158.761443753834
 30
0.0
 10
152.8719784769896
 20
158.9182297166195
 30
0.0
 10
152.9280089631987
 20
158.9714837503695
 30
0.0
 10
153.0235827249349
 20
159.0772883119222
 30
0.0
 10
153.0633456419599
 20
159.1299413762777
 30
0.0
 10
153.159117392272
 20
159.287015095737
 30
0.0
 10
153.1918402313981
 20
159.3905401310641
 30
0.0
 10
153.1924688177272
 20
159.5947548652912
 30
0.0
 10
153.1602826729925
 20
159.6922587028759
 30
0.0
 10
153.0653719711369
 20
159.8315857532276
 30
0.0
 10
153.0259051877379
 20
159.8769024847321
 30
0.0
 10
152.930975189017
 20
159.9653423057208
 30
0.0
 10
152.8752183612536
 20
160.0085965561808
 30
0.0
 10
152.6872782432838
 20
160.1324880307708
 30
0.0
 10
152.5339167735676
 20
160.2081903215449
 30
0.0
 10
152.1716525386872
 20
160.3474446930031
 30
0.0
 10
151.9608040652213
 20
160.4112065345318
 30
0.0
 10
151.5001340949024
 20
160.5227033739997
 30
0.0
 10
151.2487597153186
 20
160.5712294463162
 30
0.0
 10
150.7028518284205
 20
160.6552834296968
 30
0.0
 10
150.4120292537692
 20
160.6900819833634
 30
0.0
 10
149.8107026389892
 20
160.7452784481272
 30
0.0
 10
149.4961840543768
 20
160.7660962968812
 30
0.0
 10
148.8496025982569
 20
160.7939436297919
 30
0.0
 10
148.5227021004949
 20
160.8008412303276
 30
0.0
 10
147.8616114749423
 20
160.8008412303276
 30
0.0
  0
LINE
  5
FC
330
1F
100
AcDbEntity
  8
0
  6
HIDDEN
 62
     7
370
     0
100
AcDbLine
 10
119.6055815371
 20
75.2054856116
 30
0.0
 11
119.3356258363
 21
75.1815595123
 31
0.0
  0
SPLINE
  5
FD
330
1F
100
AcDbEntity
  8
0
  6
HIDDEN
 62
     7
370
     0
100
AcDbSpline
210
0.0
220
0.0
230
1.0
 70
     8
 71
     3
 72
    13
 73
     9
 74
     0
 42
0.00000001
 43
0.00000001
 40
0.0
 40
0.0
 40
0.0
 40
0.0
 40
0.1247122447407212
 40
0.2490589432165421
 40
0.3740779474703908
 40
0.5009711379560823
 40
0.7521757810472769
 40
1.0
 40
1.0
 40
1.0
 40
1.0
 10
117.7114618055033
 20
148.8725980681001
 30
0.0
 10
117.7172483990663
 20
148.8718218214186
 30
0.0
 10
117.7288046250058
 20
148.8702716033258
 30
0.0
 10
117.8258149945961
 20
148.8580553247084
 30
0.0
 10
117.9811095604456
 20
148.839128505399
 30
0.0
 10
118.2712965916422
 20
148.8051553480688
 30
0.0
 10
118.7588245198665
 20
148.7486289478344
 30
0.0
 10
119.3245457897018
 20
148.7008232160123
 30
0.0
 10
119.6054903251895
 20
148.6770822682407
 30
0.0
  0
SPLINE
  5
FE
330
1F
100
AcDbEntity
  8
0
  6
HIDDEN
 62
     7
370
     0
100
AcDbSpline
210
0.0
220
0.0
230
1.0
 70
     8
 71
     3
 72
    11
 73
     7
 74
     0
 42
0.00000001
 43
0.00000001
 40
0.0
 40
0.0
 40
0.0
 40
0.0
 40
0.3257777694861012
 40
0.6610406515235283
 40
0.9868687380021519
 40
1.0
 40
1.0
 40
1.0
 40
1.0
 10
129.4453624429096
 20
143.3076141945967
 30
0.0
 10
129.5912453644858
 20
143.3308799232277
 30
0.0
 10
129.8872586304525
 20
143.3780887688057
 30
0.0
 10
130.1163868501659
 20
143.4081796672689
 30
0.0
 10
130.2176756462273
 20
143.4213581907142
 30
0.0
 10
130.1900023470175
 20
143.4177512979626
 30
0.0
 10
130.1889302852971
 20
143.4176115671839
 30
0.0
  0
SPLINE
  5
FF
330
1F
100
AcDbEntity
  8
0
  6
HIDDEN
 62
     7
370
     0
100
AcDbSpline
210
0.0
220
0.0
230
1.0
 70
     8
 71
     3
 72
    10
 73
     6
 74
     0
 42
0.00000001
 43
0.00000001
 40
0.0
 40
0.0
 40
0.0
 40
0.0
 40
0.3219750695178324
 40
0.6558907976794996
 40
1.0
 40
1.0
 40
1.0
 40
1.0
 10
130.188840471798
 20
80.46498408716994
 30
0.0
 10
130.1743006182278
 20
80.46687920265141
 30
0.0
 10
130.1446816909905
 20
80.47073971522678
 30
0.0
 10
129.8952458218694
 20
80.50325327194268
 30
0.0
 10
129.596819091996
 20
80.55082585619783
 30
0.0
 10
129.4453624429096
 20
80.57496975310252
 30
0.0
  0
SPLINE
  5
100
330
1F
100
AcDbEntity
  8
0
  6
HIDDEN
 62
     7
370
     0
100
AcDbSpline
210
0.0
220
0.0
230
1.0
 70
     8
 71
     3
 72
    23
 73
    19
 74
     0
 42
0.00000001
 43
0.00000001
 40
0.0
 40
0.0
 40
0.0
 40
0.0
 40
0.0633571260677583
 40
0.1285545266630668
 40
0.1919098540958634
 40
0.2571115402721682
 40
0.3202403144568474
 40
0.3852600750475551
 40
0.4473665375787847
 40
0.5112910021130348
 40
0.5731724132338449
 40
0.6367989951504451
 40
0.6995859083620213
 40
0.7641543874110672
 40
0.827580116550687
 40
0.8928778468939028
 40
0.9556888039615774
 40
1.0
 40
1.0
 40
1.0
 40
1.0
 10
129.4453624429096
 20
80.57496975310252
 30
0.0
 10
129.2699570333146
 20
80.60365542052803
 30
0.0
 10
128.9140513790632
 20
80.66185996083432
 30
0.0
 10
128.2093711386654
 20
80.76117297826676
 30
0.0
 10
127.3936043479918
 20
80.85666086188526
 30
0.0
 10
126.4912391408264
 20
80.93741964063635
 30
0.0
 10
125.514738323536
 20
80.99505006481593
 30
0.0
 10
124.5144590194637
 20
81.02184222066273
 30
0.0
 10
123.5013133324976
 20
81.01564659409827
 30
0.0
 10
122.5240558465866
 20
80.97799986929999
 30
0.0
 10
121.5868961609955
 20
80.91276342151927
 30
0.0
 10
120.7275742978842
 20
80.82807383661248
 30
0.0
 10
119.9532986829594
 20
80.73152551351554
 30
0.0
 10
119.298570713549
 20
80.63500345973517
 30
0.0
 10
118.7725863725607
 20
80.5476849005394
 30
0.0
 10
118.4114089857545
 20
80.48273240507741
 30
0.0
 10
118.2125475657948
 20
80.44519201251518
 30
0.0
 10
118.2115051135741
 20
80.44497573635314
 30
0.0
 10
118.2110739020704
 20
80.4448862734817
 30
0.0
  0
SPLINE
  5
101
330
1F
100
AcDbEntity
  8
0
  6
HIDDEN
 62
     7
370
     0
100
AcDbSpline
210
0.0
220
0.0
230
1.0
 70
     8
 71
     3
 72
    24
 73
    20
 74
     0
 42
0.00000001
 43
0.00000001
 40
0.0
 40
0.0
 40
0.0
 40
0.0
 40
0.0203729619474678
 40
0.0822870750602629
 40
0.1459896397253447
 40
0.2080895879354084
 40
0.2719360348739573
 40
0.3350079792507124
 40
0.3998886074506655
 40
0.4632504589199175
 40
0.5284999352472107
 40
0.5909722114153436
 40
0.6552989095534106
 40
0.7170937383192271
 40
0.7806505850197497
 40
0.8430286835696731
 40
0.9071616706581624
 40
0.9532355028060499
 40
1.0
 40
1.0
 40
1.0
 40
1.0
 10
118.2110739020704
 20
143.4376976742175
 30
0.0
 10
118.2056954581746
 20
143.4387192489885
 30
0.0
 10
118.1839717432967
 20
143.4428454236741
 30
0.0
 10
118.3162452130052
 20
143.4176548119369
 30
0.0
 10
118.6021681954863
 20
143.3650873449683
 30
0.0
 10
119.0569380384643
 20
143.2866654063593
 30
0.0
 10
119.6475430916138
 20
143.1944810495477
 30
0.0
 10
120.374672181915
 20
143.0960962827912
 30
0.0
 10
121.2081765266584
 20
143.0040580797545
 30
0.0
 10
122.1376266908485
 20
142.9278160672326
 30
0.0
 10
123.1160069952066
 20
142.8779028849395
 30
0.0
 10
124.1304189245885
 20
142.8591388868453
 30
0.0
 10
125.1288644857203
 20
142.8734687441889
 30
0.0
 10
126.1054747123815
 20
142.9189234718264
 30
0.0
 10
127.0186717289883
 20
142.989348139973
 30
0.0
 10
127.8640784601142
 20
143.0784825367516
 30
0.0
 10
128.5370759055605
 20
143.1665401360323
 30
0.0
 10
129.0671703992237
 20
143.2454039787116
 30
0.0
 10
129.3186747446402
 20
143.2867748639156
 30
0.0
 10
129.4453624429096
 20
143.3076141945967
 30
0.0
  0
LINE
  5
102
330
1F
100
AcDbEntity
  8
0
  6
HIDDEN
 62
     7
370
     0
100
AcDbLine
 10
109.1887811147
 20
85.4412919738
 30
0.0
 11
109.1887811147
 21
138.4412919738
 31
0.0
  0
LINE
  5
103
330
1F
100
AcDbEntity
  8
0
  6
HIDDEN
 62
     7
370
     0
100
AcDbLine
 10
148.4762344061
 20
85.4412919738
 30
0.0
 11
148.4762344061
 21
138.4412919738
 31
0.0
  0
LINE
  5
104
330
1F
100
AcDbEntity
  8
0
  6
HIDDEN
 62
     7
370
     0
100
AcDbLine
 10
151.6421567877
 20
87.0662919738
 30
0.0
 11
151.6421567877
 21
136.8162919548
 31
0.0
  0
SPLINE
  5
105
330
1F
100
AcDbEntity
  8
0
  6
HIDDEN
 62
     7
370
     0
100
AcDbSpline
210
0.0
220
0.0
230
1.0
 70
     8
 71
     3
 72
    20
 73
    16
 74
     0
 42
0.00000001
 43
0.00000001
 40
0.0
 40
0.0
 40
0.0
 40
0.0
 40
0.2499999999999978
 40
0.2499999999999978
 40
0.3749999999999982
 40
0.3749999999999982
 40
0.4999999999999986
 40
0.4999999999999986
 40
0.6249999999999989
 40
0.6249999999999989
 40
0.7499999999999992
 40
0.7499999999999992
 40
0.8749999999999997
 40
0.8749999999999997
 40
1.0
 40
1.0
 40
1.0
 40
1.0
 10
99.39215678771856
 20
137.1698056042639
 30
0.0
 10
99.39215678771856
 20
137.0906026177316
 30
0.0
 10
99.34517429250583
 20
137.0095063993287
 30
0.0
 10
99.20735270172825
 20
136.8893097075778
 30
0.0
 10
99.15107041781827
 20
136.8503830035757
 30
0.0
 10
99.01798556635106
 20
136.7751942711513
 30
0.0
 10
98.94014562411799
 20
136.7385520658093
 30
0.0
 10
98.76751326800365
 20
136.6709615329775
 30
0.0
 10
98.67312027091258
 20
136.6400033512019
 30
0.0
 10
98.46768296459743
 20
136.5844789298322
 30
0.0
 10
98.35533672461025
 20
136.5597704159989
 30
0.0
 10
98.1230958607106
 20
136.5199741888907
 30
0.0
 10
98.00238521828788
 20
136.5045543514937
 30
0.0
 10
97.75131435901886
 20
136.4834743766541
 30
0.0
 10
97.62179236260307
 20
136.4779971316331
 30
0.0
 10
97.49215678771859
 20
136.4779971316331
 30
0.0
  0
LINE
  5
106
330
1F
100
AcDbEntity
  8
0
  6
HIDDEN
 62
     7
370
     0
100
AcDbLine
 10
97.4921567877
 20
136.4779971316
 30
0.0
 11
90.9421567877
 21
136.4779971316
 31
0.0
  0
LINE
  5
107
330
1F
100
AcDbEntity
  8
0
  6
HIDDEN
 62
     7
370
     0
100
AcDbLine
 10
90.9421567877
 20
87.4045868161
 30
0.0
 11
102.4921567877
 21
87.4045868161
 31
0.0
  0
SPLINE
  5
108
330
1F
100
AcDbEntity
  8
0
  6
HIDDEN
 62
     7
370
     0
100
AcDbSpline
210
0.0
220
0.0
230
1.0
 70
     8
 71
     3
 72
    18
 73
    14
 74
     0
 42
0.00000001
 43
0.00000001
 40
0.0
 40
0.0
 40
0.0
 40
0.0
 40
0.1249999999999982
 40
0.1249999999999982
 40
0.2499999999999964
 40
0.2499999999999964
 40
0.4999999999999988
 40
0.4999999999999988
 40
0.7500000000000011
 40
0.7500000000000011
 40
0.8750000000000006
 40
0.8750000000000006
 40
1.0
 40
1.0
 40
1.0
 40
1.0
 10
102.4921567877186
 20
87.40458681606609
 30
0.0
 10
102.6216241006758
 20
87.40458681606607
 30
0.0
 10
102.7486348495724
 20
87.39923381747343
 30
0.0
 10
102.9979981707697
 20
87.37849584478465
 30
0.0
 10
103.1216218253981
 20
87.36282394053035
 30
0.0
 10
103.4706541623321
 20
87.30312921212827
 30
0.0
 10
103.6811659271389
 20
87.24536403244728
 30
0.0
 10
104.0250826048384
 20
87.11084219116978
 30
0.0
 10
104.1614330063563
 20
87.03317307766439
 30
0.0
 10
104.2984710629188
 20
86.91388194357705
 30
0.0
 10
104.3336900816317
 20
86.872962934442
 30
0.0
 10
104.3803136585703
 20
86.79230694115196
 30
0.0
 10
104.3921567877186
 20
86.75233842095912
 30
0.0
 10
104.3921567877186
 20
86.71277834343529
 30
0.0
  0
LINE
  5
109
330
1F
100
AcDbEntity
  8
0
  6
HIDDEN
 62
     7
370
     0
100
AcDbLine
 10
90.9421567877
 20
87.4045868161
 30
0.0
 11
90.9421567877
 21
136.4779971316
 31
0.0
  0
LWPOLYLINE
  5
10A
330
1F
100
AcDbEntity
  8
0
  6
HIDDEN
 62
     7
370
     0
100
AcDbPolyline
 90
       15
 70
   128
 43
0.0
 10
148.1921567877
 20
151.8850225371
 10
149.1986493882
 20
151.926652152
 10
150.1639360633
 20
152.0498366754
 10
151.0484978632
 20
152.2495329183
 10
151.8161207239
 20
152.5175652933
 10
152.4353780752
 20
152.8429605232
 10
152.8809174485
 20
153.2123968892
 10
153.1344984094
 20
153.6107496231
 10
153.1857393236
 20
154.0217101171
 10
153.032542382
 20
154.4284536003
 10
152.6811794856
 20
154.8143279467
 10
152.1460354724
 20
155.1635354153
 10
151.4490192013
 20
155.4617794112
 10
150.6186666004
 20
155.6968497902
 10
150.6037843146
 20
155.7001961223
  0
LWPOLYLINE
  5
10B
330
1F
100
AcDbEntity
  8
0
  6
HIDDEN
 62
     7
370
     0
100
AcDbPolyline
 90
       15
 70
   128
 43
0.0
 10
145.8090289276
 20
155.7065296846
 10
145.7656469751
 20
155.6968497902
 10
144.9352943741
 20
155.4617794112
 10
144.238278103
 20
155.1635354153
 10
143.7031340899
 20
154.8143279467
 10
143.3517711934
 20
154.4284536003
 10
143.1985742519
 20
154.0217101171
 10
143.2498151661
 20
153.6107496231
 10
143.503396127
 20
153.2123968892
 10
143.9489355002
 20
152.8429605232
 10
144.5681928516
 20
152.5175652933
 10
145.3358157122
 20
152.2495329183
 10
146.2203775122
 20
152.0498366754
 10
147.1856641873
 20
151.926652152
 10
148.1921567877
 20
151.8850225371
  0
LINE
  5
10C
330
1F
100
AcDbEntity
  8
0
  6
HIDDEN
 62
     7
370
     0
100
AcDbLine
 10
90.9421567877
 20
84.5712919738
 30
0.0
 11
90.9421567877
 21
79.693006772
 31
0.0
  0
LINE
  5
10D
330
1F
100
AcDbEntity
  8
0
  6
HIDDEN
 62
     7
370
     0
100
AcDbLine
 10
104.3921567877
 20
84.5712919738
 30
0.0
 11
104.3921567877
 21
78.0719587085
 31
0.0
  0
LINE
  5
10E
330
1F
100
AcDbEntity
  8
0
  6
HIDDEN
 62
     7
370
     0
100
AcDbLine
 10
99.3921567877
 20
139.3112919738
 30
0.0
 11
99.3921567877
 21
145.6859007108
 31
0.0
  0
LINE
  5
10F
330
1F
100
AcDbEntity
  8
0
  6
HIDDEN
 62
     7
370
     0
100
AcDbLine
 10
90.9421567877
 20
139.3112919738
 30
0.0
 11
90.9421567877
 21
144.1895771757
 31
0.0
  0
SPLINE
  5
110
330
1F
100
AcDbEntity
  8
0
  6
HIDDEN
 62
     7
370
     0
100
AcDbSpline
210
0.0
220
0.0
230
1.0
 70
     8
 71
     3
 72
    37
 73
    33
 74
     0
 42
0.00000001
 43
0.00000001
 40
-0.0672961992407511
 40
-0.0422745354167637
 40
-0.0198477749540092
 40
0.0
 40
0.025207566997664
 40
0.0544363278056167
 40
0.08771175241605
 40
0.1250489433360281
 40
0.1620915304702552
 40
0.1952559607577429
 40
0.2245582096143089
 40
0.2500241769224171
 40
0.2848342141700589
 40
0.3264523844559329
 40
0.3749196230365227
 40
0.4123147764324306
 40
0.4456207602106242
 40
0.4748524896761444
 40
0.5000352833316999
 40
0.5344594906460632
 40
0.5760834699263938
 40
0.6249453020700536
 40
0.6620128839146525
 40
0.6952092116711713
 40
0.7245502584389434
 40
0.7500618788843978
 40
0.7848149950162905
 40
0.8263926145823619
 40
0.8748356825798593
 40
0.9050763678478665
 40
0.9327038007592489
 40
0.9577254645832363
 40
0.9801522250459908
 40
1.0
 40
1.025207566997664
 40
1.054436327805617
 40
1.08771175241605
 10
201.3663120376051
 20
109.455166455161
 30
0.0
 10
201.7202392555555
 20
109.4330130572222
 30
0.0
 10
202.1100820742421
 20
109.4640157782307
 30
0.0
 10
202.5571902047676
 20
109.5785232245851
 30
0.0
 10
203.0307540137952
 20
109.8055851784533
 30
0.0
 10
203.4748162766011
 20
110.1563154299645
 30
0.0
 10
203.8255776201387
 20
110.5995077184437
 30
0.0
 10
204.0529701871878
 20
111.0709696156803
 30
0.0
 10
204.168830401084
 20
111.51901712236
 30
0.0
 10
204.2068913752487
 20
111.988935185503
 30
0.0
 10
204.1482379392369
 20
112.5242540779679
 30
0.0
 10
203.9219208019677
 20
113.1445628022561
 30
0.0
 10
203.5224526963872
 20
113.6887179065188
 30
0.0
 10
203.0311695796318
 20
114.0767532487846
 30
0.0
 10
202.5571473836218
 20
114.3041141216329
 30
0.0
 10
202.1099443881713
 20
114.4185630245351
 30
0.0
 10
201.6438974294445
 20
114.4556787149894
 30
0.0
 10
201.1121282353178
 20
114.3978200972942
 30
0.0
 10
200.4913532988265
 20
114.1727382496807
 30
0.0
 10
199.9464515650334
 20
113.7733248155351
 30
0.0
 10
199.5583725246718
 20
113.2824909028947
 30
0.0
 10
199.3308592171142
 20
112.8104388393461
 30
0.0
 10
199.2151344906299
 20
112.3617269484381
 30
0.0
 10
199.1774665726289
 20
111.8916231456593
 30
0.0
 10
199.2365529138957
 20
111.3566327190976
 30
0.0
 10
199.4629053346405
 20
110.7371173271161
 30
0.0
 10
199.8401584452192
 20
110.2237190750724
 30
0.0
 10
200.2691312468048
 20
109.8691729658311
 30
0.0
 10
200.6486378625451
 20
109.6569367142333
 30
0.0
 10
201.0195190493012
 20
109.5238410664789
 30
0.0
 10
201.3663120376051
 20
109.455166455161
 30
0.0
 10
201.7202392555555
 20
109.4330130572222
 30
0.0
 10
202.1100820742421
 20
109.4640157782307
 30
0.0
  0
SPLINE
  5
111
330
1F
100
AcDbEntity
  8
0
  6
HIDDEN
 62
     7
370
     0
100
AcDbSpline
210
0.0
220
0.0
230
1.0
 70
     8
 71
     3
 72
    78
 73
    74
 74
     0
 42
0.00000001
 43
0.00000001
 40
-0.03125
 40
-0.03125
 40
0.0
 40
0.0
 40
0.0312500000000001
 40
0.0312500000000001
 40
0.0625000000000003
 40
0.0625000000000003
 40
0.0937500000000004
 40
0.0937500000000004
 40
0.1250000000000006
 40
0.1250000000000006
 40
0.1562500000000007
 40
0.1562500000000007
 40
0.1718750000000008
 40
0.1718750000000008
 40
0.1875000000000008
 40
0.1875000000000008
 40
0.2187500000000006
 40
0.2187500000000006
 40
0.2500000000000004
 40
0.2500000000000004
 40
0.2812500000000001
 40
0.2812500000000001
 40
0.3124999999999999
 40
0.3124999999999999
 40
0.3437499999999997
 40
0.3437499999999997
 40
0.3749999999999995
 40
0.3749999999999995
 40
0.4062499999999993
 40
0.4062499999999993
 40
0.4374999999999991
 40
0.4374999999999991
 40
0.4687499999999989
 40
0.4687499999999989
 40
0.4999999999999987
 40
0.4999999999999987
 40
0.5312499999999984
 40
0.5312499999999984
 40
0.5624999999999982
 40
0.5624999999999982
 40
0.5937499999999981
 40
0.5937499999999981
 40
0.6249999999999984
 40
0.6249999999999984
 40
0.6562499999999988
 40
0.6562499999999988
 40
0.6874999999999991
 40
0.6874999999999991
 40
0.7031249999999993
 40
0.7031249999999993
 40
0.7187499999999996
 40
0.7187499999999996
 40
0.7499999999999996
 40
0.7499999999999996
 40
0.7656249999999997
 40
0.7656249999999997
 40
0.7812499999999997
 40
0.7812499999999997
 40
0.7968749999999998
 40
0.7968749999999998
 40
0.8124999999999998
 40
0.8124999999999998
 40
0.8437499999999999
 40
0.8437499999999999
 40
0.8749999999999999
 40
0.8749999999999999
 40
0.9062499999999999
 40
0.9062499999999999
 40
0.9374999999999999
 40
0.9374999999999999
 40
0.96875
 40
0.96875
 40
1.0
 40
1.0
 40
1.03125
 40
1.03125
 10
199.4866744246275
 20
107.7690839998024
 30
0.0
 10
198.8976391508096
 20
107.7690839998024
 30
0.0
 10
198.6072039593534
 20
107.7928631886107
 30
0.0
 10
198.034244097648
 20
107.8866895414372
 30
0.0
 10
197.7507068518286
 20
107.9570697363126
 30
0.0
 10
197.1963960825113
 20
108.1466149896078
 30
0.0
 10
196.9316675325323
 20
108.2635325831061
 30
0.0
 10
196.42712546402
 20
108.5425382769057
 30
0.0
 10
196.1856139679848
 20
108.7059980588642
 30
0.0
 10
195.7379549261522
 20
109.0780701167275
 30
0.0
 10
195.5357826241088
 20
109.2828377379509
 30
0.0
 10
195.265769713104
 20
109.6193119523415
 30
0.0
 10
195.181344135742
 20
109.7363900108084
 30
0.0
 10
195.0243155813228
 20
109.9810657635151
 30
0.0
 10
194.9514549286687
 20
110.1093800879142
 30
0.0
 10
194.7572526293722
 20
110.5005906857382
 30
0.0
 10
194.6579734220402
 20
110.772291369483
 30
0.0
 10
194.5217291161266
 20
111.3384253662129
 30
0.0
 10
194.485758816321
 20
111.6347081093177
 30
0.0
 10
194.4833951393389
 20
112.2172659348243
 30
0.0
 10
194.5161793678673
 20
112.5100803933005
 30
0.0
 10
194.6489247790398
 20
113.0825811559584
 30
0.0
 10
194.7468787963506
 20
113.3563811368606
 30
0.0
 10
195.0026521452995
 20
113.8806344461333
 30
0.0
 10
195.160657392447
 20
114.1294565714742
 30
0.0
 10
195.5204421696903
 20
114.5832315128861
 30
0.0
 10
195.7258593648088
 20
114.7929768134754
 30
0.0
 10
196.1716447845857
 20
115.1663750374328
 30
0.0
 10
196.4105271008326
 20
115.3296485134291
 30
0.0
 10
196.9184564952311
 20
115.6128948937694
 30
0.0
 10
197.1880710612798
 20
115.7324233517909
 30
0.0
 10
197.7374793859064
 20
115.9216631202912
 30
0.0
 10
198.0196156186716
 20
115.9928325183575
 30
0.0
 10
198.5987054432464
 20
116.0889693478253
 30
0.0
 10
198.8919576392631
 20
116.1129973305407
 30
0.0
 10
199.4739209832171
 20
116.1139868920131
 30
0.0
 10
199.7644609131068
 20
116.0912725813292
 30
0.0
 10
200.3446203980286
 20
115.997290268282
 30
0.0
 10
200.6286661926605
 20
115.9266854443795
 30
0.0
 10
201.1767194564875
 20
115.7403012271982
 30
0.0
 10
201.4420749255914
 20
115.6243432806246
 30
0.0
 10
201.9540338884431
 20
115.3423290444754
 30
0.0
 10
202.194943602983
 20
115.1790389625246
 30
0.0
 10
202.6380182960323
 20
114.8120966255515
 30
0.0
 10
202.841622769657
 20
114.6077481766173
 30
0.0
 10
203.2087562965605
 20
114.1514501872304
 30
0.0
 10
203.3656291845095
 20
113.9074828962734
 30
0.0
 10
203.5589582871062
 20
113.5197378121829
 30
0.0
 10
203.6164565738068
 20
113.3867028833766
 30
0.0
 10
203.7168568892474
 20
113.1126240350583
 30
0.0
 10
203.759919747462
 20
112.9706034308515
 30
0.0
 10
203.8628806015433
 20
112.5432392014153
 30
0.0
 10
203.8981474971495
 20
112.254362006251
 30
0.0
 10
203.9004968291158
 20
111.8150125871519
 30
0.0
 10
203.8926133517315
 20
111.6665301645242
 30
0.0
 10
203.8598483726071
 20
111.374415877678
 30
0.0
 10
203.8351026042955
 20
111.2304278192152
 30
0.0
 10
203.7694311635597
 20
110.9464435496552
 30
0.0
 10
203.7285037300375
 20
110.8064477896533
 30
0.0
 10
203.6304417316203
 20
110.5304367696395
 30
0.0
 10
203.5730095375192
 20
110.3940334843312
 30
0.0
 10
203.3807757858341
 20
110.0003724300984
 30
0.0
 10
203.2253303793372
 20
109.7552605175947
 30
0.0
 10
202.8624340852726
 20
109.2975180648417
 30
0.0
 10
202.6574053864259
 20
109.0886996551423
 30
0.0
 10
202.2131946217983
 20
108.7166783545158
 30
0.0
 10
201.9701491438101
 20
108.5505711262996
 30
0.0
 10
201.4610059340618
 20
108.2673254203111
 30
0.0
 10
201.1955426468974
 20
108.1498006386263
 30
0.0
 10
200.643803553144
 20
107.9599966460621
 30
0.0
 10
200.3563886998814
 20
107.8879650342899
 30
0.0
 10
199.7792808698701
 20
107.7929815877079
 30
0.0
 10
199.4866744246275
 20
107.7690839998024
 30
0.0
 10
198.8976391508096
 20
107.7690839998024
 30
0.0
  0
LINE
  5
112
330
1F
100
AcDbEntity
  8
0
  6
HIDDEN
 62
     7
370
     0
100
AcDbLine
 10
167.4921567877
 20
98.9412919738
 30
0.0
 11
167.4921567877
 21
124.9412919738
 31
0.0
  0
LINE
  5
113
330
1F
100
AcDbEntity
  8
0
  6
HIDDEN
 62
     7
370
     0
100
AcDbLine
 10
163.4921567877
 20
98.9412919738
 30
0.0
 11
163.4921567877
 21
124.9412919738
 31
0.0
  0
LINE
  5
114
330
1F
100
AcDbEntity
  8
0
  6
HIDDEN
 62
     7
370
     0
100
AcDbLine
 10
152.3921567877
 20
100.6912919738
 30
0.0
 11
152.3921567877
 21
123.1912919738
 31
0.0
  0
ELLIPSE
  5
115
330
1F
100
AcDbEntity
  8
0
  6
HIDDEN
 62
     7
370
     0
100
AcDbEllipse
 10
83.0074835874
 20
111.9412919738
 30
0.0
 11
31.08108570811662
 21
-1.421085471520200E-14
 31
0.0
210
0.0
220
0.0
230
1.0
 40
0.8164965809
 41
4.915995335118102
 42
4.970536038964788
  0
ELLIPSE
  5
116
330
1F
100
AcDbEntity
  8
0
  6
HIDDEN
 62
     7
370
     0
100
AcDbEllipse
 10
83.0074835874
 20
111.9412919738
 30
0.0
 11
31.08108570811662
 21
1.421085471520200E-14
 31
0.0
210
0.0
220
0.0
230
1.0
 40
0.8164965809
 41
1.31264926821481
 42
1.367189972061496
  0
LINE
  5
117
330
1F
100
AcDbEntity
  8
0
  6
HIDDEN
 62
     7
370
     0
100
AcDbLine
 10
168.1421567877
 20
68.0412919738
 30
0.0
 11
154.1421567877
 21
68.0412919738
 31
0.0
  0
LINE
  5
118
330
1F
100
AcDbEntity
  8
0
  6
HIDDEN
 62
     7
370
     0
100
AcDbLine
 10
144.1421567877
 20
61.951292974
 30
0.0
 11
144.1421567877
 21
68.0412919738
 31
0.0
  0
LINE
  5
119
330
1F
100
AcDbEntity
  8
0
  6
HIDDEN
 62
     7
370
     0
100
AcDbLine
 10
154.1421567877
 20
68.0412919738
 30
0.0
 11
144.1421567877
 21
68.0412919738
 31
0.0
  0
LINE
  5
11A
330
1F
100
AcDbEntity
  8
0
  6
HIDDEN
 62
     7
370
     0
100
AcDbLine
 10
104.3921567877
 20
84.5712919738
 30
0.0
 11
104.3921567877
 21
86.7127783434
 31
0.0
  0
LINE
  5
11B
330
1F
100
AcDbEntity
  8
0
  6
HIDDEN
 62
     7
370
     0
100
AcDbLine
 10
90.9421567877
 20
84.5712919738
 30
0.0
 11
90.9421567877
 21
87.4045868161
 31
0.0
  0
LINE
  5
11C
330
1F
100
AcDbEntity
  8
0
  6
HIDDEN
 62
     7
370
     0
100
AcDbLine
 10
99.3921567877
 20
139.3112919738
 30
0.0
 11
99.3921567877
 21
137.1698056043
 31
0.0
  0
LINE
  5
11D
330
1F
100
AcDbEntity
  8
0
  6
HIDDEN
 62
     7
370
     0
100
AcDbLine
 10
90.9421567877
 20
139.3112919738
 30
0.0
 11
90.9421567877
 21
136.4779971316
 31
0.0
  0
LINE
  5
11E
330
1F
100
AcDbEntity
  8
0
  6
HIDDEN
 62
     7
370
     0
100
AcDbLine
 10
154.1421567877
 20
155.8412919738
 30
0.0
 11
144.1421567877
 21
155.8412919738
 31
0.0
  0
LINE
  5
11F
330
1F
100
AcDbEntity
  8
0
  6
HIDDEN
 62
     7
370
     0
100
AcDbLine
 10
168.1421567877
 20
155.8412919738
 30
0.0
 11
154.1421567877
 21
155.8412919738
 31
0.0
  0
SPLINE
  5
120
330
1F
100
AcDbEntity
  8
0
  6
HIDDEN
 62
     7
370
     0
100
AcDbSpline
210
0.0
220
0.0
230
1.0
 70
     8
 71
     3
 72
    14
 73
    10
 74
     0
 42
0.00000001
 43
0.00000001
 40
0.0
 40
0.0
 40
0.0
 40
0.0
 40
0.25
 40
0.25
 40
0.5
 40
0.5
 40
0.75
 40
0.75
 40
1.0
 40
1.0
 40
1.0
 40
1.0
 10
183.2384146498606
 20
105.7243833668547
 30
0.0
 10
183.2761616274481
 20
105.7574990387785
 30
0.0
 10
183.3092608196466
 20
105.7981686965407
 30
0.0
 10
183.355231273554
 20
105.8994393792376
 30
0.0
 10
183.3664592444759
 20
105.9580849589145
 30
0.0
 10
183.3576053430587
 20
106.0917567077432
 30
0.0
 10
183.3375858932838
 20
106.1642446739086
 30
0.0
 10
183.2780281994172
 20
106.314527246521
 30
0.0
 10
183.2398619961157
 20
106.3905654426808
 30
0.0
 10
183.1984065817678
 20
106.4685614230276
 30
0.0
  0
SPLINE
  5
121
330
1F
100
AcDbEntity
  8
0
  6
HIDDEN
 62
     7
370
     0
100
AcDbSpline
210
0.0
220
0.0
230
1.0
 70
     8
 71
     3
 72
    14
 73
    10
 74
     0
 42
0.00000001
 43
0.00000001
 40
0.0
 40
0.0
 40
0.0
 40
0.0
 40
0.25
 40
0.25
 40
0.5
 40
0.5
 40
0.75
 40
0.75
 40
1.0
 40
1.0
 40
1.0
 40
1.0
 10
183.1984065817679
 20
106.4685614230275
 30
0.0
 10
183.1638421553653
 20
106.4321020292575
 30
0.0
 10
183.1304519516171
 20
106.3971294980304
 30
0.0
 10
183.0748552059521
 20
106.3185431098391
 30
0.0
 10
183.0517228782217
 20
106.2735334124337
 30
0.0
 10
183.0631591677555
 20
106.1302810313939
 30
0.0
 10
183.0942027483071
 20
106.045112703635
 30
0.0
 10
183.161058857248
 20
105.8831168138792
 30
0.0
 10
183.1990609856085
 20
105.8030260633567
 30
0.0
 10
183.2384146498602
 20
105.7243833668528
 30
0.0
  0
SPLINE
  5
122
330
1F
100
AcDbEntity
  8
0
  6
HIDDEN
 62
     7
370
     0
100
AcDbSpline
210
0.0
220
0.0
230
1.0
 70
     8
 71
     3
 72
    48
 73
    44
 74
     0
 42
0.00000001
 43
0.00000001
 40
-0.0625000000000017
 40
-0.0625000000000017
 40
0.0
 40
0.0
 40
0.0312499999999995
 40
0.0312499999999995
 40
0.062499999999999
 40
0.062499999999999
 40
0.1249999999999981
 40
0.1249999999999981
 40
0.1874999999999971
 40
0.1874999999999971
 40
0.2499999999999962
 40
0.2499999999999962
 40
0.3124999999999953
 40
0.3124999999999953
 40
0.3437499999999949
 40
0.3437499999999949
 40
0.3749999999999945
 40
0.3749999999999945
 40
0.4062499999999941
 40
0.4062499999999941
 40
0.4374999999999937
 40
0.4374999999999937
 40
0.499999999999994
 40
0.499999999999994
 40
0.5624999999999943
 40
0.5624999999999943
 40
0.6249999999999946
 40
0.6249999999999946
 40
0.6874999999999949
 40
0.6874999999999949
 40
0.7499999999999952
 40
0.7499999999999952
 40
0.8124999999999956
 40
0.8124999999999956
 40
0.8437499999999962
 40
0.8437499999999962
 40
0.8749999999999969
 40
0.8749999999999969
 40
0.9062499999999977
 40
0.9062499999999977
 40
0.9374999999999983
 40
0.9374999999999983
 40
1.0
 40
1.0
 40
1.03125
 40
1.03125
 10
185.3229467650701
 20
105.6839810740966
 30
0.0
 10
185.4450145955871
 20
105.6873723993185
 30
0.0
 10
185.4834769255047
 20
105.6958192152648
 30
0.0
 10
185.5536264012712
 20
105.728094079319
 30
0.0
 10
185.5856435340464
 20
105.7523668367848
 30
0.0
 10
185.6643791209641
 20
105.8491894983061
 30
0.0
 10
185.6941075217849
 20
105.948339136041
 30
0.0
 10
185.6899957677548
 20
106.1972609378108
 30
0.0
 10
185.6559496750893
 20
106.3478623849053
 30
0.0
 10
185.5445835165646
 20
106.6567775554338
 30
0.0
 10
185.468184592974
 20
106.8155374350597
 30
0.0
 10
185.3050114127097
 20
107.1233086818979
 30
0.0
 10
185.2163719466941
 20
107.2740462148081
 30
0.0
 10
185.1071578459652
 20
107.4919714283306
 30
0.0
 10
185.0742362982533
 20
107.565127088023
 30
0.0
 10
185.0297855852534
 20
107.7046637316688
 30
0.0
 10
185.0185527668293
 20
107.7726643670374
 30
0.0
 10
185.0253405652533
 20
107.8925978785485
 30
0.0
 10
185.0430875285388
 20
107.9460166132034
 30
0.0
 10
185.0952380550116
 20
108.034163691533
 30
0.0
 10
185.1296112194788
 20
108.0702858776173
 30
0.0
 10
185.2415578801769
 20
108.156385227968
 30
0.0
 10
185.3270418573303
 20
108.1854822453624
 30
0.0
 10
185.4851933352307
 20
108.1890208407971
 30
0.0
 10
185.5574382106656
 20
108.1630559873169
 30
0.0
 10
185.6631282670506
 20
108.0413589233696
 30
0.0
 10
185.6936273128089
 20
107.9445101641419
 30
0.0
 10
185.690570936891
 20
107.6953610936746
 30
0.0
 10
185.6566482864966
 20
107.5424257708079
 30
0.0
 10
185.5466828588984
 20
107.2295448746416
 30
0.0
 10
185.4715275935056
 20
107.0685889525824
 30
0.0
 10
185.3127676637592
 20
106.7590864903784
 30
0.0
 10
185.2261229431174
 20
106.6062080238476
 30
0.0
 10
185.1176528086717
 20
106.3875844083557
 30
0.0
 10
185.084703242021
 20
106.3154374225705
 30
0.0
 10
185.0359137022607
 20
106.1730894127086
 30
0.0
 10
185.021322108137
 20
106.1048007607877
 30
0.0
 10
185.0213038713055
 20
105.9797199987984
 30
0.0
 10
185.0359860982647
 20
105.9248584433178
 30
0.0
 10
185.0859984742893
 20
105.8329124198703
 30
0.0
 10
185.11998478032
 20
105.7965938547979
 30
0.0
 10
185.2342823489126
 20
105.7101207658589
 30
0.0
 10
185.3229467650701
 20
105.6839810740966
 30
0.0
 10
185.4450145955871
 20
105.6873723993185
 30
0.0
  0
SPLINE
  5
123
330
1F
100
AcDbEntity
  8
0
  6
HIDDEN
 62
     7
370
     0
100
AcDbSpline
210
0.0
220
0.0
230
1.0
 70
     8
 71
     3
 72
     8
 73
     4
 74
     0
 42
0.00000001
 43
0.00000001
 40
0.0
 40
0.0
 40
0.0
 40
0.0
 40
1.0
 40
1.0
 40
1.0
 40
1.0
 10
185.434190826929
 20
110.297246619441
 30
0.0
 10
185.3923224001147
 20
110.341432212978
 30
0.0
 10
185.3465504810288
 20
110.3877380870433
 30
0.0
 10
185.2973827695988
 20
110.4378637359842
 30
0.0
  0
SPLINE
  5
124
330
1F
100
AcDbEntity
  8
0
  6
HIDDEN
 62
     7
370
     0
100
AcDbSpline
210
0.0
220
0.0
230
1.0
 70
     8
 71
     3
 72
    18
 73
    14
 74
     0
 42
0.00000001
 43
0.00000001
 40
0.0
 40
0.0
 40
0.0
 40
0.0
 40
0.1010785942919826
 40
0.2049458164177438
 40
0.3060688504731836
 40
0.4105482515407358
 40
0.5045721902914648
 40
0.6017296024657569
 40
0.6899321396399976
 40
0.7804112297571091
 40
0.8743855220912615
 40
0.9706409981884104
 40
1.0
 40
1.0
 40
1.0
 40
1.0
 10
185.2973827695988
 20
110.4378637359842
 30
0.0
 10
185.2383107358221
 20
110.4933731415584
 30
0.0
 10
185.1185369471715
 20
110.6059233854944
 30
0.0
 10
184.9046694307422
 20
110.7432286182923
 30
0.0
 10
184.6681498863659
 20
110.8495355954272
 30
0.0
 10
184.4222527561039
 20
110.9120814825543
 30
0.0
 10
184.1721845447933
 20
110.93037079042
 30
0.0
 10
183.9362847164715
 20
110.906618321373
 30
0.0
 10
183.7115670245249
 20
110.8458141794212
 30
0.0
 10
183.5016603220423
 20
110.7544193889609
 30
0.0
 10
183.3056376316268
 20
110.6308777332346
 30
0.0
 10
183.1633120107085
 20
110.5195436703304
 30
0.0
 10
183.0981335083376
 20
110.4458452911627
 30
0.0
 10
183.0828997884588
 20
110.4286202794958
 30
0.0
  0
SPLINE
  5
125
330
1F
100
AcDbEntity
  8
0
  6
HIDDEN
 62
     7
370
     0
100
AcDbSpline
210
0.0
220
0.0
230
1.0
 70
     8
 71
     3
 72
    26
 73
    22
 74
     0
 42
0.00000001
 43
0.00000001
 40
0.0
 40
0.0
 40
0.0
 40
0.0
 40
0.0158253257031923
 40
0.0744452536486442
 40
0.1350823823841813
 40
0.1888481054822582
 40
0.2442889393613284
 40
0.2963850655274355
 40
0.3498394844482243
 40
0.4049985102336678
 40
0.4615351574390436
 40
0.5209140798906687
 40
0.5820485010946903
 40
0.6404236773906337
 40
0.700886364486142
 40
0.7534317807023129
 40
0.807585388006877
 40
0.8590737458595421
 40
0.9118210958215145
 40
0.9555795450118546
 40
1.0
 40
1.0
 40
1.0
 40
1.0
 10
182.8690731511008
 20
110.1547551202849
 30
0.0
 10
182.8573618315201
 20
110.1377375159875
 30
0.0
 10
182.8022696221657
 20
110.0576835637234
 30
0.0
 10
182.740596553027
 20
109.9052193536321
 30
0.0
 10
182.6922679542766
 20
109.7148824399858
 30
0.0
 10
182.6890880274545
 20
109.5373791383401
 30
0.0
 10
182.7230177513356
 20
109.3830678637695
 30
0.0
 10
182.7925161610174
 20
109.2467041703234
 30
0.0
 10
182.8940638820063
 20
109.1296129019381
 30
0.0
 10
183.0292669204264
 20
109.0298065579244
 30
0.0
 10
183.1985757804789
 20
108.9474679760929
 30
0.0
 10
183.4014742125973
 20
108.8831968201548
 30
0.0
 10
183.6312772493507
 20
108.8381587058218
 30
0.0
 10
183.8815224694402
 20
108.8107355551809
 30
0.0
 10
184.1310590926096
 20
108.8002400884015
 30
0.0
 10
184.3759817925188
 20
108.8039344314687
 30
0.0
 10
184.6023174723861
 20
108.8200688812409
 30
0.0
 10
184.8173322600752
 20
108.8493447254974
 30
0.0
 10
185.0029818926498
 20
108.8901893081864
 30
0.0
 10
185.1649870911331
 20
108.9408367703519
 30
0.0
 10
185.2530305471381
 20
108.982611893542
 30
0.0
 10
185.2973827695988
 20
109.0036562691393
 30
0.0
  0
SPLINE
  5
126
330
1F
100
AcDbEntity
  8
0
  6
HIDDEN
 62
     7
370
     0
100
AcDbSpline
210
0.0
220
0.0
230
1.0
 70
     8
 71
     3
 72
     8
 73
     4
 74
     0
 42
0.00000001
 43
0.00000001
 40
0.0
 40
0.0
 40
0.0
 40
0.0
 40
1.0
 40
1.0
 40
1.0
 40
1.0
 10
185.2973827695988
 20
109.0036562691393
 30
0.0
 10
185.3465504810288
 20
109.0293096597003
 30
0.0
 10
185.3923224001147
 20
109.0645778951411
 30
0.0
 10
185.434190826929
 20
109.1078337849362
 30
0.0
  0
SPLINE
  5
127
330
1F
100
AcDbEntity
  8
0
  6
HIDDEN
 62
     7
370
     0
100
AcDbSpline
210
0.0
220
0.0
230
1.0
 70
     8
 71
     3
 72
    14
 73
    10
 74
     0
 42
0.00000001
 43
0.00000001
 40
0.0
 40
0.0
 40
0.0
 40
0.0
 40
0.2499999999999998
 40
0.2499999999999998
 40
0.4999999999999998
 40
0.4999999999999998
 40
0.7499999999999998
 40
0.7499999999999998
 40
1.0
 40
1.0
 40
1.0
 40
1.0
 10
185.434190826929
 20
109.1078337849362
 30
0.0
 10
185.5183546550624
 20
109.194786688388
 30
0.0
 10
185.5821393356372
 20
109.2859430752685
 30
0.0
 10
185.6697867916681
 20
109.4823809372604
 30
0.0
 10
185.6920177818968
 20
109.5852675364541
 30
0.0
 10
185.6922944924403
 20
109.7953343252535
 30
0.0
 10
185.6699853081157
 20
109.9028665321896
 30
0.0
 10
185.583427042807
 20
110.1083729246007
 30
0.0
 10
185.5183498487332
 20
110.208429899711
 30
0.0
 10
185.434190826929
 20
110.297246619441
 30
0.0
  0
SPLINE
  5
128
330
1F
100
AcDbEntity
  8
0
  6
HIDDEN
 62
     7
370
     0
100
AcDbSpline
210
0.0
220
0.0
230
1.0
 70
     8
 71
     3
 72
    12
 73
     8
 74
     0
 42
0.00000001
 43
0.00000001
 40
0.0
 40
0.0
 40
0.0
 40
0.0
 40
0.4999999999999997
 40
0.4999999999999997
 40
0.7499999999999998
 40
0.7499999999999998
 40
1.0
 40
1.0
 40
1.0
 40
1.0
 10
183.1984065817678
 20
108.0575614407573
 30
0.0
 10
183.281213227001
 20
108.0053389626469
 30
0.0
 10
183.3527966711157
 20
107.9186790302398
 30
0.0
 10
183.3665632408276
 20
107.7295398599745
 30
0.0
 10
183.3552228013113
 20
107.6602843764289
 30
0.0
 10
183.3092601385254
 20
107.5135608867167
 30
0.0
 10
183.2761644161232
 20
107.4387808215605
 30
0.0
 10
183.2384146498606
 20
107.3616835436544
 30
0.0
  0
SPLINE
  5
129
330
1F
100
AcDbEntity
  8
0
  6
HIDDEN
 62
     7
370
     0
100
AcDbSpline
210
0.0
220
0.0
230
1.0
 70
     8
 71
     3
 72
    18
 73
    14
 74
     0
 42
0.00000001
 43
0.00000001
 40
0.0
 40
0.0
 40
0.0
 40
0.0
 40
0.2499999999999982
 40
0.2499999999999982
 40
0.3749999999999978
 40
0.3749999999999978
 40
0.4999999999999973
 40
0.4999999999999973
 40
0.6249999999999969
 40
0.6249999999999969
 40
0.7499999999999964
 40
0.7499999999999964
 40
1.0
 40
1.0
 40
1.0
 40
1.0
 10
183.2384146498607
 20
107.3616835436545
 30
0.0
 10
183.1989662737323
 20
107.3945574377328
 30
0.0
 10
183.1608095932286
 20
107.4254459368277
 30
0.0
 10
183.1105793119946
 20
107.475680304174
 30
0.0
 10
183.0950500001573
 20
107.4930764874096
 30
0.0
 10
183.0697905961663
 20
107.5343194231134
 30
0.0
 10
183.0602189268565
 20
107.558784977603
 30
0.0
 10
183.0546348189398
 20
107.620111215831
 30
0.0
 10
183.0589661657131
 20
107.6575494163527
 30
0.0
 10
183.0763692998054
 20
107.7354328631173
 30
0.0
 10
183.0889783449235
 20
107.7761864214066
 30
0.0
 10
183.1306792917971
 20
107.8973057905995
 30
0.0
 10
183.163918488997
 20
107.9780453107842
 30
0.0
 10
183.1984065817678
 20
108.0575614407573
 30
0.0
  0
SPLINE
  5
12A
330
1F
100
AcDbEntity
  8
0
  6
HIDDEN
 62
     7
370
     0
100
AcDbSpline
210
0.0
220
0.0
230
1.0
 70
     8
 71
     3
 72
    32
 73
    28
 74
     0
 42
0.00000001
 43
0.00000001
 40
-0.0625000000000002
 40
-0.0625000000000002
 40
0.0
 40
0.0
 40
0.1250000000000002
 40
0.1250000000000002
 40
0.1875
 40
0.1875
 40
0.2499999999999998
 40
0.2499999999999998
 40
0.3124999999999996
 40
0.3124999999999996
 40
0.3749999999999993
 40
0.3749999999999993
 40
0.4999999999999987
 40
0.4999999999999987
 40
0.6249999999999981
 40
0.6249999999999981
 40
0.6874999999999984
 40
0.6874999999999984
 40
0.7499999999999988
 40
0.7499999999999988
 40
0.8124999999999991
 40
0.8124999999999991
 40
0.8749999999999994
 40
0.8749999999999994
 40
0.9374999999999998
 40
0.9374999999999998
 40
1.0
 40
1.0
 40
1.125
 40
1.125
 10
182.6921567877181
 20
107.0994344668694
 30
0.0
 10
182.6921567877181
 20
107.2279550656988
 30
0.0
 10
182.7077666622236
 20
107.2886109630569
 30
0.0
 10
182.7431732071325
 20
107.332680565997
 30
0.0
 10
182.7570996657513
 20
107.3400978015234
 30
0.0
 10
182.782438250261
 20
107.3290759652704
 30
0.0
 10
182.7934557953201
 20
107.3076883173129
 30
0.0
 10
182.7910507252364
 20
107.2182476221788
 30
0.0
 10
182.7791345538238
 20
107.1572810737881
 30
0.0
 10
182.7547752376524
 20
107.0405131745514
 30
0.0
 10
182.7415501584335
 20
106.980950438687
 30
0.0
 10
182.7076347048923
 20
106.8091600970955
 30
0.0
 10
182.6920773858381
 20
106.6994724908835
 30
0.0
 10
182.6922368439127
 20
106.5290368788299
 30
0.0
 10
182.7078033226519
 20
106.4725766230865
 30
0.0
 10
182.7422216759508
 20
106.4359232035897
 30
0.0
 10
182.7552739769166
 20
106.4313634548691
 30
0.0
 10
182.7797435874737
 20
106.4439587481421
 30
0.0
 10
182.7914621272931
 20
106.461973207248
 30
0.0
 10
182.7931484680849
 20
106.5442398621873
 30
0.0
 10
182.7818424448271
 20
106.6050127927771
 30
0.0
 10
182.7566836175742
 20
106.721832186074
 30
0.0
 10
182.7427809220377
 20
106.7810225482453
 30
0.0
 10
182.7193545656209
 20
106.8941210165951
 30
0.0
 10
182.7093265513213
 20
106.9496884340362
 30
0.0
 10
182.6957893736609
 20
107.0523725441806
 30
0.0
 10
182.6921567877181
 20
107.0994344668694
 30
0.0
 10
182.6921567877181
 20
107.2279550656988
 30
0.0
  0
LWPOLYLINE
  5
12B
330
1F
100
AcDbEntity
  8
0
  6
HIDDEN
 62
     7
370
     0
100
AcDbPolyline
 90
       18
 70
   128
 43
0.0
 10
184.1921567877
 20
103.668142634
 10
183.6502942884
 20
103.7397666507
 10
183.1816133222
 20
103.9449654807
 10
182.8494118507
 20
104.2560258847
 10
182.6985555233
 20
104.6309374317
 10
182.749418323
 20
105.0190662398
 10
182.9951309468
 20
105.3679933627
 10
183.4025085434
 20
105.630594259
 10
183.916532511
 20
105.7714032225
 10
184.4677810644
 20
105.7714032225
 10
184.981805032
 20
105.630594259
 10
185.3891826286
 20
105.3679933627
 10
185.6348952525
 20
105.0190662398
 10
185.6857580522
 20
104.6309374317
 10
185.5349017248
 20
104.2560258847
 10
185.2027002532
 20
103.9449654807
 10
184.734019287
 20
103.7397666507
 10
184.1921567877
 20
103.668142634
  0
SPLINE
  5
12C
330
1F
100
AcDbEntity
  8
0
  6
HIDDEN
 62
     7
370
     0
100
AcDbSpline
210
0.0
220
0.0
230
1.0
 70
     8
 71
     3
 72
    30
 73
    26
 74
     0
 42
0.00000001
 43
0.00000001
 40
0.0
 40
0.0
 40
0.0
 40
0.0
 40
0.0531112854686219
 40
0.1124940063890488
 40
0.1778933782543809
 40
0.2129185733772092
 40
0.2494728603268793
 40
0.291240032004724
 40
0.3260834867465202
 40
0.3539995120540035
 40
0.3749854606038862
 40
0.4414452339242781
 40
0.5001646966355473
 40
0.5546811293512593
 40
0.6144272273503592
 40
0.6794546282422691
 40
0.7140127249543904
 40
0.7499108386205571
 40
0.7913766609246694
 40
0.8260446991419677
 40
0.8539111693386819
 40
0.8749732193235406
 40
0.9411617863708618
 40
0.99991415413241
 40
1.0
 40
1.0
 40
1.0
 40
1.0
 10
130.1916415699751
 20
74.84138042708862
 30
0.0
 10
130.1754515927621
 20
74.84627868717445
 30
0.0
 10
130.1411599091026
 20
74.85665359895685
 30
0.0
 10
129.8398819126928
 20
74.93229729141598
 30
0.0
 10
129.3977180778824
 20
75.0285824024604
 30
0.0
 10
128.9028846645725
 20
75.1282474100414
 30
0.0
 10
128.4324091430685
 20
75.2205255160607
 30
0.0
 10
127.9014876744325
 20
75.3161575608139
 30
0.0
 10
127.3633371821951
 20
75.40180780118494
 30
0.0
 10
126.9052898460534
 20
75.46909959470888
 30
0.0
 10
126.2497255254043
 20
75.5574477635528
 30
0.0
 10
125.3664190871295
 20
75.65410584787743
 30
0.0
 10
124.2377573544993
 20
75.74088102461774
 30
0.0
 10
123.1479956047336
 20
75.77895972233617
 30
0.0
 10
122.051967326309
 20
75.78081015709809
 30
0.0
 10
121.1465760793637
 20
75.75464870151342
 30
0.0
 10
120.4502733689488
 20
75.71804147638444
 30
0.0
 10
119.9235936406737
 20
75.67902460090741
 30
0.0
 10
119.4569475256411
 20
75.63681547343545
 30
0.0
 10
119.0857322499173
 20
75.59981138386608
 30
0.0
 10
118.8316857726752
 20
75.57111062342173
 30
0.0
 10
118.5306306199658
 20
75.53473067283197
 30
0.0
 10
118.2751468251619
 20
75.50195050584396
 30
0.0
 10
118.1759261002166
 20
75.48561262113918
 30
0.0
 10
118.1922066574992
 20
75.48820620730973
 30
0.0
 10
118.1922304110851
 20
75.48820999139225
 30
0.0
  0
SPLINE
  5
12D
330
1F
100
AcDbEntity
  8
0
  6
HIDDEN
 62
     7
370
     0
100
AcDbSpline
210
0.0
220
0.0
230
1.0
 70
     8
 71
     3
 72
    30
 73
    26
 74
     0
 42
0.00000001
 43
0.00000001
 40
0.0
 40
0.0
 40
0.0
 40
0.0
 40
0.0001272210143991
 40
0.0285575840301746
 40
0.0588606970324807
 40
0.0910407345838284
 40
0.1251011218395797
 40
0.154689204296235
 40
0.1963674254352879
 40
0.2501213183998723
 40
0.3205355072528489
 40
0.3856195806702074
 40
0.4454121209784618
 40
0.4999646168103646
 40
0.5283564635585286
 40
0.5586406006812671
 40
0.5908246907989132
 40
0.6249150580120804
 40
0.6541896081211352
 40
0.6958675376440279
 40
0.749934453720154
 40
0.8215931857789869
 40
0.8871439718609582
 40
0.9466386696559844
 40
1.0
 40
1.0
 40
1.0
 40
1.0
 10
118.1922647478648
 20
148.3943009284988
 30
0.0
 10
118.1922286467332
 20
148.3943088001732
 30
0.0
 10
118.1841249454331
 20
148.3960757724458
 30
0.0
 10
118.2127823171455
 20
148.3906217511156
 30
0.0
 10
118.2861740175343
 20
148.3800779303591
 30
0.0
 10
118.429829135543
 20
148.3603930085669
 30
0.0
 10
118.6308652340476
 20
148.3355536647917
 30
0.0
 10
118.9134956809088
 20
148.3013452201886
 30
0.0
 10
119.3269048449804
 20
148.2576653157089
 30
0.0
 10
120.0031923307459
 20
148.1946222512671
 30
0.0
 10
120.9416232372687
 20
148.13332507971
 30
0.0
 10
122.0511164492737
 20
148.1020366365085
 30
0.0
 10
123.1485971803158
 20
148.1036918040343
 30
0.0
 10
124.0486284186967
 20
148.1349980061469
 30
0.0
 10
124.7599693445578
 20
148.1818311549474
 30
0.0
 10
125.3253862455463
 20
148.2289980168437
 30
0.0
 10
125.9143096683753
 20
148.2884370233936
 30
0.0
 10
126.4787193208526
 20
148.3547942300016
 30
0.0
 10
127.0729155147888
 20
148.4367136364332
 30
0.0
 10
127.7395236757593
 20
148.5383616191836
 30
0.0
 10
128.5408564214596
 20
148.6805005297839
 30
0.0
 10
129.2933664059674
 20
148.8317451005503
 30
0.0
 10
129.8386529009336
 20
148.9495959738097
 30
0.0
 10
130.1413744324325
 20
149.0258252055589
 30
0.0
 10
130.1756648830455
 20
149.0362775150534
 30
0.0
 10
130.1918783196955
 20
149.0412196448536
 30
0.0
  0
ARC
  5
12E
330
1F
100
AcDbEntity
  8
0
  6
HIDDEN
 62
     7
370
     0
100
AcDbCircle
 10
170.1797455758
 20
106.9599912696
 30
0.0
 40
13.06484575756
100
AcDbArc
 50
1.7618960119
 51
4.8190653226
  0
ARC
  5
12F
330
1F
100
AcDbEntity
  8
0
  6
HIDDEN
 62
     7
370
     0
100
AcDbCircle
 10
199.3284897063
 20
106.9625731028
 30
0.0
 40
16.13764633226114
100
AcDbArc
 50
181.7542339436
 51
184.4004458049
  0
SPLINE
  5
130
330
1F
100
AcDbEntity
  8
0
  6
HIDDEN
 62
     7
370
     0
100
AcDbSpline
210
0.0
220
0.0
230
1.0
 70
     8
 71
     3
 72
    34
 73
    30
 74
     0
 42
0.00000001
 43
0.00000001
 40
0.0
 40
0.0
 40
0.0
 40
0.0
 40
0.0625
 40
0.0625
 40
0.1250000000000001
 40
0.1250000000000001
 40
0.1875000000000001
 40
0.1875000000000001
 40
0.2500000000000002
 40
0.2500000000000002
 40
0.3750000000000002
 40
0.3750000000000002
 40
0.4375000000000003
 40
0.4375000000000003
 40
0.5000000000000003
 40
0.5000000000000003
 40
0.5625000000000003
 40
0.5625000000000003
 40
0.6250000000000003
 40
0.6250000000000003
 40
0.6875000000000002
 40
0.6875000000000002
 40
0.7500000000000001
 40
0.7500000000000001
 40
0.8125000000000001
 40
0.8125000000000001
 40
0.875
 40
0.875
 40
1.0
 40
1.0
 40
1.0
 40
1.0
 10
185.2973827695988
 20
113.444720211715
 30
0.0
 10
185.1964794484888
 20
113.3418509850655
 30
0.0
 10
185.0821926883196
 20
113.2509141334866
 30
0.0
 10
184.8252978694654
 20
113.098298520847
 30
0.0
 10
184.6855928729796
 20
113.0390391357645
 30
0.0
 10
184.3923856560093
 20
112.9654697702391
 30
0.0
 10
184.2379908771216
 20
112.9517096829225
 30
0.0
 10
183.9359740891611
 20
112.9743569531001
 30
0.0
 10
183.7853531543096
 20
113.0109387661817
 30
0.0
 10
183.3670109164601
 20
113.1806545386216
 30
0.0
 10
183.125135832386
 20
113.3755448482907
 30
0.0
 10
182.8734637632788
 20
113.7024983456748
 30
0.0
 10
182.806109115651
 20
113.8199355867304
 30
0.0
 10
182.716233312489
 20
114.0499556203209
 30
0.0
 10
182.6923707538034
 20
114.165864847766
 30
0.0
 10
182.6919457616799
 20
114.3806530397276
 30
0.0
 10
182.7151797948927
 20
114.4808808323865
 30
0.0
 10
182.8049542206655
 20
114.6568056766214
 30
0.0
 10
182.8715056903999
 20
114.7330445168053
 30
0.0
 10
183.0398606843265
 20
114.8602209345638
 30
0.0
 10
183.1416744862492
 20
114.9114700576483
 30
0.0
 10
183.3737154819436
 20
114.9924305083515
 30
0.0
 10
183.5015588393432
 20
115.0217270488731
 30
0.0
 10
183.7832063304715
 20
115.0635655273111
 30
0.0
 10
183.9294707688529
 20
115.0750898272367
 30
0.0
 10
184.2336686740587
 20
115.0829044258388
 30
0.0
 10
184.3867576995997
 20
115.0788675749733
 30
0.0
 10
184.8296062112116
 20
115.0417036628631
 30
0.0
 10
185.0953370305996
 20
114.9843456063625
 30
0.0
 10
185.2973827695988
 20
114.8789276785599
 30
0.0
  0
SPLINE
  5
131
330
1F
100
AcDbEntity
  8
0
  6
HIDDEN
 62
     7
370
     0
100
AcDbSpline
210
0.0
220
0.0
230
1.0
 70
     8
 71
     3
 72
     8
 73
     4
 74
     0
 42
0.00000001
 43
0.00000001
 40
0.0
 40
0.0
 40
0.0
 40
0.0
 40
1.0
 40
1.0
 40
1.0
 40
1.0
 10
185.2973827695988
 20
114.8789276785599
 30
0.0
 10
185.3465504810288
 20
114.8532742879988
 30
0.0
 10
185.3923224001147
 20
114.818006052558
 30
0.0
 10
185.434190826929
 20
114.774750162763
 30
0.0
  0
LINE
  5
132
330
1F
100
AcDbEntity
  8
0
  6
HIDDEN
 62
     7
370
     0
100
AcDbLine
 10
182.1921567877
 20
109.0412919738
 30
0.0
 11
182.1921567877
 21
114.8412919738
 31
0.0
  0
SPLINE
  5
133
330
1F
100
AcDbEntity
  8
0
  6
HIDDEN
 62
     7
370
     0
100
AcDbSpline
210
0.0
220
0.0
230
1.0
 70
     8
 71
     3
 72
    14
 73
    10
 74
     0
 42
0.00000001
 43
0.00000001
 40
0.0
 40
0.0
 40
0.0
 40
0.0
 40
0.2500000000000001
 40
0.2500000000000001
 40
0.5000000000000001
 40
0.5000000000000001
 40
0.7500000000000002
 40
0.7500000000000002
 40
1.0
 40
1.0
 40
1.0
 40
1.0
 10
185.434190826929
 20
114.774750162763
 30
0.0
 10
185.5183546550624
 20
114.6877972593112
 30
0.0
 10
185.5821393356372
 20
114.5966408724307
 30
0.0
 10
185.6697867916682
 20
114.4002030104388
 30
0.0
 10
185.6920177818968
 20
114.2973164112451
 30
0.0
 10
185.6922944924403
 20
114.0872496224456
 30
0.0
 10
185.6699853081157
 20
113.9797174155095
 30
0.0
 10
185.583427042807
 20
113.7742110230985
 30
0.0
 10
185.5183498487332
 20
113.6741540479882
 30
0.0
 10
185.434190826929
 20
113.5853373282581
 30
0.0
  0
LINE
  5
134
330
1F
100
AcDbEntity
  8
0
  6
HIDDEN
 62
     7
370
     0
100
AcDbLine
 10
186.1921567877
 20
108.9412919738
 30
0.0
 11
186.1921567877
 21
114.9412919738
 31
0.0
  0
LINE
  5
135
330
1F
100
AcDbEntity
  8
0
  6
HIDDEN
 62
     7
370
     0
100
AcDbLine
 10
183.6421567877
 20
97.518642243
 30
0.0
 11
178.6421567877
 21
97.518642243
 31
0.0
  0
LINE
  5
136
330
1F
100
AcDbEntity
  8
0
  6
HIDDEN
 62
     7
370
     0
100
AcDbLine
 10
181.1421567877
 20
126.3639417047
 30
0.0
 11
183.6421567877
 21
126.3639417047
 31
0.0
  0
LINE
  5
137
330
1F
100
AcDbEntity
  8
0
  6
HIDDEN
 62
     7
370
     0
100
AcDbLine
 10
178.6421567877
 20
126.3639417047
 30
0.0
 11
181.1421567877
 21
126.3639417047
 31
0.0
  0
LINE
  5
138
330
1F
100
AcDbEntity
  8
0
  6
HIDDEN
 62
     7
370
     0
100
AcDbLine
 10
181.1421567877
 20
117.9412919738
 30
0.0
 11
183.6421567877
 21
117.9412919738
 31
0.0
  0
LINE
  5
139
330
1F
100
AcDbEntity
  8
0
  6
HIDDEN
 62
     7
370
     0
100
AcDbLine
 10
178.6421567877
 20
117.9412919738
 30
0.0
 11
181.1421567877
 21
117.9412919738
 31
0.0
  0
LINE
  5
13A
330
1F
100
AcDbEntity
  8
0
  6
HIDDEN
 62
     7
370
     0
100
AcDbLine
 10
183.6421567877
 20
105.9412919738
 30
0.0
 11
178.6421567877
 21
105.9412919738
 31
0.0
  0
SPLINE
  5
13B
330
1F
100
AcDbEntity
  8
0
  6
HIDDEN
 62
     7
370
     0
100
AcDbSpline
210
0.0
220
0.0
230
1.0
 70
     8
 71
     3
 72
     8
 73
     4
 74
     0
 42
0.00000001
 43
0.00000001
 40
0.0
 40
0.0
 40
0.0
 40
0.0
 40
1.0
 40
1.0
 40
1.0
 40
1.0
 10
185.434190826929
 20
113.5853373282581
 30
0.0
 10
185.3923224001147
 20
113.5411517347212
 30
0.0
 10
185.3465504810288
 20
113.4948458606559
 30
0.0
 10
185.2973827695988
 20
113.444720211715
 30
0.0
  0
SPLINE
  5
13C
330
1F
100
AcDbEntity
  8
0
  6
HIDDEN
 62
     7
370
     0
100
AcDbSpline
210
0.0
220
0.0
230
1.0
 70
     8
 71
     3
 72
    10
 73
     6
 74
     0
 42
0.00000001
 43
0.00000001
 40
0.0
 40
0.0
 40
0.0
 40
0.0
 40
0.5
 40
0.5
 40
1.0
 40
1.0
 40
1.0
 40
1.0
 10
182.711701083357
 20
117.0613723173181
 30
0.0
 10
182.7017188380661
 20
117.1232907157605
 30
0.0
 10
182.6951482078227
 20
117.1801920392083
 30
0.0
 10
182.6907630593277
 20
117.2829933955434
 30
0.0
 10
182.6931107043507
 20
117.3257226485243
 30
0.0
 10
182.6996228893367
 20
117.3599129246241
 30
0.0
  0
SPLINE
  5
13D
330
1F
100
AcDbEntity
  8
0
  6
HIDDEN
 62
     7
370
     0
100
AcDbSpline
210
0.0
220
0.0
230
1.0
 70
     8
 71
     3
 72
    18
 73
    14
 74
     0
 42
0.00000001
 43
0.00000001
 40
0.0
 40
0.0
 40
0.0
 40
0.0
 40
0.0196114411167403
 40
0.1648741297061081
 40
0.2236902984682435
 40
0.2831430743180802
 40
0.3347406426486688
 40
0.3933560174137692
 40
0.4938616378942902
 40
0.6439170356198045
 40
0.7947426143055129
 40
0.9415561435747098
 40
1.0
 40
1.0
 40
1.0
 40
1.0
 10
182.7227928233441
 20
117.4194598418903
 30
0.0
 10
182.7241075143737
 20
117.4230869876696
 30
0.0
 10
182.7351601717507
 20
117.4535805398834
 30
0.0
 10
182.7619127219957
 20
117.4537153920478
 30
0.0
 10
182.7854558929819
 20
117.4290277030716
 30
0.0
 10
182.7943970735268
 20
117.3885159312646
 30
0.0
 10
182.7896666344496
 20
117.321866263954
 30
0.0
 10
182.7713584198262
 20
117.22494602015
 30
0.0
 10
182.7374050726538
 20
117.079588384865
 30
0.0
 10
182.7009292907447
 20
116.8975890536514
 30
0.0
 10
182.6876293268001
 20
116.726739497214
 30
0.0
 10
182.698964667894
 20
116.6185824437
 30
0.0
 10
182.7182031868952
 20
116.5940228442906
 30
0.0
 10
182.7236810567343
 20
116.5870298793511
 30
0.0
  0
LWPOLYLINE
  5
13E
330
1F
100
AcDbEntity
  8
0
  6
HIDDEN
 62
     7
370
     0
100
AcDbPolyline
 90
        8
 70
   128
 43
0.0
 10
182.7471140802
 20
116.5504550804
 10
182.7724329204
 20
116.5493824259
 10
182.7872935231
 20
116.5713005637
 10
182.7922727998
 20
116.6060211232
 10
182.789492213
 20
116.6560272567
 10
182.7762005844
 20
116.7379380679
 10
182.7444944866
 20
116.889357306
 10
182.7117010834
 20
117.0613723173
  0
SPLINE
  5
13F
330
1F
100
AcDbEntity
  8
0
  6
HIDDEN
 62
     7
370
     0
100
AcDbSpline
210
0.0
220
0.0
230
1.0
 70
     8
 71
     3
 72
    14
 73
    10
 74
     0
 42
0.00000001
 43
0.00000001
 40
0.0
 40
0.0
 40
0.0
 40
0.0
 40
0.25
 40
0.25
 40
0.5
 40
0.5
 40
0.75
 40
0.75
 40
1.0
 40
1.0
 40
1.0
 40
1.0
 10
183.2384146498606
 20
118.1582005808445
 30
0.0
 10
183.2761616274481
 20
118.1250849089207
 30
0.0
 10
183.3092608196465
 20
118.0844152511584
 30
0.0
 10
183.3552312735539
 20
117.9831445684616
 30
0.0
 10
183.3664592444757
 20
117.9244989887847
 30
0.0
 10
183.3576053430586
 20
117.790827239956
 30
0.0
 10
183.3375858932838
 20
117.7183392737906
 30
0.0
 10
183.2780281994172
 20
117.5680567011783
 30
0.0
 10
183.2398619961156
 20
117.4920185050183
 30
0.0
 10
183.1984065817677
 20
117.4140225246715
 30
0.0
  0
SPLINE
  5
140
330
1F
100
AcDbEntity
  8
0
  6
HIDDEN
 62
     7
370
     0
100
AcDbSpline
210
0.0
220
0.0
230
1.0
 70
     8
 71
     3
 72
    14
 73
    10
 74
     0
 42
0.00000001
 43
0.00000001
 40
0.0
 40
0.0
 40
0.0
 40
0.0
 40
0.25
 40
0.25
 40
0.5
 40
0.5
 40
0.75
 40
0.75
 40
1.0
 40
1.0
 40
1.0
 40
1.0
 10
183.1984065817679
 20
117.4140225246717
 30
0.0
 10
183.1638421553653
 20
117.4504819184418
 30
0.0
 10
183.1304519516171
 20
117.4854544496689
 30
0.0
 10
183.0748552059521
 20
117.5640408378602
 30
0.0
 10
183.0517228782218
 20
117.6090505352656
 30
0.0
 10
183.0631591677557
 20
117.7523029163055
 30
0.0
 10
183.0942027483073
 20
117.8374712440643
 30
0.0
 10
183.1610588572481
 20
117.9994671338201
 30
0.0
 10
183.1990609856085
 20
118.0795578843425
 30
0.0
 10
183.2384146498603
 20
118.1582005808463
 30
0.0
  0
LWPOLYLINE
  5
141
330
1F
100
AcDbEntity
  8
0
  6
HIDDEN
 62
     7
370
     0
100
AcDbPolyline
 90
       18
 70
   128
 43
0.0
 10
184.1921567877
 20
117.2445928327
 10
184.734019287
 20
117.3162168495
 10
185.2027002532
 20
117.5214156794
 10
185.5349017248
 20
117.8324760835
 10
185.6857580522
 20
118.2073876305
 10
185.6348952525
 20
118.5955164386
 10
185.3891826286
 20
118.9444435615
 10
184.981805032
 20
119.2070444578
 10
184.4677810644
 20
119.3478534213
 10
183.916532511
 20
119.3478534213
 10
183.4025085434
 20
119.2070444578
 10
182.9951309468
 20
118.9444435615
 10
182.749418323
 20
118.5955164386
 10
182.6985555233
 20
118.2073876305
 10
182.8494118507
 20
117.8324760835
 10
183.1816133222
 20
117.5214156794
 10
183.6502942884
 20
117.3162168495
 10
184.1921567877
 20
117.2445928327
  0
SPLINE
  5
142
330
1F
100
AcDbEntity
  8
0
  6
HIDDEN
 62
     7
370
     0
100
AcDbSpline
210
0.0
220
0.0
230
1.0
 70
     8
 71
     3
 72
    48
 73
    44
 74
     0
 42
0.00000001
 43
0.00000001
 40
-0.0625000000000008
 40
-0.0625000000000008
 40
0.0
 40
0.0
 40
0.0625000000000001
 40
0.0625000000000001
 40
0.1250000000000002
 40
0.1250000000000002
 40
0.1875000000000003
 40
0.1875000000000003
 40
0.2500000000000003
 40
0.2500000000000003
 40
0.3125000000000004
 40
0.3125000000000004
 40
0.3437500000000003
 40
0.3437500000000003
 40
0.3750000000000002
 40
0.3750000000000002
 40
0.4062500000000002
 40
0.4062500000000002
 40
0.4375000000000001
 40
0.4375000000000001
 40
0.5
 40
0.5
 40
0.5624999999999999
 40
0.5624999999999999
 40
0.6249999999999998
 40
0.6249999999999998
 40
0.6562499999999996
 40
0.6562499999999996
 40
0.6874999999999994
 40
0.6874999999999994
 40
0.7499999999999991
 40
0.7499999999999991
 40
0.812499999999999
 40
0.812499999999999
 40
0.8437499999999991
 40
0.8437499999999991
 40
0.8749999999999991
 40
0.8749999999999991
 40
0.9062499999999992
 40
0.9062499999999992
 40
0.9374999999999992
 40
0.9374999999999992
 40
1.0
 40
1.0
 40
1.0625
 40
1.0625
 10
185.4859029967434
 20
117.1028361849224
 30
0.0
 10
185.322747640753
 20
116.7908120574701
 30
0.0
 10
185.2350437315017
 20
116.6414808041704
 30
0.0
 10
185.0830519020508
 20
116.3459967675858
 30
0.0
 10
185.0221642843591
 20
116.2010334406236
 30
0.0
 10
185.020480447914
 20
115.9497913537637
 30
0.0
 10
185.0789271484177
 20
115.8574957621789
 30
0.0
 10
185.2239502177768
 20
115.7346998703584
 30
0.0
 10
185.3094693260374
 20
115.7019399427363
 30
0.0
 10
185.4687616683151
 20
115.6903480553656
 30
0.0
 10
185.5434757101002
 20
115.7120952265917
 30
0.0
 10
185.6271301171508
 20
115.7966517885847
 30
0.0
 10
185.6496934749819
 20
115.8330440168013
 30
0.0
 10
185.6815304483132
 20
115.9229734716809
 30
0.0
 10
185.6906814469301
 20
115.9772219499709
 30
0.0
 10
185.6932932211197
 20
116.0977853028742
 30
0.0
 10
185.6868382337265
 20
116.1658810905787
 30
0.0
 10
185.65965088325
 20
116.3097702259782
 30
0.0
 10
185.63913109878
 20
116.3854694613213
 30
0.0
 10
185.5607155292595
 20
116.619818769166
 30
0.0
 10
185.4875295348827
 20
116.7805257539138
 30
0.0
 10
185.33055027916
 20
117.0906719517877
 30
0.0
 10
185.2441749781104
 20
117.2436329382622
 30
0.0
 10
185.0950735238553
 20
117.5375934331749
 30
0.0
 10
185.0303211745874
 20
117.6848385680382
 30
0.0
 10
185.0181486373222
 20
117.8766280837732
 30
0.0
 10
185.0285298651873
 20
117.9337505423397
 30
0.0
 10
185.0721707965399
 20
118.0307458380531
 30
0.0
 10
185.1039696708181
 20
118.0695501791207
 30
0.0
 10
185.2140232298801
 20
118.1633506860092
 30
0.0
 10
185.3016897368095
 20
118.1936729960506
 30
0.0
 10
185.4664264044282
 20
118.1989197372903
 30
0.0
 10
185.5417395960824
 20
118.1730642657568
 30
0.0
 10
185.6264535420166
 20
118.0837393936679
 30
0.0
 10
185.6491506099405
 20
118.0462159789124
 30
0.0
 10
185.6814038779518
 20
117.9540887710668
 30
0.0
 10
185.6905626195995
 20
117.8996485298046
 30
0.0
 10
185.6933619184326
 20
117.7790508154765
 30
0.0
 10
185.6869679767301
 20
117.7111080103071
 30
0.0
 10
185.6598749126478
 20
117.5686509960704
 30
0.0
 10
185.6392531408574
 20
117.4935225531119
 30
0.0
 10
185.5601583245171
 20
117.2616535492535
 30
0.0
 10
185.4859029967434
 20
117.1028361849224
 30
0.0
 10
185.322747640753
 20
116.7908120574701
 30
0.0
  0
SPLINE
  5
143
330
1F
100
AcDbEntity
  8
0
  6
HIDDEN
 62
     7
370
     0
100
AcDbSpline
210
0.0
220
0.0
230
1.0
 70
     8
 71
     3
 72
    12
 73
     8
 74
     0
 42
0.00000001
 43
0.00000001
 40
0.0
 40
0.0
 40
0.0
 40
0.0
 40
0.5
 40
0.5
 40
0.75
 40
0.75
 40
1.0
 40
1.0
 40
1.0
 40
1.0
 10
183.1984065817678
 20
115.8250225069417
 30
0.0
 10
183.281213227001
 20
115.8772449850521
 30
0.0
 10
183.3527966711157
 20
115.9639049174593
 30
0.0
 10
183.3665632408277
 20
116.1530440877246
 30
0.0
 10
183.3552228013114
 20
116.2222995712702
 30
0.0
 10
183.3092601385255
 20
116.3690230609824
 30
0.0
 10
183.2761644161232
 20
116.4438031261388
 30
0.0
 10
183.2384146498605
 20
116.5209004040448
 30
0.0
  0
SPLINE
  5
144
330
1F
100
AcDbEntity
  8
0
  6
HIDDEN
 62
     7
370
     0
100
AcDbSpline
210
0.0
220
0.0
230
1.0
 70
     8
 71
     3
 72
    18
 73
    14
 74
     0
 42
0.00000001
 43
0.00000001
 40
0.0
 40
0.0
 40
0.0
 40
0.0
 40
0.2499999999999991
 40
0.2499999999999991
 40
0.3749999999999991
 40
0.3749999999999991
 40
0.4999999999999991
 40
0.4999999999999991
 40
0.6249999999999991
 40
0.6249999999999991
 40
0.7499999999999991
 40
0.7499999999999991
 40
1.0
 40
1.0
 40
1.0
 40
1.0
 10
183.2384146498607
 20
116.5209004040447
 30
0.0
 10
183.1989662737323
 20
116.4880265099664
 30
0.0
 10
183.1608095932286
 20
116.4571380108715
 30
0.0
 10
183.1105793119945
 20
116.4069036435252
 30
0.0
 10
183.0950500001572
 20
116.3895074602896
 30
0.0
 10
183.0697905961662
 20
116.3482645245858
 30
0.0
 10
183.0602189268564
 20
116.3237989700962
 30
0.0
 10
183.0546348189397
 20
116.2624727318682
 30
0.0
 10
183.058966165713
 20
116.2250345313465
 30
0.0
 10
183.0763692998054
 20
116.1471510845818
 30
0.0
 10
183.0889783449234
 20
116.1063975262925
 30
0.0
 10
183.1306792917971
 20
115.9852781570996
 30
0.0
 10
183.163918488997
 20
115.9045386369148
 30
0.0
 10
183.1984065817678
 20
115.8250225069417
 30
0.0
  0
ARC
  5
145
330
1F
100
AcDbEntity
  8
0
  6
HIDDEN
 62
     7
370
     0
100
AcDbCircle
 10
199.3284897065
 20
116.9200108449
 30
0.0
 40
16.13764633239489
100
AcDbArc
 50
175.5995541951
 51
178.2457660564
  0
ARC
  5
146
330
1F
100
AcDbEntity
  8
0
  6
HIDDEN
 62
     7
370
     0
100
AcDbCircle
 10
170.1797455759
 20
116.9225926781
 30
0.0
 40
13.06484575745825
100
AcDbArc
 50
355.1809346774
 51
358.2381039881
  0
LWPOLYLINE
  5
147
330
1F
100
AcDbEntity
  8
0
  6
HIDDEN
 62
     7
370
     0
100
AcDbPolyline
 90
       32
 70
   128
 43
0.0
 10
148.1921567877
 20
157.2539978256
 10
149.1986493882
 20
157.2223698455
 10
150.1639360633
 20
157.1287807583
 10
151.0484978632
 20
156.9770621122
 10
151.8161207239
 20
156.7734252865
 10
152.4353780752
 20
156.5262071968
 10
152.8809174485
 20
156.2455289806
 10
153.1344984094
 20
155.9428816371
 10
153.1857393236
 20
155.6306555841
 10
153.032542382
 20
155.321633393
 10
152.6811794856
 20
155.0284664685
 10
152.1460354724
 20
154.7631570989
 10
151.4490192013
 20
154.5365670811
 10
150.6186666004
 20
154.3579730369
 10
149.6889724026
 20
154.2346866276
 10
148.6979983977
 20
154.1717552132
 10
147.6863151778
 20
154.1717552132
 10
146.6953411729
 20
154.2346866276
 10
145.7656469751
 20
154.3579730369
 10
144.9352943741
 20
154.5365670811
 10
144.238278103
 20
154.7631570989
 10
143.7031340899
 20
155.0284664685
 10
143.3517711934
 20
155.321633393
 10
143.1985742519
 20
155.6306555841
 10
143.2498151661
 20
155.9428816371
 10
143.503396127
 20
156.2455289806
 10
143.9489355002
 20
156.5262071968
 10
144.5681928516
 20
156.7734252865
 10
145.3358157122
 20
156.9770621122
 10
146.2203775122
 20
157.1287807583
 10
147.1856641873
 20
157.2223698455
 10
148.1921567877
 20
157.2539978256
  0
LINE
  5
148
330
1F
100
AcDbEntity
  8
0
  6
HIDDEN
 62
     7
370
     0
100
AcDbLine
 10
162.4541858086
 20
150.8922547347
 30
0.0
 11
162.4541858086
 21
143.2912919738
 31
0.0
  0
LINE
  5
149
330
1F
100
AcDbEntity
  8
0
  6
HIDDEN
 62
     7
370
     0
100
AcDbLine
 10
161.1021567877
 20
146.6555271663
 30
0.0
 11
161.1021567877
 21
143.2912919738
 31
0.0
  0
LINE
  5
14A
330
1F
100
AcDbEntity
  8
0
  6
HIDDEN
 62
     7
370
     0
100
AcDbLine
 10
157.2821567877
 20
146.6555271663
 30
0.0
 11
157.2821567877
 21
143.2912919738
 31
0.0
  0
CIRCLE
  5
14B
330
1F
100
AcDbEntity
  8
0
  6
HIDDEN
 62
     7
370
     0
100
AcDbCircle
 10
146.1921567877
 20
111.9412919738
 30
0.0
 40
5.000000000000014
  0
LINE
  5
14C
330
1F
100
AcDbEntity
  8
0
  6
HIDDEN
 62
     7
370
     0
100
AcDbLine
 10
213.6830446402
 20
109.2223721696
 30
0.0
 11
213.1976958921
 21
108.7088880645
 31
0.0
  0
LINE
  5
14D
330
1F
100
AcDbEntity
  8
0
  6
HIDDEN
 62
     7
370
     0
100
AcDbLine
 10
213.2532176395
 20
106.7104305864
 30
0.0
 11
213.7663272612
 21
106.2246859524
 31
0.0
  0
LINE
  5
14E
330
1F
100
AcDbEntity
  8
0
  6
HIDDEN
 62
     7
370
     0
100
AcDbLine
 10
219.0181223761
 20
109.3711716861
 30
0.0
 11
213.6841845722
 21
109.22298262
 31
0.0
  0
LINE
  5
14F
330
1F
100
AcDbEntity
  8
0
  6
HIDDEN
 62
     7
370
     0
100
AcDbLine
 10
213.7674993282
 20
106.2241397346
 30
0.0
 11
219.1014371321
 21
106.3723288007
 31
0.0
  0
LINE
  5
150
330
1F
100
AcDbEntity
  8
0
  6
HIDDEN
 62
     7
370
     0
100
AcDbLine
 10
219.103391161
 20
106.3741201002
 30
0.0
 11
219.1921567877
 21
106.5384921756
 31
0.0
  0
LINE
  5
151
330
1F
100
AcDbEntity
  8
0
  6
HIDDEN
 62
     7
370
     0
100
AcDbLine
 10
219.189401234
 20
109.0939097842
 30
0.0
 11
219.020172847
 21
109.3694916409
 31
0.0
  0
LINE
  5
152
330
1F
100
AcDbEntity
  8
0
  6
HIDDEN
 62
     7
370
     0
100
AcDbLine
 10
218.9612831233
 20
114.5147283989
 30
0.0
 11
219.1305115104
 21
114.7903102556
 31
0.0
  0
LINE
  5
153
330
1F
100
AcDbEntity
  8
0
  6
HIDDEN
 62
     7
370
     0
100
AcDbLine
 10
219.1921567877
 20
117.236678602
 30
0.0
 11
219.0445014374
 21
117.5100999395
 31
0.0
  0
LINE
  5
154
330
1F
100
AcDbEntity
  8
0
  6
HIDDEN
 62
     7
370
     0
100
AcDbLine
 10
219.0425474085
 20
117.511891239
 30
0.0
 11
213.7086096046
 21
117.6600803051
 31
0.0
  0
LINE
  5
155
330
1F
100
AcDbEntity
  8
0
  6
HIDDEN
 62
     7
370
     0
100
AcDbLine
 10
213.6252948486
 20
114.6612374197
 30
0.0
 11
218.9592326525
 21
114.5130483536
 31
0.0
  0
LINE
  5
156
330
1F
100
AcDbEntity
  8
0
  6
HIDDEN
 62
     7
370
     0
100
AcDbLine
 10
213.7074375376
 20
117.6595340873
 30
0.0
 11
213.1943279158
 21
117.1737894533
 31
0.0
  0
LINE
  5
157
330
1F
100
AcDbEntity
  8
0
  6
HIDDEN
 62
     7
370
     0
100
AcDbLine
 10
213.1388061684
 20
115.1753319752
 30
0.0
 11
213.6241549165
 21
114.6618478702
 31
0.0
  0
LINE
  5
158
330
1F
100
AcDbEntity
  8
0
  6
HIDDEN
 62
     7
370
     0
100
AcDbLine
 10
139.1921567877
 20
72.5366090173
 30
0.0
 11
139.2817584116
 21
73.1741576992
 31
0.0
  0
LINE
  5
159
330
1F
100
AcDbEntity
  8
0
  6
HIDDEN
 62
     7
370
     0
100
AcDbLine
 10
139.2817584116
 20
150.7084262485
 30
0.0
 11
139.1921567877
 21
151.3459749304
 31
0.0
  0
ARC
  5
15A
330
1F
100
AcDbEntity
  8
0
  6
HIDDEN
 62
     7
370
     0
100
AcDbCircle
 10
138.2952198693
 20
73.3128066494
 30
0.0
 40
0.9962338214386983
100
AcDbArc
 50
352.0
 51
0.0
  0
ARC
  5
15B
330
1F
100
AcDbEntity
  8
0
  6
HIDDEN
 62
     7
370
     0
100
AcDbCircle
 10
138.2952198693
 20
73.3128066494
 30
0.0
 40
0.9962338214386983
100
AcDbArc
 50
0.0
 51
25.7988228126
  0
ARC
  5
15C
330
1F
100
AcDbEntity
  8
0
  6
HIDDEN
 62
     7
370
     0
100
AcDbCircle
 10
138.2952198693
 20
150.5697772983
 30
0.0
 40
0.9962338214386963
100
AcDbArc
 50
348.75
 51
8.0
  0
LWPOLYLINE
  5
15D
330
1F
100
AcDbEntity
  8
0
  6
HIDDEN
 62
     7
370
     0
100
AcDbPolyline
 90
        3
 70
   128
 43
0.0
 10
139.2723113372
 20
150.3754217213
 10
139.2156199065
 20
150.1885351201
 10
139.1921567877
 20
150.1362037851
  0
LINE
  5
15E
330
1F
100
AcDbEntity
  8
0
  6
HIDDEN
 62
     7
370
     0
100
AcDbLine
 10
139.2914536907
 20
73.3128066494
 30
0.0
 11
139.2914536907
 21
150.5697772983
 31
0.0
  0
ARC
  5
15F
330
1F
100
AcDbEntity
  8
0
  6
HIDDEN
 62
     7
370
     0
100
AcDbCircle
 10
129.4453624429
 20
92.4412919738
 30
0.0
 40
11.99999999999999
100
AcDbArc
 50
273.5502616775
 51
324.3146652873
  0
ARC
  5
160
330
1F
100
AcDbEntity
  8
0
  6
HIDDEN
 62
     7
370
     0
100
AcDbCircle
 10
129.4453624429
 20
131.4412919738
 30
0.0
 40
12.00000000000002
100
AcDbArc
 50
35.6853347127
 51
86.449900593
  0
ARC
  5
161
330
1F
100
AcDbEntity
  8
0
  6
HIDDEN
 62
     7
370
     0
100
AcDbCircle
 10
112.6528827299
 20
81.4412919738
 30
0.0
 40
1.000000000000008
100
AcDbArc
 50
210.0
 51
270.0
  0
ARC
  5
162
330
1F
100
AcDbEntity
  8
0
  6
HIDDEN
 62
     7
370
     0
100
AcDbCircle
 10
112.6528827299
 20
142.4412919738
 30
0.0
 40
1.000000000000008
100
AcDbArc
 50
90.0
 51
150.0
  0
LINE
  5
163
330
1F
100
AcDbEntity
  8
0
  6
HIDDEN
 62
     7
370
     0
100
AcDbLine
 10
112.6528827299
 20
80.4412919738
 30
0.0
 11
118.2110739021
 21
80.4412919738
 31
0.0
  0
LINE
  5
164
330
1F
100
AcDbEntity
  8
0
  6
HIDDEN
 62
     7
370
     0
100
AcDbLine
 10
118.2110739021
 20
143.4412919738
 30
0.0
 11
112.6528827299
 21
143.4412919738
 31
0.0
  0
LINE
  5
165
330
1F
100
AcDbEntity
  8
0
  6
HIDDEN
 62
     7
370
     0
100
AcDbLine
 10
111.7868573261
 20
142.9412919738
 30
0.0
 11
109.1887811147
 21
138.4412919738
 31
0.0
  0
LINE
  5
166
330
1F
100
AcDbEntity
  8
0
  6
HIDDEN
 62
     7
370
     0
100
AcDbLine
 10
109.1887811147
 20
85.4412919738
 30
0.0
 11
111.7868573261
 21
80.9412919738
 31
0.0
  0
ARC
  5
167
330
1F
100
AcDbEntity
  8
0
  6
HIDDEN
 62
     7
370
     0
100
AcDbCircle
 10
149.6421567877
 20
87.0662919738
 30
0.0
 40
2.000000000000008
100
AcDbArc
 50
234.3409123039
 51
0.0
  0
ARC
  5
168
330
1F
100
AcDbEntity
  8
0
  6
HIDDEN
 62
     7
370
     0
100
AcDbCircle
 10
149.6421567877
 20
136.8162919738
 30
0.0
 40
2.00000000000002
100
AcDbArc
 50
0.0
 51
125.6590876961
  0
LINE
  5
169
330
1F
100
AcDbEntity
  8
0
  6
HIDDEN
 62
     7
370
     0
100
AcDbLine
 10
104.3921567877
 20
85.4412919738
 30
0.0
 11
109.1887811147
 21
85.4412919738
 31
0.0
  0
LINE
  5
16A
330
1F
100
AcDbEntity
  8
0
  6
HIDDEN
 62
     7
370
     0
100
AcDbLine
 10
109.1887811147
 20
138.4412919738
 30
0.0
 11
99.3921567877
 21
138.4412919738
 31
0.0
  0
LINE
  5
16B
330
1F
100
AcDbEntity
  8
0
  6
HIDDEN
 62
     7
370
     0
100
AcDbLine
 10
139.1921567877
 20
85.4412919738
 30
0.0
 11
148.4762344061
 21
85.4412919738
 31
0.0
  0
LINE
  5
16C
330
1F
100
AcDbEntity
  8
0
  6
HIDDEN
 62
     7
370
     0
100
AcDbLine
 10
148.4762344061
 20
138.4412919738
 30
0.0
 11
139.1921567877
 21
138.4412919738
 31
0.0
  0
LINE
  5
16D
330
1F
100
AcDbEntity
  8
0
  6
HIDDEN
 62
     7
370
     0
100
AcDbLine
 10
143.1921567877
 20
157.612845353
 30
0.0
 11
143.1921567877
 21
153.9187057525
 31
0.0
  0
LINE
  5
16E
330
1F
100
AcDbEntity
  8
0
  6
HIDDEN
 62
     7
370
     0
100
AcDbLine
 10
153.1921567877
 20
153.9187057525
 30
0.0
 11
153.1921567877
 21
157.6183536114
 31
0.0
  0
LINE
  5
16F
330
1F
100
AcDbEntity
  8
0
  6
HIDDEN
 62
     7
370
     0
100
AcDbLine
 10
163.4921567877
 20
98.9412919738
 30
0.0
 11
167.4921567877
 21
98.9412919738
 31
0.0
  0
LINE
  5
170
330
1F
100
AcDbEntity
  8
0
  6
HIDDEN
 62
     7
370
     0
100
AcDbLine
 10
167.4921567877
 20
124.9412919738
 30
0.0
 11
163.4921567877
 21
124.9412919738
 31
0.0
  0
LINE
  5
171
330
1F
100
AcDbEntity
  8
0
  6
HIDDEN
 62
     7
370
     0
100
AcDbLine
 10
151.6421567877
 20
99.9412919738
 30
0.0
 11
152.3921567877
 21
100.6912919738
 31
0.0
  0
LINE
  5
172
330
1F
100
AcDbEntity
  8
0
  6
HIDDEN
 62
     7
370
     0
100
AcDbLine
 10
152.3921567877
 20
123.1912919738
 30
0.0
 11
151.6421567877
 21
123.9412919738
 31
0.0
  0
LINE
  5
173
330
1F
100
AcDbEntity
  8
0
  6
HIDDEN
 62
     7
370
     0
100
AcDbLine
 10
152.3921567877
 20
100.6912919738
 30
0.0
 11
163.4921567877
 21
100.6912919738
 31
0.0
  0
LINE
  5
174
330
1F
100
AcDbEntity
  8
0
  6
HIDDEN
 62
     7
370
     0
100
AcDbLine
 10
163.4921567877
 20
123.1912919738
 30
0.0
 11
152.3921567877
 21
123.1912919738
 31
0.0
  0
LINE
  5
175
330
1F
100
AcDbEntity
  8
0
  6
HIDDEN
 62
     7
370
     0
100
AcDbLine
 10
144.1421567877
 20
161.9412919738
 30
0.0
 11
144.1421567877
 21
155.8412919738
 31
0.0
  0
LINE
  5
176
330
1F
100
AcDbEntity
  8
0
  6
HIDDEN
 62
     7
370
     0
100
AcDbLine
 10
185.6921567877
 20
107.8275518319
 30
0.0
 11
185.6921567877
 21
109.6916986748
 31
0.0
  0
LINE
  5
177
330
1F
100
AcDbEntity
  8
0
  6
HIDDEN
 62
     7
370
     0
100
AcDbLine
 10
185.6921567877
 20
104.7288028057
 30
0.0
 11
185.6921567877
 21
106.062065701
 31
0.0
  0
LINE
  5
178
330
1F
100
AcDbEntity
  8
0
  6
HIDDEN
 62
     7
370
     0
100
AcDbLine
 10
182.6921567877
 20
106.6154825758
 30
0.0
 11
182.6921567877
 21
104.7288028057
 31
0.0
  0
LINE
  5
179
330
1F
100
AcDbEntity
  8
0
  6
HIDDEN
 62
     7
370
     0
100
AcDbLine
 10
182.6921567877
 20
109.6092703572
 30
0.0
 11
182.6921567877
 21
107.1422746665
 31
0.0
  0
LINE
  5
17A
330
1F
100
AcDbEntity
  8
0
  6
HIDDEN
 62
     7
370
     0
100
AcDbLine
 10
130.6248694038
 20
74.3630124032
 30
0.0
 11
130.1921601173
 21
74.8412371206
 31
0.0
  0
LINE
  5
17B
330
1F
100
AcDbEntity
  8
0
  6
HIDDEN
 62
     7
370
     0
100
AcDbLine
 10
118.1921572457
 20
75.4881984773
 30
0.0
 11
117.7115299405
 21
75.0099737665
 31
0.0
  0
LINE
  5
17C
330
1F
100
AcDbEntity
  8
0
  6
HIDDEN
 62
     7
370
     0
100
AcDbLine
 10
117.711411599
 20
148.8726042651
 30
0.0
 11
118.1921570631
 21
148.3943245932
 31
0.0
  0
LINE
  5
17D
330
1F
100
AcDbEntity
  8
0
  6
HIDDEN
 62
     7
370
     0
100
AcDbLine
 10
130.1921567898
 20
149.0412969806
 30
0.0
 11
130.6249784596
 21
149.5195766535
 31
0.0
  0
LINE
  5
17E
330
1F
100
AcDbEntity
  8
0
  6
HIDDEN
 62
     7
370
     0
100
AcDbLine
 10
185.4043253187
 20
105.6862419576
 30
0.0
 11
219.1921567877
 21
106.6249456649
 31
0.0
  0
LINE
  5
17F
330
1F
100
AcDbEntity
  8
0
  6
HIDDEN
 62
     7
370
     0
100
AcDbLine
 10
219.1921567877
 20
109.1259102991
 30
0.0
 11
185.4039221036
 21
108.1871953895
 31
0.0
  0
LINE
  5
180
330
1F
100
AcDbEntity
  8
0
  6
HIDDEN
 62
     7
370
     0
100
AcDbLine
 10
130.1921567877
 20
74.8413561898
 30
0.0
 11
130.1921567877
 21
80.4649660712
 31
0.0
  0
LINE
  5
181
330
1F
100
AcDbEntity
  8
0
  6
HIDDEN
 62
     7
370
     0
100
AcDbLine
 10
118.1921567877
 20
80.4448827971
 30
0.0
 11
118.1921567877
 21
75.4882368918
 31
0.0
  0
LINE
  5
182
330
1F
100
AcDbEntity
  8
0
  6
HIDDEN
 62
     7
370
     0
100
AcDbLine
 10
130.1921567877
 20
143.4176178765
 30
0.0
 11
130.1921567877
 21
149.0411449787
 31
0.0
  0
LINE
  5
183
330
1F
100
AcDbEntity
  8
0
  6
HIDDEN
 62
     7
370
     0
100
AcDbLine
 10
118.1921567877
 20
148.3943140939
 30
0.0
 11
118.1921567877
 21
143.4377011506
 31
0.0
  0
LINE
  5
184
330
1F
100
AcDbEntity
  8
0
  6
HIDDEN
 62
     7
370
     0
100
AcDbLine
 10
182.7219137794
 20
107.3038151266
 30
0.0
 11
182.4694147615
 21
106.8551857059
 31
0.0
  0
LINE
  5
185
330
1F
100
AcDbEntity
  8
0
  6
HIDDEN
 62
     7
370
     0
100
AcDbLine
 10
182.4694147615
 20
106.8551857059
 30
0.0
 11
182.7213053084
 21
106.4606271989
 31
0.0
  0
LINE
  5
186
330
1F
100
AcDbEntity
  8
0
  6
HIDDEN
 62
     7
370
     0
100
AcDbLine
 10
182.5921567877
 20
108.6412919738
 30
0.0
 11
185.2973827696
 21
108.6412919738
 31
0.0
  0
LINE
  5
187
330
1F
100
AcDbEntity
  8
0
  6
HIDDEN
 62
     7
370
     0
100
AcDbLine
 10
185.2973827696
 20
115.2412919738
 30
0.0
 11
182.5921567877
 21
115.2412919738
 31
0.0
  0
ARC
  5
188
330
1F
100
AcDbEntity
  8
0
  6
HIDDEN
 62
     7
370
     0
100
AcDbCircle
 10
185.2973827696
 20
114.8412919738
 30
0.0
 40
0.4000000000000057
100
AcDbArc
 50
70.0
 51
90.0
  0
ARC
  5
189
330
1F
100
AcDbEntity
  8
0
  6
HIDDEN
 62
     7
370
     0
100
AcDbCircle
 10
218.8921567877
 20
108.6412919738
 30
0.0
 40
0.2999999999999829
100
AcDbArc
 50
0.0
 51
90.0
  0
ARC
  5
18A
330
1F
100
AcDbEntity
  8
0
  6
HIDDEN
 62
     7
370
     0
100
AcDbCircle
 10
218.8921567877
 20
115.2412919738
 30
0.0
 40
0.2999999999999972
100
AcDbArc
 50
270.0
 51
0.0
  0
ARC
  5
18B
330
1F
100
AcDbEntity
  8
0
  6
HIDDEN
 62
     7
370
     0
100
AcDbCircle
 10
182.5921567877
 20
109.0412919738
 30
0.0
 40
0.4000000000000057
100
AcDbArc
 50
180.0
 51
270.0
  0
ARC
  5
18C
330
1F
100
AcDbEntity
  8
0
  6
HIDDEN
 62
     7
370
     0
100
AcDbCircle
 10
182.5921567877
 20
114.8412919738
 30
0.0
 40
0.4000000000000057
100
AcDbArc
 50
90.0
 51
180.0
  0
LINE
  5
18D
330
1F
100
AcDbEntity
  8
0
  6
HIDDEN
 62
     7
370
     0
100
AcDbLine
 10
185.4341908269
 20
108.6654149255
 30
0.0
 11
186.1921567877
 21
108.9412919738
 31
0.0
  0
LINE
  5
18E
330
1F
100
AcDbEntity
  8
0
  6
HIDDEN
 62
     7
370
     0
100
AcDbLine
 10
186.1921567877
 20
114.9412919738
 30
0.0
 11
185.4341908269
 21
115.2171690222
 31
0.0
  0
LINE
  5
18F
330
1F
100
AcDbEntity
  8
0
  6
HIDDEN
 62
     7
370
     0
100
AcDbLine
 10
184.6421567877
 20
96.9412919738
 30
0.0
 11
183.6421567877
 21
97.518642243
 31
0.0
  0
LINE
  5
190
330
1F
100
AcDbEntity
  8
0
  6
HIDDEN
 62
     7
370
     0
100
AcDbLine
 10
178.6421567877
 20
97.518642243
 30
0.0
 11
177.6421567877
 21
96.9412919738
 31
0.0
  0
LINE
  5
191
330
1F
100
AcDbEntity
  8
0
  6
HIDDEN
 62
     7
370
     0
100
AcDbLine
 10
177.6421567877
 20
126.9412919738
 30
0.0
 11
178.6421567877
 21
126.3639417047
 31
0.0
  0
LINE
  5
192
330
1F
100
AcDbEntity
  8
0
  6
HIDDEN
 62
     7
370
     0
100
AcDbLine
 10
183.6421567877
 20
126.3639417047
 30
0.0
 11
184.6421567877
 21
126.9412919738
 31
0.0
  0
LINE
  5
193
330
1F
100
AcDbEntity
  8
0
  6
HIDDEN
 62
     7
370
     0
100
AcDbLine
 10
186.1921567877
 20
108.9412919738
 30
0.0
 11
218.8921567877
 21
108.9412919738
 31
0.0
  0
LINE
  5
194
330
1F
100
AcDbEntity
  8
0
  6
HIDDEN
 62
     7
370
     0
100
AcDbLine
 10
218.8921567877
 20
114.9412919738
 30
0.0
 11
186.1921567877
 21
114.9412919738
 31
0.0
  0
LINE
  5
195
330
1F
100
AcDbEntity
  8
0
  6
HIDDEN
 62
     7
370
     0
100
AcDbLine
 10
178.6421567877
 20
126.3639417047
 30
0.0
 11
178.6421567877
 21
117.9412919738
 31
0.0
  0
LINE
  5
196
330
1F
100
AcDbEntity
  8
0
  6
HIDDEN
 62
     7
370
     0
100
AcDbLine
 10
183.6421567877
 20
117.9412919738
 30
0.0
 11
183.6421567877
 21
126.3639417047
 31
0.0
  0
LINE
  5
197
330
1F
100
AcDbEntity
  8
0
  6
HIDDEN
 62
     7
370
     0
100
AcDbLine
 10
178.6421567877
 20
117.9412919738
 30
0.0
 11
181.1421567877
 21
116.4391404263
 31
0.0
  0
LINE
  5
198
330
1F
100
AcDbEntity
  8
0
  6
HIDDEN
 62
     7
370
     0
100
AcDbLine
 10
181.1421567877
 20
116.4391404263
 30
0.0
 11
183.6421567877
 21
117.9412919738
 31
0.0
  0
LINE
  5
199
330
1F
100
AcDbEntity
  8
0
  6
HIDDEN
 62
     7
370
     0
100
AcDbLine
 10
183.6421567877
 20
105.9412919738
 30
0.0
 11
181.1421567877
 21
107.4434435214
 31
0.0
  0
LINE
  5
19A
330
1F
100
AcDbEntity
  8
0
  6
HIDDEN
 62
     7
370
     0
100
AcDbLine
 10
181.1421567877
 20
107.4434435214
 30
0.0
 11
178.6421567877
 21
105.9412919738
 31
0.0
  0
LINE
  5
19B
330
1F
100
AcDbEntity
  8
0
  6
HIDDEN
 62
     7
370
     0
100
AcDbLine
 10
183.6421567877
 20
97.518642243
 30
0.0
 11
183.6421567877
 21
105.9412919738
 31
0.0
  0
LINE
  5
19C
330
1F
100
AcDbEntity
  8
0
  6
HIDDEN
 62
     7
370
     0
100
AcDbLine
 10
178.6421567877
 20
105.9412919738
 30
0.0
 11
178.6421567877
 21
97.518642243
 31
0.0
  0
LINE
  5
19D
330
1F
100
AcDbEntity
  8
0
  6
HIDDEN
 62
     7
370
     0
100
AcDbLine
 10
167.4921567877
 20
109.8412919738
 30
0.0
 11
182.1921567877
 21
109.8412919738
 31
0.0
  0
LINE
  5
19E
330
1F
100
AcDbEntity
  8
0
  6
HIDDEN
 62
     7
370
     0
100
AcDbLine
 10
182.1921567877
 20
114.0412919738
 30
0.0
 11
167.4921567877
 21
114.0412919738
 31
0.0
  0
ARC
  5
19F
330
1F
100
AcDbEntity
  8
0
  6
HIDDEN
 62
     7
370
     0
100
AcDbCircle
 10
185.2973827696
 20
109.0412919738
 30
0.0
 40
0.3999999999999977
100
AcDbArc
 50
270.0
 51
290.0
  0
LINE
  5
1A0
330
1F
100
AcDbEntity
  8
0
  6
HIDDEN
 62
     7
370
     0
100
AcDbLine
 10
185.6921567877
 20
117.8139727067
 30
0.0
 11
185.6921567877
 21
118.3052530045
 31
0.0
  0
LINE
  5
1A1
330
1F
100
AcDbEntity
  8
0
  6
HIDDEN
 62
     7
370
     0
100
AcDbLine
 10
185.6921567877
 20
114.1902179031
 30
0.0
 11
185.6921567877
 21
116.0620528969
 31
0.0
  0
LINE
  5
1A2
330
1F
100
AcDbEntity
  8
0
  6
HIDDEN
 62
     7
370
     0
100
AcDbLine
 10
182.6921567877
 20
116.7417012306
 30
0.0
 11
182.6921567877
 21
114.269723655
 31
0.0
  0
LINE
  5
1A3
330
1F
100
AcDbEntity
  8
0
  6
HIDDEN
 62
     7
370
     0
100
AcDbLine
 10
182.6921567877
 20
118.3052530045
 30
0.0
 11
182.6921567877
 21
117.2635032182
 31
0.0
  0
LINE
  5
1A4
330
1F
100
AcDbEntity
  8
0
  6
HIDDEN
 62
     7
370
     0
100
AcDbLine
 10
185.4031230904
 20
115.6954107566
 30
0.0
 11
219.1921567877
 21
114.7566736486
 31
0.0
  0
LINE
  5
1A5
330
1F
100
AcDbEntity
  8
0
  6
HIDDEN
 62
     7
370
     0
100
AcDbLine
 10
219.1921567877
 20
117.2576382828
 30
0.0
 11
185.4032019589
 21
118.1963731996
 31
0.0
  0
LINE
  5
1A6
330
1F
100
AcDbEntity
  8
0
  6
HIDDEN
 62
     7
370
     0
100
AcDbLine
 10
182.720610133
 20
117.4208678338
 30
0.0
 11
182.4694147615
 21
117.0273982418
 31
0.0
  0
LINE
  5
1A7
330
1F
100
AcDbEntity
  8
0
  6
HIDDEN
 62
     7
370
     0
100
AcDbLine
 10
182.4694147615
 20
117.0273982418
 30
0.0
 11
182.7188109398
 21
116.5842818134
 31
0.0
  0
LINE
  5
1A8
330
1F
100
AcDbEntity
  8
0
  6
HIDDEN
 62
     7
370
     0
100
AcDbLine
 10
143.1921567877
 20
159.4881634373
 30
0.0
 11
143.1921567877
 21
157.612845353
 31
0.0
  0
LINE
  5
1A9
330
1F
100
AcDbEntity
  8
0
  6
HIDDEN
 62
     7
370
     0
100
AcDbLine
 10
153.1921567877
 20
157.6183536114
 30
0.0
 11
153.1921567877
 21
159.4938978701
 31
0.0
  0
DIMENSION
  5
1AA
330
1F
100
AcDbEntity
  8
VERMASSUNG
100
AcDbDimension
  2
*D1
 10
82.1416001886
 20
61.9412919738
 30
0.0
 11
82.1416001886
 21
111.9412919738
 31
0.0
 70
   160
  1
HSK A %%c<>
 71
     2
 42
-1.0
  3
SLDDIMSTYLE0
100
AcDbAlignedDimension
 13
139.6921567877
 23
161.9412919738
 33
0.0
 14
139.6921567877
 24
61.9412919738
 34
0.0
 50
90.0
100
AcDbRotatedDimension
  0
DIMENSION
  5
1B7
330
1F
100
AcDbEntity
  8
VERMASSUNG
100
AcDbDimension
  2
*D2
 10
226.7135191521
 20
108.9412919738
 30
0.0
 11
226.7135191521
 21
111.9412919738
 31
0.0
 70
   160
  1
%%c<>
 71
     2
 42
-1.0
  3
SLDDIMSTYLE1
100
AcDbAlignedDimension
 13
218.8921567877
 23
114.9412919738
 33
0.0
 14
218.8921567877
 24
108.9412919738
 34
0.0
 50
90.0
100
AcDbRotatedDimension
  0
DIMENSION
  5
1C5
330
1F
100
AcDbEntity
  8
VERMASSUNG
100
AcDbDimension
  2
*D3
 10
219.1921567877
 20
174.8872659156
 30
0.0
 11
179.1921567877
 21
174.8872659156
 31
0.0
 70
   160
 71
     2
 42
-1.0
  3
SLDDIMSTYLE0
100
AcDbAlignedDimension
 13
139.1921567877
 23
161.4412919738
 33
0.0
 14
219.1921567877
 24
119.1671514522
 34
0.0
100
AcDbRotatedDimension
  0
DIMENSION
  5
1CF
330
1F
100
AcDbEntity
  8
VERMASSUNG
100
AcDbDimension
  2
*D4
 10
219.1921567877
 20
168.8872659156
 30
0.0
 11
193.6671567877
 21
168.8872659156
 31
0.0
 70
   160
 71
     2
 42
-1.0
  3
SLDDIMSTYLE0
100
AcDbAlignedDimension
 13
168.1421567877
 23
159.9100317947
 33
0.0
 14
219.1921567877
 24
119.1671514522
 34
0.0
100
AcDbRotatedDimension
  0
DIMENSION
  5
1D9
330
1F
100
AcDbEntity
  8
VERMASSUNG
100
AcDbDimension
  2
*D5
 10
89.2921567877
 20
180.8872659156
 30
0.0
 11
154.2421567877
 21
180.8872659156
 31
0.0
 70
   160
 71
     2
 42
-1.0
  3
SLDDIMSTYLE0
100
AcDbAlignedDimension
 13
219.1921567877
 23
119.1671514522
 33
0.0
 14
89.2921567877
 24
142.4439617164
 34
0.0
100
AcDbRotatedDimension
  0
DIMENSION
  5
1E3
330
1F
100
AcDbEntity
  8
VERMASSUNG
100
AcDbDimension
  2
*D6
 10
232.7135191521
 20
96.9412919738
 30
0.0
 11
232.7135191521
 21
111.9412919738
 31
0.0
 70
   160
  1
%%c<>
 71
     2
 42
-1.0
  3
SLDDIMSTYLE0
100
AcDbAlignedDimension
 13
205.2528618044
 23
126.9412919738
 33
0.0
 14
205.2528618044
 24
96.9412919738
 34
0.0
 50
90.0
100
AcDbRotatedDimension
  0
LINE
  5
1EE
330
1F
100
AcDbEntity
  8
VERMASSUNG
  6
CENTERX2
 62
     7
370
     0
100
AcDbLine
 10
87.0416874267
 20
111.9412919738
 30
0.0
 11
221.1921567877
 21
111.9412919738
 31
0.0
  0
OLE2FRAME
  5
1EF
330
1F
100
AcDbEntity
  8
0
100
AcDbOle2Frame
 70
     2
  3
Bitmap Image
 10
13.8511154363
 20
38.264191557
 30
0.0
 11
51.6290888628
 21
31.9806341108
 31
0.0
 71
     2
 72
     0
 73
     1
 90
    12928
310
80552BED0767C5B32B40DDAF6807D121434000000000000000006FFBDDFB85D0
310
4940DDAF6807D121434000000000000000006FFBDDFB85D04940416F4BD60AFB
310
3F4000000000000000002BED0767C5B32B40416F4BD60AFB3F40000000000000
310
0000000000000100000000010000010000000100000000000100000000320000
310
D0CF11E0A1B11AE1000000000000000000000000000000003E000300FEFF0900
310
0600000000000000000000000100000001000000000000000010000002000000
310
01000000FEFFFFFF0000000000000000FFFFFFFFFFFFFFFFFFFFFFFFFFFFFFFF
310
FFFFFFFFFFFFFFFFFFFFFFFFFFFFFFFFFFFFFFFFFFFFFFFFFFFFFFFFFFFFFFFF
310
FFFFFFFFFFFFFFFFFFFFFFFFFFFFFFFFFFFFFFFFFFFFFFFFFFFFFFFFFFFFFFFF
310
FFFFFFFFFFFFFFFFFFFFFFFFFFFFFFFFFFFFFFFFFFFFFFFFFFFFFFFFFFFFFFFF
310
FFFFFFFFFFFFFFFFFFFFFFFFFFFFFFFFFFFFFFFFFFFFFFFFFFFFFFFFFFFFFFFF
310
FFFFFFFFFFFFFFFFFFFFFFFFFFFFFFFFFFFFFFFFFFFFFFFFFFFFFFFFFFFFFFFF
310
FFFFFFFFFFFFFFFFFFFFFFFFFFFFFFFFFFFFFFFFFFFFFFFFFFFFFFFFFFFFFFFF
310
FFFFFFFFFFFFFFFFFFFFFFFFFFFFFFFFFFFFFFFFFFFFFFFFFFFFFFFFFFFFFFFF
310
FFFFFFFFFFFFFFFFFFFFFFFFFFFFFFFFFFFFFFFFFFFFFFFFFFFFFFFFFFFFFFFF
310
FFFFFFFFFFFFFFFFFFFFFFFFFFFFFFFFFFFFFFFFFFFFFFFFFFFFFFFFFFFFFFFF
310
FFFFFFFFFFFFFFFFFFFFFFFFFFFFFFFFFFFFFFFFFFFFFFFFFFFFFFFFFFFFFFFF
310
FFFFFFFFFFFFFFFFFFFFFFFFFFFFFFFFFFFFFFFFFFFFFFFFFFFFFFFFFFFFFFFF
310
FFFFFFFFFFFFFFFFFFFFFFFFFFFFFFFFFFFFFFFFFFFFFFFFFFFFFFFFFFFFFFFF
310
FFFFFFFFFFFFFFFFFFFFFFFFFFFFFFFFFFFFFFFFFFFFFFFFFFFFFFFFFFFFFFFF
310
FDFFFFFFFEFFFFFFFEFFFFFFFEFFFFFF05000000060000000700000008000000
310
090000000A0000000B0000000C0000000D0000000E0000000F00000010000000
310
11000000120000001300000014000000150000001600000017000000FEFFFFFF
310
FFFFFFFFFFFFFFFFFFFFFFFFFFFFFFFFFFFFFFFFFFFFFFFFFFFFFFFFFFFFFFFF
310
FFFFFFFFFFFFFFFFFFFFFFFFFFFFFFFFFFFFFFFFFFFFFFFFFFFFFFFFFFFFFFFF
310
FFFFFFFFFFFFFFFFFFFFFFFFFFFFFFFFFFFFFFFFFFFFFFFFFFFFFFFFFFFFFFFF
310
FFFFFFFFFFFFFFFFFFFFFFFFFFFFFFFFFFFFFFFFFFFFFFFFFFFFFFFFFFFFFFFF
310
FFFFFFFFFFFFFFFFFFFFFFFFFFFFFFFFFFFFFFFFFFFFFFFFFFFFFFFFFFFFFFFF
310
FFFFFFFFFFFFFFFFFFFFFFFFFFFFFFFFFFFFFFFFFFFFFFFFFFFFFFFFFFFFFFFF
310
FFFFFFFFFFFFFFFFFFFFFFFFFFFFFFFFFFFFFFFFFFFFFFFFFFFFFFFFFFFFFFFF
310
FFFFFFFFFFFFFFFFFFFFFFFFFFFFFFFFFFFFFFFFFFFFFFFFFFFFFFFFFFFFFFFF
310
FFFFFFFFFFFFFFFFFFFFFFFFFFFFFFFFFFFFFFFFFFFFFFFFFFFFFFFFFFFFFFFF
310
FFFFFFFFFFFFFFFFFFFFFFFFFFFFFFFFFFFFFFFFFFFFFFFFFFFFFFFFFFFFFFFF
310
FFFFFFFFFFFFFFFFFFFFFFFFFFFFFFFFFFFFFFFFFFFFFFFFFFFFFFFFFFFFFFFF
310
FFFFFFFFFFFFFFFFFFFFFFFFFFFFFFFFFFFFFFFFFFFFFFFFFFFFFFFFFFFFFFFF
310
FFFFFFFFFFFFFFFFFFFFFFFFFFFFFFFFFFFFFFFFFFFFFFFFFFFFFFFFFFFFFFFF
310
52006F006F007400200045006E00740072007900000000000000000000000000
310
0000000000000000000000000000000000000000000000000000000000000000
310
16000500FFFFFFFFFFFFFFFF020000000A00030000000000C000000000000046
310
000000000000000000000000B0C91F8A0400CC0103000000C000000000000000
310
01004F006C006500000000000000000000000000000000000000000000000000
310
0000000000000000000000000000000000000000000000000000000000000000
310
0A000200FFFFFFFFFFFFFFFFFFFFFFFF00000000000000000000000000000000
310
0000000000000000000000000000000000000000000000001400000000000000
310
010043006F006D0070004F0062006A0000000000000000000000000000000000
310
0000000000000000000000000000000000000000000000000000000000000000
310
120002010100000003000000FFFFFFFF00000000000000000000000000000000
310
0000000000000000000000000000000000000000010000004D00000000000000
310
01004F006C006500310030004E00610074006900760065000000000000000000
310
0000000000000000000000000000000000000000000000000000000000000000
310
1A000200FFFFFFFFFFFFFFFFFFFFFFFF00000000000000000000000000000000
310
0000000000000000000000000000000000000000040000002426000000000000
310
FEFFFFFF02000000FEFFFFFFFFFFFFFFFFFFFFFFFFFFFFFFFFFFFFFFFFFFFFFF
310
FFFFFFFFFFFFFFFFFFFFFFFFFFFFFFFFFFFFFFFFFFFFFFFFFFFFFFFFFFFFFFFF
310
FFFFFFFFFFFFFFFFFFFFFFFFFFFFFFFFFFFFFFFFFFFFFFFFFFFFFFFFFFFFFFFF
310
FFFFFFFFFFFFFFFFFFFFFFFFFFFFFFFFFFFFFFFFFFFFFFFFFFFFFFFFFFFFFFFF
310
FFFFFFFFFFFFFFFFFFFFFFFFFFFFFFFFFFFFFFFFFFFFFFFFFFFFFFFFFFFFFFFF
310
FFFFFFFFFFFFFFFFFFFFFFFFFFFFFFFFFFFFFFFFFFFFFFFFFFFFFFFFFFFFFFFF
310
FFFFFFFFFFFFFFFFFFFFFFFFFFFFFFFFFFFFFFFFFFFFFFFFFFFFFFFFFFFFFFFF
310
FFFFFFFFFFFFFFFFFFFFFFFFFFFFFFFFFFFFFFFFFFFFFFFFFFFFFFFFFFFFFFFF
310
FFFFFFFFFFFFFFFFFFFFFFFFFFFFFFFFFFFFFFFFFFFFFFFFFFFFFFFFFFFFFFFF
310
FFFFFFFFFFFFFFFFFFFFFFFFFFFFFFFFFFFFFFFFFFFFFFFFFFFFFFFFFFFFFFFF
310
FFFFFFFFFFFFFFFFFFFFFFFFFFFFFFFFFFFFFFFFFFFFFFFFFFFFFFFFFFFFFFFF
310
FFFFFFFFFFFFFFFFFFFFFFFFFFFFFFFFFFFFFFFFFFFFFFFFFFFFFFFFFFFFFFFF
310
FFFFFFFFFFFFFFFFFFFFFFFFFFFFFFFFFFFFFFFFFFFFFFFFFFFFFFFFFFFFFFFF
310
FFFFFFFFFFFFFFFFFFFFFFFFFFFFFFFFFFFFFFFFFFFFFFFFFFFFFFFFFFFFFFFF
310
FFFFFFFFFFFFFFFFFFFFFFFFFFFFFFFFFFFFFFFFFFFFFFFFFFFFFFFFFFFFFFFF
310
FFFFFFFFFFFFFFFFFFFFFFFFFFFFFFFFFFFFFFFFFFFFFFFFFFFFFFFFFFFFFFFF
310
010000020000000000000000000000000000000061007200510082005C003107
310
D807250000000000D807250000000000680061007200650064005C003B004300
310
0100FEFF030A0000FFFFFFFF0A00030000000000C00000000000004607000000
310
5042727573680007000000504272757368000700000050427275736800F439B2
310
71000000000000000000000000004100540049002E004100430045005C004300
310
6F00720065002D005300740061007400690063003B0043003A005C0050007200
310
6F006700720061006D002000460069006C006500730020002800780038003600
310
29005C0043006F006D006D006F006E002000460069006C00650073005C004100
310
750074006F006400650073006B0020005300680061007200650064005C003B00
310
43003A005C00500072006F006700720061006D002000460069006C0065007300
310
5C004E006F0072006D0061006E005C004E0070006D005C00420069006E000000
310
43003A005C00500072006F006700720061006D002000460069006C0065007300
310
5C0053006F006C006900640057006F0072006B007300200043006F0072007000
310
5C0053006F006C006900640057006F0072006B00730020002800320029005C00
310
730065007400750070005C0069003300380036005C0073007700610063007400
310
770069007A002E006500780065000000220043003A005C00500072006F006700
310
20260000424D0E260000000000003E00000028000000B40200006E0000000100
310
01000000000000000000130B0000130B00000200000002000000000000FFFFFF
310
FFFFFFFFFFFFFFFFFFFFFFFFFFFFFFFFFFFFFFFFFFFFFFFFFFFFFFFFFFFFFFFF
310
FFFFFFFFFFFFFFFFFFFFFFFFFFFFFFFFFFFFFFFFFFFFFFFFFFFFFFFFFFFFFFFF
310
FFFFFFFFFFFFFFFFFFFFFFFFFFFFFFFFFFFFFFFFFFFFFFFFF000FFFFFFFFFFFF
310
FFFFFFFFFFFFFFFFFFFFFFFFFFFFFFFFFFFFFFFFFFFFFFFFFFFFFFFFFFFFFFFF
310
FFFFFFFFFFFFFFFFFFFFFFFFFFFFFFFFFFFFFFFFFFFFFFFFFFFFFFFFFFFFFFFF
310
FFFFFFFFFFFFFFFFFFFFFFFFFFFFFFFFF000FFFFFFFFFFFFFFFFFFFFFFFFFFFF
310
FFFFFFFFFFFFFFFFFFFFFFFFFFFFFFFFFFFFFFFFFFFFFFFFFFFFFFFFFFFFFFFF
310
FFFFFFFFFFFFFFFFFFFFFFFFFFFFFFFFFFFFFFFFFFFFFFFFFFFFFFFFFFFFFFFF
310
FFFFFFFFFFFFFFFFF000FFFFFFFFFFFFFFFFFFFFFFFFFFFFFFFFFFFFFFFFFFFF
310
FFFFFFFFFFFFFFFFFFFFFFFFFFFFFFFFFFFFFFFFFFFFFFFFFFFFFFFFFFFFFFFF
310
FFFFFFFFFFFFFFFFFFFFFFFFFFFFFFFFFFFFFFFFFFFFFFFFFFFFFFFFFFFFFFFF
310
F000FFFFFFFFFFFFFFFFFFFFFFFFFFFFFFFFFFFFFFFFFFFFFFFFFFFFFFFFFFFF
310
FFFFFFFFFFFFFFFFFFFFFFFFFFFFFFFFFFFFFFFFFFFFFFFFFFFFFFFFFFFFFFFF
310
FFFFFFFFFFFFFFFFFFFFFFFFFFFFFFFFFFFFFFFFFFFFFFFFF000FFFFFFFFFFFF
310
FFFFFFFFFFFFFFFFFFFFFFFFFFFFFFFFFFFFFFFFFFFFFFFFFFFFFFFFFFFFFFFF
310
FFFFFFFFFFFFFFFFFFFFFFFFFFFFFFFFFFFFFFFFFFFFFFFFFFFFFFFFFFFFFFFF
310
FFFFFFFFFFFFFFFFFFFFFFFFFFFFFFFFF000FFFFFFFFFFFFFFFFFFFFFFFFFFFF
310
FFFFFFFFFFFFFFFFFFFFFFFFFFFFFFFFFFFFFFFFFFFFFFFFFFFFFFFFFFFFFFFF
310
FFFFFFFFFFFFFFFFFFFFFFFFFFFFFFFFFFFFFFFFFFFFFFFFFFFFFFFFFFFFFFFF
310
FFFFFFFFFFFFFFFFF000FFFFFFFFFFFFFFFFFFFFFFFFFFFFFFFFFFFFFFFFFFFF
310
FFFFFFFFFFFFFFFFFFFFFFFFFFFFFFFFFFFFFFFFFFFFFFFFFFFFFFFFFFFFFFFF
310
FFFFFFFFFFFFFFFFFFFFFFFFFFFFFFFFFFFFFFFFFFFFFFFFFFFFFFFFFFFFFFFF
310
F000FFFFFFFFFFFFFFFFFFFFFFFFFFFFFFFFFFFFFFFFFFFFFFFFFFFFFFFFFFFF
310
FFFFFFFFFFFFFFFFFFFFFFFFFFFFFFFFFFFFFFFFFFFFFFFFFFFFFFFFFFFFFFFF
310
FFFFFFFFFFFFFFFFFFFFFFFFFFFFFFFFFFFFFFFFFFFFFFFFF000FFFFFFFFFFFF
310
FFFFFFFFFFFFFFFFFFFFFFFFFFFFFFFFFFFFFFFFFFFFFFFFFFFFFFFFFFFFFFFF
310
FFFFFFFFFFFFFFFFFFFFFFFFFFFFFFFFFFFFFFFFFFFFFFFFFFFFFFFFFFFFFFFF
310
FFFFFFFFFFFFFFFFFFFFFFFFFFFFFFFFF000FFFFFFFFFFFFFFFFFFFFFFFFFFFF
310
FFFFFFFFFFFFFFFFFFFFFFFFFFFFFFFFFFFFFFFFFFFFFFFFFFFFFFFFFFFFFFFF
310
FFFFFFFFFFFFFFFFFFFFFFFFFFFFFFFFFFFFFFFFFFFFFFFFFFFFFFFFFFFFFFFF
310
FFFFFFFFFFFFFFFFF000FFFFFFFFFFFFFFFFFFFFFFFFFFFFFFFFFFFFFFFFFFFF
310
FFFFFFFFFFFFFFFFFFFFFFFFFFFFFFFFFFFFFFFFFFFFFFFFFFFFFFFFFFFFFFFF
310
FFFFFFFFFFFFFFFFFFFFFFFFFFFFFFFFFFFFFFFFFFFFFFFFFFFFFFFFFFFFFFFF
310
F000FFFFFFFFFFFFFFFFFFFFFFFFFFFFFFFFFFFFFFFFFFFFFFFFFFFFFFFFFFFF
310
FFFFFFFFFFFFFFFFFFFFFFFFFFFFFFFFFFFFFFFFFFFFFFFFFFFFFFFFFFFFFFFF
310
FFFFFFFFFFFFFFFFFFFFFFFFFFFFFFFFFFFFFFFFFFFFFFFFF000FFFFFFFFFFFF
310
FFFFFFFFFFFFFFFFFFFFFFFFFFFFFFFFFFFFFFFFFFFFFFFFFFFFFFFFFFFFFFFF
310
FFFFFFFFFFFFFFFFFFFFFFFFFFFFFFFFFFFFFFFFFFFFFFFFFFFFFFFFFFFFFFFF
310
FFFFFFFFFFFFFFFFFFFFFFFFFFFFFFFFF000FFFFFFFFFFFFFFFFFFFFFFFFFFFF
310
FFFFFFFFFFFFFFFFFFFFFFFFFFFFFFFFFFFFFFFFFFFFFFFFFFFFFFFFFFFFFFFF
310
FFFFFFFFFFFFFFFFFFFFFFFFFFFFFFFFFFFFFFFFFFFFFFFFFFFFFFFFFFFFFFFF
310
FFFFFFFFFFFFFFFFF000FFFFFFFFFFFFFFFFFFFFFFFFFFFFFFFFFFFFFFFFFFFF
310
FFFFFFFFFFFFFFFFFFFFFFFFFFFFFFFFFFFFFFFFFFFFFFFFFFFFFFFFFFFFFFFF
310
FFFFFFFFFFFFFFFFFFFFFFFFFFFFFFFFFFFFFFFFFFFFFFFFFFFFFFFFFFFFFFFF
310
F000FFFFFFFFFFFFFFFFFFFFFFFFFFFFFFFFFFFFFFFFFFFFFFFFFFFFFFFFFFFF
310
FFFFFFFFFFFFFFFFFFFFFFFFFFFFFFFFFFFFFFFFFFFFFFFFFFFFFFFFFFFFFFFF
310
FFFFFFFFFFFFFFFFFFFFFFFFFFFFFFFFFFFFFFFFFFFFFFFFF000FFFFFFFFFFFF
310
FFFFFFFFFFFFFFFFFFFFFFFFFFFFFFFFFFFFFFFFFFFFFFFFFFFFFFFFFFFFFFFF
310
FFFFFFFFFFFFFFFFFFFFFFFFFFFFFFFFFFFFFFFFFFFFFFFFFFFFFFFFFFFFFFFF
310
FFFFFFFFFFFFFFFFFFFFFFFFFFFFFFFFF000FFFFFFFFFFFFFFFFFFFFFFFFFFFF
310
FFFFFFFFFFFFFFFFFFFFFFFFFFFFFFFFFFFFFFFFFFFFFFFFFFFFFFFFFFFFFFFF
310
FFFFFFFFFFFFFFFFFFFFFFFFFFFFFFFFFFFFFFFFFFFFFFFFFFFFFFFFFFFFFFFF
310
FFFFFFFFFFFFFFFFF000FFFFF80003FFFFFFFFFFFFFFFFFFFFFFFFFFFFFFFFFF
310
FFFFF00007FFFFFFFFFF00007FFFFFF800000000000000007FFFFFFFFFFFFFFF
310
FFFFFFFC001FFFFFFFFFFFFFFC001FFFFFFFFFFFFFFFFFFFFFFFFFFE0007FFFF
310
F000FFFF8000007FFFFFFFF8000FFFFFC0007FFFFF80007FFFFF0000007FFFFF
310
FFF8000007FFFFF800000000000000007FFFFFF0001FFFFFFFFFFFC00001FFFF
310
FFFFFFFFC00001FFFFFFFF000000000003FFFFE000007FFFF000FFFE0000000F
310
FFFFFFF0000FFFFF80007FFFFF80007FFFFC0000001FFFFFFFC0000001FFFFF8
310
00000000000000007FFFFFF0001FFFFFFFFFFE0000003FFFFFFFFFFE0000003F
310
FFFFFF000000000003FFFF0000000FFFF000FFF800000003FFFFFFF00007FFFF
310
80007FFFFF80007FFFF000000007FFFFFF000000003FFFF80000000000000000
310
7FFFFFF0001FFFFFFFFFF80000000FFFFFFFFFF80000000FFFFFFF0000000000
310
03FFFC00000003FFF000FFE000000000FFFFFFF00007FFFF80003FFFFF80007F
310
FFC000000001FFFFFC000000001FFFF800000000000000007FFFFFF0001FFFFF
310
FFFFE000000003FFFFFFFFE000000003FFFFFF000000000003FFF000000000FF
310
F000FF80000000007FFFFFF00007FFFF80003FFFFF80007FFF8000000000FFFF
310
F80000000007FFF800000000000000007FFFFFF0001FFFFFFFFFC000000001FF
310
FFFFFFC000000001FFFFFF000000000003FFC0000000007FF000FF0000000000
310
3FFFFFE00007FFFF00003FFFFF80007FFE00000000003FFFF00000000003FFF8
310
00000000000000007FFFFFF0001FFFFFFFFF8000000000FFFFFFFF8000000000
310
FFFFFF000000000003FF80000000003FF000FE00000000001FFFFFE00003FFFF
310
00003FFFFF80007FFC00000000001FFFE00000000001FFF8000001FFFE000000
310
7FFFFFF0001FFFFFFFFE00000000003FFFFFFE00000000003FFFFF0000000000
310
03FF00000000001FF000FC00000000000FFFFFE00003FFFF00001FFFFF80007F
310
F800000000001FFFC00000000000FFF8000001FFFE0000007FFFFFF0001FFFFF
310
FFFC00000000001FFFFFFC00000000001FFFFF000000000003FE00000000000F
310
F000F8000000000007FFFFE00003FFFF00001FFFFF80007FF800000000000FFF
310
800000000000FFF8000001FFFE0000007FFFFFF0001FFFFFFFF800000000000F
310
FFFFF800000000000FFFFF000000000003FC000000000007F000F80000000000
310
03FFFFC00003FFFE00001FFFFF80007FF0000000000007FF0000000000007FF8
310
000001FFFE0000007FFFFFF0001FFFFFFFF0000000000007FFFFF00000000000
310
07FFFF000000000003F8000000000003F000F0000000000003FFFFC00001FFFE
310
00001FFFFF80007FE0000000000007FE0000000000003FF8000001FFFE000000
310
7FFFFFF0001FFFFFFFF0000000000007FFFFF0000000000007FFFF0000000000
310
03F800001F800003F000E00001FFF00001FFFFC00001FFFE00000FFFFF80007F
310
E00001FFE00003FE00001FFF00003FF8000001FFFE0000007FFFFFF0001FFFFF
310
FFE000003E000003FFFFE000003E000003FFFF000000000003F00001FFF80001
310
F000E00007FFFC0001FFFFC00001FFFE00000FFFFF80007FC0000FFFFC0003FC
310
0000FFFFC0001FF8000001FFFE0000007FFFFFF0001FFFFFFFC00003FFE00001
310
FFFFC00003FFE00001FFFF0001FFFFFFFFF00007FFFE0001F000E0000FFFFF00
310
00FFFF800001FFFC00000FFFFF80007FC0001FFFFE0001FC0001FFFFE0001FF8
310
000001FFFE0000007FFFFFF0001FFFFFFF80000FFFF80000FFFF80000FFFF800
310
00FFFF0003FFFFFFFFE0000FFFFF8000F000C0003FFFFF8000FFFF800000FFFC
310
000007FFFF80007F80003FFFFF0001FC0003FFFFF0001FF8000001FFFE000000
310
7FFFFFF0001FFFFFFF80003FFFFE0000FFFF80003FFFFE0000FFFF0003FFFFFF
310
FFE0003FFFFF8000F000C0003FFFFF8000FFFF800000FFFC000007FFFF80007F
310
80007FFFFF8001F80007FFFFF8000FF8000001FFFE0000007FFFFFF0001FFFFF
310
FF00007FFFFF00007FFF00007FFFFF00007FFF0003FFFFFFFFE0003FFFFFC000
310
F000C0007FFFFFC000FFFF000000FFFC000007FFFF80007F8000FFFFFF8000F8
310
000FFFFFF8000FF8000001FFFE0000007FFFFFF0001FFFFFFF0000FFFFFF8000
310
7FFF0000FFFFFF80007FFF0003FFFFFFFFC0007FFFFFC00070008000FFFFFFC0
310
00FFFF000000FFF8000007FFFF80007F8000FFFFFF8000F8000FFFFFF8000FF8
310
000001FFFE0000007FFFFFF0001FFFFFFE0001FFFFFFC0003FFE0001FFFFFFC0
310
003FFF0003FFFFFFFFC0007FFFFFE00070008000FFFFFFC0007FFF0000007FF8
310
000003FFFF80007F0001FFFFFF8000F8000FFFFFF8000FF8000001FFFE000000
310
7FFFFFF0001FFFFFFE0001FFFFFFC0003FFE0001FFFFFFC0003FFF0003FFFFFF
310
FFC000FFFFFFE00070008000FFFFFFC0007FFF0000007FF8000003FFFF80007F
310
0001FFFFFF8000F8001FFFFFF8000FF8000001FFFE0000007FFFFFF0001FFFFF
310
FE0003FFFFFFE0003FFE0003FFFFFFE0003FFF0003FFFFFFFFC000FFFFFFE000
310
70008000FFFFFFC0007FFE0000007FF8000003FFFF80007F0001FFFFFF8000F0
310
001FFFFFF8000FF8000001FFFE0000007FFFFFF0001FFFFFFC0003FFFFFFE000
310
1FFC0003FFFFFFE0001FFF0003FFFFFFFFC000FFFFFFC00070008000FFFFFF80
310
007FFE0000007FF0000003FFFF80007F0001FFFFFF0000F0001FFFFFF8000FF8
310
000001FFFE0000007FFFFFF0001FFFFFFC0007FFFFFFF0001FFC0007FFFFFFF0
310
001FFF0003FFFFFFFFC000FFFFFFC00070008001FFFFFF0000FFFE0000003FF0
310
000001FFFF80007F0001FFFFFF0000F8001FFFFFF0000FF8000001FFFE000000
310
7FFFFFF0001FFFFFFC0007FFFFFFF0001FFC0007FFFFFFF0001FFF0003FFFFFF
310
FFC001FFFFFF80007000FFFFFFFFFE0000FFFE0008003FF0008001FFFF80007F
310
FFFFFFFFFC0000FFFFFFFFFFE0000FF8000001FFFE0000007FFFFFF0001FFFFF
310
F8000FFFFFFFF8000FF8000FFFFFFFF8000FFF0003FFFFFFFFFFFFFFFFFF0000
310
7000FFFFFFFFFC0000FFFC0008003FF0008001FFFF80007FFFFFFFFFF80001FF
310
FFFFFFFF80000FF8000001FFFE0000007FFFFFF0001FFFFFF8000FFFFFFFF800
310
0FF8000FFFFFFFF8000FFF0003FFFFFFFFFFFFFFFFFE0000F000FFFFFFFFE000
310
00FFFC000C003FE000C001FFFF80007FFFFFFFFFC00001FFFFFFFFFE00001FF8
310
000001FFFE0000007FFFFFF0001FFFFFF8000FFFFFFFF8000FF8000FFFFFFFF8
310
000FFF0003FFFFFFFFFFFFFFFFF00000F000FFFFFFFE000001FFFC000C001FE0
310
00C000FFFF80007FFFFFFFFE000001FFFFFFFFE000001FF80FFFFFFFFFFFFFC0
310
7FFFFFF0001FFFFFF8000FFFFFFFF8000FF8000FFFFFFFF8000FFF0003FFFFFF
310
FFFFFFFFFF800000F000FFFFFFC0000001FFFC001C001FE001C000FFFF80007F
310
FFFFFF80000003FFFFFFF80000001FF80FFFFFFFFFFFFFC07FFFFFF0001FFFFF
310
F8001FFFFFFFFC000FF8001FFFFFFFFC000FFF0003FFFFFFFFFFFFFFF0000001
310
F000FFFFF800000001FFF8001C001FE001C000FFFF80007FFFFFF800000003FF
310
FFFF800000003FF80FFFFFFFFFFFFFC07FFFFFF0001FFFFFF8001FFFFFFFFC00
310
0FF8001FFFFFFFFC000FFF0003FFFFFFFFFFFFFE00000001F000FFFFC0000000
310
03FFF8001E001FC001E000FFFF80007FFFFF8000000007FFFFFC000000003FF8
310
0FFFFFFFFFFFFFC07FFFFFF0001FFFFFF8001FFFFFFFFC000FF8001FFFFFFFFC
310
000FFF0003FFFFFFFFFFFFE000000003F000FFFE0000000007FFF8001E000FC0
310
01E0007FFF80007FFFFE0000000007FFFFE0000000007FF80FFFFFFFFFFFFFC0
310
7FFFFFF0001FFFFFF0001FFFFFFFFC0007F0001FFFFFFFFC0007FF0003FFFFFF
310
FFFFFF0000000003F000FFF80000000007FFF8001E000FC003E0007FFF80007F
310
FFF0000000000FFFFF8000000000FFF80FFFFFFFFFFFFFC07FFFFFF0001FFFFF
310
F0001FFFFFFFFC0007F0001FFFFFFFFC0007FF0003FFFFFFFFFFFC0000000007
310
F000FFE0000000000FFFF0003E000FC003E0007FFF80007FFFC0000000001FFF
310
FE0000000001FFF80FFFFFFFFFFFFFC07FFFFFF0001FFFFFF0001FFFFFFFFC00
310
07F0001FFFFFFFFC0007FF0003FFFFFFFFFFF0000000000FF000FFC000000000
310
1FFFF0003F000F8003F0003FFF80007FFF80000000003FFFF80000000003FFF8
310
0FFFFFFFFFFFFFC07FFFFFF0001FFFFFF0001FFFFFFFFC0007F0001FFFFFFFFC
310
0007FF0003FFFFFFFFFFE0000000001FF000FF00000000007FFFF0003F000780
310
03F0003FFF80007FFF00000000007FFFF00000000007FFF80FFFFFFFFFFFFFC0
310
7FFFFFF0001FFFFFF0001FFFFFFFFC0007F0001FFFFFFFFC0007FF0003FFFFFF
310
FFFF80000000007FF000FE0000000000FFFFE0003F00078007F0003FFF80007F
310
FE0000000001FFFFE0000000001FFFF80FFFFFFFFFFFFFC07FFFFFF0001FFFFF
310
F0001FFFFFFFFC0007F0001FFFFFFFFC0007FF0003FFFFFFFFFF0000000000FF
310
F000FC0000000003FFFFE0007F00078007F0003FFF80007FFC0000000007FFFF
310
C0000000007FFFF80FFFFFFFFFFFFFC07FFFFFF0001FFFFFF8001FFFFFFFFC00
310
0FF8001FFFFFFFFC000FFF0003FFFFFFFFFE0000000003FFF000FC000000000F
310
FFFFE0007F80070007F8001FFF80007FF8000000001FFFFF8000000001FFFFF8
310
0FFFFFFFFFFFFFC07FFFFFF0001FFFFFF8001FFFFFFFFC000FF8001FFFFFFFFC
310
000FFF0003FFFFFFFFFC000000000FFFF000F8000000007FFFFFE0007F800700
310
07F8001FFF80007FF000000000FFFFFF800000000FFFFFF80FFFFFFFFFFFFFC0
310
7FFFFFF0001FFFFFF8000FFFFFFFF8000FF8000FFFFFFFF8000FFF0003FFFFFF
310
FFFC000000007FFFF000F800000007FFFFFFC0007F8003000FF8001FFF80007F
310
F000000007FFFFFF000000007FFFFFF80FFFFFFFFFFFFFC07FFFFFF0001FFFFF
310
F8000FFFFFFFF8000FF8000FFFFFFFF8000FFF0003FFFFFFFFF80000000FFFFF
310
F000F0000000FFFFFFFFC000FF8003000FF8001FFF80007FE0000000FFFFFFFF
310
0000000FFFFFFFF8000001FFFE0000007FFFFFF0001FFFFFF8000FFFFFFFF800
310
0FF8000FFFFFFFF8000FFF0003FFFFFFFFF8000000FFFFFFF000F000000FFFFF
310
FFFFC000FFC002000FF8000FFF80007FE000001FFFFFFFFE000001FFFFFFFFF8
310
000001FFFE0000007FFFFFF0001FFFFFF8000FFFFFFFF8000FF8000FFFFFFFF8
310
000FFF0003FFFFFFFFF000001FFFFFFFF000E00000FFFFFFFFFFC000FFC00200
310
0FFC000FFF80007FE00001FFFFFFFFFE00001FFFFFFFFFF8000001FFFE000000
310
7FFFFFF0001FFFFFFC000FFFFFFFF8001FFC000FFFFFFFF8001FFF0003FFFFFF
310
FFF00001FFFFFFFFF000E00007FFFFFFFFFF8000FFC000001FFC000FFF80007F
310
C0000FFFFFFFFFFE0000FFFFFFFFFFF8000001FFFE0000007FFFFFF0001FFFFF
310
FC0007FFFFFFF0001FFC0007FFFFFFF0001FFF0003FFFFFFFFF00007FFFFFFFF
310
F000E0001FFFFFFFFFFF8000FFC000001FFC000FFF80007FC0003FFFFFFFFFFE
310
0001FFFFFFFFFFF8000001FFFE0000007FFFFFF0001FFFFFFC0007FFFFFFF000
310
1FFC0007FFFFFFF0001FFF0003FFFFFFFFF0001FFFFFFFFFF000E0003FFFFF00
310
03FF8001FFE000001FFC0007FF80007FC0007FFFFF0007FC0003FFFFF0003FF8
310
000001FFFE0000007FFFFFF0001FFFFFFC0003FFFFFFE0001FFC0003FFFFFFE0
310
001FFF0003FFFFFFFFF0003FFFFFFFFFF000E0003FFFFF0001FF8001FFE00000
310
1FFE0007FF80007FC0007FFFFE0003FC0007FFFFE0003FF8000001FFFE000000
310
7FFFFFF0001FFFFFFE0003FFFFFFE0003FFE0003FFFFFFE0003FFF0003FFFFFF
310
FFF0003FFFFF8001F000E0003FFFFF0001FF0001FFE000001FFE0007FF80007F
310
C0007FFFFE0003FC0007FFFFE0003FF8000001FFFE0000007FFFFFF0001FFFFF
310
FE0001FFFFFFC0003FFE0001FFFFFFC0003FFF0003FFFFFFFFF0003FFFFF0001
310
F000E0003FFFFF0003FF0001FFE000003FFE0007FF80007FC0007FFFFE0003FC
310
0007FFFFE0003FF8000001FFFE0000007FFFFFF0001FFFFFFF0001FFFFFFC000
310
7FFF0001FFFFFFC0007FFF0003FFFFFFFFF0003FFFFF0001F000E0003FFFFE00
310
03FF0003FFF000003FFE0003FF80007FC0007FFFFC0003FE0007FFFFE0003FF8
310
000001FFFE0000007FFFFFF0001FFFFFFF0000FFFFFF80007FFF0000FFFFFF80
310
007FFF0003FFFFFFFFF0003FFFFF0001F000E0003FFFFE0003FF0003FFF00000
310
3FFF0003FF80007FC0007FFFFC0007FE0007FFFFC0003FF8000001FFFE000000
310
7FFFFFF0001FFFFFFF80007FFFFF0000FFFF80007FFFFF0000FFFF0003FFFFFF
310
FFF0003FFFFF0003F000E0003FFFFC0003FE0003FFF000003FFF0003FF80007F
310
E0003FFFF80007FE0003FFFFC0007FF8000001FFFE0000007FFFFFF0001FFFFF
310
FF80003FFFFE0000FFFF80003FFFFE0000FFFF0003FFFFFFFFF0001FFFFE0003
310
F000F0001FFFF80003FE0003FFF000007FFF0001FF80007FE0003FFFF00007FE
310
0001FFFF80007FF8000001FFFE0000007FFFFFF0001FFFFFFFC0000FFFF80001
310
FFFFC0000FFFF80001FFFF0003FFFFFFFFF0001FFFFC0003F000F0000FFFF000
310
07FE0007FFF800007FFF0001FF80007FE0001FFFE00007FF0000FFFE00007FF8
310
000001FFFE0000007FFFFFF0001FFFFFFFC00003FFE00001FFFFC00003FFE000
310
01FFFF0003FFFFFFFFF8000FFFF80003F000F00003FFC00007FC0007FFF80000
310
7FFF8001FF80007FF00007FF80000FFF00007FF80000FFF8000001FFFE000000
310
7F80000000000001FFE000003E000003FFFFE000003E000003FFFF0003FFFFFF
310
FFF80003FFE00007F000F800000000000FFC0007FFF800007FFF8001FF80007F
310
F000000000000FFF000000000000FFF8000001FFFE0000007F80000000000001
310
FFF0000000000007FFFFF0000000000007FFFF0003FFFFFFFFFC00007E000007
310
F000F800000000000FFC0007FFF80000FFFF8000FF80007FF800000000001FFF
310
800000000001FFF8000001FFFE0000007F80000000000001FFF800000000000F
310
FFFFF800000000000FFFFF0003FFFFFFFFFC00000000000FF000FC0000000000
310
1FFC0007FFFC0000FFFF8000FF80007FF800000000003FFFC00000000001FFF8
310
000001FFFE0000007F80000000000001FFF800000000000FFFFFF80000000000
310
0FFFFF0003FFFFFFFFFE00000000001FF000FE00000000003FF8000FFFFC0000
310
FFFF8000FF80007FFC00000000003FFFC00000000003FFF8000001FFFE000000
310
7F80000000000001FFFC00000000001FFFFFFC00000000001FFFFF0003FFFFFF
310
FFFF00000000001FF000FF00000000003FF8000FFFFC0000FFFFC000FF80007F
310
FE00000000007FFFE00000000007FFF8000001FFFE0000007F80000000000001
310
FFFE00000000003FFFFFFE00000000003FFFFF0003FFFFFFFFFF80000000003F
310
F000FF80000000007FF8000FFFFC0001FFFFC0007F80007FFF0000000000FFFF
310
F0000000000FFFF800000000000000007F80000000000001FFFF8000000000FF
310
FFFFFF8000000000FFFFFF0003FFFFFFFFFFC0000000007FF000FFC000000000
310
FFF8000FFFFE0001FFFFC0007F80007FFF8000000001FFFFF8000000001FFFF8
310
00000000000000007F80000000000001FFFFC000000001FFFFFFFFC000000001
310
FFFFFF0003FFFFFFFFFFE000000000FFF000FFE000000003FFF0001FFFFE0001
310
FFFFC0007F80007FFFC000000007FFFFFE000000003FFFF80000000000000000
310
7F80000000000001FFFFE000000003FFFFFFFFE000000003FFFFFF0003FFFFFF
310
FFFFF000000003FFF000FFF80000000FFFF0001FFFFE0001FFFFE0007F80007F
310
FFF00000000FFFFFFF00000000FFFFF800000000000000007F80000000000001
310
FFFFF80000000FFFFFFFFFF80000000FFFFFFF0003FFFFFFFFFFFC0000000FFF
310
F000FFFE0000003FFFF0001FFFFE0003FFFFE0003F80007FFFFC0000003FFFFF
310
FFC0000003FFFFF800000000000000007F80000000000001FFFFFE0000003FFF
310
FFFFFFFE0000003FFFFFFF0003FFFFFFFFFFFF0000003FFFF000FFFF800000FF
310
FFF0001FFFFF0003FFFFE0003F80007FFFFF000001FFFFFFFFF800001FFFFFF8
310
00000000000000007F80000000000001FFFFFFC00001FFFFFFFFFFFFC00001FF
310
FFFFFF0003FFFFFFFFFFFFC00000FFFFF000FFFFF8000FFFFFFFFFFFFFFFFFFF
310
FFFFFFFFFFFFFFFFFFFFF0001FFFFFFFFFFF0000FFFFFFF80000000000000000
310
7FFFFFFFFFFFFFFFFFFFFFFC001FFFFFFFFFFFFFFC001FFFFFFFFFFFFFFFFFFF
310
FFFFFFFC001FFFFFF000FFFFFFFFFFFFFFFFFFFFFFFFFFFFFFFFFFFFFFFFFFFF
310
FFFFFFFFFFFFFFFFFFFFFFFFFFFFFFFFFFFFFFFFFFFFFFFFFFFFFFFFFFFFFFFF
310
FFFFFFFFFFFFFFFFFFFFFFFFFFFFFFFFFFFFFFFFFFFFFFFFFFFFFFFFFFFFFFFF
310
F000FFFFFFFFFFFFFFFFFFFFFFFFFFFFFFFFFFFFFFFFFFFFFFFFFFFFFFFFFFFF
310
FFFFFFFFFFFFFFFFFFFFFFFFFFFFFFFFFFFFFFFFFFFFFFFFFFFFFFFFFFFFFFFF
310
FFFFFFFFFFFFFFFFFFFFFFFFFFFFFFFFFFFFFFFFFFFFFFFFF000FFFFFFFFFFFF
310
FFFFFFFFFFFFFFFFFFFFFFFFFFFFFFFFFFFFFFFFFFFFFFFFFFFFFFFFFFFFFFFF
310
FFFFFFFFFFFFFFFFFFFFFFFFFFFFFFFFFFFFFFFFFFFFFFFFFFFFFFFFFFFFFFFF
310
FFFFFFFFFFFFFFFFFFFFFFFFFFFFFFFFF000FFFFFFFFFFFFFFFFFFFFFFFFFFFF
310
FFFFFFFFFFFFFFFFFFFFFFFFFFFFFFFFFFFFFFFFFFFFFFFFFFFFFFFFFFFFFFFF
310
FFFFFFFFFFFFFFFFFFFFFFFFFFFFFFFFFFFFFFFFFFFFFFFFFFFFFFFFFFFFFFFF
310
FFFFFFFFFFFFFFFFF000FFFFFFFFFFFFFFFFFFFFFFFFFFFFFFFFFFFFFFFFFFFF
310
FFFFFFFFFFFFFFFFFFFFFFFFFFFFFFFFFFFFFFFFFFFFFFFFFFFFFFFFFFFFFFFF
310
FFFFFFFFFFFFFFFFFFFFFFFFFFFFFFFFFFFFFFFFFFFFFFFFFFFFFFFFFFFFFFFF
310
F000FFFFFFFFFFFFFFFFFFFFFFFFFFFFFFFFFFFFFFFFFFFFFFFFFFFFFFFFFFFF
310
FFFFFFFFFFFFFFFFFFFFFFFFFFFFFFFFFFFFFFFFFFFFFFFFFFFFFFFFFFFFFFFF
310
FFFFFFFFFFFFFFFFFFFFFFFFFFFFFFFFFFFFFFFFFFFFFFFFF000FFFFFFFFFFFF
310
FFFFFFFFFFFFFFFFFFFFFFFFFFFFFFFFFFFFFFFFFFFFFFFFFFFFFFFFFFFFFFFF
310
FFFFFFFFFFFFFFFFFFFFFFFFFFFFFFFFFFFFFFFFFFFFFFFFFFFFFFFFFFFFFFFF
310
FFFFFFFFFFFFFFFFFFFFFFFFFFFFFFFFF000FFFFFFFFFFFFFFFFFFFFFFFFFFFF
310
FFFFFFFFFFFFFFFFFFFFFFFFFFFFFFFFFFFFFFFFFFFFFFFFFFFFFFFFFFFFFFFF
310
FFFFFFFFFFFFFFFFFFFFFFFFFFFFFFFFFFFFFFFFFFFFFFFFFFFFFFFFFFFFFFFF
310
FFFFFFFFFFFFFFFFF000FFFFFFFFFFFFFFFFFFFFFFFFFFFFFFFFFFFFFFFFFFFF
310
FFFFFFFFFFFFFFFFFFFFFFFFFFFFFFFFFFFFFFFFFFFFFFFFFFFFFFFFFFFFFFFF
310
FFFFFFFFFFFFFFFFFFFFFFFFFFFFFFFFFFFFFFFFFFFFFFFFFFFFFFFFFFFFFFFF
310
F000FFFFFFFFFFFFFFFFFFFFFFFFFFFFFFFFFFFFFFFFFFFFFFFFFFFFFFFFFFFF
310
FFFFFFFFFFFFFFFFFFFFFFFFFFFFFFFFFFFFFFFFFFFFFFFFFFFFFFFFFFFFFFFF
310
FFFFFFFFFFFFFFFFFFFFFFFFFFFFFFFFFFFFFFFFFFFFFFFFF000FFFFFFFFFFFF
310
FFFFFFFFFFFFFFFFFFFFFFFFFFFFFFFFFFFFFFFFFFFFFFFFFFFFFFFFFFFFFFFF
310
FFFFFFFFFFFFFFFFFFFFFFFFFFFFFFFFFFFFFFFFFFFFFFFFFFFFFFFFFFFFFFFF
310
FFFFFFFFFFFFFFFFFFFFFFFFFFFFFFFFF000FFFFFFFFFFFFFFFFFFFFFFFFFFFF
310
FFFFFFFFFFFFFFFFFFFFFFFFFFFFFFFFFFFFFFFFFFFFFFFFFFFFFFFFFFFFFFFF
310
FFFFFFFFFFFFFFFFFFFFFFFFFFFFFFFFFFFFFFFFFFFFFFFFFFFFFFFFFFFFFFFF
310
FFFFFFFFFFFFFFFFF000FFFFFFFFFFFFFFFFFFFFFFFFFFFFFFFFFFFFFFFFFFFF
310
FFFFFFFFFFFFFFFFFFFFFFFFFFFFFFFFFFFFFFFFFFFFFFFFFFFFFFFFFFFFFFFF
310
FFFFFFFFFFFFFFFFFFFFFFFFFFFFFFFFFFFFFFFFFFFFFFFFFFFFFFFFFFFFFFFF
310
F000FFFFFFFFFFFFFFFFFFFFFFFFFFFFFFFFFFFFFFFFFFFFFFFFFFFFFFFFFFFF
310
FFFFFFFFFFFFFFFFFFFFFFFFFFFFFFFFFFFFFFFFFFFFFFFFFFFFFFFFFFFFFFFF
310
FFFFFFFFFFFFFFFFFFFFFFFFFFFFFFFFFFFFFFFFFFFFFFFFF000FFFFFFFFFFFF
310
FFFFFFFFFFFFFFFFFFFFFFFFFFFFFFFFFFFFFFFFFFFFFFFFFFFFFFFFFFFFFFFF
310
FFFFFFFFFFFFFFFFFFFFFFFFFFFFFFFFFFFFFFFFFFFFFFFFFFFFFFFFFFFFFFFF
310
FFFFFFFFFFFFFFFFFFFFFFFFFFFFFFFFF000FFFFFFFFFFFFFFFFFFFFFFFFFFFF
310
FFFFFFFFFFFFFFFFFFFFFFFFFFFFFFFFFFFFFFFFFFFFFFFFFFFFFFFFFFFFFFFF
310
FFFFFFFFFFFFFFFFFFFFFFFFFFFFFFFFFFFFFFFFFFFFFFFFFFFFFFFFFFFFFFFF
310
FFFFFFFFFFFFFFFFF000FFFFFFFFFFFFFFFFFFFFFFFFFFFFFFFFFFFFFFFFFFFF
310
FFFFFFFFFFFFFFFFFFFFFFFFFFFFFFFFFFFFFFFFFFFFFFFFFFFFFFFFFFFFFFFF
310
FFFFFFFFFFFFFFFFFFFFFFFFFFFFFFFFFFFFFFFFFFFFFFFFFFFFFFFFFFFFFFFF
310
F000FFFFFFFFFFFFFFFFFFFFFFFFFFFFFFFFFFFFFFFFFFFFFFFFFFFFFFFFFFFF
310
FFFFFFFFFFFFFFFFFFFFFFFFFFFFFFFFFFFFFFFFFFFFFFFFFFFFFFFFFFFFFFFF
310
FFFFFFFFFFFFFFFFFFFFFFFFFFFFFFFFFFFFFFFFFFFFFFFFF000FFFFFFFFFFFF
310
FFFFFFFFFFFFFFFFFFFFFFFFFFFFFFFFFFFFFFFFFFFFFFFFFFFFFFFFFFFFFFFF
310
FFFFFFFFFFFFFFFFFFFFFFFFFFFFFFFFFFFFFFFFFFFFFFFFFFFFFFFFFFFFFFFF
310
FFFFFFFFFFFFFFFFFFFFFFFFFFFFFFFFF000FFFFFFFFFFFFFFFFFFFFFFFFFFFF
310
FFFFFFFFFFFFFFFFFFFFFFFFFFFFFFFFFFFFFFFFFFFFFFFFFFFFFFFFFFFFFFFF
310
FFFFFFFFFFFFFFFFFFFFFFFFFFFFFFFFFFFFFFFFFFFFFFFFFFFFFFFFFFFFFFFF
310
FFFFFFFFFFFFFFFFF000FFFFFFFFFFFFFFFFFFFFFFFFFFFFFFFFFFFFFFFFFFFF
310
FFFFFFFFFFFFFFFFFFFFFFFFFFFFFFFFFFFFFFFFFFFFFFFFFFFFFFFFFFFFFFFF
310
FFFFFFFFFFFFFFFFFFFFFFFFFFFFFFFFFFFFFFFFFFFFFFFFFFFFFFFFFFFFFFFF
310
F000FFFFFFFFFFFFFFFFFFFFFFFFFFFFFFFFFFFFFFFFFFFFFFFFFFFFFFFFFFFF
310
FFFFFFFFFFFFFFFFFFFFFFFFFFFFFFFFFFFFFFFFFFFFFFFFFFFFFFFFFFFFFFFF
310
FFFFFFFFFFFFFFFFFFFFFFFFFFFFFFFFFFFFFFFFFFFFFFFFF000FFFFFFFFFFFF
310
FFFFFFFFFFFFFFFFFFFFFFFFFFFFFFFFFFFFFFFFFFFFFFFFFFFFFFFFFFFFFFFF
310
FFFFFFFFFFFFFFFFFFFFFFFFFFFFFFFFFFFFFFFFFFFFFFFFFFFFFFFFFFFFFFFF
310
FFFFFFFFFFFFFFFFFFFFFFFFFFFFFFFFF0000000000000000000000000000000
310
000000004A8FDE3DFBE43A3E5B83DE3D70F93A3E537FDE3D70F93A3EA003EC3D
310
FBE43A3E99FFEB3D50D13A3EAAF3EB3D2FBF3A3E48E0EB3D4BAF3A3E34C6EB3D
310
41A23A3E6CA6EB3D90983A3E2A82EB3D98923A3ED35AEB3D95903A3EE931EB3D
310
76E23D3EF98BDE3D28A93E3E9D1CDF3D28A93E3E5766EB3D76E23D3EFBF6EB3D
310
D5123D3E2889C63DB10C3C3EDBB7C73DF8ED363EDBB7C73DD3E7353E2889C63D
310
D3E7353EE6FC013EF8ED363E8D65013EB10C3C3E8D65013ED5123D3EE6FC013E
310
28A93E3E9D1CDF3D4425603E9D1CDF3D4425603E5766EB3D28A93E3E5766EB3D
310
F8ED363E8D65013EF8ED363E348BF13DB10C3C3E348BF13DB10C3C3E8D65013E
310
F8ED363E348BF13D547D393EA577EE3D547D393EA577EE3DB10C3C3E348BF13D
310
B10C3C3EC0F7D83D547D393E4F0BDC3D547D393E4F0BDC3DF8ED363EC0F7D83D
310
B10C3C3EDBB7C73DB10C3C3EC0F7D83DF8ED363EC0F7D83DF8ED363EDBB7C73D
310
10832B3E79F4E03D95903A3E79F4E03D95903A3E7B8EE93D10832B3E7B8EE93D
310
99BE3D3E537FDE3D2CC33D3E867FDE3DBCC73D3E2080DE3D49CC3D3E1F81DE3D
310
CED03D3E8382DE3D4BD53D3E4C84DE3DBCD93D3E7986DE3D21DE3D3E0889DE3D
310
76E23D3EF98BDE3D16263E3E7448F13D16263E3E064AF23D16263E3E90DCE93D
  1
OLE
  0
ENDSEC
  0
SECTION
  2
OBJECTS
  0
DICTIONARY
  5
C
330
0
100
AcDbDictionary
281
     1
  3
ACAD_GROUP
350
D
  3
ACAD_LAYOUT
350
1A
  3
ACAD_MLEADERSTYLE
350
1F1
  3
ACAD_MLINESTYLE
350
17
  3
ACAD_PLOTSETTINGS
350
19
  3
ACAD_PLOTSTYLENAME
350
E
  3
ACAD_TABLESTYLE
350
1F0
  3
ACAD_VISUALSTYLE
350
2A
  3
AcDbVariableDictionary
350
1F2
  0
DICTIONARY
  5
D
102
{ACAD_REACTORS
330
C
102
}
330
C
100
AcDbDictionary
281
     1
  0
DICTIONARY
  5
1A
102
{ACAD_REACTORS
330
C
102
}
330
C
100
AcDbDictionary
281
     1
  3
Layout1
350
1E
  3
Layout2
350
26
  3
Model
350
22
  0
DICTIONARY
  5
1F1
102
{ACAD_REACTORS
330
C
102
}
330
C
100
AcDbDictionary
281
     1
  0
DICTIONARY
  5
17
102
{ACAD_REACTORS
330
C
102
}
330
C
100
AcDbDictionary
281
     1
  3
Standard
350
18
  0
DICTIONARY
  5
19
102
{ACAD_REACTORS
330
C
102
}
330
C
100
AcDbDictionary
281
     1
  0
ACDBDICTIONARYWDFLT
  5
E
102
{ACAD_REACTORS
330
C
102
}
330
C
100
AcDbDictionary
281
     1
  3
Normal
350
F
100
AcDbDictionaryWithDefault
340
F
  0
DICTIONARY
  5
1F0
102
{ACAD_REACTORS
330
C
102
}
330
C
100
AcDbDictionary
281
     1
  0
DICTIONARY
  5
2A
102
{ACAD_REACTORS
330
C
102
}
330
C
100
AcDbDictionary
281
     1
  3
2dWireframe
350
2F
  3
3D Hidden
350
31
  3
3dWireframe
350
30
  3
Basic
350
32
  3
Brighten
350
36
  3
ColorChange
350
3A
  3
Conceptual
350
34
  3
Dim
350
35
  3
Facepattern
350
39
  3
Flat
350
2B
  3
FlatWithEdges
350
2C
  3
Gouraud
350
2D
  3
GouraudWithEdges
350
2E
  3
Linepattern
350
38
  3
Realistic
350
33
  3
Thicken
350
37
  0
DICTIONARY
  5
1F2
102
{ACAD_REACTORS
330
C
102
}
330
C
100
AcDbDictionary
281
     1
  3
PSOLHEIGHT
350
1F4
  3
PSOLWIDTH
350
1F3
  0
LAYOUT
  5
1E
102
{ACAD_REACTORS
330
1A
102
}
330
1A
100
AcDbPlotSettings
  1

  2
none_device
  4

  6

 40
0.0
 41
0.0
 42
0.0
 43
0.0
 44
0.0
 45
0.0
 46
0.0
 47
0.0
 48
0.0
 49
0.0
140
0.0
141
0.0
142
1.0
143
1.0
 70
   688
 72
     0
 73
     0
 74
     5
  7

 75
    16
147
1.0
148
0.0
149
0.0
100
AcDbLayout
  1
Layout1
 70
     1
 71
     1
 10
0.0
 20
0.0
 11
420.0
 21
297.0
 12
0.0
 22
0.0
 32
0.0
 14
1.0000000000E+20
 24
1.0000000000E+20
 34
1.0000000000E+20
 15
-1.0000000000E+20
 25
-1.0000000000E+20
 35
-1.0000000000E+20
146
0.0
 13
0.0
 23
0.0
 33
0.0
 16
1.0
 26
0.0
 36
0.0
 17
0.0
 27
1.0
 37
0.0
 76
     0
330
1B
  0
LAYOUT
  5
26
102
{ACAD_REACTORS
330
1A
102
}
330
1A
100
AcDbPlotSettings
  1

  2
none_device
  4

  6

 40
0.0
 41
0.0
 42
0.0
 43
0.0
 44
0.0
 45
0.0
 46
0.0
 47
0.0
 48
0.0
 49
0.0
140
0.0
141
0.0
142
1.0
143
1.0
 70
   688
 72
     0
 73
     0
 74
     5
  7

 75
    16
147
1.0
148
0.0
149
0.0
100
AcDbLayout
  1
Layout2
 70
     1
 71
     2
 10
0.0
 20
0.0
 11
0.0
 21
0.0
 12
0.0
 22
0.0
 32
0.0
 14
0.0
 24
0.0
 34
0.0
 15
0.0
 25
0.0
 35
0.0
146
0.0
 13
0.0
 23
0.0
 33
0.0
 16
1.0
 26
0.0
 36
0.0
 17
0.0
 27
1.0
 37
0.0
 76
     0
330
23
  0
LAYOUT
  5
22
102
{ACAD_REACTORS
330
1A
102
}
330
1A
100
AcDbPlotSettings
  1

  2
none_device
  4

  6

 40
0.0
 41
0.0
 42
0.0
 43
0.0
 44
0.0
 45
0.0
 46
0.0
 47
0.0
 48
0.0
 49
0.0
140
0.0
141
0.0
142
1.0
143
1.0
 70
  1712
 72
     0
 73
     0
 74
     0
  7

 75
     0
147
1.0
148
0.0
149
0.0
100
AcDbLayout
  1
Model
 70
     1
 71
     0
 10
0.0
 20
0.0
 11
297.0
 21
210.0
 12
0.0
 22
0.0
 32
0.0
 14
0.0
 24
0.0
 34
0.0
 15
297.0
 25
210.0
 35
0.0
146
0.0
 13
0.0
 23
0.0
 33
0.0
 16
1.0
 26
0.0
 36
0.0
 17
0.0
 27
1.0
 37
0.0
 76
     0
330
1F
331
29
  0
MLINESTYLE
  5
18
102
{ACAD_REACTORS
330
17
102
}
330
17
100
AcDbMlineStyle
  2
Standard
 70
     0
  3

 62
   256
 51
90.0
 52
90.0
 71
     2
 49
0.5
 62
   256
  6
BYLAYER
 49
-0.5
 62
   256
  6
BYLAYER
  0
ACDBPLACEHOLDER
  5
F
102
{ACAD_REACTORS
330
E
102
}
330
E
  0
VISUALSTYLE
  5
2F
102
{ACAD_REACTORS
330
2A
102
}
330
2A
100
AcDbVisualStyle
  2
2dWireframe
 70
     4
 71
     0
 72
     2
 73
     0
 90
        0
 40
-0.6
 41
-30.0
 62
     5
 63
     7
 74
     1
 91
        4
 64
     7
 65
   257
 75
     1
175
     1
 42
1.0
 92
        0
 66
   257
 43
1.0
 76
     1
 77
     6
 78
     2
 67
     7
 79
     5
170
     0
171
     0
290
     0
174
     0
 93
        1
 44
0.0
173
     0
291
     0
 45
0.0
1001
ACAD
1000
AcDbSavedByObjectVersion
1070
     0
  0
VISUALSTYLE
  5
31
102
{ACAD_REACTORS
330
2A
102
}
330
2A
100
AcDbVisualStyle
  2
3D Hidden
 70
     6
 71
     1
 72
     2
 73
     2
 90
        0
 40
-0.6
 41
-30.0
 62
     5
 63
     7
 74
     2
 91
        2
 64
     7
 65
   257
 75
     2
175
     1
 42
40.0
 92
        0
 66
   257
 43
1.0
 76
     1
 77
     6
 78
     2
 67
     7
 79
     3
170
     0
171
     0
290
     0
174
     0
 93
        1
 44
0.0
173
     0
291
     0
 45
0.0
1001
ACAD
1000
AcDbSavedByObjectVersion
1070
     0
  0
VISUALSTYLE
  5
30
102
{ACAD_REACTORS
330
2A
102
}
330
2A
100
AcDbVisualStyle
  2
3dWireframe
 70
     5
 71
     0
 72
     2
 73
     0
 90
        0
 40
-0.6
 41
-30.0
 62
     5
 63
     7
 74
     1
 91
        4
 64
     7
 65
   257
 75
     1
175
     1
 42
1.0
 92
        0
 66
   257
 43
1.0
 76
     1
 77
     6
 78
     2
 67
     7
 79
     5
170
     0
171
     0
290
     0
174
     0
 93
        1
 44
0.0
173
     0
291
     0
 45
0.0
1001
ACAD
1000
AcDbSavedByObjectVersion
1070
     0
  0
VISUALSTYLE
  5
32
102
{ACAD_REACTORS
330
2A
102
}
330
2A
100
AcDbVisualStyle
  2
Basic
 70
     7
 71
     1
 72
     0
 73
     1
 90
        0
 40
-0.6
 41
-30.0
 62
     5
 63
     7
 74
     0
 91
        4
 64
     7
 65
   257
 75
     1
175
     1
 42
1.0
 92
        8
 66
     7
 43
1.0
 76
     1
 77
     6
 78
     2
 67
     7
 79
     5
170
     0
171
     0
290
     0
174
     0
 93
        1
 44
0.0
173
     0
291
     1
 45
0.0
1001
ACAD
1000
AcDbSavedByObjectVersion
1070
     0
  0
VISUALSTYLE
  5
36
102
{ACAD_REACTORS
330
2A
102
}
330
2A
100
AcDbVisualStyle
  2
Brighten
 70
    12
 71
     2
 72
     2
 73
     0
 90
        0
 40
-0.6
 41
-30.0
 62
     5
 63
     7
 74
     1
 91
        4
 64
     7
 65
   257
 75
     1
175
     1
 42
1.0
 92
        8
 66
     7
 43
1.0
 76
     1
 77
     6
 78
     2
 67
     7
 79
     5
170
     0
171
     0
290
     0
174
     0
 93
        1
 44
50.0
173
     0
291
     1
 45
0.0
1001
ACAD
1000
AcDbSavedByObjectVersion
1070
     0
  0
VISUALSTYLE
  5
3A
102
{ACAD_REACTORS
330
2A
102
}
330
2A
100
AcDbVisualStyle
  2
ColorChange
 70
    16
 71
     2
 72
     2
 73
     3
 90
        0
 40
-0.6
 41
-30.0
 62
     5
 63
     8
 74
     1
 91
        4
 64
     7
 65
   257
 75
     1
175
     1
 42
1.0
 92
        8
 66
     8
 43
1.0
 76
     1
 77
     6
 78
     2
 67
     7
 79
     5
170
     0
171
     0
290
     0
174
     0
 93
        1
 44
0.0
173
     0
291
     1
 45
0.0
1001
ACAD
1000
AcDbSavedByObjectVersion
1070
     0
  0
VISUALSTYLE
  5
34
102
{ACAD_REACTORS
330
2A
102
}
330
2A
100
AcDbVisualStyle
  2
Conceptual
 70
     9
 71
     3
 72
     2
 73
     0
 90
        0
 40
-0.6
 41
-30.0
 62
     5
 63
     7
 74
     2
 91
        2
 64
     7
 65
   257
 75
     1
175
     1
 42
40.0
 92
        8
 66
     7
 43
1.0
 76
     1
 77
     6
 78
     2
 67
     7
 79
     3
170
     0
171
     0
290
     0
174
     0
 93
        1
 44
0.0
173
     0
291
     0
 45
0.0
1001
ACAD
1000
AcDbSavedByObjectVersion
1070
     0
  0
VISUALSTYLE
  5
35
102
{ACAD_REACTORS
330
2A
102
}
330
2A
100
AcDbVisualStyle
  2
Dim
 70
    11
 71
     2
 72
     2
 73
     0
 90
        0
 40
-0.6
 41
-30.0
 62
     5
 63
     7
 74
     1
 91
        4
 64
     7
 65
   257
 75
     1
175
     1
 42
1.0
 92
        8
 66
     7
 43
1.0
 76
     1
 77
     6
 78
     2
 67
     7
 79
     5
170
     0
171
     0
290
     0
174
     0
 93
        1
 44
-50.0
173
     0
291
     1
 45
0.0
1001
ACAD
1000
AcDbSavedByObjectVersion
1070
     0
  0
VISUALSTYLE
  5
39
102
{ACAD_REACTORS
330
2A
102
}
330
2A
100
AcDbVisualStyle
  2
Facepattern
 70
    15
 71
     2
 72
     2
 73
     0
 90
        0
 40
-0.6
 41
-30.0
 62
     5
 63
     7
 74
     1
 91
        4
 64
     7
 65
   257
 75
     1
175
     1
 42
1.0
 92
        8
 66
     7
 43
1.0
 76
     1
 77
     6
 78
     2
 67
     7
 79
     5
170
     0
171
     0
290
     0
174
     0
 93
        1
 44
0.0
173
     0
291
     1
 45
0.0
1001
ACAD
1000
AcDbSavedByObjectVersion
1070
     0
  0
VISUALSTYLE
  5
2B
102
{ACAD_REACTORS
330
2A
102
}
330
2A
100
AcDbVisualStyle
  2
Flat
 70
     0
 71
     2
 72
     1
 73
     1
 90
        2
 40
-0.6
 41
30.0
 62
     5
 63
     7
 74
     0
 91
        4
 64
     7
 65
   257
 75
     1
175
     1
 42
1.0
 92
        8
 66
     7
 43
1.0
 76
     1
 77
     6
 78
     2
 67
     7
 79
     5
170
     0
171
     0
290
     0
174
     0
 93
       13
 44
0.0
173
     0
291
     1
 45
0.0
1001
ACAD
1000
AcDbSavedByObjectVersion
1070
     0
  0
VISUALSTYLE
  5
2C
102
{ACAD_REACTORS
330
2A
102
}
330
2A
100
AcDbVisualStyle
  2
FlatWithEdges
 70
     1
 71
     2
 72
     1
 73
     1
 90
        2
 40
-0.6
 41
30.0
 62
     5
 63
     7
 74
     1
 91
        4
 64
     7
 65
   257
 75
     1
175
     1
 42
1.0
 92
        0
 66
   257
 43
1.0
 76
     1
 77
     6
 78
     2
 67
     7
 79
     5
170
     0
171
     0
290
     0
174
     0
 93
       13
 44
0.0
173
     0
291
     1
 45
0.0
1001
ACAD
1000
AcDbSavedByObjectVersion
1070
     0
  0
VISUALSTYLE
  5
2D
102
{ACAD_REACTORS
330
2A
102
}
330
2A
100
AcDbVisualStyle
  2
Gouraud
 70
     2
 71
     2
 72
     2
 73
     1
 90
        2
 40
-0.6
 41
30.0
 62
     5
 63
     7
 74
     0
 91
        4
 64
     7
 65
   257
 75
     1
175
     1
 42
1.0
 92
        0
 66
     7
 43
1.0
 76
     1
 77
     6
 78
     2
 67
     7
 79
     5
170
     0
171
     0
290
     0
174
     0
 93
       13
 44
0.0
173
     0
291
     1
 45
0.0
1001
ACAD
1000
AcDbSavedByObjectVersion
1070
     0
  0
VISUALSTYLE
  5
2E
102
{ACAD_REACTORS
330
2A
102
}
330
2A
100
AcDbVisualStyle
  2
GouraudWithEdges
 70
     3
 71
     2
 72
     2
 73
     1
 90
        2
 40
-0.6
 41
30.0
 62
     5
 63
     7
 74
     1
 91
        4
 64
     7
 65
   257
 75
     1
175
     1
 42
1.0
 92
        0
 66
   257
 43
1.0
 76
     1
 77
     6
 78
     2
 67
     7
 79
     5
170
     0
171
     0
290
     0
174
     0
 93
       13
 44
0.0
173
     0
291
     1
 45
0.0
1001
ACAD
1000
AcDbSavedByObjectVersion
1070
     0
  0
VISUALSTYLE
  5
38
102
{ACAD_REACTORS
330
2A
102
}
330
2A
100
AcDbVisualStyle
  2
Linepattern
 70
    14
 71
     2
 72
     2
 73
     0
 90
        0
 40
-0.6
 41
-30.0
 62
     5
 63
     7
 74
     1
 91
        4
 64
     7
 65
   257
 75
     7
175
     7
 42
1.0
 92
        8
 66
     7
 43
1.0
 76
     1
 77
     6
 78
     2
 67
     7
 79
     5
170
     0
171
     0
290
     0
174
     0
 93
        1
 44
0.0
173
     0
291
     1
 45
0.0
1001
ACAD
1000
AcDbSavedByObjectVersion
1070
     0
  0
VISUALSTYLE
  5
33
102
{ACAD_REACTORS
330
2A
102
}
330
2A
100
AcDbVisualStyle
  2
Realistic
 70
     8
 71
     2
 72
     2
 73
     0
 90
        0
 40
-0.6
 41
-30.0
 62
     5
 63
     7
 74
     1
 91
        0
 64
     7
 65
   257
 75
     1
175
     1
 42
1.0
 92
        8
 66
     8
 43
1.0
 76
     1
 77
     6
 78
     2
 67
     7
 79
     5
170
     0
171
     0
290
     0
174
     0
 93
       13
 44
0.0
173
     0
291
     0
 45
0.0
1001
ACAD
1000
AcDbSavedByObjectVersion
1070
     0
  0
VISUALSTYLE
  5
37
102
{ACAD_REACTORS
330
2A
102
}
330
2A
100
AcDbVisualStyle
  2
Thicken
 70
    13
 71
     2
 72
     2
 73
     0
 90
        0
 40
-0.6
 41
-30.0
 62
     5
 63
     7
 74
     1
 91
        4
 64
     7
 65
   257
 75
     1
175
     1
 42
1.0
 92
       12
 66
     7
 43
1.0
 76
     1
 77
     6
 78
     2
 67
     7
 79
     5
170
     0
171
     0
290
     0
174
     0
 93
        1
 44
0.0
173
     0
291
     1
 45
0.0
1001
ACAD
1000
AcDbSavedByObjectVersion
1070
     0
  0
DICTIONARYVAR
  5
1F4
102
{ACAD_REACTORS
330
1F2
102
}
330
1F2
100
DictionaryVariables
280
     0
  1
80.000000
  0
DICTIONARYVAR
  5
1F3
102
{ACAD_REACTORS
330
1F2
102
}
330
1F2
100
DictionaryVariables
280
     0
  1
5.000000
  0
ENDSEC
  0
EOF
