  0
SECTION
  2
HEADER
  9
$ACADVER
  1
AC1015
  9
$ACADMAINTVER
 70
     6
  9
$DWGCODEPAGE
  3
ANSI_1252
  9
$INSBASE
 10
0.0
 20
0.0
 30
0.0
  9
$EXTMIN
 10
0.0
 20
0.0
 30
0.0
  9
$EXTMAX
 10
297.0
 20
210.0
 30
0.0
  9
$LIMMIN
 10
0.0
 20
0.0
  9
$LIMMAX
 10
297.0
 20
210.0
  9
$ORTHOMODE
 70
     0
  9
$REGENMODE
 70
     1
  9
$FILLMODE
 70
     1
  9
$QTEXTMODE
 70
     0
  9
$MIRRTEXT
 70
     1
  9
$LTSCALE
 40
1.0
  9
$ATTMODE
 70
     1
  9
$TEXTSIZE
 40
2.0
  9
$TRACEWID
 40
1.0
  9
$TEXTSTYLE
  7
Standard
  9
$CLAYER
  8
0
  9
$CELTYPE
  6
ByLayer
  9
$CECOLOR
 62
   256
  9
$CELTSCALE
 40
1.0
  9
$DISPSILH
 70
     0
  9
$DIMSCALE
 40
1.0
  9
$DIMASZ
 40
3.0
  9
$DIMEXO
 40
0.0
  9
$DIMDLI
 40
3.75
  9
$DIMRND
 40
0.0
  9
$DIMDLE
 40
0.0
  9
$DIMEXE
 40
1.0
  9
$DIMTP
 40
0.0
  9
$DIMTM
 40
0.0
  9
$DIMTXT
 40
2.0
  9
$DIMCEN
 40
2.5
  9
$DIMTSZ
 40
0.0
  9
$DIMTOL
 70
     0
  9
$DIMLIM
 70
     0
  9
$DIMTIH
 70
     1
  9
$DIMTOH
 70
     1
  9
$DIMSE1
 70
     0
  9
$DIMSE2
 70
     0
  9
$DIMTAD
 70
     1
  9
$DIMZIN
 70
     0
  9
$DIMBLK
  1

  9
$DIMASO
 70
     1
  9
$DIMSHO
 70
     1
  9
$DIMPOST
  1

  9
$DIMAPOST
  1

  9
$DIMALT
 70
     0
  9
$DIMALTD
 70
     3
  9
$DIMALTF
 40
0.0393700787
  9
$DIMLFAC
 40
1.0
  9
$DIMTOFL
 70
     1
  9
$DIMTVP
 40
0.0
  9
$DIMTIX
 70
     0
  9
$DIMSOXD
 70
     0
  9
$DIMSAH
 70
     0
  9
$DIMBLK1
  1

  9
$DIMBLK2
  1

  9
$DIMSTYLE
  2
ISO-25
  9
$DIMCLRD
 70
     0
  9
$DIMCLRE
 70
     0
  9
$DIMCLRT
 70
     0
  9
$DIMTFAC
 40
1.0
  9
$DIMGAP
 40
1.524
  9
$DIMJUST
 70
     0
  9
$DIMSD1
 70
     0
  9
$DIMSD2
 70
     0
  9
$DIMTOLJ
 70
     0
  9
$DIMTZIN
 70
     0
  9
$DIMALTZ
 70
     0
  9
$DIMALTTZ
 70
     0
  9
$DIMUPT
 70
     0
  9
$DIMDEC
 70
     2
  9
$DIMTDEC
 70
     3
  9
$DIMALTU
 70
     2
  9
$DIMALTTD
 70
     3
  9
$DIMTXSTY
  7
Standard
  9
$DIMAUNIT
 70
     0
  9
$DIMADEC
 70
     2
  9
$DIMALTRND
 40
0.0
  9
$DIMAZIN
 70
     0
  9
$DIMDSEP
 70
    44
  9
$DIMATFIT
 70
     3
  9
$DIMFRAC
 70
     0
  9
$DIMLDRBLK
  1

  9
$DIMLUNIT
 70
     2
  9
$DIMLWD
 70
    -2
  9
$DIMLWE
 70
    -2
  9
$DIMTMOVE
 70
     0
  9
$LUNITS
 70
     2
  9
$LUPREC
 70
     2
  9
$SKETCHINC
 40
1.0
  9
$FILLETRAD
 40
10.0
  9
$AUNITS
 70
     0
  9
$AUPREC
 70
     2
  9
$MENU
  1
.
  9
$ELEVATION
 40
0.0
  9
$PELEVATION
 40
0.0
  9
$THICKNESS
 40
0.0
  9
$LIMCHECK
 70
     0
  9
$CHAMFERA
 40
10.0
  9
$CHAMFERB
 40
10.0
  9
$CHAMFERC
 40
20.0
  9
$CHAMFERD
 40
0.0
  9
$SKPOLY
 70
     0
  9
$TDCREATE
 40
2455684.41420566
  9
$TDUCREATE
 40
2455684.330872326
  9
$TDUPDATE
 40
2455684.414205671
  9
$TDUUPDATE
 40
2455684.330872338
  9
$TDINDWG
 40
0.0000000116
  9
$TDUSRTIMER
 40
0.0000000116
  9
$USRTIMER
 70
     1
  9
$ANGBASE
 50
0.0
  9
$ANGDIR
 70
     0
  9
$PDMODE
 70
     0
  9
$PDSIZE
 40
-1.0
  9
$PLINEWID
 40
0.0
  9
$SPLFRAME
 70
     0
  9
$SPLINETYPE
 70
     6
  9
$SPLINESEGS
 70
     8
  9
$HANDSEED
  5
20A
  9
$SURFTAB1
 70
     6
  9
$SURFTAB2
 70
     6
  9
$SURFTYPE
 70
     6
  9
$SURFU
 70
     6
  9
$SURFV
 70
     6
  9
$UCSBASE
  2

  9
$UCSNAME
  2

  9
$UCSORG
 10
0.0
 20
0.0
 30
0.0
  9
$UCSXDIR
 10
1.0
 20
0.0
 30
0.0
  9
$UCSYDIR
 10
0.0
 20
1.0
 30
0.0
  9
$UCSORTHOREF
  2

  9
$UCSORTHOVIEW
 70
     0
  9
$UCSORGTOP
 10
0.0
 20
0.0
 30
0.0
  9
$UCSORGBOTTOM
 10
0.0
 20
0.0
 30
0.0
  9
$UCSORGLEFT
 10
0.0
 20
0.0
 30
0.0
  9
$UCSORGRIGHT
 10
0.0
 20
0.0
 30
0.0
  9
$UCSORGFRONT
 10
0.0
 20
0.0
 30
0.0
  9
$UCSORGBACK
 10
0.0
 20
0.0
 30
0.0
  9
$PUCSBASE
  2

  9
$PUCSNAME
  2

  9
$PUCSORG
 10
0.0
 20
0.0
 30
0.0
  9
$PUCSXDIR
 10
1.0
 20
0.0
 30
0.0
  9
$PUCSYDIR
 10
0.0
 20
1.0
 30
0.0
  9
$PUCSORTHOREF
  2

  9
$PUCSORTHOVIEW
 70
     0
  9
$PUCSORGTOP
 10
0.0
 20
0.0
 30
0.0
  9
$PUCSORGBOTTOM
 10
0.0
 20
0.0
 30
0.0
  9
$PUCSORGLEFT
 10
0.0
 20
0.0
 30
0.0
  9
$PUCSORGRIGHT
 10
0.0
 20
0.0
 30
0.0
  9
$PUCSORGFRONT
 10
0.0
 20
0.0
 30
0.0
  9
$PUCSORGBACK
 10
0.0
 20
0.0
 30
0.0
  9
$USERI1
 70
     0
  9
$USERI2
 70
     0
  9
$USERI3
 70
     0
  9
$USERI4
 70
     0
  9
$USERI5
 70
     0
  9
$USERR1
 40
0.0
  9
$USERR2
 40
0.0
  9
$USERR3
 40
0.0
  9
$USERR4
 40
0.0
  9
$USERR5
 40
0.0
  9
$WORLDVIEW
 70
     1
  9
$SHADEDGE
 70
     3
  9
$SHADEDIF
 70
    70
  9
$TILEMODE
 70
     1
  9
$MAXACTVP
 70
    64
  9
$PINSBASE
 10
0.0
 20
0.0
 30
0.0
  9
$PLIMCHECK
 70
     0
  9
$PEXTMIN
 10
1.0000000000E+20
 20
1.0000000000E+20
 30
1.0000000000E+20
  9
$PEXTMAX
 10
-1.0000000000E+20
 20
-1.0000000000E+20
 30
-1.0000000000E+20
  9
$PLIMMIN
 10
0.0
 20
0.0
  9
$PLIMMAX
 10
420.0
 20
297.0
  9
$UNITMODE
 70
     0
  9
$VISRETAIN
 70
     1
  9
$PLINEGEN
 70
     0
  9
$PSLTSCALE
 70
     1
  9
$TREEDEPTH
 70
  3020
  9
$CMLSTYLE
  2
Standard
  9
$CMLJUST
 70
     0
  9
$CMLSCALE
 40
20.0
  9
$PROXYGRAPHICS
 70
     1
  9
$MEASUREMENT
 70
     1
  9
$CELWEIGHT
370
    -1
  9
$ENDCAPS
280
     0
  9
$JOINSTYLE
280
     0
  9
$LWDISPLAY
290
     1
  9
$INSUNITS
 70
     4
  9
$HYPERLINKBASE
  1

  9
$STYLESHEET
  1

  9
$XEDIT
290
     1
  9
$CEPSNTYPE
380
     0
  9
$PSTYLEMODE
290
     1
  9
$FINGERPRINTGUID
  2
{A01456B8-BCC0-4787-AF8F-4CB7DDAF94D1}
  9
$VERSIONGUID
  2
{FAEB1C32-E019-11D5-929B-00C0DF256EC4}
  9
$EXTNAMES
290
     1
  9
$PSVPSCALE
 40
0.0
  9
$OLESTARTUP
290
     0
  0
ENDSEC
  0
SECTION
  2
CLASSES
  0
CLASS
  1
ACDBDICTIONARYWDFLT
  2
AcDbDictionaryWithDefault
  3
ObjectDBX Classes
 90
        0
280
     0
281
     0
  0
CLASS
  1
VISUALSTYLE
  2
AcDbVisualStyle
  3
ObjectDBX Classes
 90
     4095
280
     0
281
     0
  0
CLASS
  1
DICTIONARYVAR
  2
AcDbDictionaryVar
  3
ObjectDBX Classes
 90
        0
280
     0
281
     0
  0
CLASS
  1
ACDBPLACEHOLDER
  2
AcDbPlaceHolder
  3
ObjectDBX Classes
 90
        0
280
     0
281
     0
  0
CLASS
  1
LAYOUT
  2
AcDbLayout
  3
ObjectDBX Classes
 90
        0
280
     0
281
     0
  0
ENDSEC
  0
SECTION
  2
TABLES
  0
TABLE
  2
VPORT
  5
8
330
0
100
AcDbSymbolTable
 70
     1
  0
VPORT
  5
29
330
8
100
AcDbSymbolTableRecord
100
AcDbViewportTableRecord
  2
*Active
 70
     0
 10
0.0
 20
0.0
 11
1.0
 21
1.0
 12
148.5
 22
105.0
 13
0.0
 23
0.0
 14
10.0
 24
10.0
 15
10.0
 25
10.0
 16
0.0
 26
0.0
 36
1.0
 17
0.0
 27
0.0
 37
0.0
 40
210.0
 41
1.4142857143
 42
50.0
 43
0.0
 44
0.0
 50
0.0
 51
0.0
 71
     0
 72
  2000
 73
     1
 74
     3
 75
     0
 76
     0
 77
     0
 78
     0
281
     0
 65
     1
110
0.0
120
0.0
130
0.0
111
1.0
121
0.0
131
0.0
112
0.0
122
1.0
132
0.0
 79
     0
146
0.0
  0
ENDTAB
  0
TABLE
  2
LTYPE
  5
5
330
0
100
AcDbSymbolTable
 70
     6
  0
LTYPE
  5
14
330
5
100
AcDbSymbolTableRecord
100
AcDbLinetypeTableRecord
  2
ByBlock
 70
     0
  3

 72
    65
 73
     0
 40
0.0
  0
LTYPE
  5
15
330
5
100
AcDbSymbolTableRecord
100
AcDbLinetypeTableRecord
  2
ByLayer
 70
     0
  3

 72
    65
 73
     0
 40
0.0
  0
LTYPE
  5
16
330
5
100
AcDbSymbolTableRecord
100
AcDbLinetypeTableRecord
  2
Continuous
 70
     0
  3
Solid line
 72
    65
 73
     0
 40
0.0
  0
LTYPE
  5
3B
330
5
100
AcDbSymbolTableRecord
100
AcDbLinetypeTableRecord
  2
HIDDEN
 70
     0
  3
Hidden __ __ __ __ __ __ __ __ __ __ __ __ __ __
 72
    65
 73
     2
 40
1.905
 49
1.27
 74
     0
 49
-0.635
 74
     0
  0
LTYPE
  5
3C
330
5
100
AcDbSymbolTableRecord
100
AcDbLinetypeTableRecord
  2
PHANTOM
 70
     0
  3
Phantom ______  __  __  ______  __  __  ______
 72
    65
 73
     6
 40
12.7
 49
6.35
 74
     0
 49
-1.27
 74
     0
 49
1.27
 74
     0
 49
-1.27
 74
     0
 49
1.27
 74
     0
 49
-1.27
 74
     0
  0
LTYPE
  5
3D
330
5
100
AcDbSymbolTableRecord
100
AcDbLinetypeTableRecord
  2
CENTER
 70
     0
  3
Center ____ _ ____ _ ____ _ ____ _ ____ _ ____
 72
    65
 73
     4
 40
10.16
 49
6.35
 74
     0
 49
-1.27
 74
     0
 49
1.27
 74
     0
 49
-1.27
 74
     0
  0
LTYPE
  5
3E
330
5
100
AcDbSymbolTableRecord
100
AcDbLinetypeTableRecord
  2
CENTERX2
 70
     0
  3
Center (2x) ________  __  ________  __  _____
 72
    65
 73
     4
 40
20.32
 49
12.7
 74
     0
 49
-2.54
 74
     0
 49
2.54
 74
     0
 49
-2.54
 74
     0
  0
LTYPE
  5
3F
330
5
100
AcDbSymbolTableRecord
100
AcDbLinetypeTableRecord
  2
DOT2
 70
     0
  3
Dot (.5x) ........................................
 72
    65
 73
     2
 40
0.635
 49
0.0
 74
     0
 49
-0.635
 74
     0
  0
ENDTAB
  0
TABLE
  2
LAYER
  5
2
330
0
100
AcDbSymbolTable
 70
     5
  0
LAYER
  5
10
330
2
100
AcDbSymbolTableRecord
100
AcDbLayerTableRecord
  2
0
 70
     0
 62
     7
  6
Continuous
370
    -3
390
F
  0
LAYER
  5
40
330
2
100
AcDbSymbolTableRecord
100
AcDbLayerTableRecord
  2
FORMAT
 70
     0
 62
     7
  6
Continuous
370
    -3
390
F
  0
LAYER
  5
41
330
2
100
AcDbSymbolTableRecord
100
AcDbLayerTableRecord
  2
VERMASSUNG
 70
     0
 62
     7
  6
Continuous
370
    -3
390
F
  0
LAYER
  5
42
330
2
100
AcDbSymbolTableRecord
100
AcDbLayerTableRecord
  2
KOPF_DÜNN
 70
     0
 62
     7
  6
Continuous
370
    -3
390
F
  0
LAYER
  5
43
330
2
100
AcDbSymbolTableRecord
100
AcDbLayerTableRecord
  2
KOPF_DICK
 70
     0
 62
     7
  6
Continuous
370
    15
390
F
  0
ENDTAB
  0
TABLE
  2
STYLE
  5
3
330
0
100
AcDbSymbolTable
 70
     3
  0
STYLE
  5
11
330
3
100
AcDbSymbolTableRecord
100
AcDbTextStyleTableRecord
  2
Standard
 70
     0
 40
0.0
 41
1.0
 50
0.0
 71
     0
 42
2.5
  3
txt
  4

  0
STYLE
  5
44
330
3
100
AcDbSymbolTableRecord
100
AcDbTextStyleTableRecord
  2
SLDTEXTSTYLE0
 70
     0
 40
0.0
 41
0.7
 50
0.0
 71
     0
 42
0.2
  3
TXT
  4

  0
STYLE
  5
48
330
3
100
AcDbSymbolTableRecord
100
AcDbTextStyleTableRecord
  2
SLDTEXTSTYLE1
 70
     0
 40
0.0
 41
0.65
 50
0.0
 71
     0
 42
0.2
  3
TXT
  4

  0
ENDTAB
  0
TABLE
  2
VIEW
  5
6
330
0
100
AcDbSymbolTable
 70
     0
  0
ENDTAB
  0
TABLE
  2
UCS
  5
7
330
0
100
AcDbSymbolTable
 70
     0
  0
ENDTAB
  0
TABLE
  2
APPID
  5
9
330
0
100
AcDbSymbolTable
 70
     1
  0
APPID
  5
12
330
9
100
AcDbSymbolTableRecord
100
AcDbRegAppTableRecord
  2
ACAD
 70
     0
  0
ENDTAB
  0
TABLE
  2
DIMSTYLE
  5
A
330
0
100
AcDbSymbolTable
 70
     4
100
AcDbDimStyleTable
  0
DIMSTYLE
105
27
330
A
100
AcDbSymbolTableRecord
100
AcDbDimStyleTableRecord
  2
ISO-25
 70
     0
 41
2.5
 42
0.625
 43
3.75
 44
1.25
 73
     0
 74
     0
 77
     1
 78
     8
140
2.5
141
2.5
143
0.0393700787
147
0.625
171
     3
172
     1
271
     2
272
     2
274
     3
278
    44
283
     0
284
     8
340
11
  0
DIMSTYLE
105
1AC
102
{ACAD_REACTORS
330
1AB
330
1DA
330
1E4
330
1EE
330
1F8
102
}
330
A
100
AcDbSymbolTableRecord
100
AcDbDimStyleTableRecord
  2
SLDDIMSTYLE0
 70
     0
 41
3.0
 44
0.0
 45
0.000000001
 73
     0
 74
     0
 77
     1
 78
    12
140
2.0
147
0.5
173
     1
271
     2
272
     3
284
    12
340
44
  0
DIMSTYLE
105
1B9
102
{ACAD_REACTORS
330
1B8
102
}
330
A
100
AcDbSymbolTableRecord
100
AcDbDimStyleTableRecord
  2
SLDDIMSTYLE1
 70
     0
 41
3.0
 44
0.0
 45
0.000000001
 73
     0
 74
     0
 77
     1
 78
    12
140
2.0
147
0.5
173
     1
271
     2
272
     2
284
    12
340
44
  0
DIMSTYLE
105
1C4
102
{ACAD_REACTORS
330
1C3
330
1CF
102
}
330
A
100
AcDbSymbolTableRecord
100
AcDbDimStyleTableRecord
  2
SLDDIMSTYLE2
 70
     0
 41
3.0
 44
0.0
 45
0.000000001
 73
     0
 74
     0
 77
     1
 78
    12
140
2.0
147
0.5
173
     1
271
     2
272
     3
284
    12
340
44
  0
ENDTAB
  0
TABLE
  2
BLOCK_RECORD
  5
1
330
0
100
AcDbSymbolTable
 70
     9
  0
BLOCK_RECORD
  5
1F
330
1
100
AcDbSymbolTableRecord
100
AcDbBlockTableRecord
  2
*Model_Space
340
22
  0
BLOCK_RECORD
  5
1B
330
1
100
AcDbSymbolTableRecord
100
AcDbBlockTableRecord
  2
*Paper_Space
340
1E
  0
BLOCK_RECORD
  5
23
330
1
100
AcDbSymbolTableRecord
100
AcDbBlockTableRecord
  2
*Paper_Space0
340
26
  0
BLOCK_RECORD
  5
1AD
330
1
100
AcDbSymbolTableRecord
100
AcDbBlockTableRecord
  2
*D1
340
0
  0
BLOCK_RECORD
  5
1BA
330
1
100
AcDbSymbolTableRecord
100
AcDbBlockTableRecord
  2
*D2
340
0
  0
BLOCK_RECORD
  5
1C5
330
1
100
AcDbSymbolTableRecord
100
AcDbBlockTableRecord
  2
*D3
340
0
  0
BLOCK_RECORD
  5
1D0
330
1
100
AcDbSymbolTableRecord
100
AcDbBlockTableRecord
  2
*D4
340
0
  0
BLOCK_RECORD
  5
1DB
330
1
100
AcDbSymbolTableRecord
100
AcDbBlockTableRecord
  2
*D5
340
0
  0
BLOCK_RECORD
  5
1E5
330
1
100
AcDbSymbolTableRecord
100
AcDbBlockTableRecord
  2
*D6
340
0
  0
BLOCK_RECORD
  5
1EF
330
1
100
AcDbSymbolTableRecord
100
AcDbBlockTableRecord
  2
*D7
340
0
  0
BLOCK_RECORD
  5
1F9
330
1
100
AcDbSymbolTableRecord
100
AcDbBlockTableRecord
  2
*D8
340
0
  0
ENDTAB
  0
ENDSEC
  0
SECTION
  2
BLOCKS
  0
BLOCK
  5
20
330
1F
100
AcDbEntity
  8
0
100
AcDbBlockBegin
  2
*Model_Space
 70
     0
 10
0.0
 20
0.0
 30
0.0
  3
*Model_Space
  1

  0
ENDBLK
  5
21
330
1F
100
AcDbEntity
  8
0
100
AcDbBlockEnd
  0
BLOCK
  5
1C
330
1B
100
AcDbEntity
 67
     1
  8
0
100
AcDbBlockBegin
  2
*Paper_Space
 70
     0
 10
0.0
 20
0.0
 30
0.0
  3
*Paper_Space
  1

  0
ENDBLK
  5
1D
330
1B
100
AcDbEntity
 67
     1
  8
0
100
AcDbBlockEnd
  0
BLOCK
  5
24
330
23
100
AcDbEntity
  8
0
100
AcDbBlockBegin
  2
*Paper_Space0
 70
     0
 10
0.0
 20
0.0
 30
0.0
  3
*Paper_Space0
  1

  0
ENDBLK
  5
25
330
23
100
AcDbEntity
  8
0
100
AcDbBlockEnd
  0
BLOCK
  5
1AE
330
1AD
100
AcDbEntity
  8
0
100
AcDbBlockBegin
  2
*D1
 70
     1
 10
0.0
 20
0.0
 30
0.0
  3
*D1
  1

  0
SOLID
  5
1B0
330
1AD
100
AcDbEntity
  8
VERMASSUNG
100
AcDbTrace
 10
36.8746478873
 20
161.3819068256
 30
0.0
 11
36.4246478873
 21
158.3819068256
 31
0.0
 12
37.3246478873
 22
158.3819068256
 32
0.0
 13
37.3246478873
 23
158.3819068256
 33
0.0
  0
SOLID
  5
1B1
330
1AD
100
AcDbEntity
  8
VERMASSUNG
100
AcDbTrace
 10
36.8746478873
 20
61.3819068256
 30
0.0
 11
37.3246478873
 21
64.3819068256
 31
0.0
 12
36.4246478873
 22
64.3819068256
 32
0.0
 13
36.4246478873
 23
64.3819068256
 33
0.0
  0
LINE
  5
1B2
330
1AD
100
AcDbEntity
  8
VERMASSUNG
100
AcDbLine
 10
93.3201369395
 20
161.3819068256
 30
0.0
 11
35.8746478873
 21
161.3819068256
 31
0.0
  0
LINE
  5
1B3
330
1AD
100
AcDbEntity
  8
VERMASSUNG
100
AcDbLine
 10
93.3201369395
 20
61.3819068256
 30
0.0
 11
35.8746478873
 21
61.3819068256
 31
0.0
  0
LINE
  5
1B4
330
1AD
100
AcDbEntity
  8
VERMASSUNG
100
AcDbLine
 10
36.8746478873
 20
161.3819068256
 30
0.0
 11
36.8746478873
 21
61.3819068256
 31
0.0
  0
MTEXT
  5
1B5
330
1AD
100
AcDbEntity
  8
VERMASSUNG
100
AcDbMText
 10
34.0965123983
 20
103.178255688
 30
0.0
 40
2.0
 41
0.0
 71
     1
 72
     1
  1
HSK A 
  7
SLDTEXTSTYLE0
 11
-7.044195017643634E-15
 21
1.0
 31
0.0
 73
     1
 44
1.0
  0
MTEXT
  5
1B6
330
1AD
100
AcDbEntity
  8
VERMASSUNG
100
AcDbMText
 10
34.2965124078
 20
112.1782562319
 30
0.0
 40
2.0
 41
0.0
 71
     1
 72
     1
  1
%%c
  7
SLDTEXTSTYLE0
 11
-7.044195017643634E-15
 21
1.0
 31
0.0
 73
     1
 44
1.0
  0
MTEXT
  5
1B7
330
1AD
100
AcDbEntity
  8
VERMASSUNG
100
AcDbMText
 10
34.2965125242
 20
115.7865828819
 30
0.0
 40
2.0
 41
0.0
 71
     1
 72
     1
  1
100
  7
SLDTEXTSTYLE0
 11
-7.044195017643634E-15
 21
1.0
 31
0.0
 73
     1
 44
1.0
  0
ENDBLK
  5
1AF
330
1AD
100
AcDbEntity
  8
0
100
AcDbBlockEnd
  0
BLOCK
  5
1BB
330
1BA
100
AcDbEntity
  8
0
100
AcDbBlockBegin
  2
*D2
 70
     1
 10
0.0
 20
0.0
 30
0.0
  3
*D2
  1

  0
SOLID
  5
1BD
330
1BA
100
AcDbEntity
  8
VERMASSUNG
100
AcDbTrace
 10
195.3201369395
 20
159.3819068256
 30
0.0
 11
198.3201369395
 21
158.9319068256
 31
0.0
 12
198.3201369395
 22
159.8319068256
 32
0.0
 13
198.3201369395
 23
159.8319068256
 33
0.0
  0
SOLID
  5
1BE
330
1BA
100
AcDbEntity
  8
VERMASSUNG
100
AcDbTrace
 10
252.8201369395
 20
159.3819068256
 30
0.0
 11
249.8201369395
 21
159.8319068256
 31
0.0
 12
249.8201369395
 22
158.9319068256
 32
0.0
 13
249.8201369395
 23
158.9319068256
 33
0.0
  0
LINE
  5
1BF
330
1BA
100
AcDbEntity
  8
VERMASSUNG
100
AcDbLine
 10
195.3201369395
 20
123.7819068256
 30
0.0
 11
195.3201369395
 21
160.3819068256
 31
0.0
  0
LINE
  5
1C0
330
1BA
100
AcDbEntity
  8
VERMASSUNG
100
AcDbLine
 10
252.8201369395
 20
131.0709305964
 30
0.0
 11
252.8201369395
 21
160.3819068256
 31
0.0
  0
LINE
  5
1C1
330
1BA
100
AcDbEntity
  8
VERMASSUNG
100
AcDbLine
 10
195.3201369395
 20
159.3819068256
 30
0.0
 11
252.8201369395
 21
159.3819068256
 31
0.0
  0
MTEXT
  5
1C2
330
1BA
100
AcDbEntity
  8
VERMASSUNG
100
AcDbMText
 10
221.6705399731
 20
161.9600421887
 30
0.0
 40
2.0
 41
0.0
 71
     1
 72
     1
  1
57.5
  7
SLDTEXTSTYLE0
 73
     1
 44
1.0
  0
ENDBLK
  5
1BC
330
1BA
100
AcDbEntity
  8
0
100
AcDbBlockEnd
  0
BLOCK
  5
1C6
330
1C5
100
AcDbEntity
  8
0
100
AcDbBlockBegin
  2
*D3
 70
     1
 10
0.0
 20
0.0
 30
0.0
  3
*D3
  1

  0
SOLID
  5
1C8
330
1C5
100
AcDbEntity
  8
VERMASSUNG
100
AcDbTrace
 10
262.9379163868
 20
98.8819068256
 30
0.0
 11
263.3879163868
 21
101.8819068256
 31
0.0
 12
262.4879163868
 22
101.8819068256
 32
0.0
 13
262.4879163868
 23
101.8819068256
 33
0.0
  0
SOLID
  5
1C9
330
1C5
100
AcDbEntity
  8
VERMASSUNG
100
AcDbTrace
 10
262.9379163868
 20
123.8819068256
 30
0.0
 11
262.4879163868
 21
120.8819068256
 31
0.0
 12
263.3879163868
 22
120.8819068256
 32
0.0
 13
263.3879163868
 23
120.8819068256
 33
0.0
  0
LINE
  5
1CA
330
1C5
100
AcDbEntity
  8
VERMASSUNG
100
AcDbLine
 10
249.3201369395
 20
98.8819068256
 30
0.0
 11
263.9379163868
 21
98.8819068256
 31
0.0
  0
LINE
  5
1CB
330
1C5
100
AcDbEntity
  8
VERMASSUNG
100
AcDbLine
 10
249.3201369395
 20
123.8819068256
 30
0.0
 11
263.9379163868
 21
123.8819068256
 31
0.0
  0
LINE
  5
1CC
330
1C5
100
AcDbEntity
  8
VERMASSUNG
100
AcDbLine
 10
262.9379163868
 20
98.8819068256
 30
0.0
 11
262.9379163868
 21
123.8819068256
 31
0.0
  0
MTEXT
  5
1CD
330
1C5
100
AcDbEntity
  8
VERMASSUNG
100
AcDbMText
 10
260.3597809072
 20
108.1781895991
 30
0.0
 40
2.0
 41
0.0
 71
     1
 72
     1
  1
%%c
  7
SLDTEXTSTYLE0
 11
6.123233995736766E-17
 21
1.0
 31
0.0
 73
     1
 44
1.0
  0
MTEXT
  5
1CE
330
1C5
100
AcDbEntity
  8
VERMASSUNG
100
AcDbMText
 10
260.3597810237
 20
111.7868678223
 30
0.0
 40
2.0
 41
0.0
 71
     1
 72
     1
  1
25
  7
SLDTEXTSTYLE0
 11
6.123233995736766E-17
 21
1.0
 31
0.0
 73
     1
 44
1.0
  0
ENDBLK
  5
1C7
330
1C5
100
AcDbEntity
  8
0
100
AcDbBlockEnd
  0
BLOCK
  5
1D1
330
1D0
100
AcDbEntity
  8
0
100
AcDbBlockBegin
  2
*D4
 70
     1
 10
0.0
 20
0.0
 30
0.0
  3
*D4
  1

  0
SOLID
  5
1D3
330
1D0
100
AcDbEntity
  8
VERMASSUNG
100
AcDbTrace
 10
268.9379163868
 20
89.3819068256
 30
0.0
 11
269.3879163868
 21
92.3819068256
 31
0.0
 12
268.4879163868
 22
92.3819068256
 32
0.0
 13
268.4879163868
 23
92.3819068256
 33
0.0
  0
SOLID
  5
1D4
330
1D0
100
AcDbEntity
  8
VERMASSUNG
100
AcDbTrace
 10
268.9379163868
 20
133.3819068256
 30
0.0
 11
268.4879163868
 21
130.3819068256
 31
0.0
 12
269.3879163868
 22
130.3819068256
 32
0.0
 13
269.3879163868
 23
130.3819068256
 33
0.0
  0
LINE
  5
1D5
330
1D0
100
AcDbEntity
  8
VERMASSUNG
100
AcDbLine
 10
252.8201369395
 20
89.3819068256
 30
0.0
 11
269.9379163868
 21
89.3819068256
 31
0.0
  0
LINE
  5
1D6
330
1D0
100
AcDbEntity
  8
VERMASSUNG
100
AcDbLine
 10
252.8201369395
 20
133.3819068256
 30
0.0
 11
269.9379163868
 21
133.3819068256
 31
0.0
  0
LINE
  5
1D7
330
1D0
100
AcDbEntity
  8
VERMASSUNG
100
AcDbLine
 10
268.9379163868
 20
89.3819068256
 30
0.0
 11
268.9379163868
 21
133.3819068256
 31
0.0
  0
MTEXT
  5
1D8
330
1D0
100
AcDbEntity
  8
VERMASSUNG
100
AcDbMText
 10
266.3597809072
 20
107.9786099675
 30
0.0
 40
2.0
 41
0.0
 71
     1
 72
     1
  1
%%c
  7
SLDTEXTSTYLE0
 11
6.123233995736766E-17
 21
1.0
 31
0.0
 73
     1
 44
1.0
  0
MTEXT
  5
1D9
330
1D0
100
AcDbEntity
  8
VERMASSUNG
100
AcDbMText
 10
266.3597810237
 20
111.5872881907
 30
0.0
 40
2.0
 41
0.0
 71
     1
 72
     1
  1
44
  7
SLDTEXTSTYLE0
 11
6.123233995736766E-17
 21
1.0
 31
0.0
 73
     1
 44
1.0
  0
ENDBLK
  5
1D2
330
1D0
100
AcDbEntity
  8
0
100
AcDbBlockEnd
  0
BLOCK
  5
1DC
330
1DB
100
AcDbEntity
  8
0
100
AcDbBlockBegin
  2
*D5
 70
     1
 10
0.0
 20
0.0
 30
0.0
  3
*D5
  1

  0
SOLID
  5
1DE
330
1DB
100
AcDbEntity
  8
VERMASSUNG
100
AcDbTrace
 10
92.8201369395
 20
171.3819068256
 30
0.0
 11
95.8201369395
 21
170.9319068256
 31
0.0
 12
95.8201369395
 22
171.8319068256
 32
0.0
 13
95.8201369395
 23
171.8319068256
 33
0.0
  0
SOLID
  5
1DF
330
1DB
100
AcDbEntity
  8
VERMASSUNG
100
AcDbTrace
 10
252.8201369395
 20
171.3819068256
 30
0.0
 11
249.8201369395
 21
171.8319068256
 31
0.0
 12
249.8201369395
 22
170.9319068256
 32
0.0
 13
249.8201369395
 23
170.9319068256
 33
0.0
  0
LINE
  5
1E0
330
1DB
100
AcDbEntity
  8
VERMASSUNG
100
AcDbLine
 10
92.8201369395
 20
160.8819068256
 30
0.0
 11
92.8201369395
 21
172.3819068256
 31
0.0
  0
LINE
  5
1E1
330
1DB
100
AcDbEntity
  8
VERMASSUNG
100
AcDbLine
 10
252.8201369395
 20
131.0709305964
 30
0.0
 11
252.8201369395
 21
172.3819068256
 31
0.0
  0
LINE
  5
1E2
330
1DB
100
AcDbEntity
  8
VERMASSUNG
100
AcDbLine
 10
92.8201369395
 20
171.3819068256
 30
0.0
 11
252.8201369395
 21
171.3819068256
 31
0.0
  0
MTEXT
  5
1E3
330
1DB
100
AcDbEntity
  8
VERMASSUNG
100
AcDbMText
 10
170.9206493989
 20
173.9600421887
 30
0.0
 40
2.0
 41
0.0
 71
     1
 72
     1
  1
160
  7
SLDTEXTSTYLE0
 73
     1
 44
1.0
  0
ENDBLK
  5
1DD
330
1DB
100
AcDbEntity
  8
0
100
AcDbBlockEnd
  0
BLOCK
  5
1E6
330
1E5
100
AcDbEntity
  8
0
100
AcDbBlockBegin
  2
*D6
 70
     1
 10
0.0
 20
0.0
 30
0.0
  3
*D6
  1

  0
SOLID
  5
1E8
330
1E5
100
AcDbEntity
  8
VERMASSUNG
100
AcDbTrace
 10
121.7701369395
 20
165.3819068256
 30
0.0
 11
124.7701369395
 21
164.9319068256
 31
0.0
 12
124.7701369395
 22
165.8319068256
 32
0.0
 13
124.7701369395
 23
165.8319068256
 33
0.0
  0
SOLID
  5
1E9
330
1E5
100
AcDbEntity
  8
VERMASSUNG
100
AcDbTrace
 10
252.8201369395
 20
165.3819068256
 30
0.0
 11
249.8201369395
 21
165.8319068256
 31
0.0
 12
249.8201369395
 22
164.9319068256
 32
0.0
 13
249.8201369395
 23
164.9319068256
 33
0.0
  0
LINE
  5
1EA
330
1E5
100
AcDbEntity
  8
VERMASSUNG
100
AcDbLine
 10
121.7701369395
 20
159.3506466464
 30
0.0
 11
121.7701369395
 21
166.3819068256
 31
0.0
  0
LINE
  5
1EB
330
1E5
100
AcDbEntity
  8
VERMASSUNG
100
AcDbLine
 10
252.8201369395
 20
131.0709305964
 30
0.0
 11
252.8201369395
 21
166.3819068256
 31
0.0
  0
LINE
  5
1EC
330
1E5
100
AcDbEntity
  8
VERMASSUNG
100
AcDbLine
 10
121.7701369395
 20
165.3819068256
 30
0.0
 11
252.8201369395
 21
165.3819068256
 31
0.0
  0
MTEXT
  5
1ED
330
1E5
100
AcDbEntity
  8
VERMASSUNG
100
AcDbMText
 10
183.8953211215
 20
167.9600421887
 30
0.0
 40
2.0
 41
0.0
 71
     1
 72
     1
  1
131.05
  7
SLDTEXTSTYLE0
 73
     1
 44
1.0
  0
ENDBLK
  5
1E7
330
1E5
100
AcDbEntity
  8
0
100
AcDbBlockEnd
  0
BLOCK
  5
1F0
330
1EF
100
AcDbEntity
  8
0
100
AcDbBlockBegin
  2
*D7
 70
     1
 10
0.0
 20
0.0
 30
0.0
  3
*D7
  1

  0
SOLID
  5
1F2
330
1EF
100
AcDbEntity
  8
VERMASSUNG
100
AcDbTrace
 10
42.9201369395
 20
177.3819068256
 30
0.0
 11
45.9201369395
 21
176.9319068256
 31
0.0
 12
45.9201369395
 22
177.8319068256
 32
0.0
 13
45.9201369395
 23
177.8319068256
 33
0.0
  0
SOLID
  5
1F3
330
1EF
100
AcDbEntity
  8
VERMASSUNG
100
AcDbTrace
 10
252.8201369395
 20
177.3819068256
 30
0.0
 11
249.8201369395
 21
177.8319068256
 31
0.0
 12
249.8201369395
 22
176.9319068256
 32
0.0
 13
249.8201369395
 23
176.9319068256
 33
0.0
  0
LINE
  5
1F4
330
1EF
100
AcDbEntity
  8
VERMASSUNG
100
AcDbLine
 10
42.9201369395
 20
141.8845765681
 30
0.0
 11
42.9201369395
 21
178.3819068256
 31
0.0
  0
LINE
  5
1F5
330
1EF
100
AcDbEntity
  8
VERMASSUNG
100
AcDbLine
 10
252.8201369395
 20
131.0709305964
 30
0.0
 11
252.8201369395
 21
178.3819068256
 31
0.0
  0
LINE
  5
1F6
330
1EF
100
AcDbEntity
  8
VERMASSUNG
100
AcDbLine
 10
42.9201369395
 20
177.3819068256
 30
0.0
 11
252.8201369395
 21
177.3819068256
 31
0.0
  0
MTEXT
  5
1F7
330
1EF
100
AcDbEntity
  8
VERMASSUNG
100
AcDbMText
 10
144.7708509157
 20
179.9600421887
 30
0.0
 40
2.0
 41
0.0
 71
     1
 72
     1
  1
209.9
  7
SLDTEXTSTYLE0
 73
     1
 44
1.0
  0
ENDBLK
  5
1F1
330
1EF
100
AcDbEntity
  8
0
100
AcDbBlockEnd
  0
BLOCK
  5
1FA
330
1F9
100
AcDbEntity
  8
0
100
AcDbBlockBegin
  2
*D8
 70
     1
 10
0.0
 20
0.0
 30
0.0
  3
*D8
  1

  0
SOLID
  5
1FC
330
1F9
100
AcDbEntity
  8
VERMASSUNG
100
AcDbTrace
 10
274.9379163868
 20
139.3819068256
 30
0.0
 11
274.4879163868
 21
136.3819068256
 31
0.0
 12
275.3879163868
 22
136.3819068256
 32
0.0
 13
275.3879163868
 23
136.3819068256
 33
0.0
  0
SOLID
  5
1FD
330
1F9
100
AcDbEntity
  8
VERMASSUNG
100
AcDbTrace
 10
274.9379163868
 20
83.3819068256
 30
0.0
 11
275.3879163868
 21
86.3819068256
 31
0.0
 12
274.4879163868
 22
86.3819068256
 32
0.0
 13
274.4879163868
 23
86.3819068256
 33
0.0
  0
LINE
  5
1FE
330
1F9
100
AcDbEntity
  8
VERMASSUNG
100
AcDbLine
 10
170.7701369395
 20
139.3819068256
 30
0.0
 11
275.9379163868
 21
139.3819068256
 31
0.0
  0
LINE
  5
1FF
330
1F9
100
AcDbEntity
  8
VERMASSUNG
100
AcDbLine
 10
170.7701369395
 20
83.3819068256
 30
0.0
 11
275.9379163868
 21
83.3819068256
 31
0.0
  0
LINE
  5
200
330
1F9
100
AcDbEntity
  8
VERMASSUNG
100
AcDbLine
 10
274.9379163868
 20
139.3819068256
 30
0.0
 11
274.9379163868
 21
83.3819068256
 31
0.0
  0
MTEXT
  5
201
330
1F9
100
AcDbEntity
  8
VERMASSUNG
100
AcDbMText
 10
272.3597809072
 20
108.1781895991
 30
0.0
 40
2.0
 41
0.0
 71
     1
 72
     1
  1
%%c
  7
SLDTEXTSTYLE0
 11
-7.044195017643634E-15
 21
1.0
 31
0.0
 73
     1
 44
1.0
  0
MTEXT
  5
202
330
1F9
100
AcDbEntity
  8
VERMASSUNG
100
AcDbMText
 10
272.3597810237
 20
111.7868678223
 30
0.0
 40
2.0
 41
0.0
 71
     1
 72
     1
  1
56
  7
SLDTEXTSTYLE0
 11
-7.044195017643634E-15
 21
1.0
 31
0.0
 73
     1
 44
1.0
  0
ENDBLK
  5
1FB
330
1F9
100
AcDbEntity
  8
0
100
AcDbBlockEnd
  0
ENDSEC
  0
SECTION
  2
ENTITIES
  0
MTEXT
  5
45
330
1F
100
AcDbEntity
  8
KOPF_DÜNN
100
AcDbMText
 10
13.8892156294
 20
23.8442973028
 30
0.0
 40
3.0
 41
0.0
 71
     1
 72
     1
  1
HA0.S25.K21.160
  7
SLDTEXTSTYLE0
 73
     1
 44
1.0
  0
MTEXT
  5
46
330
1F
100
AcDbEntity
  8
VERMASSUNG
100
AcDbMText
 10
13.9329988022
 20
28.8834360957
 30
0.0
 40
3.0
 41
0.0
 71
     1
 72
     1
  1
Schrumpffutter_Heat shrink chuck
  7
SLDTEXTSTYLE0
 73
     1
 44
1.0
  0
MTEXT
  5
47
330
1F
100
AcDbEntity
  8
VERMASSUNG
100
AcDbMText
 10
98.8601118557
 20
13.8365368179
 30
0.0
 40
2.0
 41
0.0
 71
     1
 72
     1
  1
Datum: 02.05.2011
  7
SLDTEXTSTYLE0
 73
     1
 44
1.0
  0
MTEXT
  5
49
330
1F
100
AcDbEntity
  8
VERMASSUNG
100
AcDbMText
 10
13.933048693
 20
18.0482802738
 30
0.0
 40
2.0
 41
0.0
 71
     1
 72
     1
  1
DIN 69 893 HSK A 100
  7
SLDTEXTSTYLE1
 73
     1
 44
1.0
  0
MTEXT
  5
4A
330
1F
100
AcDbEntity
  8
VERMASSUNG
100
AcDbMText
 10
13.9808475933
 20
13.9090973692
 30
0.0
 40
2.0
 41
0.0
 71
     1
 72
     1
  1
Gewicht: 4003g
  7
SLDTEXTSTYLE0
 73
     1
 44
1.0
  0
LINE
  5
4B
330
1F
100
AcDbEntity
  8
0
  6
Continuous
 62
     7
370
    15
100
AcDbLine
 10
93.3201369395
 20
61.3819068256
 30
0.0
 11
97.7701369395
 21
61.3819068256
 31
0.0
  0
LINE
  5
4C
330
1F
100
AcDbEntity
  8
0
  6
Continuous
 62
     7
370
    15
100
AcDbLine
 10
97.785514911
 20
161.3819068256
 30
0.0
 11
93.3201369395
 21
161.3819068256
 31
0.0
  0
ARC
  5
4D
330
1F
100
AcDbEntity
  8
0
  6
Continuous
 62
     7
370
    15
100
AcDbCircle
 10
93.3201369395
 20
61.8819068256
 30
0.0
 40
0.5
100
AcDbArc
 50
180.0
 51
270.0
  0
ARC
  5
4E
330
1F
100
AcDbEntity
  8
0
  6
Continuous
 62
     7
370
    15
100
AcDbCircle
 10
93.3201369395
 20
160.8819068256
 30
0.0
 40
0.5
100
AcDbArc
 50
90.0
 51
180.0
  0
ARC
  5
4F
330
1F
100
AcDbEntity
  8
0
  6
Continuous
 62
     7
370
    15
100
AcDbCircle
 10
91.9232000211
 20
72.7534215011
 30
0.0
 40
0.9962338214386793
100
AcDbArc
 50
25.7988228126
 51
90.0
  0
ARC
  5
50
330
1F
100
AcDbEntity
  8
0
  6
Continuous
 62
     7
370
    15
100
AcDbCircle
 10
91.9232000211
 20
150.01039215
 30
0.0
 40
0.9962338214386932
100
AcDbArc
 50
270.0
 51
334.2011771874
  0
LINE
  5
51
330
1F
100
AcDbEntity
  8
0
  6
Continuous
 62
     7
370
    15
100
AcDbLine
 10
90.3201369395
 20
73.4996553226
 30
0.0
 11
91.1259830939
 21
73.7155811489
 31
0.0
  0
LINE
  5
52
330
1F
100
AcDbEntity
  8
0
  6
Continuous
 62
     7
370
    15
100
AcDbLine
 10
91.1259830939
 20
149.0482325023
 30
0.0
 11
90.3201369395
 21
149.2641583286
 31
0.0
  0
LINE
  5
53
330
1F
100
AcDbEntity
  8
0
  6
Continuous
 62
     7
370
    15
100
AcDbLine
 10
71.3394580209
 20
148.313222511
 30
0.0
 11
53.0201369395
 21
147.3954208536
 31
0.0
  0
LINE
  5
54
330
1F
100
AcDbEntity
  8
0
  6
Continuous
 62
     7
370
    15
100
AcDbLine
 10
90.3201369395
 20
149.2641583286
 30
0.0
 11
84.252097785
 21
148.9601483509
 31
0.0
  0
LINE
  5
55
330
1F
100
AcDbEntity
  8
0
  6
Continuous
 62
     7
370
    15
100
AcDbLine
 10
84.2522210615
 20
73.8036591241
 30
0.0
 11
90.3201369395
 21
73.4996553226
 31
0.0
  0
LINE
  5
56
330
1F
100
AcDbEntity
  8
0
  6
Continuous
 62
     7
370
    15
100
AcDbLine
 10
58.0201369395
 20
75.1178917955
 30
0.0
 11
71.3400880934
 21
74.4505595734
 31
0.0
  0
ARC
  5
57
330
1F
100
AcDbEntity
  8
0
  6
Continuous
 62
     7
370
    15
100
AcDbCircle
 10
91.384802139
 20
72.7496553226
 30
0.0
 40
0.9999999999999957
100
AcDbArc
 50
90.0
 51
105.0
  0
ARC
  5
58
330
1F
100
AcDbEntity
  8
0
  6
Continuous
 62
     7
370
    15
100
AcDbCircle
 10
91.384802139
 20
150.0141583286
 30
0.0
 40
1.0
100
AcDbArc
 50
255.0
 51
270.0
  0
LINE
  5
59
330
1F
100
AcDbEntity
  8
0
  6
Continuous
 62
     7
370
    15
100
AcDbLine
 10
91.384802139
 20
73.7496553226
 30
0.0
 11
91.9232000211
 21
73.7496553226
 31
0.0
  0
LINE
  5
5A
330
1F
100
AcDbEntity
  8
0
  6
Continuous
 62
     7
370
    15
100
AcDbLine
 10
91.9232000211
 20
149.0141583286
 30
0.0
 11
91.384802139
 21
149.0141583286
 31
0.0
  0
ARC
  5
5B
330
1F
100
AcDbEntity
  8
0
  6
Continuous
 62
     7
370
    15
100
AcDbCircle
 10
126.7701369395
 20
74.4642871195
 30
0.0
 40
5.000000000000005
100
AcDbArc
 50
106.5116637356
 51
180.0
  0
ARC
  5
5C
330
1F
100
AcDbEntity
  8
0
  6
Continuous
 62
     7
370
    15
100
AcDbCircle
 10
126.7701369395
 20
148.2995265317
 30
0.0
 40
5.000000000000005
100
AcDbArc
 50
180.0
 51
253.4883362644
  0
ARC
  5
5D
330
1F
100
AcDbEntity
  8
0
  6
Continuous
 62
     7
370
    15
100
AcDbCircle
 10
153.7701369395
 20
-16.6180931744
 30
0.0
 40
100.0
100
AcDbArc
 50
90.0
 51
106.5116637356
  0
ARC
  5
5E
330
1F
100
AcDbEntity
  8
0
  6
Continuous
 62
     7
370
    15
100
AcDbCircle
 10
153.7701369395
 20
239.3819068256
 30
0.0
 40
100.0
100
AcDbArc
 50
253.4883362644
 51
270.0
  0
LINE
  5
5F
330
1F
100
AcDbEntity
  8
0
  6
Continuous
 62
     7
370
    15
100
AcDbLine
 10
165.2693297326
 20
83.3819068256
 30
0.0
 11
170.7701369395
 21
83.3819068256
 31
0.0
  0
LINE
  5
60
330
1F
100
AcDbEntity
  8
0
  6
Continuous
 62
     7
370
    15
100
AcDbLine
 10
153.7701369395
 20
83.3819068256
 30
0.0
 11
158.2808715491
 21
83.3819068256
 31
0.0
  0
LINE
  5
61
330
1F
100
AcDbEntity
  8
0
  6
Continuous
 62
     7
370
    15
100
AcDbLine
 10
158.2730409012
 20
139.3819068256
 30
0.0
 11
153.7701369395
 21
139.3819068256
 31
0.0
  0
LINE
  5
62
330
1F
100
AcDbEntity
  8
0
  6
Continuous
 62
     7
370
    15
100
AcDbLine
 10
170.7701369395
 20
139.3819068256
 30
0.0
 11
165.2592979231
 21
139.3819068256
 31
0.0
  0
ARC
  5
63
330
1F
100
AcDbEntity
  8
0
  6
Continuous
 62
     7
370
    15
100
AcDbCircle
 10
195.2190632963
 20
-115.1180931744
 30
0.0
 40
200.0
100
AcDbArc
 50
90.0
 51
97.0216644232
  0
ARC
  5
64
330
1F
100
AcDbEntity
  8
0
  6
Continuous
 62
     7
370
    15
100
AcDbCircle
 10
195.2190632963
 20
337.8819068256
 30
0.0
 40
200.0
100
AcDbArc
 50
262.9783355768
 51
270.0
  0
LINE
  5
65
330
1F
100
AcDbEntity
  8
0
  6
Continuous
 62
     7
370
    15
100
AcDbLine
 10
195.2190632963
 20
84.8819068256
 30
0.0
 11
195.6422156267
 21
84.8819068256
 31
0.0
  0
LINE
  5
66
330
1F
100
AcDbEntity
  8
0
  6
Continuous
 62
     7
370
    15
100
AcDbLine
 10
195.6422156267
 20
137.8819068256
 30
0.0
 11
195.2190632963
 21
137.8819068256
 31
0.0
  0
LINE
  5
67
330
1F
100
AcDbEntity
  8
0
  6
Continuous
 62
     7
370
    15
100
AcDbLine
 10
195.6422156267
 20
84.8819068256
 30
0.0
 11
250.5162846788
 21
89.2005897204
 31
0.0
  0
LINE
  5
68
330
1F
100
AcDbEntity
  8
0
  6
Continuous
 62
     7
370
    15
100
AcDbLine
 10
250.5162846788
 20
133.5632239308
 30
0.0
 11
195.6422156267
 21
137.8819068256
 31
0.0
  0
ARC
  5
69
330
1F
100
AcDbEntity
  8
0
  6
Continuous
 62
     7
370
    15
100
AcDbCircle
 10
250.3201369395
 20
91.6928830547
 30
0.0
 40
2.500000000000057
100
AcDbArc
 50
274.5
 51
0.0
  0
ARC
  5
6A
330
1F
100
AcDbEntity
  8
0
  6
Continuous
 62
     7
370
    15
100
AcDbCircle
 10
250.3201369395
 20
131.0709305964
 30
0.0
 40
2.500000000000057
100
AcDbArc
 50
0.0
 51
85.5
  0
LINE
  5
6B
330
1F
100
AcDbEntity
  8
0
  6
Continuous
 62
     7
370
    15
100
AcDbLine
 10
44.5701369395
 20
79.1319068256
 30
0.0
 11
56.1201369395
 21
79.1319068256
 31
0.0
  0
ARC
  5
6C
330
1F
100
AcDbEntity
  8
0
  6
Continuous
 62
     7
370
    15
100
AcDbCircle
 10
56.1201369395
 20
77.2319068256
 30
0.0
 40
1.900000000000019
100
AcDbArc
 50
35.6630613694
 51
90.0
  0
ARC
  5
6D
330
1F
100
AcDbEntity
  8
0
  6
Continuous
 62
     7
370
    15
100
AcDbCircle
 10
51.1201369395
 20
145.5319068256
 30
0.0
 40
1.900000000000006
100
AcDbArc
 50
270.0
 51
312.7708047792
  0
LINE
  5
6E
330
1F
100
AcDbEntity
  8
0
  6
Continuous
 62
     7
370
    15
100
AcDbLine
 10
44.5701369395
 20
143.6319068256
 30
0.0
 11
42.9769205776
 21
142.0386904636
 31
0.0
  0
LINE
  5
6F
330
1F
100
AcDbEntity
  8
0
  6
Continuous
 62
     7
370
    15
100
AcDbLine
 10
42.97765984
 20
80.7243839251
 30
0.0
 11
44.5701369395
 21
79.1319068256
 31
0.0
  0
LINE
  5
70
330
1F
100
AcDbEntity
  8
0
  6
Continuous
 62
     7
370
    15
100
AcDbLine
 10
51.1201369395
 20
143.6319068256
 30
0.0
 11
44.5701369395
 21
143.6319068256
 31
0.0
  0
LINE
  5
71
330
1F
100
AcDbEntity
  8
0
  6
Continuous
 62
     7
370
    15
100
AcDbLine
 10
252.8201369395
 20
92.5799307399
 30
0.0
 11
252.9226050586
 21
92.7746905996
 31
0.0
  0
LINE
  5
72
330
1F
100
AcDbEntity
  8
0
  6
Continuous
 62
     7
370
    15
100
AcDbLine
 10
252.8440854271
 20
129.9922080963
 30
0.0
 11
252.8201369395
 21
130.0377266842
 31
0.0
  0
SPLINE
  5
73
330
1F
100
AcDbEntity
  8
0
  6
Continuous
 62
     7
370
    15
100
AcDbSpline
210
0.0
220
0.0
230
1.0
 70
     8
 71
     3
 72
    80
 73
    76
 74
     0
 42
0.00000001
 43
0.00000001
 40
-0.0312499999999993
 40
-0.0312499999999993
 40
0.0
 40
0.0
 40
0.0312500000000006
 40
0.0312500000000006
 40
0.0468750000000008
 40
0.0468750000000008
 40
0.062500000000001
 40
0.062500000000001
 40
0.0937500000000012
 40
0.0937500000000012
 40
0.1250000000000014
 40
0.1250000000000014
 40
0.1562500000000016
 40
0.1562500000000016
 40
0.1875000000000017
 40
0.1875000000000017
 40
0.2187500000000019
 40
0.2187500000000019
 40
0.2500000000000021
 40
0.2500000000000021
 40
0.2812500000000023
 40
0.2812500000000023
 40
0.3125000000000025
 40
0.3125000000000025
 40
0.3281250000000026
 40
0.3281250000000026
 40
0.3437500000000028
 40
0.3437500000000028
 40
0.3750000000000032
 40
0.3750000000000032
 40
0.4062500000000037
 40
0.4062500000000037
 40
0.4218750000000038
 40
0.4218750000000038
 40
0.4375000000000038
 40
0.4375000000000038
 40
0.4687500000000037
 40
0.4687500000000037
 40
0.5000000000000036
 40
0.5000000000000036
 40
0.5312500000000036
 40
0.5312500000000036
 40
0.5625000000000034
 40
0.5625000000000034
 40
0.5937500000000034
 40
0.5937500000000034
 40
0.6250000000000034
 40
0.6250000000000034
 40
0.6562500000000033
 40
0.6562500000000033
 40
0.6875000000000033
 40
0.6875000000000033
 40
0.7031250000000033
 40
0.7031250000000033
 40
0.7187500000000033
 40
0.7187500000000033
 40
0.7500000000000036
 40
0.7500000000000036
 40
0.7812500000000039
 40
0.7812500000000039
 40
0.7968750000000038
 40
0.7968750000000038
 40
0.8125000000000037
 40
0.8125000000000037
 40
0.8437500000000031
 40
0.8437500000000031
 40
0.8750000000000024
 40
0.8750000000000024
 40
0.9062500000000019
 40
0.9062500000000019
 40
0.9375000000000013
 40
0.9375000000000013
 40
0.9687500000000007
 40
0.9687500000000007
 40
1.0
 40
1.0
 40
1.031250000000001
 40
1.031250000000001
 10
101.4895916267361
 20
154.7965362892002
 30
0.0
 10
102.1506822522887
 20
154.7965362892002
 30
0.0
 10
102.4756623815403
 20
154.8127445205823
 30
0.0
 10
102.9551357927867
 20
154.8601091526019
 30
0.0
 10
103.1136176106275
 20
154.8797633644926
 30
0.0
 10
103.4278371431318
 20
154.9268745206852
 30
0.0
 10
103.5839574268122
 20
154.9544558401799
 30
0.0
 10
104.0380114557688
 20
155.0469916269737
 30
0.0
 10
104.3251148387086
 20
155.1220620605702
 30
0.0
 10
104.8684693947356
 20
155.2973003691808
 30
0.0
 10
105.1255730059412
 20
155.398301667019
 30
0.0
 10
105.58647926088
 20
155.6156578654799
 30
0.0
 10
105.793376970095
 20
155.7328221972521
 30
0.0
 10
106.1589022840872
 20
155.9828921214808
 30
0.0
 10
106.3141078062131
 20
156.1138382102398
 30
0.0
 10
106.5635381928128
 20
156.3795731539521
 30
0.0
 10
106.659628148598
 20
156.5163267472631
 30
0.0
 10
106.7881469977916
 20
156.7903923221021
 30
0.0
 10
106.8199578679694
 20
156.9253324125709
 30
0.0
 10
106.8203145177426
 20
157.1908040496396
 30
0.0
 10
106.7878172655456
 20
157.3226285267809
 30
0.0
 10
106.6601917918311
 20
157.5720781264013
 30
0.0
 10
106.5657633907792
 20
157.6905108183293
 30
0.0
 10
106.3779025707936
 20
157.8593800154234
 30
0.0
 10
106.3070745719904
 20
157.9144660105436
 30
0.0
 10
106.1523526800251
 20
158.019718839032
 30
0.0
 10
106.0683762098418
 20
158.0700540677923
 30
0.0
 10
105.7970525401973
 20
158.2146299003304
 30
0.0
 10
105.590503321595
 20
158.3024914867474
 30
0.0
 10
105.123893181406
 20
158.4622125797469
 30
0.0
 10
104.8715276117805
 20
158.5314508762141
 30
0.0
 10
104.4656262701018
 20
158.6212382654439
 30
0.0
 10
104.3257256526243
 20
158.6488042275302
 30
0.0
 10
104.0365017173774
 20
158.6992950284565
 30
0.0
 10
103.8866622610881
 20
158.7222584673071
 30
0.0
 10
103.4325456914773
 20
158.782888983726
 30
0.0
 10
103.1208944727405
 20
158.8129630125218
 30
0.0
 10
102.4798980078281
 20
158.8535525997804
 30
0.0
 10
102.1483703798759
 20
158.8638648299965
 30
0.0
 10
101.4955793348044
 20
158.8639403971623
 30
0.0
 10
101.1710431297726
 20
158.8540387916945
 30
0.0
 10
100.5257736803562
 20
158.8135522611693
 30
0.0
 10
100.2100306741935
 20
158.7830909612846
 30
0.0
 10
99.60814137920978
 20
158.702940289848
 30
0.0
 10
99.31739214839833
 20
158.6526580580409
 30
0.0
 10
98.77048035671382
 20
158.5319878752679
 30
0.0
 10
98.51870299287691
 20
158.4627640160979
 30
0.0
 10
98.05731500025577
 20
158.3053122884572
 30
0.0
 10
97.84604572065768
 20
158.2159638137834
 30
0.0
 10
97.48274136828148
 20
158.0227159430827
 30
0.0
 10
97.3289347198387
 20
157.9185879512033
 30
0.0
 10
97.14031525024129
 20
157.7499635650199
 30
0.0
 10
97.08428476403218
 20
157.6913351633449
 30
0.0
 10
96.98871100229601
 20
157.5718802485187
 30
0.0
 10
96.94894808527101
 20
157.5109604596805
 30
0.0
 10
96.85317633495887
 20
157.3245557335066
 30
0.0
 10
96.82045349583277
 20
157.1954429157116
 30
0.0
 10
96.81982490950368
 20
156.9267859927557
 30
0.0
 10
96.85201105423846
 20
156.7914152519989
 30
0.0
 10
96.94692175609404
 20
156.587864943763
 30
0.0
 10
96.98638853949299
 20
156.5198930196995
 30
0.0
 10
97.08131853821388
 20
156.3838007965686
 30
0.0
 10
97.13707536597725
 20
156.3154506963592
 30
0.0
 10
97.32501548394714
 20
156.1147476833171
 30
0.0
 10
97.47837695366331
 20
155.9853594095044
 30
0.0
 10
97.84064118854367
 20
155.7366939774545
 30
0.0
 10
98.05148966200957
 20
155.6168843350864
 30
0.0
 10
98.5121596323285
 20
155.3993620475137
 30
0.0
 10
98.76353401191233
 20
155.3002769476777
 30
0.0
 10
99.30944189881045
 20
155.1236044737609
 30
0.0
 10
99.60026447346168
 20
155.0475473856269
 30
0.0
 10
100.2015910882417
 20
154.9247024082739
 30
0.0
 10
100.5161096728541
 20
154.8769962832208
 30
0.0
 10
101.162691128974
 20
154.8127477481011
 30
0.0
 10
101.4895916267361
 20
154.7965362892002
 30
0.0
 10
102.1506822522887
 20
154.7965362892002
 30
0.0
  0
LINE
  5
74
330
1F
100
AcDbEntity
  8
0
  6
Continuous
 62
     7
370
    15
100
AcDbLine
 10
97.7701369395
 20
142.7319068256
 30
0.0
 11
109.5581079186
 21
142.7319068256
 31
0.0
  0
LINE
  5
75
330
1F
100
AcDbEntity
  8
0
  6
Continuous
 62
     7
370
    15
100
AcDbLine
 10
109.5581079186
 20
62.6069132325
 30
0.0
 11
109.5581079186
 21
142.7319068256
 31
0.0
  0
LINE
  5
76
330
1F
100
AcDbEntity
  8
0
  6
Continuous
 62
     7
370
    15
100
AcDbLine
 10
109.5581079186
 20
62.6069132325
 30
0.0
 11
107.7701369395
 21
62.6069132325
 31
0.0
  0
SPLINE
  5
77
330
1F
100
AcDbEntity
  8
0
  6
Continuous
 62
     7
370
    15
100
AcDbSpline
210
0.0
220
0.0
230
1.0
 70
     8
 71
     3
 72
    30
 73
    26
 74
     0
 42
0.00000001
 43
0.00000001
 40
0.0
 40
0.0
 40
0.0
 40
0.0
 40
0.1249999999999998
 40
0.1249999999999998
 40
0.1874999999999996
 40
0.1874999999999996
 40
0.2499999999999995
 40
0.2499999999999995
 40
0.3749999999999994
 40
0.3749999999999994
 40
0.4374999999999993
 40
0.4374999999999993
 40
0.4999999999999992
 40
0.4999999999999992
 40
0.6249999999999996
 40
0.6249999999999996
 40
0.6874999999999997
 40
0.6874999999999997
 40
0.7499999999999998
 40
0.7499999999999998
 40
0.8124999999999999
 40
0.8124999999999999
 40
0.8749999999999999
 40
0.8749999999999999
 40
1.0
 40
1.0
 40
1.0
 40
1.0
 10
107.7701369395123
 20
62.60691323254009
 30
0.0
 10
107.1073922456673
 20
62.60691323254009
 30
0.0
 10
106.4561363865516
 20
62.59207315595125
 30
0.0
 10
105.4956858482933
 20
62.54970359172166
 30
0.0
 10
105.1782944050604
 20
62.53222548894245
 30
0.0
 10
104.5491309035055
 20
62.49089720239019
 30
0.0
 10
104.2369827170638
 20
62.46697192893246
 30
0.0
 10
103.3296754152155
 20
62.38816541246555
 30
0.0
 10
102.7562504575743
 20
62.32585939248909
 30
0.0
 10
101.9423735879996
 20
62.22273007224971
 30
0.0
 10
101.6775673914297
 20
62.18654615320322
 30
0.0
 10
101.1706599806154
 20
62.11275136900271
 30
0.0
 10
100.9292658292619
 20
62.07527751023107
 30
0.0
 10
100.2401243571296
 20
61.96256556689133
 30
0.0
 10
99.82706954226535
 20
61.88702946941757
 30
0.0
 10
99.27891472289029
 20
61.77863621240007
 30
0.0
 10
99.1094521155447
 20
61.74356398073681
 30
0.0
 10
98.80143486752932
 20
61.67732852013695
 30
0.0
 10
98.66205484692097
 20
61.64600182338224
 30
0.0
 10
98.41226933429422
 20
61.58759305180131
 30
0.0
 10
98.3018632216403
 20
61.56050981661846
 30
0.0
 10
98.1106053680026
 20
61.51125006200486
 30
0.0
 10
98.0294858497183
 20
61.48898808219722
 30
0.0
 10
97.8353389296099
 20
61.43142117502894
 30
0.0
 10
97.77013693951234
 20
61.40516157024294
 30
0.0
 10
97.77013693951234
 20
61.39190782576892
 30
0.0
  0
LINE
  5
78
330
1F
100
AcDbEntity
  8
0
  6
Continuous
 62
     7
370
    15
100
AcDbLine
 10
97.7701369395
 20
61.3919078258
 30
0.0
 11
97.7701369395
 21
61.3819068256
 31
0.0
  0
SPLINE
  5
79
330
1F
100
AcDbEntity
  8
0
  6
Continuous
 62
     7
370
    15
100
AcDbSpline
210
0.0
220
0.0
230
1.0
 70
     8
 71
     3
 72
    23
 73
    19
 74
     0
 42
0.00000001
 43
0.00000001
 40
0.0
 40
0.0
 40
0.0
 40
0.0
 40
0.0520256687590417
 40
0.1044186119084699
 40
0.1579654762732602
 40
0.2119084390155454
 40
0.2639329008030785
 40
0.3697142245600879
 40
0.4235868577364619
 40
0.4762679679182532
 40
0.5833878371337097
 40
0.6379530306539525
 40
0.6910551819358518
 40
0.7445319929992283
 40
0.7992014233075213
 40
0.8542881036302086
 40
0.9066815619543735
 40
1.0
 40
1.0
 40
1.0
 40
1.0
 10
107.7701369395123
 20
160.3717016812325
 30
0.0
 10
107.4971245423174
 20
160.3730232497392
 30
0.0
 10
106.9491724212031
 20
160.375675716345
 30
0.0
 10
106.1260260637479
 20
160.3971506047726
 30
0.0
 10
105.3047809631557
 20
160.4313683234407
 30
0.0
 10
104.5033521530475
 20
160.478420233608
 30
0.0
 10
103.4709688989046
 20
160.5554091844339
 30
0.0
 10
102.4937208842806
 20
160.6512864350944
 30
0.0
 10
101.5926738730246
 20
160.7582158828826
 30
0.0
 10
100.7437000939232
 20
160.870062690723
 30
0.0
 10
99.98613164831497
 20
160.9842912894524
 30
0.0
 10
99.34114335786546
 20
161.0908710358162
 30
0.0
 10
98.91656948466768
 20
161.1648009922173
 30
0.0
 10
98.55401283501858
 20
161.2306915502741
 30
0.0
 10
98.2528112778949
 20
161.2873879014883
 30
0.0
 10
98.02555770586015
 20
161.331324147723
 30
0.0
 10
97.81945040863765
 20
161.371982594551
 30
0.0
 10
97.79876347060463
 20
161.3761660339405
 30
0.0
 10
97.78551491099292
 20
161.3788452388593
 30
0.0
  0
LINE
  5
7A
330
1F
100
AcDbEntity
  8
0
  6
Continuous
 62
     7
370
    15
100
AcDbLine
 10
109.5581079186
 20
160.3717016812
 30
0.0
 11
107.7701369395
 21
160.3717016812
 31
0.0
  0
LINE
  5
7B
330
1F
100
AcDbEntity
  8
0
  6
Continuous
 62
     7
370
    15
100
AcDbLine
 10
109.5581079186
 20
150.3328695865
 30
0.0
 11
109.5581079186
 21
160.3717016812
 31
0.0
  0
LINE
  5
7C
330
1F
100
AcDbEntity
  8
0
  6
Continuous
 62
     7
370
    15
100
AcDbLine
 10
107.4781037877
 20
150.3328695865
 30
0.0
 11
109.5581079186
 21
150.3328695865
 31
0.0
  0
SPLINE
  5
7D
330
1F
100
AcDbEntity
  8
0
  6
Continuous
 62
     7
370
    15
100
AcDbSpline
210
0.0
220
0.0
230
1.0
 70
     8
 71
     3
 72
    22
 73
    18
 74
     0
 42
0.00000001
 43
0.00000001
 40
0.0
 40
0.0
 40
0.0
 40
0.0
 40
0.2500000000000009
 40
0.2500000000000009
 40
0.3750000000000009
 40
0.3750000000000009
 40
0.500000000000001
 40
0.500000000000001
 40
0.6250000000000009
 40
0.6250000000000009
 40
0.7500000000000007
 40
0.7500000000000007
 40
0.8750000000000004
 40
0.8750000000000004
 40
0.9375000000000002
 40
0.9375000000000002
 40
1.0
 40
1.0
 40
1.0
 40
1.0
 10
97.77013693951234
 20
142.7319068255689
 30
0.0
 10
97.97286189543144
 20
143.7511531674335
 30
0.0
 10
98.28760561722682
 20
144.7102613173728
 30
0.0
 10
98.99566108689778
 20
146.0527403948821
 30
0.0
 10
99.27412371711543
 20
146.4869489776221
 30
0.0
 10
99.91289112375263
 20
147.2985766931242
 30
0.0
 10
100.2733048035428
 20
147.6778569860611
 30
0.0
 10
101.0908370355321
 20
148.380815565082
 30
0.0
 10
101.5520050188192
 20
148.7058443827826
 30
0.0
 10
102.549995265303
 20
149.2708597061735
 30
0.0
 10
103.0897544592953
 20
149.5145633003801
 30
0.0
 10
104.2643474233266
 20
149.918763228025
 30
0.0
 10
104.8760836093185
 20
150.0712004210705
 30
0.0
 10
105.8279928341802
 20
150.2265279686792
 30
0.0
 10
106.1512259984409
 20
150.2660327487293
 30
0.0
 10
106.8102891697161
 20
150.319341869398
 30
0.0
 10
107.1443531802901
 20
150.3328695864559
 30
0.0
 10
107.4781037876917
 20
150.3328695864558
 30
0.0
  0
LINE
  5
7E
330
1F
100
AcDbEntity
  8
0
  6
Continuous
 62
     7
370
    15
100
AcDbLine
 10
110.9101369395
 20
65.0105185385
 30
0.0
 11
110.9101369395
 21
142.7319068256
 31
0.0
  0
SPLINE
  5
7F
330
1F
100
AcDbEntity
  8
0
  6
Continuous
 62
     7
370
    15
100
AcDbSpline
210
0.0
220
0.0
230
1.0
 70
     8
 71
     3
 72
     8
 73
     4
 74
     0
 42
0.00000001
 43
0.00000001
 40
0.0
 40
0.0
 40
0.0
 40
0.0
 40
1.0
 40
1.0
 40
1.0
 40
1.0
 10
110.9101369395124
 20
65.01051853854541
 30
0.0
 10
110.4599104752346
 20
64.20906317592065
 30
0.0
 10
110.0092126479912
 20
63.40787316435998
 30
0.0
 10
109.5581079185909
 20
62.60691323254006
 30
0.0
  0
SPLINE
  5
80
330
1F
100
AcDbEntity
  8
0
  6
Continuous
 62
     7
370
    15
100
AcDbSpline
210
0.0
220
0.0
230
1.0
 70
    24
 71
     3
 72
     8
 73
     4
 74
     0
 42
0.00000001
 43
0.00000001
 40
0.0
 40
0.0
 40
0.0
 40
0.0
 40
1.0
 40
1.0
 40
1.0
 40
1.0
 10
109.5581079185909
 20
142.7319068255689
 30
0.0
 10
110.0149094909192
 20
142.7319068255689
 30
0.0
 10
110.4659240571584
 20
142.7319068255689
 30
0.0
 10
110.9101369395124
 20
142.7319068255689
 30
0.0
  0
LINE
  5
81
330
1F
100
AcDbEntity
  8
0
  6
Continuous
 62
     7
370
    15
100
AcDbLine
 10
121.7701369395
 20
63.6325612803
 30
0.0
 11
121.7701369395
 21
142.7319068256
 31
0.0
  0
SPLINE
  5
82
330
1F
100
AcDbEntity
  8
0
  6
Continuous
 62
     7
370
    15
100
AcDbSpline
210
0.0
220
0.0
230
1.0
 70
     8
 71
     3
 72
    14
 73
    10
 74
     0
 42
0.00000001
 43
0.00000001
 40
0.0
 40
0.0
 40
0.0
 40
0.0
 40
0.25
 40
0.25
 40
0.5
 40
0.5
 40
0.75
 40
0.75
 40
1.0
 40
1.0
 40
1.0
 40
1.0
 10
121.7701369395124
 20
63.63256128031558
 30
0.0
 10
121.7701369395124
 20
63.49913558426104
 30
0.0
 10
121.7448258396015
 20
63.3672877764167
 30
0.0
 10
121.6464910757567
 20
63.12076522772259
 30
0.0
 10
121.5733470715007
 20
63.00696003948206
 30
0.0
 10
121.389909010405
 20
62.81650286253478
 30
0.0
 10
121.2782226760664
 20
62.73886799868486
 30
0.0
 10
121.0357192457601
 20
62.63457658857238
 30
0.0
 10
120.9023448170659
 20
62.60691323254003
 30
0.0
 10
120.7701369395124
 20
62.60691323254004
 30
0.0
  0
SPLINE
  5
83
330
1F
100
AcDbEntity
  8
0
  6
Continuous
 62
     7
370
    15
100
AcDbSpline
210
0.0
220
0.0
230
1.0
 70
    24
 71
     3
 72
    12
 73
     8
 74
     0
 42
0.00000001
 43
0.00000001
 40
0.0
 40
0.0
 40
0.0
 40
0.0
 40
0.2500000000000032
 40
0.2500000000000032
 40
0.5000000000000064
 40
0.5000000000000064
 40
1.0
 40
1.0
 40
1.0
 40
1.0
 10
120.7701369395124
 20
142.7319068255689
 30
0.0
 10
120.9222271764573
 20
142.7319068255689
 30
0.0
 10
121.0706864375328
 20
142.7319068255689
 30
0.0
 10
121.3280900697985
 20
142.7319068255689
 30
0.0
 10
121.4371948176404
 20
142.7319068255689
 30
0.0
 10
121.6912542940479
 20
142.7319068255689
 30
0.0
 10
121.7701369395124
 20
142.7319068255689
 30
0.0
 10
121.7701369395124
 20
142.7319068255689
 30
0.0
  0
LINE
  5
84
330
1F
100
AcDbEntity
  8
0
  6
Continuous
 62
     7
370
    15
100
AcDbLine
 10
116.0821659604
 20
62.6069132325
 30
0.0
 11
116.0821659604
 21
142.7319068256
 31
0.0
  0
SPLINE
  5
85
330
1F
100
AcDbEntity
  8
0
  6
Continuous
 62
     7
370
    15
100
AcDbSpline
210
0.0
220
0.0
230
1.0
 70
     8
 71
     3
 72
     8
 73
     4
 74
     0
 42
0.00000001
 43
0.00000001
 40
0.0
 40
0.0
 40
0.0
 40
0.0
 40
1.0
 40
1.0
 40
1.0
 40
1.0
 10
116.0821659604337
 20
62.60691323254009
 30
0.0
 10
115.6310612310335
 20
63.40787316435999
 30
0.0
 10
115.1803634037901
 20
64.20906317592066
 30
0.0
 10
114.7301369395123
 20
65.01051853854543
 30
0.0
  0
LINE
  5
86
330
1F
100
AcDbEntity
  8
0
  6
Continuous
 62
     7
370
    15
100
AcDbLine
 10
114.7301369395
 20
65.0105185385
 30
0.0
 11
114.7301369395
 21
142.7319068256
 31
0.0
  0
SPLINE
  5
87
330
1F
100
AcDbEntity
  8
0
  6
Continuous
 62
     7
370
    15
100
AcDbSpline
210
0.0
220
0.0
230
1.0
 70
    24
 71
     3
 72
     8
 73
     4
 74
     0
 42
0.00000001
 43
0.00000001
 40
0.0
 40
0.0
 40
0.0
 40
0.0
 40
1.0
 40
1.0
 40
1.0
 40
1.0
 10
114.7301369395123
 20
142.7319068255689
 30
0.0
 10
115.1743498218663
 20
142.7319068255689
 30
0.0
 10
115.6253643881055
 20
142.7319068255689
 30
0.0
 10
116.0821659604337
 20
142.7319068255689
 30
0.0
  0
LINE
  5
88
330
1F
100
AcDbEntity
  8
0
  6
Continuous
 62
     7
370
    15
100
AcDbLine
 10
92.8201369395
 20
61.8819068256
 30
0.0
 11
92.8201369395
 21
160.8819068228
 31
0.0
  0
LINE
  5
89
330
1F
100
AcDbEntity
  8
0
  6
Continuous
 62
     7
370
    15
100
AcDbLine
 10
120.7701369395
 20
62.6069132325
 30
0.0
 11
116.0821659604
 21
62.6069132325
 31
0.0
  0
LINE
  5
8A
330
1F
100
AcDbEntity
  8
0
  6
Continuous
 62
     7
370
    15
100
AcDbLine
 10
116.0821659604
 20
142.7319068256
 30
0.0
 11
120.7701369395
 21
142.7319068256
 31
0.0
  0
SPLINE
  5
8B
330
1F
100
AcDbEntity
  8
0
  6
Continuous
 62
     7
370
    15
100
AcDbSpline
210
0.0
220
0.0
230
1.0
 70
     8
 71
     3
 72
    14
 73
    10
 74
     0
 42
0.00000001
 43
0.00000001
 40
0.0
 40
0.0
 40
0.0
 40
0.0
 40
0.25
 40
0.25
 40
0.5
 40
0.5
 40
0.75
 40
0.75
 40
1.0
 40
1.0
 40
1.0
 40
1.0
 10
114.7301369395124
 20
65.918728043174
 30
0.0
 10
114.7301369395123
 20
66.02577212416838
 30
0.0
 10
114.7100192523542
 20
66.13100726441081
 30
0.0
 10
114.6315280630886
 20
66.32885775125852
 30
0.0
 10
114.5733714382874
 20
66.41990951482343
 30
0.0
 10
114.4268561826693
 20
66.57307560874821
 30
0.0
 10
114.3382136340282
 20
66.63537005495762
 30
0.0
 10
114.1424903112279
 20
66.72016384049361
 30
0.0
 10
114.0372591201569
 20
66.74223136751924
 30
0.0
 10
113.9301369395124
 20
66.74223136751925
 30
0.0
  0
SPLINE
  5
8C
330
1F
100
AcDbEntity
  8
0
  6
Continuous
 62
     7
370
    15
100
AcDbSpline
210
0.0
220
0.0
230
1.0
 70
    24
 71
     3
 72
    14
 73
    10
 74
     0
 42
0.00000001
 43
0.00000001
 40
0.0
 40
0.0
 40
0.0
 40
0.0
 40
0.25
 40
0.25
 40
0.5
 40
0.5
 40
0.75
 40
0.75
 40
1.0
 40
1.0
 40
1.0
 40
1.0
 10
113.9301369395124
 20
142.7319068255689
 30
0.0
 10
114.0539067042775
 20
142.7319068255689
 30
0.0
 10
114.1782738082844
 20
142.7319068255689
 30
0.0
 10
114.3846302770104
 20
142.7319068255689
 30
0.0
 10
114.4699584204288
 20
142.7319068255689
 30
0.0
 10
114.602150479144
 20
142.7319068255689
 30
0.0
 10
114.6507957228946
 20
142.7319068255689
 30
0.0
 10
114.7143315146234
 20
142.7319068255689
 30
0.0
 10
114.7301369395124
 20
142.7319068255689
 30
0.0
 10
114.7301369395124
 20
142.7319068255689
 30
0.0
  0
SPLINE
  5
8D
330
1F
100
AcDbEntity
  8
0
  6
Continuous
 62
     7
370
    15
100
AcDbSpline
210
0.0
220
0.0
230
1.0
 70
     8
 71
     3
 72
    12
 73
     8
 74
     0
 42
0.00000001
 43
0.00000001
 40
0.0
 40
0.0
 40
0.0
 40
0.0
 40
0.250000000000003
 40
0.250000000000003
 40
0.500000000000006
 40
0.500000000000006
 40
1.0
 40
1.0
 40
1.0
 40
1.0
 10
111.7101369395123
 20
66.74223136751925
 30
0.0
 10
111.6043762861634
 20
66.74223136751924
 30
0.0
 10
111.4963886579804
 20
66.71969186151884
 30
0.0
 10
111.3017939927148
 20
66.6351212295235
 30
0.0
 10
111.212922079876
 20
66.57263957676469
 30
0.0
 10
110.9937297875501
 20
66.34325062529248
 30
0.0
 10
110.9101369395123
 20
66.13066728777007
 30
0.0
 10
110.9101369395123
 20
65.91872804317383
 30
0.0
  0
SPLINE
  5
8E
330
1F
100
AcDbEntity
  8
0
  6
Continuous
 62
     7
370
    15
100
AcDbSpline
210
0.0
220
0.0
230
1.0
 70
    24
 71
     3
 72
    14
 73
    10
 74
     0
 42
0.00000001
 43
0.00000001
 40
0.0
 40
0.0
 40
0.0
 40
0.0
 40
0.25
 40
0.25
 40
0.5
 40
0.5
 40
0.75
 40
0.75
 40
1.0
 40
1.0
 40
1.0
 40
1.0
 10
110.9101369395123
 20
142.7319068255689
 30
0.0
 10
110.9101369395123
 20
142.7319068255689
 30
0.0
 10
110.9258512599783
 20
142.7319068255689
 30
0.0
 10
110.9895352384467
 20
142.7319068255689
 30
0.0
 10
111.0381384328571
 20
142.7319068255689
 30
0.0
 10
111.1708219552827
 20
142.7319068255689
 30
0.0
 10
111.2559240595934
 20
142.7319068255689
 30
0.0
 10
111.4623662945034
 20
142.7319068255689
 30
0.0
 10
111.5864472361264
 20
142.7319068255689
 30
0.0
 10
111.7101369395123
 20
142.7319068255689
 30
0.0
  0
LINE
  5
8F
330
1F
100
AcDbEntity
  8
0
  6
Continuous
 62
     7
370
    15
100
AcDbLine
 10
113.9301369395
 20
66.7422313675
 30
0.0
 11
111.7101369395
 21
66.7422313675
 31
0.0
  0
LINE
  5
90
330
1F
100
AcDbEntity
  8
0
  6
Continuous
 62
     7
370
    15
100
AcDbLine
 10
111.7101369395
 20
142.7319068256
 30
0.0
 11
113.9301369395
 21
142.7319068256
 31
0.0
  0
LINE
  5
91
330
1F
100
AcDbEntity
  8
0
  6
Continuous
 62
     7
370
    15
100
AcDbLine
 10
90.3201369395
 20
73.4996553226
 30
0.0
 11
90.3201369395
 21
149.2641583286
 31
0.0
  0
LINE
  5
92
330
1F
100
AcDbEntity
  8
0
  6
Continuous
 62
     7
370
    15
100
AcDbLine
 10
58.0201369395
 20
75.1178917955
 30
0.0
 11
58.0201369395
 21
77.5125735602
 31
0.0
  0
SPLINE
  5
93
330
1F
100
AcDbEntity
  8
0
  6
Continuous
 62
     7
370
    15
100
AcDbSpline
210
0.0
220
0.0
230
1.0
 70
     8
 71
     3
 72
    14
 73
    10
 74
     0
 42
0.00000001
 43
0.00000001
 40
0.0
 40
0.0
 40
0.0
 40
0.0
 40
0.2500000000000008
 40
0.2500000000000008
 40
0.5000000000000006
 40
0.5000000000000006
 40
0.7500000000000003
 40
0.7500000000000003
 40
1.0
 40
1.0
 40
1.0
 40
1.0
 10
57.0157144681754
 20
79.21542548182536
 30
0.0
 10
57.10448304612071
 20
79.0568913505174
 30
0.0
 10
57.22620088479965
 20
78.90444867362886
 30
0.0
 10
57.46125049465645
 20
78.60731404979992
 30
0.0
 10
57.57688068087335
 20
78.46263140618257
 30
0.0
 10
57.77728561430118
 20
78.17934220367914
 30
0.0
 10
57.86268590628548
 20
78.0407882106423
 30
0.0
 10
57.98439154000273
 20
77.76940418060876
 30
0.0
 10
58.02013693951535
 20
77.63726831197414
 30
0.0
 10
58.02013693951535
 20
77.51257356020338
 30
0.0
  0
SPLINE
  5
94
330
1F
100
AcDbEntity
  8
0
  6
Continuous
 62
     7
370
    15
100
AcDbSpline
210
0.0
220
0.0
230
1.0
 70
     8
 71
     3
 72
    14
 73
    10
 74
     0
 42
0.00000001
 43
0.00000001
 40
0.0
 40
0.0
 40
0.0
 40
0.0
 40
0.125000000000005
 40
0.125000000000005
 40
0.2500000000000099
 40
0.2500000000000099
 40
0.5000000000000063
 40
0.5000000000000063
 40
1.0
 40
1.0
 40
1.0
 40
1.0
 10
56.12013693951234
 20
79.84425542092546
 30
0.0
 10
56.18771923929683
 20
79.85141130602685
 30
0.0
 10
56.26020681704475
 20
79.84698683598786
 30
0.0
 10
56.3924979263107
 20
79.81728067821753
 30
0.0
 10
56.44977530570086
 20
79.79399639663929
 30
0.0
 10
56.59942573290117
 20
79.71651115678895
 30
0.0
 10
56.67313902842267
 20
79.65465932988758
 30
0.0
 10
56.86094701174888
 20
79.46998187723925
 30
0.0
 10
56.94498731811034
 20
79.34173895394804
 30
0.0
 10
57.0157144681766
 20
79.21542548182545
 30
0.0
  0
SPLINE
  5
95
330
1F
100
AcDbEntity
  8
0
  6
Continuous
 62
     7
370
    15
100
AcDbSpline
210
0.0
220
0.0
230
1.0
 70
     8
 71
     3
 72
     8
 73
     4
 74
     0
 42
0.00000001
 43
0.00000001
 40
0.0
 40
0.0
 40
0.0
 40
0.0
 40
1.0
 40
1.0
 40
1.0
 40
1.0
 10
52.57549655143143
 20
79.42620683613366
 30
0.0
 10
53.74079486214034
 20
79.58139430802028
 30
0.0
 10
54.92541007618021
 20
79.71775294633062
 30
0.0
 10
56.12013693951234
 20
79.84425542092546
 30
0.0
  0
SPLINE
  5
96
330
1F
100
AcDbEntity
  8
0
  6
Continuous
 62
     7
370
    15
100
AcDbSpline
210
0.0
220
0.0
230
1.0
 70
     8
 71
     3
 72
    14
 73
    10
 74
     0
 42
0.00000001
 43
0.00000001
 40
0.0
 40
0.0
 40
0.0
 40
0.0
 40
0.5000000000000001
 40
0.5000000000000001
 40
0.7499999999999989
 40
0.7499999999999989
 40
0.8749999999999996
 40
0.8749999999999996
 40
1.0
 40
1.0
 40
1.0
 40
1.0
 10
44.82006205548202
 20
79.13607465700376
 30
0.0
 10
46.12836361801602
 20
79.14308938074488
 30
0.0
 10
47.43342299267306
 20
79.15849795718935
 30
0.0
 10
49.37929904416175
 20
79.21239451265602
 30
0.0
 10
50.0259965479009
 20
79.23542607725871
 30
0.0
 10
50.98983891175542
 20
79.28636860212946
 30
0.0
 10
51.31007760368955
 20
79.30610352436265
 30
0.0
 10
51.9467728300321
 20
79.35559065283424
 30
0.0
 10
52.26348823831506
 20
79.38465543176348
 30
0.0
 10
52.57549655143146
 20
79.42620683613363
 30
0.0
  0
SPLINE
  5
97
330
1F
100
AcDbEntity
  8
0
  6
Continuous
 62
     7
370
    15
100
AcDbSpline
210
0.0
220
0.0
230
1.0
 70
     8
 71
     3
 72
    12
 73
     8
 74
     0
 42
0.00000001
 43
0.00000001
 40
0.0
 40
0.0
 40
0.0
 40
0.0
 40
0.2500000000000001
 40
0.2500000000000001
 40
0.5000000000000001
 40
0.5000000000000001
 40
1.0
 40
1.0
 40
1.0
 40
1.0
 10
51.12013693951236
 20
143.4684297170653
 30
0.0
 10
50.60143811768417
 20
143.5009524919135
 30
0.0
 10
50.07972654447917
 20
143.524249233084
 30
0.0
 10
49.03343452798362
 20
143.5620947475061
 30
0.0
 10
48.50876290231333
 20
143.5763632220023
 30
0.0
 10
46.93191687977411
 20
143.6105727094606
 30
0.0
 10
45.87696156522722
 20
143.6220722134045
 30
0.0
 10
44.820062055482
 20
143.627738994134
 30
0.0
  0
SPLINE
  5
98
330
1F
100
AcDbEntity
  8
0
  6
Continuous
 62
     7
370
    15
100
AcDbSpline
210
0.0
220
0.0
230
1.0
 70
     8
 71
     3
 72
    20
 73
    16
 74
     0
 42
0.00000001
 43
0.00000001
 40
0.0
 40
0.0
 40
0.0
 40
0.0
 40
0.2499999999999988
 40
0.2499999999999988
 40
0.4999999999999977
 40
0.4999999999999977
 40
0.7499999999999964
 40
0.7499999999999964
 40
0.8749999999999971
 40
0.8749999999999971
 40
0.9374999999999982
 40
0.9374999999999982
 40
0.9687499999999991
 40
0.9687499999999991
 40
1.0
 40
1.0
 40
1.0
 40
1.0
 10
53.02013693951235
 20
145.1265155625535
 30
0.0
 10
53.02013693951235
 20
144.9908332428066
 30
0.0
 10
52.97142515029572
 20
144.8497462566666
 30
0.0
 10
52.80226372707053
 20
144.5576745379361
 30
0.0
 10
52.68048331315222
 20
144.4060257958457
 30
0.0
 10
52.3829362184027
 20
144.1036173556925
 30
0.0
 10
52.20902361269992
 20
143.9510287195692
 30
0.0
 10
51.88960877881812
 20
143.7257579557269
 30
0.0
 10
51.77456800337088
 20
143.6510348612162
 30
0.0
 10
51.56748367935445
 20
143.5516244519592
 30
0.0
 10
51.49137584454806
 20
143.5200593596146
 30
0.0
 10
51.35998130499471
 20
143.4856159754217
 30
0.0
 10
51.31342808599324
 20
143.4765644036541
 30
0.0
 10
51.21709473491251
 20
143.4663887548156
 30
0.0
 10
51.16783531155708
 20
143.4654389961406
 30
0.0
 10
51.12013693951037
 20
143.4684297170552
 30
0.0
  0
LINE
  5
99
330
1F
100
AcDbEntity
  8
0
  6
Continuous
 62
     7
370
    15
100
AcDbLine
 10
53.0201369395
 20
145.1265155626
 30
0.0
 11
53.0201369395
 21
147.3954208536
 31
0.0
  0
SPLINE
  5
9A
330
1F
100
AcDbEntity
  8
0
  6
Continuous
 62
     7
370
    15
100
AcDbSpline
210
0.0
220
0.0
230
1.0
 70
     8
 71
     3
 72
    22
 73
    18
 74
     0
 42
0.00000001
 43
0.00000001
 40
0.0
 40
0.0
 40
0.0
 40
0.0
 40
0.0002937850458186
 40
0.0628841327413374
 40
0.1261981682954104
 40
0.2510182590426629
 40
0.3131038291610295
 40
0.3757650688901447
 40
0.4382989835655121
 40
0.5000628079114054
 40
0.5617337561125819
 40
0.6246555685552126
 40
0.7491916976530685
 40
0.8115302181315633
 40
0.8745847230191042
 40
0.9378227588212174
 40
0.9999999999999999
 40
0.9999999999999999
 40
0.9999999999999999
 40
0.9999999999999999
 10
71.34009320335178
 20
74.45066156725649
 30
0.0
 10
71.33989834994156
 20
74.45063725993664
 30
0.0
 10
71.29819034646054
 20
74.44543432415001
 30
0.0
 10
71.44345344964684
 20
74.46404853203747
 30
0.0
 10
71.91359962681285
 20
74.52057448263365
 30
0.0
 10
72.88205570939901
 20
74.62679611205932
 30
0.0
 10
74.19451551896242
 20
74.71242891949026
 30
0.0
 10
75.32663922759298
 20
74.7510849855895
 30
0.0
 10
76.54882600421419
 20
74.75474629336797
 30
0.0
 10
77.81612439173531
 20
74.71236087859879
 30
0.0
 10
79.08283604596693
 20
74.6239839009221
 30
0.0
 10
80.6984940418367
 20
74.45393477230078
 30
0.0
 10
82.13845665186776
 20
74.23175303774477
 30
0.0
 10
83.20432580803342
 20
74.02875692961052
 30
0.0
 10
83.7935261914702
 20
73.90473149666099
 30
0.0
 10
84.18224570675629
 20
73.81981065621659
 30
0.0
 10
84.2290314195871
 20
73.80908393841224
 30
0.0
 10
84.25222641321491
 20
73.80376594417714
 30
0.0
  0
SPLINE
  5
9B
330
1F
100
AcDbEntity
  8
0
  6
Continuous
 62
     7
370
    15
100
AcDbSpline
210
0.0
220
0.0
230
1.0
 70
     8
 71
     3
 72
    41
 73
    37
 74
     0
 42
0.00000001
 43
0.00000001
 40
0.0
 40
0.0
 40
0.0
 40
0.0
 40
0.0619930061484559
 40
0.1254347783466237
 40
0.1886508898235997
 40
0.2510246408607235
 40
0.3131658188974684
 40
0.3756581641417405
 40
0.4382227146725277
 40
0.499804492294069
 40
0.5615164197174299
 40
0.6240683094121933
 40
0.6867257232409624
 40
0.7488365305144747
 40
0.8110685944254461
 40
0.8741742884451352
 40
0.9373212787639088
 40
0.9685511709612862
 40
0.9842086872484516
 40
0.9920641182530343
 40
0.996000486125458
 40
0.9979710794119774
 40
0.9989570090489371
 40
0.9994501359394937
 40
0.9996967403802097
 40
0.9998200529090677
 40
0.9998817117580786
 40
0.9999125418296593
 40
0.999927957027333
 40
0.9999356646666572
 40
0.9999395184964435
 40
0.9999414454138664
 40
0.999942408873212
 40
0.9999433723329776
 40
0.9999501697003241
 40
1.0
 40
1.0
 40
1.0
 40
1.0
 10
84.25210508273692
 20
148.9600026890091
 30
0.0
 10
84.22853343739354
 20
148.9546932093592
 30
0.0
 10
84.18083928134904
 20
148.9439501684197
 30
0.0
 10
83.78879729192202
 20
148.8587210319641
 30
0.0
 10
83.19828324265069
 20
148.7341522533234
 30
0.0
 10
82.39424579660798
 20
148.5812053071717
 30
0.0
 10
81.41817039642665
 20
148.4194487532183
 30
0.0
 10
80.29636166114823
 20
148.2672159852862
 30
0.0
 10
79.08283074135988
 20
148.1394360440847
 30
0.0
 10
77.81800003496366
 20
148.0515874924021
 30
0.0
 10
76.54995699751937
 20
148.0092020085315
 30
0.0
 10
75.32644963981798
 20
148.0129378165029
 30
0.0
 10
74.19295109939868
 20
148.0515332869504
 30
0.0
 10
73.20684528842655
 20
148.1159726582422
 30
0.0
 10
72.39821747964305
 20
148.1894824655237
 30
0.0
 10
71.8015987845316
 20
148.2567961503348
 30
0.0
 10
71.48620749507367
 20
148.2947607016028
 30
0.0
 10
71.37614092627646
 20
148.3085597609349
 30
0.0
 10
71.34872153846148
 20
148.3120458348556
 30
0.0
 10
71.34179948763145
 20
148.3129250605489
 30
0.0
 10
71.34003124744767
 20
148.3131458351553
 30
0.0
 10
71.33957086827417
 20
148.313201037866
 30
0.0
 10
71.33944670958928
 20
148.3132147776531
 30
0.0
 10
71.33941115509604
 20
148.313218173484
 30
0.0
 10
71.33940001102596
 20
148.3132190018044
 30
0.0
 10
71.33939609782982
 20
148.3132191983931
 30
0.0
 10
71.33939455562499
 20
148.3132192423232
 30
0.0
 10
71.33939388862348
 20
148.3132192506299
 30
0.0
 10
71.33939358044573
 20
148.3132192514602
 30
0.0
 10
71.33939343367966
 20
148.3132192509151
 30
0.0
 10
71.33939336072723
 20
148.3132192505852
 30
0.0
 10
71.33939332633483
 20
148.3132192501479
 30
0.0
 10
71.33939330408967
 20
148.3132192502364
 30
0.0
 10
71.33939327698025
 20
148.3132192474014
 30
0.0
 10
71.33939075741911
 20
148.3132195342566
 30
0.0
 10
71.33942684733731
 20
148.3132149141559
 30
0.0
 10
71.33945860516054
 20
148.3132108486343
 30
0.0
  0
SPLINE
  5
9C
330
1F
100
AcDbEntity
  8
0
  6
Continuous
 62
     7
370
    15
100
AcDbSpline
210
0.0
220
0.0
230
1.0
 70
     8
 71
     3
 72
    20
 73
    16
 74
     0
 42
0.00000001
 43
0.00000001
 40
0.0
 40
0.0
 40
0.0
 40
0.0
 40
0.249999999999986
 40
0.249999999999986
 40
0.3749999999999789
 40
0.3749999999999789
 40
0.4374999999999789
 40
0.4374999999999789
 40
0.4999999999999789
 40
0.4999999999999789
 40
0.6249999999999835
 40
0.6249999999999835
 40
0.7499999999999879
 40
0.7499999999999879
 40
1.0
 40
1.0
 40
1.0
 40
1.0
 10
43.21095117122836
 20
80.70342367286817
 30
0.0
 10
43.23722338844177
 20
80.72274161395065
 30
0.0
 10
43.26790353069661
 20
80.73713032505242
 30
0.0
 10
43.33937440107853
 20
80.73022596321641
 30
0.0
 10
43.36740143812287
 20
80.723059959868
 30
0.0
 10
43.42248502762038
 20
80.6933609331644
 30
0.0
 10
43.44337635617281
 20
80.67988729060306
 30
0.0
 10
43.48858500361827
 20
80.64468902508705
 30
0.0
 10
43.51298921601384
 20
80.62278079635979
 30
0.0
 10
43.58432153406527
 20
80.55065593636424
 30
0.0
 10
43.62621831888555
 20
80.49831539541418
 30
0.0
 10
43.69779427774142
 20
80.40083200351344
 30
0.0
 10
43.72862226755872
 20
80.35407823363502
 30
0.0
 10
43.81172220039429
 20
80.2207850177959
 30
0.0
 10
43.8565771057646
 20
80.1381476198807
 30
0.0
 10
43.89668918121717
 20
80.05904072508991
 30
0.0
  0
SPLINE
  5
9D
330
1F
100
AcDbEntity
  8
0
  6
Continuous
 62
     7
370
    15
100
AcDbSpline
210
0.0
220
0.0
230
1.0
 70
     8
 71
     3
 72
    14
 73
    10
 74
     0
 42
0.00000001
 43
0.00000001
 40
0.0
 40
0.0
 40
0.0
 40
0.0
 40
0.2499999999999994
 40
0.2499999999999994
 40
0.4999999999999988
 40
0.4999999999999988
 40
0.7499999999999982
 40
0.7499999999999982
 40
1.0
 40
1.0
 40
1.0
 40
1.0
 10
42.92013693951235
 20
80.87923708300096
 30
0.0
 10
42.92013693951235
 20
80.83799015197663
 30
0.0
 10
42.9287466558936
 20
80.80108317969415
 30
0.0
 10
42.95983283546395
 20
80.74018311979472
 30
0.0
 10
42.98222238894802
 20
80.71600220025503
 30
0.0
 10
43.03696632012413
 20
80.68203460937175
 30
0.0
 10
43.06941655970932
 20
80.67211452540359
 30
0.0
 10
43.13941807443739
 20
80.67076331649874
 30
0.0
 10
43.17762857455991
 20
80.67892159319489
 30
0.0
 10
43.21095117123301
 20
80.70342367286298
 30
0.0
  0
LINE
  5
9E
330
1F
100
AcDbEntity
  8
0
  6
Continuous
 62
     7
370
    15
100
AcDbLine
 10
42.9201369395
 20
80.879237083
 30
0.0
 11
42.9201369395
 21
141.8845765681
 31
0.0
  0
SPLINE
  5
9F
330
1F
100
AcDbEntity
  8
0
  6
Continuous
 62
     7
370
    15
100
AcDbSpline
210
0.0
220
0.0
230
1.0
 70
     8
 71
     3
 72
    10
 73
     6
 74
     0
 42
0.00000001
 43
0.00000001
 40
0.0
 40
0.0
 40
0.0
 40
0.0
 40
0.0592402688376383
 40
0.6438088530391344
 40
1.0
 40
1.0
 40
1.0
 40
1.0
 10
43.210951171233
 20
142.0603899782747
 30
0.0
 10
43.2061189136118
 20
142.0636388849064
 30
0.0
 10
43.15360311147706
 20
142.0989472130621
 30
0.0
 10
43.05465291379829
 20
142.1052015096207
 30
0.0
 10
43.00522438890695
 20
142.0500012719317
 30
0.0
 10
42.98650972416264
 20
142.0291013170085
 30
0.0
  0
SPLINE
  5
A0
330
1F
100
AcDbEntity
  8
0
  6
Continuous
 62
     7
370
    15
100
AcDbSpline
210
0.0
220
0.0
230
1.0
 70
     8
 71
     3
 72
     8
 73
     4
 74
     0
 42
0.00000001
 43
0.00000001
 40
0.0
 40
0.0
 40
0.0
 40
0.0
 40
1.0
 40
1.0
 40
1.0
 40
1.0
 10
42.94377060844856
 20
141.9921560692065
 30
0.0
 10
42.92842156981253
 20
141.9616460142105
 30
0.0
 10
42.92013693951235
 20
141.9253344586982
 30
0.0
 10
42.92013693951235
 20
141.8845765681368
 30
0.0
  0
SPLINE
  5
A1
330
1F
100
AcDbEntity
  8
0
  6
Continuous
 62
     7
370
    15
100
AcDbSpline
210
0.0
220
0.0
230
1.0
 70
     8
 71
     3
 72
    20
 73
    16
 74
     0
 42
0.00000001
 43
0.00000001
 40
0.0
 40
0.0
 40
0.0
 40
0.0
 40
0.2500000000000037
 40
0.2500000000000037
 40
0.3750000000000055
 40
0.3750000000000055
 40
0.5000000000000073
 40
0.5000000000000073
 40
0.5625000000000057
 40
0.5625000000000057
 40
0.625000000000004
 40
0.625000000000004
 40
0.7500000000000027
 40
0.7500000000000027
 40
1.0
 40
1.0
 40
1.0
 40
1.0
 10
43.89668918121478
 20
142.704772926047
 30
0.0
 10
43.85669296339096
 20
142.6258945194896
 30
0.0
 10
43.8115793355533
 20
142.5427648727981
 30
0.0
 10
43.72832512118677
 20
142.4092762084472
 30
0.0
 10
43.69810579256627
 20
142.3634111525652
 30
0.0
 10
43.62601755742484
 20
142.2652196001603
 30
0.0
 10
43.58410024001375
 20
142.2129097806367
 30
0.0
 10
43.51284963546229
 20
142.1409038779022
 30
0.0
 10
43.48861382308297
 20
142.1191336656006
 30
0.0
 10
43.44301563289832
 20
142.0836590072716
 30
0.0
 10
43.42221314329861
 20
142.0702888230941
 30
0.0
 10
43.36727214487948
 20
142.0407189109588
 30
0.0
 10
43.33920315679268
 20
142.0335923886569
 30
0.0
 10
43.26870032672984
 20
142.0267180171742
 30
0.0
 10
43.23727623893897
 20
142.0410331762613
 30
0.0
 10
43.21095117123038
 20
142.0603899782719
 30
0.0
  0
SPLINE
  5
A2
330
1F
100
AcDbEntity
  8
0
  6
Continuous
 62
     7
370
    15
100
AcDbSpline
210
0.0
220
0.0
230
1.0
 70
     8
 71
     3
 72
    10
 73
     6
 74
     0
 42
0.00000001
 43
0.00000001
 40
0.0
 40
0.0
 40
0.0
 40
0.0
 40
0.4999999999999989
 40
0.4999999999999989
 40
1.0
 40
1.0
 40
1.0
 40
1.0
 10
44.57013693951237
 20
143.6301920273889
 30
0.0
 10
44.44524866876216
 20
143.4991957493174
 30
0.0
 10
44.32379855070172
 20
143.3554829126524
 30
0.0
 10
44.09421457574428
 20
143.0449126199632
 30
0.0
 10
43.9839396003483
 20
142.8768435469001
 30
0.0
 10
43.89668918121478
 20
142.704772926047
 30
0.0
  0
SPLINE
  5
A3
330
1F
100
AcDbEntity
  8
0
  6
Continuous
 62
     7
370
    15
100
AcDbSpline
210
0.0
220
0.0
230
1.0
 70
     8
 71
     3
 72
     8
 73
     4
 74
     0
 42
0.00000001
 43
0.00000001
 40
0.0
 40
0.0
 40
0.0
 40
0.0
 40
1.0
 40
1.0
 40
1.0
 40
1.0
 10
44.82006205547813
 20
143.6277389941335
 30
0.0
 10
44.73304402562975
 20
143.6282055589206
 30
0.0
 10
44.6500899992498
 20
143.6292455784967
 30
0.0
 10
44.57013693951005
 20
143.630192027389
 30
0.0
  0
SPLINE
  5
A4
330
1F
100
AcDbEntity
  8
0
  6
Continuous
 62
     7
370
    15
100
AcDbSpline
210
0.0
220
0.0
230
1.0
 70
     8
 71
     3
 72
     8
 73
     4
 74
     0
 42
0.00000001
 43
0.00000001
 40
0.0
 40
0.0
 40
0.0
 40
0.0
 40
1.0
 40
1.0
 40
1.0
 40
1.0
 10
44.57013693951005
 20
79.13362162374881
 30
0.0
 10
44.65008999924981
 20
79.13456807264107
 30
0.0
 10
44.73304402562977
 20
79.1356080922172
 30
0.0
 10
44.82006205547815
 20
79.13607465700426
 30
0.0
  0
SPLINE
  5
A5
330
1F
100
AcDbEntity
  8
0
  6
Continuous
 62
     7
370
    15
100
AcDbSpline
210
0.0
220
0.0
230
1.0
 70
     8
 71
     3
 72
    10
 73
     6
 74
     0
 42
0.00000001
 43
0.00000001
 40
0.0
 40
0.0
 40
0.0
 40
0.0
 40
0.4999999999999989
 40
0.4999999999999989
 40
1.0
 40
1.0
 40
1.0
 40
1.0
 10
43.89668918121385
 20
80.05904072509249
 30
0.0
 10
43.98393960034733
 20
79.88697010423913
 30
0.0
 10
44.09421457574349
 20
79.71890103117568
 30
0.0
 10
44.32379855070131
 20
79.40833073848586
 30
0.0
 10
44.44524866876196
 20
79.26461790182059
 30
0.0
 10
44.57013693951237
 20
79.13362162374888
 30
0.0
  0
SPLINE
  5
A6
330
1F
100
AcDbEntity
  8
0
  6
Continuous
 62
     7
370
    15
100
AcDbSpline
210
0.0
220
0.0
230
1.0
 70
     8
 71
     3
 72
    14
 73
    10
 74
     0
 42
0.00000001
 43
0.00000001
 40
0.0
 40
0.0
 40
0.0
 40
0.0
 40
0.25
 40
0.25
 40
0.5
 40
0.5
 40
0.75
 40
0.75
 40
1.0
 40
1.0
 40
1.0
 40
1.0
 10
114.7301369395124
 20
157.0754580664169
 30
0.0
 10
114.7301369395124
 20
156.9691013726645
 30
0.0
 10
114.7097493833711
 20
156.8632608849044
 30
0.0
 10
114.6311150379095
 20
156.6666959713679
 30
0.0
 10
114.5723836782709
 20
156.5755252290807
 30
0.0
 10
114.4257747726683
 20
156.4236141400491
 30
0.0
 10
114.3363694526417
 20
156.3615453032295
 30
0.0
 10
114.1424787200413
 20
156.2782772554709
 30
0.0
 10
114.0359737301515
 20
156.2561825857412
 30
0.0
 10
113.9301369395121
 20
156.2561825857413
 30
0.0
  0
SPLINE
  5
A7
330
1F
100
AcDbEntity
  8
0
  6
Continuous
 62
     7
370
    15
100
AcDbSpline
210
0.0
220
0.0
230
1.0
 70
     8
 71
     3
 72
    12
 73
     8
 74
     0
 42
0.00000001
 43
0.00000001
 40
0.0
 40
0.0
 40
0.0
 40
0.0
 40
0.250000000000002
 40
0.250000000000002
 40
0.500000000000004
 40
0.500000000000004
 40
1.0
 40
1.0
 40
1.0
 40
1.0
 10
113.9301369395144
 20
145.0104382386414
 30
0.0
 10
114.0538378894942
 20
145.0104382386418
 30
0.0
 10
114.1779345017641
 20
145.0524318503746
 30
0.0
 10
114.3845896648505
 20
145.1902271770193
 30
0.0
 10
114.4696304315772
 20
145.2842007754841
 30
0.0
 10
114.6691090000502
 20
145.5989889817048
 30
0.0
 10
114.7301369395124
 20
145.849227973932
 30
0.0
 10
114.7301369395124
 20
146.0961420180659
 30
0.0
  0
LINE
  5
A8
330
1F
100
AcDbEntity
  8
0
  6
Continuous
 62
     7
370
    15
100
AcDbLine
 10
120.7701369395
 20
160.3717016812
 30
0.0
 11
116.0821659604
 21
160.3717016812
 31
0.0
  0
LINE
  5
A9
330
1F
100
AcDbEntity
  8
0
  6
Continuous
 62
     7
370
    15
100
AcDbLine
 10
116.0821659604
 20
150.3328695865
 30
0.0
 11
120.7701369395
 21
150.3328695865
 31
0.0
  0
LINE
  5
AA
330
1F
100
AcDbEntity
  8
0
  6
Continuous
 62
     7
370
    15
100
AcDbLine
 10
116.0821659604
 20
150.3328695865
 30
0.0
 11
116.0821659604
 21
160.3717016812
 31
0.0
  0
SPLINE
  5
AB
330
1F
100
AcDbEntity
  8
0
  6
Continuous
 62
     7
370
    15
100
AcDbSpline
210
0.0
220
0.0
230
1.0
 70
     8
 71
     3
 72
     8
 73
     4
 74
     0
 42
0.00000001
 43
0.00000001
 40
0.0
 40
0.0
 40
0.0
 40
0.0
 40
1.0
 40
1.0
 40
1.0
 40
1.0
 10
109.5581079185909
 20
150.3328695864558
 30
0.0
 10
110.0150342723905
 20
149.3169516167816
 30
0.0
 10
110.4662399141935
 20
148.2981557876904
 30
0.0
 10
110.9101369395124
 20
147.2773543317067
 30
0.0
  0
LINE
  5
AC
330
1F
100
AcDbEntity
  8
0
  6
Continuous
 62
     7
370
    15
100
AcDbLine
 10
110.9101369395
 20
147.2773543317
 30
0.0
 11
110.9101369395
 21
146.0961420181
 31
0.0
  0
SPLINE
  5
AD
330
1F
100
AcDbEntity
  8
0
  6
Continuous
 62
     7
370
    15
100
AcDbSpline
210
0.0
220
0.0
230
1.0
 70
     8
 71
     3
 72
    14
 73
    10
 74
     0
 42
0.00000001
 43
0.00000001
 40
0.0
 40
0.0
 40
0.0
 40
0.0
 40
0.25
 40
0.25
 40
0.5
 40
0.5
 40
0.75
 40
0.75
 40
1.0
 40
1.0
 40
1.0
 40
1.0
 10
110.9101369395123
 20
146.0961420180659
 30
0.0
 10
110.9101369395123
 20
145.9722751412767
 30
0.0
 10
110.9259960671399
 20
145.8480154644392
 30
0.0
 10
110.9893577126598
 20
145.6104071020333
 30
0.0
 10
111.0379474207092
 20
145.4936267172808
 30
0.0
 10
111.170233025484
 20
145.2848241886719
 30
0.0
 10
111.2555578167446
 20
145.1903134850793
 30
0.0
 10
111.4624490650508
 20
145.052356684277
 30
0.0
 10
111.5864170109408
 20
145.0104382386413
 30
0.0
 10
111.7101369395123
 20
145.0104382386413
 30
0.0
  0
LINE
  5
AE
330
1F
100
AcDbEntity
  8
0
  6
Continuous
 62
     7
370
    15
100
AcDbLine
 10
111.7101369395
 20
145.0104382386
 30
0.0
 11
113.9301369395
 21
145.0104382386
 31
0.0
  0
LINE
  5
AF
330
1F
100
AcDbEntity
  8
0
  6
Continuous
 62
     7
370
    15
100
AcDbLine
 10
114.7301369395
 20
146.0961420181
 30
0.0
 11
114.7301369395
 21
147.2773543317
 31
0.0
  0
SPLINE
  5
B0
330
1F
100
AcDbEntity
  8
0
  6
Continuous
 62
     7
370
    15
100
AcDbSpline
210
0.0
220
0.0
230
1.0
 70
     8
 71
     3
 72
     8
 73
     4
 74
     0
 42
0.00000001
 43
0.00000001
 40
0.0
 40
0.0
 40
0.0
 40
0.0
 40
1.0
 40
1.0
 40
1.0
 40
1.0
 10
114.7301369395123
 20
147.2773543317067
 30
0.0
 10
115.1742869505379
 20
148.2987375626584
 30
0.0
 10
115.6253612607958
 20
149.3172220994267
 30
0.0
 10
116.0821659604337
 20
150.3328695864558
 30
0.0
  0
SPLINE
  5
B1
330
1F
100
AcDbEntity
  8
0
  6
Continuous
 62
     7
370
    15
100
AcDbSpline
210
0.0
220
0.0
230
1.0
 70
     8
 71
     3
 72
    16
 73
    12
 74
     0
 42
0.00000001
 43
0.00000001
 40
0.0
 40
0.0
 40
0.0
 40
0.0
 40
0.125
 40
0.125
 40
0.25
 40
0.25
 40
0.5
 40
0.5
 40
0.75
 40
0.75
 40
1.0
 40
1.0
 40
1.0
 40
1.0
 10
120.7701369395114
 20
150.3328695864558
 30
0.0
 10
120.8457746459226
 20
150.3328695864559
 30
0.0
 10
120.9220903103408
 20
150.3215245863211
 30
0.0
 10
121.066501048233
 20
150.2788720356827
 30
0.0
 10
121.1349474973414
 20
150.2479377109999
 30
0.0
 10
121.3298787499548
 20
150.1286813392323
 30
0.0
 10
121.4377199237358
 20
150.0185293256118
 30
0.0
 10
121.606432671948
 20
149.7703932399537
 30
0.0
 10
121.6687970846716
 20
149.6300509159499
 30
0.0
 10
121.7501010091801
 20
149.3417792244611
 30
0.0
 10
121.7701369395124
 20
149.1909742514812
 30
0.0
 10
121.7701369395124
 20
149.0406043601358
 30
0.0
  0
LINE
  5
B2
330
1F
100
AcDbEntity
  8
0
  6
Continuous
 62
     7
370
    15
100
AcDbLine
 10
121.7701369395
 20
149.0406043601
 30
0.0
 11
121.7701369395
 21
142.7319068256
 31
0.0
  0
SPLINE
  5
B3
330
1F
100
AcDbEntity
  8
0
  6
Continuous
 62
     7
370
    15
100
AcDbSpline
210
0.0
220
0.0
230
1.0
 70
     8
 71
     3
 72
     8
 73
     4
 74
     0
 42
0.00000001
 43
0.00000001
 40
0.0
 40
0.0
 40
0.0
 40
0.0
 40
1.0
 40
1.0
 40
1.0
 40
1.0
 10
116.0821659604337
 20
160.3717016812324
 30
0.0
 10
115.6311389917205
 20
159.5743911110446
 30
0.0
 10
115.1804451751969
 20
158.7768928113874
 30
0.0
 10
114.7301369395123
 20
157.9791776862738
 30
0.0
  0
LINE
  5
B4
330
1F
100
AcDbEntity
  8
0
  6
Continuous
 62
     7
370
    15
100
AcDbLine
 10
114.7301369395
 20
147.2773543317
 30
0.0
 11
114.7301369395
 21
157.9791776863
 31
0.0
  0
SPLINE
  5
B5
330
1F
100
AcDbEntity
  8
0
  6
Continuous
 62
     7
370
    15
100
AcDbSpline
210
0.0
220
0.0
230
1.0
 70
     8
 71
     3
 72
    12
 73
     8
 74
     0
 42
0.00000001
 43
0.00000001
 40
0.0
 40
0.0
 40
0.0
 40
0.0
 40
0.5
 40
0.5
 40
0.75
 40
0.75
 40
1.0
 40
1.0
 40
1.0
 40
1.0
 10
121.7701369395124
 20
159.3506466464147
 30
0.0
 10
121.7701369395124
 20
159.6159160791811
 30
0.0
 10
121.6655301960259
 20
159.8784311848335
 30
0.0
 10
121.3888618442806
 20
160.1639687908708
 30
0.0
 10
121.2784965849286
 20
160.2402904077322
 30
0.0
 10
121.0344245363129
 20
160.3446325725723
 30
0.0
 10
120.9026720749811
 20
160.3717016812324
 30
0.0
 10
120.7701369395124
 20
160.3717016812325
 30
0.0
  0
LINE
  5
B6
330
1F
100
AcDbEntity
  8
0
  6
Continuous
 62
     7
370
    15
100
AcDbLine
 10
121.7701369395
 20
149.0406043601
 30
0.0
 11
121.7701369395
 21
159.3506466464
 31
0.0
  0
SPLINE
  5
B7
330
1F
100
AcDbEntity
  8
0
  6
Continuous
 62
     7
370
    15
100
AcDbSpline
210
0.0
220
0.0
230
1.0
 70
     8
 71
     3
 72
    10
 73
     6
 74
     0
 42
0.00000001
 43
0.00000001
 40
0.0
 40
0.0
 40
0.0
 40
0.0
 40
0.5
 40
0.5
 40
1.0
 40
1.0
 40
1.0
 40
1.0
 10
111.7101369395123
 20
156.2561825857413
 30
0.0
 10
111.497600625656
 20
156.2561825857413
 30
0.0
 10
111.287664454002
 20
156.3475951723715
 30
0.0
 10
110.9939573129907
 20
156.6523400382757
 30
0.0
 10
110.9101369395123
 20
156.8644950081843
 30
0.0
 10
110.9101369395123
 20
157.0754580664169
 30
0.0
  0
SPLINE
  5
B8
330
1F
100
AcDbEntity
  8
0
  6
Continuous
 62
     7
370
    15
100
AcDbSpline
210
0.0
220
0.0
230
1.0
 70
     8
 71
     3
 72
     8
 73
     4
 74
     0
 42
0.00000001
 43
0.00000001
 40
0.0
 40
0.0
 40
0.0
 40
0.0
 40
1.0
 40
1.0
 40
1.0
 40
1.0
 10
110.9101369395124
 20
157.9791776862738
 30
0.0
 10
110.4598287038278
 20
158.7768928113874
 30
0.0
 10
110.0091348873042
 20
159.5743911110446
 30
0.0
 10
109.5581079185909
 20
160.3717016812325
 30
0.0
  0
LINE
  5
B9
330
1F
100
AcDbEntity
  8
0
  6
Continuous
 62
     7
370
    15
100
AcDbLine
 10
110.9101369395
 20
147.2773543317
 30
0.0
 11
110.9101369395
 21
157.9791776863
 31
0.0
  0
LINE
  5
BA
330
1F
100
AcDbEntity
  8
0
  6
Continuous
 62
     7
370
    15
100
AcDbLine
 10
113.9301369395
 20
156.2561825857
 30
0.0
 11
111.7101369395
 21
156.2561825857
 31
0.0
  0
LINE
  5
BB
330
1F
100
AcDbEntity
  8
0
  6
Continuous
 62
     7
370
    15
100
AcDbLine
 10
170.7701369395
 20
83.3819068256
 30
0.0
 11
170.7701369395
 21
139.3819068256
 31
0.0
  0
SPLINE
  5
BC
330
1F
100
AcDbEntity
  8
0
  6
Continuous
 62
     7
370
    15
100
AcDbSpline
210
0.0
220
0.0
230
1.0
 70
     8
 71
     3
 72
     9
 73
     5
 74
     0
 42
0.00000001
 43
0.00000001
 40
0.0
 40
0.0
 40
0.0
 40
0.0
 40
0.9886024579036882
 40
1.0
 40
1.0
 40
1.0
 40
1.0
 10
159.3949334845597
 20
139.2843428426597
 30
0.0
 10
159.4687515598823
 20
139.2789305447603
 30
0.0
 10
159.5434206796405
 20
139.2734558487829
 30
0.0
 10
159.6285859536613
 20
139.2686716717735
 30
0.0
 10
159.629556628457
 20
139.2686171439146
 30
0.0
  0
SPLINE
  5
BD
330
1F
100
AcDbEntity
  8
0
  6
Continuous
 62
     7
370
    15
100
AcDbSpline
210
0.0
220
0.0
230
1.0
 70
     8
 71
     3
 72
    37
 73
    33
 74
     0
 42
0.00000001
 43
0.00000001
 40
0.0
 40
0.0
 40
0.0
 40
0.0
 40
0.0200448768984395
 40
0.0446580479729677
 40
0.0673054973613122
 40
0.1133360453675425
 40
0.1367606175605352
 40
0.1601473751435339
 40
0.2076149225805283
 40
0.2317291261238786
 40
0.2570586082614084
 40
0.3084561932838734
 40
0.3345615740064267
 40
0.3621658506211473
 40
0.4182146080897198
 40
0.446709208297233
 40
0.4759984758702323
 40
0.5355325932641462
 40
0.5658451058220576
 40
0.5956948731733854
 40
0.6257566696325733
 40
0.6565017380112886
 40
0.6874902438141022
 40
0.7165897930559054
 40
0.7759080564407894
 40
0.8062367630461315
 40
0.8332088728285454
 40
0.8882531680255994
 40
0.9164356346533912
 40
0.9407600416177325
 40
0.9903493810745618
 40
1.0
 40
1.0
 40
1.0
 40
1.0
 10
165.2592979231228
 20
139.3807949268487
 30
0.0
 10
165.2622798875545
 20
139.3811004430367
 30
0.0
 10
165.2689234160389
 20
139.3817811035691
 30
0.0
 10
165.2354313533039
 20
139.3783491212911
 30
0.0
 10
165.1711879023168
 20
139.3718466282951
 30
0.0
 10
165.0663386893
 20
139.3614442133706
 30
0.0
 10
164.9256525792376
 20
139.3481223379565
 30
0.0
 10
164.7594142410918
 20
139.3329269475985
 30
0.0
 10
164.558478937972
 20
139.3156456621834
 30
0.0
 10
164.324648014513
 20
139.2972919965836
 30
0.0
 10
164.0623259982297
 20
139.2781114667036
 30
0.0
 10
163.767307515691
 20
139.2591339126434
 30
0.0
 10
163.4446633298577
 20
139.2417891880222
 30
0.0
 10
163.0943500958376
 20
139.2255606154052
 30
0.0
 10
162.7181093834128
 20
139.2126410111055
 30
0.0
 10
162.3262548964808
 20
139.2043374527271
 30
0.0
 10
161.9175441138687
 20
139.1993438534001
 30
0.0
 10
161.4982609823528
 20
139.2001119506425
 30
0.0
 10
161.0829860756781
 20
139.2067465639307
 30
0.0
 10
160.7746692012892
 20
139.2145392804568
 30
0.0
 10
160.4719305781005
 20
139.2249426718331
 30
0.0
 10
160.1749292528227
 20
139.2378038049304
 30
0.0
 10
159.8930273303515
 20
139.2524684542626
 30
0.0
 10
159.5412009436365
 20
139.2735909985812
 30
0.0
 10
159.2222683348185
 20
139.2964266874373
 30
0.0
 10
158.9509576322286
 20
139.3183486563871
 30
0.0
 10
158.7179130263929
 20
139.3384356949798
 30
0.0
 10
158.5327573964937
 20
139.3557609258971
 30
0.0
 10
158.4022989480885
 20
139.3685420269744
 30
0.0
 10
158.3118465065812
 20
139.37760886343
 30
0.0
 10
158.2681587248484
 20
139.3821105823872
 30
0.0
 10
158.2723569756431
 20
139.3816789046288
 30
0.0
 10
158.2730409011501
 20
139.3816085811907
 30
0.0
  0
SPLINE
  5
BE
330
1F
100
AcDbEntity
  8
0
  6
Continuous
 62
     7
370
    15
100
AcDbSpline
210
0.0
220
0.0
230
1.0
 70
     8
 71
     3
 72
     9
 73
     5
 74
     0
 42
0.00000001
 43
0.00000001
 40
0.0
 40
0.0
 40
0.0
 40
0.0
 40
0.1050658222796778
 40
0.9999999999999999
 40
0.9999999999999999
 40
0.9999999999999999
 40
0.9999999999999999
 10
159.1664096510346
 20
139.3012748593771
 30
0.0
 10
159.1738027112207
 20
139.3006865364534
 30
0.0
 10
159.2441686972822
 20
139.2950869712379
 30
0.0
 10
159.323730715346
 20
139.2894170494514
 30
0.0
 10
159.3949334845597
 20
139.2843428426597
 30
0.0
  0
SPLINE
  5
BF
330
1F
100
AcDbEntity
  8
0
  6
Continuous
 62
     7
370
    15
100
AcDbSpline
210
0.0
220
0.0
230
1.0
 70
     8
 71
     3
 72
    66
 73
    62
 74
     0
 42
0.00000001
 43
0.00000001
 40
-0.0312499999999999
 40
-0.0312499999999999
 40
0.0
 40
0.0
 40
0.0312499999999999
 40
0.0312499999999999
 40
0.0624999999999998
 40
0.0624999999999998
 40
0.0937499999999996
 40
0.0937499999999996
 40
0.1249999999999995
 40
0.1249999999999995
 40
0.1562499999999994
 40
0.1562499999999994
 40
0.1874999999999993
 40
0.1874999999999993
 40
0.2187499999999992
 40
0.2187499999999992
 40
0.2499999999999991
 40
0.2499999999999991
 40
0.2812499999999989
 40
0.2812499999999989
 40
0.3124999999999988
 40
0.3124999999999988
 40
0.3437499999999987
 40
0.3437499999999987
 40
0.3749999999999986
 40
0.3749999999999986
 40
0.4062499999999984
 40
0.4062499999999984
 40
0.4374999999999983
 40
0.4374999999999983
 40
0.4687499999999982
 40
0.4687499999999982
 40
0.4999999999999981
 40
0.4999999999999981
 40
0.531249999999998
 40
0.531249999999998
 40
0.5624999999999979
 40
0.5624999999999979
 40
0.6249999999999996
 40
0.6249999999999996
 40
0.6875000000000012
 40
0.6875000000000012
 40
0.7187500000000011
 40
0.7187500000000011
 40
0.7500000000000009
 40
0.7500000000000009
 40
0.7812500000000008
 40
0.7812500000000008
 40
0.8125000000000007
 40
0.8125000000000007
 40
0.8437500000000006
 40
0.8437500000000006
 40
0.8750000000000004
 40
0.8750000000000004
 40
0.9062500000000003
 40
0.9062500000000003
 40
0.9375000000000002
 40
0.9375000000000002
 40
0.9687500000000001
 40
0.9687500000000001
 40
1.0
 40
1.0
 40
1.03125
 40
1.03125
 10
159.2262850583834
 20
113.5751669038918
 30
0.0
 10
159.5635819123172
 20
113.8594343939614
 30
0.0
 10
159.7430900422847
 20
113.9831158720273
 30
0.0
 10
160.1220072382226
 20
114.1967786278579
 30
0.0
 10
160.323057387877
 20
114.2872605480691
 30
0.0
 10
160.7379309850835
 20
114.4311337218364
 30
0.0
 10
160.9493754266139
 20
114.4840516569204
 30
0.0
 10
161.3799719699549
 20
114.5533778208207
 30
0.0
 10
161.6012496503654
 20
114.5696289312217
 30
0.0
 10
162.0388841581023
 20
114.5639034959323
 30
0.0
 10
162.2554434054252
 20
114.5424085101933
 30
0.0
 10
162.6840626442496
 20
114.4622634536234
 30
0.0
 10
162.8980673873609
 20
114.40268899183
 30
0.0
 10
163.3066359988207
 20
114.2487355724559
 30
0.0
 10
163.5023178526212
 20
114.1545454689815
 30
0.0
 10
163.8759947003825
 20
113.9306703498951
 30
0.0
 10
164.0554372270836
 20
113.7993351881935
 30
0.0
 10
164.3804831577147
 20
113.5093183766157
 30
0.0
 10
164.5277648065769
 20
113.3500942587234
 30
0.0
 10
164.7899638727272
 20
113.0013598573685
 30
0.0
 10
164.9048537763443
 20
112.810478185759
 30
0.0
 10
165.0877317115525
 20
112.4156785109442
 30
0.0
 10
165.1576604963779
 20
112.2096790654216
 30
0.0
 10
165.2510332859542
 20
111.7790634129495
 30
0.0
 10
165.2728970426368
 20
111.559752537179
 30
0.0
 10
165.2668172989
 20
111.1238170347167
 30
0.0
 10
165.2383377228098
 20
110.9027171594352
 30
0.0
 10
165.1335632688243
 20
110.4772388515133
 30
0.0
 10
165.0580568603685
 20
110.2724126025751
 30
0.0
 10
164.8620734381079
 20
109.8781229713858
 30
0.0
 10
164.7431761252176
 20
109.6925703359912
 30
0.0
 10
164.471832709415
 20
109.3506359713267
 30
0.0
 10
164.3168633272774
 20
109.1915578031948
 30
0.0
 10
163.9826185675093
 20
108.9088982932568
 30
0.0
 10
163.8034185257382
 20
108.7846132605801
 30
0.0
 10
163.4218315623255
 20
108.5686554526847
 30
0.0
 10
163.219826592607
 20
108.4777290566195
 30
0.0
 10
162.601918311679
 20
108.2626414519344
 30
0.0
 10
162.159922751983
 20
108.1917597207882
 30
0.0
 10
161.2885981208212
 20
108.202233399927
 30
0.0
 10
160.848179282327
 20
108.2839325001974
 30
0.0
 10
160.2374788871599
 20
108.5134227591779
 30
0.0
 10
160.0397550705963
 20
108.6081681340119
 30
0.0
 10
159.6619503681593
 20
108.8345607710842
 30
0.0
 10
159.4863933943557
 20
108.9633136086032
 30
0.0
 10
159.1621119456474
 20
109.2522027429697
 30
0.0
 10
159.0121147959998
 20
109.4140179819991
 30
0.0
 10
158.7483142532174
 20
109.7653360856152
 30
0.0
 10
158.6363006308963
 20
109.9517294264608
 30
0.0
 10
158.4531094767933
 20
110.3466178880479
 30
0.0
 10
158.3815367086244
 20
110.558182532666
 30
0.0
 10
158.2892143631956
 20
110.9857996546395
 30
0.0
 10
158.2673112826989
 20
111.2026466668661
 30
0.0
 10
158.2735389957897
 20
111.642611141564
 30
0.0
 10
158.3022331317153
 20
111.8625429050624
 30
0.0
 10
158.4067829933356
 20
112.2866274624327
 30
0.0
 10
158.4839885116539
 20
112.4955438728378
 30
0.0
 10
158.6796545431455
 20
112.8880276418864
 30
0.0
 10
158.7974590899746
 20
113.071976389954
 30
0.0
 10
159.0712510886258
 20
113.4164376360207
 30
0.0
 10
159.2262850583834
 20
113.5751669038918
 30
0.0
 10
159.5635819123172
 20
113.8594343939614
 30
0.0
  0
LINE
  5
C0
330
1F
100
AcDbEntity
  8
0
  6
Continuous
 62
     7
370
    15
100
AcDbLine
 10
159.3949334849
 20
83.4794708085
 30
0.0
 11
159.334494163
 21
83.4750306265
 31
0.0
  0
SPLINE
  5
C1
330
1F
100
AcDbEntity
  8
0
  6
Continuous
 62
     7
370
    15
100
AcDbSpline
210
0.0
220
0.0
230
1.0
 70
     8
 71
     3
 72
    38
 73
    34
 74
     0
 42
0.00000001
 43
0.00000001
 40
0.0
 40
0.0
 40
0.0
 40
0.0
 40
0.02769903979993
 40
0.0521382203193721
 40
0.0747836545487948
 40
0.1208029588413781
 40
0.1442171024784838
 40
0.1677258450025593
 40
0.2154381027547413
 40
0.2396749448255583
 40
0.2651883294540682
 40
0.3169602584017238
 40
0.3432568274431626
 40
0.3710292519135225
 40
0.4274237611473908
 40
0.4560972711928201
 40
0.4854762413024841
 40
0.5150523585469162
 40
0.5452496061903042
 40
0.5756619129380739
 40
0.6055013764018217
 40
0.6355539430798638
 40
0.666294767627975
 40
0.697281492526679
 40
0.7262569378826473
 40
0.7853301237809396
 40
0.8155391443361669
 40
0.8422948526096546
 40
0.8968980473290362
 40
0.9248540881543111
 40
0.9489927993921443
 40
0.998194948267713
 40
0.9999999999999999
 40
0.9999999999999999
 40
0.9999999999999999
 40
0.9999999999999999
 10
158.280871549065
 20
83.38300805744598
 30
0.0
 10
158.2791009323753
 20
83.38282747692841
 30
0.0
 10
158.2757680802715
 20
83.38248756814896
 30
0.0
 10
158.3183126466477
 20
83.38683569925118
 30
0.0
 10
158.3915649500362
 20
83.39421537636996
 30
0.0
 10
158.5042427878625
 20
83.4053092273031
 30
0.0
 10
158.6526129629613
 20
83.41921085763546
 30
0.0
 10
158.8266840173248
 20
83.43491960626909
 30
0.0
 10
159.0353328564079
 20
83.45256516162571
 30
0.0
 10
159.2765838029238
 20
83.4710956656986
 30
0.0
 10
159.5465164413237
 20
83.49033278021308
 30
0.0
 10
159.8488505152361
 20
83.5091380621341
 30
0.0
 10
160.1781423439292
 20
83.52606135173556
 30
0.0
 10
160.5346359716751
 20
83.5416786325114
 30
0.0
 10
160.9161641350066
 20
83.55373250977603
 30
0.0
 10
161.3119298382
 20
83.56097388650748
 30
0.0
 10
161.6180664054717
 20
83.56379797118404
 30
0.0
 10
161.9305233214531
 20
83.56377203013452
 30
0.0
 10
162.2455249965162
 20
83.56077528395431
 30
0.0
 10
162.5581102949754
 20
83.5548354701249
 30
0.0
 10
162.8646362928822
 20
83.54616768618733
 30
0.0
 10
163.1645242764052
 20
83.53498910201995
 30
0.0
 10
163.4578988578166
 20
83.52146191658241
 30
0.0
 10
163.7350797824438
 20
83.50630233262842
 30
0.0
 10
164.0791590955808
 20
83.48478392289176
 30
0.0
 10
164.3887657415712
 20
83.46193004855738
 30
0.0
 10
164.6495011841784
 20
83.44037958878734
 30
0.0
 10
164.8713305925104
 20
83.42090259602976
 30
0.0
 10
165.0445901100392
 20
83.40447776754615
 30
0.0
 10
165.1635753170933
 20
83.3927208210518
 30
0.0
 10
165.2424020122273
 20
83.38477293999043
 30
0.0
 10
165.2769706468717
 20
83.38120548555453
 30
0.0
 10
165.2695908887555
 20
83.38196285673448
 30
0.0
 10
165.2693297325851
 20
83.3819896587182
 30
0.0
  0
CIRCLE
  5
C2
330
1F
100
AcDbEntity
  8
0
  6
Continuous
 62
     7
370
    15
100
AcDbCircle
 10
161.7701369395
 20
111.3819068256
 30
0.0
 40
2.5
  0
LINE
  5
C3
330
1F
100
AcDbEntity
  8
0
  6
Continuous
 62
     7
370
    15
100
AcDbLine
 10
195.6422156267
 20
84.8819068256
 30
0.0
 11
195.6422156267
 21
137.8819068256
 31
0.0
  0
ARC
  5
C4
330
1F
100
AcDbEntity
  8
0
  6
Continuous
 62
     7
370
    15
100
AcDbCircle
 10
101.820394218
 20
143.9774612164
 30
0.0
 40
11.42053516404126
100
AcDbArc
 50
77.6340603254
 51
102.4327561028
  0
LINE
  5
C5
330
1F
100
AcDbEntity
  8
0
  6
Continuous
 62
     7
370
    15
100
AcDbLine
 10
252.8201369395
 20
91.6928830547
 30
0.0
 11
252.8201369395
 21
131.0709305176
 31
0.0
  0
LINE
  5
C6
330
1F
100
AcDbEntity
  8
0
  6
Continuous
 62
     7
370
    15
100
AcDbLine
 10
44.5701369395
 20
79.1319068256
 30
0.0
 11
44.5701369395
 21
79.1336216237
 31
0.0
  0
LINE
  5
C7
330
1F
100
AcDbEntity
  8
0
  6
Continuous
 62
     7
370
    15
100
AcDbLine
 10
44.5701369395
 20
143.6319068256
 30
0.0
 11
44.5701369395
 21
143.6301920274
 31
0.0
  0
LINE
  5
C8
330
1F
100
AcDbEntity
  8
0
  6
Continuous
 62
     7
370
    15
100
AcDbLine
 10
252.8201369395
 20
95.3826783842
 30
0.0
 11
252.9226050586
 21
92.7746905996
 31
0.0
  0
LINE
  5
C9
330
1F
100
AcDbEntity
  8
0
  6
Continuous
 62
     7
370
    15
100
AcDbLine
 10
252.8440854271
 20
129.9922080963
 30
0.0
 11
252.8201369395
 21
129.3826783842
 31
0.0
  0
SPLINE
  5
CA
330
1F
100
AcDbEntity
  8
0
  6
HIDDEN
 62
     7
370
     0
100
AcDbSpline
210
0.0
220
0.0
230
1.0
 70
     8
 71
     3
 72
    80
 73
    76
 74
     0
 42
0.00000001
 43
0.00000001
 40
-0.0312500000000007
 40
-0.0312500000000007
 40
0.0
 40
0.0
 40
0.0312499999999999
 40
0.0312499999999999
 40
0.0468749999999997
 40
0.0468749999999997
 40
0.0624999999999995
 40
0.0624999999999995
 40
0.0937499999999991
 40
0.0937499999999991
 40
0.1249999999999987
 40
0.1249999999999987
 40
0.1562499999999983
 40
0.1562499999999983
 40
0.1874999999999979
 40
0.1874999999999979
 40
0.2187499999999975
 40
0.2187499999999975
 40
0.2499999999999971
 40
0.2499999999999971
 40
0.2812499999999969
 40
0.2812499999999969
 40
0.3124999999999967
 40
0.3124999999999967
 40
0.3281249999999967
 40
0.3281249999999967
 40
0.3437499999999967
 40
0.3437499999999967
 40
0.3749999999999966
 40
0.3749999999999966
 40
0.4062499999999966
 40
0.4062499999999966
 40
0.4218749999999964
 40
0.4218749999999964
 40
0.4374999999999962
 40
0.4374999999999962
 40
0.4687499999999959
 40
0.4687499999999959
 40
0.4999999999999956
 40
0.4999999999999956
 40
0.5312499999999952
 40
0.5312499999999952
 40
0.5624999999999949
 40
0.5624999999999949
 40
0.5937499999999946
 40
0.5937499999999946
 40
0.6249999999999942
 40
0.6249999999999942
 40
0.6562499999999939
 40
0.6562499999999939
 40
0.6874999999999936
 40
0.6874999999999936
 40
0.7031249999999936
 40
0.7031249999999936
 40
0.7187499999999937
 40
0.7187499999999937
 40
0.7499999999999942
 40
0.7499999999999942
 40
0.7812499999999947
 40
0.7812499999999947
 40
0.7968749999999951
 40
0.7968749999999951
 40
0.8124999999999954
 40
0.8124999999999954
 40
0.8437499999999962
 40
0.8437499999999962
 40
0.874999999999997
 40
0.874999999999997
 40
0.9062499999999978
 40
0.9062499999999978
 40
0.9374999999999986
 40
0.9374999999999986
 40
0.9687499999999993
 40
0.9687499999999993
 40
1.0
 40
1.0
 40
1.03125
 40
1.03125
 10
101.489591626736
 20
160.2414560820469
 30
0.0
 10
102.1506822522887
 20
160.2414560820469
 30
0.0
 10
102.4756623815403
 20
160.23455793622
 30
0.0
 10
102.9551357927867
 20
160.2140315082395
 30
0.0
 10
103.1136176106275
 20
160.205475281152
 30
0.0
 10
103.4278371431318
 20
160.1847489059343
 30
0.0
 10
103.5839574268122
 20
160.172521605728
 30
0.0
 10
104.0380114557688
 20
160.1309523118987
 30
0.0
 10
104.3251148387086
 20
160.096608026801
 30
0.0
 10
104.8684693947356
 20
160.0132839024787
 30
0.0
 10
105.1255730059412
 20
159.9638456797042
 30
0.0
 10
105.58647926088
 20
159.8524659499442
 30
0.0
 10
105.793376970095
 20
159.7901714364321
 30
0.0
 10
106.1589022840871
 20
159.6502417935611
 30
0.0
 10
106.3141078062131
 20
159.5736258958121
 30
0.0
 10
106.5635381928128
 20
159.4096672759563
 30
0.0
 10
106.659628148598
 20
159.3211104218607
 30
0.0
 10
106.7881469977916
 20
159.1336297397548
 30
0.0
 10
106.8199578679693
 20
159.0363932783004
 30
0.0
 10
106.8203145177426
 20
158.8347606389733
 30
0.0
 10
106.7878172655455
 20
158.7292118471352
 30
0.0
 10
106.6601917918311
 20
158.5190970644467
 30
0.0
 10
106.5657633907792
 20
158.4140315564777
 30
0.0
 10
106.3779025707936
 20
158.2571538492267
 30
0.0
 10
106.3070745719904
 20
158.204720115521
 30
0.0
 10
106.1523526800251
 20
158.1022816698912
 30
0.0
 10
106.0683762098417
 20
158.0521339412394
 30
0.0
 10
105.7970525401973
 20
157.9051179848059
 30
0.0
 10
105.590503321595
 20
157.8116301643714
 30
0.0
 10
105.123893181406
 20
157.6358433067571
 30
0.0
 10
104.8715276117805
 20
157.5564648316734
 30
0.0
 10
104.4656262701018
 20
157.4509823941793
 30
0.0
 10
104.3257256526243
 20
157.4180968293392
 30
0.0
 10
104.0365017173774
 20
157.3571813501105
 30
0.0
 10
103.8866622610881
 20
157.3291007784681
 30
0.0
 10
103.4325456914773
 20
157.2542987364253
 30
0.0
 10
103.1208944727405
 20
157.2162606781792
 30
0.0
 10
102.4798980078281
 20
157.1646487516551
 30
0.0
 10
102.1483703798759
 20
157.1513348181336
 30
0.0
 10
101.4955793348044
 20
157.1512377318055
 30
0.0
 10
101.1710431297726
 20
157.1640258169666
 30
0.0
 10
100.5257736803562
 20
157.2155160065625
 30
0.0
 10
100.2100306741935
 20
157.2540405858826
 30
0.0
 10
99.6081413792098
 20
157.3529431487406
 30
0.0
 10
99.31739214839833
 20
157.4140472466656
 30
0.0
 10
98.77048035671382
 20
157.5558566797764
 30
0.0
 10
98.51870299287692
 20
157.6351911643555
 30
0.0
 10
98.05731500025578
 20
157.808569909017
 30
0.0
 10
97.8460457206577
 20
157.903729853771
 30
0.0
 10
97.4827413682815
 20
158.1003023771469
 30
0.0
 10
97.32893471983871
 20
158.2020586055533
 30
0.0
 10
97.1403152502413
 20
158.3588445683388
 30
0.0
 10
97.08428476403219
 20
158.4120986020888
 30
0.0
 10
96.98871100229603
 20
158.5179031636416
 30
0.0
 10
96.94894808527103
 20
158.5705562279971
 30
0.0
 10
96.85317633495889
 20
158.7276299474562
 30
0.0
 10
96.8204534958328
 20
158.8311549827833
 30
0.0
 10
96.8198249095037
 20
159.0353697170105
 30
0.0
 10
96.85201105423846
 20
159.1328735545953
 30
0.0
 10
96.94692175609406
 20
159.2722006049469
 30
0.0
 10
96.986388539493
 20
159.3175173364513
 30
0.0
 10
97.08131853821389
 20
159.4059571574402
 30
0.0
 10
97.13707536597727
 20
159.4492114079002
 30
0.0
 10
97.32501548394714
 20
159.5731028824901
 30
0.0
 10
97.47837695366333
 20
159.6488051732642
 30
0.0
 10
97.84064118854369
 20
159.7880595447224
 30
0.0
 10
98.05148966200959
 20
159.8518213862511
 30
0.0
 10
98.5121596323285
 20
159.9633182257189
 30
0.0
 10
98.76353401191233
 20
160.0118442980356
 30
0.0
 10
99.30944189881046
 20
160.0958982814161
 30
0.0
 10
99.60026447346169
 20
160.1306968350827
 30
0.0
 10
100.2015910882417
 20
160.1858932998466
 30
0.0
 10
100.5161096728541
 20
160.2067111486005
 30
0.0
 10
101.162691128974
 20
160.2345584815112
 30
0.0
 10
101.489591626736
 20
160.2414560820469
 30
0.0
 10
102.1506822522887
 20
160.2414560820469
 30
0.0
  0
LINE
  5
CB
330
1F
100
AcDbEntity
  8
0
  6
HIDDEN
 62
     7
370
     0
100
AcDbLine
 10
109.5581079186
 20
150.3328695865
 30
0.0
 11
109.5581079186
 21
142.7319068256
 31
0.0
  0
SPLINE
  5
CC
330
1F
100
AcDbEntity
  8
0
  6
HIDDEN
 62
     7
370
     0
100
AcDbSpline
210
0.0
220
0.0
230
1.0
 70
     8
 71
     3
 72
     9
 73
     5
 74
     0
 42
0.00000001
 43
0.00000001
 40
0.0
 40
0.0
 40
0.0
 40
0.0
 40
0.5038163044187015
 40
1.0
 40
1.0
 40
1.0
 40
1.0
 10
73.2335616889397
 20
74.64610046329476
 30
0.0
 10
72.94988250419959
 20
74.62194728919597
 30
0.0
 10
72.38682175715327
 20
74.574006851606
 30
0.0
 10
72.03046071534497
 20
74.53269450332004
 30
0.0
 10
71.85364017665933
 20
74.51219598967438
 30
0.0
  0
SPLINE
  5
CD
330
1F
100
AcDbEntity
  8
0
  6
HIDDEN
 62
     7
370
     0
100
AcDbSpline
210
0.0
220
0.0
230
1.0
 70
     8
 71
     3
 72
    12
 73
     8
 74
     0
 42
0.00000001
 43
0.00000001
 40
0.0
 40
0.0
 40
0.0
 40
0.0
 40
0.1661348616725355
 40
0.3322013257383251
 40
0.5008932044678458
 40
0.7521370782640883
 40
1.0
 40
1.0
 40
1.0
 40
1.0
 10
71.33945860516053
 20
148.3132108486343
 30
0.0
 10
71.3498512292674
 20
148.3118327245729
 30
0.0
 10
71.37063219884502
 20
148.3090770438228
 30
0.0
 10
71.54393168829296
 20
148.2874736688609
 30
0.0
 10
71.86588327753755
 20
148.2496087169191
 30
0.0
 10
72.38704911345751
 20
148.1892249502028
 30
0.0
 10
72.95260705329527
 20
148.1414318130534
 30
0.0
 10
73.23347047698333
 20
148.11769711996
 30
0.0
  0
SPLINE
  5
CE
330
1F
100
AcDbEntity
  8
0
  6
HIDDEN
 62
     7
370
     0
100
AcDbSpline
210
0.0
220
0.0
230
1.0
 70
     8
 71
     3
 72
    33
 73
    29
 74
     0
 42
0.00000001
 43
0.00000001
 40
0.0
 40
0.0
 40
0.0
 40
0.0
 40
0.0315773698875104
 40
0.0633753287769057
 40
0.0958656851178231
 40
0.1285943208117605
 40
0.1601713694082662
 40
0.2244011681247345
 40
0.2571344568799636
 40
0.2885965627565487
 40
0.3526214070085076
 40
0.3852675959519929
 40
0.4162212184009612
 40
0.4791910353915302
 40
0.5112817741273479
 40
0.5421256322990662
 40
0.6048360558905652
 40
0.6367710793564881
 40
0.6680663384719832
 40
0.7316979547407203
 40
0.7641081282919966
 40
0.7957194290717577
 40
0.8275524266255816
 40
0.8600900250720824
 40
0.8928737620729298
 40
0.9241775068323748
 40
0.9878778414776339
 40
1.0
 40
1.0
 40
1.0
 40
1.0
 10
83.07334259470339
 20
80.01558460482181
 30
0.0
 10
82.98947144769814
 20
80.02945834320354
 30
0.0
 10
82.8211432577542
 20
80.0573027372883
 30
0.0
 10
82.5217886614127
 20
80.10373537751869
 30
0.0
 10
82.18778919415385
 20
80.15234797953953
 30
0.0
 10
81.82201923226658
 20
80.20149591272677
 30
0.0
 10
81.29863931757771
 20
80.2655616983194
 30
0.0
 10
80.72221210898311
 20
80.32534321272452
 30
0.0
 10
80.10707496213156
 20
80.37534282018858
 30
0.0
 10
79.47075923604865
 20
80.41748281287201
 30
0.0
 10
78.80697869860995
 20
80.44611753761002
 30
0.0
 10
78.13491294702683
 20
80.45837698869363
 30
0.0
 10
77.4654643635951
 20
80.4597062798019
 30
0.0
 10
76.80027979648115
 20
80.44484575689245
 30
0.0
 10
76.15398855759065
 20
80.41498779250328
 30
0.0
 10
75.52479860673228
 20
80.37624456444199
 30
0.0
 10
74.925082914553
 20
80.32566633068213
 30
0.0
 10
74.3667833484312
 20
80.2672663162156
 30
0.0
 10
73.83658847804362
 20
80.20494308484608
 30
0.0
 10
73.35742177573204
 20
80.13953451031053
 30
0.0
 10
72.94250379053719
 20
80.07674560670455
 30
0.0
 10
72.66523140661114
 20
80.03224100788317
 30
0.0
 10
72.42367612104997
 20
79.9915320584482
 30
0.0
 10
72.21818411670155
 20
79.95547492779872
 30
0.0
 10
72.05401969295731
 20
79.92571790284636
 30
0.0
 10
71.89458574639202
 20
79.89613258942194
 30
0.0
 10
71.81634751844342
 20
79.88118331041707
 30
0.0
 10
71.82407230878823
 20
79.88265573301828
 30
0.0
 10
71.82530731345769
 20
79.88289113730846
 30
0.0
  0
SPLINE
  5
CF
330
1F
100
AcDbEntity
  8
0
  6
HIDDEN
 62
     7
370
     0
100
AcDbSpline
210
0.0
220
0.0
230
1.0
 70
     8
 71
     3
 72
    32
 73
    28
 74
     0
 42
0.00000001
 43
0.00000001
 40
0.0
 40
0.0
 40
0.0
 40
0.0
 40
0.020356822172105
 40
0.0512207857583794
 40
0.1139954454389432
 40
0.1459779869097674
 40
0.1769364677636727
 40
0.2398766914470389
 40
0.2719275468465721
 40
0.3033698011481659
 40
0.3673099924152954
 40
0.3998847012176188
 40
0.4314690120325909
 40
0.4957360700021212
 40
0.5285028301030422
 40
0.5596434488300034
 40
0.6230067766607702
 40
0.6553079823205556
 40
0.6861132872619372
 40
0.748756262689177
 40
0.7806634244345373
 40
0.8117607067089887
 40
0.8749825776111492
 40
0.9071778073885584
 40
0.9301738434827028
 40
0.9765719131095674
 40
1.0
 40
1.0
 40
1.0
 40
1.0
 10
71.82530731345769
 20
142.8809225138293
 30
0.0
 10
71.82495026155144
 20
142.8809899927562
 30
0.0
 10
71.82405186596493
 20
142.8811597797508
 30
0.0
 10
71.88664561251757
 20
142.8692655385635
 30
0.0
 10
72.02845679398108
 20
142.8426186616439
 30
0.0
 10
72.25250138585659
 20
142.8022365902312
 30
0.0
 10
72.52704350169081
 20
142.7543673484808
 30
0.0
 10
72.87573479069836
 20
142.696897463201
 30
0.0
 10
73.29201075307577
 20
142.6344029161465
 30
0.0
 10
73.75360479993856
 20
142.5698772345072
 30
0.0
 10
74.27714274903371
 20
142.5052968575239
 30
0.0
 10
74.84934022348847
 20
142.4465414926391
 30
0.0
 10
75.45154659394044
 20
142.3931686362569
 30
0.0
 10
76.09277310072191
 20
142.3503060744247
 30
0.0
 10
76.75385841871807
 20
142.3222420284036
 30
0.0
 10
77.42056937316464
 20
142.3046533708639
 30
0.0
 10
78.09445859377156
 20
142.3032067226232
 30
0.0
 10
78.75880807771937
 20
142.318132261761
 30
0.0
 10
79.410342351879
 20
142.3431389869847
 30
0.0
 10
80.04100156453501
 20
142.3822430296666
 30
0.0
 10
80.63854054035748
 20
142.4323441874503
 30
0.0
 10
81.21253850831222
 20
142.4885153539334
 30
0.0
 10
81.74348822170553
 20
142.5514293826222
 30
0.0
 10
82.18686910296962
 20
142.6115328846758
 30
0.0
 10
82.53838975054326
 20
142.6624226016611
 30
0.0
 10
82.82805726052011
 20
142.707545078199
 30
0.0
 10
83.01172002491782
 20
142.7380080900864
 30
0.0
 10
83.07334259470339
 20
142.7482290463159
 30
0.0
  0
SPLINE
  5
D0
330
1F
100
AcDbEntity
  8
0
  6
HIDDEN
 62
     7
370
     0
100
AcDbSpline
210
0.0
220
0.0
230
1.0
 70
     8
 71
     3
 72
    13
 73
     9
 74
     0
 42
0.00000001
 43
0.00000001
 40
0.0
 40
0.0
 40
0.0
 40
0.0
 40
0.1623799806143947
 40
0.3258962946532959
 40
0.4929818081924006
 40
0.6612959774482133
 40
0.8237063498433501
 40
1.0
 40
1.0
 40
1.0
 40
1.0
 10
83.07334259470339
 20
142.7482290463159
 30
0.0
 10
83.14893210366031
 20
142.7606048185728
 30
0.0
 10
83.30064009617585
 20
142.7854429686127
 30
0.0
 10
83.48353899602736
 20
142.8127013165372
 30
0.0
 10
83.6326012454439
 20
142.8338211641824
 30
0.0
 10
83.73655178598382
 20
142.8478075919303
 30
0.0
 10
83.81188373169819
 20
142.8576005654486
 30
0.0
 10
83.80365393270998
 20
142.8565292283835
 30
0.0
 10
83.79937036591687
 20
142.8559716031143
 30
0.0
  0
SPLINE
  5
D1
330
1F
100
AcDbEntity
  8
0
  6
HIDDEN
 62
     7
370
     0
100
AcDbSpline
210
0.0
220
0.0
230
1.0
 70
     8
 71
     3
 72
    13
 73
     9
 74
     0
 42
0.00000001
 43
0.00000001
 40
0.0
 40
0.0
 40
0.0
 40
0.0
 40
0.1540223582567162
 40
0.3222978932030878
 40
0.4885662407211814
 40
0.6560437858589481
 40
0.8273549276607379
 40
0.9999999999999999
 40
0.9999999999999999
 40
0.9999999999999999
 40
0.9999999999999999
 10
83.79937001439846
 20
79.90784209349677
 30
0.0
 10
83.80455568573495
 20
79.90717026401256
 30
0.0
 10
83.81540690867112
 20
79.90576443417199
 30
0.0
 10
83.74606546975122
 20
79.91475132712276
 30
0.0
 10
83.64594800540418
 20
79.92816544327589
 30
0.0
 10
83.4994202374103
 20
79.94880599163831
 30
0.0
 10
83.31320633950526
 20
79.97637145255403
 30
0.0
 10
83.15350362925099
 20
80.0024798029425
 30
0.0
 10
83.07334259470339
 20
80.01558460482181
 30
0.0
  0
LINE
  5
D2
330
1F
100
AcDbEntity
  8
0
  6
HIDDEN
 62
     7
370
     0
100
AcDbLine
 10
62.8167612665
 20
84.8819068256
 30
0.0
 11
62.8167612665
 21
137.8819068256
 31
0.0
  0
LINE
  5
D3
330
1F
100
AcDbEntity
  8
0
  6
HIDDEN
 62
     7
370
     0
100
AcDbLine
 10
102.1042145579
 20
84.8819068256
 30
0.0
 11
102.1042145579
 21
137.8819068256
 31
0.0
  0
LINE
  5
D4
330
1F
100
AcDbEntity
  8
0
  6
HIDDEN
 62
     7
370
     0
100
AcDbLine
 10
105.2701369395
 20
86.5069068256
 30
0.0
 11
105.2701369395
 21
136.2569068256
 31
0.0
  0
SPLINE
  5
D5
330
1F
100
AcDbEntity
  8
0
  6
HIDDEN
 62
     7
370
     0
100
AcDbSpline
210
0.0
220
0.0
230
1.0
 70
     8
 71
     3
 72
    20
 73
    16
 74
     0
 42
0.00000001
 43
0.00000001
 40
0.0
 40
0.0
 40
0.0
 40
0.0
 40
0.2499999999999963
 40
0.2499999999999963
 40
0.3749999999999969
 40
0.3749999999999969
 40
0.4999999999999976
 40
0.4999999999999976
 40
0.6249999999999981
 40
0.6249999999999981
 40
0.7499999999999988
 40
0.7499999999999988
 40
0.8749999999999993
 40
0.8749999999999993
 40
1.0
 40
1.0
 40
1.0
 40
1.0
 10
53.02013693951235
 20
136.6104204559832
 30
0.0
 10
53.02013693951235
 20
136.5312174694509
 30
0.0
 10
52.97315444429962
 20
136.450121251048
 30
0.0
 10
52.83533285352205
 20
136.329924559297
 30
0.0
 10
52.77905056961206
 20
136.290997855295
 30
0.0
 10
52.64596571814485
 20
136.2158091228706
 30
0.0
 10
52.5681257759118
 20
136.1791669175286
 30
0.0
 10
52.39549341979743
 20
136.1115763846968
 30
0.0
 10
52.30110042270636
 20
136.0806182029212
 30
0.0
 10
52.09566311639121
 20
136.0250937815515
 30
0.0
 10
51.98331687640403
 20
136.0003852677182
 30
0.0
 10
51.75107601250439
 20
135.96058904061
 30
0.0
 10
51.63036537008167
 20
135.945169203213
 30
0.0
 10
51.37929451081263
 20
135.9240892283734
 30
0.0
 10
51.24977251439686
 20
135.9186119833524
 30
0.0
 10
51.12013693951237
 20
135.9186119833524
 30
0.0
  0
LINE
  5
D6
330
1F
100
AcDbEntity
  8
0
  6
HIDDEN
 62
     7
370
     0
100
AcDbLine
 10
51.1201369395
 20
135.9186119834
 30
0.0
 11
44.5701369395
 21
135.9186119834
 31
0.0
  0
LINE
  5
D7
330
1F
100
AcDbEntity
  8
0
  6
HIDDEN
 62
     7
370
     0
100
AcDbLine
 10
44.5701369395
 20
86.8452016678
 30
0.0
 11
56.1201369395
 21
86.8452016678
 31
0.0
  0
SPLINE
  5
D8
330
1F
100
AcDbEntity
  8
0
  6
HIDDEN
 62
     7
370
     0
100
AcDbSpline
210
0.0
220
0.0
230
1.0
 70
     8
 71
     3
 72
    18
 73
    14
 74
     0
 42
0.00000001
 43
0.00000001
 40
0.0
 40
0.0
 40
0.0
 40
0.0
 40
0.1249999999999979
 40
0.1249999999999979
 40
0.2499999999999958
 40
0.2499999999999958
 40
0.4999999999999977
 40
0.4999999999999977
 40
0.7499999999999994
 40
0.7499999999999994
 40
0.8749999999999998
 40
0.8749999999999998
 40
1.0
 40
1.0
 40
1.0
 40
1.0
 10
56.12013693951234
 20
86.84520166778536
 30
0.0
 10
56.24960425246958
 20
86.84520166778537
 30
0.0
 10
56.3766150013662
 20
86.83984866919273
 30
0.0
 10
56.62597832256344
 20
86.81911069650391
 30
0.0
 10
56.74960197719189
 20
86.80343879224964
 30
0.0
 10
57.09863431412593
 20
86.74374406384754
 30
0.0
 10
57.30914607893273
 20
86.68597888416657
 30
0.0
 10
57.65306275663223
 20
86.55145704288908
 30
0.0
 10
57.78941315815005
 20
86.47378792938368
 30
0.0
 10
57.92645121471259
 20
86.35449679529633
 30
0.0
 10
57.96167023342547
 20
86.31357778616128
 30
0.0
 10
58.00829381036404
 20
86.23292179287124
 30
0.0
 10
58.02013693951235
 20
86.19295327267838
 30
0.0
 10
58.02013693951235
 20
86.15339319515458
 30
0.0
  0
LINE
  5
D9
330
1F
100
AcDbEntity
  8
0
  6
HIDDEN
 62
     7
370
     0
100
AcDbLine
 10
44.5701369395
 20
86.8452016678
 30
0.0
 11
44.5701369395
 21
135.9186119834
 31
0.0
  0
LWPOLYLINE
  5
DA
330
1F
100
AcDbEntity
  8
0
  6
HIDDEN
 62
     7
370
     0
100
AcDbPolyline
 90
       13
 70
   128
 43
0.0
 10
101.8201369395
 20
151.3256373889
 10
102.9732162932
 20
151.3804555831
 10
104.0641328405
 20
151.5419549029
 10
105.0340749879
 20
151.801428878
 10
105.8307529033
 20
152.1448891994
 10
106.4112174739
 20
152.5538198321
 10
106.7441757046
 20
153.0061752199
 10
106.8116777309
 20
153.4775687669
 10
106.6100845011
 20
153.9425875247
 10
106.1502639584
 20
154.3761622119
 10
105.4570051474
 20
154.7549187049
 10
104.5676818299
 20
155.058438143
 10
104.2661554079
 20
155.1330372049
  0
LWPOLYLINE
  5
DB
330
1F
100
AcDbEntity
  8
0
  6
HIDDEN
 62
     7
370
     0
100
AcDbPolyline
 90
       13
 70
   128
 43
0.0
 10
99.3616254332
 20
155.1301774549
 10
99.0725920492
 20
155.058438143
 10
98.1832687316
 20
154.7549187049
 10
97.4900099206
 20
154.3761622119
 10
97.0301893779
 20
153.9425875247
 10
96.8285961482
 20
153.4775687669
 10
96.8960981745
 20
153.0061752199
 10
97.2290564051
 20
152.5538198321
 10
97.8095209757
 20
152.1448891994
 10
98.6061988911
 20
151.801428878
 10
99.5761410385
 20
151.5419549029
 10
100.6670575858
 20
151.3804555831
 10
101.8201369395
 20
151.3256373889
  0
LINE
  5
DC
330
1F
100
AcDbEntity
  8
0
  6
HIDDEN
 62
     7
370
     0
100
AcDbLine
 10
44.5701369395
 20
84.0119068256
 30
0.0
 11
44.5701369395
 21
79.1336216237
 31
0.0
  0
LINE
  5
DD
330
1F
100
AcDbEntity
  8
0
  6
HIDDEN
 62
     7
370
     0
100
AcDbLine
 10
58.0201369395
 20
84.0119068256
 30
0.0
 11
58.0201369395
 21
77.5125735602
 31
0.0
  0
LINE
  5
DE
330
1F
100
AcDbEntity
  8
0
  6
HIDDEN
 62
     7
370
     0
100
AcDbLine
 10
53.0201369395
 20
138.7519068256
 30
0.0
 11
53.0201369395
 21
145.1265155626
 31
0.0
  0
LINE
  5
DF
330
1F
100
AcDbEntity
  8
0
  6
HIDDEN
 62
     7
370
     0
100
AcDbLine
 10
44.5701369395
 20
138.7519068256
 30
0.0
 11
44.5701369395
 21
143.6301920274
 31
0.0
  0
LINE
  5
E0
330
1F
100
AcDbEntity
  8
0
  6
HIDDEN
 62
     7
370
     0
100
AcDbLine
 10
249.3201369395
 20
98.8819068256
 30
0.0
 11
249.3201369395
 21
123.8819068256
 31
0.0
  0
LINE
  5
E1
330
1F
100
AcDbEntity
  8
0
  6
HIDDEN
 62
     7
370
     0
100
AcDbLine
 10
117.1201369395
 20
98.3819068256
 30
0.0
 11
117.1201369395
 21
124.3819068256
 31
0.0
  0
LINE
  5
E2
330
1F
100
AcDbEntity
  8
0
  6
HIDDEN
 62
     7
370
     0
100
AcDbLine
 10
121.1201369395
 20
98.3819068256
 30
0.0
 11
121.1201369395
 21
124.3819068256
 31
0.0
  0
SPLINE
  5
E3
330
1F
100
AcDbEntity
  8
0
  6
HIDDEN
 62
     7
370
     0
100
AcDbSpline
210
0.0
220
0.0
230
1.0
 70
     8
 71
     3
 72
    17
 73
    13
 74
     0
 42
0.00000001
 43
0.00000001
 40
0.0
 40
0.0
 40
0.0
 40
0.0
 40
0.1049567236112974
 40
0.212980492879914
 40
0.317930658289845
 40
0.4258805519423773
 40
0.5316362072953781
 40
0.6404254582991714
 40
0.7466935798924229
 40
0.8560914427789736
 40
0.9614859711689577
 40
1.0
 40
1.0
 40
1.0
 40
1.0
 10
197.8201369395124
 20
124.0246913289922
 30
0.0
 10
197.9302151931199
 20
124.0255306824967
 30
0.0
 10
198.1535884073555
 20
124.0272339170961
 30
0.0
 10
198.4776539180116
 20
124.0405603925714
 30
0.0
 10
198.7858396283231
 20
124.0603571197185
 30
0.0
 10
199.0648246797051
 20
124.0849174542628
 30
0.0
 10
199.3119347902216
 20
124.1117381001483
 30
0.0
 10
199.5156393649078
 20
124.1374542941019
 30
0.0
 10
199.674339727185
 20
124.1597269247995
 30
0.0
 10
199.7750287320432
 20
124.1748629389806
 30
0.0
 10
199.8219881391987
 20
124.1821948755659
 30
0.0
 10
199.8152680144234
 20
124.1811476321505
 30
0.0
 10
199.8134695176256
 20
124.1808673599842
 30
0.0
  0
LINE
  5
E4
330
1F
100
AcDbEntity
  8
0
  6
HIDDEN
 62
     7
370
     0
100
AcDbLine
 10
197.9376702359
 20
124.0262189876
 30
0.0
 11
197.7830760174
 21
124.025378283
 31
0.0
  0
SPLINE
  5
E5
330
1F
100
AcDbEntity
  8
0
  6
HIDDEN
 62
     7
370
     0
100
AcDbSpline
210
0.0
220
0.0
230
1.0
 70
     8
 71
     3
 72
    16
 73
    12
 74
     0
 42
0.00000001
 43
0.00000001
 40
0.0
 40
0.0
 40
0.0
 40
0.0
 40
0.0993699953422773
 40
0.2071445450062858
 40
0.3118188778586558
 40
0.4194697596580791
 40
0.5252065975425056
 40
0.6339736139768095
 40
0.7402766226866971
 40
0.8497081399238936
 40
1.0
 40
1.0
 40
1.0
 40
1.0
 10
195.8214517877875
 20
124.1817025406696
 30
0.0
 10
195.8256410899987
 20
124.1810432699531
 30
0.0
 10
195.8343740188618
 20
124.1796689684637
 30
0.0
 10
195.9162104969777
 20
124.1671000456579
 30
0.0
 10
196.0486594030504
 20
124.1478880188027
 30
0.0
 10
196.2303695531814
 20
124.123705882156
 30
0.0
 10
196.4586054887245
 20
124.0970098076736
 30
0.0
 10
196.7244075789741
 20
124.0709963117357
 30
0.0
 10
197.024700614286
 20
124.04854343719
 30
0.0
 10
197.3895574537919
 20
124.029342834374
 30
0.0
 10
197.66230721535
 20
124.0263963470799
 30
0.0
 10
197.8201369395124
 20
124.0246913289922
 30
0.0
  0
SPLINE
  5
E6
330
1F
100
AcDbEntity
  8
0
  6
HIDDEN
 62
     7
370
     0
100
AcDbSpline
210
0.0
220
0.0
230
1.0
 70
     8
 71
     3
 72
    26
 73
    22
 74
     0
 42
0.00000001
 43
0.00000001
 40
0.0
 40
0.0
 40
0.0
 40
0.0
 40
0.0524858274011457
 40
0.1065049769118988
 40
0.1589876464661949
 40
0.2129710045299004
 40
0.2658462361482862
 40
0.320237798365716
 40
0.3733767701529385
 40
0.4280806370618866
 40
0.4807832058616599
 40
0.5350421918460615
 40
0.5872878457962627
 40
0.6410371800125434
 40
0.6935176643042177
 40
0.7474880259198251
 40
0.800526468332945
 40
0.8550997593762232
 40
0.9081553303501085
 40
0.9627808007786258
 40
1.0
 40
1.0
 40
1.0
 40
1.0
 10
199.8201369395124
 20
98.58190682556888
 30
0.0
 10
199.8148666189138
 20
98.58273571753952
 30
0.0
 10
199.8041720104555
 20
98.58441771674899
 30
0.0
 10
199.7181879684684
 20
98.59759604461088
 30
0.0
 10
199.5823231210215
 20
98.61722617143445
 30
0.0
 10
199.397464324948
 20
98.64166790032478
 30
0.0
 10
199.1663927674946
 20
98.6684559164484
 30
0.0
 10
198.8984048323942
 20
98.69429234932456
 30
0.0
 10
198.596453567265
 20
98.71659899964958
 30
0.0
 10
198.2750903108655
 20
98.73237886458746
 30
0.0
 10
197.9383997486869
 20
98.74007121238161
 30
0.0
 10
197.6032595277789
 20
98.73873772704668
 30
0.0
 10
197.272364448239
 20
98.72862637747028
 30
0.0
 10
196.9604274019023
 20
98.71112372273812
 30
0.0
 10
196.6695418228023
 20
98.6878599081142
 30
0.0
 10
196.4119550119712
 20
98.6616829850419
 30
0.0
 10
196.1910347748055
 20
98.63510260769316
 30
0.0
 10
196.0167008123923
 20
98.61141831785581
 30
0.0
 10
195.8942175550519
 20
98.59339282919788
 30
0.0
 10
195.8272513519941
 20
98.58302259714563
 30
0.0
 10
195.8261939941189
 20
98.58285284834315
 30
0.0
 10
195.8257655096619
 20
98.58278405921774
 30
0.0
  0
LINE
  5
E7
330
1F
100
AcDbEntity
  8
0
  6
HIDDEN
 62
     7
370
     0
100
AcDbLine
 10
195.3201369395
 20
98.9819068256
 30
0.0
 11
195.3201369395
 21
123.7819068162
 31
0.0
  0
LINE
  5
E8
330
1F
100
AcDbEntity
  8
0
  6
HIDDEN
 62
     7
370
     0
100
AcDbLine
 10
205.8201369395
 20
98.8819068256
 30
0.0
 11
205.8201369395
 21
123.8819068256
 31
0.0
  0
LINE
  5
E9
330
1F
100
AcDbEntity
  8
0
  6
HIDDEN
 62
     7
370
     0
100
AcDbLine
 10
106.0201369395
 20
100.1319068256
 30
0.0
 11
106.0201369395
 21
122.6319068256
 31
0.0
  0
ELLIPSE
  5
EA
330
1F
100
AcDbEntity
  8
0
  6
HIDDEN
 62
     7
370
     0
100
AcDbEllipse
 10
36.6354637392
 20
111.3819068256
 30
0.0
 11
31.08108570811669
 21
-1.421085471520200E-14
 31
0.0
210
0.0
220
0.0
230
1.0
 40
0.8164965809
 41
4.915995335118106
 42
4.970536038964791
  0
ELLIPSE
  5
EB
330
1F
100
AcDbEntity
  8
0
  6
HIDDEN
 62
     7
370
     0
100
AcDbEllipse
 10
36.6354637392
 20
111.3819068256
 30
0.0
 11
31.08108570811669
 21
1.421085471520200E-14
 31
0.0
210
0.0
220
0.0
230
1.0
 40
0.8164965809
 41
1.312649268214807
 42
1.367189972061492
  0
LINE
  5
EC
330
1F
100
AcDbEntity
  8
0
  6
HIDDEN
 62
     7
370
     0
100
AcDbLine
 10
121.7701369395
 20
67.4819068256
 30
0.0
 11
107.7701369395
 21
67.4819068256
 31
0.0
  0
LINE
  5
ED
330
1F
100
AcDbEntity
  8
0
  6
HIDDEN
 62
     7
370
     0
100
AcDbLine
 10
97.7701369395
 20
61.3919078258
 30
0.0
 11
97.7701369395
 21
67.4819068256
 31
0.0
  0
LINE
  5
EE
330
1F
100
AcDbEntity
  8
0
  6
HIDDEN
 62
     7
370
     0
100
AcDbLine
 10
107.7701369395
 20
67.4819068256
 30
0.0
 11
97.7701369395
 21
67.4819068256
 31
0.0
  0
LINE
  5
EF
330
1F
100
AcDbEntity
  8
0
  6
HIDDEN
 62
     7
370
     0
100
AcDbLine
 10
58.0201369395
 20
84.0119068256
 30
0.0
 11
58.0201369395
 21
86.1533931952
 31
0.0
  0
LINE
  5
F0
330
1F
100
AcDbEntity
  8
0
  6
HIDDEN
 62
     7
370
     0
100
AcDbLine
 10
44.5701369395
 20
84.0119068256
 30
0.0
 11
44.5701369395
 21
86.8452016678
 31
0.0
  0
LINE
  5
F1
330
1F
100
AcDbEntity
  8
0
  6
HIDDEN
 62
     7
370
     0
100
AcDbLine
 10
44.5701369395
 20
138.7519068256
 30
0.0
 11
44.5701369395
 21
135.9186119834
 31
0.0
  0
LINE
  5
F2
330
1F
100
AcDbEntity
  8
0
  6
HIDDEN
 62
     7
370
     0
100
AcDbLine
 10
53.0201369395
 20
138.7519068256
 30
0.0
 11
53.0201369395
 21
136.610420456
 31
0.0
  0
LINE
  5
F3
330
1F
100
AcDbEntity
  8
0
  6
HIDDEN
 62
     7
370
     0
100
AcDbLine
 10
121.7701369395
 20
155.2819068256
 30
0.0
 11
107.7701369395
 21
155.2819068256
 31
0.0
  0
LINE
  5
F4
330
1F
100
AcDbEntity
  8
0
  6
HIDDEN
 62
     7
370
     0
100
AcDbLine
 10
107.7701369395
 20
155.2819068256
 30
0.0
 11
97.7701369395
 21
155.2819068256
 31
0.0
  0
SPLINE
  5
F5
330
1F
100
AcDbEntity
  8
0
  6
HIDDEN
 62
     7
370
     0
100
AcDbSpline
210
0.0
220
0.0
230
1.0
 70
     8
 71
     3
 72
    30
 73
    26
 74
     0
 42
0.00000001
 43
0.00000001
 40
0.0
 40
0.0
 40
0.0
 40
0.0
 40
0.0531668117647992
 40
0.1125460504300769
 40
0.1779415872288428
 40
0.2129647284523646
 40
0.2495168718380132
 40
0.2912815942972323
 40
0.3261230058049036
 40
0.3540373940804315
 40
0.375022111955744
 40
0.4414779880172269
 40
0.500194007376936
 40
0.5547072432095365
 40
0.6144498376510392
 40
0.6794734252828568
 40
0.7140294954789096
 40
0.7499255040486896
 40
0.7913888946716073
 40
0.8260548998966698
 40
0.8539197360120796
 40
0.8749805509938748
 40
0.9411652366795193
 40
0.9999141591664827
 40
1.0
 40
1.0
 40
1.0
 40
1.0
 10
83.81971380265368
 20
74.28196983345484
 30
0.0
 10
83.80351226981298
 20
74.28687198645224
 30
0.0
 10
83.76921609007967
 20
74.29724909841643
 30
0.0
 10
83.4678694682523
 20
74.37291036788065
 30
0.0
 10
83.02569719869648
 20
74.46919750140036
 30
0.0
 10
82.53086502796388
 20
74.5688622110369
 30
0.0
 10
82.06038922742653
 20
74.66114038394431
 30
0.0
 10
81.52946784147166
 20
74.75677240883772
 30
0.0
 10
80.99131733019375
 20
74.84242265374058
 30
0.0
 10
80.53326999781262
 20
74.90971444637847
 30
0.0
 10
79.87770567653602
 20
74.99806261540407
 30
0.0
 10
78.9943992390956
 20
75.09472069953921
 30
0.0
 10
77.86573750626329
 20
75.1814958763428
 30
0.0
 10
76.7759757564781
 20
75.21957457408382
 30
0.0
 10
75.67994747801964
 20
75.2214250088559
 30
0.0
 10
74.77455623109407
 20
75.1952635532632
 30
0.0
 10
74.07825352071171
 20
75.15865632811993
 30
0.0
 10
73.55157379289162
 20
75.11963945265717
 30
0.0
 10
73.08492767831156
 20
75.07743032521616
 30
0.0
 10
72.71371240273511
 20
75.04042623567427
 30
0.0
 10
72.45966592505572
 20
75.01172547520474
 30
0.0
 10
72.15861077195272
 20
74.97534552458218
 30
0.0
 10
71.90312697696854
 20
74.94256535755318
 30
0.0
 10
71.8039062520058
 20
74.92622747285682
 30
0.0
 10
71.82018680929296
 20
74.92882105902902
 30
0.0
 10
71.82021056287891
 20
74.92882484311153
 30
0.0
  0
SPLINE
  5
F6
330
1F
100
AcDbEntity
  8
0
  6
HIDDEN
 62
     7
370
     0
100
AcDbSpline
210
0.0
220
0.0
230
1.0
 70
     8
 71
     3
 72
    30
 73
    26
 74
     0
 42
0.00000001
 43
0.00000001
 40
0.0
 40
0.0
 40
0.0
 40
0.0
 40
0.0001123288057692
 40
0.0285431152706638
 40
0.0588466796121224
 40
0.0910271964548352
 40
0.1250880910051814
 40
0.1546766141816535
 40
0.1963554560804497
 40
0.2501101496293133
 40
0.3205253872349852
 40
0.385610430020096
 40
0.4454038608858225
 40
0.4999571692318041
 40
0.5283494388476924
 40
0.5586340270243796
 40
0.5908185964963244
 40
0.624909471458329
 40
0.654184457524067
 40
0.6958630078023593
 40
0.7499307292180755
 40
0.8215905285811296
 40
0.8871422909871766
 40
0.9466378748984584
 40
1.0
 40
1.0
 40
1.0
 40
1.0
 10
71.82023227161223
 20
147.8349185345973
 30
0.0
 10
71.82020041185409
 20
147.8349254817234
 30
0.0
 10
71.81210474358201
 20
147.8366907691165
 30
0.0
 10
71.840766221257
 20
147.8312358503908
 30
0.0
 10
71.914153067424
 20
147.8206930030452
 30
0.0
 10
72.05780961097761
 20
147.8010077953927
 30
0.0
 10
72.2588453109935
 20
147.7761685315245
 30
0.0
 10
72.54147586036746
 20
147.741960066378
 30
0.0
 10
72.95488498600987
 20
147.6982801696192
 30
0.0
 10
73.63117248708373
 20
147.6352371020936
 30
0.0
 10
74.56960338781398
 20
147.5739399316662
 30
0.0
 10
75.67909660128228
 20
147.542651488165
 30
0.0
 10
76.77657733198915
 20
147.5443066557638
 30
0.0
 10
77.67660857045529
 20
147.575612857862
 30
0.0
 10
78.38794949630011
 20
147.6224460066645
 30
0.0
 10
78.95336639727074
 20
147.6696128685594
 30
0.0
 10
79.54228982012128
 20
147.7290518751124
 30
0.0
 10
80.1066994722648
 20
147.7954090816714
 30
0.0
 10
80.70089566589452
 20
147.8773284880654
 30
0.0
 10
81.36750382694305
 20
147.9789764708178
 30
0.0
 10
82.1688365730695
 20
148.1211153814612
 30
0.0
 10
82.92134655786455
 20
148.2723599522676
 30
0.0
 10
83.46663305281568
 20
148.3902108255303
 30
0.0
 10
83.76935458424545
 20
148.4664400572815
 30
0.0
 10
83.80364503484634
 20
148.476892366774
 30
0.0
 10
83.81985847148934
 20
148.4818344965728
 30
0.0
  0
LINE
  5
F7
330
1F
100
AcDbEntity
  8
0
  6
HIDDEN
 62
     7
370
     0
100
AcDbLine
 10
175.01970663
 20
105.3819068256
 30
0.0
 11
175.01970663
 21
117.3819068256
 31
0.0
  0
LINE
  5
F8
330
1F
100
AcDbEntity
  8
0
  6
HIDDEN
 62
     7
370
     0
100
AcDbLine
 10
175.3201369395
 20
105.8819068256
 30
0.0
 11
175.3201369395
 21
116.8819068256
 31
0.0
  0
LINE
  5
F9
330
1F
100
AcDbEntity
  8
0
  6
HIDDEN
 62
     7
370
     0
100
AcDbLine
 10
164.2701369395
 20
83.9592570948
 30
0.0
 11
159.2701369395
 21
83.9592570948
 31
0.0
  0
LINE
  5
FA
330
1F
100
AcDbEntity
  8
0
  6
HIDDEN
 62
     7
370
     0
100
AcDbLine
 10
161.7701369395
 20
138.8045565564
 30
0.0
 11
164.2701369395
 21
138.8045565564
 31
0.0
  0
LINE
  5
FB
330
1F
100
AcDbEntity
  8
0
  6
HIDDEN
 62
     7
370
     0
100
AcDbLine
 10
159.2701369395
 20
138.8045565564
 30
0.0
 11
161.7701369395
 21
138.8045565564
 31
0.0
  0
LINE
  5
FC
330
1F
100
AcDbEntity
  8
0
  6
HIDDEN
 62
     7
370
     0
100
AcDbLine
 10
161.7701369395
 20
125.3819068256
 30
0.0
 11
164.2701369395
 21
125.3819068256
 31
0.0
  0
LINE
  5
FD
330
1F
100
AcDbEntity
  8
0
  6
HIDDEN
 62
     7
370
     0
100
AcDbLine
 10
159.2701369395
 20
125.3819068256
 30
0.0
 11
161.7701369395
 21
125.3819068256
 31
0.0
  0
LINE
  5
FE
330
1F
100
AcDbEntity
  8
0
  6
HIDDEN
 62
     7
370
     0
100
AcDbLine
 10
164.2701369395
 20
97.3819068256
 30
0.0
 11
159.2701369395
 21
97.3819068256
 31
0.0
  0
SPLINE
  5
FF
330
1F
100
AcDbEntity
  8
0
  6
HIDDEN
 62
     7
370
     0
100
AcDbSpline
210
0.0
220
0.0
230
1.0
 70
     8
 71
     3
 72
    22
 73
    18
 74
     0
 42
0.00000001
 43
0.00000001
 40
0.0
 40
0.0
 40
0.0
 40
0.0
 40
0.0861913641740258
 40
0.1720420202212212
 40
0.2289735059417677
 40
0.2875466525187274
 40
0.3453290526399221
 40
0.4048133674200126
 40
0.4684678219588166
 40
0.5325693275141953
 40
0.6079878209253627
 40
0.6673378599164315
 40
0.7283099624511433
 40
0.7898092354370753
 40
0.8533073155353692
 40
0.938477137422974
 40
1.0
 40
1.0
 40
1.0
 40
1.0
 10
199.8201369395124
 20
132.1155555686707
 30
0.0
 10
199.8088443370926
 20
132.1023857942438
 30
0.0
 10
199.7863037710803
 20
132.0760983045403
 30
0.0
 10
199.6424689929071
 20
131.9037324912217
 30
0.0
 10
199.4862835823205
 20
131.7047633000248
 30
0.0
 10
199.3364121828825
 20
131.4994538597926
 30
0.0
 10
199.1829868936171
 20
131.2610528032631
 30
0.0
 10
199.0405315751746
 20
130.9830686928566
 30
0.0
 10
198.942285379886
 20
130.6541234214834
 30
0.0
 10
198.9519760365021
 20
130.2714702246985
 30
0.0
 10
199.0729238853507
 20
129.9302160480315
 30
0.0
 10
199.2297983161266
 20
129.6367159054962
 30
0.0
 10
199.3853686872008
 20
129.3937998553143
 30
0.0
 10
199.5393869189564
 20
129.1768068727472
 30
0.0
 10
199.6888148659438
 20
128.9787763754287
 30
0.0
 10
199.8047121346751
 20
128.8322493667846
 30
0.0
 10
199.8076694215597
 20
128.8286253008361
 30
0.0
 10
199.8089097066855
 20
128.8271053687949
 30
0.0
  0
SPLINE
  5
100
330
1F
100
AcDbEntity
  8
0
  6
HIDDEN
 62
     7
370
     0
100
AcDbSpline
210
0.0
220
0.0
230
1.0
 70
    11
 71
     3
 72
    64
 73
    60
 74
     0
 42
0.00000001
 43
0.00000001
 40
-0.0312500000000002
 40
-0.0312500000000002
 40
0.0
 40
0.0
 40
0.0312499999999998
 40
0.0312499999999998
 40
0.0624999999999995
 40
0.0624999999999995
 40
0.0937499999999993
 40
0.0937499999999993
 40
0.124999999999999
 40
0.124999999999999
 40
0.1562499999999988
 40
0.1562499999999988
 40
0.1874999999999985
 40
0.1874999999999985
 40
0.2187499999999983
 40
0.2187499999999983
 40
0.249999999999998
 40
0.249999999999998
 40
0.2812499999999977
 40
0.2812499999999977
 40
0.3124999999999975
 40
0.3124999999999975
 40
0.3749999999999977
 40
0.3749999999999977
 40
0.4374999999999979
 40
0.4374999999999979
 40
0.4687499999999981
 40
0.4687499999999981
 40
0.4999999999999982
 40
0.4999999999999982
 40
0.5312499999999983
 40
0.5312499999999983
 40
0.5624999999999984
 40
0.5624999999999984
 40
0.5937499999999986
 40
0.5937499999999986
 40
0.6249999999999986
 40
0.6249999999999986
 40
0.6562499999999987
 40
0.6562499999999987
 40
0.6874999999999988
 40
0.6874999999999988
 40
0.7187499999999989
 40
0.7187499999999989
 40
0.749999999999999
 40
0.749999999999999
 40
0.7812499999999991
 40
0.7812499999999991
 40
0.8124999999999992
 40
0.8124999999999992
 40
0.8749999999999994
 40
0.8749999999999994
 40
0.9062499999999996
 40
0.9062499999999996
 40
0.9374999999999997
 40
0.9374999999999997
 40
0.9687499999999998
 40
0.9687499999999998
 40
1.0
 40
1.0
 40
1.03125
 40
1.03125
 10
195.8201369395125
 20
132.2727159967014
 30
0.0
 10
195.8201369395125
 20
132.2727159967014
 30
0.0
 10
195.8302168611927
 20
132.2601326944467
 30
0.0
 10
195.8684837192704
 20
132.2118805966658
 30
0.0
 10
195.896997947215
 20
132.1757860585233
 30
0.0
 10
195.9666759452445
 20
132.0860007998315
 30
0.0
 10
196.0086081929808
 20
132.0313183075211
 30
0.0
 10
196.1000648988283
 20
131.908595774316
 30
0.0
 10
196.149445835033
 20
131.8408049585456
 30
0.0
 10
196.2523482668968
 20
131.6929478245925
 30
0.0
 10
196.3063255321666
 20
131.6122031277865
 30
0.0
 10
196.4115767768205
 20
131.4418665058503
 30
0.0
 10
196.4631787013324
 20
131.3520340300915
 30
0.0
 10
196.5582380340718
 20
131.1598823734616
 30
0.0
 10
196.6020045297869
 20
131.0565524953523
 30
0.0
 10
196.6665078379042
 20
130.8407245478039
 30
0.0
 10
196.6872541058773
 20
130.725171348116
 30
0.0
 10
196.6920005601933
 20
130.4964141127028
 30
0.0
 10
196.6758816285451
 20
130.3800236298707
 30
0.0
 10
196.6160789860028
 20
130.161414260495
 30
0.0
 10
196.5728950195297
 20
130.057193965597
 30
0.0
 10
196.4292825663138
 20
129.7684594293971
 30
0.0
 10
196.3134995570607
 20
129.5996676973809
 30
0.0
 10
196.1022414117585
 20
129.311494866115
 30
0.0
 10
196.0035545497355
 20
129.1900213783479
 30
0.0
 10
195.8976026852643
 20
129.0617778359647
 30
0.0
 10
195.8688483289719
 20
129.0276391074005
 30
0.0
 10
195.8304836269168
 20
128.9822746601229
 30
0.0
 10
195.8202546024886
 20
128.9703079621845
 30
0.0
 10
195.8200212873165
 20
128.970034104625
 30
0.0
 10
195.8299761989616
 20
128.9816776299053
 30
0.0
 10
195.8683468792235
 20
129.0270432647418
 30
0.0
 10
195.8969516866854
 20
129.0609989636755
 30
0.0
 10
195.9675087255491
 20
129.1463827983342
 30
0.0
 10
196.0102350890061
 20
129.1987546103119
 30
0.0
 10
196.1034206470873
 20
129.3165937806227
 30
0.0
 10
196.1540154690847
 20
129.3821589929495
 30
0.0
 10
196.2599322834338
 20
129.5265581570821
 30
0.0
 10
196.3154552707852
 20
129.6056983100893
 30
0.0
 10
196.4232295429137
 20
129.7735013769282
 30
0.0
 10
196.476060144438
 20
129.8626981375059
 30
0.0
 10
196.5724203861626
 20
130.0560509757323
 30
0.0
 10
196.6154182898607
 20
130.1595851468533
 30
0.0
 10
196.6755612756243
 20
130.3782760146181
 30
0.0
 10
196.6918504864186
 20
130.4941532841466
 30
0.0
 10
196.6874811200429
 20
130.7235653288534
 30
0.0
 10
196.6668326536199
 20
130.8392254074776
 30
0.0
 10
196.6025957340036
 20
131.0549808090887
 30
0.0
 10
196.5588610443369
 20
131.1584876839798
 30
0.0
 10
196.4163162328793
 20
131.4470291791983
 30
0.0
 10
196.3040994278047
 20
131.6185580695588
 30
0.0
 10
196.1498317773253
 20
131.8402654356301
 30
0.0
 10
196.1003769305925
 20
131.9081733231003
 30
0.0
 10
196.0086145274473
 20
132.0313135413262
 30
0.0
 10
195.9668186570966
 20
132.0858150109285
 30
0.0
 10
195.8971489786619
 20
132.1755933294712
 30
0.0
 10
195.8685713242607
 20
132.2117698167123
 30
0.0
 10
195.8302374834131
 20
132.2601070058144
 30
0.0
 10
195.8201369395125
 20
132.2727159967014
 30
0.0
 10
195.8201369395125
 20
132.2727159967014
 30
0.0
  0
LINE
  5
101
330
1F
100
AcDbEntity
  8
0
  6
HIDDEN
 62
     7
370
     0
100
AcDbLine
 10
199.8201369395
 20
132.2819068256
 30
0.0
 11
195.8201369395
 21
132.2819068256
 31
0.0
  0
SPLINE
  5
102
330
1F
100
AcDbEntity
  8
0
  6
HIDDEN
 62
     7
370
     0
100
AcDbSpline
210
0.0
220
0.0
230
1.0
 70
     8
 71
     3
 72
    16
 73
    12
 74
     0
 42
0.00000001
 43
0.00000001
 40
0.0
 40
0.0
 40
0.0
 40
0.0
 40
0.0430949920224203
 40
0.1554804146971898
 40
0.2741672354038562
 40
0.4522764611998146
 40
0.6335664577804988
 40
0.724068007437431
 40
0.8150118388983937
 40
0.931630462014813
 40
1.0
 40
1.0
 40
1.0
 40
1.0
 10
199.8078374582165
 20
93.93537043013784
 30
0.0
 10
199.8112053625103
 20
93.93959891713855
 30
0.0
 10
199.8233562675618
 20
93.9548546784593
 30
0.0
 10
199.7434362933478
 20
93.85465673558375
 30
0.0
 10
199.5686016610379
 20
93.62852643252609
 30
0.0
 10
199.2860363647373
 20
93.23395296195666
 30
0.0
 10
199.0246159982075
 20
92.76373755182357
 30
0.0
 10
198.9329864026857
 20
92.31287723649505
 30
0.0
 10
198.9783386913269
 20
91.93427138440593
 30
0.0
 10
199.1143676559272
 20
91.62344832911324
 30
0.0
 10
199.2220476955077
 20
91.44708771827945
 30
0.0
 10
199.2618450236854
 20
91.38190682556888
 30
0.0
  0
SPLINE
  5
103
330
1F
100
AcDbEntity
  8
0
  6
HIDDEN
 62
     7
370
     0
100
AcDbSpline
210
0.0
220
0.0
230
1.0
 70
     8
 71
     3
 72
    15
 73
    11
 74
     0
 42
0.00000001
 43
0.00000001
 40
0.0
 40
0.0
 40
0.0
 40
0.0
 40
0.1245735860691879
 40
0.2230072661753938
 40
0.3220418009316937
 40
0.443409878228195
 40
0.6271900395364433
 40
0.813972373288098
 40
0.9428979008222621
 40
1.0
 40
1.0
 40
1.0
 40
1.0
 10
196.4443611214312
 20
91.38190682556888
 30
0.0
 10
196.5084677743685
 20
91.5058638629551
 30
0.0
 10
196.623229256849
 20
91.72776740529468
 30
0.0
 10
196.707375838349
 20
92.10995696284799
 30
0.0
 10
196.6655845021596
 20
92.49825417909385
 30
0.0
 10
196.4761929168883
 20
92.93004797100556
 30
0.0
 10
196.1799873409427
 20
93.35622158960358
 30
0.0
 10
195.93476354368
 20
93.65880603895137
 30
0.0
 10
195.8206159048657
 20
93.79309471947533
 30
0.0
 10
195.8304794850551
 20
93.78148638704282
 30
0.0
 10
195.8335071597299
 20
93.77792315204613
 30
0.0
  0
LINE
  5
104
330
1F
100
AcDbEntity
  8
0
  6
HIDDEN
 62
     7
370
     0
100
AcDbLine
 10
196.4443611214
 20
91.3819068256
 30
0.0
 11
199.2618450237
 21
91.3819068256
 31
0.0
  0
SPLINE
  5
105
330
1F
100
AcDbEntity
  8
0
  6
HIDDEN
 62
     7
370
     0
100
AcDbSpline
210
0.0
220
0.0
230
1.0
 70
     8
 71
     3
 72
    13
 73
     9
 74
     0
 42
0.00000001
 43
0.00000001
 40
0.0
 40
0.0
 40
0.0
 40
0.0
 40
0.1157644410166461
 40
0.366653047570204
 40
0.4779310716934967
 40
0.5885049781494639
 40
0.8213285534599194
 40
1.0
 40
1.0
 40
1.0
 40
1.0
 10
197.2242004656115
 20
90.55947118230756
 30
0.0
 10
197.2226675678605
 20
90.55798917872626
 30
0.0
 10
197.2178125223293
 20
90.55329532692838
 30
0.0
 10
197.331941063482
 20
90.6736418705741
 30
0.0
 10
197.2599961114708
 20
90.84362389807357
 30
0.0
 10
197.0766001612132
 20
91.0099584362787
 30
0.0
 10
196.7915715271293
 20
91.18719686159308
 30
0.0
 10
196.5494782176448
 20
91.3229588629471
 30
0.0
 10
196.4443611214312
 20
91.38190682556888
 30
0.0
  0
SPLINE
  5
106
330
1F
100
AcDbEntity
  8
0
  6
HIDDEN
 62
     7
370
     0
100
AcDbSpline
210
0.0
220
0.0
230
1.0
 70
     8
 71
     3
 72
    13
 73
     9
 74
     0
 42
0.00000001
 43
0.00000001
 40
0.0
 40
0.0
 40
0.0
 40
0.0
 40
0.2728541291205782
 40
0.4384317304089579
 40
0.5505761253781138
 40
0.6634167575540976
 40
0.8576564930571784
 40
1.0
 40
1.0
 40
1.0
 40
1.0
 10
199.2618450236854
 20
91.38190682556889
 30
0.0
 10
199.1125642756347
 20
91.29431434331372
 30
0.0
 10
198.8726946541063
 20
91.1535676238496
 30
0.0
 10
198.6122559818735
 20
90.96881034444499
 30
0.0
 10
198.4820205616401
 20
90.83147118272396
 30
0.0
 10
198.4432088545409
 20
90.70113434055502
 30
0.0
 10
198.5055140808664
 20
90.60695291401574
 30
0.0
 10
198.5031260424441
 20
90.61095610791597
 30
0.0
 10
198.5021161235863
 20
90.61264908779992
 30
0.0
  0
LINE
  5
107
330
1F
100
AcDbEntity
  8
0
  6
HIDDEN
 62
     7
370
     0
100
AcDbLine
 10
194.9296315336
 20
90.4561096017
 30
0.0
 11
194.8000741415
 21
93.7535654213
 31
0.0
  0
LINE
  5
108
330
1F
100
AcDbEntity
  8
0
  6
HIDDEN
 62
     7
370
     0
100
AcDbLine
 10
194.9296315336
 20
132.3077040494
 30
0.0
 11
194.8000741415
 21
129.0102482298
 31
0.0
  0
LWPOLYLINE
  5
109
330
1F
100
AcDbEntity
  8
0
  6
HIDDEN
 62
     7
370
     0
100
AcDbPolyline
 90
       28
 70
   128
 43
0.0
 10
101.8201369395
 20
156.6946126773
 10
102.9732162932
 20
156.652964712
 10
104.0641328405
 20
156.5302660684
 10
105.0340749879
 20
156.3331314623
 10
105.8307529033
 20
156.0721884713
 10
106.4112174739
 20
155.7615045996
 10
106.7441757046
 20
155.4178288952
 10
106.8116777309
 20
155.0596890041
 10
106.6100845011
 20
154.7063923407
 10
106.1502639584
 20
154.3769852195
 10
105.4570051474
 20
154.0892260637
 10
104.5676818299
 20
153.8586280439
 10
103.5302376561
 20
153.6976227589
 10
102.4006015101
 20
153.6148900454
 10
101.2396723689
 20
153.6148900454
 10
100.1100362229
 20
153.6976227589
 10
99.0725920492
 20
153.8586280439
 10
98.1832687316
 20
154.0892260637
 10
97.4900099206
 20
154.3769852195
 10
97.0301893779
 20
154.7063923407
 10
96.8285961482
 20
155.0596890041
 10
96.8960981745
 20
155.4178288952
 10
97.2290564051
 20
155.7615045996
 10
97.8095209757
 20
156.0721884713
 10
98.6061988911
 20
156.3331314623
 10
99.5761410385
 20
156.5302660684
 10
100.6670575858
 20
156.652964712
 10
101.8201369395
 20
156.6946126773
  0
LINE
  5
10A
330
1F
100
AcDbEntity
  8
0
  6
HIDDEN
 62
     7
370
     0
100
AcDbLine
 10
116.0821659604
 20
150.3328695865
 30
0.0
 11
116.0821659604
 21
142.7319068256
 31
0.0
  0
LINE
  5
10B
330
1F
100
AcDbEntity
  8
0
  6
HIDDEN
 62
     7
370
     0
100
AcDbLine
 10
110.9101369395
 20
146.0961420181
 30
0.0
 11
110.9101369395
 21
142.7319068256
 31
0.0
  0
LINE
  5
10C
330
1F
100
AcDbEntity
  8
0
  6
HIDDEN
 62
     7
370
     0
100
AcDbLine
 10
114.7301369395
 20
146.0961420181
 30
0.0
 11
114.7301369395
 21
142.7319068256
 31
0.0
  0
CIRCLE
  5
10D
330
1F
100
AcDbEntity
  8
0
  6
HIDDEN
 62
     7
370
     0
100
AcDbCircle
 10
99.8201369395
 20
111.3819068256
 30
0.0
 40
5.0
  0
LINE
  5
10E
330
1F
100
AcDbEntity
  8
0
  6
HIDDEN
 62
     7
370
     0
100
AcDbLine
 10
252.5558841141
 20
96.373067421
 30
0.0
 11
252.7129233771
 21
92.376151276
 31
0.0
  0
LINE
  5
10F
330
1F
100
AcDbEntity
  8
0
  6
HIDDEN
 62
     7
370
     0
100
AcDbLine
 10
245.536466611
 20
96.0972737562
 30
0.0
 11
245.693505874
 21
92.1003576112
 31
0.0
  0
LINE
  5
110
330
1F
100
AcDbEntity
  8
0
  6
HIDDEN
 62
     7
370
     0
100
AcDbLine
 10
244.8164896956
 20
95.3184071172
 30
0.0
 11
244.914639235
 21
92.8203345266
 31
0.0
  0
LINE
  5
111
330
1F
100
AcDbEntity
  8
0
  6
HIDDEN
 62
     7
370
     0
100
AcDbLine
 10
252.7961884519
 20
95.9922080963
 30
0.0
 11
252.8201369395
 21
95.3826783842
 31
0.0
  0
LINE
  5
112
330
1F
100
AcDbEntity
  8
0
  6
HIDDEN
 62
     7
370
     0
100
AcDbLine
 10
250.3220643489
 20
95.2845288448
 30
0.0
 11
250.3613241647
 21
94.2852998085
 31
0.0
  0
LINE
  5
113
330
1F
100
AcDbEntity
  8
0
  6
HIDDEN
 62
     7
370
     0
100
AcDbLine
 10
250.4005839804
 20
93.2860707723
 30
0.0
 11
250.3613241647
 21
94.2852998085
 31
0.0
  0
LINE
  5
114
330
1F
100
AcDbEntity
  8
0
  6
HIDDEN
 62
     7
370
     0
100
AcDbLine
 10
250.3613241647
 20
94.2852998085
 30
0.0
 11
252.8593967553
 21
94.3834493479
 31
0.0
  0
LINE
  5
115
330
1F
100
AcDbEntity
  8
0
  6
HIDDEN
 62
     7
370
     0
100
AcDbLine
 10
250.3220643489
 20
95.2845288448
 30
0.0
 11
252.8201369395
 21
95.3826783842
 31
0.0
  0
LINE
  5
116
330
1F
100
AcDbEntity
  8
0
  6
HIDDEN
 62
     7
370
     0
100
AcDbLine
 10
250.4005839804
 20
93.2860707723
 30
0.0
 11
252.898656571
 21
93.3842203117
 31
0.0
  0
LINE
  5
117
330
1F
100
AcDbEntity
  8
0
  6
HIDDEN
 62
     7
370
     0
100
AcDbLine
 10
245.6149862425
 20
130.6665410847
 30
0.0
 11
245.4579469795
 21
126.6696249397
 31
0.0
  0
LINE
  5
118
330
1F
100
AcDbEntity
  8
0
  6
HIDDEN
 62
     7
370
     0
100
AcDbLine
 10
244.8361196035
 20
129.9465641693
 30
0.0
 11
244.7379700641
 21
127.4484915787
 31
0.0
  0
LINE
  5
119
330
1F
100
AcDbEntity
  8
0
  6
HIDDEN
 62
     7
370
     0
100
AcDbLine
 10
252.6344037456
 20
130.3907474198
 30
0.0
 11
252.4773644825
 21
126.3938312749
 31
0.0
  0
LINE
  5
11A
330
1F
100
AcDbEntity
  8
0
  6
HIDDEN
 62
     7
370
     0
100
AcDbLine
 10
252.8201369395
 20
129.3826783842
 30
0.0
 11
252.7176688204
 21
126.7746905996
 31
0.0
  0
LINE
  5
11B
330
1F
100
AcDbEntity
  8
0
  6
HIDDEN
 62
     7
370
     0
100
AcDbLine
 10
250.3220643489
 20
129.4808279236
 30
0.0
 11
250.2828045332
 21
128.4815988873
 31
0.0
  0
LINE
  5
11C
330
1F
100
AcDbEntity
  8
0
  6
HIDDEN
 62
     7
370
     0
100
AcDbLine
 10
250.2828045332
 20
128.4815988873
 30
0.0
 11
252.7808771238
 21
128.3834493479
 31
0.0
  0
LINE
  5
11D
330
1F
100
AcDbEntity
  8
0
  6
HIDDEN
 62
     7
370
     0
100
AcDbLine
 10
250.2435447174
 20
127.4823698511
 30
0.0
 11
250.2828045332
 21
128.4815988873
 31
0.0
  0
LINE
  5
11E
330
1F
100
AcDbEntity
  8
0
  6
HIDDEN
 62
     7
370
     0
100
AcDbLine
 10
250.3220643489
 20
129.4808279236
 30
0.0
 11
252.8201369395
 21
129.3826783842
 31
0.0
  0
LINE
  5
11F
330
1F
100
AcDbEntity
  8
0
  6
HIDDEN
 62
     7
370
     0
100
AcDbLine
 10
250.2435447174
 20
127.4823698511
 30
0.0
 11
252.741617308
 21
127.3842203117
 31
0.0
  0
LINE
  5
120
330
1F
100
AcDbEntity
  8
0
  6
HIDDEN
 62
     7
370
     0
100
AcDbLine
 10
194.8201369395
 20
105.3819068256
 30
0.0
 11
194.8201369395
 21
117.3819068256
 31
0.0
  0
LINE
  5
121
330
1F
100
AcDbEntity
  8
0
  6
HIDDEN
 62
     7
370
     0
100
AcDbLine
 10
179.8201369395
 20
105.3819068256
 30
0.0
 11
179.8201369395
 21
117.3819068256
 31
0.0
  0
LINE
  5
122
330
1F
100
AcDbEntity
  8
0
  6
HIDDEN
 62
     7
370
     0
100
AcDbLine
 10
179.3201369395
 20
105.8819068256
 30
0.0
 11
179.3201369395
 21
116.8819068256
 31
0.0
  0
LINE
  5
123
330
1F
100
AcDbEntity
  8
0
  6
HIDDEN
 62
     7
370
     0
100
AcDbLine
 10
199.3201369395
 20
109.8819068256
 30
0.0
 11
197.3201369395
 21
109.8819068256
 31
0.0
  0
LINE
  5
124
330
1F
100
AcDbEntity
  8
0
  6
HIDDEN
 62
     7
370
     0
100
AcDbLine
 10
199.3201369395
 20
105.8819068256
 30
0.0
 11
199.3201369395
 21
109.8819068256
 31
0.0
  0
LINE
  5
125
330
1F
100
AcDbEntity
  8
0
  6
HIDDEN
 62
     7
370
     0
100
AcDbLine
 10
199.3201369395
 20
112.8819068256
 30
0.0
 11
199.3201369395
 21
116.8819068256
 31
0.0
  0
LINE
  5
126
330
1F
100
AcDbEntity
  8
0
  6
HIDDEN
 62
     7
370
     0
100
AcDbLine
 10
197.3201369395
 20
112.8819068256
 30
0.0
 11
199.3201369395
 21
112.8819068256
 31
0.0
  0
LINE
  5
127
330
1F
100
AcDbEntity
  8
0
  6
HIDDEN
 62
     7
370
     0
100
AcDbLine
 10
197.3201369395
 20
109.8819068256
 30
0.0
 11
197.3201369395
 21
112.8819068256
 31
0.0
  0
LINE
  5
128
330
1F
100
AcDbEntity
  8
0
  6
HIDDEN
 62
     7
370
     0
100
AcDbLine
 10
192.3201369395
 20
111.3819068256
 30
0.0
 11
192.3201369395
 21
109.8819068256
 31
0.0
  0
LINE
  5
129
330
1F
100
AcDbEntity
  8
0
  6
HIDDEN
 62
     7
370
     0
100
AcDbLine
 10
192.3201369395
 20
111.3819068256
 30
0.0
 11
197.3201369395
 21
111.3819068256
 31
0.0
  0
LINE
  5
12A
330
1F
100
AcDbEntity
  8
0
  6
HIDDEN
 62
     7
370
     0
100
AcDbLine
 10
192.3201369395
 20
112.8819068256
 30
0.0
 11
192.3201369395
 21
111.3819068256
 31
0.0
  0
LINE
  5
12B
330
1F
100
AcDbEntity
  8
0
  6
HIDDEN
 62
     7
370
     0
100
AcDbLine
 10
186.3201369394
 20
111.3819068256
 30
0.0
 11
179.3201369395
 21
111.3819068256
 31
0.0
  0
LINE
  5
12C
330
1F
100
AcDbEntity
  8
0
  6
HIDDEN
 62
     7
370
     0
100
AcDbLine
 10
186.3201369394
 20
111.3819068256
 30
0.0
 11
186.3201369394
 21
112.8819068256
 31
0.0
  0
LINE
  5
12D
330
1F
100
AcDbEntity
  8
0
  6
HIDDEN
 62
     7
370
     0
100
AcDbLine
 10
186.3201369394
 20
109.8819068256
 30
0.0
 11
186.3201369394
 21
111.3819068256
 31
0.0
  0
LINE
  5
12E
330
1F
100
AcDbEntity
  8
0
  6
HIDDEN
 62
     7
370
     0
100
AcDbLine
 10
192.3201369395
 20
109.8819068256
 30
0.0
 11
192.3201369395
 21
108.3819068256
 31
0.0
  0
LINE
  5
12F
330
1F
100
AcDbEntity
  8
0
  6
HIDDEN
 62
     7
370
     0
100
AcDbLine
 10
192.3201369395
 20
114.3819068256
 30
0.0
 11
192.3201369395
 21
112.8819068256
 31
0.0
  0
LINE
  5
130
330
1F
100
AcDbEntity
  8
0
  6
HIDDEN
 62
     7
370
     0
100
AcDbLine
 10
186.3201369394
 20
112.8819068256
 30
0.0
 11
186.3201369394
 21
114.3819068256
 31
0.0
  0
LINE
  5
131
330
1F
100
AcDbEntity
  8
0
  6
HIDDEN
 62
     7
370
     0
100
AcDbLine
 10
186.3201369394
 20
108.3819068256
 30
0.0
 11
186.3201369394
 21
109.8819068256
 31
0.0
  0
LINE
  5
132
330
1F
100
AcDbEntity
  8
0
  6
HIDDEN
 62
     7
370
     0
100
AcDbLine
 10
186.3201369394
 20
114.3819068256
 30
0.0
 11
179.3201369394
 21
114.3819068256
 31
0.0
  0
LINE
  5
133
330
1F
100
AcDbEntity
  8
0
  6
HIDDEN
 62
     7
370
     0
100
AcDbLine
 10
186.3201369394
 20
108.3819068256
 30
0.0
 11
179.3201369394
 21
108.3819068256
 31
0.0
  0
LINE
  5
134
330
1F
100
AcDbEntity
  8
0
  6
HIDDEN
 62
     7
370
     0
100
AcDbLine
 10
192.3201369395
 20
114.3819068256
 30
0.0
 11
199.3201369395
 21
114.3819068256
 31
0.0
  0
LINE
  5
135
330
1F
100
AcDbEntity
  8
0
  6
HIDDEN
 62
     7
370
     0
100
AcDbLine
 10
192.3201369395
 20
108.3819068256
 30
0.0
 11
199.3201369395
 21
108.3819068256
 31
0.0
  0
LINE
  5
136
330
1F
100
AcDbEntity
  8
0
  6
HIDDEN
 62
     7
370
     0
100
AcDbLine
 10
92.8201369395
 20
71.977223869
 30
0.0
 11
92.9097385634
 21
72.6147725509
 31
0.0
  0
LINE
  5
137
330
1F
100
AcDbEntity
  8
0
  6
HIDDEN
 62
     7
370
     0
100
AcDbLine
 10
92.9097385634
 20
150.1490411002
 30
0.0
 11
92.8201369395
 21
150.7865897822
 31
0.0
  0
ARC
  5
138
330
1F
100
AcDbEntity
  8
0
  6
HIDDEN
 62
     7
370
     0
100
AcDbCircle
 10
91.9232000211
 20
72.7534215011
 30
0.0
 40
0.9962338214386932
100
AcDbArc
 50
352.0
 51
0.0
  0
ARC
  5
139
330
1F
100
AcDbEntity
  8
0
  6
HIDDEN
 62
     7
370
     0
100
AcDbCircle
 10
91.9232000211
 20
72.7534215011
 30
0.0
 40
0.9962338214386932
100
AcDbArc
 50
0.0
 51
25.7988228126
  0
ARC
  5
13A
330
1F
100
AcDbEntity
  8
0
  6
HIDDEN
 62
     7
370
     0
100
AcDbCircle
 10
91.9232000211
 20
150.01039215
 30
0.0
 40
0.9962338214386822
100
AcDbArc
 50
348.75
 51
8.0
  0
LWPOLYLINE
  5
13B
330
1F
100
AcDbEntity
  8
0
  6
HIDDEN
 62
     7
370
     0
100
AcDbPolyline
 90
        3
 70
   128
 43
0.0
 10
92.900291489
 20
149.816036573
 10
92.8436000583
 20
149.6291499718
 10
92.8201369395
 20
149.5768186369
  0
LINE
  5
13C
330
1F
100
AcDbEntity
  8
0
  6
HIDDEN
 62
     7
370
     0
100
AcDbLine
 10
92.9194338425
 20
72.7534215011
 30
0.0
 11
92.9194338425
 21
150.01039215
 31
0.0
  0
ARC
  5
13D
330
1F
100
AcDbEntity
  8
0
  6
HIDDEN
 62
     7
370
     0
100
AcDbCircle
 10
66.2808628817
 20
80.8819068256
 30
0.0
 40
1.000000000000014
100
AcDbArc
 50
210.0
 51
270.0
  0
ARC
  5
13E
330
1F
100
AcDbEntity
  8
0
  6
HIDDEN
 62
     7
370
     0
100
AcDbCircle
 10
66.2808628817
 20
141.8819068256
 30
0.0
 40
1.0
100
AcDbArc
 50
90.0
 51
150.0
  0
LINE
  5
13F
330
1F
100
AcDbEntity
  8
0
  6
HIDDEN
 62
     7
370
     0
100
AcDbLine
 10
66.2808628817
 20
79.8819068256
 30
0.0
 11
71.8253073135
 21
79.8819068256
 31
0.0
  0
LINE
  5
140
330
1F
100
AcDbEntity
  8
0
  6
HIDDEN
 62
     7
370
     0
100
AcDbLine
 10
71.8253073135
 20
142.8819068256
 30
0.0
 11
66.2808628817
 21
142.8819068256
 31
0.0
  0
ARC
  5
141
330
1F
100
AcDbEntity
  8
0
  6
HIDDEN
 62
     7
370
     0
100
AcDbCircle
 10
83.0733425947
 20
91.8819068256
 30
0.0
 40
11.99999999999999
100
AcDbArc
 50
273.4752647186
 51
324.3146652873
  0
ARC
  5
142
330
1F
100
AcDbEntity
  8
0
  6
HIDDEN
 62
     7
370
     0
100
AcDbCircle
 10
83.0733425947
 20
130.8819068256
 30
0.0
 40
12.0
100
AcDbArc
 50
35.6853347127
 51
86.5206520826
  0
LINE
  5
143
330
1F
100
AcDbEntity
  8
0
  6
HIDDEN
 62
     7
370
     0
100
AcDbLine
 10
65.4148374779
 20
142.3819068256
 30
0.0
 11
62.8167612665
 21
137.8819068256
 31
0.0
  0
LINE
  5
144
330
1F
100
AcDbEntity
  8
0
  6
HIDDEN
 62
     7
370
     0
100
AcDbLine
 10
62.8167612665
 20
84.8819068256
 30
0.0
 11
65.4148374779
 21
80.3819068256
 31
0.0
  0
ARC
  5
145
330
1F
100
AcDbEntity
  8
0
  6
HIDDEN
 62
     7
370
     0
100
AcDbCircle
 10
103.2701369395
 20
86.5069068256
 30
0.0
 40
2.000000000000015
100
AcDbArc
 50
234.3409123039
 51
0.0
  0
ARC
  5
146
330
1F
100
AcDbEntity
  8
0
  6
HIDDEN
 62
     7
370
     0
100
AcDbCircle
 10
103.2701369395
 20
136.2569068256
 30
0.0
 40
2.000000000000003
100
AcDbArc
 50
0.0
 51
125.6590876961
  0
LINE
  5
147
330
1F
100
AcDbEntity
  8
0
  6
HIDDEN
 62
     7
370
     0
100
AcDbLine
 10
58.0201369395
 20
84.8819068256
 30
0.0
 11
62.8167612665
 21
84.8819068256
 31
0.0
  0
LINE
  5
148
330
1F
100
AcDbEntity
  8
0
  6
HIDDEN
 62
     7
370
     0
100
AcDbLine
 10
62.8167612665
 20
137.8819068256
 30
0.0
 11
53.0201369395
 21
137.8819068256
 31
0.0
  0
LINE
  5
149
330
1F
100
AcDbEntity
  8
0
  6
HIDDEN
 62
     7
370
     0
100
AcDbLine
 10
92.8201369395
 20
84.8819068256
 30
0.0
 11
102.1042145579
 21
84.8819068256
 31
0.0
  0
LINE
  5
14A
330
1F
100
AcDbEntity
  8
0
  6
HIDDEN
 62
     7
370
     0
100
AcDbLine
 10
102.1042145579
 20
137.8819068256
 30
0.0
 11
92.8201369395
 21
137.8819068256
 31
0.0
  0
LINE
  5
14B
330
1F
100
AcDbEntity
  8
0
  6
HIDDEN
 62
     7
370
     0
100
AcDbLine
 10
96.8201369395
 20
157.0590697077
 30
0.0
 11
96.8201369395
 21
153.3593206042
 31
0.0
  0
LINE
  5
14C
330
1F
100
AcDbEntity
  8
0
  6
HIDDEN
 62
     7
370
     0
100
AcDbLine
 10
106.8201369395
 20
153.3593206042
 30
0.0
 11
106.8201369395
 21
157.0576977584
 31
0.0
  0
ARC
  5
14D
330
1F
100
AcDbEntity
  8
0
  6
HIDDEN
 62
     7
370
     0
100
AcDbCircle
 10
252.3201369395
 20
97.8452125775
 30
0.0
 40
0.5
100
AcDbArc
 50
0.0
 51
80.0
  0
ARC
  5
14E
330
1F
100
AcDbEntity
  8
0
  6
HIDDEN
 62
     7
370
     0
100
AcDbCircle
 10
252.3201369395
 20
124.9186010736
 30
0.0
 40
0.5000000000000014
100
AcDbArc
 50
280.0
 51
0.0
  0
LINE
  5
14F
330
1F
100
AcDbEntity
  8
0
  6
HIDDEN
 62
     7
370
     0
100
AcDbLine
 10
252.4069610283
 20
124.4261971971
 30
0.0
 11
249.3201369395
 21
123.8819068256
 31
0.0
  0
LINE
  5
150
330
1F
100
AcDbEntity
  8
0
  6
HIDDEN
 62
     7
370
     0
100
AcDbLine
 10
249.3201369395
 20
98.8819068256
 30
0.0
 11
252.4069610283
 21
98.337616454
 31
0.0
  0
LINE
  5
151
330
1F
100
AcDbEntity
  8
0
  6
HIDDEN
 62
     7
370
     0
100
AcDbLine
 10
117.1201369395
 20
98.3819068256
 30
0.0
 11
121.1201369395
 21
98.3819068256
 31
0.0
  0
LINE
  5
152
330
1F
100
AcDbEntity
  8
0
  6
HIDDEN
 62
     7
370
     0
100
AcDbLine
 10
121.1201369395
 20
124.3819068256
 30
0.0
 11
117.1201369395
 21
124.3819068256
 31
0.0
  0
LINE
  5
153
330
1F
100
AcDbEntity
  8
0
  6
HIDDEN
 62
     7
370
     0
100
AcDbLine
 10
199.8201369395
 20
98.5819068256
 30
0.0
 11
204.9253629214
 21
98.5819068256
 31
0.0
  0
LINE
  5
154
330
1F
100
AcDbEntity
  8
0
  6
HIDDEN
 62
     7
370
     0
100
AcDbLine
 10
195.7201369395
 20
98.5819068256
 30
0.0
 11
195.8257655097
 21
98.5819068256
 31
0.0
  0
LINE
  5
155
330
1F
100
AcDbEntity
  8
0
  6
HIDDEN
 62
     7
370
     0
100
AcDbLine
 10
195.8214517878
 20
124.1819068256
 30
0.0
 11
195.7201369395
 21
124.1819068256
 31
0.0
  0
LINE
  5
156
330
1F
100
AcDbEntity
  8
0
  6
HIDDEN
 62
     7
370
     0
100
AcDbLine
 10
204.9253629214
 20
124.1819068256
 30
0.0
 11
199.8134695176
 21
124.1819068256
 31
0.0
  0
ARC
  5
157
330
1F
100
AcDbEntity
  8
0
  6
HIDDEN
 62
     7
370
     0
100
AcDbCircle
 10
204.9253629214
 20
98.9819068256
 30
0.0
 40
0.4000000000000135
100
AcDbArc
 50
270.0
 51
290.0
  0
ARC
  5
158
330
1F
100
AcDbEntity
  8
0
  6
HIDDEN
 62
     7
370
     0
100
AcDbCircle
 10
204.9253629214
 20
123.7819068256
 30
0.0
 40
0.4000000000000135
100
AcDbArc
 50
70.0
 51
90.0
  0
ARC
  5
159
330
1F
100
AcDbEntity
  8
0
  6
HIDDEN
 62
     7
370
     0
100
AcDbCircle
 10
195.7201369395
 20
98.9819068256
 30
0.0
 40
0.4000000000000057
100
AcDbArc
 50
180.0
 51
270.0
  0
ARC
  5
15A
330
1F
100
AcDbEntity
  8
0
  6
HIDDEN
 62
     7
370
     0
100
AcDbCircle
 10
195.7201369395
 20
123.7819068256
 30
0.0
 40
0.4000000000000057
100
AcDbArc
 50
90.0
 51
180.0
  0
LINE
  5
15B
330
1F
100
AcDbEntity
  8
0
  6
HIDDEN
 62
     7
370
     0
100
AcDbLine
 10
205.0621709787
 20
98.6060297773
 30
0.0
 11
205.8201369395
 21
98.8819068256
 31
0.0
  0
LINE
  5
15C
330
1F
100
AcDbEntity
  8
0
  6
HIDDEN
 62
     7
370
     0
100
AcDbLine
 10
205.8201369395
 20
123.8819068256
 30
0.0
 11
205.0621709787
 21
124.1577838739
 31
0.0
  0
LINE
  5
15D
330
1F
100
AcDbEntity
  8
0
  6
HIDDEN
 62
     7
370
     0
100
AcDbLine
 10
205.8201369395
 20
98.8819068256
 30
0.0
 11
249.3201369395
 21
98.8819068256
 31
0.0
  0
LINE
  5
15E
330
1F
100
AcDbEntity
  8
0
  6
HIDDEN
 62
     7
370
     0
100
AcDbLine
 10
249.3201369395
 20
123.8819068256
 30
0.0
 11
205.8201369395
 21
123.8819068256
 31
0.0
  0
LINE
  5
15F
330
1F
100
AcDbEntity
  8
0
  6
HIDDEN
 62
     7
370
     0
100
AcDbLine
 10
105.2701369395
 20
99.3819068256
 30
0.0
 11
106.0201369395
 21
100.1319068256
 31
0.0
  0
LINE
  5
160
330
1F
100
AcDbEntity
  8
0
  6
HIDDEN
 62
     7
370
     0
100
AcDbLine
 10
106.0201369395
 20
122.6319068256
 30
0.0
 11
105.2701369395
 21
123.3819068256
 31
0.0
  0
LINE
  5
161
330
1F
100
AcDbEntity
  8
0
  6
HIDDEN
 62
     7
370
     0
100
AcDbLine
 10
106.0201369395
 20
100.1319068256
 30
0.0
 11
117.1201369395
 21
100.1319068256
 31
0.0
  0
LINE
  5
162
330
1F
100
AcDbEntity
  8
0
  6
HIDDEN
 62
     7
370
     0
100
AcDbLine
 10
117.1201369395
 20
122.6319068256
 30
0.0
 11
106.0201369395
 21
122.6319068256
 31
0.0
  0
LINE
  5
163
330
1F
100
AcDbEntity
  8
0
  6
HIDDEN
 62
     7
370
     0
100
AcDbLine
 10
97.7701369395
 20
161.3819068256
 30
0.0
 11
97.7701369395
 21
155.2819068256
 31
0.0
  0
LINE
  5
164
330
1F
100
AcDbEntity
  8
0
  6
HIDDEN
 62
     7
370
     0
100
AcDbLine
 10
84.2528495556
 20
73.803627255
 30
0.0
 11
83.8201402691
 21
74.2818519723
 31
0.0
  0
LINE
  5
165
330
1F
100
AcDbEntity
  8
0
  6
HIDDEN
 62
     7
370
     0
100
AcDbLine
 10
71.8201373975
 20
74.928813329
 30
0.0
 11
71.3395100923
 21
74.4505886182
 31
0.0
  0
LINE
  5
166
330
1F
100
AcDbEntity
  8
0
  6
HIDDEN
 62
     7
370
     0
100
AcDbLine
 10
71.3393917508
 20
148.3132191168
 30
0.0
 11
71.8201372149
 21
147.834939445
 31
0.0
  0
LINE
  5
167
330
1F
100
AcDbEntity
  8
0
  6
HIDDEN
 62
     7
370
     0
100
AcDbLine
 10
83.8201369416
 20
148.4819118323
 30
0.0
 11
84.2529586114
 21
148.9601915052
 31
0.0
  0
LINE
  5
168
330
1F
100
AcDbEntity
  8
0
  6
HIDDEN
 62
     7
370
     0
100
AcDbLine
 10
83.8201369395
 20
142.8559717195
 30
0.0
 11
83.8201369395
 21
148.5819156583
 31
0.0
  0
LINE
  5
169
330
1F
100
AcDbEntity
  8
0
  6
HIDDEN
 62
     7
370
     0
100
AcDbLine
 10
71.8201369395
 20
147.8349289457
 30
0.0
 11
71.8201369395
 21
142.8809226262
 31
0.0
  0
LINE
  5
16A
330
1F
100
AcDbEntity
  8
0
  6
HIDDEN
 62
     7
370
     0
100
AcDbLine
 10
83.8201369395
 20
74.1817231298
 30
0.0
 11
83.8201369395
 21
79.9078419316
 31
0.0
  0
LINE
  5
16B
330
1F
100
AcDbEntity
  8
0
  6
HIDDEN
 62
     7
370
     0
100
AcDbLine
 10
71.8201369395
 20
79.8828910249
 30
0.0
 11
71.8201369395
 21
74.9288517435
 31
0.0
  0
LINE
  5
16C
330
1F
100
AcDbEntity
  8
0
  6
HIDDEN
 62
     7
370
     0
100
AcDbLine
 10
195.3201369395
 20
117.3819068256
 30
0.0
 11
194.8201369395
 21
116.8819068256
 31
0.0
  0
LINE
  5
16D
330
1F
100
AcDbEntity
  8
0
  6
HIDDEN
 62
     7
370
     0
100
AcDbLine
 10
194.8201369395
 20
105.8819068256
 30
0.0
 11
195.3201369395
 21
105.3819068256
 31
0.0
  0
LINE
  5
16E
330
1F
100
AcDbEntity
  8
0
  6
HIDDEN
 62
     7
370
     0
100
AcDbLine
 10
121.1201369395
 20
105.3819068256
 30
0.0
 11
175.01970663
 21
105.3819068256
 31
0.0
  0
LINE
  5
16F
330
1F
100
AcDbEntity
  8
0
  6
HIDDEN
 62
     7
370
     0
100
AcDbLine
 10
175.01970663
 20
117.3819068256
 30
0.0
 11
121.1201369395
 21
117.3819068256
 31
0.0
  0
LINE
  5
170
330
1F
100
AcDbEntity
  8
0
  6
HIDDEN
 62
     7
370
     0
100
AcDbLine
 10
175.01970663
 20
105.3819068256
 30
0.0
 11
175.3201369395
 21
105.8819068256
 31
0.0
  0
LINE
  5
171
330
1F
100
AcDbEntity
  8
0
  6
HIDDEN
 62
     7
370
     0
100
AcDbLine
 10
175.3201369395
 20
116.8819068256
 30
0.0
 11
175.01970663
 21
117.3819068256
 31
0.0
  0
LINE
  5
172
330
1F
100
AcDbEntity
  8
0
  6
HIDDEN
 62
     7
370
     0
100
AcDbLine
 10
175.3201369395
 20
105.8819068256
 30
0.0
 11
194.8201369395
 21
105.8819068256
 31
0.0
  0
LINE
  5
173
330
1F
100
AcDbEntity
  8
0
  6
HIDDEN
 62
     7
370
     0
100
AcDbLine
 10
194.8201369395
 20
116.8819068256
 30
0.0
 11
175.3201369395
 21
116.8819068256
 31
0.0
  0
LINE
  5
174
330
1F
100
AcDbEntity
  8
0
  6
HIDDEN
 62
     7
370
     0
100
AcDbLine
 10
165.2701369395
 20
83.3819068256
 30
0.0
 11
164.2701369395
 21
83.9592570948
 31
0.0
  0
LINE
  5
175
330
1F
100
AcDbEntity
  8
0
  6
HIDDEN
 62
     7
370
     0
100
AcDbLine
 10
159.2701369395
 20
83.9592570948
 30
0.0
 11
158.2701369395
 21
83.3819068256
 31
0.0
  0
LINE
  5
176
330
1F
100
AcDbEntity
  8
0
  6
HIDDEN
 62
     7
370
     0
100
AcDbLine
 10
158.2701369395
 20
139.3819068256
 30
0.0
 11
159.2701369395
 21
138.8045565564
 31
0.0
  0
LINE
  5
177
330
1F
100
AcDbEntity
  8
0
  6
HIDDEN
 62
     7
370
     0
100
AcDbLine
 10
164.2701369395
 20
138.8045565564
 30
0.0
 11
165.2701369395
 21
139.3819068256
 31
0.0
  0
LINE
  5
178
330
1F
100
AcDbEntity
  8
0
  6
HIDDEN
 62
     7
370
     0
100
AcDbLine
 10
159.2701369395
 20
138.8045565564
 30
0.0
 11
159.2701369395
 21
125.3819068256
 31
0.0
  0
LINE
  5
179
330
1F
100
AcDbEntity
  8
0
  6
HIDDEN
 62
     7
370
     0
100
AcDbLine
 10
164.2701369395
 20
125.3819068256
 30
0.0
 11
164.2701369395
 21
138.8045565564
 31
0.0
  0
LINE
  5
17A
330
1F
100
AcDbEntity
  8
0
  6
HIDDEN
 62
     7
370
     0
100
AcDbLine
 10
159.2701369395
 20
125.3819068256
 30
0.0
 11
161.7701369395
 21
123.879755278
 31
0.0
  0
LINE
  5
17B
330
1F
100
AcDbEntity
  8
0
  6
HIDDEN
 62
     7
370
     0
100
AcDbLine
 10
161.7701369395
 20
123.879755278
 30
0.0
 11
164.2701369395
 21
125.3819068256
 31
0.0
  0
LINE
  5
17C
330
1F
100
AcDbEntity
  8
0
  6
HIDDEN
 62
     7
370
     0
100
AcDbLine
 10
164.2701369395
 20
83.9592570948
 30
0.0
 11
164.2701369395
 21
97.3819068256
 31
0.0
  0
LINE
  5
17D
330
1F
100
AcDbEntity
  8
0
  6
HIDDEN
 62
     7
370
     0
100
AcDbLine
 10
159.2701369395
 20
97.3819068256
 30
0.0
 11
159.2701369395
 21
83.9592570948
 31
0.0
  0
LINE
  5
17E
330
1F
100
AcDbEntity
  8
0
  6
HIDDEN
 62
     7
370
     0
100
AcDbLine
 10
164.2701369395
 20
97.3819068256
 30
0.0
 11
161.7701369395
 21
98.8840583731
 31
0.0
  0
LINE
  5
17F
330
1F
100
AcDbEntity
  8
0
  6
HIDDEN
 62
     7
370
     0
100
AcDbLine
 10
161.7701369395
 20
98.8840583731
 30
0.0
 11
159.2701369395
 21
97.3819068256
 31
0.0
  0
LINE
  5
180
330
1F
100
AcDbEntity
  8
0
  6
HIDDEN
 62
     7
370
     0
100
AcDbLine
 10
195.8201369395
 20
128.9716551796
 30
0.0
 11
195.8201369395
 21
124.1817036287
 31
0.0
  0
LINE
  5
181
330
1F
100
AcDbEntity
  8
0
  6
HIDDEN
 62
     7
370
     0
100
AcDbLine
 10
199.8201369395
 20
132.1155555687
 30
0.0
 11
199.8201369395
 21
132.2819068256
 31
0.0
  0
LINE
  5
182
330
1F
100
AcDbEntity
  8
0
  6
HIDDEN
 62
     7
370
     0
100
AcDbLine
 10
199.8201369395
 20
124.1808679834
 30
0.0
 11
199.8201369395
 21
128.8271053688
 31
0.0
  0
LINE
  5
183
330
1F
100
AcDbEntity
  8
0
  6
HIDDEN
 62
     7
370
     0
100
AcDbLine
 10
195.8201369395
 20
98.5827830388
 30
0.0
 11
195.8201369395
 21
93.777923152
 31
0.0
  0
LINE
  5
184
330
1F
100
AcDbEntity
  8
0
  6
HIDDEN
 62
     7
370
     0
100
AcDbLine
 10
199.8201369395
 20
93.9353704301
 30
0.0
 11
199.8201369395
 21
98.5819068256
 31
0.0
  0
LINE
  5
185
330
1F
100
AcDbEntity
  8
0
  6
HIDDEN
 62
     7
370
     0
100
AcDbLine
 10
197.2148364372
 20
90.543886822
 30
0.0
 11
197.8201369395
 21
90.1801855875
 31
0.0
  0
LINE
  5
186
330
1F
100
AcDbEntity
  8
0
  6
HIDDEN
 62
     7
370
     0
100
AcDbLine
 10
197.8201369395
 20
90.1801855875
 30
0.0
 11
198.5121327515
 21
90.5959786195
 31
0.0
  0
LINE
  5
187
330
1F
100
AcDbEntity
  8
0
  6
HIDDEN
 62
     7
370
     0
100
AcDbLine
 10
252.8201369395
 20
96.0331798973
 30
0.0
 11
199.8072585221
 21
93.9502982315
 31
0.0
  0
LINE
  5
188
330
1F
100
AcDbEntity
  8
0
  6
HIDDEN
 62
     7
370
     0
100
AcDbLine
 10
198.3797040735
 20
90.591663321
 30
0.0
 11
252.8201369395
 21
92.7306337539
 31
0.0
  0
LINE
  5
189
330
1F
100
AcDbEntity
  8
0
  6
HIDDEN
 62
     7
370
     0
100
AcDbLine
 10
195.8328687202
 20
93.7941440309
 30
0.0
 11
194.8000741415
 21
93.7535654213
 31
0.0
  0
LINE
  5
18A
330
1F
100
AcDbEntity
  8
0
  6
HIDDEN
 62
     7
370
     0
100
AcDbLine
 10
194.9296315336
 20
90.4561096017
 30
0.0
 11
197.2247232491
 21
90.5462840008
 31
0.0
  0
LINE
  5
18B
330
1F
100
AcDbEntity
  8
0
  6
HIDDEN
 62
     7
370
     0
100
AcDbLine
 10
252.8201369395
 20
130.0331798973
 30
0.0
 11
199.8201369395
 21
132.1155555687
 31
0.0
  0
LINE
  5
18C
330
1F
100
AcDbEntity
  8
0
  6
HIDDEN
 62
     7
370
     0
100
AcDbLine
 10
199.8083889605
 20
128.8134710046
 30
0.0
 11
252.8201369395
 21
126.7306337539
 31
0.0
  0
LINE
  5
18D
330
1F
100
AcDbEntity
  8
0
  6
HIDDEN
 62
     7
370
     0
100
AcDbLine
 10
195.8201369395
 20
132.2727159967
 30
0.0
 11
194.9296315336
 21
132.3077040494
 31
0.0
  0
LINE
  5
18E
330
1F
100
AcDbEntity
  8
0
  6
HIDDEN
 62
     7
370
     0
100
AcDbLine
 10
194.8000741415
 20
129.0102482298
 30
0.0
 11
195.8213281861
 21
128.9701230491
 31
0.0
  0
LINE
  5
18F
330
1F
100
AcDbEntity
  8
0
  6
HIDDEN
 62
     7
370
     0
100
AcDbLine
 10
194.9296315336
 20
132.3077040494
 30
0.0
 11
193.8741971651
 21
130.697899107
 31
0.0
  0
LINE
  5
190
330
1F
100
AcDbEntity
  8
0
  6
HIDDEN
 62
     7
370
     0
100
AcDbLine
 10
193.8741971651
 20
130.697899107
 30
0.0
 11
194.8000741415
 21
129.0102482298
 31
0.0
  0
LINE
  5
191
330
1F
100
AcDbEntity
  8
0
  6
HIDDEN
 62
     7
370
     0
100
AcDbLine
 10
194.8000741415
 20
93.7535654213
 30
0.0
 11
193.8741971651
 21
92.0659145442
 31
0.0
  0
LINE
  5
192
330
1F
100
AcDbEntity
  8
0
  6
HIDDEN
 62
     7
370
     0
100
AcDbLine
 10
193.8741971651
 20
92.0659145442
 30
0.0
 11
194.9296315336
 21
90.4561096017
 31
0.0
  0
LINE
  5
193
330
1F
100
AcDbEntity
  8
0
  6
HIDDEN
 62
     7
370
     0
100
AcDbLine
 10
96.8201369395
 20
158.9346181236
 30
0.0
 11
96.8201369395
 21
157.0590697077
 31
0.0
  0
LINE
  5
194
330
1F
100
AcDbEntity
  8
0
  6
HIDDEN
 62
     7
370
     0
100
AcDbLine
 10
106.8201369395
 20
157.0576977584
 30
0.0
 11
106.8201369395
 21
158.9331898408
 31
0.0
  0
LINE
  5
195
330
1F
100
AcDbEntity
  8
0
  6
HIDDEN
 62
     7
370
     0
100
AcDbLine
 10
252.5558841141
 20
96.373067421
 30
0.0
 11
245.536466611
 21
96.0972737562
 31
0.0
  0
LINE
  5
196
330
1F
100
AcDbEntity
  8
0
  6
HIDDEN
 62
     7
370
     0
100
AcDbLine
 10
245.693505874
 20
92.1003576112
 30
0.0
 11
252.7129233771
 21
92.376151276
 31
0.0
  0
LINE
  5
197
330
1F
100
AcDbEntity
  8
0
  6
HIDDEN
 62
     7
370
     0
100
AcDbLine
 10
245.536466611
 20
96.0972737562
 30
0.0
 11
244.8164896956
 21
95.3184071172
 31
0.0
  0
LINE
  5
198
330
1F
100
AcDbEntity
  8
0
  6
HIDDEN
 62
     7
370
     0
100
AcDbLine
 10
244.914639235
 20
92.8203345266
 30
0.0
 11
245.693505874
 21
92.1003576112
 31
0.0
  0
LINE
  5
199
330
1F
100
AcDbEntity
  8
0
  6
HIDDEN
 62
     7
370
     0
100
AcDbLine
 10
252.7129233771
 20
92.376151276
 30
0.0
 11
252.8201369395
 21
92.5799307399
 31
0.0
  0
LINE
  5
19A
330
1F
100
AcDbEntity
  8
0
  6
HIDDEN
 62
     7
370
     0
100
AcDbLine
 10
252.7961884519
 20
95.9922080963
 30
0.0
 11
252.5558841141
 21
96.373067421
 31
0.0
  0
LINE
  5
19B
330
1F
100
AcDbEntity
  8
0
  6
HIDDEN
 62
     7
370
     0
100
AcDbLine
 10
245.6149862425
 20
130.6665410847
 30
0.0
 11
244.8361196035
 21
129.9465641693
 31
0.0
  0
LINE
  5
19C
330
1F
100
AcDbEntity
  8
0
  6
HIDDEN
 62
     7
370
     0
100
AcDbLine
 10
244.7379700641
 20
127.4484915787
 30
0.0
 11
245.4579469795
 21
126.6696249397
 31
0.0
  0
LINE
  5
19D
330
1F
100
AcDbEntity
  8
0
  6
HIDDEN
 62
     7
370
     0
100
AcDbLine
 10
252.6344037456
 20
130.3907474198
 30
0.0
 11
245.6149862425
 21
130.6665410847
 31
0.0
  0
LINE
  5
19E
330
1F
100
AcDbEntity
  8
0
  6
HIDDEN
 62
     7
370
     0
100
AcDbLine
 10
245.4579469795
 20
126.6696249397
 30
0.0
 11
252.4773644825
 21
126.3938312749
 31
0.0
  0
LINE
  5
19F
330
1F
100
AcDbEntity
  8
0
  6
HIDDEN
 62
     7
370
     0
100
AcDbLine
 10
252.4773644825
 20
126.3938312749
 30
0.0
 11
252.7176688204
 21
126.7746905996
 31
0.0
  0
LINE
  5
1A0
330
1F
100
AcDbEntity
  8
0
  6
HIDDEN
 62
     7
370
     0
100
AcDbLine
 10
252.8201369395
 20
130.0377266842
 30
0.0
 11
252.6344037456
 21
130.3907474198
 31
0.0
  0
LINE
  5
1A1
330
1F
100
AcDbEntity
  8
0
  6
HIDDEN
 62
     7
370
     0
100
AcDbLine
 10
179.8201369395
 20
105.3819068256
 30
0.0
 11
194.8201369395
 21
105.3819068256
 31
0.0
  0
LINE
  5
1A2
330
1F
100
AcDbEntity
  8
0
  6
HIDDEN
 62
     7
370
     0
100
AcDbLine
 10
194.8201369395
 20
117.3819068256
 30
0.0
 11
179.8201369395
 21
117.3819068256
 31
0.0
  0
LINE
  5
1A3
330
1F
100
AcDbEntity
  8
0
  6
HIDDEN
 62
     7
370
     0
100
AcDbLine
 10
194.8201369395
 20
105.3819068256
 30
0.0
 11
195.3201369395
 21
105.8819068256
 31
0.0
  0
LINE
  5
1A4
330
1F
100
AcDbEntity
  8
0
  6
HIDDEN
 62
     7
370
     0
100
AcDbLine
 10
195.3201369395
 20
116.8819068256
 30
0.0
 11
194.8201369395
 21
117.3819068256
 31
0.0
  0
LINE
  5
1A5
330
1F
100
AcDbEntity
  8
0
  6
HIDDEN
 62
     7
370
     0
100
AcDbLine
 10
179.8201369395
 20
117.3819068256
 30
0.0
 11
179.3201369395
 21
116.8819068256
 31
0.0
  0
LINE
  5
1A6
330
1F
100
AcDbEntity
  8
0
  6
HIDDEN
 62
     7
370
     0
100
AcDbLine
 10
179.3201369395
 20
105.8819068256
 30
0.0
 11
179.8201369395
 21
105.3819068256
 31
0.0
  0
LINE
  5
1A7
330
1F
100
AcDbEntity
  8
0
  6
HIDDEN
 62
     7
370
     0
100
AcDbLine
 10
195.3201369395
 20
105.8819068256
 30
0.0
 11
199.3201369395
 21
105.8819068256
 31
0.0
  0
LINE
  5
1A8
330
1F
100
AcDbEntity
  8
0
  6
HIDDEN
 62
     7
370
     0
100
AcDbLine
 10
199.3201369395
 20
116.8819068256
 30
0.0
 11
195.3201369395
 21
116.8819068256
 31
0.0
  0
LINE
  5
1A9
330
1F
100
AcDbEntity
  8
0
  6
HIDDEN
 62
     7
370
     0
100
AcDbLine
 10
186.3201369394
 20
108.3819068256
 30
0.0
 11
192.3201369395
 21
108.3819068256
 31
0.0
  0
LINE
  5
1AA
330
1F
100
AcDbEntity
  8
0
  6
HIDDEN
 62
     7
370
     0
100
AcDbLine
 10
192.3201369395
 20
114.3819068256
 30
0.0
 11
186.3201369394
 21
114.3819068256
 31
0.0
  0
DIMENSION
  5
1AB
330
1F
100
AcDbEntity
  8
VERMASSUNG
100
AcDbDimension
  2
*D1
 10
36.8746478873
 20
61.3819068256
 30
0.0
 11
36.8746478873
 21
111.3819068256
 31
0.0
 70
   160
  1
HSK A %%c<>
 71
     2
 42
-1.0
  3
SLDDIMSTYLE0
100
AcDbAlignedDimension
 13
93.3201369395
 23
161.3819068256
 33
0.0
 14
93.3201369395
 24
61.3819068256
 34
0.0
 50
90.0
100
AcDbRotatedDimension
  0
DIMENSION
  5
1B8
330
1F
100
AcDbEntity
  8
VERMASSUNG
100
AcDbDimension
  2
*D2
 10
252.8201369395
 20
159.3819068256
 30
0.0
 11
224.0701369395
 21
159.3819068256
 31
0.0
 70
   160
 71
     2
 42
-1.0
  3
SLDDIMSTYLE1
100
AcDbAlignedDimension
 13
195.3201369395
 23
123.7819068256
 33
0.0
 14
252.8201369395
 24
131.0709305964
 34
0.0
100
AcDbRotatedDimension
  0
DIMENSION
  5
1C3
330
1F
100
AcDbEntity
  8
VERMASSUNG
100
AcDbDimension
  2
*D3
 10
262.9379163868
 20
123.8819068256
 30
0.0
 11
262.9379163868
 21
111.3819068256
 31
0.0
 70
   160
  1
%%c<>
 71
     1
 42
-1.0
  3
SLDDIMSTYLE2
100
AcDbAlignedDimension
 13
249.3201369395
 23
98.8819068256
 33
0.0
 14
249.3201369395
 24
123.8819068256
 34
0.0
 50
90.0
100
AcDbRotatedDimension
  0
DIMENSION
  5
1CF
330
1F
100
AcDbEntity
  8
VERMASSUNG
100
AcDbDimension
  2
*D4
 10
268.9379163868
 20
133.3819068256
 30
0.0
 11
268.9379163868
 21
111.3819068256
 31
0.0
 70
   160
  1
%%c<>
 71
     1
 42
-1.0
  3
SLDDIMSTYLE2
100
AcDbAlignedDimension
 13
252.8201369395
 23
89.3819068256
 33
0.0
 14
252.8201369395
 24
133.3819068256
 34
0.0
 50
90.0
100
AcDbRotatedDimension
  0
DIMENSION
  5
1DA
330
1F
100
AcDbEntity
  8
VERMASSUNG
100
AcDbDimension
  2
*D5
 10
252.8201369395
 20
171.3819068256
 30
0.0
 11
172.8201369395
 21
171.3819068256
 31
0.0
 70
   160
 71
     2
 42
-1.0
  3
SLDDIMSTYLE0
100
AcDbAlignedDimension
 13
92.8201369395
 23
160.8819068256
 33
0.0
 14
252.8201369395
 24
131.0709305964
 34
0.0
100
AcDbRotatedDimension
  0
DIMENSION
  5
1E4
330
1F
100
AcDbEntity
  8
VERMASSUNG
100
AcDbDimension
  2
*D6
 10
252.8201369395
 20
165.3819068256
 30
0.0
 11
187.2951369395
 21
165.3819068256
 31
0.0
 70
   160
 71
     2
 42
-1.0
  3
SLDDIMSTYLE0
100
AcDbAlignedDimension
 13
121.7701369395
 23
159.3506466464
 33
0.0
 14
252.8201369395
 24
131.0709305964
 34
0.0
100
AcDbRotatedDimension
  0
DIMENSION
  5
1EE
330
1F
100
AcDbEntity
  8
VERMASSUNG
100
AcDbDimension
  2
*D7
 10
252.8201369395
 20
177.3819068256
 30
0.0
 11
147.8701369395
 21
177.3819068256
 31
0.0
 70
   160
 71
     2
 42
-1.0
  3
SLDDIMSTYLE0
100
AcDbAlignedDimension
 13
42.9201369395
 23
141.8845765681
 33
0.0
 14
252.8201369395
 24
131.0709305964
 34
0.0
100
AcDbRotatedDimension
  0
DIMENSION
  5
1F8
330
1F
100
AcDbEntity
  8
VERMASSUNG
100
AcDbDimension
  2
*D8
 10
274.9379163868
 20
83.3819068256
 30
0.0
 11
274.9379163868
 21
111.3819068256
 31
0.0
 70
   160
  1
%%c<>
 71
     2
 42
-1.0
  3
SLDDIMSTYLE0
100
AcDbAlignedDimension
 13
170.7701369395
 23
139.3819068256
 33
0.0
 14
170.7701369395
 24
83.3819068256
 34
0.0
 50
90.0
100
AcDbRotatedDimension
  0
LINE
  5
203
330
1F
100
AcDbEntity
  8
VERMASSUNG
  6
CENTERX2
370
     0
100
AcDbLine
 10
40.6696675785
 20
111.3819068256
 30
0.0
 11
257.1084507042
 21
111.3819068256
 31
0.0
  0
OLE2FRAME
  5
204
330
1F
100
AcDbEntity
  8
0
100
AcDbOle2Frame
 70
     2
  3
Bitmap Image
 10
13.8511154363
 20
38.264191557
 30
0.0
 11
51.6290888628
 21
31.9806341108
 31
0.0
 71
     2
 72
     0
 73
     1
 90
    12928
310
80552BED0767C5B32B40DDAF6807D121434000000000000000006FFBDDFB85D0
310
4940DDAF6807D121434000000000000000006FFBDDFB85D04940416F4BD60AFB
310
3F4000000000000000002BED0767C5B32B40416F4BD60AFB3F40000000000000
310
0000000000000100000000010000010000000100000000000100000000320000
310
D0CF11E0A1B11AE1000000000000000000000000000000003E000300FEFF0900
310
0600000000000000000000000100000001000000000000000010000002000000
310
01000000FEFFFFFF0000000000000000FFFFFFFFFFFFFFFFFFFFFFFFFFFFFFFF
310
FFFFFFFFFFFFFFFFFFFFFFFFFFFFFFFFFFFFFFFFFFFFFFFFFFFFFFFFFFFFFFFF
310
FFFFFFFFFFFFFFFFFFFFFFFFFFFFFFFFFFFFFFFFFFFFFFFFFFFFFFFFFFFFFFFF
310
FFFFFFFFFFFFFFFFFFFFFFFFFFFFFFFFFFFFFFFFFFFFFFFFFFFFFFFFFFFFFFFF
310
FFFFFFFFFFFFFFFFFFFFFFFFFFFFFFFFFFFFFFFFFFFFFFFFFFFFFFFFFFFFFFFF
310
FFFFFFFFFFFFFFFFFFFFFFFFFFFFFFFFFFFFFFFFFFFFFFFFFFFFFFFFFFFFFFFF
310
FFFFFFFFFFFFFFFFFFFFFFFFFFFFFFFFFFFFFFFFFFFFFFFFFFFFFFFFFFFFFFFF
310
FFFFFFFFFFFFFFFFFFFFFFFFFFFFFFFFFFFFFFFFFFFFFFFFFFFFFFFFFFFFFFFF
310
FFFFFFFFFFFFFFFFFFFFFFFFFFFFFFFFFFFFFFFFFFFFFFFFFFFFFFFFFFFFFFFF
310
FFFFFFFFFFFFFFFFFFFFFFFFFFFFFFFFFFFFFFFFFFFFFFFFFFFFFFFFFFFFFFFF
310
FFFFFFFFFFFFFFFFFFFFFFFFFFFFFFFFFFFFFFFFFFFFFFFFFFFFFFFFFFFFFFFF
310
FFFFFFFFFFFFFFFFFFFFFFFFFFFFFFFFFFFFFFFFFFFFFFFFFFFFFFFFFFFFFFFF
310
FFFFFFFFFFFFFFFFFFFFFFFFFFFFFFFFFFFFFFFFFFFFFFFFFFFFFFFFFFFFFFFF
310
FFFFFFFFFFFFFFFFFFFFFFFFFFFFFFFFFFFFFFFFFFFFFFFFFFFFFFFFFFFFFFFF
310
FDFFFFFFFEFFFFFFFEFFFFFFFEFFFFFF05000000060000000700000008000000
310
090000000A0000000B0000000C0000000D0000000E0000000F00000010000000
310
11000000120000001300000014000000150000001600000017000000FEFFFFFF
310
FFFFFFFFFFFFFFFFFFFFFFFFFFFFFFFFFFFFFFFFFFFFFFFFFFFFFFFFFFFFFFFF
310
FFFFFFFFFFFFFFFFFFFFFFFFFFFFFFFFFFFFFFFFFFFFFFFFFFFFFFFFFFFFFFFF
310
FFFFFFFFFFFFFFFFFFFFFFFFFFFFFFFFFFFFFFFFFFFFFFFFFFFFFFFFFFFFFFFF
310
FFFFFFFFFFFFFFFFFFFFFFFFFFFFFFFFFFFFFFFFFFFFFFFFFFFFFFFFFFFFFFFF
310
FFFFFFFFFFFFFFFFFFFFFFFFFFFFFFFFFFFFFFFFFFFFFFFFFFFFFFFFFFFFFFFF
310
FFFFFFFFFFFFFFFFFFFFFFFFFFFFFFFFFFFFFFFFFFFFFFFFFFFFFFFFFFFFFFFF
310
FFFFFFFFFFFFFFFFFFFFFFFFFFFFFFFFFFFFFFFFFFFFFFFFFFFFFFFFFFFFFFFF
310
FFFFFFFFFFFFFFFFFFFFFFFFFFFFFFFFFFFFFFFFFFFFFFFFFFFFFFFFFFFFFFFF
310
FFFFFFFFFFFFFFFFFFFFFFFFFFFFFFFFFFFFFFFFFFFFFFFFFFFFFFFFFFFFFFFF
310
FFFFFFFFFFFFFFFFFFFFFFFFFFFFFFFFFFFFFFFFFFFFFFFFFFFFFFFFFFFFFFFF
310
FFFFFFFFFFFFFFFFFFFFFFFFFFFFFFFFFFFFFFFFFFFFFFFFFFFFFFFFFFFFFFFF
310
FFFFFFFFFFFFFFFFFFFFFFFFFFFFFFFFFFFFFFFFFFFFFFFFFFFFFFFFFFFFFFFF
310
FFFFFFFFFFFFFFFFFFFFFFFFFFFFFFFFFFFFFFFFFFFFFFFFFFFFFFFFFFFFFFFF
310
52006F006F007400200045006E00740072007900000000000000000000000000
310
0000000000000000000000000000000000000000000000000000000000000000
310
16000500FFFFFFFFFFFFFFFF020000000A00030000000000C000000000000046
310
0000000000000000000000006059AC709E08CC0103000000C000000000000000
310
01004F006C006500000000000000000000000000000000000000000000000000
310
0000000000000000000000000000000000000000000000000000000000000000
310
0A000200FFFFFFFFFFFFFFFFFFFFFFFF00000000000000000000000000000000
310
0000000000000000000000000000000000000000000000001400000000000000
310
010043006F006D0070004F0062006A0000000000000000000000000000000000
310
0000000000000000000000000000000000000000000000000000000000000000
310
120002010100000003000000FFFFFFFF00000000000000000000000000000000
310
0000000000000000000000000000000000000000010000004D00000000000000
310
01004F006C006500310030004E00610074006900760065000000000000000000
310
0000000000000000000000000000000000000000000000000000000000000000
310
1A000200FFFFFFFFFFFFFFFFFFFFFFFF00000000000000000000000000000000
310
0000000000000000000000000000000000000000040000002426000000000000
310
FEFFFFFF02000000FEFFFFFFFFFFFFFFFFFFFFFFFFFFFFFFFFFFFFFFFFFFFFFF
310
FFFFFFFFFFFFFFFFFFFFFFFFFFFFFFFFFFFFFFFFFFFFFFFFFFFFFFFFFFFFFFFF
310
FFFFFFFFFFFFFFFFFFFFFFFFFFFFFFFFFFFFFFFFFFFFFFFFFFFFFFFFFFFFFFFF
310
FFFFFFFFFFFFFFFFFFFFFFFFFFFFFFFFFFFFFFFFFFFFFFFFFFFFFFFFFFFFFFFF
310
FFFFFFFFFFFFFFFFFFFFFFFFFFFFFFFFFFFFFFFFFFFFFFFFFFFFFFFFFFFFFFFF
310
FFFFFFFFFFFFFFFFFFFFFFFFFFFFFFFFFFFFFFFFFFFFFFFFFFFFFFFFFFFFFFFF
310
FFFFFFFFFFFFFFFFFFFFFFFFFFFFFFFFFFFFFFFFFFFFFFFFFFFFFFFFFFFFFFFF
310
FFFFFFFFFFFFFFFFFFFFFFFFFFFFFFFFFFFFFFFFFFFFFFFFFFFFFFFFFFFFFFFF
310
FFFFFFFFFFFFFFFFFFFFFFFFFFFFFFFFFFFFFFFFFFFFFFFFFFFFFFFFFFFFFFFF
310
FFFFFFFFFFFFFFFFFFFFFFFFFFFFFFFFFFFFFFFFFFFFFFFFFFFFFFFFFFFFFFFF
310
FFFFFFFFFFFFFFFFFFFFFFFFFFFFFFFFFFFFFFFFFFFFFFFFFFFFFFFFFFFFFFFF
310
FFFFFFFFFFFFFFFFFFFFFFFFFFFFFFFFFFFFFFFFFFFFFFFFFFFFFFFFFFFFFFFF
310
FFFFFFFFFFFFFFFFFFFFFFFFFFFFFFFFFFFFFFFFFFFFFFFFFFFFFFFFFFFFFFFF
310
FFFFFFFFFFFFFFFFFFFFFFFFFFFFFFFFFFFFFFFFFFFFFFFFFFFFFFFFFFFFFFFF
310
FFFFFFFFFFFFFFFFFFFFFFFFFFFFFFFFFFFFFFFFFFFFFFFFFFFFFFFFFFFFFFFF
310
FFFFFFFFFFFFFFFFFFFFFFFFFFFFFFFFFFFFFFFFFFFFFFFFFFFFFFFFFFFFFFFF
310
0100000200000000000000000000000000000000000000000000000000000000
310
0000000000000000000000000000000000000000000000000000000000000000
310
0100FEFF030A0000FFFFFFFF0A00030000000000C00000000000004607000000
310
5042727573680007000000504272757368000700000050427275736800F439B2
310
7100000000000000000000000000680079000000000000000000000000000000
310
0000000000000000000000000000000000000000000000000000000000000000
310
140002011E000000FFFFFFFFFFFFFFFF00000000000000000000000000000000
310
00000000000000000000000000000000000000008F1000003183000000000000
310
48006900730074006F0072007900000000000000000000000000000000000000
310
0000000000000000000000000000000000000000000000000000000000000000
310
10000200FFFFFFFFFFFFFFFFFFFFFFFF00000000000000000000000000000000
310
000000000000000000000000000000000000000080000000AD00000000000000
310
560069007300750061006C005300740061007400650073005F005F005A004C00
310
4200000000000000000000000000000000000000000000000000000000000000
310
24000200FFFFFFFFFFFFFFFFFFFFFFFF00000000000000000000000000000000
310
000000000000000000000000000000000000000084000000D40E000000000000
310
20260000424D0E260000000000003E00000028000000B40200006E0000000100
310
01000000000000000000130B0000130B00000200000002000000000000FFFFFF
310
FFFFFFFFFFFFFFFFFFFFFFFFFFFFFFFFFFFFFFFFFFFFFFFFFFFFFFFFFFFFFFFF
310
FFFFFFFFFFFFFFFFFFFFFFFFFFFFFFFFFFFFFFFFFFFFFFFFFFFFFFFFFFFFFFFF
310
FFFFFFFFFFFFFFFFFFFFFFFFFFFFFFFFFFFFFFFFFFFFFFFFF000FFFFFFFFFFFF
310
FFFFFFFFFFFFFFFFFFFFFFFFFFFFFFFFFFFFFFFFFFFFFFFFFFFFFFFFFFFFFFFF
310
FFFFFFFFFFFFFFFFFFFFFFFFFFFFFFFFFFFFFFFFFFFFFFFFFFFFFFFFFFFFFFFF
310
FFFFFFFFFFFFFFFFFFFFFFFFFFFFFFFFF000FFFFFFFFFFFFFFFFFFFFFFFFFFFF
310
FFFFFFFFFFFFFFFFFFFFFFFFFFFFFFFFFFFFFFFFFFFFFFFFFFFFFFFFFFFFFFFF
310
FFFFFFFFFFFFFFFFFFFFFFFFFFFFFFFFFFFFFFFFFFFFFFFFFFFFFFFFFFFFFFFF
310
FFFFFFFFFFFFFFFFF000FFFFFFFFFFFFFFFFFFFFFFFFFFFFFFFFFFFFFFFFFFFF
310
FFFFFFFFFFFFFFFFFFFFFFFFFFFFFFFFFFFFFFFFFFFFFFFFFFFFFFFFFFFFFFFF
310
FFFFFFFFFFFFFFFFFFFFFFFFFFFFFFFFFFFFFFFFFFFFFFFFFFFFFFFFFFFFFFFF
310
F000FFFFFFFFFFFFFFFFFFFFFFFFFFFFFFFFFFFFFFFFFFFFFFFFFFFFFFFFFFFF
310
FFFFFFFFFFFFFFFFFFFFFFFFFFFFFFFFFFFFFFFFFFFFFFFFFFFFFFFFFFFFFFFF
310
FFFFFFFFFFFFFFFFFFFFFFFFFFFFFFFFFFFFFFFFFFFFFFFFF000FFFFFFFFFFFF
310
FFFFFFFFFFFFFFFFFFFFFFFFFFFFFFFFFFFFFFFFFFFFFFFFFFFFFFFFFFFFFFFF
310
FFFFFFFFFFFFFFFFFFFFFFFFFFFFFFFFFFFFFFFFFFFFFFFFFFFFFFFFFFFFFFFF
310
FFFFFFFFFFFFFFFFFFFFFFFFFFFFFFFFF000FFFFFFFFFFFFFFFFFFFFFFFFFFFF
310
FFFFFFFFFFFFFFFFFFFFFFFFFFFFFFFFFFFFFFFFFFFFFFFFFFFFFFFFFFFFFFFF
310
FFFFFFFFFFFFFFFFFFFFFFFFFFFFFFFFFFFFFFFFFFFFFFFFFFFFFFFFFFFFFFFF
310
FFFFFFFFFFFFFFFFF000FFFFFFFFFFFFFFFFFFFFFFFFFFFFFFFFFFFFFFFFFFFF
310
FFFFFFFFFFFFFFFFFFFFFFFFFFFFFFFFFFFFFFFFFFFFFFFFFFFFFFFFFFFFFFFF
310
FFFFFFFFFFFFFFFFFFFFFFFFFFFFFFFFFFFFFFFFFFFFFFFFFFFFFFFFFFFFFFFF
310
F000FFFFFFFFFFFFFFFFFFFFFFFFFFFFFFFFFFFFFFFFFFFFFFFFFFFFFFFFFFFF
310
FFFFFFFFFFFFFFFFFFFFFFFFFFFFFFFFFFFFFFFFFFFFFFFFFFFFFFFFFFFFFFFF
310
FFFFFFFFFFFFFFFFFFFFFFFFFFFFFFFFFFFFFFFFFFFFFFFFF000FFFFFFFFFFFF
310
FFFFFFFFFFFFFFFFFFFFFFFFFFFFFFFFFFFFFFFFFFFFFFFFFFFFFFFFFFFFFFFF
310
FFFFFFFFFFFFFFFFFFFFFFFFFFFFFFFFFFFFFFFFFFFFFFFFFFFFFFFFFFFFFFFF
310
FFFFFFFFFFFFFFFFFFFFFFFFFFFFFFFFF000FFFFFFFFFFFFFFFFFFFFFFFFFFFF
310
FFFFFFFFFFFFFFFFFFFFFFFFFFFFFFFFFFFFFFFFFFFFFFFFFFFFFFFFFFFFFFFF
310
FFFFFFFFFFFFFFFFFFFFFFFFFFFFFFFFFFFFFFFFFFFFFFFFFFFFFFFFFFFFFFFF
310
FFFFFFFFFFFFFFFFF000FFFFFFFFFFFFFFFFFFFFFFFFFFFFFFFFFFFFFFFFFFFF
310
FFFFFFFFFFFFFFFFFFFFFFFFFFFFFFFFFFFFFFFFFFFFFFFFFFFFFFFFFFFFFFFF
310
FFFFFFFFFFFFFFFFFFFFFFFFFFFFFFFFFFFFFFFFFFFFFFFFFFFFFFFFFFFFFFFF
310
F000FFFFFFFFFFFFFFFFFFFFFFFFFFFFFFFFFFFFFFFFFFFFFFFFFFFFFFFFFFFF
310
FFFFFFFFFFFFFFFFFFFFFFFFFFFFFFFFFFFFFFFFFFFFFFFFFFFFFFFFFFFFFFFF
310
FFFFFFFFFFFFFFFFFFFFFFFFFFFFFFFFFFFFFFFFFFFFFFFFF000FFFFFFFFFFFF
310
FFFFFFFFFFFFFFFFFFFFFFFFFFFFFFFFFFFFFFFFFFFFFFFFFFFFFFFFFFFFFFFF
310
FFFFFFFFFFFFFFFFFFFFFFFFFFFFFFFFFFFFFFFFFFFFFFFFFFFFFFFFFFFFFFFF
310
FFFFFFFFFFFFFFFFFFFFFFFFFFFFFFFFF000FFFFFFFFFFFFFFFFFFFFFFFFFFFF
310
FFFFFFFFFFFFFFFFFFFFFFFFFFFFFFFFFFFFFFFFFFFFFFFFFFFFFFFFFFFFFFFF
310
FFFFFFFFFFFFFFFFFFFFFFFFFFFFFFFFFFFFFFFFFFFFFFFFFFFFFFFFFFFFFFFF
310
FFFFFFFFFFFFFFFFF000FFFFFFFFFFFFFFFFFFFFFFFFFFFFFFFFFFFFFFFFFFFF
310
FFFFFFFFFFFFFFFFFFFFFFFFFFFFFFFFFFFFFFFFFFFFFFFFFFFFFFFFFFFFFFFF
310
FFFFFFFFFFFFFFFFFFFFFFFFFFFFFFFFFFFFFFFFFFFFFFFFFFFFFFFFFFFFFFFF
310
F000FFFFFFFFFFFFFFFFFFFFFFFFFFFFFFFFFFFFFFFFFFFFFFFFFFFFFFFFFFFF
310
FFFFFFFFFFFFFFFFFFFFFFFFFFFFFFFFFFFFFFFFFFFFFFFFFFFFFFFFFFFFFFFF
310
FFFFFFFFFFFFFFFFFFFFFFFFFFFFFFFFFFFFFFFFFFFFFFFFF000FFFFFFFFFFFF
310
FFFFFFFFFFFFFFFFFFFFFFFFFFFFFFFFFFFFFFFFFFFFFFFFFFFFFFFFFFFFFFFF
310
FFFFFFFFFFFFFFFFFFFFFFFFFFFFFFFFFFFFFFFFFFFFFFFFFFFFFFFFFFFFFFFF
310
FFFFFFFFFFFFFFFFFFFFFFFFFFFFFFFFF000FFFFFFFFFFFFFFFFFFFFFFFFFFFF
310
FFFFFFFFFFFFFFFFFFFFFFFFFFFFFFFFFFFFFFFFFFFFFFFFFFFFFFFFFFFFFFFF
310
FFFFFFFFFFFFFFFFFFFFFFFFFFFFFFFFFFFFFFFFFFFFFFFFFFFFFFFFFFFFFFFF
310
FFFFFFFFFFFFFFFFF000FFFFF80003FFFFFFFFFFFFFFFFFFFFFFFFFFFFFFFFFF
310
FFFFF00007FFFFFFFFFF00007FFFFFF800000000000000007FFFFFFFFFFFFFFF
310
FFFFFFFC001FFFFFFFFFFFFFFC001FFFFFFFFFFFFFFFFFFFFFFFFFFE0007FFFF
310
F000FFFF8000007FFFFFFFF8000FFFFFC0007FFFFF80007FFFFF0000007FFFFF
310
FFF8000007FFFFF800000000000000007FFFFFF0001FFFFFFFFFFFC00001FFFF
310
FFFFFFFFC00001FFFFFFFF000000000003FFFFE000007FFFF000FFFE0000000F
310
FFFFFFF0000FFFFF80007FFFFF80007FFFFC0000001FFFFFFFC0000001FFFFF8
310
00000000000000007FFFFFF0001FFFFFFFFFFE0000003FFFFFFFFFFE0000003F
310
FFFFFF000000000003FFFF0000000FFFF000FFF800000003FFFFFFF00007FFFF
310
80007FFFFF80007FFFF000000007FFFFFF000000003FFFF80000000000000000
310
7FFFFFF0001FFFFFFFFFF80000000FFFFFFFFFF80000000FFFFFFF0000000000
310
03FFFC00000003FFF000FFE000000000FFFFFFF00007FFFF80003FFFFF80007F
310
FFC000000001FFFFFC000000001FFFF800000000000000007FFFFFF0001FFFFF
310
FFFFE000000003FFFFFFFFE000000003FFFFFF000000000003FFF000000000FF
310
F000FF80000000007FFFFFF00007FFFF80003FFFFF80007FFF8000000000FFFF
310
F80000000007FFF800000000000000007FFFFFF0001FFFFFFFFFC000000001FF
310
FFFFFFC000000001FFFFFF000000000003FFC0000000007FF000FF0000000000
310
3FFFFFE00007FFFF00003FFFFF80007FFE00000000003FFFF00000000003FFF8
310
00000000000000007FFFFFF0001FFFFFFFFF8000000000FFFFFFFF8000000000
310
FFFFFF000000000003FF80000000003FF000FE00000000001FFFFFE00003FFFF
310
00003FFFFF80007FFC00000000001FFFE00000000001FFF8000001FFFE000000
310
7FFFFFF0001FFFFFFFFE00000000003FFFFFFE00000000003FFFFF0000000000
310
03FF00000000001FF000FC00000000000FFFFFE00003FFFF00001FFFFF80007F
310
F800000000001FFFC00000000000FFF8000001FFFE0000007FFFFFF0001FFFFF
310
FFFC00000000001FFFFFFC00000000001FFFFF000000000003FE00000000000F
310
F000F8000000000007FFFFE00003FFFF00001FFFFF80007FF800000000000FFF
310
800000000000FFF8000001FFFE0000007FFFFFF0001FFFFFFFF800000000000F
310
FFFFF800000000000FFFFF000000000003FC000000000007F000F80000000000
310
03FFFFC00003FFFE00001FFFFF80007FF0000000000007FF0000000000007FF8
310
000001FFFE0000007FFFFFF0001FFFFFFFF0000000000007FFFFF00000000000
310
07FFFF000000000003F8000000000003F000F0000000000003FFFFC00001FFFE
310
00001FFFFF80007FE0000000000007FE0000000000003FF8000001FFFE000000
310
7FFFFFF0001FFFFFFFF0000000000007FFFFF0000000000007FFFF0000000000
310
03F800001F800003F000E00001FFF00001FFFFC00001FFFE00000FFFFF80007F
310
E00001FFE00003FE00001FFF00003FF8000001FFFE0000007FFFFFF0001FFFFF
310
FFE000003E000003FFFFE000003E000003FFFF000000000003F00001FFF80001
310
F000E00007FFFC0001FFFFC00001FFFE00000FFFFF80007FC0000FFFFC0003FC
310
0000FFFFC0001FF8000001FFFE0000007FFFFFF0001FFFFFFFC00003FFE00001
310
FFFFC00003FFE00001FFFF0001FFFFFFFFF00007FFFE0001F000E0000FFFFF00
310
00FFFF800001FFFC00000FFFFF80007FC0001FFFFE0001FC0001FFFFE0001FF8
310
000001FFFE0000007FFFFFF0001FFFFFFF80000FFFF80000FFFF80000FFFF800
310
00FFFF0003FFFFFFFFE0000FFFFF8000F000C0003FFFFF8000FFFF800000FFFC
310
000007FFFF80007F80003FFFFF0001FC0003FFFFF0001FF8000001FFFE000000
310
7FFFFFF0001FFFFFFF80003FFFFE0000FFFF80003FFFFE0000FFFF0003FFFFFF
310
FFE0003FFFFF8000F000C0003FFFFF8000FFFF800000FFFC000007FFFF80007F
310
80007FFFFF8001F80007FFFFF8000FF8000001FFFE0000007FFFFFF0001FFFFF
310
FF00007FFFFF00007FFF00007FFFFF00007FFF0003FFFFFFFFE0003FFFFFC000
310
F000C0007FFFFFC000FFFF000000FFFC000007FFFF80007F8000FFFFFF8000F8
310
000FFFFFF8000FF8000001FFFE0000007FFFFFF0001FFFFFFF0000FFFFFF8000
310
7FFF0000FFFFFF80007FFF0003FFFFFFFFC0007FFFFFC00070008000FFFFFFC0
310
00FFFF000000FFF8000007FFFF80007F8000FFFFFF8000F8000FFFFFF8000FF8
310
000001FFFE0000007FFFFFF0001FFFFFFE0001FFFFFFC0003FFE0001FFFFFFC0
310
003FFF0003FFFFFFFFC0007FFFFFE00070008000FFFFFFC0007FFF0000007FF8
310
000003FFFF80007F0001FFFFFF8000F8000FFFFFF8000FF8000001FFFE000000
310
7FFFFFF0001FFFFFFE0001FFFFFFC0003FFE0001FFFFFFC0003FFF0003FFFFFF
310
FFC000FFFFFFE00070008000FFFFFFC0007FFF0000007FF8000003FFFF80007F
310
0001FFFFFF8000F8001FFFFFF8000FF8000001FFFE0000007FFFFFF0001FFFFF
310
FE0003FFFFFFE0003FFE0003FFFFFFE0003FFF0003FFFFFFFFC000FFFFFFE000
310
70008000FFFFFFC0007FFE0000007FF8000003FFFF80007F0001FFFFFF8000F0
310
001FFFFFF8000FF8000001FFFE0000007FFFFFF0001FFFFFFC0003FFFFFFE000
310
1FFC0003FFFFFFE0001FFF0003FFFFFFFFC000FFFFFFC00070008000FFFFFF80
310
007FFE0000007FF0000003FFFF80007F0001FFFFFF0000F0001FFFFFF8000FF8
310
000001FFFE0000007FFFFFF0001FFFFFFC0007FFFFFFF0001FFC0007FFFFFFF0
310
001FFF0003FFFFFFFFC000FFFFFFC00070008001FFFFFF0000FFFE0000003FF0
310
000001FFFF80007F0001FFFFFF0000F8001FFFFFF0000FF8000001FFFE000000
310
7FFFFFF0001FFFFFFC0007FFFFFFF0001FFC0007FFFFFFF0001FFF0003FFFFFF
310
FFC001FFFFFF80007000FFFFFFFFFE0000FFFE0008003FF0008001FFFF80007F
310
FFFFFFFFFC0000FFFFFFFFFFE0000FF8000001FFFE0000007FFFFFF0001FFFFF
310
F8000FFFFFFFF8000FF8000FFFFFFFF8000FFF0003FFFFFFFFFFFFFFFFFF0000
310
7000FFFFFFFFFC0000FFFC0008003FF0008001FFFF80007FFFFFFFFFF80001FF
310
FFFFFFFF80000FF8000001FFFE0000007FFFFFF0001FFFFFF8000FFFFFFFF800
310
0FF8000FFFFFFFF8000FFF0003FFFFFFFFFFFFFFFFFE0000F000FFFFFFFFE000
310
00FFFC000C003FE000C001FFFF80007FFFFFFFFFC00001FFFFFFFFFE00001FF8
310
000001FFFE0000007FFFFFF0001FFFFFF8000FFFFFFFF8000FF8000FFFFFFFF8
310
000FFF0003FFFFFFFFFFFFFFFFF00000F000FFFFFFFE000001FFFC000C001FE0
310
00C000FFFF80007FFFFFFFFE000001FFFFFFFFE000001FF80FFFFFFFFFFFFFC0
310
7FFFFFF0001FFFFFF8000FFFFFFFF8000FF8000FFFFFFFF8000FFF0003FFFFFF
310
FFFFFFFFFF800000F000FFFFFFC0000001FFFC001C001FE001C000FFFF80007F
310
FFFFFF80000003FFFFFFF80000001FF80FFFFFFFFFFFFFC07FFFFFF0001FFFFF
310
F8001FFFFFFFFC000FF8001FFFFFFFFC000FFF0003FFFFFFFFFFFFFFF0000001
310
F000FFFFF800000001FFF8001C001FE001C000FFFF80007FFFFFF800000003FF
310
FFFF800000003FF80FFFFFFFFFFFFFC07FFFFFF0001FFFFFF8001FFFFFFFFC00
310
0FF8001FFFFFFFFC000FFF0003FFFFFFFFFFFFFE00000001F000FFFFC0000000
310
03FFF8001E001FC001E000FFFF80007FFFFF8000000007FFFFFC000000003FF8
310
0FFFFFFFFFFFFFC07FFFFFF0001FFFFFF8001FFFFFFFFC000FF8001FFFFFFFFC
310
000FFF0003FFFFFFFFFFFFE000000003F000FFFE0000000007FFF8001E000FC0
310
01E0007FFF80007FFFFE0000000007FFFFE0000000007FF80FFFFFFFFFFFFFC0
310
7FFFFFF0001FFFFFF0001FFFFFFFFC0007F0001FFFFFFFFC0007FF0003FFFFFF
310
FFFFFF0000000003F000FFF80000000007FFF8001E000FC003E0007FFF80007F
310
FFF0000000000FFFFF8000000000FFF80FFFFFFFFFFFFFC07FFFFFF0001FFFFF
310
F0001FFFFFFFFC0007F0001FFFFFFFFC0007FF0003FFFFFFFFFFFC0000000007
310
F000FFE0000000000FFFF0003E000FC003E0007FFF80007FFFC0000000001FFF
310
FE0000000001FFF80FFFFFFFFFFFFFC07FFFFFF0001FFFFFF0001FFFFFFFFC00
310
07F0001FFFFFFFFC0007FF0003FFFFFFFFFFF0000000000FF000FFC000000000
310
1FFFF0003F000F8003F0003FFF80007FFF80000000003FFFF80000000003FFF8
310
0FFFFFFFFFFFFFC07FFFFFF0001FFFFFF0001FFFFFFFFC0007F0001FFFFFFFFC
310
0007FF0003FFFFFFFFFFE0000000001FF000FF00000000007FFFF0003F000780
310
03F0003FFF80007FFF00000000007FFFF00000000007FFF80FFFFFFFFFFFFFC0
310
7FFFFFF0001FFFFFF0001FFFFFFFFC0007F0001FFFFFFFFC0007FF0003FFFFFF
310
FFFF80000000007FF000FE0000000000FFFFE0003F00078007F0003FFF80007F
310
FE0000000001FFFFE0000000001FFFF80FFFFFFFFFFFFFC07FFFFFF0001FFFFF
310
F0001FFFFFFFFC0007F0001FFFFFFFFC0007FF0003FFFFFFFFFF0000000000FF
310
F000FC0000000003FFFFE0007F00078007F0003FFF80007FFC0000000007FFFF
310
C0000000007FFFF80FFFFFFFFFFFFFC07FFFFFF0001FFFFFF8001FFFFFFFFC00
310
0FF8001FFFFFFFFC000FFF0003FFFFFFFFFE0000000003FFF000FC000000000F
310
FFFFE0007F80070007F8001FFF80007FF8000000001FFFFF8000000001FFFFF8
310
0FFFFFFFFFFFFFC07FFFFFF0001FFFFFF8001FFFFFFFFC000FF8001FFFFFFFFC
310
000FFF0003FFFFFFFFFC000000000FFFF000F8000000007FFFFFE0007F800700
310
07F8001FFF80007FF000000000FFFFFF800000000FFFFFF80FFFFFFFFFFFFFC0
310
7FFFFFF0001FFFFFF8000FFFFFFFF8000FF8000FFFFFFFF8000FFF0003FFFFFF
310
FFFC000000007FFFF000F800000007FFFFFFC0007F8003000FF8001FFF80007F
310
F000000007FFFFFF000000007FFFFFF80FFFFFFFFFFFFFC07FFFFFF0001FFFFF
310
F8000FFFFFFFF8000FF8000FFFFFFFF8000FFF0003FFFFFFFFF80000000FFFFF
310
F000F0000000FFFFFFFFC000FF8003000FF8001FFF80007FE0000000FFFFFFFF
310
0000000FFFFFFFF8000001FFFE0000007FFFFFF0001FFFFFF8000FFFFFFFF800
310
0FF8000FFFFFFFF8000FFF0003FFFFFFFFF8000000FFFFFFF000F000000FFFFF
310
FFFFC000FFC002000FF8000FFF80007FE000001FFFFFFFFE000001FFFFFFFFF8
310
000001FFFE0000007FFFFFF0001FFFFFF8000FFFFFFFF8000FF8000FFFFFFFF8
310
000FFF0003FFFFFFFFF000001FFFFFFFF000E00000FFFFFFFFFFC000FFC00200
310
0FFC000FFF80007FE00001FFFFFFFFFE00001FFFFFFFFFF8000001FFFE000000
310
7FFFFFF0001FFFFFFC000FFFFFFFF8001FFC000FFFFFFFF8001FFF0003FFFFFF
310
FFF00001FFFFFFFFF000E00007FFFFFFFFFF8000FFC000001FFC000FFF80007F
310
C0000FFFFFFFFFFE0000FFFFFFFFFFF8000001FFFE0000007FFFFFF0001FFFFF
310
FC0007FFFFFFF0001FFC0007FFFFFFF0001FFF0003FFFFFFFFF00007FFFFFFFF
310
F000E0001FFFFFFFFFFF8000FFC000001FFC000FFF80007FC0003FFFFFFFFFFE
310
0001FFFFFFFFFFF8000001FFFE0000007FFFFFF0001FFFFFFC0007FFFFFFF000
310
1FFC0007FFFFFFF0001FFF0003FFFFFFFFF0001FFFFFFFFFF000E0003FFFFF00
310
03FF8001FFE000001FFC0007FF80007FC0007FFFFF0007FC0003FFFFF0003FF8
310
000001FFFE0000007FFFFFF0001FFFFFFC0003FFFFFFE0001FFC0003FFFFFFE0
310
001FFF0003FFFFFFFFF0003FFFFFFFFFF000E0003FFFFF0001FF8001FFE00000
310
1FFE0007FF80007FC0007FFFFE0003FC0007FFFFE0003FF8000001FFFE000000
310
7FFFFFF0001FFFFFFE0003FFFFFFE0003FFE0003FFFFFFE0003FFF0003FFFFFF
310
FFF0003FFFFF8001F000E0003FFFFF0001FF0001FFE000001FFE0007FF80007F
310
C0007FFFFE0003FC0007FFFFE0003FF8000001FFFE0000007FFFFFF0001FFFFF
310
FE0001FFFFFFC0003FFE0001FFFFFFC0003FFF0003FFFFFFFFF0003FFFFF0001
310
F000E0003FFFFF0003FF0001FFE000003FFE0007FF80007FC0007FFFFE0003FC
310
0007FFFFE0003FF8000001FFFE0000007FFFFFF0001FFFFFFF0001FFFFFFC000
310
7FFF0001FFFFFFC0007FFF0003FFFFFFFFF0003FFFFF0001F000E0003FFFFE00
310
03FF0003FFF000003FFE0003FF80007FC0007FFFFC0003FE0007FFFFE0003FF8
310
000001FFFE0000007FFFFFF0001FFFFFFF0000FFFFFF80007FFF0000FFFFFF80
310
007FFF0003FFFFFFFFF0003FFFFF0001F000E0003FFFFE0003FF0003FFF00000
310
3FFF0003FF80007FC0007FFFFC0007FE0007FFFFC0003FF8000001FFFE000000
310
7FFFFFF0001FFFFFFF80007FFFFF0000FFFF80007FFFFF0000FFFF0003FFFFFF
310
FFF0003FFFFF0003F000E0003FFFFC0003FE0003FFF000003FFF0003FF80007F
310
E0003FFFF80007FE0003FFFFC0007FF8000001FFFE0000007FFFFFF0001FFFFF
310
FF80003FFFFE0000FFFF80003FFFFE0000FFFF0003FFFFFFFFF0001FFFFE0003
310
F000F0001FFFF80003FE0003FFF000007FFF0001FF80007FE0003FFFF00007FE
310
0001FFFF80007FF8000001FFFE0000007FFFFFF0001FFFFFFFC0000FFFF80001
310
FFFFC0000FFFF80001FFFF0003FFFFFFFFF0001FFFFC0003F000F0000FFFF000
310
07FE0007FFF800007FFF0001FF80007FE0001FFFE00007FF0000FFFE00007FF8
310
000001FFFE0000007FFFFFF0001FFFFFFFC00003FFE00001FFFFC00003FFE000
310
01FFFF0003FFFFFFFFF8000FFFF80003F000F00003FFC00007FC0007FFF80000
310
7FFF8001FF80007FF00007FF80000FFF00007FF80000FFF8000001FFFE000000
310
7F80000000000001FFE000003E000003FFFFE000003E000003FFFF0003FFFFFF
310
FFF80003FFE00007F000F800000000000FFC0007FFF800007FFF8001FF80007F
310
F000000000000FFF000000000000FFF8000001FFFE0000007F80000000000001
310
FFF0000000000007FFFFF0000000000007FFFF0003FFFFFFFFFC00007E000007
310
F000F800000000000FFC0007FFF80000FFFF8000FF80007FF800000000001FFF
310
800000000001FFF8000001FFFE0000007F80000000000001FFF800000000000F
310
FFFFF800000000000FFFFF0003FFFFFFFFFC00000000000FF000FC0000000000
310
1FFC0007FFFC0000FFFF8000FF80007FF800000000003FFFC00000000001FFF8
310
000001FFFE0000007F80000000000001FFF800000000000FFFFFF80000000000
310
0FFFFF0003FFFFFFFFFE00000000001FF000FE00000000003FF8000FFFFC0000
310
FFFF8000FF80007FFC00000000003FFFC00000000003FFF8000001FFFE000000
310
7F80000000000001FFFC00000000001FFFFFFC00000000001FFFFF0003FFFFFF
310
FFFF00000000001FF000FF00000000003FF8000FFFFC0000FFFFC000FF80007F
310
FE00000000007FFFE00000000007FFF8000001FFFE0000007F80000000000001
310
FFFE00000000003FFFFFFE00000000003FFFFF0003FFFFFFFFFF80000000003F
310
F000FF80000000007FF8000FFFFC0001FFFFC0007F80007FFF0000000000FFFF
310
F0000000000FFFF800000000000000007F80000000000001FFFF8000000000FF
310
FFFFFF8000000000FFFFFF0003FFFFFFFFFFC0000000007FF000FFC000000000
310
FFF8000FFFFE0001FFFFC0007F80007FFF8000000001FFFFF8000000001FFFF8
310
00000000000000007F80000000000001FFFFC000000001FFFFFFFFC000000001
310
FFFFFF0003FFFFFFFFFFE000000000FFF000FFE000000003FFF0001FFFFE0001
310
FFFFC0007F80007FFFC000000007FFFFFE000000003FFFF80000000000000000
310
7F80000000000001FFFFE000000003FFFFFFFFE000000003FFFFFF0003FFFFFF
310
FFFFF000000003FFF000FFF80000000FFFF0001FFFFE0001FFFFE0007F80007F
310
FFF00000000FFFFFFF00000000FFFFF800000000000000007F80000000000001
310
FFFFF80000000FFFFFFFFFF80000000FFFFFFF0003FFFFFFFFFFFC0000000FFF
310
F000FFFE0000003FFFF0001FFFFE0003FFFFE0003F80007FFFFC0000003FFFFF
310
FFC0000003FFFFF800000000000000007F80000000000001FFFFFE0000003FFF
310
FFFFFFFE0000003FFFFFFF0003FFFFFFFFFFFF0000003FFFF000FFFF800000FF
310
FFF0001FFFFF0003FFFFE0003F80007FFFFF000001FFFFFFFFF800001FFFFFF8
310
00000000000000007F80000000000001FFFFFFC00001FFFFFFFFFFFFC00001FF
310
FFFFFF0003FFFFFFFFFFFFC00000FFFFF000FFFFF8000FFFFFFFFFFFFFFFFFFF
310
FFFFFFFFFFFFFFFFFFFFF0001FFFFFFFFFFF0000FFFFFFF80000000000000000
310
7FFFFFFFFFFFFFFFFFFFFFFC001FFFFFFFFFFFFFFC001FFFFFFFFFFFFFFFFFFF
310
FFFFFFFC001FFFFFF000FFFFFFFFFFFFFFFFFFFFFFFFFFFFFFFFFFFFFFFFFFFF
310
FFFFFFFFFFFFFFFFFFFFFFFFFFFFFFFFFFFFFFFFFFFFFFFFFFFFFFFFFFFFFFFF
310
FFFFFFFFFFFFFFFFFFFFFFFFFFFFFFFFFFFFFFFFFFFFFFFFFFFFFFFFFFFFFFFF
310
F000FFFFFFFFFFFFFFFFFFFFFFFFFFFFFFFFFFFFFFFFFFFFFFFFFFFFFFFFFFFF
310
FFFFFFFFFFFFFFFFFFFFFFFFFFFFFFFFFFFFFFFFFFFFFFFFFFFFFFFFFFFFFFFF
310
FFFFFFFFFFFFFFFFFFFFFFFFFFFFFFFFFFFFFFFFFFFFFFFFF000FFFFFFFFFFFF
310
FFFFFFFFFFFFFFFFFFFFFFFFFFFFFFFFFFFFFFFFFFFFFFFFFFFFFFFFFFFFFFFF
310
FFFFFFFFFFFFFFFFFFFFFFFFFFFFFFFFFFFFFFFFFFFFFFFFFFFFFFFFFFFFFFFF
310
FFFFFFFFFFFFFFFFFFFFFFFFFFFFFFFFF000FFFFFFFFFFFFFFFFFFFFFFFFFFFF
310
FFFFFFFFFFFFFFFFFFFFFFFFFFFFFFFFFFFFFFFFFFFFFFFFFFFFFFFFFFFFFFFF
310
FFFFFFFFFFFFFFFFFFFFFFFFFFFFFFFFFFFFFFFFFFFFFFFFFFFFFFFFFFFFFFFF
310
FFFFFFFFFFFFFFFFF000FFFFFFFFFFFFFFFFFFFFFFFFFFFFFFFFFFFFFFFFFFFF
310
FFFFFFFFFFFFFFFFFFFFFFFFFFFFFFFFFFFFFFFFFFFFFFFFFFFFFFFFFFFFFFFF
310
FFFFFFFFFFFFFFFFFFFFFFFFFFFFFFFFFFFFFFFFFFFFFFFFFFFFFFFFFFFFFFFF
310
F000FFFFFFFFFFFFFFFFFFFFFFFFFFFFFFFFFFFFFFFFFFFFFFFFFFFFFFFFFFFF
310
FFFFFFFFFFFFFFFFFFFFFFFFFFFFFFFFFFFFFFFFFFFFFFFFFFFFFFFFFFFFFFFF
310
FFFFFFFFFFFFFFFFFFFFFFFFFFFFFFFFFFFFFFFFFFFFFFFFF000FFFFFFFFFFFF
310
FFFFFFFFFFFFFFFFFFFFFFFFFFFFFFFFFFFFFFFFFFFFFFFFFFFFFFFFFFFFFFFF
310
FFFFFFFFFFFFFFFFFFFFFFFFFFFFFFFFFFFFFFFFFFFFFFFFFFFFFFFFFFFFFFFF
310
FFFFFFFFFFFFFFFFFFFFFFFFFFFFFFFFF000FFFFFFFFFFFFFFFFFFFFFFFFFFFF
310
FFFFFFFFFFFFFFFFFFFFFFFFFFFFFFFFFFFFFFFFFFFFFFFFFFFFFFFFFFFFFFFF
310
FFFFFFFFFFFFFFFFFFFFFFFFFFFFFFFFFFFFFFFFFFFFFFFFFFFFFFFFFFFFFFFF
310
FFFFFFFFFFFFFFFFF000FFFFFFFFFFFFFFFFFFFFFFFFFFFFFFFFFFFFFFFFFFFF
310
FFFFFFFFFFFFFFFFFFFFFFFFFFFFFFFFFFFFFFFFFFFFFFFFFFFFFFFFFFFFFFFF
310
FFFFFFFFFFFFFFFFFFFFFFFFFFFFFFFFFFFFFFFFFFFFFFFFFFFFFFFFFFFFFFFF
310
F000FFFFFFFFFFFFFFFFFFFFFFFFFFFFFFFFFFFFFFFFFFFFFFFFFFFFFFFFFFFF
310
FFFFFFFFFFFFFFFFFFFFFFFFFFFFFFFFFFFFFFFFFFFFFFFFFFFFFFFFFFFFFFFF
310
FFFFFFFFFFFFFFFFFFFFFFFFFFFFFFFFFFFFFFFFFFFFFFFFF000FFFFFFFFFFFF
310
FFFFFFFFFFFFFFFFFFFFFFFFFFFFFFFFFFFFFFFFFFFFFFFFFFFFFFFFFFFFFFFF
310
FFFFFFFFFFFFFFFFFFFFFFFFFFFFFFFFFFFFFFFFFFFFFFFFFFFFFFFFFFFFFFFF
310
FFFFFFFFFFFFFFFFFFFFFFFFFFFFFFFFF000FFFFFFFFFFFFFFFFFFFFFFFFFFFF
310
FFFFFFFFFFFFFFFFFFFFFFFFFFFFFFFFFFFFFFFFFFFFFFFFFFFFFFFFFFFFFFFF
310
FFFFFFFFFFFFFFFFFFFFFFFFFFFFFFFFFFFFFFFFFFFFFFFFFFFFFFFFFFFFFFFF
310
FFFFFFFFFFFFFFFFF000FFFFFFFFFFFFFFFFFFFFFFFFFFFFFFFFFFFFFFFFFFFF
310
FFFFFFFFFFFFFFFFFFFFFFFFFFFFFFFFFFFFFFFFFFFFFFFFFFFFFFFFFFFFFFFF
310
FFFFFFFFFFFFFFFFFFFFFFFFFFFFFFFFFFFFFFFFFFFFFFFFFFFFFFFFFFFFFFFF
310
F000FFFFFFFFFFFFFFFFFFFFFFFFFFFFFFFFFFFFFFFFFFFFFFFFFFFFFFFFFFFF
310
FFFFFFFFFFFFFFFFFFFFFFFFFFFFFFFFFFFFFFFFFFFFFFFFFFFFFFFFFFFFFFFF
310
FFFFFFFFFFFFFFFFFFFFFFFFFFFFFFFFFFFFFFFFFFFFFFFFF000FFFFFFFFFFFF
310
FFFFFFFFFFFFFFFFFFFFFFFFFFFFFFFFFFFFFFFFFFFFFFFFFFFFFFFFFFFFFFFF
310
FFFFFFFFFFFFFFFFFFFFFFFFFFFFFFFFFFFFFFFFFFFFFFFFFFFFFFFFFFFFFFFF
310
FFFFFFFFFFFFFFFFFFFFFFFFFFFFFFFFF000FFFFFFFFFFFFFFFFFFFFFFFFFFFF
310
FFFFFFFFFFFFFFFFFFFFFFFFFFFFFFFFFFFFFFFFFFFFFFFFFFFFFFFFFFFFFFFF
310
FFFFFFFFFFFFFFFFFFFFFFFFFFFFFFFFFFFFFFFFFFFFFFFFFFFFFFFFFFFFFFFF
310
FFFFFFFFFFFFFFFFF000FFFFFFFFFFFFFFFFFFFFFFFFFFFFFFFFFFFFFFFFFFFF
310
FFFFFFFFFFFFFFFFFFFFFFFFFFFFFFFFFFFFFFFFFFFFFFFFFFFFFFFFFFFFFFFF
310
FFFFFFFFFFFFFFFFFFFFFFFFFFFFFFFFFFFFFFFFFFFFFFFFFFFFFFFFFFFFFFFF
310
F000FFFFFFFFFFFFFFFFFFFFFFFFFFFFFFFFFFFFFFFFFFFFFFFFFFFFFFFFFFFF
310
FFFFFFFFFFFFFFFFFFFFFFFFFFFFFFFFFFFFFFFFFFFFFFFFFFFFFFFFFFFFFFFF
310
FFFFFFFFFFFFFFFFFFFFFFFFFFFFFFFFFFFFFFFFFFFFFFFFF000FFFFFFFFFFFF
310
FFFFFFFFFFFFFFFFFFFFFFFFFFFFFFFFFFFFFFFFFFFFFFFFFFFFFFFFFFFFFFFF
310
FFFFFFFFFFFFFFFFFFFFFFFFFFFFFFFFFFFFFFFFFFFFFFFFFFFFFFFFFFFFFFFF
310
FFFFFFFFFFFFFFFFFFFFFFFFFFFFFFFFF000FFFFFFFFFFFFFFFFFFFFFFFFFFFF
310
FFFFFFFFFFFFFFFFFFFFFFFFFFFFFFFFFFFFFFFFFFFFFFFFFFFFFFFFFFFFFFFF
310
FFFFFFFFFFFFFFFFFFFFFFFFFFFFFFFFFFFFFFFFFFFFFFFFFFFFFFFFFFFFFFFF
310
FFFFFFFFFFFFFFFFF000FFFFFFFFFFFFFFFFFFFFFFFFFFFFFFFFFFFFFFFFFFFF
310
FFFFFFFFFFFFFFFFFFFFFFFFFFFFFFFFFFFFFFFFFFFFFFFFFFFFFFFFFFFFFFFF
310
FFFFFFFFFFFFFFFFFFFFFFFFFFFFFFFFFFFFFFFFFFFFFFFFFFFFFFFFFFFFFFFF
310
F000FFFFFFFFFFFFFFFFFFFFFFFFFFFFFFFFFFFFFFFFFFFFFFFFFFFFFFFFFFFF
310
FFFFFFFFFFFFFFFFFFFFFFFFFFFFFFFFFFFFFFFFFFFFFFFFFFFFFFFFFFFFFFFF
310
FFFFFFFFFFFFFFFFFFFFFFFFFFFFFFFFFFFFFFFFFFFFFFFFF000FFFFFFFFFFFF
310
FFFFFFFFFFFFFFFFFFFFFFFFFFFFFFFFFFFFFFFFFFFFFFFFFFFFFFFFFFFFFFFF
310
FFFFFFFFFFFFFFFFFFFFFFFFFFFFFFFFFFFFFFFFFFFFFFFFFFFFFFFFFFFFFFFF
310
FFFFFFFFFFFFFFFFFFFFFFFFFFFFFFFFF0000000000000000000000000000000
310
0000000001000000010000000100000001000000010000000100000001000000
310
0100000001000000010000000100000001000000010000000100000001000000
310
0000000001000000010000000000000001000000010000000100000001000000
310
0100000001000000010000000100000001000000010000000100000001000000
310
0100000001000000010000000100000001000000010000000100000001000000
310
0100000001000000010000000100000001000000010000000100000001000000
310
0100000001000000000000000100000001000000000000000100000001000000
310
0100000001000000010000000100000001000000010000000100000001000000
310
0100000001000000010000000100000001000000010000000100000001000000
310
0100000000000000010000000000000001000000010000000100000001000000
310
0100000001000000010000000100000001000000010000000100000001000000
310
0100000001000000010000000100000001000000010000000100000001000000
310
0100000001000000010000000100000001000000010000000100000001000000
310
0100000001000000010000000000000001000000010000000100000001000000
310
0100000001000000010000000100000001000000010000000100000001000000
  1
OLE
  0
ENDSEC
  0
SECTION
  2
OBJECTS
  0
DICTIONARY
  5
C
330
0
100
AcDbDictionary
281
     1
  3
ACAD_GROUP
350
D
  3
ACAD_LAYOUT
350
1A
  3
ACAD_MLEADERSTYLE
350
206
  3
ACAD_MLINESTYLE
350
17
  3
ACAD_PLOTSETTINGS
350
19
  3
ACAD_PLOTSTYLENAME
350
E
  3
ACAD_TABLESTYLE
350
205
  3
ACAD_VISUALSTYLE
350
2A
  3
AcDbVariableDictionary
350
207
  0
DICTIONARY
  5
D
102
{ACAD_REACTORS
330
C
102
}
330
C
100
AcDbDictionary
281
     1
  0
DICTIONARY
  5
1A
102
{ACAD_REACTORS
330
C
102
}
330
C
100
AcDbDictionary
281
     1
  3
Layout1
350
1E
  3
Layout2
350
26
  3
Model
350
22
  0
DICTIONARY
  5
206
102
{ACAD_REACTORS
330
C
102
}
330
C
100
AcDbDictionary
281
     1
  0
DICTIONARY
  5
17
102
{ACAD_REACTORS
330
C
102
}
330
C
100
AcDbDictionary
281
     1
  3
Standard
350
18
  0
DICTIONARY
  5
19
102
{ACAD_REACTORS
330
C
102
}
330
C
100
AcDbDictionary
281
     1
  0
ACDBDICTIONARYWDFLT
  5
E
102
{ACAD_REACTORS
330
C
102
}
330
C
100
AcDbDictionary
281
     1
  3
Normal
350
F
100
AcDbDictionaryWithDefault
340
F
  0
DICTIONARY
  5
205
102
{ACAD_REACTORS
330
C
102
}
330
C
100
AcDbDictionary
281
     1
  0
DICTIONARY
  5
2A
102
{ACAD_REACTORS
330
C
102
}
330
C
100
AcDbDictionary
281
     1
  3
2dWireframe
350
2F
  3
3D Hidden
350
31
  3
3dWireframe
350
30
  3
Basic
350
32
  3
Brighten
350
36
  3
ColorChange
350
3A
  3
Conceptual
350
34
  3
Dim
350
35
  3
Facepattern
350
39
  3
Flat
350
2B
  3
FlatWithEdges
350
2C
  3
Gouraud
350
2D
  3
GouraudWithEdges
350
2E
  3
Linepattern
350
38
  3
Realistic
350
33
  3
Thicken
350
37
  0
DICTIONARY
  5
207
102
{ACAD_REACTORS
330
C
102
}
330
C
100
AcDbDictionary
281
     1
  3
PSOLHEIGHT
350
209
  3
PSOLWIDTH
350
208
  0
LAYOUT
  5
1E
102
{ACAD_REACTORS
330
1A
102
}
330
1A
100
AcDbPlotSettings
  1

  2
none_device
  4

  6

 40
0.0
 41
0.0
 42
0.0
 43
0.0
 44
0.0
 45
0.0
 46
0.0
 47
0.0
 48
0.0
 49
0.0
140
0.0
141
0.0
142
1.0
143
1.0
 70
   688
 72
     0
 73
     0
 74
     5
  7

 75
    16
147
1.0
148
0.0
149
0.0
100
AcDbLayout
  1
Layout1
 70
     1
 71
     1
 10
0.0
 20
0.0
 11
420.0
 21
297.0
 12
0.0
 22
0.0
 32
0.0
 14
1.0000000000E+20
 24
1.0000000000E+20
 34
1.0000000000E+20
 15
-1.0000000000E+20
 25
-1.0000000000E+20
 35
-1.0000000000E+20
146
0.0
 13
0.0
 23
0.0
 33
0.0
 16
1.0
 26
0.0
 36
0.0
 17
0.0
 27
1.0
 37
0.0
 76
     0
330
1B
  0
LAYOUT
  5
26
102
{ACAD_REACTORS
330
1A
102
}
330
1A
100
AcDbPlotSettings
  1

  2
none_device
  4

  6

 40
0.0
 41
0.0
 42
0.0
 43
0.0
 44
0.0
 45
0.0
 46
0.0
 47
0.0
 48
0.0
 49
0.0
140
0.0
141
0.0
142
1.0
143
1.0
 70
   688
 72
     0
 73
     0
 74
     5
  7

 75
    16
147
1.0
148
0.0
149
0.0
100
AcDbLayout
  1
Layout2
 70
     1
 71
     2
 10
0.0
 20
0.0
 11
0.0
 21
0.0
 12
0.0
 22
0.0
 32
0.0
 14
0.0
 24
0.0
 34
0.0
 15
0.0
 25
0.0
 35
0.0
146
0.0
 13
0.0
 23
0.0
 33
0.0
 16
1.0
 26
0.0
 36
0.0
 17
0.0
 27
1.0
 37
0.0
 76
     0
330
23
  0
LAYOUT
  5
22
102
{ACAD_REACTORS
330
1A
102
}
330
1A
100
AcDbPlotSettings
  1

  2
none_device
  4

  6

 40
0.0
 41
0.0
 42
0.0
 43
0.0
 44
0.0
 45
0.0
 46
0.0
 47
0.0
 48
0.0
 49
0.0
140
0.0
141
0.0
142
1.0
143
1.0
 70
  1712
 72
     0
 73
     0
 74
     0
  7

 75
     0
147
1.0
148
0.0
149
0.0
100
AcDbLayout
  1
Model
 70
     1
 71
     0
 10
0.0
 20
0.0
 11
297.0
 21
210.0
 12
0.0
 22
0.0
 32
0.0
 14
0.0
 24
0.0
 34
0.0
 15
297.0
 25
210.0
 35
0.0
146
0.0
 13
0.0
 23
0.0
 33
0.0
 16
1.0
 26
0.0
 36
0.0
 17
0.0
 27
1.0
 37
0.0
 76
     0
330
1F
331
29
  0
MLINESTYLE
  5
18
102
{ACAD_REACTORS
330
17
102
}
330
17
100
AcDbMlineStyle
  2
Standard
 70
     0
  3

 62
   256
 51
90.0
 52
90.0
 71
     2
 49
0.5
 62
   256
  6
BYLAYER
 49
-0.5
 62
   256
  6
BYLAYER
  0
ACDBPLACEHOLDER
  5
F
102
{ACAD_REACTORS
330
E
102
}
330
E
  0
VISUALSTYLE
  5
2F
102
{ACAD_REACTORS
330
2A
102
}
330
2A
100
AcDbVisualStyle
  2
2dWireframe
 70
     4
 71
     0
 72
     2
 73
     0
 90
        0
 40
-0.6
 41
-30.0
 62
     5
 63
     7
 74
     1
 91
        4
 64
     7
 65
   257
 75
     1
175
     1
 42
1.0
 92
        0
 66
   257
 43
1.0
 76
     1
 77
     6
 78
     2
 67
     7
 79
     5
170
     0
171
     0
290
     0
174
     0
 93
        1
 44
0.0
173
     0
291
     0
 45
0.0
1001
ACAD
1000
AcDbSavedByObjectVersion
1070
     0
  0
VISUALSTYLE
  5
31
102
{ACAD_REACTORS
330
2A
102
}
330
2A
100
AcDbVisualStyle
  2
3D Hidden
 70
     6
 71
     1
 72
     2
 73
     2
 90
        0
 40
-0.6
 41
-30.0
 62
     5
 63
     7
 74
     2
 91
        2
 64
     7
 65
   257
 75
     2
175
     1
 42
40.0
 92
        0
 66
   257
 43
1.0
 76
     1
 77
     6
 78
     2
 67
     7
 79
     3
170
     0
171
     0
290
     0
174
     0
 93
        1
 44
0.0
173
     0
291
     0
 45
0.0
1001
ACAD
1000
AcDbSavedByObjectVersion
1070
     0
  0
VISUALSTYLE
  5
30
102
{ACAD_REACTORS
330
2A
102
}
330
2A
100
AcDbVisualStyle
  2
3dWireframe
 70
     5
 71
     0
 72
     2
 73
     0
 90
        0
 40
-0.6
 41
-30.0
 62
     5
 63
     7
 74
     1
 91
        4
 64
     7
 65
   257
 75
     1
175
     1
 42
1.0
 92
        0
 66
   257
 43
1.0
 76
     1
 77
     6
 78
     2
 67
     7
 79
     5
170
     0
171
     0
290
     0
174
     0
 93
        1
 44
0.0
173
     0
291
     0
 45
0.0
1001
ACAD
1000
AcDbSavedByObjectVersion
1070
     0
  0
VISUALSTYLE
  5
32
102
{ACAD_REACTORS
330
2A
102
}
330
2A
100
AcDbVisualStyle
  2
Basic
 70
     7
 71
     1
 72
     0
 73
     1
 90
        0
 40
-0.6
 41
-30.0
 62
     5
 63
     7
 74
     0
 91
        4
 64
     7
 65
   257
 75
     1
175
     1
 42
1.0
 92
        8
 66
     7
 43
1.0
 76
     1
 77
     6
 78
     2
 67
     7
 79
     5
170
     0
171
     0
290
     0
174
     0
 93
        1
 44
0.0
173
     0
291
     1
 45
0.0
1001
ACAD
1000
AcDbSavedByObjectVersion
1070
     0
  0
VISUALSTYLE
  5
36
102
{ACAD_REACTORS
330
2A
102
}
330
2A
100
AcDbVisualStyle
  2
Brighten
 70
    12
 71
     2
 72
     2
 73
     0
 90
        0
 40
-0.6
 41
-30.0
 62
     5
 63
     7
 74
     1
 91
        4
 64
     7
 65
   257
 75
     1
175
     1
 42
1.0
 92
        8
 66
     7
 43
1.0
 76
     1
 77
     6
 78
     2
 67
     7
 79
     5
170
     0
171
     0
290
     0
174
     0
 93
        1
 44
50.0
173
     0
291
     1
 45
0.0
1001
ACAD
1000
AcDbSavedByObjectVersion
1070
     0
  0
VISUALSTYLE
  5
3A
102
{ACAD_REACTORS
330
2A
102
}
330
2A
100
AcDbVisualStyle
  2
ColorChange
 70
    16
 71
     2
 72
     2
 73
     3
 90
        0
 40
-0.6
 41
-30.0
 62
     5
 63
     8
 74
     1
 91
        4
 64
     7
 65
   257
 75
     1
175
     1
 42
1.0
 92
        8
 66
     8
 43
1.0
 76
     1
 77
     6
 78
     2
 67
     7
 79
     5
170
     0
171
     0
290
     0
174
     0
 93
        1
 44
0.0
173
     0
291
     1
 45
0.0
1001
ACAD
1000
AcDbSavedByObjectVersion
1070
     0
  0
VISUALSTYLE
  5
34
102
{ACAD_REACTORS
330
2A
102
}
330
2A
100
AcDbVisualStyle
  2
Conceptual
 70
     9
 71
     3
 72
     2
 73
     0
 90
        0
 40
-0.6
 41
-30.0
 62
     5
 63
     7
 74
     2
 91
        2
 64
     7
 65
   257
 75
     1
175
     1
 42
40.0
 92
        8
 66
     7
 43
1.0
 76
     1
 77
     6
 78
     2
 67
     7
 79
     3
170
     0
171
     0
290
     0
174
     0
 93
        1
 44
0.0
173
     0
291
     0
 45
0.0
1001
ACAD
1000
AcDbSavedByObjectVersion
1070
     0
  0
VISUALSTYLE
  5
35
102
{ACAD_REACTORS
330
2A
102
}
330
2A
100
AcDbVisualStyle
  2
Dim
 70
    11
 71
     2
 72
     2
 73
     0
 90
        0
 40
-0.6
 41
-30.0
 62
     5
 63
     7
 74
     1
 91
        4
 64
     7
 65
   257
 75
     1
175
     1
 42
1.0
 92
        8
 66
     7
 43
1.0
 76
     1
 77
     6
 78
     2
 67
     7
 79
     5
170
     0
171
     0
290
     0
174
     0
 93
        1
 44
-50.0
173
     0
291
     1
 45
0.0
1001
ACAD
1000
AcDbSavedByObjectVersion
1070
     0
  0
VISUALSTYLE
  5
39
102
{ACAD_REACTORS
330
2A
102
}
330
2A
100
AcDbVisualStyle
  2
Facepattern
 70
    15
 71
     2
 72
     2
 73
     0
 90
        0
 40
-0.6
 41
-30.0
 62
     5
 63
     7
 74
     1
 91
        4
 64
     7
 65
   257
 75
     1
175
     1
 42
1.0
 92
        8
 66
     7
 43
1.0
 76
     1
 77
     6
 78
     2
 67
     7
 79
     5
170
     0
171
     0
290
     0
174
     0
 93
        1
 44
0.0
173
     0
291
     1
 45
0.0
1001
ACAD
1000
AcDbSavedByObjectVersion
1070
     0
  0
VISUALSTYLE
  5
2B
102
{ACAD_REACTORS
330
2A
102
}
330
2A
100
AcDbVisualStyle
  2
Flat
 70
     0
 71
     2
 72
     1
 73
     1
 90
        2
 40
-0.6
 41
30.0
 62
     5
 63
     7
 74
     0
 91
        4
 64
     7
 65
   257
 75
     1
175
     1
 42
1.0
 92
        8
 66
     7
 43
1.0
 76
     1
 77
     6
 78
     2
 67
     7
 79
     5
170
     0
171
     0
290
     0
174
     0
 93
       13
 44
0.0
173
     0
291
     1
 45
0.0
1001
ACAD
1000
AcDbSavedByObjectVersion
1070
     0
  0
VISUALSTYLE
  5
2C
102
{ACAD_REACTORS
330
2A
102
}
330
2A
100
AcDbVisualStyle
  2
FlatWithEdges
 70
     1
 71
     2
 72
     1
 73
     1
 90
        2
 40
-0.6
 41
30.0
 62
     5
 63
     7
 74
     1
 91
        4
 64
     7
 65
   257
 75
     1
175
     1
 42
1.0
 92
        0
 66
   257
 43
1.0
 76
     1
 77
     6
 78
     2
 67
     7
 79
     5
170
     0
171
     0
290
     0
174
     0
 93
       13
 44
0.0
173
     0
291
     1
 45
0.0
1001
ACAD
1000
AcDbSavedByObjectVersion
1070
     0
  0
VISUALSTYLE
  5
2D
102
{ACAD_REACTORS
330
2A
102
}
330
2A
100
AcDbVisualStyle
  2
Gouraud
 70
     2
 71
     2
 72
     2
 73
     1
 90
        2
 40
-0.6
 41
30.0
 62
     5
 63
     7
 74
     0
 91
        4
 64
     7
 65
   257
 75
     1
175
     1
 42
1.0
 92
        0
 66
     7
 43
1.0
 76
     1
 77
     6
 78
     2
 67
     7
 79
     5
170
     0
171
     0
290
     0
174
     0
 93
       13
 44
0.0
173
     0
291
     1
 45
0.0
1001
ACAD
1000
AcDbSavedByObjectVersion
1070
     0
  0
VISUALSTYLE
  5
2E
102
{ACAD_REACTORS
330
2A
102
}
330
2A
100
AcDbVisualStyle
  2
GouraudWithEdges
 70
     3
 71
     2
 72
     2
 73
     1
 90
        2
 40
-0.6
 41
30.0
 62
     5
 63
     7
 74
     1
 91
        4
 64
     7
 65
   257
 75
     1
175
     1
 42
1.0
 92
        0
 66
   257
 43
1.0
 76
     1
 77
     6
 78
     2
 67
     7
 79
     5
170
     0
171
     0
290
     0
174
     0
 93
       13
 44
0.0
173
     0
291
     1
 45
0.0
1001
ACAD
1000
AcDbSavedByObjectVersion
1070
     0
  0
VISUALSTYLE
  5
38
102
{ACAD_REACTORS
330
2A
102
}
330
2A
100
AcDbVisualStyle
  2
Linepattern
 70
    14
 71
     2
 72
     2
 73
     0
 90
        0
 40
-0.6
 41
-30.0
 62
     5
 63
     7
 74
     1
 91
        4
 64
     7
 65
   257
 75
     7
175
     7
 42
1.0
 92
        8
 66
     7
 43
1.0
 76
     1
 77
     6
 78
     2
 67
     7
 79
     5
170
     0
171
     0
290
     0
174
     0
 93
        1
 44
0.0
173
     0
291
     1
 45
0.0
1001
ACAD
1000
AcDbSavedByObjectVersion
1070
     0
  0
VISUALSTYLE
  5
33
102
{ACAD_REACTORS
330
2A
102
}
330
2A
100
AcDbVisualStyle
  2
Realistic
 70
     8
 71
     2
 72
     2
 73
     0
 90
        0
 40
-0.6
 41
-30.0
 62
     5
 63
     7
 74
     1
 91
        0
 64
     7
 65
   257
 75
     1
175
     1
 42
1.0
 92
        8
 66
     8
 43
1.0
 76
     1
 77
     6
 78
     2
 67
     7
 79
     5
170
     0
171
     0
290
     0
174
     0
 93
       13
 44
0.0
173
     0
291
     0
 45
0.0
1001
ACAD
1000
AcDbSavedByObjectVersion
1070
     0
  0
VISUALSTYLE
  5
37
102
{ACAD_REACTORS
330
2A
102
}
330
2A
100
AcDbVisualStyle
  2
Thicken
 70
    13
 71
     2
 72
     2
 73
     0
 90
        0
 40
-0.6
 41
-30.0
 62
     5
 63
     7
 74
     1
 91
        4
 64
     7
 65
   257
 75
     1
175
     1
 42
1.0
 92
       12
 66
     7
 43
1.0
 76
     1
 77
     6
 78
     2
 67
     7
 79
     5
170
     0
171
     0
290
     0
174
     0
 93
        1
 44
0.0
173
     0
291
     1
 45
0.0
1001
ACAD
1000
AcDbSavedByObjectVersion
1070
     0
  0
DICTIONARYVAR
  5
209
102
{ACAD_REACTORS
330
207
102
}
330
207
100
DictionaryVariables
280
     0
  1
80.000000
  0
DICTIONARYVAR
  5
208
102
{ACAD_REACTORS
330
207
102
}
330
207
100
DictionaryVariables
280
     0
  1
5.000000
  0
ENDSEC
  0
EOF
