  0
SECTION
  2
HEADER
  9
$ACADVER
  1
AC1015
  9
$ACADMAINTVER
 70
     6
  9
$DWGCODEPAGE
  3
ANSI_1252
  9
$INSBASE
 10
0.0
 20
0.0
 30
0.0
  9
$EXTMIN
 10
0.0
 20
0.0
 30
0.0
  9
$EXTMAX
 10
297.0
 20
210.0
 30
0.0
  9
$LIMMIN
 10
0.0
 20
0.0
  9
$LIMMAX
 10
297.0
 20
210.0
  9
$ORTHOMODE
 70
     0
  9
$REGENMODE
 70
     1
  9
$FILLMODE
 70
     1
  9
$QTEXTMODE
 70
     0
  9
$MIRRTEXT
 70
     1
  9
$LTSCALE
 40
1.0
  9
$ATTMODE
 70
     1
  9
$TEXTSIZE
 40
2.0
  9
$TRACEWID
 40
1.0
  9
$TEXTSTYLE
  7
Standard
  9
$CLAYER
  8
0
  9
$CELTYPE
  6
ByLayer
  9
$CECOLOR
 62
   256
  9
$CELTSCALE
 40
1.0
  9
$DISPSILH
 70
     0
  9
$DIMSCALE
 40
1.0
  9
$DIMASZ
 40
3.0
  9
$DIMEXO
 40
0.0
  9
$DIMDLI
 40
3.75
  9
$DIMRND
 40
0.0
  9
$DIMDLE
 40
0.0
  9
$DIMEXE
 40
1.0
  9
$DIMTP
 40
0.0
  9
$DIMTM
 40
0.0
  9
$DIMTXT
 40
2.0
  9
$DIMCEN
 40
2.5
  9
$DIMTSZ
 40
0.0
  9
$DIMTOL
 70
     0
  9
$DIMLIM
 70
     0
  9
$DIMTIH
 70
     1
  9
$DIMTOH
 70
     1
  9
$DIMSE1
 70
     0
  9
$DIMSE2
 70
     0
  9
$DIMTAD
 70
     1
  9
$DIMZIN
 70
     0
  9
$DIMBLK
  1

  9
$DIMASO
 70
     1
  9
$DIMSHO
 70
     1
  9
$DIMPOST
  1

  9
$DIMAPOST
  1

  9
$DIMALT
 70
     0
  9
$DIMALTD
 70
     3
  9
$DIMALTF
 40
0.0393700787
  9
$DIMLFAC
 40
1.0
  9
$DIMTOFL
 70
     1
  9
$DIMTVP
 40
0.0
  9
$DIMTIX
 70
     0
  9
$DIMSOXD
 70
     0
  9
$DIMSAH
 70
     0
  9
$DIMBLK1
  1

  9
$DIMBLK2
  1

  9
$DIMSTYLE
  2
ISO-25
  9
$DIMCLRD
 70
     0
  9
$DIMCLRE
 70
     0
  9
$DIMCLRT
 70
     0
  9
$DIMTFAC
 40
1.0
  9
$DIMGAP
 40
1.524
  9
$DIMJUST
 70
     0
  9
$DIMSD1
 70
     0
  9
$DIMSD2
 70
     0
  9
$DIMTOLJ
 70
     0
  9
$DIMTZIN
 70
     0
  9
$DIMALTZ
 70
     0
  9
$DIMALTTZ
 70
     0
  9
$DIMUPT
 70
     0
  9
$DIMDEC
 70
     2
  9
$DIMTDEC
 70
     3
  9
$DIMALTU
 70
     2
  9
$DIMALTTD
 70
     3
  9
$DIMTXSTY
  7
Standard
  9
$DIMAUNIT
 70
     0
  9
$DIMADEC
 70
     2
  9
$DIMALTRND
 40
0.0
  9
$DIMAZIN
 70
     0
  9
$DIMDSEP
 70
    44
  9
$DIMATFIT
 70
     3
  9
$DIMFRAC
 70
     0
  9
$DIMLDRBLK
  1

  9
$DIMLUNIT
 70
     2
  9
$DIMLWD
 70
    -2
  9
$DIMLWE
 70
    -2
  9
$DIMTMOVE
 70
     0
  9
$LUNITS
 70
     2
  9
$LUPREC
 70
     2
  9
$SKETCHINC
 40
1.0
  9
$FILLETRAD
 40
10.0
  9
$AUNITS
 70
     0
  9
$AUPREC
 70
     2
  9
$MENU
  1
.
  9
$ELEVATION
 40
0.0
  9
$PELEVATION
 40
0.0
  9
$THICKNESS
 40
0.0
  9
$LIMCHECK
 70
     0
  9
$CHAMFERA
 40
10.0
  9
$CHAMFERB
 40
10.0
  9
$CHAMFERC
 40
20.0
  9
$CHAMFERD
 40
0.0
  9
$SKPOLY
 70
     0
  9
$TDCREATE
 40
2455684.408720035
  9
$TDUCREATE
 40
2455684.325386702
  9
$TDUPDATE
 40
2455684.408720046
  9
$TDUUPDATE
 40
2455684.325386713
  9
$TDINDWG
 40
0.0000000116
  9
$TDUSRTIMER
 40
0.0000000116
  9
$USRTIMER
 70
     1
  9
$ANGBASE
 50
0.0
  9
$ANGDIR
 70
     0
  9
$PDMODE
 70
     0
  9
$PDSIZE
 40
-1.0
  9
$PLINEWID
 40
0.0
  9
$SPLFRAME
 70
     0
  9
$SPLINETYPE
 70
     6
  9
$SPLINESEGS
 70
     8
  9
$HANDSEED
  5
20E
  9
$SURFTAB1
 70
     6
  9
$SURFTAB2
 70
     6
  9
$SURFTYPE
 70
     6
  9
$SURFU
 70
     6
  9
$SURFV
 70
     6
  9
$UCSBASE
  2

  9
$UCSNAME
  2

  9
$UCSORG
 10
0.0
 20
0.0
 30
0.0
  9
$UCSXDIR
 10
1.0
 20
0.0
 30
0.0
  9
$UCSYDIR
 10
0.0
 20
1.0
 30
0.0
  9
$UCSORTHOREF
  2

  9
$UCSORTHOVIEW
 70
     0
  9
$UCSORGTOP
 10
0.0
 20
0.0
 30
0.0
  9
$UCSORGBOTTOM
 10
0.0
 20
0.0
 30
0.0
  9
$UCSORGLEFT
 10
0.0
 20
0.0
 30
0.0
  9
$UCSORGRIGHT
 10
0.0
 20
0.0
 30
0.0
  9
$UCSORGFRONT
 10
0.0
 20
0.0
 30
0.0
  9
$UCSORGBACK
 10
0.0
 20
0.0
 30
0.0
  9
$PUCSBASE
  2

  9
$PUCSNAME
  2

  9
$PUCSORG
 10
0.0
 20
0.0
 30
0.0
  9
$PUCSXDIR
 10
1.0
 20
0.0
 30
0.0
  9
$PUCSYDIR
 10
0.0
 20
1.0
 30
0.0
  9
$PUCSORTHOREF
  2

  9
$PUCSORTHOVIEW
 70
     0
  9
$PUCSORGTOP
 10
0.0
 20
0.0
 30
0.0
  9
$PUCSORGBOTTOM
 10
0.0
 20
0.0
 30
0.0
  9
$PUCSORGLEFT
 10
0.0
 20
0.0
 30
0.0
  9
$PUCSORGRIGHT
 10
0.0
 20
0.0
 30
0.0
  9
$PUCSORGFRONT
 10
0.0
 20
0.0
 30
0.0
  9
$PUCSORGBACK
 10
0.0
 20
0.0
 30
0.0
  9
$USERI1
 70
     0
  9
$USERI2
 70
     0
  9
$USERI3
 70
     0
  9
$USERI4
 70
     0
  9
$USERI5
 70
     0
  9
$USERR1
 40
0.0
  9
$USERR2
 40
0.0
  9
$USERR3
 40
0.0
  9
$USERR4
 40
0.0
  9
$USERR5
 40
0.0
  9
$WORLDVIEW
 70
     1
  9
$SHADEDGE
 70
     3
  9
$SHADEDIF
 70
    70
  9
$TILEMODE
 70
     1
  9
$MAXACTVP
 70
    64
  9
$PINSBASE
 10
0.0
 20
0.0
 30
0.0
  9
$PLIMCHECK
 70
     0
  9
$PEXTMIN
 10
1.0000000000E+20
 20
1.0000000000E+20
 30
1.0000000000E+20
  9
$PEXTMAX
 10
-1.0000000000E+20
 20
-1.0000000000E+20
 30
-1.0000000000E+20
  9
$PLIMMIN
 10
0.0
 20
0.0
  9
$PLIMMAX
 10
420.0
 20
297.0
  9
$UNITMODE
 70
     0
  9
$VISRETAIN
 70
     1
  9
$PLINEGEN
 70
     0
  9
$PSLTSCALE
 70
     1
  9
$TREEDEPTH
 70
  3020
  9
$CMLSTYLE
  2
Standard
  9
$CMLJUST
 70
     0
  9
$CMLSCALE
 40
20.0
  9
$PROXYGRAPHICS
 70
     1
  9
$MEASUREMENT
 70
     1
  9
$CELWEIGHT
370
    -1
  9
$ENDCAPS
280
     0
  9
$JOINSTYLE
280
     0
  9
$LWDISPLAY
290
     1
  9
$INSUNITS
 70
     4
  9
$HYPERLINKBASE
  1

  9
$STYLESHEET
  1

  9
$XEDIT
290
     1
  9
$CEPSNTYPE
380
     0
  9
$PSTYLEMODE
290
     1
  9
$FINGERPRINTGUID
  2
{4507C1AC-BE21-4954-B67D-18F6037CF54D}
  9
$VERSIONGUID
  2
{FAEB1C32-E019-11D5-929B-00C0DF256EC4}
  9
$EXTNAMES
290
     1
  9
$PSVPSCALE
 40
0.0
  9
$OLESTARTUP
290
     0
  0
ENDSEC
  0
SECTION
  2
CLASSES
  0
CLASS
  1
ACDBDICTIONARYWDFLT
  2
AcDbDictionaryWithDefault
  3
ObjectDBX Classes
 90
        0
280
     0
281
     0
  0
CLASS
  1
VISUALSTYLE
  2
AcDbVisualStyle
  3
ObjectDBX Classes
 90
     4095
280
     0
281
     0
  0
CLASS
  1
DICTIONARYVAR
  2
AcDbDictionaryVar
  3
ObjectDBX Classes
 90
        0
280
     0
281
     0
  0
CLASS
  1
ACDBPLACEHOLDER
  2
AcDbPlaceHolder
  3
ObjectDBX Classes
 90
        0
280
     0
281
     0
  0
CLASS
  1
LAYOUT
  2
AcDbLayout
  3
ObjectDBX Classes
 90
        0
280
     0
281
     0
  0
ENDSEC
  0
SECTION
  2
TABLES
  0
TABLE
  2
VPORT
  5
8
330
0
100
AcDbSymbolTable
 70
     1
  0
VPORT
  5
29
330
8
100
AcDbSymbolTableRecord
100
AcDbViewportTableRecord
  2
*Active
 70
     0
 10
0.0
 20
0.0
 11
1.0
 21
1.0
 12
148.5
 22
105.0
 13
0.0
 23
0.0
 14
10.0
 24
10.0
 15
10.0
 25
10.0
 16
0.0
 26
0.0
 36
1.0
 17
0.0
 27
0.0
 37
0.0
 40
210.0
 41
1.4142857143
 42
50.0
 43
0.0
 44
0.0
 50
0.0
 51
0.0
 71
     0
 72
  2000
 73
     1
 74
     3
 75
     0
 76
     0
 77
     0
 78
     0
281
     0
 65
     1
110
0.0
120
0.0
130
0.0
111
1.0
121
0.0
131
0.0
112
0.0
122
1.0
132
0.0
 79
     0
146
0.0
  0
ENDTAB
  0
TABLE
  2
LTYPE
  5
5
330
0
100
AcDbSymbolTable
 70
     6
  0
LTYPE
  5
14
330
5
100
AcDbSymbolTableRecord
100
AcDbLinetypeTableRecord
  2
ByBlock
 70
     0
  3

 72
    65
 73
     0
 40
0.0
  0
LTYPE
  5
15
330
5
100
AcDbSymbolTableRecord
100
AcDbLinetypeTableRecord
  2
ByLayer
 70
     0
  3

 72
    65
 73
     0
 40
0.0
  0
LTYPE
  5
16
330
5
100
AcDbSymbolTableRecord
100
AcDbLinetypeTableRecord
  2
Continuous
 70
     0
  3
Solid line
 72
    65
 73
     0
 40
0.0
  0
LTYPE
  5
3B
330
5
100
AcDbSymbolTableRecord
100
AcDbLinetypeTableRecord
  2
HIDDEN
 70
     0
  3
Hidden __ __ __ __ __ __ __ __ __ __ __ __ __ __
 72
    65
 73
     2
 40
1.905
 49
1.27
 74
     0
 49
-0.635
 74
     0
  0
LTYPE
  5
3C
330
5
100
AcDbSymbolTableRecord
100
AcDbLinetypeTableRecord
  2
PHANTOM
 70
     0
  3
Phantom ______  __  __  ______  __  __  ______
 72
    65
 73
     6
 40
12.7
 49
6.35
 74
     0
 49
-1.27
 74
     0
 49
1.27
 74
     0
 49
-1.27
 74
     0
 49
1.27
 74
     0
 49
-1.27
 74
     0
  0
LTYPE
  5
3D
330
5
100
AcDbSymbolTableRecord
100
AcDbLinetypeTableRecord
  2
CENTER
 70
     0
  3
Center ____ _ ____ _ ____ _ ____ _ ____ _ ____
 72
    65
 73
     4
 40
10.16
 49
6.35
 74
     0
 49
-1.27
 74
     0
 49
1.27
 74
     0
 49
-1.27
 74
     0
  0
LTYPE
  5
3E
330
5
100
AcDbSymbolTableRecord
100
AcDbLinetypeTableRecord
  2
CENTERX2
 70
     0
  3
Center (2x) ________  __  ________  __  _____
 72
    65
 73
     4
 40
20.32
 49
12.7
 74
     0
 49
-2.54
 74
     0
 49
2.54
 74
     0
 49
-2.54
 74
     0
  0
LTYPE
  5
3F
330
5
100
AcDbSymbolTableRecord
100
AcDbLinetypeTableRecord
  2
DOT2
 70
     0
  3
Dot (.5x) ........................................
 72
    65
 73
     2
 40
0.635
 49
0.0
 74
     0
 49
-0.635
 74
     0
  0
ENDTAB
  0
TABLE
  2
LAYER
  5
2
330
0
100
AcDbSymbolTable
 70
     5
  0
LAYER
  5
10
330
2
100
AcDbSymbolTableRecord
100
AcDbLayerTableRecord
  2
0
 70
     0
 62
     7
  6
Continuous
370
    -3
390
F
  0
LAYER
  5
40
330
2
100
AcDbSymbolTableRecord
100
AcDbLayerTableRecord
  2
FORMAT
 70
     0
 62
     7
  6
Continuous
370
    -3
390
F
  0
LAYER
  5
41
330
2
100
AcDbSymbolTableRecord
100
AcDbLayerTableRecord
  2
VERMASSUNG
 70
     0
 62
     7
  6
Continuous
370
    -3
390
F
  0
LAYER
  5
42
330
2
100
AcDbSymbolTableRecord
100
AcDbLayerTableRecord
  2
KOPF_DÜNN
 70
     0
 62
     7
  6
Continuous
370
    -3
390
F
  0
LAYER
  5
43
330
2
100
AcDbSymbolTableRecord
100
AcDbLayerTableRecord
  2
KOPF_DICK
 70
     0
 62
     7
  6
Continuous
370
    15
390
F
  0
ENDTAB
  0
TABLE
  2
STYLE
  5
3
330
0
100
AcDbSymbolTable
 70
     3
  0
STYLE
  5
11
330
3
100
AcDbSymbolTableRecord
100
AcDbTextStyleTableRecord
  2
Standard
 70
     0
 40
0.0
 41
1.0
 50
0.0
 71
     0
 42
2.5
  3
txt
  4

  0
STYLE
  5
44
330
3
100
AcDbSymbolTableRecord
100
AcDbTextStyleTableRecord
  2
SLDTEXTSTYLE0
 70
     0
 40
0.0
 41
0.7
 50
0.0
 71
     0
 42
0.2
  3
TXT
  4

  0
STYLE
  5
48
330
3
100
AcDbSymbolTableRecord
100
AcDbTextStyleTableRecord
  2
SLDTEXTSTYLE1
 70
     0
 40
0.0
 41
0.65
 50
0.0
 71
     0
 42
0.2
  3
TXT
  4

  0
ENDTAB
  0
TABLE
  2
VIEW
  5
6
330
0
100
AcDbSymbolTable
 70
     0
  0
ENDTAB
  0
TABLE
  2
UCS
  5
7
330
0
100
AcDbSymbolTable
 70
     0
  0
ENDTAB
  0
TABLE
  2
APPID
  5
9
330
0
100
AcDbSymbolTable
 70
     1
  0
APPID
  5
12
330
9
100
AcDbSymbolTableRecord
100
AcDbRegAppTableRecord
  2
ACAD
 70
     0
  0
ENDTAB
  0
TABLE
  2
DIMSTYLE
  5
A
330
0
100
AcDbSymbolTable
 70
     5
100
AcDbDimStyleTable
  0
DIMSTYLE
105
27
330
A
100
AcDbSymbolTableRecord
100
AcDbDimStyleTableRecord
  2
ISO-25
 70
     0
 41
2.5
 42
0.625
 43
3.75
 44
1.25
 73
     0
 74
     0
 77
     1
 78
     8
140
2.5
141
2.5
143
0.0393700787
147
0.625
171
     3
172
     1
271
     2
272
     2
274
     3
278
    44
283
     0
284
     8
340
11
  0
DIMSTYLE
105
1AE
102
{ACAD_REACTORS
330
1AD
330
1DE
330
1E8
330
1F2
330
1FC
102
}
330
A
100
AcDbSymbolTableRecord
100
AcDbDimStyleTableRecord
  2
SLDDIMSTYLE0
 70
     0
 41
3.0
 44
0.0
 45
0.000000001
 73
     0
 74
     0
 77
     1
 78
    12
140
2.0
147
0.5
173
     1
271
     2
272
     3
284
    12
340
44
  0
DIMSTYLE
105
1BB
102
{ACAD_REACTORS
330
1BA
102
}
330
A
100
AcDbSymbolTableRecord
100
AcDbDimStyleTableRecord
  2
SLDDIMSTYLE1
 70
     0
 41
3.0
 44
0.0
 45
0.000000001
 73
     0
 74
     0
 77
     1
 78
    12
140
2.0
147
0.5
173
     1
271
     2
272
     2
284
    12
340
44
  0
DIMSTYLE
105
1C6
102
{ACAD_REACTORS
330
1C5
102
}
330
A
100
AcDbSymbolTableRecord
100
AcDbDimStyleTableRecord
  2
SLDDIMSTYLE2
 70
     0
 41
3.0
 44
0.0
 45
0.000000001
 73
     0
 74
     0
 77
     1
 78
    12
140
2.0
147
0.5
173
     1
271
     2
272
     2
284
    12
340
44
  0
DIMSTYLE
105
1D3
102
{ACAD_REACTORS
330
1D2
102
}
330
A
100
AcDbSymbolTableRecord
100
AcDbDimStyleTableRecord
  2
SLDDIMSTYLE3
 70
     0
 41
3.0
 44
0.0
 45
0.000000001
 73
     0
 74
     0
 77
     1
 78
    12
140
2.0
147
0.5
173
     1
271
     2
272
     3
284
    12
340
44
  0
ENDTAB
  0
TABLE
  2
BLOCK_RECORD
  5
1
330
0
100
AcDbSymbolTable
 70
     9
  0
BLOCK_RECORD
  5
1F
330
1
100
AcDbSymbolTableRecord
100
AcDbBlockTableRecord
  2
*Model_Space
340
22
  0
BLOCK_RECORD
  5
1B
330
1
100
AcDbSymbolTableRecord
100
AcDbBlockTableRecord
  2
*Paper_Space
340
1E
  0
BLOCK_RECORD
  5
23
330
1
100
AcDbSymbolTableRecord
100
AcDbBlockTableRecord
  2
*Paper_Space0
340
26
  0
BLOCK_RECORD
  5
1AF
330
1
100
AcDbSymbolTableRecord
100
AcDbBlockTableRecord
  2
*D1
340
0
  0
BLOCK_RECORD
  5
1BC
330
1
100
AcDbSymbolTableRecord
100
AcDbBlockTableRecord
  2
*D2
340
0
  0
BLOCK_RECORD
  5
1C7
330
1
100
AcDbSymbolTableRecord
100
AcDbBlockTableRecord
  2
*D3
340
0
  0
BLOCK_RECORD
  5
1D4
330
1
100
AcDbSymbolTableRecord
100
AcDbBlockTableRecord
  2
*D4
340
0
  0
BLOCK_RECORD
  5
1DF
330
1
100
AcDbSymbolTableRecord
100
AcDbBlockTableRecord
  2
*D5
340
0
  0
BLOCK_RECORD
  5
1E9
330
1
100
AcDbSymbolTableRecord
100
AcDbBlockTableRecord
  2
*D6
340
0
  0
BLOCK_RECORD
  5
1F3
330
1
100
AcDbSymbolTableRecord
100
AcDbBlockTableRecord
  2
*D7
340
0
  0
BLOCK_RECORD
  5
1FD
330
1
100
AcDbSymbolTableRecord
100
AcDbBlockTableRecord
  2
*D8
340
0
  0
ENDTAB
  0
ENDSEC
  0
SECTION
  2
BLOCKS
  0
BLOCK
  5
20
330
1F
100
AcDbEntity
  8
0
100
AcDbBlockBegin
  2
*Model_Space
 70
     0
 10
0.0
 20
0.0
 30
0.0
  3
*Model_Space
  1

  0
ENDBLK
  5
21
330
1F
100
AcDbEntity
  8
0
100
AcDbBlockEnd
  0
BLOCK
  5
1C
330
1B
100
AcDbEntity
 67
     1
  8
0
100
AcDbBlockBegin
  2
*Paper_Space
 70
     0
 10
0.0
 20
0.0
 30
0.0
  3
*Paper_Space
  1

  0
ENDBLK
  5
1D
330
1B
100
AcDbEntity
 67
     1
  8
0
100
AcDbBlockEnd
  0
BLOCK
  5
24
330
23
100
AcDbEntity
  8
0
100
AcDbBlockBegin
  2
*Paper_Space0
 70
     0
 10
0.0
 20
0.0
 30
0.0
  3
*Paper_Space0
  1

  0
ENDBLK
  5
25
330
23
100
AcDbEntity
  8
0
100
AcDbBlockEnd
  0
BLOCK
  5
1B0
330
1AF
100
AcDbEntity
  8
0
100
AcDbBlockBegin
  2
*D1
 70
     1
 10
0.0
 20
0.0
 30
0.0
  3
*D1
  1

  0
SOLID
  5
1B2
330
1AF
100
AcDbEntity
  8
VERMASSUNG
100
AcDbTrace
 10
38.7312026002
 20
162.0781148429
 30
0.0
 11
38.2812026002
 21
159.0781148429
 31
0.0
 12
39.1812026002
 22
159.0781148429
 32
0.0
 13
39.1812026002
 23
159.0781148429
 33
0.0
  0
SOLID
  5
1B3
330
1AF
100
AcDbEntity
  8
VERMASSUNG
100
AcDbTrace
 10
38.7312026002
 20
62.0781148429
 30
0.0
 11
39.1812026002
 21
65.0781148429
 31
0.0
 12
38.2812026002
 22
65.0781148429
 32
0.0
 13
38.2812026002
 23
65.0781148429
 33
0.0
  0
LINE
  5
1B4
330
1AF
100
AcDbEntity
  8
VERMASSUNG
100
AcDbLine
 10
93.7882204812
 20
162.0781148429
 30
0.0
 11
37.7312026002
 21
162.0781148429
 31
0.0
  0
LINE
  5
1B5
330
1AF
100
AcDbEntity
  8
VERMASSUNG
100
AcDbLine
 10
93.7882204812
 20
62.0781148429
 30
0.0
 11
37.7312026002
 21
62.0781148429
 31
0.0
  0
LINE
  5
1B6
330
1AF
100
AcDbEntity
  8
VERMASSUNG
100
AcDbLine
 10
38.7312026002
 20
162.0781148429
 30
0.0
 11
38.7312026002
 21
62.0781148429
 31
0.0
  0
MTEXT
  5
1B7
330
1AF
100
AcDbEntity
  8
VERMASSUNG
100
AcDbMText
 10
35.9530671112
 20
103.8744637053
 30
0.0
 40
2.0
 41
0.0
 71
     1
 72
     1
  1
HSK A 
  7
SLDTEXTSTYLE0
 11
-7.044195017643634E-15
 21
1.0
 31
0.0
 73
     1
 44
1.0
  0
MTEXT
  5
1B8
330
1AF
100
AcDbEntity
  8
VERMASSUNG
100
AcDbMText
 10
36.1530671207
 20
112.8744642492
 30
0.0
 40
2.0
 41
0.0
 71
     1
 72
     1
  1
%%c
  7
SLDTEXTSTYLE0
 11
-7.044195017643634E-15
 21
1.0
 31
0.0
 73
     1
 44
1.0
  0
MTEXT
  5
1B9
330
1AF
100
AcDbEntity
  8
VERMASSUNG
100
AcDbMText
 10
36.1530672371
 20
116.4827908992
 30
0.0
 40
2.0
 41
0.0
 71
     1
 72
     1
  1
100
  7
SLDTEXTSTYLE0
 11
-7.044195017643634E-15
 21
1.0
 31
0.0
 73
     1
 44
1.0
  0
ENDBLK
  5
1B1
330
1AF
100
AcDbEntity
  8
0
100
AcDbBlockEnd
  0
BLOCK
  5
1BD
330
1BC
100
AcDbEntity
  8
0
100
AcDbBlockBegin
  2
*D2
 70
     1
 10
0.0
 20
0.0
 30
0.0
  3
*D2
  1

  0
SOLID
  5
1BF
330
1BC
100
AcDbEntity
  8
VERMASSUNG
100
AcDbTrace
 10
201.7882204812
 20
160.0781148429
 30
0.0
 11
204.7882204812
 21
159.6281148429
 31
0.0
 12
204.7882204812
 22
160.5281148429
 32
0.0
 13
204.7882204812
 23
160.5281148429
 33
0.0
  0
SOLID
  5
1C0
330
1BC
100
AcDbEntity
  8
VERMASSUNG
100
AcDbTrace
 10
253.2882204812
 20
160.0781148429
 30
0.0
 11
250.2882204812
 21
160.5281148429
 31
0.0
 12
250.2882204812
 22
159.6281148429
 32
0.0
 13
250.2882204812
 23
159.6281148429
 33
0.0
  0
LINE
  5
1C1
330
1BC
100
AcDbEntity
  8
VERMASSUNG
100
AcDbLine
 10
201.7882204812
 20
121.9781148429
 30
0.0
 11
201.7882204812
 21
161.0781148429
 31
0.0
  0
LINE
  5
1C2
330
1BC
100
AcDbEntity
  8
VERMASSUNG
100
AcDbLine
 10
253.2882204812
 20
126.7293338596
 30
0.0
 11
253.2882204812
 21
161.0781148429
 31
0.0
  0
LINE
  5
1C3
330
1BC
100
AcDbEntity
  8
VERMASSUNG
100
AcDbLine
 10
201.7882204812
 20
160.0781148429
 30
0.0
 11
253.2882204812
 21
160.0781148429
 31
0.0
  0
MTEXT
  5
1C4
330
1BC
100
AcDbEntity
  8
VERMASSUNG
100
AcDbMText
 10
225.3393634931
 20
162.656250206
 30
0.0
 40
2.0
 41
0.0
 71
     1
 72
     1
  1
51.5
  7
SLDTEXTSTYLE0
 73
     1
 44
1.0
  0
ENDBLK
  5
1BE
330
1BC
100
AcDbEntity
  8
0
100
AcDbBlockEnd
  0
BLOCK
  5
1C8
330
1C7
100
AcDbEntity
  8
0
100
AcDbBlockBegin
  2
*D3
 70
     1
 10
0.0
 20
0.0
 30
0.0
  3
*D3
  1

  0
SOLID
  5
1CA
330
1C7
100
AcDbEntity
  8
VERMASSUNG
100
AcDbTrace
 10
260.5894907909
 20
102.0781148429
 30
0.0
 11
261.0394907909
 21
105.0781148429
 31
0.0
 12
260.1394907909
 22
105.0781148429
 32
0.0
 13
260.1394907909
 23
105.0781148429
 33
0.0
  0
SOLID
  5
1CB
330
1C7
100
AcDbEntity
  8
VERMASSUNG
100
AcDbTrace
 10
260.5894907909
 20
122.0781148429
 30
0.0
 11
260.1394907909
 21
119.0781148429
 31
0.0
 12
261.0394907909
 22
119.0781148429
 32
0.0
 13
261.0394907909
 23
119.0781148429
 33
0.0
  0
LINE
  5
1CC
330
1C7
100
AcDbEntity
  8
VERMASSUNG
100
AcDbLine
 10
249.7882204812
 20
102.0781148429
 30
0.0
 11
261.5894907909
 21
102.0781148429
 31
0.0
  0
LINE
  5
1CD
330
1C7
100
AcDbEntity
  8
VERMASSUNG
100
AcDbLine
 10
249.7882204812
 20
122.0781148429
 30
0.0
 11
261.5894907909
 21
122.0781148429
 31
0.0
  0
LINE
  5
1CE
330
1C7
100
AcDbEntity
  8
VERMASSUNG
100
AcDbLine
 10
260.5894907909
 20
102.0781148429
 30
0.0
 11
260.5894907909
 21
122.0781148429
 31
0.0
  0
MTEXT
  5
1CF
330
1C7
100
AcDbEntity
  8
VERMASSUNG
100
AcDbMText
 10
258.0113553114
 20
108.2744983749
 30
0.0
 40
2.0
 41
0.0
 71
     1
 72
     1
  1
%%c
  7
SLDTEXTSTYLE0
 11
6.123233995736766E-17
 21
1.0
 31
0.0
 73
     1
 44
1.0
  0
MTEXT
  5
1D0
330
1C7
100
AcDbEntity
  8
VERMASSUNG
100
AcDbMText
 10
258.0113554278
 20
111.883176598
 30
0.0
 40
2.0
 41
0.0
 71
     1
 72
     1
  1
20
  7
SLDTEXTSTYLE0
 11
6.123233995736766E-17
 21
1.0
 31
0.0
 73
     1
 44
1.0
  0
MTEXT
  5
1D1
330
1C7
100
AcDbEntity
  8
VERMASSUNG
100
AcDbMText
 10
258.0113554278
 20
114.6819328277
 30
0.0
 40
2.0
 41
0.0
 71
     1
 72
     1
  1
 
  7
SLDTEXTSTYLE0
 11
6.123233995736766E-17
 21
1.0
 31
0.0
 73
     1
 44
1.0
  0
ENDBLK
  5
1C9
330
1C7
100
AcDbEntity
  8
0
100
AcDbBlockEnd
  0
BLOCK
  5
1D5
330
1D4
100
AcDbEntity
  8
0
100
AcDbBlockBegin
  2
*D4
 70
     1
 10
0.0
 20
0.0
 30
0.0
  3
*D4
  1

  0
SOLID
  5
1D7
330
1D4
100
AcDbEntity
  8
VERMASSUNG
100
AcDbTrace
 10
266.5894907909
 20
95.5781148429
 30
0.0
 11
267.0394907909
 21
98.5781148429
 31
0.0
 12
266.1394907909
 22
98.5781148429
 32
0.0
 13
266.1394907909
 23
98.5781148429
 33
0.0
  0
SOLID
  5
1D8
330
1D4
100
AcDbEntity
  8
VERMASSUNG
100
AcDbTrace
 10
266.5894907909
 20
128.5781148429
 30
0.0
 11
266.1394907909
 21
125.5781148429
 31
0.0
 12
267.0394907909
 22
125.5781148429
 32
0.0
 13
267.0394907909
 23
125.5781148429
 33
0.0
  0
LINE
  5
1D9
330
1D4
100
AcDbEntity
  8
VERMASSUNG
100
AcDbLine
 10
253.2882204812
 20
95.5781148429
 30
0.0
 11
267.5894907909
 21
95.5781148429
 31
0.0
  0
LINE
  5
1DA
330
1D4
100
AcDbEntity
  8
VERMASSUNG
100
AcDbLine
 10
253.2882204812
 20
128.5781148429
 30
0.0
 11
267.5894907909
 21
128.5781148429
 31
0.0
  0
LINE
  5
1DB
330
1D4
100
AcDbEntity
  8
VERMASSUNG
100
AcDbLine
 10
266.5894907909
 20
95.5781148429
 30
0.0
 11
266.5894907909
 21
128.5781148429
 31
0.0
  0
MTEXT
  5
1DC
330
1D4
100
AcDbEntity
  8
VERMASSUNG
100
AcDbMText
 10
264.0113553114
 20
108.8743976165
 30
0.0
 40
2.0
 41
0.0
 71
     1
 72
     1
  1
%%c
  7
SLDTEXTSTYLE0
 11
6.123233995736766E-17
 21
1.0
 31
0.0
 73
     1
 44
1.0
  0
MTEXT
  5
1DD
330
1D4
100
AcDbEntity
  8
VERMASSUNG
100
AcDbMText
 10
264.0113554278
 20
112.4830758397
 30
0.0
 40
2.0
 41
0.0
 71
     1
 72
     1
  1
33
  7
SLDTEXTSTYLE0
 11
6.123233995736766E-17
 21
1.0
 31
0.0
 73
     1
 44
1.0
  0
ENDBLK
  5
1D6
330
1D4
100
AcDbEntity
  8
0
100
AcDbBlockEnd
  0
BLOCK
  5
1E0
330
1DF
100
AcDbEntity
  8
0
100
AcDbBlockBegin
  2
*D5
 70
     1
 10
0.0
 20
0.0
 30
0.0
  3
*D5
  1

  0
SOLID
  5
1E2
330
1DF
100
AcDbEntity
  8
VERMASSUNG
100
AcDbTrace
 10
93.2882204812
 20
172.0781148429
 30
0.0
 11
96.2882204812
 21
171.6281148429
 31
0.0
 12
96.2882204812
 22
172.5281148429
 32
0.0
 13
96.2882204812
 23
172.5281148429
 33
0.0
  0
SOLID
  5
1E3
330
1DF
100
AcDbEntity
  8
VERMASSUNG
100
AcDbTrace
 10
253.2882204812
 20
172.0781148429
 30
0.0
 11
250.2882204812
 21
172.5281148429
 31
0.0
 12
250.2882204812
 22
171.6281148429
 32
0.0
 13
250.2882204812
 23
171.6281148429
 33
0.0
  0
LINE
  5
1E4
330
1DF
100
AcDbEntity
  8
VERMASSUNG
100
AcDbLine
 10
93.2882204812
 20
161.5781148429
 30
0.0
 11
93.2882204812
 21
173.0781148429
 31
0.0
  0
LINE
  5
1E5
330
1DF
100
AcDbEntity
  8
VERMASSUNG
100
AcDbLine
 10
253.2882204812
 20
126.7293338596
 30
0.0
 11
253.2882204812
 21
173.0781148429
 31
0.0
  0
LINE
  5
1E6
330
1DF
100
AcDbEntity
  8
VERMASSUNG
100
AcDbLine
 10
93.2882204812
 20
172.0781148429
 30
0.0
 11
253.2882204812
 21
172.0781148429
 31
0.0
  0
MTEXT
  5
1E7
330
1DF
100
AcDbEntity
  8
VERMASSUNG
100
AcDbMText
 10
171.3887329406
 20
174.656250206
 30
0.0
 40
2.0
 41
0.0
 71
     1
 72
     1
  1
160
  7
SLDTEXTSTYLE0
 73
     1
 44
1.0
  0
ENDBLK
  5
1E1
330
1DF
100
AcDbEntity
  8
0
100
AcDbBlockEnd
  0
BLOCK
  5
1EA
330
1E9
100
AcDbEntity
  8
0
100
AcDbBlockBegin
  2
*D6
 70
     1
 10
0.0
 20
0.0
 30
0.0
  3
*D6
  1

  0
SOLID
  5
1EC
330
1E9
100
AcDbEntity
  8
VERMASSUNG
100
AcDbTrace
 10
122.2382204812
 20
166.0781148429
 30
0.0
 11
125.2382204812
 21
165.6281148429
 31
0.0
 12
125.2382204812
 22
166.5281148429
 32
0.0
 13
125.2382204812
 23
166.5281148429
 33
0.0
  0
SOLID
  5
1ED
330
1E9
100
AcDbEntity
  8
VERMASSUNG
100
AcDbTrace
 10
253.2882204812
 20
166.0781148429
 30
0.0
 11
250.2882204812
 21
166.5281148429
 31
0.0
 12
250.2882204812
 22
165.6281148429
 32
0.0
 13
250.2882204812
 23
165.6281148429
 33
0.0
  0
LINE
  5
1EE
330
1E9
100
AcDbEntity
  8
VERMASSUNG
100
AcDbLine
 10
122.2382204812
 20
160.0468546637
 30
0.0
 11
122.2382204812
 21
167.0781148429
 31
0.0
  0
LINE
  5
1EF
330
1E9
100
AcDbEntity
  8
VERMASSUNG
100
AcDbLine
 10
253.2882204812
 20
126.7293338596
 30
0.0
 11
253.2882204812
 21
167.0781148429
 31
0.0
  0
LINE
  5
1F0
330
1E9
100
AcDbEntity
  8
VERMASSUNG
100
AcDbLine
 10
122.2382204812
 20
166.0781148429
 30
0.0
 11
253.2882204812
 21
166.0781148429
 31
0.0
  0
MTEXT
  5
1F1
330
1E9
100
AcDbEntity
  8
VERMASSUNG
100
AcDbMText
 10
184.3634046632
 20
168.656250206
 30
0.0
 40
2.0
 41
0.0
 71
     1
 72
     1
  1
131.05
  7
SLDTEXTSTYLE0
 73
     1
 44
1.0
  0
ENDBLK
  5
1EB
330
1E9
100
AcDbEntity
  8
0
100
AcDbBlockEnd
  0
BLOCK
  5
1F4
330
1F3
100
AcDbEntity
  8
0
100
AcDbBlockBegin
  2
*D7
 70
     1
 10
0.0
 20
0.0
 30
0.0
  3
*D7
  1

  0
SOLID
  5
1F6
330
1F3
100
AcDbEntity
  8
VERMASSUNG
100
AcDbTrace
 10
43.3882204812
 20
178.0781148429
 30
0.0
 11
46.3882204812
 21
177.6281148429
 31
0.0
 12
46.3882204812
 22
178.5281148429
 32
0.0
 13
46.3882204812
 23
178.5281148429
 33
0.0
  0
SOLID
  5
1F7
330
1F3
100
AcDbEntity
  8
VERMASSUNG
100
AcDbTrace
 10
253.2882204812
 20
178.0781148429
 30
0.0
 11
250.2882204812
 21
178.5281148429
 31
0.0
 12
250.2882204812
 22
177.6281148429
 32
0.0
 13
250.2882204812
 23
177.6281148429
 33
0.0
  0
LINE
  5
1F8
330
1F3
100
AcDbEntity
  8
VERMASSUNG
100
AcDbLine
 10
43.3882204812
 20
142.5807845855
 30
0.0
 11
43.3882204812
 21
179.0781148429
 31
0.0
  0
LINE
  5
1F9
330
1F3
100
AcDbEntity
  8
VERMASSUNG
100
AcDbLine
 10
253.2882204812
 20
126.7293338596
 30
0.0
 11
253.2882204812
 21
179.0781148429
 31
0.0
  0
LINE
  5
1FA
330
1F3
100
AcDbEntity
  8
VERMASSUNG
100
AcDbLine
 10
43.3882204812
 20
178.0781148429
 30
0.0
 11
253.2882204812
 21
178.0781148429
 31
0.0
  0
MTEXT
  5
1FB
330
1F3
100
AcDbEntity
  8
VERMASSUNG
100
AcDbMText
 10
145.2389344574
 20
180.656250206
 30
0.0
 40
2.0
 41
0.0
 71
     1
 72
     1
  1
209.9
  7
SLDTEXTSTYLE0
 73
     1
 44
1.0
  0
ENDBLK
  5
1F5
330
1F3
100
AcDbEntity
  8
0
100
AcDbBlockEnd
  0
BLOCK
  5
1FE
330
1FD
100
AcDbEntity
  8
0
100
AcDbBlockBegin
  2
*D8
 70
     1
 10
0.0
 20
0.0
 30
0.0
  3
*D8
  1

  0
SOLID
  5
200
330
1FD
100
AcDbEntity
  8
VERMASSUNG
100
AcDbTrace
 10
272.5894907909
 20
134.0781148429
 30
0.0
 11
272.1394907909
 21
131.0781148429
 31
0.0
 12
273.0394907909
 22
131.0781148429
 32
0.0
 13
273.0394907909
 23
131.0781148429
 33
0.0
  0
SOLID
  5
201
330
1FD
100
AcDbEntity
  8
VERMASSUNG
100
AcDbTrace
 10
272.5894907909
 20
90.0781148429
 30
0.0
 11
273.0394907909
 21
93.0781148429
 31
0.0
 12
272.1394907909
 22
93.0781148429
 32
0.0
 13
272.1394907909
 23
93.0781148429
 33
0.0
  0
LINE
  5
202
330
1FD
100
AcDbEntity
  8
VERMASSUNG
100
AcDbLine
 10
171.2382204812
 20
134.0781148429
 30
0.0
 11
273.5894907909
 21
134.0781148429
 31
0.0
  0
LINE
  5
203
330
1FD
100
AcDbEntity
  8
VERMASSUNG
100
AcDbLine
 10
171.2382204812
 20
90.0781148429
 30
0.0
 11
273.5894907909
 21
90.0781148429
 31
0.0
  0
LINE
  5
204
330
1FD
100
AcDbEntity
  8
VERMASSUNG
100
AcDbLine
 10
272.5894907909
 20
134.0781148429
 30
0.0
 11
272.5894907909
 21
90.0781148429
 31
0.0
  0
MTEXT
  5
205
330
1FD
100
AcDbEntity
  8
VERMASSUNG
100
AcDbMText
 10
270.0113553114
 20
108.6748179848
 30
0.0
 40
2.0
 41
0.0
 71
     1
 72
     1
  1
%%c
  7
SLDTEXTSTYLE0
 11
-7.044195017643634E-15
 21
1.0
 31
0.0
 73
     1
 44
1.0
  0
MTEXT
  5
206
330
1FD
100
AcDbEntity
  8
VERMASSUNG
100
AcDbMText
 10
270.0113554278
 20
112.283496208
 30
0.0
 40
2.0
 41
0.0
 71
     1
 72
     1
  1
44
  7
SLDTEXTSTYLE0
 11
-7.044195017643634E-15
 21
1.0
 31
0.0
 73
     1
 44
1.0
  0
ENDBLK
  5
1FF
330
1FD
100
AcDbEntity
  8
0
100
AcDbBlockEnd
  0
ENDSEC
  0
SECTION
  2
ENTITIES
  0
MTEXT
  5
45
330
1F
100
AcDbEntity
  8
KOPF_DÜNN
100
AcDbMText
 10
13.8892156294
 20
23.8442973028
 30
0.0
 40
3.0
 41
0.0
 71
     1
 72
     1
  1
HA0.S20.K21.160
  7
SLDTEXTSTYLE0
 73
     1
 44
1.0
  0
MTEXT
  5
46
330
1F
100
AcDbEntity
  8
VERMASSUNG
100
AcDbMText
 10
13.9329988022
 20
28.8834360957
 30
0.0
 40
3.0
 41
0.0
 71
     1
 72
     1
  1
Schrumpffutter_Heat shrink chuck
  7
SLDTEXTSTYLE0
 73
     1
 44
1.0
  0
MTEXT
  5
47
330
1F
100
AcDbEntity
  8
VERMASSUNG
100
AcDbMText
 10
98.8601118557
 20
13.8365368179
 30
0.0
 40
2.0
 41
0.0
 71
     1
 72
     1
  1
Datum: 02.05.2011
  7
SLDTEXTSTYLE0
 73
     1
 44
1.0
  0
MTEXT
  5
49
330
1F
100
AcDbEntity
  8
VERMASSUNG
100
AcDbMText
 10
13.933048693
 20
18.0482802738
 30
0.0
 40
2.0
 41
0.0
 71
     1
 72
     1
  1
DIN 69 893 HSK A 100
  7
SLDTEXTSTYLE1
 73
     1
 44
1.0
  0
MTEXT
  5
4A
330
1F
100
AcDbEntity
  8
VERMASSUNG
100
AcDbMText
 10
13.9808475933
 20
13.9090973692
 30
0.0
 40
2.0
 41
0.0
 71
     1
 72
     1
  1
Gewicht: 3211g
  7
SLDTEXTSTYLE0
 73
     1
 44
1.0
  0
LINE
  5
4B
330
1F
100
AcDbEntity
  8
0
  6
Continuous
 62
     7
370
    15
100
AcDbLine
 10
93.7882204812
 20
62.0781148429
 30
0.0
 11
98.2382204812
 21
62.0781148429
 31
0.0
  0
LINE
  5
4C
330
1F
100
AcDbEntity
  8
0
  6
Continuous
 62
     7
370
    15
100
AcDbLine
 10
98.2535984527
 20
162.0781148429
 30
0.0
 11
93.7882204812
 21
162.0781148429
 31
0.0
  0
ARC
  5
4D
330
1F
100
AcDbEntity
  8
0
  6
Continuous
 62
     7
370
    15
100
AcDbCircle
 10
93.7882204812
 20
62.5781148429
 30
0.0
 40
0.5
100
AcDbArc
 50
180.0
 51
270.0
  0
ARC
  5
4E
330
1F
100
AcDbEntity
  8
0
  6
Continuous
 62
     7
370
    15
100
AcDbCircle
 10
93.7882204812
 20
161.5781148429
 30
0.0
 40
0.5
100
AcDbArc
 50
90.0
 51
180.0
  0
ARC
  5
4F
330
1F
100
AcDbEntity
  8
0
  6
Continuous
 62
     7
370
    15
100
AcDbCircle
 10
92.3912835628
 20
73.4496295185
 30
0.0
 40
0.9962338214386983
100
AcDbArc
 50
25.7988228126
 51
90.0
  0
ARC
  5
50
330
1F
100
AcDbEntity
  8
0
  6
Continuous
 62
     7
370
    15
100
AcDbCircle
 10
92.3912835628
 20
150.7066001673
 30
0.0
 40
0.9962338214387044
100
AcDbArc
 50
270.0
 51
334.2011771874
  0
LINE
  5
51
330
1F
100
AcDbEntity
  8
0
  6
Continuous
 62
     7
370
    15
100
AcDbLine
 10
90.7882204812
 20
74.1958633399
 30
0.0
 11
91.5940666356
 21
74.4117891662
 31
0.0
  0
LINE
  5
52
330
1F
100
AcDbEntity
  8
0
  6
Continuous
 62
     7
370
    15
100
AcDbLine
 10
91.5940666356
 20
149.7444405196
 30
0.0
 11
90.7882204812
 21
149.9603663459
 31
0.0
  0
LINE
  5
53
330
1F
100
AcDbEntity
  8
0
  6
Continuous
 62
     7
370
    15
100
AcDbLine
 10
71.8075415626
 20
149.0094305283
 30
0.0
 11
53.4882204812
 21
148.091628871
 31
0.0
  0
LINE
  5
54
330
1F
100
AcDbEntity
  8
0
  6
Continuous
 62
     7
370
    15
100
AcDbLine
 10
90.7882204812
 20
149.9603663459
 30
0.0
 11
84.7201813267
 21
149.6563563682
 31
0.0
  0
LINE
  5
55
330
1F
100
AcDbEntity
  8
0
  6
Continuous
 62
     7
370
    15
100
AcDbLine
 10
84.7203046032
 20
74.4998671414
 30
0.0
 11
90.7882204812
 21
74.1958633399
 31
0.0
  0
LINE
  5
56
330
1F
100
AcDbEntity
  8
0
  6
Continuous
 62
     7
370
    15
100
AcDbLine
 10
58.4882204812
 20
75.8140998128
 30
0.0
 11
71.8081716351
 21
75.1467675907
 31
0.0
  0
ARC
  5
57
330
1F
100
AcDbEntity
  8
0
  6
Continuous
 62
     7
370
    15
100
AcDbCircle
 10
91.8528856807
 20
73.4458633399
 30
0.0
 40
1.0
100
AcDbArc
 50
90.0
 51
105.0
  0
ARC
  5
58
330
1F
100
AcDbEntity
  8
0
  6
Continuous
 62
     7
370
    15
100
AcDbCircle
 10
91.8528856807
 20
150.7103663459
 30
0.0
 40
1.0
100
AcDbArc
 50
255.0
 51
270.0
  0
LINE
  5
59
330
1F
100
AcDbEntity
  8
0
  6
Continuous
 62
     7
370
    15
100
AcDbLine
 10
91.8528856807
 20
74.4458633399
 30
0.0
 11
92.3912835628
 21
74.4458633399
 31
0.0
  0
LINE
  5
5A
330
1F
100
AcDbEntity
  8
0
  6
Continuous
 62
     7
370
    15
100
AcDbLine
 10
92.3912835628
 20
149.7103663459
 30
0.0
 11
91.8528856807
 21
149.7103663459
 31
0.0
  0
ARC
  5
5B
330
1F
100
AcDbEntity
  8
0
  6
Continuous
 62
     7
370
    15
100
AcDbCircle
 10
127.2382204812
 20
81.1604951368
 30
0.0
 40
4.999999999999986
100
AcDbArc
 50
106.5116637356
 51
180.0
  0
ARC
  5
5C
330
1F
100
AcDbEntity
  8
0
  6
Continuous
 62
     7
370
    15
100
AcDbCircle
 10
127.2382204812
 20
142.995734549
 30
0.0
 40
4.999999999999986
100
AcDbArc
 50
180.0
 51
253.4883362644
  0
ARC
  5
5D
330
1F
100
AcDbEntity
  8
0
  6
Continuous
 62
     7
370
    15
100
AcDbCircle
 10
154.2382204812
 20
-9.9218851571
 30
0.0
 40
100.0
100
AcDbArc
 50
90.0
 51
106.5116637356
  0
ARC
  5
5E
330
1F
100
AcDbEntity
  8
0
  6
Continuous
 62
     7
370
    15
100
AcDbCircle
 10
154.2382204812
 20
234.0781148429
 30
0.0
 40
100.0
100
AcDbArc
 50
253.4883362644
 51
270.0
  0
LINE
  5
5F
330
1F
100
AcDbEntity
  8
0
  6
Continuous
 62
     7
370
    15
100
AcDbLine
 10
165.7370367522
 20
90.0781148429
 30
0.0
 11
171.2382204812
 21
90.0781148429
 31
0.0
  0
LINE
  5
60
330
1F
100
AcDbEntity
  8
0
  6
Continuous
 62
     7
370
    15
100
AcDbLine
 10
154.2382204812
 20
90.0781148429
 30
0.0
 11
158.74884027
 21
90.0781148429
 31
0.0
  0
LINE
  5
61
330
1F
100
AcDbEntity
  8
0
  6
Continuous
 62
     7
370
    15
100
AcDbLine
 10
158.7386852725
 20
134.0781148429
 30
0.0
 11
154.2382204812
 21
134.0781148429
 31
0.0
  0
LINE
  5
62
330
1F
100
AcDbEntity
  8
0
  6
Continuous
 62
     7
370
    15
100
AcDbLine
 10
171.2382204812
 20
134.0781148429
 30
0.0
 11
165.7281743323
 21
134.0781148429
 31
0.0
  0
ARC
  5
63
330
1F
100
AcDbEntity
  8
0
  6
Continuous
 62
     7
370
    15
100
AcDbCircle
 10
202.1857567321
 20
-228.4218851571
 30
0.0
 40
320.0000000000001
100
AcDbArc
 50
90.0
 51
95.5498093322
  0
ARC
  5
64
330
1F
100
AcDbEntity
  8
0
  6
Continuous
 62
     7
370
    15
100
AcDbCircle
 10
202.1857567321
 20
452.5781148429
 30
0.0
 40
320.0000000000001
100
AcDbArc
 50
264.4501906678
 51
270.0
  0
LINE
  5
65
330
1F
100
AcDbEntity
  8
0
  6
Continuous
 62
     7
370
    15
100
AcDbLine
 10
202.1857567321
 20
91.5781148429
 30
0.0
 11
202.4634015365
 21
91.5781148429
 31
0.0
  0
LINE
  5
66
330
1F
100
AcDbEntity
  8
0
  6
Continuous
 62
     7
370
    15
100
AcDbLine
 10
202.4634015365
 20
132.5781148429
 30
0.0
 11
202.1857567321
 21
132.5781148429
 31
0.0
  0
LINE
  5
67
330
1F
100
AcDbEntity
  8
0
  6
Continuous
 62
     7
370
    15
100
AcDbLine
 10
202.4634015365
 20
91.5781148429
 30
0.0
 11
251.4451386727
 21
95.4330611588
 31
0.0
  0
LINE
  5
68
330
1F
100
AcDbEntity
  8
0
  6
Continuous
 62
     7
370
    15
100
AcDbLine
 10
251.4451386727
 20
128.7231685271
 30
0.0
 11
202.4634015365
 21
132.5781148429
 31
0.0
  0
LINE
  5
69
330
1F
100
AcDbEntity
  8
0
  6
Continuous
 62
     7
370
    15
100
AcDbLine
 10
45.0382204812
 20
79.8281148429
 30
0.0
 11
56.5882204812
 21
79.8281148429
 31
0.0
  0
ARC
  5
6A
330
1F
100
AcDbEntity
  8
0
  6
Continuous
 62
     7
370
    15
100
AcDbCircle
 10
251.2882204812
 20
97.4268958262
 30
0.0
 40
2.0
100
AcDbArc
 50
274.5
 51
0.0
  0
ARC
  5
6B
330
1F
100
AcDbEntity
  8
0
  6
Continuous
 62
     7
370
    15
100
AcDbCircle
 10
251.2882204812
 20
126.7293338596
 30
0.0
 40
2.0
100
AcDbArc
 50
0.0
 51
85.5
  0
ARC
  5
6C
330
1F
100
AcDbEntity
  8
0
  6
Continuous
 62
     7
370
    15
100
AcDbCircle
 10
56.5882204812
 20
77.9281148429
 30
0.0
 40
1.900000000000006
100
AcDbArc
 50
35.6630613694
 51
90.0
  0
ARC
  5
6D
330
1F
100
AcDbEntity
  8
0
  6
Continuous
 62
     7
370
    15
100
AcDbCircle
 10
51.5882204812
 20
146.2281148429
 30
0.0
 40
1.900000000000017
100
AcDbArc
 50
270.0
 51
310.9212832533
  0
LINE
  5
6E
330
1F
100
AcDbEntity
  8
0
  6
Continuous
 62
     7
370
    15
100
AcDbLine
 10
45.0382204812
 20
144.3281148429
 30
0.0
 11
43.4450041193
 21
142.7348984809
 31
0.0
  0
LINE
  5
6F
330
1F
100
AcDbEntity
  8
0
  6
Continuous
 62
     7
370
    15
100
AcDbLine
 10
43.4457433817
 20
81.4205919425
 30
0.0
 11
45.0382204812
 21
79.8281148429
 31
0.0
  0
LINE
  5
70
330
1F
100
AcDbEntity
  8
0
  6
Continuous
 62
     7
370
    15
100
AcDbLine
 10
51.5882204812
 20
144.3281148429
 30
0.0
 11
45.0382204812
 21
144.3281148429
 31
0.0
  0
LINE
  5
71
330
1F
100
AcDbEntity
  8
0
  6
Continuous
 62
     7
370
    15
100
AcDbLine
 10
253.3066529647
 20
126.2978315444
 30
0.0
 11
253.2882204812
 21
126.3328659329
 31
0.0
  0
LINE
  5
72
330
1F
100
AcDbEntity
  8
0
  6
Continuous
 62
     7
370
    15
100
AcDbLine
 10
253.2882204812
 20
97.7137465826
 30
0.0
 11
253.3655426883
 21
97.860711925
 31
0.0
  0
SPLINE
  5
73
330
1F
100
AcDbEntity
  8
0
  6
Continuous
 62
     7
370
    15
100
AcDbSpline
210
0.0
220
0.0
230
1.0
 70
     8
 71
     3
 72
    80
 73
    76
 74
     0
 42
0.00000001
 43
0.00000001
 40
-0.0312499999999993
 40
-0.0312499999999993
 40
0.0
 40
0.0
 40
0.0312500000000006
 40
0.0312500000000006
 40
0.0468750000000008
 40
0.0468750000000008
 40
0.062500000000001
 40
0.062500000000001
 40
0.0937500000000012
 40
0.0937500000000012
 40
0.1250000000000014
 40
0.1250000000000014
 40
0.1562500000000016
 40
0.1562500000000016
 40
0.1875000000000017
 40
0.1875000000000017
 40
0.2187500000000019
 40
0.2187500000000019
 40
0.2500000000000021
 40
0.2500000000000021
 40
0.2812500000000023
 40
0.2812500000000023
 40
0.3125000000000025
 40
0.3125000000000025
 40
0.3281250000000026
 40
0.3281250000000026
 40
0.3437500000000028
 40
0.3437500000000028
 40
0.3750000000000032
 40
0.3750000000000032
 40
0.4062500000000037
 40
0.4062500000000037
 40
0.4218750000000038
 40
0.4218750000000038
 40
0.4375000000000038
 40
0.4375000000000038
 40
0.4687500000000037
 40
0.4687500000000037
 40
0.5000000000000036
 40
0.5000000000000036
 40
0.5312500000000036
 40
0.5312500000000036
 40
0.5625000000000034
 40
0.5625000000000034
 40
0.5937500000000034
 40
0.5937500000000034
 40
0.6250000000000034
 40
0.6250000000000034
 40
0.6562500000000033
 40
0.6562500000000033
 40
0.6875000000000033
 40
0.6875000000000033
 40
0.7031250000000033
 40
0.7031250000000033
 40
0.7187500000000033
 40
0.7187500000000033
 40
0.7500000000000036
 40
0.7500000000000036
 40
0.7812500000000039
 40
0.7812500000000039
 40
0.7968750000000038
 40
0.7968750000000038
 40
0.8125000000000037
 40
0.8125000000000037
 40
0.8437500000000031
 40
0.8437500000000031
 40
0.8750000000000024
 40
0.8750000000000024
 40
0.9062500000000019
 40
0.9062500000000019
 40
0.9375000000000013
 40
0.9375000000000013
 40
0.9687500000000007
 40
0.9687500000000007
 40
1.0
 40
1.0
 40
1.031250000000001
 40
1.031250000000001
 10
101.9576751684321
 20
155.4927443065349
 30
0.0
 10
102.6187657939847
 20
155.4927443065349
 30
0.0
 10
102.9437459232363
 20
155.5089525379171
 30
0.0
 10
103.4232193344827
 20
155.5563171699366
 30
0.0
 10
103.5817011523235
 20
155.5759713818273
 30
0.0
 10
103.8959206848278
 20
155.6230825380199
 30
0.0
 10
104.0520409685082
 20
155.6506638575146
 30
0.0
 10
104.5060949974648
 20
155.7431996443084
 30
0.0
 10
104.7931983804046
 20
155.8182700779049
 30
0.0
 10
105.3365529364316
 20
155.9935083865155
 30
0.0
 10
105.5936565476372
 20
156.0945096843538
 30
0.0
 10
106.054562802576
 20
156.3118658828146
 30
0.0
 10
106.261460511791
 20
156.4290302145869
 30
0.0
 10
106.6269858257832
 20
156.6791001388156
 30
0.0
 10
106.7821913479091
 20
156.8100462275745
 30
0.0
 10
107.0316217345088
 20
157.0757811712868
 30
0.0
 10
107.127711690294
 20
157.2125347645978
 30
0.0
 10
107.2562305394876
 20
157.4866003394368
 30
0.0
 10
107.2880414096654
 20
157.6215404299056
 30
0.0
 10
107.2883980594386
 20
157.8870120669744
 30
0.0
 10
107.2559008072416
 20
158.0188365441156
 30
0.0
 10
107.1282753335271
 20
158.268286143736
 30
0.0
 10
107.0338469324752
 20
158.386718835664
 30
0.0
 10
106.8459861124896
 20
158.5555880327581
 30
0.0
 10
106.7751581136864
 20
158.6106740278783
 30
0.0
 10
106.6204362217211
 20
158.7159268563667
 30
0.0
 10
106.5364597515378
 20
158.766262085127
 30
0.0
 10
106.2651360818933
 20
158.9108379176651
 30
0.0
 10
106.058586863291
 20
158.9986995040821
 30
0.0
 10
105.591976723102
 20
159.1584205970816
 30
0.0
 10
105.3396111534765
 20
159.2276588935488
 30
0.0
 10
104.9337098117978
 20
159.3174462827786
 30
0.0
 10
104.7938091943203
 20
159.3450122448649
 30
0.0
 10
104.5045852590734
 20
159.3955030457912
 30
0.0
 10
104.3547458027841
 20
159.4184664846419
 30
0.0
 10
103.9006292331733
 20
159.4790970010607
 30
0.0
 10
103.5889780144365
 20
159.5091710298565
 30
0.0
 10
102.9479815495241
 20
159.5497606171152
 30
0.0
 10
102.6164539215719
 20
159.5600728473312
 30
0.0
 10
101.9636628765004
 20
159.560148414497
 30
0.0
 10
101.6391266714686
 20
159.5502468090293
 30
0.0
 10
100.9938572220522
 20
159.509760278504
 30
0.0
 10
100.6781142158895
 20
159.4792989786193
 30
0.0
 10
100.0762249209058
 20
159.3991483071827
 30
0.0
 10
99.78547569009433
 20
159.3488660753756
 30
0.0
 10
99.23856389840982
 20
159.2281958926027
 30
0.0
 10
98.9867865345729
 20
159.1589720334326
 30
0.0
 10
98.52539854195177
 20
159.0015203057919
 30
0.0
 10
98.31412926235367
 20
158.9121718311182
 30
0.0
 10
97.95082490997748
 20
158.7189239604174
 30
0.0
 10
97.7970182615347
 20
158.614795968538
 30
0.0
 10
97.60839879193729
 20
158.4461715823546
 30
0.0
 10
97.55236830572818
 20
158.3875431806797
 30
0.0
 10
97.45679454399202
 20
158.2680882658535
 30
0.0
 10
97.41703162696702
 20
158.2071684770152
 30
0.0
 10
97.32125987665488
 20
158.0207637508414
 30
0.0
 10
97.28853703752877
 20
157.8916509330463
 30
0.0
 10
97.28790845119968
 20
157.6229940100905
 30
0.0
 10
97.32009459593446
 20
157.4876232693337
 30
0.0
 10
97.41500529779005
 20
157.2840729610977
 30
0.0
 10
97.454472081189
 20
157.2161010370343
 30
0.0
 10
97.54940207990988
 20
157.0800088139034
 30
0.0
 10
97.60515890767326
 20
157.0116587136939
 30
0.0
 10
97.79309902564314
 20
156.8109557006518
 30
0.0
 10
97.94646049535932
 20
156.6815674268391
 30
0.0
 10
98.30872473023967
 20
156.4329019947893
 30
0.0
 10
98.51957320370558
 20
156.3130923524211
 30
0.0
 10
98.98024317402451
 20
156.0955700648484
 30
0.0
 10
99.23161755360833
 20
155.9964849650125
 30
0.0
 10
99.77752544050645
 20
155.8198124910957
 30
0.0
 10
100.0683480151577
 20
155.7437554029617
 30
0.0
 10
100.6696746299377
 20
155.6209104256087
 30
0.0
 10
100.9841932145501
 20
155.5732043005555
 30
0.0
 10
101.63077467067
 20
155.5089557654359
 30
0.0
 10
101.9576751684321
 20
155.4927443065349
 30
0.0
 10
102.6187657939847
 20
155.4927443065349
 30
0.0
  0
LINE
  5
74
330
1F
100
AcDbEntity
  8
0
  6
Continuous
 62
     7
370
    15
100
AcDbLine
 10
98.2382204812
 20
143.4281148429
 30
0.0
 11
110.0261914603
 21
143.4281148429
 31
0.0
  0
LINE
  5
75
330
1F
100
AcDbEntity
  8
0
  6
Continuous
 62
     7
370
    15
100
AcDbLine
 10
110.0261914603
 20
63.3031212499
 30
0.0
 11
110.0261914603
 21
143.4281148429
 31
0.0
  0
LINE
  5
76
330
1F
100
AcDbEntity
  8
0
  6
Continuous
 62
     7
370
    15
100
AcDbLine
 10
110.0261914603
 20
63.3031212499
 30
0.0
 11
108.2382204812
 21
63.3031212499
 31
0.0
  0
SPLINE
  5
77
330
1F
100
AcDbEntity
  8
0
  6
Continuous
 62
     7
370
    15
100
AcDbSpline
210
0.0
220
0.0
230
1.0
 70
     8
 71
     3
 72
    30
 73
    26
 74
     0
 42
0.00000001
 43
0.00000001
 40
0.0
 40
0.0
 40
0.0
 40
0.0
 40
0.1249999999999998
 40
0.1249999999999998
 40
0.1874999999999996
 40
0.1874999999999996
 40
0.2499999999999995
 40
0.2499999999999995
 40
0.3749999999999994
 40
0.3749999999999994
 40
0.4374999999999993
 40
0.4374999999999993
 40
0.4999999999999992
 40
0.4999999999999992
 40
0.6249999999999996
 40
0.6249999999999996
 40
0.6874999999999997
 40
0.6874999999999997
 40
0.7499999999999998
 40
0.7499999999999998
 40
0.8124999999999999
 40
0.8124999999999999
 40
0.8749999999999999
 40
0.8749999999999999
 40
1.0
 40
1.0
 40
1.0
 40
1.0
 10
108.2382204812083
 20
63.30312124987481
 30
0.0
 10
107.5754757873633
 20
63.30312124987481
 30
0.0
 10
106.9242199282476
 20
63.28828117328599
 30
0.0
 10
105.9637693899894
 20
63.24591160905641
 30
0.0
 10
105.6463779467564
 20
63.22843350627718
 30
0.0
 10
105.0172144452015
 20
63.18710521972493
 30
0.0
 10
104.7050662587598
 20
63.16317994626719
 30
0.0
 10
103.7977589569115
 20
63.08437342980029
 30
0.0
 10
103.2243339992703
 20
63.02206740982383
 30
0.0
 10
102.4104571296956
 20
62.91893808958444
 30
0.0
 10
102.1456509331258
 20
62.88275417053796
 30
0.0
 10
101.6387435223114
 20
62.80895938633745
 30
0.0
 10
101.3973493709579
 20
62.77148552756582
 30
0.0
 10
100.7082078988256
 20
62.65877358422605
 30
0.0
 10
100.2951530839614
 20
62.5832374867523
 30
0.0
 10
99.74699826458628
 20
62.4748442297348
 30
0.0
 10
99.5775356572407
 20
62.43977199807154
 30
0.0
 10
99.26951840922533
 20
62.37353653747169
 30
0.0
 10
99.13013838861697
 20
62.34220984071698
 30
0.0
 10
98.88035287599023
 20
62.28380106913605
 30
0.0
 10
98.7699467633363
 20
62.2567178339532
 30
0.0
 10
98.5786889096986
 20
62.20745807933959
 30
0.0
 10
98.4975693914143
 20
62.18519609953196
 30
0.0
 10
98.3034224713059
 20
62.12762919236367
 30
0.0
 10
98.23822048120834
 20
62.10136958757767
 30
0.0
 10
98.23822048120834
 20
62.08811584310366
 30
0.0
  0
LINE
  5
78
330
1F
100
AcDbEntity
  8
0
  6
Continuous
 62
     7
370
    15
100
AcDbLine
 10
98.2382204812
 20
62.0881158431
 30
0.0
 11
98.2382204812
 21
62.0781148429
 31
0.0
  0
SPLINE
  5
79
330
1F
100
AcDbEntity
  8
0
  6
Continuous
 62
     7
370
    15
100
AcDbSpline
210
0.0
220
0.0
230
1.0
 70
     8
 71
     3
 72
    23
 73
    19
 74
     0
 42
0.00000001
 43
0.00000001
 40
0.0
 40
0.0
 40
0.0
 40
0.0
 40
0.0520256687590417
 40
0.1044186119084699
 40
0.1579654762732602
 40
0.2119084390155454
 40
0.2639329008030785
 40
0.3697142245600879
 40
0.4235868577364619
 40
0.4762679679182532
 40
0.5833878371337097
 40
0.6379530306539525
 40
0.6910551819358518
 40
0.7445319929992283
 40
0.7992014233075213
 40
0.8542881036302086
 40
0.9066815619543735
 40
1.0
 40
1.0
 40
1.0
 40
1.0
 10
108.2382204812083
 20
161.0679096985672
 30
0.0
 10
107.9652080840134
 20
161.069231267074
 30
0.0
 10
107.4172559628991
 20
161.0718837336797
 30
0.0
 10
106.5941096054439
 20
161.0933586221073
 30
0.0
 10
105.7728645048517
 20
161.1275763407754
 30
0.0
 10
104.9714356947435
 20
161.1746282509428
 30
0.0
 10
103.9390524406006
 20
161.2516172017686
 30
0.0
 10
102.9618044259766
 20
161.3474944524291
 30
0.0
 10
102.0607574147206
 20
161.4544239002173
 30
0.0
 10
101.2117836356192
 20
161.5662707080578
 30
0.0
 10
100.454215190011
 20
161.6804993067871
 30
0.0
 10
99.80922689956147
 20
161.7870790531509
 30
0.0
 10
99.38465302636368
 20
161.8610090095521
 30
0.0
 10
99.02209637671459
 20
161.9268995676089
 30
0.0
 10
98.72089481959091
 20
161.9835959188231
 30
0.0
 10
98.49364124755616
 20
162.0275321650577
 30
0.0
 10
98.28753395033365
 20
162.0681906118857
 30
0.0
 10
98.26684701230063
 20
162.0723740512752
 30
0.0
 10
98.2535984526889
 20
162.075053256194
 30
0.0
  0
LINE
  5
7A
330
1F
100
AcDbEntity
  8
0
  6
Continuous
 62
     7
370
    15
100
AcDbLine
 10
110.0261914603
 20
161.0679096986
 30
0.0
 11
108.2382204812
 21
161.0679096986
 31
0.0
  0
LINE
  5
7B
330
1F
100
AcDbEntity
  8
0
  6
Continuous
 62
     7
370
    15
100
AcDbLine
 10
110.0261914603
 20
151.0290776038
 30
0.0
 11
110.0261914603
 21
161.0679096986
 31
0.0
  0
LINE
  5
7C
330
1F
100
AcDbEntity
  8
0
  6
Continuous
 62
     7
370
    15
100
AcDbLine
 10
107.9461873294
 20
151.0290776038
 30
0.0
 11
110.0261914603
 21
151.0290776038
 31
0.0
  0
SPLINE
  5
7D
330
1F
100
AcDbEntity
  8
0
  6
Continuous
 62
     7
370
    15
100
AcDbSpline
210
0.0
220
0.0
230
1.0
 70
     8
 71
     3
 72
    22
 73
    18
 74
     0
 42
0.00000001
 43
0.00000001
 40
0.0
 40
0.0
 40
0.0
 40
0.0
 40
0.2500000000000009
 40
0.2500000000000009
 40
0.3750000000000009
 40
0.3750000000000009
 40
0.500000000000001
 40
0.500000000000001
 40
0.6250000000000009
 40
0.6250000000000009
 40
0.7500000000000007
 40
0.7500000000000007
 40
0.8750000000000004
 40
0.8750000000000004
 40
0.9375000000000002
 40
0.9375000000000002
 40
1.0
 40
1.0
 40
1.0
 40
1.0
 10
98.23822048120834
 20
143.4281148429036
 30
0.0
 10
98.44094543712744
 20
144.4473611847683
 30
0.0
 10
98.75568915892282
 20
145.4064693347075
 30
0.0
 10
99.46374462859379
 20
146.7489484122168
 30
0.0
 10
99.74220725881143
 20
147.1831569949568
 30
0.0
 10
100.3809746654486
 20
147.994784710459
 30
0.0
 10
100.7413883452388
 20
148.3740650033958
 30
0.0
 10
101.5589205772281
 20
149.0770235824168
 30
0.0
 10
102.0200885605152
 20
149.4020524001174
 30
0.0
 10
103.018078806999
 20
149.9670677235083
 30
0.0
 10
103.5578380009913
 20
150.2107713177148
 30
0.0
 10
104.7324309650226
 20
150.6149712453598
 30
0.0
 10
105.3441671510145
 20
150.7674084384053
 30
0.0
 10
106.2960763758762
 20
150.922735986014
 30
0.0
 10
106.6193095401369
 20
150.962240766064
 30
0.0
 10
107.2783727114121
 20
151.0155498867327
 30
0.0
 10
107.6124367219861
 20
151.0290776037906
 30
0.0
 10
107.9461873293877
 20
151.0290776037906
 30
0.0
  0
LINE
  5
7E
330
1F
100
AcDbEntity
  8
0
  6
Continuous
 62
     7
370
    15
100
AcDbLine
 10
111.3782204812
 20
65.7067265559
 30
0.0
 11
111.3782204812
 21
143.4281148429
 31
0.0
  0
SPLINE
  5
7F
330
1F
100
AcDbEntity
  8
0
  6
Continuous
 62
     7
370
    15
100
AcDbSpline
210
0.0
220
0.0
230
1.0
 70
     8
 71
     3
 72
     8
 73
     4
 74
     0
 42
0.00000001
 43
0.00000001
 40
0.0
 40
0.0
 40
0.0
 40
0.0
 40
1.0
 40
1.0
 40
1.0
 40
1.0
 10
111.3782204812084
 20
65.70672655588014
 30
0.0
 10
110.9279940169306
 20
64.90527119325539
 30
0.0
 10
110.4772961896872
 20
64.10408118169471
 30
0.0
 10
110.026191460287
 20
63.30312124987481
 30
0.0
  0
SPLINE
  5
80
330
1F
100
AcDbEntity
  8
0
  6
Continuous
 62
     7
370
    15
100
AcDbSpline
210
0.0
220
0.0
230
1.0
 70
    24
 71
     3
 72
     8
 73
     4
 74
     0
 42
0.00000001
 43
0.00000001
 40
0.0
 40
0.0
 40
0.0
 40
0.0
 40
1.0
 40
1.0
 40
1.0
 40
1.0
 10
110.026191460287
 20
143.4281148429036
 30
0.0
 10
110.4829930326152
 20
143.4281148429036
 30
0.0
 10
110.9340075988544
 20
143.4281148429036
 30
0.0
 10
111.3782204812084
 20
143.4281148429036
 30
0.0
  0
LINE
  5
81
330
1F
100
AcDbEntity
  8
0
  6
Continuous
 62
     7
370
    15
100
AcDbLine
 10
122.2382204812
 20
64.3287692977
 30
0.0
 11
122.2382204812
 21
143.4281148429
 31
0.0
  0
SPLINE
  5
82
330
1F
100
AcDbEntity
  8
0
  6
Continuous
 62
     7
370
    15
100
AcDbSpline
210
0.0
220
0.0
230
1.0
 70
     8
 71
     3
 72
    14
 73
    10
 74
     0
 42
0.00000001
 43
0.00000001
 40
0.0
 40
0.0
 40
0.0
 40
0.0
 40
0.25
 40
0.25
 40
0.5
 40
0.5
 40
0.75
 40
0.75
 40
1.0
 40
1.0
 40
1.0
 40
1.0
 10
122.2382204812084
 20
64.32876929765033
 30
0.0
 10
122.2382204812084
 20
64.1953436015958
 30
0.0
 10
122.2129093812975
 20
64.06349579375143
 30
0.0
 10
122.1145746174527
 20
63.81697324505733
 30
0.0
 10
122.0414306131967
 20
63.70316805681678
 30
0.0
 10
121.857992552101
 20
63.51271087986951
 30
0.0
 10
121.7463062177624
 20
63.43507601601959
 30
0.0
 10
121.5038027874561
 20
63.33078460590713
 30
0.0
 10
121.3704283587619
 20
63.30312124987478
 30
0.0
 10
121.2382204812084
 20
63.30312124987478
 30
0.0
  0
SPLINE
  5
83
330
1F
100
AcDbEntity
  8
0
  6
Continuous
 62
     7
370
    15
100
AcDbSpline
210
0.0
220
0.0
230
1.0
 70
    24
 71
     3
 72
    12
 73
     8
 74
     0
 42
0.00000001
 43
0.00000001
 40
0.0
 40
0.0
 40
0.0
 40
0.0
 40
0.2500000000000032
 40
0.2500000000000032
 40
0.5000000000000064
 40
0.5000000000000064
 40
1.0
 40
1.0
 40
1.0
 40
1.0
 10
121.2382204812084
 20
143.4281148429036
 30
0.0
 10
121.3903107181533
 20
143.4281148429036
 30
0.0
 10
121.5387699792288
 20
143.4281148429036
 30
0.0
 10
121.7961736114945
 20
143.4281148429036
 30
0.0
 10
121.9052783593364
 20
143.4281148429036
 30
0.0
 10
122.1593378357439
 20
143.4281148429036
 30
0.0
 10
122.2382204812084
 20
143.4281148429036
 30
0.0
 10
122.2382204812084
 20
143.4281148429036
 30
0.0
  0
LINE
  5
84
330
1F
100
AcDbEntity
  8
0
  6
Continuous
 62
     7
370
    15
100
AcDbLine
 10
93.2882204812
 20
62.5781148429
 30
0.0
 11
93.2882204812
 21
161.5781148402
 31
0.0
  0
LINE
  5
85
330
1F
100
AcDbEntity
  8
0
  6
Continuous
 62
     7
370
    15
100
AcDbLine
 10
116.5502495021
 20
63.3031212499
 30
0.0
 11
116.5502495021
 21
143.4281148429
 31
0.0
  0
SPLINE
  5
86
330
1F
100
AcDbEntity
  8
0
  6
Continuous
 62
     7
370
    15
100
AcDbSpline
210
0.0
220
0.0
230
1.0
 70
     8
 71
     3
 72
     8
 73
     4
 74
     0
 42
0.00000001
 43
0.00000001
 40
0.0
 40
0.0
 40
0.0
 40
0.0
 40
1.0
 40
1.0
 40
1.0
 40
1.0
 10
116.5502495021297
 20
63.30312124987481
 30
0.0
 10
116.0991447727295
 20
64.10408118169472
 30
0.0
 10
115.6484469454861
 20
64.9052711932554
 30
0.0
 10
115.1982204812084
 20
65.70672655588015
 30
0.0
  0
LINE
  5
87
330
1F
100
AcDbEntity
  8
0
  6
Continuous
 62
     7
370
    15
100
AcDbLine
 10
115.1982204812
 20
65.7067265559
 30
0.0
 11
115.1982204812
 21
143.4281148429
 31
0.0
  0
SPLINE
  5
88
330
1F
100
AcDbEntity
  8
0
  6
Continuous
 62
     7
370
    15
100
AcDbSpline
210
0.0
220
0.0
230
1.0
 70
    24
 71
     3
 72
     8
 73
     4
 74
     0
 42
0.00000001
 43
0.00000001
 40
0.0
 40
0.0
 40
0.0
 40
0.0
 40
1.0
 40
1.0
 40
1.0
 40
1.0
 10
115.1982204812084
 20
143.4281148429036
 30
0.0
 10
115.6424333635623
 20
143.4281148429036
 30
0.0
 10
116.0934479298015
 20
143.4281148429036
 30
0.0
 10
116.5502495021297
 20
143.4281148429036
 30
0.0
  0
LINE
  5
89
330
1F
100
AcDbEntity
  8
0
  6
Continuous
 62
     7
370
    15
100
AcDbLine
 10
121.2382204812
 20
63.3031212499
 30
0.0
 11
116.5502495021
 21
63.3031212499
 31
0.0
  0
LINE
  5
8A
330
1F
100
AcDbEntity
  8
0
  6
Continuous
 62
     7
370
    15
100
AcDbLine
 10
116.5502495021
 20
143.4281148429
 30
0.0
 11
121.2382204812
 21
143.4281148429
 31
0.0
  0
SPLINE
  5
8B
330
1F
100
AcDbEntity
  8
0
  6
Continuous
 62
     7
370
    15
100
AcDbSpline
210
0.0
220
0.0
230
1.0
 70
     8
 71
     3
 72
    12
 73
     8
 74
     0
 42
0.00000001
 43
0.00000001
 40
0.0
 40
0.0
 40
0.0
 40
0.0
 40
0.250000000000003
 40
0.250000000000003
 40
0.500000000000006
 40
0.500000000000006
 40
1.0
 40
1.0
 40
1.0
 40
1.0
 10
112.1782204812083
 20
67.43843938485396
 30
0.0
 10
112.0724598278594
 20
67.43843938485396
 30
0.0
 10
111.9644721996765
 20
67.41589987885358
 30
0.0
 10
111.7698775344108
 20
67.33132924685825
 30
0.0
 10
111.681005621572
 20
67.26884759409943
 30
0.0
 10
111.4618133292461
 20
67.0394586426272
 30
0.0
 10
111.3782204812083
 20
66.82687530510478
 30
0.0
 10
111.3782204812083
 20
66.61493606050858
 30
0.0
  0
SPLINE
  5
8C
330
1F
100
AcDbEntity
  8
0
  6
Continuous
 62
     7
370
    15
100
AcDbSpline
210
0.0
220
0.0
230
1.0
 70
    24
 71
     3
 72
    14
 73
    10
 74
     0
 42
0.00000001
 43
0.00000001
 40
0.0
 40
0.0
 40
0.0
 40
0.0
 40
0.25
 40
0.25
 40
0.5
 40
0.5
 40
0.75
 40
0.75
 40
1.0
 40
1.0
 40
1.0
 40
1.0
 10
111.3782204812083
 20
143.4281148429036
 30
0.0
 10
111.3782204812083
 20
143.4281148429036
 30
0.0
 10
111.3939348016743
 20
143.4281148429036
 30
0.0
 10
111.4576187801427
 20
143.4281148429036
 30
0.0
 10
111.5062219745531
 20
143.4281148429036
 30
0.0
 10
111.6389054969787
 20
143.4281148429036
 30
0.0
 10
111.7240076012894
 20
143.4281148429036
 30
0.0
 10
111.9304498361994
 20
143.4281148429036
 30
0.0
 10
112.0545307778224
 20
143.4281148429036
 30
0.0
 10
112.1782204812083
 20
143.4281148429036
 30
0.0
  0
SPLINE
  5
8D
330
1F
100
AcDbEntity
  8
0
  6
Continuous
 62
     7
370
    15
100
AcDbSpline
210
0.0
220
0.0
230
1.0
 70
     8
 71
     3
 72
    14
 73
    10
 74
     0
 42
0.00000001
 43
0.00000001
 40
0.0
 40
0.0
 40
0.0
 40
0.0
 40
0.25
 40
0.25
 40
0.5
 40
0.5
 40
0.75
 40
0.75
 40
1.0
 40
1.0
 40
1.0
 40
1.0
 10
115.1982204812084
 20
66.61493606050873
 30
0.0
 10
115.1982204812084
 20
66.72198014150311
 30
0.0
 10
115.1781027940502
 20
66.82721528174557
 30
0.0
 10
115.0996116047846
 20
67.02506576859324
 30
0.0
 10
115.0414549799834
 20
67.11611753215817
 30
0.0
 10
114.8949397243653
 20
67.26928362608295
 30
0.0
 10
114.8062971757242
 20
67.33157807229236
 30
0.0
 10
114.6105738529239
 20
67.41637185782834
 30
0.0
 10
114.5053426618529
 20
67.43843938485396
 30
0.0
 10
114.3982204812084
 20
67.43843938485396
 30
0.0
  0
SPLINE
  5
8E
330
1F
100
AcDbEntity
  8
0
  6
Continuous
 62
     7
370
    15
100
AcDbSpline
210
0.0
220
0.0
230
1.0
 70
    24
 71
     3
 72
    14
 73
    10
 74
     0
 42
0.00000001
 43
0.00000001
 40
0.0
 40
0.0
 40
0.0
 40
0.0
 40
0.25
 40
0.25
 40
0.5
 40
0.5
 40
0.75
 40
0.75
 40
1.0
 40
1.0
 40
1.0
 40
1.0
 10
114.3982204812084
 20
143.4281148429036
 30
0.0
 10
114.5219902459735
 20
143.4281148429036
 30
0.0
 10
114.6463573499804
 20
143.4281148429036
 30
0.0
 10
114.8527138187064
 20
143.4281148429036
 30
0.0
 10
114.9380419621248
 20
143.4281148429036
 30
0.0
 10
115.07023402084
 20
143.4281148429036
 30
0.0
 10
115.1188792645906
 20
143.4281148429036
 30
0.0
 10
115.1824150563193
 20
143.4281148429036
 30
0.0
 10
115.1982204812084
 20
143.4281148429036
 30
0.0
 10
115.1982204812084
 20
143.4281148429036
 30
0.0
  0
LINE
  5
8F
330
1F
100
AcDbEntity
  8
0
  6
Continuous
 62
     7
370
    15
100
AcDbLine
 10
114.3982204812
 20
67.4384393849
 30
0.0
 11
112.1782204812
 21
67.4384393849
 31
0.0
  0
LINE
  5
90
330
1F
100
AcDbEntity
  8
0
  6
Continuous
 62
     7
370
    15
100
AcDbLine
 10
112.1782204812
 20
143.4281148429
 30
0.0
 11
114.3982204812
 21
143.4281148429
 31
0.0
  0
LINE
  5
91
330
1F
100
AcDbEntity
  8
0
  6
Continuous
 62
     7
370
    15
100
AcDbLine
 10
90.7882204812
 20
74.1958633399
 30
0.0
 11
90.7882204812
 21
149.9603663459
 31
0.0
  0
LINE
  5
92
330
1F
100
AcDbEntity
  8
0
  6
Continuous
 62
     7
370
    15
100
AcDbLine
 10
58.4882204812
 20
75.8140998128
 30
0.0
 11
58.4882204812
 21
78.2087815775
 31
0.0
  0
SPLINE
  5
93
330
1F
100
AcDbEntity
  8
0
  6
Continuous
 62
     7
370
    15
100
AcDbSpline
210
0.0
220
0.0
230
1.0
 70
     8
 71
     3
 72
    14
 73
    10
 74
     0
 42
0.00000001
 43
0.00000001
 40
0.0
 40
0.0
 40
0.0
 40
0.0
 40
0.2500000000000008
 40
0.2500000000000008
 40
0.5000000000000006
 40
0.5000000000000006
 40
0.7500000000000003
 40
0.7500000000000003
 40
1.0
 40
1.0
 40
1.0
 40
1.0
 10
57.4837980098714
 20
79.91163349916009
 30
0.0
 10
57.5725665878167
 20
79.75309936785213
 30
0.0
 10
57.69428442649566
 20
79.60065669096359
 30
0.0
 10
57.92933403635245
 20
79.30352206713467
 30
0.0
 10
58.04496422256936
 20
79.15883942351728
 30
0.0
 10
58.24536915599718
 20
78.8755502210139
 30
0.0
 10
58.33076944798149
 20
78.73699622797703
 30
0.0
 10
58.45247508169874
 20
78.4656121979435
 30
0.0
 10
58.48822048121136
 20
78.33347632930887
 30
0.0
 10
58.48822048121136
 20
78.20878157753813
 30
0.0
  0
SPLINE
  5
94
330
1F
100
AcDbEntity
  8
0
  6
Continuous
 62
     7
370
    15
100
AcDbSpline
210
0.0
220
0.0
230
1.0
 70
     8
 71
     3
 72
    14
 73
    10
 74
     0
 42
0.00000001
 43
0.00000001
 40
0.0
 40
0.0
 40
0.0
 40
0.0
 40
0.125000000000005
 40
0.125000000000005
 40
0.2500000000000099
 40
0.2500000000000099
 40
0.5000000000000063
 40
0.5000000000000063
 40
1.0
 40
1.0
 40
1.0
 40
1.0
 10
56.58822048120835
 20
80.54046343826022
 30
0.0
 10
56.65580278099283
 20
80.54761932336159
 30
0.0
 10
56.72829035874074
 20
80.54319485332259
 30
0.0
 10
56.86058146800669
 20
80.51348869555225
 30
0.0
 10
56.91785884739686
 20
80.490204413974
 30
0.0
 10
57.06750927459716
 20
80.41271917412368
 30
0.0
 10
57.14122257011866
 20
80.35086734722232
 30
0.0
 10
57.32903055344487
 20
80.16618989457398
 30
0.0
 10
57.41307085980633
 20
80.03794697128278
 30
0.0
 10
57.48379800987261
 20
79.91163349916019
 30
0.0
  0
SPLINE
  5
95
330
1F
100
AcDbEntity
  8
0
  6
Continuous
 62
     7
370
    15
100
AcDbSpline
210
0.0
220
0.0
230
1.0
 70
     8
 71
     3
 72
     8
 73
     4
 74
     0
 42
0.00000001
 43
0.00000001
 40
0.0
 40
0.0
 40
0.0
 40
0.0
 40
1.0
 40
1.0
 40
1.0
 40
1.0
 10
53.04358009312743
 20
80.1224148534684
 30
0.0
 10
54.20887840383634
 20
80.27760232535502
 30
0.0
 10
55.39349361787621
 20
80.41396096366535
 30
0.0
 10
56.58822048120835
 20
80.54046343826022
 30
0.0
  0
SPLINE
  5
96
330
1F
100
AcDbEntity
  8
0
  6
Continuous
 62
     7
370
    15
100
AcDbSpline
210
0.0
220
0.0
230
1.0
 70
     8
 71
     3
 72
    14
 73
    10
 74
     0
 42
0.00000001
 43
0.00000001
 40
0.0
 40
0.0
 40
0.0
 40
0.0
 40
0.5000000000000001
 40
0.5000000000000001
 40
0.7499999999999989
 40
0.7499999999999989
 40
0.8749999999999996
 40
0.8749999999999996
 40
1.0
 40
1.0
 40
1.0
 40
1.0
 10
45.28814559717802
 20
79.83228267433847
 30
0.0
 10
46.59644715971202
 20
79.8392973980796
 30
0.0
 10
47.90150653436906
 20
79.85470597452408
 30
0.0
 10
49.84738258585774
 20
79.90860252999076
 30
0.0
 10
50.4940800895969
 20
79.93163409459345
 30
0.0
 10
51.45792245345142
 20
79.98257661946417
 30
0.0
 10
51.77816114538555
 20
80.00231154169738
 30
0.0
 10
52.4148563717281
 20
80.05179867016896
 30
0.0
 10
52.73157178001106
 20
80.0808634490982
 30
0.0
 10
53.04358009312746
 20
80.12241485346837
 30
0.0
  0
SPLINE
  5
97
330
1F
100
AcDbEntity
  8
0
  6
Continuous
 62
     7
370
    15
100
AcDbSpline
210
0.0
220
0.0
230
1.0
 70
     8
 71
     3
 72
    12
 73
     8
 74
     0
 42
0.00000001
 43
0.00000001
 40
0.0
 40
0.0
 40
0.0
 40
0.0
 40
0.2500000000000001
 40
0.2500000000000001
 40
0.5000000000000001
 40
0.5000000000000001
 40
1.0
 40
1.0
 40
1.0
 40
1.0
 10
51.58822048120835
 20
144.1646377344001
 30
0.0
 10
51.06952165938017
 20
144.1971605092483
 30
0.0
 10
50.54781008617518
 20
144.2204572504188
 30
0.0
 10
49.50151806967962
 20
144.2583027648409
 30
0.0
 10
48.97684644400933
 20
144.272571239337
 30
0.0
 10
47.4000004214701
 20
144.3067807267953
 30
0.0
 10
46.34504510692322
 20
144.3182802307392
 30
0.0
 10
45.288145597178
 20
144.3239470114687
 30
0.0
  0
SPLINE
  5
98
330
1F
100
AcDbEntity
  8
0
  6
Continuous
 62
     7
370
    15
100
AcDbSpline
210
0.0
220
0.0
230
1.0
 70
     8
 71
     3
 72
    20
 73
    16
 74
     0
 42
0.00000001
 43
0.00000001
 40
0.0
 40
0.0
 40
0.0
 40
0.0
 40
0.2499999999999988
 40
0.2499999999999988
 40
0.4999999999999977
 40
0.4999999999999977
 40
0.7499999999999964
 40
0.7499999999999964
 40
0.8749999999999971
 40
0.8749999999999971
 40
0.9374999999999982
 40
0.9374999999999982
 40
0.9687499999999991
 40
0.9687499999999991
 40
1.0
 40
1.0
 40
1.0
 40
1.0
 10
53.48822048120835
 20
145.8227235798882
 30
0.0
 10
53.48822048120835
 20
145.6870412601414
 30
0.0
 10
53.43950869199173
 20
145.5459542740014
 30
0.0
 10
53.27034726876654
 20
145.2538825552708
 30
0.0
 10
53.14856685484821
 20
145.1022338131804
 30
0.0
 10
52.85101976009871
 20
144.7998253730273
 30
0.0
 10
52.67710715439593
 20
144.647236736904
 30
0.0
 10
52.35769232051413
 20
144.4219659730617
 30
0.0
 10
52.24265154506688
 20
144.347242878551
 30
0.0
 10
52.03556722105045
 20
144.247832469294
 30
0.0
 10
51.95945938624406
 20
144.2162673769494
 30
0.0
 10
51.82806484669071
 20
144.1818239927564
 30
0.0
 10
51.78151162768923
 20
144.1727724209888
 30
0.0
 10
51.68517827660851
 20
144.1625967721503
 30
0.0
 10
51.63591885325308
 20
144.1616470134753
 30
0.0
 10
51.58822048120637
 20
144.1646377343899
 30
0.0
  0
LINE
  5
99
330
1F
100
AcDbEntity
  8
0
  6
Continuous
 62
     7
370
    15
100
AcDbLine
 10
53.4882204812
 20
145.8227235799
 30
0.0
 11
53.4882204812
 21
148.091628871
 31
0.0
  0
SPLINE
  5
9A
330
1F
100
AcDbEntity
  8
0
  6
Continuous
 62
     7
370
    15
100
AcDbSpline
210
0.0
220
0.0
230
1.0
 70
     8
 71
     3
 72
    22
 73
    18
 74
     0
 42
0.00000001
 43
0.00000001
 40
0.0
 40
0.0
 40
0.0
 40
0.0
 40
0.0002937850458186
 40
0.0628841327413374
 40
0.1261981682954104
 40
0.2510182590426629
 40
0.3131038291610295
 40
0.3757650688901447
 40
0.4382989835655121
 40
0.5000628079114054
 40
0.5617337561125819
 40
0.6246555685552126
 40
0.7491916976530685
 40
0.8115302181315633
 40
0.8745847230191042
 40
0.9378227588212174
 40
0.9999999999999999
 40
0.9999999999999999
 40
0.9999999999999999
 40
0.9999999999999999
 10
71.80817674504779
 20
75.14686958459124
 30
0.0
 10
71.80798189163757
 20
75.1468452772714
 30
0.0
 10
71.76627388815653
 20
75.14164234148475
 30
0.0
 10
71.91153699134284
 20
75.16025654937219
 30
0.0
 10
72.38168316850886
 20
75.21678249996839
 30
0.0
 10
73.35013925109502
 20
75.32300412939406
 30
0.0
 10
74.66259906065842
 20
75.408636936825
 30
0.0
 10
75.79472276928898
 20
75.44729300292423
 30
0.0
 10
77.0169095459102
 20
75.4509543107027
 30
0.0
 10
78.28420793343132
 20
75.40856889593351
 30
0.0
 10
79.55091958766293
 20
75.32019191825682
 30
0.0
 10
81.1665775835327
 20
75.15014278963552
 30
0.0
 10
82.60654019356376
 20
74.9279610550795
 30
0.0
 10
83.67240934972942
 20
74.72496494694526
 30
0.0
 10
84.26160973316621
 20
74.60093951399573
 30
0.0
 10
84.6503292484523
 20
74.51601867355134
 30
0.0
 10
84.6971149612831
 20
74.50529195574698
 30
0.0
 10
84.72030995491092
 20
74.4999739615119
 30
0.0
  0
SPLINE
  5
9B
330
1F
100
AcDbEntity
  8
0
  6
Continuous
 62
     7
370
    15
100
AcDbSpline
210
0.0
220
0.0
230
1.0
 70
     8
 71
     3
 72
    41
 73
    37
 74
     0
 42
0.00000001
 43
0.00000001
 40
0.0
 40
0.0
 40
0.0
 40
0.0
 40
0.0619930061484559
 40
0.1254347783466237
 40
0.1886508898235997
 40
0.2510246408607235
 40
0.3131658188974684
 40
0.3756581641417405
 40
0.4382227146725277
 40
0.499804492294069
 40
0.5615164197174299
 40
0.6240683094121933
 40
0.6867257232409624
 40
0.7488365305144747
 40
0.8110685944254461
 40
0.8741742884451352
 40
0.9373212787639088
 40
0.9685511709612862
 40
0.9842086872484516
 40
0.9920641182530343
 40
0.996000486125458
 40
0.9979710794119774
 40
0.9989570090489371
 40
0.9994501359394937
 40
0.9996967403802097
 40
0.9998200529090677
 40
0.9998817117580786
 40
0.9999125418296593
 40
0.999927957027333
 40
0.9999356646666572
 40
0.9999395184964435
 40
0.9999414454138664
 40
0.999942408873212
 40
0.9999433723329776
 40
0.9999501697003241
 40
1.0
 40
1.0
 40
1.0
 40
1.0
 10
84.72018862443292
 20
149.6562107063438
 30
0.0
 10
84.69661697908954
 20
149.6509012266939
 30
0.0
 10
84.64892282304504
 20
149.6401581857544
 30
0.0
 10
84.25688083361803
 20
149.5549290492988
 30
0.0
 10
83.66636678434669
 20
149.4303602706582
 30
0.0
 10
82.86232933830398
 20
149.2774133245065
 30
0.0
 10
81.88625393812264
 20
149.115656770553
 30
0.0
 10
80.76444520284423
 20
148.9634240026209
 30
0.0
 10
79.55091428305589
 20
148.8356440614194
 30
0.0
 10
78.28608357665966
 20
148.7477955097368
 30
0.0
 10
77.01804053921538
 20
148.7054100258662
 30
0.0
 10
75.79453318151398
 20
148.7091458338377
 30
0.0
 10
74.66103464109467
 20
148.7477413042851
 30
0.0
 10
73.67492883012255
 20
148.8121806755769
 30
0.0
 10
72.86630102133905
 20
148.8856904828584
 30
0.0
 10
72.2696823262276
 20
148.9530041676695
 30
0.0
 10
71.95429103676967
 20
148.9909687189375
 30
0.0
 10
71.84422446797247
 20
149.0047677782696
 30
0.0
 10
71.81680508015748
 20
149.0082538521903
 30
0.0
 10
71.80988302932745
 20
149.0091330778837
 30
0.0
 10
71.80811478914367
 20
149.00935385249
 30
0.0
 10
71.80765440997017
 20
149.0094090552007
 30
0.0
 10
71.80753025128527
 20
149.0094227949878
 30
0.0
 10
71.80749469679203
 20
149.0094261908188
 30
0.0
 10
71.80748355272196
 20
149.0094270191391
 30
0.0
 10
71.80747963952581
 20
149.0094272157279
 30
0.0
 10
71.807478097321
 20
149.0094272596579
 30
0.0
 10
71.80747743031948
 20
149.0094272679647
 30
0.0
 10
71.80747712214173
 20
149.009427268795
 30
0.0
 10
71.80747697537566
 20
149.0094272682498
 30
0.0
 10
71.80747690242323
 20
149.0094272679199
 30
0.0
 10
71.80747686803083
 20
149.0094272674826
 30
0.0
 10
71.80747684578567
 20
149.0094272675712
 30
0.0
 10
71.80747681867625
 20
149.0094272647361
 30
0.0
 10
71.80747429911511
 20
149.0094275515913
 30
0.0
 10
71.80751038903331
 20
149.0094229314906
 30
0.0
 10
71.80754214685655
 20
149.009418865969
 30
0.0
  0
SPLINE
  5
9C
330
1F
100
AcDbEntity
  8
0
  6
Continuous
 62
     7
370
    15
100
AcDbSpline
210
0.0
220
0.0
230
1.0
 70
     8
 71
     3
 72
    20
 73
    16
 74
     0
 42
0.00000001
 43
0.00000001
 40
0.0
 40
0.0
 40
0.0
 40
0.0
 40
0.249999999999986
 40
0.249999999999986
 40
0.3749999999999789
 40
0.3749999999999789
 40
0.4374999999999789
 40
0.4374999999999789
 40
0.4999999999999789
 40
0.4999999999999789
 40
0.6249999999999835
 40
0.6249999999999835
 40
0.7499999999999879
 40
0.7499999999999879
 40
1.0
 40
1.0
 40
1.0
 40
1.0
 10
43.67903471292436
 20
81.39963169020292
 30
0.0
 10
43.70530693013777
 20
81.41894963128537
 30
0.0
 10
43.73598707239261
 20
81.43333834238716
 30
0.0
 10
43.80745794277453
 20
81.42643398055114
 30
0.0
 10
43.83548497981887
 20
81.41926797720272
 30
0.0
 10
43.89056856931638
 20
81.38956895049914
 30
0.0
 10
43.91145989786881
 20
81.3760953079378
 30
0.0
 10
43.95666854531427
 20
81.34089704242179
 30
0.0
 10
43.98107275770983
 20
81.31898881369452
 30
0.0
 10
44.05240507576128
 20
81.24686395369898
 30
0.0
 10
44.09430186058155
 20
81.19452341274892
 30
0.0
 10
44.16587781943743
 20
81.09704002084818
 30
0.0
 10
44.19670580925472
 20
81.05028625096976
 30
0.0
 10
44.2798057420903
 20
80.91699303513064
 30
0.0
 10
44.3246606474606
 20
80.83435563721542
 30
0.0
 10
44.36477272291317
 20
80.75524874242466
 30
0.0
  0
SPLINE
  5
9D
330
1F
100
AcDbEntity
  8
0
  6
Continuous
 62
     7
370
    15
100
AcDbSpline
210
0.0
220
0.0
230
1.0
 70
     8
 71
     3
 72
    14
 73
    10
 74
     0
 42
0.00000001
 43
0.00000001
 40
0.0
 40
0.0
 40
0.0
 40
0.0
 40
0.2499999999999994
 40
0.2499999999999994
 40
0.4999999999999988
 40
0.4999999999999988
 40
0.7499999999999982
 40
0.7499999999999982
 40
1.0
 40
1.0
 40
1.0
 40
1.0
 10
43.38822048120836
 20
81.5754451003357
 30
0.0
 10
43.38822048120836
 20
81.53419816931134
 30
0.0
 10
43.39683019758961
 20
81.49729119702886
 30
0.0
 10
43.42791637715995
 20
81.43639113712946
 30
0.0
 10
43.45030593064403
 20
81.41221021758976
 30
0.0
 10
43.50504986182013
 20
81.3782426267065
 30
0.0
 10
43.53750010140532
 20
81.36832254273833
 30
0.0
 10
43.60750161613339
 20
81.36697133383348
 30
0.0
 10
43.64571211625591
 20
81.37512961052961
 30
0.0
 10
43.67903471292901
 20
81.39963169019772
 30
0.0
  0
LINE
  5
9E
330
1F
100
AcDbEntity
  8
0
  6
Continuous
 62
     7
370
    15
100
AcDbLine
 10
43.3882204812
 20
81.5754451003
 30
0.0
 11
43.3882204812
 21
142.5807845855
 31
0.0
  0
SPLINE
  5
9F
330
1F
100
AcDbEntity
  8
0
  6
Continuous
 62
     7
370
    15
100
AcDbSpline
210
0.0
220
0.0
230
1.0
 70
     8
 71
     3
 72
    10
 73
     6
 74
     0
 42
0.00000001
 43
0.00000001
 40
0.0
 40
0.0
 40
0.0
 40
0.0
 40
0.0592402688376383
 40
0.6438088530391344
 40
1.0
 40
1.0
 40
1.0
 40
1.0
 10
43.679034712929
 20
142.7565979956095
 30
0.0
 10
43.6742024553078
 20
142.7598469022412
 30
0.0
 10
43.62168665317306
 20
142.7951552303968
 30
0.0
 10
43.52273645549429
 20
142.8014095269554
 30
0.0
 10
43.47330793060294
 20
142.7462092892665
 30
0.0
 10
43.45459326585864
 20
142.7253093343432
 30
0.0
  0
SPLINE
  5
A0
330
1F
100
AcDbEntity
  8
0
  6
Continuous
 62
     7
370
    15
100
AcDbSpline
210
0.0
220
0.0
230
1.0
 70
     8
 71
     3
 72
     8
 73
     4
 74
     0
 42
0.00000001
 43
0.00000001
 40
0.0
 40
0.0
 40
0.0
 40
0.0
 40
1.0
 40
1.0
 40
1.0
 40
1.0
 10
43.41185415014456
 20
142.6883640865412
 30
0.0
 10
43.39650511150852
 20
142.6578540315453
 30
0.0
 10
43.38822048120836
 20
142.6215424760329
 30
0.0
 10
43.38822048120836
 20
142.5807845854715
 30
0.0
  0
SPLINE
  5
A1
330
1F
100
AcDbEntity
  8
0
  6
Continuous
 62
     7
370
    15
100
AcDbSpline
210
0.0
220
0.0
230
1.0
 70
     8
 71
     3
 72
    20
 73
    16
 74
     0
 42
0.00000001
 43
0.00000001
 40
0.0
 40
0.0
 40
0.0
 40
0.0
 40
0.2500000000000037
 40
0.2500000000000037
 40
0.3750000000000055
 40
0.3750000000000055
 40
0.5000000000000073
 40
0.5000000000000073
 40
0.5625000000000057
 40
0.5625000000000057
 40
0.625000000000004
 40
0.625000000000004
 40
0.7500000000000027
 40
0.7500000000000027
 40
1.0
 40
1.0
 40
1.0
 40
1.0
 10
44.36477272291079
 20
143.4009809433818
 30
0.0
 10
44.32477650508695
 20
143.3221025368243
 30
0.0
 10
44.2796628772493
 20
143.2389728901328
 30
0.0
 10
44.19640866288277
 20
143.1054842257819
 30
0.0
 10
44.16618933426226
 20
143.0596191698999
 30
0.0
 10
44.09410109912085
 20
142.961427617495
 30
0.0
 10
44.05218378170975
 20
142.9091177979714
 30
0.0
 10
43.98093317715828
 20
142.8371118952369
 30
0.0
 10
43.95669736477898
 20
142.8153416829354
 30
0.0
 10
43.91109917459432
 20
142.7798670246063
 30
0.0
 10
43.89029668499461
 20
142.7664968404288
 30
0.0
 10
43.83535568657548
 20
142.7369269282936
 30
0.0
 10
43.80728669848868
 20
142.7298004059916
 30
0.0
 10
43.73678386842585
 20
142.7229260345089
 30
0.0
 10
43.70535978063497
 20
142.7372411935961
 30
0.0
 10
43.67903471292637
 20
142.7565979956066
 30
0.0
  0
SPLINE
  5
A2
330
1F
100
AcDbEntity
  8
0
  6
Continuous
 62
     7
370
    15
100
AcDbSpline
210
0.0
220
0.0
230
1.0
 70
     8
 71
     3
 72
    10
 73
     6
 74
     0
 42
0.00000001
 43
0.00000001
 40
0.0
 40
0.0
 40
0.0
 40
0.0
 40
0.4999999999999989
 40
0.4999999999999989
 40
1.0
 40
1.0
 40
1.0
 40
1.0
 10
45.03822048120837
 20
144.3264000447236
 30
0.0
 10
44.91333221045817
 20
144.1954037666521
 30
0.0
 10
44.79188209239772
 20
144.0516909299872
 30
0.0
 10
44.56229811744028
 20
143.7411206372979
 30
0.0
 10
44.4520231420443
 20
143.5730515642348
 30
0.0
 10
44.36477272291079
 20
143.4009809433818
 30
0.0
  0
SPLINE
  5
A3
330
1F
100
AcDbEntity
  8
0
  6
Continuous
 62
     7
370
    15
100
AcDbSpline
210
0.0
220
0.0
230
1.0
 70
     8
 71
     3
 72
     8
 73
     4
 74
     0
 42
0.00000001
 43
0.00000001
 40
0.0
 40
0.0
 40
0.0
 40
0.0
 40
1.0
 40
1.0
 40
1.0
 40
1.0
 10
45.28814559717413
 20
144.3239470114682
 30
0.0
 10
45.20112756732575
 20
144.3244135762553
 30
0.0
 10
45.1181735409458
 20
144.3254535958314
 30
0.0
 10
45.03822048120605
 20
144.3264000447237
 30
0.0
  0
SPLINE
  5
A4
330
1F
100
AcDbEntity
  8
0
  6
Continuous
 62
     7
370
    15
100
AcDbSpline
210
0.0
220
0.0
230
1.0
 70
     8
 71
     3
 72
     8
 73
     4
 74
     0
 42
0.00000001
 43
0.00000001
 40
0.0
 40
0.0
 40
0.0
 40
0.0
 40
1.0
 40
1.0
 40
1.0
 40
1.0
 10
45.03822048120605
 20
79.82982964108353
 30
0.0
 10
45.11817354094581
 20
79.8307760899758
 30
0.0
 10
45.20112756732578
 20
79.83181610955192
 30
0.0
 10
45.28814559717414
 20
79.83228267433901
 30
0.0
  0
SPLINE
  5
A5
330
1F
100
AcDbEntity
  8
0
  6
Continuous
 62
     7
370
    15
100
AcDbSpline
210
0.0
220
0.0
230
1.0
 70
     8
 71
     3
 72
    10
 73
     6
 74
     0
 42
0.00000001
 43
0.00000001
 40
0.0
 40
0.0
 40
0.0
 40
0.0
 40
0.4999999999999989
 40
0.4999999999999989
 40
1.0
 40
1.0
 40
1.0
 40
1.0
 10
44.36477272290985
 20
80.75524874242721
 30
0.0
 10
44.45202314204333
 20
80.58317812157384
 30
0.0
 10
44.56229811743949
 20
80.4151090485104
 30
0.0
 10
44.79188209239732
 20
80.1045387558206
 30
0.0
 10
44.91333221045796
 20
79.96082591915533
 30
0.0
 10
45.03822048120837
 20
79.82982964108362
 30
0.0
  0
SPLINE
  5
A6
330
1F
100
AcDbEntity
  8
0
  6
Continuous
 62
     7
370
    15
100
AcDbSpline
210
0.0
220
0.0
230
1.0
 70
     8
 71
     3
 72
     8
 73
     4
 74
     0
 42
0.00000001
 43
0.00000001
 40
0.0
 40
0.0
 40
0.0
 40
0.0
 40
1.0
 40
1.0
 40
1.0
 40
1.0
 10
110.026191460287
 20
151.0290776037906
 30
0.0
 10
110.4831178140865
 20
150.0131596341163
 30
0.0
 10
110.9343234558895
 20
148.9943638050251
 30
0.0
 10
111.3782204812084
 20
147.9735623490415
 30
0.0
  0
LINE
  5
A7
330
1F
100
AcDbEntity
  8
0
  6
Continuous
 62
     7
370
    15
100
AcDbLine
 10
111.3782204812
 20
147.973562349
 30
0.0
 11
111.3782204812
 21
146.7923500354
 31
0.0
  0
SPLINE
  5
A8
330
1F
100
AcDbEntity
  8
0
  6
Continuous
 62
     7
370
    15
100
AcDbSpline
210
0.0
220
0.0
230
1.0
 70
     8
 71
     3
 72
    14
 73
    10
 74
     0
 42
0.00000001
 43
0.00000001
 40
0.0
 40
0.0
 40
0.0
 40
0.0
 40
0.25
 40
0.25
 40
0.5
 40
0.5
 40
0.75
 40
0.75
 40
1.0
 40
1.0
 40
1.0
 40
1.0
 10
111.3782204812083
 20
146.7923500354006
 30
0.0
 10
111.3782204812083
 20
146.6684831586115
 30
0.0
 10
111.3940796088359
 20
146.544223481774
 30
0.0
 10
111.4574412543558
 20
146.3066151193681
 30
0.0
 10
111.5060309624052
 20
146.1898347346156
 30
0.0
 10
111.63831656718
 20
145.9810322060066
 30
0.0
 10
111.7236413584406
 20
145.886521502414
 30
0.0
 10
111.9305326067468
 20
145.7485647016117
 30
0.0
 10
112.0545005526368
 20
145.706646255976
 30
0.0
 10
112.1782204812083
 20
145.706646255976
 30
0.0
  0
LINE
  5
A9
330
1F
100
AcDbEntity
  8
0
  6
Continuous
 62
     7
370
    15
100
AcDbLine
 10
112.1782204812
 20
145.706646256
 30
0.0
 11
114.3982204812
 21
145.706646256
 31
0.0
  0
SPLINE
  5
AA
330
1F
100
AcDbEntity
  8
0
  6
Continuous
 62
     7
370
    15
100
AcDbSpline
210
0.0
220
0.0
230
1.0
 70
     8
 71
     3
 72
    12
 73
     8
 74
     0
 42
0.00000001
 43
0.00000001
 40
0.0
 40
0.0
 40
0.0
 40
0.0
 40
0.250000000000002
 40
0.250000000000002
 40
0.500000000000004
 40
0.500000000000004
 40
1.0
 40
1.0
 40
1.0
 40
1.0
 10
114.3982204812104
 20
145.7066462559761
 30
0.0
 10
114.5219214311902
 20
145.7066462559766
 30
0.0
 10
114.6460180434601
 20
145.7486398677094
 30
0.0
 10
114.8526732065465
 20
145.886435194354
 30
0.0
 10
114.9377139732731
 20
145.9804087928188
 30
0.0
 10
115.1371925417462
 20
146.2951969990396
 30
0.0
 10
115.1982204812084
 20
146.5454359912668
 30
0.0
 10
115.1982204812084
 20
146.7923500354007
 30
0.0
  0
LINE
  5
AB
330
1F
100
AcDbEntity
  8
0
  6
Continuous
 62
     7
370
    15
100
AcDbLine
 10
115.1982204812
 20
146.7923500354
 30
0.0
 11
115.1982204812
 21
147.973562349
 31
0.0
  0
SPLINE
  5
AC
330
1F
100
AcDbEntity
  8
0
  6
Continuous
 62
     7
370
    15
100
AcDbSpline
210
0.0
220
0.0
230
1.0
 70
     8
 71
     3
 72
     8
 73
     4
 74
     0
 42
0.00000001
 43
0.00000001
 40
0.0
 40
0.0
 40
0.0
 40
0.0
 40
1.0
 40
1.0
 40
1.0
 40
1.0
 10
115.1982204812084
 20
147.9735623490414
 30
0.0
 10
115.6423704922339
 20
148.9949455799931
 30
0.0
 10
116.0934448024918
 20
150.0134301167614
 30
0.0
 10
116.5502495021297
 20
151.0290776037906
 30
0.0
  0
LINE
  5
AD
330
1F
100
AcDbEntity
  8
0
  6
Continuous
 62
     7
370
    15
100
AcDbLine
 10
116.5502495021
 20
151.0290776038
 30
0.0
 11
121.2382204812
 21
151.0290776038
 31
0.0
  0
SPLINE
  5
AE
330
1F
100
AcDbEntity
  8
0
  6
Continuous
 62
     7
370
    15
100
AcDbSpline
210
0.0
220
0.0
230
1.0
 70
     8
 71
     3
 72
    16
 73
    12
 74
     0
 42
0.00000001
 43
0.00000001
 40
0.0
 40
0.0
 40
0.0
 40
0.0
 40
0.125
 40
0.125
 40
0.25
 40
0.25
 40
0.5
 40
0.5
 40
0.75
 40
0.75
 40
1.0
 40
1.0
 40
1.0
 40
1.0
 10
121.2382204812074
 20
151.0290776037905
 30
0.0
 10
121.3138581876186
 20
151.0290776037907
 30
0.0
 10
121.3901738520369
 20
151.0177326036558
 30
0.0
 10
121.534584589929
 20
150.9750800530174
 30
0.0
 10
121.6030310390374
 20
150.9441457283346
 30
0.0
 10
121.7979622916508
 20
150.8248893565671
 30
0.0
 10
121.9058034654318
 20
150.7147373429465
 30
0.0
 10
122.074516213644
 20
150.4666012572884
 30
0.0
 10
122.1368806263676
 20
150.3262589332846
 30
0.0
 10
122.2181845508761
 20
150.0379872417959
 30
0.0
 10
122.2382204812084
 20
149.887182268816
 30
0.0
 10
122.2382204812084
 20
149.7368123774706
 30
0.0
  0
LINE
  5
AF
330
1F
100
AcDbEntity
  8
0
  6
Continuous
 62
     7
370
    15
100
AcDbLine
 10
122.2382204812
 20
149.7368123775
 30
0.0
 11
122.2382204812
 21
143.4281148429
 31
0.0
  0
SPLINE
  5
B0
330
1F
100
AcDbEntity
  8
0
  6
Continuous
 62
     7
370
    15
100
AcDbSpline
210
0.0
220
0.0
230
1.0
 70
     8
 71
     3
 72
    14
 73
    10
 74
     0
 42
0.00000001
 43
0.00000001
 40
0.0
 40
0.0
 40
0.0
 40
0.0
 40
0.25
 40
0.25
 40
0.5
 40
0.5
 40
0.75
 40
0.75
 40
1.0
 40
1.0
 40
1.0
 40
1.0
 10
115.1982204812084
 20
157.7716660837516
 30
0.0
 10
115.1982204812084
 20
157.6653093899992
 30
0.0
 10
115.1778329250671
 20
157.5594689022391
 30
0.0
 10
115.0991985796055
 20
157.3629039887026
 30
0.0
 10
115.0404672199669
 20
157.2717332464155
 30
0.0
 10
114.8938583143643
 20
157.1198221573839
 30
0.0
 10
114.8044529943377
 20
157.0577533205643
 30
0.0
 10
114.6105622617373
 20
156.9744852728056
 30
0.0
 10
114.5040572718475
 20
156.952390603076
 30
0.0
 10
114.3982204812081
 20
156.952390603076
 30
0.0
  0
LINE
  5
B1
330
1F
100
AcDbEntity
  8
0
  6
Continuous
 62
     7
370
    15
100
AcDbLine
 10
121.2382204812
 20
161.0679096986
 30
0.0
 11
116.5502495021
 21
161.0679096986
 31
0.0
  0
LINE
  5
B2
330
1F
100
AcDbEntity
  8
0
  6
Continuous
 62
     7
370
    15
100
AcDbLine
 10
116.5502495021
 20
151.0290776038
 30
0.0
 11
116.5502495021
 21
161.0679096986
 31
0.0
  0
SPLINE
  5
B3
330
1F
100
AcDbEntity
  8
0
  6
Continuous
 62
     7
370
    15
100
AcDbSpline
210
0.0
220
0.0
230
1.0
 70
     8
 71
     3
 72
    12
 73
     8
 74
     0
 42
0.00000001
 43
0.00000001
 40
0.0
 40
0.0
 40
0.0
 40
0.0
 40
0.5
 40
0.5
 40
0.75
 40
0.75
 40
1.0
 40
1.0
 40
1.0
 40
1.0
 10
122.2382204812084
 20
160.0468546637494
 30
0.0
 10
122.2382204812084
 20
160.3121240965158
 30
0.0
 10
122.1336137377219
 20
160.5746392021682
 30
0.0
 10
121.8569453859766
 20
160.8601768082055
 30
0.0
 10
121.7465801266246
 20
160.9364984250669
 30
0.0
 10
121.5025080780089
 20
161.040840589907
 30
0.0
 10
121.3707556166771
 20
161.0679096985672
 30
0.0
 10
121.2382204812084
 20
161.0679096985672
 30
0.0
  0
LINE
  5
B4
330
1F
100
AcDbEntity
  8
0
  6
Continuous
 62
     7
370
    15
100
AcDbLine
 10
122.2382204812
 20
149.7368123775
 30
0.0
 11
122.2382204812
 21
160.0468546637
 31
0.0
  0
SPLINE
  5
B5
330
1F
100
AcDbEntity
  8
0
  6
Continuous
 62
     7
370
    15
100
AcDbSpline
210
0.0
220
0.0
230
1.0
 70
     8
 71
     3
 72
    10
 73
     6
 74
     0
 42
0.00000001
 43
0.00000001
 40
0.0
 40
0.0
 40
0.0
 40
0.0
 40
0.5
 40
0.5
 40
1.0
 40
1.0
 40
1.0
 40
1.0
 10
112.1782204812083
 20
156.9523906030761
 30
0.0
 10
111.965684167352
 20
156.9523906030761
 30
0.0
 10
111.755747995698
 20
157.0438031897062
 30
0.0
 10
111.4620408546867
 20
157.3485480556105
 30
0.0
 10
111.3782204812083
 20
157.560703025519
 30
0.0
 10
111.3782204812083
 20
157.7716660837516
 30
0.0
  0
SPLINE
  5
B6
330
1F
100
AcDbEntity
  8
0
  6
Continuous
 62
     7
370
    15
100
AcDbSpline
210
0.0
220
0.0
230
1.0
 70
     8
 71
     3
 72
     8
 73
     4
 74
     0
 42
0.00000001
 43
0.00000001
 40
0.0
 40
0.0
 40
0.0
 40
0.0
 40
1.0
 40
1.0
 40
1.0
 40
1.0
 10
116.5502495021297
 20
161.0679096985671
 30
0.0
 10
116.0992225334165
 20
160.2705991283793
 30
0.0
 10
115.6485287168929
 20
159.4731008287221
 30
0.0
 10
115.1982204812084
 20
158.6753857036085
 30
0.0
  0
LINE
  5
B7
330
1F
100
AcDbEntity
  8
0
  6
Continuous
 62
     7
370
    15
100
AcDbLine
 10
115.1982204812
 20
147.973562349
 30
0.0
 11
115.1982204812
 21
158.6753857036
 31
0.0
  0
SPLINE
  5
B8
330
1F
100
AcDbEntity
  8
0
  6
Continuous
 62
     7
370
    15
100
AcDbSpline
210
0.0
220
0.0
230
1.0
 70
     8
 71
     3
 72
     8
 73
     4
 74
     0
 42
0.00000001
 43
0.00000001
 40
0.0
 40
0.0
 40
0.0
 40
0.0
 40
1.0
 40
1.0
 40
1.0
 40
1.0
 10
111.3782204812084
 20
158.6753857036085
 30
0.0
 10
110.9279122455238
 20
159.4731008287222
 30
0.0
 10
110.4772184290002
 20
160.2705991283793
 30
0.0
 10
110.0261914602869
 20
161.0679096985672
 30
0.0
  0
LINE
  5
B9
330
1F
100
AcDbEntity
  8
0
  6
Continuous
 62
     7
370
    15
100
AcDbLine
 10
111.3782204812
 20
147.973562349
 30
0.0
 11
111.3782204812
 21
158.6753857036
 31
0.0
  0
LINE
  5
BA
330
1F
100
AcDbEntity
  8
0
  6
Continuous
 62
     7
370
    15
100
AcDbLine
 10
114.3982204812
 20
156.9523906031
 30
0.0
 11
112.1782204812
 21
156.9523906031
 31
0.0
  0
ARC
  5
BB
330
1F
100
AcDbEntity
  8
0
  6
Continuous
 62
     7
370
    15
100
AcDbCircle
 10
102.2884777597
 20
144.6736692337
 30
0.0
 40
11.42053516404102
100
AcDbArc
 50
77.6340603254
 51
102.4327561028
  0
SPLINE
  5
BC
330
1F
100
AcDbEntity
  8
0
  6
Continuous
 62
     7
370
    15
100
AcDbSpline
210
0.0
220
0.0
230
1.0
 70
     8
 71
     3
 72
    70
 73
    66
 74
     0
 42
0.00000001
 43
0.00000001
 40
-0.03125
 40
-0.03125
 40
0.0
 40
0.0
 40
0.03125
 40
0.03125
 40
0.0625
 40
0.0625
 40
0.09375
 40
0.09375
 40
0.125
 40
0.125
 40
0.15625
 40
0.15625
 40
0.1875
 40
0.1875
 40
0.21875
 40
0.21875
 40
0.25
 40
0.25
 40
0.28125
 40
0.28125
 40
0.3125
 40
0.3125
 40
0.34375
 40
0.34375
 40
0.375
 40
0.375
 40
0.40625
 40
0.40625
 40
0.4375
 40
0.4375
 40
0.46875
 40
0.46875
 40
0.5
 40
0.5
 40
0.53125
 40
0.53125
 40
0.5625
 40
0.5625
 40
0.59375
 40
0.59375
 40
0.625
 40
0.625
 40
0.65625
 40
0.65625
 40
0.6875
 40
0.6875
 40
0.71875
 40
0.71875
 40
0.75
 40
0.75
 40
0.78125
 40
0.78125
 40
0.8125
 40
0.8125
 40
0.84375
 40
0.84375
 40
0.875
 40
0.875
 40
0.90625
 40
0.90625
 40
0.9375
 40
0.9375
 40
0.96875
 40
0.96875
 40
1.0
 40
1.0
 40
1.03125
 40
1.03125
 10
159.7122068249254
 20
114.2382604783215
 30
0.0
 10
160.050600625496
 20
114.5135984670328
 30
0.0
 10
160.2301125089452
 20
114.6330549073907
 30
0.0
 10
160.6078960093355
 20
114.8390163229344
 30
0.0
 10
160.8075536959909
 20
114.9259254416466
 30
0.0
 10
161.2197795678898
 20
115.0642266934374
 30
0.0
 10
161.4295041703666
 20
115.1149441002282
 30
0.0
 10
161.8558687367743
 20
115.1811842445986
 30
0.0
 10
162.074501309047
 20
115.196598216766
 30
0.0
 10
162.5082237108429
 20
115.1906693896348
 30
0.0
 10
162.7226461609178
 20
115.1697391329333
 30
0.0
 10
163.1466659890664
 20
115.0922904341759
 30
0.0
 10
163.3582921242878
 20
115.0349471351683
 30
0.0
 10
163.7647934470211
 20
114.8858628263965
 30
0.0
 10
163.9594074521467
 20
114.7947165729787
 30
0.0
 10
164.3310356662606
 20
114.578436412356
 30
0.0
 10
164.5099376933676
 20
114.4515683359179
 30
0.0
 10
164.8368788575665
 20
114.1687977925109
 30
0.0
 10
164.984964267672
 20
114.0136398205132
 30
0.0
 10
165.2487378610664
 20
113.6741776296757
 30
0.0
 10
165.3655241156215
 20
113.4870388912162
 30
0.0
 10
165.5521678709578
 20
113.0976617228804
 30
0.0
 10
165.6233154116684
 20
112.8948592980521
 30
0.0
 10
165.7183651218415
 20
112.4719221221634
 30
0.0
 10
165.7411705776955
 20
112.2524121271913
 30
0.0
 10
165.7346427510307
 20
111.8208213079964
 30
0.0
 10
165.7054486991933
 20
111.6030822851457
 30
0.0
 10
165.5975227961408
 20
111.181534551197
 30
0.0
 10
165.520041840257
 20
110.9797522285086
 30
0.0
 10
165.3206068072357
 20
110.593142889142
 30
0.0
 10
165.1994199990679
 20
110.4108383990045
 30
0.0
 10
164.9249978719743
 20
110.0771027363093
 30
0.0
 10
164.7690599620056
 20
109.9225658099072
 30
0.0
 10
164.4334900895442
 20
109.6482099382106
 30
0.0
 10
164.2542066697167
 20
109.5279893832404
 30
0.0
 10
163.8738068768867
 20
109.3195801784869
 30
0.0
 10
163.6727041488701
 20
109.2319262743448
 30
0.0
 10
163.2634275280292
 20
109.0939402649451
 30
0.0
 10
163.0535029820716
 20
109.0425689383221
 30
0.0
 10
162.6230216958368
 20
108.9751682196108
 30
0.0
 10
162.4054427380529
 20
108.9598451140147
 30
0.0
 10
161.9740387030314
 20
108.965224780633
 30
0.0
 10
161.7589097641056
 20
108.9857088593596
 30
0.0
 10
161.3298452523552
 20
109.0637756755956
 30
0.0
 10
161.1200469554264
 20
109.1207841566496
 30
0.0
 10
160.7157835924375
 20
109.2686551436116
 30
0.0
 10
160.5203138610423
 20
109.3596696969306
 30
0.0
 10
160.1437407277775
 20
109.5786966176778
 30
0.0
 10
159.9668706332212
 20
109.7044952895556
 30
0.0
 10
159.6419200601821
 20
109.9852420991094
 30
0.0
 10
159.4928439351916
 20
110.1406986853886
 30
0.0
 10
159.2249009325009
 20
110.4857906169834
 30
0.0
 10
159.1108422426268
 20
110.6694571317292
 30
0.0
 10
158.9249131105457
 20
111.0571223904636
 30
0.0
 10
158.8521566403218
 20
111.264271050703
 30
0.0
 10
158.7572937808912
 20
111.6892242848352
 30
0.0
 10
158.7351688034497
 20
111.9039435084066
 30
0.0
 10
158.7419401171942
 20
112.3379070012309
 30
0.0
 10
158.7717814335861
 20
112.5571173044358
 30
0.0
 10
158.8795581070448
 20
112.9762953246553
 30
0.0
 10
158.9585722732357
 20
113.1815660359234
 30
0.0
 10
159.1587594687015
 20
113.5678590689065
 30
0.0
 10
159.2786921579574
 20
113.7479104466998
 30
0.0
 10
159.5555904288907
 20
114.0836735921747
 30
0.0
 10
159.7122068249254
 20
114.2382604783215
 30
0.0
 10
160.050600625496
 20
114.5135984670328
 30
0.0
  0
CIRCLE
  5
BD
330
1F
100
AcDbEntity
  8
0
  6
Continuous
 62
     7
370
    15
100
AcDbCircle
 10
162.2382204812
 20
112.0781148429
 30
0.0
 40
2.5
  0
LINE
  5
BE
330
1F
100
AcDbEntity
  8
0
  6
Continuous
 62
     7
370
    15
100
AcDbLine
 10
171.2382204812
 20
90.0781148429
 30
0.0
 11
171.2382204812
 21
134.0781148429
 31
0.0
  0
LINE
  5
BF
330
1F
100
AcDbEntity
  8
0
  6
Continuous
 62
     7
370
    15
100
AcDbLine
 10
159.8814037241
 20
133.957786868
 30
0.0
 11
159.9942468848
 21
133.9486149829
 31
0.0
  0
SPLINE
  5
C0
330
1F
100
AcDbEntity
  8
0
  6
Continuous
 62
     7
370
    15
100
AcDbSpline
210
0.0
220
0.0
230
1.0
 70
     8
 71
     3
 72
    36
 73
    32
 74
     0
 42
0.00000001
 43
0.00000001
 40
0.0
 40
0.0
 40
0.0
 40
0.0
 40
0.028913728475156
 40
0.0526699238863738
 40
0.0744530527947867
 40
0.1187081143260497
 40
0.1412152299067695
 40
0.1640806903627418
 40
0.2104647274183365
 40
0.2340111865346908
 40
0.2593224913604521
 40
0.3106599740269839
 40
0.3367196506674519
 40
0.3647910180471324
 40
0.4217753538040718
 40
0.4507376620440366
 40
0.4807536775406153
 40
0.5417641359401683
 40
0.5728283269033239
 40
0.6034196977578872
 40
0.6342296417302051
 40
0.6657472591478855
 40
0.6975187685051429
 40
0.7271608847170833
 40
0.7876220121800097
 40
0.8185658977406421
 40
0.8454977048403112
 40
0.9005175710482236
 40
0.9287305010300764
 40
0.9523406030672542
 40
0.9999999999999999
 40
0.9999999999999999
 40
0.9999999999999999
 40
0.9999999999999999
 10
165.7281743322633
 20
134.0768639675184
 30
0.0
 10
165.7293544014503
 20
134.0770093367895
 30
0.0
 10
165.7315040430753
 20
134.0772741448532
 30
0.0
 10
165.6876659026866
 20
134.0718387996588
 30
0.0
 10
165.6149711526488
 20
134.0629520078674
 30
0.0
 10
165.5055501375815
 20
134.0498706137698
 30
0.0
 10
165.3623773770479
 20
134.0335371096361
 30
0.0
 10
165.1941625097147
 20
134.0150162193302
 30
0.0
 10
164.9928431112304
 20
133.9941760094439
 30
0.0
 10
164.759662880799
 20
133.9721296482588
 30
0.0
 10
164.4964879682985
 20
133.9489524580655
 30
0.0
 10
164.2006316713885
 20
133.9260714680007
 30
0.0
 10
163.8769935779769
 20
133.9051929797282
 30
0.0
 10
163.523248590361
 20
133.8855947704863
 30
0.0
 10
163.1427094338821
 20
133.8701610962822
 30
0.0
 10
162.7464279488636
 20
133.8605303339714
 30
0.0
 10
162.331970437859
 20
133.8550747962255
 30
0.0
 10
161.9067088139651
 20
133.856925414407
 30
0.0
 10
161.4862751258237
 20
133.866136180756
 30
0.0
 10
161.1745200148396
 20
133.8765565829693
 30
0.0
 10
160.8688031151043
 20
133.8902066137329
 30
0.0
 10
160.5693365315287
 20
133.9068713622514
 30
0.0
 10
160.2862391449718
 20
133.9256484426681
 30
0.0
 10
159.934654072685
 20
133.9523907430038
 30
0.0
 10
159.617846427431
 20
133.9809074836807
 30
0.0
 10
159.3521586537063
 20
134.0077164153931
 30
0.0
 10
159.1282317682057
 20
134.0317105147968
 30
0.0
 10
158.9538383168915
 20
134.0518730562293
 30
0.0
 10
158.8379760728047
 20
134.0658097544563
 30
0.0
 10
158.7588640906293
 20
134.0755230497662
 30
0.0
 10
158.7467717034202
 20
134.0770416779962
 30
0.0
 10
158.7386852724757
 20
134.0780572162932
 30
0.0
  0
SPLINE
  5
C1
330
1F
100
AcDbEntity
  8
0
  6
Continuous
 62
     7
370
    15
100
AcDbSpline
210
0.0
220
0.0
230
1.0
 70
     8
 71
     3
 72
     9
 73
     5
 74
     0
 42
0.00000001
 43
0.00000001
 40
0.0
 40
0.0
 40
0.0
 40
0.0
 40
0.3768304639708344
 40
1.0
 40
1.0
 40
1.0
 40
1.0
 10
159.5728280344951
 20
133.9859617867724
 30
0.0
 10
159.6092433572007
 20
133.9824321819026
 30
0.0
 10
159.7058791820275
 20
133.9730656226477
 30
0.0
 10
159.8140160945412
 20
133.9636527090045
 30
0.0
 10
159.88140372414
 20
133.9577868679767
 30
0.0
  0
LINE
  5
C2
330
1F
100
AcDbEntity
  8
0
  6
Continuous
 62
     7
370
    15
100
AcDbLine
 10
159.8814037245
 20
90.1984428179
 30
0.0
 11
159.8232694965
 21
90.193268115
 31
0.0
  0
SPLINE
  5
C3
330
1F
100
AcDbEntity
  8
0
  6
Continuous
 62
     7
370
    15
100
AcDbSpline
210
0.0
220
0.0
230
1.0
 70
     8
 71
     3
 72
    38
 73
    34
 74
     0
 42
0.00000001
 43
0.00000001
 40
0.0
 40
0.0
 40
0.0
 40
0.0
 40
0.0258008254549798
 40
0.0496281096181511
 40
0.0714072079754189
 40
0.1156575565807768
 40
0.1381645295546209
 40
0.1609638311610609
 40
0.2072149327081086
 40
0.2306946308047538
 40
0.2559088415902516
 40
0.307048692840337
 40
0.3330074506050113
 40
0.3609905886081461
 40
0.4177935323279764
 40
0.4466620191916487
 40
0.4766313433202676
 40
0.5068000742068324
 40
0.5375958932437129
 40
0.568608402690558
 40
0.5992016349238828
 40
0.6300128904966781
 40
0.6615292241960542
 40
0.6932981411054582
 40
0.7229999339321631
 40
0.783578014032317
 40
0.8145782759022272
 40
0.8416235463823143
 40
0.896874692196362
 40
0.9252064631743574
 40
0.948912446793844
 40
0.9972684220379696
 40
1.0
 40
1.0
 40
1.0
 40
1.0
 10
158.748840269981
 20
90.07943740463794
 30
0.0
 10
158.7468403633982
 20
90.07918936085157
 30
0.0
 10
158.7429935258892
 20
90.0787122464956
 30
0.0
 10
158.7828087841521
 20
90.08365489701123
 30
0.0
 10
158.8519495009928
 20
90.09212406873746
 30
0.0
 10
158.9582530092642
 20
90.10487301533149
 30
0.0
 10
159.0983661209017
 20
90.12092652872944
 30
0.0
 10
159.2633934183129
 20
90.13919121362247
 30
0.0
 10
159.4615234983758
 20
90.1598416613592
 30
0.0
 10
159.6915840152914
 20
90.18178522397169
 30
0.0
 10
159.951493132929
 20
90.20491513131832
 30
0.0
 10
160.2441495239231
 20
90.22786211916565
 30
0.0
 10
160.5648321937296
 20
90.24893580302331
 30
0.0
 10
160.915794604848
 20
90.26883259572996
 30
0.0
 10
161.293923509401
 20
90.2847028673403
 30
0.0
 10
161.6883258698895
 20
90.29488517989384
 30
0.0
 10
161.9955423961296
 20
90.29940089387169
 30
0.0
 10
162.3110008935354
 20
90.30040563007522
 30
0.0
 10
162.6296102666658
 20
90.29769553814407
 30
0.0
 10
162.9469711103874
 20
90.29125629788274
 30
0.0
 10
163.2594182177837
 20
90.28130263690296
 30
0.0
 10
163.5663465295799
 20
90.2680681009923
 30
0.0
 10
163.8673473894466
 20
90.25175987541584
 30
0.0
 10
164.1524853048246
 20
90.2332454721396
 30
0.0
 10
164.5074617732309
 20
90.20670755098752
 30
0.0
 10
164.8283889314855
 20
90.17818672268055
 30
0.0
 10
165.0987505217588
 20
90.15116272224422
 30
0.0
 10
165.3277778328512
 20
90.12680666511794
 30
0.0
 10
165.5068963590584
 20
90.10621214153417
 30
0.0
 10
165.6290799411499
 20
90.09155771459184
 30
0.0
 10
165.7091503370511
 20
90.08175931128146
 30
0.0
 10
165.744430849112
 20
90.0773409850754
 30
0.0
 10
165.737412037934
 20
90.07821555127263
 30
0.0
 10
165.7370367521994
 20
90.07826231306882
 30
0.0
  0
LINE
  5
C4
330
1F
100
AcDbEntity
  8
0
  6
Continuous
 62
     7
370
    15
100
AcDbLine
 10
202.4634015365
 20
91.5781148429
 30
0.0
 11
202.4634015365
 21
132.5781148429
 31
0.0
  0
LINE
  5
C5
330
1F
100
AcDbEntity
  8
0
  6
Continuous
 62
     7
370
    15
100
AcDbLine
 10
45.0382204812
 20
79.8281148429
 30
0.0
 11
45.0382204812
 21
79.8298296411
 31
0.0
  0
LINE
  5
C6
330
1F
100
AcDbEntity
  8
0
  6
Continuous
 62
     7
370
    15
100
AcDbLine
 10
253.2882204812
 20
97.4268958262
 30
0.0
 11
253.2882204812
 21
126.7293338128
 31
0.0
  0
LINE
  5
C7
330
1F
100
AcDbEntity
  8
0
  6
Continuous
 62
     7
370
    15
100
AcDbLine
 10
45.0382204812
 20
144.3281148429
 30
0.0
 11
45.0382204812
 21
144.3264000447
 31
0.0
  0
LINE
  5
C8
330
1F
100
AcDbEntity
  8
0
  6
Continuous
 62
     7
370
    15
100
AcDbLine
 10
253.3066529647
 20
126.2978315444
 30
0.0
 11
253.2882204812
 21
125.8286935119
 31
0.0
  0
LINE
  5
C9
330
1F
100
AcDbEntity
  8
0
  6
Continuous
 62
     7
370
    15
100
AcDbLine
 10
253.2882204812
 20
99.8286935119
 30
0.0
 11
253.3655426883
 21
97.860711925
 31
0.0
  0
SPLINE
  5
CA
330
1F
100
AcDbEntity
  8
0
  6
HIDDEN
 62
     7
370
     0
100
AcDbSpline
210
0.0
220
0.0
230
1.0
 70
     8
 71
     3
 72
    80
 73
    76
 74
     0
 42
0.00000001
 43
0.00000001
 40
-0.0312500000000007
 40
-0.0312500000000007
 40
0.0
 40
0.0
 40
0.0312499999999999
 40
0.0312499999999999
 40
0.0468749999999997
 40
0.0468749999999997
 40
0.0624999999999995
 40
0.0624999999999995
 40
0.0937499999999991
 40
0.0937499999999991
 40
0.1249999999999987
 40
0.1249999999999987
 40
0.1562499999999983
 40
0.1562499999999983
 40
0.1874999999999979
 40
0.1874999999999979
 40
0.2187499999999975
 40
0.2187499999999975
 40
0.2499999999999971
 40
0.2499999999999971
 40
0.2812499999999969
 40
0.2812499999999969
 40
0.3124999999999967
 40
0.3124999999999967
 40
0.3281249999999967
 40
0.3281249999999967
 40
0.3437499999999967
 40
0.3437499999999967
 40
0.3749999999999966
 40
0.3749999999999966
 40
0.4062499999999966
 40
0.4062499999999966
 40
0.4218749999999964
 40
0.4218749999999964
 40
0.4374999999999962
 40
0.4374999999999962
 40
0.4687499999999959
 40
0.4687499999999959
 40
0.4999999999999956
 40
0.4999999999999956
 40
0.5312499999999952
 40
0.5312499999999952
 40
0.5624999999999949
 40
0.5624999999999949
 40
0.5937499999999946
 40
0.5937499999999946
 40
0.6249999999999942
 40
0.6249999999999942
 40
0.6562499999999939
 40
0.6562499999999939
 40
0.6874999999999936
 40
0.6874999999999936
 40
0.7031249999999936
 40
0.7031249999999936
 40
0.7187499999999937
 40
0.7187499999999937
 40
0.7499999999999942
 40
0.7499999999999942
 40
0.7812499999999947
 40
0.7812499999999947
 40
0.7968749999999951
 40
0.7968749999999951
 40
0.8124999999999954
 40
0.8124999999999954
 40
0.8437499999999962
 40
0.8437499999999962
 40
0.874999999999997
 40
0.874999999999997
 40
0.9062499999999978
 40
0.9062499999999978
 40
0.9374999999999986
 40
0.9374999999999986
 40
0.9687499999999993
 40
0.9687499999999993
 40
1.0
 40
1.0
 40
1.03125
 40
1.03125
 10
101.957675168432
 20
160.9376640993816
 30
0.0
 10
102.6187657939847
 20
160.9376640993816
 30
0.0
 10
102.9437459232363
 20
160.9307659535547
 30
0.0
 10
103.4232193344827
 20
160.9102395255743
 30
0.0
 10
103.5817011523235
 20
160.9016832984867
 30
0.0
 10
103.8959206848278
 20
160.8809569232691
 30
0.0
 10
104.0520409685082
 20
160.8687296230627
 30
0.0
 10
104.5060949974648
 20
160.8271603292335
 30
0.0
 10
104.7931983804046
 20
160.7928160441357
 30
0.0
 10
105.3365529364316
 20
160.7094919198134
 30
0.0
 10
105.5936565476372
 20
160.6600536970389
 30
0.0
 10
106.054562802576
 20
160.548673967279
 30
0.0
 10
106.261460511791
 20
160.4863794537668
 30
0.0
 10
106.6269858257831
 20
160.3464498108958
 30
0.0
 10
106.7821913479091
 20
160.2698339131468
 30
0.0
 10
107.0316217345088
 20
160.1058752932911
 30
0.0
 10
107.127711690294
 20
160.0173184391954
 30
0.0
 10
107.2562305394876
 20
159.8298377570896
 30
0.0
 10
107.2880414096653
 20
159.7326012956352
 30
0.0
 10
107.2883980594386
 20
159.5309686563081
 30
0.0
 10
107.2559008072415
 20
159.4254198644699
 30
0.0
 10
107.1282753335271
 20
159.2153050817815
 30
0.0
 10
107.0338469324752
 20
159.1102395738125
 30
0.0
 10
106.8459861124896
 20
158.9533618665614
 30
0.0
 10
106.7751581136864
 20
158.9009281328557
 30
0.0
 10
106.6204362217211
 20
158.798489687226
 30
0.0
 10
106.5364597515377
 20
158.7483419585741
 30
0.0
 10
106.2651360818933
 20
158.6013260021406
 30
0.0
 10
106.058586863291
 20
158.5078381817061
 30
0.0
 10
105.591976723102
 20
158.3320513240918
 30
0.0
 10
105.3396111534765
 20
158.2526728490081
 30
0.0
 10
104.9337098117978
 20
158.1471904115141
 30
0.0
 10
104.7938091943203
 20
158.1143048466739
 30
0.0
 10
104.5045852590734
 20
158.0533893674452
 30
0.0
 10
104.3547458027841
 20
158.0253087958028
 30
0.0
 10
103.9006292331733
 20
157.95050675376
 30
0.0
 10
103.5889780144365
 20
157.9124686955139
 30
0.0
 10
102.9479815495241
 20
157.8608567689898
 30
0.0
 10
102.6164539215719
 20
157.8475428354683
 30
0.0
 10
101.9636628765004
 20
157.8474457491402
 30
0.0
 10
101.6391266714686
 20
157.8602338343013
 30
0.0
 10
100.9938572220522
 20
157.9117240238972
 30
0.0
 10
100.6781142158895
 20
157.9502486032173
 30
0.0
 10
100.0762249209058
 20
158.0491511660754
 30
0.0
 10
99.78547569009433
 20
158.1102552640004
 30
0.0
 10
99.23856389840982
 20
158.2520646971111
 30
0.0
 10
98.98678653457291
 20
158.3313991816902
 30
0.0
 10
98.52539854195179
 20
158.5047779263517
 30
0.0
 10
98.31412926235369
 20
158.5999378711057
 30
0.0
 10
97.9508249099775
 20
158.7965103944816
 30
0.0
 10
97.79701826153472
 20
158.8982666228881
 30
0.0
 10
97.6083987919373
 20
159.0550525856735
 30
0.0
 10
97.5523683057282
 20
159.1083066194235
 30
0.0
 10
97.45679454399203
 20
159.2141111809763
 30
0.0
 10
97.41703162696703
 20
159.2667642453318
 30
0.0
 10
97.32125987665489
 20
159.4238379647909
 30
0.0
 10
97.2885370375288
 20
159.5273630001181
 30
0.0
 10
97.2879084511997
 20
159.7315777343452
 30
0.0
 10
97.32009459593446
 20
159.82908157193
 30
0.0
 10
97.41500529779006
 20
159.9684086222816
 30
0.0
 10
97.45447208118901
 20
160.0137253537861
 30
0.0
 10
97.5494020799099
 20
160.1021651747749
 30
0.0
 10
97.60515890767327
 20
160.1454194252348
 30
0.0
 10
97.79309902564314
 20
160.2693108998248
 30
0.0
 10
97.94646049535933
 20
160.3450131905989
 30
0.0
 10
98.30872473023969
 20
160.4842675620571
 30
0.0
 10
98.51957320370559
 20
160.5480294035858
 30
0.0
 10
98.98024317402451
 20
160.6595262430536
 30
0.0
 10
99.23161755360833
 20
160.7080523153703
 30
0.0
 10
99.77752544050647
 20
160.7921062987508
 30
0.0
 10
100.0683480151577
 20
160.8269048524175
 30
0.0
 10
100.6696746299377
 20
160.8821013171813
 30
0.0
 10
100.9841932145501
 20
160.9029191659352
 30
0.0
 10
101.63077467067
 20
160.9307664988459
 30
0.0
 10
101.957675168432
 20
160.9376640993816
 30
0.0
 10
102.6187657939847
 20
160.9376640993816
 30
0.0
  0
LINE
  5
CB
330
1F
100
AcDbEntity
  8
0
  6
HIDDEN
 62
     7
370
     0
100
AcDbLine
 10
110.0261914603
 20
151.0290776038
 30
0.0
 11
110.0261914603
 21
143.4281148429
 31
0.0
  0
SPLINE
  5
CC
330
1F
100
AcDbEntity
  8
0
  6
HIDDEN
 62
     7
370
     0
100
AcDbSpline
210
0.0
220
0.0
230
1.0
 70
     8
 71
     3
 72
     9
 73
     5
 74
     0
 42
0.00000001
 43
0.00000001
 40
0.0
 40
0.0
 40
0.0
 40
0.0
 40
0.5038163044187015
 40
1.0
 40
1.0
 40
1.0
 40
1.0
 10
73.7016452306357
 20
75.34230848062948
 30
0.0
 10
73.4179660458956
 20
75.31815530653068
 30
0.0
 10
72.85490529884927
 20
75.27021486894073
 30
0.0
 10
72.49854425704098
 20
75.22890252065478
 30
0.0
 10
72.32172371835533
 20
75.20840400700912
 30
0.0
  0
SPLINE
  5
CD
330
1F
100
AcDbEntity
  8
0
  6
HIDDEN
 62
     7
370
     0
100
AcDbSpline
210
0.0
220
0.0
230
1.0
 70
     8
 71
     3
 72
    12
 73
     8
 74
     0
 42
0.00000001
 43
0.00000001
 40
0.0
 40
0.0
 40
0.0
 40
0.0
 40
0.1661348616725355
 40
0.3322013257383251
 40
0.5008932044678458
 40
0.7521370782640883
 40
1.0
 40
1.0
 40
1.0
 40
1.0
 10
71.80754214685653
 20
149.009418865969
 30
0.0
 10
71.8179347709634
 20
149.0080407419076
 30
0.0
 10
71.83871574054102
 20
149.0052850611576
 30
0.0
 10
72.01201522998896
 20
148.9836816861957
 30
0.0
 10
72.33396681923355
 20
148.9458167342539
 30
0.0
 10
72.8551326551535
 20
148.8854329675375
 30
0.0
 10
73.42069059499127
 20
148.8376398303881
 30
0.0
 10
73.70155401867932
 20
148.8139051372947
 30
0.0
  0
SPLINE
  5
CE
330
1F
100
AcDbEntity
  8
0
  6
HIDDEN
 62
     7
370
     0
100
AcDbSpline
210
0.0
220
0.0
230
1.0
 70
     8
 71
     3
 72
    33
 73
    29
 74
     0
 42
0.00000001
 43
0.00000001
 40
0.0
 40
0.0
 40
0.0
 40
0.0
 40
0.0315773698875104
 40
0.0633753287769057
 40
0.0958656851178231
 40
0.1285943208117605
 40
0.1601713694082662
 40
0.2244011681247345
 40
0.2571344568799636
 40
0.2885965627565487
 40
0.3526214070085076
 40
0.3852675959519929
 40
0.4162212184009612
 40
0.4791910353915302
 40
0.5112817741273479
 40
0.5421256322990662
 40
0.6048360558905652
 40
0.6367710793564881
 40
0.6680663384719832
 40
0.7316979547407203
 40
0.7641081282919966
 40
0.7957194290717577
 40
0.8275524266255816
 40
0.8600900250720824
 40
0.8928737620729298
 40
0.9241775068323748
 40
0.9878778414776339
 40
1.0
 40
1.0
 40
1.0
 40
1.0
 10
83.5414261363994
 20
80.71179262215655
 30
0.0
 10
83.45755498939414
 20
80.72566636053828
 30
0.0
 10
83.2892267994502
 20
80.75351075462304
 30
0.0
 10
82.9898722031087
 20
80.79994339485344
 30
0.0
 10
82.65587273584985
 20
80.84855599687427
 30
0.0
 10
82.29010277396257
 20
80.8977039300615
 30
0.0
 10
81.76672285927371
 20
80.96176971565414
 30
0.0
 10
81.19029565067912
 20
81.02155123005926
 30
0.0
 10
80.57515850382757
 20
81.07155083752332
 30
0.0
 10
79.93884277774465
 20
81.11369083020672
 30
0.0
 10
79.27506224030594
 20
81.14232555494476
 30
0.0
 10
78.60299648872284
 20
81.15458500602836
 30
0.0
 10
77.93354790529109
 20
81.15591429713665
 30
0.0
 10
77.26836333817714
 20
81.14105377422719
 30
0.0
 10
76.62207209928665
 20
81.11119580983801
 30
0.0
 10
75.99288214842828
 20
81.07245258177673
 30
0.0
 10
75.393166456249
 20
81.02187434801687
 30
0.0
 10
74.83486689012719
 20
80.96347433355034
 30
0.0
 10
74.30467201973963
 20
80.9011511021808
 30
0.0
 10
73.82550531742804
 20
80.83574252764525
 30
0.0
 10
73.41058733223319
 20
80.77295362403929
 30
0.0
 10
73.13331494830715
 20
80.72844902521788
 30
0.0
 10
72.89175966274597
 20
80.68774007578293
 30
0.0
 10
72.68626765839755
 20
80.65168294513344
 30
0.0
 10
72.52210323465331
 20
80.62192592018108
 30
0.0
 10
72.36266928808803
 20
80.59234060675666
 30
0.0
 10
72.28443106013941
 20
80.57739132775183
 30
0.0
 10
72.29215585048424
 20
80.57886375035304
 30
0.0
 10
72.29339085515369
 20
80.5790991546432
 30
0.0
  0
SPLINE
  5
CF
330
1F
100
AcDbEntity
  8
0
  6
HIDDEN
 62
     7
370
     0
100
AcDbSpline
210
0.0
220
0.0
230
1.0
 70
     8
 71
     3
 72
    32
 73
    28
 74
     0
 42
0.00000001
 43
0.00000001
 40
0.0
 40
0.0
 40
0.0
 40
0.0
 40
0.020356822172105
 40
0.0512207857583794
 40
0.1139954454389432
 40
0.1459779869097674
 40
0.1769364677636727
 40
0.2398766914470389
 40
0.2719275468465721
 40
0.3033698011481659
 40
0.3673099924152954
 40
0.3998847012176188
 40
0.4314690120325909
 40
0.4957360700021212
 40
0.5285028301030422
 40
0.5596434488300034
 40
0.6230067766607702
 40
0.6553079823205556
 40
0.6861132872619372
 40
0.748756262689177
 40
0.7806634244345373
 40
0.8117607067089887
 40
0.8749825776111492
 40
0.9071778073885584
 40
0.9301738434827028
 40
0.9765719131095674
 40
1.0
 40
1.0
 40
1.0
 40
1.0
 10
72.29339085515369
 20
143.577130531164
 30
0.0
 10
72.29303380324744
 20
143.5771980100909
 30
0.0
 10
72.29213540766094
 20
143.5773677970855
 30
0.0
 10
72.35472915421356
 20
143.5654735558982
 30
0.0
 10
72.49654033567708
 20
143.5388266789786
 30
0.0
 10
72.7205849275526
 20
143.498444607566
 30
0.0
 10
72.99512704338682
 20
143.4505753658156
 30
0.0
 10
73.34381833239436
 20
143.3931054805358
 30
0.0
 10
73.76009429477178
 20
143.3306109334812
 30
0.0
 10
74.22168834163456
 20
143.2660852518419
 30
0.0
 10
74.74522629072972
 20
143.2015048748587
 30
0.0
 10
75.31742376518447
 20
143.1427495099739
 30
0.0
 10
75.91963013563644
 20
143.0893766535917
 30
0.0
 10
76.56085664241792
 20
143.0465140917594
 30
0.0
 10
77.22194196041407
 20
143.0184500457383
 30
0.0
 10
77.88865291486063
 20
143.0008613881987
 30
0.0
 10
78.56254213546757
 20
142.999414739958
 30
0.0
 10
79.22689161941535
 20
143.0143402790958
 30
0.0
 10
79.878425893575
 20
143.0393470043194
 30
0.0
 10
80.509085106231
 20
143.0784510470014
 30
0.0
 10
81.10662408205347
 20
143.128552204785
 30
0.0
 10
81.68062205000822
 20
143.1847233712682
 30
0.0
 10
82.21157176340154
 20
143.247637399957
 30
0.0
 10
82.65495264466563
 20
143.3077409020106
 30
0.0
 10
83.00647329223926
 20
143.3586306189958
 30
0.0
 10
83.29614080221612
 20
143.4037530955337
 30
0.0
 10
83.47980356661381
 20
143.4342161074211
 30
0.0
 10
83.5414261363994
 20
143.4444370636507
 30
0.0
  0
SPLINE
  5
D0
330
1F
100
AcDbEntity
  8
0
  6
HIDDEN
 62
     7
370
     0
100
AcDbSpline
210
0.0
220
0.0
230
1.0
 70
     8
 71
     3
 72
    13
 73
     9
 74
     0
 42
0.00000001
 43
0.00000001
 40
0.0
 40
0.0
 40
0.0
 40
0.0
 40
0.1623799816591789
 40
0.3258962967501759
 40
0.4929818113643412
 40
0.6612959817031199
 40
0.8237063551432365
 40
1.0
 40
1.0
 40
1.0
 40
1.0
 10
83.5414261363994
 20
143.4444370636507
 30
0.0
 10
83.61701564535674
 20
143.4568128359076
 30
0.0
 10
83.76872363787317
 20
143.4816509859476
 30
0.0
 10
83.95162253771804
 20
143.5089093338713
 30
0.0
 10
84.10068478716046
 20
143.5300291815198
 30
0.0
 10
84.20463532760368
 20
143.5440156092552
 30
0.0
 10
84.27996727272104
 20
143.5538085826959
 30
0.0
 10
84.27173747405394
 20
143.5527372456725
 30
0.0
 10
84.26745390750294
 20
143.5521796204348
 30
0.0
  0
SPLINE
  5
D1
330
1F
100
AcDbEntity
  8
0
  6
HIDDEN
 62
     7
370
     0
100
AcDbSpline
210
0.0
220
0.0
230
1.0
 70
     8
 71
     3
 72
    13
 73
     9
 74
     0
 42
0.00000001
 43
0.00000001
 40
0.0
 40
0.0
 40
0.0
 40
0.0
 40
0.1540223516861439
 40
0.3222978879394844
 40
0.4885662367489577
 40
0.6560437831874955
 40
0.8273549263198314
 40
1.0
 40
1.0
 40
1.0
 40
1.0
 10
84.2674535562272
 20
80.60405011081434
 30
0.0
 10
84.27263922719662
 20
80.60337828137769
 30
0.0
 10
84.28349044965034
 20
80.60197245159961
 30
0.0
 10
84.21414901134153
 20
80.6109593444712
 30
0.0
 10
84.11403154712856
 20
80.62437346060695
 30
0.0
 10
83.96750377909852
 20
80.64501400897406
 30
0.0
 10
83.78128988120324
 20
80.67257946988852
 30
0.0
 10
83.62158717094766
 20
80.69868782027714
 30
0.0
 10
83.5414261363994
 20
80.71179262215654
 30
0.0
  0
LINE
  5
D2
330
1F
100
AcDbEntity
  8
0
  6
HIDDEN
 62
     7
370
     0
100
AcDbLine
 10
63.2848448082
 20
85.5781148429
 30
0.0
 11
63.2848448082
 21
138.5781148429
 31
0.0
  0
LINE
  5
D3
330
1F
100
AcDbEntity
  8
0
  6
HIDDEN
 62
     7
370
     0
100
AcDbLine
 10
102.5722980996
 20
85.5781148429
 30
0.0
 11
102.5722980996
 21
138.5781148429
 31
0.0
  0
LINE
  5
D4
330
1F
100
AcDbEntity
  8
0
  6
HIDDEN
 62
     7
370
     0
100
AcDbLine
 10
105.7382204812
 20
87.2031148429
 30
0.0
 11
105.7382204812
 21
136.9531148429
 31
0.0
  0
SPLINE
  5
D5
330
1F
100
AcDbEntity
  8
0
  6
HIDDEN
 62
     7
370
     0
100
AcDbSpline
210
0.0
220
0.0
230
1.0
 70
     8
 71
     3
 72
    20
 73
    16
 74
     0
 42
0.00000001
 43
0.00000001
 40
0.0
 40
0.0
 40
0.0
 40
0.0
 40
0.2499999999999963
 40
0.2499999999999963
 40
0.3749999999999969
 40
0.3749999999999969
 40
0.4999999999999976
 40
0.4999999999999976
 40
0.6249999999999981
 40
0.6249999999999981
 40
0.7499999999999988
 40
0.7499999999999988
 40
0.8749999999999993
 40
0.8749999999999993
 40
1.0
 40
1.0
 40
1.0
 40
1.0
 10
53.48822048120835
 20
137.3066284733179
 30
0.0
 10
53.48822048120835
 20
137.2274254867856
 30
0.0
 10
53.44123798599562
 20
137.1463292683827
 30
0.0
 10
53.30341639521806
 20
137.0261325766318
 30
0.0
 10
53.24713411130806
 20
136.9872058726297
 30
0.0
 10
53.11404925984085
 20
136.9120171402053
 30
0.0
 10
53.0362093176078
 20
136.8753749348634
 30
0.0
 10
52.86357696149344
 20
136.8077844020315
 30
0.0
 10
52.76918396440236
 20
136.7768262202559
 30
0.0
 10
52.56374665808722
 20
136.7213017988862
 30
0.0
 10
52.45140041810004
 20
136.696593285053
 30
0.0
 10
52.2191595542004
 20
136.6567970579447
 30
0.0
 10
52.09844891177767
 20
136.6413772205477
 30
0.0
 10
51.84737805250864
 20
136.6202972457081
 30
0.0
 10
51.71785605609286
 20
136.6148200006871
 30
0.0
 10
51.58822048120837
 20
136.6148200006871
 30
0.0
  0
LINE
  5
D6
330
1F
100
AcDbEntity
  8
0
  6
HIDDEN
 62
     7
370
     0
100
AcDbLine
 10
51.5882204812
 20
136.6148200007
 30
0.0
 11
45.0382204812
 21
136.6148200007
 31
0.0
  0
LINE
  5
D7
330
1F
100
AcDbEntity
  8
0
  6
HIDDEN
 62
     7
370
     0
100
AcDbLine
 10
45.0382204812
 20
87.5414096851
 30
0.0
 11
56.5882204812
 21
87.5414096851
 31
0.0
  0
SPLINE
  5
D8
330
1F
100
AcDbEntity
  8
0
  6
HIDDEN
 62
     7
370
     0
100
AcDbSpline
210
0.0
220
0.0
230
1.0
 70
     8
 71
     3
 72
    18
 73
    14
 74
     0
 42
0.00000001
 43
0.00000001
 40
0.0
 40
0.0
 40
0.0
 40
0.0
 40
0.1249999999999979
 40
0.1249999999999979
 40
0.2499999999999958
 40
0.2499999999999958
 40
0.4999999999999977
 40
0.4999999999999977
 40
0.7499999999999994
 40
0.7499999999999994
 40
0.8749999999999998
 40
0.8749999999999998
 40
1.0
 40
1.0
 40
1.0
 40
1.0
 10
56.58822048120835
 20
87.5414096851201
 30
0.0
 10
56.71768779416558
 20
87.54140968512012
 30
0.0
 10
56.84469854306221
 20
87.53605668652746
 30
0.0
 10
57.09406186425944
 20
87.51531871383867
 30
0.0
 10
57.2176855188879
 20
87.49964680958438
 30
0.0
 10
57.56671785582193
 20
87.43995208118228
 30
0.0
 10
57.77722962062873
 20
87.3821869015013
 30
0.0
 10
58.12114629832823
 20
87.24766506022381
 30
0.0
 10
58.25749669984605
 20
87.16999594671842
 30
0.0
 10
58.39453475640859
 20
87.05070481263107
 30
0.0
 10
58.42975377512147
 20
87.00978580349602
 30
0.0
 10
58.47637735206004
 20
86.92912981020598
 30
0.0
 10
58.48822048120836
 20
86.88916129001312
 30
0.0
 10
58.48822048120836
 20
86.84960121248932
 30
0.0
  0
LINE
  5
D9
330
1F
100
AcDbEntity
  8
0
  6
HIDDEN
 62
     7
370
     0
100
AcDbLine
 10
45.0382204812
 20
87.5414096851
 30
0.0
 11
45.0382204812
 21
136.6148200007
 31
0.0
  0
LWPOLYLINE
  5
DA
330
1F
100
AcDbEntity
  8
0
  6
HIDDEN
 62
     7
370
     0
100
AcDbPolyline
 90
       13
 70
   128
 43
0.0
 10
102.2882204812
 20
152.0218454062
 10
103.4412998349
 20
152.0766636005
 10
104.5322163822
 20
152.2381629202
 10
105.5021585296
 20
152.4976368954
 10
106.298836445
 20
152.8410972167
 10
106.8793010156
 20
153.2500278494
 10
107.2122592463
 20
153.7023832373
 10
107.2797612726
 20
154.1737767842
 10
107.0781680428
 20
154.6387955421
 10
106.6183475001
 20
155.0723702293
 10
105.9250886891
 20
155.4511267222
 10
105.0357653716
 20
155.7546461603
 10
104.7342389496
 20
155.8292452222
  0
LWPOLYLINE
  5
DB
330
1F
100
AcDbEntity
  8
0
  6
HIDDEN
 62
     7
370
     0
100
AcDbPolyline
 90
       13
 70
   128
 43
0.0
 10
99.8297089749
 20
155.8263854722
 10
99.5406755909
 20
155.7546461603
 10
98.6513522733
 20
155.4511267222
 10
97.9580934623
 20
155.0723702293
 10
97.4982729196
 20
154.6387955421
 10
97.2966796899
 20
154.1737767842
 10
97.3641817161
 20
153.7023832373
 10
97.6971399468
 20
153.2500278494
 10
98.2776045174
 20
152.8410972167
 10
99.0742824328
 20
152.4976368954
 10
100.0442245802
 20
152.2381629202
 10
101.1351411275
 20
152.0766636005
 10
102.2882204812
 20
152.0218454062
  0
LINE
  5
DC
330
1F
100
AcDbEntity
  8
0
  6
HIDDEN
 62
     7
370
     0
100
AcDbLine
 10
45.0382204812
 20
84.7081148429
 30
0.0
 11
45.0382204812
 21
79.8298296411
 31
0.0
  0
LINE
  5
DD
330
1F
100
AcDbEntity
  8
0
  6
HIDDEN
 62
     7
370
     0
100
AcDbLine
 10
58.4882204812
 20
84.7081148429
 30
0.0
 11
58.4882204812
 21
78.2087815775
 31
0.0
  0
LINE
  5
DE
330
1F
100
AcDbEntity
  8
0
  6
HIDDEN
 62
     7
370
     0
100
AcDbLine
 10
53.4882204812
 20
139.4481148429
 30
0.0
 11
53.4882204812
 21
145.8227235799
 31
0.0
  0
LINE
  5
DF
330
1F
100
AcDbEntity
  8
0
  6
HIDDEN
 62
     7
370
     0
100
AcDbLine
 10
45.0382204812
 20
139.4481148429
 30
0.0
 11
45.0382204812
 21
144.3264000447
 31
0.0
  0
LINE
  5
E0
330
1F
100
AcDbEntity
  8
0
  6
HIDDEN
 62
     7
370
     0
100
AcDbLine
 10
117.5882204812
 20
99.0781148429
 30
0.0
 11
117.5882204812
 21
125.0781148429
 31
0.0
  0
LINE
  5
E1
330
1F
100
AcDbEntity
  8
0
  6
HIDDEN
 62
     7
370
     0
100
AcDbLine
 10
121.5882204812
 20
99.0781148429
 30
0.0
 11
121.5882204812
 21
125.0781148429
 31
0.0
  0
LINE
  5
E2
330
1F
100
AcDbEntity
  8
0
  6
HIDDEN
 62
     7
370
     0
100
AcDbLine
 10
106.4882204812
 20
100.8281148429
 30
0.0
 11
106.4882204812
 21
123.3281148429
 31
0.0
  0
ELLIPSE
  5
E3
330
1F
100
AcDbEntity
  8
0
  6
HIDDEN
 62
     7
370
     0
100
AcDbEllipse
 10
37.1035472809
 20
112.0781148429
 30
0.0
 11
31.08108570811669
 21
-1.421085471520200E-14
 31
0.0
210
0.0
220
0.0
230
1.0
 40
0.8164965809
 41
4.915995335118105
 42
4.970536038964791
  0
ELLIPSE
  5
E4
330
1F
100
AcDbEntity
  8
0
  6
HIDDEN
 62
     7
370
     0
100
AcDbEllipse
 10
37.1035472809
 20
112.0781148429
 30
0.0
 11
31.08108570811669
 21
1.421085471520200E-14
 31
0.0
210
0.0
220
0.0
230
1.0
 40
0.8164965809
 41
1.312649268214807
 42
1.367189972061492
  0
LINE
  5
E5
330
1F
100
AcDbEntity
  8
0
  6
HIDDEN
 62
     7
370
     0
100
AcDbLine
 10
122.2382204812
 20
68.1781148429
 30
0.0
 11
108.2382204812
 21
68.1781148429
 31
0.0
  0
LINE
  5
E6
330
1F
100
AcDbEntity
  8
0
  6
HIDDEN
 62
     7
370
     0
100
AcDbLine
 10
98.2382204812
 20
62.0881158431
 30
0.0
 11
98.2382204812
 21
68.1781148429
 31
0.0
  0
LINE
  5
E7
330
1F
100
AcDbEntity
  8
0
  6
HIDDEN
 62
     7
370
     0
100
AcDbLine
 10
108.2382204812
 20
68.1781148429
 30
0.0
 11
98.2382204812
 21
68.1781148429
 31
0.0
  0
LINE
  5
E8
330
1F
100
AcDbEntity
  8
0
  6
HIDDEN
 62
     7
370
     0
100
AcDbLine
 10
249.7882204812
 20
102.0781148429
 30
0.0
 11
249.7882204812
 21
122.0781148429
 31
0.0
  0
SPLINE
  5
E9
330
1F
100
AcDbEntity
  8
0
  6
HIDDEN
 62
     7
370
     0
100
AcDbSpline
210
0.0
220
0.0
230
1.0
 70
     8
 71
     3
 72
    23
 73
    19
 74
     0
 42
0.00000001
 43
0.00000001
 40
0.0
 40
0.0
 40
0.0
 40
0.0
 40
0.0523711147022092
 40
0.1051090178675918
 40
0.1590014099607474
 40
0.2132913397102388
 40
0.2656618163481593
 40
0.3721632116965681
 40
0.4264157408029502
 40
0.4791354114000889
 40
0.5863490034135266
 40
0.6409703225475984
 40
0.6939087030238069
 40
0.7472178304706959
 40
0.8017020366617467
 40
0.8565949775386787
 40
0.9091538294312266
 40
1.0
 40
1.0
 40
1.0
 40
1.0
 10
203.7882204812084
 20
122.2683062051892
 30
0.0
 10
203.8293943615311
 20
122.2684507046038
 30
0.0
 10
203.9120304892348
 20
122.2687407154548
 30
0.0
 10
204.0361690677637
 20
122.2710890296147
 30
0.0
 10
204.160024811544
 20
122.2748319363496
 30
0.0
 10
204.2809073525538
 20
122.2799814925788
 30
0.0
 10
204.4366564682754
 20
122.2884137765759
 30
0.0
 10
204.5840956393454
 20
122.2989259005033
 30
0.0
 10
204.7197238754718
 20
122.3106359904188
 30
0.0
 10
204.8470439781477
 20
122.322844043368
 30
0.0
 10
204.9603410170001
 20
122.3352821631117
 30
0.0
 10
205.0564949655181
 20
122.3468548218274
 30
0.0
 10
205.1195774665186
 20
122.3548563399651
 30
0.0
 10
205.1732659193966
 20
122.3619642572134
 30
0.0
 10
205.2177655977297
 20
122.3680663888639
 30
0.0
 10
205.2512736113206
 20
122.3727856345438
 30
0.0
 10
205.2812523271976
 20
122.3770938400289
 30
0.0
 10
205.2838590938453
 20
122.3774783084581
 30
0.0
 10
205.2855104639538
 20
122.3777218667652
 30
0.0
  0
LINE
  5
EA
330
1F
100
AcDbEntity
  8
0
  6
HIDDEN
 62
     7
370
     0
100
AcDbLine
 10
203.8246560715
 20
122.2685267718
 30
0.0
 11
203.5969940243
 21
122.2702183108
 31
0.0
  0
SPLINE
  5
EB
330
1F
100
AcDbEntity
  8
0
  6
HIDDEN
 62
     7
370
     0
100
AcDbSpline
210
0.0
220
0.0
230
1.0
 70
     8
 71
     3
 72
    22
 73
    18
 74
     0
 42
0.00000001
 43
0.00000001
 40
0.0
 40
0.0
 40
0.0
 40
0.0
 40
0.0485087214454503
 40
0.154809550591626
 40
0.2089755252338084
 40
0.2612186933197931
 40
0.3674532577400114
 40
0.4215652858285602
 40
0.4742713221521567
 40
0.5814562394091322
 40
0.6360621773455135
 40
0.6890048364185183
 40
0.7423180915131107
 40
0.796805966231576
 40
0.8517024667775576
 40
0.9253362786146778
 40
1.0
 40
1.0
 40
1.0
 40
1.0
 10
202.2885577468347
 20
122.378065791467
 30
0.0
 10
202.2893071342826
 20
122.3779567154132
 30
0.0
 10
202.2916987111075
 20
122.3776086127553
 30
0.0
 10
202.3193461586188
 20
122.3735916766881
 30
0.0
 10
202.3663239810184
 20
122.3670047462116
 30
0.0
 10
202.4267324196391
 20
122.3587703226248
 30
0.0
 10
202.5062471612083
 20
122.3484471158796
 30
0.0
 10
202.6034224636092
 20
122.3368565495989
 30
0.0
 10
202.7120651279027
 20
122.3247081549852
 30
0.0
 10
202.8367393247117
 20
122.3122427785352
 30
0.0
 10
202.97442808588
 20
122.3005658167153
 30
0.0
 10
203.0834030110522
 20
122.2924530563646
 30
0.0
 10
203.1972773627652
 20
122.285206220447
 30
0.0
 10
203.3168598945842
 20
122.2789515049756
 30
0.0
 10
203.4553062132134
 20
122.2734113661881
 30
0.0
 10
203.6128819820082
 20
122.2691829860849
 30
0.0
 10
203.7295043384623
 20
122.2685998155056
 30
0.0
 10
203.7882204812084
 20
122.2683062051892
 30
0.0
  0
SPLINE
  5
EC
330
1F
100
AcDbEntity
  8
0
  6
HIDDEN
 62
     7
370
     0
100
AcDbSpline
210
0.0
220
0.0
230
1.0
 70
     8
 71
     3
 72
    26
 73
    22
 74
     0
 42
0.00000001
 43
0.00000001
 40
0.0
 40
0.0
 40
0.0
 40
0.0
 40
0.0525434497627336
 40
0.1066204398707523
 40
0.1591611335114194
 40
0.2132068895386802
 40
0.2660899371602109
 40
0.3204918511833426
 40
0.3736024034979786
 40
0.4282739164987376
 40
0.4810046224565903
 40
0.5352887493769449
 40
0.5876240339851794
 40
0.6414670088958805
 40
0.6940077648795516
 40
0.7480443195367902
 40
0.8010691975714337
 40
0.8556291054873538
 40
0.9086663223060548
 40
0.9632688169391662
 40
1.0
 40
1.0
 40
1.0
 40
1.0
 10
205.2882204812084
 20
101.7781148429036
 30
0.0
 10
205.2842607917528
 20
101.7786953006297
 30
0.0
 10
205.276225844801
 20
101.7798731574009
 30
0.0
 10
205.2116190459626
 20
101.7891012564771
 30
0.0
 10
205.1095139627992
 20
101.8028456809571
 30
0.0
 10
204.9706108442546
 20
101.8199487307366
 30
0.0
 10
204.7970453289458
 20
101.8386757526598
 30
0.0
 10
204.5959037805004
 20
101.8567119728688
 30
0.0
 10
204.3693968692049
 20
101.8722634832043
 30
0.0
 10
204.1283847959911
 20
101.8832523804906
 30
0.0
 10
203.8758539018327
 20
101.8885955839117
 30
0.0
 10
203.6243327749388
 20
101.8876370453597
 30
0.0
 10
203.3759170449002
 20
101.8805414567894
 30
0.0
 10
203.1417093979697
 20
101.8682734662103
 30
0.0
 10
202.9233970145644
 20
101.8519812046537
 30
0.0
 10
202.7302887321013
 20
101.8336722592728
 30
0.0
 10
202.5648626371089
 20
101.8151066805959
 30
0.0
 10
202.434503207186
 20
101.7985899972841
 30
0.0
 10
202.343100181323
 20
101.786047114039
 30
0.0
 10
202.2933500972023
 20
101.7788646164238
 30
0.0
 10
202.29276672772
 20
101.7787765995052
 30
0.0
 10
202.2925321170945
 20
101.7787412022057
 30
0.0
  0
LINE
  5
ED
330
1F
100
AcDbEntity
  8
0
  6
HIDDEN
 62
     7
370
     0
100
AcDbLine
 10
201.7882204812
 20
102.1781148429
 30
0.0
 11
201.7882204812
 21
121.9781145021
 31
0.0
  0
LINE
  5
EE
330
1F
100
AcDbEntity
  8
0
  6
HIDDEN
 62
     7
370
     0
100
AcDbLine
 10
212.2882204812
 20
102.0781148429
 30
0.0
 11
212.2882204812
 21
122.0781148429
 31
0.0
  0
LINE
  5
EF
330
1F
100
AcDbEntity
  8
0
  6
HIDDEN
 62
     7
370
     0
100
AcDbLine
 10
58.4882204812
 20
84.7081148429
 30
0.0
 11
58.4882204812
 21
86.8496012125
 31
0.0
  0
LINE
  5
F0
330
1F
100
AcDbEntity
  8
0
  6
HIDDEN
 62
     7
370
     0
100
AcDbLine
 10
45.0382204812
 20
84.7081148429
 30
0.0
 11
45.0382204812
 21
87.5414096851
 31
0.0
  0
LINE
  5
F1
330
1F
100
AcDbEntity
  8
0
  6
HIDDEN
 62
     7
370
     0
100
AcDbLine
 10
53.4882204812
 20
139.4481148429
 30
0.0
 11
53.4882204812
 21
137.3066284733
 31
0.0
  0
LINE
  5
F2
330
1F
100
AcDbEntity
  8
0
  6
HIDDEN
 62
     7
370
     0
100
AcDbLine
 10
45.0382204812
 20
139.4481148429
 30
0.0
 11
45.0382204812
 21
136.6148200007
 31
0.0
  0
LINE
  5
F3
330
1F
100
AcDbEntity
  8
0
  6
HIDDEN
 62
     7
370
     0
100
AcDbLine
 10
122.2382204812
 20
155.9781148429
 30
0.0
 11
108.2382204812
 21
155.9781148429
 31
0.0
  0
LINE
  5
F4
330
1F
100
AcDbEntity
  8
0
  6
HIDDEN
 62
     7
370
     0
100
AcDbLine
 10
108.2382204812
 20
155.9781148429
 30
0.0
 11
98.2382204812
 21
155.9781148429
 31
0.0
  0
SPLINE
  5
F5
330
1F
100
AcDbEntity
  8
0
  6
HIDDEN
 62
     7
370
     0
100
AcDbSpline
210
0.0
220
0.0
230
1.0
 70
     8
 71
     3
 72
    30
 73
    26
 74
     0
 42
0.00000001
 43
0.00000001
 40
0.0
 40
0.0
 40
0.0
 40
0.0
 40
0.0531668058202276
 40
0.1125460448583103
 40
0.1779415820676537
 40
0.2129647235110639
 40
0.2495168671262004
 40
0.291281589847634
 40
0.3261230015740527
 40
0.3540373900248375
 40
0.3750221080318999
 40
0.4414779845106176
 40
0.5001940042389676
 40
0.5547072404138226
 40
0.6144498352304115
 40
0.6794734232704714
 40
0.7140294936834801
 40
0.7499255024786287
 40
0.791388893361869
 40
0.8260548988045775
 40
0.8539197350949332
 40
0.8749805502089562
 40
0.9411652363101328
 40
0.9999141591659438
 40
1.0
 40
1.0
 40
1.0
 40
1.0
 10
84.28779733449105
 20
74.97817785351387
 30
0.0
 10
84.27159580288719
 20
74.98308000609457
 30
0.0
 10
84.2372996236353
 20
74.99345711782318
 30
0.0
 10
83.93595300915607
 20
75.06911838540535
 30
0.0
 10
83.4937807405028
 20
75.1654055187086
 30
0.0
 10
82.99894856963726
 20
75.26507022837706
 30
0.0
 10
82.52847276912973
 20
75.35734840127733
 30
0.0
 10
81.99755138316597
 20
75.45298042617284
 30
0.0
 10
81.45940087189007
 20
75.53863067107523
 30
0.0
 10
81.00135353950857
 20
75.60592246371324
 30
0.0
 10
80.34578921823207
 20
75.69427063273876
 30
0.0
 10
79.46248278079159
 20
75.79092871687395
 30
0.0
 10
78.33382104795929
 20
75.87770389367753
 30
0.0
 10
77.2440592981741
 20
75.91578259141856
 30
0.0
 10
76.14803101971565
 20
75.91763302619064
 30
0.0
 10
75.24263977279007
 20
75.89147157059794
 30
0.0
 10
74.54633706240772
 20
75.85486434545466
 30
0.0
 10
74.01965733458762
 20
75.8158474699919
 30
0.0
 10
73.55301122000756
 20
75.77363834255088
 30
0.0
 10
73.18179594443113
 20
75.73663425300903
 30
0.0
 10
72.92774946675169
 20
75.70793349253945
 30
0.0
 10
72.62669431364884
 20
75.67155354191704
 30
0.0
 10
72.37121051866316
 20
75.6387733748864
 30
0.0
 10
72.27198979370434
 20
75.6224354901943
 30
0.0
 10
72.28827035098897
 20
75.62502907636376
 30
0.0
 10
72.2882941045749
 20
75.62503286044627
 30
0.0
  0
SPLINE
  5
F6
330
1F
100
AcDbEntity
  8
0
  6
HIDDEN
 62
     7
370
     0
100
AcDbSpline
210
0.0
220
0.0
230
1.0
 70
     8
 71
     3
 72
    30
 73
    26
 74
     0
 42
0.00000001
 43
0.00000001
 40
0.0
 40
0.0
 40
0.0
 40
0.0
 40
0.0001123288057692
 40
0.0285431152706638
 40
0.0588466796121224
 40
0.0910271964548352
 40
0.1250880910051814
 40
0.1546766141816535
 40
0.1963554560804497
 40
0.2501101496293133
 40
0.3205253872349852
 40
0.385610430020096
 40
0.4454038608858225
 40
0.4999571692318041
 40
0.5283494388476924
 40
0.5586340270243796
 40
0.5908185964963244
 40
0.624909471458329
 40
0.654184457524067
 40
0.6958630078023593
 40
0.7499307292180755
 40
0.8215905285811296
 40
0.8871422909871766
 40
0.9466378748984584
 40
1.0
 40
1.0
 40
1.0
 40
1.0
 10
72.28831581330823
 20
148.5311265519319
 30
0.0
 10
72.28828395355009
 20
148.5311334990582
 30
0.0
 10
72.28018828527802
 20
148.5328987864512
 30
0.0
 10
72.308849762953
 20
148.5274438677255
 30
0.0
 10
72.38223660912
 20
148.5169010203799
 30
0.0
 10
72.52589315267362
 20
148.4972158127274
 30
0.0
 10
72.7269288526895
 20
148.4723765488593
 30
0.0
 10
73.00955940206346
 20
148.4381680837128
 30
0.0
 10
73.42296852770588
 20
148.3944881869539
 30
0.0
 10
74.09925602877973
 20
148.3314451194284
 30
0.0
 10
75.03768692950999
 20
148.270147949001
 30
0.0
 10
76.14718014297829
 20
148.2388595054997
 30
0.0
 10
77.24466087368515
 20
148.2405146730986
 30
0.0
 10
78.14469211215129
 20
148.2718208751967
 30
0.0
 10
78.85603303799611
 20
148.3186540239992
 30
0.0
 10
79.42144993896675
 20
148.3658208858941
 30
0.0
 10
80.01037336181729
 20
148.4252598924472
 30
0.0
 10
80.5747830139608
 20
148.4916170990062
 30
0.0
 10
81.16897920759051
 20
148.5735365054002
 30
0.0
 10
81.83558736863905
 20
148.6751844881525
 30
0.0
 10
82.6369201147655
 20
148.8173233987959
 30
0.0
 10
83.38943009956056
 20
148.9685679696023
 30
0.0
 10
83.93471659451168
 20
149.086418842865
 30
0.0
 10
84.23743812594145
 20
149.1626480746162
 30
0.0
 10
84.27172857654234
 20
149.1731003841087
 30
0.0
 10
84.28794201318534
 20
149.1780425139076
 30
0.0
  0
LINE
  5
F7
330
1F
100
AcDbEntity
  8
0
  6
HIDDEN
 62
     7
370
     0
100
AcDbLine
 10
181.4877901717
 20
106.0781148429
 30
0.0
 11
181.4877901717
 21
118.0781148429
 31
0.0
  0
LINE
  5
F8
330
1F
100
AcDbEntity
  8
0
  6
HIDDEN
 62
     7
370
     0
100
AcDbLine
 10
181.7882204812
 20
106.5781148429
 30
0.0
 11
181.7882204812
 21
117.5781148429
 31
0.0
  0
LINE
  5
F9
330
1F
100
AcDbEntity
  8
0
  6
HIDDEN
 62
     7
370
     0
100
AcDbLine
 10
162.2382204812
 20
133.5007645737
 30
0.0
 11
164.7382204812
 21
133.5007645737
 31
0.0
  0
LINE
  5
FA
330
1F
100
AcDbEntity
  8
0
  6
HIDDEN
 62
     7
370
     0
100
AcDbLine
 10
159.7382204812
 20
133.5007645737
 30
0.0
 11
162.2382204812
 21
133.5007645737
 31
0.0
  0
LINE
  5
FB
330
1F
100
AcDbEntity
  8
0
  6
HIDDEN
 62
     7
370
     0
100
AcDbLine
 10
164.7382204812
 20
90.6554651121
 30
0.0
 11
159.7382204812
 21
90.6554651121
 31
0.0
  0
LINE
  5
FC
330
1F
100
AcDbEntity
  8
0
  6
HIDDEN
 62
     7
370
     0
100
AcDbLine
 10
162.2382204812
 20
122.0781148429
 30
0.0
 11
164.7382204812
 21
122.0781148429
 31
0.0
  0
LINE
  5
FD
330
1F
100
AcDbEntity
  8
0
  6
HIDDEN
 62
     7
370
     0
100
AcDbLine
 10
159.7382204812
 20
122.0781148429
 30
0.0
 11
162.2382204812
 21
122.0781148429
 31
0.0
  0
LINE
  5
FE
330
1F
100
AcDbEntity
  8
0
  6
HIDDEN
 62
     7
370
     0
100
AcDbLine
 10
164.7382204812
 20
102.0781148429
 30
0.0
 11
159.7382204812
 21
102.0781148429
 31
0.0
  0
SPLINE
  5
FF
330
1F
100
AcDbEntity
  8
0
  6
HIDDEN
 62
     7
370
     0
100
AcDbSpline
210
0.0
220
0.0
230
1.0
 70
    11
 71
     3
 72
    42
 73
    38
 74
     0
 42
0.00000001
 43
0.00000001
 40
0.0
 40
0.0
 40
0.0
 40
0.0
 40
0.0624999999999996
 40
0.0624999999999996
 40
0.1249999999999993
 40
0.1249999999999993
 40
0.1874999999999989
 40
0.1874999999999989
 40
0.2499999999999985
 40
0.2499999999999985
 40
0.3124999999999981
 40
0.3124999999999981
 40
0.3749999999999978
 40
0.3749999999999978
 40
0.4374999999999974
 40
0.4374999999999974
 40
0.499999999999997
 40
0.499999999999997
 40
0.5624999999999967
 40
0.5624999999999967
 40
0.6249999999999962
 40
0.6249999999999962
 40
0.6874999999999959
 40
0.6874999999999959
 40
0.7499999999999956
 40
0.7499999999999956
 40
0.7812499999999957
 40
0.7812499999999957
 40
0.8124999999999958
 40
0.8124999999999958
 40
0.8437499999999959
 40
0.8437499999999959
 40
0.8749999999999961
 40
0.8749999999999961
 40
0.937499999999998
 40
0.937499999999998
 40
1.0
 40
1.0
 40
1.0
 40
1.0
 10
202.4866953722907
 20
128.0781148429036
 30
0.0
 10
202.5444013171144
 20
128.000925777508
 30
0.0
 10
202.6103246782765
 20
127.9096887135959
 30
0.0
 10
202.7406582174026
 20
127.708982477953
 30
0.0
 10
202.8070514779286
 20
127.5973621885498
 30
0.0
 10
202.914473940385
 20
127.3531998107338
 30
0.0
 10
202.9554253407849
 20
127.2168304362206
 30
0.0
 10
202.9622215997395
 20
126.9342949543599
 30
0.0
 10
202.9264741761278
 20
126.7959971886502
 30
0.0
 10
202.8211689233455
 20
126.550172538778
 30
0.0
 10
202.7532781450828
 20
126.4391324060191
 30
0.0
 10
202.620050724474
 20
126.2418445718398
 30
0.0
 10
202.5520916318479
 20
126.152718714277
 30
0.0
 10
202.4339815569277
 20
126.0034958276175
 30
0.0
 10
202.3820752725597
 20
125.9413876644171
 30
0.0
 10
202.3090495325467
 20
125.8549509905488
 30
0.0
 10
202.2884659858393
 20
125.8312310391968
 30
0.0
 10
202.2879795388319
 20
125.8306659645652
 30
0.0
 10
202.3081062800697
 20
125.8538549108237
 30
0.0
 10
202.3803612904868
 20
125.9393392544224
 30
0.0
 10
202.4321920801249
 20
126.0012789756506
 30
0.0
 10
202.5517876083864
 20
126.152291355874
 30
0.0
 10
202.6189854415042
 20
126.2403094057362
 30
0.0
 10
202.753647247901
 20
126.4396368625691
 30
0.0
 10
202.8209194924696
 20
126.5494810476137
 30
0.0
 10
202.9005296536282
 20
126.7354871532166
 30
0.0
 10
202.9230524285297
 20
126.8009359653695
 30
0.0
 10
202.9531814808845
 20
126.936420866177
 30
0.0
 10
202.9606231437768
 20
127.0077923508962
 30
0.0
 10
202.9569199221563
 20
127.1474409571648
 30
0.0
 10
202.9458803512788
 20
127.2177745875211
 30
0.0
 10
202.9108301067034
 20
127.3515875766951
 30
0.0
 10
202.8872471423171
 20
127.4152352731537
 30
0.0
 10
202.8060189149775
 20
127.5994016982934
 30
0.0
 10
202.7403467575329
 20
127.7095011137499
 30
0.0
 10
202.6099229400948
 20
127.9102681482694
 30
0.0
 10
202.5441785962784
 20
128.001223695049
 30
0.0
 10
202.4866953722907
 20
128.0781148429036
 30
0.0
  0
SPLINE
  5
100
330
1F
100
AcDbEntity
  8
0
  6
HIDDEN
 62
     7
370
     0
100
AcDbSpline
210
0.0
220
0.0
230
1.0
 70
     8
 71
     3
 72
    24
 73
    20
 74
     0
 42
0.00000001
 43
0.00000001
 40
0.0
 40
0.0
 40
0.0
 40
0.0
 40
0.125
 40
0.125
 40
0.25
 40
0.25
 40
0.375
 40
0.375
 40
0.5
 40
0.5
 40
0.5625
 40
0.5625
 40
0.625
 40
0.625
 40
0.75
 40
0.75
 40
0.875
 40
0.875
 40
1.0
 40
1.0
 40
1.0
 40
1.0
 10
205.2882204812084
 20
125.713075531018
 30
0.0
 10
205.2882204812084
 20
125.713075531018
 30
0.0
 10
205.2649495849968
 20
125.7416991898527
 30
0.0
 10
205.1840513072194
 20
125.8440290805457
 30
0.0
 10
205.1267185695735
 20
125.9174113720282
 30
0.0
 10
204.9994578574692
 20
126.0900763605894
 30
0.0
 10
204.9278646335699
 20
126.1912150086495
 30
0.0
 10
204.7901576035483
 20
126.414419321538
 30
0.0
 10
204.7219868613454
 20
126.5382367149238
 30
0.0
 10
204.6504442315218
 20
126.744093390506
 30
0.0
 10
204.6320506415564
 20
126.8168045797104
 30
0.0
 10
204.6145504808933
 20
126.9647893342458
 30
0.0
 10
204.6154962240462
 20
127.0389519708401
 30
0.0
 10
204.6484269966991
 20
127.2619710600253
 30
0.0
 10
204.7078285601221
 20
127.3980057389185
 30
0.0
 10
204.8403715093272
 20
127.6379899398435
 30
0.0
 10
204.9154721435686
 20
127.745871474102
 30
0.0
 10
205.0546820522961
 20
127.9335894238892
 30
0.0
 10
205.1207839560329
 20
128.0153256047352
 30
0.0
 10
205.1726586938133
 20
128.0781148429036
 30
0.0
  0
LINE
  5
101
330
1F
100
AcDbEntity
  8
0
  6
HIDDEN
 62
     7
370
     0
100
AcDbLine
 10
205.1726586938
 20
128.0781148429
 30
0.0
 11
202.4866953723
 21
128.0781148429
 31
0.0
  0
SPLINE
  5
102
330
1F
100
AcDbEntity
  8
0
  6
HIDDEN
 62
     7
370
     0
100
AcDbSpline
210
0.0
220
0.0
230
1.0
 70
    11
 71
     3
 72
    24
 73
    20
 74
     0
 42
0.00000001
 43
0.00000001
 40
0.0
 40
0.0
 40
0.0
 40
0.0
 40
0.125
 40
0.125
 40
0.25
 40
0.25
 40
0.375
 40
0.375
 40
0.5
 40
0.5
 40
0.625
 40
0.625
 40
0.75
 40
0.75
 40
0.875
 40
0.875
 40
0.9375
 40
0.9375
 40
1.0
 40
1.0
 40
1.0
 40
1.0
 10
202.9587581731304
 20
97.07811484290362
 30
0.0
 10
202.963570301861
 20
97.25558257980981
 30
0.0
 10
202.9067714829746
 20
97.42482767393312
 30
0.0
 10
202.7581921403312
 20
97.71796811757572
 30
0.0
 10
202.6699553866964
 20
97.84431570215429
 30
0.0
 10
202.506133223117
 20
98.06464481630316
 30
0.0
 10
202.4315770044007
 20
98.15529340580184
 30
0.0
 10
202.321496238234
 20
98.28708775673786
 30
0.0
 10
202.2887079002782
 20
98.32471762936868
 30
0.0
 10
202.2877444775632
 20
98.32583677758667
 30
0.0
 10
202.3192198209961
 20
98.28974291525817
 30
0.0
 10
202.4283833889727
 20
98.15918381076818
 30
0.0
 10
202.5043362065208
 20
98.06688509609731
 30
0.0
 10
202.6676772838265
 20
97.84755180902745
 30
0.0
 10
202.7571819990231
 20
97.71946013721795
 30
0.0
 10
202.8685526960506
 20
97.50047681415982
 30
0.0
 10
202.902159044999
 20
97.42132610073548
 30
0.0
 10
202.9485607239897
 20
97.25536016129071
 30
0.0
 10
202.9611679119069
 20
97.16698422134989
 30
0.0
 10
202.9587581731184
 20
97.07811484290187
 30
0.0
  0
LINE
  5
103
330
1F
100
AcDbEntity
  8
0
  6
HIDDEN
 62
     7
370
     0
100
AcDbLine
 10
202.9587581731
 20
97.0781148429
 30
0.0
 11
204.622015679
 21
97.0781148429
 31
0.0
  0
SPLINE
  5
104
330
1F
100
AcDbEntity
  8
0
  6
HIDDEN
 62
     7
370
     0
100
AcDbSpline
210
0.0
220
0.0
230
1.0
 70
    11
 71
     3
 72
    28
 73
    24
 74
     0
 42
0.00000001
 43
0.00000001
 40
0.0
 40
0.0
 40
0.0
 40
0.0
 40
0.0625000000000005
 40
0.0625000000000005
 40
0.1250000000000009
 40
0.1250000000000009
 40
0.2500000000000019
 40
0.2500000000000019
 40
0.3750000000000028
 40
0.3750000000000028
 40
0.5000000000000038
 40
0.5000000000000038
 40
0.5625000000000042
 40
0.5625000000000042
 40
0.6250000000000047
 40
0.6250000000000047
 40
0.7500000000000028
 40
0.7500000000000028
 40
0.8750000000000008
 40
0.8750000000000008
 40
0.9375000000000004
 40
0.9375000000000004
 40
1.0
 40
1.0
 40
1.0
 40
1.0
 10
204.6220156789582
 20
97.07811484290362
 30
0.0
 10
204.6122644457319
 20
97.17037243457595
 30
0.0
 10
204.6185133918896
 20
97.2626527728195
 30
0.0
 10
204.657115886102
 20
97.44136387405403
 30
0.0
 10
204.6878737377248
 20
97.52481137514442
 30
0.0
 10
204.7968824788911
 20
97.76423278626392
 30
0.0
 10
204.8863995608261
 20
97.90182448619147
 30
0.0
 10
205.0557866340949
 20
98.14616839706085
 30
0.0
 10
205.1344247078792
 20
98.24838893326573
 30
0.0
 10
205.2522023532956
 20
98.39901535637856
 30
0.0
 10
205.2878236275613
 20
98.44266197007242
 30
0.0
 10
205.2884137024825
 20
98.4433937911389
 30
0.0
 10
205.2799195819219
 20
98.43289492188981
 30
0.0
 10
205.2478367263143
 20
98.39282015959321
 30
0.0
 10
205.2239370296368
 20
98.36284623045816
 30
0.0
 10
205.1364329292942
 20
98.2509966849996
 30
0.0
 10
205.0563255004358
 20
98.14683053083152
 30
0.0
 10
204.888243009196
 20
97.90459726163978
 30
0.0
 10
204.7974406102355
 20
97.76478281422574
 30
0.0
 10
204.6892686890618
 20
97.528205284275
 30
0.0
 10
204.6575417225349
 20
97.44258142433286
 30
0.0
 10
204.6188095636046
 20
97.26476379097993
 30
0.0
 10
204.6122358052107
 20
97.17064340610852
 30
0.0
 10
204.6220156789703
 20
97.07811484290232
 30
0.0
  0
LINE
  5
105
330
1F
100
AcDbEntity
  8
0
  6
HIDDEN
 62
     7
370
     0
100
AcDbLine
 10
202.2784648632
 20
98.3249005345
 30
0.0
 11
202.3766144026
 21
95.8268279439
 31
0.0
  0
SPLINE
  5
106
330
1F
100
AcDbEntity
  8
0
  6
HIDDEN
 62
     7
370
     0
100
AcDbSpline
210
0.0
220
0.0
230
1.0
 70
     8
 71
     3
 72
    10
 73
     6
 74
     0
 42
0.00000001
 43
0.00000001
 40
0.0
 40
0.0
 40
0.0
 40
0.0
 40
0.5
 40
0.5
 40
1.0
 40
1.0
 40
1.0
 40
1.0
 10
202.9587581731088
 20
97.07811484290684
 30
0.0
 10
203.2294566262544
 20
96.98725697754045
 30
0.0
 10
203.5061856992014
 20
96.91713540066914
 30
0.0
 10
204.0795113384847
 20
96.91592096954541
 30
0.0
 10
204.3528817822809
 20
96.98533505619045
 30
0.0
 10
204.6220156789794
 20
97.07811484290679
 30
0.0
  0
SPLINE
  5
107
330
1F
100
AcDbEntity
  8
0
  6
HIDDEN
 62
     7
370
     0
100
AcDbSpline
210
0.0
220
0.0
230
1.0
 70
     8
 71
     3
 72
    10
 73
     6
 74
     0
 42
0.00000001
 43
0.00000001
 40
0.0
 40
0.0
 40
0.0
 40
0.0
 40
0.2841156044384521
 40
0.9492192365740586
 40
1.0
 40
1.0
 40
1.0
 40
1.0
 10
205.1726586938133
 20
128.0781148429036
 30
0.0
 10
205.1910934860954
 20
128.1002609215288
 30
0.0
 10
205.252683413516
 20
128.1742501129611
 30
0.0
 10
205.3007717532693
 20
128.2296471126946
 30
0.0
 10
205.2860577754966
 20
128.2124802566654
 30
0.0
 10
205.2850140496814
 20
128.2112625376312
 30
0.0
  0
SPLINE
  5
108
330
1F
100
AcDbEntity
  8
0
  6
HIDDEN
 62
     7
370
     0
100
AcDbSpline
210
0.0
220
0.0
230
1.0
 70
     8
 71
     3
 72
     9
 73
     5
 74
     0
 42
0.00000001
 43
0.00000001
 40
0.0
 40
0.0
 40
0.0
 40
0.0
 40
0.7075880875959455
 40
1.0
 40
1.0
 40
1.0
 40
1.0
 10
202.2983674548258
 20
128.1977307169278
 30
0.0
 10
202.3011821783993
 20
128.1972327329751
 30
0.0
 10
202.3051600910053
 20
128.1965289563549
 30
0.0
 10
202.3573308762418
 20
128.2200114708296
 30
0.0
 10
202.3725862353244
 20
128.2268780377952
 30
0.0
  0
LINE
  5
109
330
1F
100
AcDbEntity
  8
0
  6
HIDDEN
 62
     7
370
     0
100
AcDbLine
 10
202.3725862353
 20
128.2268780378
 30
0.0
 11
202.2795458231
 21
125.8588414175
 31
0.0
  0
LINE
  5
10A
330
1F
100
AcDbEntity
  8
0
  6
HIDDEN
 62
     7
370
     0
100
AcDbLine
 10
202.4866953723
 20
128.0781148429
 30
0.0
 11
202.2882204812
 21
128.0781148429
 31
0.0
  0
LINE
  5
10B
330
1F
100
AcDbEntity
  8
0
  6
HIDDEN
 62
     7
370
     0
100
AcDbLine
 10
205.2882204812
 20
128.0781148429
 30
0.0
 11
205.1726586938
 21
128.0781148429
 31
0.0
  0
LWPOLYLINE
  5
10C
330
1F
100
AcDbEntity
  8
0
  6
HIDDEN
 62
     7
370
     0
100
AcDbPolyline
 90
       28
 70
   128
 43
0.0
 10
102.2882204812
 20
157.3908206947
 10
103.4412998349
 20
157.3491727293
 10
104.5322163822
 20
157.2264740857
 10
105.5021585296
 20
157.0293394797
 10
106.298836445
 20
156.7683964887
 10
106.8793010156
 20
156.457712617
 10
107.2122592463
 20
156.1140369125
 10
107.2797612726
 20
155.7558970215
 10
107.0781680428
 20
155.4026003581
 10
106.6183475001
 20
155.0731932369
 10
105.9250886891
 20
154.7854340811
 10
105.0357653716
 20
154.5548360612
 10
103.9983211978
 20
154.3938307762
 10
102.8686850518
 20
154.3110980628
 10
101.7077559106
 20
154.3110980628
 10
100.5781197646
 20
154.3938307762
 10
99.5406755909
 20
154.5548360612
 10
98.6513522733
 20
154.7854340811
 10
97.9580934623
 20
155.0731932369
 10
97.4982729196
 20
155.4026003581
 10
97.2966796899
 20
155.7558970215
 10
97.3641817161
 20
156.1140369125
 10
97.6971399468
 20
156.457712617
 10
98.2776045174
 20
156.7683964887
 10
99.0742824328
 20
157.0293394797
 10
100.0442245802
 20
157.2264740857
 10
101.1351411275
 20
157.3491727293
 10
102.2882204812
 20
157.3908206947
  0
LINE
  5
10D
330
1F
100
AcDbEntity
  8
0
  6
HIDDEN
 62
     7
370
     0
100
AcDbLine
 10
111.3782204812
 20
146.7923500354
 30
0.0
 11
111.3782204812
 21
143.4281148429
 31
0.0
  0
LINE
  5
10E
330
1F
100
AcDbEntity
  8
0
  6
HIDDEN
 62
     7
370
     0
100
AcDbLine
 10
115.1982204812
 20
146.7923500354
 30
0.0
 11
115.1982204812
 21
143.4281148429
 31
0.0
  0
LINE
  5
10F
330
1F
100
AcDbEntity
  8
0
  6
HIDDEN
 62
     7
370
     0
100
AcDbLine
 10
116.5502495021
 20
151.0290776038
 30
0.0
 11
116.5502495021
 21
143.4281148429
 31
0.0
  0
CIRCLE
  5
110
330
1F
100
AcDbEntity
  8
0
  6
HIDDEN
 62
     7
370
     0
100
AcDbCircle
 10
100.2882204812
 20
112.0781148429
 30
0.0
 40
5.0
  0
LINE
  5
111
330
1F
100
AcDbEntity
  8
0
  6
HIDDEN
 62
     7
370
     0
100
AcDbLine
 10
253.1558434476
 20
126.5844732886
 30
0.0
 11
253.0380640003
 21
123.5867861799
 31
0.0
  0
LINE
  5
112
330
1F
100
AcDbEntity
  8
0
  6
HIDDEN
 62
     7
370
     0
100
AcDbLine
 10
247.8219056437
 20
126.7940442757
 30
0.0
 11
247.7041261964
 21
123.796357167
 31
0.0
  0
LINE
  5
113
330
1F
100
AcDbEntity
  8
0
  6
HIDDEN
 62
     7
370
     0
100
AcDbLine
 10
247.3026612177
 20
126.3140596655
 30
0.0
 11
247.2241415862
 21
124.315601593
 31
0.0
  0
LINE
  5
114
330
1F
100
AcDbEntity
  8
0
  6
HIDDEN
 62
     7
370
     0
100
AcDbLine
 10
253.2882204812
 20
125.8286935119
 30
0.0
 11
253.2108982741
 21
123.860711925
 31
0.0
  0
LINE
  5
115
330
1F
100
AcDbEntity
  8
0
  6
HIDDEN
 62
     7
370
     0
100
AcDbLine
 10
251.2603175469
 20
125.1577913662
 30
0.0
 11
251.2897624087
 21
125.9072131434
 31
0.0
  0
LINE
  5
116
330
1F
100
AcDbEntity
  8
0
  6
HIDDEN
 62
     7
370
     0
100
AcDbLine
 10
251.2603175469
 20
125.1577913662
 30
0.0
 11
253.2587756194
 21
125.0792717347
 31
0.0
  0
LINE
  5
117
330
1F
100
AcDbEntity
  8
0
  6
HIDDEN
 62
     7
370
     0
100
AcDbLine
 10
251.2308726851
 20
124.408369589
 30
0.0
 11
251.2603175469
 21
125.1577913662
 31
0.0
  0
LINE
  5
118
330
1F
100
AcDbEntity
  8
0
  6
HIDDEN
 62
     7
370
     0
100
AcDbLine
 10
251.2897624087
 20
125.9072131434
 30
0.0
 11
253.2882204812
 21
125.8286935119
 31
0.0
  0
LINE
  5
119
330
1F
100
AcDbEntity
  8
0
  6
HIDDEN
 62
     7
370
     0
100
AcDbLine
 10
251.2308726851
 20
124.408369589
 30
0.0
 11
253.2293307576
 21
124.3298499575
 31
0.0
  0
LINE
  5
11A
330
1F
100
AcDbEntity
  8
0
  6
HIDDEN
 62
     7
370
     0
100
AcDbLine
 10
253.1048434509
 20
100.3709503295
 30
0.0
 11
253.2147331712
 21
97.5740701807
 31
0.0
  0
LINE
  5
11B
330
1F
100
AcDbEntity
  8
0
  6
HIDDEN
 62
     7
370
     0
100
AcDbLine
 10
253.096953724
 20
100.5717572894
 30
0.0
 11
253.1048434509
 21
100.3709503295
 31
0.0
  0
LINE
  5
11C
330
1F
100
AcDbEntity
  8
0
  6
HIDDEN
 62
     7
370
     0
100
AcDbLine
 10
247.770905647
 20
100.1613793424
 30
0.0
 11
247.8807953673
 21
97.3644991936
 31
0.0
  0
LINE
  5
11D
330
1F
100
AcDbEntity
  8
0
  6
HIDDEN
 62
     7
370
     0
100
AcDbLine
 10
247.7630159201
 20
100.3621863024
 30
0.0
 11
247.770905647
 21
100.1613793424
 31
0.0
  0
LINE
  5
11E
330
1F
100
AcDbEntity
  8
0
  6
HIDDEN
 62
     7
370
     0
100
AcDbLine
 10
253.2762023457
 20
100.1345754859
 30
0.0
 11
253.2882204812
 21
99.8286935119
 31
0.0
  0
LINE
  5
11F
330
1F
100
AcDbEntity
  8
0
  6
HIDDEN
 62
     7
370
     0
100
AcDbLine
 10
253.2697879977
 20
100.2978315444
 30
0.0
 11
253.2762023457
 21
100.1345754859
 31
0.0
  0
LINE
  5
120
330
1F
100
AcDbEntity
  8
0
  6
HIDDEN
 62
     7
370
     0
100
AcDbLine
 10
247.2882911278
 20
99.7090705697
 30
0.0
 11
247.3615509413
 21
97.8444838039
 31
0.0
  0
LINE
  5
121
330
1F
100
AcDbEntity
  8
0
  6
HIDDEN
 62
     7
370
     0
100
AcDbLine
 10
247.2830313098
 20
99.8429418764
 30
0.0
 11
247.2882911278
 21
99.7090705697
 31
0.0
  0
LINE
  5
122
330
1F
100
AcDbEntity
  8
0
  6
HIDDEN
 62
     7
370
     0
100
AcDbLine
 10
251.3192072705
 20
99.0007521032
 30
0.0
 11
251.2897624087
 21
99.7501738803
 31
0.0
  0
LINE
  5
123
330
1F
100
AcDbEntity
  8
0
  6
HIDDEN
 62
     7
370
     0
100
AcDbLine
 10
251.3192072705
 20
99.0007521032
 30
0.0
 11
251.3486521324
 21
98.251330326
 31
0.0
  0
LINE
  5
124
330
1F
100
AcDbEntity
  8
0
  6
HIDDEN
 62
     7
370
     0
100
AcDbLine
 10
251.3192072705
 20
99.0007521032
 30
0.0
 11
253.317665343
 21
99.0792717347
 31
0.0
  0
LINE
  5
125
330
1F
100
AcDbEntity
  8
0
  6
HIDDEN
 62
     7
370
     0
100
AcDbLine
 10
251.2897624087
 20
99.7501738803
 30
0.0
 11
253.2882204812
 21
99.8286935119
 31
0.0
  0
LINE
  5
126
330
1F
100
AcDbEntity
  8
0
  6
HIDDEN
 62
     7
370
     0
100
AcDbLine
 10
251.3486521324
 20
98.251330326
 30
0.0
 11
253.3471102048
 21
98.3298499575
 31
0.0
  0
LINE
  5
127
330
1F
100
AcDbEntity
  8
0
  6
HIDDEN
 62
     7
370
     0
100
AcDbLine
 10
201.2882204812
 20
106.0781148429
 30
0.0
 11
201.2882204812
 21
118.0781148429
 31
0.0
  0
LINE
  5
128
330
1F
100
AcDbEntity
  8
0
  6
HIDDEN
 62
     7
370
     0
100
AcDbLine
 10
186.2882204812
 20
106.0781148429
 30
0.0
 11
186.2882204812
 21
118.0781148429
 31
0.0
  0
LINE
  5
129
330
1F
100
AcDbEntity
  8
0
  6
HIDDEN
 62
     7
370
     0
100
AcDbLine
 10
185.7882204812
 20
106.5781148429
 30
0.0
 11
185.7882204812
 21
117.5781148429
 31
0.0
  0
LINE
  5
12A
330
1F
100
AcDbEntity
  8
0
  6
HIDDEN
 62
     7
370
     0
100
AcDbLine
 10
205.7882204812
 20
110.5781148429
 30
0.0
 11
203.7882204812
 21
110.5781148429
 31
0.0
  0
LINE
  5
12B
330
1F
100
AcDbEntity
  8
0
  6
HIDDEN
 62
     7
370
     0
100
AcDbLine
 10
205.7882204812
 20
106.5781148429
 30
0.0
 11
205.7882204812
 21
110.5781148429
 31
0.0
  0
LINE
  5
12C
330
1F
100
AcDbEntity
  8
0
  6
HIDDEN
 62
     7
370
     0
100
AcDbLine
 10
205.7882204812
 20
113.5781148429
 30
0.0
 11
205.7882204812
 21
117.5781148429
 31
0.0
  0
LINE
  5
12D
330
1F
100
AcDbEntity
  8
0
  6
HIDDEN
 62
     7
370
     0
100
AcDbLine
 10
203.7882204812
 20
113.5781148429
 30
0.0
 11
205.7882204812
 21
113.5781148429
 31
0.0
  0
LINE
  5
12E
330
1F
100
AcDbEntity
  8
0
  6
HIDDEN
 62
     7
370
     0
100
AcDbLine
 10
203.7882204812
 20
110.5781148429
 30
0.0
 11
203.7882204812
 21
113.5781148429
 31
0.0
  0
LINE
  5
12F
330
1F
100
AcDbEntity
  8
0
  6
HIDDEN
 62
     7
370
     0
100
AcDbLine
 10
192.7882204811
 20
112.0781148429
 30
0.0
 11
192.7882204811
 21
113.5781148429
 31
0.0
  0
LINE
  5
130
330
1F
100
AcDbEntity
  8
0
  6
HIDDEN
 62
     7
370
     0
100
AcDbLine
 10
198.7882204812
 20
113.5781148429
 30
0.0
 11
198.7882204812
 21
112.0781148429
 31
0.0
  0
LINE
  5
131
330
1F
100
AcDbEntity
  8
0
  6
HIDDEN
 62
     7
370
     0
100
AcDbLine
 10
198.7882204812
 20
112.0781148429
 30
0.0
 11
198.7882204812
 21
110.5781148429
 31
0.0
  0
LINE
  5
132
330
1F
100
AcDbEntity
  8
0
  6
HIDDEN
 62
     7
370
     0
100
AcDbLine
 10
198.7882204812
 20
112.0781148429
 30
0.0
 11
203.7882204812
 21
112.0781148429
 31
0.0
  0
LINE
  5
133
330
1F
100
AcDbEntity
  8
0
  6
HIDDEN
 62
     7
370
     0
100
AcDbLine
 10
192.7882204811
 20
110.5781148429
 30
0.0
 11
192.7882204811
 21
112.0781148429
 31
0.0
  0
LINE
  5
134
330
1F
100
AcDbEntity
  8
0
  6
HIDDEN
 62
     7
370
     0
100
AcDbLine
 10
192.7882204811
 20
112.0781148429
 30
0.0
 11
185.7882204812
 21
112.0781148429
 31
0.0
  0
LINE
  5
135
330
1F
100
AcDbEntity
  8
0
  6
HIDDEN
 62
     7
370
     0
100
AcDbLine
 10
192.7882204811
 20
109.0781148429
 30
0.0
 11
192.7882204811
 21
110.5781148429
 31
0.0
  0
LINE
  5
136
330
1F
100
AcDbEntity
  8
0
  6
HIDDEN
 62
     7
370
     0
100
AcDbLine
 10
198.7882204812
 20
115.0781148429
 30
0.0
 11
198.7882204812
 21
113.5781148429
 31
0.0
  0
LINE
  5
137
330
1F
100
AcDbEntity
  8
0
  6
HIDDEN
 62
     7
370
     0
100
AcDbLine
 10
192.7882204811
 20
113.5781148429
 30
0.0
 11
192.7882204811
 21
115.0781148429
 31
0.0
  0
LINE
  5
138
330
1F
100
AcDbEntity
  8
0
  6
HIDDEN
 62
     7
370
     0
100
AcDbLine
 10
198.7882204812
 20
110.5781148429
 30
0.0
 11
198.7882204812
 21
109.0781148429
 31
0.0
  0
LINE
  5
139
330
1F
100
AcDbEntity
  8
0
  6
HIDDEN
 62
     7
370
     0
100
AcDbLine
 10
192.7882204811
 20
109.0781148429
 30
0.0
 11
185.7882204811
 21
109.0781148429
 31
0.0
  0
LINE
  5
13A
330
1F
100
AcDbEntity
  8
0
  6
HIDDEN
 62
     7
370
     0
100
AcDbLine
 10
192.7882204811
 20
115.0781148429
 30
0.0
 11
185.7882204811
 21
115.0781148429
 31
0.0
  0
LINE
  5
13B
330
1F
100
AcDbEntity
  8
0
  6
HIDDEN
 62
     7
370
     0
100
AcDbLine
 10
198.7882204812
 20
109.0781148429
 30
0.0
 11
205.7882204812
 21
109.0781148429
 31
0.0
  0
LINE
  5
13C
330
1F
100
AcDbEntity
  8
0
  6
HIDDEN
 62
     7
370
     0
100
AcDbLine
 10
198.7882204812
 20
115.0781148429
 30
0.0
 11
205.7882204812
 21
115.0781148429
 31
0.0
  0
LINE
  5
13D
330
1F
100
AcDbEntity
  8
0
  6
HIDDEN
 62
     7
370
     0
100
AcDbLine
 10
93.2882204812
 20
72.6734318863
 30
0.0
 11
93.3778221051
 21
73.3109805682
 31
0.0
  0
LINE
  5
13E
330
1F
100
AcDbEntity
  8
0
  6
HIDDEN
 62
     7
370
     0
100
AcDbLine
 10
93.3778221051
 20
150.8452491176
 30
0.0
 11
93.2882204812
 21
151.4827977995
 31
0.0
  0
ARC
  5
13F
330
1F
100
AcDbEntity
  8
0
  6
HIDDEN
 62
     7
370
     0
100
AcDbCircle
 10
92.3912835628
 20
73.4496295185
 30
0.0
 40
0.9962338214386983
100
AcDbArc
 50
352.0
 51
0.0
  0
ARC
  5
140
330
1F
100
AcDbEntity
  8
0
  6
HIDDEN
 62
     7
370
     0
100
AcDbCircle
 10
92.3912835628
 20
73.4496295185
 30
0.0
 40
0.9962338214386983
100
AcDbArc
 50
0.0
 51
25.7988228126
  0
ARC
  5
141
330
1F
100
AcDbEntity
  8
0
  6
HIDDEN
 62
     7
370
     0
100
AcDbCircle
 10
92.3912835628
 20
150.7066001673
 30
0.0
 40
0.9962338214387002
100
AcDbArc
 50
348.75
 51
8.0
  0
LWPOLYLINE
  5
142
330
1F
100
AcDbEntity
  8
0
  6
HIDDEN
 62
     7
370
     0
100
AcDbPolyline
 90
        3
 70
   128
 43
0.0
 10
93.3683750307
 20
150.5122445903
 10
93.3116836
 20
150.3253579891
 10
93.2882204812
 20
150.2730266542
  0
LINE
  5
143
330
1F
100
AcDbEntity
  8
0
  6
HIDDEN
 62
     7
370
     0
100
AcDbLine
 10
93.3875173842
 20
73.4496295185
 30
0.0
 11
93.3875173842
 21
150.7066001673
 31
0.0
  0
LINE
  5
144
330
1F
100
AcDbEntity
  8
0
  6
HIDDEN
 62
     7
370
     0
100
AcDbLine
 10
66.7489464234
 20
80.5781148429
 30
0.0
 11
72.2933908552
 21
80.5781148429
 31
0.0
  0
LINE
  5
145
330
1F
100
AcDbEntity
  8
0
  6
HIDDEN
 62
     7
370
     0
100
AcDbLine
 10
72.2933908552
 20
143.5781148429
 30
0.0
 11
66.7489464234
 21
143.5781148429
 31
0.0
  0
ARC
  5
146
330
1F
100
AcDbEntity
  8
0
  6
HIDDEN
 62
     7
370
     0
100
AcDbCircle
 10
66.7489464234
 20
81.5781148429
 30
0.0
 40
1.0
100
AcDbArc
 50
210.0
 51
270.0
  0
ARC
  5
147
330
1F
100
AcDbEntity
  8
0
  6
HIDDEN
 62
     7
370
     0
100
AcDbCircle
 10
66.7489464234
 20
142.5781148429
 30
0.0
 40
1.0
100
AcDbArc
 50
90.0
 51
150.0
  0
ARC
  5
148
330
1F
100
AcDbEntity
  8
0
  6
HIDDEN
 62
     7
370
     0
100
AcDbCircle
 10
83.5414261364
 20
92.5781148429
 30
0.0
 40
12.00000000000002
100
AcDbArc
 50
273.4752677657
 51
324.3146652873
  0
ARC
  5
149
330
1F
100
AcDbEntity
  8
0
  6
HIDDEN
 62
     7
370
     0
100
AcDbCircle
 10
83.5414261364
 20
131.5781148429
 30
0.0
 40
12.00000000000002
100
AcDbArc
 50
35.6853347127
 51
86.5206515763
  0
LINE
  5
14A
330
1F
100
AcDbEntity
  8
0
  6
HIDDEN
 62
     7
370
     0
100
AcDbLine
 10
65.8829210196
 20
143.0781148429
 30
0.0
 11
63.2848448082
 21
138.5781148429
 31
0.0
  0
LINE
  5
14B
330
1F
100
AcDbEntity
  8
0
  6
HIDDEN
 62
     7
370
     0
100
AcDbLine
 10
63.2848448082
 20
85.5781148429
 30
0.0
 11
65.8829210196
 21
81.0781148429
 31
0.0
  0
ARC
  5
14C
330
1F
100
AcDbEntity
  8
0
  6
HIDDEN
 62
     7
370
     0
100
AcDbCircle
 10
103.7382204812
 20
87.2031148429
 30
0.0
 40
2.0
100
AcDbArc
 50
234.3409123039
 51
0.0
  0
ARC
  5
14D
330
1F
100
AcDbEntity
  8
0
  6
HIDDEN
 62
     7
370
     0
100
AcDbCircle
 10
103.7382204812
 20
136.9531148429
 30
0.0
 40
2.0
100
AcDbArc
 50
0.0
 51
125.6590876961
  0
LINE
  5
14E
330
1F
100
AcDbEntity
  8
0
  6
HIDDEN
 62
     7
370
     0
100
AcDbLine
 10
58.4882204812
 20
85.5781148429
 30
0.0
 11
63.2848448082
 21
85.5781148429
 31
0.0
  0
LINE
  5
14F
330
1F
100
AcDbEntity
  8
0
  6
HIDDEN
 62
     7
370
     0
100
AcDbLine
 10
63.2848448082
 20
138.5781148429
 30
0.0
 11
53.4882204812
 21
138.5781148429
 31
0.0
  0
LINE
  5
150
330
1F
100
AcDbEntity
  8
0
  6
HIDDEN
 62
     7
370
     0
100
AcDbLine
 10
93.2882204812
 20
85.5781148429
 30
0.0
 11
102.5722980996
 21
85.5781148429
 31
0.0
  0
LINE
  5
151
330
1F
100
AcDbEntity
  8
0
  6
HIDDEN
 62
     7
370
     0
100
AcDbLine
 10
102.5722980996
 20
138.5781148429
 30
0.0
 11
93.2882204812
 21
138.5781148429
 31
0.0
  0
LINE
  5
152
330
1F
100
AcDbEntity
  8
0
  6
HIDDEN
 62
     7
370
     0
100
AcDbLine
 10
97.2882204812
 20
157.755277725
 30
0.0
 11
97.2882204812
 21
154.0555286216
 31
0.0
  0
LINE
  5
153
330
1F
100
AcDbEntity
  8
0
  6
HIDDEN
 62
     7
370
     0
100
AcDbLine
 10
107.2882204812
 20
154.0555286216
 30
0.0
 11
107.2882204812
 21
157.7539057758
 31
0.0
  0
LINE
  5
154
330
1F
100
AcDbEntity
  8
0
  6
HIDDEN
 62
     7
370
     0
100
AcDbLine
 10
117.5882204812
 20
99.0781148429
 30
0.0
 11
121.5882204812
 21
99.0781148429
 31
0.0
  0
LINE
  5
155
330
1F
100
AcDbEntity
  8
0
  6
HIDDEN
 62
     7
370
     0
100
AcDbLine
 10
121.5882204812
 20
125.0781148429
 30
0.0
 11
117.5882204812
 21
125.0781148429
 31
0.0
  0
LINE
  5
156
330
1F
100
AcDbEntity
  8
0
  6
HIDDEN
 62
     7
370
     0
100
AcDbLine
 10
105.7382204812
 20
100.0781148429
 30
0.0
 11
106.4882204812
 21
100.8281148429
 31
0.0
  0
LINE
  5
157
330
1F
100
AcDbEntity
  8
0
  6
HIDDEN
 62
     7
370
     0
100
AcDbLine
 10
106.4882204812
 20
123.3281148429
 30
0.0
 11
105.7382204812
 21
124.0781148429
 31
0.0
  0
LINE
  5
158
330
1F
100
AcDbEntity
  8
0
  6
HIDDEN
 62
     7
370
     0
100
AcDbLine
 10
106.4882204812
 20
100.8281148429
 30
0.0
 11
117.5882204812
 21
100.8281148429
 31
0.0
  0
LINE
  5
159
330
1F
100
AcDbEntity
  8
0
  6
HIDDEN
 62
     7
370
     0
100
AcDbLine
 10
117.5882204812
 20
123.3281148429
 30
0.0
 11
106.4882204812
 21
123.3281148429
 31
0.0
  0
ARC
  5
15A
330
1F
100
AcDbEntity
  8
0
  6
HIDDEN
 62
     7
370
     0
100
AcDbCircle
 10
252.7882204812
 20
101.0414205948
 30
0.0
 40
0.5000000000000568
100
AcDbArc
 50
0.0
 51
80.0
  0
ARC
  5
15B
330
1F
100
AcDbEntity
  8
0
  6
HIDDEN
 62
     7
370
     0
100
AcDbCircle
 10
252.7882204812
 20
123.114809091
 30
0.0
 40
0.5000000000000568
100
AcDbArc
 50
280.0
 51
0.0
  0
LINE
  5
15C
330
1F
100
AcDbEntity
  8
0
  6
HIDDEN
 62
     7
370
     0
100
AcDbLine
 10
252.87504457
 20
122.6224052145
 30
0.0
 11
249.7882204812
 21
122.0781148429
 31
0.0
  0
LINE
  5
15D
330
1F
100
AcDbEntity
  8
0
  6
HIDDEN
 62
     7
370
     0
100
AcDbLine
 10
249.7882204812
 20
102.0781148429
 30
0.0
 11
252.87504457
 21
101.5338244713
 31
0.0
  0
LINE
  5
15E
330
1F
100
AcDbEntity
  8
0
  6
HIDDEN
 62
     7
370
     0
100
AcDbLine
 10
205.2882204812
 20
101.7781148429
 30
0.0
 11
211.3934464631
 21
101.7781148429
 31
0.0
  0
LINE
  5
15F
330
1F
100
AcDbEntity
  8
0
  6
HIDDEN
 62
     7
370
     0
100
AcDbLine
 10
202.1882204812
 20
101.7781148429
 30
0.0
 11
202.2925321171
 21
101.7781148429
 31
0.0
  0
LINE
  5
160
330
1F
100
AcDbEntity
  8
0
  6
HIDDEN
 62
     7
370
     0
100
AcDbLine
 10
202.2885577468
 20
122.3781148429
 30
0.0
 11
202.1882204812
 21
122.3781148429
 31
0.0
  0
LINE
  5
161
330
1F
100
AcDbEntity
  8
0
  6
HIDDEN
 62
     7
370
     0
100
AcDbLine
 10
211.3934464631
 20
122.3781148429
 30
0.0
 11
205.285510464
 21
122.3781148429
 31
0.0
  0
ARC
  5
162
330
1F
100
AcDbEntity
  8
0
  6
HIDDEN
 62
     7
370
     0
100
AcDbCircle
 10
202.1882204812
 20
102.1781148429
 30
0.0
 40
0.4000000000000341
100
AcDbArc
 50
180.0
 51
270.0
  0
ARC
  5
163
330
1F
100
AcDbEntity
  8
0
  6
HIDDEN
 62
     7
370
     0
100
AcDbCircle
 10
202.1882204812
 20
121.9781148429
 30
0.0
 40
0.4000000000000341
100
AcDbArc
 50
90.0
 51
180.0
  0
ARC
  5
164
330
1F
100
AcDbEntity
  8
0
  6
HIDDEN
 62
     7
370
     0
100
AcDbCircle
 10
211.3934464631
 20
102.1781148429
 30
0.0
 40
0.4000000000000199
100
AcDbArc
 50
270.0
 51
290.0
  0
ARC
  5
165
330
1F
100
AcDbEntity
  8
0
  6
HIDDEN
 62
     7
370
     0
100
AcDbCircle
 10
211.3934464631
 20
121.9781148429
 30
0.0
 40
0.4000000000000111
100
AcDbArc
 50
70.0
 51
90.0
  0
LINE
  5
166
330
1F
100
AcDbEntity
  8
0
  6
HIDDEN
 62
     7
370
     0
100
AcDbLine
 10
211.5302545204
 20
101.8022377946
 30
0.0
 11
212.2882204812
 21
102.0781148429
 31
0.0
  0
LINE
  5
167
330
1F
100
AcDbEntity
  8
0
  6
HIDDEN
 62
     7
370
     0
100
AcDbLine
 10
212.2882204812
 20
122.0781148429
 30
0.0
 11
211.5302545204
 21
122.3539918912
 31
0.0
  0
LINE
  5
168
330
1F
100
AcDbEntity
  8
0
  6
HIDDEN
 62
     7
370
     0
100
AcDbLine
 10
98.2382204812
 20
162.0781148429
 30
0.0
 11
98.2382204812
 21
155.9781148429
 31
0.0
  0
LINE
  5
169
330
1F
100
AcDbEntity
  8
0
  6
HIDDEN
 62
     7
370
     0
100
AcDbLine
 10
212.2882204812
 20
102.0781148429
 30
0.0
 11
249.7882204812
 21
102.0781148429
 31
0.0
  0
LINE
  5
16A
330
1F
100
AcDbEntity
  8
0
  6
HIDDEN
 62
     7
370
     0
100
AcDbLine
 10
249.7882204812
 20
122.0781148429
 30
0.0
 11
212.2882204812
 21
122.0781148429
 31
0.0
  0
LINE
  5
16B
330
1F
100
AcDbEntity
  8
0
  6
HIDDEN
 62
     7
370
     0
100
AcDbLine
 10
84.7209330973
 20
74.4998352723
 30
0.0
 11
84.2882238108
 21
74.9780599897
 31
0.0
  0
LINE
  5
16C
330
1F
100
AcDbEntity
  8
0
  6
HIDDEN
 62
     7
370
     0
100
AcDbLine
 10
72.2882209392
 20
75.6250213464
 30
0.0
 11
71.807593634
 21
75.1467966355
 31
0.0
  0
LINE
  5
16D
330
1F
100
AcDbEntity
  8
0
  6
HIDDEN
 62
     7
370
     0
100
AcDbLine
 10
71.8074752925
 20
149.0094271341
 30
0.0
 11
72.2882207566
 21
148.5311474623
 31
0.0
  0
LINE
  5
16E
330
1F
100
AcDbEntity
  8
0
  6
HIDDEN
 62
     7
370
     0
100
AcDbLine
 10
84.2882204833
 20
149.1781198496
 30
0.0
 11
84.7210421531
 21
149.6563995225
 31
0.0
  0
LINE
  5
16F
330
1F
100
AcDbEntity
  8
0
  6
HIDDEN
 62
     7
370
     0
100
AcDbLine
 10
84.2882204812
 20
74.8779311471
 30
0.0
 11
84.2882204812
 21
80.6040499489
 31
0.0
  0
LINE
  5
170
330
1F
100
AcDbEntity
  8
0
  6
HIDDEN
 62
     7
370
     0
100
AcDbLine
 10
72.2882204812
 20
80.5790990423
 30
0.0
 11
72.2882204812
 21
75.6250597609
 31
0.0
  0
LINE
  5
171
330
1F
100
AcDbEntity
  8
0
  6
HIDDEN
 62
     7
370
     0
100
AcDbLine
 10
84.2882204812
 20
143.5521797369
 30
0.0
 11
84.2882204812
 21
149.2781236757
 31
0.0
  0
LINE
  5
172
330
1F
100
AcDbEntity
  8
0
  6
HIDDEN
 62
     7
370
     0
100
AcDbLine
 10
72.2882204812
 20
148.531136963
 30
0.0
 11
72.2882204812
 21
143.5771306435
 31
0.0
  0
LINE
  5
173
330
1F
100
AcDbEntity
  8
0
  6
HIDDEN
 62
     7
370
     0
100
AcDbLine
 10
201.7882204812
 20
118.0781148429
 30
0.0
 11
201.2882204812
 21
117.5781148429
 31
0.0
  0
LINE
  5
174
330
1F
100
AcDbEntity
  8
0
  6
HIDDEN
 62
     7
370
     0
100
AcDbLine
 10
201.2882204812
 20
106.5781148429
 30
0.0
 11
201.7882204812
 21
106.0781148429
 31
0.0
  0
LINE
  5
175
330
1F
100
AcDbEntity
  8
0
  6
HIDDEN
 62
     7
370
     0
100
AcDbLine
 10
181.4877901717
 20
106.0781148429
 30
0.0
 11
181.7882204812
 21
106.5781148429
 31
0.0
  0
LINE
  5
176
330
1F
100
AcDbEntity
  8
0
  6
HIDDEN
 62
     7
370
     0
100
AcDbLine
 10
181.7882204812
 20
117.5781148429
 30
0.0
 11
181.4877901717
 21
118.0781148429
 31
0.0
  0
LINE
  5
177
330
1F
100
AcDbEntity
  8
0
  6
HIDDEN
 62
     7
370
     0
100
AcDbLine
 10
121.5882204812
 20
106.0781148429
 30
0.0
 11
181.4877901717
 21
106.0781148429
 31
0.0
  0
LINE
  5
178
330
1F
100
AcDbEntity
  8
0
  6
HIDDEN
 62
     7
370
     0
100
AcDbLine
 10
181.4877901717
 20
118.0781148429
 30
0.0
 11
121.5882204812
 21
118.0781148429
 31
0.0
  0
LINE
  5
179
330
1F
100
AcDbEntity
  8
0
  6
HIDDEN
 62
     7
370
     0
100
AcDbLine
 10
181.7882204812
 20
106.5781148429
 30
0.0
 11
201.2882204812
 21
106.5781148429
 31
0.0
  0
LINE
  5
17A
330
1F
100
AcDbEntity
  8
0
  6
HIDDEN
 62
     7
370
     0
100
AcDbLine
 10
201.2882204812
 20
117.5781148429
 30
0.0
 11
181.7882204812
 21
117.5781148429
 31
0.0
  0
LINE
  5
17B
330
1F
100
AcDbEntity
  8
0
  6
HIDDEN
 62
     7
370
     0
100
AcDbLine
 10
158.7382204812
 20
134.0781148429
 30
0.0
 11
159.7382204812
 21
133.5007645737
 31
0.0
  0
LINE
  5
17C
330
1F
100
AcDbEntity
  8
0
  6
HIDDEN
 62
     7
370
     0
100
AcDbLine
 10
164.7382204812
 20
133.5007645737
 30
0.0
 11
165.7382204812
 21
134.0781148429
 31
0.0
  0
LINE
  5
17D
330
1F
100
AcDbEntity
  8
0
  6
HIDDEN
 62
     7
370
     0
100
AcDbLine
 10
165.7382204812
 20
90.0781148429
 30
0.0
 11
164.7382204812
 21
90.6554651121
 31
0.0
  0
LINE
  5
17E
330
1F
100
AcDbEntity
  8
0
  6
HIDDEN
 62
     7
370
     0
100
AcDbLine
 10
159.7382204812
 20
90.6554651121
 30
0.0
 11
158.7382204812
 21
90.0781148429
 31
0.0
  0
LINE
  5
17F
330
1F
100
AcDbEntity
  8
0
  6
HIDDEN
 62
     7
370
     0
100
AcDbLine
 10
159.7382204812
 20
133.5007645737
 30
0.0
 11
159.7382204812
 21
122.0781148429
 31
0.0
  0
LINE
  5
180
330
1F
100
AcDbEntity
  8
0
  6
HIDDEN
 62
     7
370
     0
100
AcDbLine
 10
164.7382204812
 20
122.0781148429
 30
0.0
 11
164.7382204812
 21
133.5007645737
 31
0.0
  0
LINE
  5
181
330
1F
100
AcDbEntity
  8
0
  6
HIDDEN
 62
     7
370
     0
100
AcDbLine
 10
159.7382204812
 20
122.0781148429
 30
0.0
 11
162.2382204812
 21
120.5759632953
 31
0.0
  0
LINE
  5
182
330
1F
100
AcDbEntity
  8
0
  6
HIDDEN
 62
     7
370
     0
100
AcDbLine
 10
162.2382204812
 20
120.5759632953
 30
0.0
 11
164.7382204812
 21
122.0781148429
 31
0.0
  0
LINE
  5
183
330
1F
100
AcDbEntity
  8
0
  6
HIDDEN
 62
     7
370
     0
100
AcDbLine
 10
164.7382204812
 20
102.0781148429
 30
0.0
 11
162.2382204812
 21
103.5802663905
 31
0.0
  0
LINE
  5
184
330
1F
100
AcDbEntity
  8
0
  6
HIDDEN
 62
     7
370
     0
100
AcDbLine
 10
162.2382204812
 20
103.5802663905
 30
0.0
 11
159.7382204812
 21
102.0781148429
 31
0.0
  0
LINE
  5
185
330
1F
100
AcDbEntity
  8
0
  6
HIDDEN
 62
     7
370
     0
100
AcDbLine
 10
164.7382204812
 20
90.6554651121
 30
0.0
 11
164.7382204812
 21
102.0781148429
 31
0.0
  0
LINE
  5
186
330
1F
100
AcDbEntity
  8
0
  6
HIDDEN
 62
     7
370
     0
100
AcDbLine
 10
159.7382204812
 20
102.0781148429
 30
0.0
 11
159.7382204812
 21
90.6554651121
 31
0.0
  0
LINE
  5
187
330
1F
100
AcDbEntity
  8
0
  6
HIDDEN
 62
     7
370
     0
100
AcDbLine
 10
202.2882204812
 20
125.8318584143
 30
0.0
 11
202.2882204812
 21
122.3780658509
 31
0.0
  0
LINE
  5
188
330
1F
100
AcDbEntity
  8
0
  6
HIDDEN
 62
     7
370
     0
100
AcDbLine
 10
205.2882204812
 20
122.3777231986
 30
0.0
 11
205.2882204812
 21
125.713075531
 31
0.0
  0
LINE
  5
189
330
1F
100
AcDbEntity
  8
0
  6
HIDDEN
 62
     7
370
     0
100
AcDbLine
 10
202.2882204812
 20
101.7787405384
 30
0.0
 11
202.2882204812
 21
98.3141178218
 31
0.0
  0
LINE
  5
18A
330
1F
100
AcDbEntity
  8
0
  6
HIDDEN
 62
     7
370
     0
100
AcDbLine
 10
205.2882204812
 20
98.4320675751
 30
0.0
 11
205.2882204812
 21
101.7781148429
 31
0.0
  0
LINE
  5
18B
330
1F
100
AcDbEntity
  8
0
  6
HIDDEN
 62
     7
370
     0
100
AcDbLine
 10
202.3766144026
 20
95.8268279439
 30
0.0
 11
253.2882204812
 21
97.8271503946
 31
0.0
  0
LINE
  5
18C
330
1F
100
AcDbEntity
  8
0
  6
HIDDEN
 62
     7
370
     0
100
AcDbLine
 10
253.2882204812
 20
100.3290792912
 30
0.0
 11
205.2788875998
 21
98.4427874649
 31
0.0
  0
LINE
  5
18D
330
1F
100
AcDbEntity
  8
0
  6
HIDDEN
 62
     7
370
     0
100
AcDbLine
 10
205.2882204812
 20
125.713075531
 30
0.0
 11
253.2882204812
 21
123.8271503946
 31
0.0
  0
LINE
  5
18E
330
1F
100
AcDbEntity
  8
0
  6
HIDDEN
 62
     7
370
     0
100
AcDbLine
 10
253.2882204812
 20
126.3290792912
 30
0.0
 11
205.2851657845
 21
128.2151244469
 31
0.0
  0
LINE
  5
18F
330
1F
100
AcDbEntity
  8
0
  6
HIDDEN
 62
     7
370
     0
100
AcDbLine
 10
202.2784648632
 20
98.3249005345
 30
0.0
 11
201.5770429113
 21
97.0463771427
 31
0.0
  0
LINE
  5
190
330
1F
100
AcDbEntity
  8
0
  6
HIDDEN
 62
     7
370
     0
100
AcDbLine
 10
201.5770429113
 20
97.0463771427
 30
0.0
 11
202.3766144026
 21
95.8268279439
 31
0.0
  0
LINE
  5
191
330
1F
100
AcDbEntity
  8
0
  6
HIDDEN
 62
     7
370
     0
100
AcDbLine
 10
202.2927162575
 20
128.2014358042
 30
0.0
 11
201.5770429113
 21
127.1098525431
 31
0.0
  0
LINE
  5
192
330
1F
100
AcDbEntity
  8
0
  6
HIDDEN
 62
     7
370
     0
100
AcDbLine
 10
201.5770429113
 20
127.1098525431
 30
0.0
 11
202.2784648632
 21
125.8313291513
 31
0.0
  0
LINE
  5
193
330
1F
100
AcDbEntity
  8
0
  6
HIDDEN
 62
     7
370
     0
100
AcDbLine
 10
202.2882204812
 20
128.1977152719
 30
0.0
 11
202.2882204812
 21
128.0781148429
 31
0.0
  0
LINE
  5
194
330
1F
100
AcDbEntity
  8
0
  6
HIDDEN
 62
     7
370
     0
100
AcDbLine
 10
205.2882204812
 20
128.0781148429
 30
0.0
 11
205.2882204812
 21
128.2966397176
 31
0.0
  0
LINE
  5
195
330
1F
100
AcDbEntity
  8
0
  6
HIDDEN
 62
     7
370
     0
100
AcDbLine
 10
97.2882204812
 20
159.6308261409
 30
0.0
 11
97.2882204812
 21
157.755277725
 31
0.0
  0
LINE
  5
196
330
1F
100
AcDbEntity
  8
0
  6
HIDDEN
 62
     7
370
     0
100
AcDbLine
 10
107.2882204812
 20
157.7539057758
 30
0.0
 11
107.2882204812
 21
159.6293978581
 31
0.0
  0
LINE
  5
197
330
1F
100
AcDbEntity
  8
0
  6
HIDDEN
 62
     7
370
     0
100
AcDbLine
 10
253.1558434476
 20
126.5844732886
 30
0.0
 11
247.8219056437
 21
126.7940442757
 31
0.0
  0
LINE
  5
198
330
1F
100
AcDbEntity
  8
0
  6
HIDDEN
 62
     7
370
     0
100
AcDbLine
 10
247.7041261964
 20
123.796357167
 30
0.0
 11
253.0380640003
 21
123.5867861799
 31
0.0
  0
LINE
  5
199
330
1F
100
AcDbEntity
  8
0
  6
HIDDEN
 62
     7
370
     0
100
AcDbLine
 10
247.8219056437
 20
126.7940442757
 30
0.0
 11
247.3026612177
 21
126.3140596655
 31
0.0
  0
LINE
  5
19A
330
1F
100
AcDbEntity
  8
0
  6
HIDDEN
 62
     7
370
     0
100
AcDbLine
 10
247.2241415862
 20
124.315601593
 30
0.0
 11
247.7041261964
 21
123.796357167
 31
0.0
  0
LINE
  5
19B
330
1F
100
AcDbEntity
  8
0
  6
HIDDEN
 62
     7
370
     0
100
AcDbLine
 10
253.0380640003
 20
123.5867861799
 30
0.0
 11
253.2108982741
 21
123.860711925
 31
0.0
  0
LINE
  5
19C
330
1F
100
AcDbEntity
  8
0
  6
HIDDEN
 62
     7
370
     0
100
AcDbLine
 10
253.2882204812
 20
126.3328659329
 30
0.0
 11
253.1558434476
 21
126.5844732886
 31
0.0
  0
LINE
  5
19D
330
1F
100
AcDbEntity
  8
0
  6
HIDDEN
 62
     7
370
     0
100
AcDbLine
 10
253.096953724
 20
100.5717572894
 30
0.0
 11
247.7630159201
 21
100.3621863024
 31
0.0
  0
LINE
  5
19E
330
1F
100
AcDbEntity
  8
0
  6
HIDDEN
 62
     7
370
     0
100
AcDbLine
 10
247.8807953673
 20
97.3644991936
 30
0.0
 11
253.2147331712
 21
97.5740701807
 31
0.0
  0
LINE
  5
19F
330
1F
100
AcDbEntity
  8
0
  6
HIDDEN
 62
     7
370
     0
100
AcDbLine
 10
253.2147331712
 20
97.5740701807
 30
0.0
 11
253.2882204812
 21
97.7137465826
 31
0.0
  0
LINE
  5
1A0
330
1F
100
AcDbEntity
  8
0
  6
HIDDEN
 62
     7
370
     0
100
AcDbLine
 10
253.2697879977
 20
100.2978315444
 30
0.0
 11
253.096953724
 21
100.5717572894
 31
0.0
  0
LINE
  5
1A1
330
1F
100
AcDbEntity
  8
0
  6
HIDDEN
 62
     7
370
     0
100
AcDbLine
 10
247.7630159201
 20
100.3621863024
 30
0.0
 11
247.2830313098
 21
99.8429418764
 31
0.0
  0
LINE
  5
1A2
330
1F
100
AcDbEntity
  8
0
  6
HIDDEN
 62
     7
370
     0
100
AcDbLine
 10
247.3615509413
 20
97.8444838039
 30
0.0
 11
247.8807953673
 21
97.3644991936
 31
0.0
  0
LINE
  5
1A3
330
1F
100
AcDbEntity
  8
0
  6
HIDDEN
 62
     7
370
     0
100
AcDbLine
 10
201.2882204812
 20
106.0781148429
 30
0.0
 11
201.7882204812
 21
106.5781148429
 31
0.0
  0
LINE
  5
1A4
330
1F
100
AcDbEntity
  8
0
  6
HIDDEN
 62
     7
370
     0
100
AcDbLine
 10
201.7882204812
 20
117.5781148429
 30
0.0
 11
201.2882204812
 21
118.0781148429
 31
0.0
  0
LINE
  5
1A5
330
1F
100
AcDbEntity
  8
0
  6
HIDDEN
 62
     7
370
     0
100
AcDbLine
 10
186.2882204812
 20
106.0781148429
 30
0.0
 11
201.2882204812
 21
106.0781148429
 31
0.0
  0
LINE
  5
1A6
330
1F
100
AcDbEntity
  8
0
  6
HIDDEN
 62
     7
370
     0
100
AcDbLine
 10
201.2882204812
 20
118.0781148429
 30
0.0
 11
186.2882204812
 21
118.0781148429
 31
0.0
  0
LINE
  5
1A7
330
1F
100
AcDbEntity
  8
0
  6
HIDDEN
 62
     7
370
     0
100
AcDbLine
 10
186.2882204812
 20
118.0781148429
 30
0.0
 11
185.7882204812
 21
117.5781148429
 31
0.0
  0
LINE
  5
1A8
330
1F
100
AcDbEntity
  8
0
  6
HIDDEN
 62
     7
370
     0
100
AcDbLine
 10
185.7882204812
 20
106.5781148429
 30
0.0
 11
186.2882204812
 21
106.0781148429
 31
0.0
  0
LINE
  5
1A9
330
1F
100
AcDbEntity
  8
0
  6
HIDDEN
 62
     7
370
     0
100
AcDbLine
 10
201.7882204812
 20
106.5781148429
 30
0.0
 11
205.7882204812
 21
106.5781148429
 31
0.0
  0
LINE
  5
1AA
330
1F
100
AcDbEntity
  8
0
  6
HIDDEN
 62
     7
370
     0
100
AcDbLine
 10
205.7882204812
 20
117.5781148429
 30
0.0
 11
201.7882204812
 21
117.5781148429
 31
0.0
  0
LINE
  5
1AB
330
1F
100
AcDbEntity
  8
0
  6
HIDDEN
 62
     7
370
     0
100
AcDbLine
 10
192.7882204811
 20
109.0781148429
 30
0.0
 11
198.7882204812
 21
109.0781148429
 31
0.0
  0
LINE
  5
1AC
330
1F
100
AcDbEntity
  8
0
  6
HIDDEN
 62
     7
370
     0
100
AcDbLine
 10
198.7882204812
 20
115.0781148429
 30
0.0
 11
192.7882204811
 21
115.0781148429
 31
0.0
  0
DIMENSION
  5
1AD
330
1F
100
AcDbEntity
  8
VERMASSUNG
100
AcDbDimension
  2
*D1
 10
38.7312026002
 20
62.0781148429
 30
0.0
 11
38.7312026002
 21
112.0781148429
 31
0.0
 70
   160
  1
HSK A %%c<>
 71
     2
 42
-1.0
  3
SLDDIMSTYLE0
100
AcDbAlignedDimension
 13
93.7882204812
 23
162.0781148429
 33
0.0
 14
93.7882204812
 24
62.0781148429
 34
0.0
 50
90.0
100
AcDbRotatedDimension
  0
DIMENSION
  5
1BA
330
1F
100
AcDbEntity
  8
VERMASSUNG
100
AcDbDimension
  2
*D2
 10
253.2882204812
 20
160.0781148429
 30
0.0
 11
227.5382204812
 21
160.0781148429
 31
0.0
 70
   160
 71
     2
 42
-1.0
  3
SLDDIMSTYLE1
100
AcDbAlignedDimension
 13
201.7882204812
 23
121.9781148429
 33
0.0
 14
253.2882204812
 24
126.7293338596
 34
0.0
100
AcDbRotatedDimension
  0
DIMENSION
  5
1C5
330
1F
100
AcDbEntity
  8
VERMASSUNG
100
AcDbDimension
  2
*D3
 10
260.5894907909
 20
122.0781148429
 30
0.0
 11
260.5894907909
 21
112.0781148429
 31
0.0
 70
   160
  1
%%c<> 
 71
     2
 42
-1.0
  3
SLDDIMSTYLE2
100
AcDbAlignedDimension
 13
249.7882204812
 23
102.0781148429
 33
0.0
 14
249.7882204812
 24
122.0781148429
 34
0.0
 50
90.0
100
AcDbRotatedDimension
  0
DIMENSION
  5
1D2
330
1F
100
AcDbEntity
  8
VERMASSUNG
100
AcDbDimension
  2
*D4
 10
266.5894907909
 20
128.5781148429
 30
0.0
 11
266.5894907909
 21
112.0781148429
 31
0.0
 70
   160
  1
%%c<>
 71
     2
 42
-1.0
  3
SLDDIMSTYLE3
100
AcDbAlignedDimension
 13
253.2882204812
 23
95.5781148429
 33
0.0
 14
253.2882204812
 24
128.5781148429
 34
0.0
 50
90.0
100
AcDbRotatedDimension
  0
DIMENSION
  5
1DE
330
1F
100
AcDbEntity
  8
VERMASSUNG
100
AcDbDimension
  2
*D5
 10
253.2882204812
 20
172.0781148429
 30
0.0
 11
173.2882204812
 21
172.0781148429
 31
0.0
 70
   160
 71
     2
 42
-1.0
  3
SLDDIMSTYLE0
100
AcDbAlignedDimension
 13
93.2882204812
 23
161.5781148429
 33
0.0
 14
253.2882204812
 24
126.7293338596
 34
0.0
100
AcDbRotatedDimension
  0
DIMENSION
  5
1E8
330
1F
100
AcDbEntity
  8
VERMASSUNG
100
AcDbDimension
  2
*D6
 10
253.2882204812
 20
166.0781148429
 30
0.0
 11
187.7632204812
 21
166.0781148429
 31
0.0
 70
   160
 71
     2
 42
-1.0
  3
SLDDIMSTYLE0
100
AcDbAlignedDimension
 13
122.2382204812
 23
160.0468546637
 33
0.0
 14
253.2882204812
 24
126.7293338596
 34
0.0
100
AcDbRotatedDimension
  0
DIMENSION
  5
1F2
330
1F
100
AcDbEntity
  8
VERMASSUNG
100
AcDbDimension
  2
*D7
 10
253.2882204812
 20
178.0781148429
 30
0.0
 11
148.3382204812
 21
178.0781148429
 31
0.0
 70
   160
 71
     2
 42
-1.0
  3
SLDDIMSTYLE0
100
AcDbAlignedDimension
 13
43.3882204812
 23
142.5807845855
 33
0.0
 14
253.2882204812
 24
126.7293338596
 34
0.0
100
AcDbRotatedDimension
  0
DIMENSION
  5
1FC
330
1F
100
AcDbEntity
  8
VERMASSUNG
100
AcDbDimension
  2
*D8
 10
272.5894907909
 20
90.0781148429
 30
0.0
 11
272.5894907909
 21
112.0781148429
 31
0.0
 70
   160
  1
%%c<>
 71
     2
 42
-1.0
  3
SLDDIMSTYLE0
100
AcDbAlignedDimension
 13
171.2382204812
 23
134.0781148429
 33
0.0
 14
171.2382204812
 24
90.0781148429
 34
0.0
 50
90.0
100
AcDbRotatedDimension
  0
LINE
  5
207
330
1F
100
AcDbEntity
  8
VERMASSUNG
  6
CENTERX2
370
     0
100
AcDbLine
 10
41.1377511202
 20
112.0781148429
 30
0.0
 11
255.7160346696
 21
112.0781148429
 31
0.0
  0
OLE2FRAME
  5
208
330
1F
100
AcDbEntity
  8
0
100
AcDbOle2Frame
 70
     2
  3
Bitmap Image
 10
13.8511154363
 20
38.264191557
 30
0.0
 11
51.6290888628
 21
31.9806341108
 31
0.0
 71
     2
 72
     0
 73
     1
 90
    12928
310
80552BED0767C5B32B40DDAF6807D121434000000000000000006FFBDDFB85D0
310
4940DDAF6807D121434000000000000000006FFBDDFB85D04940416F4BD60AFB
310
3F4000000000000000002BED0767C5B32B40416F4BD60AFB3F40000000000000
310
0000000000000100000000010000010000000100000000000100000000320000
310
D0CF11E0A1B11AE1000000000000000000000000000000003E000300FEFF0900
310
0600000000000000000000000100000001000000000000000010000002000000
310
01000000FEFFFFFF0000000000000000FFFFFFFFFFFFFFFFFFFFFFFFFFFFFFFF
310
FFFFFFFFFFFFFFFFFFFFFFFFFFFFFFFFFFFFFFFFFFFFFFFFFFFFFFFFFFFFFFFF
310
FFFFFFFFFFFFFFFFFFFFFFFFFFFFFFFFFFFFFFFFFFFFFFFFFFFFFFFFFFFFFFFF
310
FFFFFFFFFFFFFFFFFFFFFFFFFFFFFFFFFFFFFFFFFFFFFFFFFFFFFFFFFFFFFFFF
310
FFFFFFFFFFFFFFFFFFFFFFFFFFFFFFFFFFFFFFFFFFFFFFFFFFFFFFFFFFFFFFFF
310
FFFFFFFFFFFFFFFFFFFFFFFFFFFFFFFFFFFFFFFFFFFFFFFFFFFFFFFFFFFFFFFF
310
FFFFFFFFFFFFFFFFFFFFFFFFFFFFFFFFFFFFFFFFFFFFFFFFFFFFFFFFFFFFFFFF
310
FFFFFFFFFFFFFFFFFFFFFFFFFFFFFFFFFFFFFFFFFFFFFFFFFFFFFFFFFFFFFFFF
310
FFFFFFFFFFFFFFFFFFFFFFFFFFFFFFFFFFFFFFFFFFFFFFFFFFFFFFFFFFFFFFFF
310
FFFFFFFFFFFFFFFFFFFFFFFFFFFFFFFFFFFFFFFFFFFFFFFFFFFFFFFFFFFFFFFF
310
FFFFFFFFFFFFFFFFFFFFFFFFFFFFFFFFFFFFFFFFFFFFFFFFFFFFFFFFFFFFFFFF
310
FFFFFFFFFFFFFFFFFFFFFFFFFFFFFFFFFFFFFFFFFFFFFFFFFFFFFFFFFFFFFFFF
310
FFFFFFFFFFFFFFFFFFFFFFFFFFFFFFFFFFFFFFFFFFFFFFFFFFFFFFFFFFFFFFFF
310
FFFFFFFFFFFFFFFFFFFFFFFFFFFFFFFFFFFFFFFFFFFFFFFFFFFFFFFFFFFFFFFF
310
FDFFFFFFFEFFFFFFFEFFFFFFFEFFFFFF05000000060000000700000008000000
310
090000000A0000000B0000000C0000000D0000000E0000000F00000010000000
310
11000000120000001300000014000000150000001600000017000000FEFFFFFF
310
FFFFFFFFFFFFFFFFFFFFFFFFFFFFFFFFFFFFFFFFFFFFFFFFFFFFFFFFFFFFFFFF
310
FFFFFFFFFFFFFFFFFFFFFFFFFFFFFFFFFFFFFFFFFFFFFFFFFFFFFFFFFFFFFFFF
310
FFFFFFFFFFFFFFFFFFFFFFFFFFFFFFFFFFFFFFFFFFFFFFFFFFFFFFFFFFFFFFFF
310
FFFFFFFFFFFFFFFFFFFFFFFFFFFFFFFFFFFFFFFFFFFFFFFFFFFFFFFFFFFFFFFF
310
FFFFFFFFFFFFFFFFFFFFFFFFFFFFFFFFFFFFFFFFFFFFFFFFFFFFFFFFFFFFFFFF
310
FFFFFFFFFFFFFFFFFFFFFFFFFFFFFFFFFFFFFFFFFFFFFFFFFFFFFFFFFFFFFFFF
310
FFFFFFFFFFFFFFFFFFFFFFFFFFFFFFFFFFFFFFFFFFFFFFFFFFFFFFFFFFFFFFFF
310
FFFFFFFFFFFFFFFFFFFFFFFFFFFFFFFFFFFFFFFFFFFFFFFFFFFFFFFFFFFFFFFF
310
FFFFFFFFFFFFFFFFFFFFFFFFFFFFFFFFFFFFFFFFFFFFFFFFFFFFFFFFFFFFFFFF
310
FFFFFFFFFFFFFFFFFFFFFFFFFFFFFFFFFFFFFFFFFFFFFFFFFFFFFFFFFFFFFFFF
310
FFFFFFFFFFFFFFFFFFFFFFFFFFFFFFFFFFFFFFFFFFFFFFFFFFFFFFFFFFFFFFFF
310
FFFFFFFFFFFFFFFFFFFFFFFFFFFFFFFFFFFFFFFFFFFFFFFFFFFFFFFFFFFFFFFF
310
FFFFFFFFFFFFFFFFFFFFFFFFFFFFFFFFFFFFFFFFFFFFFFFFFFFFFFFFFFFFFFFF
310
52006F006F007400200045006E00740072007900000000000000000000000000
310
0000000000000000000000000000000000000000000000000000000000000000
310
16000500FFFFFFFFFFFFFFFF020000000A00030000000000C000000000000046
310
000000000000000000000000F0622E569D08CC0103000000C000000000000000
310
01004F006C006500000000000000000000000000000000000000000000000000
310
0000000000000000000000000000000000000000000000000000000000000000
310
0A000200FFFFFFFFFFFFFFFFFFFFFFFF00000000000000000000000000000000
310
0000000000000000000000000000000000000000000000001400000000000000
310
010043006F006D0070004F0062006A0000000000000000000000000000000000
310
0000000000000000000000000000000000000000000000000000000000000000
310
120002010100000003000000FFFFFFFF00000000000000000000000000000000
310
0000000000000000000000000000000000000000010000004D00000000000000
310
01004F006C006500310030004E00610074006900760065000000000000000000
310
0000000000000000000000000000000000000000000000000000000000000000
310
1A000200FFFFFFFFFFFFFFFFFFFFFFFF00000000000000000000000000000000
310
0000000000000000000000000000000000000000040000002426000000000000
310
FEFFFFFF02000000FEFFFFFFFFFFFFFFFFFFFFFFFFFFFFFFFFFFFFFFFFFFFFFF
310
FFFFFFFFFFFFFFFFFFFFFFFFFFFFFFFFFFFFFFFFFFFFFFFFFFFFFFFFFFFFFFFF
310
FFFFFFFFFFFFFFFFFFFFFFFFFFFFFFFFFFFFFFFFFFFFFFFFFFFFFFFFFFFFFFFF
310
FFFFFFFFFFFFFFFFFFFFFFFFFFFFFFFFFFFFFFFFFFFFFFFFFFFFFFFFFFFFFFFF
310
FFFFFFFFFFFFFFFFFFFFFFFFFFFFFFFFFFFFFFFFFFFFFFFFFFFFFFFFFFFFFFFF
310
FFFFFFFFFFFFFFFFFFFFFFFFFFFFFFFFFFFFFFFFFFFFFFFFFFFFFFFFFFFFFFFF
310
FFFFFFFFFFFFFFFFFFFFFFFFFFFFFFFFFFFFFFFFFFFFFFFFFFFFFFFFFFFFFFFF
310
FFFFFFFFFFFFFFFFFFFFFFFFFFFFFFFFFFFFFFFFFFFFFFFFFFFFFFFFFFFFFFFF
310
FFFFFFFFFFFFFFFFFFFFFFFFFFFFFFFFFFFFFFFFFFFFFFFFFFFFFFFFFFFFFFFF
310
FFFFFFFFFFFFFFFFFFFFFFFFFFFFFFFFFFFFFFFFFFFFFFFFFFFFFFFFFFFFFFFF
310
FFFFFFFFFFFFFFFFFFFFFFFFFFFFFFFFFFFFFFFFFFFFFFFFFFFFFFFFFFFFFFFF
310
FFFFFFFFFFFFFFFFFFFFFFFFFFFFFFFFFFFFFFFFFFFFFFFFFFFFFFFFFFFFFFFF
310
FFFFFFFFFFFFFFFFFFFFFFFFFFFFFFFFFFFFFFFFFFFFFFFFFFFFFFFFFFFFFFFF
310
FFFFFFFFFFFFFFFFFFFFFFFFFFFFFFFFFFFFFFFFFFFFFFFFFFFFFFFFFFFFFFFF
310
FFFFFFFFFFFFFFFFFFFFFFFFFFFFFFFFFFFFFFFFFFFFFFFFFFFFFFFFFFFFFFFF
310
FFFFFFFFFFFFFFFFFFFFFFFFFFFFFFFFFFFFFFFFFFFFFFFFFFFFFFFFFFFFFFFF
310
010000020000000000000000000000000000000000000000720A010000000000
310
6E0A0100000000006A0A010000000000660A010000000000620A010000000000
310
0100FEFF030A0000FFFFFFFF0A00030000000000C00000000000004607000000
310
5042727573680007000000504272757368000700000050427275736800F439B2
310
71000000000000000000000000000000360A010000000000320A010000000000
310
2E0A0100000000001E0A01000000000046070500000000004C07040000000000
310
2A070500000000000C07040000000000A00C0100000000003C07040000000000
310
AA08010000000000902105000000000086210500000000008221050000000000
310
D420050000000000CA20050000000000C6200500000000001820050000000000
310
0E200500000000000A200500000000005C1F050000000000761F040000000000
310
7A1F040000000000C01E040000000000CA1E040000000000CE1E040000000000
310
061E040000000000101E040000000000141E040000000000761D030000000000
310
581D0400000000005C1D040000000000B61C030000000000B01C040000000000
310
401D020000000000981C020000000000A21C020000000000A61C020000000000
310
F41A050000000000EA1A050000000000E61A0500000000007A0D040000000000
310
840D040000000000880D040000000000200D0100000000003C0D010000000000
310
20260000424D0E260000000000003E00000028000000B40200006E0000000100
310
01000000000000000000130B0000130B00000200000002000000000000FFFFFF
310
FFFFFFFFFFFFFFFFFFFFFFFFFFFFFFFFFFFFFFFFFFFFFFFFFFFFFFFFFFFFFFFF
310
FFFFFFFFFFFFFFFFFFFFFFFFFFFFFFFFFFFFFFFFFFFFFFFFFFFFFFFFFFFFFFFF
310
FFFFFFFFFFFFFFFFFFFFFFFFFFFFFFFFFFFFFFFFFFFFFFFFF000FFFFFFFFFFFF
310
FFFFFFFFFFFFFFFFFFFFFFFFFFFFFFFFFFFFFFFFFFFFFFFFFFFFFFFFFFFFFFFF
310
FFFFFFFFFFFFFFFFFFFFFFFFFFFFFFFFFFFFFFFFFFFFFFFFFFFFFFFFFFFFFFFF
310
FFFFFFFFFFFFFFFFFFFFFFFFFFFFFFFFF000FFFFFFFFFFFFFFFFFFFFFFFFFFFF
310
FFFFFFFFFFFFFFFFFFFFFFFFFFFFFFFFFFFFFFFFFFFFFFFFFFFFFFFFFFFFFFFF
310
FFFFFFFFFFFFFFFFFFFFFFFFFFFFFFFFFFFFFFFFFFFFFFFFFFFFFFFFFFFFFFFF
310
FFFFFFFFFFFFFFFFF000FFFFFFFFFFFFFFFFFFFFFFFFFFFFFFFFFFFFFFFFFFFF
310
FFFFFFFFFFFFFFFFFFFFFFFFFFFFFFFFFFFFFFFFFFFFFFFFFFFFFFFFFFFFFFFF
310
FFFFFFFFFFFFFFFFFFFFFFFFFFFFFFFFFFFFFFFFFFFFFFFFFFFFFFFFFFFFFFFF
310
F000FFFFFFFFFFFFFFFFFFFFFFFFFFFFFFFFFFFFFFFFFFFFFFFFFFFFFFFFFFFF
310
FFFFFFFFFFFFFFFFFFFFFFFFFFFFFFFFFFFFFFFFFFFFFFFFFFFFFFFFFFFFFFFF
310
FFFFFFFFFFFFFFFFFFFFFFFFFFFFFFFFFFFFFFFFFFFFFFFFF000FFFFFFFFFFFF
310
FFFFFFFFFFFFFFFFFFFFFFFFFFFFFFFFFFFFFFFFFFFFFFFFFFFFFFFFFFFFFFFF
310
FFFFFFFFFFFFFFFFFFFFFFFFFFFFFFFFFFFFFFFFFFFFFFFFFFFFFFFFFFFFFFFF
310
FFFFFFFFFFFFFFFFFFFFFFFFFFFFFFFFF000FFFFFFFFFFFFFFFFFFFFFFFFFFFF
310
FFFFFFFFFFFFFFFFFFFFFFFFFFFFFFFFFFFFFFFFFFFFFFFFFFFFFFFFFFFFFFFF
310
FFFFFFFFFFFFFFFFFFFFFFFFFFFFFFFFFFFFFFFFFFFFFFFFFFFFFFFFFFFFFFFF
310
FFFFFFFFFFFFFFFFF000FFFFFFFFFFFFFFFFFFFFFFFFFFFFFFFFFFFFFFFFFFFF
310
FFFFFFFFFFFFFFFFFFFFFFFFFFFFFFFFFFFFFFFFFFFFFFFFFFFFFFFFFFFFFFFF
310
FFFFFFFFFFFFFFFFFFFFFFFFFFFFFFFFFFFFFFFFFFFFFFFFFFFFFFFFFFFFFFFF
310
F000FFFFFFFFFFFFFFFFFFFFFFFFFFFFFFFFFFFFFFFFFFFFFFFFFFFFFFFFFFFF
310
FFFFFFFFFFFFFFFFFFFFFFFFFFFFFFFFFFFFFFFFFFFFFFFFFFFFFFFFFFFFFFFF
310
FFFFFFFFFFFFFFFFFFFFFFFFFFFFFFFFFFFFFFFFFFFFFFFFF000FFFFFFFFFFFF
310
FFFFFFFFFFFFFFFFFFFFFFFFFFFFFFFFFFFFFFFFFFFFFFFFFFFFFFFFFFFFFFFF
310
FFFFFFFFFFFFFFFFFFFFFFFFFFFFFFFFFFFFFFFFFFFFFFFFFFFFFFFFFFFFFFFF
310
FFFFFFFFFFFFFFFFFFFFFFFFFFFFFFFFF000FFFFFFFFFFFFFFFFFFFFFFFFFFFF
310
FFFFFFFFFFFFFFFFFFFFFFFFFFFFFFFFFFFFFFFFFFFFFFFFFFFFFFFFFFFFFFFF
310
FFFFFFFFFFFFFFFFFFFFFFFFFFFFFFFFFFFFFFFFFFFFFFFFFFFFFFFFFFFFFFFF
310
FFFFFFFFFFFFFFFFF000FFFFFFFFFFFFFFFFFFFFFFFFFFFFFFFFFFFFFFFFFFFF
310
FFFFFFFFFFFFFFFFFFFFFFFFFFFFFFFFFFFFFFFFFFFFFFFFFFFFFFFFFFFFFFFF
310
FFFFFFFFFFFFFFFFFFFFFFFFFFFFFFFFFFFFFFFFFFFFFFFFFFFFFFFFFFFFFFFF
310
F000FFFFFFFFFFFFFFFFFFFFFFFFFFFFFFFFFFFFFFFFFFFFFFFFFFFFFFFFFFFF
310
FFFFFFFFFFFFFFFFFFFFFFFFFFFFFFFFFFFFFFFFFFFFFFFFFFFFFFFFFFFFFFFF
310
FFFFFFFFFFFFFFFFFFFFFFFFFFFFFFFFFFFFFFFFFFFFFFFFF000FFFFFFFFFFFF
310
FFFFFFFFFFFFFFFFFFFFFFFFFFFFFFFFFFFFFFFFFFFFFFFFFFFFFFFFFFFFFFFF
310
FFFFFFFFFFFFFFFFFFFFFFFFFFFFFFFFFFFFFFFFFFFFFFFFFFFFFFFFFFFFFFFF
310
FFFFFFFFFFFFFFFFFFFFFFFFFFFFFFFFF000FFFFFFFFFFFFFFFFFFFFFFFFFFFF
310
FFFFFFFFFFFFFFFFFFFFFFFFFFFFFFFFFFFFFFFFFFFFFFFFFFFFFFFFFFFFFFFF
310
FFFFFFFFFFFFFFFFFFFFFFFFFFFFFFFFFFFFFFFFFFFFFFFFFFFFFFFFFFFFFFFF
310
FFFFFFFFFFFFFFFFF000FFFFFFFFFFFFFFFFFFFFFFFFFFFFFFFFFFFFFFFFFFFF
310
FFFFFFFFFFFFFFFFFFFFFFFFFFFFFFFFFFFFFFFFFFFFFFFFFFFFFFFFFFFFFFFF
310
FFFFFFFFFFFFFFFFFFFFFFFFFFFFFFFFFFFFFFFFFFFFFFFFFFFFFFFFFFFFFFFF
310
F000FFFFFFFFFFFFFFFFFFFFFFFFFFFFFFFFFFFFFFFFFFFFFFFFFFFFFFFFFFFF
310
FFFFFFFFFFFFFFFFFFFFFFFFFFFFFFFFFFFFFFFFFFFFFFFFFFFFFFFFFFFFFFFF
310
FFFFFFFFFFFFFFFFFFFFFFFFFFFFFFFFFFFFFFFFFFFFFFFFF000FFFFFFFFFFFF
310
FFFFFFFFFFFFFFFFFFFFFFFFFFFFFFFFFFFFFFFFFFFFFFFFFFFFFFFFFFFFFFFF
310
FFFFFFFFFFFFFFFFFFFFFFFFFFFFFFFFFFFFFFFFFFFFFFFFFFFFFFFFFFFFFFFF
310
FFFFFFFFFFFFFFFFFFFFFFFFFFFFFFFFF000FFFFFFFFFFFFFFFFFFFFFFFFFFFF
310
FFFFFFFFFFFFFFFFFFFFFFFFFFFFFFFFFFFFFFFFFFFFFFFFFFFFFFFFFFFFFFFF
310
FFFFFFFFFFFFFFFFFFFFFFFFFFFFFFFFFFFFFFFFFFFFFFFFFFFFFFFFFFFFFFFF
310
FFFFFFFFFFFFFFFFF000FFFFF80003FFFFFFFFFFFFFFFFFFFFFFFFFFFFFFFFFF
310
FFFFF00007FFFFFFFFFF00007FFFFFF800000000000000007FFFFFFFFFFFFFFF
310
FFFFFFFC001FFFFFFFFFFFFFFC001FFFFFFFFFFFFFFFFFFFFFFFFFFE0007FFFF
310
F000FFFF8000007FFFFFFFF8000FFFFFC0007FFFFF80007FFFFF0000007FFFFF
310
FFF8000007FFFFF800000000000000007FFFFFF0001FFFFFFFFFFFC00001FFFF
310
FFFFFFFFC00001FFFFFFFF000000000003FFFFE000007FFFF000FFFE0000000F
310
FFFFFFF0000FFFFF80007FFFFF80007FFFFC0000001FFFFFFFC0000001FFFFF8
310
00000000000000007FFFFFF0001FFFFFFFFFFE0000003FFFFFFFFFFE0000003F
310
FFFFFF000000000003FFFF0000000FFFF000FFF800000003FFFFFFF00007FFFF
310
80007FFFFF80007FFFF000000007FFFFFF000000003FFFF80000000000000000
310
7FFFFFF0001FFFFFFFFFF80000000FFFFFFFFFF80000000FFFFFFF0000000000
310
03FFFC00000003FFF000FFE000000000FFFFFFF00007FFFF80003FFFFF80007F
310
FFC000000001FFFFFC000000001FFFF800000000000000007FFFFFF0001FFFFF
310
FFFFE000000003FFFFFFFFE000000003FFFFFF000000000003FFF000000000FF
310
F000FF80000000007FFFFFF00007FFFF80003FFFFF80007FFF8000000000FFFF
310
F80000000007FFF800000000000000007FFFFFF0001FFFFFFFFFC000000001FF
310
FFFFFFC000000001FFFFFF000000000003FFC0000000007FF000FF0000000000
310
3FFFFFE00007FFFF00003FFFFF80007FFE00000000003FFFF00000000003FFF8
310
00000000000000007FFFFFF0001FFFFFFFFF8000000000FFFFFFFF8000000000
310
FFFFFF000000000003FF80000000003FF000FE00000000001FFFFFE00003FFFF
310
00003FFFFF80007FFC00000000001FFFE00000000001FFF8000001FFFE000000
310
7FFFFFF0001FFFFFFFFE00000000003FFFFFFE00000000003FFFFF0000000000
310
03FF00000000001FF000FC00000000000FFFFFE00003FFFF00001FFFFF80007F
310
F800000000001FFFC00000000000FFF8000001FFFE0000007FFFFFF0001FFFFF
310
FFFC00000000001FFFFFFC00000000001FFFFF000000000003FE00000000000F
310
F000F8000000000007FFFFE00003FFFF00001FFFFF80007FF800000000000FFF
310
800000000000FFF8000001FFFE0000007FFFFFF0001FFFFFFFF800000000000F
310
FFFFF800000000000FFFFF000000000003FC000000000007F000F80000000000
310
03FFFFC00003FFFE00001FFFFF80007FF0000000000007FF0000000000007FF8
310
000001FFFE0000007FFFFFF0001FFFFFFFF0000000000007FFFFF00000000000
310
07FFFF000000000003F8000000000003F000F0000000000003FFFFC00001FFFE
310
00001FFFFF80007FE0000000000007FE0000000000003FF8000001FFFE000000
310
7FFFFFF0001FFFFFFFF0000000000007FFFFF0000000000007FFFF0000000000
310
03F800001F800003F000E00001FFF00001FFFFC00001FFFE00000FFFFF80007F
310
E00001FFE00003FE00001FFF00003FF8000001FFFE0000007FFFFFF0001FFFFF
310
FFE000003E000003FFFFE000003E000003FFFF000000000003F00001FFF80001
310
F000E00007FFFC0001FFFFC00001FFFE00000FFFFF80007FC0000FFFFC0003FC
310
0000FFFFC0001FF8000001FFFE0000007FFFFFF0001FFFFFFFC00003FFE00001
310
FFFFC00003FFE00001FFFF0001FFFFFFFFF00007FFFE0001F000E0000FFFFF00
310
00FFFF800001FFFC00000FFFFF80007FC0001FFFFE0001FC0001FFFFE0001FF8
310
000001FFFE0000007FFFFFF0001FFFFFFF80000FFFF80000FFFF80000FFFF800
310
00FFFF0003FFFFFFFFE0000FFFFF8000F000C0003FFFFF8000FFFF800000FFFC
310
000007FFFF80007F80003FFFFF0001FC0003FFFFF0001FF8000001FFFE000000
310
7FFFFFF0001FFFFFFF80003FFFFE0000FFFF80003FFFFE0000FFFF0003FFFFFF
310
FFE0003FFFFF8000F000C0003FFFFF8000FFFF800000FFFC000007FFFF80007F
310
80007FFFFF8001F80007FFFFF8000FF8000001FFFE0000007FFFFFF0001FFFFF
310
FF00007FFFFF00007FFF00007FFFFF00007FFF0003FFFFFFFFE0003FFFFFC000
310
F000C0007FFFFFC000FFFF000000FFFC000007FFFF80007F8000FFFFFF8000F8
310
000FFFFFF8000FF8000001FFFE0000007FFFFFF0001FFFFFFF0000FFFFFF8000
310
7FFF0000FFFFFF80007FFF0003FFFFFFFFC0007FFFFFC00070008000FFFFFFC0
310
00FFFF000000FFF8000007FFFF80007F8000FFFFFF8000F8000FFFFFF8000FF8
310
000001FFFE0000007FFFFFF0001FFFFFFE0001FFFFFFC0003FFE0001FFFFFFC0
310
003FFF0003FFFFFFFFC0007FFFFFE00070008000FFFFFFC0007FFF0000007FF8
310
000003FFFF80007F0001FFFFFF8000F8000FFFFFF8000FF8000001FFFE000000
310
7FFFFFF0001FFFFFFE0001FFFFFFC0003FFE0001FFFFFFC0003FFF0003FFFFFF
310
FFC000FFFFFFE00070008000FFFFFFC0007FFF0000007FF8000003FFFF80007F
310
0001FFFFFF8000F8001FFFFFF8000FF8000001FFFE0000007FFFFFF0001FFFFF
310
FE0003FFFFFFE0003FFE0003FFFFFFE0003FFF0003FFFFFFFFC000FFFFFFE000
310
70008000FFFFFFC0007FFE0000007FF8000003FFFF80007F0001FFFFFF8000F0
310
001FFFFFF8000FF8000001FFFE0000007FFFFFF0001FFFFFFC0003FFFFFFE000
310
1FFC0003FFFFFFE0001FFF0003FFFFFFFFC000FFFFFFC00070008000FFFFFF80
310
007FFE0000007FF0000003FFFF80007F0001FFFFFF0000F0001FFFFFF8000FF8
310
000001FFFE0000007FFFFFF0001FFFFFFC0007FFFFFFF0001FFC0007FFFFFFF0
310
001FFF0003FFFFFFFFC000FFFFFFC00070008001FFFFFF0000FFFE0000003FF0
310
000001FFFF80007F0001FFFFFF0000F8001FFFFFF0000FF8000001FFFE000000
310
7FFFFFF0001FFFFFFC0007FFFFFFF0001FFC0007FFFFFFF0001FFF0003FFFFFF
310
FFC001FFFFFF80007000FFFFFFFFFE0000FFFE0008003FF0008001FFFF80007F
310
FFFFFFFFFC0000FFFFFFFFFFE0000FF8000001FFFE0000007FFFFFF0001FFFFF
310
F8000FFFFFFFF8000FF8000FFFFFFFF8000FFF0003FFFFFFFFFFFFFFFFFF0000
310
7000FFFFFFFFFC0000FFFC0008003FF0008001FFFF80007FFFFFFFFFF80001FF
310
FFFFFFFF80000FF8000001FFFE0000007FFFFFF0001FFFFFF8000FFFFFFFF800
310
0FF8000FFFFFFFF8000FFF0003FFFFFFFFFFFFFFFFFE0000F000FFFFFFFFE000
310
00FFFC000C003FE000C001FFFF80007FFFFFFFFFC00001FFFFFFFFFE00001FF8
310
000001FFFE0000007FFFFFF0001FFFFFF8000FFFFFFFF8000FF8000FFFFFFFF8
310
000FFF0003FFFFFFFFFFFFFFFFF00000F000FFFFFFFE000001FFFC000C001FE0
310
00C000FFFF80007FFFFFFFFE000001FFFFFFFFE000001FF80FFFFFFFFFFFFFC0
310
7FFFFFF0001FFFFFF8000FFFFFFFF8000FF8000FFFFFFFF8000FFF0003FFFFFF
310
FFFFFFFFFF800000F000FFFFFFC0000001FFFC001C001FE001C000FFFF80007F
310
FFFFFF80000003FFFFFFF80000001FF80FFFFFFFFFFFFFC07FFFFFF0001FFFFF
310
F8001FFFFFFFFC000FF8001FFFFFFFFC000FFF0003FFFFFFFFFFFFFFF0000001
310
F000FFFFF800000001FFF8001C001FE001C000FFFF80007FFFFFF800000003FF
310
FFFF800000003FF80FFFFFFFFFFFFFC07FFFFFF0001FFFFFF8001FFFFFFFFC00
310
0FF8001FFFFFFFFC000FFF0003FFFFFFFFFFFFFE00000001F000FFFFC0000000
310
03FFF8001E001FC001E000FFFF80007FFFFF8000000007FFFFFC000000003FF8
310
0FFFFFFFFFFFFFC07FFFFFF0001FFFFFF8001FFFFFFFFC000FF8001FFFFFFFFC
310
000FFF0003FFFFFFFFFFFFE000000003F000FFFE0000000007FFF8001E000FC0
310
01E0007FFF80007FFFFE0000000007FFFFE0000000007FF80FFFFFFFFFFFFFC0
310
7FFFFFF0001FFFFFF0001FFFFFFFFC0007F0001FFFFFFFFC0007FF0003FFFFFF
310
FFFFFF0000000003F000FFF80000000007FFF8001E000FC003E0007FFF80007F
310
FFF0000000000FFFFF8000000000FFF80FFFFFFFFFFFFFC07FFFFFF0001FFFFF
310
F0001FFFFFFFFC0007F0001FFFFFFFFC0007FF0003FFFFFFFFFFFC0000000007
310
F000FFE0000000000FFFF0003E000FC003E0007FFF80007FFFC0000000001FFF
310
FE0000000001FFF80FFFFFFFFFFFFFC07FFFFFF0001FFFFFF0001FFFFFFFFC00
310
07F0001FFFFFFFFC0007FF0003FFFFFFFFFFF0000000000FF000FFC000000000
310
1FFFF0003F000F8003F0003FFF80007FFF80000000003FFFF80000000003FFF8
310
0FFFFFFFFFFFFFC07FFFFFF0001FFFFFF0001FFFFFFFFC0007F0001FFFFFFFFC
310
0007FF0003FFFFFFFFFFE0000000001FF000FF00000000007FFFF0003F000780
310
03F0003FFF80007FFF00000000007FFFF00000000007FFF80FFFFFFFFFFFFFC0
310
7FFFFFF0001FFFFFF0001FFFFFFFFC0007F0001FFFFFFFFC0007FF0003FFFFFF
310
FFFF80000000007FF000FE0000000000FFFFE0003F00078007F0003FFF80007F
310
FE0000000001FFFFE0000000001FFFF80FFFFFFFFFFFFFC07FFFFFF0001FFFFF
310
F0001FFFFFFFFC0007F0001FFFFFFFFC0007FF0003FFFFFFFFFF0000000000FF
310
F000FC0000000003FFFFE0007F00078007F0003FFF80007FFC0000000007FFFF
310
C0000000007FFFF80FFFFFFFFFFFFFC07FFFFFF0001FFFFFF8001FFFFFFFFC00
310
0FF8001FFFFFFFFC000FFF0003FFFFFFFFFE0000000003FFF000FC000000000F
310
FFFFE0007F80070007F8001FFF80007FF8000000001FFFFF8000000001FFFFF8
310
0FFFFFFFFFFFFFC07FFFFFF0001FFFFFF8001FFFFFFFFC000FF8001FFFFFFFFC
310
000FFF0003FFFFFFFFFC000000000FFFF000F8000000007FFFFFE0007F800700
310
07F8001FFF80007FF000000000FFFFFF800000000FFFFFF80FFFFFFFFFFFFFC0
310
7FFFFFF0001FFFFFF8000FFFFFFFF8000FF8000FFFFFFFF8000FFF0003FFFFFF
310
FFFC000000007FFFF000F800000007FFFFFFC0007F8003000FF8001FFF80007F
310
F000000007FFFFFF000000007FFFFFF80FFFFFFFFFFFFFC07FFFFFF0001FFFFF
310
F8000FFFFFFFF8000FF8000FFFFFFFF8000FFF0003FFFFFFFFF80000000FFFFF
310
F000F0000000FFFFFFFFC000FF8003000FF8001FFF80007FE0000000FFFFFFFF
310
0000000FFFFFFFF8000001FFFE0000007FFFFFF0001FFFFFF8000FFFFFFFF800
310
0FF8000FFFFFFFF8000FFF0003FFFFFFFFF8000000FFFFFFF000F000000FFFFF
310
FFFFC000FFC002000FF8000FFF80007FE000001FFFFFFFFE000001FFFFFFFFF8
310
000001FFFE0000007FFFFFF0001FFFFFF8000FFFFFFFF8000FF8000FFFFFFFF8
310
000FFF0003FFFFFFFFF000001FFFFFFFF000E00000FFFFFFFFFFC000FFC00200
310
0FFC000FFF80007FE00001FFFFFFFFFE00001FFFFFFFFFF8000001FFFE000000
310
7FFFFFF0001FFFFFFC000FFFFFFFF8001FFC000FFFFFFFF8001FFF0003FFFFFF
310
FFF00001FFFFFFFFF000E00007FFFFFFFFFF8000FFC000001FFC000FFF80007F
310
C0000FFFFFFFFFFE0000FFFFFFFFFFF8000001FFFE0000007FFFFFF0001FFFFF
310
FC0007FFFFFFF0001FFC0007FFFFFFF0001FFF0003FFFFFFFFF00007FFFFFFFF
310
F000E0001FFFFFFFFFFF8000FFC000001FFC000FFF80007FC0003FFFFFFFFFFE
310
0001FFFFFFFFFFF8000001FFFE0000007FFFFFF0001FFFFFFC0007FFFFFFF000
310
1FFC0007FFFFFFF0001FFF0003FFFFFFFFF0001FFFFFFFFFF000E0003FFFFF00
310
03FF8001FFE000001FFC0007FF80007FC0007FFFFF0007FC0003FFFFF0003FF8
310
000001FFFE0000007FFFFFF0001FFFFFFC0003FFFFFFE0001FFC0003FFFFFFE0
310
001FFF0003FFFFFFFFF0003FFFFFFFFFF000E0003FFFFF0001FF8001FFE00000
310
1FFE0007FF80007FC0007FFFFE0003FC0007FFFFE0003FF8000001FFFE000000
310
7FFFFFF0001FFFFFFE0003FFFFFFE0003FFE0003FFFFFFE0003FFF0003FFFFFF
310
FFF0003FFFFF8001F000E0003FFFFF0001FF0001FFE000001FFE0007FF80007F
310
C0007FFFFE0003FC0007FFFFE0003FF8000001FFFE0000007FFFFFF0001FFFFF
310
FE0001FFFFFFC0003FFE0001FFFFFFC0003FFF0003FFFFFFFFF0003FFFFF0001
310
F000E0003FFFFF0003FF0001FFE000003FFE0007FF80007FC0007FFFFE0003FC
310
0007FFFFE0003FF8000001FFFE0000007FFFFFF0001FFFFFFF0001FFFFFFC000
310
7FFF0001FFFFFFC0007FFF0003FFFFFFFFF0003FFFFF0001F000E0003FFFFE00
310
03FF0003FFF000003FFE0003FF80007FC0007FFFFC0003FE0007FFFFE0003FF8
310
000001FFFE0000007FFFFFF0001FFFFFFF0000FFFFFF80007FFF0000FFFFFF80
310
007FFF0003FFFFFFFFF0003FFFFF0001F000E0003FFFFE0003FF0003FFF00000
310
3FFF0003FF80007FC0007FFFFC0007FE0007FFFFC0003FF8000001FFFE000000
310
7FFFFFF0001FFFFFFF80007FFFFF0000FFFF80007FFFFF0000FFFF0003FFFFFF
310
FFF0003FFFFF0003F000E0003FFFFC0003FE0003FFF000003FFF0003FF80007F
310
E0003FFFF80007FE0003FFFFC0007FF8000001FFFE0000007FFFFFF0001FFFFF
310
FF80003FFFFE0000FFFF80003FFFFE0000FFFF0003FFFFFFFFF0001FFFFE0003
310
F000F0001FFFF80003FE0003FFF000007FFF0001FF80007FE0003FFFF00007FE
310
0001FFFF80007FF8000001FFFE0000007FFFFFF0001FFFFFFFC0000FFFF80001
310
FFFFC0000FFFF80001FFFF0003FFFFFFFFF0001FFFFC0003F000F0000FFFF000
310
07FE0007FFF800007FFF0001FF80007FE0001FFFE00007FF0000FFFE00007FF8
310
000001FFFE0000007FFFFFF0001FFFFFFFC00003FFE00001FFFFC00003FFE000
310
01FFFF0003FFFFFFFFF8000FFFF80003F000F00003FFC00007FC0007FFF80000
310
7FFF8001FF80007FF00007FF80000FFF00007FF80000FFF8000001FFFE000000
310
7F80000000000001FFE000003E000003FFFFE000003E000003FFFF0003FFFFFF
310
FFF80003FFE00007F000F800000000000FFC0007FFF800007FFF8001FF80007F
310
F000000000000FFF000000000000FFF8000001FFFE0000007F80000000000001
310
FFF0000000000007FFFFF0000000000007FFFF0003FFFFFFFFFC00007E000007
310
F000F800000000000FFC0007FFF80000FFFF8000FF80007FF800000000001FFF
310
800000000001FFF8000001FFFE0000007F80000000000001FFF800000000000F
310
FFFFF800000000000FFFFF0003FFFFFFFFFC00000000000FF000FC0000000000
310
1FFC0007FFFC0000FFFF8000FF80007FF800000000003FFFC00000000001FFF8
310
000001FFFE0000007F80000000000001FFF800000000000FFFFFF80000000000
310
0FFFFF0003FFFFFFFFFE00000000001FF000FE00000000003FF8000FFFFC0000
310
FFFF8000FF80007FFC00000000003FFFC00000000003FFF8000001FFFE000000
310
7F80000000000001FFFC00000000001FFFFFFC00000000001FFFFF0003FFFFFF
310
FFFF00000000001FF000FF00000000003FF8000FFFFC0000FFFFC000FF80007F
310
FE00000000007FFFE00000000007FFF8000001FFFE0000007F80000000000001
310
FFFE00000000003FFFFFFE00000000003FFFFF0003FFFFFFFFFF80000000003F
310
F000FF80000000007FF8000FFFFC0001FFFFC0007F80007FFF0000000000FFFF
310
F0000000000FFFF800000000000000007F80000000000001FFFF8000000000FF
310
FFFFFF8000000000FFFFFF0003FFFFFFFFFFC0000000007FF000FFC000000000
310
FFF8000FFFFE0001FFFFC0007F80007FFF8000000001FFFFF8000000001FFFF8
310
00000000000000007F80000000000001FFFFC000000001FFFFFFFFC000000001
310
FFFFFF0003FFFFFFFFFFE000000000FFF000FFE000000003FFF0001FFFFE0001
310
FFFFC0007F80007FFFC000000007FFFFFE000000003FFFF80000000000000000
310
7F80000000000001FFFFE000000003FFFFFFFFE000000003FFFFFF0003FFFFFF
310
FFFFF000000003FFF000FFF80000000FFFF0001FFFFE0001FFFFE0007F80007F
310
FFF00000000FFFFFFF00000000FFFFF800000000000000007F80000000000001
310
FFFFF80000000FFFFFFFFFF80000000FFFFFFF0003FFFFFFFFFFFC0000000FFF
310
F000FFFE0000003FFFF0001FFFFE0003FFFFE0003F80007FFFFC0000003FFFFF
310
FFC0000003FFFFF800000000000000007F80000000000001FFFFFE0000003FFF
310
FFFFFFFE0000003FFFFFFF0003FFFFFFFFFFFF0000003FFFF000FFFF800000FF
310
FFF0001FFFFF0003FFFFE0003F80007FFFFF000001FFFFFFFFF800001FFFFFF8
310
00000000000000007F80000000000001FFFFFFC00001FFFFFFFFFFFFC00001FF
310
FFFFFF0003FFFFFFFFFFFFC00000FFFFF000FFFFF8000FFFFFFFFFFFFFFFFFFF
310
FFFFFFFFFFFFFFFFFFFFF0001FFFFFFFFFFF0000FFFFFFF80000000000000000
310
7FFFFFFFFFFFFFFFFFFFFFFC001FFFFFFFFFFFFFFC001FFFFFFFFFFFFFFFFFFF
310
FFFFFFFC001FFFFFF000FFFFFFFFFFFFFFFFFFFFFFFFFFFFFFFFFFFFFFFFFFFF
310
FFFFFFFFFFFFFFFFFFFFFFFFFFFFFFFFFFFFFFFFFFFFFFFFFFFFFFFFFFFFFFFF
310
FFFFFFFFFFFFFFFFFFFFFFFFFFFFFFFFFFFFFFFFFFFFFFFFFFFFFFFFFFFFFFFF
310
F000FFFFFFFFFFFFFFFFFFFFFFFFFFFFFFFFFFFFFFFFFFFFFFFFFFFFFFFFFFFF
310
FFFFFFFFFFFFFFFFFFFFFFFFFFFFFFFFFFFFFFFFFFFFFFFFFFFFFFFFFFFFFFFF
310
FFFFFFFFFFFFFFFFFFFFFFFFFFFFFFFFFFFFFFFFFFFFFFFFF000FFFFFFFFFFFF
310
FFFFFFFFFFFFFFFFFFFFFFFFFFFFFFFFFFFFFFFFFFFFFFFFFFFFFFFFFFFFFFFF
310
FFFFFFFFFFFFFFFFFFFFFFFFFFFFFFFFFFFFFFFFFFFFFFFFFFFFFFFFFFFFFFFF
310
FFFFFFFFFFFFFFFFFFFFFFFFFFFFFFFFF000FFFFFFFFFFFFFFFFFFFFFFFFFFFF
310
FFFFFFFFFFFFFFFFFFFFFFFFFFFFFFFFFFFFFFFFFFFFFFFFFFFFFFFFFFFFFFFF
310
FFFFFFFFFFFFFFFFFFFFFFFFFFFFFFFFFFFFFFFFFFFFFFFFFFFFFFFFFFFFFFFF
310
FFFFFFFFFFFFFFFFF000FFFFFFFFFFFFFFFFFFFFFFFFFFFFFFFFFFFFFFFFFFFF
310
FFFFFFFFFFFFFFFFFFFFFFFFFFFFFFFFFFFFFFFFFFFFFFFFFFFFFFFFFFFFFFFF
310
FFFFFFFFFFFFFFFFFFFFFFFFFFFFFFFFFFFFFFFFFFFFFFFFFFFFFFFFFFFFFFFF
310
F000FFFFFFFFFFFFFFFFFFFFFFFFFFFFFFFFFFFFFFFFFFFFFFFFFFFFFFFFFFFF
310
FFFFFFFFFFFFFFFFFFFFFFFFFFFFFFFFFFFFFFFFFFFFFFFFFFFFFFFFFFFFFFFF
310
FFFFFFFFFFFFFFFFFFFFFFFFFFFFFFFFFFFFFFFFFFFFFFFFF000FFFFFFFFFFFF
310
FFFFFFFFFFFFFFFFFFFFFFFFFFFFFFFFFFFFFFFFFFFFFFFFFFFFFFFFFFFFFFFF
310
FFFFFFFFFFFFFFFFFFFFFFFFFFFFFFFFFFFFFFFFFFFFFFFFFFFFFFFFFFFFFFFF
310
FFFFFFFFFFFFFFFFFFFFFFFFFFFFFFFFF000FFFFFFFFFFFFFFFFFFFFFFFFFFFF
310
FFFFFFFFFFFFFFFFFFFFFFFFFFFFFFFFFFFFFFFFFFFFFFFFFFFFFFFFFFFFFFFF
310
FFFFFFFFFFFFFFFFFFFFFFFFFFFFFFFFFFFFFFFFFFFFFFFFFFFFFFFFFFFFFFFF
310
FFFFFFFFFFFFFFFFF000FFFFFFFFFFFFFFFFFFFFFFFFFFFFFFFFFFFFFFFFFFFF
310
FFFFFFFFFFFFFFFFFFFFFFFFFFFFFFFFFFFFFFFFFFFFFFFFFFFFFFFFFFFFFFFF
310
FFFFFFFFFFFFFFFFFFFFFFFFFFFFFFFFFFFFFFFFFFFFFFFFFFFFFFFFFFFFFFFF
310
F000FFFFFFFFFFFFFFFFFFFFFFFFFFFFFFFFFFFFFFFFFFFFFFFFFFFFFFFFFFFF
310
FFFFFFFFFFFFFFFFFFFFFFFFFFFFFFFFFFFFFFFFFFFFFFFFFFFFFFFFFFFFFFFF
310
FFFFFFFFFFFFFFFFFFFFFFFFFFFFFFFFFFFFFFFFFFFFFFFFF000FFFFFFFFFFFF
310
FFFFFFFFFFFFFFFFFFFFFFFFFFFFFFFFFFFFFFFFFFFFFFFFFFFFFFFFFFFFFFFF
310
FFFFFFFFFFFFFFFFFFFFFFFFFFFFFFFFFFFFFFFFFFFFFFFFFFFFFFFFFFFFFFFF
310
FFFFFFFFFFFFFFFFFFFFFFFFFFFFFFFFF000FFFFFFFFFFFFFFFFFFFFFFFFFFFF
310
FFFFFFFFFFFFFFFFFFFFFFFFFFFFFFFFFFFFFFFFFFFFFFFFFFFFFFFFFFFFFFFF
310
FFFFFFFFFFFFFFFFFFFFFFFFFFFFFFFFFFFFFFFFFFFFFFFFFFFFFFFFFFFFFFFF
310
FFFFFFFFFFFFFFFFF000FFFFFFFFFFFFFFFFFFFFFFFFFFFFFFFFFFFFFFFFFFFF
310
FFFFFFFFFFFFFFFFFFFFFFFFFFFFFFFFFFFFFFFFFFFFFFFFFFFFFFFFFFFFFFFF
310
FFFFFFFFFFFFFFFFFFFFFFFFFFFFFFFFFFFFFFFFFFFFFFFFFFFFFFFFFFFFFFFF
310
F000FFFFFFFFFFFFFFFFFFFFFFFFFFFFFFFFFFFFFFFFFFFFFFFFFFFFFFFFFFFF
310
FFFFFFFFFFFFFFFFFFFFFFFFFFFFFFFFFFFFFFFFFFFFFFFFFFFFFFFFFFFFFFFF
310
FFFFFFFFFFFFFFFFFFFFFFFFFFFFFFFFFFFFFFFFFFFFFFFFF000FFFFFFFFFFFF
310
FFFFFFFFFFFFFFFFFFFFFFFFFFFFFFFFFFFFFFFFFFFFFFFFFFFFFFFFFFFFFFFF
310
FFFFFFFFFFFFFFFFFFFFFFFFFFFFFFFFFFFFFFFFFFFFFFFFFFFFFFFFFFFFFFFF
310
FFFFFFFFFFFFFFFFFFFFFFFFFFFFFFFFF000FFFFFFFFFFFFFFFFFFFFFFFFFFFF
310
FFFFFFFFFFFFFFFFFFFFFFFFFFFFFFFFFFFFFFFFFFFFFFFFFFFFFFFFFFFFFFFF
310
FFFFFFFFFFFFFFFFFFFFFFFFFFFFFFFFFFFFFFFFFFFFFFFFFFFFFFFFFFFFFFFF
310
FFFFFFFFFFFFFFFFF000FFFFFFFFFFFFFFFFFFFFFFFFFFFFFFFFFFFFFFFFFFFF
310
FFFFFFFFFFFFFFFFFFFFFFFFFFFFFFFFFFFFFFFFFFFFFFFFFFFFFFFFFFFFFFFF
310
FFFFFFFFFFFFFFFFFFFFFFFFFFFFFFFFFFFFFFFFFFFFFFFFFFFFFFFFFFFFFFFF
310
F000FFFFFFFFFFFFFFFFFFFFFFFFFFFFFFFFFFFFFFFFFFFFFFFFFFFFFFFFFFFF
310
FFFFFFFFFFFFFFFFFFFFFFFFFFFFFFFFFFFFFFFFFFFFFFFFFFFFFFFFFFFFFFFF
310
FFFFFFFFFFFFFFFFFFFFFFFFFFFFFFFFFFFFFFFFFFFFFFFFF000FFFFFFFFFFFF
310
FFFFFFFFFFFFFFFFFFFFFFFFFFFFFFFFFFFFFFFFFFFFFFFFFFFFFFFFFFFFFFFF
310
FFFFFFFFFFFFFFFFFFFFFFFFFFFFFFFFFFFFFFFFFFFFFFFFFFFFFFFFFFFFFFFF
310
FFFFFFFFFFFFFFFFFFFFFFFFFFFFFFFFF000FFFFFFFFFFFFFFFFFFFFFFFFFFFF
310
FFFFFFFFFFFFFFFFFFFFFFFFFFFFFFFFFFFFFFFFFFFFFFFFFFFFFFFFFFFFFFFF
310
FFFFFFFFFFFFFFFFFFFFFFFFFFFFFFFFFFFFFFFFFFFFFFFFFFFFFFFFFFFFFFFF
310
FFFFFFFFFFFFFFFFF000FFFFFFFFFFFFFFFFFFFFFFFFFFFFFFFFFFFFFFFFFFFF
310
FFFFFFFFFFFFFFFFFFFFFFFFFFFFFFFFFFFFFFFFFFFFFFFFFFFFFFFFFFFFFFFF
310
FFFFFFFFFFFFFFFFFFFFFFFFFFFFFFFFFFFFFFFFFFFFFFFFFFFFFFFFFFFFFFFF
310
F000FFFFFFFFFFFFFFFFFFFFFFFFFFFFFFFFFFFFFFFFFFFFFFFFFFFFFFFFFFFF
310
FFFFFFFFFFFFFFFFFFFFFFFFFFFFFFFFFFFFFFFFFFFFFFFFFFFFFFFFFFFFFFFF
310
FFFFFFFFFFFFFFFFFFFFFFFFFFFFFFFFFFFFFFFFFFFFFFFFF000FFFFFFFFFFFF
310
FFFFFFFFFFFFFFFFFFFFFFFFFFFFFFFFFFFFFFFFFFFFFFFFFFFFFFFFFFFFFFFF
310
FFFFFFFFFFFFFFFFFFFFFFFFFFFFFFFFFFFFFFFFFFFFFFFFFFFFFFFFFFFFFFFF
310
FFFFFFFFFFFFFFFFFFFFFFFFFFFFFFFFF0000000000000000000000000000000
310
0000000001000000010000000100000001000000010000000100000001000000
310
0100000001000000010000000100000001000000010000000100000001000000
310
0100000001000000010000000100000001000000010000000100000001000000
310
0100000001000000000000000100000000000000010000000100000001000000
310
0100000001000000010000000100000001000000010000000100000001000000
310
0100000001000000010000000100000001000000010000000100000001000000
310
0100000001000000010000000100000001000000010000000100000001000000
310
0100000001000000000000000100000001000000000000000100000000000000
310
0100000001000000010000000100000001000000010000000100000001000000
310
0100000001000000010000000100000001000000010000000100000001000000
310
0100000001000000010000000100000001000000010000000100000001000000
310
0100000001000000010000000100000001000000010000000100000000000000
310
0100000001000000010000000100000001000000010000000100000001000000
310
0100000001000000010000000100000001000000010000000100000001000000
310
0100000001000000010000000100000001000000010000000100000001000000
  1
OLE
  0
ENDSEC
  0
SECTION
  2
OBJECTS
  0
DICTIONARY
  5
C
330
0
100
AcDbDictionary
281
     1
  3
ACAD_GROUP
350
D
  3
ACAD_LAYOUT
350
1A
  3
ACAD_MLEADERSTYLE
350
20A
  3
ACAD_MLINESTYLE
350
17
  3
ACAD_PLOTSETTINGS
350
19
  3
ACAD_PLOTSTYLENAME
350
E
  3
ACAD_TABLESTYLE
350
209
  3
ACAD_VISUALSTYLE
350
2A
  3
AcDbVariableDictionary
350
20B
  0
DICTIONARY
  5
D
102
{ACAD_REACTORS
330
C
102
}
330
C
100
AcDbDictionary
281
     1
  0
DICTIONARY
  5
1A
102
{ACAD_REACTORS
330
C
102
}
330
C
100
AcDbDictionary
281
     1
  3
Layout1
350
1E
  3
Layout2
350
26
  3
Model
350
22
  0
DICTIONARY
  5
20A
102
{ACAD_REACTORS
330
C
102
}
330
C
100
AcDbDictionary
281
     1
  0
DICTIONARY
  5
17
102
{ACAD_REACTORS
330
C
102
}
330
C
100
AcDbDictionary
281
     1
  3
Standard
350
18
  0
DICTIONARY
  5
19
102
{ACAD_REACTORS
330
C
102
}
330
C
100
AcDbDictionary
281
     1
  0
ACDBDICTIONARYWDFLT
  5
E
102
{ACAD_REACTORS
330
C
102
}
330
C
100
AcDbDictionary
281
     1
  3
Normal
350
F
100
AcDbDictionaryWithDefault
340
F
  0
DICTIONARY
  5
209
102
{ACAD_REACTORS
330
C
102
}
330
C
100
AcDbDictionary
281
     1
  0
DICTIONARY
  5
2A
102
{ACAD_REACTORS
330
C
102
}
330
C
100
AcDbDictionary
281
     1
  3
2dWireframe
350
2F
  3
3D Hidden
350
31
  3
3dWireframe
350
30
  3
Basic
350
32
  3
Brighten
350
36
  3
ColorChange
350
3A
  3
Conceptual
350
34
  3
Dim
350
35
  3
Facepattern
350
39
  3
Flat
350
2B
  3
FlatWithEdges
350
2C
  3
Gouraud
350
2D
  3
GouraudWithEdges
350
2E
  3
Linepattern
350
38
  3
Realistic
350
33
  3
Thicken
350
37
  0
DICTIONARY
  5
20B
102
{ACAD_REACTORS
330
C
102
}
330
C
100
AcDbDictionary
281
     1
  3
PSOLHEIGHT
350
20D
  3
PSOLWIDTH
350
20C
  0
LAYOUT
  5
1E
102
{ACAD_REACTORS
330
1A
102
}
330
1A
100
AcDbPlotSettings
  1

  2
none_device
  4

  6

 40
0.0
 41
0.0
 42
0.0
 43
0.0
 44
0.0
 45
0.0
 46
0.0
 47
0.0
 48
0.0
 49
0.0
140
0.0
141
0.0
142
1.0
143
1.0
 70
   688
 72
     0
 73
     0
 74
     5
  7

 75
    16
147
1.0
148
0.0
149
0.0
100
AcDbLayout
  1
Layout1
 70
     1
 71
     1
 10
0.0
 20
0.0
 11
420.0
 21
297.0
 12
0.0
 22
0.0
 32
0.0
 14
1.0000000000E+20
 24
1.0000000000E+20
 34
1.0000000000E+20
 15
-1.0000000000E+20
 25
-1.0000000000E+20
 35
-1.0000000000E+20
146
0.0
 13
0.0
 23
0.0
 33
0.0
 16
1.0
 26
0.0
 36
0.0
 17
0.0
 27
1.0
 37
0.0
 76
     0
330
1B
  0
LAYOUT
  5
26
102
{ACAD_REACTORS
330
1A
102
}
330
1A
100
AcDbPlotSettings
  1

  2
none_device
  4

  6

 40
0.0
 41
0.0
 42
0.0
 43
0.0
 44
0.0
 45
0.0
 46
0.0
 47
0.0
 48
0.0
 49
0.0
140
0.0
141
0.0
142
1.0
143
1.0
 70
   688
 72
     0
 73
     0
 74
     5
  7

 75
    16
147
1.0
148
0.0
149
0.0
100
AcDbLayout
  1
Layout2
 70
     1
 71
     2
 10
0.0
 20
0.0
 11
0.0
 21
0.0
 12
0.0
 22
0.0
 32
0.0
 14
0.0
 24
0.0
 34
0.0
 15
0.0
 25
0.0
 35
0.0
146
0.0
 13
0.0
 23
0.0
 33
0.0
 16
1.0
 26
0.0
 36
0.0
 17
0.0
 27
1.0
 37
0.0
 76
     0
330
23
  0
LAYOUT
  5
22
102
{ACAD_REACTORS
330
1A
102
}
330
1A
100
AcDbPlotSettings
  1

  2
none_device
  4

  6

 40
0.0
 41
0.0
 42
0.0
 43
0.0
 44
0.0
 45
0.0
 46
0.0
 47
0.0
 48
0.0
 49
0.0
140
0.0
141
0.0
142
1.0
143
1.0
 70
  1712
 72
     0
 73
     0
 74
     0
  7

 75
     0
147
1.0
148
0.0
149
0.0
100
AcDbLayout
  1
Model
 70
     1
 71
     0
 10
0.0
 20
0.0
 11
297.0
 21
210.0
 12
0.0
 22
0.0
 32
0.0
 14
0.0
 24
0.0
 34
0.0
 15
297.0
 25
210.0
 35
0.0
146
0.0
 13
0.0
 23
0.0
 33
0.0
 16
1.0
 26
0.0
 36
0.0
 17
0.0
 27
1.0
 37
0.0
 76
     0
330
1F
331
29
  0
MLINESTYLE
  5
18
102
{ACAD_REACTORS
330
17
102
}
330
17
100
AcDbMlineStyle
  2
Standard
 70
     0
  3

 62
   256
 51
90.0
 52
90.0
 71
     2
 49
0.5
 62
   256
  6
BYLAYER
 49
-0.5
 62
   256
  6
BYLAYER
  0
ACDBPLACEHOLDER
  5
F
102
{ACAD_REACTORS
330
E
102
}
330
E
  0
VISUALSTYLE
  5
2F
102
{ACAD_REACTORS
330
2A
102
}
330
2A
100
AcDbVisualStyle
  2
2dWireframe
 70
     4
 71
     0
 72
     2
 73
     0
 90
        0
 40
-0.6
 41
-30.0
 62
     5
 63
     7
 74
     1
 91
        4
 64
     7
 65
   257
 75
     1
175
     1
 42
1.0
 92
        0
 66
   257
 43
1.0
 76
     1
 77
     6
 78
     2
 67
     7
 79
     5
170
     0
171
     0
290
     0
174
     0
 93
        1
 44
0.0
173
     0
291
     0
 45
0.0
1001
ACAD
1000
AcDbSavedByObjectVersion
1070
     0
  0
VISUALSTYLE
  5
31
102
{ACAD_REACTORS
330
2A
102
}
330
2A
100
AcDbVisualStyle
  2
3D Hidden
 70
     6
 71
     1
 72
     2
 73
     2
 90
        0
 40
-0.6
 41
-30.0
 62
     5
 63
     7
 74
     2
 91
        2
 64
     7
 65
   257
 75
     2
175
     1
 42
40.0
 92
        0
 66
   257
 43
1.0
 76
     1
 77
     6
 78
     2
 67
     7
 79
     3
170
     0
171
     0
290
     0
174
     0
 93
        1
 44
0.0
173
     0
291
     0
 45
0.0
1001
ACAD
1000
AcDbSavedByObjectVersion
1070
     0
  0
VISUALSTYLE
  5
30
102
{ACAD_REACTORS
330
2A
102
}
330
2A
100
AcDbVisualStyle
  2
3dWireframe
 70
     5
 71
     0
 72
     2
 73
     0
 90
        0
 40
-0.6
 41
-30.0
 62
     5
 63
     7
 74
     1
 91
        4
 64
     7
 65
   257
 75
     1
175
     1
 42
1.0
 92
        0
 66
   257
 43
1.0
 76
     1
 77
     6
 78
     2
 67
     7
 79
     5
170
     0
171
     0
290
     0
174
     0
 93
        1
 44
0.0
173
     0
291
     0
 45
0.0
1001
ACAD
1000
AcDbSavedByObjectVersion
1070
     0
  0
VISUALSTYLE
  5
32
102
{ACAD_REACTORS
330
2A
102
}
330
2A
100
AcDbVisualStyle
  2
Basic
 70
     7
 71
     1
 72
     0
 73
     1
 90
        0
 40
-0.6
 41
-30.0
 62
     5
 63
     7
 74
     0
 91
        4
 64
     7
 65
   257
 75
     1
175
     1
 42
1.0
 92
        8
 66
     7
 43
1.0
 76
     1
 77
     6
 78
     2
 67
     7
 79
     5
170
     0
171
     0
290
     0
174
     0
 93
        1
 44
0.0
173
     0
291
     1
 45
0.0
1001
ACAD
1000
AcDbSavedByObjectVersion
1070
     0
  0
VISUALSTYLE
  5
36
102
{ACAD_REACTORS
330
2A
102
}
330
2A
100
AcDbVisualStyle
  2
Brighten
 70
    12
 71
     2
 72
     2
 73
     0
 90
        0
 40
-0.6
 41
-30.0
 62
     5
 63
     7
 74
     1
 91
        4
 64
     7
 65
   257
 75
     1
175
     1
 42
1.0
 92
        8
 66
     7
 43
1.0
 76
     1
 77
     6
 78
     2
 67
     7
 79
     5
170
     0
171
     0
290
     0
174
     0
 93
        1
 44
50.0
173
     0
291
     1
 45
0.0
1001
ACAD
1000
AcDbSavedByObjectVersion
1070
     0
  0
VISUALSTYLE
  5
3A
102
{ACAD_REACTORS
330
2A
102
}
330
2A
100
AcDbVisualStyle
  2
ColorChange
 70
    16
 71
     2
 72
     2
 73
     3
 90
        0
 40
-0.6
 41
-30.0
 62
     5
 63
     8
 74
     1
 91
        4
 64
     7
 65
   257
 75
     1
175
     1
 42
1.0
 92
        8
 66
     8
 43
1.0
 76
     1
 77
     6
 78
     2
 67
     7
 79
     5
170
     0
171
     0
290
     0
174
     0
 93
        1
 44
0.0
173
     0
291
     1
 45
0.0
1001
ACAD
1000
AcDbSavedByObjectVersion
1070
     0
  0
VISUALSTYLE
  5
34
102
{ACAD_REACTORS
330
2A
102
}
330
2A
100
AcDbVisualStyle
  2
Conceptual
 70
     9
 71
     3
 72
     2
 73
     0
 90
        0
 40
-0.6
 41
-30.0
 62
     5
 63
     7
 74
     2
 91
        2
 64
     7
 65
   257
 75
     1
175
     1
 42
40.0
 92
        8
 66
     7
 43
1.0
 76
     1
 77
     6
 78
     2
 67
     7
 79
     3
170
     0
171
     0
290
     0
174
     0
 93
        1
 44
0.0
173
     0
291
     0
 45
0.0
1001
ACAD
1000
AcDbSavedByObjectVersion
1070
     0
  0
VISUALSTYLE
  5
35
102
{ACAD_REACTORS
330
2A
102
}
330
2A
100
AcDbVisualStyle
  2
Dim
 70
    11
 71
     2
 72
     2
 73
     0
 90
        0
 40
-0.6
 41
-30.0
 62
     5
 63
     7
 74
     1
 91
        4
 64
     7
 65
   257
 75
     1
175
     1
 42
1.0
 92
        8
 66
     7
 43
1.0
 76
     1
 77
     6
 78
     2
 67
     7
 79
     5
170
     0
171
     0
290
     0
174
     0
 93
        1
 44
-50.0
173
     0
291
     1
 45
0.0
1001
ACAD
1000
AcDbSavedByObjectVersion
1070
     0
  0
VISUALSTYLE
  5
39
102
{ACAD_REACTORS
330
2A
102
}
330
2A
100
AcDbVisualStyle
  2
Facepattern
 70
    15
 71
     2
 72
     2
 73
     0
 90
        0
 40
-0.6
 41
-30.0
 62
     5
 63
     7
 74
     1
 91
        4
 64
     7
 65
   257
 75
     1
175
     1
 42
1.0
 92
        8
 66
     7
 43
1.0
 76
     1
 77
     6
 78
     2
 67
     7
 79
     5
170
     0
171
     0
290
     0
174
     0
 93
        1
 44
0.0
173
     0
291
     1
 45
0.0
1001
ACAD
1000
AcDbSavedByObjectVersion
1070
     0
  0
VISUALSTYLE
  5
2B
102
{ACAD_REACTORS
330
2A
102
}
330
2A
100
AcDbVisualStyle
  2
Flat
 70
     0
 71
     2
 72
     1
 73
     1
 90
        2
 40
-0.6
 41
30.0
 62
     5
 63
     7
 74
     0
 91
        4
 64
     7
 65
   257
 75
     1
175
     1
 42
1.0
 92
        8
 66
     7
 43
1.0
 76
     1
 77
     6
 78
     2
 67
     7
 79
     5
170
     0
171
     0
290
     0
174
     0
 93
       13
 44
0.0
173
     0
291
     1
 45
0.0
1001
ACAD
1000
AcDbSavedByObjectVersion
1070
     0
  0
VISUALSTYLE
  5
2C
102
{ACAD_REACTORS
330
2A
102
}
330
2A
100
AcDbVisualStyle
  2
FlatWithEdges
 70
     1
 71
     2
 72
     1
 73
     1
 90
        2
 40
-0.6
 41
30.0
 62
     5
 63
     7
 74
     1
 91
        4
 64
     7
 65
   257
 75
     1
175
     1
 42
1.0
 92
        0
 66
   257
 43
1.0
 76
     1
 77
     6
 78
     2
 67
     7
 79
     5
170
     0
171
     0
290
     0
174
     0
 93
       13
 44
0.0
173
     0
291
     1
 45
0.0
1001
ACAD
1000
AcDbSavedByObjectVersion
1070
     0
  0
VISUALSTYLE
  5
2D
102
{ACAD_REACTORS
330
2A
102
}
330
2A
100
AcDbVisualStyle
  2
Gouraud
 70
     2
 71
     2
 72
     2
 73
     1
 90
        2
 40
-0.6
 41
30.0
 62
     5
 63
     7
 74
     0
 91
        4
 64
     7
 65
   257
 75
     1
175
     1
 42
1.0
 92
        0
 66
     7
 43
1.0
 76
     1
 77
     6
 78
     2
 67
     7
 79
     5
170
     0
171
     0
290
     0
174
     0
 93
       13
 44
0.0
173
     0
291
     1
 45
0.0
1001
ACAD
1000
AcDbSavedByObjectVersion
1070
     0
  0
VISUALSTYLE
  5
2E
102
{ACAD_REACTORS
330
2A
102
}
330
2A
100
AcDbVisualStyle
  2
GouraudWithEdges
 70
     3
 71
     2
 72
     2
 73
     1
 90
        2
 40
-0.6
 41
30.0
 62
     5
 63
     7
 74
     1
 91
        4
 64
     7
 65
   257
 75
     1
175
     1
 42
1.0
 92
        0
 66
   257
 43
1.0
 76
     1
 77
     6
 78
     2
 67
     7
 79
     5
170
     0
171
     0
290
     0
174
     0
 93
       13
 44
0.0
173
     0
291
     1
 45
0.0
1001
ACAD
1000
AcDbSavedByObjectVersion
1070
     0
  0
VISUALSTYLE
  5
38
102
{ACAD_REACTORS
330
2A
102
}
330
2A
100
AcDbVisualStyle
  2
Linepattern
 70
    14
 71
     2
 72
     2
 73
     0
 90
        0
 40
-0.6
 41
-30.0
 62
     5
 63
     7
 74
     1
 91
        4
 64
     7
 65
   257
 75
     7
175
     7
 42
1.0
 92
        8
 66
     7
 43
1.0
 76
     1
 77
     6
 78
     2
 67
     7
 79
     5
170
     0
171
     0
290
     0
174
     0
 93
        1
 44
0.0
173
     0
291
     1
 45
0.0
1001
ACAD
1000
AcDbSavedByObjectVersion
1070
     0
  0
VISUALSTYLE
  5
33
102
{ACAD_REACTORS
330
2A
102
}
330
2A
100
AcDbVisualStyle
  2
Realistic
 70
     8
 71
     2
 72
     2
 73
     0
 90
        0
 40
-0.6
 41
-30.0
 62
     5
 63
     7
 74
     1
 91
        0
 64
     7
 65
   257
 75
     1
175
     1
 42
1.0
 92
        8
 66
     8
 43
1.0
 76
     1
 77
     6
 78
     2
 67
     7
 79
     5
170
     0
171
     0
290
     0
174
     0
 93
       13
 44
0.0
173
     0
291
     0
 45
0.0
1001
ACAD
1000
AcDbSavedByObjectVersion
1070
     0
  0
VISUALSTYLE
  5
37
102
{ACAD_REACTORS
330
2A
102
}
330
2A
100
AcDbVisualStyle
  2
Thicken
 70
    13
 71
     2
 72
     2
 73
     0
 90
        0
 40
-0.6
 41
-30.0
 62
     5
 63
     7
 74
     1
 91
        4
 64
     7
 65
   257
 75
     1
175
     1
 42
1.0
 92
       12
 66
     7
 43
1.0
 76
     1
 77
     6
 78
     2
 67
     7
 79
     5
170
     0
171
     0
290
     0
174
     0
 93
        1
 44
0.0
173
     0
291
     1
 45
0.0
1001
ACAD
1000
AcDbSavedByObjectVersion
1070
     0
  0
DICTIONARYVAR
  5
20D
102
{ACAD_REACTORS
330
20B
102
}
330
20B
100
DictionaryVariables
280
     0
  1
80.000000
  0
DICTIONARYVAR
  5
20C
102
{ACAD_REACTORS
330
20B
102
}
330
20B
100
DictionaryVariables
280
     0
  1
5.000000
  0
ENDSEC
  0
EOF
