  0
SECTION
  2
HEADER
  9
$ACADVER
  1
AC1015
  9
$ACADMAINTVER
 70
     6
  9
$DWGCODEPAGE
  3
ANSI_1252
  9
$INSBASE
 10
0.0
 20
0.0
 30
0.0
  9
$EXTMIN
 10
0.0
 20
0.0
 30
0.0
  9
$EXTMAX
 10
297.0
 20
210.0
 30
0.0
  9
$LIMMIN
 10
0.0
 20
0.0
  9
$LIMMAX
 10
297.0
 20
210.0
  9
$ORTHOMODE
 70
     0
  9
$REGENMODE
 70
     1
  9
$FILLMODE
 70
     1
  9
$QTEXTMODE
 70
     0
  9
$MIRRTEXT
 70
     1
  9
$LTSCALE
 40
1.0
  9
$ATTMODE
 70
     1
  9
$TEXTSIZE
 40
2.0
  9
$TRACEWID
 40
1.0
  9
$TEXTSTYLE
  7
Standard
  9
$CLAYER
  8
0
  9
$CELTYPE
  6
ByLayer
  9
$CECOLOR
 62
   256
  9
$CELTSCALE
 40
1.0
  9
$DISPSILH
 70
     0
  9
$DIMSCALE
 40
1.0
  9
$DIMASZ
 40
3.0
  9
$DIMEXO
 40
0.0
  9
$DIMDLI
 40
3.75
  9
$DIMRND
 40
0.0
  9
$DIMDLE
 40
0.0
  9
$DIMEXE
 40
1.0
  9
$DIMTP
 40
0.0
  9
$DIMTM
 40
0.0
  9
$DIMTXT
 40
2.0
  9
$DIMCEN
 40
2.5
  9
$DIMTSZ
 40
0.0
  9
$DIMTOL
 70
     0
  9
$DIMLIM
 70
     0
  9
$DIMTIH
 70
     1
  9
$DIMTOH
 70
     1
  9
$DIMSE1
 70
     0
  9
$DIMSE2
 70
     0
  9
$DIMTAD
 70
     1
  9
$DIMZIN
 70
     0
  9
$DIMBLK
  1

  9
$DIMASO
 70
     1
  9
$DIMSHO
 70
     1
  9
$DIMPOST
  1

  9
$DIMAPOST
  1

  9
$DIMALT
 70
     0
  9
$DIMALTD
 70
     3
  9
$DIMALTF
 40
0.0393700787
  9
$DIMLFAC
 40
1.0
  9
$DIMTOFL
 70
     1
  9
$DIMTVP
 40
0.0
  9
$DIMTIX
 70
     0
  9
$DIMSOXD
 70
     0
  9
$DIMSAH
 70
     0
  9
$DIMBLK1
  1

  9
$DIMBLK2
  1

  9
$DIMSTYLE
  2
ISO-25
  9
$DIMCLRD
 70
     0
  9
$DIMCLRE
 70
     0
  9
$DIMCLRT
 70
     0
  9
$DIMTFAC
 40
1.0
  9
$DIMGAP
 40
1.524
  9
$DIMJUST
 70
     0
  9
$DIMSD1
 70
     0
  9
$DIMSD2
 70
     0
  9
$DIMTOLJ
 70
     0
  9
$DIMTZIN
 70
     0
  9
$DIMALTZ
 70
     0
  9
$DIMALTTZ
 70
     0
  9
$DIMUPT
 70
     0
  9
$DIMDEC
 70
     2
  9
$DIMTDEC
 70
     3
  9
$DIMALTU
 70
     2
  9
$DIMALTTD
 70
     3
  9
$DIMTXSTY
  7
Standard
  9
$DIMAUNIT
 70
     0
  9
$DIMADEC
 70
     2
  9
$DIMALTRND
 40
0.0
  9
$DIMAZIN
 70
     0
  9
$DIMDSEP
 70
    44
  9
$DIMATFIT
 70
     3
  9
$DIMFRAC
 70
     0
  9
$DIMLDRBLK
  1

  9
$DIMLUNIT
 70
     2
  9
$DIMLWD
 70
    -2
  9
$DIMLWE
 70
    -2
  9
$DIMTMOVE
 70
     0
  9
$LUNITS
 70
     2
  9
$LUPREC
 70
     2
  9
$SKETCHINC
 40
1.0
  9
$FILLETRAD
 40
10.0
  9
$AUNITS
 70
     0
  9
$AUPREC
 70
     2
  9
$MENU
  1
.
  9
$ELEVATION
 40
0.0
  9
$PELEVATION
 40
0.0
  9
$THICKNESS
 40
0.0
  9
$LIMCHECK
 70
     0
  9
$CHAMFERA
 40
10.0
  9
$CHAMFERB
 40
10.0
  9
$CHAMFERC
 40
20.0
  9
$CHAMFERD
 40
0.0
  9
$SKPOLY
 70
     0
  9
$TDCREATE
 40
2455684.353195671
  9
$TDUCREATE
 40
2455684.269862338
  9
$TDUPDATE
 40
2455684.353195683
  9
$TDUUPDATE
 40
2455684.26986235
  9
$TDINDWG
 40
0.0000000116
  9
$TDUSRTIMER
 40
0.0000000116
  9
$USRTIMER
 70
     1
  9
$ANGBASE
 50
0.0
  9
$ANGDIR
 70
     0
  9
$PDMODE
 70
     0
  9
$PDSIZE
 40
-1.0
  9
$PLINEWID
 40
0.0
  9
$SPLFRAME
 70
     0
  9
$SPLINETYPE
 70
     6
  9
$SPLINESEGS
 70
     8
  9
$HANDSEED
  5
20A
  9
$SURFTAB1
 70
     6
  9
$SURFTAB2
 70
     6
  9
$SURFTYPE
 70
     6
  9
$SURFU
 70
     6
  9
$SURFV
 70
     6
  9
$UCSBASE
  2

  9
$UCSNAME
  2

  9
$UCSORG
 10
0.0
 20
0.0
 30
0.0
  9
$UCSXDIR
 10
1.0
 20
0.0
 30
0.0
  9
$UCSYDIR
 10
0.0
 20
1.0
 30
0.0
  9
$UCSORTHOREF
  2

  9
$UCSORTHOVIEW
 70
     0
  9
$UCSORGTOP
 10
0.0
 20
0.0
 30
0.0
  9
$UCSORGBOTTOM
 10
0.0
 20
0.0
 30
0.0
  9
$UCSORGLEFT
 10
0.0
 20
0.0
 30
0.0
  9
$UCSORGRIGHT
 10
0.0
 20
0.0
 30
0.0
  9
$UCSORGFRONT
 10
0.0
 20
0.0
 30
0.0
  9
$UCSORGBACK
 10
0.0
 20
0.0
 30
0.0
  9
$PUCSBASE
  2

  9
$PUCSNAME
  2

  9
$PUCSORG
 10
0.0
 20
0.0
 30
0.0
  9
$PUCSXDIR
 10
1.0
 20
0.0
 30
0.0
  9
$PUCSYDIR
 10
0.0
 20
1.0
 30
0.0
  9
$PUCSORTHOREF
  2

  9
$PUCSORTHOVIEW
 70
     0
  9
$PUCSORGTOP
 10
0.0
 20
0.0
 30
0.0
  9
$PUCSORGBOTTOM
 10
0.0
 20
0.0
 30
0.0
  9
$PUCSORGLEFT
 10
0.0
 20
0.0
 30
0.0
  9
$PUCSORGRIGHT
 10
0.0
 20
0.0
 30
0.0
  9
$PUCSORGFRONT
 10
0.0
 20
0.0
 30
0.0
  9
$PUCSORGBACK
 10
0.0
 20
0.0
 30
0.0
  9
$USERI1
 70
     0
  9
$USERI2
 70
     0
  9
$USERI3
 70
     0
  9
$USERI4
 70
     0
  9
$USERI5
 70
     0
  9
$USERR1
 40
0.0
  9
$USERR2
 40
0.0
  9
$USERR3
 40
0.0
  9
$USERR4
 40
0.0
  9
$USERR5
 40
0.0
  9
$WORLDVIEW
 70
     1
  9
$SHADEDGE
 70
     3
  9
$SHADEDIF
 70
    70
  9
$TILEMODE
 70
     1
  9
$MAXACTVP
 70
    64
  9
$PINSBASE
 10
0.0
 20
0.0
 30
0.0
  9
$PLIMCHECK
 70
     0
  9
$PEXTMIN
 10
1.0000000000E+20
 20
1.0000000000E+20
 30
1.0000000000E+20
  9
$PEXTMAX
 10
-1.0000000000E+20
 20
-1.0000000000E+20
 30
-1.0000000000E+20
  9
$PLIMMIN
 10
0.0
 20
0.0
  9
$PLIMMAX
 10
420.0
 20
297.0
  9
$UNITMODE
 70
     0
  9
$VISRETAIN
 70
     1
  9
$PLINEGEN
 70
     0
  9
$PSLTSCALE
 70
     1
  9
$TREEDEPTH
 70
  3020
  9
$CMLSTYLE
  2
Standard
  9
$CMLJUST
 70
     0
  9
$CMLSCALE
 40
20.0
  9
$PROXYGRAPHICS
 70
     1
  9
$MEASUREMENT
 70
     1
  9
$CELWEIGHT
370
    -1
  9
$ENDCAPS
280
     0
  9
$JOINSTYLE
280
     0
  9
$LWDISPLAY
290
     1
  9
$INSUNITS
 70
     4
  9
$HYPERLINKBASE
  1

  9
$STYLESHEET
  1

  9
$XEDIT
290
     1
  9
$CEPSNTYPE
380
     0
  9
$PSTYLEMODE
290
     1
  9
$FINGERPRINTGUID
  2
{6A22320E-308C-4201-AC92-9294240CF6D2}
  9
$VERSIONGUID
  2
{FAEB1C32-E019-11D5-929B-00C0DF256EC4}
  9
$EXTNAMES
290
     1
  9
$PSVPSCALE
 40
0.0
  9
$OLESTARTUP
290
     0
  0
ENDSEC
  0
SECTION
  2
CLASSES
  0
CLASS
  1
ACDBDICTIONARYWDFLT
  2
AcDbDictionaryWithDefault
  3
ObjectDBX Classes
 90
        0
280
     0
281
     0
  0
CLASS
  1
VISUALSTYLE
  2
AcDbVisualStyle
  3
ObjectDBX Classes
 90
     4095
280
     0
281
     0
  0
CLASS
  1
DICTIONARYVAR
  2
AcDbDictionaryVar
  3
ObjectDBX Classes
 90
        0
280
     0
281
     0
  0
CLASS
  1
ACDBPLACEHOLDER
  2
AcDbPlaceHolder
  3
ObjectDBX Classes
 90
        0
280
     0
281
     0
  0
CLASS
  1
LAYOUT
  2
AcDbLayout
  3
ObjectDBX Classes
 90
        0
280
     0
281
     0
  0
ENDSEC
  0
SECTION
  2
TABLES
  0
TABLE
  2
VPORT
  5
8
330
0
100
AcDbSymbolTable
 70
     1
  0
VPORT
  5
29
330
8
100
AcDbSymbolTableRecord
100
AcDbViewportTableRecord
  2
*Active
 70
     0
 10
0.0
 20
0.0
 11
1.0
 21
1.0
 12
148.5
 22
105.0
 13
0.0
 23
0.0
 14
10.0
 24
10.0
 15
10.0
 25
10.0
 16
0.0
 26
0.0
 36
1.0
 17
0.0
 27
0.0
 37
0.0
 40
210.0
 41
1.4142857143
 42
50.0
 43
0.0
 44
0.0
 50
0.0
 51
0.0
 71
     0
 72
  2000
 73
     1
 74
     3
 75
     0
 76
     0
 77
     0
 78
     0
281
     0
 65
     1
110
0.0
120
0.0
130
0.0
111
1.0
121
0.0
131
0.0
112
0.0
122
1.0
132
0.0
 79
     0
146
0.0
  0
ENDTAB
  0
TABLE
  2
LTYPE
  5
5
330
0
100
AcDbSymbolTable
 70
     6
  0
LTYPE
  5
14
330
5
100
AcDbSymbolTableRecord
100
AcDbLinetypeTableRecord
  2
ByBlock
 70
     0
  3

 72
    65
 73
     0
 40
0.0
  0
LTYPE
  5
15
330
5
100
AcDbSymbolTableRecord
100
AcDbLinetypeTableRecord
  2
ByLayer
 70
     0
  3

 72
    65
 73
     0
 40
0.0
  0
LTYPE
  5
16
330
5
100
AcDbSymbolTableRecord
100
AcDbLinetypeTableRecord
  2
Continuous
 70
     0
  3
Solid line
 72
    65
 73
     0
 40
0.0
  0
LTYPE
  5
3B
330
5
100
AcDbSymbolTableRecord
100
AcDbLinetypeTableRecord
  2
HIDDEN
 70
     0
  3
Hidden __ __ __ __ __ __ __ __ __ __ __ __ __ __
 72
    65
 73
     2
 40
1.905
 49
1.27
 74
     0
 49
-0.635
 74
     0
  0
LTYPE
  5
3C
330
5
100
AcDbSymbolTableRecord
100
AcDbLinetypeTableRecord
  2
PHANTOM
 70
     0
  3
Phantom ______  __  __  ______  __  __  ______
 72
    65
 73
     6
 40
12.7
 49
6.35
 74
     0
 49
-1.27
 74
     0
 49
1.27
 74
     0
 49
-1.27
 74
     0
 49
1.27
 74
     0
 49
-1.27
 74
     0
  0
LTYPE
  5
3D
330
5
100
AcDbSymbolTableRecord
100
AcDbLinetypeTableRecord
  2
CENTER
 70
     0
  3
Center ____ _ ____ _ ____ _ ____ _ ____ _ ____
 72
    65
 73
     4
 40
10.16
 49
6.35
 74
     0
 49
-1.27
 74
     0
 49
1.27
 74
     0
 49
-1.27
 74
     0
  0
LTYPE
  5
3E
330
5
100
AcDbSymbolTableRecord
100
AcDbLinetypeTableRecord
  2
CENTERX2
 70
     0
  3
Center (2x) ________  __  ________  __  _____
 72
    65
 73
     4
 40
20.32
 49
12.7
 74
     0
 49
-2.54
 74
     0
 49
2.54
 74
     0
 49
-2.54
 74
     0
  0
LTYPE
  5
3F
330
5
100
AcDbSymbolTableRecord
100
AcDbLinetypeTableRecord
  2
DOT2
 70
     0
  3
Dot (.5x) ........................................
 72
    65
 73
     2
 40
0.635
 49
0.0
 74
     0
 49
-0.635
 74
     0
  0
ENDTAB
  0
TABLE
  2
LAYER
  5
2
330
0
100
AcDbSymbolTable
 70
     5
  0
LAYER
  5
10
330
2
100
AcDbSymbolTableRecord
100
AcDbLayerTableRecord
  2
0
 70
     0
 62
     7
  6
Continuous
370
    -3
390
F
  0
LAYER
  5
40
330
2
100
AcDbSymbolTableRecord
100
AcDbLayerTableRecord
  2
FORMAT
 70
     0
 62
     7
  6
Continuous
370
    -3
390
F
  0
LAYER
  5
41
330
2
100
AcDbSymbolTableRecord
100
AcDbLayerTableRecord
  2
VERMASSUNG
 70
     0
 62
     7
  6
Continuous
370
    -3
390
F
  0
LAYER
  5
42
330
2
100
AcDbSymbolTableRecord
100
AcDbLayerTableRecord
  2
KOPF_DÜNN
 70
     0
 62
     7
  6
Continuous
370
    -3
390
F
  0
LAYER
  5
43
330
2
100
AcDbSymbolTableRecord
100
AcDbLayerTableRecord
  2
KOPF_DICK
 70
     0
 62
     7
  6
Continuous
370
    15
390
F
  0
ENDTAB
  0
TABLE
  2
STYLE
  5
3
330
0
100
AcDbSymbolTable
 70
     3
  0
STYLE
  5
11
330
3
100
AcDbSymbolTableRecord
100
AcDbTextStyleTableRecord
  2
Standard
 70
     0
 40
0.0
 41
1.0
 50
0.0
 71
     0
 42
2.5
  3
txt
  4

  0
STYLE
  5
44
330
3
100
AcDbSymbolTableRecord
100
AcDbTextStyleTableRecord
  2
SLDTEXTSTYLE0
 70
     0
 40
0.0
 41
0.7
 50
0.0
 71
     0
 42
0.2
  3
TXT
  4

  0
STYLE
  5
48
330
3
100
AcDbSymbolTableRecord
100
AcDbTextStyleTableRecord
  2
SLDTEXTSTYLE1
 70
     0
 40
0.0
 41
0.65
 50
0.0
 71
     0
 42
0.2
  3
TXT
  4

  0
ENDTAB
  0
TABLE
  2
VIEW
  5
6
330
0
100
AcDbSymbolTable
 70
     0
  0
ENDTAB
  0
TABLE
  2
UCS
  5
7
330
0
100
AcDbSymbolTable
 70
     0
  0
ENDTAB
  0
TABLE
  2
APPID
  5
9
330
0
100
AcDbSymbolTable
 70
     1
  0
APPID
  5
12
330
9
100
AcDbSymbolTableRecord
100
AcDbRegAppTableRecord
  2
ACAD
 70
     0
  0
ENDTAB
  0
TABLE
  2
DIMSTYLE
  5
A
330
0
100
AcDbSymbolTable
 70
     5
100
AcDbDimStyleTable
  0
DIMSTYLE
105
27
330
A
100
AcDbSymbolTableRecord
100
AcDbDimStyleTableRecord
  2
ISO-25
 70
     0
 41
2.5
 42
0.625
 43
3.75
 44
1.25
 73
     0
 74
     0
 77
     1
 78
     8
140
2.5
141
2.5
143
0.0393700787
147
0.625
171
     3
172
     1
271
     2
272
     2
274
     3
278
    44
283
     0
284
     8
340
11
  0
DIMSTYLE
105
1AB
102
{ACAD_REACTORS
330
1AA
330
1DA
330
1E4
330
1EE
330
1F8
102
}
330
A
100
AcDbSymbolTableRecord
100
AcDbDimStyleTableRecord
  2
SLDDIMSTYLE0
 70
     0
 41
3.0
 44
0.0
 45
0.000000001
 73
     0
 74
     0
 77
     1
 78
    12
140
2.0
147
0.5
173
     1
271
     2
272
     3
284
    12
340
44
  0
DIMSTYLE
105
1B8
102
{ACAD_REACTORS
330
1B7
102
}
330
A
100
AcDbSymbolTableRecord
100
AcDbDimStyleTableRecord
  2
SLDDIMSTYLE1
 70
     0
 41
3.0
 44
0.0
 45
0.000000001
 73
     0
 74
     0
 77
     1
 78
    12
140
2.0
147
0.5
173
     1
271
     2
272
     2
284
    12
340
44
  0
DIMSTYLE
105
1C3
102
{ACAD_REACTORS
330
1C2
102
}
330
A
100
AcDbSymbolTableRecord
100
AcDbDimStyleTableRecord
  2
SLDDIMSTYLE2
 70
     0
 41
3.0
 44
0.0
 45
0.000000001
 73
     0
 74
     0
 77
     1
 78
    12
140
2.0
147
0.5
173
     1
271
     2
272
     2
284
    12
340
44
  0
DIMSTYLE
105
1CF
102
{ACAD_REACTORS
330
1CE
102
}
330
A
100
AcDbSymbolTableRecord
100
AcDbDimStyleTableRecord
  2
SLDDIMSTYLE3
 70
     0
 41
3.0
 44
0.0
 45
0.000000001
 73
     0
 74
     0
 77
     1
 78
    12
140
2.0
147
0.5
173
     1
271
     2
272
     3
284
    12
340
44
  0
ENDTAB
  0
TABLE
  2
BLOCK_RECORD
  5
1
330
0
100
AcDbSymbolTable
 70
     9
  0
BLOCK_RECORD
  5
1F
330
1
100
AcDbSymbolTableRecord
100
AcDbBlockTableRecord
  2
*Model_Space
340
22
  0
BLOCK_RECORD
  5
1B
330
1
100
AcDbSymbolTableRecord
100
AcDbBlockTableRecord
  2
*Paper_Space
340
1E
  0
BLOCK_RECORD
  5
23
330
1
100
AcDbSymbolTableRecord
100
AcDbBlockTableRecord
  2
*Paper_Space0
340
26
  0
BLOCK_RECORD
  5
1AC
330
1
100
AcDbSymbolTableRecord
100
AcDbBlockTableRecord
  2
*D1
340
0
  0
BLOCK_RECORD
  5
1B9
330
1
100
AcDbSymbolTableRecord
100
AcDbBlockTableRecord
  2
*D2
340
0
  0
BLOCK_RECORD
  5
1C4
330
1
100
AcDbSymbolTableRecord
100
AcDbBlockTableRecord
  2
*D3
340
0
  0
BLOCK_RECORD
  5
1D0
330
1
100
AcDbSymbolTableRecord
100
AcDbBlockTableRecord
  2
*D4
340
0
  0
BLOCK_RECORD
  5
1DB
330
1
100
AcDbSymbolTableRecord
100
AcDbBlockTableRecord
  2
*D5
340
0
  0
BLOCK_RECORD
  5
1E5
330
1
100
AcDbSymbolTableRecord
100
AcDbBlockTableRecord
  2
*D6
340
0
  0
BLOCK_RECORD
  5
1EF
330
1
100
AcDbSymbolTableRecord
100
AcDbBlockTableRecord
  2
*D7
340
0
  0
BLOCK_RECORD
  5
1F9
330
1
100
AcDbSymbolTableRecord
100
AcDbBlockTableRecord
  2
*D8
340
0
  0
ENDTAB
  0
ENDSEC
  0
SECTION
  2
BLOCKS
  0
BLOCK
  5
20
330
1F
100
AcDbEntity
  8
0
100
AcDbBlockBegin
  2
*Model_Space
 70
     0
 10
0.0
 20
0.0
 30
0.0
  3
*Model_Space
  1

  0
ENDBLK
  5
21
330
1F
100
AcDbEntity
  8
0
100
AcDbBlockEnd
  0
BLOCK
  5
1C
330
1B
100
AcDbEntity
 67
     1
  8
0
100
AcDbBlockBegin
  2
*Paper_Space
 70
     0
 10
0.0
 20
0.0
 30
0.0
  3
*Paper_Space
  1

  0
ENDBLK
  5
1D
330
1B
100
AcDbEntity
 67
     1
  8
0
100
AcDbBlockEnd
  0
BLOCK
  5
24
330
23
100
AcDbEntity
  8
0
100
AcDbBlockBegin
  2
*Paper_Space0
 70
     0
 10
0.0
 20
0.0
 30
0.0
  3
*Paper_Space0
  1

  0
ENDBLK
  5
25
330
23
100
AcDbEntity
  8
0
100
AcDbBlockEnd
  0
BLOCK
  5
1AD
330
1AC
100
AcDbEntity
  8
0
100
AcDbBlockBegin
  2
*D1
 70
     1
 10
0.0
 20
0.0
 30
0.0
  3
*D1
  1

  0
SOLID
  5
1AF
330
1AC
100
AcDbEntity
  8
VERMASSUNG
100
AcDbTrace
 10
50.798808234
 20
156.7405200433
 30
0.0
 11
50.348808234
 21
153.7405200433
 31
0.0
 12
51.248808234
 22
153.7405200433
 32
0.0
 13
51.248808234
 23
153.7405200433
 33
0.0
  0
SOLID
  5
1B0
330
1AC
100
AcDbEntity
  8
VERMASSUNG
100
AcDbTrace
 10
50.798808234
 20
56.7405200433
 30
0.0
 11
51.248808234
 21
59.7405200433
 31
0.0
 12
50.348808234
 22
59.7405200433
 32
0.0
 13
50.348808234
 23
59.7405200433
 33
0.0
  0
LINE
  5
1B1
330
1AC
100
AcDbEntity
  8
VERMASSUNG
100
AcDbLine
 10
106.9316657683
 20
156.7405200433
 30
0.0
 11
49.798808234
 21
156.7405200433
 31
0.0
  0
LINE
  5
1B2
330
1AC
100
AcDbEntity
  8
VERMASSUNG
100
AcDbLine
 10
106.9316657683
 20
56.7405200433
 30
0.0
 11
49.798808234
 21
56.7405200433
 31
0.0
  0
LINE
  5
1B3
330
1AC
100
AcDbEntity
  8
VERMASSUNG
100
AcDbLine
 10
50.798808234
 20
156.7405200433
 30
0.0
 11
50.798808234
 21
56.7405200433
 31
0.0
  0
MTEXT
  5
1B4
330
1AC
100
AcDbEntity
  8
VERMASSUNG
100
AcDbMText
 10
48.020672745
 20
98.5368689057
 30
0.0
 40
2.0
 41
0.0
 71
     1
 72
     1
  1
HSK A 
  7
SLDTEXTSTYLE0
 11
-7.044195017643634E-15
 21
1.0
 31
0.0
 73
     1
 44
1.0
  0
MTEXT
  5
1B5
330
1AC
100
AcDbEntity
  8
VERMASSUNG
100
AcDbMText
 10
48.2206727545
 20
107.5368694496
 30
0.0
 40
2.0
 41
0.0
 71
     1
 72
     1
  1
%%c
  7
SLDTEXTSTYLE0
 11
-7.044195017643634E-15
 21
1.0
 31
0.0
 73
     1
 44
1.0
  0
MTEXT
  5
1B6
330
1AC
100
AcDbEntity
  8
VERMASSUNG
100
AcDbMText
 10
48.2206728709
 20
111.1451960997
 30
0.0
 40
2.0
 41
0.0
 71
     1
 72
     1
  1
100
  7
SLDTEXTSTYLE0
 11
-7.044195017643634E-15
 21
1.0
 31
0.0
 73
     1
 44
1.0
  0
ENDBLK
  5
1AE
330
1AC
100
AcDbEntity
  8
0
100
AcDbBlockEnd
  0
BLOCK
  5
1BA
330
1B9
100
AcDbEntity
  8
0
100
AcDbBlockBegin
  2
*D2
 70
     1
 10
0.0
 20
0.0
 30
0.0
  3
*D2
  1

  0
SOLID
  5
1BC
330
1B9
100
AcDbEntity
  8
VERMASSUNG
100
AcDbTrace
 10
186.9316657683
 20
154.7405200433
 30
0.0
 11
189.9316657683
 21
154.2905200433
 31
0.0
 12
189.9316657683
 22
155.1905200433
 32
0.0
 13
189.9316657683
 23
155.1905200433
 33
0.0
  0
SOLID
  5
1BD
330
1B9
100
AcDbEntity
  8
VERMASSUNG
100
AcDbTrace
 10
236.4316657683
 20
154.7405200433
 30
0.0
 11
233.4316657683
 21
155.1905200433
 31
0.0
 12
233.4316657683
 22
154.2905200433
 32
0.0
 13
233.4316657683
 23
154.2905200433
 33
0.0
  0
LINE
  5
1BE
330
1B9
100
AcDbEntity
  8
VERMASSUNG
100
AcDbLine
 10
186.9316657683
 20
115.6405200433
 30
0.0
 11
186.9316657683
 21
155.7405200433
 31
0.0
  0
LINE
  5
1BF
330
1B9
100
AcDbEntity
  8
VERMASSUNG
100
AcDbLine
 10
236.4316657683
 20
121.39173906
 30
0.0
 11
236.4316657683
 21
155.7405200433
 31
0.0
  0
LINE
  5
1C0
330
1B9
100
AcDbEntity
  8
VERMASSUNG
100
AcDbLine
 10
186.9316657683
 20
154.7405200433
 30
0.0
 11
236.4316657683
 21
154.7405200433
 31
0.0
  0
MTEXT
  5
1C1
330
1B9
100
AcDbEntity
  8
VERMASSUNG
100
AcDbMText
 10
209.1822789861
 20
157.3186554065
 30
0.0
 40
2.0
 41
0.0
 71
     1
 72
     1
  1
49.5
  7
SLDTEXTSTYLE0
 73
     1
 44
1.0
  0
ENDBLK
  5
1BB
330
1B9
100
AcDbEntity
  8
0
100
AcDbBlockEnd
  0
BLOCK
  5
1C5
330
1C4
100
AcDbEntity
  8
0
100
AcDbBlockBegin
  2
*D3
 70
     1
 10
0.0
 20
0.0
 30
0.0
  3
*D3
  1

  0
SOLID
  5
1C7
330
1C4
100
AcDbEntity
  8
VERMASSUNG
100
AcDbTrace
 10
243.1842903575
 20
97.7405200433
 30
0.0
 11
243.6342903575
 21
100.7405200433
 31
0.0
 12
242.7342903575
 22
100.7405200433
 32
0.0
 13
242.7342903575
 23
100.7405200433
 33
0.0
  0
SOLID
  5
1C8
330
1C4
100
AcDbEntity
  8
VERMASSUNG
100
AcDbTrace
 10
243.1842903575
 20
115.7405200433
 30
0.0
 11
242.7342903575
 21
112.7405200433
 31
0.0
 12
243.6342903575
 22
112.7405200433
 32
0.0
 13
243.6342903575
 23
112.7405200433
 33
0.0
  0
LINE
  5
1C9
330
1C4
100
AcDbEntity
  8
VERMASSUNG
100
AcDbLine
 10
232.9316657683
 20
97.7405200433
 30
0.0
 11
244.1842903575
 21
97.7405200433
 31
0.0
  0
LINE
  5
1CA
330
1C4
100
AcDbEntity
  8
VERMASSUNG
100
AcDbLine
 10
232.9316657683
 20
115.7405200433
 30
0.0
 11
244.1842903575
 21
115.7405200433
 31
0.0
  0
LINE
  5
1CB
330
1C4
100
AcDbEntity
  8
VERMASSUNG
100
AcDbLine
 10
243.1842903575
 20
97.7405200433
 30
0.0
 11
243.1842903575
 21
115.7405200433
 31
0.0
  0
MTEXT
  5
1CC
330
1C4
100
AcDbEntity
  8
VERMASSUNG
100
AcDbMText
 10
240.606154878
 20
103.7363824485
 30
0.0
 40
2.0
 41
0.0
 71
     1
 72
     1
  1
%%c
  7
SLDTEXTSTYLE0
 11
6.123233995736766E-17
 21
1.0
 31
0.0
 73
     1
 44
1.0
  0
MTEXT
  5
1CD
330
1C4
100
AcDbEntity
  8
VERMASSUNG
100
AcDbMText
 10
240.6061549944
 20
107.3450606717
 30
0.0
 40
2.0
 41
0.0
 71
     1
 72
     1
  1
18
  7
SLDTEXTSTYLE0
 11
6.123233995736766E-17
 21
1.0
 31
0.0
 73
     1
 44
1.0
  0
ENDBLK
  5
1C6
330
1C4
100
AcDbEntity
  8
0
100
AcDbBlockEnd
  0
BLOCK
  5
1D1
330
1D0
100
AcDbEntity
  8
0
100
AcDbBlockBegin
  2
*D4
 70
     1
 10
0.0
 20
0.0
 30
0.0
  3
*D4
  1

  0
SOLID
  5
1D3
330
1D0
100
AcDbEntity
  8
VERMASSUNG
100
AcDbTrace
 10
249.1842903575
 20
90.2405200433
 30
0.0
 11
249.6342903575
 21
93.2405200433
 31
0.0
 12
248.7342903575
 22
93.2405200433
 32
0.0
 13
248.7342903575
 23
93.2405200433
 33
0.0
  0
SOLID
  5
1D4
330
1D0
100
AcDbEntity
  8
VERMASSUNG
100
AcDbTrace
 10
249.1842903575
 20
123.2405200433
 30
0.0
 11
248.7342903575
 21
120.2405200433
 31
0.0
 12
249.6342903575
 22
120.2405200433
 32
0.0
 13
249.6342903575
 23
120.2405200433
 33
0.0
  0
LINE
  5
1D5
330
1D0
100
AcDbEntity
  8
VERMASSUNG
100
AcDbLine
 10
236.4316657683
 20
90.2405200433
 30
0.0
 11
250.1842903575
 21
90.2405200433
 31
0.0
  0
LINE
  5
1D6
330
1D0
100
AcDbEntity
  8
VERMASSUNG
100
AcDbLine
 10
236.4316657683
 20
123.2405200433
 30
0.0
 11
250.1842903575
 21
123.2405200433
 31
0.0
  0
LINE
  5
1D7
330
1D0
100
AcDbEntity
  8
VERMASSUNG
100
AcDbLine
 10
249.1842903575
 20
90.2405200433
 30
0.0
 11
249.1842903575
 21
123.2405200433
 31
0.0
  0
MTEXT
  5
1D8
330
1D0
100
AcDbEntity
  8
VERMASSUNG
100
AcDbMText
 10
246.606154878
 20
103.5368028169
 30
0.0
 40
2.0
 41
0.0
 71
     1
 72
     1
  1
%%c
  7
SLDTEXTSTYLE0
 11
6.123233995736766E-17
 21
1.0
 31
0.0
 73
     1
 44
1.0
  0
MTEXT
  5
1D9
330
1D0
100
AcDbEntity
  8
VERMASSUNG
100
AcDbMText
 10
246.6061549944
 20
107.1454810401
 30
0.0
 40
2.0
 41
0.0
 71
     1
 72
     1
  1
33
  7
SLDTEXTSTYLE0
 11
6.123233995736766E-17
 21
1.0
 31
0.0
 73
     1
 44
1.0
  0
ENDBLK
  5
1D2
330
1D0
100
AcDbEntity
  8
0
100
AcDbBlockEnd
  0
BLOCK
  5
1DC
330
1DB
100
AcDbEntity
  8
0
100
AcDbBlockBegin
  2
*D5
 70
     1
 10
0.0
 20
0.0
 30
0.0
  3
*D5
  1

  0
SOLID
  5
1DE
330
1DB
100
AcDbEntity
  8
VERMASSUNG
100
AcDbTrace
 10
106.4316657683
 20
166.7405200433
 30
0.0
 11
109.4316657683
 21
166.2905200433
 31
0.0
 12
109.4316657683
 22
167.1905200433
 32
0.0
 13
109.4316657683
 23
167.1905200433
 33
0.0
  0
SOLID
  5
1DF
330
1DB
100
AcDbEntity
  8
VERMASSUNG
100
AcDbTrace
 10
236.4316657683
 20
166.7405200433
 30
0.0
 11
233.4316657683
 21
167.1905200433
 31
0.0
 12
233.4316657683
 22
166.2905200433
 32
0.0
 13
233.4316657683
 23
166.2905200433
 33
0.0
  0
LINE
  5
1E0
330
1DB
100
AcDbEntity
  8
VERMASSUNG
100
AcDbLine
 10
106.4316657683
 20
156.2405200433
 30
0.0
 11
106.4316657683
 21
167.7405200433
 31
0.0
  0
LINE
  5
1E1
330
1DB
100
AcDbEntity
  8
VERMASSUNG
100
AcDbLine
 10
236.4316657683
 20
121.39173906
 30
0.0
 11
236.4316657683
 21
167.7405200433
 31
0.0
  0
LINE
  5
1E2
330
1DB
100
AcDbEntity
  8
VERMASSUNG
100
AcDbLine
 10
106.4316657683
 20
166.7405200433
 30
0.0
 11
236.4316657683
 21
166.7405200433
 31
0.0
  0
MTEXT
  5
1E3
330
1DB
100
AcDbEntity
  8
VERMASSUNG
100
AcDbMText
 10
169.5321782277
 20
169.3186554065
 30
0.0
 40
2.0
 41
0.0
 71
     1
 72
     1
  1
130
  7
SLDTEXTSTYLE0
 73
     1
 44
1.0
  0
ENDBLK
  5
1DD
330
1DB
100
AcDbEntity
  8
0
100
AcDbBlockEnd
  0
BLOCK
  5
1E6
330
1E5
100
AcDbEntity
  8
0
100
AcDbBlockBegin
  2
*D6
 70
     1
 10
0.0
 20
0.0
 30
0.0
  3
*D6
  1

  0
SOLID
  5
1E8
330
1E5
100
AcDbEntity
  8
VERMASSUNG
100
AcDbTrace
 10
135.3816657683
 20
160.7405200433
 30
0.0
 11
138.3816657683
 21
160.2905200433
 31
0.0
 12
138.3816657683
 22
161.1905200433
 32
0.0
 13
138.3816657683
 23
161.1905200433
 33
0.0
  0
SOLID
  5
1E9
330
1E5
100
AcDbEntity
  8
VERMASSUNG
100
AcDbTrace
 10
236.4316657683
 20
160.7405200433
 30
0.0
 11
233.4316657683
 21
161.1905200433
 31
0.0
 12
233.4316657683
 22
160.2905200433
 32
0.0
 13
233.4316657683
 23
160.2905200433
 33
0.0
  0
LINE
  5
1EA
330
1E5
100
AcDbEntity
  8
VERMASSUNG
100
AcDbLine
 10
135.3816657683
 20
154.7092598642
 30
0.0
 11
135.3816657683
 21
161.7405200433
 31
0.0
  0
LINE
  5
1EB
330
1E5
100
AcDbEntity
  8
VERMASSUNG
100
AcDbLine
 10
236.4316657683
 20
121.39173906
 30
0.0
 11
236.4316657683
 21
161.7405200433
 31
0.0
  0
LINE
  5
1EC
330
1E5
100
AcDbEntity
  8
VERMASSUNG
100
AcDbLine
 10
135.3816657683
 20
160.7405200433
 30
0.0
 11
236.4316657683
 21
160.7405200433
 31
0.0
  0
MTEXT
  5
1ED
330
1E5
100
AcDbEntity
  8
VERMASSUNG
100
AcDbMText
 10
182.5068499503
 20
163.3186554065
 30
0.0
 40
2.0
 41
0.0
 71
     1
 72
     1
  1
101.05
  7
SLDTEXTSTYLE0
 73
     1
 44
1.0
  0
ENDBLK
  5
1E7
330
1E5
100
AcDbEntity
  8
0
100
AcDbBlockEnd
  0
BLOCK
  5
1F0
330
1EF
100
AcDbEntity
  8
0
100
AcDbBlockBegin
  2
*D7
 70
     1
 10
0.0
 20
0.0
 30
0.0
  3
*D7
  1

  0
SOLID
  5
1F2
330
1EF
100
AcDbEntity
  8
VERMASSUNG
100
AcDbTrace
 10
56.5316657683
 20
172.7405200433
 30
0.0
 11
59.5316657683
 21
172.2905200433
 31
0.0
 12
59.5316657683
 22
173.1905200433
 32
0.0
 13
59.5316657683
 23
173.1905200433
 33
0.0
  0
SOLID
  5
1F3
330
1EF
100
AcDbEntity
  8
VERMASSUNG
100
AcDbTrace
 10
236.4316657683
 20
172.7405200433
 30
0.0
 11
233.4316657683
 21
173.1905200433
 31
0.0
 12
233.4316657683
 22
172.2905200433
 32
0.0
 13
233.4316657683
 23
172.2905200433
 33
0.0
  0
LINE
  5
1F4
330
1EF
100
AcDbEntity
  8
VERMASSUNG
100
AcDbLine
 10
56.5316657683
 20
137.2431897859
 30
0.0
 11
56.5316657683
 21
173.7405200433
 31
0.0
  0
LINE
  5
1F5
330
1EF
100
AcDbEntity
  8
VERMASSUNG
100
AcDbLine
 10
236.4316657683
 20
121.39173906
 30
0.0
 11
236.4316657683
 21
173.7405200433
 31
0.0
  0
LINE
  5
1F6
330
1EF
100
AcDbEntity
  8
VERMASSUNG
100
AcDbLine
 10
56.5316657683
 20
172.7405200433
 30
0.0
 11
236.4316657683
 21
172.7405200433
 31
0.0
  0
MTEXT
  5
1F7
330
1EF
100
AcDbEntity
  8
VERMASSUNG
100
AcDbMText
 10
143.5819593761
 20
175.3186554065
 30
0.0
 40
2.0
 41
0.0
 71
     1
 72
     1
  1
179.9
  7
SLDTEXTSTYLE0
 73
     1
 44
1.0
  0
ENDBLK
  5
1F1
330
1EF
100
AcDbEntity
  8
0
100
AcDbBlockEnd
  0
BLOCK
  5
1FA
330
1F9
100
AcDbEntity
  8
0
100
AcDbBlockBegin
  2
*D8
 70
     1
 10
0.0
 20
0.0
 30
0.0
  3
*D8
  1

  0
SOLID
  5
1FC
330
1F9
100
AcDbEntity
  8
VERMASSUNG
100
AcDbTrace
 10
255.1842903575
 20
128.7405200433
 30
0.0
 11
254.7342903575
 21
125.7405200433
 31
0.0
 12
255.6342903575
 22
125.7405200433
 32
0.0
 13
255.6342903575
 23
125.7405200433
 33
0.0
  0
SOLID
  5
1FD
330
1F9
100
AcDbEntity
  8
VERMASSUNG
100
AcDbTrace
 10
255.1842903575
 20
84.7405200433
 30
0.0
 11
255.6342903575
 21
87.7405200433
 31
0.0
 12
254.7342903575
 22
87.7405200433
 32
0.0
 13
254.7342903575
 23
87.7405200433
 33
0.0
  0
LINE
  5
1FE
330
1F9
100
AcDbEntity
  8
VERMASSUNG
100
AcDbLine
 10
157.3816657683
 20
128.7405200433
 30
0.0
 11
256.1842903575
 21
128.7405200433
 31
0.0
  0
LINE
  5
1FF
330
1F9
100
AcDbEntity
  8
VERMASSUNG
100
AcDbLine
 10
157.3816657683
 20
84.7405200433
 30
0.0
 11
256.1842903575
 21
84.7405200433
 31
0.0
  0
LINE
  5
200
330
1F9
100
AcDbEntity
  8
VERMASSUNG
100
AcDbLine
 10
255.1842903575
 20
128.7405200433
 30
0.0
 11
255.1842903575
 21
84.7405200433
 31
0.0
  0
MTEXT
  5
201
330
1F9
100
AcDbEntity
  8
VERMASSUNG
100
AcDbMText
 10
252.606154878
 20
103.3372231853
 30
0.0
 40
2.0
 41
0.0
 71
     1
 72
     1
  1
%%c
  7
SLDTEXTSTYLE0
 11
-7.044195017643634E-15
 21
1.0
 31
0.0
 73
     1
 44
1.0
  0
MTEXT
  5
202
330
1F9
100
AcDbEntity
  8
VERMASSUNG
100
AcDbMText
 10
252.6061549944
 20
106.9459014085
 30
0.0
 40
2.0
 41
0.0
 71
     1
 72
     1
  1
44
  7
SLDTEXTSTYLE0
 11
-7.044195017643634E-15
 21
1.0
 31
0.0
 73
     1
 44
1.0
  0
ENDBLK
  5
1FB
330
1F9
100
AcDbEntity
  8
0
100
AcDbBlockEnd
  0
ENDSEC
  0
SECTION
  2
ENTITIES
  0
MTEXT
  5
45
330
1F
100
AcDbEntity
  8
KOPF_DÜNN
100
AcDbMText
 10
13.8892156294
 20
23.8442973028
 30
0.0
 40
3.0
 41
0.0
 71
     1
 72
     1
  1
HA0.S18.K21.130
  7
SLDTEXTSTYLE0
 73
     1
 44
1.0
  0
MTEXT
  5
46
330
1F
100
AcDbEntity
  8
VERMASSUNG
100
AcDbMText
 10
13.9329988022
 20
28.8834360957
 30
0.0
 40
3.0
 41
0.0
 71
     1
 72
     1
  1
Schrumpffutter_Heat shrink chuck
  7
SLDTEXTSTYLE0
 73
     1
 44
1.0
  0
MTEXT
  5
47
330
1F
100
AcDbEntity
  8
VERMASSUNG
100
AcDbMText
 10
98.8601118557
 20
13.8365368179
 30
0.0
 40
2.0
 41
0.0
 71
     1
 72
     1
  1
Datum: 02.05.2011
  7
SLDTEXTSTYLE0
 73
     1
 44
1.0
  0
MTEXT
  5
49
330
1F
100
AcDbEntity
  8
VERMASSUNG
100
AcDbMText
 10
13.933048693
 20
18.0482802738
 30
0.0
 40
2.0
 41
0.0
 71
     1
 72
     1
  1
DIN 69 893 HSK A 100
  7
SLDTEXTSTYLE1
 73
     1
 44
1.0
  0
MTEXT
  5
4A
330
1F
100
AcDbEntity
  8
VERMASSUNG
100
AcDbMText
 10
13.9808475933
 20
13.9090973692
 30
0.0
 40
2.0
 41
0.0
 71
     1
 72
     1
  1
Gewicht: 2847g
  7
SLDTEXTSTYLE0
 73
     1
 44
1.0
  0
LINE
  5
4B
330
1F
100
AcDbEntity
  8
0
  6
Continuous
 62
     7
370
    15
100
AcDbLine
 10
106.9316657683
 20
56.7405200433
 30
0.0
 11
111.3816657683
 21
56.7405200433
 31
0.0
  0
LINE
  5
4C
330
1F
100
AcDbEntity
  8
0
  6
Continuous
 62
     7
370
    15
100
AcDbLine
 10
111.3970437398
 20
156.7405200433
 30
0.0
 11
106.9316657683
 21
156.7405200433
 31
0.0
  0
ARC
  5
4D
330
1F
100
AcDbEntity
  8
0
  6
Continuous
 62
     7
370
    15
100
AcDbCircle
 10
106.9316657683
 20
57.2405200433
 30
0.0
 40
0.5
100
AcDbArc
 50
180.0
 51
270.0
  0
ARC
  5
4E
330
1F
100
AcDbEntity
  8
0
  6
Continuous
 62
     7
370
    15
100
AcDbCircle
 10
106.9316657683
 20
156.2405200433
 30
0.0
 40
0.5
100
AcDbArc
 50
90.0
 51
180.0
  0
ARC
  5
4F
330
1F
100
AcDbEntity
  8
0
  6
Continuous
 62
     7
370
    15
100
AcDbCircle
 10
105.5347288499
 20
68.1120347189
 30
0.0
 40
0.9962338214386932
100
AcDbArc
 50
25.7988228126
 51
90.0
  0
ARC
  5
50
330
1F
100
AcDbEntity
  8
0
  6
Continuous
 62
     7
370
    15
100
AcDbCircle
 10
105.5347288499
 20
145.3690053678
 30
0.0
 40
0.9962338214386932
100
AcDbArc
 50
270.0
 51
334.2011771874
  0
LINE
  5
51
330
1F
100
AcDbEntity
  8
0
  6
Continuous
 62
     7
370
    15
100
AcDbLine
 10
103.9316657683
 20
68.8582685403
 30
0.0
 11
104.7375119227
 21
69.0741943666
 31
0.0
  0
LINE
  5
52
330
1F
100
AcDbEntity
  8
0
  6
Continuous
 62
     7
370
    15
100
AcDbLine
 10
104.7375119227
 20
144.4068457201
 30
0.0
 11
103.9316657683
 21
144.6227715463
 31
0.0
  0
LINE
  5
53
330
1F
100
AcDbEntity
  8
0
  6
Continuous
 62
     7
370
    15
100
AcDbLine
 10
84.9509868497
 20
143.6718357288
 30
0.0
 11
66.6316657683
 21
142.7540340714
 31
0.0
  0
LINE
  5
54
330
1F
100
AcDbEntity
  8
0
  6
Continuous
 62
     7
370
    15
100
AcDbLine
 10
103.9316657683
 20
144.6227715463
 30
0.0
 11
97.8636266139
 21
144.3187615687
 31
0.0
  0
LINE
  5
55
330
1F
100
AcDbEntity
  8
0
  6
Continuous
 62
     7
370
    15
100
AcDbLine
 10
97.8637498903
 20
69.1622723418
 30
0.0
 11
103.9316657683
 21
68.8582685403
 31
0.0
  0
LINE
  5
56
330
1F
100
AcDbEntity
  8
0
  6
Continuous
 62
     7
370
    15
100
AcDbLine
 10
71.6316657683
 20
70.4765050133
 30
0.0
 11
84.9516169222
 21
69.8091727911
 31
0.0
  0
ARC
  5
57
330
1F
100
AcDbEntity
  8
0
  6
Continuous
 62
     7
370
    15
100
AcDbCircle
 10
104.9963309678
 20
68.1082685403
 30
0.0
 40
1.000000000000009
100
AcDbArc
 50
90.0
 51
105.0
  0
ARC
  5
58
330
1F
100
AcDbEntity
  8
0
  6
Continuous
 62
     7
370
    15
100
AcDbCircle
 10
104.9963309678
 20
145.3727715463
 30
0.0
 40
1.0
100
AcDbArc
 50
255.0
 51
270.0
  0
LINE
  5
59
330
1F
100
AcDbEntity
  8
0
  6
Continuous
 62
     7
370
    15
100
AcDbLine
 10
104.9963309678
 20
69.1082685403
 30
0.0
 11
105.5347288499
 21
69.1082685403
 31
0.0
  0
LINE
  5
5A
330
1F
100
AcDbEntity
  8
0
  6
Continuous
 62
     7
370
    15
100
AcDbLine
 10
105.5347288499
 20
144.3727715463
 30
0.0
 11
104.9963309678
 21
144.3727715463
 31
0.0
  0
ARC
  5
5B
330
1F
100
AcDbEntity
  8
0
  6
Continuous
 62
     7
370
    15
100
AcDbCircle
 10
140.3816657683
 20
79.7405200433
 30
0.0
 40
5.0
100
AcDbArc
 50
90.0
 51
180.0
  0
ARC
  5
5C
330
1F
100
AcDbEntity
  8
0
  6
Continuous
 62
     7
370
    15
100
AcDbCircle
 10
140.3816657683
 20
133.7405200433
 30
0.0
 40
5.0
100
AcDbArc
 50
180.0
 51
270.0
  0
LINE
  5
5D
330
1F
100
AcDbEntity
  8
0
  6
Continuous
 62
     7
370
    15
100
AcDbLine
 10
151.8804820393
 20
84.7405200433
 30
0.0
 11
157.3816657683
 21
84.7405200433
 31
0.0
  0
LINE
  5
5E
330
1F
100
AcDbEntity
  8
0
  6
Continuous
 62
     7
370
    15
100
AcDbLine
 10
140.3816657683
 20
84.7405200433
 30
0.0
 11
144.8922855571
 21
84.7405200433
 31
0.0
  0
LINE
  5
5F
330
1F
100
AcDbEntity
  8
0
  6
Continuous
 62
     7
370
    15
100
AcDbLine
 10
144.8821305596
 20
128.7405200433
 30
0.0
 11
140.3816657683
 21
128.7405200433
 31
0.0
  0
LINE
  5
60
330
1F
100
AcDbEntity
  8
0
  6
Continuous
 62
     7
370
    15
100
AcDbLine
 10
157.3816657683
 20
128.7405200433
 30
0.0
 11
151.8716196194
 21
128.7405200433
 31
0.0
  0
ARC
  5
61
330
1F
100
AcDbEntity
  8
0
  6
Continuous
 62
     7
370
    15
100
AcDbCircle
 10
185.2698353031
 20
-173.7594799567
 30
0.0
 40
260.0
100
AcDbArc
 50
90.0
 51
96.1575167571
  0
ARC
  5
62
330
1F
100
AcDbEntity
  8
0
  6
Continuous
 62
     7
370
    15
100
AcDbCircle
 10
185.2698353031
 20
387.2405200433
 30
0.0
 40
260.0000000000001
100
AcDbArc
 50
263.8424832429
 51
270.0
  0
LINE
  5
63
330
1F
100
AcDbEntity
  8
0
  6
Continuous
 62
     7
370
    15
100
AcDbLine
 10
185.2698353031
 20
86.2405200433
 30
0.0
 11
185.6068468236
 21
86.2405200433
 31
0.0
  0
LINE
  5
64
330
1F
100
AcDbEntity
  8
0
  6
Continuous
 62
     7
370
    15
100
AcDbLine
 10
185.6068468236
 20
127.2405200433
 30
0.0
 11
185.2698353031
 21
127.2405200433
 31
0.0
  0
LINE
  5
65
330
1F
100
AcDbEntity
  8
0
  6
Continuous
 62
     7
370
    15
100
AcDbLine
 10
185.6068468236
 20
86.2405200433
 30
0.0
 11
234.5885839598
 21
90.0954663592
 31
0.0
  0
LINE
  5
66
330
1F
100
AcDbEntity
  8
0
  6
Continuous
 62
     7
370
    15
100
AcDbLine
 10
234.5885839598
 20
123.3855737275
 30
0.0
 11
185.6068468236
 21
127.2405200433
 31
0.0
  0
LINE
  5
67
330
1F
100
AcDbEntity
  8
0
  6
Continuous
 62
     7
370
    15
100
AcDbLine
 10
58.1816657683
 20
74.4905200433
 30
0.0
 11
69.7316657683
 21
74.4905200433
 31
0.0
  0
ARC
  5
68
330
1F
100
AcDbEntity
  8
0
  6
Continuous
 62
     7
370
    15
100
AcDbCircle
 10
234.4316657683
 20
92.0893010267
 30
0.0
 40
1.99999999999999
100
AcDbArc
 50
274.5
 51
0.0
  0
ARC
  5
69
330
1F
100
AcDbEntity
  8
0
  6
Continuous
 62
     7
370
    15
100
AcDbCircle
 10
234.4316657683
 20
121.39173906
 30
0.0
 40
1.99999999999999
100
AcDbArc
 50
0.0
 51
85.5
  0
ARC
  5
6A
330
1F
100
AcDbEntity
  8
0
  6
Continuous
 62
     7
370
    15
100
AcDbCircle
 10
69.7316657683
 20
72.5905200433
 30
0.0
 40
1.899999999999991
100
AcDbArc
 50
35.6630613694
 51
90.0
  0
ARC
  5
6B
330
1F
100
AcDbEntity
  8
0
  6
Continuous
 62
     7
370
    15
100
AcDbCircle
 10
64.7316657683
 20
140.8905200433
 30
0.0
 40
1.899999999999996
100
AcDbArc
 50
270.0
 51
310.9212832533
  0
LINE
  5
6C
330
1F
100
AcDbEntity
  8
0
  6
Continuous
 62
     7
370
    15
100
AcDbLine
 10
58.1816657683
 20
138.9905200433
 30
0.0
 11
56.5884494064
 21
137.3973036814
 31
0.0
  0
LINE
  5
6D
330
1F
100
AcDbEntity
  8
0
  6
Continuous
 62
     7
370
    15
100
AcDbLine
 10
56.5891886688
 20
76.0829971429
 30
0.0
 11
58.1816657683
 21
74.4905200433
 31
0.0
  0
LINE
  5
6E
330
1F
100
AcDbEntity
  8
0
  6
Continuous
 62
     7
370
    15
100
AcDbLine
 10
64.7316657683
 20
138.9905200433
 30
0.0
 11
58.1816657683
 21
138.9905200433
 31
0.0
  0
LINE
  5
6F
330
1F
100
AcDbEntity
  8
0
  6
Continuous
 62
     7
370
    15
100
AcDbLine
 10
236.4500982518
 20
120.4602367448
 30
0.0
 11
236.4316657683
 21
120.4952711334
 31
0.0
  0
LINE
  5
70
330
1F
100
AcDbEntity
  8
0
  6
Continuous
 62
     7
370
    15
100
AcDbLine
 10
236.4316657683
 20
92.876151783
 30
0.0
 11
236.5089879755
 21
93.0231171254
 31
0.0
  0
SPLINE
  5
71
330
1F
100
AcDbEntity
  8
0
  6
Continuous
 62
     7
370
    15
100
AcDbSpline
210
0.0
220
0.0
230
1.0
 70
     8
 71
     3
 72
    80
 73
    76
 74
     0
 42
0.00000001
 43
0.00000001
 40
-0.0312500000000001
 40
-0.0312500000000001
 40
0.0
 40
0.0
 40
0.0312499999999995
 40
0.0312499999999995
 40
0.0468749999999993
 40
0.0468749999999993
 40
0.0624999999999991
 40
0.0624999999999991
 40
0.0937499999999988
 40
0.0937499999999988
 40
0.1249999999999986
 40
0.1249999999999986
 40
0.1562499999999983
 40
0.1562499999999983
 40
0.1874999999999981
 40
0.1874999999999981
 40
0.2187499999999978
 40
0.2187499999999978
 40
0.2499999999999976
 40
0.2499999999999976
 40
0.2812499999999973
 40
0.2812499999999973
 40
0.3124999999999971
 40
0.3124999999999971
 40
0.3281249999999971
 40
0.3281249999999971
 40
0.3437499999999971
 40
0.3437499999999971
 40
0.3749999999999973
 40
0.3749999999999973
 40
0.4062499999999975
 40
0.4062499999999975
 40
0.4218749999999975
 40
0.4218749999999975
 40
0.4374999999999974
 40
0.4374999999999974
 40
0.4687499999999973
 40
0.4687499999999973
 40
0.4999999999999972
 40
0.4999999999999972
 40
0.531249999999997
 40
0.531249999999997
 40
0.562499999999997
 40
0.562499999999997
 40
0.5937499999999969
 40
0.5937499999999969
 40
0.6249999999999969
 40
0.6249999999999969
 40
0.6562499999999968
 40
0.6562499999999968
 40
0.6874999999999968
 40
0.6874999999999968
 40
0.7031249999999968
 40
0.7031249999999968
 40
0.7187499999999969
 40
0.7187499999999969
 40
0.7499999999999973
 40
0.7499999999999973
 40
0.7812499999999979
 40
0.7812499999999979
 40
0.7968749999999982
 40
0.7968749999999982
 40
0.8124999999999984
 40
0.8124999999999984
 40
0.8437499999999988
 40
0.8437499999999988
 40
0.874999999999999
 40
0.874999999999999
 40
0.9062499999999993
 40
0.9062499999999993
 40
0.9374999999999996
 40
0.9374999999999996
 40
0.9687499999999999
 40
0.9687499999999999
 40
1.0
 40
1.0
 40
1.03125
 40
1.03125
 10
115.1011204555393
 20
150.1551495069683
 30
0.0
 10
115.7622110810919
 20
150.1551495069683
 30
0.0
 10
116.0871912103435
 20
150.1713577383505
 30
0.0
 10
116.56666462159
 20
150.2187223703701
 30
0.0
 10
116.7251464394308
 20
150.2383765822607
 30
0.0
 10
117.039365971935
 20
150.2854877384534
 30
0.0
 10
117.1954862556154
 20
150.313069057948
 30
0.0
 10
117.649540284572
 20
150.4056048447418
 30
0.0
 10
117.9366436675118
 20
150.4806752783383
 30
0.0
 10
118.4799982235389
 20
150.6559135869489
 30
0.0
 10
118.7371018347445
 20
150.7569148847872
 30
0.0
 10
119.1980080896832
 20
150.9742710832481
 30
0.0
 10
119.4049057988982
 20
151.0914354150203
 30
0.0
 10
119.7704311128904
 20
151.341505339249
 30
0.0
 10
119.9256366350164
 20
151.4724514280079
 30
0.0
 10
120.1750670216161
 20
151.7381863717203
 30
0.0
 10
120.2711569774012
 20
151.8749399650312
 30
0.0
 10
120.3996758265948
 20
152.1490055398702
 30
0.0
 10
120.4314866967726
 20
152.283945630339
 30
0.0
 10
120.4318433465459
 20
152.5494172674078
 30
0.0
 10
120.3993460943488
 20
152.6812417445491
 30
0.0
 10
120.2717206206343
 20
152.9306913441694
 30
0.0
 10
120.1772922195824
 20
153.0491240360975
 30
0.0
 10
119.9894313995969
 20
153.2179932331915
 30
0.0
 10
119.9186034007937
 20
153.2730792283117
 30
0.0
 10
119.7638815088284
 20
153.3783320568001
 30
0.0
 10
119.679905038645
 20
153.4286672855605
 30
0.0
 10
119.4085813690006
 20
153.5732431180986
 30
0.0
 10
119.2020321503982
 20
153.6611047045155
 30
0.0
 10
118.7354220102092
 20
153.8208257975151
 30
0.0
 10
118.4830564405838
 20
153.8900640939822
 30
0.0
 10
118.077155098905
 20
153.9798514832121
 30
0.0
 10
117.9372544814276
 20
154.0074174452983
 30
0.0
 10
117.6480305461806
 20
154.0579082462246
 30
0.0
 10
117.4981910898913
 20
154.0808716850753
 30
0.0
 10
117.0440745202806
 20
154.1415022014941
 30
0.0
 10
116.7324233015437
 20
154.1715762302899
 30
0.0
 10
116.0914268366313
 20
154.2121658175486
 30
0.0
 10
115.7598992086792
 20
154.2224780477646
 30
0.0
 10
115.1071081636077
 20
154.2225536149304
 30
0.0
 10
114.7825719585759
 20
154.2126520094627
 30
0.0
 10
114.1373025091594
 20
154.1721654789374
 30
0.0
 10
113.8215595029967
 20
154.1417041790528
 30
0.0
 10
113.219670208013
 20
154.0615535076162
 30
0.0
 10
112.9289209772016
 20
154.011271275809
 30
0.0
 10
112.382009185517
 20
153.890601093036
 30
0.0
 10
112.1302318216801
 20
153.821377233866
 30
0.0
 10
111.668843829059
 20
153.6639255062254
 30
0.0
 10
111.4575745494609
 20
153.5745770315516
 30
0.0
 10
111.0942701970847
 20
153.3813291608508
 30
0.0
 10
110.9404635486419
 20
153.2772011689715
 30
0.0
 10
110.7518440790445
 20
153.108576782788
 30
0.0
 10
110.6958135928354
 20
153.0499483811131
 30
0.0
 10
110.6002398310992
 20
152.9304934662869
 30
0.0
 10
110.5604769140743
 20
152.8695736774486
 30
0.0
 10
110.4647051637621
 20
152.6831689512748
 30
0.0
 10
110.431982324636
 20
152.5540561334797
 30
0.0
 10
110.4313537383069
 20
152.2853992105239
 30
0.0
 10
110.4635398830417
 20
152.1500284697671
 30
0.0
 10
110.5584505848973
 20
151.9464781615311
 30
0.0
 10
110.5979173682962
 20
151.8785062374677
 30
0.0
 10
110.6928473670171
 20
151.7424140143368
 30
0.0
 10
110.7486041947805
 20
151.6740639141273
 30
0.0
 10
110.9365443127504
 20
151.4733609010852
 30
0.0
 10
111.0899057824666
 20
151.3439726272725
 30
0.0
 10
111.4521700173469
 20
151.0953071952227
 30
0.0
 10
111.6630184908128
 20
150.9754975528545
 30
0.0
 10
112.1236884611317
 20
150.7579752652818
 30
0.0
 10
112.3750628407156
 20
150.6588901654459
 30
0.0
 10
112.9209707276137
 20
150.4822176915291
 30
0.0
 10
113.2117933022649
 20
150.4061606033951
 30
0.0
 10
113.813119917045
 20
150.2833156260421
 30
0.0
 10
114.1276385016573
 20
150.2356095009889
 30
0.0
 10
114.7742199577773
 20
150.1713609658693
 30
0.0
 10
115.1011204555393
 20
150.1551495069683
 30
0.0
 10
115.7622110810919
 20
150.1551495069683
 30
0.0
  0
LINE
  5
72
330
1F
100
AcDbEntity
  8
0
  6
Continuous
 62
     7
370
    15
100
AcDbLine
 10
111.3816657683
 20
138.0905200433
 30
0.0
 11
123.1696367474
 21
138.0905200433
 31
0.0
  0
LINE
  5
73
330
1F
100
AcDbEntity
  8
0
  6
Continuous
 62
     7
370
    15
100
AcDbLine
 10
123.1696367474
 20
57.9655264503
 30
0.0
 11
123.1696367474
 21
138.0905200433
 31
0.0
  0
LINE
  5
74
330
1F
100
AcDbEntity
  8
0
  6
Continuous
 62
     7
370
    15
100
AcDbLine
 10
123.1696367474
 20
57.9655264503
 30
0.0
 11
121.3816657683
 21
57.9655264503
 31
0.0
  0
SPLINE
  5
75
330
1F
100
AcDbEntity
  8
0
  6
Continuous
 62
     7
370
    15
100
AcDbSpline
210
0.0
220
0.0
230
1.0
 70
     8
 71
     3
 72
    30
 73
    26
 74
     0
 42
0.00000001
 43
0.00000001
 40
0.0
 40
0.0
 40
0.0
 40
0.0
 40
0.1250000000000002
 40
0.1250000000000002
 40
0.1875000000000003
 40
0.1875000000000003
 40
0.2500000000000004
 40
0.2500000000000004
 40
0.3750000000000001
 40
0.3750000000000001
 40
0.4374999999999998
 40
0.4374999999999998
 40
0.4999999999999996
 40
0.4999999999999996
 40
0.6249999999999996
 40
0.6249999999999996
 40
0.6874999999999997
 40
0.6874999999999997
 40
0.7499999999999997
 40
0.7499999999999997
 40
0.8124999999999998
 40
0.8124999999999998
 40
0.8749999999999999
 40
0.8749999999999999
 40
1.0
 40
1.0
 40
1.0
 40
1.0
 10
121.3816657683156
 20
57.96552645030823
 30
0.0
 10
120.7189210744705
 20
57.96552645030824
 30
0.0
 10
120.0676652153548
 20
57.95068637371943
 30
0.0
 10
119.1072146770966
 20
57.9083168094898
 30
0.0
 10
118.7898232338636
 20
57.89083870671063
 30
0.0
 10
118.1606597323087
 20
57.84951042015832
 30
0.0
 10
117.848511545867
 20
57.82558514670063
 30
0.0
 10
116.9412042440188
 20
57.74677863023372
 30
0.0
 10
116.3677792863775
 20
57.68447261025725
 30
0.0
 10
115.5539024168028
 20
57.58134329001789
 30
0.0
 10
115.289096220233
 20
57.54515937097138
 30
0.0
 10
114.7821888094187
 20
57.47136458677088
 30
0.0
 10
114.5407946580652
 20
57.43389072799923
 30
0.0
 10
113.8516531859328
 20
57.32117878465949
 30
0.0
 10
113.4385983710686
 20
57.24564268718571
 30
0.0
 10
112.8904435516935
 20
57.13724943016822
 30
0.0
 10
112.7209809443479
 20
57.10217719850496
 30
0.0
 10
112.4129636963326
 20
57.03594173790511
 30
0.0
 10
112.2735836757242
 20
57.00461504115039
 30
0.0
 10
112.0237981630975
 20
56.94620626956946
 30
0.0
 10
111.9133920504435
 20
56.91912303438661
 30
0.0
 10
111.7221341968058
 20
56.86986327977302
 30
0.0
 10
111.6410146785215
 20
56.84760129996538
 30
0.0
 10
111.4468677584131
 20
56.7900343927971
 30
0.0
 10
111.3816657683156
 20
56.76377478801111
 30
0.0
 10
111.3816657683156
 20
56.75052104353708
 30
0.0
  0
LINE
  5
76
330
1F
100
AcDbEntity
  8
0
  6
Continuous
 62
     7
370
    15
100
AcDbLine
 10
111.3816657683
 20
56.7505210435
 30
0.0
 11
111.3816657683
 21
56.7405200433
 31
0.0
  0
SPLINE
  5
77
330
1F
100
AcDbEntity
  8
0
  6
Continuous
 62
     7
370
    15
100
AcDbSpline
210
0.0
220
0.0
230
1.0
 70
     8
 71
     3
 72
    23
 73
    19
 74
     0
 42
0.00000001
 43
0.00000001
 40
0.0
 40
0.0
 40
0.0
 40
0.0
 40
0.0520256687590417
 40
0.1044186119084699
 40
0.1579654762732603
 40
0.2119084390155455
 40
0.2639329008030786
 40
0.3697142245600881
 40
0.4235868577364621
 40
0.4762679679182533
 40
0.5833878371337101
 40
0.6379530306539528
 40
0.6910551819358521
 40
0.7445319929992287
 40
0.7992014233075218
 40
0.8542881036302091
 40
0.9066815619543741
 40
1.0
 40
1.0
 40
1.0
 40
1.0
 10
121.3816657683156
 20
155.7303148990006
 30
0.0
 10
121.1086533711206
 20
155.7316364675074
 30
0.0
 10
120.5607012500064
 20
155.7342889341132
 30
0.0
 10
119.7375548925512
 20
155.7557638225408
 30
0.0
 10
118.916309791959
 20
155.7899815412088
 30
0.0
 10
118.1148809818508
 20
155.8370334513762
 30
0.0
 10
117.0824977277078
 20
155.914022402202
 30
0.0
 10
116.1052497130838
 20
156.0098996528625
 30
0.0
 10
115.2042027018278
 20
156.1168291006507
 30
0.0
 10
114.3552289227264
 20
156.2286759084911
 30
0.0
 10
113.5976604771182
 20
156.3429045072205
 30
0.0
 10
112.9526721866687
 20
156.4494842535843
 30
0.0
 10
112.5280983134709
 20
156.5234142099855
 30
0.0
 10
112.1655416638218
 20
156.5893047680423
 30
0.0
 10
111.8643401066981
 20
156.6460011192565
 30
0.0
 10
111.6370865346634
 20
156.6899373654911
 30
0.0
 10
111.4309792374409
 20
156.7305958123192
 30
0.0
 10
111.4102922994079
 20
156.7347792517086
 30
0.0
 10
111.3970437397961
 20
156.7374584566274
 30
0.0
  0
LINE
  5
78
330
1F
100
AcDbEntity
  8
0
  6
Continuous
 62
     7
370
    15
100
AcDbLine
 10
123.1696367474
 20
155.730314899
 30
0.0
 11
121.3816657683
 21
155.730314899
 31
0.0
  0
LINE
  5
79
330
1F
100
AcDbEntity
  8
0
  6
Continuous
 62
     7
370
    15
100
AcDbLine
 10
123.1696367474
 20
145.6914828042
 30
0.0
 11
123.1696367474
 21
155.730314899
 31
0.0
  0
LINE
  5
7A
330
1F
100
AcDbEntity
  8
0
  6
Continuous
 62
     7
370
    15
100
AcDbLine
 10
121.0896326165
 20
145.6914828042
 30
0.0
 11
123.1696367474
 21
145.6914828042
 31
0.0
  0
SPLINE
  5
7B
330
1F
100
AcDbEntity
  8
0
  6
Continuous
 62
     7
370
    15
100
AcDbSpline
210
0.0
220
0.0
230
1.0
 70
     8
 71
     3
 72
    22
 73
    18
 74
     0
 42
0.00000001
 43
0.00000001
 40
0.0
 40
0.0
 40
0.0
 40
0.0
 40
0.2500000000000002
 40
0.2500000000000002
 40
0.3750000000000003
 40
0.3750000000000003
 40
0.5000000000000004
 40
0.5000000000000004
 40
0.6250000000000004
 40
0.6250000000000004
 40
0.7500000000000004
 40
0.7500000000000004
 40
0.8750000000000004
 40
0.8750000000000004
 40
0.9375000000000002
 40
0.9375000000000002
 40
1.0
 40
1.0
 40
1.0
 40
1.0
 10
111.3816657683156
 20
138.0905200433371
 30
0.0
 10
111.5843907242347
 20
139.1097663852017
 30
0.0
 10
111.89913444603
 20
140.068874535141
 30
0.0
 10
112.607189915701
 20
141.4113536126502
 30
0.0
 10
112.8856525459187
 20
141.8455621953903
 30
0.0
 10
113.5244199525559
 20
142.6571899108924
 30
0.0
 10
113.8848336323461
 20
143.0364702038292
 30
0.0
 10
114.7023658643353
 20
143.7394287828502
 30
0.0
 10
115.1635338476225
 20
144.0644576005508
 30
0.0
 10
116.1615240941063
 20
144.6294729239417
 30
0.0
 10
116.7012832880986
 20
144.8731765181482
 30
0.0
 10
117.8758762521299
 20
145.2773764457932
 30
0.0
 10
118.4876124381217
 20
145.4298136388387
 30
0.0
 10
119.4395216629834
 20
145.5851411864474
 30
0.0
 10
119.7627548272441
 20
145.6246459664974
 30
0.0
 10
120.4218179985194
 20
145.6779550871661
 30
0.0
 10
120.7558820090933
 20
145.691482804224
 30
0.0
 10
121.0896326164949
 20
145.6914828042239
 30
0.0
  0
LINE
  5
7C
330
1F
100
AcDbEntity
  8
0
  6
Continuous
 62
     7
370
    15
100
AcDbLine
 10
135.3816657683
 20
58.9911744981
 30
0.0
 11
135.3816657683
 21
138.0905200433
 31
0.0
  0
SPLINE
  5
7D
330
1F
100
AcDbEntity
  8
0
  6
Continuous
 62
     7
370
    15
100
AcDbSpline
210
0.0
220
0.0
230
1.0
 70
     8
 71
     3
 72
    14
 73
    10
 74
     0
 42
0.00000001
 43
0.00000001
 40
0.0
 40
0.0
 40
0.0
 40
0.0
 40
0.25
 40
0.25
 40
0.5
 40
0.5
 40
0.75
 40
0.75
 40
1.0
 40
1.0
 40
1.0
 40
1.0
 10
135.3816657683156
 20
58.99117449808374
 30
0.0
 10
135.3816657683156
 20
58.8577488020292
 30
0.0
 10
135.3563546684047
 20
58.72590099418485
 30
0.0
 10
135.25801990456
 20
58.47937844549075
 30
0.0
 10
135.1848759003039
 20
58.3655732572502
 30
0.0
 10
135.0014378392082
 20
58.17511608030293
 30
0.0
 10
134.8897515048696
 20
58.09748121645301
 30
0.0
 10
134.6472480745633
 20
57.99318980634055
 30
0.0
 10
134.5138736458691
 20
57.96552645030819
 30
0.0
 10
134.3816657683156
 20
57.9655264503082
 30
0.0
  0
SPLINE
  5
7E
330
1F
100
AcDbEntity
  8
0
  6
Continuous
 62
     7
370
    15
100
AcDbSpline
210
0.0
220
0.0
230
1.0
 70
    24
 71
     3
 72
    12
 73
     8
 74
     0
 42
0.00000001
 43
0.00000001
 40
0.0
 40
0.0
 40
0.0
 40
0.0
 40
0.2500000000000032
 40
0.2500000000000032
 40
0.5000000000000064
 40
0.5000000000000064
 40
1.0
 40
1.0
 40
1.0
 40
1.0
 10
134.3816657683156
 20
138.0905200433371
 30
0.0
 10
134.5337560052606
 20
138.0905200433371
 30
0.0
 10
134.682215266336
 20
138.0905200433371
 30
0.0
 10
134.9396188986017
 20
138.0905200433371
 30
0.0
 10
135.0487236464436
 20
138.090520043337
 30
0.0
 10
135.3027831228512
 20
138.0905200433371
 30
0.0
 10
135.3816657683156
 20
138.0905200433371
 30
0.0
 10
135.3816657683156
 20
138.0905200433371
 30
0.0
  0
LINE
  5
7F
330
1F
100
AcDbEntity
  8
0
  6
Continuous
 62
     7
370
    15
100
AcDbLine
 10
134.3816657683
 20
57.9655264503
 30
0.0
 11
129.6936947892
 21
57.9655264503
 31
0.0
  0
LINE
  5
80
330
1F
100
AcDbEntity
  8
0
  6
Continuous
 62
     7
370
    15
100
AcDbLine
 10
129.6936947892
 20
57.9655264503
 30
0.0
 11
129.6936947892
 21
138.0905200433
 31
0.0
  0
LINE
  5
81
330
1F
100
AcDbEntity
  8
0
  6
Continuous
 62
     7
370
    15
100
AcDbLine
 10
129.6936947892
 20
138.0905200433
 30
0.0
 11
134.3816657683
 21
138.0905200433
 31
0.0
  0
SPLINE
  5
82
330
1F
100
AcDbEntity
  8
0
  6
Continuous
 62
     7
370
    15
100
AcDbSpline
210
0.0
220
0.0
230
1.0
 70
     8
 71
     3
 72
     8
 73
     4
 74
     0
 42
0.00000001
 43
0.00000001
 40
0.0
 40
0.0
 40
0.0
 40
0.0
 40
1.0
 40
1.0
 40
1.0
 40
1.0
 10
129.693694789237
 20
57.96552645030823
 30
0.0
 10
129.2425900598368
 20
58.76648638212815
 30
0.0
 10
128.7918922325934
 20
59.56767639368881
 30
0.0
 10
128.3416657683156
 20
60.36913175631357
 30
0.0
  0
LINE
  5
83
330
1F
100
AcDbEntity
  8
0
  6
Continuous
 62
     7
370
    15
100
AcDbLine
 10
128.3416657683
 20
60.3691317563
 30
0.0
 11
128.3416657683
 21
138.0905200433
 31
0.0
  0
SPLINE
  5
84
330
1F
100
AcDbEntity
  8
0
  6
Continuous
 62
     7
370
    15
100
AcDbSpline
210
0.0
220
0.0
230
1.0
 70
    24
 71
     3
 72
     8
 73
     4
 74
     0
 42
0.00000001
 43
0.00000001
 40
0.0
 40
0.0
 40
0.0
 40
0.0
 40
1.0
 40
1.0
 40
1.0
 40
1.0
 10
128.3416657683156
 20
138.0905200433371
 30
0.0
 10
128.7858786506695
 20
138.0905200433371
 30
0.0
 10
129.2368932169087
 20
138.0905200433371
 30
0.0
 10
129.693694789237
 20
138.0905200433371
 30
0.0
  0
LINE
  5
85
330
1F
100
AcDbEntity
  8
0
  6
Continuous
 62
     7
370
    15
100
AcDbLine
 10
106.4316657683
 20
57.2405200433
 30
0.0
 11
106.4316657683
 21
156.2405200389
 31
0.0
  0
LINE
  5
86
330
1F
100
AcDbEntity
  8
0
  6
Continuous
 62
     7
370
    15
100
AcDbLine
 10
124.5216657683
 20
60.3691317563
 30
0.0
 11
124.5216657683
 21
138.0905200433
 31
0.0
  0
SPLINE
  5
87
330
1F
100
AcDbEntity
  8
0
  6
Continuous
 62
     7
370
    15
100
AcDbSpline
210
0.0
220
0.0
230
1.0
 70
     8
 71
     3
 72
     8
 73
     4
 74
     0
 42
0.00000001
 43
0.00000001
 40
0.0
 40
0.0
 40
0.0
 40
0.0
 40
1.0
 40
1.0
 40
1.0
 40
1.0
 10
124.5216657683156
 20
60.36913175631357
 30
0.0
 10
124.0714393040378
 20
59.56767639368881
 30
0.0
 10
123.6207414767944
 20
58.76648638212815
 30
0.0
 10
123.1696367473942
 20
57.96552645030823
 30
0.0
  0
SPLINE
  5
88
330
1F
100
AcDbEntity
  8
0
  6
Continuous
 62
     7
370
    15
100
AcDbSpline
210
0.0
220
0.0
230
1.0
 70
    24
 71
     3
 72
     8
 73
     4
 74
     0
 42
0.00000001
 43
0.00000001
 40
0.0
 40
0.0
 40
0.0
 40
0.0
 40
1.0
 40
1.0
 40
1.0
 40
1.0
 10
123.1696367473942
 20
138.0905200433371
 30
0.0
 10
123.6264383197224
 20
138.0905200433371
 30
0.0
 10
124.0774528859616
 20
138.0905200433371
 30
0.0
 10
124.5216657683156
 20
138.0905200433371
 30
0.0
  0
SPLINE
  5
89
330
1F
100
AcDbEntity
  8
0
  6
Continuous
 62
     7
370
    15
100
AcDbSpline
210
0.0
220
0.0
230
1.0
 70
     8
 71
     3
 72
    12
 73
     8
 74
     0
 42
0.00000001
 43
0.00000001
 40
0.0
 40
0.0
 40
0.0
 40
0.0
 40
0.25
 40
0.25
 40
0.5
 40
0.5
 40
1.0
 40
1.0
 40
1.0
 40
1.0
 10
125.3216657683156
 20
62.1008445852874
 30
0.0
 10
125.2159051149666
 20
62.10084458528738
 30
0.0
 10
125.1079174867837
 20
62.07830507928698
 30
0.0
 10
124.9133228215181
 20
61.99373444729168
 30
0.0
 10
124.8244509086793
 20
61.9312527945329
 30
0.0
 10
124.6052586163534
 20
61.70186384306073
 30
0.0
 10
124.5216657683156
 20
61.48928050553834
 30
0.0
 10
124.5216657683156
 20
61.27734126094215
 30
0.0
  0
SPLINE
  5
8A
330
1F
100
AcDbEntity
  8
0
  6
Continuous
 62
     7
370
    15
100
AcDbSpline
210
0.0
220
0.0
230
1.0
 70
    24
 71
     3
 72
    14
 73
    10
 74
     0
 42
0.00000001
 43
0.00000001
 40
0.0
 40
0.0
 40
0.0
 40
0.0
 40
0.25
 40
0.25
 40
0.5
 40
0.5
 40
0.75
 40
0.75
 40
1.0
 40
1.0
 40
1.0
 40
1.0
 10
124.5216657683156
 20
138.0905200433371
 30
0.0
 10
124.5216657683156
 20
138.0905200433371
 30
0.0
 10
124.5373800887815
 20
138.0905200433371
 30
0.0
 10
124.6010640672499
 20
138.090520043337
 30
0.0
 10
124.6496672616604
 20
138.0905200433371
 30
0.0
 10
124.7823507840859
 20
138.0905200433371
 30
0.0
 10
124.8674528883966
 20
138.0905200433371
 30
0.0
 10
125.0738951233067
 20
138.0905200433371
 30
0.0
 10
125.1979760649297
 20
138.0905200433371
 30
0.0
 10
125.3216657683156
 20
138.0905200433371
 30
0.0
  0
SPLINE
  5
8B
330
1F
100
AcDbEntity
  8
0
  6
Continuous
 62
     7
370
    15
100
AcDbSpline
210
0.0
220
0.0
230
1.0
 70
     8
 71
     3
 72
    14
 73
    10
 74
     0
 42
0.00000001
 43
0.00000001
 40
0.0
 40
0.0
 40
0.0
 40
0.0
 40
0.25
 40
0.25
 40
0.5
 40
0.5
 40
0.75
 40
0.75
 40
1.0
 40
1.0
 40
1.0
 40
1.0
 10
128.3416657683156
 20
61.27734126094215
 30
0.0
 10
128.3416657683156
 20
61.38438534193654
 30
0.0
 10
128.3215480811574
 20
61.48962048217898
 30
0.0
 10
128.2430568918918
 20
61.68747096902666
 30
0.0
 10
128.1849002670906
 20
61.77852273259159
 30
0.0
 10
128.0383850114725
 20
61.93168882651637
 30
0.0
 10
127.9497424628315
 20
61.99398327272578
 30
0.0
 10
127.7540191400311
 20
62.07877705826176
 30
0.0
 10
127.6487879489602
 20
62.10084458528739
 30
0.0
 10
127.5416657683156
 20
62.1008445852874
 30
0.0
  0
SPLINE
  5
8C
330
1F
100
AcDbEntity
  8
0
  6
Continuous
 62
     7
370
    15
100
AcDbSpline
210
0.0
220
0.0
230
1.0
 70
    24
 71
     3
 72
    14
 73
    10
 74
     0
 42
0.00000001
 43
0.00000001
 40
0.0
 40
0.0
 40
0.0
 40
0.0
 40
0.25
 40
0.25
 40
0.5
 40
0.5
 40
0.75
 40
0.75
 40
1.0
 40
1.0
 40
1.0
 40
1.0
 10
127.5416657683156
 20
138.0905200433371
 30
0.0
 10
127.6654355330807
 20
138.0905200433371
 30
0.0
 10
127.7898026370876
 20
138.0905200433371
 30
0.0
 10
127.9961591058137
 20
138.090520043337
 30
0.0
 10
128.081487249232
 20
138.0905200433371
 30
0.0
 10
128.2136793079472
 20
138.0905200433371
 30
0.0
 10
128.2623245516978
 20
138.0905200433371
 30
0.0
 10
128.3258603434266
 20
138.0905200433371
 30
0.0
 10
128.3416657683156
 20
138.0905200433371
 30
0.0
 10
128.3416657683156
 20
138.0905200433371
 30
0.0
  0
LINE
  5
8D
330
1F
100
AcDbEntity
  8
0
  6
Continuous
 62
     7
370
    15
100
AcDbLine
 10
127.5416657683
 20
62.1008445853
 30
0.0
 11
125.3216657683
 21
62.1008445853
 31
0.0
  0
LINE
  5
8E
330
1F
100
AcDbEntity
  8
0
  6
Continuous
 62
     7
370
    15
100
AcDbLine
 10
125.3216657683
 20
138.0905200433
 30
0.0
 11
127.5416657683
 21
138.0905200433
 31
0.0
  0
LINE
  5
8F
330
1F
100
AcDbEntity
  8
0
  6
Continuous
 62
     7
370
    15
100
AcDbLine
 10
103.9316657683
 20
68.8582685403
 30
0.0
 11
103.9316657683
 21
144.6227715463
 31
0.0
  0
LINE
  5
90
330
1F
100
AcDbEntity
  8
0
  6
Continuous
 62
     7
370
    15
100
AcDbLine
 10
71.6316657683
 20
70.4765050133
 30
0.0
 11
71.6316657683
 21
72.871186778
 31
0.0
  0
SPLINE
  5
91
330
1F
100
AcDbEntity
  8
0
  6
Continuous
 62
     7
370
    15
100
AcDbSpline
210
0.0
220
0.0
230
1.0
 70
     8
 71
     3
 72
    14
 73
    10
 74
     0
 42
0.00000001
 43
0.00000001
 40
0.0
 40
0.0
 40
0.0
 40
0.0
 40
0.25
 40
0.25
 40
0.5
 40
0.5
 40
0.75
 40
0.75
 40
1.0
 40
1.0
 40
1.0
 40
1.0
 10
70.62724329697863
 20
74.5740386995935
 30
0.0
 10
70.71601187492395
 20
74.41550456828556
 30
0.0
 10
70.83772971360285
 20
74.263061891397
 30
0.0
 10
71.0727793234597
 20
73.96592726756808
 30
0.0
 10
71.18840950967659
 20
73.82124462395072
 30
0.0
 10
71.38881444310441
 20
73.53795542144731
 30
0.0
 10
71.47421473508872
 20
73.39940142841044
 30
0.0
 10
71.59592036880596
 20
73.12801739837693
 30
0.0
 10
71.6316657683186
 20
72.9958815297423
 30
0.0
 10
71.63166576831858
 20
72.87118677797154
 30
0.0
  0
SPLINE
  5
92
330
1F
100
AcDbEntity
  8
0
  6
Continuous
 62
     7
370
    15
100
AcDbSpline
210
0.0
220
0.0
230
1.0
 70
     8
 71
     3
 72
    14
 73
    10
 74
     0
 42
0.00000001
 43
0.00000001
 40
0.0
 40
0.0
 40
0.0
 40
0.0
 40
0.124999999999999
 40
0.124999999999999
 40
0.249999999999998
 40
0.249999999999998
 40
0.5000000000000007
 40
0.5000000000000007
 40
1.0
 40
1.0
 40
1.0
 40
1.0
 10
69.73166576831558
 20
75.20286863869362
 30
0.0
 10
69.79924806810007
 20
75.21002452379503
 30
0.0
 10
69.87173564584798
 20
75.20560005375599
 30
0.0
 10
70.00402675511391
 20
75.17589389598564
 30
0.0
 10
70.0613041345041
 20
75.15260961440742
 30
0.0
 10
70.21095456170437
 20
75.0751243745571
 30
0.0
 10
70.28466785722587
 20
75.01327254765573
 30
0.0
 10
70.47247584055211
 20
74.82859509500742
 30
0.0
 10
70.55651614691357
 20
74.70035217171619
 30
0.0
 10
70.62724329697984
 20
74.57403869959361
 30
0.0
  0
SPLINE
  5
93
330
1F
100
AcDbEntity
  8
0
  6
Continuous
 62
     7
370
    15
100
AcDbSpline
210
0.0
220
0.0
230
1.0
 70
     8
 71
     3
 72
     8
 73
     4
 74
     0
 42
0.00000001
 43
0.00000001
 40
0.0
 40
0.0
 40
0.0
 40
0.0
 40
1.0
 40
1.0
 40
1.0
 40
1.0
 10
66.1870253802348
 20
74.78482005390183
 30
0.0
 10
67.35232369094366
 20
74.94000752578845
 30
0.0
 10
68.53693890498349
 20
75.07636616409877
 30
0.0
 10
69.73166576831558
 20
75.20286863869363
 30
0.0
  0
SPLINE
  5
94
330
1F
100
AcDbEntity
  8
0
  6
Continuous
 62
     7
370
    15
100
AcDbSpline
210
0.0
220
0.0
230
1.0
 70
     8
 71
     3
 72
    14
 73
    10
 74
     0
 42
0.00000001
 43
0.00000001
 40
0.0
 40
0.0
 40
0.0
 40
0.0
 40
0.4999999999999972
 40
0.4999999999999972
 40
0.7499999999999971
 40
0.7499999999999971
 40
0.8749999999999986
 40
0.8749999999999986
 40
1.0
 40
1.0
 40
1.0
 40
1.0
 10
58.43159088428688
 20
74.49468787477191
 30
0.0
 10
59.73989244682063
 20
74.50170259851305
 30
0.0
 10
61.04495182147744
 20
74.51711117495752
 30
0.0
 10
62.99082787296577
 20
74.57100773042418
 30
0.0
 10
63.63752537670477
 20
74.59403929502689
 30
0.0
 10
64.60136774055911
 20
74.64498181989765
 30
0.0
 10
64.92160643249319
 20
74.66471674213085
 30
0.0
 10
65.5583016588356
 20
74.7142038706024
 30
0.0
 10
65.8750170671185
 20
74.74326864953164
 30
0.0
 10
66.18702538023483
 20
74.7848200539018
 30
0.0
  0
SPLINE
  5
95
330
1F
100
AcDbEntity
  8
0
  6
Continuous
 62
     7
370
    15
100
AcDbSpline
210
0.0
220
0.0
230
1.0
 70
     8
 71
     3
 72
    12
 73
     8
 74
     0
 42
0.00000001
 43
0.00000001
 40
0.0
 40
0.0
 40
0.0
 40
0.0
 40
0.2500000000000009
 40
0.2500000000000009
 40
0.5000000000000018
 40
0.5000000000000018
 40
1.0
 40
1.0
 40
1.0
 40
1.0
 10
64.73166576831558
 20
138.8270429348335
 30
0.0
 10
64.2129669464874
 20
138.8595657096817
 30
0.0
 10
63.69125537328241
 20
138.8828624508522
 30
0.0
 10
62.64496335678682
 20
138.9207079652743
 30
0.0
 10
62.12029173111657
 20
138.9349764397704
 30
0.0
 10
60.54344570857734
 20
138.9691859272287
 30
0.0
 10
59.48849039403042
 20
138.9806854311726
 30
0.0
 10
58.43159088428519
 20
138.9863522119021
 30
0.0
  0
SPLINE
  5
96
330
1F
100
AcDbEntity
  8
0
  6
Continuous
 62
     7
370
    15
100
AcDbSpline
210
0.0
220
0.0
230
1.0
 70
     8
 71
     3
 72
    20
 73
    16
 74
     0
 42
0.00000001
 43
0.00000001
 40
0.0
 40
0.0
 40
0.0
 40
0.0
 40
0.2500000000000011
 40
0.2500000000000011
 40
0.5000000000000021
 40
0.5000000000000021
 40
0.7500000000000031
 40
0.7500000000000031
 40
0.8750000000000008
 40
0.8750000000000008
 40
0.9375000000000006
 40
0.9375000000000006
 40
0.9687500000000003
 40
0.9687500000000003
 40
1.0
 40
1.0
 40
1.0
 40
1.0
 10
66.63166576831559
 20
140.4851287803216
 30
0.0
 10
66.63166576831559
 20
140.3494464605748
 30
0.0
 10
66.58295397909896
 20
140.2083594744348
 30
0.0
 10
66.41379255587377
 20
139.9162877557042
 30
0.0
 10
66.29201214195545
 20
139.7646390136138
 30
0.0
 10
65.99446504720594
 20
139.4622305734607
 30
0.0
 10
65.82055244150317
 20
139.3096419373374
 30
0.0
 10
65.50113760762135
 20
139.0843711734951
 30
0.0
 10
65.38609683217409
 20
139.0096480789844
 30
0.0
 10
65.17901250815767
 20
138.9102376697274
 30
0.0
 10
65.10290467335128
 20
138.8786725773828
 30
0.0
 10
64.97151013379792
 20
138.8442291931898
 30
0.0
 10
64.92495691479647
 20
138.8351776214222
 30
0.0
 10
64.82862356371575
 20
138.8250019725837
 30
0.0
 10
64.77936414036031
 20
138.8240522139087
 30
0.0
 10
64.7316657683136
 20
138.8270429348233
 30
0.0
  0
LINE
  5
97
330
1F
100
AcDbEntity
  8
0
  6
Continuous
 62
     7
370
    15
100
AcDbLine
 10
66.6316657683
 20
140.4851287803
 30
0.0
 11
66.6316657683
 21
142.7540340714
 31
0.0
  0
SPLINE
  5
98
330
1F
100
AcDbEntity
  8
0
  6
Continuous
 62
     7
370
    15
100
AcDbSpline
210
0.0
220
0.0
230
1.0
 70
     8
 71
     3
 72
    24
 73
    20
 74
     0
 42
0.00000001
 43
0.00000001
 40
0.0
 40
0.0
 40
0.0
 40
0.0
 40
0.0002934293894791
 40
0.062808005175641
 40
0.1260453927228619
 40
0.18907467666103
 40
0.2513200540860133
 40
0.3133304633786588
 40
0.3759158453762907
 40
0.4383740564599686
 40
0.5000631094857209
 40
0.5616593988040849
 40
0.6245050380644152
 40
0.6872231506510951
 40
0.7494953263230465
 40
0.8117583797535242
 40
0.8747365508229858
 40
0.9378980306234599
 40
1.0
 40
1.0
 40
1.0
 40
1.0
 10
84.951622032155
 20
69.80927478502466
 30
0.0
 10
84.95142717927024
 20
69.80925047763067
 30
0.0
 10
84.90971928825908
 20
69.80404752597647
 30
0.0
 10
85.05483767978951
 20
69.82268214930698
 30
0.0
 10
85.40991662132876
 20
69.86520192785571
 30
0.0
 10
86.01449225887193
 20
69.93333821145754
 30
0.0
 10
86.82092756768812
 20
70.00659374847343
 30
0.0
 10
87.8064049916071
 20
70.07111308929129
 30
0.0
 10
88.93807458828664
 20
70.10967731735238
 30
0.0
 10
90.1603670584489
 20
70.11337182335377
 30
0.0
 10
91.42769573990076
 20
70.07094584330478
 30
0.0
 10
92.69418127032728
 20
69.98269870252383
 30
0.0
 10
93.9103186341472
 20
69.85430543225715
 30
0.0
 10
95.03572912998798
 20
69.70166444366461
 30
0.0
 10
96.01314619154195
 20
69.53988982856028
 30
0.0
 10
96.81641167008445
 20
69.38736093545938
 30
0.0
 10
97.40490519308567
 20
69.26334719219199
 30
0.0
 10
97.79381130473772
 20
69.17842326591573
 30
0.0
 10
97.84057243547575
 20
69.16769695463692
 30
0.0
 10
97.86375524201816
 20
69.16237916194531
 30
0.0
  0
SPLINE
  5
99
330
1F
100
AcDbEntity
  8
0
  6
Continuous
 62
     7
370
    15
100
AcDbSpline
210
0.0
220
0.0
230
1.0
 70
     8
 71
     3
 72
    41
 73
    37
 74
     0
 42
0.00000001
 43
0.00000001
 40
0.0
 40
0.0
 40
0.0
 40
0.0
 40
0.0619930061482746
 40
0.1254347783466151
 40
0.1886508898234768
 40
0.2510246408607227
 40
0.3131658188976554
 40
0.3756581641417402
 40
0.4382227146727798
 40
0.4998044922940677
 40
0.56151641971787
 40
0.6240683094121985
 40
0.686725723240935
 40
0.7488365305144522
 40
0.8110685944253986
 40
0.8741742884451361
 40
0.9373212787645211
 40
0.9685511709617411
 40
0.9842086872487193
 40
0.9920641182531791
 40
0.996000486125535
 40
0.9979710794120144
 40
0.9989570090489596
 40
0.9994501359395065
 40
0.9996967403802177
 40
0.9998200529090742
 40
0.9998817117580818
 40
0.999912541829664
 40
0.9999279570273361
 40
0.9999356646666602
 40
0.9999395184964466
 40
0.9999414454138695
 40
0.9999424088732151
 40
0.9999433723329806
 40
0.9999501697010513
 40
1.0
 40
1.0
 40
1.0
 40
1.0
 10
97.86363391154015
 20
144.3186159067772
 30
0.0
 10
97.84006226619655
 20
144.3133064271274
 30
0.0
 10
97.79236811015149
 20
144.3025633861878
 30
0.0
 10
97.40032612072594
 20
144.2173342497324
 30
0.0
 10
96.80981207145574
 20
144.0927654710916
 30
0.0
 10
96.00577462541065
 20
143.9398185249398
 30
0.0
 10
95.02969922522914
 20
143.7780619709862
 30
0.0
 10
93.90789048994864
 20
143.625829203054
 30
0.0
 10
92.6943595701614
 20
143.4980492618527
 30
0.0
 10
91.42952886376219
 20
143.41020071017
 30
0.0
 10
90.16148582631946
 20
143.3678152262994
 30
0.0
 10
88.93797846861834
 20
143.3715510342711
 30
0.0
 10
87.80447992820434
 20
143.4101465047192
 30
0.0
 10
86.81837411723014
 20
143.4745858760103
 30
0.0
 10
86.00974630844291
 20
143.5480956832915
 30
0.0
 10
85.41312761333371
 20
143.6154093681032
 30
0.0
 10
85.09773632387564
 20
143.6533739193712
 30
0.0
 10
84.9876697550777
 20
143.6671729787031
 30
0.0
 10
84.96025036726351
 20
143.6706590526237
 30
0.0
 10
84.95332831643401
 20
143.6715382783171
 30
0.0
 10
84.9515600762506
 20
143.6717590529234
 30
0.0
 10
84.95109969707723
 20
143.6718142556341
 30
0.0
 10
84.95097553839243
 20
143.6718279954212
 30
0.0
 10
84.95093998389925
 20
143.6718313912522
 30
0.0
 10
84.95092883982916
 20
143.6718322195725
 30
0.0
 10
84.95092492663305
 20
143.6718324161613
 30
0.0
 10
84.95092338442822
 20
143.6718324600914
 30
0.0
 10
84.9509227174267
 20
143.6718324683981
 30
0.0
 10
84.95092240924896
 20
143.6718324692284
 30
0.0
 10
84.9509222624829
 20
143.6718324686832
 30
0.0
 10
84.95092218953046
 20
143.6718324683533
 30
0.0
 10
84.95092215513809
 20
143.671832467916
 30
0.0
 10
84.95092213289291
 20
143.6718324680045
 30
0.0
 10
84.95092210578348
 20
143.6718324651696
 30
0.0
 10
84.95091958622213
 20
143.6718327520247
 30
0.0
 10
84.95095567614017
 20
143.671828131924
 30
0.0
 10
84.95098743396282
 20
143.6718240664026
 30
0.0
  0
SPLINE
  5
9A
330
1F
100
AcDbEntity
  8
0
  6
Continuous
 62
     7
370
    15
100
AcDbSpline
210
0.0
220
0.0
230
1.0
 70
     8
 71
     3
 72
    20
 73
    16
 74
     0
 42
0.00000001
 43
0.00000001
 40
0.0
 40
0.0
 40
0.0
 40
0.0
 40
0.249999999999986
 40
0.249999999999986
 40
0.3749999999999789
 40
0.3749999999999789
 40
0.4374999999999789
 40
0.4374999999999789
 40
0.4999999999999789
 40
0.4999999999999789
 40
0.6249999999999835
 40
0.6249999999999835
 40
0.7499999999999879
 40
0.7499999999999879
 40
1.0
 40
1.0
 40
1.0
 40
1.0
 10
56.8224800000316
 20
76.06203689063634
 30
0.0
 10
56.848752217245
 20
76.0813548317188
 30
0.0
 10
56.87943235949984
 20
76.09574354282057
 30
0.0
 10
56.95090322988176
 20
76.08883918098455
 30
0.0
 10
56.97893026692611
 20
76.08167317763615
 30
0.0
 10
57.03401385642361
 20
76.05197415093255
 30
0.0
 10
57.05490518497604
 20
76.03850050837121
 30
0.0
 10
57.1001138324215
 20
76.0033022428552
 30
0.0
 10
57.12451804481707
 20
75.98139401412794
 30
0.0
 10
57.19585036286851
 20
75.9092691541324
 30
0.0
 10
57.23774714768879
 20
75.85692861318235
 30
0.0
 10
57.30932310654466
 20
75.7594452212816
 30
0.0
 10
57.34015109636195
 20
75.71269145140317
 30
0.0
 10
57.42325102919753
 20
75.57939823556406
 30
0.0
 10
57.46810593456783
 20
75.49676083764885
 30
0.0
 10
57.5082180100204
 20
75.41765394285807
 30
0.0
  0
SPLINE
  5
9B
330
1F
100
AcDbEntity
  8
0
  6
Continuous
 62
     7
370
    15
100
AcDbSpline
210
0.0
220
0.0
230
1.0
 70
     8
 71
     3
 72
    14
 73
    10
 74
     0
 42
0.00000001
 43
0.00000001
 40
0.0
 40
0.0
 40
0.0
 40
0.0
 40
0.25
 40
0.25
 40
0.5
 40
0.5
 40
0.75
 40
0.75
 40
1.0
 40
1.0
 40
1.0
 40
1.0
 10
56.53166576831558
 20
76.23785030076911
 30
0.0
 10
56.5316657683156
 20
76.19660336974476
 30
0.0
 10
56.54027548469684
 20
76.15969639746228
 30
0.0
 10
56.57136166426719
 20
76.09879633756287
 30
0.0
 10
56.59375121775125
 20
76.07461541802319
 30
0.0
 10
56.64849514892737
 20
76.04064782713994
 30
0.0
 10
56.68094538851255
 20
76.03072774317174
 30
0.0
 10
56.75094690324062
 20
76.02937653426689
 30
0.0
 10
56.78915740336316
 20
76.03753481096305
 30
0.0
 10
56.82248000003624
 20
76.06203689063113
 30
0.0
  0
LINE
  5
9C
330
1F
100
AcDbEntity
  8
0
  6
Continuous
 62
     7
370
    15
100
AcDbLine
 10
56.5316657683
 20
76.2378503008
 30
0.0
 11
56.5316657683
 21
137.2431897859
 31
0.0
  0
SPLINE
  5
9D
330
1F
100
AcDbEntity
  8
0
  6
Continuous
 62
     7
370
    15
100
AcDbSpline
210
0.0
220
0.0
230
1.0
 70
     8
 71
     3
 72
    10
 73
     6
 74
     0
 42
0.00000001
 43
0.00000001
 40
0.0
 40
0.0
 40
0.0
 40
0.0
 40
0.0592402688376383
 40
0.6438088530391344
 40
1.0
 40
1.0
 40
1.0
 40
1.0
 10
56.82248000003623
 20
137.4190031960429
 30
0.0
 10
56.81764774241503
 20
137.4222521026745
 30
0.0
 10
56.76513194028029
 20
137.4575604308302
 30
0.0
 10
56.66618174260152
 20
137.4638147273888
 30
0.0
 10
56.61675321771018
 20
137.4086144896999
 30
0.0
 10
56.59803855296587
 20
137.3877145347766
 30
0.0
  0
SPLINE
  5
9E
330
1F
100
AcDbEntity
  8
0
  6
Continuous
 62
     7
370
    15
100
AcDbSpline
210
0.0
220
0.0
230
1.0
 70
     8
 71
     3
 72
     8
 73
     4
 74
     0
 42
0.00000001
 43
0.00000001
 40
0.0
 40
0.0
 40
0.0
 40
0.0
 40
1.0
 40
1.0
 40
1.0
 40
1.0
 10
56.55529943725179
 20
137.3507692869746
 30
0.0
 10
56.53995039861576
 20
137.3202592319787
 30
0.0
 10
56.53166576831558
 20
137.2839476764663
 30
0.0
 10
56.53166576831558
 20
137.2431897859049
 30
0.0
  0
SPLINE
  5
9F
330
1F
100
AcDbEntity
  8
0
  6
Continuous
 62
     7
370
    15
100
AcDbSpline
210
0.0
220
0.0
230
1.0
 70
     8
 71
     3
 72
    20
 73
    16
 74
     0
 42
0.00000001
 43
0.00000001
 40
0.0
 40
0.0
 40
0.0
 40
0.0
 40
0.2500000000000037
 40
0.2500000000000037
 40
0.3750000000000055
 40
0.3750000000000055
 40
0.5000000000000073
 40
0.5000000000000073
 40
0.5625000000000057
 40
0.5625000000000057
 40
0.625000000000004
 40
0.625000000000004
 40
0.7500000000000027
 40
0.7500000000000027
 40
1.0
 40
1.0
 40
1.0
 40
1.0
 10
57.50821801001801
 20
138.0633861438152
 30
0.0
 10
57.46822179219419
 20
137.9845077372578
 30
0.0
 10
57.42310816435653
 20
137.9013780905663
 30
0.0
 10
57.33985394999
 20
137.7678894262153
 30
0.0
 10
57.3096346213695
 20
137.7220243703333
 30
0.0
 10
57.23754638622808
 20
137.6238328179284
 30
0.0
 10
57.19562906881698
 20
137.5715229984048
 30
0.0
 10
57.12437846426552
 20
137.4995170956703
 30
0.0
 10
57.1001426518862
 20
137.4777468833688
 30
0.0
 10
57.05454446170155
 20
137.4422722250398
 30
0.0
 10
57.03374197210184
 20
137.4289020408622
 30
0.0
 10
56.97880097368272
 20
137.399332128727
 30
0.0
 10
56.95073198559592
 20
137.392205606425
 30
0.0
 10
56.88022915553308
 20
137.3853312349424
 30
0.0
 10
56.84880506774221
 20
137.3996463940295
 30
0.0
 10
56.82248000003361
 20
137.4190031960401
 30
0.0
  0
SPLINE
  5
A0
330
1F
100
AcDbEntity
  8
0
  6
Continuous
 62
     7
370
    15
100
AcDbSpline
210
0.0
220
0.0
230
1.0
 70
     8
 71
     3
 72
    10
 73
     6
 74
     0
 42
0.00000001
 43
0.00000001
 40
0.0
 40
0.0
 40
0.0
 40
0.0
 40
0.4999999999999989
 40
0.4999999999999989
 40
1.0
 40
1.0
 40
1.0
 40
1.0
 10
58.1816657683156
 20
138.988805245157
 30
0.0
 10
58.0567774975654
 20
138.8578089670856
 30
0.0
 10
57.93532737950495
 20
138.7140961304206
 30
0.0
 10
57.70574340454751
 20
138.4035258377313
 30
0.0
 10
57.59546842915153
 20
138.2354567646682
 30
0.0
 10
57.50821801001801
 20
138.0633861438152
 30
0.0
  0
SPLINE
  5
A1
330
1F
100
AcDbEntity
  8
0
  6
Continuous
 62
     7
370
    15
100
AcDbSpline
210
0.0
220
0.0
230
1.0
 70
     8
 71
     3
 72
     8
 73
     4
 74
     0
 42
0.00000001
 43
0.00000001
 40
0.0
 40
0.0
 40
0.0
 40
0.0
 40
1.0
 40
1.0
 40
1.0
 40
1.0
 10
58.43159088428132
 20
138.9863522119016
 30
0.0
 10
58.34457285443297
 20
138.9868187766887
 30
0.0
 10
58.26161882805303
 20
138.9878587962648
 30
0.0
 10
58.18166576831328
 20
138.9888052451571
 30
0.0
  0
SPLINE
  5
A2
330
1F
100
AcDbEntity
  8
0
  6
Continuous
 62
     7
370
    15
100
AcDbSpline
210
0.0
220
0.0
230
1.0
 70
     8
 71
     3
 72
     8
 73
     4
 74
     0
 42
0.00000001
 43
0.00000001
 40
0.0
 40
0.0
 40
0.0
 40
0.0
 40
1.0
 40
1.0
 40
1.0
 40
1.0
 10
58.18166576831328
 20
74.49223484151696
 30
0.0
 10
58.26161882805356
 20
74.49318129040923
 30
0.0
 10
58.34457285443403
 20
74.49422130998536
 30
0.0
 10
58.43159088428301
 20
74.49468787477242
 30
0.0
  0
SPLINE
  5
A3
330
1F
100
AcDbEntity
  8
0
  6
Continuous
 62
     7
370
    15
100
AcDbSpline
210
0.0
220
0.0
230
1.0
 70
     8
 71
     3
 72
    10
 73
     6
 74
     0
 42
0.00000001
 43
0.00000001
 40
0.0
 40
0.0
 40
0.0
 40
0.0
 40
0.4999999999999989
 40
0.4999999999999989
 40
1.0
 40
1.0
 40
1.0
 40
1.0
 10
57.50821801001708
 20
75.41765394286064
 30
0.0
 10
57.59546842915056
 20
75.24558332200726
 30
0.0
 10
57.70574340454672
 20
75.07751424894383
 30
0.0
 10
57.93532737950455
 20
74.76694395625402
 30
0.0
 10
58.05677749756519
 20
74.62323111958874
 30
0.0
 10
58.1816657683156
 20
74.49223484151705
 30
0.0
  0
SPLINE
  5
A4
330
1F
100
AcDbEntity
  8
0
  6
Continuous
 62
     7
370
    15
100
AcDbSpline
210
0.0
220
0.0
230
1.0
 70
     8
 71
     3
 72
     8
 73
     4
 74
     0
 42
0.00000001
 43
0.00000001
 40
0.0
 40
0.0
 40
0.0
 40
0.0
 40
1.0
 40
1.0
 40
1.0
 40
1.0
 10
124.5216657683156
 20
153.3377909040419
 30
0.0
 10
124.071357532631
 20
154.1355060291556
 30
0.0
 10
123.6206637161074
 20
154.9330043288127
 30
0.0
 10
123.1696367473942
 20
155.7303148990006
 30
0.0
  0
LINE
  5
A5
330
1F
100
AcDbEntity
  8
0
  6
Continuous
 62
     7
370
    15
100
AcDbLine
 10
124.5216657683
 20
142.6359675495
 30
0.0
 11
124.5216657683
 21
153.337790904
 31
0.0
  0
SPLINE
  5
A6
330
1F
100
AcDbEntity
  8
0
  6
Continuous
 62
     7
370
    15
100
AcDbSpline
210
0.0
220
0.0
230
1.0
 70
     8
 71
     3
 72
     8
 73
     4
 74
     0
 42
0.00000001
 43
0.00000001
 40
0.0
 40
0.0
 40
0.0
 40
0.0
 40
1.0
 40
1.0
 40
1.0
 40
1.0
 10
123.1696367473942
 20
145.691482804224
 30
0.0
 10
123.6265631011937
 20
144.6755648345497
 30
0.0
 10
124.0777687429968
 20
143.6567690054585
 30
0.0
 10
124.5216657683156
 20
142.6359675494749
 30
0.0
  0
SPLINE
  5
A7
330
1F
100
AcDbEntity
  8
0
  6
Continuous
 62
     7
370
    15
100
AcDbSpline
210
0.0
220
0.0
230
1.0
 70
     8
 71
     3
 72
     8
 73
     4
 74
     0
 42
0.00000001
 43
0.00000001
 40
0.0
 40
0.0
 40
0.0
 40
0.0
 40
1.0
 40
1.0
 40
1.0
 40
1.0
 10
129.693694789237
 20
155.7303148990006
 30
0.0
 10
129.2426678205237
 20
154.9330043288127
 30
0.0
 10
128.7919740040001
 20
154.1355060291556
 30
0.0
 10
128.3416657683156
 20
153.3377909040419
 30
0.0
  0
LINE
  5
A8
330
1F
100
AcDbEntity
  8
0
  6
Continuous
 62
     7
370
    15
100
AcDbLine
 10
129.6936947892
 20
145.6914828042
 30
0.0
 11
129.6936947892
 21
155.730314899
 31
0.0
  0
SPLINE
  5
A9
330
1F
100
AcDbEntity
  8
0
  6
Continuous
 62
     7
370
    15
100
AcDbSpline
210
0.0
220
0.0
230
1.0
 70
     8
 71
     3
 72
     8
 73
     4
 74
     0
 42
0.00000001
 43
0.00000001
 40
0.0
 40
0.0
 40
0.0
 40
0.0
 40
1.0
 40
1.0
 40
1.0
 40
1.0
 10
128.3416657683156
 20
142.6359675494749
 30
0.0
 10
128.7858157793411
 20
143.6573507804265
 30
0.0
 10
129.236890089599
 20
144.6758353171949
 30
0.0
 10
129.693694789237
 20
145.6914828042239
 30
0.0
  0
LINE
  5
AA
330
1F
100
AcDbEntity
  8
0
  6
Continuous
 62
     7
370
    15
100
AcDbLine
 10
128.3416657683
 20
142.6359675495
 30
0.0
 11
128.3416657683
 21
153.337790904
 31
0.0
  0
LINE
  5
AB
330
1F
100
AcDbEntity
  8
0
  6
Continuous
 62
     7
370
    15
100
AcDbLine
 10
134.3816657683
 20
155.730314899
 30
0.0
 11
129.6936947892
 21
155.730314899
 31
0.0
  0
LINE
  5
AC
330
1F
100
AcDbEntity
  8
0
  6
Continuous
 62
     7
370
    15
100
AcDbLine
 10
129.6936947892
 20
145.6914828042
 30
0.0
 11
134.3816657683
 21
145.6914828042
 31
0.0
  0
SPLINE
  5
AD
330
1F
100
AcDbEntity
  8
0
  6
Continuous
 62
     7
370
    15
100
AcDbSpline
210
0.0
220
0.0
230
1.0
 70
     8
 71
     3
 72
    14
 73
    10
 74
     0
 42
0.00000001
 43
0.00000001
 40
0.0
 40
0.0
 40
0.0
 40
0.0
 40
0.25
 40
0.25
 40
0.5
 40
0.5
 40
0.75
 40
0.75
 40
1.0
 40
1.0
 40
1.0
 40
1.0
 10
128.3416657683156
 20
152.434071284185
 30
0.0
 10
128.3416657683156
 20
152.3277145904327
 30
0.0
 10
128.3212782121743
 20
152.2218741026726
 30
0.0
 10
128.2426438667128
 20
152.0253091891361
 30
0.0
 10
128.1839125070742
 20
151.934138446849
 30
0.0
 10
128.0373036014716
 20
151.7822273578174
 30
0.0
 10
127.9478982814451
 20
151.7201585209978
 30
0.0
 10
127.7540075488448
 20
151.6368904732391
 30
0.0
 10
127.6475025589549
 20
151.6147958035095
 30
0.0
 10
127.5416657683156
 20
151.6147958035095
 30
0.0
  0
SPLINE
  5
AE
330
1F
100
AcDbEntity
  8
0
  6
Continuous
 62
     7
370
    15
100
AcDbSpline
210
0.0
220
0.0
230
1.0
 70
     8
 71
     3
 72
    12
 73
     8
 74
     0
 42
0.00000001
 43
0.00000001
 40
0.0
 40
0.0
 40
0.0
 40
0.0
 40
0.250000000000002
 40
0.250000000000002
 40
0.500000000000004
 40
0.500000000000004
 40
1.0
 40
1.0
 40
1.0
 40
1.0
 10
127.5416657683156
 20
140.3690514564095
 30
0.0
 10
127.6653667182955
 20
140.3690514564095
 30
0.0
 10
127.7894633305658
 20
140.4110450681421
 30
0.0
 10
127.9961184936528
 20
140.5488403947865
 30
0.0
 10
128.0811592603796
 20
140.6428139932513
 30
0.0
 10
128.2806378288532
 20
140.9576021994722
 30
0.0
 10
128.3416657683156
 20
141.2078411916998
 30
0.0
 10
128.3416657683156
 20
141.4547552358341
 30
0.0
  0
LINE
  5
AF
330
1F
100
AcDbEntity
  8
0
  6
Continuous
 62
     7
370
    15
100
AcDbLine
 10
124.5216657683
 20
142.6359675495
 30
0.0
 11
124.5216657683
 21
141.4547552358
 31
0.0
  0
SPLINE
  5
B0
330
1F
100
AcDbEntity
  8
0
  6
Continuous
 62
     7
370
    15
100
AcDbSpline
210
0.0
220
0.0
230
1.0
 70
     8
 71
     3
 72
    14
 73
    10
 74
     0
 42
0.00000001
 43
0.00000001
 40
0.0
 40
0.0
 40
0.0
 40
0.0
 40
0.25
 40
0.25
 40
0.5
 40
0.5
 40
0.75
 40
0.75
 40
1.0
 40
1.0
 40
1.0
 40
1.0
 10
124.5216657683156
 20
141.4547552358341
 30
0.0
 10
124.5216657683156
 20
141.3308883590449
 30
0.0
 10
124.5375248959432
 20
141.2066286822074
 30
0.0
 10
124.6008865414631
 20
140.9690203198015
 30
0.0
 10
124.6494762495124
 20
140.852239935049
 30
0.0
 10
124.7817618542873
 20
140.64343740644
 30
0.0
 10
124.8670866455479
 20
140.5489267028474
 30
0.0
 10
125.073977893854
 20
140.4109699020451
 30
0.0
 10
125.1979458397441
 20
140.3690514564095
 30
0.0
 10
125.3216657683156
 20
140.3690514564095
 30
0.0
  0
LINE
  5
B1
330
1F
100
AcDbEntity
  8
0
  6
Continuous
 62
     7
370
    15
100
AcDbLine
 10
125.3216657683
 20
140.3690514564
 30
0.0
 11
127.5416657683
 21
140.3690514564
 31
0.0
  0
LINE
  5
B2
330
1F
100
AcDbEntity
  8
0
  6
Continuous
 62
     7
370
    15
100
AcDbLine
 10
128.3416657683
 20
141.4547552358
 30
0.0
 11
128.3416657683
 21
142.6359675495
 31
0.0
  0
SPLINE
  5
B3
330
1F
100
AcDbEntity
  8
0
  6
Continuous
 62
     7
370
    15
100
AcDbSpline
210
0.0
220
0.0
230
1.0
 70
     8
 71
     3
 72
    16
 73
    12
 74
     0
 42
0.00000001
 43
0.00000001
 40
0.0
 40
0.0
 40
0.0
 40
0.0
 40
0.1249999999999978
 40
0.1249999999999978
 40
0.2499999999999955
 40
0.2499999999999955
 40
0.499999999999997
 40
0.499999999999997
 40
0.7499999999999984
 40
0.7499999999999984
 40
1.0
 40
1.0
 40
1.0
 40
1.0
 10
134.3816657683156
 20
145.691482804224
 30
0.0
 10
134.4573034747268
 20
145.691482804224
 30
0.0
 10
134.533619139145
 20
145.680137804089
 30
0.0
 10
134.6780298770369
 20
145.6374852534505
 30
0.0
 10
134.7464763261454
 20
145.6065509287677
 30
0.0
 10
134.9414075787585
 20
145.4872945570001
 30
0.0
 10
135.0492487525394
 20
145.3771425433795
 30
0.0
 10
135.2179615007514
 20
145.1290064577214
 30
0.0
 10
135.280325913475
 20
144.9886641337177
 30
0.0
 10
135.3616298379834
 20
144.7003924422291
 30
0.0
 10
135.3816657683156
 20
144.5495874692493
 30
0.0
 10
135.3816657683156
 20
144.399217577904
 30
0.0
  0
LINE
  5
B4
330
1F
100
AcDbEntity
  8
0
  6
Continuous
 62
     7
370
    15
100
AcDbLine
 10
135.3816657683
 20
144.3992175779
 30
0.0
 11
135.3816657683
 21
138.0905200433
 31
0.0
  0
SPLINE
  5
B5
330
1F
100
AcDbEntity
  8
0
  6
Continuous
 62
     7
370
    15
100
AcDbSpline
210
0.0
220
0.0
230
1.0
 70
     8
 71
     3
 72
    12
 73
     8
 74
     0
 42
0.00000001
 43
0.00000001
 40
0.0
 40
0.0
 40
0.0
 40
0.0
 40
0.4999999999999953
 40
0.4999999999999953
 40
0.7499999999999977
 40
0.7499999999999977
 40
1.0
 40
1.0
 40
1.0
 40
1.0
 10
135.3816657683156
 20
154.7092598641829
 30
0.0
 10
135.3816657683156
 20
154.9745292969493
 30
0.0
 10
135.2770590248291
 20
155.2370444026017
 30
0.0
 10
135.0003906730838
 20
155.5225820086389
 30
0.0
 10
134.8900254137318
 20
155.5989036255004
 30
0.0
 10
134.6459533651161
 20
155.7032457903405
 30
0.0
 10
134.5142009037843
 20
155.7303148990006
 30
0.0
 10
134.3816657683156
 20
155.7303148990006
 30
0.0
  0
LINE
  5
B6
330
1F
100
AcDbEntity
  8
0
  6
Continuous
 62
     7
370
    15
100
AcDbLine
 10
135.3816657683
 20
144.3992175779
 30
0.0
 11
135.3816657683
 21
154.7092598642
 31
0.0
  0
SPLINE
  5
B7
330
1F
100
AcDbEntity
  8
0
  6
Continuous
 62
     7
370
    15
100
AcDbSpline
210
0.0
220
0.0
230
1.0
 70
     8
 71
     3
 72
    10
 73
     6
 74
     0
 42
0.00000001
 43
0.00000001
 40
0.0
 40
0.0
 40
0.0
 40
0.0
 40
0.5
 40
0.5
 40
1.0
 40
1.0
 40
1.0
 40
1.0
 10
125.3216657683156
 20
151.6147958035095
 30
0.0
 10
125.1091294544592
 20
151.6147958035095
 30
0.0
 10
124.8991932828052
 20
151.7062083901397
 30
0.0
 10
124.605486141794
 20
152.0109532560438
 30
0.0
 10
124.5216657683156
 20
152.2231082259525
 30
0.0
 10
124.5216657683156
 20
152.434071284185
 30
0.0
  0
LINE
  5
B8
330
1F
100
AcDbEntity
  8
0
  6
Continuous
 62
     7
370
    15
100
AcDbLine
 10
127.5416657683
 20
151.6147958035
 30
0.0
 11
125.3216657683
 21
151.6147958035
 31
0.0
  0
ARC
  5
B9
330
1F
100
AcDbEntity
  8
0
  6
Continuous
 62
     7
370
    15
100
AcDbCircle
 10
115.4319398284
 20
139.3072935589
 30
0.0
 40
11.44864639011333
100
AcDbArc
 50
77.6649884509
 51
102.4018279774
  0
LINE
  5
BA
330
1F
100
AcDbEntity
  8
0
  6
Continuous
 62
     7
370
    15
100
AcDbLine
 10
157.3816657683
 20
84.7405200433
 30
0.0
 11
157.3816657683
 21
128.7405200433
 31
0.0
  0
LINE
  5
BB
330
1F
100
AcDbEntity
  8
0
  6
Continuous
 62
     7
370
    15
100
AcDbLine
 10
146.0248490112
 20
128.6201920684
 30
0.0
 11
146.1376921719
 21
128.6110201833
 31
0.0
  0
SPLINE
  5
BC
330
1F
100
AcDbEntity
  8
0
  6
Continuous
 62
     7
370
    15
100
AcDbSpline
210
0.0
220
0.0
230
1.0
 70
     8
 71
     3
 72
    36
 73
    32
 74
     0
 42
0.00000001
 43
0.00000001
 40
0.0
 40
0.0
 40
0.0
 40
0.0
 40
0.0289137284751554
 40
0.0526699238863734
 40
0.0744530527947863
 40
0.1187081143260495
 40
0.1412152299067694
 40
0.1640806903627424
 40
0.2104647274183367
 40
0.2340111865346909
 40
0.2593224913604513
 40
0.3106599740269828
 40
0.3367196506674509
 40
0.3647910180471305
 40
0.4217753538040721
 40
0.4507376620440371
 40
0.4807536775406167
 40
0.5417641359401686
 40
0.5728283269033251
 40
0.6034196977578887
 40
0.6342296417302069
 40
0.6657472591478865
 40
0.6975187685051438
 40
0.7271608847170845
 40
0.7876220121800099
 40
0.8185658977406435
 40
0.8454977048403116
 40
0.9005175710482235
 40
0.9287305010300753
 40
0.9523406030672531
 40
1.0
 40
1.0
 40
1.0
 40
1.0
 10
151.8716196193705
 20
128.7392691679518
 30
0.0
 10
151.8727996885576
 20
128.739414537223
 30
0.0
 10
151.8749493301825
 20
128.7396793452865
 30
0.0
 10
151.8311111897939
 20
128.7342440000922
 30
0.0
 10
151.758416439756
 20
128.7253572083008
 30
0.0
 10
151.6489954246887
 20
128.7122758142032
 30
0.0
 10
151.5058226641551
 20
128.6959423100696
 30
0.0
 10
151.3376077968219
 20
128.6774214197636
 30
0.0
 10
151.1362883983376
 20
128.6565812098773
 30
0.0
 10
150.9031081679062
 20
128.6345348486922
 30
0.0
 10
150.6399332554057
 20
128.6113576584989
 30
0.0
 10
150.3440769584957
 20
128.5884766684341
 30
0.0
 10
150.020438865084
 20
128.5675981801616
 30
0.0
 10
149.6666938774682
 20
128.5479999709198
 30
0.0
 10
149.2861547209893
 20
128.5325662967156
 30
0.0
 10
148.8898732359709
 20
128.5229355344048
 30
0.0
 10
148.4754157249662
 20
128.5174799966589
 30
0.0
 10
148.0501541010724
 20
128.5193306148404
 30
0.0
 10
147.6297204129309
 20
128.5285413811894
 30
0.0
 10
147.3179653019468
 20
128.5389617834027
 30
0.0
 10
147.0122484022115
 20
128.5526118141663
 30
0.0
 10
146.712781818636
 20
128.5692765626848
 30
0.0
 10
146.4296844320791
 20
128.5880536431015
 30
0.0
 10
146.0780993597922
 20
128.6147959434372
 30
0.0
 10
145.7612917145382
 20
128.6433126841141
 30
0.0
 10
145.4956039408136
 20
128.6701216158265
 30
0.0
 10
145.2716770553129
 20
128.6941157152302
 30
0.0
 10
145.0972836039988
 20
128.7142782566627
 30
0.0
 10
144.981421359912
 20
128.7282149548898
 30
0.0
 10
144.9023093777365
 20
128.7379282501996
 30
0.0
 10
144.8902169905274
 20
128.7394468784296
 30
0.0
 10
144.8821305595829
 20
128.7404624167266
 30
0.0
  0
SPLINE
  5
BD
330
1F
100
AcDbEntity
  8
0
  6
Continuous
 62
     7
370
    15
100
AcDbSpline
210
0.0
220
0.0
230
1.0
 70
     8
 71
     3
 72
     9
 73
     5
 74
     0
 42
0.00000001
 43
0.00000001
 40
0.0
 40
0.0
 40
0.0
 40
0.0
 40
0.3768304639707433
 40
0.9999999999999999
 40
0.9999999999999999
 40
0.9999999999999999
 40
0.9999999999999999
 10
145.7162733216023
 20
128.6483669872058
 30
0.0
 10
145.752688644308
 20
128.644837382336
 30
0.0
 10
145.8493244691347
 20
128.6354708230811
 30
0.0
 10
145.9574613816484
 20
128.6260579094378
 30
0.0
 10
146.0248490112472
 20
128.6201920684101
 30
0.0
  0
SPLINE
  5
BE
330
1F
100
AcDbEntity
  8
0
  6
Continuous
 62
     7
370
    15
100
AcDbSpline
210
0.0
220
0.0
230
1.0
 70
     8
 71
     3
 72
    70
 73
    66
 74
     0
 42
0.00000001
 43
0.00000001
 40
-0.0312499999999999
 40
-0.0312499999999999
 40
0.0
 40
0.0
 40
0.03125
 40
0.03125
 40
0.0625
 40
0.0625
 40
0.0937500000000001
 40
0.0937500000000001
 40
0.1250000000000001
 40
0.1250000000000001
 40
0.1562500000000001
 40
0.1562500000000001
 40
0.1875000000000001
 40
0.1875000000000001
 40
0.2187500000000001
 40
0.2187500000000001
 40
0.2500000000000002
 40
0.2500000000000002
 40
0.2812500000000002
 40
0.2812500000000002
 40
0.3125000000000002
 40
0.3125000000000002
 40
0.3437500000000002
 40
0.3437500000000002
 40
0.3750000000000002
 40
0.3750000000000002
 40
0.4062500000000003
 40
0.4062500000000003
 40
0.4375000000000003
 40
0.4375000000000003
 40
0.4687500000000003
 40
0.4687500000000003
 40
0.5000000000000003
 40
0.5000000000000003
 40
0.5312500000000003
 40
0.5312500000000003
 40
0.5625000000000003
 40
0.5625000000000003
 40
0.5937500000000004
 40
0.5937500000000004
 40
0.6250000000000004
 40
0.6250000000000004
 40
0.6562500000000004
 40
0.6562500000000004
 40
0.6875000000000004
 40
0.6875000000000004
 40
0.7187500000000004
 40
0.7187500000000004
 40
0.7500000000000004
 40
0.7500000000000004
 40
0.7812500000000006
 40
0.7812500000000006
 40
0.8125000000000006
 40
0.8125000000000006
 40
0.8437500000000004
 40
0.8437500000000004
 40
0.8750000000000003
 40
0.8750000000000003
 40
0.9062500000000002
 40
0.9062500000000002
 40
0.9375000000000002
 40
0.9375000000000002
 40
0.9687500000000001
 40
0.9687500000000001
 40
1.0
 40
1.0
 40
1.03125
 40
1.03125
 10
145.8556521120326
 20
108.9006656787548
 30
0.0
 10
146.1940459126033
 20
109.1760036674662
 30
0.0
 10
146.3735577960524
 20
109.2954601078241
 30
0.0
 10
146.7513412964428
 20
109.5014215233678
 30
0.0
 10
146.9509989830981
 20
109.58833064208
 30
0.0
 10
147.3632248549971
 20
109.7266318938708
 30
0.0
 10
147.5729494574738
 20
109.7773493006616
 30
0.0
 10
147.9993140238816
 20
109.843589445032
 30
0.0
 10
148.2179465961543
 20
109.8590034171994
 30
0.0
 10
148.6516689979501
 20
109.8530745900682
 30
0.0
 10
148.866091448025
 20
109.8321443333667
 30
0.0
 10
149.2901112761736
 20
109.7546956346093
 30
0.0
 10
149.501737411395
 20
109.6973523356017
 30
0.0
 10
149.9082387341283
 20
109.54826802683
 30
0.0
 10
150.1028527392539
 20
109.4571217734121
 30
0.0
 10
150.4744809533678
 20
109.2408416127894
 30
0.0
 10
150.6533829804749
 20
109.1139735363513
 30
0.0
 10
150.9803241446737
 20
108.8312029929444
 30
0.0
 10
151.1284095547792
 20
108.6760450209466
 30
0.0
 10
151.3921831481736
 20
108.3365828301092
 30
0.0
 10
151.5089694027287
 20
108.1494440916496
 30
0.0
 10
151.695613158065
 20
107.7600669233138
 30
0.0
 10
151.7667606987756
 20
107.5572644984855
 30
0.0
 10
151.8618104089486
 20
107.1343273225969
 30
0.0
 10
151.8846158648027
 20
106.9148173276247
 30
0.0
 10
151.8780880381379
 20
106.4832265084298
 30
0.0
 10
151.8488939863006
 20
106.2654874855792
 30
0.0
 10
151.740968083248
 20
105.8439397516304
 30
0.0
 10
151.6634871273642
 20
105.6421574289421
 30
0.0
 10
151.464052094343
 20
105.2555480895754
 30
0.0
 10
151.3428652861751
 20
105.073243599438
 30
0.0
 10
151.0684431590815
 20
104.7395079367428
 30
0.0
 10
150.9125052491128
 20
104.5849710103406
 30
0.0
 10
150.5769353766514
 20
104.310615138644
 30
0.0
 10
150.3976519568239
 20
104.1903945836738
 30
0.0
 10
150.017252163994
 20
103.9819853789204
 30
0.0
 10
149.8161494359774
 20
103.8943314747782
 30
0.0
 10
149.4068728151364
 20
103.7563454653785
 30
0.0
 10
149.1969482691787
 20
103.7049741387556
 30
0.0
 10
148.766466982944
 20
103.6375734200442
 30
0.0
 10
148.5488880251601
 20
103.6222503144481
 30
0.0
 10
148.1174839901386
 20
103.6276299810664
 30
0.0
 10
147.9023550512129
 20
103.648114059793
 30
0.0
 10
147.4732905394623
 20
103.7261808760291
 30
0.0
 10
147.2634922425337
 20
103.7831893570831
 30
0.0
 10
146.8592288795447
 20
103.9310603440451
 30
0.0
 10
146.6637591481496
 20
104.022074897364
 30
0.0
 10
146.2871860148848
 20
104.2411018181112
 30
0.0
 10
146.1103159203284
 20
104.366900489989
 30
0.0
 10
145.7853653472893
 20
104.6476472995428
 30
0.0
 10
145.6362892222989
 20
104.8031038858221
 30
0.0
 10
145.3683462196081
 20
105.1481958174169
 30
0.0
 10
145.254287529734
 20
105.3318623321627
 30
0.0
 10
145.068358397653
 20
105.719527590897
 30
0.0
 10
144.995601927429
 20
105.9266762511365
 30
0.0
 10
144.9007390679984
 20
106.3516294852686
 30
0.0
 10
144.878614090557
 20
106.56634870884
 30
0.0
 10
144.8853854043015
 20
107.0003122016643
 30
0.0
 10
144.9152267206934
 20
107.2195225048692
 30
0.0
 10
145.023003394152
 20
107.6387005250887
 30
0.0
 10
145.1020175603429
 20
107.8439712363568
 30
0.0
 10
145.3022047558088
 20
108.23026426934
 30
0.0
 10
145.4221374450647
 20
108.4103156471332
 30
0.0
 10
145.6990357159979
 20
108.7460787926081
 30
0.0
 10
145.8556521120326
 20
108.9006656787548
 30
0.0
 10
146.1940459126033
 20
109.1760036674662
 30
0.0
  0
SPLINE
  5
BF
330
1F
100
AcDbEntity
  8
0
  6
Continuous
 62
     7
370
    15
100
AcDbSpline
210
0.0
220
0.0
230
1.0
 70
     8
 71
     3
 72
    38
 73
    34
 74
     0
 42
0.00000001
 43
0.00000001
 40
0.0
 40
0.0
 40
0.0
 40
0.0
 40
0.0258008254549813
 40
0.0496281096181524
 40
0.0714072079754202
 40
0.1156575565807785
 40
0.1381645295546226
 40
0.1609638311610626
 40
0.2072149327081101
 40
0.2306946308047551
 40
0.2559088415902529
 40
0.3070486928403386
 40
0.3330074506050127
 40
0.3609905886081482
 40
0.4177935323279782
 40
0.4466620191916501
 40
0.476631343320269
 40
0.5068000742068353
 40
0.5375958932437167
 40
0.5686084026905615
 40
0.5992016349238857
 40
0.6300128904966799
 40
0.6615292241960563
 40
0.6932981411054607
 40
0.7229999339321654
 40
0.78357801403232
 40
0.8145782759022294
 40
0.8416235463823166
 40
0.896874692196364
 40
0.9252064631743594
 40
0.9489124467938457
 40
0.9972684220379714
 40
0.9999999999999999
 40
0.9999999999999999
 40
0.9999999999999999
 40
0.9999999999999999
 10
144.8922855570883
 20
84.7418426050714
 30
0.0
 10
144.8902856505054
 20
84.741594561285
 30
0.0
 10
144.8864388129965
 20
84.74111744692902
 30
0.0
 10
144.9262540712594
 20
84.74606009744464
 30
0.0
 10
144.9953947881001
 20
84.75452926917089
 30
0.0
 10
145.1016982963714
 20
84.76727821576493
 30
0.0
 10
145.2418114080089
 20
84.78333172916285
 30
0.0
 10
145.40683870542
 20
84.80159641405592
 30
0.0
 10
145.6049687854831
 20
84.82224686179262
 30
0.0
 10
145.8350293023986
 20
84.84419042440513
 30
0.0
 10
146.0949384200362
 20
84.86732033175173
 30
0.0
 10
146.3875948110304
 20
84.89026731959908
 30
0.0
 10
146.7082774808368
 20
84.91134100345676
 30
0.0
 10
147.0592398919553
 20
84.93123779616337
 30
0.0
 10
147.4373687965082
 20
84.94710806777375
 30
0.0
 10
147.8317711569968
 20
84.95729038032728
 30
0.0
 10
148.1389876832368
 20
84.96180609430512
 30
0.0
 10
148.4544461806426
 20
84.96281083050863
 30
0.0
 10
148.773055553773
 20
84.96010073857748
 30
0.0
 10
149.0904163974946
 20
84.95366149831618
 30
0.0
 10
149.4028635048909
 20
84.9437078373364
 30
0.0
 10
149.7097918166871
 20
84.93047330142572
 30
0.0
 10
150.0107926765538
 20
84.91416507584927
 30
0.0
 10
150.2959305919318
 20
84.89565067257303
 30
0.0
 10
150.6509070603381
 20
84.86911275142096
 30
0.0
 10
150.9718342185928
 20
84.84059192311398
 30
0.0
 10
151.2421958088659
 20
84.81356792267766
 30
0.0
 10
151.4712231199584
 20
84.78921186555135
 30
0.0
 10
151.6503416461656
 20
84.76861734196763
 30
0.0
 10
151.7725252282571
 20
84.75396291502528
 30
0.0
 10
151.8525956241583
 20
84.74416451171487
 30
0.0
 10
151.8878761362191
 20
84.73974618550886
 30
0.0
 10
151.8808573250411
 20
84.74062075170607
 30
0.0
 10
151.8804820393065
 20
84.74066751350226
 30
0.0
  0
CIRCLE
  5
C0
330
1F
100
AcDbEntity
  8
0
  6
Continuous
 62
     7
370
    15
100
AcDbCircle
 10
148.3816657683
 20
106.7405200433
 30
0.0
 40
2.500000000000014
  0
LINE
  5
C1
330
1F
100
AcDbEntity
  8
0
  6
Continuous
 62
     7
370
    15
100
AcDbLine
 10
185.6068468236
 20
86.2405200433
 30
0.0
 11
185.6068468236
 21
127.2405200433
 31
0.0
  0
LINE
  5
C2
330
1F
100
AcDbEntity
  8
0
  6
Continuous
 62
     7
370
    15
100
AcDbLine
 10
58.1816657683
 20
74.4905200433
 30
0.0
 11
58.1816657683
 21
74.4922348415
 31
0.0
  0
LINE
  5
C3
330
1F
100
AcDbEntity
  8
0
  6
Continuous
 62
     7
370
    15
100
AcDbLine
 10
236.4316657683
 20
92.0893010267
 30
0.0
 11
236.4316657683
 21
121.39173906
 31
0.0
  0
LINE
  5
C4
330
1F
100
AcDbEntity
  8
0
  6
Continuous
 62
     7
370
    15
100
AcDbLine
 10
58.1816657683
 20
138.9905200433
 30
0.0
 11
58.1816657683
 21
138.9888052452
 31
0.0
  0
LINE
  5
C5
330
1F
100
AcDbEntity
  8
0
  6
Continuous
 62
     7
370
    15
100
AcDbLine
 10
236.4436839038
 20
120.2969806863
 30
0.0
 11
236.4316657683
 21
119.9910987123
 31
0.0
  0
LINE
  5
C6
330
1F
100
AcDbEntity
  8
0
  6
Continuous
 62
     7
370
    15
100
AcDbLine
 10
236.4500982518
 20
120.4602367448
 30
0.0
 11
236.4436839038
 21
120.2969806863
 31
0.0
  0
LINE
  5
C7
330
1F
100
AcDbEntity
  8
0
  6
Continuous
 62
     7
370
    15
100
AcDbLine
 10
236.4316657683
 20
94.9910987123
 30
0.0
 11
236.5089879755
 21
93.0231171254
 31
0.0
  0
LINE
  5
C8
330
1F
100
AcDbEntity
  8
0
  6
HIDDEN
 62
     7
370
     0
100
AcDbLine
 10
123.1696367474
 20
145.6914828042
 30
0.0
 11
123.1696367474
 21
138.0905200433
 31
0.0
  0
SPLINE
  5
C9
330
1F
100
AcDbEntity
  8
0
  6
HIDDEN
 62
     7
370
     0
100
AcDbSpline
210
0.0
220
0.0
230
1.0
 70
     8
 71
     3
 72
    80
 73
    76
 74
     0
 42
0.00000001
 43
0.00000001
 40
-0.0312499999999997
 40
-0.0312499999999997
 40
0.0
 40
0.0
 40
0.0312499999999998
 40
0.0312499999999998
 40
0.0468749999999999
 40
0.0468749999999999
 40
0.0625
 40
0.0625
 40
0.0937499999999999
 40
0.0937499999999999
 40
0.1249999999999999
 40
0.1249999999999999
 40
0.1562499999999999
 40
0.1562499999999999
 40
0.1874999999999998
 40
0.1874999999999998
 40
0.2187499999999998
 40
0.2187499999999998
 40
0.2499999999999998
 40
0.2499999999999998
 40
0.2812499999999999
 40
0.2812499999999999
 40
0.3124999999999999
 40
0.3124999999999999
 40
0.3281250000000001
 40
0.3281250000000001
 40
0.3437500000000002
 40
0.3437500000000002
 40
0.3750000000000005
 40
0.3750000000000005
 40
0.4062500000000008
 40
0.4062500000000008
 40
0.421875000000001
 40
0.421875000000001
 40
0.4375000000000012
 40
0.4375000000000012
 40
0.4687500000000017
 40
0.4687500000000017
 40
0.5000000000000021
 40
0.5000000000000021
 40
0.5312500000000023
 40
0.5312500000000023
 40
0.5625000000000024
 40
0.5625000000000024
 40
0.5937500000000027
 40
0.5937500000000027
 40
0.6250000000000028
 40
0.6250000000000028
 40
0.656250000000003
 40
0.656250000000003
 40
0.6875000000000031
 40
0.6875000000000031
 40
0.7031250000000031
 40
0.7031250000000031
 40
0.718750000000003
 40
0.718750000000003
 40
0.7500000000000027
 40
0.7500000000000027
 40
0.7812500000000024
 40
0.7812500000000024
 40
0.7968750000000023
 40
0.7968750000000023
 40
0.8125000000000023
 40
0.8125000000000023
 40
0.8437500000000019
 40
0.8437500000000019
 40
0.8750000000000016
 40
0.8750000000000016
 40
0.9062500000000011
 40
0.9062500000000011
 40
0.9375000000000008
 40
0.9375000000000008
 40
0.9687500000000003
 40
0.9687500000000003
 40
1.0
 40
1.0
 40
1.03125
 40
1.03125
 10
110.4316657683156
 20
154.3954899247084
 30
0.0
 10
110.4316657683156
 20
154.191201791481
 30
0.0
 10
110.4641208624961
 20
154.087662521358
 30
0.0
 10
110.5594661167304
 20
153.9306013948623
 30
0.0
 10
110.5990829748842
 20
153.8779582211995
 30
0.0
 10
110.6943410707093
 20
153.7721852042653
 30
0.0
 10
110.7502371818532
 20
153.7189155369078
 30
0.0
 10
110.9385158425903
 20
153.5620516561307
 30
0.0
 10
111.0921061907729
 20
153.4602525721858
 30
0.0
 10
111.4549398815499
 20
153.263604686524
 30
0.0
 10
111.6659941036777
 20
153.1683906317695
 30
0.0
 10
112.1269943939525
 20
152.9948860777327
 30
0.0
 10
112.3785726962734
 20
152.9154882215628
 30
0.0
 10
112.925045098668
 20
152.7735398645769
 30
0.0
 10
113.2157633907486
 20
152.7123187173402
 30
0.0
 10
113.8173065377307
 20
152.6132338915419
 30
0.0
 10
114.1325813834921
 20
152.5746326193337
 30
0.0
 10
114.778081050611
 20
152.5228725217394
 30
0.0
 10
115.1026295166945
 20
152.5099718321488
 30
0.0
 10
115.7552352500949
 20
152.5098274845701
 30
0.0
 10
116.0867042766066
 20
152.5230050918393
 30
0.0
 10
116.7281185406048
 20
152.5744056336385
 30
0.0
 10
117.0398929560561
 20
152.6123457630384
 30
0.0
 10
117.4940914279818
 20
152.6869786472896
 30
0.0
 10
117.643972553774
 20
152.7150030593982
 30
0.0
 10
117.9334267236343
 20
152.7758423807688
 30
0.0
 10
118.0734345560869
 20
152.8086916134024
 30
0.0
 10
118.4796405651736
 20
152.9140671129686
 30
0.0
 10
118.7321574563198
 20
152.9933661244419
 30
0.0
 10
119.1991726954613
 20
153.1690284911786
 30
0.0
 10
119.4059565342909
 20
153.2624760669265
 30
0.0
 10
119.6775880268696
 20
153.4094097956954
 30
0.0
 10
119.7616667358326
 20
153.4595291562441
 30
0.0
 10
119.9165982714079
 20
153.5619078531128
 30
0.0
 10
119.9875750592436
 20
153.6143389174695
 30
0.0
 10
120.1758774430615
 20
153.7712241890953
 30
0.0
 10
120.2705553903859
 20
153.8762726207736
 30
0.0
 10
120.3987113848251
 20
154.0863061351362
 30
0.0
 10
120.4315454864268
 20
154.1919048690784
 30
0.0
 10
120.4317853749914
 20
154.3936512029631
 30
0.0
 10
120.4002526614937
 20
154.490910401767
 30
0.0
 10
120.2724091758311
 20
154.6783810792899
 30
0.0
 10
120.1765167615177
 20
154.7670979172734
 30
0.0
 10
119.9275659323294
 20
154.9311974478755
 30
0.0
 10
119.7726738508582
 20
155.0078431247131
 30
0.0
 10
119.4075501970357
 20
155.1479236203008
 30
0.0
 10
119.2008457855085
 20
155.2102834242488
 30
0.0
 10
118.7403446878649
 20
155.321783811127
 30
0.0
 10
118.4834320702156
 20
155.3712836913302
 30
0.0
 10
117.9403888857295
 20
155.4547326144462
 30
0.0
 10
117.6534646521351
 20
155.489131309181
 30
0.0
 10
117.1997398949889
 20
155.530782101718
 30
0.0
 10
117.0437038771955
 20
155.5430405059056
 30
0.0
 10
116.7294677253813
 20
155.56383797961
 30
0.0
 10
116.570995189543
 20
155.5724265651281
 30
0.0
 10
116.091605127037
 20
155.5930464056978
 30
0.0
 10
115.7667538336765
 20
155.600001713796
 30
0.0
 10
115.1060954142732
 20
155.6001359191263
 30
0.0
 10
114.7805681801559
 20
155.5932951811125
 30
0.0
 10
114.3010370324678
 20
155.5728639074408
 30
0.0
 10
114.1425570779777
 20
155.564340911098
 30
0.0
 10
113.8283814094983
 20
155.5436883767919
 30
0.0
 10
113.6721800258086
 20
155.5314932831292
 30
0.0
 10
113.2177705362742
 20
155.490005042277
 30
0.0
 10
112.9305135880584
 20
155.4557178809118
 30
0.0
 10
112.3869581751859
 20
155.3725418138808
 30
0.0
 10
112.1296171815741
 20
155.3231638649448
 30
0.0
 10
111.6682219196459
 20
155.2118916859175
 30
0.0
 10
111.4611367903336
 20
155.1496634882369
 30
0.0
 10
111.0952674070046
 20
155.0099179472015
 30
0.0
 10
110.9396545702494
 20
154.9332977055073
 30
0.0
 10
110.6896913387054
 20
154.7694448596977
 30
0.0
 10
110.5934625382946
 20
154.6811319954097
 30
0.0
 10
110.4641247121719
 20
154.4933912872981
 30
0.0
 10
110.4316657683156
 20
154.3954899247084
 30
0.0
 10
110.4316657683156
 20
154.191201791481
 30
0.0
  0
LINE
  5
CA
330
1F
100
AcDbEntity
  8
0
  6
HIDDEN
 62
     7
370
     0
100
AcDbLine
 10
86.8450905177
 20
70.0047136811
 30
0.0
 11
86.5751348169
 21
69.9807875818
 31
0.0
  0
SPLINE
  5
CB
330
1F
100
AcDbEntity
  8
0
  6
HIDDEN
 62
     7
370
     0
100
AcDbSpline
210
0.0
220
0.0
230
1.0
 70
     8
 71
     3
 72
    12
 73
     8
 74
     0
 42
0.00000001
 43
0.00000001
 40
0.0
 40
0.0
 40
0.0
 40
0.0
 40
0.1661348616735903
 40
0.3322013257393936
 40
0.5008932044678248
 40
0.752137078264078
 40
1.0
 40
1.0
 40
1.0
 40
1.0
 10
84.95098743396282
 20
143.6718240664026
 30
0.0
 10
84.96138005807087
 20
143.6704459423411
 30
0.0
 10
84.98216102765083
 20
143.667690261591
 30
0.0
 10
85.15546051709774
 20
143.646086886629
 30
0.0
 10
85.47741210634146
 20
143.6082219346872
 30
0.0
 10
85.9985779422608
 20
143.547838167971
 30
0.0
 10
86.56413588209853
 20
143.5000450308215
 30
0.0
 10
86.84499930578656
 20
143.4763103377281
 30
0.0
  0
SPLINE
  5
CC
330
1F
100
AcDbEntity
  8
0
  6
HIDDEN
 62
     7
370
     0
100
AcDbSpline
210
0.0
220
0.0
230
1.0
 70
     8
 71
     3
 72
    23
 73
    19
 74
     0
 42
0.00000001
 43
0.00000001
 40
0.0
 40
0.0
 40
0.0
 40
0.0
 40
0.0633571260677583
 40
0.1285545266630668
 40
0.1919098540958634
 40
0.2571115402721682
 40
0.3202403144568474
 40
0.3852600750475551
 40
0.4473665375787847
 40
0.5112910021130348
 40
0.5731724132338449
 40
0.6367989951504451
 40
0.6995859083620213
 40
0.7641543874110672
 40
0.827580116550687
 40
0.8928778468939028
 40
0.9556888039615774
 40
1.0
 40
1.0
 40
1.0
 40
1.0
 10
96.68487142350662
 20
75.37419782258998
 30
0.0
 10
96.50946601391158
 20
75.40288349001548
 30
0.0
 10
96.15356035966022
 20
75.46108803032178
 30
0.0
 10
95.44888011926241
 20
75.5604010477542
 30
0.0
 10
94.6331133285888
 20
75.6558889313727
 30
0.0
 10
93.73074812142337
 20
75.73664771012379
 30
0.0
 10
92.75424730413297
 20
75.79427813430338
 30
0.0
 10
91.75396800006071
 20
75.82107029015019
 30
0.0
 10
90.74082231309464
 20
75.81487466358571
 30
0.0
 10
89.76356482718364
 20
75.77722793878743
 30
0.0
 10
88.82640514159256
 20
75.71199149100673
 30
0.0
 10
87.9670832784812
 20
75.62730190609993
 30
0.0
 10
87.19280766355642
 20
75.53075358300299
 30
0.0
 10
86.53807969414598
 20
75.43423152922263
 30
0.0
 10
86.01209535315775
 20
75.34691297002685
 30
0.0
 10
85.65091796635147
 20
75.28196047456487
 30
0.0
 10
85.45205654639186
 20
75.24442008200263
 30
0.0
 10
85.45101409417109
 20
75.2442038058406
 30
0.0
 10
85.45058288266743
 20
75.24411434296916
 30
0.0
  0
SPLINE
  5
CD
330
1F
100
AcDbEntity
  8
0
  6
HIDDEN
 62
     7
370
     0
100
AcDbSpline
210
0.0
220
0.0
230
1.0
 70
     8
 71
     3
 72
    32
 73
    28
 74
     0
 42
0.00000001
 43
0.00000001
 40
0.0
 40
0.0
 40
0.0
 40
0.0
 40
0.020356822172105
 40
0.0512207857583794
 40
0.1139954454389432
 40
0.1459779869097674
 40
0.1769364677636727
 40
0.2398766914470389
 40
0.2719275468465721
 40
0.3033698011481659
 40
0.3673099924152954
 40
0.3998847012176188
 40
0.4314690120325909
 40
0.4957360700021212
 40
0.5285028301030422
 40
0.5596434488300034
 40
0.6230067766607702
 40
0.6553079823205556
 40
0.6861132872619372
 40
0.748756262689177
 40
0.7806634244345373
 40
0.8117607067089887
 40
0.8749825776111492
 40
0.9071778073885584
 40
0.9301738434827028
 40
0.9765719131095674
 40
1.0
 40
1.0
 40
1.0
 40
1.0
 10
85.43683614226092
 20
138.2395357315974
 30
0.0
 10
85.43647909035467
 20
138.2396032105243
 30
0.0
 10
85.43558069476818
 20
138.239772997519
 30
0.0
 10
85.4981744413208
 20
138.2278787563316
 30
0.0
 10
85.63998562278431
 20
138.201231879412
 30
0.0
 10
85.86403021465982
 20
138.1608498079994
 30
0.0
 10
86.13857233049404
 20
138.112980566249
 30
0.0
 10
86.4872636195016
 20
138.0555106809691
 30
0.0
 10
86.903539581879
 20
137.9930161339146
 30
0.0
 10
87.36513362874179
 20
137.9284904522754
 30
0.0
 10
87.88867157783694
 20
137.8639100752921
 30
0.0
 10
88.4608690522917
 20
137.8051547104073
 30
0.0
 10
89.06307542274367
 20
137.7517818540251
 30
0.0
 10
89.70430192952516
 20
137.7089192921929
 30
0.0
 10
90.3653872475213
 20
137.6808552461718
 30
0.0
 10
91.03209820196787
 20
137.6632665886321
 30
0.0
 10
91.7059874225748
 20
137.6618199403914
 30
0.0
 10
92.3703369065226
 20
137.6767454795292
 30
0.0
 10
93.02187118068223
 20
137.7017522047529
 30
0.0
 10
93.65253039333824
 20
137.7408562474347
 30
0.0
 10
94.25006936916071
 20
137.7909574052184
 30
0.0
 10
94.82406733711545
 20
137.8471285717016
 30
0.0
 10
95.35501705050875
 20
137.9100426003904
 30
0.0
 10
95.79839793177285
 20
137.970146102444
 30
0.0
 10
96.14991857934649
 20
138.0210358194292
 30
0.0
 10
96.43958608932334
 20
138.0661582959671
 30
0.0
 10
96.62324885372104
 20
138.0966213078545
 30
0.0
 10
96.68487142350662
 20
138.1068422640841
 30
0.0
  0
SPLINE
  5
CE
330
1F
100
AcDbEntity
  8
0
  6
HIDDEN
 62
     7
370
     0
100
AcDbSpline
210
0.0
220
0.0
230
1.0
 70
     8
 71
     3
 72
    13
 73
     9
 74
     0
 42
0.00000001
 43
0.00000001
 40
0.0
 40
0.0
 40
0.0
 40
0.0
 40
0.1623836687590154
 40
0.3259036967521354
 40
0.4929930053128654
 40
0.6613109974968223
 40
0.8237250587268701
 40
1.0
 40
1.0
 40
1.0
 40
1.0
 10
96.68487142350662
 20
138.1068422640841
 30
0.0
 10
96.76046093400225
 20
138.119218036541
 30
0.0
 10
96.91216892960601
 20
138.1440561869825
 30
0.0
 10
97.09506780600185
 20
138.1713145318572
 30
0.0
 10
97.24413014678612
 20
138.1924343913822
 30
0.0
 10
97.34808034600626
 20
138.2064207747508
 30
0.0
 10
97.42341018431287
 20
138.2162134743433
 30
0.0
 10
97.41518151882694
 20
138.2151422847448
 30
0.0
 10
97.41089880662027
 20
138.2145847706769
 30
0.0
  0
SPLINE
  5
CF
330
1F
100
AcDbEntity
  8
0
  6
HIDDEN
 62
     7
370
     0
100
AcDbSpline
210
0.0
220
0.0
230
1.0
 70
     8
 71
     3
 72
    10
 73
     6
 74
     0
 42
0.00000001
 43
0.00000001
 40
0.0
 40
0.0
 40
0.0
 40
0.0
 40
0.3222608831213929
 40
0.6560358529521185
 40
1.0
 40
1.0
 40
1.0
 40
1.0
 10
97.42844887380538
 20
75.2641991976687
 30
0.0
 10
97.41389669421915
 20
75.26609591964176
 30
0.0
 10
97.3842723989752
 20
75.2699571317298
 30
0.0
 10
97.13476096610063
 20
75.30248053799829
 30
0.0
 10
96.83633014762717
 20
75.35005365520387
 30
0.0
 10
96.68487142350662
 20
75.37419782258996
 30
0.0
  0
LINE
  5
D0
330
1F
100
AcDbEntity
  8
0
  6
HIDDEN
 62
     7
370
     0
100
AcDbLine
 10
76.4282900953
 20
80.2405200433
 30
0.0
 11
76.4282900953
 21
133.2405200433
 31
0.0
  0
LINE
  5
D1
330
1F
100
AcDbEntity
  8
0
  6
HIDDEN
 62
     7
370
     0
100
AcDbLine
 10
115.7157433867
 20
80.2405200433
 30
0.0
 11
115.7157433867
 21
133.2405200433
 31
0.0
  0
LINE
  5
D2
330
1F
100
AcDbEntity
  8
0
  6
HIDDEN
 62
     7
370
     0
100
AcDbLine
 10
118.8816657683
 20
81.8655200433
 30
0.0
 11
118.8816657683
 21
131.6155200255
 31
0.0
  0
SPLINE
  5
D3
330
1F
100
AcDbEntity
  8
0
  6
HIDDEN
 62
     7
370
     0
100
AcDbSpline
210
0.0
220
0.0
230
1.0
 70
     8
 71
     3
 72
    20
 73
    16
 74
     0
 42
0.00000001
 43
0.00000001
 40
0.0
 40
0.0
 40
0.0
 40
0.0
 40
0.2499999999999978
 40
0.2499999999999978
 40
0.3749999999999982
 40
0.3749999999999982
 40
0.4999999999999986
 40
0.4999999999999986
 40
0.6249999999999989
 40
0.6249999999999989
 40
0.7499999999999992
 40
0.7499999999999992
 40
0.8749999999999997
 40
0.8749999999999997
 40
1.0
 40
1.0
 40
1.0
 40
1.0
 10
66.63166576831559
 20
131.9690336737513
 30
0.0
 10
66.63166576831559
 20
131.8898306872191
 30
0.0
 10
66.58468327310285
 20
131.8087344688161
 30
0.0
 10
66.44686168232528
 20
131.6885377770652
 30
0.0
 10
66.3905793984153
 20
131.6496110730631
 30
0.0
 10
66.25749454694807
 20
131.5744223406388
 30
0.0
 10
66.17965460471501
 20
131.5377801352968
 30
0.0
 10
66.00702224860066
 20
131.4701896024649
 30
0.0
 10
65.91262925150959
 20
131.4392314206893
 30
0.0
 10
65.70719194519445
 20
131.3837069993196
 30
0.0
 10
65.59484570520726
 20
131.3589984854864
 30
0.0
 10
65.36260484130763
 20
131.3192022583782
 30
0.0
 10
65.2418941988849
 20
131.3037824209812
 30
0.0
 10
64.99082333961589
 20
131.2827024461415
 30
0.0
 10
64.86130134320008
 20
131.2772252011205
 30
0.0
 10
64.7316657683156
 20
131.2772252011205
 30
0.0
  0
LINE
  5
D4
330
1F
100
AcDbEntity
  8
0
  6
HIDDEN
 62
     7
370
     0
100
AcDbLine
 10
64.7316657683
 20
131.2772252011
 30
0.0
 11
58.1816657683
 21
131.2772252011
 31
0.0
  0
LINE
  5
D5
330
1F
100
AcDbEntity
  8
0
  6
HIDDEN
 62
     7
370
     0
100
AcDbLine
 10
58.1816657683
 20
82.2038148856
 30
0.0
 11
69.7316657683
 21
82.2038148856
 31
0.0
  0
SPLINE
  5
D6
330
1F
100
AcDbEntity
  8
0
  6
HIDDEN
 62
     7
370
     0
100
AcDbSpline
210
0.0
220
0.0
230
1.0
 70
     8
 71
     3
 72
    18
 73
    14
 74
     0
 42
0.00000001
 43
0.00000001
 40
0.0
 40
0.0
 40
0.0
 40
0.0
 40
0.1249999999999982
 40
0.1249999999999982
 40
0.2499999999999964
 40
0.2499999999999964
 40
0.4999999999999988
 40
0.4999999999999988
 40
0.7500000000000011
 40
0.7500000000000011
 40
0.8750000000000006
 40
0.8750000000000006
 40
1.0
 40
1.0
 40
1.0
 40
1.0
 10
69.73166576831558
 20
82.20381488555353
 30
0.0
 10
69.86113308127281
 20
82.20381488555351
 30
0.0
 10
69.98814383016943
 20
82.19846188696089
 30
0.0
 10
70.23750715136669
 20
82.1777239142721
 30
0.0
 10
70.36113080599513
 20
82.1620520100178
 30
0.0
 10
70.71016314292916
 20
82.10235728161572
 30
0.0
 10
70.92067490773596
 20
82.04459210193474
 30
0.0
 10
71.26459158543547
 20
81.91007026065724
 30
0.0
 10
71.4009419869533
 20
81.83240114715183
 30
0.0
 10
71.53798004351582
 20
81.7131100130645
 30
0.0
 10
71.57319906222872
 20
81.67219100392944
 30
0.0
 10
71.61982263916727
 20
81.59153501063942
 30
0.0
 10
71.6316657683156
 20
81.55156649044656
 30
0.0
 10
71.63166576831559
 20
81.51200641292273
 30
0.0
  0
LINE
  5
D7
330
1F
100
AcDbEntity
  8
0
  6
HIDDEN
 62
     7
370
     0
100
AcDbLine
 10
58.1816657683
 20
82.2038148856
 30
0.0
 11
58.1816657683
 21
131.2772252011
 31
0.0
  0
LWPOLYLINE
  5
D8
330
1F
100
AcDbEntity
  8
0
  6
HIDDEN
 62
     7
370
     0
100
AcDbPolyline
 90
       14
 70
   128
 43
0.0
 10
115.4316657683
 20
146.6842506066
 10
116.5065179694
 20
146.7317969901
 10
117.5311112761
 20
146.8722129243
 10
118.4575368443
 20
147.0989327164
 10
119.242476044
 20
147.4013552008
 10
119.8492259905
 20
147.7653394382
 10
120.2494157309
 20
148.1738659303
 10
120.4243328376
 20
148.6078324323
 10
120.365798381
 20
149.046947153
 10
120.0765493674
 20
149.4706775759
 10
119.5701107591
 20
149.8592105375
 10
118.8701630626
 20
150.1943786684
 10
118.0094350542
 20
150.4605098792
 10
117.8776842367
 20
150.4916504226
  0
LWPOLYLINE
  5
D9
330
1F
100
AcDbEntity
  8
0
  6
HIDDEN
 62
     7
370
     0
100
AcDbPolyline
 90
       14
 70
   128
 43
0.0
 10
112.973154262
 20
150.4887906726
 10
112.8538964824
 20
150.4605098792
 10
111.993168474
 20
150.1943786684
 10
111.2932207775
 20
149.8592105375
 10
110.7867821692
 20
149.4706775759
 10
110.4975331556
 20
149.046947153
 10
110.4389986991
 20
148.6078324323
 10
110.6139158057
 20
148.1738659303
 10
111.0141055461
 20
147.7653394382
 10
111.6208554927
 20
147.4013552008
 10
112.4057946923
 20
147.0989327164
 10
113.3322202605
 20
146.8722129243
 10
114.3568135673
 20
146.7317969901
 10
115.4316657683
 20
146.6842506066
  0
LINE
  5
DA
330
1F
100
AcDbEntity
  8
0
  6
HIDDEN
 62
     7
370
     0
100
AcDbLine
 10
58.1816657683
 20
79.3705200433
 30
0.0
 11
58.1816657683
 21
74.4922348415
 31
0.0
  0
LINE
  5
DB
330
1F
100
AcDbEntity
  8
0
  6
HIDDEN
 62
     7
370
     0
100
AcDbLine
 10
71.6316657683
 20
79.3705200433
 30
0.0
 11
71.6316657683
 21
72.871186778
 31
0.0
  0
LINE
  5
DC
330
1F
100
AcDbEntity
  8
0
  6
HIDDEN
 62
     7
370
     0
100
AcDbLine
 10
66.6316657683
 20
134.1105200433
 30
0.0
 11
66.6316657683
 21
140.4851287803
 31
0.0
  0
LINE
  5
DD
330
1F
100
AcDbEntity
  8
0
  6
HIDDEN
 62
     7
370
     0
100
AcDbLine
 10
58.1816657683
 20
134.1105200433
 30
0.0
 11
58.1816657683
 21
138.9888052452
 31
0.0
  0
LINE
  5
DE
330
1F
100
AcDbEntity
  8
0
  6
HIDDEN
 62
     7
370
     0
100
AcDbLine
 10
130.7316657683
 20
93.7405200433
 30
0.0
 11
130.7316657683
 21
119.7405200433
 31
0.0
  0
LINE
  5
DF
330
1F
100
AcDbEntity
  8
0
  6
HIDDEN
 62
     7
370
     0
100
AcDbLine
 10
134.7316657683
 20
93.7405200433
 30
0.0
 11
134.7316657683
 21
119.7405200433
 31
0.0
  0
LINE
  5
E0
330
1F
100
AcDbEntity
  8
0
  6
HIDDEN
 62
     7
370
     0
100
AcDbLine
 10
119.6316657683
 20
95.4905200433
 30
0.0
 11
119.6316657683
 21
117.9905200433
 31
0.0
  0
ELLIPSE
  5
E1
330
1F
100
AcDbEntity
  8
0
  6
HIDDEN
 62
     7
370
     0
100
AcDbEllipse
 10
50.246992568
 20
106.7405200433
 30
0.0
 11
31.08108570811662
 21
-1.421085471520200E-14
 31
0.0
210
0.0
220
0.0
230
1.0
 40
0.8164965809
 41
4.915995335118103
 42
4.970536038964788
  0
ELLIPSE
  5
E2
330
1F
100
AcDbEntity
  8
0
  6
HIDDEN
 62
     7
370
     0
100
AcDbEllipse
 10
50.246992568
 20
106.7405200433
 30
0.0
 11
31.08108570811662
 21
1.421085471520200E-14
 31
0.0
210
0.0
220
0.0
230
1.0
 40
0.8164965809
 41
1.312649268214811
 42
1.367189972061495
  0
LINE
  5
E3
330
1F
100
AcDbEntity
  8
0
  6
HIDDEN
 62
     7
370
     0
100
AcDbLine
 10
135.3816657683
 20
62.8405200433
 30
0.0
 11
121.3816657683
 21
62.8405200433
 31
0.0
  0
LINE
  5
E4
330
1F
100
AcDbEntity
  8
0
  6
HIDDEN
 62
     7
370
     0
100
AcDbLine
 10
111.3816657683
 20
56.7505210435
 30
0.0
 11
111.3816657683
 21
62.8405200433
 31
0.0
  0
LINE
  5
E5
330
1F
100
AcDbEntity
  8
0
  6
HIDDEN
 62
     7
370
     0
100
AcDbLine
 10
121.3816657683
 20
62.8405200433
 30
0.0
 11
111.3816657683
 21
62.8405200433
 31
0.0
  0
LINE
  5
E6
330
1F
100
AcDbEntity
  8
0
  6
HIDDEN
 62
     7
370
     0
100
AcDbLine
 10
71.6316657683
 20
79.3705200433
 30
0.0
 11
71.6316657683
 21
81.5120064129
 31
0.0
  0
LINE
  5
E7
330
1F
100
AcDbEntity
  8
0
  6
HIDDEN
 62
     7
370
     0
100
AcDbLine
 10
58.1816657683
 20
79.3705200433
 30
0.0
 11
58.1816657683
 21
82.2038148856
 31
0.0
  0
LINE
  5
E8
330
1F
100
AcDbEntity
  8
0
  6
HIDDEN
 62
     7
370
     0
100
AcDbLine
 10
58.1816657683
 20
134.1105200433
 30
0.0
 11
58.1816657683
 21
131.2772252011
 31
0.0
  0
LINE
  5
E9
330
1F
100
AcDbEntity
  8
0
  6
HIDDEN
 62
     7
370
     0
100
AcDbLine
 10
66.6316657683
 20
134.1105200433
 30
0.0
 11
66.6316657683
 21
131.9690336738
 31
0.0
  0
LINE
  5
EA
330
1F
100
AcDbEntity
  8
0
  6
HIDDEN
 62
     7
370
     0
100
AcDbLine
 10
121.3816657683
 20
150.6405200433
 30
0.0
 11
111.3816657683
 21
150.6405200433
 31
0.0
  0
LINE
  5
EB
330
1F
100
AcDbEntity
  8
0
  6
HIDDEN
 62
     7
370
     0
100
AcDbLine
 10
135.3816657683
 20
150.6405200433
 30
0.0
 11
121.3816657683
 21
150.6405200433
 31
0.0
  0
LINE
  5
EC
330
1F
100
AcDbEntity
  8
0
  6
HIDDEN
 62
     7
370
     0
100
AcDbLine
 10
232.9316657683
 20
97.7405200433
 30
0.0
 11
232.9316657683
 21
115.7405200433
 31
0.0
  0
SPLINE
  5
ED
330
1F
100
AcDbEntity
  8
0
  6
HIDDEN
 62
     7
370
     0
100
AcDbSpline
210
0.0
220
0.0
230
1.0
 70
     8
 71
     3
 72
    23
 73
    19
 74
     0
 42
0.00000001
 43
0.00000001
 40
0.0
 40
0.0
 40
0.0
 40
0.0
 40
0.0522829417081072
 40
0.1049327902070943
 40
0.1587369660447998
 40
0.2129383069974321
 40
0.2652204654784501
 40
0.3715380198005857
 40
0.4256935205333031
 40
0.4784036824697718
 40
0.5855940487357152
 40
0.6402014146239849
 40
0.6931812674221322
 40
0.7465328693562451
 40
0.8010640323607552
 40
0.8560061005691803
 40
0.9085216131677514
 40
1.0
 40
1.0
 40
1.0
 40
1.0
 10
188.9316657683156
 20
115.9187551678041
 30
0.0
 10
188.9727829802758
 20
115.9189151602536
 30
0.0
 10
189.0553059530765
 20
115.9192362679342
 30
0.0
 10
189.179274374291
 20
115.9218362907032
 30
0.0
 10
189.3029593660669
 20
115.9259800665788
 30
0.0
 10
189.4236713907368
 20
115.9316803644917
 30
0.0
 10
189.5791930398123
 20
115.9410127079694
 30
0.0
 10
189.7264149533389
 20
115.9526437761166
 30
0.0
 10
189.8619235920943
 20
115.9656042505434
 30
0.0
 10
189.9892514370069
 20
115.9791273443255
 30
0.0
 10
190.1026360636002
 20
115.9929137980076
 30
0.0
 10
190.1989423679133
 20
116.0057501838931
 30
0.0
 10
190.2621788366867
 20
116.0146327785621
 30
0.0
 10
190.316044168216
 20
116.0225300168652
 30
0.0
 10
190.3607169571288
 20
116.0293137577116
 30
0.0
 10
190.3943725464639
 20
116.03456288147
 30
0.0
 10
190.4245887386121
 20
116.03937155573
 30
0.0
 10
190.4273209176806
 20
116.0398176473607
 30
0.0
 10
190.4290566532548
 20
116.0401010464694
 30
0.0
  0
LINE
  5
EE
330
1F
100
AcDbEntity
  8
0
  6
HIDDEN
 62
     7
370
     0
100
AcDbLine
 10
188.9711017247
 20
115.9190198512
 30
0.0
 11
188.7414448178
 21
115.9208203766
 31
0.0
  0
SPLINE
  5
EF
330
1F
100
AcDbEntity
  8
0
  6
HIDDEN
 62
     7
370
     0
100
AcDbSpline
210
0.0
220
0.0
230
1.0
 70
     8
 71
     3
 72
    22
 73
    18
 74
     0
 42
0.00000001
 43
0.00000001
 40
0.0
 40
0.0
 40
0.0
 40
0.0
 40
0.0460148675521923
 40
0.1521002441435816
 40
0.2061569604607348
 40
0.2582804518632511
 40
0.3642660572201158
 40
0.418247110411711
 40
0.4709324903197069
 40
0.5780707832775962
 40
0.6326502598323707
 40
0.685637031420594
 40
0.7389952700317574
 40
0.7935321737463682
 40
0.8484797419338078
 40
0.9236878998243215
 40
1.0
 40
1.0
 40
1.0
 40
1.0
 10
187.4321896212119
 20
116.0404356462339
 30
0.0
 10
187.4327814359592
 20
116.0403402664912
 30
0.0
 10
187.4347376551624
 20
116.0400249926914
 30
0.0
 10
187.4615002516313
 20
116.0357160298112
 30
0.0
 10
187.507680406659
 20
116.0285348183479
 30
0.0
 10
187.5672708816699
 20
116.0195207517044
 30
0.0
 10
187.6458902138845
 20
116.0081829733138
 30
0.0
 10
187.7421733627453
 20
115.9954088049887
 30
0.0
 10
187.8500188770024
 20
115.9819815703367
 30
0.0
 10
187.9739912692349
 20
115.9681573723889
 30
0.0
 10
188.1110988376647
 20
115.9551610444243
 30
0.0
 10
188.219748203554
 20
115.9461045873837
 30
0.0
 10
188.3334148172595
 20
115.9379883124478
 30
0.0
 10
188.4528631136085
 20
115.930957970008
 30
0.0
 10
188.5923821492528
 20
115.9246471820895
 30
0.0
 10
188.7524376605516
 20
115.9197726120312
 30
0.0
 10
188.8716335875511
 20
115.9190959591929
 30
0.0
 10
188.9316657683156
 20
115.9187551678041
 30
0.0
  0
SPLINE
  5
F0
330
1F
100
AcDbEntity
  8
0
  6
HIDDEN
 62
     7
370
     0
100
AcDbSpline
210
0.0
220
0.0
230
1.0
 70
     8
 71
     3
 72
    26
 73
    22
 74
     0
 42
0.00000001
 43
0.00000001
 40
0.0
 40
0.0
 40
0.0
 40
0.0
 40
0.0524570954627016
 40
0.1064474027299418
 40
0.158901141200768
 40
0.2128533973697892
 40
0.265724615265224
 40
0.3201108869408753
 40
0.3732641153094284
 40
0.4279842021114399
 40
0.4806728790408919
 40
0.5349194888436086
 40
0.5871203781963065
 40
0.6408229555924193
 40
0.6932731670089017
 40
0.7472102985268814
 40
0.8002553927445207
 40
0.854835225268386
 40
0.9079001265484418
 40
0.9625372372977374
 40
1.0
 40
1.0
 40
1.0
 40
1.0
 10
190.4316657683156
 20
97.44052004333703
 30
0.0
 10
190.4277164890264
 20
97.44116119353285
 30
0.0
 10
190.4197025012277
 20
97.4424622334113
 30
0.0
 10
190.355273616221
 20
97.4526559483084
 30
0.0
 10
190.2534777678126
 20
97.46784110992316
 30
0.0
 10
190.1149627398426
 20
97.48675402084511
 30
0.0
 10
189.9417898423291
 20
97.50749229218502
 30
0.0
 10
189.7408744063248
 20
97.527508025575
 30
0.0
 10
189.5144328940438
 20
97.54480064771035
 30
0.0
 10
189.2734050143918
 20
97.55704043631086
 30
0.0
 10
189.0208929939102
 20
97.56301463557138
 30
0.0
 10
188.7696201887105
 20
97.56199683616904
 30
0.0
 10
188.5215707452794
 20
97.55418382805479
 30
0.0
 10
188.2877456994956
 20
97.54065167528923
 30
0.0
 10
188.0696563654146
 20
97.52265769018298
 30
0.0
 10
187.8764263964771
 20
97.50239758250066
 30
0.0
 10
187.7106052151577
 20
97.48181110594109
 30
0.0
 10
187.579659681106
 20
97.4634531793077
 30
0.0
 10
187.4875678018337
 20
97.44946620270633
 30
0.0
 10
187.4371049357424
 20
97.44140062509047
 30
0.0
 10
187.436206296027
 20
97.44125210855763
 30
0.0
 10
187.4358407632076
 20
97.44119169762094
 30
0.0
  0
LINE
  5
F1
330
1F
100
AcDbEntity
  8
0
  6
HIDDEN
 62
     7
370
     0
100
AcDbLine
 10
186.9316657683
 20
97.8405200433
 30
0.0
 11
186.9316657683
 21
115.6405197282
 31
0.0
  0
LINE
  5
F2
330
1F
100
AcDbEntity
  8
0
  6
HIDDEN
 62
     7
370
     0
100
AcDbLine
 10
197.4316657683
 20
97.7405200433
 30
0.0
 11
197.4316657683
 21
115.7405200433
 31
0.0
  0
SPLINE
  5
F3
330
1F
100
AcDbEntity
  8
0
  6
HIDDEN
 62
     7
370
     0
100
AcDbSpline
210
0.0
220
0.0
230
1.0
 70
     8
 71
     3
 72
    30
 73
    26
 74
     0
 42
0.00000001
 43
0.00000001
 40
0.0
 40
0.0
 40
0.0
 40
0.0
 40
0.0531447579710286
 40
0.1125253797131272
 40
0.1779224397116067
 40
0.2129463966942924
 40
0.2494993914504459
 40
0.291265086659374
 40
0.3261073096855474
 40
0.3540223481619386
 40
0.3750075548588426
 40
0.4414649788272059
 40
0.5001823658063147
 40
0.5546968713669163
 40
0.6144408573423134
 40
0.6794659595165392
 40
0.71402283460044
 40
0.7499196792688061
 40
0.7913840357566979
 40
0.826050848459345
 40
0.8539163335767396
 40
0.8749776390184348
 40
0.9411638663008652
 40
0.9999141571670602
 40
1.0
 40
1.0
 40
1.0
 40
1.0
 10
97.43120605769661
 20
69.64059315790516
 30
0.0
 10
97.41500911382717
 20
69.64549376487211
 30
0.0
 10
97.38071472001143
 20
69.65587000292145
 30
0.0
 10
97.07939535726743
 20
69.73152429054072
 30
0.0
 10
96.63722643677296
 20
69.82781062101924
 30
0.0
 10
96.14239377269315
 20
69.92747544895153
 30
0.0
 10
95.67191808308561
 20
70.01975359527832
 30
0.0
 10
95.1409966645042
 20
70.11538562802951
 30
0.0
 10
94.6028461609506
 20
70.20103587111396
 30
0.0
 10
94.14479882696119
 20
70.26832766412178
 30
0.0
 10
93.4892345057378
 20
70.35667583310345
 30
0.0
 10
92.60592806781371
 20
70.45333391734395
 30
0.0
 10
91.47726633507602
 20
70.54010909411006
 30
0.0
 10
90.38750458533649
 20
70.57818779182223
 30
0.0
 10
89.29147630690423
 20
70.58003822658597
 30
0.0
 10
88.38608505996093
 20
70.5538767710008
 30
0.0
 10
87.68978234954581
 20
70.51726954587191
 30
0.0
 10
87.16310262127077
 20
70.47825267039484
 30
0.0
 10
86.69645650623812
 20
70.43604354292293
 30
0.0
 10
86.32524123051431
 20
70.39903945335352
 30
0.0
 10
86.07119475327227
 20
70.3703386929092
 30
0.0
 10
85.7701396005628
 20
70.33395874231934
 30
0.0
 10
85.51465580575982
 20
70.30117857533257
 30
0.0
 10
85.41543508081199
 20
70.28484069062452
 30
0.0
 10
85.4317156380962
 20
70.28743427679717
 30
0.0
 10
85.43173939168216
 20
70.2874380608797
 30
0.0
  0
SPLINE
  5
F4
330
1F
100
AcDbEntity
  8
0
  6
HIDDEN
 62
     7
370
     0
100
AcDbSpline
210
0.0
220
0.0
230
1.0
 70
     8
 71
     3
 72
    30
 73
    26
 74
     0
 42
0.00000001
 43
0.00000001
 40
0.0
 40
0.0
 40
0.0
 40
0.0
 40
0.0001123288057695
 40
0.0285431152663135
 40
0.0588466796063202
 40
0.091027196450477
 40
0.1250880910051604
 40
0.1546766141497773
 40
0.1963554560485685
 40
0.2501101496291966
 40
0.320525387238388
 40
0.3856104300246703
 40
0.445403860889207
 40
0.4999571692316274
 40
0.5283494388508946
 40
0.558634027028705
 40
0.5908185964995195
 40
0.6249094714581434
 40
0.6541844575853767
 40
0.6958630078636641
 40
0.7499307292180327
 40
0.8215905285694356
 40
0.8871422909715975
 40
0.9466378748868088
 40
1.0
 40
1.0
 40
1.0
 40
1.0
 10
85.43176110041546
 20
143.1935317523654
 30
0.0
 10
85.43172924065732
 20
143.1935386994916
 30
0.0
 10
85.42363357238645
 20
143.1953039868838
 30
0.0
 10
85.45229505005587
 20
143.1898490681588
 30
0.0
 10
85.52568189621009
 20
143.1793062208127
 30
0.0
 10
85.66933843976082
 20
143.1596210131592
 30
0.0
 10
85.87037413971832
 20
143.134781749304
 30
0.0
 10
86.15300468898735
 20
143.1005732841652
 30
0.0
 10
86.56641381456201
 20
143.0568933874052
 30
0.0
 10
87.24270131574424
 20
142.9938503198719
 30
0.0
 10
88.18113221666019
 20
142.9325531494392
 30
0.0
 10
89.29062543015608
 20
142.9012647059387
 30
0.0
 10
90.38810616084481
 20
142.9029198735354
 30
0.0
 10
91.28813739930213
 20
142.9342260756327
 30
0.0
 10
91.99947832515305
 20
142.9810592244352
 30
0.0
 10
92.56489522614383
 20
143.0282260863311
 30
0.0
 10
93.15381864897215
 20
143.0876650928811
 30
0.0
 10
93.71822830144966
 20
143.1540222994891
 30
0.0
 10
94.31242449538583
 20
143.2359417059206
 30
0.0
 10
94.97903265635632
 20
143.337589688671
 30
0.0
 10
95.78036540205656
 20
143.4797285992713
 30
0.0
 10
96.53287538656448
 20
143.6309731700377
 30
0.0
 10
97.07816188153065
 20
143.7488240432971
 30
0.0
 10
97.3808834130295
 20
143.8250532750463
 30
0.0
 10
97.41517386364252
 20
143.8355055845409
 30
0.0
 10
97.43138730029256
 20
143.8404477143411
 30
0.0
  0
LINE
  5
F5
330
1F
100
AcDbEntity
  8
0
  6
HIDDEN
 62
     7
370
     0
100
AcDbLine
 10
166.5312354588
 20
100.7405200433
 30
0.0
 11
166.5312354588
 21
112.7405200433
 31
0.0
  0
LINE
  5
F6
330
1F
100
AcDbEntity
  8
0
  6
HIDDEN
 62
     7
370
     0
100
AcDbLine
 10
166.8316657683
 20
101.2405200433
 30
0.0
 11
166.8316657683
 21
112.2405200433
 31
0.0
  0
LINE
  5
F7
330
1F
100
AcDbEntity
  8
0
  6
HIDDEN
 62
     7
370
     0
100
AcDbLine
 10
148.3816657683
 20
128.1631697741
 30
0.0
 11
150.8816657683
 21
128.1631697741
 31
0.0
  0
LINE
  5
F8
330
1F
100
AcDbEntity
  8
0
  6
HIDDEN
 62
     7
370
     0
100
AcDbLine
 10
145.8816657683
 20
128.1631697741
 30
0.0
 11
148.3816657683
 21
128.1631697741
 31
0.0
  0
LINE
  5
F9
330
1F
100
AcDbEntity
  8
0
  6
HIDDEN
 62
     7
370
     0
100
AcDbLine
 10
150.8816657683
 20
85.3178703125
 30
0.0
 11
145.8816657683
 21
85.3178703125
 31
0.0
  0
LINE
  5
FA
330
1F
100
AcDbEntity
  8
0
  6
HIDDEN
 62
     7
370
     0
100
AcDbLine
 10
148.3816657683
 20
116.7405200433
 30
0.0
 11
150.8816657683
 21
116.7405200433
 31
0.0
  0
LINE
  5
FB
330
1F
100
AcDbEntity
  8
0
  6
HIDDEN
 62
     7
370
     0
100
AcDbLine
 10
145.8816657683
 20
116.7405200433
 30
0.0
 11
148.3816657683
 21
116.7405200433
 31
0.0
  0
LINE
  5
FC
330
1F
100
AcDbEntity
  8
0
  6
HIDDEN
 62
     7
370
     0
100
AcDbLine
 10
150.8816657683
 20
96.7405200433
 30
0.0
 11
145.8816657683
 21
96.7405200433
 31
0.0
  0
SPLINE
  5
FD
330
1F
100
AcDbEntity
  8
0
  6
HIDDEN
 62
     7
370
     0
100
AcDbSpline
210
0.0
220
0.0
230
1.0
 70
    11
 71
     3
 72
    42
 73
    38
 74
     0
 42
0.00000001
 43
0.00000001
 40
0.0
 40
0.0
 40
0.0
 40
0.0
 40
0.0625000000000029
 40
0.0625000000000029
 40
0.1250000000000057
 40
0.1250000000000057
 40
0.1875000000000086
 40
0.1875000000000086
 40
0.2187500000000093
 40
0.2187500000000093
 40
0.2500000000000099
 40
0.2500000000000099
 40
0.3125000000000087
 40
0.3125000000000087
 40
0.3750000000000073
 40
0.3750000000000073
 40
0.4375000000000061
 40
0.4375000000000061
 40
0.5000000000000048
 40
0.5000000000000048
 40
0.5625000000000034
 40
0.5625000000000034
 40
0.6250000000000021
 40
0.6250000000000021
 40
0.6875000000000008
 40
0.6875000000000008
 40
0.7499999999999993
 40
0.7499999999999993
 40
0.7812499999999997
 40
0.7812499999999997
 40
0.8125
 40
0.8125
 40
0.875
 40
0.875
 40
0.9375
 40
0.9375
 40
1.0
 40
1.0
 40
1.0
 40
1.0
 10
187.5705546243399
 20
122.240520043337
 30
0.0
 10
187.6242491446391
 20
122.1706505165482
 30
0.0
 10
187.6894497187794
 20
122.0837516475183
 30
0.0
 10
187.8244563209305
 20
121.8877135293782
 30
0.0
 10
187.8953751533047
 20
121.7777894171073
 30
0.0
 10
188.0200562760794
 20
121.5350497393717
 30
0.0
 10
188.0747471748634
 20
121.3996947806225
 30
0.0
 10
188.1044375407197
 20
121.1826694700637
 30
0.0
 10
188.1050329598971
 20
121.1077460527642
 30
0.0
 10
188.086997241315
 20
120.9633974485313
 30
0.0
 10
188.0683464658274
 20
120.8919096151599
 30
0.0
 10
187.9960644479931
 20
120.6917542791203
 30
0.0
 10
187.9265982364736
 20
120.5716213153029
 30
0.0
 10
187.7879984775104
 20
120.3589441676094
 30
0.0
 10
187.7160043829147
 20
120.2632410306964
 30
0.0
 10
187.5895548927647
 20
120.1019949565434
 30
0.0
 10
187.5337225375068
 20
120.0350107847235
 30
0.0
 10
187.4544060711758
 20
119.9409590812373
 30
0.0
 10
187.4319206696448
 20
119.9150669411607
 30
0.0
 10
187.4314153726943
 20
119.9144799697509
 30
0.0
 10
187.4534265109296
 20
119.939820546493
 30
0.0
 10
187.5319856015318
 20
120.0329289411541
 30
0.0
 10
187.5877933381609
 20
120.0997876727254
 30
0.0
 10
187.7161420755453
 20
120.263378086286
 30
0.0
 10
187.7870414830591
 20
120.3574733283186
 30
0.0
 10
187.9275863664213
 20
120.5731399315963
 30
0.0
 10
187.9962221888655
 20
120.6917338093704
 30
0.0
 10
188.0689172544484
 20
120.8937218864122
 30
0.0
 10
188.0871587831388
 20
120.963629809758
 30
0.0
 10
188.1052500720445
 20
121.1105665066138
 30
0.0
 10
188.1043990567337
 20
121.1837125620113
 30
0.0
 10
188.0743047167989
 20
121.4013854013257
 30
0.0
 10
188.0192521789673
 20
121.5369286196288
 30
0.0
 10
187.8942092245309
 20
121.7797409627554
 30
0.0
 10
187.8243682832726
 20
121.8878929797483
 30
0.0
 10
187.6882593519798
 20
122.0854280338712
 30
0.0
 10
187.6245087109109
 20
122.1703127581981
 30
0.0
 10
187.5705546243399
 20
122.240520043337
 30
0.0
  0
SPLINE
  5
FE
330
1F
100
AcDbEntity
  8
0
  6
HIDDEN
 62
     7
370
     0
100
AcDbSpline
210
0.0
220
0.0
230
1.0
 70
     8
 71
     3
 72
    28
 73
    24
 74
     0
 42
0.00000001
 43
0.00000001
 40
0.0
 40
0.0
 40
0.0
 40
0.0
 40
0.0624999999999998
 40
0.0624999999999998
 40
0.1249999999999997
 40
0.1249999999999997
 40
0.2499999999999993
 40
0.2499999999999993
 40
0.3749999999999989
 40
0.3749999999999989
 40
0.4999999999999985
 40
0.4999999999999985
 40
0.5624999999999989
 40
0.5624999999999989
 40
0.6249999999999994
 40
0.6249999999999994
 40
0.6874999999999999
 40
0.6874999999999999
 40
0.7500000000000004
 40
0.7500000000000004
 40
0.8750000000000002
 40
0.8750000000000002
 40
1.0
 40
1.0
 40
1.0
 40
1.0
 10
190.4316657683156
 20
119.7969005174361
 30
0.0
 10
190.4316657683155
 20
119.7969005174361
 30
0.0
 10
190.4252931450257
 20
119.8047841057495
 30
0.0
 10
190.4010295471806
 20
119.8350386964693
 30
0.0
 10
190.3828266185302
 20
119.8578045988516
 30
0.0
 10
190.3153692347937
 20
119.9433542842045
 30
0.0
 10
190.2520620469412
 20
120.0247126407961
 30
0.0
 10
190.1136846647108
 20
120.2150666244528
 30
0.0
 10
190.0364351495561
 20
120.3264331563512
 30
0.0
 10
189.8933534101062
 20
120.5720424542443
 30
0.0
 10
189.8243008668688
 20
120.7099897029451
 30
0.0
 10
189.7686033327898
 20
120.9385222054069
 30
0.0
 10
189.7589691785892
 20
121.0183299484868
 30
0.0
 10
189.7633029374676
 20
121.17577473485
 30
0.0
 10
189.7774312592915
 20
121.2553650670574
 30
0.0
 10
189.8220442146991
 20
121.4044182626777
 30
0.0
 10
189.8524846681802
 20
121.4757059665045
 30
0.0
 10
189.9192247143304
 20
121.6080503343697
 30
0.0
 10
189.9558074480354
 20
121.6700057348786
 30
0.0
 10
190.0688172564718
 20
121.8466161436105
 30
0.0
 10
190.1463490857415
 20
121.9493412334878
 30
0.0
 10
190.2840873927964
 20
122.1245080195541
 30
0.0
 10
190.3429980372689
 20
122.1946365878032
 30
0.0
 10
190.3818648660132
 20
122.240520043337
 30
0.0
  0
LINE
  5
FF
330
1F
100
AcDbEntity
  8
0
  6
HIDDEN
 62
     7
370
     0
100
AcDbLine
 10
190.381864866
 20
122.2405200433
 30
0.0
 11
187.5705546243
 21
122.2405200433
 31
0.0
  0
SPLINE
  5
100
330
1F
100
AcDbEntity
  8
0
  6
HIDDEN
 62
     7
370
     0
100
AcDbSpline
210
0.0
220
0.0
230
1.0
 70
    11
 71
     3
 72
    30
 73
    26
 74
     0
 42
0.00000001
 43
0.00000001
 40
0.0
 40
0.0
 40
0.0
 40
0.0
 40
0.0624999999999978
 40
0.0624999999999978
 40
0.1249999999999956
 40
0.1249999999999956
 40
0.2499999999999911
 40
0.2499999999999911
 40
0.3749999999999866
 40
0.3749999999999866
 40
0.4374999999999856
 40
0.4374999999999856
 40
0.4999999999999847
 40
0.4999999999999847
 40
0.6249999999999827
 40
0.6249999999999827
 40
0.6874999999999832
 40
0.6874999999999832
 40
0.7499999999999838
 40
0.7499999999999838
 40
0.8749999999999895
 40
0.8749999999999895
 40
0.9374999999999947
 40
0.9374999999999947
 40
1.0
 40
1.0
 40
1.0
 40
1.0
 10
188.09640198711
 20
92.24052004333703
 30
0.0
 10
188.1073382549151
 20
92.33161930341736
 30
0.0
 10
188.1031394606576
 20
92.42325188502124
 30
0.0
 10
188.0669722748006
 20
92.60100798122262
 30
0.0
 10
188.0360365965751
 20
92.68526241708513
 30
0.0
 10
187.9268557381424
 20
92.92023211984697
 30
0.0
 10
187.8341182560154
 20
93.05565432588457
 30
0.0
 10
187.6634477806788
 20
93.28843626298975
 30
0.0
 10
187.5827983312
 20
93.38683483115817
 30
0.0
 10
187.4957346625854
 20
93.49126517539142
 30
0.0
 10
187.4719721207688
 20
93.51919864454783
 30
0.0
 10
187.4402346616573
 20
93.55634917923999
 30
0.0
 10
187.4317415288132
 20
93.56618124209798
 30
0.0
 10
187.4315157633378
 20
93.56644349938857
 30
0.0
 10
187.46624743906
 20
93.52662349690432
 30
0.0
 10
187.5534196963027
 20
93.4220789705827
 30
0.0
 10
187.5884627696414
 20
93.379478980534
 30
0.0
 10
187.6643173189476
 20
93.2841669686283
 30
0.0
 10
187.7054492458822
 20
93.23113065166052
 30
0.0
 10
187.8343140809546
 20
93.05542441151424
 30
0.0
 10
187.9263576431127
 20
92.92123260705537
 30
0.0
 10
188.0361214339339
 20
92.68511549236592
 30
0.0
 10
188.0668463001037
 20
92.60144742302181
 30
0.0
 10
188.1031212073177
 20
92.42352058777992
 30
0.0
 10
188.1073495000429
 20
92.33171297548711
 30
0.0
 10
188.0964019871098
 20
92.24052004333699
 30
0.0
  0
LINE
  5
101
330
1F
100
AcDbEntity
  8
0
  6
HIDDEN
 62
     7
370
     0
100
AcDbLine
 10
188.0964019871
 20
92.2405200433
 30
0.0
 11
189.7774372892
 21
92.2405200433
 31
0.0
  0
SPLINE
  5
102
330
1F
100
AcDbEntity
  8
0
  6
HIDDEN
 62
     7
370
     0
100
AcDbSpline
210
0.0
220
0.0
230
1.0
 70
    11
 71
     3
 72
    32
 73
    28
 74
     0
 42
0.00000001
 43
0.00000001
 40
0.0
 40
0.0
 40
0.0
 40
0.0
 40
0.0625000000000001
 40
0.0625000000000001
 40
0.1250000000000003
 40
0.1250000000000003
 40
0.2500000000000006
 40
0.2500000000000006
 40
0.3750000000000008
 40
0.3750000000000008
 40
0.4375000000000007
 40
0.4375000000000007
 40
0.5000000000000007
 40
0.5000000000000007
 40
0.6250000000000004
 40
0.6250000000000004
 40
0.6875000000000004
 40
0.6875000000000004
 40
0.7500000000000003
 40
0.7500000000000003
 40
0.8125000000000002
 40
0.8125000000000002
 40
0.8750000000000001
 40
0.8750000000000001
 40
0.9375000000000001
 40
0.9375000000000001
 40
1.0
 40
1.0
 40
1.0
 40
1.0
 10
189.7774372892276
 20
92.24052004333703
 30
0.0
 10
189.7588487045616
 20
92.33410494197993
 30
0.0
 10
189.7559650002429
 20
92.43047906921221
 30
0.0
 10
189.7822443537524
 20
92.618968499938
 30
0.0
 10
189.8104532983042
 20
92.70970696590152
 30
0.0
 10
189.9148412264047
 20
92.96262291411942
 30
0.0
 10
190.0090522037384
 20
93.11072565384787
 30
0.0
 10
190.183848281089
 20
93.36666650833364
 30
0.0
 10
190.2686987114125
 20
93.47746027163608
 30
0.0
 10
190.3618351326709
 20
93.59683754354637
 30
0.0
 10
190.3875619035935
 20
93.62914178584705
 30
0.0
 10
190.4222604024236
 20
93.6725155295169
 30
0.0
 10
190.4316359828976
 20
93.68410262888601
 30
0.0
 10
190.431725118282
 20
93.68421317601612
 30
0.0
 10
190.3937053910533
 20
93.63767590789313
 30
0.0
 10
190.2998904814506
 20
93.5174457725214
 30
0.0
 10
190.2635472848925
 20
93.47021476064411
 30
0.0
 10
190.1839899182068
 20
93.36327633207229
 30
0.0
 10
190.1404358050965
 20
93.30309235803296
 30
0.0
 10
190.0527728992653
 20
93.17475107717681
 30
0.0
 10
190.0082367931646
 20
93.10617141637695
 30
0.0
 10
189.9220433718462
 20
92.95827684226899
 30
0.0
 10
189.8801873194407
 20
92.87860423938069
 30
0.0
 10
189.8105824271454
 20
92.71007717156772
 30
0.0
 10
189.782322951437
 20
92.61900654691273
 30
0.0
 10
189.7560761934042
 20
92.43179850418977
 30
0.0
 10
189.758838849671
 20
92.33415455676753
 30
0.0
 10
189.777437289225
 20
92.24052004333704
 30
0.0
  0
LINE
  5
103
330
1F
100
AcDbEntity
  8
0
  6
HIDDEN
 62
     7
370
     0
100
AcDbLine
 10
187.4203682228
 20
93.5658253664
 30
0.0
 11
187.5185177622
 21
91.0677527758
 31
0.0
  0
SPLINE
  5
104
330
1F
100
AcDbEntity
  8
0
  6
HIDDEN
 62
     7
370
     0
100
AcDbSpline
210
0.0
220
0.0
230
1.0
 70
     8
 71
     3
 72
    12
 73
     8
 74
     0
 42
0.00000001
 43
0.00000001
 40
0.0
 40
0.0
 40
0.0
 40
0.0
 40
0.2500000000000059
 40
0.2500000000000059
 40
0.5000000000000119
 40
0.5000000000000119
 40
1.0
 40
1.0
 40
1.0
 40
1.0
 10
188.0964019871116
 20
92.24052004333745
 30
0.0
 10
188.2330866189395
 20
92.19263838526933
 30
0.0
 10
188.3707747514197
 20
92.14999557669553
 30
0.0
 10
188.6510619488993
 20
92.08720365519187
 30
0.0
 10
188.7953018907494
 20
92.06757770348493
 30
0.0
 10
189.2312498111237
 20
92.06678674803946
 30
0.0
 10
189.5063418161444
 20
92.14286508143012
 30
0.0
 10
189.777437289226
 20
92.24052004333744
 30
0.0
  0
SPLINE
  5
105
330
1F
100
AcDbEntity
  8
0
  6
HIDDEN
 62
     7
370
     0
100
AcDbSpline
210
0.0
220
0.0
230
1.0
 70
     8
 71
     3
 72
     9
 73
     5
 74
     0
 42
0.00000001
 43
0.00000001
 40
0.0
 40
0.0
 40
0.0
 40
0.0
 40
0.9208243725541457
 40
1.0
 40
1.0
 40
1.0
 40
1.0
 10
190.3818648660132
 20
122.240520043337
 30
0.0
 10
190.41109862618
 20
122.2747330307778
 30
0.0
 10
190.4428460049832
 20
122.3118877678378
 30
0.0
 10
190.4295148401304
 20
122.2963201036307
 30
0.0
 10
190.4284593367886
 20
122.2950875240493
 30
0.0
  0
SPLINE
  5
106
330
1F
100
AcDbEntity
  8
0
  6
HIDDEN
 62
     7
370
     0
100
AcDbSpline
210
0.0
220
0.0
230
1.0
 70
     8
 71
     3
 72
     9
 73
     5
 74
     0
 42
0.00000001
 43
0.00000001
 40
0.0
 40
0.0
 40
0.0
 40
0.0
 40
0.7274607234693495
 40
1.0
 40
1.0
 40
1.0
 40
1.0
 10
187.4413078833156
 20
122.2838620960222
 30
0.0
 10
187.4445992672566
 20
122.2834884893752
 30
0.0
 10
187.4491237506202
 20
122.2829749129923
 30
0.0
 10
187.5005461815707
 20
122.3062365391079
 30
0.0
 10
187.5145608136994
 20
122.3125762458604
 30
0.0
  0
LINE
  5
107
330
1F
100
AcDbEntity
  8
0
  6
HIDDEN
 62
     7
370
     0
100
AcDbLine
 10
187.5145608137
 20
122.3125762459
 30
0.0
 11
187.4214520789
 21
119.9428007007
 31
0.0
  0
SPLINE
  5
108
330
1F
100
AcDbEntity
  8
0
  6
HIDDEN
 62
     7
370
     0
100
AcDbSpline
210
0.0
220
0.0
230
1.0
 70
     8
 71
     3
 72
     8
 73
     4
 74
     0
 42
0.00000001
 43
0.00000001
 40
0.0
 40
0.0
 40
0.0
 40
0.0
 40
1.0
 40
1.0
 40
1.0
 40
1.0
 10
187.5145608136993
 20
122.3125762458603
 30
0.0
 10
187.5314777519084
 20
122.291035020698
 30
0.0
 10
187.5502687833351
 20
122.2669168172279
 30
0.0
 10
187.5705546243399
 20
122.240520043337
 30
0.0
  0
LINE
  5
109
330
1F
100
AcDbEntity
  8
0
  6
HIDDEN
 62
     7
370
     0
100
AcDbLine
 10
187.5705546243
 20
122.2405200433
 30
0.0
 11
187.4316657683
 21
122.2405200433
 31
0.0
  0
LINE
  5
10A
330
1F
100
AcDbEntity
  8
0
  6
HIDDEN
 62
     7
370
     0
100
AcDbLine
 10
190.4316657683
 20
122.2405200433
 30
0.0
 11
190.381864866
 21
122.2405200433
 31
0.0
  0
LWPOLYLINE
  5
10B
330
1F
100
AcDbEntity
  8
0
  6
HIDDEN
 62
     7
370
     0
100
AcDbPolyline
 90
       30
 70
   128
 43
0.0
 10
115.4316657683
 20
148.9630559514
 10
116.5065179694
 20
148.9991791794
 10
117.5311112761
 20
149.1058597815
 10
118.4575368443
 20
149.2781094912
 10
119.242476044
 20
149.5078741036
 10
119.8492259905
 20
149.7844100808
 10
120.2494157309
 20
150.0947869078
 10
120.4243328376
 20
150.4244917092
 10
120.365798381
 20
150.7581078548
 10
120.0765493674
 20
151.0800358246
 10
119.5701107591
 20
151.3752226243
 10
118.8701630626
 20
151.6298656475
 10
118.0094350542
 20
151.8320580692
 10
117.028173419
 20
151.9723455966
 10
115.9722608604
 20
152.0441685408
 10
114.8910706762
 20
152.0441685408
 10
113.8351581176
 20
151.9723455966
 10
112.8538964824
 20
151.8320580692
 10
111.993168474
 20
151.6298656475
 10
111.2932207775
 20
151.3752226243
 10
110.7867821692
 20
151.0800358246
 10
110.4975331556
 20
150.7581078548
 10
110.4389986991
 20
150.4244917092
 10
110.6139158057
 20
150.0947869078
 10
111.0141055461
 20
149.7844100808
 10
111.6208554927
 20
149.5078741036
 10
112.4057946923
 20
149.2781094912
 10
113.3322202605
 20
149.1058597815
 10
114.3568135673
 20
148.9991791794
 10
115.4316657683
 20
148.9630559514
  0
LINE
  5
10C
330
1F
100
AcDbEntity
  8
0
  6
HIDDEN
 62
     7
370
     0
100
AcDbLine
 10
129.6936947892
 20
145.6914828042
 30
0.0
 11
129.6936947892
 21
138.0905200433
 31
0.0
  0
LINE
  5
10D
330
1F
100
AcDbEntity
  8
0
  6
HIDDEN
 62
     7
370
     0
100
AcDbLine
 10
128.3416657683
 20
141.4547552358
 30
0.0
 11
128.3416657683
 21
138.0905200433
 31
0.0
  0
LINE
  5
10E
330
1F
100
AcDbEntity
  8
0
  6
HIDDEN
 62
     7
370
     0
100
AcDbLine
 10
124.5216657683
 20
141.4547552358
 30
0.0
 11
124.5216657683
 21
138.0905200433
 31
0.0
  0
CIRCLE
  5
10F
330
1F
100
AcDbEntity
  8
0
  6
HIDDEN
 62
     7
370
     0
100
AcDbCircle
 10
113.4316657683
 20
106.7405200433
 30
0.0
 40
5.0
  0
LINE
  5
110
330
1F
100
AcDbEntity
  8
0
  6
HIDDEN
 62
     7
370
     0
100
AcDbLine
 10
236.2913990078
 20
120.5460715291
 30
0.0
 11
236.1815092874
 21
117.7491913803
 31
0.0
  0
LINE
  5
111
330
1F
100
AcDbEntity
  8
0
  6
HIDDEN
 62
     7
370
     0
100
AcDbLine
 10
236.2992887347
 20
120.7468784891
 30
0.0
 11
236.2913990078
 21
120.5460715291
 31
0.0
  0
LINE
  5
112
330
1F
100
AcDbEntity
  8
0
  6
HIDDEN
 62
     7
370
     0
100
AcDbLine
 10
230.9574612039
 20
120.7556425162
 30
0.0
 11
230.8475714835
 21
117.9587623674
 31
0.0
  0
LINE
  5
113
330
1F
100
AcDbEntity
  8
0
  6
HIDDEN
 62
     7
370
     0
100
AcDbLine
 10
230.9653509308
 20
120.9564494761
 30
0.0
 11
230.9574612039
 21
120.7556425162
 31
0.0
  0
LINE
  5
114
330
1F
100
AcDbEntity
  8
0
  6
HIDDEN
 62
     7
370
     0
100
AcDbLine
 10
236.4316657683
 20
119.9910987123
 30
0.0
 11
236.3543435612
 21
118.0231171254
 31
0.0
  0
LINE
  5
115
330
1F
100
AcDbEntity
  8
0
  6
HIDDEN
 62
     7
370
     0
100
AcDbLine
 10
230.4408466868
 20
120.3425935592
 30
0.0
 11
230.3675868733
 21
118.4780067934
 31
0.0
  0
LINE
  5
116
330
1F
100
AcDbEntity
  8
0
  6
HIDDEN
 62
     7
370
     0
100
AcDbLine
 10
230.4461065048
 20
120.4764648659
 30
0.0
 11
230.4408466868
 21
120.3425935592
 31
0.0
  0
LINE
  5
117
330
1F
100
AcDbEntity
  8
0
  6
HIDDEN
 62
     7
370
     0
100
AcDbLine
 10
234.403762834
 20
119.3201965666
 30
0.0
 11
234.4332076958
 21
120.0696183438
 31
0.0
  0
LINE
  5
118
330
1F
100
AcDbEntity
  8
0
  6
HIDDEN
 62
     7
370
     0
100
AcDbLine
 10
234.403762834
 20
119.3201965666
 30
0.0
 11
234.3743179722
 21
118.5707747894
 31
0.0
  0
LINE
  5
119
330
1F
100
AcDbEntity
  8
0
  6
HIDDEN
 62
     7
370
     0
100
AcDbLine
 10
234.403762834
 20
119.3201965666
 30
0.0
 11
236.4022209065
 21
119.2416769351
 31
0.0
  0
LINE
  5
11A
330
1F
100
AcDbEntity
  8
0
  6
HIDDEN
 62
     7
370
     0
100
AcDbLine
 10
234.3743179722
 20
118.5707747894
 30
0.0
 11
236.3727760447
 21
118.4922551579
 31
0.0
  0
LINE
  5
11B
330
1F
100
AcDbEntity
  8
0
  6
HIDDEN
 62
     7
370
     0
100
AcDbLine
 10
234.4332076958
 20
120.0696183438
 30
0.0
 11
236.4316657683
 21
119.9910987123
 31
0.0
  0
LINE
  5
11C
330
1F
100
AcDbEntity
  8
0
  6
HIDDEN
 62
     7
370
     0
100
AcDbLine
 10
236.2403990111
 20
95.7341624899
 30
0.0
 11
236.3581784583
 21
92.7364753812
 31
0.0
  0
LINE
  5
11D
330
1F
100
AcDbEntity
  8
0
  6
HIDDEN
 62
     7
370
     0
100
AcDbLine
 10
230.9064612072
 20
95.5245915028
 30
0.0
 11
231.0242406544
 21
92.5269043941
 31
0.0
  0
LINE
  5
11E
330
1F
100
AcDbEntity
  8
0
  6
HIDDEN
 62
     7
370
     0
100
AcDbLine
 10
230.4264765969
 20
95.0053470768
 30
0.0
 11
230.5049962284
 21
93.0068890043
 31
0.0
  0
LINE
  5
11F
330
1F
100
AcDbEntity
  8
0
  6
HIDDEN
 62
     7
370
     0
100
AcDbLine
 10
236.4132332848
 20
95.4602367448
 30
0.0
 11
236.4316657683
 21
94.9910987123
 31
0.0
  0
LINE
  5
120
330
1F
100
AcDbEntity
  8
0
  6
HIDDEN
 62
     7
370
     0
100
AcDbLine
 10
234.4626525577
 20
94.1631573036
 30
0.0
 11
234.4332076958
 21
94.9125790808
 31
0.0
  0
LINE
  5
121
330
1F
100
AcDbEntity
  8
0
  6
HIDDEN
 62
     7
370
     0
100
AcDbLine
 10
234.4626525577
 20
94.1631573036
 30
0.0
 11
236.4611106301
 21
94.2416769351
 31
0.0
  0
LINE
  5
122
330
1F
100
AcDbEntity
  8
0
  6
HIDDEN
 62
     7
370
     0
100
AcDbLine
 10
234.4920974195
 20
93.4137355264
 30
0.0
 11
234.4626525577
 21
94.1631573036
 31
0.0
  0
LINE
  5
123
330
1F
100
AcDbEntity
  8
0
  6
HIDDEN
 62
     7
370
     0
100
AcDbLine
 10
234.4332076958
 20
94.9125790808
 30
0.0
 11
236.4316657683
 21
94.9910987123
 31
0.0
  0
LINE
  5
124
330
1F
100
AcDbEntity
  8
0
  6
HIDDEN
 62
     7
370
     0
100
AcDbLine
 10
234.4920974195
 20
93.4137355264
 30
0.0
 11
236.490555492
 21
93.4922551579
 31
0.0
  0
LINE
  5
125
330
1F
100
AcDbEntity
  8
0
  6
HIDDEN
 62
     7
370
     0
100
AcDbLine
 10
186.4316657683
 20
100.7405200433
 30
0.0
 11
186.4316657683
 21
112.7405200433
 31
0.0
  0
LINE
  5
126
330
1F
100
AcDbEntity
  8
0
  6
HIDDEN
 62
     7
370
     0
100
AcDbLine
 10
171.4316657683
 20
100.7405200433
 30
0.0
 11
171.4316657683
 21
112.7405200433
 31
0.0
  0
LINE
  5
127
330
1F
100
AcDbEntity
  8
0
  6
HIDDEN
 62
     7
370
     0
100
AcDbLine
 10
170.9316657683
 20
101.2405200433
 30
0.0
 11
170.9316657683
 21
112.2405200433
 31
0.0
  0
LINE
  5
128
330
1F
100
AcDbEntity
  8
0
  6
HIDDEN
 62
     7
370
     0
100
AcDbLine
 10
190.9316657683
 20
105.2405200433
 30
0.0
 11
188.9316657683
 21
105.2405200433
 31
0.0
  0
LINE
  5
129
330
1F
100
AcDbEntity
  8
0
  6
HIDDEN
 62
     7
370
     0
100
AcDbLine
 10
190.9316657683
 20
101.2405200433
 30
0.0
 11
190.9316657683
 21
105.2405200433
 31
0.0
  0
LINE
  5
12A
330
1F
100
AcDbEntity
  8
0
  6
HIDDEN
 62
     7
370
     0
100
AcDbLine
 10
190.9316657683
 20
108.2405200433
 30
0.0
 11
190.9316657683
 21
112.2405200433
 31
0.0
  0
LINE
  5
12B
330
1F
100
AcDbEntity
  8
0
  6
HIDDEN
 62
     7
370
     0
100
AcDbLine
 10
188.9316657683
 20
108.2405200433
 30
0.0
 11
190.9316657683
 21
108.2405200433
 31
0.0
  0
LINE
  5
12C
330
1F
100
AcDbEntity
  8
0
  6
HIDDEN
 62
     7
370
     0
100
AcDbLine
 10
188.9316657683
 20
105.2405200433
 30
0.0
 11
188.9316657683
 21
108.2405200433
 31
0.0
  0
LINE
  5
12D
330
1F
100
AcDbEntity
  8
0
  6
HIDDEN
 62
     7
370
     0
100
AcDbLine
 10
177.9316657682
 20
106.7405200433
 30
0.0
 11
170.9316657683
 21
106.7405200433
 31
0.0
  0
LINE
  5
12E
330
1F
100
AcDbEntity
  8
0
  6
HIDDEN
 62
     7
370
     0
100
AcDbLine
 10
183.9316657683
 20
106.7405200433
 30
0.0
 11
188.9316657683
 21
106.7405200433
 31
0.0
  0
LINE
  5
12F
330
1F
100
AcDbEntity
  8
0
  6
HIDDEN
 62
     7
370
     0
100
AcDbLine
 10
183.9316657683
 20
108.2405200433
 30
0.0
 11
183.9316657683
 21
106.7405200433
 31
0.0
  0
LINE
  5
130
330
1F
100
AcDbEntity
  8
0
  6
HIDDEN
 62
     7
370
     0
100
AcDbLine
 10
183.9316657683
 20
106.7405200433
 30
0.0
 11
183.9316657683
 21
105.2405200433
 31
0.0
  0
LINE
  5
131
330
1F
100
AcDbEntity
  8
0
  6
HIDDEN
 62
     7
370
     0
100
AcDbLine
 10
177.9316657682
 20
105.2405200433
 30
0.0
 11
177.9316657682
 21
106.7405200433
 31
0.0
  0
LINE
  5
132
330
1F
100
AcDbEntity
  8
0
  6
HIDDEN
 62
     7
370
     0
100
AcDbLine
 10
177.9316657682
 20
106.7405200433
 30
0.0
 11
177.9316657682
 21
108.2405200433
 31
0.0
  0
LINE
  5
133
330
1F
100
AcDbEntity
  8
0
  6
HIDDEN
 62
     7
370
     0
100
AcDbLine
 10
183.9316657683
 20
109.7405200433
 30
0.0
 11
183.9316657683
 21
108.2405200433
 31
0.0
  0
LINE
  5
134
330
1F
100
AcDbEntity
  8
0
  6
HIDDEN
 62
     7
370
     0
100
AcDbLine
 10
177.9316657682
 20
103.7405200433
 30
0.0
 11
177.9316657682
 21
105.2405200433
 31
0.0
  0
LINE
  5
135
330
1F
100
AcDbEntity
  8
0
  6
HIDDEN
 62
     7
370
     0
100
AcDbLine
 10
177.9316657682
 20
108.2405200433
 30
0.0
 11
177.9316657682
 21
109.7405200433
 31
0.0
  0
LINE
  5
136
330
1F
100
AcDbEntity
  8
0
  6
HIDDEN
 62
     7
370
     0
100
AcDbLine
 10
183.9316657683
 20
105.2405200433
 30
0.0
 11
183.9316657683
 21
103.7405200433
 31
0.0
  0
LINE
  5
137
330
1F
100
AcDbEntity
  8
0
  6
HIDDEN
 62
     7
370
     0
100
AcDbLine
 10
183.9316657683
 20
109.7405200433
 30
0.0
 11
190.9316657683
 21
109.7405200433
 31
0.0
  0
LINE
  5
138
330
1F
100
AcDbEntity
  8
0
  6
HIDDEN
 62
     7
370
     0
100
AcDbLine
 10
177.9316657682
 20
103.7405200433
 30
0.0
 11
170.9316657682
 21
103.7405200433
 31
0.0
  0
LINE
  5
139
330
1F
100
AcDbEntity
  8
0
  6
HIDDEN
 62
     7
370
     0
100
AcDbLine
 10
177.9316657682
 20
109.7405200433
 30
0.0
 11
170.9316657682
 21
109.7405200433
 31
0.0
  0
LINE
  5
13A
330
1F
100
AcDbEntity
  8
0
  6
HIDDEN
 62
     7
370
     0
100
AcDbLine
 10
183.9316657683
 20
103.7405200433
 30
0.0
 11
190.9316657683
 21
103.7405200433
 31
0.0
  0
LINE
  5
13B
330
1F
100
AcDbEntity
  8
0
  6
HIDDEN
 62
     7
370
     0
100
AcDbLine
 10
106.4316657683
 20
67.3358370868
 30
0.0
 11
106.5212673922
 21
67.9733857687
 31
0.0
  0
LINE
  5
13C
330
1F
100
AcDbEntity
  8
0
  6
HIDDEN
 62
     7
370
     0
100
AcDbLine
 10
106.5212673922
 20
145.507654318
 30
0.0
 11
106.4316657683
 21
146.1452029999
 31
0.0
  0
ARC
  5
13D
330
1F
100
AcDbEntity
  8
0
  6
HIDDEN
 62
     7
370
     0
100
AcDbCircle
 10
105.5347288499
 20
68.1120347189
 30
0.0
 40
0.9962338214386932
100
AcDbArc
 50
352.0
 51
0.0
  0
ARC
  5
13E
330
1F
100
AcDbEntity
  8
0
  6
HIDDEN
 62
     7
370
     0
100
AcDbCircle
 10
105.5347288499
 20
68.1120347189
 30
0.0
 40
0.9962338214386932
100
AcDbArc
 50
0.0
 51
25.7988228126
  0
ARC
  5
13F
330
1F
100
AcDbEntity
  8
0
  6
HIDDEN
 62
     7
370
     0
100
AcDbCircle
 10
105.5347288499
 20
145.3690053678
 30
0.0
 40
0.9962338214386862
100
AcDbArc
 50
348.75
 51
8.0
  0
LWPOLYLINE
  5
140
330
1F
100
AcDbEntity
  8
0
  6
HIDDEN
 62
     7
370
     0
100
AcDbPolyline
 90
        3
 70
   128
 43
0.0
 10
106.5118203178
 20
145.1746497908
 10
106.4551288871
 20
144.9877631896
 10
106.4316657683
 20
144.9354318546
  0
LINE
  5
141
330
1F
100
AcDbEntity
  8
0
  6
HIDDEN
 62
     7
370
     0
100
AcDbLine
 10
106.5309626713
 20
68.1120347189
 30
0.0
 11
106.5309626713
 21
145.3690053678
 31
0.0
  0
LINE
  5
142
330
1F
100
AcDbEntity
  8
0
  6
HIDDEN
 62
     7
370
     0
100
AcDbLine
 10
79.8923917105
 20
75.2405200433
 30
0.0
 11
85.4505828827
 21
75.2405200433
 31
0.0
  0
LINE
  5
143
330
1F
100
AcDbEntity
  8
0
  6
HIDDEN
 62
     7
370
     0
100
AcDbLine
 10
85.4368361423
 20
138.2405200433
 30
0.0
 11
79.8923917105
 21
138.2405200433
 31
0.0
  0
ARC
  5
144
330
1F
100
AcDbEntity
  8
0
  6
HIDDEN
 62
     7
370
     0
100
AcDbCircle
 10
96.6848714235
 20
87.2405200433
 30
0.0
 40
12.0
100
AcDbArc
 50
273.5595610444
 51
324.3146652873
  0
ARC
  5
145
330
1F
100
AcDbEntity
  8
0
  6
HIDDEN
 62
     7
370
     0
100
AcDbCircle
 10
96.6848714235
 20
126.2405200433
 30
0.0
 40
12.0
100
AcDbArc
 50
35.6853347127
 51
86.5284337865
  0
ARC
  5
146
330
1F
100
AcDbEntity
  8
0
  6
HIDDEN
 62
     7
370
     0
100
AcDbCircle
 10
79.8923917105
 20
76.2405200433
 30
0.0
 40
1.0
100
AcDbArc
 50
210.0
 51
270.0
  0
ARC
  5
147
330
1F
100
AcDbEntity
  8
0
  6
HIDDEN
 62
     7
370
     0
100
AcDbCircle
 10
79.8923917105
 20
137.2405200433
 30
0.0
 40
1.0
100
AcDbArc
 50
90.0
 51
150.0
  0
LINE
  5
148
330
1F
100
AcDbEntity
  8
0
  6
HIDDEN
 62
     7
370
     0
100
AcDbLine
 10
79.0263663067
 20
137.7405200433
 30
0.0
 11
76.4282900953
 21
133.2405200433
 31
0.0
  0
LINE
  5
149
330
1F
100
AcDbEntity
  8
0
  6
HIDDEN
 62
     7
370
     0
100
AcDbLine
 10
76.4282900953
 20
80.2405200433
 30
0.0
 11
79.0263663067
 21
75.7405200433
 31
0.0
  0
ARC
  5
14A
330
1F
100
AcDbEntity
  8
0
  6
HIDDEN
 62
     7
370
     0
100
AcDbCircle
 10
116.8816657683
 20
81.8655200433
 30
0.0
 40
2.0
100
AcDbArc
 50
234.3409123039
 51
0.0
  0
ARC
  5
14B
330
1F
100
AcDbEntity
  8
0
  6
HIDDEN
 62
     7
370
     0
100
AcDbCircle
 10
116.8816657683
 20
131.6155200433
 30
0.0
 40
2.000000000000003
100
AcDbArc
 50
0.0
 51
125.6590876961
  0
LINE
  5
14C
330
1F
100
AcDbEntity
  8
0
  6
HIDDEN
 62
     7
370
     0
100
AcDbLine
 10
106.4316657683
 20
80.2405200433
 30
0.0
 11
115.7157433867
 21
80.2405200433
 31
0.0
  0
LINE
  5
14D
330
1F
100
AcDbEntity
  8
0
  6
HIDDEN
 62
     7
370
     0
100
AcDbLine
 10
115.7157433867
 20
133.2405200433
 30
0.0
 11
106.4316657683
 21
133.2405200433
 31
0.0
  0
LINE
  5
14E
330
1F
100
AcDbEntity
  8
0
  6
HIDDEN
 62
     7
370
     0
100
AcDbLine
 10
71.6316657683
 20
80.2405200433
 30
0.0
 11
76.4282900953
 21
80.2405200433
 31
0.0
  0
LINE
  5
14F
330
1F
100
AcDbEntity
  8
0
  6
HIDDEN
 62
     7
370
     0
100
AcDbLine
 10
76.4282900953
 20
133.2405200433
 30
0.0
 11
66.6316657683
 21
133.2405200433
 31
0.0
  0
LINE
  5
150
330
1F
100
AcDbEntity
  8
0
  6
HIDDEN
 62
     7
370
     0
100
AcDbLine
 10
110.4316657683
 20
152.4176829254
 30
0.0
 11
110.4316657683
 21
148.717933822
 31
0.0
  0
LINE
  5
151
330
1F
100
AcDbEntity
  8
0
  6
HIDDEN
 62
     7
370
     0
100
AcDbLine
 10
120.4316657683
 20
148.717933822
 30
0.0
 11
120.4316657683
 21
152.4163109762
 31
0.0
  0
LINE
  5
152
330
1F
100
AcDbEntity
  8
0
  6
HIDDEN
 62
     7
370
     0
100
AcDbLine
 10
130.7316657683
 20
93.7405200433
 30
0.0
 11
134.7316657683
 21
93.7405200433
 31
0.0
  0
LINE
  5
153
330
1F
100
AcDbEntity
  8
0
  6
HIDDEN
 62
     7
370
     0
100
AcDbLine
 10
134.7316657683
 20
119.7405200433
 30
0.0
 11
130.7316657683
 21
119.7405200433
 31
0.0
  0
LINE
  5
154
330
1F
100
AcDbEntity
  8
0
  6
HIDDEN
 62
     7
370
     0
100
AcDbLine
 10
118.8816657683
 20
94.7405200433
 30
0.0
 11
119.6316657683
 21
95.4905200433
 31
0.0
  0
LINE
  5
155
330
1F
100
AcDbEntity
  8
0
  6
HIDDEN
 62
     7
370
     0
100
AcDbLine
 10
119.6316657683
 20
117.9905200433
 30
0.0
 11
118.8816657683
 21
118.7405200433
 31
0.0
  0
LINE
  5
156
330
1F
100
AcDbEntity
  8
0
  6
HIDDEN
 62
     7
370
     0
100
AcDbLine
 10
119.6316657683
 20
95.4905200433
 30
0.0
 11
130.7316657683
 21
95.4905200433
 31
0.0
  0
LINE
  5
157
330
1F
100
AcDbEntity
  8
0
  6
HIDDEN
 62
     7
370
     0
100
AcDbLine
 10
130.7316657683
 20
117.9905200433
 30
0.0
 11
119.6316657683
 21
117.9905200433
 31
0.0
  0
ARC
  5
158
330
1F
100
AcDbEntity
  8
0
  6
HIDDEN
 62
     7
370
     0
100
AcDbCircle
 10
235.9316657683
 20
96.7038257953
 30
0.0
 40
0.5000000000000195
100
AcDbArc
 50
0.0
 51
80.0
  0
ARC
  5
159
330
1F
100
AcDbEntity
  8
0
  6
HIDDEN
 62
     7
370
     0
100
AcDbCircle
 10
235.9316657683
 20
116.7772142914
 30
0.0
 40
0.5000000000000056
100
AcDbArc
 50
280.0
 51
0.0
  0
LINE
  5
15A
330
1F
100
AcDbEntity
  8
0
  6
HIDDEN
 62
     7
370
     0
100
AcDbLine
 10
111.3816657683
 20
156.7405200433
 30
0.0
 11
111.3816657683
 21
150.6405200433
 31
0.0
  0
LINE
  5
15B
330
1F
100
AcDbEntity
  8
0
  6
HIDDEN
 62
     7
370
     0
100
AcDbLine
 10
236.0184898571
 20
116.2848104149
 30
0.0
 11
232.9316657683
 21
115.7405200433
 31
0.0
  0
LINE
  5
15C
330
1F
100
AcDbEntity
  8
0
  6
HIDDEN
 62
     7
370
     0
100
AcDbLine
 10
232.9316657683
 20
97.7405200433
 30
0.0
 11
236.0184898571
 21
97.1962296718
 31
0.0
  0
LINE
  5
15D
330
1F
100
AcDbEntity
  8
0
  6
HIDDEN
 62
     7
370
     0
100
AcDbLine
 10
190.4316657683
 20
97.4405200433
 30
0.0
 11
196.5368917502
 21
97.4405200433
 31
0.0
  0
LINE
  5
15E
330
1F
100
AcDbEntity
  8
0
  6
HIDDEN
 62
     7
370
     0
100
AcDbLine
 10
187.3316657683
 20
97.4405200433
 30
0.0
 11
187.4358407632
 21
97.4405200433
 31
0.0
  0
LINE
  5
15F
330
1F
100
AcDbEntity
  8
0
  6
HIDDEN
 62
     7
370
     0
100
AcDbLine
 10
187.4321896212
 20
116.0405200433
 30
0.0
 11
187.3316657683
 21
116.0405200433
 31
0.0
  0
LINE
  5
160
330
1F
100
AcDbEntity
  8
0
  6
HIDDEN
 62
     7
370
     0
100
AcDbLine
 10
196.5368917502
 20
116.0405200433
 30
0.0
 11
190.4290566533
 21
116.0405200433
 31
0.0
  0
ARC
  5
161
330
1F
100
AcDbEntity
  8
0
  6
HIDDEN
 62
     7
370
     0
100
AcDbCircle
 10
187.3316657683
 20
97.8405200433
 30
0.0
 40
0.4000000000000057
100
AcDbArc
 50
180.0
 51
270.0
  0
ARC
  5
162
330
1F
100
AcDbEntity
  8
0
  6
HIDDEN
 62
     7
370
     0
100
AcDbCircle
 10
187.3316657683
 20
115.6405200433
 30
0.0
 40
0.4000000000000199
100
AcDbArc
 50
90.0
 51
180.0
  0
ARC
  5
163
330
1F
100
AcDbEntity
  8
0
  6
HIDDEN
 62
     7
370
     0
100
AcDbCircle
 10
196.5368917502
 20
97.8405200433
 30
0.0
 40
0.4000000000000074
100
AcDbArc
 50
270.0
 51
290.0
  0
ARC
  5
164
330
1F
100
AcDbEntity
  8
0
  6
HIDDEN
 62
     7
370
     0
100
AcDbCircle
 10
196.5368917502
 20
115.6405200433
 30
0.0
 40
0.4000000000000208
100
AcDbArc
 50
70.0
 51
90.0
  0
LINE
  5
165
330
1F
100
AcDbEntity
  8
0
  6
HIDDEN
 62
     7
370
     0
100
AcDbLine
 10
196.6736998075
 20
97.464642995
 30
0.0
 11
197.4316657683
 21
97.7405200433
 31
0.0
  0
LINE
  5
166
330
1F
100
AcDbEntity
  8
0
  6
HIDDEN
 62
     7
370
     0
100
AcDbLine
 10
197.4316657683
 20
115.7405200433
 30
0.0
 11
196.6736998075
 21
116.0163970917
 31
0.0
  0
LINE
  5
167
330
1F
100
AcDbEntity
  8
0
  6
HIDDEN
 62
     7
370
     0
100
AcDbLine
 10
197.4316657683
 20
97.7405200433
 30
0.0
 11
232.9316657683
 21
97.7405200433
 31
0.0
  0
LINE
  5
168
330
1F
100
AcDbEntity
  8
0
  6
HIDDEN
 62
     7
370
     0
100
AcDbLine
 10
232.9316657683
 20
115.7405200433
 30
0.0
 11
197.4316657683
 21
115.7405200433
 31
0.0
  0
LINE
  5
169
330
1F
100
AcDbEntity
  8
0
  6
HIDDEN
 62
     7
370
     0
100
AcDbLine
 10
97.8643783844
 20
69.1622404727
 30
0.0
 11
97.4316690979
 21
69.6404651901
 31
0.0
  0
LINE
  5
16A
330
1F
100
AcDbEntity
  8
0
  6
HIDDEN
 62
     7
370
     0
100
AcDbLine
 10
85.4316662263
 20
70.2874265468
 30
0.0
 11
84.9510389211
 21
69.809201836
 31
0.0
  0
LINE
  5
16B
330
1F
100
AcDbEntity
  8
0
  6
HIDDEN
 62
     7
370
     0
100
AcDbLine
 10
84.9509205796
 20
143.6718323346
 30
0.0
 11
85.4316660437
 21
143.1935526627
 31
0.0
  0
LINE
  5
16C
330
1F
100
AcDbEntity
  8
0
  6
HIDDEN
 62
     7
370
     0
100
AcDbLine
 10
97.4316657704
 20
143.8405250501
 30
0.0
 11
97.8644874402
 21
144.3188047229
 31
0.0
  0
LINE
  5
16D
330
1F
100
AcDbEntity
  8
0
  6
HIDDEN
 62
     7
370
     0
100
AcDbLine
 10
97.4316657683
 20
69.5403363476
 30
0.0
 11
97.4316657683
 21
75.2641941406
 31
0.0
  0
LINE
  5
16E
330
1F
100
AcDbEntity
  8
0
  6
HIDDEN
 62
     7
370
     0
100
AcDbLine
 10
85.4316657683
 20
75.2441108666
 30
0.0
 11
85.4316657683
 21
70.2874649613
 31
0.0
  0
LINE
  5
16F
330
1F
100
AcDbEntity
  8
0
  6
HIDDEN
 62
     7
370
     0
100
AcDbLine
 10
97.4316657683
 20
138.2145849373
 30
0.0
 11
97.4316657683
 21
143.9405288761
 31
0.0
  0
LINE
  5
170
330
1F
100
AcDbEntity
  8
0
  6
HIDDEN
 62
     7
370
     0
100
AcDbLine
 10
85.4316657683
 20
143.1935421634
 30
0.0
 11
85.4316657683
 21
138.239535844
 31
0.0
  0
LINE
  5
171
330
1F
100
AcDbEntity
  8
0
  6
HIDDEN
 62
     7
370
     0
100
AcDbLine
 10
134.7316657683
 20
100.7405200433
 30
0.0
 11
166.5312354588
 21
100.7405200433
 31
0.0
  0
LINE
  5
172
330
1F
100
AcDbEntity
  8
0
  6
HIDDEN
 62
     7
370
     0
100
AcDbLine
 10
166.5312354588
 20
112.7405200433
 30
0.0
 11
134.7316657683
 21
112.7405200433
 31
0.0
  0
LINE
  5
173
330
1F
100
AcDbEntity
  8
0
  6
HIDDEN
 62
     7
370
     0
100
AcDbLine
 10
166.5312354588
 20
100.7405200433
 30
0.0
 11
166.8316657683
 21
101.2405200433
 31
0.0
  0
LINE
  5
174
330
1F
100
AcDbEntity
  8
0
  6
HIDDEN
 62
     7
370
     0
100
AcDbLine
 10
166.8316657683
 20
112.2405200433
 30
0.0
 11
166.5312354588
 21
112.7405200433
 31
0.0
  0
LINE
  5
175
330
1F
100
AcDbEntity
  8
0
  6
HIDDEN
 62
     7
370
     0
100
AcDbLine
 10
186.9316657683
 20
112.7405200433
 30
0.0
 11
186.4316657683
 21
112.2405200433
 31
0.0
  0
LINE
  5
176
330
1F
100
AcDbEntity
  8
0
  6
HIDDEN
 62
     7
370
     0
100
AcDbLine
 10
186.4316657683
 20
101.2405200433
 30
0.0
 11
186.9316657683
 21
100.7405200433
 31
0.0
  0
LINE
  5
177
330
1F
100
AcDbEntity
  8
0
  6
HIDDEN
 62
     7
370
     0
100
AcDbLine
 10
166.8316657683
 20
101.2405200433
 30
0.0
 11
186.4316657683
 21
101.2405200433
 31
0.0
  0
LINE
  5
178
330
1F
100
AcDbEntity
  8
0
  6
HIDDEN
 62
     7
370
     0
100
AcDbLine
 10
186.4316657683
 20
112.2405200433
 30
0.0
 11
166.8316657683
 21
112.2405200433
 31
0.0
  0
LINE
  5
179
330
1F
100
AcDbEntity
  8
0
  6
HIDDEN
 62
     7
370
     0
100
AcDbLine
 10
144.8816657683
 20
128.7405200433
 30
0.0
 11
145.8816657683
 21
128.1631697741
 31
0.0
  0
LINE
  5
17A
330
1F
100
AcDbEntity
  8
0
  6
HIDDEN
 62
     7
370
     0
100
AcDbLine
 10
150.8816657683
 20
128.1631697741
 30
0.0
 11
151.8816657683
 21
128.7405200433
 31
0.0
  0
LINE
  5
17B
330
1F
100
AcDbEntity
  8
0
  6
HIDDEN
 62
     7
370
     0
100
AcDbLine
 10
151.8816657683
 20
84.7405200433
 30
0.0
 11
150.8816657683
 21
85.3178703125
 31
0.0
  0
LINE
  5
17C
330
1F
100
AcDbEntity
  8
0
  6
HIDDEN
 62
     7
370
     0
100
AcDbLine
 10
145.8816657683
 20
85.3178703125
 30
0.0
 11
144.8816657683
 21
84.7405200433
 31
0.0
  0
LINE
  5
17D
330
1F
100
AcDbEntity
  8
0
  6
HIDDEN
 62
     7
370
     0
100
AcDbLine
 10
145.8816657683
 20
128.1631697741
 30
0.0
 11
145.8816657683
 21
116.7405200433
 31
0.0
  0
LINE
  5
17E
330
1F
100
AcDbEntity
  8
0
  6
HIDDEN
 62
     7
370
     0
100
AcDbLine
 10
150.8816657683
 20
116.7405200433
 30
0.0
 11
150.8816657683
 21
128.1631697741
 31
0.0
  0
LINE
  5
17F
330
1F
100
AcDbEntity
  8
0
  6
HIDDEN
 62
     7
370
     0
100
AcDbLine
 10
145.8816657683
 20
116.7405200433
 30
0.0
 11
148.3816657683
 21
115.2383684958
 31
0.0
  0
LINE
  5
180
330
1F
100
AcDbEntity
  8
0
  6
HIDDEN
 62
     7
370
     0
100
AcDbLine
 10
148.3816657683
 20
115.2383684958
 30
0.0
 11
150.8816657683
 21
116.7405200433
 31
0.0
  0
LINE
  5
181
330
1F
100
AcDbEntity
  8
0
  6
HIDDEN
 62
     7
370
     0
100
AcDbLine
 10
150.8816657683
 20
85.3178703125
 30
0.0
 11
150.8816657683
 21
96.7405200433
 31
0.0
  0
LINE
  5
182
330
1F
100
AcDbEntity
  8
0
  6
HIDDEN
 62
     7
370
     0
100
AcDbLine
 10
145.8816657683
 20
96.7405200433
 30
0.0
 11
145.8816657683
 21
85.3178703125
 31
0.0
  0
LINE
  5
183
330
1F
100
AcDbEntity
  8
0
  6
HIDDEN
 62
     7
370
     0
100
AcDbLine
 10
150.8816657683
 20
96.7405200433
 30
0.0
 11
148.3816657683
 21
98.2426715909
 31
0.0
  0
LINE
  5
184
330
1F
100
AcDbEntity
  8
0
  6
HIDDEN
 62
     7
370
     0
100
AcDbLine
 10
148.3816657683
 20
98.2426715909
 30
0.0
 11
145.8816657683
 21
96.7405200433
 31
0.0
  0
LINE
  5
185
330
1F
100
AcDbEntity
  8
0
  6
HIDDEN
 62
     7
370
     0
100
AcDbLine
 10
187.4316657683
 20
119.915421265
 30
0.0
 11
187.4316657683
 21
116.0404357271
 31
0.0
  0
LINE
  5
186
330
1F
100
AcDbEntity
  8
0
  6
HIDDEN
 62
     7
370
     0
100
AcDbLine
 10
190.4316657683
 20
116.0401025117
 30
0.0
 11
190.4316657683
 21
119.7969005174
 31
0.0
  0
LINE
  5
187
330
1F
100
AcDbEntity
  8
0
  6
HIDDEN
 62
     7
370
     0
100
AcDbLine
 10
187.4316657683
 20
97.4411908806
 30
0.0
 11
187.4316657683
 21
93.5640885454
 31
0.0
  0
LINE
  5
188
330
1F
100
AcDbEntity
  8
0
  6
HIDDEN
 62
     7
370
     0
100
AcDbLine
 10
190.4316657683
 20
93.6738062682
 30
0.0
 11
190.4316657683
 21
97.4405200433
 31
0.0
  0
LINE
  5
189
330
1F
100
AcDbEntity
  8
0
  6
HIDDEN
 62
     7
370
     0
100
AcDbLine
 10
187.5185177622
 20
91.0677527758
 30
0.0
 11
236.4316657683
 21
92.9895555951
 31
0.0
  0
LINE
  5
18A
330
1F
100
AcDbEntity
  8
0
  6
HIDDEN
 62
     7
370
     0
100
AcDbLine
 10
236.4316657683
 20
95.4914844916
 30
0.0
 11
190.4229620839
 21
93.6837976005
 31
0.0
  0
LINE
  5
18B
330
1F
100
AcDbEntity
  8
0
  6
HIDDEN
 62
     7
370
     0
100
AcDbLine
 10
190.4316657683
 20
119.7969005174
 30
0.0
 11
236.4316657683
 21
117.9895555951
 31
0.0
  0
LINE
  5
18C
330
1F
100
AcDbEntity
  8
0
  6
HIDDEN
 62
     7
370
     0
100
AcDbLine
 10
236.4316657683
 20
120.4914844916
 30
0.0
 11
190.4286110716
 21
122.2989494333
 31
0.0
  0
LINE
  5
18D
330
1F
100
AcDbEntity
  8
0
  6
HIDDEN
 62
     7
370
     0
100
AcDbLine
 10
187.4203682228
 20
93.5658253664
 30
0.0
 11
186.7189462709
 21
92.2873019746
 31
0.0
  0
LINE
  5
18E
330
1F
100
AcDbEntity
  8
0
  6
HIDDEN
 62
     7
370
     0
100
AcDbLine
 10
186.7189462709
 20
92.2873019746
 30
0.0
 11
187.5185177622
 21
91.0677527758
 31
0.0
  0
LINE
  5
18F
330
1F
100
AcDbEntity
  8
0
  6
HIDDEN
 62
     7
370
     0
100
AcDbLine
 10
187.4359611579
 20
122.2873675628
 30
0.0
 11
186.7189462709
 21
121.193738112
 31
0.0
  0
LINE
  5
190
330
1F
100
AcDbEntity
  8
0
  6
HIDDEN
 62
     7
370
     0
100
AcDbLine
 10
186.7189462709
 20
121.193738112
 30
0.0
 11
187.4203682228
 21
119.9152147202
 31
0.0
  0
LINE
  5
191
330
1F
100
AcDbEntity
  8
0
  6
HIDDEN
 62
     7
370
     0
100
AcDbLine
 10
187.4316657683
 20
122.2838457351
 30
0.0
 11
187.4316657683
 21
122.2405200433
 31
0.0
  0
LINE
  5
192
330
1F
100
AcDbEntity
  8
0
  6
HIDDEN
 62
     7
370
     0
100
AcDbLine
 10
120.4316657683
 20
152.4163109762
 30
0.0
 11
120.4316657683
 21
154.2918926558
 31
0.0
  0
LINE
  5
193
330
1F
100
AcDbEntity
  8
0
  6
HIDDEN
 62
     7
370
     0
100
AcDbLine
 10
110.4316657683
 20
154.2933458581
 30
0.0
 11
110.4316657683
 21
152.4176829254
 31
0.0
  0
LINE
  5
194
330
1F
100
AcDbEntity
  8
0
  6
HIDDEN
 62
     7
370
     0
100
AcDbLine
 10
236.2992887347
 20
120.7468784891
 30
0.0
 11
230.9653509308
 21
120.9564494761
 31
0.0
  0
LINE
  5
195
330
1F
100
AcDbEntity
  8
0
  6
HIDDEN
 62
     7
370
     0
100
AcDbLine
 10
230.8475714835
 20
117.9587623674
 30
0.0
 11
236.1815092874
 21
117.7491913803
 31
0.0
  0
LINE
  5
196
330
1F
100
AcDbEntity
  8
0
  6
HIDDEN
 62
     7
370
     0
100
AcDbLine
 10
236.1815092874
 20
117.7491913803
 30
0.0
 11
236.3543435612
 21
118.0231171254
 31
0.0
  0
LINE
  5
197
330
1F
100
AcDbEntity
  8
0
  6
HIDDEN
 62
     7
370
     0
100
AcDbLine
 10
236.4316657683
 20
120.4952711334
 30
0.0
 11
236.2992887347
 21
120.7468784891
 31
0.0
  0
LINE
  5
198
330
1F
100
AcDbEntity
  8
0
  6
HIDDEN
 62
     7
370
     0
100
AcDbLine
 10
230.9653509308
 20
120.9564494761
 30
0.0
 11
230.4461065048
 21
120.4764648659
 31
0.0
  0
LINE
  5
199
330
1F
100
AcDbEntity
  8
0
  6
HIDDEN
 62
     7
370
     0
100
AcDbLine
 10
230.3675868733
 20
118.4780067934
 30
0.0
 11
230.8475714835
 21
117.9587623674
 31
0.0
  0
LINE
  5
19A
330
1F
100
AcDbEntity
  8
0
  6
HIDDEN
 62
     7
370
     0
100
AcDbLine
 10
236.2403990111
 20
95.7341624899
 30
0.0
 11
230.9064612072
 21
95.5245915028
 31
0.0
  0
LINE
  5
19B
330
1F
100
AcDbEntity
  8
0
  6
HIDDEN
 62
     7
370
     0
100
AcDbLine
 10
231.0242406544
 20
92.5269043941
 30
0.0
 11
236.3581784583
 21
92.7364753812
 31
0.0
  0
LINE
  5
19C
330
1F
100
AcDbEntity
  8
0
  6
HIDDEN
 62
     7
370
     0
100
AcDbLine
 10
230.9064612072
 20
95.5245915028
 30
0.0
 11
230.4264765969
 21
95.0053470768
 31
0.0
  0
LINE
  5
19D
330
1F
100
AcDbEntity
  8
0
  6
HIDDEN
 62
     7
370
     0
100
AcDbLine
 10
230.5049962284
 20
93.0068890043
 30
0.0
 11
231.0242406544
 21
92.5269043941
 31
0.0
  0
LINE
  5
19E
330
1F
100
AcDbEntity
  8
0
  6
HIDDEN
 62
     7
370
     0
100
AcDbLine
 10
236.3581784583
 20
92.7364753812
 30
0.0
 11
236.4316657683
 21
92.876151783
 31
0.0
  0
LINE
  5
19F
330
1F
100
AcDbEntity
  8
0
  6
HIDDEN
 62
     7
370
     0
100
AcDbLine
 10
236.4132332848
 20
95.4602367448
 30
0.0
 11
236.2403990111
 21
95.7341624899
 31
0.0
  0
LINE
  5
1A0
330
1F
100
AcDbEntity
  8
0
  6
HIDDEN
 62
     7
370
     0
100
AcDbLine
 10
171.4316657683
 20
100.7405200433
 30
0.0
 11
186.4316657683
 21
100.7405200433
 31
0.0
  0
LINE
  5
1A1
330
1F
100
AcDbEntity
  8
0
  6
HIDDEN
 62
     7
370
     0
100
AcDbLine
 10
186.4316657683
 20
112.7405200433
 30
0.0
 11
171.4316657683
 21
112.7405200433
 31
0.0
  0
LINE
  5
1A2
330
1F
100
AcDbEntity
  8
0
  6
HIDDEN
 62
     7
370
     0
100
AcDbLine
 10
186.4316657683
 20
100.7405200433
 30
0.0
 11
186.9316657683
 21
101.2405200433
 31
0.0
  0
LINE
  5
1A3
330
1F
100
AcDbEntity
  8
0
  6
HIDDEN
 62
     7
370
     0
100
AcDbLine
 10
186.9316657683
 20
112.2405200433
 30
0.0
 11
186.4316657683
 21
112.7405200433
 31
0.0
  0
LINE
  5
1A4
330
1F
100
AcDbEntity
  8
0
  6
HIDDEN
 62
     7
370
     0
100
AcDbLine
 10
171.4316657683
 20
112.7405200433
 30
0.0
 11
170.9316657683
 21
112.2405200433
 31
0.0
  0
LINE
  5
1A5
330
1F
100
AcDbEntity
  8
0
  6
HIDDEN
 62
     7
370
     0
100
AcDbLine
 10
170.9316657683
 20
101.2405200433
 30
0.0
 11
171.4316657683
 21
100.7405200433
 31
0.0
  0
LINE
  5
1A6
330
1F
100
AcDbEntity
  8
0
  6
HIDDEN
 62
     7
370
     0
100
AcDbLine
 10
186.9316657683
 20
101.2405200433
 30
0.0
 11
190.9316657683
 21
101.2405200433
 31
0.0
  0
LINE
  5
1A7
330
1F
100
AcDbEntity
  8
0
  6
HIDDEN
 62
     7
370
     0
100
AcDbLine
 10
190.9316657683
 20
112.2405200433
 30
0.0
 11
186.9316657683
 21
112.2405200433
 31
0.0
  0
LINE
  5
1A8
330
1F
100
AcDbEntity
  8
0
  6
HIDDEN
 62
     7
370
     0
100
AcDbLine
 10
177.9316657682
 20
103.7405200433
 30
0.0
 11
183.9316657683
 21
103.7405200433
 31
0.0
  0
LINE
  5
1A9
330
1F
100
AcDbEntity
  8
0
  6
HIDDEN
 62
     7
370
     0
100
AcDbLine
 10
183.9316657683
 20
109.7405200433
 30
0.0
 11
177.9316657682
 21
109.7405200433
 31
0.0
  0
DIMENSION
  5
1AA
330
1F
100
AcDbEntity
  8
VERMASSUNG
100
AcDbDimension
  2
*D1
 10
50.798808234
 20
56.7405200433
 30
0.0
 11
50.798808234
 21
106.7405200433
 31
0.0
 70
   160
  1
HSK A %%c<>
 71
     2
 42
-1.0
  3
SLDDIMSTYLE0
100
AcDbAlignedDimension
 13
106.9316657683
 23
156.7405200433
 33
0.0
 14
106.9316657683
 24
56.7405200433
 34
0.0
 50
90.0
100
AcDbRotatedDimension
  0
DIMENSION
  5
1B7
330
1F
100
AcDbEntity
  8
VERMASSUNG
100
AcDbDimension
  2
*D2
 10
236.4316657683
 20
154.7405200433
 30
0.0
 11
211.6816657683
 21
154.7405200433
 31
0.0
 70
   160
 71
     2
 42
-1.0
  3
SLDDIMSTYLE1
100
AcDbAlignedDimension
 13
186.9316657683
 23
115.6405200433
 33
0.0
 14
236.4316657683
 24
121.39173906
 34
0.0
100
AcDbRotatedDimension
  0
DIMENSION
  5
1C2
330
1F
100
AcDbEntity
  8
VERMASSUNG
100
AcDbDimension
  2
*D3
 10
243.1842903575
 20
115.7405200433
 30
0.0
 11
243.1842903575
 21
106.7405200433
 31
0.0
 70
   160
  1
%%c<>
 71
     2
 42
-1.0
  3
SLDDIMSTYLE2
100
AcDbAlignedDimension
 13
232.9316657683
 23
97.7405200433
 33
0.0
 14
232.9316657683
 24
115.7405200433
 34
0.0
 50
90.0
100
AcDbRotatedDimension
  0
DIMENSION
  5
1CE
330
1F
100
AcDbEntity
  8
VERMASSUNG
100
AcDbDimension
  2
*D4
 10
249.1842903575
 20
123.2405200433
 30
0.0
 11
249.1842903575
 21
106.7405200433
 31
0.0
 70
   160
  1
%%c<>
 71
     2
 42
-1.0
  3
SLDDIMSTYLE3
100
AcDbAlignedDimension
 13
236.4316657683
 23
90.2405200433
 33
0.0
 14
236.4316657683
 24
123.2405200433
 34
0.0
 50
90.0
100
AcDbRotatedDimension
  0
DIMENSION
  5
1DA
330
1F
100
AcDbEntity
  8
VERMASSUNG
100
AcDbDimension
  2
*D5
 10
236.4316657683
 20
166.7405200433
 30
0.0
 11
171.4316657683
 21
166.7405200433
 31
0.0
 70
   160
 71
     2
 42
-1.0
  3
SLDDIMSTYLE0
100
AcDbAlignedDimension
 13
106.4316657683
 23
156.2405200433
 33
0.0
 14
236.4316657683
 24
121.39173906
 34
0.0
100
AcDbRotatedDimension
  0
DIMENSION
  5
1E4
330
1F
100
AcDbEntity
  8
VERMASSUNG
100
AcDbDimension
  2
*D6
 10
236.4316657683
 20
160.7405200433
 30
0.0
 11
185.9066657683
 21
160.7405200433
 31
0.0
 70
   160
 71
     2
 42
-1.0
  3
SLDDIMSTYLE0
100
AcDbAlignedDimension
 13
135.3816657683
 23
154.7092598642
 33
0.0
 14
236.4316657683
 24
121.39173906
 34
0.0
100
AcDbRotatedDimension
  0
DIMENSION
  5
1EE
330
1F
100
AcDbEntity
  8
VERMASSUNG
100
AcDbDimension
  2
*D7
 10
236.4316657683
 20
172.7405200433
 30
0.0
 11
146.4816657683
 21
172.7405200433
 31
0.0
 70
   160
 71
     2
 42
-1.0
  3
SLDDIMSTYLE0
100
AcDbAlignedDimension
 13
56.5316657683
 23
137.2431897859
 33
0.0
 14
236.4316657683
 24
121.39173906
 34
0.0
100
AcDbRotatedDimension
  0
DIMENSION
  5
1F8
330
1F
100
AcDbEntity
  8
VERMASSUNG
100
AcDbDimension
  2
*D8
 10
255.1842903575
 20
84.7405200433
 30
0.0
 11
255.1842903575
 21
106.7405200433
 31
0.0
 70
   160
  1
%%c<>
 71
     2
 42
-1.0
  3
SLDDIMSTYLE0
100
AcDbAlignedDimension
 13
157.3816657683
 23
128.7405200433
 33
0.0
 14
157.3816657683
 24
84.7405200433
 34
0.0
 50
90.0
100
AcDbRotatedDimension
  0
LINE
  5
203
330
1F
100
AcDbEntity
  8
VERMASSUNG
  6
CENTERX2
370
     0
100
AcDbLine
 10
53.1195016251
 20
106.7405200433
 30
0.0
 11
238.4316657683
 21
106.7405200433
 31
0.0
  0
OLE2FRAME
  5
204
330
1F
100
AcDbEntity
  8
0
100
AcDbOle2Frame
 70
     2
  3
Bitmap Image
 10
13.8511154363
 20
38.264191557
 30
0.0
 11
51.6290888628
 21
31.9806341108
 31
0.0
 71
     2
 72
     0
 73
     1
 90
    12928
310
80552BED0767C5B32B40DDAF6807D121434000000000000000006FFBDDFB85D0
310
4940DDAF6807D121434000000000000000006FFBDDFB85D04940416F4BD60AFB
310
3F4000000000000000002BED0767C5B32B40416F4BD60AFB3F40000000000000
310
0000000000000100000000010000010000000100000000000100000000320000
310
D0CF11E0A1B11AE1000000000000000000000000000000003E000300FEFF0900
310
0600000000000000000000000100000001000000000000000010000002000000
310
01000000FEFFFFFF0000000000000000FFFFFFFFFFFFFFFFFFFFFFFFFFFFFFFF
310
FFFFFFFFFFFFFFFFFFFFFFFFFFFFFFFFFFFFFFFFFFFFFFFFFFFFFFFFFFFFFFFF
310
FFFFFFFFFFFFFFFFFFFFFFFFFFFFFFFFFFFFFFFFFFFFFFFFFFFFFFFFFFFFFFFF
310
FFFFFFFFFFFFFFFFFFFFFFFFFFFFFFFFFFFFFFFFFFFFFFFFFFFFFFFFFFFFFFFF
310
FFFFFFFFFFFFFFFFFFFFFFFFFFFFFFFFFFFFFFFFFFFFFFFFFFFFFFFFFFFFFFFF
310
FFFFFFFFFFFFFFFFFFFFFFFFFFFFFFFFFFFFFFFFFFFFFFFFFFFFFFFFFFFFFFFF
310
FFFFFFFFFFFFFFFFFFFFFFFFFFFFFFFFFFFFFFFFFFFFFFFFFFFFFFFFFFFFFFFF
310
FFFFFFFFFFFFFFFFFFFFFFFFFFFFFFFFFFFFFFFFFFFFFFFFFFFFFFFFFFFFFFFF
310
FFFFFFFFFFFFFFFFFFFFFFFFFFFFFFFFFFFFFFFFFFFFFFFFFFFFFFFFFFFFFFFF
310
FFFFFFFFFFFFFFFFFFFFFFFFFFFFFFFFFFFFFFFFFFFFFFFFFFFFFFFFFFFFFFFF
310
FFFFFFFFFFFFFFFFFFFFFFFFFFFFFFFFFFFFFFFFFFFFFFFFFFFFFFFFFFFFFFFF
310
FFFFFFFFFFFFFFFFFFFFFFFFFFFFFFFFFFFFFFFFFFFFFFFFFFFFFFFFFFFFFFFF
310
FFFFFFFFFFFFFFFFFFFFFFFFFFFFFFFFFFFFFFFFFFFFFFFFFFFFFFFFFFFFFFFF
310
FFFFFFFFFFFFFFFFFFFFFFFFFFFFFFFFFFFFFFFFFFFFFFFFFFFFFFFFFFFFFFFF
310
FDFFFFFFFEFFFFFFFEFFFFFFFEFFFFFF05000000060000000700000008000000
310
090000000A0000000B0000000C0000000D0000000E0000000F00000010000000
310
11000000120000001300000014000000150000001600000017000000FEFFFFFF
310
FFFFFFFFFFFFFFFFFFFFFFFFFFFFFFFFFFFFFFFFFFFFFFFFFFFFFFFFFFFFFFFF
310
FFFFFFFFFFFFFFFFFFFFFFFFFFFFFFFFFFFFFFFFFFFFFFFFFFFFFFFFFFFFFFFF
310
FFFFFFFFFFFFFFFFFFFFFFFFFFFFFFFFFFFFFFFFFFFFFFFFFFFFFFFFFFFFFFFF
310
FFFFFFFFFFFFFFFFFFFFFFFFFFFFFFFFFFFFFFFFFFFFFFFFFFFFFFFFFFFFFFFF
310
FFFFFFFFFFFFFFFFFFFFFFFFFFFFFFFFFFFFFFFFFFFFFFFFFFFFFFFFFFFFFFFF
310
FFFFFFFFFFFFFFFFFFFFFFFFFFFFFFFFFFFFFFFFFFFFFFFFFFFFFFFFFFFFFFFF
310
FFFFFFFFFFFFFFFFFFFFFFFFFFFFFFFFFFFFFFFFFFFFFFFFFFFFFFFFFFFFFFFF
310
FFFFFFFFFFFFFFFFFFFFFFFFFFFFFFFFFFFFFFFFFFFFFFFFFFFFFFFFFFFFFFFF
310
FFFFFFFFFFFFFFFFFFFFFFFFFFFFFFFFFFFFFFFFFFFFFFFFFFFFFFFFFFFFFFFF
310
FFFFFFFFFFFFFFFFFFFFFFFFFFFFFFFFFFFFFFFFFFFFFFFFFFFFFFFFFFFFFFFF
310
FFFFFFFFFFFFFFFFFFFFFFFFFFFFFFFFFFFFFFFFFFFFFFFFFFFFFFFFFFFFFFFF
310
FFFFFFFFFFFFFFFFFFFFFFFFFFFFFFFFFFFFFFFFFFFFFFFFFFFFFFFFFFFFFFFF
310
FFFFFFFFFFFFFFFFFFFFFFFFFFFFFFFFFFFFFFFFFFFFFFFFFFFFFFFFFFFFFFFF
310
52006F006F007400200045006E00740072007900000000000000000000000000
310
0000000000000000000000000000000000000000000000000000000000000000
310
16000500FFFFFFFFFFFFFFFF020000000A00030000000000C000000000000046
310
000000000000000000000000602DC62A9208CC0103000000C000000000000000
310
01004F006C006500000000000000000000000000000000000000000000000000
310
0000000000000000000000000000000000000000000000000000000000000000
310
0A000200FFFFFFFFFFFFFFFFFFFFFFFF00000000000000000000000000000000
310
0000000000000000000000000000000000000000000000001400000000000000
310
010043006F006D0070004F0062006A0000000000000000000000000000000000
310
0000000000000000000000000000000000000000000000000000000000000000
310
120002010100000003000000FFFFFFFF00000000000000000000000000000000
310
0000000000000000000000000000000000000000010000004D00000000000000
310
01004F006C006500310030004E00610074006900760065000000000000000000
310
0000000000000000000000000000000000000000000000000000000000000000
310
1A000200FFFFFFFFFFFFFFFFFFFFFFFF00000000000000000000000000000000
310
0000000000000000000000000000000000000000040000002426000000000000
310
FEFFFFFF02000000FEFFFFFFFFFFFFFFFFFFFFFFFFFFFFFFFFFFFFFFFFFFFFFF
310
FFFFFFFFFFFFFFFFFFFFFFFFFFFFFFFFFFFFFFFFFFFFFFFFFFFFFFFFFFFFFFFF
310
FFFFFFFFFFFFFFFFFFFFFFFFFFFFFFFFFFFFFFFFFFFFFFFFFFFFFFFFFFFFFFFF
310
FFFFFFFFFFFFFFFFFFFFFFFFFFFFFFFFFFFFFFFFFFFFFFFFFFFFFFFFFFFFFFFF
310
FFFFFFFFFFFFFFFFFFFFFFFFFFFFFFFFFFFFFFFFFFFFFFFFFFFFFFFFFFFFFFFF
310
FFFFFFFFFFFFFFFFFFFFFFFFFFFFFFFFFFFFFFFFFFFFFFFFFFFFFFFFFFFFFFFF
310
FFFFFFFFFFFFFFFFFFFFFFFFFFFFFFFFFFFFFFFFFFFFFFFFFFFFFFFFFFFFFFFF
310
FFFFFFFFFFFFFFFFFFFFFFFFFFFFFFFFFFFFFFFFFFFFFFFFFFFFFFFFFFFFFFFF
310
FFFFFFFFFFFFFFFFFFFFFFFFFFFFFFFFFFFFFFFFFFFFFFFFFFFFFFFFFFFFFFFF
310
FFFFFFFFFFFFFFFFFFFFFFFFFFFFFFFFFFFFFFFFFFFFFFFFFFFFFFFFFFFFFFFF
310
FFFFFFFFFFFFFFFFFFFFFFFFFFFFFFFFFFFFFFFFFFFFFFFFFFFFFFFFFFFFFFFF
310
FFFFFFFFFFFFFFFFFFFFFFFFFFFFFFFFFFFFFFFFFFFFFFFFFFFFFFFFFFFFFFFF
310
FFFFFFFFFFFFFFFFFFFFFFFFFFFFFFFFFFFFFFFFFFFFFFFFFFFFFFFFFFFFFFFF
310
FFFFFFFFFFFFFFFFFFFFFFFFFFFFFFFFFFFFFFFFFFFFFFFFFFFFFFFFFFFFFFFF
310
FFFFFFFFFFFFFFFFFFFFFFFFFFFFFFFFFFFFFFFFFFFFFFFFFFFFFFFFFFFFFFFF
310
FFFFFFFFFFFFFFFFFFFFFFFFFFFFFFFFFFFFFFFFFFFFFFFFFFFFFFFFFFFFFFFF
310
010000020000000000000000000000000000000000000000AB00820000000004
310
60220C3600000000C80225000000000000000000000000000000000000000000
310
0100FEFF030A0000FFFFFFFF0A00030000000000C00000000000004607000000
310
5042727573680007000000504272757368000700000050427275736800F439B2
310
7100000000000000000000000000000000000000000000000000000000000000
310
0000000000000000000000000000000000000000000000000000000000000000
310
0000000000000000000000000000000000000000000000000000000000000000
310
0000000000000000000000000000000000000000000000000000000000000000
310
0000000000000000000000000000000000000000000000000000000000000000
310
0000000000000000000000000000000000000000000000000000000000000000
310
0000000000000000000000000000000000000000000000000000000000000000
310
0000000000000000000000000000000000000000000000000000000000000000
310
0000000000000000000000000000000000000000000000000000000000000000
310
0000000000000000000000000000000000000000000000000000000000000000
310
0000000000000000000000000000000000000000000000000000000000000000
310
0000000000000000000000000000000000000000000000000000000000000000
310
20260000424D0E260000000000003E00000028000000B40200006E0000000100
310
01000000000000000000130B0000130B00000200000002000000000000FFFFFF
310
FFFFFFFFFFFFFFFFFFFFFFFFFFFFFFFFFFFFFFFFFFFFFFFFFFFFFFFFFFFFFFFF
310
FFFFFFFFFFFFFFFFFFFFFFFFFFFFFFFFFFFFFFFFFFFFFFFFFFFFFFFFFFFFFFFF
310
FFFFFFFFFFFFFFFFFFFFFFFFFFFFFFFFFFFFFFFFFFFFFFFFF000FFFFFFFFFFFF
310
FFFFFFFFFFFFFFFFFFFFFFFFFFFFFFFFFFFFFFFFFFFFFFFFFFFFFFFFFFFFFFFF
310
FFFFFFFFFFFFFFFFFFFFFFFFFFFFFFFFFFFFFFFFFFFFFFFFFFFFFFFFFFFFFFFF
310
FFFFFFFFFFFFFFFFFFFFFFFFFFFFFFFFF000FFFFFFFFFFFFFFFFFFFFFFFFFFFF
310
FFFFFFFFFFFFFFFFFFFFFFFFFFFFFFFFFFFFFFFFFFFFFFFFFFFFFFFFFFFFFFFF
310
FFFFFFFFFFFFFFFFFFFFFFFFFFFFFFFFFFFFFFFFFFFFFFFFFFFFFFFFFFFFFFFF
310
FFFFFFFFFFFFFFFFF000FFFFFFFFFFFFFFFFFFFFFFFFFFFFFFFFFFFFFFFFFFFF
310
FFFFFFFFFFFFFFFFFFFFFFFFFFFFFFFFFFFFFFFFFFFFFFFFFFFFFFFFFFFFFFFF
310
FFFFFFFFFFFFFFFFFFFFFFFFFFFFFFFFFFFFFFFFFFFFFFFFFFFFFFFFFFFFFFFF
310
F000FFFFFFFFFFFFFFFFFFFFFFFFFFFFFFFFFFFFFFFFFFFFFFFFFFFFFFFFFFFF
310
FFFFFFFFFFFFFFFFFFFFFFFFFFFFFFFFFFFFFFFFFFFFFFFFFFFFFFFFFFFFFFFF
310
FFFFFFFFFFFFFFFFFFFFFFFFFFFFFFFFFFFFFFFFFFFFFFFFF000FFFFFFFFFFFF
310
FFFFFFFFFFFFFFFFFFFFFFFFFFFFFFFFFFFFFFFFFFFFFFFFFFFFFFFFFFFFFFFF
310
FFFFFFFFFFFFFFFFFFFFFFFFFFFFFFFFFFFFFFFFFFFFFFFFFFFFFFFFFFFFFFFF
310
FFFFFFFFFFFFFFFFFFFFFFFFFFFFFFFFF000FFFFFFFFFFFFFFFFFFFFFFFFFFFF
310
FFFFFFFFFFFFFFFFFFFFFFFFFFFFFFFFFFFFFFFFFFFFFFFFFFFFFFFFFFFFFFFF
310
FFFFFFFFFFFFFFFFFFFFFFFFFFFFFFFFFFFFFFFFFFFFFFFFFFFFFFFFFFFFFFFF
310
FFFFFFFFFFFFFFFFF000FFFFFFFFFFFFFFFFFFFFFFFFFFFFFFFFFFFFFFFFFFFF
310
FFFFFFFFFFFFFFFFFFFFFFFFFFFFFFFFFFFFFFFFFFFFFFFFFFFFFFFFFFFFFFFF
310
FFFFFFFFFFFFFFFFFFFFFFFFFFFFFFFFFFFFFFFFFFFFFFFFFFFFFFFFFFFFFFFF
310
F000FFFFFFFFFFFFFFFFFFFFFFFFFFFFFFFFFFFFFFFFFFFFFFFFFFFFFFFFFFFF
310
FFFFFFFFFFFFFFFFFFFFFFFFFFFFFFFFFFFFFFFFFFFFFFFFFFFFFFFFFFFFFFFF
310
FFFFFFFFFFFFFFFFFFFFFFFFFFFFFFFFFFFFFFFFFFFFFFFFF000FFFFFFFFFFFF
310
FFFFFFFFFFFFFFFFFFFFFFFFFFFFFFFFFFFFFFFFFFFFFFFFFFFFFFFFFFFFFFFF
310
FFFFFFFFFFFFFFFFFFFFFFFFFFFFFFFFFFFFFFFFFFFFFFFFFFFFFFFFFFFFFFFF
310
FFFFFFFFFFFFFFFFFFFFFFFFFFFFFFFFF000FFFFFFFFFFFFFFFFFFFFFFFFFFFF
310
FFFFFFFFFFFFFFFFFFFFFFFFFFFFFFFFFFFFFFFFFFFFFFFFFFFFFFFFFFFFFFFF
310
FFFFFFFFFFFFFFFFFFFFFFFFFFFFFFFFFFFFFFFFFFFFFFFFFFFFFFFFFFFFFFFF
310
FFFFFFFFFFFFFFFFF000FFFFFFFFFFFFFFFFFFFFFFFFFFFFFFFFFFFFFFFFFFFF
310
FFFFFFFFFFFFFFFFFFFFFFFFFFFFFFFFFFFFFFFFFFFFFFFFFFFFFFFFFFFFFFFF
310
FFFFFFFFFFFFFFFFFFFFFFFFFFFFFFFFFFFFFFFFFFFFFFFFFFFFFFFFFFFFFFFF
310
F000FFFFFFFFFFFFFFFFFFFFFFFFFFFFFFFFFFFFFFFFFFFFFFFFFFFFFFFFFFFF
310
FFFFFFFFFFFFFFFFFFFFFFFFFFFFFFFFFFFFFFFFFFFFFFFFFFFFFFFFFFFFFFFF
310
FFFFFFFFFFFFFFFFFFFFFFFFFFFFFFFFFFFFFFFFFFFFFFFFF000FFFFFFFFFFFF
310
FFFFFFFFFFFFFFFFFFFFFFFFFFFFFFFFFFFFFFFFFFFFFFFFFFFFFFFFFFFFFFFF
310
FFFFFFFFFFFFFFFFFFFFFFFFFFFFFFFFFFFFFFFFFFFFFFFFFFFFFFFFFFFFFFFF
310
FFFFFFFFFFFFFFFFFFFFFFFFFFFFFFFFF000FFFFFFFFFFFFFFFFFFFFFFFFFFFF
310
FFFFFFFFFFFFFFFFFFFFFFFFFFFFFFFFFFFFFFFFFFFFFFFFFFFFFFFFFFFFFFFF
310
FFFFFFFFFFFFFFFFFFFFFFFFFFFFFFFFFFFFFFFFFFFFFFFFFFFFFFFFFFFFFFFF
310
FFFFFFFFFFFFFFFFF000FFFFFFFFFFFFFFFFFFFFFFFFFFFFFFFFFFFFFFFFFFFF
310
FFFFFFFFFFFFFFFFFFFFFFFFFFFFFFFFFFFFFFFFFFFFFFFFFFFFFFFFFFFFFFFF
310
FFFFFFFFFFFFFFFFFFFFFFFFFFFFFFFFFFFFFFFFFFFFFFFFFFFFFFFFFFFFFFFF
310
F000FFFFFFFFFFFFFFFFFFFFFFFFFFFFFFFFFFFFFFFFFFFFFFFFFFFFFFFFFFFF
310
FFFFFFFFFFFFFFFFFFFFFFFFFFFFFFFFFFFFFFFFFFFFFFFFFFFFFFFFFFFFFFFF
310
FFFFFFFFFFFFFFFFFFFFFFFFFFFFFFFFFFFFFFFFFFFFFFFFF000FFFFFFFFFFFF
310
FFFFFFFFFFFFFFFFFFFFFFFFFFFFFFFFFFFFFFFFFFFFFFFFFFFFFFFFFFFFFFFF
310
FFFFFFFFFFFFFFFFFFFFFFFFFFFFFFFFFFFFFFFFFFFFFFFFFFFFFFFFFFFFFFFF
310
FFFFFFFFFFFFFFFFFFFFFFFFFFFFFFFFF000FFFFFFFFFFFFFFFFFFFFFFFFFFFF
310
FFFFFFFFFFFFFFFFFFFFFFFFFFFFFFFFFFFFFFFFFFFFFFFFFFFFFFFFFFFFFFFF
310
FFFFFFFFFFFFFFFFFFFFFFFFFFFFFFFFFFFFFFFFFFFFFFFFFFFFFFFFFFFFFFFF
310
FFFFFFFFFFFFFFFFF000FFFFF80003FFFFFFFFFFFFFFFFFFFFFFFFFFFFFFFFFF
310
FFFFF00007FFFFFFFFFF00007FFFFFF800000000000000007FFFFFFFFFFFFFFF
310
FFFFFFFC001FFFFFFFFFFFFFFC001FFFFFFFFFFFFFFFFFFFFFFFFFFE0007FFFF
310
F000FFFF8000007FFFFFFFF8000FFFFFC0007FFFFF80007FFFFF0000007FFFFF
310
FFF8000007FFFFF800000000000000007FFFFFF0001FFFFFFFFFFFC00001FFFF
310
FFFFFFFFC00001FFFFFFFF000000000003FFFFE000007FFFF000FFFE0000000F
310
FFFFFFF0000FFFFF80007FFFFF80007FFFFC0000001FFFFFFFC0000001FFFFF8
310
00000000000000007FFFFFF0001FFFFFFFFFFE0000003FFFFFFFFFFE0000003F
310
FFFFFF000000000003FFFF0000000FFFF000FFF800000003FFFFFFF00007FFFF
310
80007FFFFF80007FFFF000000007FFFFFF000000003FFFF80000000000000000
310
7FFFFFF0001FFFFFFFFFF80000000FFFFFFFFFF80000000FFFFFFF0000000000
310
03FFFC00000003FFF000FFE000000000FFFFFFF00007FFFF80003FFFFF80007F
310
FFC000000001FFFFFC000000001FFFF800000000000000007FFFFFF0001FFFFF
310
FFFFE000000003FFFFFFFFE000000003FFFFFF000000000003FFF000000000FF
310
F000FF80000000007FFFFFF00007FFFF80003FFFFF80007FFF8000000000FFFF
310
F80000000007FFF800000000000000007FFFFFF0001FFFFFFFFFC000000001FF
310
FFFFFFC000000001FFFFFF000000000003FFC0000000007FF000FF0000000000
310
3FFFFFE00007FFFF00003FFFFF80007FFE00000000003FFFF00000000003FFF8
310
00000000000000007FFFFFF0001FFFFFFFFF8000000000FFFFFFFF8000000000
310
FFFFFF000000000003FF80000000003FF000FE00000000001FFFFFE00003FFFF
310
00003FFFFF80007FFC00000000001FFFE00000000001FFF8000001FFFE000000
310
7FFFFFF0001FFFFFFFFE00000000003FFFFFFE00000000003FFFFF0000000000
310
03FF00000000001FF000FC00000000000FFFFFE00003FFFF00001FFFFF80007F
310
F800000000001FFFC00000000000FFF8000001FFFE0000007FFFFFF0001FFFFF
310
FFFC00000000001FFFFFFC00000000001FFFFF000000000003FE00000000000F
310
F000F8000000000007FFFFE00003FFFF00001FFFFF80007FF800000000000FFF
310
800000000000FFF8000001FFFE0000007FFFFFF0001FFFFFFFF800000000000F
310
FFFFF800000000000FFFFF000000000003FC000000000007F000F80000000000
310
03FFFFC00003FFFE00001FFFFF80007FF0000000000007FF0000000000007FF8
310
000001FFFE0000007FFFFFF0001FFFFFFFF0000000000007FFFFF00000000000
310
07FFFF000000000003F8000000000003F000F0000000000003FFFFC00001FFFE
310
00001FFFFF80007FE0000000000007FE0000000000003FF8000001FFFE000000
310
7FFFFFF0001FFFFFFFF0000000000007FFFFF0000000000007FFFF0000000000
310
03F800001F800003F000E00001FFF00001FFFFC00001FFFE00000FFFFF80007F
310
E00001FFE00003FE00001FFF00003FF8000001FFFE0000007FFFFFF0001FFFFF
310
FFE000003E000003FFFFE000003E000003FFFF000000000003F00001FFF80001
310
F000E00007FFFC0001FFFFC00001FFFE00000FFFFF80007FC0000FFFFC0003FC
310
0000FFFFC0001FF8000001FFFE0000007FFFFFF0001FFFFFFFC00003FFE00001
310
FFFFC00003FFE00001FFFF0001FFFFFFFFF00007FFFE0001F000E0000FFFFF00
310
00FFFF800001FFFC00000FFFFF80007FC0001FFFFE0001FC0001FFFFE0001FF8
310
000001FFFE0000007FFFFFF0001FFFFFFF80000FFFF80000FFFF80000FFFF800
310
00FFFF0003FFFFFFFFE0000FFFFF8000F000C0003FFFFF8000FFFF800000FFFC
310
000007FFFF80007F80003FFFFF0001FC0003FFFFF0001FF8000001FFFE000000
310
7FFFFFF0001FFFFFFF80003FFFFE0000FFFF80003FFFFE0000FFFF0003FFFFFF
310
FFE0003FFFFF8000F000C0003FFFFF8000FFFF800000FFFC000007FFFF80007F
310
80007FFFFF8001F80007FFFFF8000FF8000001FFFE0000007FFFFFF0001FFFFF
310
FF00007FFFFF00007FFF00007FFFFF00007FFF0003FFFFFFFFE0003FFFFFC000
310
F000C0007FFFFFC000FFFF000000FFFC000007FFFF80007F8000FFFFFF8000F8
310
000FFFFFF8000FF8000001FFFE0000007FFFFFF0001FFFFFFF0000FFFFFF8000
310
7FFF0000FFFFFF80007FFF0003FFFFFFFFC0007FFFFFC00070008000FFFFFFC0
310
00FFFF000000FFF8000007FFFF80007F8000FFFFFF8000F8000FFFFFF8000FF8
310
000001FFFE0000007FFFFFF0001FFFFFFE0001FFFFFFC0003FFE0001FFFFFFC0
310
003FFF0003FFFFFFFFC0007FFFFFE00070008000FFFFFFC0007FFF0000007FF8
310
000003FFFF80007F0001FFFFFF8000F8000FFFFFF8000FF8000001FFFE000000
310
7FFFFFF0001FFFFFFE0001FFFFFFC0003FFE0001FFFFFFC0003FFF0003FFFFFF
310
FFC000FFFFFFE00070008000FFFFFFC0007FFF0000007FF8000003FFFF80007F
310
0001FFFFFF8000F8001FFFFFF8000FF8000001FFFE0000007FFFFFF0001FFFFF
310
FE0003FFFFFFE0003FFE0003FFFFFFE0003FFF0003FFFFFFFFC000FFFFFFE000
310
70008000FFFFFFC0007FFE0000007FF8000003FFFF80007F0001FFFFFF8000F0
310
001FFFFFF8000FF8000001FFFE0000007FFFFFF0001FFFFFFC0003FFFFFFE000
310
1FFC0003FFFFFFE0001FFF0003FFFFFFFFC000FFFFFFC00070008000FFFFFF80
310
007FFE0000007FF0000003FFFF80007F0001FFFFFF0000F0001FFFFFF8000FF8
310
000001FFFE0000007FFFFFF0001FFFFFFC0007FFFFFFF0001FFC0007FFFFFFF0
310
001FFF0003FFFFFFFFC000FFFFFFC00070008001FFFFFF0000FFFE0000003FF0
310
000001FFFF80007F0001FFFFFF0000F8001FFFFFF0000FF8000001FFFE000000
310
7FFFFFF0001FFFFFFC0007FFFFFFF0001FFC0007FFFFFFF0001FFF0003FFFFFF
310
FFC001FFFFFF80007000FFFFFFFFFE0000FFFE0008003FF0008001FFFF80007F
310
FFFFFFFFFC0000FFFFFFFFFFE0000FF8000001FFFE0000007FFFFFF0001FFFFF
310
F8000FFFFFFFF8000FF8000FFFFFFFF8000FFF0003FFFFFFFFFFFFFFFFFF0000
310
7000FFFFFFFFFC0000FFFC0008003FF0008001FFFF80007FFFFFFFFFF80001FF
310
FFFFFFFF80000FF8000001FFFE0000007FFFFFF0001FFFFFF8000FFFFFFFF800
310
0FF8000FFFFFFFF8000FFF0003FFFFFFFFFFFFFFFFFE0000F000FFFFFFFFE000
310
00FFFC000C003FE000C001FFFF80007FFFFFFFFFC00001FFFFFFFFFE00001FF8
310
000001FFFE0000007FFFFFF0001FFFFFF8000FFFFFFFF8000FF8000FFFFFFFF8
310
000FFF0003FFFFFFFFFFFFFFFFF00000F000FFFFFFFE000001FFFC000C001FE0
310
00C000FFFF80007FFFFFFFFE000001FFFFFFFFE000001FF80FFFFFFFFFFFFFC0
310
7FFFFFF0001FFFFFF8000FFFFFFFF8000FF8000FFFFFFFF8000FFF0003FFFFFF
310
FFFFFFFFFF800000F000FFFFFFC0000001FFFC001C001FE001C000FFFF80007F
310
FFFFFF80000003FFFFFFF80000001FF80FFFFFFFFFFFFFC07FFFFFF0001FFFFF
310
F8001FFFFFFFFC000FF8001FFFFFFFFC000FFF0003FFFFFFFFFFFFFFF0000001
310
F000FFFFF800000001FFF8001C001FE001C000FFFF80007FFFFFF800000003FF
310
FFFF800000003FF80FFFFFFFFFFFFFC07FFFFFF0001FFFFFF8001FFFFFFFFC00
310
0FF8001FFFFFFFFC000FFF0003FFFFFFFFFFFFFE00000001F000FFFFC0000000
310
03FFF8001E001FC001E000FFFF80007FFFFF8000000007FFFFFC000000003FF8
310
0FFFFFFFFFFFFFC07FFFFFF0001FFFFFF8001FFFFFFFFC000FF8001FFFFFFFFC
310
000FFF0003FFFFFFFFFFFFE000000003F000FFFE0000000007FFF8001E000FC0
310
01E0007FFF80007FFFFE0000000007FFFFE0000000007FF80FFFFFFFFFFFFFC0
310
7FFFFFF0001FFFFFF0001FFFFFFFFC0007F0001FFFFFFFFC0007FF0003FFFFFF
310
FFFFFF0000000003F000FFF80000000007FFF8001E000FC003E0007FFF80007F
310
FFF0000000000FFFFF8000000000FFF80FFFFFFFFFFFFFC07FFFFFF0001FFFFF
310
F0001FFFFFFFFC0007F0001FFFFFFFFC0007FF0003FFFFFFFFFFFC0000000007
310
F000FFE0000000000FFFF0003E000FC003E0007FFF80007FFFC0000000001FFF
310
FE0000000001FFF80FFFFFFFFFFFFFC07FFFFFF0001FFFFFF0001FFFFFFFFC00
310
07F0001FFFFFFFFC0007FF0003FFFFFFFFFFF0000000000FF000FFC000000000
310
1FFFF0003F000F8003F0003FFF80007FFF80000000003FFFF80000000003FFF8
310
0FFFFFFFFFFFFFC07FFFFFF0001FFFFFF0001FFFFFFFFC0007F0001FFFFFFFFC
310
0007FF0003FFFFFFFFFFE0000000001FF000FF00000000007FFFF0003F000780
310
03F0003FFF80007FFF00000000007FFFF00000000007FFF80FFFFFFFFFFFFFC0
310
7FFFFFF0001FFFFFF0001FFFFFFFFC0007F0001FFFFFFFFC0007FF0003FFFFFF
310
FFFF80000000007FF000FE0000000000FFFFE0003F00078007F0003FFF80007F
310
FE0000000001FFFFE0000000001FFFF80FFFFFFFFFFFFFC07FFFFFF0001FFFFF
310
F0001FFFFFFFFC0007F0001FFFFFFFFC0007FF0003FFFFFFFFFF0000000000FF
310
F000FC0000000003FFFFE0007F00078007F0003FFF80007FFC0000000007FFFF
310
C0000000007FFFF80FFFFFFFFFFFFFC07FFFFFF0001FFFFFF8001FFFFFFFFC00
310
0FF8001FFFFFFFFC000FFF0003FFFFFFFFFE0000000003FFF000FC000000000F
310
FFFFE0007F80070007F8001FFF80007FF8000000001FFFFF8000000001FFFFF8
310
0FFFFFFFFFFFFFC07FFFFFF0001FFFFFF8001FFFFFFFFC000FF8001FFFFFFFFC
310
000FFF0003FFFFFFFFFC000000000FFFF000F8000000007FFFFFE0007F800700
310
07F8001FFF80007FF000000000FFFFFF800000000FFFFFF80FFFFFFFFFFFFFC0
310
7FFFFFF0001FFFFFF8000FFFFFFFF8000FF8000FFFFFFFF8000FFF0003FFFFFF
310
FFFC000000007FFFF000F800000007FFFFFFC0007F8003000FF8001FFF80007F
310
F000000007FFFFFF000000007FFFFFF80FFFFFFFFFFFFFC07FFFFFF0001FFFFF
310
F8000FFFFFFFF8000FF8000FFFFFFFF8000FFF0003FFFFFFFFF80000000FFFFF
310
F000F0000000FFFFFFFFC000FF8003000FF8001FFF80007FE0000000FFFFFFFF
310
0000000FFFFFFFF8000001FFFE0000007FFFFFF0001FFFFFF8000FFFFFFFF800
310
0FF8000FFFFFFFF8000FFF0003FFFFFFFFF8000000FFFFFFF000F000000FFFFF
310
FFFFC000FFC002000FF8000FFF80007FE000001FFFFFFFFE000001FFFFFFFFF8
310
000001FFFE0000007FFFFFF0001FFFFFF8000FFFFFFFF8000FF8000FFFFFFFF8
310
000FFF0003FFFFFFFFF000001FFFFFFFF000E00000FFFFFFFFFFC000FFC00200
310
0FFC000FFF80007FE00001FFFFFFFFFE00001FFFFFFFFFF8000001FFFE000000
310
7FFFFFF0001FFFFFFC000FFFFFFFF8001FFC000FFFFFFFF8001FFF0003FFFFFF
310
FFF00001FFFFFFFFF000E00007FFFFFFFFFF8000FFC000001FFC000FFF80007F
310
C0000FFFFFFFFFFE0000FFFFFFFFFFF8000001FFFE0000007FFFFFF0001FFFFF
310
FC0007FFFFFFF0001FFC0007FFFFFFF0001FFF0003FFFFFFFFF00007FFFFFFFF
310
F000E0001FFFFFFFFFFF8000FFC000001FFC000FFF80007FC0003FFFFFFFFFFE
310
0001FFFFFFFFFFF8000001FFFE0000007FFFFFF0001FFFFFFC0007FFFFFFF000
310
1FFC0007FFFFFFF0001FFF0003FFFFFFFFF0001FFFFFFFFFF000E0003FFFFF00
310
03FF8001FFE000001FFC0007FF80007FC0007FFFFF0007FC0003FFFFF0003FF8
310
000001FFFE0000007FFFFFF0001FFFFFFC0003FFFFFFE0001FFC0003FFFFFFE0
310
001FFF0003FFFFFFFFF0003FFFFFFFFFF000E0003FFFFF0001FF8001FFE00000
310
1FFE0007FF80007FC0007FFFFE0003FC0007FFFFE0003FF8000001FFFE000000
310
7FFFFFF0001FFFFFFE0003FFFFFFE0003FFE0003FFFFFFE0003FFF0003FFFFFF
310
FFF0003FFFFF8001F000E0003FFFFF0001FF0001FFE000001FFE0007FF80007F
310
C0007FFFFE0003FC0007FFFFE0003FF8000001FFFE0000007FFFFFF0001FFFFF
310
FE0001FFFFFFC0003FFE0001FFFFFFC0003FFF0003FFFFFFFFF0003FFFFF0001
310
F000E0003FFFFF0003FF0001FFE000003FFE0007FF80007FC0007FFFFE0003FC
310
0007FFFFE0003FF8000001FFFE0000007FFFFFF0001FFFFFFF0001FFFFFFC000
310
7FFF0001FFFFFFC0007FFF0003FFFFFFFFF0003FFFFF0001F000E0003FFFFE00
310
03FF0003FFF000003FFE0003FF80007FC0007FFFFC0003FE0007FFFFE0003FF8
310
000001FFFE0000007FFFFFF0001FFFFFFF0000FFFFFF80007FFF0000FFFFFF80
310
007FFF0003FFFFFFFFF0003FFFFF0001F000E0003FFFFE0003FF0003FFF00000
310
3FFF0003FF80007FC0007FFFFC0007FE0007FFFFC0003FF8000001FFFE000000
310
7FFFFFF0001FFFFFFF80007FFFFF0000FFFF80007FFFFF0000FFFF0003FFFFFF
310
FFF0003FFFFF0003F000E0003FFFFC0003FE0003FFF000003FFF0003FF80007F
310
E0003FFFF80007FE0003FFFFC0007FF8000001FFFE0000007FFFFFF0001FFFFF
310
FF80003FFFFE0000FFFF80003FFFFE0000FFFF0003FFFFFFFFF0001FFFFE0003
310
F000F0001FFFF80003FE0003FFF000007FFF0001FF80007FE0003FFFF00007FE
310
0001FFFF80007FF8000001FFFE0000007FFFFFF0001FFFFFFFC0000FFFF80001
310
FFFFC0000FFFF80001FFFF0003FFFFFFFFF0001FFFFC0003F000F0000FFFF000
310
07FE0007FFF800007FFF0001FF80007FE0001FFFE00007FF0000FFFE00007FF8
310
000001FFFE0000007FFFFFF0001FFFFFFFC00003FFE00001FFFFC00003FFE000
310
01FFFF0003FFFFFFFFF8000FFFF80003F000F00003FFC00007FC0007FFF80000
310
7FFF8001FF80007FF00007FF80000FFF00007FF80000FFF8000001FFFE000000
310
7F80000000000001FFE000003E000003FFFFE000003E000003FFFF0003FFFFFF
310
FFF80003FFE00007F000F800000000000FFC0007FFF800007FFF8001FF80007F
310
F000000000000FFF000000000000FFF8000001FFFE0000007F80000000000001
310
FFF0000000000007FFFFF0000000000007FFFF0003FFFFFFFFFC00007E000007
310
F000F800000000000FFC0007FFF80000FFFF8000FF80007FF800000000001FFF
310
800000000001FFF8000001FFFE0000007F80000000000001FFF800000000000F
310
FFFFF800000000000FFFFF0003FFFFFFFFFC00000000000FF000FC0000000000
310
1FFC0007FFFC0000FFFF8000FF80007FF800000000003FFFC00000000001FFF8
310
000001FFFE0000007F80000000000001FFF800000000000FFFFFF80000000000
310
0FFFFF0003FFFFFFFFFE00000000001FF000FE00000000003FF8000FFFFC0000
310
FFFF8000FF80007FFC00000000003FFFC00000000003FFF8000001FFFE000000
310
7F80000000000001FFFC00000000001FFFFFFC00000000001FFFFF0003FFFFFF
310
FFFF00000000001FF000FF00000000003FF8000FFFFC0000FFFFC000FF80007F
310
FE00000000007FFFE00000000007FFF8000001FFFE0000007F80000000000001
310
FFFE00000000003FFFFFFE00000000003FFFFF0003FFFFFFFFFF80000000003F
310
F000FF80000000007FF8000FFFFC0001FFFFC0007F80007FFF0000000000FFFF
310
F0000000000FFFF800000000000000007F80000000000001FFFF8000000000FF
310
FFFFFF8000000000FFFFFF0003FFFFFFFFFFC0000000007FF000FFC000000000
310
FFF8000FFFFE0001FFFFC0007F80007FFF8000000001FFFFF8000000001FFFF8
310
00000000000000007F80000000000001FFFFC000000001FFFFFFFFC000000001
310
FFFFFF0003FFFFFFFFFFE000000000FFF000FFE000000003FFF0001FFFFE0001
310
FFFFC0007F80007FFFC000000007FFFFFE000000003FFFF80000000000000000
310
7F80000000000001FFFFE000000003FFFFFFFFE000000003FFFFFF0003FFFFFF
310
FFFFF000000003FFF000FFF80000000FFFF0001FFFFE0001FFFFE0007F80007F
310
FFF00000000FFFFFFF00000000FFFFF800000000000000007F80000000000001
310
FFFFF80000000FFFFFFFFFF80000000FFFFFFF0003FFFFFFFFFFFC0000000FFF
310
F000FFFE0000003FFFF0001FFFFE0003FFFFE0003F80007FFFFC0000003FFFFF
310
FFC0000003FFFFF800000000000000007F80000000000001FFFFFE0000003FFF
310
FFFFFFFE0000003FFFFFFF0003FFFFFFFFFFFF0000003FFFF000FFFF800000FF
310
FFF0001FFFFF0003FFFFE0003F80007FFFFF000001FFFFFFFFF800001FFFFFF8
310
00000000000000007F80000000000001FFFFFFC00001FFFFFFFFFFFFC00001FF
310
FFFFFF0003FFFFFFFFFFFFC00000FFFFF000FFFFF8000FFFFFFFFFFFFFFFFFFF
310
FFFFFFFFFFFFFFFFFFFFF0001FFFFFFFFFFF0000FFFFFFF80000000000000000
310
7FFFFFFFFFFFFFFFFFFFFFFC001FFFFFFFFFFFFFFC001FFFFFFFFFFFFFFFFFFF
310
FFFFFFFC001FFFFFF000FFFFFFFFFFFFFFFFFFFFFFFFFFFFFFFFFFFFFFFFFFFF
310
FFFFFFFFFFFFFFFFFFFFFFFFFFFFFFFFFFFFFFFFFFFFFFFFFFFFFFFFFFFFFFFF
310
FFFFFFFFFFFFFFFFFFFFFFFFFFFFFFFFFFFFFFFFFFFFFFFFFFFFFFFFFFFFFFFF
310
F000FFFFFFFFFFFFFFFFFFFFFFFFFFFFFFFFFFFFFFFFFFFFFFFFFFFFFFFFFFFF
310
FFFFFFFFFFFFFFFFFFFFFFFFFFFFFFFFFFFFFFFFFFFFFFFFFFFFFFFFFFFFFFFF
310
FFFFFFFFFFFFFFFFFFFFFFFFFFFFFFFFFFFFFFFFFFFFFFFFF000FFFFFFFFFFFF
310
FFFFFFFFFFFFFFFFFFFFFFFFFFFFFFFFFFFFFFFFFFFFFFFFFFFFFFFFFFFFFFFF
310
FFFFFFFFFFFFFFFFFFFFFFFFFFFFFFFFFFFFFFFFFFFFFFFFFFFFFFFFFFFFFFFF
310
FFFFFFFFFFFFFFFFFFFFFFFFFFFFFFFFF000FFFFFFFFFFFFFFFFFFFFFFFFFFFF
310
FFFFFFFFFFFFFFFFFFFFFFFFFFFFFFFFFFFFFFFFFFFFFFFFFFFFFFFFFFFFFFFF
310
FFFFFFFFFFFFFFFFFFFFFFFFFFFFFFFFFFFFFFFFFFFFFFFFFFFFFFFFFFFFFFFF
310
FFFFFFFFFFFFFFFFF000FFFFFFFFFFFFFFFFFFFFFFFFFFFFFFFFFFFFFFFFFFFF
310
FFFFFFFFFFFFFFFFFFFFFFFFFFFFFFFFFFFFFFFFFFFFFFFFFFFFFFFFFFFFFFFF
310
FFFFFFFFFFFFFFFFFFFFFFFFFFFFFFFFFFFFFFFFFFFFFFFFFFFFFFFFFFFFFFFF
310
F000FFFFFFFFFFFFFFFFFFFFFFFFFFFFFFFFFFFFFFFFFFFFFFFFFFFFFFFFFFFF
310
FFFFFFFFFFFFFFFFFFFFFFFFFFFFFFFFFFFFFFFFFFFFFFFFFFFFFFFFFFFFFFFF
310
FFFFFFFFFFFFFFFFFFFFFFFFFFFFFFFFFFFFFFFFFFFFFFFFF000FFFFFFFFFFFF
310
FFFFFFFFFFFFFFFFFFFFFFFFFFFFFFFFFFFFFFFFFFFFFFFFFFFFFFFFFFFFFFFF
310
FFFFFFFFFFFFFFFFFFFFFFFFFFFFFFFFFFFFFFFFFFFFFFFFFFFFFFFFFFFFFFFF
310
FFFFFFFFFFFFFFFFFFFFFFFFFFFFFFFFF000FFFFFFFFFFFFFFFFFFFFFFFFFFFF
310
FFFFFFFFFFFFFFFFFFFFFFFFFFFFFFFFFFFFFFFFFFFFFFFFFFFFFFFFFFFFFFFF
310
FFFFFFFFFFFFFFFFFFFFFFFFFFFFFFFFFFFFFFFFFFFFFFFFFFFFFFFFFFFFFFFF
310
FFFFFFFFFFFFFFFFF000FFFFFFFFFFFFFFFFFFFFFFFFFFFFFFFFFFFFFFFFFFFF
310
FFFFFFFFFFFFFFFFFFFFFFFFFFFFFFFFFFFFFFFFFFFFFFFFFFFFFFFFFFFFFFFF
310
FFFFFFFFFFFFFFFFFFFFFFFFFFFFFFFFFFFFFFFFFFFFFFFFFFFFFFFFFFFFFFFF
310
F000FFFFFFFFFFFFFFFFFFFFFFFFFFFFFFFFFFFFFFFFFFFFFFFFFFFFFFFFFFFF
310
FFFFFFFFFFFFFFFFFFFFFFFFFFFFFFFFFFFFFFFFFFFFFFFFFFFFFFFFFFFFFFFF
310
FFFFFFFFFFFFFFFFFFFFFFFFFFFFFFFFFFFFFFFFFFFFFFFFF000FFFFFFFFFFFF
310
FFFFFFFFFFFFFFFFFFFFFFFFFFFFFFFFFFFFFFFFFFFFFFFFFFFFFFFFFFFFFFFF
310
FFFFFFFFFFFFFFFFFFFFFFFFFFFFFFFFFFFFFFFFFFFFFFFFFFFFFFFFFFFFFFFF
310
FFFFFFFFFFFFFFFFFFFFFFFFFFFFFFFFF000FFFFFFFFFFFFFFFFFFFFFFFFFFFF
310
FFFFFFFFFFFFFFFFFFFFFFFFFFFFFFFFFFFFFFFFFFFFFFFFFFFFFFFFFFFFFFFF
310
FFFFFFFFFFFFFFFFFFFFFFFFFFFFFFFFFFFFFFFFFFFFFFFFFFFFFFFFFFFFFFFF
310
FFFFFFFFFFFFFFFFF000FFFFFFFFFFFFFFFFFFFFFFFFFFFFFFFFFFFFFFFFFFFF
310
FFFFFFFFFFFFFFFFFFFFFFFFFFFFFFFFFFFFFFFFFFFFFFFFFFFFFFFFFFFFFFFF
310
FFFFFFFFFFFFFFFFFFFFFFFFFFFFFFFFFFFFFFFFFFFFFFFFFFFFFFFFFFFFFFFF
310
F000FFFFFFFFFFFFFFFFFFFFFFFFFFFFFFFFFFFFFFFFFFFFFFFFFFFFFFFFFFFF
310
FFFFFFFFFFFFFFFFFFFFFFFFFFFFFFFFFFFFFFFFFFFFFFFFFFFFFFFFFFFFFFFF
310
FFFFFFFFFFFFFFFFFFFFFFFFFFFFFFFFFFFFFFFFFFFFFFFFF000FFFFFFFFFFFF
310
FFFFFFFFFFFFFFFFFFFFFFFFFFFFFFFFFFFFFFFFFFFFFFFFFFFFFFFFFFFFFFFF
310
FFFFFFFFFFFFFFFFFFFFFFFFFFFFFFFFFFFFFFFFFFFFFFFFFFFFFFFFFFFFFFFF
310
FFFFFFFFFFFFFFFFFFFFFFFFFFFFFFFFF000FFFFFFFFFFFFFFFFFFFFFFFFFFFF
310
FFFFFFFFFFFFFFFFFFFFFFFFFFFFFFFFFFFFFFFFFFFFFFFFFFFFFFFFFFFFFFFF
310
FFFFFFFFFFFFFFFFFFFFFFFFFFFFFFFFFFFFFFFFFFFFFFFFFFFFFFFFFFFFFFFF
310
FFFFFFFFFFFFFFFFF000FFFFFFFFFFFFFFFFFFFFFFFFFFFFFFFFFFFFFFFFFFFF
310
FFFFFFFFFFFFFFFFFFFFFFFFFFFFFFFFFFFFFFFFFFFFFFFFFFFFFFFFFFFFFFFF
310
FFFFFFFFFFFFFFFFFFFFFFFFFFFFFFFFFFFFFFFFFFFFFFFFFFFFFFFFFFFFFFFF
310
F000FFFFFFFFFFFFFFFFFFFFFFFFFFFFFFFFFFFFFFFFFFFFFFFFFFFFFFFFFFFF
310
FFFFFFFFFFFFFFFFFFFFFFFFFFFFFFFFFFFFFFFFFFFFFFFFFFFFFFFFFFFFFFFF
310
FFFFFFFFFFFFFFFFFFFFFFFFFFFFFFFFFFFFFFFFFFFFFFFFF000FFFFFFFFFFFF
310
FFFFFFFFFFFFFFFFFFFFFFFFFFFFFFFFFFFFFFFFFFFFFFFFFFFFFFFFFFFFFFFF
310
FFFFFFFFFFFFFFFFFFFFFFFFFFFFFFFFFFFFFFFFFFFFFFFFFFFFFFFFFFFFFFFF
310
FFFFFFFFFFFFFFFFFFFFFFFFFFFFFFFFF000FFFFFFFFFFFFFFFFFFFFFFFFFFFF
310
FFFFFFFFFFFFFFFFFFFFFFFFFFFFFFFFFFFFFFFFFFFFFFFFFFFFFFFFFFFFFFFF
310
FFFFFFFFFFFFFFFFFFFFFFFFFFFFFFFFFFFFFFFFFFFFFFFFFFFFFFFFFFFFFFFF
310
FFFFFFFFFFFFFFFFF000FFFFFFFFFFFFFFFFFFFFFFFFFFFFFFFFFFFFFFFFFFFF
310
FFFFFFFFFFFFFFFFFFFFFFFFFFFFFFFFFFFFFFFFFFFFFFFFFFFFFFFFFFFFFFFF
310
FFFFFFFFFFFFFFFFFFFFFFFFFFFFFFFFFFFFFFFFFFFFFFFFFFFFFFFFFFFFFFFF
310
F000FFFFFFFFFFFFFFFFFFFFFFFFFFFFFFFFFFFFFFFFFFFFFFFFFFFFFFFFFFFF
310
FFFFFFFFFFFFFFFFFFFFFFFFFFFFFFFFFFFFFFFFFFFFFFFFFFFFFFFFFFFFFFFF
310
FFFFFFFFFFFFFFFFFFFFFFFFFFFFFFFFFFFFFFFFFFFFFFFFF000FFFFFFFFFFFF
310
FFFFFFFFFFFFFFFFFFFFFFFFFFFFFFFFFFFFFFFFFFFFFFFFFFFFFFFFFFFFFFFF
310
FFFFFFFFFFFFFFFFFFFFFFFFFFFFFFFFFFFFFFFFFFFFFFFFFFFFFFFFFFFFFFFF
310
FFFFFFFFFFFFFFFFFFFFFFFFFFFFFFFFF0000000000000000000000000000000
310
0000000001000000010000000100000001000000010000000000000001000000
310
0100000001000000000000000100000001000000010000000100000001000000
310
0100000001000000010000000100000001000000010000000100000001000000
310
0100000001000000010000000100000001000000010000000100000001000000
310
0100000001000000010000000100000001000000010000000100000001000000
310
0100000001000000010000000100000001000000000000000100000001000000
310
0100000001000000010000000100000001000000010000000100000001000000
310
0100000001000000010000000100000001000000010000000100000001000000
310
0100000001000000010000000100000001000000010000000100000001000000
310
0100000001000000010000000100000001000000010000000100000001000000
310
0000000001000000010000000100000001000000010000000100000001000000
310
0100000001000000010000000100000001000000010000000100000001000000
310
0100000001000000010000000100000001000000010000000100000001000000
310
0100000001000000010000000100000001000000010000000100000001000000
310
0100000001000000000000000100000001000000010000000100000001000000
  1
OLE
  0
ENDSEC
  0
SECTION
  2
OBJECTS
  0
DICTIONARY
  5
C
330
0
100
AcDbDictionary
281
     1
  3
ACAD_GROUP
350
D
  3
ACAD_LAYOUT
350
1A
  3
ACAD_MLEADERSTYLE
350
206
  3
ACAD_MLINESTYLE
350
17
  3
ACAD_PLOTSETTINGS
350
19
  3
ACAD_PLOTSTYLENAME
350
E
  3
ACAD_TABLESTYLE
350
205
  3
ACAD_VISUALSTYLE
350
2A
  3
AcDbVariableDictionary
350
207
  0
DICTIONARY
  5
D
102
{ACAD_REACTORS
330
C
102
}
330
C
100
AcDbDictionary
281
     1
  0
DICTIONARY
  5
1A
102
{ACAD_REACTORS
330
C
102
}
330
C
100
AcDbDictionary
281
     1
  3
Layout1
350
1E
  3
Layout2
350
26
  3
Model
350
22
  0
DICTIONARY
  5
206
102
{ACAD_REACTORS
330
C
102
}
330
C
100
AcDbDictionary
281
     1
  0
DICTIONARY
  5
17
102
{ACAD_REACTORS
330
C
102
}
330
C
100
AcDbDictionary
281
     1
  3
Standard
350
18
  0
DICTIONARY
  5
19
102
{ACAD_REACTORS
330
C
102
}
330
C
100
AcDbDictionary
281
     1
  0
ACDBDICTIONARYWDFLT
  5
E
102
{ACAD_REACTORS
330
C
102
}
330
C
100
AcDbDictionary
281
     1
  3
Normal
350
F
100
AcDbDictionaryWithDefault
340
F
  0
DICTIONARY
  5
205
102
{ACAD_REACTORS
330
C
102
}
330
C
100
AcDbDictionary
281
     1
  0
DICTIONARY
  5
2A
102
{ACAD_REACTORS
330
C
102
}
330
C
100
AcDbDictionary
281
     1
  3
2dWireframe
350
2F
  3
3D Hidden
350
31
  3
3dWireframe
350
30
  3
Basic
350
32
  3
Brighten
350
36
  3
ColorChange
350
3A
  3
Conceptual
350
34
  3
Dim
350
35
  3
Facepattern
350
39
  3
Flat
350
2B
  3
FlatWithEdges
350
2C
  3
Gouraud
350
2D
  3
GouraudWithEdges
350
2E
  3
Linepattern
350
38
  3
Realistic
350
33
  3
Thicken
350
37
  0
DICTIONARY
  5
207
102
{ACAD_REACTORS
330
C
102
}
330
C
100
AcDbDictionary
281
     1
  3
PSOLHEIGHT
350
209
  3
PSOLWIDTH
350
208
  0
LAYOUT
  5
1E
102
{ACAD_REACTORS
330
1A
102
}
330
1A
100
AcDbPlotSettings
  1

  2
none_device
  4

  6

 40
0.0
 41
0.0
 42
0.0
 43
0.0
 44
0.0
 45
0.0
 46
0.0
 47
0.0
 48
0.0
 49
0.0
140
0.0
141
0.0
142
1.0
143
1.0
 70
   688
 72
     0
 73
     0
 74
     5
  7

 75
    16
147
1.0
148
0.0
149
0.0
100
AcDbLayout
  1
Layout1
 70
     1
 71
     1
 10
0.0
 20
0.0
 11
420.0
 21
297.0
 12
0.0
 22
0.0
 32
0.0
 14
1.0000000000E+20
 24
1.0000000000E+20
 34
1.0000000000E+20
 15
-1.0000000000E+20
 25
-1.0000000000E+20
 35
-1.0000000000E+20
146
0.0
 13
0.0
 23
0.0
 33
0.0
 16
1.0
 26
0.0
 36
0.0
 17
0.0
 27
1.0
 37
0.0
 76
     0
330
1B
  0
LAYOUT
  5
26
102
{ACAD_REACTORS
330
1A
102
}
330
1A
100
AcDbPlotSettings
  1

  2
none_device
  4

  6

 40
0.0
 41
0.0
 42
0.0
 43
0.0
 44
0.0
 45
0.0
 46
0.0
 47
0.0
 48
0.0
 49
0.0
140
0.0
141
0.0
142
1.0
143
1.0
 70
   688
 72
     0
 73
     0
 74
     5
  7

 75
    16
147
1.0
148
0.0
149
0.0
100
AcDbLayout
  1
Layout2
 70
     1
 71
     2
 10
0.0
 20
0.0
 11
0.0
 21
0.0
 12
0.0
 22
0.0
 32
0.0
 14
0.0
 24
0.0
 34
0.0
 15
0.0
 25
0.0
 35
0.0
146
0.0
 13
0.0
 23
0.0
 33
0.0
 16
1.0
 26
0.0
 36
0.0
 17
0.0
 27
1.0
 37
0.0
 76
     0
330
23
  0
LAYOUT
  5
22
102
{ACAD_REACTORS
330
1A
102
}
330
1A
100
AcDbPlotSettings
  1

  2
none_device
  4

  6

 40
0.0
 41
0.0
 42
0.0
 43
0.0
 44
0.0
 45
0.0
 46
0.0
 47
0.0
 48
0.0
 49
0.0
140
0.0
141
0.0
142
1.0
143
1.0
 70
  1712
 72
     0
 73
     0
 74
     0
  7

 75
     0
147
1.0
148
0.0
149
0.0
100
AcDbLayout
  1
Model
 70
     1
 71
     0
 10
0.0
 20
0.0
 11
297.0
 21
210.0
 12
0.0
 22
0.0
 32
0.0
 14
0.0
 24
0.0
 34
0.0
 15
297.0
 25
210.0
 35
0.0
146
0.0
 13
0.0
 23
0.0
 33
0.0
 16
1.0
 26
0.0
 36
0.0
 17
0.0
 27
1.0
 37
0.0
 76
     0
330
1F
331
29
  0
MLINESTYLE
  5
18
102
{ACAD_REACTORS
330
17
102
}
330
17
100
AcDbMlineStyle
  2
Standard
 70
     0
  3

 62
   256
 51
90.0
 52
90.0
 71
     2
 49
0.5
 62
   256
  6
BYLAYER
 49
-0.5
 62
   256
  6
BYLAYER
  0
ACDBPLACEHOLDER
  5
F
102
{ACAD_REACTORS
330
E
102
}
330
E
  0
VISUALSTYLE
  5
2F
102
{ACAD_REACTORS
330
2A
102
}
330
2A
100
AcDbVisualStyle
  2
2dWireframe
 70
     4
 71
     0
 72
     2
 73
     0
 90
        0
 40
-0.6
 41
-30.0
 62
     5
 63
     7
 74
     1
 91
        4
 64
     7
 65
   257
 75
     1
175
     1
 42
1.0
 92
        0
 66
   257
 43
1.0
 76
     1
 77
     6
 78
     2
 67
     7
 79
     5
170
     0
171
     0
290
     0
174
     0
 93
        1
 44
0.0
173
     0
291
     0
 45
0.0
1001
ACAD
1000
AcDbSavedByObjectVersion
1070
     0
  0
VISUALSTYLE
  5
31
102
{ACAD_REACTORS
330
2A
102
}
330
2A
100
AcDbVisualStyle
  2
3D Hidden
 70
     6
 71
     1
 72
     2
 73
     2
 90
        0
 40
-0.6
 41
-30.0
 62
     5
 63
     7
 74
     2
 91
        2
 64
     7
 65
   257
 75
     2
175
     1
 42
40.0
 92
        0
 66
   257
 43
1.0
 76
     1
 77
     6
 78
     2
 67
     7
 79
     3
170
     0
171
     0
290
     0
174
     0
 93
        1
 44
0.0
173
     0
291
     0
 45
0.0
1001
ACAD
1000
AcDbSavedByObjectVersion
1070
     0
  0
VISUALSTYLE
  5
30
102
{ACAD_REACTORS
330
2A
102
}
330
2A
100
AcDbVisualStyle
  2
3dWireframe
 70
     5
 71
     0
 72
     2
 73
     0
 90
        0
 40
-0.6
 41
-30.0
 62
     5
 63
     7
 74
     1
 91
        4
 64
     7
 65
   257
 75
     1
175
     1
 42
1.0
 92
        0
 66
   257
 43
1.0
 76
     1
 77
     6
 78
     2
 67
     7
 79
     5
170
     0
171
     0
290
     0
174
     0
 93
        1
 44
0.0
173
     0
291
     0
 45
0.0
1001
ACAD
1000
AcDbSavedByObjectVersion
1070
     0
  0
VISUALSTYLE
  5
32
102
{ACAD_REACTORS
330
2A
102
}
330
2A
100
AcDbVisualStyle
  2
Basic
 70
     7
 71
     1
 72
     0
 73
     1
 90
        0
 40
-0.6
 41
-30.0
 62
     5
 63
     7
 74
     0
 91
        4
 64
     7
 65
   257
 75
     1
175
     1
 42
1.0
 92
        8
 66
     7
 43
1.0
 76
     1
 77
     6
 78
     2
 67
     7
 79
     5
170
     0
171
     0
290
     0
174
     0
 93
        1
 44
0.0
173
     0
291
     1
 45
0.0
1001
ACAD
1000
AcDbSavedByObjectVersion
1070
     0
  0
VISUALSTYLE
  5
36
102
{ACAD_REACTORS
330
2A
102
}
330
2A
100
AcDbVisualStyle
  2
Brighten
 70
    12
 71
     2
 72
     2
 73
     0
 90
        0
 40
-0.6
 41
-30.0
 62
     5
 63
     7
 74
     1
 91
        4
 64
     7
 65
   257
 75
     1
175
     1
 42
1.0
 92
        8
 66
     7
 43
1.0
 76
     1
 77
     6
 78
     2
 67
     7
 79
     5
170
     0
171
     0
290
     0
174
     0
 93
        1
 44
50.0
173
     0
291
     1
 45
0.0
1001
ACAD
1000
AcDbSavedByObjectVersion
1070
     0
  0
VISUALSTYLE
  5
3A
102
{ACAD_REACTORS
330
2A
102
}
330
2A
100
AcDbVisualStyle
  2
ColorChange
 70
    16
 71
     2
 72
     2
 73
     3
 90
        0
 40
-0.6
 41
-30.0
 62
     5
 63
     8
 74
     1
 91
        4
 64
     7
 65
   257
 75
     1
175
     1
 42
1.0
 92
        8
 66
     8
 43
1.0
 76
     1
 77
     6
 78
     2
 67
     7
 79
     5
170
     0
171
     0
290
     0
174
     0
 93
        1
 44
0.0
173
     0
291
     1
 45
0.0
1001
ACAD
1000
AcDbSavedByObjectVersion
1070
     0
  0
VISUALSTYLE
  5
34
102
{ACAD_REACTORS
330
2A
102
}
330
2A
100
AcDbVisualStyle
  2
Conceptual
 70
     9
 71
     3
 72
     2
 73
     0
 90
        0
 40
-0.6
 41
-30.0
 62
     5
 63
     7
 74
     2
 91
        2
 64
     7
 65
   257
 75
     1
175
     1
 42
40.0
 92
        8
 66
     7
 43
1.0
 76
     1
 77
     6
 78
     2
 67
     7
 79
     3
170
     0
171
     0
290
     0
174
     0
 93
        1
 44
0.0
173
     0
291
     0
 45
0.0
1001
ACAD
1000
AcDbSavedByObjectVersion
1070
     0
  0
VISUALSTYLE
  5
35
102
{ACAD_REACTORS
330
2A
102
}
330
2A
100
AcDbVisualStyle
  2
Dim
 70
    11
 71
     2
 72
     2
 73
     0
 90
        0
 40
-0.6
 41
-30.0
 62
     5
 63
     7
 74
     1
 91
        4
 64
     7
 65
   257
 75
     1
175
     1
 42
1.0
 92
        8
 66
     7
 43
1.0
 76
     1
 77
     6
 78
     2
 67
     7
 79
     5
170
     0
171
     0
290
     0
174
     0
 93
        1
 44
-50.0
173
     0
291
     1
 45
0.0
1001
ACAD
1000
AcDbSavedByObjectVersion
1070
     0
  0
VISUALSTYLE
  5
39
102
{ACAD_REACTORS
330
2A
102
}
330
2A
100
AcDbVisualStyle
  2
Facepattern
 70
    15
 71
     2
 72
     2
 73
     0
 90
        0
 40
-0.6
 41
-30.0
 62
     5
 63
     7
 74
     1
 91
        4
 64
     7
 65
   257
 75
     1
175
     1
 42
1.0
 92
        8
 66
     7
 43
1.0
 76
     1
 77
     6
 78
     2
 67
     7
 79
     5
170
     0
171
     0
290
     0
174
     0
 93
        1
 44
0.0
173
     0
291
     1
 45
0.0
1001
ACAD
1000
AcDbSavedByObjectVersion
1070
     0
  0
VISUALSTYLE
  5
2B
102
{ACAD_REACTORS
330
2A
102
}
330
2A
100
AcDbVisualStyle
  2
Flat
 70
     0
 71
     2
 72
     1
 73
     1
 90
        2
 40
-0.6
 41
30.0
 62
     5
 63
     7
 74
     0
 91
        4
 64
     7
 65
   257
 75
     1
175
     1
 42
1.0
 92
        8
 66
     7
 43
1.0
 76
     1
 77
     6
 78
     2
 67
     7
 79
     5
170
     0
171
     0
290
     0
174
     0
 93
       13
 44
0.0
173
     0
291
     1
 45
0.0
1001
ACAD
1000
AcDbSavedByObjectVersion
1070
     0
  0
VISUALSTYLE
  5
2C
102
{ACAD_REACTORS
330
2A
102
}
330
2A
100
AcDbVisualStyle
  2
FlatWithEdges
 70
     1
 71
     2
 72
     1
 73
     1
 90
        2
 40
-0.6
 41
30.0
 62
     5
 63
     7
 74
     1
 91
        4
 64
     7
 65
   257
 75
     1
175
     1
 42
1.0
 92
        0
 66
   257
 43
1.0
 76
     1
 77
     6
 78
     2
 67
     7
 79
     5
170
     0
171
     0
290
     0
174
     0
 93
       13
 44
0.0
173
     0
291
     1
 45
0.0
1001
ACAD
1000
AcDbSavedByObjectVersion
1070
     0
  0
VISUALSTYLE
  5
2D
102
{ACAD_REACTORS
330
2A
102
}
330
2A
100
AcDbVisualStyle
  2
Gouraud
 70
     2
 71
     2
 72
     2
 73
     1
 90
        2
 40
-0.6
 41
30.0
 62
     5
 63
     7
 74
     0
 91
        4
 64
     7
 65
   257
 75
     1
175
     1
 42
1.0
 92
        0
 66
     7
 43
1.0
 76
     1
 77
     6
 78
     2
 67
     7
 79
     5
170
     0
171
     0
290
     0
174
     0
 93
       13
 44
0.0
173
     0
291
     1
 45
0.0
1001
ACAD
1000
AcDbSavedByObjectVersion
1070
     0
  0
VISUALSTYLE
  5
2E
102
{ACAD_REACTORS
330
2A
102
}
330
2A
100
AcDbVisualStyle
  2
GouraudWithEdges
 70
     3
 71
     2
 72
     2
 73
     1
 90
        2
 40
-0.6
 41
30.0
 62
     5
 63
     7
 74
     1
 91
        4
 64
     7
 65
   257
 75
     1
175
     1
 42
1.0
 92
        0
 66
   257
 43
1.0
 76
     1
 77
     6
 78
     2
 67
     7
 79
     5
170
     0
171
     0
290
     0
174
     0
 93
       13
 44
0.0
173
     0
291
     1
 45
0.0
1001
ACAD
1000
AcDbSavedByObjectVersion
1070
     0
  0
VISUALSTYLE
  5
38
102
{ACAD_REACTORS
330
2A
102
}
330
2A
100
AcDbVisualStyle
  2
Linepattern
 70
    14
 71
     2
 72
     2
 73
     0
 90
        0
 40
-0.6
 41
-30.0
 62
     5
 63
     7
 74
     1
 91
        4
 64
     7
 65
   257
 75
     7
175
     7
 42
1.0
 92
        8
 66
     7
 43
1.0
 76
     1
 77
     6
 78
     2
 67
     7
 79
     5
170
     0
171
     0
290
     0
174
     0
 93
        1
 44
0.0
173
     0
291
     1
 45
0.0
1001
ACAD
1000
AcDbSavedByObjectVersion
1070
     0
  0
VISUALSTYLE
  5
33
102
{ACAD_REACTORS
330
2A
102
}
330
2A
100
AcDbVisualStyle
  2
Realistic
 70
     8
 71
     2
 72
     2
 73
     0
 90
        0
 40
-0.6
 41
-30.0
 62
     5
 63
     7
 74
     1
 91
        0
 64
     7
 65
   257
 75
     1
175
     1
 42
1.0
 92
        8
 66
     8
 43
1.0
 76
     1
 77
     6
 78
     2
 67
     7
 79
     5
170
     0
171
     0
290
     0
174
     0
 93
       13
 44
0.0
173
     0
291
     0
 45
0.0
1001
ACAD
1000
AcDbSavedByObjectVersion
1070
     0
  0
VISUALSTYLE
  5
37
102
{ACAD_REACTORS
330
2A
102
}
330
2A
100
AcDbVisualStyle
  2
Thicken
 70
    13
 71
     2
 72
     2
 73
     0
 90
        0
 40
-0.6
 41
-30.0
 62
     5
 63
     7
 74
     1
 91
        4
 64
     7
 65
   257
 75
     1
175
     1
 42
1.0
 92
       12
 66
     7
 43
1.0
 76
     1
 77
     6
 78
     2
 67
     7
 79
     5
170
     0
171
     0
290
     0
174
     0
 93
        1
 44
0.0
173
     0
291
     1
 45
0.0
1001
ACAD
1000
AcDbSavedByObjectVersion
1070
     0
  0
DICTIONARYVAR
  5
209
102
{ACAD_REACTORS
330
207
102
}
330
207
100
DictionaryVariables
280
     0
  1
80.000000
  0
DICTIONARYVAR
  5
208
102
{ACAD_REACTORS
330
207
102
}
330
207
100
DictionaryVariables
280
     0
  1
5.000000
  0
ENDSEC
  0
EOF
