  0
SECTION
  2
HEADER
  9
$ACADVER
  1
AC1015
  9
$ACADMAINTVER
 70
     6
  9
$DWGCODEPAGE
  3
ANSI_1252
  9
$INSBASE
 10
0.0
 20
0.0
 30
0.0
  9
$EXTMIN
 10
0.0
 20
0.0
 30
0.0
  9
$EXTMAX
 10
297.0
 20
210.0
 30
0.0
  9
$LIMMIN
 10
0.0
 20
0.0
  9
$LIMMAX
 10
297.0
 20
210.0
  9
$ORTHOMODE
 70
     0
  9
$REGENMODE
 70
     1
  9
$FILLMODE
 70
     1
  9
$QTEXTMODE
 70
     0
  9
$MIRRTEXT
 70
     1
  9
$LTSCALE
 40
1.0
  9
$ATTMODE
 70
     1
  9
$TEXTSIZE
 40
2.0
  9
$TRACEWID
 40
1.0
  9
$TEXTSTYLE
  7
Standard
  9
$CLAYER
  8
0
  9
$CELTYPE
  6
ByLayer
  9
$CECOLOR
 62
   256
  9
$CELTSCALE
 40
1.0
  9
$DISPSILH
 70
     0
  9
$DIMSCALE
 40
1.0
  9
$DIMASZ
 40
3.0
  9
$DIMEXO
 40
0.0
  9
$DIMDLI
 40
3.75
  9
$DIMRND
 40
0.0
  9
$DIMDLE
 40
0.0
  9
$DIMEXE
 40
1.0
  9
$DIMTP
 40
0.0
  9
$DIMTM
 40
0.0
  9
$DIMTXT
 40
2.0
  9
$DIMCEN
 40
2.5
  9
$DIMTSZ
 40
0.0
  9
$DIMTOL
 70
     0
  9
$DIMLIM
 70
     0
  9
$DIMTIH
 70
     1
  9
$DIMTOH
 70
     1
  9
$DIMSE1
 70
     0
  9
$DIMSE2
 70
     0
  9
$DIMTAD
 70
     1
  9
$DIMZIN
 70
     0
  9
$DIMBLK
  1

  9
$DIMASO
 70
     1
  9
$DIMSHO
 70
     1
  9
$DIMPOST
  1

  9
$DIMAPOST
  1

  9
$DIMALT
 70
     0
  9
$DIMALTD
 70
     3
  9
$DIMALTF
 40
0.0393700787
  9
$DIMLFAC
 40
1.0
  9
$DIMTOFL
 70
     1
  9
$DIMTVP
 40
0.0
  9
$DIMTIX
 70
     0
  9
$DIMSOXD
 70
     0
  9
$DIMSAH
 70
     0
  9
$DIMBLK1
  1

  9
$DIMBLK2
  1

  9
$DIMSTYLE
  2
ISO-25
  9
$DIMCLRD
 70
     0
  9
$DIMCLRE
 70
     0
  9
$DIMCLRT
 70
     0
  9
$DIMTFAC
 40
1.0
  9
$DIMGAP
 40
1.524
  9
$DIMJUST
 70
     0
  9
$DIMSD1
 70
     0
  9
$DIMSD2
 70
     0
  9
$DIMTOLJ
 70
     0
  9
$DIMTZIN
 70
     0
  9
$DIMALTZ
 70
     0
  9
$DIMALTTZ
 70
     0
  9
$DIMUPT
 70
     0
  9
$DIMDEC
 70
     2
  9
$DIMTDEC
 70
     3
  9
$DIMALTU
 70
     2
  9
$DIMALTTD
 70
     3
  9
$DIMTXSTY
  7
Standard
  9
$DIMAUNIT
 70
     0
  9
$DIMADEC
 70
     2
  9
$DIMALTRND
 40
0.0
  9
$DIMAZIN
 70
     0
  9
$DIMDSEP
 70
    44
  9
$DIMATFIT
 70
     3
  9
$DIMFRAC
 70
     0
  9
$DIMLDRBLK
  1

  9
$DIMLUNIT
 70
     2
  9
$DIMLWD
 70
    -2
  9
$DIMLWE
 70
    -2
  9
$DIMTMOVE
 70
     0
  9
$LUNITS
 70
     2
  9
$LUPREC
 70
     2
  9
$SKETCHINC
 40
1.0
  9
$FILLETRAD
 40
10.0
  9
$AUNITS
 70
     0
  9
$AUPREC
 70
     2
  9
$MENU
  1
.
  9
$ELEVATION
 40
0.0
  9
$PELEVATION
 40
0.0
  9
$THICKNESS
 40
0.0
  9
$LIMCHECK
 70
     0
  9
$CHAMFERA
 40
10.0
  9
$CHAMFERB
 40
10.0
  9
$CHAMFERC
 40
20.0
  9
$CHAMFERD
 40
0.0
  9
$SKPOLY
 70
     0
  9
$TDCREATE
 40
2455684.351272674
  9
$TDUCREATE
 40
2455684.26793934
  9
$TDUPDATE
 40
2455684.351272685
  9
$TDUUPDATE
 40
2455684.267939352
  9
$TDINDWG
 40
0.0000000116
  9
$TDUSRTIMER
 40
0.0000000116
  9
$USRTIMER
 70
     1
  9
$ANGBASE
 50
0.0
  9
$ANGDIR
 70
     0
  9
$PDMODE
 70
     0
  9
$PDSIZE
 40
-1.0
  9
$PLINEWID
 40
0.0
  9
$SPLFRAME
 70
     0
  9
$SPLINETYPE
 70
     6
  9
$SPLINESEGS
 70
     8
  9
$HANDSEED
  5
207
  9
$SURFTAB1
 70
     6
  9
$SURFTAB2
 70
     6
  9
$SURFTYPE
 70
     6
  9
$SURFU
 70
     6
  9
$SURFV
 70
     6
  9
$UCSBASE
  2

  9
$UCSNAME
  2

  9
$UCSORG
 10
0.0
 20
0.0
 30
0.0
  9
$UCSXDIR
 10
1.0
 20
0.0
 30
0.0
  9
$UCSYDIR
 10
0.0
 20
1.0
 30
0.0
  9
$UCSORTHOREF
  2

  9
$UCSORTHOVIEW
 70
     0
  9
$UCSORGTOP
 10
0.0
 20
0.0
 30
0.0
  9
$UCSORGBOTTOM
 10
0.0
 20
0.0
 30
0.0
  9
$UCSORGLEFT
 10
0.0
 20
0.0
 30
0.0
  9
$UCSORGRIGHT
 10
0.0
 20
0.0
 30
0.0
  9
$UCSORGFRONT
 10
0.0
 20
0.0
 30
0.0
  9
$UCSORGBACK
 10
0.0
 20
0.0
 30
0.0
  9
$PUCSBASE
  2

  9
$PUCSNAME
  2

  9
$PUCSORG
 10
0.0
 20
0.0
 30
0.0
  9
$PUCSXDIR
 10
1.0
 20
0.0
 30
0.0
  9
$PUCSYDIR
 10
0.0
 20
1.0
 30
0.0
  9
$PUCSORTHOREF
  2

  9
$PUCSORTHOVIEW
 70
     0
  9
$PUCSORGTOP
 10
0.0
 20
0.0
 30
0.0
  9
$PUCSORGBOTTOM
 10
0.0
 20
0.0
 30
0.0
  9
$PUCSORGLEFT
 10
0.0
 20
0.0
 30
0.0
  9
$PUCSORGRIGHT
 10
0.0
 20
0.0
 30
0.0
  9
$PUCSORGFRONT
 10
0.0
 20
0.0
 30
0.0
  9
$PUCSORGBACK
 10
0.0
 20
0.0
 30
0.0
  9
$USERI1
 70
     0
  9
$USERI2
 70
     0
  9
$USERI3
 70
     0
  9
$USERI4
 70
     0
  9
$USERI5
 70
     0
  9
$USERR1
 40
0.0
  9
$USERR2
 40
0.0
  9
$USERR3
 40
0.0
  9
$USERR4
 40
0.0
  9
$USERR5
 40
0.0
  9
$WORLDVIEW
 70
     1
  9
$SHADEDGE
 70
     3
  9
$SHADEDIF
 70
    70
  9
$TILEMODE
 70
     1
  9
$MAXACTVP
 70
    64
  9
$PINSBASE
 10
0.0
 20
0.0
 30
0.0
  9
$PLIMCHECK
 70
     0
  9
$PEXTMIN
 10
1.0000000000E+20
 20
1.0000000000E+20
 30
1.0000000000E+20
  9
$PEXTMAX
 10
-1.0000000000E+20
 20
-1.0000000000E+20
 30
-1.0000000000E+20
  9
$PLIMMIN
 10
0.0
 20
0.0
  9
$PLIMMAX
 10
420.0
 20
297.0
  9
$UNITMODE
 70
     0
  9
$VISRETAIN
 70
     1
  9
$PLINEGEN
 70
     0
  9
$PSLTSCALE
 70
     1
  9
$TREEDEPTH
 70
  3020
  9
$CMLSTYLE
  2
Standard
  9
$CMLJUST
 70
     0
  9
$CMLSCALE
 40
20.0
  9
$PROXYGRAPHICS
 70
     1
  9
$MEASUREMENT
 70
     1
  9
$CELWEIGHT
370
    -1
  9
$ENDCAPS
280
     0
  9
$JOINSTYLE
280
     0
  9
$LWDISPLAY
290
     1
  9
$INSUNITS
 70
     4
  9
$HYPERLINKBASE
  1

  9
$STYLESHEET
  1

  9
$XEDIT
290
     1
  9
$CEPSNTYPE
380
     0
  9
$PSTYLEMODE
290
     1
  9
$FINGERPRINTGUID
  2
{5AC8521D-C8E4-4F1A-BCDE-61461A8A771B}
  9
$VERSIONGUID
  2
{FAEB1C32-E019-11D5-929B-00C0DF256EC4}
  9
$EXTNAMES
290
     1
  9
$PSVPSCALE
 40
0.0
  9
$OLESTARTUP
290
     0
  0
ENDSEC
  0
SECTION
  2
CLASSES
  0
CLASS
  1
ACDBDICTIONARYWDFLT
  2
AcDbDictionaryWithDefault
  3
ObjectDBX Classes
 90
        0
280
     0
281
     0
  0
CLASS
  1
VISUALSTYLE
  2
AcDbVisualStyle
  3
ObjectDBX Classes
 90
     4095
280
     0
281
     0
  0
CLASS
  1
DICTIONARYVAR
  2
AcDbDictionaryVar
  3
ObjectDBX Classes
 90
        0
280
     0
281
     0
  0
CLASS
  1
ACDBPLACEHOLDER
  2
AcDbPlaceHolder
  3
ObjectDBX Classes
 90
        0
280
     0
281
     0
  0
CLASS
  1
LAYOUT
  2
AcDbLayout
  3
ObjectDBX Classes
 90
        0
280
     0
281
     0
  0
ENDSEC
  0
SECTION
  2
TABLES
  0
TABLE
  2
VPORT
  5
8
330
0
100
AcDbSymbolTable
 70
     1
  0
VPORT
  5
29
330
8
100
AcDbSymbolTableRecord
100
AcDbViewportTableRecord
  2
*Active
 70
     0
 10
0.0
 20
0.0
 11
1.0
 21
1.0
 12
148.5
 22
105.0
 13
0.0
 23
0.0
 14
10.0
 24
10.0
 15
10.0
 25
10.0
 16
0.0
 26
0.0
 36
1.0
 17
0.0
 27
0.0
 37
0.0
 40
210.0
 41
1.4142857143
 42
50.0
 43
0.0
 44
0.0
 50
0.0
 51
0.0
 71
     0
 72
  2000
 73
     1
 74
     3
 75
     0
 76
     0
 77
     0
 78
     0
281
     0
 65
     1
110
0.0
120
0.0
130
0.0
111
1.0
121
0.0
131
0.0
112
0.0
122
1.0
132
0.0
 79
     0
146
0.0
  0
ENDTAB
  0
TABLE
  2
LTYPE
  5
5
330
0
100
AcDbSymbolTable
 70
     6
  0
LTYPE
  5
14
330
5
100
AcDbSymbolTableRecord
100
AcDbLinetypeTableRecord
  2
ByBlock
 70
     0
  3

 72
    65
 73
     0
 40
0.0
  0
LTYPE
  5
15
330
5
100
AcDbSymbolTableRecord
100
AcDbLinetypeTableRecord
  2
ByLayer
 70
     0
  3

 72
    65
 73
     0
 40
0.0
  0
LTYPE
  5
16
330
5
100
AcDbSymbolTableRecord
100
AcDbLinetypeTableRecord
  2
Continuous
 70
     0
  3
Solid line
 72
    65
 73
     0
 40
0.0
  0
LTYPE
  5
3B
330
5
100
AcDbSymbolTableRecord
100
AcDbLinetypeTableRecord
  2
HIDDEN
 70
     0
  3
Hidden __ __ __ __ __ __ __ __ __ __ __ __ __ __
 72
    65
 73
     2
 40
1.905
 49
1.27
 74
     0
 49
-0.635
 74
     0
  0
LTYPE
  5
3C
330
5
100
AcDbSymbolTableRecord
100
AcDbLinetypeTableRecord
  2
PHANTOM
 70
     0
  3
Phantom ______  __  __  ______  __  __  ______
 72
    65
 73
     6
 40
12.7
 49
6.35
 74
     0
 49
-1.27
 74
     0
 49
1.27
 74
     0
 49
-1.27
 74
     0
 49
1.27
 74
     0
 49
-1.27
 74
     0
  0
LTYPE
  5
3D
330
5
100
AcDbSymbolTableRecord
100
AcDbLinetypeTableRecord
  2
CENTER
 70
     0
  3
Center ____ _ ____ _ ____ _ ____ _ ____ _ ____
 72
    65
 73
     4
 40
10.16
 49
6.35
 74
     0
 49
-1.27
 74
     0
 49
1.27
 74
     0
 49
-1.27
 74
     0
  0
LTYPE
  5
3E
330
5
100
AcDbSymbolTableRecord
100
AcDbLinetypeTableRecord
  2
CENTERX2
 70
     0
  3
Center (2x) ________  __  ________  __  _____
 72
    65
 73
     4
 40
20.32
 49
12.7
 74
     0
 49
-2.54
 74
     0
 49
2.54
 74
     0
 49
-2.54
 74
     0
  0
LTYPE
  5
3F
330
5
100
AcDbSymbolTableRecord
100
AcDbLinetypeTableRecord
  2
DOT2
 70
     0
  3
Dot (.5x) ........................................
 72
    65
 73
     2
 40
0.635
 49
0.0
 74
     0
 49
-0.635
 74
     0
  0
ENDTAB
  0
TABLE
  2
LAYER
  5
2
330
0
100
AcDbSymbolTable
 70
     5
  0
LAYER
  5
10
330
2
100
AcDbSymbolTableRecord
100
AcDbLayerTableRecord
  2
0
 70
     0
 62
     7
  6
Continuous
370
    -3
390
F
  0
LAYER
  5
40
330
2
100
AcDbSymbolTableRecord
100
AcDbLayerTableRecord
  2
FORMAT
 70
     0
 62
     7
  6
Continuous
370
    -3
390
F
  0
LAYER
  5
41
330
2
100
AcDbSymbolTableRecord
100
AcDbLayerTableRecord
  2
VERMASSUNG
 70
     0
 62
     7
  6
Continuous
370
    -3
390
F
  0
LAYER
  5
42
330
2
100
AcDbSymbolTableRecord
100
AcDbLayerTableRecord
  2
KOPF_DÜNN
 70
     0
 62
     7
  6
Continuous
370
    -3
390
F
  0
LAYER
  5
43
330
2
100
AcDbSymbolTableRecord
100
AcDbLayerTableRecord
  2
KOPF_DICK
 70
     0
 62
     7
  6
Continuous
370
    15
390
F
  0
ENDTAB
  0
TABLE
  2
STYLE
  5
3
330
0
100
AcDbSymbolTable
 70
     3
  0
STYLE
  5
11
330
3
100
AcDbSymbolTableRecord
100
AcDbTextStyleTableRecord
  2
Standard
 70
     0
 40
0.0
 41
1.0
 50
0.0
 71
     0
 42
2.5
  3
txt
  4

  0
STYLE
  5
44
330
3
100
AcDbSymbolTableRecord
100
AcDbTextStyleTableRecord
  2
SLDTEXTSTYLE0
 70
     0
 40
0.0
 41
0.7
 50
0.0
 71
     0
 42
0.2
  3
TXT
  4

  0
STYLE
  5
48
330
3
100
AcDbSymbolTableRecord
100
AcDbTextStyleTableRecord
  2
SLDTEXTSTYLE1
 70
     0
 40
0.0
 41
0.65
 50
0.0
 71
     0
 42
0.2
  3
TXT
  4

  0
ENDTAB
  0
TABLE
  2
VIEW
  5
6
330
0
100
AcDbSymbolTable
 70
     0
  0
ENDTAB
  0
TABLE
  2
UCS
  5
7
330
0
100
AcDbSymbolTable
 70
     0
  0
ENDTAB
  0
TABLE
  2
APPID
  5
9
330
0
100
AcDbSymbolTable
 70
     1
  0
APPID
  5
12
330
9
100
AcDbSymbolTableRecord
100
AcDbRegAppTableRecord
  2
ACAD
 70
     0
  0
ENDTAB
  0
TABLE
  2
DIMSTYLE
  5
A
330
0
100
AcDbSymbolTable
 70
     5
100
AcDbDimStyleTable
  0
DIMSTYLE
105
27
330
A
100
AcDbSymbolTableRecord
100
AcDbDimStyleTableRecord
  2
ISO-25
 70
     0
 41
2.5
 42
0.625
 43
3.75
 44
1.25
 73
     0
 74
     0
 77
     1
 78
     8
140
2.5
141
2.5
143
0.0393700787
147
0.625
171
     3
172
     1
271
     2
272
     2
274
     3
278
    44
283
     0
284
     8
340
11
  0
DIMSTYLE
105
1A7
102
{ACAD_REACTORS
330
1A6
330
1D7
330
1E1
330
1EB
330
1F5
102
}
330
A
100
AcDbSymbolTableRecord
100
AcDbDimStyleTableRecord
  2
SLDDIMSTYLE0
 70
     0
 41
3.0
 44
0.0
 45
0.000000001
 73
     0
 74
     0
 77
     1
 78
    12
140
2.0
147
0.5
173
     1
271
     2
272
     3
284
    12
340
44
  0
DIMSTYLE
105
1B4
102
{ACAD_REACTORS
330
1B3
102
}
330
A
100
AcDbSymbolTableRecord
100
AcDbDimStyleTableRecord
  2
SLDDIMSTYLE1
 70
     0
 41
3.0
 44
0.0
 45
0.000000001
 73
     0
 74
     0
 77
     1
 78
    12
140
2.0
147
0.5
173
     1
271
     2
272
     2
284
    12
340
44
  0
DIMSTYLE
105
1BF
102
{ACAD_REACTORS
330
1BE
102
}
330
A
100
AcDbSymbolTableRecord
100
AcDbDimStyleTableRecord
  2
SLDDIMSTYLE2
 70
     0
 41
3.0
 44
0.0
 45
0.000000001
 73
     0
 74
     0
 77
     1
 78
    12
140
2.0
147
0.5
173
     1
271
     2
272
     2
284
    12
340
44
  0
DIMSTYLE
105
1CC
102
{ACAD_REACTORS
330
1CB
102
}
330
A
100
AcDbSymbolTableRecord
100
AcDbDimStyleTableRecord
  2
SLDDIMSTYLE3
 70
     0
 41
3.0
 44
0.0
 45
0.000000001
 73
     0
 74
     0
 77
     1
 78
    12
140
2.0
147
0.5
173
     1
271
     2
272
     3
284
    12
340
44
  0
ENDTAB
  0
TABLE
  2
BLOCK_RECORD
  5
1
330
0
100
AcDbSymbolTable
 70
     9
  0
BLOCK_RECORD
  5
1F
330
1
100
AcDbSymbolTableRecord
100
AcDbBlockTableRecord
  2
*Model_Space
340
22
  0
BLOCK_RECORD
  5
1B
330
1
100
AcDbSymbolTableRecord
100
AcDbBlockTableRecord
  2
*Paper_Space
340
1E
  0
BLOCK_RECORD
  5
23
330
1
100
AcDbSymbolTableRecord
100
AcDbBlockTableRecord
  2
*Paper_Space0
340
26
  0
BLOCK_RECORD
  5
1A8
330
1
100
AcDbSymbolTableRecord
100
AcDbBlockTableRecord
  2
*D1
340
0
  0
BLOCK_RECORD
  5
1B5
330
1
100
AcDbSymbolTableRecord
100
AcDbBlockTableRecord
  2
*D2
340
0
  0
BLOCK_RECORD
  5
1C0
330
1
100
AcDbSymbolTableRecord
100
AcDbBlockTableRecord
  2
*D3
340
0
  0
BLOCK_RECORD
  5
1CD
330
1
100
AcDbSymbolTableRecord
100
AcDbBlockTableRecord
  2
*D4
340
0
  0
BLOCK_RECORD
  5
1D8
330
1
100
AcDbSymbolTableRecord
100
AcDbBlockTableRecord
  2
*D5
340
0
  0
BLOCK_RECORD
  5
1E2
330
1
100
AcDbSymbolTableRecord
100
AcDbBlockTableRecord
  2
*D6
340
0
  0
BLOCK_RECORD
  5
1EC
330
1
100
AcDbSymbolTableRecord
100
AcDbBlockTableRecord
  2
*D7
340
0
  0
BLOCK_RECORD
  5
1F6
330
1
100
AcDbSymbolTableRecord
100
AcDbBlockTableRecord
  2
*D8
340
0
  0
ENDTAB
  0
ENDSEC
  0
SECTION
  2
BLOCKS
  0
BLOCK
  5
20
330
1F
100
AcDbEntity
  8
0
100
AcDbBlockBegin
  2
*Model_Space
 70
     0
 10
0.0
 20
0.0
 30
0.0
  3
*Model_Space
  1

  0
ENDBLK
  5
21
330
1F
100
AcDbEntity
  8
0
100
AcDbBlockEnd
  0
BLOCK
  5
1C
330
1B
100
AcDbEntity
 67
     1
  8
0
100
AcDbBlockBegin
  2
*Paper_Space
 70
     0
 10
0.0
 20
0.0
 30
0.0
  3
*Paper_Space
  1

  0
ENDBLK
  5
1D
330
1B
100
AcDbEntity
 67
     1
  8
0
100
AcDbBlockEnd
  0
BLOCK
  5
24
330
23
100
AcDbEntity
  8
0
100
AcDbBlockBegin
  2
*Paper_Space0
 70
     0
 10
0.0
 20
0.0
 30
0.0
  3
*Paper_Space0
  1

  0
ENDBLK
  5
25
330
23
100
AcDbEntity
  8
0
100
AcDbBlockEnd
  0
BLOCK
  5
1A9
330
1A8
100
AcDbEntity
  8
0
100
AcDbBlockBegin
  2
*D1
 70
     1
 10
0.0
 20
0.0
 30
0.0
  3
*D1
  1

  0
SOLID
  5
1AB
330
1A8
100
AcDbEntity
  8
VERMASSUNG
100
AcDbTrace
 10
63.5626218852
 20
157.9008667389
 30
0.0
 11
63.1126218852
 21
154.9008667389
 31
0.0
 12
64.0126218852
 22
154.9008667389
 32
0.0
 13
64.0126218852
 23
154.9008667389
 33
0.0
  0
SOLID
  5
1AC
330
1A8
100
AcDbEntity
  8
VERMASSUNG
100
AcDbTrace
 10
63.5626218852
 20
57.9008667389
 30
0.0
 11
64.0126218852
 21
60.9008667389
 31
0.0
 12
63.1126218852
 22
60.9008667389
 32
0.0
 13
63.1126218852
 23
60.9008667389
 33
0.0
  0
LINE
  5
1AD
330
1A8
100
AcDbEntity
  8
VERMASSUNG
100
AcDbLine
 10
119.3896806055
 20
157.9008667389
 30
0.0
 11
62.5626218852
 21
157.9008667389
 31
0.0
  0
LINE
  5
1AE
330
1A8
100
AcDbEntity
  8
VERMASSUNG
100
AcDbLine
 10
119.3896806055
 20
57.9008667389
 30
0.0
 11
62.5626218852
 21
57.9008667389
 31
0.0
  0
LINE
  5
1AF
330
1A8
100
AcDbEntity
  8
VERMASSUNG
100
AcDbLine
 10
63.5626218852
 20
157.9008667389
 30
0.0
 11
63.5626218852
 21
57.9008667389
 31
0.0
  0
MTEXT
  5
1B0
330
1A8
100
AcDbEntity
  8
VERMASSUNG
100
AcDbMText
 10
60.7844863961
 20
99.6972156013
 30
0.0
 40
2.0
 41
0.0
 71
     1
 72
     1
  1
HSK A 
  7
SLDTEXTSTYLE0
 11
-7.044195017643634E-15
 21
1.0
 31
0.0
 73
     1
 44
1.0
  0
MTEXT
  5
1B1
330
1A8
100
AcDbEntity
  8
VERMASSUNG
100
AcDbMText
 10
60.9844864056
 20
108.6972161452
 30
0.0
 40
2.0
 41
0.0
 71
     1
 72
     1
  1
%%c
  7
SLDTEXTSTYLE0
 11
-7.044195017643634E-15
 21
1.0
 31
0.0
 73
     1
 44
1.0
  0
MTEXT
  5
1B2
330
1A8
100
AcDbEntity
  8
VERMASSUNG
100
AcDbMText
 10
60.984486522
 20
112.3055427952
 30
0.0
 40
2.0
 41
0.0
 71
     1
 72
     1
  1
100
  7
SLDTEXTSTYLE0
 11
-7.044195017643634E-15
 21
1.0
 31
0.0
 73
     1
 44
1.0
  0
ENDBLK
  5
1AA
330
1A8
100
AcDbEntity
  8
0
100
AcDbBlockEnd
  0
BLOCK
  5
1B6
330
1B5
100
AcDbEntity
  8
0
100
AcDbBlockBegin
  2
*D2
 70
     1
 10
0.0
 20
0.0
 30
0.0
  3
*D2
  1

  0
SOLID
  5
1B8
330
1B5
100
AcDbEntity
  8
VERMASSUNG
100
AcDbTrace
 10
169.3896806055
 20
157.0995666306
 30
0.0
 11
172.3896806055
 21
156.6495666306
 31
0.0
 12
172.3896806055
 22
157.5495666306
 32
0.0
 13
172.3896806055
 23
157.5495666306
 33
0.0
  0
SOLID
  5
1B9
330
1B5
100
AcDbEntity
  8
VERMASSUNG
100
AcDbTrace
 10
218.8896806055
 20
157.0995666306
 30
0.0
 11
215.8896806055
 21
157.5495666306
 31
0.0
 12
215.8896806055
 22
156.6495666306
 32
0.0
 13
215.8896806055
 23
156.6495666306
 33
0.0
  0
LINE
  5
1BA
330
1B5
100
AcDbEntity
  8
VERMASSUNG
100
AcDbLine
 10
169.3896806055
 20
116.8008667389
 30
0.0
 11
169.3896806055
 21
158.0995666306
 31
0.0
  0
LINE
  5
1BB
330
1B5
100
AcDbEntity
  8
VERMASSUNG
100
AcDbLine
 10
218.8896806055
 20
122.5520857556
 30
0.0
 11
218.8896806055
 21
158.0995666306
 31
0.0
  0
LINE
  5
1BC
330
1B5
100
AcDbEntity
  8
VERMASSUNG
100
AcDbLine
 10
169.3896806055
 20
157.0995666306
 30
0.0
 11
218.8896806055
 21
157.0995666306
 31
0.0
  0
MTEXT
  5
1BD
330
1B5
100
AcDbEntity
  8
VERMASSUNG
100
AcDbMText
 10
191.6402938233
 20
159.6777019937
 30
0.0
 40
2.0
 41
0.0
 71
     1
 72
     1
  1
49.5
  7
SLDTEXTSTYLE0
 73
     1
 44
1.0
  0
ENDBLK
  5
1B7
330
1B5
100
AcDbEntity
  8
0
100
AcDbBlockEnd
  0
BLOCK
  5
1C1
330
1C0
100
AcDbEntity
  8
0
100
AcDbBlockBegin
  2
*D3
 70
     1
 10
0.0
 20
0.0
 30
0.0
  3
*D3
  1

  0
SOLID
  5
1C3
330
1C0
100
AcDbEntity
  8
VERMASSUNG
100
AcDbTrace
 10
226.5429035753
 20
98.9008667389
 30
0.0
 11
226.9929035753
 21
101.9008667389
 31
0.0
 12
226.0929035753
 22
101.9008667389
 32
0.0
 13
226.0929035753
 23
101.9008667389
 33
0.0
  0
SOLID
  5
1C4
330
1C0
100
AcDbEntity
  8
VERMASSUNG
100
AcDbTrace
 10
226.5429035753
 20
116.9008667389
 30
0.0
 11
226.0929035753
 21
113.9008667389
 31
0.0
 12
226.9929035753
 22
113.9008667389
 32
0.0
 13
226.9929035753
 23
113.9008667389
 33
0.0
  0
LINE
  5
1C5
330
1C0
100
AcDbEntity
  8
VERMASSUNG
100
AcDbLine
 10
215.3896806055
 20
98.9008667389
 30
0.0
 11
227.5429035753
 21
98.9008667389
 31
0.0
  0
LINE
  5
1C6
330
1C0
100
AcDbEntity
  8
VERMASSUNG
100
AcDbLine
 10
215.3896806055
 20
116.9008667389
 30
0.0
 11
227.5429035753
 21
116.9008667389
 31
0.0
  0
LINE
  5
1C7
330
1C0
100
AcDbEntity
  8
VERMASSUNG
100
AcDbLine
 10
226.5429035753
 20
98.9008667389
 30
0.0
 11
226.5429035753
 21
116.9008667389
 31
0.0
  0
MTEXT
  5
1C8
330
1C0
100
AcDbEntity
  8
VERMASSUNG
100
AcDbMText
 10
223.9647680958
 20
104.2968299025
 30
0.0
 40
2.0
 41
0.0
 71
     1
 72
     1
  1
%%c
  7
SLDTEXTSTYLE0
 11
6.123233995736766E-17
 21
1.0
 31
0.0
 73
     1
 44
1.0
  0
MTEXT
  5
1C9
330
1C0
100
AcDbEntity
  8
VERMASSUNG
100
AcDbMText
 10
223.9647682122
 20
107.9055081257
 30
0.0
 40
2.0
 41
0.0
 71
     1
 72
     1
  1
18
  7
SLDTEXTSTYLE0
 11
6.123233995736766E-17
 21
1.0
 31
0.0
 73
     1
 44
1.0
  0
MTEXT
  5
1CA
330
1C0
100
AcDbEntity
  8
VERMASSUNG
100
AcDbMText
 10
223.9647682122
 20
110.3051050921
 30
0.0
 40
2.0
 41
0.0
 71
     1
 72
     1
  1
 
  7
SLDTEXTSTYLE0
 11
6.123233995736766E-17
 21
1.0
 31
0.0
 73
     1
 44
1.0
  0
ENDBLK
  5
1C2
330
1C0
100
AcDbEntity
  8
0
100
AcDbBlockEnd
  0
BLOCK
  5
1CE
330
1CD
100
AcDbEntity
  8
0
100
AcDbBlockBegin
  2
*D4
 70
     1
 10
0.0
 20
0.0
 30
0.0
  3
*D4
  1

  0
SOLID
  5
1D0
330
1CD
100
AcDbEntity
  8
VERMASSUNG
100
AcDbTrace
 10
232.5429035753
 20
91.4008667389
 30
0.0
 11
232.9929035753
 21
94.4008667389
 31
0.0
 12
232.0929035753
 22
94.4008667389
 32
0.0
 13
232.0929035753
 23
94.4008667389
 33
0.0
  0
SOLID
  5
1D1
330
1CD
100
AcDbEntity
  8
VERMASSUNG
100
AcDbTrace
 10
232.5429035753
 20
124.4008667389
 30
0.0
 11
232.0929035753
 21
121.4008667389
 31
0.0
 12
232.9929035753
 22
121.4008667389
 32
0.0
 13
232.9929035753
 23
121.4008667389
 33
0.0
  0
LINE
  5
1D2
330
1CD
100
AcDbEntity
  8
VERMASSUNG
100
AcDbLine
 10
218.8896806055
 20
91.4008667389
 30
0.0
 11
233.5429035753
 21
91.4008667389
 31
0.0
  0
LINE
  5
1D3
330
1CD
100
AcDbEntity
  8
VERMASSUNG
100
AcDbLine
 10
218.8896806055
 20
124.4008667389
 30
0.0
 11
233.5429035753
 21
124.4008667389
 31
0.0
  0
LINE
  5
1D4
330
1CD
100
AcDbEntity
  8
VERMASSUNG
100
AcDbLine
 10
232.5429035753
 20
91.4008667389
 30
0.0
 11
232.5429035753
 21
124.4008667389
 31
0.0
  0
MTEXT
  5
1D5
330
1CD
100
AcDbEntity
  8
VERMASSUNG
100
AcDbMText
 10
229.9647680958
 20
104.6971495125
 30
0.0
 40
2.0
 41
0.0
 71
     1
 72
     1
  1
%%c
  7
SLDTEXTSTYLE0
 11
6.123233995736766E-17
 21
1.0
 31
0.0
 73
     1
 44
1.0
  0
MTEXT
  5
1D6
330
1CD
100
AcDbEntity
  8
VERMASSUNG
100
AcDbMText
 10
229.9647682122
 20
108.3058277356
 30
0.0
 40
2.0
 41
0.0
 71
     1
 72
     1
  1
33
  7
SLDTEXTSTYLE0
 11
6.123233995736766E-17
 21
1.0
 31
0.0
 73
     1
 44
1.0
  0
ENDBLK
  5
1CF
330
1CD
100
AcDbEntity
  8
0
100
AcDbBlockEnd
  0
BLOCK
  5
1D9
330
1D8
100
AcDbEntity
  8
0
100
AcDbBlockBegin
  2
*D5
 70
     1
 10
0.0
 20
0.0
 30
0.0
  3
*D5
  1

  0
SOLID
  5
1DB
330
1D8
100
AcDbEntity
  8
VERMASSUNG
100
AcDbTrace
 10
118.8896806055
 20
169.0995666306
 30
0.0
 11
121.8896806055
 21
168.6495666306
 31
0.0
 12
121.8896806055
 22
169.5495666306
 32
0.0
 13
121.8896806055
 23
169.5495666306
 33
0.0
  0
SOLID
  5
1DC
330
1D8
100
AcDbEntity
  8
VERMASSUNG
100
AcDbTrace
 10
218.8896806055
 20
169.0995666306
 30
0.0
 11
215.8896806055
 21
169.5495666306
 31
0.0
 12
215.8896806055
 22
168.6495666306
 32
0.0
 13
215.8896806055
 23
168.6495666306
 33
0.0
  0
LINE
  5
1DD
330
1D8
100
AcDbEntity
  8
VERMASSUNG
100
AcDbLine
 10
118.8896806055
 20
107.9008667389
 30
0.0
 11
118.8896806055
 21
170.0995666306
 31
0.0
  0
LINE
  5
1DE
330
1D8
100
AcDbEntity
  8
VERMASSUNG
100
AcDbLine
 10
218.8896806055
 20
122.5520857556
 30
0.0
 11
218.8896806055
 21
170.0995666306
 31
0.0
  0
LINE
  5
1DF
330
1D8
100
AcDbEntity
  8
VERMASSUNG
100
AcDbLine
 10
118.8896806055
 20
169.0995666306
 30
0.0
 11
218.8896806055
 21
169.0995666306
 31
0.0
  0
MTEXT
  5
1E0
330
1D8
100
AcDbEntity
  8
VERMASSUNG
100
AcDbMText
 10
166.9901930649
 20
171.6777019937
 30
0.0
 40
2.0
 41
0.0
 71
     1
 72
     1
  1
100
  7
SLDTEXTSTYLE0
 73
     1
 44
1.0
  0
ENDBLK
  5
1DA
330
1D8
100
AcDbEntity
  8
0
100
AcDbBlockEnd
  0
BLOCK
  5
1E3
330
1E2
100
AcDbEntity
  8
0
100
AcDbBlockBegin
  2
*D6
 70
     1
 10
0.0
 20
0.0
 30
0.0
  3
*D6
  1

  0
SOLID
  5
1E5
330
1E2
100
AcDbEntity
  8
VERMASSUNG
100
AcDbTrace
 10
147.8396806055
 20
163.0995666306
 30
0.0
 11
150.8396806055
 21
162.6495666306
 31
0.0
 12
150.8396806055
 22
163.5495666306
 32
0.0
 13
150.8396806055
 23
163.5495666306
 33
0.0
  0
SOLID
  5
1E6
330
1E2
100
AcDbEntity
  8
VERMASSUNG
100
AcDbTrace
 10
218.8896806055
 20
163.0995666306
 30
0.0
 11
215.8896806055
 21
163.5495666306
 31
0.0
 12
215.8896806055
 22
162.6495666306
 32
0.0
 13
215.8896806055
 23
162.6495666306
 33
0.0
  0
LINE
  5
1E7
330
1E2
100
AcDbEntity
  8
VERMASSUNG
100
AcDbLine
 10
147.8396806055
 20
155.8696065597
 30
0.0
 11
147.8396806055
 21
164.0995666306
 31
0.0
  0
LINE
  5
1E8
330
1E2
100
AcDbEntity
  8
VERMASSUNG
100
AcDbLine
 10
218.8896806055
 20
122.5520857556
 30
0.0
 11
218.8896806055
 21
164.0995666306
 31
0.0
  0
LINE
  5
1E9
330
1E2
100
AcDbEntity
  8
VERMASSUNG
100
AcDbLine
 10
147.8396806055
 20
163.0995666306
 30
0.0
 11
218.8896806055
 21
163.0995666306
 31
0.0
  0
MTEXT
  5
1EA
330
1E2
100
AcDbEntity
  8
VERMASSUNG
100
AcDbMText
 10
180.4649742133
 20
165.6777019937
 30
0.0
 40
2.0
 41
0.0
 71
     1
 72
     1
  1
71.05
  7
SLDTEXTSTYLE0
 73
     1
 44
1.0
  0
ENDBLK
  5
1E4
330
1E2
100
AcDbEntity
  8
0
100
AcDbBlockEnd
  0
BLOCK
  5
1ED
330
1EC
100
AcDbEntity
  8
0
100
AcDbBlockBegin
  2
*D7
 70
     1
 10
0.0
 20
0.0
 30
0.0
  3
*D7
  1

  0
SOLID
  5
1EF
330
1EC
100
AcDbEntity
  8
VERMASSUNG
100
AcDbTrace
 10
68.9896806055
 20
175.0995666306
 30
0.0
 11
71.9896806055
 21
174.6495666306
 31
0.0
 12
71.9896806055
 22
175.5495666306
 32
0.0
 13
71.9896806055
 23
175.5495666306
 33
0.0
  0
SOLID
  5
1F0
330
1EC
100
AcDbEntity
  8
VERMASSUNG
100
AcDbTrace
 10
218.8896806055
 20
175.0995666306
 30
0.0
 11
215.8896806055
 21
175.5495666306
 31
0.0
 12
215.8896806055
 22
174.6495666306
 32
0.0
 13
215.8896806055
 23
174.6495666306
 33
0.0
  0
LINE
  5
1F1
330
1EC
100
AcDbEntity
  8
VERMASSUNG
100
AcDbLine
 10
68.9896806055
 20
138.4035364815
 30
0.0
 11
68.9896806055
 21
176.0995666306
 31
0.0
  0
LINE
  5
1F2
330
1EC
100
AcDbEntity
  8
VERMASSUNG
100
AcDbLine
 10
218.8896806055
 20
122.5520857556
 30
0.0
 11
218.8896806055
 21
176.0995666306
 31
0.0
  0
LINE
  5
1F3
330
1EC
100
AcDbEntity
  8
VERMASSUNG
100
AcDbLine
 10
68.9896806055
 20
175.0995666306
 30
0.0
 11
218.8896806055
 21
175.0995666306
 31
0.0
  0
MTEXT
  5
1F4
330
1EC
100
AcDbEntity
  8
VERMASSUNG
100
AcDbMText
 10
140.9401843975
 20
177.6777019937
 30
0.0
 40
2.0
 41
0.0
 71
     1
 72
     1
  1
149.9
  7
SLDTEXTSTYLE0
 73
     1
 44
1.0
  0
ENDBLK
  5
1EE
330
1EC
100
AcDbEntity
  8
0
100
AcDbBlockEnd
  0
BLOCK
  5
1F7
330
1F6
100
AcDbEntity
  8
0
100
AcDbBlockBegin
  2
*D8
 70
     1
 10
0.0
 20
0.0
 30
0.0
  3
*D8
  1

  0
SOLID
  5
1F9
330
1F6
100
AcDbEntity
  8
VERMASSUNG
100
AcDbTrace
 10
238.5429035753
 20
128.4008667389
 30
0.0
 11
238.0929035753
 21
125.4008667389
 31
0.0
 12
238.9929035753
 22
125.4008667389
 32
0.0
 13
238.9929035753
 23
125.4008667389
 33
0.0
  0
SOLID
  5
1FA
330
1F6
100
AcDbEntity
  8
VERMASSUNG
100
AcDbTrace
 10
238.5429035753
 20
87.4008667389
 30
0.0
 11
238.9929035753
 21
90.4008667389
 31
0.0
 12
238.0929035753
 22
90.4008667389
 32
0.0
 13
238.0929035753
 23
90.4008667389
 33
0.0
  0
LINE
  5
1FB
330
1F6
100
AcDbEntity
  8
VERMASSUNG
100
AcDbLine
 10
168.0648616608
 20
128.4008667389
 30
0.0
 11
239.5429035753
 21
128.4008667389
 31
0.0
  0
LINE
  5
1FC
330
1F6
100
AcDbEntity
  8
VERMASSUNG
100
AcDbLine
 10
168.0648616608
 20
87.4008667389
 30
0.0
 11
239.5429035753
 21
87.4008667389
 31
0.0
  0
LINE
  5
1FD
330
1F6
100
AcDbEntity
  8
VERMASSUNG
100
AcDbLine
 10
238.5429035753
 20
128.4008667389
 30
0.0
 11
238.5429035753
 21
87.4008667389
 31
0.0
  0
MTEXT
  5
1FE
330
1F6
100
AcDbEntity
  8
VERMASSUNG
100
AcDbMText
 10
235.9647680958
 20
104.7969393283
 30
0.0
 40
2.0
 41
0.0
 71
     1
 72
     1
  1
%%c
  7
SLDTEXTSTYLE0
 11
-7.044195017643634E-15
 21
1.0
 31
0.0
 73
     1
 44
1.0
  0
MTEXT
  5
1FF
330
1F6
100
AcDbEntity
  8
VERMASSUNG
100
AcDbMText
 10
235.9647682122
 20
108.4056175515
 30
0.0
 40
2.0
 41
0.0
 71
     1
 72
     1
  1
41
  7
SLDTEXTSTYLE0
 11
-7.044195017643634E-15
 21
1.0
 31
0.0
 73
     1
 44
1.0
  0
ENDBLK
  5
1F8
330
1F6
100
AcDbEntity
  8
0
100
AcDbBlockEnd
  0
ENDSEC
  0
SECTION
  2
ENTITIES
  0
MTEXT
  5
45
330
1F
100
AcDbEntity
  8
KOPF_DÜNN
100
AcDbMText
 10
13.8892156294
 20
23.8442973028
 30
0.0
 40
3.0
 41
0.0
 71
     1
 72
     1
  1
HA0.S18.K21.100
  7
SLDTEXTSTYLE0
 73
     1
 44
1.0
  0
MTEXT
  5
46
330
1F
100
AcDbEntity
  8
VERMASSUNG
100
AcDbMText
 10
13.9329988022
 20
28.8834360957
 30
0.0
 40
3.0
 41
0.0
 71
     1
 72
     1
  1
Schrumpffutter_Heat shrink chuck
  7
SLDTEXTSTYLE0
 73
     1
 44
1.0
  0
MTEXT
  5
47
330
1F
100
AcDbEntity
  8
VERMASSUNG
100
AcDbMText
 10
98.8601118557
 20
13.8365368179
 30
0.0
 40
2.0
 41
0.0
 71
     1
 72
     1
  1
Datum: 02.05.2011
  7
SLDTEXTSTYLE0
 73
     1
 44
1.0
  0
MTEXT
  5
49
330
1F
100
AcDbEntity
  8
VERMASSUNG
100
AcDbMText
 10
13.933048693
 20
18.0482802738
 30
0.0
 40
2.0
 41
0.0
 71
     1
 72
     1
  1
DIN 69 893 HSK A 100
  7
SLDTEXTSTYLE1
 73
     1
 44
1.0
  0
MTEXT
  5
4A
330
1F
100
AcDbEntity
  8
VERMASSUNG
100
AcDbMText
 10
13.9808475933
 20
13.9090973692
 30
0.0
 40
2.0
 41
0.0
 71
     1
 72
     1
  1
Gewicht: 2514g
  7
SLDTEXTSTYLE0
 73
     1
 44
1.0
  0
LINE
  5
4B
330
1F
100
AcDbEntity
  8
0
  6
Continuous
 62
     7
370
    15
100
AcDbLine
 10
119.3896806055
 20
57.9008667389
 30
0.0
 11
123.8396806055
 21
57.9008667389
 31
0.0
  0
LINE
  5
4C
330
1F
100
AcDbEntity
  8
0
  6
Continuous
 62
     7
370
    15
100
AcDbLine
 10
123.855058577
 20
157.9008667389
 30
0.0
 11
119.3896806055
 21
157.9008667389
 31
0.0
  0
ARC
  5
4D
330
1F
100
AcDbEntity
  8
0
  6
Continuous
 62
     7
370
    15
100
AcDbCircle
 10
119.3896806055
 20
58.4008667389
 30
0.0
 40
0.5
100
AcDbArc
 50
180.0
 51
270.0
  0
ARC
  5
4E
330
1F
100
AcDbEntity
  8
0
  6
Continuous
 62
     7
370
    15
100
AcDbCircle
 10
119.3896806055
 20
157.4008667389
 30
0.0
 40
0.5
100
AcDbArc
 50
90.0
 51
180.0
  0
ARC
  5
4F
330
1F
100
AcDbEntity
  8
0
  6
Continuous
 62
     7
370
    15
100
AcDbCircle
 10
117.9927436871
 20
69.2723814145
 30
0.0
 40
0.9962338214386932
100
AcDbArc
 50
25.7988228126
 51
90.0
  0
ARC
  5
50
330
1F
100
AcDbEntity
  8
0
  6
Continuous
 62
     7
370
    15
100
AcDbCircle
 10
117.9927436871
 20
146.5293520633
 30
0.0
 40
0.9962338214387216
100
AcDbArc
 50
270.0
 51
334.2011771874
  0
LINE
  5
51
330
1F
100
AcDbEntity
  8
0
  6
Continuous
 62
     7
370
    15
100
AcDbLine
 10
116.3896806055
 20
70.0186152359
 30
0.0
 11
117.1955267599
 21
70.2345410622
 31
0.0
  0
LINE
  5
52
330
1F
100
AcDbEntity
  8
0
  6
Continuous
 62
     7
370
    15
100
AcDbLine
 10
117.1955267599
 20
145.5671924156
 30
0.0
 11
116.3896806055
 21
145.7831182419
 31
0.0
  0
LINE
  5
53
330
1F
100
AcDbEntity
  8
0
  6
Continuous
 62
     7
370
    15
100
AcDbLine
 10
97.4090016869
 20
144.8321824243
 30
0.0
 11
79.0896806055
 21
143.914380767
 31
0.0
  0
LINE
  5
54
330
1F
100
AcDbEntity
  8
0
  6
Continuous
 62
     7
370
    15
100
AcDbLine
 10
116.3896806055
 20
145.7831182419
 30
0.0
 11
110.3216414511
 21
145.4791082642
 31
0.0
  0
LINE
  5
55
330
1F
100
AcDbEntity
  8
0
  6
Continuous
 62
     7
370
    15
100
AcDbLine
 10
110.3217647275
 20
70.3226190374
 30
0.0
 11
116.3896806055
 21
70.0186152359
 31
0.0
  0
LINE
  5
56
330
1F
100
AcDbEntity
  8
0
  6
Continuous
 62
     7
370
    15
100
AcDbLine
 10
84.0896806055
 20
71.6368517088
 30
0.0
 11
97.4096317595
 21
70.9695194867
 31
0.0
  0
ARC
  5
57
330
1F
100
AcDbEntity
  8
0
  6
Continuous
 62
     7
370
    15
100
AcDbCircle
 10
117.454345805
 20
69.2686152359
 30
0.0
 40
1.0
100
AcDbArc
 50
90.0
 51
105.0
  0
ARC
  5
58
330
1F
100
AcDbEntity
  8
0
  6
Continuous
 62
     7
370
    15
100
AcDbCircle
 10
117.454345805
 20
146.5331182419
 30
0.0
 40
1.0
100
AcDbArc
 50
255.0
 51
270.0
  0
LINE
  5
59
330
1F
100
AcDbEntity
  8
0
  6
Continuous
 62
     7
370
    15
100
AcDbLine
 10
117.454345805
 20
70.2686152359
 30
0.0
 11
117.9927436871
 21
70.2686152359
 31
0.0
  0
LINE
  5
5A
330
1F
100
AcDbEntity
  8
0
  6
Continuous
 62
     7
370
    15
100
AcDbLine
 10
117.9927436871
 20
145.5331182419
 30
0.0
 11
117.454345805
 21
145.5331182419
 31
0.0
  0
ARC
  5
5B
330
1F
100
AcDbEntity
  8
0
  6
Continuous
 62
     7
370
    15
100
AcDbCircle
 10
152.8396806055
 20
82.4008667389
 30
0.0
 40
5.0
100
AcDbArc
 50
90.0
 51
180.0
  0
ARC
  5
5C
330
1F
100
AcDbEntity
  8
0
  6
Continuous
 62
     7
370
    15
100
AcDbCircle
 10
152.8396806055
 20
133.4008667389
 30
0.0
 40
5.000000000000028
100
AcDbArc
 50
180.0
 51
270.0
  0
LINE
  5
5D
330
1F
100
AcDbEntity
  8
0
  6
Continuous
 62
     7
370
    15
100
AcDbLine
 10
164.3384376203
 20
87.4008667389
 30
0.0
 11
168.0648616608
 21
87.4008667389
 31
0.0
  0
LINE
  5
5E
330
1F
100
AcDbEntity
  8
0
  6
Continuous
 62
     7
370
    15
100
AcDbLine
 10
152.8396806055
 20
87.4008667389
 30
0.0
 11
157.3502411869
 21
87.4008667389
 31
0.0
  0
LINE
  5
5F
330
1F
100
AcDbEntity
  8
0
  6
Continuous
 62
     7
370
    15
100
AcDbLine
 10
157.3429087664
 20
128.4008667389
 30
0.0
 11
152.8396806055
 21
128.4008667389
 31
0.0
  0
LINE
  5
60
330
1F
100
AcDbEntity
  8
0
  6
Continuous
 62
     7
370
    15
100
AcDbLine
 10
168.0648616608
 20
128.4008667389
 30
0.0
 11
164.3306794282
 21
128.4008667389
 31
0.0
  0
LINE
  5
61
330
1F
100
AcDbEntity
  8
0
  6
Continuous
 62
     7
370
    15
100
AcDbLine
 10
168.0648616608
 20
87.4008667389
 30
0.0
 11
217.046598797
 21
91.2558130547
 31
0.0
  0
LINE
  5
62
330
1F
100
AcDbEntity
  8
0
  6
Continuous
 62
     7
370
    15
100
AcDbLine
 10
217.046598797
 20
124.545920423
 30
0.0
 11
168.0648616608
 21
128.4008667389
 31
0.0
  0
LINE
  5
63
330
1F
100
AcDbEntity
  8
0
  6
Continuous
 62
     7
370
    15
100
AcDbLine
 10
70.6396806055
 20
75.6508667389
 30
0.0
 11
82.1896806055
 21
75.6508667389
 31
0.0
  0
ARC
  5
64
330
1F
100
AcDbEntity
  8
0
  6
Continuous
 62
     7
370
    15
100
AcDbCircle
 10
216.8896806055
 20
93.2496477222
 30
0.0
 40
2.000000000000028
100
AcDbArc
 50
274.5
 51
0.0
  0
ARC
  5
65
330
1F
100
AcDbEntity
  8
0
  6
Continuous
 62
     7
370
    15
100
AcDbCircle
 10
216.8896806055
 20
122.5520857556
 30
0.0
 40
2.000000000000028
100
AcDbArc
 50
0.0
 51
85.5
  0
ARC
  5
66
330
1F
100
AcDbEntity
  8
0
  6
Continuous
 62
     7
370
    15
100
AcDbCircle
 10
82.1896806055
 20
73.7508667389
 30
0.0
 40
1.900000000000006
100
AcDbArc
 50
35.6630613694
 51
90.0
  0
ARC
  5
67
330
1F
100
AcDbEntity
  8
0
  6
Continuous
 62
     7
370
    15
100
AcDbCircle
 10
77.1896806055
 20
142.0508667389
 30
0.0
 40
1.899999999999989
100
AcDbArc
 50
270.0
 51
312.7708047792
  0
LINE
  5
68
330
1F
100
AcDbEntity
  8
0
  6
Continuous
 62
     7
370
    15
100
AcDbLine
 10
69.047203506
 20
77.2433438384
 30
0.0
 11
70.6396806055
 21
75.6508667389
 31
0.0
  0
LINE
  5
69
330
1F
100
AcDbEntity
  8
0
  6
Continuous
 62
     7
370
    15
100
AcDbLine
 10
70.6396806055
 20
140.1508667389
 30
0.0
 11
69.0473941406
 21
138.558580274
 31
0.0
  0
LINE
  5
6A
330
1F
100
AcDbEntity
  8
0
  6
Continuous
 62
     7
370
    15
100
AcDbLine
 10
77.1896806055
 20
140.1508667389
 30
0.0
 11
70.6396806055
 21
140.1508667389
 31
0.0
  0
LINE
  5
6B
330
1F
100
AcDbEntity
  8
0
  6
Continuous
 62
     7
370
    15
100
AcDbLine
 10
218.8896806055
 20
94.0364984785
 30
0.0
 11
218.9670028127
 21
94.183463821
 31
0.0
  0
LINE
  5
6C
330
1F
100
AcDbEntity
  8
0
  6
Continuous
 62
     7
370
    15
100
AcDbLine
 10
218.908113089
 20
121.6205834404
 30
0.0
 11
218.8896806055
 21
121.6556178289
 31
0.0
  0
SPLINE
  5
6D
330
1F
100
AcDbEntity
  8
0
  6
Continuous
 62
     7
370
    15
100
AcDbSpline
210
0.0
220
0.0
230
1.0
 70
     8
 71
     3
 72
    80
 73
    76
 74
     0
 42
0.00000001
 43
0.00000001
 40
-0.0312500000000003
 40
-0.0312500000000003
 40
0.0
 40
0.0
 40
0.0312499999999994
 40
0.0312499999999994
 40
0.0468749999999991
 40
0.0468749999999991
 40
0.0624999999999988
 40
0.0624999999999988
 40
0.0937499999999983
 40
0.0937499999999983
 40
0.1249999999999979
 40
0.1249999999999979
 40
0.1562499999999975
 40
0.1562499999999975
 40
0.1874999999999971
 40
0.1874999999999971
 40
0.2187499999999966
 40
0.2187499999999966
 40
0.2499999999999962
 40
0.2499999999999962
 40
0.2812499999999957
 40
0.2812499999999957
 40
0.3124999999999952
 40
0.3124999999999952
 40
0.3281249999999952
 40
0.3281249999999952
 40
0.3437499999999951
 40
0.3437499999999951
 40
0.3749999999999951
 40
0.3749999999999951
 40
0.4062499999999952
 40
0.4062499999999952
 40
0.4218749999999952
 40
0.4218749999999952
 40
0.4374999999999952
 40
0.4374999999999952
 40
0.4687499999999952
 40
0.4687499999999952
 40
0.4999999999999953
 40
0.4999999999999953
 40
0.5312499999999953
 40
0.5312499999999953
 40
0.5624999999999954
 40
0.5624999999999954
 40
0.5937499999999954
 40
0.5937499999999954
 40
0.6249999999999954
 40
0.6249999999999954
 40
0.6562499999999956
 40
0.6562499999999956
 40
0.6874999999999956
 40
0.6874999999999956
 40
0.7031249999999957
 40
0.7031249999999957
 40
0.7187499999999959
 40
0.7187499999999959
 40
0.7499999999999964
 40
0.7499999999999964
 40
0.781249999999997
 40
0.781249999999997
 40
0.7968749999999974
 40
0.7968749999999974
 40
0.8124999999999978
 40
0.8124999999999978
 40
0.8437499999999981
 40
0.8437499999999981
 40
0.8749999999999984
 40
0.8749999999999984
 40
0.9062499999999989
 40
0.9062499999999989
 40
0.9374999999999992
 40
0.9374999999999992
 40
0.9687499999999997
 40
0.9687499999999997
 40
1.0
 40
1.0
 40
1.031249999999999
 40
1.031249999999999
 10
127.5591352927486
 20
151.3154962025262
 30
0.0
 10
128.2202259183012
 20
151.3154962025262
 30
0.0
 10
128.5452060475528
 20
151.3317044339084
 30
0.0
 10
129.0246794587993
 20
151.379069065928
 30
0.0
 10
129.18316127664
 20
151.3987232778186
 30
0.0
 10
129.4973808091443
 20
151.4458344340113
 30
0.0
 10
129.6535010928247
 20
151.473415753506
 30
0.0
 10
130.1075551217813
 20
151.5659515402997
 30
0.0
 10
130.3946585047211
 20
151.6410219738962
 30
0.0
 10
130.9380130607481
 20
151.8162602825068
 30
0.0
 10
131.1951166719537
 20
151.9172615803451
 30
0.0
 10
131.6560229268925
 20
152.134617778806
 30
0.0
 10
131.8629206361075
 20
152.2517821105782
 30
0.0
 10
132.2284459500997
 20
152.5018520348069
 30
0.0
 10
132.3836514722256
 20
152.6327981235658
 30
0.0
 10
132.6330818588254
 20
152.8985330672782
 30
0.0
 10
132.7291718146105
 20
153.0352866605892
 30
0.0
 10
132.8576906638041
 20
153.3093522354282
 30
0.0
 10
132.8895015339819
 20
153.444292325897
 30
0.0
 10
132.8898581837551
 20
153.7097639629657
 30
0.0
 10
132.8573609315581
 20
153.841588440107
 30
0.0
 10
132.7297354578436
 20
154.0910380397274
 30
0.0
 10
132.6353070567917
 20
154.2094707316553
 30
0.0
 10
132.4474462368061
 20
154.3783399287495
 30
0.0
 10
132.3766182380029
 20
154.4334259238697
 30
0.0
 10
132.2218963460377
 20
154.538678752358
 30
0.0
 10
132.1379198758543
 20
154.5890139811184
 30
0.0
 10
131.8665962062099
 20
154.7335898136565
 30
0.0
 10
131.6600469876075
 20
154.8214514000735
 30
0.0
 10
131.1934368474185
 20
154.981172493073
 30
0.0
 10
130.9410712777931
 20
155.0504107895402
 30
0.0
 10
130.5351699361143
 20
155.14019817877
 30
0.0
 10
130.3952693186368
 20
155.1677641408562
 30
0.0
 10
130.1060453833899
 20
155.2182549417825
 30
0.0
 10
129.9562059271006
 20
155.2412183806332
 30
0.0
 10
129.5020893574899
 20
155.3018488970521
 30
0.0
 10
129.190438138753
 20
155.3319229258479
 30
0.0
 10
128.5494416738406
 20
155.3725125131065
 30
0.0
 10
128.2179140458884
 20
155.3828247433225
 30
0.0
 10
127.565123000817
 20
155.3829003104883
 30
0.0
 10
127.2405867957851
 20
155.3729987050206
 30
0.0
 10
126.5953173463687
 20
155.3325121744953
 30
0.0
 10
126.279574340206
 20
155.3020508746107
 30
0.0
 10
125.6776850452223
 20
155.2219002031741
 30
0.0
 10
125.3869358144108
 20
155.1716179713669
 30
0.0
 10
124.8400240227263
 20
155.050947788594
 30
0.0
 10
124.5882466588894
 20
154.9817239294239
 30
0.0
 10
124.1268586662683
 20
154.8242722017832
 30
0.0
 10
123.9155893866702
 20
154.7349237271095
 30
0.0
 10
123.552285034294
 20
154.5416758564087
 30
0.0
 10
123.3984783858512
 20
154.4375478645294
 30
0.0
 10
123.2098589162538
 20
154.268923478346
 30
0.0
 10
123.1538284300447
 20
154.210295076671
 30
0.0
 10
123.0582546683085
 20
154.0908401618448
 30
0.0
 10
123.0184917512835
 20
154.0299203730066
 30
0.0
 10
122.9227200009714
 20
153.8435156468327
 30
0.0
 10
122.8899971618453
 20
153.7144028290377
 30
0.0
 10
122.8893685755162
 20
153.4457459060818
 30
0.0
 10
122.921554720251
 20
153.310375165325
 30
0.0
 10
123.0164654221066
 20
153.106824857089
 30
0.0
 10
123.0559322055055
 20
153.0388529330256
 30
0.0
 10
123.1508622042264
 20
152.9027607098947
 30
0.0
 10
123.2066190319898
 20
152.8344106096853
 30
0.0
 10
123.3945591499597
 20
152.6337075966431
 30
0.0
 10
123.5479206196758
 20
152.5043193228304
 30
0.0
 10
123.9101848545562
 20
152.2556538907806
 30
0.0
 10
124.1210333280221
 20
152.1358442484124
 30
0.0
 10
124.581703298341
 20
151.9183219608398
 30
0.0
 10
124.8330776779248
 20
151.8192368610038
 30
0.0
 10
125.378985564823
 20
151.642564387087
 30
0.0
 10
125.6698081394742
 20
151.566507298953
 30
0.0
 10
126.2711347542542
 20
151.4436623216
 30
0.0
 10
126.5856533388666
 20
151.3959561965468
 30
0.0
 10
127.2322347949866
 20
151.3317076614272
 30
0.0
 10
127.5591352927486
 20
151.3154962025262
 30
0.0
 10
128.2202259183012
 20
151.3154962025262
 30
0.0
  0
LINE
  5
6E
330
1F
100
AcDbEntity
  8
0
  6
Continuous
 62
     7
370
    15
100
AcDbLine
 10
123.8396806055
 20
139.2508667389
 30
0.0
 11
135.6276515846
 21
139.2508667389
 31
0.0
  0
LINE
  5
6F
330
1F
100
AcDbEntity
  8
0
  6
Continuous
 62
     7
370
    15
100
AcDbLine
 10
135.6276515846
 20
59.1258731459
 30
0.0
 11
135.6276515846
 21
139.2508667389
 31
0.0
  0
LINE
  5
70
330
1F
100
AcDbEntity
  8
0
  6
Continuous
 62
     7
370
    15
100
AcDbLine
 10
135.6276515846
 20
59.1258731459
 30
0.0
 11
133.8396806055
 21
59.1258731459
 31
0.0
  0
SPLINE
  5
71
330
1F
100
AcDbEntity
  8
0
  6
Continuous
 62
     7
370
    15
100
AcDbSpline
210
0.0
220
0.0
230
1.0
 70
     8
 71
     3
 72
    30
 73
    26
 74
     0
 42
0.00000001
 43
0.00000001
 40
0.0
 40
0.0
 40
0.0
 40
0.0
 40
0.1250000000000002
 40
0.1250000000000002
 40
0.1875000000000003
 40
0.1875000000000003
 40
0.2500000000000004
 40
0.2500000000000004
 40
0.3750000000000001
 40
0.3750000000000001
 40
0.4374999999999998
 40
0.4374999999999998
 40
0.4999999999999996
 40
0.4999999999999996
 40
0.6249999999999996
 40
0.6249999999999996
 40
0.6874999999999997
 40
0.6874999999999997
 40
0.7499999999999997
 40
0.7499999999999997
 40
0.8124999999999998
 40
0.8124999999999998
 40
0.8749999999999999
 40
0.8749999999999999
 40
1.0
 40
1.0
 40
1.0
 40
1.0
 10
133.8396806055249
 20
59.12587314586615
 30
0.0
 10
133.1769359116798
 20
59.12587314586616
 30
0.0
 10
132.5256800525641
 20
59.11103306927735
 30
0.0
 10
131.5652295143059
 20
59.06866350504772
 30
0.0
 10
131.2478380710729
 20
59.05118540226856
 30
0.0
 10
130.618674569518
 20
59.00985711571625
 30
0.0
 10
130.3065263830763
 20
58.98593184225855
 30
0.0
 10
129.3992190812281
 20
58.90712532579164
 30
0.0
 10
128.8257941235868
 20
58.84481930581518
 30
0.0
 10
128.0119172540121
 20
58.74168998557582
 30
0.0
 10
127.7471110574423
 20
58.70550606652931
 30
0.0
 10
127.2402036466279
 20
58.6317112823288
 30
0.0
 10
126.9988094952745
 20
58.59423742355715
 30
0.0
 10
126.3096680231421
 20
58.48152548021742
 30
0.0
 10
125.8966132082779
 20
58.40598938274364
 30
0.0
 10
125.3484583889028
 20
58.29759612572614
 30
0.0
 10
125.1789957815572
 20
58.26252389406288
 30
0.0
 10
124.8709785335418
 20
58.19628843346303
 30
0.0
 10
124.7315985129335
 20
58.16496173670831
 30
0.0
 10
124.4818130003068
 20
58.10655296512738
 30
0.0
 10
124.3714068876528
 20
58.07946972994453
 30
0.0
 10
124.1801490340151
 20
58.03020997533095
 30
0.0
 10
124.0990295157308
 20
58.0079479955233
 30
0.0
 10
123.9048825956224
 20
57.95038108835503
 30
0.0
 10
123.8396806055249
 20
57.92412148356903
 30
0.0
 10
123.8396806055249
 20
57.910867739095
 30
0.0
  0
LINE
  5
72
330
1F
100
AcDbEntity
  8
0
  6
Continuous
 62
     7
370
    15
100
AcDbLine
 10
123.8396806055
 20
57.9108677391
 30
0.0
 11
123.8396806055
 21
57.9008667389
 31
0.0
  0
SPLINE
  5
73
330
1F
100
AcDbEntity
  8
0
  6
Continuous
 62
     7
370
    15
100
AcDbSpline
210
0.0
220
0.0
230
1.0
 70
     8
 71
     3
 72
    23
 73
    19
 74
     0
 42
0.00000001
 43
0.00000001
 40
0.0
 40
0.0
 40
0.0
 40
0.0
 40
0.0520256687590417
 40
0.1044186119084699
 40
0.1579654762732603
 40
0.2119084390155455
 40
0.2639329008030786
 40
0.3697142245600881
 40
0.4235868577364621
 40
0.4762679679182533
 40
0.5833878371337101
 40
0.6379530306539528
 40
0.6910551819358521
 40
0.7445319929992287
 40
0.7992014233075218
 40
0.8542881036302091
 40
0.9066815619543741
 40
1.0
 40
1.0
 40
1.0
 40
1.0
 10
133.8396806055249
 20
156.8906615945585
 30
0.0
 10
133.5666682083299
 20
156.8919831630654
 30
0.0
 10
133.0187160872157
 20
156.8946356296711
 30
0.0
 10
132.1955697297605
 20
156.9161105180987
 30
0.0
 10
131.3743246291682
 20
156.9503282367668
 30
0.0
 10
130.5728958190601
 20
156.9973801469341
 30
0.0
 10
129.5405125649171
 20
157.07436909776
 30
0.0
 10
128.5632645502931
 20
157.1702463484204
 30
0.0
 10
127.6622175390371
 20
157.2771757962086
 30
0.0
 10
126.8132437599357
 20
157.3890226040491
 30
0.0
 10
126.0556753143275
 20
157.5032512027784
 30
0.0
 10
125.410687023878
 20
157.6098309491422
 30
0.0
 10
124.9861131506802
 20
157.6837609055434
 30
0.0
 10
124.6235565010311
 20
157.7496514636002
 30
0.0
 10
124.3223549439074
 20
157.8063478148144
 30
0.0
 10
124.0951013718727
 20
157.8502840610491
 30
0.0
 10
123.8889940746502
 20
157.8909425078771
 30
0.0
 10
123.8683071366171
 20
157.8951259472665
 30
0.0
 10
123.8550585770054
 20
157.8978051521854
 30
0.0
  0
LINE
  5
74
330
1F
100
AcDbEntity
  8
0
  6
Continuous
 62
     7
370
    15
100
AcDbLine
 10
135.6276515846
 20
156.8906615946
 30
0.0
 11
133.8396806055
 21
156.8906615946
 31
0.0
  0
LINE
  5
75
330
1F
100
AcDbEntity
  8
0
  6
Continuous
 62
     7
370
    15
100
AcDbLine
 10
135.6276515846
 20
146.8518294998
 30
0.0
 11
135.6276515846
 21
156.8906615946
 31
0.0
  0
LINE
  5
76
330
1F
100
AcDbEntity
  8
0
  6
Continuous
 62
     7
370
    15
100
AcDbLine
 10
133.5476474537
 20
146.8518294998
 30
0.0
 11
135.6276515846
 21
146.8518294998
 31
0.0
  0
SPLINE
  5
77
330
1F
100
AcDbEntity
  8
0
  6
Continuous
 62
     7
370
    15
100
AcDbSpline
210
0.0
220
0.0
230
1.0
 70
     8
 71
     3
 72
    22
 73
    18
 74
     0
 42
0.00000001
 43
0.00000001
 40
0.0
 40
0.0
 40
0.0
 40
0.0
 40
0.2500000000000002
 40
0.2500000000000002
 40
0.3750000000000003
 40
0.3750000000000003
 40
0.5000000000000004
 40
0.5000000000000004
 40
0.6250000000000004
 40
0.6250000000000004
 40
0.7500000000000004
 40
0.7500000000000004
 40
0.8750000000000004
 40
0.8750000000000004
 40
0.9375000000000002
 40
0.9375000000000002
 40
1.0
 40
1.0
 40
1.0
 40
1.0
 10
123.8396806055249
 20
139.250866738895
 30
0.0
 10
124.042405561444
 20
140.2701130807596
 30
0.0
 10
124.3571492832393
 20
141.2292212306989
 30
0.0
 10
125.0652047529103
 20
142.5717003082081
 30
0.0
 10
125.343667383128
 20
143.0059088909482
 30
0.0
 10
125.9824347897652
 20
143.8175366064503
 30
0.0
 10
126.3428484695553
 20
144.1968168993871
 30
0.0
 10
127.1603807015446
 20
144.8997754784081
 30
0.0
 10
127.6215486848318
 20
145.2248042961087
 30
0.0
 10
128.6195389313156
 20
145.7898196194996
 30
0.0
 10
129.1592981253078
 20
146.0335232137061
 30
0.0
 10
130.3338910893391
 20
146.4377231413511
 30
0.0
 10
130.945627275331
 20
146.5901603343966
 30
0.0
 10
131.8975365001927
 20
146.7454878820053
 30
0.0
 10
132.2207696644534
 20
146.7849926620553
 30
0.0
 10
132.8798328357286
 20
146.838301782724
 30
0.0
 10
133.2138968463026
 20
146.8518294997819
 30
0.0
 10
133.5476474537042
 20
146.8518294997819
 30
0.0
  0
LINE
  5
78
330
1F
100
AcDbEntity
  8
0
  6
Continuous
 62
     7
370
    15
100
AcDbLine
 10
142.1517096264
 20
59.1258731459
 30
0.0
 11
142.1517096264
 21
139.2508667389
 31
0.0
  0
SPLINE
  5
79
330
1F
100
AcDbEntity
  8
0
  6
Continuous
 62
     7
370
    15
100
AcDbSpline
210
0.0
220
0.0
230
1.0
 70
     8
 71
     3
 72
     8
 73
     4
 74
     0
 42
0.00000001
 43
0.00000001
 40
0.0
 40
0.0
 40
0.0
 40
0.0
 40
1.0
 40
1.0
 40
1.0
 40
1.0
 10
142.1517096264463
 20
59.12587314586615
 30
0.0
 10
141.700604897046
 20
59.92683307768606
 30
0.0
 10
141.2499070698027
 20
60.72802308924673
 30
0.0
 10
140.7996806055249
 20
61.5294784518715
 30
0.0
  0
LINE
  5
7A
330
1F
100
AcDbEntity
  8
0
  6
Continuous
 62
     7
370
    15
100
AcDbLine
 10
140.7996806055
 20
61.5294784519
 30
0.0
 11
140.7996806055
 21
139.2508667389
 31
0.0
  0
SPLINE
  5
7B
330
1F
100
AcDbEntity
  8
0
  6
Continuous
 62
     7
370
    15
100
AcDbSpline
210
0.0
220
0.0
230
1.0
 70
    24
 71
     3
 72
     8
 73
     4
 74
     0
 42
0.00000001
 43
0.00000001
 40
0.0
 40
0.0
 40
0.0
 40
0.0
 40
1.0
 40
1.0
 40
1.0
 40
1.0
 10
140.7996806055249
 20
139.250866738895
 30
0.0
 10
141.2438934878788
 20
139.250866738895
 30
0.0
 10
141.694908054118
 20
139.250866738895
 30
0.0
 10
142.1517096264463
 20
139.250866738895
 30
0.0
  0
LINE
  5
7C
330
1F
100
AcDbEntity
  8
0
  6
Continuous
 62
     7
370
    15
100
AcDbLine
 10
118.8896806055
 20
58.4008667389
 30
0.0
 11
118.8896806055
 21
157.4008667342
 31
0.0
  0
LINE
  5
7D
330
1F
100
AcDbEntity
  8
0
  6
Continuous
 62
     7
370
    15
100
AcDbLine
 10
147.8396806055
 20
60.1515211936
 30
0.0
 11
147.8396806055
 21
139.2508667389
 31
0.0
  0
SPLINE
  5
7E
330
1F
100
AcDbEntity
  8
0
  6
Continuous
 62
     7
370
    15
100
AcDbSpline
210
0.0
220
0.0
230
1.0
 70
     8
 71
     3
 72
    14
 73
    10
 74
     0
 42
0.00000001
 43
0.00000001
 40
0.0
 40
0.0
 40
0.0
 40
0.0
 40
0.25
 40
0.25
 40
0.5
 40
0.5
 40
0.75
 40
0.75
 40
1.0
 40
1.0
 40
1.0
 40
1.0
 10
147.8396806055249
 20
60.15152119364166
 30
0.0
 10
147.8396806055249
 20
60.01809549758713
 30
0.0
 10
147.814369505614
 20
59.88624768974277
 30
0.0
 10
147.7160347417693
 20
59.63972514104867
 30
0.0
 10
147.6428907375132
 20
59.52591995280813
 30
0.0
 10
147.4594526764175
 20
59.33546277586085
 30
0.0
 10
147.3477663420789
 20
59.25782791201094
 30
0.0
 10
147.1052629117726
 20
59.15353650189846
 30
0.0
 10
146.9718884830784
 20
59.12587314586612
 30
0.0
 10
146.8396806055249
 20
59.12587314586612
 30
0.0
  0
SPLINE
  5
7F
330
1F
100
AcDbEntity
  8
0
  6
Continuous
 62
     7
370
    15
100
AcDbSpline
210
0.0
220
0.0
230
1.0
 70
    24
 71
     3
 72
    12
 73
     8
 74
     0
 42
0.00000001
 43
0.00000001
 40
0.0
 40
0.0
 40
0.0
 40
0.0
 40
0.2500000000000032
 40
0.2500000000000032
 40
0.5000000000000064
 40
0.5000000000000064
 40
1.0
 40
1.0
 40
1.0
 40
1.0
 10
146.8396806055249
 20
139.250866738895
 30
0.0
 10
146.9917708424699
 20
139.250866738895
 30
0.0
 10
147.1402301035453
 20
139.250866738895
 30
0.0
 10
147.397633735811
 20
139.250866738895
 30
0.0
 10
147.5067384836529
 20
139.250866738895
 30
0.0
 10
147.7607979600604
 20
139.250866738895
 30
0.0
 10
147.8396806055249
 20
139.250866738895
 30
0.0
 10
147.8396806055249
 20
139.250866738895
 30
0.0
  0
LINE
  5
80
330
1F
100
AcDbEntity
  8
0
  6
Continuous
 62
     7
370
    15
100
AcDbLine
 10
136.9796806055
 20
61.5294784519
 30
0.0
 11
136.9796806055
 21
139.2508667389
 31
0.0
  0
SPLINE
  5
81
330
1F
100
AcDbEntity
  8
0
  6
Continuous
 62
     7
370
    15
100
AcDbSpline
210
0.0
220
0.0
230
1.0
 70
     8
 71
     3
 72
     8
 73
     4
 74
     0
 42
0.00000001
 43
0.00000001
 40
0.0
 40
0.0
 40
0.0
 40
0.0
 40
1.0
 40
1.0
 40
1.0
 40
1.0
 10
136.9796806055249
 20
61.52947845187149
 30
0.0
 10
136.5294541412471
 20
60.72802308924673
 30
0.0
 10
136.0787563140037
 20
59.92683307768606
 30
0.0
 10
135.6276515846035
 20
59.12587314586615
 30
0.0
  0
SPLINE
  5
82
330
1F
100
AcDbEntity
  8
0
  6
Continuous
 62
     7
370
    15
100
AcDbSpline
210
0.0
220
0.0
230
1.0
 70
    24
 71
     3
 72
     8
 73
     4
 74
     0
 42
0.00000001
 43
0.00000001
 40
0.0
 40
0.0
 40
0.0
 40
0.0
 40
1.0
 40
1.0
 40
1.0
 40
1.0
 10
135.6276515846035
 20
139.250866738895
 30
0.0
 10
136.0844531569317
 20
139.250866738895
 30
0.0
 10
136.5354677231709
 20
139.250866738895
 30
0.0
 10
136.9796806055249
 20
139.250866738895
 30
0.0
  0
LINE
  5
83
330
1F
100
AcDbEntity
  8
0
  6
Continuous
 62
     7
370
    15
100
AcDbLine
 10
146.8396806055
 20
59.1258731459
 30
0.0
 11
142.1517096264
 21
59.1258731459
 31
0.0
  0
LINE
  5
84
330
1F
100
AcDbEntity
  8
0
  6
Continuous
 62
     7
370
    15
100
AcDbLine
 10
142.1517096264
 20
139.2508667389
 30
0.0
 11
146.8396806055
 21
139.2508667389
 31
0.0
  0
SPLINE
  5
85
330
1F
100
AcDbEntity
  8
0
  6
Continuous
 62
     7
370
    15
100
AcDbSpline
210
0.0
220
0.0
230
1.0
 70
     8
 71
     3
 72
    12
 73
     8
 74
     0
 42
0.00000001
 43
0.00000001
 40
0.0
 40
0.0
 40
0.0
 40
0.0
 40
0.25
 40
0.25
 40
0.5
 40
0.5
 40
1.0
 40
1.0
 40
1.0
 40
1.0
 10
137.7796806055249
 20
63.26119128084532
 30
0.0
 10
137.673919952176
 20
63.26119128084532
 30
0.0
 10
137.565932323993
 20
63.23865177484492
 30
0.0
 10
137.3713376587274
 20
63.15408114284962
 30
0.0
 10
137.2824657458886
 20
63.09159949009081
 30
0.0
 10
137.0632734535627
 20
62.86221053861865
 30
0.0
 10
136.9796806055248
 20
62.64962720109627
 30
0.0
 10
136.9796806055248
 20
62.43768795650007
 30
0.0
  0
SPLINE
  5
86
330
1F
100
AcDbEntity
  8
0
  6
Continuous
 62
     7
370
    15
100
AcDbSpline
210
0.0
220
0.0
230
1.0
 70
    24
 71
     3
 72
    14
 73
    10
 74
     0
 42
0.00000001
 43
0.00000001
 40
0.0
 40
0.0
 40
0.0
 40
0.0
 40
0.25
 40
0.25
 40
0.5
 40
0.5
 40
0.75
 40
0.75
 40
1.0
 40
1.0
 40
1.0
 40
1.0
 10
136.9796806055249
 20
139.250866738895
 30
0.0
 10
136.9796806055248
 20
139.250866738895
 30
0.0
 10
136.9953949259908
 20
139.250866738895
 30
0.0
 10
137.0590789044592
 20
139.250866738895
 30
0.0
 10
137.1076820988696
 20
139.250866738895
 30
0.0
 10
137.2403656212952
 20
139.250866738895
 30
0.0
 10
137.3254677256059
 20
139.250866738895
 30
0.0
 10
137.5319099605159
 20
139.250866738895
 30
0.0
 10
137.655990902139
 20
139.250866738895
 30
0.0
 10
137.7796806055249
 20
139.250866738895
 30
0.0
  0
SPLINE
  5
87
330
1F
100
AcDbEntity
  8
0
  6
Continuous
 62
     7
370
    15
100
AcDbSpline
210
0.0
220
0.0
230
1.0
 70
     8
 71
     3
 72
    14
 73
    10
 74
     0
 42
0.00000001
 43
0.00000001
 40
0.0
 40
0.0
 40
0.0
 40
0.0
 40
0.25
 40
0.25
 40
0.5
 40
0.5
 40
0.75
 40
0.75
 40
1.0
 40
1.0
 40
1.0
 40
1.0
 10
140.7996806055249
 20
62.43768795650007
 30
0.0
 10
140.7996806055249
 20
62.54473203749446
 30
0.0
 10
140.7795629183667
 20
62.64996717773691
 30
0.0
 10
140.7010717291011
 20
62.84781766458458
 30
0.0
 10
140.6429151042999
 20
62.93886942814951
 30
0.0
 10
140.4963998486818
 20
63.09203552207429
 30
0.0
 10
140.4077573000407
 20
63.1543299682837
 30
0.0
 10
140.2120339772404
 20
63.23912375381968
 30
0.0
 10
140.1068027861695
 20
63.26119128084532
 30
0.0
 10
139.9996806055249
 20
63.26119128084532
 30
0.0
  0
SPLINE
  5
88
330
1F
100
AcDbEntity
  8
0
  6
Continuous
 62
     7
370
    15
100
AcDbSpline
210
0.0
220
0.0
230
1.0
 70
    24
 71
     3
 72
    14
 73
    10
 74
     0
 42
0.00000001
 43
0.00000001
 40
0.0
 40
0.0
 40
0.0
 40
0.0
 40
0.25
 40
0.25
 40
0.5
 40
0.5
 40
0.75
 40
0.75
 40
1.0
 40
1.0
 40
1.0
 40
1.0
 10
139.9996806055249
 20
139.250866738895
 30
0.0
 10
140.12345037029
 20
139.250866738895
 30
0.0
 10
140.2478174742969
 20
139.250866738895
 30
0.0
 10
140.454173943023
 20
139.250866738895
 30
0.0
 10
140.5395020864413
 20
139.250866738895
 30
0.0
 10
140.6716941451566
 20
139.250866738895
 30
0.0
 10
140.7203393889071
 20
139.250866738895
 30
0.0
 10
140.7838751806359
 20
139.250866738895
 30
0.0
 10
140.7996806055249
 20
139.250866738895
 30
0.0
 10
140.7996806055249
 20
139.250866738895
 30
0.0
  0
LINE
  5
89
330
1F
100
AcDbEntity
  8
0
  6
Continuous
 62
     7
370
    15
100
AcDbLine
 10
139.9996806055
 20
63.2611912808
 30
0.0
 11
137.7796806055
 21
63.2611912808
 31
0.0
  0
LINE
  5
8A
330
1F
100
AcDbEntity
  8
0
  6
Continuous
 62
     7
370
    15
100
AcDbLine
 10
137.7796806055
 20
139.2508667389
 30
0.0
 11
139.9996806055
 21
139.2508667389
 31
0.0
  0
LINE
  5
8B
330
1F
100
AcDbEntity
  8
0
  6
Continuous
 62
     7
370
    15
100
AcDbLine
 10
116.3896806055
 20
70.0186152359
 30
0.0
 11
116.3896806055
 21
145.7831182419
 31
0.0
  0
LINE
  5
8C
330
1F
100
AcDbEntity
  8
0
  6
Continuous
 62
     7
370
    15
100
AcDbLine
 10
84.0896806055
 20
71.6368517088
 30
0.0
 11
84.0896806055
 21
74.0315334735
 31
0.0
  0
SPLINE
  5
8D
330
1F
100
AcDbEntity
  8
0
  6
Continuous
 62
     7
370
    15
100
AcDbSpline
210
0.0
220
0.0
230
1.0
 70
     8
 71
     3
 72
    14
 73
    10
 74
     0
 42
0.00000001
 43
0.00000001
 40
0.0
 40
0.0
 40
0.0
 40
0.0
 40
0.25
 40
0.25
 40
0.5
 40
0.5
 40
0.75
 40
0.75
 40
1.0
 40
1.0
 40
1.0
 40
1.0
 10
83.08525813418791
 20
75.73438539515142
 30
0.0
 10
83.17402671213326
 20
75.57585126384348
 30
0.0
 10
83.29574455081215
 20
75.42340858695492
 30
0.0
 10
83.53079416066899
 20
75.126273963126
 30
0.0
 10
83.64642434688588
 20
74.98159131950864
 30
0.0
 10
83.8468292803137
 20
74.69830211700523
 30
0.0
 10
83.93222957229801
 20
74.55974812396838
 30
0.0
 10
84.05393520601525
 20
74.28836409393486
 30
0.0
 10
84.08968060552789
 20
74.15622822530021
 30
0.0
 10
84.08968060552787
 20
74.03153347352946
 30
0.0
  0
SPLINE
  5
8E
330
1F
100
AcDbEntity
  8
0
  6
Continuous
 62
     7
370
    15
100
AcDbSpline
210
0.0
220
0.0
230
1.0
 70
     8
 71
     3
 72
    14
 73
    10
 74
     0
 42
0.00000001
 43
0.00000001
 40
0.0
 40
0.0
 40
0.0
 40
0.0
 40
0.1250000000000014
 40
0.1250000000000014
 40
0.2500000000000028
 40
0.2500000000000028
 40
0.5000000000000019
 40
0.5000000000000019
 40
1.0
 40
1.0
 40
1.0
 40
1.0
 10
82.18968060552487
 20
76.36321533425152
 30
0.0
 10
82.25726290530935
 20
76.37037121935292
 30
0.0
 10
82.32975048305727
 20
76.3659467493139
 30
0.0
 10
82.4620415923232
 20
76.33624059154357
 30
0.0
 10
82.51931897171337
 20
76.31295630996532
 30
0.0
 10
82.66896939891366
 20
76.235471070115
 30
0.0
 10
82.74268269443517
 20
76.17361924321364
 30
0.0
 10
82.93049067776141
 20
75.98894179056533
 30
0.0
 10
83.01453098412284
 20
75.86069886727412
 30
0.0
 10
83.08525813418913
 20
75.73438539515153
 30
0.0
  0
SPLINE
  5
8F
330
1F
100
AcDbEntity
  8
0
  6
Continuous
 62
     7
370
    15
100
AcDbSpline
210
0.0
220
0.0
230
1.0
 70
     8
 71
     3
 72
     8
 73
     4
 74
     0
 42
0.00000001
 43
0.00000001
 40
0.0
 40
0.0
 40
0.0
 40
0.0
 40
1.0
 40
1.0
 40
1.0
 40
1.0
 10
78.64504021744409
 20
75.9451667494597
 30
0.0
 10
79.81033852815294
 20
76.10035422134632
 30
0.0
 10
80.99495374219279
 20
76.23671285965663
 30
0.0
 10
82.18968060552488
 20
76.36321533425149
 30
0.0
  0
SPLINE
  5
90
330
1F
100
AcDbEntity
  8
0
  6
Continuous
 62
     7
370
    15
100
AcDbSpline
210
0.0
220
0.0
230
1.0
 70
     8
 71
     3
 72
    14
 73
    10
 74
     0
 42
0.00000001
 43
0.00000001
 40
0.0
 40
0.0
 40
0.0
 40
0.0
 40
0.5000000000000014
 40
0.5000000000000014
 40
0.750000000000002
 40
0.750000000000002
 40
0.8750000000000011
 40
0.8750000000000011
 40
1.0
 40
1.0
 40
1.0
 40
1.0
 10
70.8896057214962
 20
75.65503457032983
 30
0.0
 10
72.19790728402991
 20
75.66204929407094
 30
0.0
 10
73.50296665868672
 20
75.67745787051544
 30
0.0
 10
75.44884271017503
 20
75.73135442598212
 30
0.0
 10
76.09554021391403
 20
75.75438599058482
 30
0.0
 10
77.05938257776837
 20
75.80532851545557
 30
0.0
 10
77.37962126970245
 20
75.82506343768877
 30
0.0
 10
78.01631649604485
 20
75.87455056616032
 30
0.0
 10
78.33303190432777
 20
75.90361534508955
 30
0.0
 10
78.64504021744409
 20
75.9451667494597
 30
0.0
  0
SPLINE
  5
91
330
1F
100
AcDbEntity
  8
0
  6
Continuous
 62
     7
370
    15
100
AcDbSpline
210
0.0
220
0.0
230
1.0
 70
     8
 71
     3
 72
    12
 73
     8
 74
     0
 42
0.00000001
 43
0.00000001
 40
0.0
 40
0.0
 40
0.0
 40
0.0
 40
0.2499999999999991
 40
0.2499999999999991
 40
0.4999999999999982
 40
0.4999999999999982
 40
1.0
 40
1.0
 40
1.0
 40
1.0
 10
77.18968060552487
 20
139.9873896303914
 30
0.0
 10
76.67098178369669
 20
140.0199124052396
 30
0.0
 10
76.1492702104917
 20
140.0432091464101
 30
0.0
 10
75.1029781939961
 20
140.0810546608322
 30
0.0
 10
74.57830656832583
 20
140.0953231353284
 30
0.0
 10
73.00146054578663
 20
140.1295326227867
 30
0.0
 10
71.94650523123974
 20
140.1410321267305
 30
0.0
 10
70.88960572149449
 20
140.1466989074601
 30
0.0
  0
SPLINE
  5
92
330
1F
100
AcDbEntity
  8
0
  6
Continuous
 62
     7
370
    15
100
AcDbSpline
210
0.0
220
0.0
230
1.0
 70
     8
 71
     3
 72
    20
 73
    16
 74
     0
 42
0.00000001
 43
0.00000001
 40
0.0
 40
0.0
 40
0.0
 40
0.0
 40
0.2499999999999997
 40
0.2499999999999997
 40
0.4999999999999993
 40
0.4999999999999993
 40
0.749999999999999
 40
0.749999999999999
 40
0.8749999999999997
 40
0.8749999999999997
 40
0.9374999999999994
 40
0.9374999999999994
 40
0.9687499999999997
 40
0.9687499999999997
 40
1.0
 40
1.0
 40
1.0
 40
1.0
 10
79.08968060552488
 20
141.6454754758795
 30
0.0
 10
79.08968060552488
 20
141.5097931561327
 30
0.0
 10
79.04096881630826
 20
141.3687061699927
 30
0.0
 10
78.87180739308306
 20
141.0766344512621
 30
0.0
 10
78.75002697916473
 20
140.9249857091718
 30
0.0
 10
78.45247988441523
 20
140.6225772690186
 30
0.0
 10
78.27856727871246
 20
140.4699886328953
 30
0.0
 10
77.95915244483065
 20
140.244717869053
 30
0.0
 10
77.84411166938338
 20
140.1699947745423
 30
0.0
 10
77.63702734536696
 20
140.0705843652853
 30
0.0
 10
77.56091951056057
 20
140.0390192729407
 30
0.0
 10
77.42952497100723
 20
140.0045758887478
 30
0.0
 10
77.38297175200576
 20
139.9955243169802
 30
0.0
 10
77.28663840092506
 20
139.9853486681417
 30
0.0
 10
77.2373789775696
 20
139.9843989094666
 30
0.0
 10
77.1896806055229
 20
139.9873896303812
 30
0.0
  0
LINE
  5
93
330
1F
100
AcDbEntity
  8
0
  6
Continuous
 62
     7
370
    15
100
AcDbLine
 10
79.0896806055
 20
141.6454754759
 30
0.0
 11
79.0896806055
 21
143.914380767
 31
0.0
  0
SPLINE
  5
94
330
1F
100
AcDbEntity
  8
0
  6
Continuous
 62
     7
370
    15
100
AcDbSpline
210
0.0
220
0.0
230
1.0
 70
     8
 71
     3
 72
    24
 73
    20
 74
     0
 42
0.00000001
 43
0.00000001
 40
0.0
 40
0.0
 40
0.0
 40
0.0
 40
0.0002934293894791
 40
0.0628080051747556
 40
0.1260453927228698
 40
0.1890746766605394
 40
0.2513200540860215
 40
0.3133304633785772
 40
0.3759158453763091
 40
0.4383740564600958
 40
0.5000631094857311
 40
0.5616593988027344
 40
0.6245050380643667
 40
0.6872231506498188
 40
0.7494953263230515
 40
0.811758379753783
 40
0.874736550822989
 40
0.9378980306237564
 40
1.0
 40
1.0
 40
1.0
 40
1.0
 10
97.40963686936432
 20
70.96962148058259
 30
0.0
 10
97.40944201647955
 20
70.9695971731886
 30
0.0
 10
97.36773412546846
 20
70.96439422153522
 30
0.0
 10
97.51285251699579
 20
70.98302884486458
 30
0.0
 10
97.86793145853493
 20
71.02554862341323
 30
0.0
 10
98.4725070960786
 20
71.09368490701532
 30
0.0
 10
99.27894240489492
 20
71.16694044403104
 30
0.0
 10
100.2644198288145
 20
71.23145978484952
 30
0.0
 10
101.3960894254962
 20
71.2700240129103
 30
0.0
 10
102.618381895659
 20
71.27371851891147
 30
0.0
 10
103.8857105771019
 20
71.23129253886337
 30
0.0
 10
105.1521961075257
 20
71.14304539808111
 30
0.0
 10
106.3683334713401
 20
71.0146521278171
 30
0.0
 10
107.4937439671956
 20
70.86201113922449
 30
0.0
 10
108.4711610287454
 20
70.70023652411884
 30
0.0
 10
109.2744265072954
 20
70.54770763101715
 30
0.0
 10
109.8629200302962
 20
70.42369388774961
 30
0.0
 10
110.2518261419475
 20
70.33876996147353
 30
0.0
 10
110.2985872726853
 20
70.3280436501948
 30
0.0
 10
110.3217700792274
 20
70.32272585750324
 30
0.0
  0
SPLINE
  5
95
330
1F
100
AcDbEntity
  8
0
  6
Continuous
 62
     7
370
    15
100
AcDbSpline
210
0.0
220
0.0
230
1.0
 70
     8
 71
     3
 72
    41
 73
    37
 74
     0
 42
0.00000001
 43
0.00000001
 40
0.0
 40
0.0
 40
0.0
 40
0.0
 40
0.0619930061482726
 40
0.1254347783466272
 40
0.1886508898234541
 40
0.2510246408607235
 40
0.3131658188975089
 40
0.375658164141749
 40
0.4382227146726768
 40
0.4998044922940702
 40
0.561516419717831
 40
0.6240683094122113
 40
0.6867257232410916
 40
0.7488365305144646
 40
0.8110685944251821
 40
0.8741742884451355
 40
0.9373212787639271
 40
0.9685511709612981
 40
0.9842086872484583
 40
0.9920641182530361
 40
0.9960004861254599
 40
0.9979710794119777
 40
0.9989570090489391
 40
0.9994501359394942
 40
0.9996967403802102
 40
0.9998200529090682
 40
0.9998817117580789
 40
0.9999125418296596
 40
0.9999279570273334
 40
0.9999356646666575
 40
0.9999395184964439
 40
0.9999414454138669
 40
0.9999424088732124
 40
0.999943372332978
 40
0.9999501696996261
 40
1.0
 40
1.0
 40
1.0
 40
1.0
 10
110.3216487487495
 20
145.4789626023352
 30
0.0
 10
110.2980771034064
 20
145.4736531226853
 30
0.0
 10
110.2503829473625
 20
145.4629100817458
 30
0.0
 10
109.8583409579354
 20
145.3776809452903
 30
0.0
 10
109.2678269086635
 20
145.2531121666496
 30
0.0
 10
108.4637894626209
 20
145.1001652204979
 30
0.0
 10
107.4877140624399
 20
144.9384086665442
 30
0.0
 10
106.3659053271595
 20
144.7861758986121
 30
0.0
 10
105.1523744073712
 20
144.6583959574108
 30
0.0
 10
103.8875437009726
 20
144.5705474057281
 30
0.0
 10
102.6195006635288
 20
144.5281619218571
 30
0.0
 10
101.395993305827
 20
144.531897729829
 30
0.0
 10
100.262494765413
 20
144.5704932002772
 30
0.0
 10
99.2763889544395
 20
144.6349325715681
 30
0.0
 10
98.46776114565509
 20
144.7084423788495
 30
0.0
 10
97.87114245054497
 20
144.7757560636608
 30
0.0
 10
97.55575116108619
 20
144.8137206149289
 30
0.0
 10
97.445684592289
 20
144.8275196742609
 30
0.0
 10
97.41826520447403
 20
144.8310057481816
 30
0.0
 10
97.41134315364395
 20
144.831884973875
 30
0.0
 10
97.4095749134602
 20
144.8321057484813
 30
0.0
 10
97.40911453428669
 20
144.8321609511921
 30
0.0
 10
97.40899037560179
 20
144.8321746909791
 30
0.0
 10
97.4089548211086
 20
144.8321780868102
 30
0.0
 10
97.40894367703847
 20
144.8321789151304
 30
0.0
 10
97.40893976384235
 20
144.8321791117192
 30
0.0
 10
97.40893822163751
 20
144.8321791556493
 30
0.0
 10
97.40893755463601
 20
144.832179163956
 30
0.0
 10
97.40893724645825
 20
144.8321791647863
 30
0.0
 10
97.4089370996922
 20
144.8321791642411
 30
0.0
 10
97.40893702673975
 20
144.8321791639113
 30
0.0
 10
97.40893699234738
 20
144.832179163474
 30
0.0
 10
97.40893697010219
 20
144.8321791635625
 30
0.0
 10
97.40893694299278
 20
144.8321791607275
 30
0.0
 10
97.40893442343192
 20
144.8321794475825
 30
0.0
 10
97.40897051335023
 20
144.8321748274819
 30
0.0
 10
97.40900227117397
 20
144.8321707619602
 30
0.0
  0
SPLINE
  5
96
330
1F
100
AcDbEntity
  8
0
  6
Continuous
 62
     7
370
    15
100
AcDbSpline
210
0.0
220
0.0
230
1.0
 70
     8
 71
     3
 72
    20
 73
    16
 74
     0
 42
0.00000001
 43
0.00000001
 40
0.0
 40
0.0
 40
0.0
 40
0.0
 40
0.250000000000004
 40
0.250000000000004
 40
0.3750000000000038
 40
0.3750000000000038
 40
0.4375000000000071
 40
0.4375000000000071
 40
0.5000000000000104
 40
0.5000000000000104
 40
0.6250000000000089
 40
0.6250000000000089
 40
0.7500000000000073
 40
0.7500000000000073
 40
1.0
 40
1.0
 40
1.0
 40
1.0
 10
69.2804948372409
 20
77.22238358619424
 30
0.0
 10
69.3067670544544
 20
77.24170152727672
 30
0.0
 10
69.33744719670923
 20
77.25609023837853
 30
0.0
 10
69.40891806709139
 20
77.2491858765424
 30
0.0
 10
69.43694510413579
 20
77.2420198731939
 30
0.0
 10
69.49202869363353
 20
77.21232084649007
 30
0.0
 10
69.51292002218601
 20
77.19884720392865
 30
0.0
 10
69.55812866963166
 20
77.1636489384124
 30
0.0
 10
69.58253288202724
 20
77.14174070968502
 30
0.0
 10
69.65386520007881
 20
77.06961584968916
 30
0.0
 10
69.695761984899
 20
77.01727530873912
 30
0.0
 10
69.76733794375481
 20
76.91979191683824
 30
0.0
 10
69.79816593357208
 20
76.87303814695981
 30
0.0
 10
69.88126586640763
 20
76.7397449311206
 30
0.0
 10
69.92612077177793
 20
76.65710753320528
 30
0.0
 10
69.96623284723049
 20
76.57800063841441
 30
0.0
  0
SPLINE
  5
97
330
1F
100
AcDbEntity
  8
0
  6
Continuous
 62
     7
370
    15
100
AcDbSpline
210
0.0
220
0.0
230
1.0
 70
     8
 71
     3
 72
    14
 73
    10
 74
     0
 42
0.00000001
 43
0.00000001
 40
0.0
 40
0.0
 40
0.0
 40
0.0
 40
0.25
 40
0.25
 40
0.5
 40
0.5
 40
0.75
 40
0.75
 40
1.0
 40
1.0
 40
1.0
 40
1.0
 10
68.98968060552488
 20
77.39819699632703
 30
0.0
 10
68.9896806055249
 20
77.35695006530268
 30
0.0
 10
68.99829032190613
 20
77.3200430930202
 30
0.0
 10
69.02937650147648
 20
77.2591430331208
 30
0.0
 10
69.05176605496054
 20
77.2349621135811
 30
0.0
 10
69.10650998613666
 20
77.20099452269785
 30
0.0
 10
69.13896022572185
 20
77.19107443872966
 30
0.0
 10
69.20896174044991
 20
77.1897232298248
 30
0.0
 10
69.24717224057245
 20
77.19788150652096
 30
0.0
 10
69.28049483724554
 20
77.22238358618907
 30
0.0
  0
LINE
  5
98
330
1F
100
AcDbEntity
  8
0
  6
Continuous
 62
     7
370
    15
100
AcDbLine
 10
68.9896806055
 20
77.3981969963
 30
0.0
 11
68.9896806055
 21
138.4035364815
 31
0.0
  0
SPLINE
  5
99
330
1F
100
AcDbEntity
  8
0
  6
Continuous
 62
     7
370
    15
100
AcDbSpline
210
0.0
220
0.0
230
1.0
 70
     8
 71
     3
 72
    12
 73
     8
 74
     0
 42
0.00000001
 43
0.00000001
 40
0.0
 40
0.0
 40
0.0
 40
0.0
 40
0.0592077505114034
 40
0.3503612113849189
 40
0.6440120003238826
 40
0.9432672693652668
 40
1.0
 40
1.0
 40
1.0
 40
1.0
 10
69.28049483724553
 20
138.5793498916008
 30
0.0
 10
69.27565895389706
 20
138.5826225352205
 30
0.0
 10
69.24704266745738
 20
138.6019883677866
 30
0.0
 10
69.18904432941703
 20
138.6159542649511
 30
0.0
 10
69.1170440889567
 20
138.6048812371358
 30
0.0
 10
69.06840439994599
 20
138.5835809332262
 30
0.0
 10
69.05161952788352
 20
138.5606795630513
 30
0.0
 10
69.04894457359764
 20
138.5570298409639
 30
0.0
  0
SPLINE
  5
9A
330
1F
100
AcDbEntity
  8
0
  6
Continuous
 62
     7
370
    15
100
AcDbSpline
210
0.0
220
0.0
230
1.0
 70
     8
 71
     3
 72
     8
 73
     4
 74
     0
 42
0.00000001
 43
0.00000001
 40
0.0
 40
0.0
 40
0.0
 40
0.0
 40
1.0
 40
1.0
 40
1.0
 40
1.0
 10
69.01331427446108
 20
138.5111159825325
 30
0.0
 10
68.99796523582505
 20
138.4806059275366
 30
0.0
 10
68.98968060552488
 20
138.4442943720243
 30
0.0
 10
68.98968060552488
 20
138.4035364814629
 30
0.0
  0
SPLINE
  5
9B
330
1F
100
AcDbEntity
  8
0
  6
Continuous
 62
     7
370
    15
100
AcDbSpline
210
0.0
220
0.0
230
1.0
 70
     8
 71
     3
 72
    20
 73
    16
 74
     0
 42
0.00000001
 43
0.00000001
 40
0.0
 40
0.0
 40
0.0
 40
0.0
 40
0.2499999999999955
 40
0.2499999999999955
 40
0.3749999999999906
 40
0.3749999999999906
 40
0.4999999999999856
 40
0.4999999999999856
 40
0.5624999999999872
 40
0.5624999999999872
 40
0.6249999999999889
 40
0.6249999999999889
 40
0.749999999999992
 40
0.749999999999992
 40
1.0
 40
1.0
 40
1.0
 40
1.0
 10
69.9662328472273
 20
139.2237328393732
 30
0.0
 10
69.92623662940346
 20
139.1448544328157
 30
0.0
 10
69.88112300156581
 20
139.0617247861242
 30
0.0
 10
69.79786878719932
 20
138.9282361217732
 30
0.0
 10
69.76764945857877
 20
138.8823710658912
 30
0.0
 10
69.69556122343735
 20
138.7841795134864
 30
0.0
 10
69.65364390602628
 20
138.7318696939628
 30
0.0
 10
69.58239330147481
 20
138.6598637912283
 30
0.0
 10
69.55815748909549
 20
138.6380935789267
 30
0.0
 10
69.51255929891087
 20
138.6026189205977
 30
0.0
 10
69.49175680931116
 20
138.5892487364202
 30
0.0
 10
69.43681581089206
 20
138.5596788242849
 30
0.0
 10
69.40874682280523
 20
138.5525523019829
 30
0.0
 10
69.33824399274238
 20
138.5456779305003
 30
0.0
 10
69.3068199049515
 20
138.5599930895874
 30
0.0
 10
69.28049483724288
 20
138.579349891598
 30
0.0
  0
SPLINE
  5
9C
330
1F
100
AcDbEntity
  8
0
  6
Continuous
 62
     7
370
    15
100
AcDbSpline
210
0.0
220
0.0
230
1.0
 70
     8
 71
     3
 72
    10
 73
     6
 74
     0
 42
0.00000001
 43
0.00000001
 40
0.0
 40
0.0
 40
0.0
 40
0.0
 40
0.4999999999999989
 40
0.4999999999999989
 40
1.0
 40
1.0
 40
1.0
 40
1.0
 10
70.63968060552489
 20
140.1491519407149
 30
0.0
 10
70.51479233477468
 20
140.0181556626435
 30
0.0
 10
70.39334221671425
 20
139.8744428259785
 30
0.0
 10
70.1637582417568
 20
139.5638725332892
 30
0.0
 10
70.05348326636081
 20
139.3958034602262
 30
0.0
 10
69.9662328472273
 20
139.2237328393732
 30
0.0
  0
SPLINE
  5
9D
330
1F
100
AcDbEntity
  8
0
  6
Continuous
 62
     7
370
    15
100
AcDbSpline
210
0.0
220
0.0
230
1.0
 70
     8
 71
     3
 72
     8
 73
     4
 74
     0
 42
0.00000001
 43
0.00000001
 40
0.0
 40
0.0
 40
0.0
 40
0.0
 40
1.0
 40
1.0
 40
1.0
 40
1.0
 10
70.88960572149061
 20
140.1466989074596
 30
0.0
 10
70.80258769164227
 20
140.1471654722467
 30
0.0
 10
70.71963366526232
 20
140.1482054918228
 30
0.0
 10
70.63968060552259
 20
140.149151940715
 30
0.0
  0
SPLINE
  5
9E
330
1F
100
AcDbEntity
  8
0
  6
Continuous
 62
     7
370
    15
100
AcDbSpline
210
0.0
220
0.0
230
1.0
 70
     8
 71
     3
 72
     8
 73
     4
 74
     0
 42
0.00000001
 43
0.00000001
 40
0.0
 40
0.0
 40
0.0
 40
0.0
 40
1.0
 40
1.0
 40
1.0
 40
1.0
 10
70.63968060552259
 20
75.65258153707488
 30
0.0
 10
70.71963366526285
 20
75.65352798596716
 30
0.0
 10
70.80258769164332
 20
75.65456800554328
 30
0.0
 10
70.8896057214923
 20
75.65503457033034
 30
0.0
  0
SPLINE
  5
9F
330
1F
100
AcDbEntity
  8
0
  6
Continuous
 62
     7
370
    15
100
AcDbSpline
210
0.0
220
0.0
230
1.0
 70
     8
 71
     3
 72
    10
 73
     6
 74
     0
 42
0.00000001
 43
0.00000001
 40
0.0
 40
0.0
 40
0.0
 40
0.0
 40
0.5000000000000011
 40
0.5000000000000011
 40
1.0
 40
1.0
 40
1.0
 40
1.0
 10
69.96623284722729
 20
76.57800063841677
 30
0.0
 10
70.05348326636079
 20
76.4059300175637
 30
0.0
 10
70.1637582417568
 20
76.23786094450065
 30
0.0
 10
70.39334221671425
 20
75.92729065181145
 30
0.0
 10
70.51479233477468
 20
75.78357781514642
 30
0.0
 10
70.63968060552489
 20
75.65258153707497
 30
0.0
  0
LINE
  5
A0
330
1F
100
AcDbEntity
  8
0
  6
Continuous
 62
     7
370
    15
100
AcDbLine
 10
146.8396806055
 20
156.8906615946
 30
0.0
 11
142.1517096264
 21
156.8906615946
 31
0.0
  0
LINE
  5
A1
330
1F
100
AcDbEntity
  8
0
  6
Continuous
 62
     7
370
    15
100
AcDbLine
 10
142.1517096264
 20
146.8518294998
 30
0.0
 11
146.8396806055
 21
146.8518294998
 31
0.0
  0
LINE
  5
A2
330
1F
100
AcDbEntity
  8
0
  6
Continuous
 62
     7
370
    15
100
AcDbLine
 10
142.1517096264
 20
146.8518294998
 30
0.0
 11
142.1517096264
 21
156.8906615946
 31
0.0
  0
SPLINE
  5
A3
330
1F
100
AcDbEntity
  8
0
  6
Continuous
 62
     7
370
    15
100
AcDbSpline
210
0.0
220
0.0
230
1.0
 70
     8
 71
     3
 72
     8
 73
     4
 74
     0
 42
0.00000001
 43
0.00000001
 40
0.0
 40
0.0
 40
0.0
 40
0.0
 40
1.0
 40
1.0
 40
1.0
 40
1.0
 10
135.6276515846035
 20
146.8518294997819
 30
0.0
 10
136.084577938403
 20
145.8359115301076
 30
0.0
 10
136.535783580206
 20
144.8171157010164
 30
0.0
 10
136.9796806055249
 20
143.7963142450328
 30
0.0
  0
LINE
  5
A4
330
1F
100
AcDbEntity
  8
0
  6
Continuous
 62
     7
370
    15
100
AcDbLine
 10
136.9796806055
 20
143.796314245
 30
0.0
 11
136.9796806055
 21
142.6151019314
 31
0.0
  0
SPLINE
  5
A5
330
1F
100
AcDbEntity
  8
0
  6
Continuous
 62
     7
370
    15
100
AcDbSpline
210
0.0
220
0.0
230
1.0
 70
     8
 71
     3
 72
    14
 73
    10
 74
     0
 42
0.00000001
 43
0.00000001
 40
0.0
 40
0.0
 40
0.0
 40
0.0
 40
0.25
 40
0.25
 40
0.5
 40
0.5
 40
0.75
 40
0.75
 40
1.0
 40
1.0
 40
1.0
 40
1.0
 10
136.9796806055248
 20
142.615101931392
 30
0.0
 10
136.9796806055249
 20
142.4912350546028
 30
0.0
 10
136.9955397331524
 20
142.3669753777653
 30
0.0
 10
137.0589013786723
 20
142.1293670153594
 30
0.0
 10
137.1074910867217
 20
142.012586630607
 30
0.0
 10
137.2397766914966
 20
141.803784101998
 30
0.0
 10
137.3251014827571
 20
141.7092733984054
 30
0.0
 10
137.5319927310634
 20
141.571316597603
 30
0.0
 10
137.6559606769534
 20
141.5293981519674
 30
0.0
 10
137.7796806055249
 20
141.5293981519674
 30
0.0
  0
LINE
  5
A6
330
1F
100
AcDbEntity
  8
0
  6
Continuous
 62
     7
370
    15
100
AcDbLine
 10
137.7796806055
 20
141.529398152
 30
0.0
 11
139.9996806055
 21
141.529398152
 31
0.0
  0
SPLINE
  5
A7
330
1F
100
AcDbEntity
  8
0
  6
Continuous
 62
     7
370
    15
100
AcDbSpline
210
0.0
220
0.0
230
1.0
 70
     8
 71
     3
 72
    12
 73
     8
 74
     0
 42
0.00000001
 43
0.00000001
 40
0.0
 40
0.0
 40
0.0
 40
0.0
 40
0.250000000000002
 40
0.250000000000002
 40
0.500000000000004
 40
0.500000000000004
 40
1.0
 40
1.0
 40
1.0
 40
1.0
 10
139.9996806055249
 20
141.5293981519674
 30
0.0
 10
140.1233815555049
 20
141.5293981519674
 30
0.0
 10
140.2474781677751
 20
141.5713917637
 30
0.0
 10
140.4541333308621
 20
141.7091870903444
 30
0.0
 10
140.5391740975889
 20
141.8031606888092
 30
0.0
 10
140.7386526660625
 20
142.1179488950302
 30
0.0
 10
140.7996806055249
 20
142.3681878872577
 30
0.0
 10
140.7996806055249
 20
142.615101931392
 30
0.0
  0
LINE
  5
A8
330
1F
100
AcDbEntity
  8
0
  6
Continuous
 62
     7
370
    15
100
AcDbLine
 10
140.7996806055
 20
142.6151019314
 30
0.0
 11
140.7996806055
 21
143.796314245
 31
0.0
  0
SPLINE
  5
A9
330
1F
100
AcDbEntity
  8
0
  6
Continuous
 62
     7
370
    15
100
AcDbSpline
210
0.0
220
0.0
230
1.0
 70
     8
 71
     3
 72
     8
 73
     4
 74
     0
 42
0.00000001
 43
0.00000001
 40
0.0
 40
0.0
 40
0.0
 40
0.0
 40
1.0
 40
1.0
 40
1.0
 40
1.0
 10
140.7996806055249
 20
143.7963142450328
 30
0.0
 10
141.2438306165504
 20
144.8176974759844
 30
0.0
 10
141.6949049268083
 20
145.8361820127528
 30
0.0
 10
142.1517096264463
 20
146.8518294997819
 30
0.0
  0
SPLINE
  5
AA
330
1F
100
AcDbEntity
  8
0
  6
Continuous
 62
     7
370
    15
100
AcDbSpline
210
0.0
220
0.0
230
1.0
 70
     8
 71
     3
 72
    16
 73
    12
 74
     0
 42
0.00000001
 43
0.00000001
 40
0.0
 40
0.0
 40
0.0
 40
0.0
 40
0.1249999999999978
 40
0.1249999999999978
 40
0.2499999999999955
 40
0.2499999999999955
 40
0.499999999999997
 40
0.499999999999997
 40
0.7499999999999984
 40
0.7499999999999984
 40
1.0
 40
1.0
 40
1.0
 40
1.0
 10
146.8396806055249
 20
146.8518294997819
 30
0.0
 10
146.9153183119361
 20
146.8518294997819
 30
0.0
 10
146.9916339763543
 20
146.8404844996469
 30
0.0
 10
147.1360447142462
 20
146.7978319490084
 30
0.0
 10
147.2044911633546
 20
146.7668976243256
 30
0.0
 10
147.3994224159678
 20
146.647641252558
 30
0.0
 10
147.5072635897487
 20
146.5374892389374
 30
0.0
 10
147.6759763379607
 20
146.2893531532793
 30
0.0
 10
147.7383407506843
 20
146.1490108292757
 30
0.0
 10
147.8196446751926
 20
145.860739137787
 30
0.0
 10
147.8396806055249
 20
145.7099341648072
 30
0.0
 10
147.8396806055249
 20
145.5595642734619
 30
0.0
  0
LINE
  5
AB
330
1F
100
AcDbEntity
  8
0
  6
Continuous
 62
     7
370
    15
100
AcDbLine
 10
147.8396806055
 20
145.5595642735
 30
0.0
 11
147.8396806055
 21
139.2508667389
 31
0.0
  0
SPLINE
  5
AC
330
1F
100
AcDbEntity
  8
0
  6
Continuous
 62
     7
370
    15
100
AcDbSpline
210
0.0
220
0.0
230
1.0
 70
     8
 71
     3
 72
    12
 73
     8
 74
     0
 42
0.00000001
 43
0.00000001
 40
0.0
 40
0.0
 40
0.0
 40
0.0
 40
0.4999999999999953
 40
0.4999999999999953
 40
0.7499999999999977
 40
0.7499999999999977
 40
1.0
 40
1.0
 40
1.0
 40
1.0
 10
147.8396806055249
 20
155.8696065597408
 30
0.0
 10
147.8396806055249
 20
156.1348759925072
 30
0.0
 10
147.7350738620384
 20
156.3973910981596
 30
0.0
 10
147.4584055102931
 20
156.6829287041969
 30
0.0
 10
147.3480402509411
 20
156.7592503210583
 30
0.0
 10
147.1039682023254
 20
156.8635924858984
 30
0.0
 10
146.9722157409936
 20
156.8906615945586
 30
0.0
 10
146.8396806055249
 20
156.8906615945585
 30
0.0
  0
LINE
  5
AD
330
1F
100
AcDbEntity
  8
0
  6
Continuous
 62
     7
370
    15
100
AcDbLine
 10
147.8396806055
 20
145.5595642735
 30
0.0
 11
147.8396806055
 21
155.8696065597
 31
0.0
  0
SPLINE
  5
AE
330
1F
100
AcDbEntity
  8
0
  6
Continuous
 62
     7
370
    15
100
AcDbSpline
210
0.0
220
0.0
230
1.0
 70
     8
 71
     3
 72
    14
 73
    10
 74
     0
 42
0.00000001
 43
0.00000001
 40
0.0
 40
0.0
 40
0.0
 40
0.0
 40
0.25
 40
0.25
 40
0.5
 40
0.5
 40
0.75
 40
0.75
 40
1.0
 40
1.0
 40
1.0
 40
1.0
 10
140.7996806055249
 20
153.5944179797429
 30
0.0
 10
140.7996806055249
 20
153.4880612859906
 30
0.0
 10
140.7792930493836
 20
153.3822207982305
 30
0.0
 10
140.7006587039221
 20
153.1856558846941
 30
0.0
 10
140.6419273442835
 20
153.0944851424069
 30
0.0
 10
140.4953184386809
 20
152.9425740533753
 30
0.0
 10
140.4059131186544
 20
152.8805052165557
 30
0.0
 10
140.212022386054
 20
152.797237168797
 30
0.0
 10
140.1055173961642
 20
152.7751424990674
 30
0.0
 10
139.9996806055249
 20
152.7751424990674
 30
0.0
  0
SPLINE
  5
AF
330
1F
100
AcDbEntity
  8
0
  6
Continuous
 62
     7
370
    15
100
AcDbSpline
210
0.0
220
0.0
230
1.0
 70
     8
 71
     3
 72
     8
 73
     4
 74
     0
 42
0.00000001
 43
0.00000001
 40
0.0
 40
0.0
 40
0.0
 40
0.0
 40
1.0
 40
1.0
 40
1.0
 40
1.0
 10
136.9796806055249
 20
154.4981375995999
 30
0.0
 10
136.5293723698403
 20
155.2958527247135
 30
0.0
 10
136.0786785533167
 20
156.0933510243707
 30
0.0
 10
135.6276515846035
 20
156.8906615945585
 30
0.0
  0
LINE
  5
B0
330
1F
100
AcDbEntity
  8
0
  6
Continuous
 62
     7
370
    15
100
AcDbLine
 10
136.9796806055
 20
143.796314245
 30
0.0
 11
136.9796806055
 21
154.4981375996
 31
0.0
  0
SPLINE
  5
B1
330
1F
100
AcDbEntity
  8
0
  6
Continuous
 62
     7
370
    15
100
AcDbSpline
210
0.0
220
0.0
230
1.0
 70
     8
 71
     3
 72
     8
 73
     4
 74
     0
 42
0.00000001
 43
0.00000001
 40
0.0
 40
0.0
 40
0.0
 40
0.0
 40
1.0
 40
1.0
 40
1.0
 40
1.0
 10
142.1517096264463
 20
156.8906615945585
 30
0.0
 10
141.700682657733
 20
156.0933510243707
 30
0.0
 10
141.2499888412094
 20
155.2958527247135
 30
0.0
 10
140.7996806055249
 20
154.4981375995999
 30
0.0
  0
LINE
  5
B2
330
1F
100
AcDbEntity
  8
0
  6
Continuous
 62
     7
370
    15
100
AcDbLine
 10
140.7996806055
 20
143.796314245
 30
0.0
 11
140.7996806055
 21
154.4981375996
 31
0.0
  0
SPLINE
  5
B3
330
1F
100
AcDbEntity
  8
0
  6
Continuous
 62
     7
370
    15
100
AcDbSpline
210
0.0
220
0.0
230
1.0
 70
     8
 71
     3
 72
    10
 73
     6
 74
     0
 42
0.00000001
 43
0.00000001
 40
0.0
 40
0.0
 40
0.0
 40
0.0
 40
0.5
 40
0.5
 40
1.0
 40
1.0
 40
1.0
 40
1.0
 10
137.7796806055249
 20
152.7751424990674
 30
0.0
 10
137.5671442916685
 20
152.7751424990674
 30
0.0
 10
137.3572081200145
 20
152.8665550856976
 30
0.0
 10
137.0635009790033
 20
153.1712999516018
 30
0.0
 10
136.9796806055249
 20
153.3834549215104
 30
0.0
 10
136.9796806055249
 20
153.5944179797429
 30
0.0
  0
LINE
  5
B4
330
1F
100
AcDbEntity
  8
0
  6
Continuous
 62
     7
370
    15
100
AcDbLine
 10
139.9996806055
 20
152.7751424991
 30
0.0
 11
137.7796806055
 21
152.7751424991
 31
0.0
  0
ARC
  5
B5
330
1F
100
AcDbEntity
  8
0
  6
Continuous
 62
     7
370
    15
100
AcDbCircle
 10
127.8898926538
 20
140.5739918525
 30
0.0
 40
11.34478601436337
100
AcDbArc
 50
77.5499391354
 51
102.5168772928
  0
LINE
  5
B6
330
1F
100
AcDbEntity
  8
0
  6
Continuous
 62
     7
370
    15
100
AcDbLine
 10
168.0648616608
 20
87.4008667389
 30
0.0
 11
168.0648616608
 21
128.4008667389
 31
0.0
  0
LINE
  5
B7
330
1F
100
AcDbEntity
  8
0
  6
Continuous
 62
     7
370
    15
100
AcDbLine
 10
158.4884510705
 20
128.2731097625
 30
0.0
 11
158.5737443775
 21
128.2657895924
 31
0.0
  0
SPLINE
  5
B8
330
1F
100
AcDbEntity
  8
0
  6
Continuous
 62
     7
370
    15
100
AcDbSpline
210
0.0
220
0.0
230
1.0
 70
     8
 71
     3
 72
    36
 73
    32
 74
     0
 42
0.00000001
 43
0.00000001
 40
0.0
 40
0.0
 40
0.0
 40
0.0
 40
0.0316636627240479
 40
0.0551239763724236
 40
0.0766306792665821
 40
0.1203174111506415
 40
0.1425306175384993
 40
0.1652407202479303
 40
0.2113014363857096
 40
0.2346782741540891
 40
0.2599993935861576
 40
0.3113496050206845
 40
0.3374111038804617
 40
0.365647899286346
 40
0.4229645179695728
 40
0.4520935844167571
 40
0.4823496268686081
 40
0.5438481947528165
 40
0.5751612163398169
 40
0.605989722202604
 40
0.6370388948046307
 40
0.6688035933926146
 40
0.7008255880925751
 40
0.7306398602360484
 40
0.7914651542174648
 40
0.8226064832595616
 40
0.8495084254323623
 40
0.9044878985738449
 40
0.9326954327645673
 40
0.9560527454254222
 40
1.0
 40
1.0
 40
1.0
 40
1.0
 10
164.3306794282317
 20
128.3996830570955
 30
0.0
 10
164.3308081050309
 20
128.3996975674821
 30
0.0
 10
164.3310321213395
 20
128.3997228289375
 30
0.0
 10
164.2835206192855
 20
128.3935068451863
 30
0.0
 10
164.2084019271765
 20
128.3838211134638
 30
0.0
 10
164.0977147006755
 20
128.3698730250907
 30
0.0
 10
163.9539357582742
 20
128.3525829195179
 30
0.0
 10
163.7851998947127
 20
128.3329995768557
 30
0.0
 10
163.5838082916212
 20
128.3110275839191
 30
0.0
 10
163.3508310589876
 20
128.2878055338946
 30
0.0
 10
163.0873254872631
 20
128.263340341432
 30
0.0
 10
162.791098747996
 20
128.2392014305105
 30
0.0
 10
162.4670095453909
 20
128.2171860098815
 30
0.0
 10
162.1120202408342
 20
128.1965010147553
 30
0.0
 10
161.7299433163989
 20
128.1802725891536
 30
0.0
 10
161.3321045508383
 20
128.1702530875563
 30
0.0
 10
160.9157328784619
 20
128.1647063230742
 30
0.0
 10
160.4885220522765
 20
128.1669924411329
 30
0.0
 10
160.0664398049969
 20
128.177139166632
 30
0.0
 10
159.7536259848453
 20
128.1884906337296
 30
0.0
 10
159.4470303275487
 20
128.2032717884378
 30
0.0
 10
159.1468539511817
 20
128.2212457067966
 30
0.0
 10
158.863456094772
 20
128.2414202410347
 30
0.0
 10
158.5120587102694
 20
128.2700474547339
 30
0.0
 10
158.1960459243927
 20
128.3004365764238
 30
0.0
 10
157.9323401646954
 20
128.3288010122865
 30
0.0
 10
157.7115353789179
 20
128.3539840473954
 30
0.0
 10
157.5409035410169
 20
128.3749380509959
 30
0.0
 10
157.4297058328422
 20
128.3891184107271
 30
0.0
 10
157.3573707384243
 20
128.39852208696
 30
0.0
 10
157.3486216073512
 20
128.3996844215884
 30
0.0
 10
157.3429087663604
 20
128.4004433807187
 30
0.0
  0
SPLINE
  5
B9
330
1F
100
AcDbEntity
  8
0
  6
Continuous
 62
     7
370
    15
100
AcDbSpline
210
0.0
220
0.0
230
1.0
 70
     8
 71
     3
 72
     9
 73
     5
 74
     0
 42
0.00000001
 43
0.00000001
 40
0.0
 40
0.0
 40
0.0
 40
0.0
 40
0.4519147939476678
 40
1.0
 40
1.0
 40
1.0
 40
1.0
 10
158.1441010384746
 20
128.3064637843181
 30
0.0
 10
158.1930596153246
 20
128.3014465957019
 30
0.0
 10
158.3013954731141
 20
128.2903445280482
 30
0.0
 10
158.422225771485
 20
128.2792115713308
 30
0.0
 10
158.4884510704649
 20
128.2731097624544
 30
0.0
  0
SPLINE
  5
BA
330
1F
100
AcDbEntity
  8
0
  6
Continuous
 62
     7
370
    15
100
AcDbSpline
210
0.0
220
0.0
230
1.0
 70
     8
 71
     3
 72
    68
 73
    64
 74
     0
 42
0.00000001
 43
0.00000001
 40
-0.0312499999999999
 40
-0.0312499999999999
 40
0.0
 40
0.0
 40
0.0312500000000001
 40
0.0312500000000001
 40
0.0625000000000002
 40
0.0625000000000002
 40
0.0937500000000003
 40
0.0937500000000003
 40
0.1250000000000004
 40
0.1250000000000004
 40
0.1562500000000005
 40
0.1562500000000005
 40
0.1875000000000006
 40
0.1875000000000006
 40
0.2187500000000007
 40
0.2187500000000007
 40
0.2500000000000008
 40
0.2500000000000008
 40
0.2812500000000009
 40
0.2812500000000009
 40
0.312500000000001
 40
0.312500000000001
 40
0.3437500000000011
 40
0.3437500000000011
 40
0.3750000000000012
 40
0.3750000000000012
 40
0.4062500000000013
 40
0.4062500000000013
 40
0.4375000000000013
 40
0.4375000000000013
 40
0.500000000000002
 40
0.500000000000002
 40
0.5312500000000019
 40
0.5312500000000019
 40
0.5625000000000018
 40
0.5625000000000018
 40
0.5937500000000017
 40
0.5937500000000017
 40
0.6250000000000014
 40
0.6250000000000014
 40
0.6562500000000013
 40
0.6562500000000013
 40
0.6875000000000012
 40
0.6875000000000012
 40
0.7187500000000011
 40
0.7187500000000011
 40
0.750000000000001
 40
0.750000000000001
 40
0.7812500000000009
 40
0.7812500000000009
 40
0.8125000000000008
 40
0.8125000000000008
 40
0.8437500000000007
 40
0.8437500000000007
 40
0.8750000000000004
 40
0.8750000000000004
 40
0.9062500000000003
 40
0.9062500000000003
 40
0.9375000000000002
 40
0.9375000000000002
 40
0.9687500000000001
 40
0.9687500000000001
 40
1.0
 40
1.0
 40
1.03125
 40
1.03125
 10
158.3191227193201
 20
110.049725786784
 30
0.0
 10
158.6577794238846
 20
110.3222217720034
 30
0.0
 10
158.8372486681241
 20
110.440346111804
 30
0.0
 10
159.2145889811892
 20
110.6438998217449
 30
0.0
 10
159.4137547022543
 20
110.7297002037653
 30
0.0
 10
159.8250809485959
 20
110.8662998597064
 30
0.0
 10
160.0342345097988
 20
110.9163559607222
 30
0.0
 10
160.459216401824
 20
110.9816924302859
 30
0.0
 10
160.6769577524942
 20
110.9968780430216
 30
0.0
 10
161.1094371302624
 20
110.9909599130727
 30
0.0
 10
161.3231823993412
 20
110.9702438303059
 30
0.0
 10
161.7457493996777
 20
110.8937147261799
 30
0.0
 10
161.9565118545646
 20
110.837142838117
 30
0.0
 10
162.3624009590921
 20
110.6896713320291
 30
0.0
 10
162.5566982225365
 20
110.5995228128655
 30
0.0
 10
162.9277249721817
 20
110.3857126055038
 30
0.0
 10
163.1062692488112
 20
110.2604552214623
 30
0.0
 10
163.433956120329
 20
109.9800456973894
 30
0.0
 10
163.5823636759638
 20
109.8262070522255
 30
0.0
 10
163.8467672056139
 20
109.4897415727003
 30
0.0
 10
163.9640301451372
 20
109.3041808269387
 30
0.0
 10
164.1521309861405
 20
108.916463105932
 30
0.0
 10
164.2237625301138
 20
108.7146501353819
 30
0.0
 10
164.3194970041636
 20
108.2941125355534
 30
0.0
 10
164.3426484843582
 20
108.074829714444
 30
0.0
 10
164.3360842792252
 20
107.6445024169019
 30
0.0
 10
164.3067191819461
 20
107.4279696377287
 30
0.0
 10
164.1978265746262
 20
107.0076201771287
 30
0.0
 10
164.1197244125051
 20
106.8068016062099
 30
0.0
 10
163.8189613985001
 20
106.2305471957889
 30
0.0
 10
163.5337573437423
 20
105.8930879898203
 30
0.0
 10
163.0298945740394
 20
105.4854926183493
 30
0.0
 10
162.8506273884443
 20
105.3665454535521
 30
0.0
 10
162.4706847295891
 20
105.1604793362091
 30
0.0
 10
162.2699060330922
 20
105.0738303789492
 30
0.0
 10
161.8615282139677
 20
104.9374816719343
 30
0.0
 10
161.652195820741
 20
104.8867575609428
 30
0.0
 10
161.2232063527909
 20
104.8202253292023
 30
0.0
 10
161.0060984854564
 20
104.8050777631649
 30
0.0
 10
160.5760416694145
 20
104.8104231150299
 30
0.0
 10
160.3616638629656
 20
104.8306750469222
 30
0.0
 10
159.9342589888231
 20
104.9077253202151
 30
0.0
 10
159.7245737580284
 20
104.9641567079036
 30
0.0
 10
159.3211737272534
 20
105.1103414861044
 30
0.0
 10
159.12615292037
 20
105.2002925912702
 30
0.0
 10
158.7504626969956
 20
105.4166046605501
 30
0.0
 10
158.5729836754535
 20
105.5414913924223
 30
0.0
 10
158.2477063409145
 20
105.8195988825055
 30
0.0
 10
158.0984757872251
 20
105.9735586065321
 30
0.0
 10
157.8301572952523
 20
106.3151797155533
 30
0.0
 10
157.7148319912804
 20
106.4986020716461
 30
0.0
 10
157.5278366477131
 20
106.8839996944659
 30
0.0
 10
157.4547613857489
 20
107.0892863044215
 30
0.0
 10
157.3588492318659
 20
107.5135832058559
 30
0.0
 10
157.3365889156037
 20
107.7276952386109
 30
0.0
 10
157.3434538348126
 20
108.1598495441648
 30
0.0
 10
157.373614065702
 20
108.3786445243478
 30
0.0
 10
157.4824044700831
 20
108.7963233235915
 30
0.0
 10
157.5619702236823
 20
109.0003811305527
 30
0.0
 10
157.7635858740046
 20
109.3846862329776
 30
0.0
 10
157.884184772221
 20
109.5634844477646
 30
0.0
 10
158.1620334208428
 20
109.8964692132704
 30
0.0
 10
158.3191227193201
 20
110.049725786784
 30
0.0
 10
158.6577794238846
 20
110.3222217720034
 30
0.0
  0
SPLINE
  5
BB
330
1F
100
AcDbEntity
  8
0
  6
Continuous
 62
     7
370
    15
100
AcDbSpline
210
0.0
220
0.0
230
1.0
 70
     8
 71
     3
 72
    37
 73
    33
 74
     0
 42
0.00000001
 43
0.00000001
 40
0.0
 40
0.0
 40
0.0
 40
0.0
 40
0.0253261741981313
 40
0.0489570215777729
 40
0.0704550886072588
 40
0.1141316802208917
 40
0.1363445073937924
 40
0.1589123374054026
 40
0.204687123771341
 40
0.2279203268405055
 40
0.2530328202229032
 40
0.3039583666132478
 40
0.3298030053225426
 40
0.3578513267111437
 40
0.414780347049549
 40
0.4437088703578031
 40
0.4738681563404755
 40
0.5351642136129396
 40
0.5663699470167692
 40
0.5972052724205451
 40
0.6282601115384712
 40
0.6600249449185059
 40
0.6920442472314686
 40
0.7219902279867494
 40
0.7830733108366402
 40
0.8143385949535691
 40
0.8414935015496176
 40
0.8969886549704753
 40
0.9254612725503506
 40
0.9490310386877261
 40
0.9971218824265106
 40
1.0
 40
1.0
 40
1.0
 40
1.0
 10
157.3502411869482
 20
87.40225624263982
 30
0.0
 10
157.3482027891197
 20
87.4019890565064
 30
0.0
 10
157.3442624432271
 20
87.40147256960248
 30
0.0
 10
157.3833871857328
 20
87.4066046328761
 30
0.0
 10
157.4513760795466
 20
87.41540705760146
 30
0.0
 10
157.555781244803
 20
87.42864861991598
 30
0.0
 10
157.6933881026746
 20
87.44534198196806
 30
0.0
 10
157.8556466839549
 20
87.46437327186435
 30
0.0
 10
158.050523227672
 20
87.48593068491579
 30
0.0
 10
158.2770935608568
 20
87.50892085859233
 30
0.0
 10
158.5338499242291
 20
87.53327056829721
 30
0.0
 10
158.823425899617
 20
87.55753726325798
 30
0.0
 10
159.1413413431399
 20
87.57996228852666
 30
0.0
 10
159.4905036956358
 20
87.6012853529466
 30
0.0
 10
159.8674750892908
 20
87.61845941850923
 30
0.0
 10
160.2613896447868
 20
87.62967761843561
 30
0.0
 10
160.6751164661111
 20
87.6365962045016
 30
0.0
 10
161.1011447952985
 20
87.6358122214743
 30
0.0
 10
161.5236834806211
 20
87.6271324385152
 30
0.0
 10
161.8379525920475
 20
87.61681101797852
 30
0.0
 10
162.1470237497081
 20
87.60294367137892
 30
0.0
 10
162.4503607980163
 20
87.58575447879296
 30
0.0
 10
162.7379799989025
 20
87.56615628816847
 30
0.0
 10
163.096426301614
 20
87.53797313957209
 30
0.0
 10
163.4210042399959
 20
87.50756757362159
 30
0.0
 10
163.6944967431187
 20
87.47871239675115
 30
0.0
 10
163.9258921306527
 20
87.45272596387669
 30
0.0
 10
164.1069282940942
 20
87.43073636742537
 30
0.0
 10
164.2300803571999
 20
87.41512917564526
 30
0.0
 10
164.3103991838022
 20
87.40474455488584
 30
0.0
 10
164.3457827986142
 20
87.40006338058443
 30
0.0
 10
164.33883021889
 20
87.40097865768236
 30
0.0
 10
164.338437620309
 20
87.40103034159021
 30
0.0
  0
SPLINE
  5
BC
330
1F
100
AcDbEntity
  8
0
  6
Continuous
 62
     7
370
    15
100
AcDbSpline
210
0.0
220
0.0
230
1.0
 70
     8
 71
     3
 72
     9
 73
     5
 74
     0
 42
0.00000001
 43
0.00000001
 40
0.0
 40
0.0
 40
0.0
 40
0.0
 40
0.3691086322290128
 40
1.0
 40
1.0
 40
1.0
 40
1.0
 10
158.7978809801182
 20
87.55412981445602
 30
0.0
 10
158.7576803611766
 20
87.55116721122003
 30
0.0
 10
158.6487676578926
 20
87.54314083909726
 30
0.0
 10
158.5504676790201
 20
87.53423949593635
 30
0.0
 10
158.4884510708973
 20
87.52862371537456
 30
0.0
  0
CIRCLE
  5
BD
330
1F
100
AcDbEntity
  8
0
  6
Continuous
 62
     7
370
    15
100
AcDbCircle
 10
160.8396806055
 20
107.9008667389
 30
0.0
 40
2.5
  0
LINE
  5
BE
330
1F
100
AcDbEntity
  8
0
  6
Continuous
 62
     7
370
    15
100
AcDbLine
 10
70.6396806055
 20
75.6508667389
 30
0.0
 11
70.6396806055
 21
75.6525815371
 31
0.0
  0
LINE
  5
BF
330
1F
100
AcDbEntity
  8
0
  6
Continuous
 62
     7
370
    15
100
AcDbLine
 10
218.8896806055
 20
93.2496477222
 30
0.0
 11
218.8896806055
 21
122.5520856718
 31
0.0
  0
LINE
  5
C0
330
1F
100
AcDbEntity
  8
0
  6
Continuous
 62
     7
370
    15
100
AcDbLine
 10
70.6396806055
 20
140.1508667389
 30
0.0
 11
70.6396806055
 21
140.1491519407
 31
0.0
  0
LINE
  5
C1
330
1F
100
AcDbEntity
  8
0
  6
Continuous
 62
     7
370
    15
100
AcDbLine
 10
218.9191254673
 20
95.4020236307
 30
0.0
 11
218.9670028127
 21
94.183463821
 31
0.0
  0
LINE
  5
C2
330
1F
100
AcDbEntity
  8
0
  6
Continuous
 62
     7
370
    15
100
AcDbLine
 10
218.8896806055
 20
96.1514454078
 30
0.0
 11
218.9191254673
 21
95.4020236307
 31
0.0
  0
LINE
  5
C3
330
1F
100
AcDbEntity
  8
0
  6
Continuous
 62
     7
370
    15
100
AcDbLine
 10
218.908113089
 20
121.6205834404
 30
0.0
 11
218.8896806055
 21
121.1514454078
 31
0.0
  0
SPLINE
  5
C4
330
1F
100
AcDbEntity
  8
0
  6
HIDDEN
 62
     7
370
     0
100
AcDbSpline
210
0.0
220
0.0
230
1.0
 70
     8
 71
     3
 72
    80
 73
    76
 74
     0
 42
0.00000001
 43
0.00000001
 40
-0.0312500000000003
 40
-0.0312500000000003
 40
0.0
 40
0.0
 40
0.0312499999999996
 40
0.0312499999999996
 40
0.0468749999999993
 40
0.0468749999999993
 40
0.062499999999999
 40
0.062499999999999
 40
0.0937499999999985
 40
0.0937499999999985
 40
0.124999999999998
 40
0.124999999999998
 40
0.1562499999999975
 40
0.1562499999999975
 40
0.187499999999997
 40
0.187499999999997
 40
0.2187499999999965
 40
0.2187499999999965
 40
0.2499999999999959
 40
0.2499999999999959
 40
0.2812499999999956
 40
0.2812499999999956
 40
0.3124999999999952
 40
0.3124999999999952
 40
0.3281249999999952
 40
0.3281249999999952
 40
0.3437499999999952
 40
0.3437499999999952
 40
0.3749999999999951
 40
0.3749999999999951
 40
0.406249999999995
 40
0.406249999999995
 40
0.4218749999999951
 40
0.4218749999999951
 40
0.4374999999999953
 40
0.4374999999999953
 40
0.4687499999999954
 40
0.4687499999999954
 40
0.4999999999999957
 40
0.4999999999999957
 40
0.5312499999999959
 40
0.5312499999999959
 40
0.5624999999999962
 40
0.5624999999999962
 40
0.5937499999999964
 40
0.5937499999999964
 40
0.6249999999999967
 40
0.6249999999999967
 40
0.656249999999997
 40
0.656249999999997
 40
0.6874999999999972
 40
0.6874999999999972
 40
0.7031249999999974
 40
0.7031249999999974
 40
0.7187499999999977
 40
0.7187499999999977
 40
0.749999999999998
 40
0.749999999999998
 40
0.7812499999999983
 40
0.7812499999999983
 40
0.7968749999999983
 40
0.7968749999999983
 40
0.8124999999999983
 40
0.8124999999999983
 40
0.8437499999999986
 40
0.8437499999999986
 40
0.8749999999999989
 40
0.8749999999999989
 40
0.9062499999999991
 40
0.9062499999999991
 40
0.9374999999999993
 40
0.9374999999999993
 40
0.9687499999999997
 40
0.9687499999999997
 40
1.0
 40
1.0
 40
1.03125
 40
1.03125
 10
127.5591352927486
 20
156.7604159953729
 30
0.0
 10
128.2202259183012
 20
156.7604159953729
 30
0.0
 10
128.5452060475528
 20
156.7535178495461
 30
0.0
 10
129.0246794587992
 20
156.7329914215656
 30
0.0
 10
129.18316127664
 20
156.7244351944781
 30
0.0
 10
129.4973808091443
 20
156.7037088192604
 30
0.0
 10
129.6535010928247
 20
156.691481519054
 30
0.0
 10
130.1075551217813
 20
156.6499122252248
 30
0.0
 10
130.3946585047211
 20
156.615567940127
 30
0.0
 10
130.9380130607481
 20
156.5322438158047
 30
0.0
 10
131.1951166719537
 20
156.4828055930302
 30
0.0
 10
131.6560229268925
 20
156.3714258632704
 30
0.0
 10
131.8629206361075
 20
156.3091313497582
 30
0.0
 10
132.2284459500997
 20
156.1692017068872
 30
0.0
 10
132.3836514722256
 20
156.0925858091382
 30
0.0
 10
132.6330818588254
 20
155.9286271892824
 30
0.0
 10
132.7291718146105
 20
155.8400703351867
 30
0.0
 10
132.8576906638041
 20
155.6525896530809
 30
0.0
 10
132.8895015339819
 20
155.5553531916265
 30
0.0
 10
132.8898581837551
 20
155.3537205522994
 30
0.0
 10
132.857360931558
 20
155.2481717604612
 30
0.0
 10
132.7297354578436
 20
155.0380569777728
 30
0.0
 10
132.6353070567917
 20
154.9329914698038
 30
0.0
 10
132.4474462368061
 20
154.7761137625527
 30
0.0
 10
132.3766182380029
 20
154.723680028847
 30
0.0
 10
132.2218963460377
 20
154.6212415832173
 30
0.0
 10
132.1379198758543
 20
154.5710938545654
 30
0.0
 10
131.8665962062099
 20
154.4240778981319
 30
0.0
 10
131.6600469876075
 20
154.3305900776975
 30
0.0
 10
131.1934368474185
 20
154.1548032200832
 30
0.0
 10
130.941071277793
 20
154.0754247449995
 30
0.0
 10
130.5351699361143
 20
153.9699423075054
 30
0.0
 10
130.3952693186368
 20
153.9370567426652
 30
0.0
 10
130.1060453833899
 20
153.8761412634366
 30
0.0
 10
129.9562059271006
 20
153.8480606917942
 30
0.0
 10
129.5020893574898
 20
153.7732586497513
 30
0.0
 10
129.190438138753
 20
153.7352205915053
 30
0.0
 10
128.5494416738406
 20
153.6836086649811
 30
0.0
 10
128.2179140458884
 20
153.6702947314596
 30
0.0
 10
127.565123000817
 20
153.6701976451316
 30
0.0
 10
127.2405867957851
 20
153.6829857302926
 30
0.0
 10
126.5953173463687
 20
153.7344759198886
 30
0.0
 10
126.279574340206
 20
153.7730004992086
 30
0.0
 10
125.6776850452223
 20
153.8719030620667
 30
0.0
 10
125.3869358144108
 20
153.9330071599917
 30
0.0
 10
124.8400240227263
 20
154.0748165931024
 30
0.0
 10
124.5882466588894
 20
154.1541510776815
 30
0.0
 10
124.1268586662683
 20
154.3275298223431
 30
0.0
 10
123.9155893866702
 20
154.422689767097
 30
0.0
 10
123.552285034294
 20
154.619262290473
 30
0.0
 10
123.3984783858512
 20
154.7210185188794
 30
0.0
 10
123.2098589162538
 20
154.8778044816649
 30
0.0
 10
123.1538284300447
 20
154.9310585154148
 30
0.0
 10
123.0582546683085
 20
155.0368630769676
 30
0.0
 10
123.0184917512835
 20
155.0895161413231
 30
0.0
 10
122.9227200009714
 20
155.2465898607823
 30
0.0
 10
122.8899971618453
 20
155.3501148961094
 30
0.0
 10
122.8893685755162
 20
155.5543296303366
 30
0.0
 10
122.921554720251
 20
155.6518334679213
 30
0.0
 10
123.0164654221066
 20
155.791160518273
 30
0.0
 10
123.0559322055055
 20
155.8364772497775
 30
0.0
 10
123.1508622042264
 20
155.9249170707662
 30
0.0
 10
123.2066190319898
 20
155.9681713212262
 30
0.0
 10
123.3945591499597
 20
156.0920627958162
 30
0.0
 10
123.5479206196759
 20
156.1677650865902
 30
0.0
 10
123.9101848545562
 20
156.3070194580484
 30
0.0
 10
124.1210333280221
 20
156.3707812995771
 30
0.0
 10
124.581703298341
 20
156.482278139045
 30
0.0
 10
124.8330776779249
 20
156.5308042113616
 30
0.0
 10
125.378985564823
 20
156.6148581947421
 30
0.0
 10
125.6698081394742
 20
156.6496567484088
 30
0.0
 10
126.2711347542542
 20
156.7048532131726
 30
0.0
 10
126.5856533388666
 20
156.7256710619265
 30
0.0
 10
127.2322347949866
 20
156.7535183948372
 30
0.0
 10
127.5591352927486
 20
156.7604159953729
 30
0.0
 10
128.2202259183012
 20
156.7604159953729
 30
0.0
  0
LINE
  5
C5
330
1F
100
AcDbEntity
  8
0
  6
HIDDEN
 62
     7
370
     0
100
AcDbLine
 10
135.6276515846
 20
146.8518294998
 30
0.0
 11
135.6276515846
 21
139.2508667389
 31
0.0
  0
LINE
  5
C6
330
1F
100
AcDbEntity
  8
0
  6
HIDDEN
 62
     7
370
     0
100
AcDbLine
 10
99.303105355
 20
71.1650603766
 30
0.0
 11
99.0331496541
 21
71.1411342773
 31
0.0
  0
SPLINE
  5
C7
330
1F
100
AcDbEntity
  8
0
  6
HIDDEN
 62
     7
370
     0
100
AcDbSpline
210
0.0
220
0.0
230
1.0
 70
     8
 71
     3
 72
    12
 73
     8
 74
     0
 42
0.00000001
 43
0.00000001
 40
0.0
 40
0.0
 40
0.0
 40
0.0
 40
0.1661348616724769
 40
0.3322013257382421
 40
0.5008932044680682
 40
0.7521370782676199
 40
1.0
 40
1.0
 40
1.0
 40
1.0
 10
97.40900227117397
 20
144.8321707619602
 30
0.0
 10
97.4193948952779
 20
144.8307926378988
 30
0.0
 10
97.44017586484959
 20
144.8280369571486
 30
0.0
 10
97.61347535429789
 20
144.8064335821865
 30
0.0
 10
97.93542694355389
 20
144.7685686302451
 30
0.0
 10
98.45659277947723
 20
144.708184863529
 30
0.0
 10
99.02215071931278
 20
144.6603917263793
 30
0.0
 10
99.30301414299585
 20
144.6366570332861
 30
0.0
  0
SPLINE
  5
C8
330
1F
100
AcDbEntity
  8
0
  6
HIDDEN
 62
     7
370
     0
100
AcDbSpline
210
0.0
220
0.0
230
1.0
 70
     8
 71
     3
 72
    13
 73
     9
 74
     0
 42
0.00000001
 43
0.00000001
 40
0.0
 40
0.0
 40
0.0
 40
0.0
 40
0.1623833202026853
 40
0.3259029972002818
 40
0.4929919471040327
 40
0.6613095779936428
 40
0.8237232906021229
 40
0.9999999999999999
 40
0.9999999999999999
 40
0.9999999999999999
 40
0.9999999999999999
 10
109.1428862607159
 20
139.267188959642
 30
0.0
 10
109.2184757710661
 20
139.27956473208
 30
0.0
 10
109.370183766378
 20
139.3044028824835
 30
0.0
 10
109.5530826449907
 20
139.3316612276466
 30
0.0
 10
109.7021449771397
 20
139.3527810860488
 30
0.0
 10
109.8060952086184
 20
139.3667674736117
 30
0.0
 10
109.8814252460833
 20
139.3765601990912
 30
0.0
 10
109.8731964734752
 20
139.3754889955563
 30
0.0
 10
109.868913680507
 20
139.3749314709795
 30
0.0
  0
SPLINE
  5
C9
330
1F
100
AcDbEntity
  8
0
  6
HIDDEN
 62
     7
370
     0
100
AcDbSpline
210
0.0
220
0.0
230
1.0
 70
     8
 71
     3
 72
    10
 73
     6
 74
     0
 42
0.00000001
 43
0.00000001
 40
0.0
 40
0.0
 40
0.0
 40
0.0
 40
0.3219892273907035
 40
0.6558979830411599
 40
1.0
 40
1.0
 40
1.0
 40
1.0
 10
109.886369212504
 20
76.42455821054466
 30
0.0
 10
109.8718287484082
 20
76.42645340559802
 30
0.0
 10
109.8422095553991
 20
76.4303139528065
 30
0.0
 10
109.59276994507
 20
76.4628279971798
 30
0.0
 10
109.2943430126156
 20
76.51040060784145
 30
0.0
 10
109.1428862607159
 20
76.5345445181479
 30
0.0
  0
SPLINE
  5
CA
330
1F
100
AcDbEntity
  8
0
  6
HIDDEN
 62
     7
370
     0
100
AcDbSpline
210
0.0
220
0.0
230
1.0
 70
     8
 71
     3
 72
    23
 73
    19
 74
     0
 42
0.00000001
 43
0.00000001
 40
0.0
 40
0.0
 40
0.0
 40
0.0
 40
0.0633571260677578
 40
0.1285545266630663
 40
0.1919098540958631
 40
0.2571115402721677
 40
0.320240314456847
 40
0.3852600750475546
 40
0.4473665375787843
 40
0.5112910021130345
 40
0.5731724132338447
 40
0.6367989951504448
 40
0.699585908362021
 40
0.7641543874110669
 40
0.8275801165506865
 40
0.8928778468939024
 40
0.9556888039615772
 40
1.0
 40
1.0
 40
1.0
 40
1.0
 10
109.1428862607159
 20
76.5345445181479
 30
0.0
 10
108.9674808511209
 20
76.5632301855734
 30
0.0
 10
108.6115751968695
 20
76.6214347258797
 30
0.0
 10
107.9068949564717
 20
76.72074774331212
 30
0.0
 10
107.0911281657981
 20
76.81623562693066
 30
0.0
 10
106.1887629586327
 20
76.89699440568172
 30
0.0
 10
105.2122621413423
 20
76.95462482986129
 30
0.0
 10
104.21198283727
 20
76.98141698570812
 30
0.0
 10
103.1988371503039
 20
76.97522135914363
 30
0.0
 10
102.2215796643929
 20
76.93757463434537
 30
0.0
 10
101.2844199788019
 20
76.87233818656465
 30
0.0
 10
100.4250981156905
 20
76.78764860165784
 30
0.0
 10
99.65082250076573
 20
76.69110027856091
 30
0.0
 10
98.99609453135528
 20
76.59457822478055
 30
0.0
 10
98.47011019036705
 20
76.50725966558477
 30
0.0
 10
98.10893280356078
 20
76.44230717012279
 30
0.0
 10
97.91007138360115
 20
76.40476677756055
 30
0.0
 10
97.90902893138039
 20
76.40455050139853
 30
0.0
 10
97.90859771987672
 20
76.40446103852707
 30
0.0
  0
SPLINE
  5
CB
330
1F
100
AcDbEntity
  8
0
  6
HIDDEN
 62
     7
370
     0
100
AcDbSpline
210
0.0
220
0.0
230
1.0
 70
     8
 71
     3
 72
    32
 73
    28
 74
     0
 42
0.00000001
 43
0.00000001
 40
0.0
 40
0.0
 40
0.0
 40
0.0
 40
0.0203568221721046
 40
0.0512207857583789
 40
0.1139954454389428
 40
0.1459779869097669
 40
0.1769364677636722
 40
0.2398766914470387
 40
0.2719275468465718
 40
0.3033698011481655
 40
0.3673099924152952
 40
0.3998847012176186
 40
0.4314690120325904
 40
0.4957360700021208
 40
0.5285028301030419
 40
0.559643448830003
 40
0.6230067766607699
 40
0.6553079823205554
 40
0.686113287261937
 40
0.7487562626891768
 40
0.7806634244345372
 40
0.8117607067089883
 40
0.8749825776111491
 40
0.9071778073885582
 40
0.9301738434827029
 40
0.9765719131095679
 40
1.0
 40
1.0
 40
1.0
 40
1.0
 10
97.8948509794702
 20
139.3998824271554
 30
0.0
 10
97.89449392756396
 20
139.3999499060823
 30
0.0
 10
97.89359553197747
 20
139.4001196930769
 30
0.0
 10
97.95618927853009
 20
139.3882254518896
 30
0.0
 10
98.0980004599936
 20
139.3615785749699
 30
0.0
 10
98.32204505186911
 20
139.3211965035573
 30
0.0
 10
98.59658716770333
 20
139.2733272618069
 30
0.0
 10
98.94527845671088
 20
139.2158573765271
 30
0.0
 10
99.36155441908829
 20
139.1533628294725
 30
0.0
 10
99.82314846595106
 20
139.0888371478333
 30
0.0
 10
100.3466864150462
 20
139.0242567708501
 30
0.0
 10
100.918883889501
 20
138.9655014059652
 30
0.0
 10
101.521090259953
 20
138.912128549583
 30
0.0
 10
102.1623167667344
 20
138.8692659877508
 30
0.0
 10
102.8234020847306
 20
138.8412019417297
 30
0.0
 10
103.4901130391772
 20
138.82361328419
 30
0.0
 10
104.1640022597841
 20
138.8221666359493
 30
0.0
 10
104.8283517437319
 20
138.8370921750871
 30
0.0
 10
105.4798860178915
 20
138.8620989003108
 30
0.0
 10
106.1105452305475
 20
138.9012029429927
 30
0.0
 10
106.70808420637
 20
138.9513041007764
 30
0.0
 10
107.2820821743248
 20
139.0074752672595
 30
0.0
 10
107.813031887718
 20
139.0703892959483
 30
0.0
 10
108.2564127689822
 20
139.1304927980019
 30
0.0
 10
108.6079334165558
 20
139.1813825149871
 30
0.0
 10
108.8976009265326
 20
139.226504991525
 30
0.0
 10
109.0812636909303
 20
139.2569680034125
 30
0.0
 10
109.1428862607159
 20
139.267188959642
 30
0.0
  0
LINE
  5
CC
330
1F
100
AcDbEntity
  8
0
  6
HIDDEN
 62
     7
370
     0
100
AcDbLine
 10
88.8863049326
 20
81.4008667389
 30
0.0
 11
88.8863049326
 21
134.4008667389
 31
0.0
  0
LINE
  5
CD
330
1F
100
AcDbEntity
  8
0
  6
HIDDEN
 62
     7
370
     0
100
AcDbLine
 10
128.1737582239
 20
81.4008667389
 30
0.0
 11
128.1737582239
 21
134.4008667389
 31
0.0
  0
LINE
  5
CE
330
1F
100
AcDbEntity
  8
0
  6
HIDDEN
 62
     7
370
     0
100
AcDbLine
 10
131.3396806055
 20
83.0258667389
 30
0.0
 11
131.3396806055
 21
132.7758667105
 31
0.0
  0
SPLINE
  5
CF
330
1F
100
AcDbEntity
  8
0
  6
HIDDEN
 62
     7
370
     0
100
AcDbSpline
210
0.0
220
0.0
230
1.0
 70
     8
 71
     3
 72
    20
 73
    16
 74
     0
 42
0.00000001
 43
0.00000001
 40
0.0
 40
0.0
 40
0.0
 40
0.0
 40
0.2499999999999978
 40
0.2499999999999978
 40
0.3749999999999982
 40
0.3749999999999982
 40
0.4999999999999986
 40
0.4999999999999986
 40
0.6249999999999989
 40
0.6249999999999989
 40
0.7499999999999992
 40
0.7499999999999992
 40
0.8749999999999997
 40
0.8749999999999997
 40
1.0
 40
1.0
 40
1.0
 40
1.0
 10
79.08968060552488
 20
133.1293803693093
 30
0.0
 10
79.08968060552488
 20
133.050177382777
 30
0.0
 10
79.04269811031214
 20
132.969081164374
 30
0.0
 10
78.90487651953457
 20
132.8488844726231
 30
0.0
 10
78.84859423562459
 20
132.809957768621
 30
0.0
 10
78.71550938415736
 20
132.7347690361967
 30
0.0
 10
78.6376694419243
 20
132.6981268308547
 30
0.0
 10
78.46503708580995
 20
132.6305362980229
 30
0.0
 10
78.37064408871888
 20
132.5995781162472
 30
0.0
 10
78.16520678240374
 20
132.5440536948775
 30
0.0
 10
78.05286054241655
 20
132.5193451810443
 30
0.0
 10
77.82061967851692
 20
132.4795489539361
 30
0.0
 10
77.6999090360942
 20
132.4641291165391
 30
0.0
 10
77.44883817682518
 20
132.4430491416994
 30
0.0
 10
77.31931618040939
 20
132.4375718966785
 30
0.0
 10
77.18968060552488
 20
132.4375718966785
 30
0.0
  0
LINE
  5
D0
330
1F
100
AcDbEntity
  8
0
  6
HIDDEN
 62
     7
370
     0
100
AcDbLine
 10
77.1896806055
 20
132.4375718967
 30
0.0
 11
70.6396806055
 21
132.4375718967
 31
0.0
  0
LINE
  5
D1
330
1F
100
AcDbEntity
  8
0
  6
HIDDEN
 62
     7
370
     0
100
AcDbLine
 10
70.6396806055
 20
83.3641615811
 30
0.0
 11
82.1896806055
 21
83.3641615811
 31
0.0
  0
SPLINE
  5
D2
330
1F
100
AcDbEntity
  8
0
  6
HIDDEN
 62
     7
370
     0
100
AcDbSpline
210
0.0
220
0.0
230
1.0
 70
     8
 71
     3
 72
    18
 73
    14
 74
     0
 42
0.00000001
 43
0.00000001
 40
0.0
 40
0.0
 40
0.0
 40
0.0
 40
0.1249999999999982
 40
0.1249999999999982
 40
0.2499999999999964
 40
0.2499999999999964
 40
0.4999999999999988
 40
0.4999999999999988
 40
0.7500000000000011
 40
0.7500000000000011
 40
0.8750000000000006
 40
0.8750000000000006
 40
1.0
 40
1.0
 40
1.0
 40
1.0
 10
82.18968060552487
 20
83.36416158111146
 30
0.0
 10
82.3191479184821
 20
83.36416158111145
 30
0.0
 10
82.44615866737873
 20
83.3588085825188
 30
0.0
 10
82.69552198857598
 20
83.33807060983003
 30
0.0
 10
82.81914564320442
 20
83.32239870557572
 30
0.0
 10
83.16817798013845
 20
83.26270397717364
 30
0.0
 10
83.37868974494525
 20
83.20493879749266
 30
0.0
 10
83.72260642264476
 20
83.07041695621515
 30
0.0
 10
83.85895682416259
 20
82.99274784270976
 30
0.0
 10
83.9959948807251
 20
82.87345670862243
 30
0.0
 10
84.03121389943801
 20
82.83253769948737
 30
0.0
 10
84.07783747637657
 20
82.75188170619734
 30
0.0
 10
84.08968060552489
 20
82.7119131860045
 30
0.0
 10
84.08968060552488
 20
82.67235310848066
 30
0.0
  0
LINE
  5
D3
330
1F
100
AcDbEntity
  8
0
  6
HIDDEN
 62
     7
370
     0
100
AcDbLine
 10
70.6396806055
 20
83.3641615811
 30
0.0
 11
70.6396806055
 21
132.4375718967
 31
0.0
  0
LWPOLYLINE
  5
D4
330
1F
100
AcDbEntity
  8
0
  6
HIDDEN
 62
     7
370
     0
100
AcDbPolyline
 90
       14
 70
   128
 43
0.0
 10
127.8896806055
 20
147.8445973022
 10
128.9292390596
 20
147.8890381598
 10
129.9233638209
 20
148.0204184539
 10
130.828606867
 20
148.2329962352
 10
131.6054047329
 20
148.5174808345
 10
132.2198076244
 20
148.8614389099
 10
132.644963187
 20
149.2498378428
 10
132.8622900824
 20
149.6657027363
 10
132.8622900824
 20
150.0908582988
 10
132.644963187
 20
150.5067231923
 10
132.2198076244
 20
150.8951221253
 10
131.6054047329
 20
151.2390802006
 10
130.828606867
 20
151.5235648
 10
130.3356990739
 20
151.6519971182
  0
LWPOLYLINE
  5
D5
330
1F
100
AcDbEntity
  8
0
  6
HIDDEN
 62
     7
370
     0
100
AcDbPolyline
 90
       14
 70
   128
 43
0.0
 10
125.4311690992
 20
151.6491373682
 10
124.9507543441
 20
151.5235648
 10
124.1739564781
 20
151.2390802006
 10
123.5595535866
 20
150.8951221253
 10
123.134398024
 20
150.5067231923
 10
122.9170711287
 20
150.0908582988
 10
122.9170711287
 20
149.6657027363
 10
123.134398024
 20
149.2498378428
 10
123.5595535866
 20
148.8614389099
 10
124.1739564781
 20
148.5174808345
 10
124.9507543441
 20
148.2329962352
 10
125.8559973901
 20
148.0204184539
 10
126.8501221514
 20
147.8890381598
 10
127.8896806055
 20
147.8445973022
  0
LINE
  5
D6
330
1F
100
AcDbEntity
  8
0
  6
HIDDEN
 62
     7
370
     0
100
AcDbLine
 10
70.6396806055
 20
80.5308667389
 30
0.0
 11
70.6396806055
 21
75.6525815371
 31
0.0
  0
LINE
  5
D7
330
1F
100
AcDbEntity
  8
0
  6
HIDDEN
 62
     7
370
     0
100
AcDbLine
 10
84.0896806055
 20
80.5308667389
 30
0.0
 11
84.0896806055
 21
74.0315334735
 31
0.0
  0
LINE
  5
D8
330
1F
100
AcDbEntity
  8
0
  6
HIDDEN
 62
     7
370
     0
100
AcDbLine
 10
79.0896806055
 20
135.2708667389
 30
0.0
 11
79.0896806055
 21
141.6454754759
 31
0.0
  0
LINE
  5
D9
330
1F
100
AcDbEntity
  8
0
  6
HIDDEN
 62
     7
370
     0
100
AcDbLine
 10
70.6396806055
 20
135.2708667389
 30
0.0
 11
70.6396806055
 21
140.1491519407
 31
0.0
  0
LINE
  5
DA
330
1F
100
AcDbEntity
  8
0
  6
HIDDEN
 62
     7
370
     0
100
AcDbLine
 10
143.1896806055
 20
94.9008667389
 30
0.0
 11
143.1896806055
 21
120.9008667389
 31
0.0
  0
LINE
  5
DB
330
1F
100
AcDbEntity
  8
0
  6
HIDDEN
 62
     7
370
     0
100
AcDbLine
 10
147.1896806055
 20
94.9008667389
 30
0.0
 11
147.1896806055
 21
120.9008667389
 31
0.0
  0
LINE
  5
DC
330
1F
100
AcDbEntity
  8
0
  6
HIDDEN
 62
     7
370
     0
100
AcDbLine
 10
132.0896806055
 20
96.6508667389
 30
0.0
 11
132.0896806055
 21
119.1508667389
 31
0.0
  0
ELLIPSE
  5
DD
330
1F
100
AcDbEntity
  8
0
  6
HIDDEN
 62
     7
370
     0
100
AcDbEllipse
 10
62.7050074052
 20
107.9008667389
 30
0.0
 11
31.08108570811653
 21
-1.421085471520200E-14
 31
0.0
210
0.0
220
0.0
230
1.0
 40
0.8164965809
 41
4.915995335118099
 42
4.970536038964784
  0
ELLIPSE
  5
DE
330
1F
100
AcDbEntity
  8
0
  6
HIDDEN
 62
     7
370
     0
100
AcDbEllipse
 10
62.7050074052
 20
107.9008667389
 30
0.0
 11
31.08108570811653
 21
1.421085471520200E-14
 31
0.0
210
0.0
220
0.0
230
1.0
 40
0.8164965809
 41
1.312649268214814
 42
1.367189972061499
  0
LINE
  5
DF
330
1F
100
AcDbEntity
  8
0
  6
HIDDEN
 62
     7
370
     0
100
AcDbLine
 10
147.8396806055
 20
64.0008667389
 30
0.0
 11
133.8396806055
 21
64.0008667389
 31
0.0
  0
LINE
  5
E0
330
1F
100
AcDbEntity
  8
0
  6
HIDDEN
 62
     7
370
     0
100
AcDbLine
 10
123.8396806055
 20
57.9108677391
 30
0.0
 11
123.8396806055
 21
64.0008667389
 31
0.0
  0
LINE
  5
E1
330
1F
100
AcDbEntity
  8
0
  6
HIDDEN
 62
     7
370
     0
100
AcDbLine
 10
133.8396806055
 20
64.0008667389
 30
0.0
 11
123.8396806055
 21
64.0008667389
 31
0.0
  0
LINE
  5
E2
330
1F
100
AcDbEntity
  8
0
  6
HIDDEN
 62
     7
370
     0
100
AcDbLine
 10
84.0896806055
 20
80.5308667389
 30
0.0
 11
84.0896806055
 21
82.6723531085
 31
0.0
  0
LINE
  5
E3
330
1F
100
AcDbEntity
  8
0
  6
HIDDEN
 62
     7
370
     0
100
AcDbLine
 10
70.6396806055
 20
80.5308667389
 30
0.0
 11
70.6396806055
 21
83.3641615811
 31
0.0
  0
LINE
  5
E4
330
1F
100
AcDbEntity
  8
0
  6
HIDDEN
 62
     7
370
     0
100
AcDbLine
 10
70.6396806055
 20
135.2708667389
 30
0.0
 11
70.6396806055
 21
132.4375718967
 31
0.0
  0
LINE
  5
E5
330
1F
100
AcDbEntity
  8
0
  6
HIDDEN
 62
     7
370
     0
100
AcDbLine
 10
79.0896806055
 20
135.2708667389
 30
0.0
 11
79.0896806055
 21
133.1293803693
 31
0.0
  0
LINE
  5
E6
330
1F
100
AcDbEntity
  8
0
  6
HIDDEN
 62
     7
370
     0
100
AcDbLine
 10
133.8396806055
 20
151.8008667389
 30
0.0
 11
123.8396806055
 21
151.8008667389
 31
0.0
  0
LINE
  5
E7
330
1F
100
AcDbEntity
  8
0
  6
HIDDEN
 62
     7
370
     0
100
AcDbLine
 10
147.8396806055
 20
151.8008667389
 30
0.0
 11
133.8396806055
 21
151.8008667389
 31
0.0
  0
LINE
  5
E8
330
1F
100
AcDbEntity
  8
0
  6
HIDDEN
 62
     7
370
     0
100
AcDbLine
 10
215.3896806055
 20
98.9008667389
 30
0.0
 11
215.3896806055
 21
116.9008667389
 31
0.0
  0
LINE
  5
E9
330
1F
100
AcDbEntity
  8
0
  6
HIDDEN
 62
     7
370
     0
100
AcDbLine
 10
169.3896806055
 20
99.0008667389
 30
0.0
 11
169.3896806055
 21
116.8008665704
 31
0.0
  0
SPLINE
  5
EA
330
1F
100
AcDbEntity
  8
0
  6
HIDDEN
 62
     7
370
     0
100
AcDbSpline
210
0.0
220
0.0
230
1.0
 70
     8
 71
     3
 72
    17
 73
    13
 74
     0
 42
0.00000001
 43
0.00000001
 40
0.0
 40
0.0
 40
0.0
 40
0.0
 40
0.1048980631687647
 40
0.2128630302536777
 40
0.3177541043257665
 40
0.4256403684454153
 40
0.5313895178943878
 40
0.6401698560489034
 40
0.7464660154123012
 40
0.8558958654811143
 40
0.9612619597807165
 40
1.0
 40
1.0
 40
1.0
 40
1.0
 10
171.3896806055249
 20
117.079101863362
 30
0.0
 10
171.4722015896822
 20
117.0797516383557
 30
0.0
 10
171.6396562234153
 20
117.0810701858098
 30
0.0
 10
171.8825905259697
 20
117.0913860443065
 30
0.0
 10
172.1136158770197
 20
117.1067084941198
 30
0.0
 10
172.3227949502286
 20
117.1257194159477
 30
0.0
 10
172.5081275661953
 20
117.1464843814369
 30
0.0
 10
172.6609806019632
 20
117.1664030340112
 30
0.0
 10
172.7801109011946
 20
117.1836608164505
 30
0.0
 10
172.8557332901249
 20
117.1953949044333
 30
0.0
 10
172.8910305423043
 20
117.2010835538807
 30
0.0
 10
172.8860158975825
 20
117.2002768700999
 30
0.0
 10
172.8846678619445
 20
117.2000600175519
 30
0.0
  0
LINE
  5
EB
330
1F
100
AcDbEntity
  8
0
  6
HIDDEN
 62
     7
370
     0
100
AcDbLine
 10
171.4784234221
 20
117.0802929376
 30
0.0
 11
171.3458512116
 21
117.0795307838
 31
0.0
  0
SPLINE
  5
EC
330
1F
100
AcDbEntity
  8
0
  6
HIDDEN
 62
     7
370
     0
100
AcDbSpline
210
0.0
220
0.0
230
1.0
 70
     8
 71
     3
 72
    17
 73
    13
 74
     0
 42
0.00000001
 43
0.00000001
 40
0.0
 40
0.0
 40
0.0
 40
0.0
 40
0.0984767733509411
 40
0.2061505015868859
 40
0.310716388049269
 40
0.4182521410786739
 40
0.5239458749639899
 40
0.6326658018656561
 40
0.7389700466809669
 40
0.8484054862310311
 40
0.9236505014678176
 40
0.9999999999999999
 40
0.9999999999999999
 40
0.9999999999999999
 40
0.9999999999999999
 10
169.8908036023911
 20
117.2006866061158
 30
0.0
 10
169.8938297219869
 20
117.2001949678872
 30
0.0
 10
169.9001645769105
 20
117.1991657762923
 30
0.0
 10
169.96105991659
 20
117.1895083775628
 30
0.0
 10
170.0599617483274
 20
117.1746880475646
 30
0.0
 10
170.1958161750765
 20
117.1560047692282
 30
0.0
 10
170.3665832237651
 20
117.1353354828348
 30
0.0
 10
170.5656468008033
 20
117.1152111922829
 30
0.0
 10
170.7906268349304
 20
117.0976233864353
 30
0.0
 10
171.0082478749769
 20
117.0862573516251
 30
0.0
 10
171.2104420685432
 20
117.0801239447039
 30
0.0
 10
171.3296449315098
 20
117.0794442079453
 30
0.0
 10
171.3896806055249
 20
117.079101863362
 30
0.0
  0
SPLINE
  5
ED
330
1F
100
AcDbEntity
  8
0
  6
HIDDEN
 62
     7
370
     0
100
AcDbSpline
210
0.0
220
0.0
230
1.0
 70
     8
 71
     3
 72
    26
 73
    22
 74
     0
 42
0.00000001
 43
0.00000001
 40
0.0
 40
0.0
 40
0.0
 40
0.0
 40
0.0524570954627004
 40
0.1064474027299405
 40
0.1589011412007672
 40
0.2128533973697894
 40
0.2657246152652225
 40
0.3201108869408743
 40
0.3732641153094292
 40
0.4279842021114405
 40
0.4806728790408924
 40
0.5349194888436092
 40
0.5871203781963086
 40
0.6408229555924182
 40
0.6932731670089012
 40
0.7472102985268816
 40
0.8002553927445196
 40
0.8548352252683843
 40
0.9079001265484417
 40
0.9625372372977378
 40
1.0
 40
1.0
 40
1.0
 40
1.0
 10
172.8896806055249
 20
98.60086673889495
 30
0.0
 10
172.8857313262357
 20
98.60150788909078
 30
0.0
 10
172.877717338437
 20
98.60280892896924
 30
0.0
 10
172.8132884534304
 20
98.61300264386632
 30
0.0
 10
172.7114926050219
 20
98.62818780548108
 30
0.0
 10
172.572977577052
 20
98.64710071640303
 30
0.0
 10
172.3998046795384
 20
98.66783898774294
 30
0.0
 10
172.1988892435342
 20
98.68785472113292
 30
0.0
 10
171.9724477312531
 20
98.70514734326827
 30
0.0
 10
171.7314198516012
 20
98.71738713186879
 30
0.0
 10
171.4789078311196
 20
98.7233613311293
 30
0.0
 10
171.2276350259198
 20
98.72234353172698
 30
0.0
 10
170.9795855824887
 20
98.71453052361274
 30
0.0
 10
170.7457605367049
 20
98.70099837084716
 30
0.0
 10
170.527671202624
 20
98.6830043857409
 30
0.0
 10
170.3344412336864
 20
98.66274427805858
 30
0.0
 10
170.168620052367
 20
98.64215780149901
 30
0.0
 10
170.0376745183154
 20
98.62379987486563
 30
0.0
 10
169.945582639043
 20
98.60981289826427
 30
0.0
 10
169.8951197729517
 20
98.60174732064839
 30
0.0
 10
169.8942211332364
 20
98.60159880411557
 30
0.0
 10
169.8938556004169
 20
98.60153839317887
 30
0.0
  0
LINE
  5
EE
330
1F
100
AcDbEntity
  8
0
  6
HIDDEN
 62
     7
370
     0
100
AcDbLine
 10
179.8896806055
 20
98.9008667389
 30
0.0
 11
179.8896806055
 21
116.9008667389
 31
0.0
  0
SPLINE
  5
EF
330
1F
100
AcDbEntity
  8
0
  6
HIDDEN
 62
     7
370
     0
100
AcDbSpline
210
0.0
220
0.0
230
1.0
 70
     8
 71
     3
 72
    30
 73
    26
 74
     0
 42
0.00000001
 43
0.00000001
 40
0.0
 40
0.0
 40
0.0
 40
0.0
 40
0.0531240660988209
 40
0.1125059854976442
 40
0.1779044746371588
 40
0.2129291970106089
 40
0.2494829905733737
 40
0.2912495985096938
 40
0.3260925829554041
 40
0.3540082314623392
 40
0.374993896742938
 40
0.4414527730305791
 40
0.5001714431667438
 40
0.5546871400606951
 40
0.6144324316410598
 40
0.6794589548203217
 40
0.7140165850782988
 40
0.7499142142010683
 40
0.7913794767425236
 40
0.8260470470018692
 40
0.853913141096474
 40
0.8749749068736118
 40
0.9411625805402688
 40
0.9999141552911168
 40
1.0
 40
1.0
 40
1.0
 40
1.0
 10
109.8891865813265
 20
70.8009493355739
 30
0.0
 10
109.8729939438382
 20
70.80584849180104
 30
0.0
 10
109.8387012254489
 20
70.81622390994805
 30
0.0
 10
109.537407435338
 20
70.89187164766786
 30
0.0
 10
109.0952416583413
 20
70.98815722441404
 30
0.0
 10
108.6004085311337
 20
71.08782216339799
 30
0.0
 10
108.1299329453539
 20
71.18010028482718
 30
0.0
 10
107.5990114957311
 20
71.27573232501405
 30
0.0
 10
107.0608609990988
 20
71.3613825664307
 30
0.0
 10
106.6028136638305
 20
71.42867435974925
 30
0.0
 10
105.947249342993
 20
71.51702252863443
 30
0.0
 10
105.0639429049132
 20
71.61368061291196
 30
0.0
 10
103.9352811721542
 20
71.7004557896733
 30
0.0
 10
102.8455194223319
 20
71.73853448739509
 30
0.0
 10
101.7494911438317
 20
71.74038492216681
 30
0.0
 10
100.8440998969453
 20
71.71422346657761
 30
0.0
 10
100.1477971866463
 20
71.67761624143992
 30
0.0
 10
99.6211174588093
 20
71.63859936597594
 30
0.0
 10
99.15447134418278
 20
71.59639023852893
 30
0.0
 10
98.7832560685826
 20
71.55938614898164
 30
0.0
 10
98.52920959097368
 20
71.53068538851647
 30
0.0
 10
98.22815443790928
 20
71.49430543790328
 30
0.0
 10
97.97267064296692
 20
71.46152527088478
 30
0.0
 10
97.87344991802398
 20
71.4451873861875
 30
0.0
 10
97.88973047530548
 20
71.4477809723551
 30
0.0
 10
97.88975422889145
 20
71.44778475643761
 30
0.0
  0
SPLINE
  5
F0
330
1F
100
AcDbEntity
  8
0
  6
HIDDEN
 62
     7
370
     0
100
AcDbSpline
210
0.0
220
0.0
230
1.0
 70
     8
 71
     3
 72
    30
 73
    26
 74
     0
 42
0.00000001
 43
0.00000001
 40
0.0
 40
0.0
 40
0.0
 40
0.0
 40
0.0001200787205897
 40
0.0285506448244837
 40
0.0588539742894907
 40
0.0910342417079438
 40
0.1250948722596745
 40
0.1546831661022121
 40
0.196361684957244
 40
0.2501159618646457
 40
0.3205306536942937
 40
0.3856151920183239
 40
0.445408159438866
 40
0.4999610449564711
 40
0.5283530945106498
 40
0.5586374479582159
 40
0.5908217679742399
 40
0.6249123787045099
 40
0.6541871378731146
 40
0.6958653651099032
 40
0.7499326674513194
 40
0.8215919113988389
 40
0.88714316572863
 40
0.9466382885009902
 40
1.0
 40
1.0
 40
1.0
 40
1.0
 10
97.88978250922109
 20
144.3538770145529
 30
0.0
 10
97.88974844275864
 20
144.3538844427122
 30
0.0
 10
97.88164859405308
 20
144.355650606926
 30
0.0
 10
97.91030793401434
 20
144.3501961553993
 30
0.0
 10
97.9836973070379
 20
144.339652801348
 30
0.0
 10
98.12735310853002
 20
144.3199677424997
 30
0.0
 10
98.32838901600923
 20
144.2951284370294
 30
0.0
 10
98.61101951207661
 20
144.2609199825726
 30
0.0
 10
99.02442865775926
 20
144.2172400817954
 30
0.0
 10
99.70071615079628
 20
144.1541970158799
 30
0.0
 10
100.6391470544223
 20
144.0928998448689
 30
0.0
 10
101.7486402670942
 20
144.0616114015246
 30
0.0
 10
102.8461209979983
 20
144.0632665690865
 30
0.0
 10
103.7461522364512
 20
144.0945727711894
 30
0.0
 10
104.4574931623238
 20
144.1414059199874
 30
0.0
 10
105.0229100632974
 20
144.1885727818821
 30
0.0
 10
105.6118334861438
 20
144.2480117884353
 30
0.0
 10
106.1762431383224
 20
144.3143689950035
 30
0.0
 10
106.7704393319851
 20
144.3962884014039
 30
0.0
 10
107.4370474930248
 20
144.4979363841556
 30
0.0
 10
108.2383802391295
 20
144.6400752947962
 30
0.0
 10
108.9908902239138
 20
144.7913198656027
 30
0.0
 10
109.5361767188595
 20
144.9091707388694
 30
0.0
 10
109.8388982502648
 20
144.9853999706192
 30
0.0
 10
109.8731887008614
 20
144.9958522801039
 30
0.0
 10
109.8894021375019
 20
145.0007944098988
 30
0.0
  0
LINE
  5
F1
330
1F
100
AcDbEntity
  8
0
  6
HIDDEN
 62
     7
370
     0
100
AcDbLine
 10
169.089250296
 20
102.4008667389
 30
0.0
 11
169.089250296
 21
113.4008667389
 31
0.0
  0
LINE
  5
F2
330
1F
100
AcDbEntity
  8
0
  6
HIDDEN
 62
     7
370
     0
100
AcDbLine
 10
160.8396806055
 20
127.8235164697
 30
0.0
 11
163.3396806055
 21
127.8235164697
 31
0.0
  0
LINE
  5
F3
330
1F
100
AcDbEntity
  8
0
  6
HIDDEN
 62
     7
370
     0
100
AcDbLine
 10
158.3396806055
 20
127.8235164697
 30
0.0
 11
160.8396806055
 21
127.8235164697
 31
0.0
  0
LINE
  5
F4
330
1F
100
AcDbEntity
  8
0
  6
HIDDEN
 62
     7
370
     0
100
AcDbLine
 10
163.3396806055
 20
87.9782170081
 30
0.0
 11
158.3396806055
 21
87.9782170081
 31
0.0
  0
LINE
  5
F5
330
1F
100
AcDbEntity
  8
0
  6
HIDDEN
 62
     7
370
     0
100
AcDbLine
 10
160.8396806055
 20
116.4008667389
 30
0.0
 11
163.3396806055
 21
116.4008667389
 31
0.0
  0
LINE
  5
F6
330
1F
100
AcDbEntity
  8
0
  6
HIDDEN
 62
     7
370
     0
100
AcDbLine
 10
158.3396806055
 20
116.4008667389
 30
0.0
 11
160.8396806055
 21
116.4008667389
 31
0.0
  0
LINE
  5
F7
330
1F
100
AcDbEntity
  8
0
  6
HIDDEN
 62
     7
370
     0
100
AcDbLine
 10
163.3396806055
 20
99.4008667389
 30
0.0
 11
158.3396806055
 21
99.4008667389
 31
0.0
  0
SPLINE
  5
F8
330
1F
100
AcDbEntity
  8
0
  6
HIDDEN
 62
     7
370
     0
100
AcDbSpline
210
0.0
220
0.0
230
1.0
 70
     8
 71
     3
 72
    30
 73
    26
 74
     0
 42
0.00000001
 43
0.00000001
 40
0.0
 40
0.0
 40
0.0
 40
0.0
 40
0.0412274297564297
 40
0.083862732495038
 40
0.1250516510534616
 40
0.1672473279861985
 40
0.2244849111414922
 40
0.2833611997047495
 40
0.3419130967478441
 40
0.4019328869320882
 40
0.4346453182317893
 40
0.4680030772970334
 40
0.50079637692662
 40
0.5349012334331569
 40
0.5631174209943239
 40
0.5919349488450896
 40
0.6414698556812103
 40
0.6923287517706378
 40
0.745026012613932
 40
0.7988519530009844
 40
0.8464596455547772
 40
0.8953104661842514
 40
0.942992551406317
 40
0.9925828888811865
 40
1.0
 40
1.0
 40
1.0
 40
1.0
 10
172.8896806055249
 20
120.957247212994
 30
0.0
 10
172.8877389346848
 20
120.9596519495045
 30
0.0
 10
172.8837892870057
 20
120.9645435417257
 30
0.0
 10
172.8526967828366
 20
121.0032646315421
 30
0.0
 10
172.805677995042
 20
121.0625665513683
 30
0.0
 10
172.7374532834341
 20
121.150270238716
 30
0.0
 10
172.6454067739191
 20
121.2725066102739
 30
0.0
 10
172.5327777179048
 20
121.4317294798802
 30
0.0
 10
172.416065134777
 20
121.6151839936294
 30
0.0
 10
172.3238869172692
 20
121.7906105632415
 30
0.0
 10
172.2628710340055
 20
121.9501182319346
 30
0.0
 10
172.2290202584599
 20
122.0826979163017
 30
0.0
 10
172.2148854455598
 20
122.2226684662562
 30
0.0
 10
172.2244215158325
 20
122.3561136139502
 30
0.0
 10
172.2522437293682
 20
122.4794540642151
 30
0.0
 10
172.30025673504
 20
122.6165635378092
 30
0.0
 10
172.3763031384678
 20
122.7699300964971
 30
0.0
 10
172.4777261480558
 20
122.9329188428773
 30
0.0
 10
172.5838501590971
 20
123.0822314554857
 30
0.0
 10
172.6821055081197
 20
123.2094616588748
 30
0.0
 10
172.7660729252699
 20
123.3129970121289
 30
0.0
 10
172.831431926479
 20
123.3910743718881
 30
0.0
 10
172.874241204802
 20
123.4412602288153
 30
0.0
 10
172.892126361308
 20
123.4620194260159
 30
0.0
 10
172.8886859528582
 20
123.4580197361406
 30
0.0
 10
172.8882383290407
 20
123.4574993454728
 30
0.0
  0
SPLINE
  5
F9
330
1F
100
AcDbEntity
  8
0
  6
HIDDEN
 62
     7
370
     0
100
AcDbSpline
210
0.0
220
0.0
230
1.0
 70
     8
 71
     3
 72
    10
 73
     6
 74
     0
 42
0.00000001
 43
0.00000001
 40
0.0
 40
0.0
 40
0.0
 40
0.0
 40
0.2798632951970115
 40
0.7282323680017967
 40
1.0
 40
1.0
 40
1.0
 40
1.0
 10
169.8933940987736
 20
123.4421587867257
 30
0.0
 10
169.8932422984855
 20
123.4421308718765
 30
0.0
 10
169.8928472989083
 20
123.4420582346387
 30
0.0
 10
169.9232517993088
 20
123.4500533378219
 30
0.0
 10
169.9590616195117
 20
123.4666569964239
 30
0.0
 10
169.9725756509087
 20
123.4729229414183
 30
0.0
  0
SPLINE
  5
FA
330
1F
100
AcDbEntity
  8
0
  6
HIDDEN
 62
     7
370
     0
100
AcDbSpline
210
0.0
220
0.0
230
1.0
 70
     8
 71
     3
 72
    28
 73
    24
 74
     0
 42
0.00000001
 43
0.00000001
 40
0.0
 40
0.0
 40
0.0
 40
0.0
 40
0.0027986860968324
 40
0.0516040466070921
 40
0.0961082528721861
 40
0.1417313148411435
 40
0.1899282212016762
 40
0.2391149089116532
 40
0.2968286445638061
 40
0.3557098507697295
 40
0.4109368451762726
 40
0.4674032882307301
 40
0.5024294432998195
 40
0.5382850294605025
 40
0.5733796457139956
 40
0.6097283077647664
 40
0.652307398172011
 40
0.696068234218554
 40
0.7647378268413176
 40
0.8352887926993402
 40
0.9061961891024468
 40
0.9795351656261768
 40
1.0
 40
1.0
 40
1.0
 40
1.0
 10
169.8902398140534
 20
121.0757679605406
 30
0.0
 10
169.8900552685149
 20
121.0755533077635
 30
0.0
 10
169.8866524944131
 20
121.0715953962538
 30
0.0
 10
169.899145493608
 20
121.0861010494162
 30
0.0
 10
169.9276393830603
 20
121.1193919973027
 30
0.0
 10
169.9739615682687
 20
121.174167684778
 30
0.0
 10
170.0353322655681
 20
121.2482331587765
 30
0.0
 10
170.1140471387556
 20
121.3462228399555
 30
0.0
 10
170.207691043277
 20
121.4686409786146
 30
0.0
 10
170.3094899653879
 20
121.6133079045415
 30
0.0
 10
170.4081304812914
 20
121.7736993882179
 30
0.0
 10
170.4833028404779
 20
121.927129296129
 30
0.0
 10
170.5323354991923
 20
122.0716987792419
 30
0.0
 10
170.5577560753166
 20
122.1986783660255
 30
0.0
 10
170.563452360386
 20
122.3308611544849
 30
0.0
 10
170.5471419700585
 20
122.4701118219632
 30
0.0
 10
170.5074193779019
 20
122.6134482939413
 30
0.0
 10
170.4370551486776
 20
122.7824102469893
 30
0.0
 10
170.3364651613509
 20
122.964055943068
 30
0.0
 10
170.2146408239262
 20
123.1493549216157
 30
0.0
 10
170.0958936755584
 20
123.3133595207172
 30
0.0
 10
170.016454004998
 20
123.4169114455934
 30
0.0
 10
169.9804340030131
 20
123.4628916158314
 30
0.0
 10
169.9725756509087
 20
123.4729229414182
 30
0.0
  0
LINE
  5
FB
330
1F
100
AcDbEntity
  8
0
  6
HIDDEN
 62
     7
370
     0
100
AcDbLine
 10
172.8896806055
 20
123.9008667389
 30
0.0
 11
169.8896806055
 21
123.9008667389
 31
0.0
  0
LWPOLYLINE
  5
FC
330
1F
100
AcDbEntity
  8
0
  6
HIDDEN
 62
     7
370
     0
100
AcDbPolyline
 90
       14
 70
   128
 43
0.0
 10
172.886461423
 20
92.3463141461
 10
172.857263541
 20
92.3804052452
 10
172.7605590808
 20
92.4959068098
 10
172.560121622
 20
92.7538414981
 10
172.3403684945
 20
93.1064917812
 10
172.2433451369
 20
93.3648864838
 10
172.2196432537
 20
93.6038028462
 10
172.2616162178
 20
93.8388155618
 10
172.4123306877
 20
94.1738212115
 10
172.6634627251
 20
94.5523445431
 10
172.8150803767
 20
94.7509095431
 10
172.8825909339
 20
94.8356846269
 10
172.8896806055
 20
94.8444862648
 10
172.8896806055
 20
94.8444862648
  0
LINE
  5
FD
330
1F
100
AcDbEntity
  8
0
  6
HIDDEN
 62
     7
370
     0
100
AcDbLine
 10
171.3896806055
 20
91.9008667389
 30
0.0
 11
172.8896806055
 21
91.9008667389
 31
0.0
  0
LINE
  5
FE
330
1F
100
AcDbEntity
  8
0
  6
HIDDEN
 62
     7
370
     0
100
AcDbLine
 10
169.8896806055
 20
91.9008667389
 30
0.0
 11
171.3896806055
 21
91.9008667389
 31
0.0
  0
SPLINE
  5
FF
330
1F
100
AcDbEntity
  8
0
  6
HIDDEN
 62
     7
370
     0
100
AcDbSpline
210
0.0
220
0.0
230
1.0
 70
     8
 71
     3
 72
     9
 73
     5
 74
     0
 42
0.00000001
 43
0.00000001
 40
0.0
 40
0.0
 40
0.0
 40
0.0
 40
0.8426281597191161
 40
1.0
 40
1.0
 40
1.0
 40
1.0
 10
169.9725756509087
 20
92.3288105363717
 30
0.0
 10
169.9286564783088
 20
92.34545842064875
 30
0.0
 10
169.8765348252484
 20
92.36521551526401
 30
0.0
 10
169.8961813812442
 20
92.35858457102863
 30
0.0
 10
169.8992731959164
 20
92.3575410471315
 30
0.0
  0
SPLINE
  5
100
330
1F
100
AcDbEntity
  8
0
  6
HIDDEN
 62
     7
370
     0
100
AcDbSpline
210
0.0
220
0.0
230
1.0
 70
     8
 71
     3
 72
    17
 73
    13
 74
     0
 42
0.00000001
 43
0.00000001
 40
0.0
 40
0.0
 40
0.0
 40
0.0
 40
0.1271062320541849
 40
0.2533275283183885
 40
0.3533701066891564
 40
0.4234657853460516
 40
0.4939500853902448
 40
0.5830110810836224
 40
0.7201916321428925
 40
0.859852342066341
 40
0.9555602916739714
 40
0.9999999999999999
 40
0.9999999999999999
 40
0.9999999999999999
 40
0.9999999999999999
 10
169.9725756509087
 20
92.3288105363717
 30
0.0
 10
170.0292732653715
 20
92.4017875036735
 30
0.0
 10
170.1422737556014
 20
92.54723335988338
 30
0.0
 10
170.3567918586949
 20
92.86049107077157
 30
0.0
 10
170.5109617906934
 20
93.1688610685589
 30
0.0
 10
170.5736193973398
 20
93.45923463125095
 30
0.0
 10
170.5410639836485
 20
93.74414393663513
 30
0.0
 10
170.3974871663615
 20
94.06683923561967
 30
0.0
 10
170.1697438071735
 20
94.3898590145615
 30
0.0
 10
169.9799960119541
 20
94.62144741225868
 30
0.0
 10
169.8908306156761
 20
94.72528955540723
 30
0.0
 10
169.8977751301094
 20
94.71720070178715
 30
0.0
 10
169.8999771804357
 20
94.71463579060084
 30
0.0
  0
LINE
  5
101
330
1F
100
AcDbEntity
  8
0
  6
HIDDEN
 62
     7
370
     0
100
AcDbLine
 10
169.87838306
 20
94.726172062
 30
0.0
 11
169.9725756509
 21
92.3288105364
 31
0.0
  0
LINE
  5
102
330
1F
100
AcDbEntity
  8
0
  6
HIDDEN
 62
     7
370
     0
100
AcDbLine
 10
169.87838306
 20
121.0755614158
 30
0.0
 11
169.9725756509
 21
123.4729229414
 31
0.0
  0
LWPOLYLINE
  5
103
330
1F
100
AcDbEntity
  8
0
  6
HIDDEN
 62
     7
370
     0
100
AcDbPolyline
 90
       31
 70
   128
 43
0.0
 10
127.8896806055
 20
153.2135725907
 10
128.9292390596
 20
153.179808777
 10
129.9233638209
 20
153.0799929765
 10
130.828606867
 20
152.9184876188
 10
131.6054047329
 20
152.7023512629
 10
132.2198076244
 20
152.4410301047
 10
132.644963187
 20
152.1459451329
 10
132.8622900824
 20
151.8299929765
 10
132.8622900824
 20
151.5069822611
 10
132.644963187
 20
151.1910301047
 10
132.2198076244
 20
150.8959451329
 10
131.6054047329
 20
150.6346239747
 10
130.828606867
 20
150.4184876188
 10
129.9233638209
 20
150.2569822611
 10
128.9292390596
 20
150.1571664606
 10
127.8896806055
 20
150.1234026469
 10
126.8501221514
 20
150.1571664606
 10
125.8559973901
 20
150.2569822611
 10
124.9507543441
 20
150.4184876188
 10
124.1739564781
 20
150.6346239747
 10
123.5595535866
 20
150.8959451329
 10
123.134398024
 20
151.1910301047
 10
122.9170711287
 20
151.5069822611
 10
122.9170711287
 20
151.8299929765
 10
123.134398024
 20
152.1459451329
 10
123.5595535866
 20
152.4410301047
 10
124.1739564781
 20
152.7023512629
 10
124.9507543441
 20
152.9184876188
 10
125.8559973901
 20
153.0799929765
 10
126.8501221514
 20
153.179808777
 10
127.8896806055
 20
153.2135725907
  0
LINE
  5
104
330
1F
100
AcDbEntity
  8
0
  6
HIDDEN
 62
     7
370
     0
100
AcDbLine
 10
142.1517096264
 20
146.8518294998
 30
0.0
 11
142.1517096264
 21
139.2508667389
 31
0.0
  0
LINE
  5
105
330
1F
100
AcDbEntity
  8
0
  6
HIDDEN
 62
     7
370
     0
100
AcDbLine
 10
140.7996806055
 20
142.6151019314
 30
0.0
 11
140.7996806055
 21
139.2508667389
 31
0.0
  0
LINE
  5
106
330
1F
100
AcDbEntity
  8
0
  6
HIDDEN
 62
     7
370
     0
100
AcDbLine
 10
136.9796806055
 20
142.6151019314
 30
0.0
 11
136.9796806055
 21
139.2508667389
 31
0.0
  0
CIRCLE
  5
107
330
1F
100
AcDbEntity
  8
0
  6
HIDDEN
 62
     7
370
     0
100
AcDbCircle
 10
125.8896806055
 20
107.9008667389
 30
0.0
 40
5.000000000000014
  0
LINE
  5
108
330
1F
100
AcDbEntity
  8
0
  6
HIDDEN
 62
     7
370
     0
100
AcDbLine
 10
218.871248122
 20
96.6205834404
 30
0.0
 11
218.8896806055
 21
96.1514454078
 31
0.0
  0
LINE
  5
109
330
1F
100
AcDbEntity
  8
0
  6
HIDDEN
 62
     7
370
     0
100
AcDbLine
 10
218.7573035719
 20
95.3956656311
 30
0.0
 11
218.8161932956
 21
93.8968220767
 31
0.0
  0
LINE
  5
10A
330
1F
100
AcDbEntity
  8
0
  6
HIDDEN
 62
     7
370
     0
100
AcDbLine
 10
218.6984138483
 20
96.8945091854
 30
0.0
 11
218.7573035719
 21
95.3956656311
 31
0.0
  0
LINE
  5
10B
330
1F
100
AcDbEntity
  8
0
  6
HIDDEN
 62
     7
370
     0
100
AcDbLine
 10
213.423365768
 20
95.186094644
 30
0.0
 11
213.4822554917
 21
93.6872510896
 31
0.0
  0
LINE
  5
10C
330
1F
100
AcDbEntity
  8
0
  6
HIDDEN
 62
     7
370
     0
100
AcDbLine
 10
213.3644760444
 20
96.6849381984
 30
0.0
 11
213.423365768
 21
95.186094644
 31
0.0
  0
LINE
  5
10D
330
1F
100
AcDbEntity
  8
0
  6
HIDDEN
 62
     7
370
     0
100
AcDbLine
 10
212.9237512499
 20
95.1664647361
 30
0.0
 11
212.9630110657
 21
94.1672356999
 31
0.0
  0
LINE
  5
10E
330
1F
100
AcDbEntity
  8
0
  6
HIDDEN
 62
     7
370
     0
100
AcDbLine
 10
212.8844914341
 20
96.1656937724
 30
0.0
 11
212.9237512499
 21
95.1664647361
 31
0.0
  0
LINE
  5
10F
330
1F
100
AcDbEntity
  8
0
  6
HIDDEN
 62
     7
370
     0
100
AcDbLine
 10
216.9206673949
 20
95.3235039991
 30
0.0
 11
218.9191254673
 21
95.4020236307
 31
0.0
  0
LINE
  5
110
330
1F
100
AcDbEntity
  8
0
  6
HIDDEN
 62
     7
370
     0
100
AcDbLine
 10
216.9501122567
 20
94.574082222
 30
0.0
 11
216.9206673949
 21
95.3235039991
 31
0.0
  0
LINE
  5
111
330
1F
100
AcDbEntity
  8
0
  6
HIDDEN
 62
     7
370
     0
100
AcDbLine
 10
216.891222533
 20
96.0729257763
 30
0.0
 11
216.9206673949
 21
95.3235039991
 31
0.0
  0
LINE
  5
112
330
1F
100
AcDbEntity
  8
0
  6
HIDDEN
 62
     7
370
     0
100
AcDbLine
 10
216.9501122567
 20
94.574082222
 30
0.0
 11
218.9485703292
 21
94.6526018535
 31
0.0
  0
LINE
  5
113
330
1F
100
AcDbEntity
  8
0
  6
HIDDEN
 62
     7
370
     0
100
AcDbLine
 10
216.891222533
 20
96.0729257763
 30
0.0
 11
218.8896806055
 21
96.1514454078
 31
0.0
  0
LINE
  5
114
330
1F
100
AcDbEntity
  8
0
  6
HIDDEN
 62
     7
370
     0
100
AcDbLine
 10
218.7573035719
 20
121.9072251846
 30
0.0
 11
218.6395241246
 21
118.9095380759
 31
0.0
  0
LINE
  5
115
330
1F
100
AcDbEntity
  8
0
  6
HIDDEN
 62
     7
370
     0
100
AcDbLine
 10
213.423365768
 20
122.1167961717
 30
0.0
 11
213.3055863207
 21
119.119109063
 31
0.0
  0
LINE
  5
116
330
1F
100
AcDbEntity
  8
0
  6
HIDDEN
 62
     7
370
     0
100
AcDbLine
 10
212.904121342
 20
121.6368115615
 30
0.0
 11
212.8256017105
 21
119.638353489
 31
0.0
  0
LINE
  5
117
330
1F
100
AcDbEntity
  8
0
  6
HIDDEN
 62
     7
370
     0
100
AcDbLine
 10
218.8896806055
 20
121.1514454078
 30
0.0
 11
218.8123583984
 21
119.183463821
 31
0.0
  0
LINE
  5
118
330
1F
100
AcDbEntity
  8
0
  6
HIDDEN
 62
     7
370
     0
100
AcDbLine
 10
216.8617776712
 20
120.4805432622
 30
0.0
 11
218.8602357437
 21
120.4020236307
 31
0.0
  0
LINE
  5
119
330
1F
100
AcDbEntity
  8
0
  6
HIDDEN
 62
     7
370
     0
100
AcDbLine
 10
216.8323328094
 20
119.731121485
 30
0.0
 11
216.8617776712
 21
120.4805432622
 31
0.0
  0
LINE
  5
11A
330
1F
100
AcDbEntity
  8
0
  6
HIDDEN
 62
     7
370
     0
100
AcDbLine
 10
216.891222533
 20
121.2299650394
 30
0.0
 11
216.8617776712
 21
120.4805432622
 31
0.0
  0
LINE
  5
11B
330
1F
100
AcDbEntity
  8
0
  6
HIDDEN
 62
     7
370
     0
100
AcDbLine
 10
216.891222533
 20
121.2299650394
 30
0.0
 11
218.8896806055
 21
121.1514454078
 31
0.0
  0
LINE
  5
11C
330
1F
100
AcDbEntity
  8
0
  6
HIDDEN
 62
     7
370
     0
100
AcDbLine
 10
216.8323328094
 20
119.731121485
 30
0.0
 11
218.8307908819
 21
119.6526018535
 31
0.0
  0
LINE
  5
11D
330
1F
100
AcDbEntity
  8
0
  6
HIDDEN
 62
     7
370
     0
100
AcDbLine
 10
175.3896806055
 20
102.4008667389
 30
0.0
 11
175.3896806055
 21
113.4008667389
 31
0.0
  0
LINE
  5
11E
330
1F
100
AcDbEntity
  8
0
  6
HIDDEN
 62
     7
370
     0
100
AcDbLine
 10
174.8896806055
 20
101.9008667389
 30
0.0
 11
174.8896806055
 21
113.9008667389
 31
0.0
  0
LINE
  5
11F
330
1F
100
AcDbEntity
  8
0
  6
HIDDEN
 62
     7
370
     0
100
AcDbLine
 10
159.8896806055
 20
101.9008667389
 30
0.0
 11
159.8896806055
 21
113.9008667389
 31
0.0
  0
LINE
  5
120
330
1F
100
AcDbEntity
  8
0
  6
HIDDEN
 62
     7
370
     0
100
AcDbLine
 10
159.3896806055
 20
102.4008667389
 30
0.0
 11
159.3896806055
 21
113.4008667389
 31
0.0
  0
LINE
  5
121
330
1F
100
AcDbEntity
  8
0
  6
HIDDEN
 62
     7
370
     0
100
AcDbLine
 10
179.3896806055
 20
106.4008667389
 30
0.0
 11
177.3896806055
 21
106.4008667389
 31
0.0
  0
LINE
  5
122
330
1F
100
AcDbEntity
  8
0
  6
HIDDEN
 62
     7
370
     0
100
AcDbLine
 10
179.3896806055
 20
102.4008667389
 30
0.0
 11
179.3896806055
 21
106.4008667389
 31
0.0
  0
LINE
  5
123
330
1F
100
AcDbEntity
  8
0
  6
HIDDEN
 62
     7
370
     0
100
AcDbLine
 10
179.3896806055
 20
109.4008667389
 30
0.0
 11
179.3896806055
 21
113.4008667389
 31
0.0
  0
LINE
  5
124
330
1F
100
AcDbEntity
  8
0
  6
HIDDEN
 62
     7
370
     0
100
AcDbLine
 10
177.3896806055
 20
109.4008667389
 30
0.0
 11
179.3896806055
 21
109.4008667389
 31
0.0
  0
LINE
  5
125
330
1F
100
AcDbEntity
  8
0
  6
HIDDEN
 62
     7
370
     0
100
AcDbLine
 10
177.3896806055
 20
106.4008667389
 30
0.0
 11
177.3896806055
 21
109.4008667389
 31
0.0
  0
LINE
  5
126
330
1F
100
AcDbEntity
  8
0
  6
HIDDEN
 62
     7
370
     0
100
AcDbLine
 10
172.3896806055
 20
109.4008667389
 30
0.0
 11
172.3896806055
 21
107.9008667389
 31
0.0
  0
LINE
  5
127
330
1F
100
AcDbEntity
  8
0
  6
HIDDEN
 62
     7
370
     0
100
AcDbLine
 10
166.3896806055
 20
107.9008667389
 30
0.0
 11
166.3896806055
 21
109.4008667389
 31
0.0
  0
LINE
  5
128
330
1F
100
AcDbEntity
  8
0
  6
HIDDEN
 62
     7
370
     0
100
AcDbLine
 10
166.3896806055
 20
106.4008667389
 30
0.0
 11
166.3896806055
 21
107.9008667389
 31
0.0
  0
LINE
  5
129
330
1F
100
AcDbEntity
  8
0
  6
HIDDEN
 62
     7
370
     0
100
AcDbLine
 10
166.3896806055
 20
107.9008667389
 30
0.0
 11
159.3896806055
 21
107.9008667389
 31
0.0
  0
LINE
  5
12A
330
1F
100
AcDbEntity
  8
0
  6
HIDDEN
 62
     7
370
     0
100
AcDbLine
 10
172.3896806055
 20
107.9008667389
 30
0.0
 11
172.3896806055
 21
106.4008667389
 31
0.0
  0
LINE
  5
12B
330
1F
100
AcDbEntity
  8
0
  6
HIDDEN
 62
     7
370
     0
100
AcDbLine
 10
172.3896806055
 20
107.9008667389
 30
0.0
 11
177.3896806055
 21
107.9008667389
 31
0.0
  0
LINE
  5
12C
330
1F
100
AcDbEntity
  8
0
  6
HIDDEN
 62
     7
370
     0
100
AcDbLine
 10
166.3896806055
 20
109.4008667389
 30
0.0
 11
166.3896806055
 21
110.9008667389
 31
0.0
  0
LINE
  5
12D
330
1F
100
AcDbEntity
  8
0
  6
HIDDEN
 62
     7
370
     0
100
AcDbLine
 10
172.3896806055
 20
110.9008667389
 30
0.0
 11
172.3896806055
 21
109.4008667389
 31
0.0
  0
LINE
  5
12E
330
1F
100
AcDbEntity
  8
0
  6
HIDDEN
 62
     7
370
     0
100
AcDbLine
 10
166.3896806055
 20
104.9008667389
 30
0.0
 11
166.3896806055
 21
106.4008667389
 31
0.0
  0
LINE
  5
12F
330
1F
100
AcDbEntity
  8
0
  6
HIDDEN
 62
     7
370
     0
100
AcDbLine
 10
172.3896806055
 20
106.4008667389
 30
0.0
 11
172.3896806055
 21
104.9008667389
 31
0.0
  0
LINE
  5
130
330
1F
100
AcDbEntity
  8
0
  6
HIDDEN
 62
     7
370
     0
100
AcDbLine
 10
166.3896806055
 20
110.9008667389
 30
0.0
 11
161.3938137189
 21
110.9008667389
 31
0.0
  0
LINE
  5
131
330
1F
100
AcDbEntity
  8
0
  6
HIDDEN
 62
     7
370
     0
100
AcDbLine
 10
160.2373234556
 20
110.9008667389
 30
0.0
 11
159.3896806055
 21
110.9008667389
 31
0.0
  0
LINE
  5
132
330
1F
100
AcDbEntity
  8
0
  6
HIDDEN
 62
     7
370
     0
100
AcDbLine
 10
166.3896806055
 20
104.9008667389
 30
0.0
 11
161.5489768088
 21
104.9008667389
 31
0.0
  0
LINE
  5
133
330
1F
100
AcDbEntity
  8
0
  6
HIDDEN
 62
     7
370
     0
100
AcDbLine
 10
160.0248664595
 20
104.9008667389
 30
0.0
 11
159.3896806055
 21
104.9008667389
 31
0.0
  0
LINE
  5
134
330
1F
100
AcDbEntity
  8
0
  6
HIDDEN
 62
     7
370
     0
100
AcDbLine
 10
172.3896806055
 20
104.9008667389
 30
0.0
 11
179.3896806055
 21
104.9008667389
 31
0.0
  0
LINE
  5
135
330
1F
100
AcDbEntity
  8
0
  6
HIDDEN
 62
     7
370
     0
100
AcDbLine
 10
172.3896806055
 20
110.9008667389
 30
0.0
 11
179.3896806055
 21
110.9008667389
 31
0.0
  0
LINE
  5
136
330
1F
100
AcDbEntity
  8
0
  6
HIDDEN
 62
     7
370
     0
100
AcDbLine
 10
118.8896806055
 20
68.4961837823
 30
0.0
 11
118.9792822294
 21
69.1337324642
 31
0.0
  0
LINE
  5
137
330
1F
100
AcDbEntity
  8
0
  6
HIDDEN
 62
     7
370
     0
100
AcDbLine
 10
118.9792822294
 20
146.6680010136
 30
0.0
 11
118.8896806055
 21
147.3055496955
 31
0.0
  0
ARC
  5
138
330
1F
100
AcDbEntity
  8
0
  6
HIDDEN
 62
     7
370
     0
100
AcDbCircle
 10
117.9927436871
 20
69.2723814145
 30
0.0
 40
0.9962338214386932
100
AcDbArc
 50
352.0
 51
0.0
  0
ARC
  5
139
330
1F
100
AcDbEntity
  8
0
  6
HIDDEN
 62
     7
370
     0
100
AcDbCircle
 10
117.9927436871
 20
69.2723814145
 30
0.0
 40
0.9962338214386932
100
AcDbArc
 50
0.0
 51
25.7988228126
  0
ARC
  5
13A
330
1F
100
AcDbEntity
  8
0
  6
HIDDEN
 62
     7
370
     0
100
AcDbCircle
 10
117.9927436871
 20
146.5293520633
 30
0.0
 40
0.9962338214386854
100
AcDbArc
 50
348.75
 51
8.0
  0
LWPOLYLINE
  5
13B
330
1F
100
AcDbEntity
  8
0
  6
HIDDEN
 62
     7
370
     0
100
AcDbPolyline
 90
        3
 70
   128
 43
0.0
 10
118.969835155
 20
146.3349964863
 10
118.9131437243
 20
146.1481098851
 10
118.8896806055
 20
146.0957785502
  0
LINE
  5
13C
330
1F
100
AcDbEntity
  8
0
  6
HIDDEN
 62
     7
370
     0
100
AcDbLine
 10
118.9889775085
 20
69.2723814145
 30
0.0
 11
118.9889775085
 21
146.5293520633
 31
0.0
  0
ARC
  5
13D
330
1F
100
AcDbEntity
  8
0
  6
HIDDEN
 62
     7
370
     0
100
AcDbCircle
 10
109.1428862607
 20
88.4008667389
 30
0.0
 40
11.99999999999999
100
AcDbArc
 50
273.5442519844
 51
324.3146652873
  0
ARC
  5
13E
330
1F
100
AcDbEntity
  8
0
  6
HIDDEN
 62
     7
370
     0
100
AcDbCircle
 10
109.1428862607
 20
127.4008667389
 30
0.0
 40
12.00000000000002
100
AcDbArc
 50
35.6853347127
 51
86.5371052953
  0
ARC
  5
13F
330
1F
100
AcDbEntity
  8
0
  6
HIDDEN
 62
     7
370
     0
100
AcDbCircle
 10
92.3504065477
 20
77.4008667389
 30
0.0
 40
1.0
100
AcDbArc
 50
210.0
 51
270.0
  0
ARC
  5
140
330
1F
100
AcDbEntity
  8
0
  6
HIDDEN
 62
     7
370
     0
100
AcDbCircle
 10
92.3504065477
 20
138.4008667389
 30
0.0
 40
1.0
100
AcDbArc
 50
90.0
 51
150.0
  0
LINE
  5
141
330
1F
100
AcDbEntity
  8
0
  6
HIDDEN
 62
     7
370
     0
100
AcDbLine
 10
92.3504065477
 20
76.4008667389
 30
0.0
 11
97.9085977199
 21
76.4008667389
 31
0.0
  0
LINE
  5
142
330
1F
100
AcDbEntity
  8
0
  6
HIDDEN
 62
     7
370
     0
100
AcDbLine
 10
97.8948509795
 20
139.4008667389
 30
0.0
 11
92.3504065477
 21
139.4008667389
 31
0.0
  0
LINE
  5
143
330
1F
100
AcDbEntity
  8
0
  6
HIDDEN
 62
     7
370
     0
100
AcDbLine
 10
91.4843811439
 20
138.9008667389
 30
0.0
 11
88.8863049326
 21
134.4008667389
 31
0.0
  0
LINE
  5
144
330
1F
100
AcDbEntity
  8
0
  6
HIDDEN
 62
     7
370
     0
100
AcDbLine
 10
88.8863049326
 20
81.4008667389
 30
0.0
 11
91.4843811439
 21
76.9008667389
 31
0.0
  0
ARC
  5
145
330
1F
100
AcDbEntity
  8
0
  6
HIDDEN
 62
     7
370
     0
100
AcDbCircle
 10
129.3396806055
 20
83.0258667389
 30
0.0
 40
2.0
100
AcDbArc
 50
234.3409123039
 51
0.0
  0
ARC
  5
146
330
1F
100
AcDbEntity
  8
0
  6
HIDDEN
 62
     7
370
     0
100
AcDbCircle
 10
129.3396806055
 20
132.7758667389
 30
0.0
 40
2.000000000000003
100
AcDbArc
 50
0.0
 51
125.6590876961
  0
LINE
  5
147
330
1F
100
AcDbEntity
  8
0
  6
HIDDEN
 62
     7
370
     0
100
AcDbLine
 10
118.8896806055
 20
81.4008667389
 30
0.0
 11
128.1737582239
 21
81.4008667389
 31
0.0
  0
LINE
  5
148
330
1F
100
AcDbEntity
  8
0
  6
HIDDEN
 62
     7
370
     0
100
AcDbLine
 10
128.1737582239
 20
134.4008667389
 30
0.0
 11
118.8896806055
 21
134.4008667389
 31
0.0
  0
LINE
  5
149
330
1F
100
AcDbEntity
  8
0
  6
HIDDEN
 62
     7
370
     0
100
AcDbLine
 10
84.0896806055
 20
81.4008667389
 30
0.0
 11
88.8863049326
 21
81.4008667389
 31
0.0
  0
LINE
  5
14A
330
1F
100
AcDbEntity
  8
0
  6
HIDDEN
 62
     7
370
     0
100
AcDbLine
 10
88.8863049326
 20
134.4008667389
 30
0.0
 11
79.0896806055
 21
134.4008667389
 31
0.0
  0
LINE
  5
14B
330
1F
100
AcDbEntity
  8
0
  6
HIDDEN
 62
     7
370
     0
100
AcDbLine
 10
122.8896806055
 20
153.578029621
 30
0.0
 11
122.8896806055
 21
149.8782805176
 31
0.0
  0
LINE
  5
14C
330
1F
100
AcDbEntity
  8
0
  6
HIDDEN
 62
     7
370
     0
100
AcDbLine
 10
132.8896806055
 20
149.8782805176
 30
0.0
 11
132.8896806055
 21
153.5766576718
 31
0.0
  0
LINE
  5
14D
330
1F
100
AcDbEntity
  8
0
  6
HIDDEN
 62
     7
370
     0
100
AcDbLine
 10
143.1896806055
 20
94.9008667389
 30
0.0
 11
147.1896806055
 21
94.9008667389
 31
0.0
  0
LINE
  5
14E
330
1F
100
AcDbEntity
  8
0
  6
HIDDEN
 62
     7
370
     0
100
AcDbLine
 10
147.1896806055
 20
120.9008667389
 30
0.0
 11
143.1896806055
 21
120.9008667389
 31
0.0
  0
LINE
  5
14F
330
1F
100
AcDbEntity
  8
0
  6
HIDDEN
 62
     7
370
     0
100
AcDbLine
 10
131.3396806055
 20
95.9008667389
 30
0.0
 11
132.0896806055
 21
96.6508667389
 31
0.0
  0
LINE
  5
150
330
1F
100
AcDbEntity
  8
0
  6
HIDDEN
 62
     7
370
     0
100
AcDbLine
 10
132.0896806055
 20
119.1508667389
 30
0.0
 11
131.3396806055
 21
119.9008667389
 31
0.0
  0
LINE
  5
151
330
1F
100
AcDbEntity
  8
0
  6
HIDDEN
 62
     7
370
     0
100
AcDbLine
 10
132.0896806055
 20
96.6508667389
 30
0.0
 11
143.1896806055
 21
96.6508667389
 31
0.0
  0
LINE
  5
152
330
1F
100
AcDbEntity
  8
0
  6
HIDDEN
 62
     7
370
     0
100
AcDbLine
 10
143.1896806055
 20
119.1508667389
 30
0.0
 11
132.0896806055
 21
119.1508667389
 31
0.0
  0
ARC
  5
153
330
1F
100
AcDbEntity
  8
0
  6
HIDDEN
 62
     7
370
     0
100
AcDbCircle
 10
218.3896806055
 20
97.8641724908
 30
0.0
 40
0.4999999999999826
100
AcDbArc
 50
0.0
 51
80.0
  0
ARC
  5
154
330
1F
100
AcDbEntity
  8
0
  6
HIDDEN
 62
     7
370
     0
100
AcDbCircle
 10
218.3896806055
 20
117.937560987
 30
0.0
 40
0.4999999999999966
100
AcDbArc
 50
280.0
 51
0.0
  0
LINE
  5
155
330
1F
100
AcDbEntity
  8
0
  6
HIDDEN
 62
     7
370
     0
100
AcDbLine
 10
123.8396806055
 20
157.9008667389
 30
0.0
 11
123.8396806055
 21
151.8008667389
 31
0.0
  0
LINE
  5
156
330
1F
100
AcDbEntity
  8
0
  6
HIDDEN
 62
     7
370
     0
100
AcDbLine
 10
218.4765046944
 20
117.4451571105
 30
0.0
 11
215.3896806055
 21
116.9008667389
 31
0.0
  0
LINE
  5
157
330
1F
100
AcDbEntity
  8
0
  6
HIDDEN
 62
     7
370
     0
100
AcDbLine
 10
215.3896806055
 20
98.9008667389
 30
0.0
 11
218.4765046944
 21
98.3565763673
 31
0.0
  0
ARC
  5
158
330
1F
100
AcDbEntity
  8
0
  6
HIDDEN
 62
     7
370
     0
100
AcDbCircle
 10
178.9949065874
 20
99.0008667389
 30
0.0
 40
0.4000000000000208
100
AcDbArc
 50
270.0
 51
290.0
  0
ARC
  5
159
330
1F
100
AcDbEntity
  8
0
  6
HIDDEN
 62
     7
370
     0
100
AcDbCircle
 10
178.9949065874
 20
116.8008667389
 30
0.0
 40
0.4000000000000074
100
AcDbArc
 50
70.0
 51
90.0
  0
ARC
  5
15A
330
1F
100
AcDbEntity
  8
0
  6
HIDDEN
 62
     7
370
     0
100
AcDbCircle
 10
169.7896806055
 20
99.0008667389
 30
0.0
 40
0.4000000000000199
100
AcDbArc
 50
180.0
 51
270.0
  0
ARC
  5
15B
330
1F
100
AcDbEntity
  8
0
  6
HIDDEN
 62
     7
370
     0
100
AcDbCircle
 10
169.7896806055
 20
116.8008667389
 30
0.0
 40
0.4000000000000057
100
AcDbArc
 50
90.0
 51
180.0
  0
LINE
  5
15C
330
1F
100
AcDbEntity
  8
0
  6
HIDDEN
 62
     7
370
     0
100
AcDbLine
 10
172.8896806055
 20
98.6008667389
 30
0.0
 11
178.9949065874
 21
98.6008667389
 31
0.0
  0
LINE
  5
15D
330
1F
100
AcDbEntity
  8
0
  6
HIDDEN
 62
     7
370
     0
100
AcDbLine
 10
169.7896806055
 20
98.6008667389
 30
0.0
 11
169.8938556004
 21
98.6008667389
 31
0.0
  0
LINE
  5
15E
330
1F
100
AcDbEntity
  8
0
  6
HIDDEN
 62
     7
370
     0
100
AcDbLine
 10
169.8908036024
 20
117.2008667389
 30
0.0
 11
169.7896806055
 21
117.2008667389
 31
0.0
  0
LINE
  5
15F
330
1F
100
AcDbEntity
  8
0
  6
HIDDEN
 62
     7
370
     0
100
AcDbLine
 10
178.9949065874
 20
117.2008667389
 30
0.0
 11
172.8846678619
 21
117.2008667389
 31
0.0
  0
LINE
  5
160
330
1F
100
AcDbEntity
  8
0
  6
HIDDEN
 62
     7
370
     0
100
AcDbLine
 10
179.1317146447
 20
98.6249896906
 30
0.0
 11
179.8896806055
 21
98.9008667389
 31
0.0
  0
LINE
  5
161
330
1F
100
AcDbEntity
  8
0
  6
HIDDEN
 62
     7
370
     0
100
AcDbLine
 10
179.8896806055
 20
116.9008667389
 30
0.0
 11
179.1317146447
 21
117.1767437872
 31
0.0
  0
LINE
  5
162
330
1F
100
AcDbEntity
  8
0
  6
HIDDEN
 62
     7
370
     0
100
AcDbLine
 10
179.8896806055
 20
98.9008667389
 30
0.0
 11
215.3896806055
 21
98.9008667389
 31
0.0
  0
LINE
  5
163
330
1F
100
AcDbEntity
  8
0
  6
HIDDEN
 62
     7
370
     0
100
AcDbLine
 10
215.3896806055
 20
116.9008667389
 30
0.0
 11
179.8896806055
 21
116.9008667389
 31
0.0
  0
LINE
  5
164
330
1F
100
AcDbEntity
  8
0
  6
HIDDEN
 62
     7
370
     0
100
AcDbLine
 10
110.3223932216
 20
70.3225871683
 30
0.0
 11
109.8896839351
 21
70.8008118857
 31
0.0
  0
LINE
  5
165
330
1F
100
AcDbEntity
  8
0
  6
HIDDEN
 62
     7
370
     0
100
AcDbLine
 10
97.8896810636
 20
71.4477732424
 30
0.0
 11
97.4090537583
 21
70.9695485315
 31
0.0
  0
LINE
  5
166
330
1F
100
AcDbEntity
  8
0
  6
HIDDEN
 62
     7
370
     0
100
AcDbLine
 10
97.4089354168
 20
144.8321790301
 30
0.0
 11
97.8896808809
 21
144.3538993583
 31
0.0
  0
LINE
  5
167
330
1F
100
AcDbEntity
  8
0
  6
HIDDEN
 62
     7
370
     0
100
AcDbLine
 10
109.8896806076
 20
145.0008717456
 30
0.0
 11
110.3225022774
 21
145.4791514185
 31
0.0
  0
LINE
  5
168
330
1F
100
AcDbEntity
  8
0
  6
HIDDEN
 62
     7
370
     0
100
AcDbLine
 10
109.8896806055
 20
70.7006830431
 30
0.0
 11
109.8896806055
 21
76.4245408362
 31
0.0
  0
LINE
  5
169
330
1F
100
AcDbEntity
  8
0
  6
HIDDEN
 62
     7
370
     0
100
AcDbLine
 10
97.8896806055
 20
76.4044575622
 30
0.0
 11
97.8896806055
 21
71.4478116569
 31
0.0
  0
LINE
  5
16A
330
1F
100
AcDbEntity
  8
0
  6
HIDDEN
 62
     7
370
     0
100
AcDbLine
 10
109.8896806055
 20
139.3749316329
 30
0.0
 11
109.8896806055
 21
145.1008755716
 31
0.0
  0
LINE
  5
16B
330
1F
100
AcDbEntity
  8
0
  6
HIDDEN
 62
     7
370
     0
100
AcDbLine
 10
97.8896806055
 20
144.353888859
 30
0.0
 11
97.8896806055
 21
139.3998825395
 31
0.0
  0
LINE
  5
16C
330
1F
100
AcDbEntity
  8
0
  6
HIDDEN
 62
     7
370
     0
100
AcDbLine
 10
169.3896806055
 20
113.9008667389
 30
0.0
 11
169.089250296
 21
113.4008667389
 31
0.0
  0
LINE
  5
16D
330
1F
100
AcDbEntity
  8
0
  6
HIDDEN
 62
     7
370
     0
100
AcDbLine
 10
169.089250296
 20
102.4008667389
 30
0.0
 11
169.3896806055
 21
101.9008667389
 31
0.0
  0
LINE
  5
16E
330
1F
100
AcDbEntity
  8
0
  6
HIDDEN
 62
     7
370
     0
100
AcDbLine
 10
147.1896806055
 20
102.4008667389
 30
0.0
 11
169.089250296
 21
102.4008667389
 31
0.0
  0
LINE
  5
16F
330
1F
100
AcDbEntity
  8
0
  6
HIDDEN
 62
     7
370
     0
100
AcDbLine
 10
169.089250296
 20
113.4008667389
 30
0.0
 11
147.1896806055
 21
113.4008667389
 31
0.0
  0
LINE
  5
170
330
1F
100
AcDbEntity
  8
0
  6
HIDDEN
 62
     7
370
     0
100
AcDbLine
 10
157.3396806055
 20
128.4008667389
 30
0.0
 11
158.3396806055
 21
127.8235164697
 31
0.0
  0
LINE
  5
171
330
1F
100
AcDbEntity
  8
0
  6
HIDDEN
 62
     7
370
     0
100
AcDbLine
 10
163.3396806055
 20
127.8235164697
 30
0.0
 11
164.3396806055
 21
128.4008667389
 31
0.0
  0
LINE
  5
172
330
1F
100
AcDbEntity
  8
0
  6
HIDDEN
 62
     7
370
     0
100
AcDbLine
 10
164.3396806055
 20
87.4008667389
 30
0.0
 11
163.3396806055
 21
87.9782170081
 31
0.0
  0
LINE
  5
173
330
1F
100
AcDbEntity
  8
0
  6
HIDDEN
 62
     7
370
     0
100
AcDbLine
 10
158.3396806055
 20
87.9782170081
 30
0.0
 11
157.3396806055
 21
87.4008667389
 31
0.0
  0
LINE
  5
174
330
1F
100
AcDbEntity
  8
0
  6
HIDDEN
 62
     7
370
     0
100
AcDbLine
 10
158.3396806055
 20
127.8235164697
 30
0.0
 11
158.3396806055
 21
116.4008667389
 31
0.0
  0
LINE
  5
175
330
1F
100
AcDbEntity
  8
0
  6
HIDDEN
 62
     7
370
     0
100
AcDbLine
 10
163.3396806055
 20
116.4008667389
 30
0.0
 11
163.3396806055
 21
127.8235164697
 31
0.0
  0
LINE
  5
176
330
1F
100
AcDbEntity
  8
0
  6
HIDDEN
 62
     7
370
     0
100
AcDbLine
 10
158.3396806055
 20
116.4008667389
 30
0.0
 11
160.8396806055
 21
114.8987151913
 31
0.0
  0
LINE
  5
177
330
1F
100
AcDbEntity
  8
0
  6
HIDDEN
 62
     7
370
     0
100
AcDbLine
 10
160.8396806055
 20
114.8987151913
 30
0.0
 11
163.3396806055
 21
116.4008667389
 31
0.0
  0
LINE
  5
178
330
1F
100
AcDbEntity
  8
0
  6
HIDDEN
 62
     7
370
     0
100
AcDbLine
 10
163.3396806055
 20
99.4008667389
 30
0.0
 11
160.8396806055
 21
100.9030182865
 31
0.0
  0
LINE
  5
179
330
1F
100
AcDbEntity
  8
0
  6
HIDDEN
 62
     7
370
     0
100
AcDbLine
 10
160.8396806055
 20
100.9030182865
 30
0.0
 11
158.3396806055
 21
99.4008667389
 31
0.0
  0
LINE
  5
17A
330
1F
100
AcDbEntity
  8
0
  6
HIDDEN
 62
     7
370
     0
100
AcDbLine
 10
163.3396806055
 20
87.9782170081
 30
0.0
 11
163.3396806055
 21
99.4008667389
 31
0.0
  0
LINE
  5
17B
330
1F
100
AcDbEntity
  8
0
  6
HIDDEN
 62
     7
370
     0
100
AcDbLine
 10
158.3396806055
 20
99.4008667389
 30
0.0
 11
158.3396806055
 21
87.9782170081
 31
0.0
  0
LINE
  5
17C
330
1F
100
AcDbEntity
  8
0
  6
HIDDEN
 62
     7
370
     0
100
AcDbLine
 10
169.8896806055
 20
121.0757679605
 30
0.0
 11
169.8896806055
 21
117.2006875307
 31
0.0
  0
LINE
  5
17D
330
1F
100
AcDbEntity
  8
0
  6
HIDDEN
 62
     7
370
     0
100
AcDbLine
 10
169.8896806055
 20
123.9008667389
 30
0.0
 11
169.8896806055
 21
123.4421587867
 31
0.0
  0
LINE
  5
17E
330
1F
100
AcDbEntity
  8
0
  6
HIDDEN
 62
     7
370
     0
100
AcDbLine
 10
172.8896806055
 20
123.4574993455
 30
0.0
 11
172.8896806055
 21
123.9008667389
 31
0.0
  0
LINE
  5
17F
330
1F
100
AcDbEntity
  8
0
  6
HIDDEN
 62
     7
370
     0
100
AcDbLine
 10
172.8896806055
 20
117.2000604862
 30
0.0
 11
172.8896806055
 21
120.957247213
 31
0.0
  0
LINE
  5
180
330
1F
100
AcDbEntity
  8
0
  6
HIDDEN
 62
     7
370
     0
100
AcDbLine
 10
169.8896806055
 20
92.3575410471
 30
0.0
 11
169.8896806055
 21
91.9008667389
 31
0.0
  0
LINE
  5
181
330
1F
100
AcDbEntity
  8
0
  6
HIDDEN
 62
     7
370
     0
100
AcDbLine
 10
169.8896806055
 20
98.6015375762
 30
0.0
 11
169.8896806055
 21
94.7146357906
 31
0.0
  0
LINE
  5
182
330
1F
100
AcDbEntity
  8
0
  6
HIDDEN
 62
     7
370
     0
100
AcDbLine
 10
172.8896806055
 20
94.8444862648
 30
0.0
 11
172.8896806055
 21
98.6008667389
 31
0.0
  0
LINE
  5
183
330
1F
100
AcDbEntity
  8
0
  6
HIDDEN
 62
     7
370
     0
100
AcDbLine
 10
172.8896806055
 20
91.9008667389
 30
0.0
 11
172.8896806055
 21
92.3463141461
 31
0.0
  0
LINE
  5
184
330
1F
100
AcDbEntity
  8
0
  6
HIDDEN
 62
     7
370
     0
100
AcDbLine
 10
169.8896806055
 20
91.9008667389
 30
0.0
 11
171.3896806055
 21
90.9995758104
 31
0.0
  0
LINE
  5
185
330
1F
100
AcDbEntity
  8
0
  6
HIDDEN
 62
     7
370
     0
100
AcDbLine
 10
171.3896806055
 20
90.9995758104
 30
0.0
 11
172.8896806055
 21
91.9008667389
 31
0.0
  0
LINE
  5
186
330
1F
100
AcDbEntity
  8
0
  6
HIDDEN
 62
     7
370
     0
100
AcDbLine
 10
172.8866259088
 20
92.3424373489
 30
0.0
 11
218.8896806055
 21
94.1499022906
 31
0.0
  0
LINE
  5
187
330
1F
100
AcDbEntity
  8
0
  6
HIDDEN
 62
     7
370
     0
100
AcDbLine
 10
218.8896806055
 20
96.6518311871
 30
0.0
 11
172.8896806055
 21
94.8444862648
 31
0.0
  0
LINE
  5
188
330
1F
100
AcDbEntity
  8
0
  6
HIDDEN
 62
     7
370
     0
100
AcDbLine
 10
172.8896806055
 20
120.957247213
 30
0.0
 11
218.8896806055
 21
119.1499022906
 31
0.0
  0
LINE
  5
189
330
1F
100
AcDbEntity
  8
0
  6
HIDDEN
 62
     7
370
     0
100
AcDbLine
 10
218.8896806055
 20
121.6518311871
 30
0.0
 11
172.8883071202
 21
123.4592300739
 31
0.0
  0
LINE
  5
18A
330
1F
100
AcDbEntity
  8
0
  6
HIDDEN
 62
     7
370
     0
100
AcDbLine
 10
169.87838306
 20
94.726172062
 30
0.0
 11
169.1769611081
 21
93.4476486702
 31
0.0
  0
LINE
  5
18B
330
1F
100
AcDbEntity
  8
0
  6
HIDDEN
 62
     7
370
     0
100
AcDbLine
 10
169.1769611081
 20
93.4476486702
 30
0.0
 11
169.8939759951
 21
92.3540192194
 31
0.0
  0
LINE
  5
18C
330
1F
100
AcDbEntity
  8
0
  6
HIDDEN
 62
     7
370
     0
100
AcDbLine
 10
169.8912540604
 20
123.4435626181
 30
0.0
 11
169.1769611081
 21
122.3540848076
 31
0.0
  0
LINE
  5
18D
330
1F
100
AcDbEntity
  8
0
  6
HIDDEN
 62
     7
370
     0
100
AcDbLine
 10
169.1769611081
 20
122.3540848076
 30
0.0
 11
169.87838306
 21
121.0755614158
 31
0.0
  0
LINE
  5
18E
330
1F
100
AcDbEntity
  8
0
  6
HIDDEN
 62
     7
370
     0
100
AcDbLine
 10
122.8896806055
 20
155.4535780369
 30
0.0
 11
122.8896806055
 21
153.578029621
 31
0.0
  0
LINE
  5
18F
330
1F
100
AcDbEntity
  8
0
  6
HIDDEN
 62
     7
370
     0
100
AcDbLine
 10
132.8896806055
 20
153.5766576718
 30
0.0
 11
132.8896806055
 21
155.4521497541
 31
0.0
  0
LINE
  5
190
330
1F
100
AcDbEntity
  8
0
  6
HIDDEN
 62
     7
370
     0
100
AcDbLine
 10
218.8161932956
 20
93.8968220767
 30
0.0
 11
218.8896806055
 21
94.0364984785
 31
0.0
  0
LINE
  5
191
330
1F
100
AcDbEntity
  8
0
  6
HIDDEN
 62
     7
370
     0
100
AcDbLine
 10
218.871248122
 20
96.6205834404
 30
0.0
 11
218.6984138483
 21
96.8945091854
 31
0.0
  0
LINE
  5
192
330
1F
100
AcDbEntity
  8
0
  6
HIDDEN
 62
     7
370
     0
100
AcDbLine
 10
218.6984138483
 20
96.8945091854
 30
0.0
 11
213.3644760444
 21
96.6849381984
 31
0.0
  0
LINE
  5
193
330
1F
100
AcDbEntity
  8
0
  6
HIDDEN
 62
     7
370
     0
100
AcDbLine
 10
213.4822554917
 20
93.6872510896
 30
0.0
 11
218.8161932956
 21
93.8968220767
 31
0.0
  0
LINE
  5
194
330
1F
100
AcDbEntity
  8
0
  6
HIDDEN
 62
     7
370
     0
100
AcDbLine
 10
213.3644760444
 20
96.6849381984
 30
0.0
 11
212.8844914341
 21
96.1656937724
 31
0.0
  0
LINE
  5
195
330
1F
100
AcDbEntity
  8
0
  6
HIDDEN
 62
     7
370
     0
100
AcDbLine
 10
212.9630110657
 20
94.1672356999
 30
0.0
 11
213.4822554917
 21
93.6872510896
 31
0.0
  0
LINE
  5
196
330
1F
100
AcDbEntity
  8
0
  6
HIDDEN
 62
     7
370
     0
100
AcDbLine
 10
218.7573035719
 20
121.9072251846
 30
0.0
 11
213.423365768
 21
122.1167961717
 31
0.0
  0
LINE
  5
197
330
1F
100
AcDbEntity
  8
0
  6
HIDDEN
 62
     7
370
     0
100
AcDbLine
 10
213.3055863207
 20
119.119109063
 30
0.0
 11
218.6395241246
 21
118.9095380759
 31
0.0
  0
LINE
  5
198
330
1F
100
AcDbEntity
  8
0
  6
HIDDEN
 62
     7
370
     0
100
AcDbLine
 10
213.423365768
 20
122.1167961717
 30
0.0
 11
212.904121342
 21
121.6368115615
 31
0.0
  0
LINE
  5
199
330
1F
100
AcDbEntity
  8
0
  6
HIDDEN
 62
     7
370
     0
100
AcDbLine
 10
212.8256017105
 20
119.638353489
 30
0.0
 11
213.3055863207
 21
119.119109063
 31
0.0
  0
LINE
  5
19A
330
1F
100
AcDbEntity
  8
0
  6
HIDDEN
 62
     7
370
     0
100
AcDbLine
 10
218.6395241246
 20
118.9095380759
 30
0.0
 11
218.8123583984
 21
119.183463821
 31
0.0
  0
LINE
  5
19B
330
1F
100
AcDbEntity
  8
0
  6
HIDDEN
 62
     7
370
     0
100
AcDbLine
 10
218.8896806055
 20
121.6556178289
 30
0.0
 11
218.7573035719
 21
121.9072251846
 31
0.0
  0
LINE
  5
19C
330
1F
100
AcDbEntity
  8
0
  6
HIDDEN
 62
     7
370
     0
100
AcDbLine
 10
174.8896806055
 20
101.9008667389
 30
0.0
 11
175.3896806055
 21
102.4008667389
 31
0.0
  0
LINE
  5
19D
330
1F
100
AcDbEntity
  8
0
  6
HIDDEN
 62
     7
370
     0
100
AcDbLine
 10
175.3896806055
 20
113.4008667389
 30
0.0
 11
174.8896806055
 21
113.9008667389
 31
0.0
  0
LINE
  5
19E
330
1F
100
AcDbEntity
  8
0
  6
HIDDEN
 62
     7
370
     0
100
AcDbLine
 10
159.8896806055
 20
101.9008667389
 30
0.0
 11
174.8896806055
 21
101.9008667389
 31
0.0
  0
LINE
  5
19F
330
1F
100
AcDbEntity
  8
0
  6
HIDDEN
 62
     7
370
     0
100
AcDbLine
 10
174.8896806055
 20
113.9008667389
 30
0.0
 11
159.8896806055
 21
113.9008667389
 31
0.0
  0
LINE
  5
1A0
330
1F
100
AcDbEntity
  8
0
  6
HIDDEN
 62
     7
370
     0
100
AcDbLine
 10
159.8896806055
 20
113.9008667389
 30
0.0
 11
159.3896806055
 21
113.4008667389
 31
0.0
  0
LINE
  5
1A1
330
1F
100
AcDbEntity
  8
0
  6
HIDDEN
 62
     7
370
     0
100
AcDbLine
 10
159.3896806055
 20
102.4008667389
 30
0.0
 11
159.8896806055
 21
101.9008667389
 31
0.0
  0
LINE
  5
1A2
330
1F
100
AcDbEntity
  8
0
  6
HIDDEN
 62
     7
370
     0
100
AcDbLine
 10
175.3896806055
 20
102.4008667389
 30
0.0
 11
179.3896806055
 21
102.4008667389
 31
0.0
  0
LINE
  5
1A3
330
1F
100
AcDbEntity
  8
0
  6
HIDDEN
 62
     7
370
     0
100
AcDbLine
 10
179.3896806055
 20
113.4008667389
 30
0.0
 11
175.3896806055
 21
113.4008667389
 31
0.0
  0
LINE
  5
1A4
330
1F
100
AcDbEntity
  8
0
  6
HIDDEN
 62
     7
370
     0
100
AcDbLine
 10
166.3896806055
 20
104.9008667389
 30
0.0
 11
172.3896806055
 21
104.9008667389
 31
0.0
  0
LINE
  5
1A5
330
1F
100
AcDbEntity
  8
0
  6
HIDDEN
 62
     7
370
     0
100
AcDbLine
 10
172.3896806055
 20
110.9008667389
 30
0.0
 11
166.3896806055
 21
110.9008667389
 31
0.0
  0
DIMENSION
  5
1A6
330
1F
100
AcDbEntity
  8
VERMASSUNG
100
AcDbDimension
  2
*D1
 10
63.5626218852
 20
57.9008667389
 30
0.0
 11
63.5626218852
 21
107.9008667389
 31
0.0
 70
   160
  1
HSK A %%c<>
 71
     2
 42
-1.0
  3
SLDDIMSTYLE0
100
AcDbAlignedDimension
 13
119.3896806055
 23
157.9008667389
 33
0.0
 14
119.3896806055
 24
57.9008667389
 34
0.0
 50
90.0
100
AcDbRotatedDimension
  0
DIMENSION
  5
1B3
330
1F
100
AcDbEntity
  8
VERMASSUNG
100
AcDbDimension
  2
*D2
 10
218.8896806055
 20
157.0995666306
 30
0.0
 11
194.1396806055
 21
157.0995666306
 31
0.0
 70
   160
 71
     2
 42
-1.0
  3
SLDDIMSTYLE1
100
AcDbAlignedDimension
 13
169.3896806055
 23
116.8008667389
 33
0.0
 14
218.8896806055
 24
122.5520857556
 34
0.0
100
AcDbRotatedDimension
  0
DIMENSION
  5
1BE
330
1F
100
AcDbEntity
  8
VERMASSUNG
100
AcDbDimension
  2
*D3
 10
226.5429035753
 20
116.9008667389
 30
0.0
 11
226.5429035753
 21
107.9008667389
 31
0.0
 70
   160
  1
%%c<> 
 71
     2
 42
-1.0
  3
SLDDIMSTYLE2
100
AcDbAlignedDimension
 13
215.3896806055
 23
98.9008667389
 33
0.0
 14
215.3896806055
 24
116.9008667389
 34
0.0
 50
90.0
100
AcDbRotatedDimension
  0
DIMENSION
  5
1CB
330
1F
100
AcDbEntity
  8
VERMASSUNG
100
AcDbDimension
  2
*D4
 10
232.5429035753
 20
124.4008667389
 30
0.0
 11
232.5429035753
 21
107.9008667389
 31
0.0
 70
   160
  1
%%c<>
 71
     2
 42
-1.0
  3
SLDDIMSTYLE3
100
AcDbAlignedDimension
 13
218.8896806055
 23
91.4008667389
 33
0.0
 14
218.8896806055
 24
124.4008667389
 34
0.0
 50
90.0
100
AcDbRotatedDimension
  0
DIMENSION
  5
1D7
330
1F
100
AcDbEntity
  8
VERMASSUNG
100
AcDbDimension
  2
*D5
 10
218.8896806055
 20
169.0995666306
 30
0.0
 11
168.8896806055
 21
169.0995666306
 31
0.0
 70
   160
 71
     2
 42
-1.0
  3
SLDDIMSTYLE0
100
AcDbAlignedDimension
 13
118.8896806055
 23
107.9008667389
 33
0.0
 14
218.8896806055
 24
122.5520857556
 34
0.0
 50
0.0
100
AcDbRotatedDimension
  0
DIMENSION
  5
1E1
330
1F
100
AcDbEntity
  8
VERMASSUNG
100
AcDbDimension
  2
*D6
 10
218.8896806055
 20
163.0995666306
 30
0.0
 11
183.3646806055
 21
163.0995666306
 31
0.0
 70
   160
 71
     2
 42
-1.0
  3
SLDDIMSTYLE0
100
AcDbAlignedDimension
 13
147.8396806055
 23
155.8696065597
 33
0.0
 14
218.8896806055
 24
122.5520857556
 34
0.0
100
AcDbRotatedDimension
  0
DIMENSION
  5
1EB
330
1F
100
AcDbEntity
  8
VERMASSUNG
100
AcDbDimension
  2
*D7
 10
218.8896806055
 20
175.0995666306
 30
0.0
 11
143.9396806055
 21
175.0995666306
 31
0.0
 70
   160
 71
     2
 42
-1.0
  3
SLDDIMSTYLE0
100
AcDbAlignedDimension
 13
68.9896806055
 23
138.4035364815
 33
0.0
 14
218.8896806055
 24
122.5520857556
 34
0.0
100
AcDbRotatedDimension
  0
DIMENSION
  5
1F5
330
1F
100
AcDbEntity
  8
VERMASSUNG
100
AcDbDimension
  2
*D8
 10
238.5429035753
 20
87.4008667389
 30
0.0
 11
238.5429035753
 21
107.9008667389
 31
0.0
 70
   160
  1
%%c<>
 71
     2
 42
-1.0
  3
SLDDIMSTYLE0
100
AcDbAlignedDimension
 13
168.0648616608
 23
128.4008667389
 33
0.0
 14
168.0648616608
 24
87.4008667389
 34
0.0
 50
90.0
100
AcDbRotatedDimension
  0
LINE
  5
200
330
1F
100
AcDbEntity
  8
VERMASSUNG
  6
CENTERX2
370
     0
100
AcDbLine
 10
65.6512459372
 20
107.9008667389
 30
0.0
 11
220.8896806055
 21
107.9008667389
 31
0.0
  0
OLE2FRAME
  5
201
330
1F
100
AcDbEntity
  8
0
100
AcDbOle2Frame
 70
     2
  3
Bitmap Image
 10
13.8511154363
 20
38.264191557
 30
0.0
 11
51.6290888628
 21
31.9806341108
 31
0.0
 71
     2
 72
     0
 73
     1
 90
    12928
310
80552BED0767C5B32B40DDAF6807D121434000000000000000006FFBDDFB85D0
310
4940DDAF6807D121434000000000000000006FFBDDFB85D04940416F4BD60AFB
310
3F4000000000000000002BED0767C5B32B40416F4BD60AFB3F40000000000000
310
0000000000000100000000010000010000000100000000000100000000320000
310
D0CF11E0A1B11AE1000000000000000000000000000000003E000300FEFF0900
310
0600000000000000000000000100000001000000000000000010000002000000
310
01000000FEFFFFFF0000000000000000FFFFFFFFFFFFFFFFFFFFFFFFFFFFFFFF
310
FFFFFFFFFFFFFFFFFFFFFFFFFFFFFFFFFFFFFFFFFFFFFFFFFFFFFFFFFFFFFFFF
310
FFFFFFFFFFFFFFFFFFFFFFFFFFFFFFFFFFFFFFFFFFFFFFFFFFFFFFFFFFFFFFFF
310
FFFFFFFFFFFFFFFFFFFFFFFFFFFFFFFFFFFFFFFFFFFFFFFFFFFFFFFFFFFFFFFF
310
FFFFFFFFFFFFFFFFFFFFFFFFFFFFFFFFFFFFFFFFFFFFFFFFFFFFFFFFFFFFFFFF
310
FFFFFFFFFFFFFFFFFFFFFFFFFFFFFFFFFFFFFFFFFFFFFFFFFFFFFFFFFFFFFFFF
310
FFFFFFFFFFFFFFFFFFFFFFFFFFFFFFFFFFFFFFFFFFFFFFFFFFFFFFFFFFFFFFFF
310
FFFFFFFFFFFFFFFFFFFFFFFFFFFFFFFFFFFFFFFFFFFFFFFFFFFFFFFFFFFFFFFF
310
FFFFFFFFFFFFFFFFFFFFFFFFFFFFFFFFFFFFFFFFFFFFFFFFFFFFFFFFFFFFFFFF
310
FFFFFFFFFFFFFFFFFFFFFFFFFFFFFFFFFFFFFFFFFFFFFFFFFFFFFFFFFFFFFFFF
310
FFFFFFFFFFFFFFFFFFFFFFFFFFFFFFFFFFFFFFFFFFFFFFFFFFFFFFFFFFFFFFFF
310
FFFFFFFFFFFFFFFFFFFFFFFFFFFFFFFFFFFFFFFFFFFFFFFFFFFFFFFFFFFFFFFF
310
FFFFFFFFFFFFFFFFFFFFFFFFFFFFFFFFFFFFFFFFFFFFFFFFFFFFFFFFFFFFFFFF
310
FFFFFFFFFFFFFFFFFFFFFFFFFFFFFFFFFFFFFFFFFFFFFFFFFFFFFFFFFFFFFFFF
310
FDFFFFFFFEFFFFFFFEFFFFFFFEFFFFFF05000000060000000700000008000000
310
090000000A0000000B0000000C0000000D0000000E0000000F00000010000000
310
11000000120000001300000014000000150000001600000017000000FEFFFFFF
310
FFFFFFFFFFFFFFFFFFFFFFFFFFFFFFFFFFFFFFFFFFFFFFFFFFFFFFFFFFFFFFFF
310
FFFFFFFFFFFFFFFFFFFFFFFFFFFFFFFFFFFFFFFFFFFFFFFFFFFFFFFFFFFFFFFF
310
FFFFFFFFFFFFFFFFFFFFFFFFFFFFFFFFFFFFFFFFFFFFFFFFFFFFFFFFFFFFFFFF
310
FFFFFFFFFFFFFFFFFFFFFFFFFFFFFFFFFFFFFFFFFFFFFFFFFFFFFFFFFFFFFFFF
310
FFFFFFFFFFFFFFFFFFFFFFFFFFFFFFFFFFFFFFFFFFFFFFFFFFFFFFFFFFFFFFFF
310
FFFFFFFFFFFFFFFFFFFFFFFFFFFFFFFFFFFFFFFFFFFFFFFFFFFFFFFFFFFFFFFF
310
FFFFFFFFFFFFFFFFFFFFFFFFFFFFFFFFFFFFFFFFFFFFFFFFFFFFFFFFFFFFFFFF
310
FFFFFFFFFFFFFFFFFFFFFFFFFFFFFFFFFFFFFFFFFFFFFFFFFFFFFFFFFFFFFFFF
310
FFFFFFFFFFFFFFFFFFFFFFFFFFFFFFFFFFFFFFFFFFFFFFFFFFFFFFFFFFFFFFFF
310
FFFFFFFFFFFFFFFFFFFFFFFFFFFFFFFFFFFFFFFFFFFFFFFFFFFFFFFFFFFFFFFF
310
FFFFFFFFFFFFFFFFFFFFFFFFFFFFFFFFFFFFFFFFFFFFFFFFFFFFFFFFFFFFFFFF
310
FFFFFFFFFFFFFFFFFFFFFFFFFFFFFFFFFFFFFFFFFFFFFFFFFFFFFFFFFFFFFFFF
310
FFFFFFFFFFFFFFFFFFFFFFFFFFFFFFFFFFFFFFFFFFFFFFFFFFFFFFFFFFFFFFFF
310
52006F006F007400200045006E00740072007900000000000000000000000000
310
0000000000000000000000000000000000000000000000000000000000000000
310
16000500FFFFFFFFFFFFFFFF020000000A00030000000000C000000000000046
310
00000000000000000000000040FCB6C79108CC0103000000C000000000000000
310
01004F006C006500000000000000000000000000000000000000000000000000
310
0000000000000000000000000000000000000000000000000000000000000000
310
0A000200FFFFFFFFFFFFFFFFFFFFFFFF00000000000000000000000000000000
310
0000000000000000000000000000000000000000000000001400000000000000
310
010043006F006D0070004F0062006A0000000000000000000000000000000000
310
0000000000000000000000000000000000000000000000000000000000000000
310
120002010100000003000000FFFFFFFF00000000000000000000000000000000
310
0000000000000000000000000000000000000000010000004D00000000000000
310
01004F006C006500310030004E00610074006900760065000000000000000000
310
0000000000000000000000000000000000000000000000000000000000000000
310
1A000200FFFFFFFFFFFFFFFFFFFFFFFF00000000000000000000000000000000
310
0000000000000000000000000000000000000000040000002426000000000000
310
FEFFFFFF02000000FEFFFFFFFFFFFFFFFFFFFFFFFFFFFFFFFFFFFFFFFFFFFFFF
310
FFFFFFFFFFFFFFFFFFFFFFFFFFFFFFFFFFFFFFFFFFFFFFFFFFFFFFFFFFFFFFFF
310
FFFFFFFFFFFFFFFFFFFFFFFFFFFFFFFFFFFFFFFFFFFFFFFFFFFFFFFFFFFFFFFF
310
FFFFFFFFFFFFFFFFFFFFFFFFFFFFFFFFFFFFFFFFFFFFFFFFFFFFFFFFFFFFFFFF
310
FFFFFFFFFFFFFFFFFFFFFFFFFFFFFFFFFFFFFFFFFFFFFFFFFFFFFFFFFFFFFFFF
310
FFFFFFFFFFFFFFFFFFFFFFFFFFFFFFFFFFFFFFFFFFFFFFFFFFFFFFFFFFFFFFFF
310
FFFFFFFFFFFFFFFFFFFFFFFFFFFFFFFFFFFFFFFFFFFFFFFFFFFFFFFFFFFFFFFF
310
FFFFFFFFFFFFFFFFFFFFFFFFFFFFFFFFFFFFFFFFFFFFFFFFFFFFFFFFFFFFFFFF
310
FFFFFFFFFFFFFFFFFFFFFFFFFFFFFFFFFFFFFFFFFFFFFFFFFFFFFFFFFFFFFFFF
310
FFFFFFFFFFFFFFFFFFFFFFFFFFFFFFFFFFFFFFFFFFFFFFFFFFFFFFFFFFFFFFFF
310
FFFFFFFFFFFFFFFFFFFFFFFFFFFFFFFFFFFFFFFFFFFFFFFFFFFFFFFFFFFFFFFF
310
FFFFFFFFFFFFFFFFFFFFFFFFFFFFFFFFFFFFFFFFFFFFFFFFFFFFFFFFFFFFFFFF
310
FFFFFFFFFFFFFFFFFFFFFFFFFFFFFFFFFFFFFFFFFFFFFFFFFFFFFFFFFFFFFFFF
310
FFFFFFFFFFFFFFFFFFFFFFFFFFFFFFFFFFFFFFFFFFFFFFFFFFFFFFFFFFFFFFFF
310
FFFFFFFFFFFFFFFFFFFFFFFFFFFFFFFFFFFFFFFFFFFFFFFFFFFFFFFFFFFFFFFF
310
FFFFFFFFFFFFFFFFFFFFFFFFFFFFFFFFFFFFFFFFFFFFFFFFFFFFFFFFFFFFFFFF
310
0100000200000000000000000000000000000000500260018C008200B0004004
310
20AEFD3500000000C802250000000000B0028003800380033001500250024004
310
0100FEFF030A0000FFFFFFFF0A00030000000000C00000000000004607000000
310
5042727573680007000000504272757368000700000050427275736800F439B2
310
7100000000000000000000000003200320032003200320032003B002E0032003
310
200320032003800320032003B002B002B002B002B002B00280035002B002B002
310
B002B002F001F001500250028003B002B002B002B002B002B002B0028003B002
310
B002B002B002B002B002B0020000803F00000000000000007E00900000000004
310
A80A250000000000A80A2500000000000000000000000000000080BF00000000
310
0000000000000000000080BF0000000000000000000034430000803F00000000
310
000000000000000000000000000080BF00000000000000000000803F00000000
310
0000000000000000000000000000803F00000000000000000000000000000000
310
0000803F000000000000000000000000000000000000803F0400000000000000
310
4050A463FF0700003051A463FF0700006052A463FF070000E053A463FF070000
310
6052A463FF0700008050A463FF0700008051A463FF070000C052A463FF070000
310
6054A463FF070000E056A463FF070000D055A463FF0700000000000000000000
310
20260000424D0E260000000000003E00000028000000B40200006E0000000100
310
01000000000000000000130B0000130B00000200000002000000000000FFFFFF
310
FFFFFFFFFFFFFFFFFFFFFFFFFFFFFFFFFFFFFFFFFFFFFFFFFFFFFFFFFFFFFFFF
310
FFFFFFFFFFFFFFFFFFFFFFFFFFFFFFFFFFFFFFFFFFFFFFFFFFFFFFFFFFFFFFFF
310
FFFFFFFFFFFFFFFFFFFFFFFFFFFFFFFFFFFFFFFFFFFFFFFFF000FFFFFFFFFFFF
310
FFFFFFFFFFFFFFFFFFFFFFFFFFFFFFFFFFFFFFFFFFFFFFFFFFFFFFFFFFFFFFFF
310
FFFFFFFFFFFFFFFFFFFFFFFFFFFFFFFFFFFFFFFFFFFFFFFFFFFFFFFFFFFFFFFF
310
FFFFFFFFFFFFFFFFFFFFFFFFFFFFFFFFF000FFFFFFFFFFFFFFFFFFFFFFFFFFFF
310
FFFFFFFFFFFFFFFFFFFFFFFFFFFFFFFFFFFFFFFFFFFFFFFFFFFFFFFFFFFFFFFF
310
FFFFFFFFFFFFFFFFFFFFFFFFFFFFFFFFFFFFFFFFFFFFFFFFFFFFFFFFFFFFFFFF
310
FFFFFFFFFFFFFFFFF000FFFFFFFFFFFFFFFFFFFFFFFFFFFFFFFFFFFFFFFFFFFF
310
FFFFFFFFFFFFFFFFFFFFFFFFFFFFFFFFFFFFFFFFFFFFFFFFFFFFFFFFFFFFFFFF
310
FFFFFFFFFFFFFFFFFFFFFFFFFFFFFFFFFFFFFFFFFFFFFFFFFFFFFFFFFFFFFFFF
310
F000FFFFFFFFFFFFFFFFFFFFFFFFFFFFFFFFFFFFFFFFFFFFFFFFFFFFFFFFFFFF
310
FFFFFFFFFFFFFFFFFFFFFFFFFFFFFFFFFFFFFFFFFFFFFFFFFFFFFFFFFFFFFFFF
310
FFFFFFFFFFFFFFFFFFFFFFFFFFFFFFFFFFFFFFFFFFFFFFFFF000FFFFFFFFFFFF
310
FFFFFFFFFFFFFFFFFFFFFFFFFFFFFFFFFFFFFFFFFFFFFFFFFFFFFFFFFFFFFFFF
310
FFFFFFFFFFFFFFFFFFFFFFFFFFFFFFFFFFFFFFFFFFFFFFFFFFFFFFFFFFFFFFFF
310
FFFFFFFFFFFFFFFFFFFFFFFFFFFFFFFFF000FFFFFFFFFFFFFFFFFFFFFFFFFFFF
310
FFFFFFFFFFFFFFFFFFFFFFFFFFFFFFFFFFFFFFFFFFFFFFFFFFFFFFFFFFFFFFFF
310
FFFFFFFFFFFFFFFFFFFFFFFFFFFFFFFFFFFFFFFFFFFFFFFFFFFFFFFFFFFFFFFF
310
FFFFFFFFFFFFFFFFF000FFFFFFFFFFFFFFFFFFFFFFFFFFFFFFFFFFFFFFFFFFFF
310
FFFFFFFFFFFFFFFFFFFFFFFFFFFFFFFFFFFFFFFFFFFFFFFFFFFFFFFFFFFFFFFF
310
FFFFFFFFFFFFFFFFFFFFFFFFFFFFFFFFFFFFFFFFFFFFFFFFFFFFFFFFFFFFFFFF
310
F000FFFFFFFFFFFFFFFFFFFFFFFFFFFFFFFFFFFFFFFFFFFFFFFFFFFFFFFFFFFF
310
FFFFFFFFFFFFFFFFFFFFFFFFFFFFFFFFFFFFFFFFFFFFFFFFFFFFFFFFFFFFFFFF
310
FFFFFFFFFFFFFFFFFFFFFFFFFFFFFFFFFFFFFFFFFFFFFFFFF000FFFFFFFFFFFF
310
FFFFFFFFFFFFFFFFFFFFFFFFFFFFFFFFFFFFFFFFFFFFFFFFFFFFFFFFFFFFFFFF
310
FFFFFFFFFFFFFFFFFFFFFFFFFFFFFFFFFFFFFFFFFFFFFFFFFFFFFFFFFFFFFFFF
310
FFFFFFFFFFFFFFFFFFFFFFFFFFFFFFFFF000FFFFFFFFFFFFFFFFFFFFFFFFFFFF
310
FFFFFFFFFFFFFFFFFFFFFFFFFFFFFFFFFFFFFFFFFFFFFFFFFFFFFFFFFFFFFFFF
310
FFFFFFFFFFFFFFFFFFFFFFFFFFFFFFFFFFFFFFFFFFFFFFFFFFFFFFFFFFFFFFFF
310
FFFFFFFFFFFFFFFFF000FFFFFFFFFFFFFFFFFFFFFFFFFFFFFFFFFFFFFFFFFFFF
310
FFFFFFFFFFFFFFFFFFFFFFFFFFFFFFFFFFFFFFFFFFFFFFFFFFFFFFFFFFFFFFFF
310
FFFFFFFFFFFFFFFFFFFFFFFFFFFFFFFFFFFFFFFFFFFFFFFFFFFFFFFFFFFFFFFF
310
F000FFFFFFFFFFFFFFFFFFFFFFFFFFFFFFFFFFFFFFFFFFFFFFFFFFFFFFFFFFFF
310
FFFFFFFFFFFFFFFFFFFFFFFFFFFFFFFFFFFFFFFFFFFFFFFFFFFFFFFFFFFFFFFF
310
FFFFFFFFFFFFFFFFFFFFFFFFFFFFFFFFFFFFFFFFFFFFFFFFF000FFFFFFFFFFFF
310
FFFFFFFFFFFFFFFFFFFFFFFFFFFFFFFFFFFFFFFFFFFFFFFFFFFFFFFFFFFFFFFF
310
FFFFFFFFFFFFFFFFFFFFFFFFFFFFFFFFFFFFFFFFFFFFFFFFFFFFFFFFFFFFFFFF
310
FFFFFFFFFFFFFFFFFFFFFFFFFFFFFFFFF000FFFFFFFFFFFFFFFFFFFFFFFFFFFF
310
FFFFFFFFFFFFFFFFFFFFFFFFFFFFFFFFFFFFFFFFFFFFFFFFFFFFFFFFFFFFFFFF
310
FFFFFFFFFFFFFFFFFFFFFFFFFFFFFFFFFFFFFFFFFFFFFFFFFFFFFFFFFFFFFFFF
310
FFFFFFFFFFFFFFFFF000FFFFFFFFFFFFFFFFFFFFFFFFFFFFFFFFFFFFFFFFFFFF
310
FFFFFFFFFFFFFFFFFFFFFFFFFFFFFFFFFFFFFFFFFFFFFFFFFFFFFFFFFFFFFFFF
310
FFFFFFFFFFFFFFFFFFFFFFFFFFFFFFFFFFFFFFFFFFFFFFFFFFFFFFFFFFFFFFFF
310
F000FFFFFFFFFFFFFFFFFFFFFFFFFFFFFFFFFFFFFFFFFFFFFFFFFFFFFFFFFFFF
310
FFFFFFFFFFFFFFFFFFFFFFFFFFFFFFFFFFFFFFFFFFFFFFFFFFFFFFFFFFFFFFFF
310
FFFFFFFFFFFFFFFFFFFFFFFFFFFFFFFFFFFFFFFFFFFFFFFFF000FFFFFFFFFFFF
310
FFFFFFFFFFFFFFFFFFFFFFFFFFFFFFFFFFFFFFFFFFFFFFFFFFFFFFFFFFFFFFFF
310
FFFFFFFFFFFFFFFFFFFFFFFFFFFFFFFFFFFFFFFFFFFFFFFFFFFFFFFFFFFFFFFF
310
FFFFFFFFFFFFFFFFFFFFFFFFFFFFFFFFF000FFFFFFFFFFFFFFFFFFFFFFFFFFFF
310
FFFFFFFFFFFFFFFFFFFFFFFFFFFFFFFFFFFFFFFFFFFFFFFFFFFFFFFFFFFFFFFF
310
FFFFFFFFFFFFFFFFFFFFFFFFFFFFFFFFFFFFFFFFFFFFFFFFFFFFFFFFFFFFFFFF
310
FFFFFFFFFFFFFFFFF000FFFFF80003FFFFFFFFFFFFFFFFFFFFFFFFFFFFFFFFFF
310
FFFFF00007FFFFFFFFFF00007FFFFFF800000000000000007FFFFFFFFFFFFFFF
310
FFFFFFFC001FFFFFFFFFFFFFFC001FFFFFFFFFFFFFFFFFFFFFFFFFFE0007FFFF
310
F000FFFF8000007FFFFFFFF8000FFFFFC0007FFFFF80007FFFFF0000007FFFFF
310
FFF8000007FFFFF800000000000000007FFFFFF0001FFFFFFFFFFFC00001FFFF
310
FFFFFFFFC00001FFFFFFFF000000000003FFFFE000007FFFF000FFFE0000000F
310
FFFFFFF0000FFFFF80007FFFFF80007FFFFC0000001FFFFFFFC0000001FFFFF8
310
00000000000000007FFFFFF0001FFFFFFFFFFE0000003FFFFFFFFFFE0000003F
310
FFFFFF000000000003FFFF0000000FFFF000FFF800000003FFFFFFF00007FFFF
310
80007FFFFF80007FFFF000000007FFFFFF000000003FFFF80000000000000000
310
7FFFFFF0001FFFFFFFFFF80000000FFFFFFFFFF80000000FFFFFFF0000000000
310
03FFFC00000003FFF000FFE000000000FFFFFFF00007FFFF80003FFFFF80007F
310
FFC000000001FFFFFC000000001FFFF800000000000000007FFFFFF0001FFFFF
310
FFFFE000000003FFFFFFFFE000000003FFFFFF000000000003FFF000000000FF
310
F000FF80000000007FFFFFF00007FFFF80003FFFFF80007FFF8000000000FFFF
310
F80000000007FFF800000000000000007FFFFFF0001FFFFFFFFFC000000001FF
310
FFFFFFC000000001FFFFFF000000000003FFC0000000007FF000FF0000000000
310
3FFFFFE00007FFFF00003FFFFF80007FFE00000000003FFFF00000000003FFF8
310
00000000000000007FFFFFF0001FFFFFFFFF8000000000FFFFFFFF8000000000
310
FFFFFF000000000003FF80000000003FF000FE00000000001FFFFFE00003FFFF
310
00003FFFFF80007FFC00000000001FFFE00000000001FFF8000001FFFE000000
310
7FFFFFF0001FFFFFFFFE00000000003FFFFFFE00000000003FFFFF0000000000
310
03FF00000000001FF000FC00000000000FFFFFE00003FFFF00001FFFFF80007F
310
F800000000001FFFC00000000000FFF8000001FFFE0000007FFFFFF0001FFFFF
310
FFFC00000000001FFFFFFC00000000001FFFFF000000000003FE00000000000F
310
F000F8000000000007FFFFE00003FFFF00001FFFFF80007FF800000000000FFF
310
800000000000FFF8000001FFFE0000007FFFFFF0001FFFFFFFF800000000000F
310
FFFFF800000000000FFFFF000000000003FC000000000007F000F80000000000
310
03FFFFC00003FFFE00001FFFFF80007FF0000000000007FF0000000000007FF8
310
000001FFFE0000007FFFFFF0001FFFFFFFF0000000000007FFFFF00000000000
310
07FFFF000000000003F8000000000003F000F0000000000003FFFFC00001FFFE
310
00001FFFFF80007FE0000000000007FE0000000000003FF8000001FFFE000000
310
7FFFFFF0001FFFFFFFF0000000000007FFFFF0000000000007FFFF0000000000
310
03F800001F800003F000E00001FFF00001FFFFC00001FFFE00000FFFFF80007F
310
E00001FFE00003FE00001FFF00003FF8000001FFFE0000007FFFFFF0001FFFFF
310
FFE000003E000003FFFFE000003E000003FFFF000000000003F00001FFF80001
310
F000E00007FFFC0001FFFFC00001FFFE00000FFFFF80007FC0000FFFFC0003FC
310
0000FFFFC0001FF8000001FFFE0000007FFFFFF0001FFFFFFFC00003FFE00001
310
FFFFC00003FFE00001FFFF0001FFFFFFFFF00007FFFE0001F000E0000FFFFF00
310
00FFFF800001FFFC00000FFFFF80007FC0001FFFFE0001FC0001FFFFE0001FF8
310
000001FFFE0000007FFFFFF0001FFFFFFF80000FFFF80000FFFF80000FFFF800
310
00FFFF0003FFFFFFFFE0000FFFFF8000F000C0003FFFFF8000FFFF800000FFFC
310
000007FFFF80007F80003FFFFF0001FC0003FFFFF0001FF8000001FFFE000000
310
7FFFFFF0001FFFFFFF80003FFFFE0000FFFF80003FFFFE0000FFFF0003FFFFFF
310
FFE0003FFFFF8000F000C0003FFFFF8000FFFF800000FFFC000007FFFF80007F
310
80007FFFFF8001F80007FFFFF8000FF8000001FFFE0000007FFFFFF0001FFFFF
310
FF00007FFFFF00007FFF00007FFFFF00007FFF0003FFFFFFFFE0003FFFFFC000
310
F000C0007FFFFFC000FFFF000000FFFC000007FFFF80007F8000FFFFFF8000F8
310
000FFFFFF8000FF8000001FFFE0000007FFFFFF0001FFFFFFF0000FFFFFF8000
310
7FFF0000FFFFFF80007FFF0003FFFFFFFFC0007FFFFFC00070008000FFFFFFC0
310
00FFFF000000FFF8000007FFFF80007F8000FFFFFF8000F8000FFFFFF8000FF8
310
000001FFFE0000007FFFFFF0001FFFFFFE0001FFFFFFC0003FFE0001FFFFFFC0
310
003FFF0003FFFFFFFFC0007FFFFFE00070008000FFFFFFC0007FFF0000007FF8
310
000003FFFF80007F0001FFFFFF8000F8000FFFFFF8000FF8000001FFFE000000
310
7FFFFFF0001FFFFFFE0001FFFFFFC0003FFE0001FFFFFFC0003FFF0003FFFFFF
310
FFC000FFFFFFE00070008000FFFFFFC0007FFF0000007FF8000003FFFF80007F
310
0001FFFFFF8000F8001FFFFFF8000FF8000001FFFE0000007FFFFFF0001FFFFF
310
FE0003FFFFFFE0003FFE0003FFFFFFE0003FFF0003FFFFFFFFC000FFFFFFE000
310
70008000FFFFFFC0007FFE0000007FF8000003FFFF80007F0001FFFFFF8000F0
310
001FFFFFF8000FF8000001FFFE0000007FFFFFF0001FFFFFFC0003FFFFFFE000
310
1FFC0003FFFFFFE0001FFF0003FFFFFFFFC000FFFFFFC00070008000FFFFFF80
310
007FFE0000007FF0000003FFFF80007F0001FFFFFF0000F0001FFFFFF8000FF8
310
000001FFFE0000007FFFFFF0001FFFFFFC0007FFFFFFF0001FFC0007FFFFFFF0
310
001FFF0003FFFFFFFFC000FFFFFFC00070008001FFFFFF0000FFFE0000003FF0
310
000001FFFF80007F0001FFFFFF0000F8001FFFFFF0000FF8000001FFFE000000
310
7FFFFFF0001FFFFFFC0007FFFFFFF0001FFC0007FFFFFFF0001FFF0003FFFFFF
310
FFC001FFFFFF80007000FFFFFFFFFE0000FFFE0008003FF0008001FFFF80007F
310
FFFFFFFFFC0000FFFFFFFFFFE0000FF8000001FFFE0000007FFFFFF0001FFFFF
310
F8000FFFFFFFF8000FF8000FFFFFFFF8000FFF0003FFFFFFFFFFFFFFFFFF0000
310
7000FFFFFFFFFC0000FFFC0008003FF0008001FFFF80007FFFFFFFFFF80001FF
310
FFFFFFFF80000FF8000001FFFE0000007FFFFFF0001FFFFFF8000FFFFFFFF800
310
0FF8000FFFFFFFF8000FFF0003FFFFFFFFFFFFFFFFFE0000F000FFFFFFFFE000
310
00FFFC000C003FE000C001FFFF80007FFFFFFFFFC00001FFFFFFFFFE00001FF8
310
000001FFFE0000007FFFFFF0001FFFFFF8000FFFFFFFF8000FF8000FFFFFFFF8
310
000FFF0003FFFFFFFFFFFFFFFFF00000F000FFFFFFFE000001FFFC000C001FE0
310
00C000FFFF80007FFFFFFFFE000001FFFFFFFFE000001FF80FFFFFFFFFFFFFC0
310
7FFFFFF0001FFFFFF8000FFFFFFFF8000FF8000FFFFFFFF8000FFF0003FFFFFF
310
FFFFFFFFFF800000F000FFFFFFC0000001FFFC001C001FE001C000FFFF80007F
310
FFFFFF80000003FFFFFFF80000001FF80FFFFFFFFFFFFFC07FFFFFF0001FFFFF
310
F8001FFFFFFFFC000FF8001FFFFFFFFC000FFF0003FFFFFFFFFFFFFFF0000001
310
F000FFFFF800000001FFF8001C001FE001C000FFFF80007FFFFFF800000003FF
310
FFFF800000003FF80FFFFFFFFFFFFFC07FFFFFF0001FFFFFF8001FFFFFFFFC00
310
0FF8001FFFFFFFFC000FFF0003FFFFFFFFFFFFFE00000001F000FFFFC0000000
310
03FFF8001E001FC001E000FFFF80007FFFFF8000000007FFFFFC000000003FF8
310
0FFFFFFFFFFFFFC07FFFFFF0001FFFFFF8001FFFFFFFFC000FF8001FFFFFFFFC
310
000FFF0003FFFFFFFFFFFFE000000003F000FFFE0000000007FFF8001E000FC0
310
01E0007FFF80007FFFFE0000000007FFFFE0000000007FF80FFFFFFFFFFFFFC0
310
7FFFFFF0001FFFFFF0001FFFFFFFFC0007F0001FFFFFFFFC0007FF0003FFFFFF
310
FFFFFF0000000003F000FFF80000000007FFF8001E000FC003E0007FFF80007F
310
FFF0000000000FFFFF8000000000FFF80FFFFFFFFFFFFFC07FFFFFF0001FFFFF
310
F0001FFFFFFFFC0007F0001FFFFFFFFC0007FF0003FFFFFFFFFFFC0000000007
310
F000FFE0000000000FFFF0003E000FC003E0007FFF80007FFFC0000000001FFF
310
FE0000000001FFF80FFFFFFFFFFFFFC07FFFFFF0001FFFFFF0001FFFFFFFFC00
310
07F0001FFFFFFFFC0007FF0003FFFFFFFFFFF0000000000FF000FFC000000000
310
1FFFF0003F000F8003F0003FFF80007FFF80000000003FFFF80000000003FFF8
310
0FFFFFFFFFFFFFC07FFFFFF0001FFFFFF0001FFFFFFFFC0007F0001FFFFFFFFC
310
0007FF0003FFFFFFFFFFE0000000001FF000FF00000000007FFFF0003F000780
310
03F0003FFF80007FFF00000000007FFFF00000000007FFF80FFFFFFFFFFFFFC0
310
7FFFFFF0001FFFFFF0001FFFFFFFFC0007F0001FFFFFFFFC0007FF0003FFFFFF
310
FFFF80000000007FF000FE0000000000FFFFE0003F00078007F0003FFF80007F
310
FE0000000001FFFFE0000000001FFFF80FFFFFFFFFFFFFC07FFFFFF0001FFFFF
310
F0001FFFFFFFFC0007F0001FFFFFFFFC0007FF0003FFFFFFFFFF0000000000FF
310
F000FC0000000003FFFFE0007F00078007F0003FFF80007FFC0000000007FFFF
310
C0000000007FFFF80FFFFFFFFFFFFFC07FFFFFF0001FFFFFF8001FFFFFFFFC00
310
0FF8001FFFFFFFFC000FFF0003FFFFFFFFFE0000000003FFF000FC000000000F
310
FFFFE0007F80070007F8001FFF80007FF8000000001FFFFF8000000001FFFFF8
310
0FFFFFFFFFFFFFC07FFFFFF0001FFFFFF8001FFFFFFFFC000FF8001FFFFFFFFC
310
000FFF0003FFFFFFFFFC000000000FFFF000F8000000007FFFFFE0007F800700
310
07F8001FFF80007FF000000000FFFFFF800000000FFFFFF80FFFFFFFFFFFFFC0
310
7FFFFFF0001FFFFFF8000FFFFFFFF8000FF8000FFFFFFFF8000FFF0003FFFFFF
310
FFFC000000007FFFF000F800000007FFFFFFC0007F8003000FF8001FFF80007F
310
F000000007FFFFFF000000007FFFFFF80FFFFFFFFFFFFFC07FFFFFF0001FFFFF
310
F8000FFFFFFFF8000FF8000FFFFFFFF8000FFF0003FFFFFFFFF80000000FFFFF
310
F000F0000000FFFFFFFFC000FF8003000FF8001FFF80007FE0000000FFFFFFFF
310
0000000FFFFFFFF8000001FFFE0000007FFFFFF0001FFFFFF8000FFFFFFFF800
310
0FF8000FFFFFFFF8000FFF0003FFFFFFFFF8000000FFFFFFF000F000000FFFFF
310
FFFFC000FFC002000FF8000FFF80007FE000001FFFFFFFFE000001FFFFFFFFF8
310
000001FFFE0000007FFFFFF0001FFFFFF8000FFFFFFFF8000FF8000FFFFFFFF8
310
000FFF0003FFFFFFFFF000001FFFFFFFF000E00000FFFFFFFFFFC000FFC00200
310
0FFC000FFF80007FE00001FFFFFFFFFE00001FFFFFFFFFF8000001FFFE000000
310
7FFFFFF0001FFFFFFC000FFFFFFFF8001FFC000FFFFFFFF8001FFF0003FFFFFF
310
FFF00001FFFFFFFFF000E00007FFFFFFFFFF8000FFC000001FFC000FFF80007F
310
C0000FFFFFFFFFFE0000FFFFFFFFFFF8000001FFFE0000007FFFFFF0001FFFFF
310
FC0007FFFFFFF0001FFC0007FFFFFFF0001FFF0003FFFFFFFFF00007FFFFFFFF
310
F000E0001FFFFFFFFFFF8000FFC000001FFC000FFF80007FC0003FFFFFFFFFFE
310
0001FFFFFFFFFFF8000001FFFE0000007FFFFFF0001FFFFFFC0007FFFFFFF000
310
1FFC0007FFFFFFF0001FFF0003FFFFFFFFF0001FFFFFFFFFF000E0003FFFFF00
310
03FF8001FFE000001FFC0007FF80007FC0007FFFFF0007FC0003FFFFF0003FF8
310
000001FFFE0000007FFFFFF0001FFFFFFC0003FFFFFFE0001FFC0003FFFFFFE0
310
001FFF0003FFFFFFFFF0003FFFFFFFFFF000E0003FFFFF0001FF8001FFE00000
310
1FFE0007FF80007FC0007FFFFE0003FC0007FFFFE0003FF8000001FFFE000000
310
7FFFFFF0001FFFFFFE0003FFFFFFE0003FFE0003FFFFFFE0003FFF0003FFFFFF
310
FFF0003FFFFF8001F000E0003FFFFF0001FF0001FFE000001FFE0007FF80007F
310
C0007FFFFE0003FC0007FFFFE0003FF8000001FFFE0000007FFFFFF0001FFFFF
310
FE0001FFFFFFC0003FFE0001FFFFFFC0003FFF0003FFFFFFFFF0003FFFFF0001
310
F000E0003FFFFF0003FF0001FFE000003FFE0007FF80007FC0007FFFFE0003FC
310
0007FFFFE0003FF8000001FFFE0000007FFFFFF0001FFFFFFF0001FFFFFFC000
310
7FFF0001FFFFFFC0007FFF0003FFFFFFFFF0003FFFFF0001F000E0003FFFFE00
310
03FF0003FFF000003FFE0003FF80007FC0007FFFFC0003FE0007FFFFE0003FF8
310
000001FFFE0000007FFFFFF0001FFFFFFF0000FFFFFF80007FFF0000FFFFFF80
310
007FFF0003FFFFFFFFF0003FFFFF0001F000E0003FFFFE0003FF0003FFF00000
310
3FFF0003FF80007FC0007FFFFC0007FE0007FFFFC0003FF8000001FFFE000000
310
7FFFFFF0001FFFFFFF80007FFFFF0000FFFF80007FFFFF0000FFFF0003FFFFFF
310
FFF0003FFFFF0003F000E0003FFFFC0003FE0003FFF000003FFF0003FF80007F
310
E0003FFFF80007FE0003FFFFC0007FF8000001FFFE0000007FFFFFF0001FFFFF
310
FF80003FFFFE0000FFFF80003FFFFE0000FFFF0003FFFFFFFFF0001FFFFE0003
310
F000F0001FFFF80003FE0003FFF000007FFF0001FF80007FE0003FFFF00007FE
310
0001FFFF80007FF8000001FFFE0000007FFFFFF0001FFFFFFFC0000FFFF80001
310
FFFFC0000FFFF80001FFFF0003FFFFFFFFF0001FFFFC0003F000F0000FFFF000
310
07FE0007FFF800007FFF0001FF80007FE0001FFFE00007FF0000FFFE00007FF8
310
000001FFFE0000007FFFFFF0001FFFFFFFC00003FFE00001FFFFC00003FFE000
310
01FFFF0003FFFFFFFFF8000FFFF80003F000F00003FFC00007FC0007FFF80000
310
7FFF8001FF80007FF00007FF80000FFF00007FF80000FFF8000001FFFE000000
310
7F80000000000001FFE000003E000003FFFFE000003E000003FFFF0003FFFFFF
310
FFF80003FFE00007F000F800000000000FFC0007FFF800007FFF8001FF80007F
310
F000000000000FFF000000000000FFF8000001FFFE0000007F80000000000001
310
FFF0000000000007FFFFF0000000000007FFFF0003FFFFFFFFFC00007E000007
310
F000F800000000000FFC0007FFF80000FFFF8000FF80007FF800000000001FFF
310
800000000001FFF8000001FFFE0000007F80000000000001FFF800000000000F
310
FFFFF800000000000FFFFF0003FFFFFFFFFC00000000000FF000FC0000000000
310
1FFC0007FFFC0000FFFF8000FF80007FF800000000003FFFC00000000001FFF8
310
000001FFFE0000007F80000000000001FFF800000000000FFFFFF80000000000
310
0FFFFF0003FFFFFFFFFE00000000001FF000FE00000000003FF8000FFFFC0000
310
FFFF8000FF80007FFC00000000003FFFC00000000003FFF8000001FFFE000000
310
7F80000000000001FFFC00000000001FFFFFFC00000000001FFFFF0003FFFFFF
310
FFFF00000000001FF000FF00000000003FF8000FFFFC0000FFFFC000FF80007F
310
FE00000000007FFFE00000000007FFF8000001FFFE0000007F80000000000001
310
FFFE00000000003FFFFFFE00000000003FFFFF0003FFFFFFFFFF80000000003F
310
F000FF80000000007FF8000FFFFC0001FFFFC0007F80007FFF0000000000FFFF
310
F0000000000FFFF800000000000000007F80000000000001FFFF8000000000FF
310
FFFFFF8000000000FFFFFF0003FFFFFFFFFFC0000000007FF000FFC000000000
310
FFF8000FFFFE0001FFFFC0007F80007FFF8000000001FFFFF8000000001FFFF8
310
00000000000000007F80000000000001FFFFC000000001FFFFFFFFC000000001
310
FFFFFF0003FFFFFFFFFFE000000000FFF000FFE000000003FFF0001FFFFE0001
310
FFFFC0007F80007FFFC000000007FFFFFE000000003FFFF80000000000000000
310
7F80000000000001FFFFE000000003FFFFFFFFE000000003FFFFFF0003FFFFFF
310
FFFFF000000003FFF000FFF80000000FFFF0001FFFFE0001FFFFE0007F80007F
310
FFF00000000FFFFFFF00000000FFFFF800000000000000007F80000000000001
310
FFFFF80000000FFFFFFFFFF80000000FFFFFFF0003FFFFFFFFFFFC0000000FFF
310
F000FFFE0000003FFFF0001FFFFE0003FFFFE0003F80007FFFFC0000003FFFFF
310
FFC0000003FFFFF800000000000000007F80000000000001FFFFFE0000003FFF
310
FFFFFFFE0000003FFFFFFF0003FFFFFFFFFFFF0000003FFFF000FFFF800000FF
310
FFF0001FFFFF0003FFFFE0003F80007FFFFF000001FFFFFFFFF800001FFFFFF8
310
00000000000000007F80000000000001FFFFFFC00001FFFFFFFFFFFFC00001FF
310
FFFFFF0003FFFFFFFFFFFFC00000FFFFF000FFFFF8000FFFFFFFFFFFFFFFFFFF
310
FFFFFFFFFFFFFFFFFFFFF0001FFFFFFFFFFF0000FFFFFFF80000000000000000
310
7FFFFFFFFFFFFFFFFFFFFFFC001FFFFFFFFFFFFFFC001FFFFFFFFFFFFFFFFFFF
310
FFFFFFFC001FFFFFF000FFFFFFFFFFFFFFFFFFFFFFFFFFFFFFFFFFFFFFFFFFFF
310
FFFFFFFFFFFFFFFFFFFFFFFFFFFFFFFFFFFFFFFFFFFFFFFFFFFFFFFFFFFFFFFF
310
FFFFFFFFFFFFFFFFFFFFFFFFFFFFFFFFFFFFFFFFFFFFFFFFFFFFFFFFFFFFFFFF
310
F000FFFFFFFFFFFFFFFFFFFFFFFFFFFFFFFFFFFFFFFFFFFFFFFFFFFFFFFFFFFF
310
FFFFFFFFFFFFFFFFFFFFFFFFFFFFFFFFFFFFFFFFFFFFFFFFFFFFFFFFFFFFFFFF
310
FFFFFFFFFFFFFFFFFFFFFFFFFFFFFFFFFFFFFFFFFFFFFFFFF000FFFFFFFFFFFF
310
FFFFFFFFFFFFFFFFFFFFFFFFFFFFFFFFFFFFFFFFFFFFFFFFFFFFFFFFFFFFFFFF
310
FFFFFFFFFFFFFFFFFFFFFFFFFFFFFFFFFFFFFFFFFFFFFFFFFFFFFFFFFFFFFFFF
310
FFFFFFFFFFFFFFFFFFFFFFFFFFFFFFFFF000FFFFFFFFFFFFFFFFFFFFFFFFFFFF
310
FFFFFFFFFFFFFFFFFFFFFFFFFFFFFFFFFFFFFFFFFFFFFFFFFFFFFFFFFFFFFFFF
310
FFFFFFFFFFFFFFFFFFFFFFFFFFFFFFFFFFFFFFFFFFFFFFFFFFFFFFFFFFFFFFFF
310
FFFFFFFFFFFFFFFFF000FFFFFFFFFFFFFFFFFFFFFFFFFFFFFFFFFFFFFFFFFFFF
310
FFFFFFFFFFFFFFFFFFFFFFFFFFFFFFFFFFFFFFFFFFFFFFFFFFFFFFFFFFFFFFFF
310
FFFFFFFFFFFFFFFFFFFFFFFFFFFFFFFFFFFFFFFFFFFFFFFFFFFFFFFFFFFFFFFF
310
F000FFFFFFFFFFFFFFFFFFFFFFFFFFFFFFFFFFFFFFFFFFFFFFFFFFFFFFFFFFFF
310
FFFFFFFFFFFFFFFFFFFFFFFFFFFFFFFFFFFFFFFFFFFFFFFFFFFFFFFFFFFFFFFF
310
FFFFFFFFFFFFFFFFFFFFFFFFFFFFFFFFFFFFFFFFFFFFFFFFF000FFFFFFFFFFFF
310
FFFFFFFFFFFFFFFFFFFFFFFFFFFFFFFFFFFFFFFFFFFFFFFFFFFFFFFFFFFFFFFF
310
FFFFFFFFFFFFFFFFFFFFFFFFFFFFFFFFFFFFFFFFFFFFFFFFFFFFFFFFFFFFFFFF
310
FFFFFFFFFFFFFFFFFFFFFFFFFFFFFFFFF000FFFFFFFFFFFFFFFFFFFFFFFFFFFF
310
FFFFFFFFFFFFFFFFFFFFFFFFFFFFFFFFFFFFFFFFFFFFFFFFFFFFFFFFFFFFFFFF
310
FFFFFFFFFFFFFFFFFFFFFFFFFFFFFFFFFFFFFFFFFFFFFFFFFFFFFFFFFFFFFFFF
310
FFFFFFFFFFFFFFFFF000FFFFFFFFFFFFFFFFFFFFFFFFFFFFFFFFFFFFFFFFFFFF
310
FFFFFFFFFFFFFFFFFFFFFFFFFFFFFFFFFFFFFFFFFFFFFFFFFFFFFFFFFFFFFFFF
310
FFFFFFFFFFFFFFFFFFFFFFFFFFFFFFFFFFFFFFFFFFFFFFFFFFFFFFFFFFFFFFFF
310
F000FFFFFFFFFFFFFFFFFFFFFFFFFFFFFFFFFFFFFFFFFFFFFFFFFFFFFFFFFFFF
310
FFFFFFFFFFFFFFFFFFFFFFFFFFFFFFFFFFFFFFFFFFFFFFFFFFFFFFFFFFFFFFFF
310
FFFFFFFFFFFFFFFFFFFFFFFFFFFFFFFFFFFFFFFFFFFFFFFFF000FFFFFFFFFFFF
310
FFFFFFFFFFFFFFFFFFFFFFFFFFFFFFFFFFFFFFFFFFFFFFFFFFFFFFFFFFFFFFFF
310
FFFFFFFFFFFFFFFFFFFFFFFFFFFFFFFFFFFFFFFFFFFFFFFFFFFFFFFFFFFFFFFF
310
FFFFFFFFFFFFFFFFFFFFFFFFFFFFFFFFF000FFFFFFFFFFFFFFFFFFFFFFFFFFFF
310
FFFFFFFFFFFFFFFFFFFFFFFFFFFFFFFFFFFFFFFFFFFFFFFFFFFFFFFFFFFFFFFF
310
FFFFFFFFFFFFFFFFFFFFFFFFFFFFFFFFFFFFFFFFFFFFFFFFFFFFFFFFFFFFFFFF
310
FFFFFFFFFFFFFFFFF000FFFFFFFFFFFFFFFFFFFFFFFFFFFFFFFFFFFFFFFFFFFF
310
FFFFFFFFFFFFFFFFFFFFFFFFFFFFFFFFFFFFFFFFFFFFFFFFFFFFFFFFFFFFFFFF
310
FFFFFFFFFFFFFFFFFFFFFFFFFFFFFFFFFFFFFFFFFFFFFFFFFFFFFFFFFFFFFFFF
310
F000FFFFFFFFFFFFFFFFFFFFFFFFFFFFFFFFFFFFFFFFFFFFFFFFFFFFFFFFFFFF
310
FFFFFFFFFFFFFFFFFFFFFFFFFFFFFFFFFFFFFFFFFFFFFFFFFFFFFFFFFFFFFFFF
310
FFFFFFFFFFFFFFFFFFFFFFFFFFFFFFFFFFFFFFFFFFFFFFFFF000FFFFFFFFFFFF
310
FFFFFFFFFFFFFFFFFFFFFFFFFFFFFFFFFFFFFFFFFFFFFFFFFFFFFFFFFFFFFFFF
310
FFFFFFFFFFFFFFFFFFFFFFFFFFFFFFFFFFFFFFFFFFFFFFFFFFFFFFFFFFFFFFFF
310
FFFFFFFFFFFFFFFFFFFFFFFFFFFFFFFFF000FFFFFFFFFFFFFFFFFFFFFFFFFFFF
310
FFFFFFFFFFFFFFFFFFFFFFFFFFFFFFFFFFFFFFFFFFFFFFFFFFFFFFFFFFFFFFFF
310
FFFFFFFFFFFFFFFFFFFFFFFFFFFFFFFFFFFFFFFFFFFFFFFFFFFFFFFFFFFFFFFF
310
FFFFFFFFFFFFFFFFF000FFFFFFFFFFFFFFFFFFFFFFFFFFFFFFFFFFFFFFFFFFFF
310
FFFFFFFFFFFFFFFFFFFFFFFFFFFFFFFFFFFFFFFFFFFFFFFFFFFFFFFFFFFFFFFF
310
FFFFFFFFFFFFFFFFFFFFFFFFFFFFFFFFFFFFFFFFFFFFFFFFFFFFFFFFFFFFFFFF
310
F000FFFFFFFFFFFFFFFFFFFFFFFFFFFFFFFFFFFFFFFFFFFFFFFFFFFFFFFFFFFF
310
FFFFFFFFFFFFFFFFFFFFFFFFFFFFFFFFFFFFFFFFFFFFFFFFFFFFFFFFFFFFFFFF
310
FFFFFFFFFFFFFFFFFFFFFFFFFFFFFFFFFFFFFFFFFFFFFFFFF000FFFFFFFFFFFF
310
FFFFFFFFFFFFFFFFFFFFFFFFFFFFFFFFFFFFFFFFFFFFFFFFFFFFFFFFFFFFFFFF
310
FFFFFFFFFFFFFFFFFFFFFFFFFFFFFFFFFFFFFFFFFFFFFFFFFFFFFFFFFFFFFFFF
310
FFFFFFFFFFFFFFFFFFFFFFFFFFFFFFFFF000FFFFFFFFFFFFFFFFFFFFFFFFFFFF
310
FFFFFFFFFFFFFFFFFFFFFFFFFFFFFFFFFFFFFFFFFFFFFFFFFFFFFFFFFFFFFFFF
310
FFFFFFFFFFFFFFFFFFFFFFFFFFFFFFFFFFFFFFFFFFFFFFFFFFFFFFFFFFFFFFFF
310
FFFFFFFFFFFFFFFFF000FFFFFFFFFFFFFFFFFFFFFFFFFFFFFFFFFFFFFFFFFFFF
310
FFFFFFFFFFFFFFFFFFFFFFFFFFFFFFFFFFFFFFFFFFFFFFFFFFFFFFFFFFFFFFFF
310
FFFFFFFFFFFFFFFFFFFFFFFFFFFFFFFFFFFFFFFFFFFFFFFFFFFFFFFFFFFFFFFF
310
F000FFFFFFFFFFFFFFFFFFFFFFFFFFFFFFFFFFFFFFFFFFFFFFFFFFFFFFFFFFFF
310
FFFFFFFFFFFFFFFFFFFFFFFFFFFFFFFFFFFFFFFFFFFFFFFFFFFFFFFFFFFFFFFF
310
FFFFFFFFFFFFFFFFFFFFFFFFFFFFFFFFFFFFFFFFFFFFFFFFF000FFFFFFFFFFFF
310
FFFFFFFFFFFFFFFFFFFFFFFFFFFFFFFFFFFFFFFFFFFFFFFFFFFFFFFFFFFFFFFF
310
FFFFFFFFFFFFFFFFFFFFFFFFFFFFFFFFFFFFFFFFFFFFFFFFFFFFFFFFFFFFFFFF
310
FFFFFFFFFFFFFFFFFFFFFFFFFFFFFFFFF0000000000000000000000000000000
310
00000000FF07000080E3A163FF070000309AA163FF0700000000000000000000
310
00000000010000000100000000000000B0EFA163FF0700000000000000000000
310
0000000000000000000000000000000000000000780020C7780020C700000000
310
0000000000000000000000000000000000000000000000000000000000000000
310
0000000000000000000000000000000000000000000000000000000000000000
310
0000000000000000000000000000000000000000000000000000000000000000
310
0000000000000000000000000000000000000000000000000000000000000000
310
0000000000000000000000000000000000000000000000000000000000000000
310
0000000000000000000000000000000000000000000000000000000000000000
310
0000000000000000000000000000000000000000000000000000000000000000
310
0000000000000000000000000000000000000000000000000000000000000000
310
0000000000000000500000004000000000000000000000000000000000000000
310
0000000000000000000000000000000050639D63FF07000040AE9D63FF070000
310
0000000000000000000000000000000000000000000000000000000000000000
310
0000000000000000000000000000000000000000000000000000000000000000
  1
OLE
  0
ENDSEC
  0
SECTION
  2
OBJECTS
  0
DICTIONARY
  5
C
330
0
100
AcDbDictionary
281
     1
  3
ACAD_GROUP
350
D
  3
ACAD_LAYOUT
350
1A
  3
ACAD_MLEADERSTYLE
350
203
  3
ACAD_MLINESTYLE
350
17
  3
ACAD_PLOTSETTINGS
350
19
  3
ACAD_PLOTSTYLENAME
350
E
  3
ACAD_TABLESTYLE
350
202
  3
ACAD_VISUALSTYLE
350
2A
  3
AcDbVariableDictionary
350
204
  0
DICTIONARY
  5
D
102
{ACAD_REACTORS
330
C
102
}
330
C
100
AcDbDictionary
281
     1
  0
DICTIONARY
  5
1A
102
{ACAD_REACTORS
330
C
102
}
330
C
100
AcDbDictionary
281
     1
  3
Layout1
350
1E
  3
Layout2
350
26
  3
Model
350
22
  0
DICTIONARY
  5
203
102
{ACAD_REACTORS
330
C
102
}
330
C
100
AcDbDictionary
281
     1
  0
DICTIONARY
  5
17
102
{ACAD_REACTORS
330
C
102
}
330
C
100
AcDbDictionary
281
     1
  3
Standard
350
18
  0
DICTIONARY
  5
19
102
{ACAD_REACTORS
330
C
102
}
330
C
100
AcDbDictionary
281
     1
  0
ACDBDICTIONARYWDFLT
  5
E
102
{ACAD_REACTORS
330
C
102
}
330
C
100
AcDbDictionary
281
     1
  3
Normal
350
F
100
AcDbDictionaryWithDefault
340
F
  0
DICTIONARY
  5
202
102
{ACAD_REACTORS
330
C
102
}
330
C
100
AcDbDictionary
281
     1
  0
DICTIONARY
  5
2A
102
{ACAD_REACTORS
330
C
102
}
330
C
100
AcDbDictionary
281
     1
  3
2dWireframe
350
2F
  3
3D Hidden
350
31
  3
3dWireframe
350
30
  3
Basic
350
32
  3
Brighten
350
36
  3
ColorChange
350
3A
  3
Conceptual
350
34
  3
Dim
350
35
  3
Facepattern
350
39
  3
Flat
350
2B
  3
FlatWithEdges
350
2C
  3
Gouraud
350
2D
  3
GouraudWithEdges
350
2E
  3
Linepattern
350
38
  3
Realistic
350
33
  3
Thicken
350
37
  0
DICTIONARY
  5
204
102
{ACAD_REACTORS
330
C
102
}
330
C
100
AcDbDictionary
281
     1
  3
PSOLHEIGHT
350
206
  3
PSOLWIDTH
350
205
  0
LAYOUT
  5
1E
102
{ACAD_REACTORS
330
1A
102
}
330
1A
100
AcDbPlotSettings
  1

  2
none_device
  4

  6

 40
0.0
 41
0.0
 42
0.0
 43
0.0
 44
0.0
 45
0.0
 46
0.0
 47
0.0
 48
0.0
 49
0.0
140
0.0
141
0.0
142
1.0
143
1.0
 70
   688
 72
     0
 73
     0
 74
     5
  7

 75
    16
147
1.0
148
0.0
149
0.0
100
AcDbLayout
  1
Layout1
 70
     1
 71
     1
 10
0.0
 20
0.0
 11
420.0
 21
297.0
 12
0.0
 22
0.0
 32
0.0
 14
1.0000000000E+20
 24
1.0000000000E+20
 34
1.0000000000E+20
 15
-1.0000000000E+20
 25
-1.0000000000E+20
 35
-1.0000000000E+20
146
0.0
 13
0.0
 23
0.0
 33
0.0
 16
1.0
 26
0.0
 36
0.0
 17
0.0
 27
1.0
 37
0.0
 76
     0
330
1B
  0
LAYOUT
  5
26
102
{ACAD_REACTORS
330
1A
102
}
330
1A
100
AcDbPlotSettings
  1

  2
none_device
  4

  6

 40
0.0
 41
0.0
 42
0.0
 43
0.0
 44
0.0
 45
0.0
 46
0.0
 47
0.0
 48
0.0
 49
0.0
140
0.0
141
0.0
142
1.0
143
1.0
 70
   688
 72
     0
 73
     0
 74
     5
  7

 75
    16
147
1.0
148
0.0
149
0.0
100
AcDbLayout
  1
Layout2
 70
     1
 71
     2
 10
0.0
 20
0.0
 11
0.0
 21
0.0
 12
0.0
 22
0.0
 32
0.0
 14
0.0
 24
0.0
 34
0.0
 15
0.0
 25
0.0
 35
0.0
146
0.0
 13
0.0
 23
0.0
 33
0.0
 16
1.0
 26
0.0
 36
0.0
 17
0.0
 27
1.0
 37
0.0
 76
     0
330
23
  0
LAYOUT
  5
22
102
{ACAD_REACTORS
330
1A
102
}
330
1A
100
AcDbPlotSettings
  1

  2
none_device
  4

  6

 40
0.0
 41
0.0
 42
0.0
 43
0.0
 44
0.0
 45
0.0
 46
0.0
 47
0.0
 48
0.0
 49
0.0
140
0.0
141
0.0
142
1.0
143
1.0
 70
  1712
 72
     0
 73
     0
 74
     0
  7

 75
     0
147
1.0
148
0.0
149
0.0
100
AcDbLayout
  1
Model
 70
     1
 71
     0
 10
0.0
 20
0.0
 11
297.0
 21
210.0
 12
0.0
 22
0.0
 32
0.0
 14
0.0
 24
0.0
 34
0.0
 15
297.0
 25
210.0
 35
0.0
146
0.0
 13
0.0
 23
0.0
 33
0.0
 16
1.0
 26
0.0
 36
0.0
 17
0.0
 27
1.0
 37
0.0
 76
     0
330
1F
331
29
  0
MLINESTYLE
  5
18
102
{ACAD_REACTORS
330
17
102
}
330
17
100
AcDbMlineStyle
  2
Standard
 70
     0
  3

 62
   256
 51
90.0
 52
90.0
 71
     2
 49
0.5
 62
   256
  6
BYLAYER
 49
-0.5
 62
   256
  6
BYLAYER
  0
ACDBPLACEHOLDER
  5
F
102
{ACAD_REACTORS
330
E
102
}
330
E
  0
VISUALSTYLE
  5
2F
102
{ACAD_REACTORS
330
2A
102
}
330
2A
100
AcDbVisualStyle
  2
2dWireframe
 70
     4
 71
     0
 72
     2
 73
     0
 90
        0
 40
-0.6
 41
-30.0
 62
     5
 63
     7
 74
     1
 91
        4
 64
     7
 65
   257
 75
     1
175
     1
 42
1.0
 92
        0
 66
   257
 43
1.0
 76
     1
 77
     6
 78
     2
 67
     7
 79
     5
170
     0
171
     0
290
     0
174
     0
 93
        1
 44
0.0
173
     0
291
     0
 45
0.0
1001
ACAD
1000
AcDbSavedByObjectVersion
1070
     0
  0
VISUALSTYLE
  5
31
102
{ACAD_REACTORS
330
2A
102
}
330
2A
100
AcDbVisualStyle
  2
3D Hidden
 70
     6
 71
     1
 72
     2
 73
     2
 90
        0
 40
-0.6
 41
-30.0
 62
     5
 63
     7
 74
     2
 91
        2
 64
     7
 65
   257
 75
     2
175
     1
 42
40.0
 92
        0
 66
   257
 43
1.0
 76
     1
 77
     6
 78
     2
 67
     7
 79
     3
170
     0
171
     0
290
     0
174
     0
 93
        1
 44
0.0
173
     0
291
     0
 45
0.0
1001
ACAD
1000
AcDbSavedByObjectVersion
1070
     0
  0
VISUALSTYLE
  5
30
102
{ACAD_REACTORS
330
2A
102
}
330
2A
100
AcDbVisualStyle
  2
3dWireframe
 70
     5
 71
     0
 72
     2
 73
     0
 90
        0
 40
-0.6
 41
-30.0
 62
     5
 63
     7
 74
     1
 91
        4
 64
     7
 65
   257
 75
     1
175
     1
 42
1.0
 92
        0
 66
   257
 43
1.0
 76
     1
 77
     6
 78
     2
 67
     7
 79
     5
170
     0
171
     0
290
     0
174
     0
 93
        1
 44
0.0
173
     0
291
     0
 45
0.0
1001
ACAD
1000
AcDbSavedByObjectVersion
1070
     0
  0
VISUALSTYLE
  5
32
102
{ACAD_REACTORS
330
2A
102
}
330
2A
100
AcDbVisualStyle
  2
Basic
 70
     7
 71
     1
 72
     0
 73
     1
 90
        0
 40
-0.6
 41
-30.0
 62
     5
 63
     7
 74
     0
 91
        4
 64
     7
 65
   257
 75
     1
175
     1
 42
1.0
 92
        8
 66
     7
 43
1.0
 76
     1
 77
     6
 78
     2
 67
     7
 79
     5
170
     0
171
     0
290
     0
174
     0
 93
        1
 44
0.0
173
     0
291
     1
 45
0.0
1001
ACAD
1000
AcDbSavedByObjectVersion
1070
     0
  0
VISUALSTYLE
  5
36
102
{ACAD_REACTORS
330
2A
102
}
330
2A
100
AcDbVisualStyle
  2
Brighten
 70
    12
 71
     2
 72
     2
 73
     0
 90
        0
 40
-0.6
 41
-30.0
 62
     5
 63
     7
 74
     1
 91
        4
 64
     7
 65
   257
 75
     1
175
     1
 42
1.0
 92
        8
 66
     7
 43
1.0
 76
     1
 77
     6
 78
     2
 67
     7
 79
     5
170
     0
171
     0
290
     0
174
     0
 93
        1
 44
50.0
173
     0
291
     1
 45
0.0
1001
ACAD
1000
AcDbSavedByObjectVersion
1070
     0
  0
VISUALSTYLE
  5
3A
102
{ACAD_REACTORS
330
2A
102
}
330
2A
100
AcDbVisualStyle
  2
ColorChange
 70
    16
 71
     2
 72
     2
 73
     3
 90
        0
 40
-0.6
 41
-30.0
 62
     5
 63
     8
 74
     1
 91
        4
 64
     7
 65
   257
 75
     1
175
     1
 42
1.0
 92
        8
 66
     8
 43
1.0
 76
     1
 77
     6
 78
     2
 67
     7
 79
     5
170
     0
171
     0
290
     0
174
     0
 93
        1
 44
0.0
173
     0
291
     1
 45
0.0
1001
ACAD
1000
AcDbSavedByObjectVersion
1070
     0
  0
VISUALSTYLE
  5
34
102
{ACAD_REACTORS
330
2A
102
}
330
2A
100
AcDbVisualStyle
  2
Conceptual
 70
     9
 71
     3
 72
     2
 73
     0
 90
        0
 40
-0.6
 41
-30.0
 62
     5
 63
     7
 74
     2
 91
        2
 64
     7
 65
   257
 75
     1
175
     1
 42
40.0
 92
        8
 66
     7
 43
1.0
 76
     1
 77
     6
 78
     2
 67
     7
 79
     3
170
     0
171
     0
290
     0
174
     0
 93
        1
 44
0.0
173
     0
291
     0
 45
0.0
1001
ACAD
1000
AcDbSavedByObjectVersion
1070
     0
  0
VISUALSTYLE
  5
35
102
{ACAD_REACTORS
330
2A
102
}
330
2A
100
AcDbVisualStyle
  2
Dim
 70
    11
 71
     2
 72
     2
 73
     0
 90
        0
 40
-0.6
 41
-30.0
 62
     5
 63
     7
 74
     1
 91
        4
 64
     7
 65
   257
 75
     1
175
     1
 42
1.0
 92
        8
 66
     7
 43
1.0
 76
     1
 77
     6
 78
     2
 67
     7
 79
     5
170
     0
171
     0
290
     0
174
     0
 93
        1
 44
-50.0
173
     0
291
     1
 45
0.0
1001
ACAD
1000
AcDbSavedByObjectVersion
1070
     0
  0
VISUALSTYLE
  5
39
102
{ACAD_REACTORS
330
2A
102
}
330
2A
100
AcDbVisualStyle
  2
Facepattern
 70
    15
 71
     2
 72
     2
 73
     0
 90
        0
 40
-0.6
 41
-30.0
 62
     5
 63
     7
 74
     1
 91
        4
 64
     7
 65
   257
 75
     1
175
     1
 42
1.0
 92
        8
 66
     7
 43
1.0
 76
     1
 77
     6
 78
     2
 67
     7
 79
     5
170
     0
171
     0
290
     0
174
     0
 93
        1
 44
0.0
173
     0
291
     1
 45
0.0
1001
ACAD
1000
AcDbSavedByObjectVersion
1070
     0
  0
VISUALSTYLE
  5
2B
102
{ACAD_REACTORS
330
2A
102
}
330
2A
100
AcDbVisualStyle
  2
Flat
 70
     0
 71
     2
 72
     1
 73
     1
 90
        2
 40
-0.6
 41
30.0
 62
     5
 63
     7
 74
     0
 91
        4
 64
     7
 65
   257
 75
     1
175
     1
 42
1.0
 92
        8
 66
     7
 43
1.0
 76
     1
 77
     6
 78
     2
 67
     7
 79
     5
170
     0
171
     0
290
     0
174
     0
 93
       13
 44
0.0
173
     0
291
     1
 45
0.0
1001
ACAD
1000
AcDbSavedByObjectVersion
1070
     0
  0
VISUALSTYLE
  5
2C
102
{ACAD_REACTORS
330
2A
102
}
330
2A
100
AcDbVisualStyle
  2
FlatWithEdges
 70
     1
 71
     2
 72
     1
 73
     1
 90
        2
 40
-0.6
 41
30.0
 62
     5
 63
     7
 74
     1
 91
        4
 64
     7
 65
   257
 75
     1
175
     1
 42
1.0
 92
        0
 66
   257
 43
1.0
 76
     1
 77
     6
 78
     2
 67
     7
 79
     5
170
     0
171
     0
290
     0
174
     0
 93
       13
 44
0.0
173
     0
291
     1
 45
0.0
1001
ACAD
1000
AcDbSavedByObjectVersion
1070
     0
  0
VISUALSTYLE
  5
2D
102
{ACAD_REACTORS
330
2A
102
}
330
2A
100
AcDbVisualStyle
  2
Gouraud
 70
     2
 71
     2
 72
     2
 73
     1
 90
        2
 40
-0.6
 41
30.0
 62
     5
 63
     7
 74
     0
 91
        4
 64
     7
 65
   257
 75
     1
175
     1
 42
1.0
 92
        0
 66
     7
 43
1.0
 76
     1
 77
     6
 78
     2
 67
     7
 79
     5
170
     0
171
     0
290
     0
174
     0
 93
       13
 44
0.0
173
     0
291
     1
 45
0.0
1001
ACAD
1000
AcDbSavedByObjectVersion
1070
     0
  0
VISUALSTYLE
  5
2E
102
{ACAD_REACTORS
330
2A
102
}
330
2A
100
AcDbVisualStyle
  2
GouraudWithEdges
 70
     3
 71
     2
 72
     2
 73
     1
 90
        2
 40
-0.6
 41
30.0
 62
     5
 63
     7
 74
     1
 91
        4
 64
     7
 65
   257
 75
     1
175
     1
 42
1.0
 92
        0
 66
   257
 43
1.0
 76
     1
 77
     6
 78
     2
 67
     7
 79
     5
170
     0
171
     0
290
     0
174
     0
 93
       13
 44
0.0
173
     0
291
     1
 45
0.0
1001
ACAD
1000
AcDbSavedByObjectVersion
1070
     0
  0
VISUALSTYLE
  5
38
102
{ACAD_REACTORS
330
2A
102
}
330
2A
100
AcDbVisualStyle
  2
Linepattern
 70
    14
 71
     2
 72
     2
 73
     0
 90
        0
 40
-0.6
 41
-30.0
 62
     5
 63
     7
 74
     1
 91
        4
 64
     7
 65
   257
 75
     7
175
     7
 42
1.0
 92
        8
 66
     7
 43
1.0
 76
     1
 77
     6
 78
     2
 67
     7
 79
     5
170
     0
171
     0
290
     0
174
     0
 93
        1
 44
0.0
173
     0
291
     1
 45
0.0
1001
ACAD
1000
AcDbSavedByObjectVersion
1070
     0
  0
VISUALSTYLE
  5
33
102
{ACAD_REACTORS
330
2A
102
}
330
2A
100
AcDbVisualStyle
  2
Realistic
 70
     8
 71
     2
 72
     2
 73
     0
 90
        0
 40
-0.6
 41
-30.0
 62
     5
 63
     7
 74
     1
 91
        0
 64
     7
 65
   257
 75
     1
175
     1
 42
1.0
 92
        8
 66
     8
 43
1.0
 76
     1
 77
     6
 78
     2
 67
     7
 79
     5
170
     0
171
     0
290
     0
174
     0
 93
       13
 44
0.0
173
     0
291
     0
 45
0.0
1001
ACAD
1000
AcDbSavedByObjectVersion
1070
     0
  0
VISUALSTYLE
  5
37
102
{ACAD_REACTORS
330
2A
102
}
330
2A
100
AcDbVisualStyle
  2
Thicken
 70
    13
 71
     2
 72
     2
 73
     0
 90
        0
 40
-0.6
 41
-30.0
 62
     5
 63
     7
 74
     1
 91
        4
 64
     7
 65
   257
 75
     1
175
     1
 42
1.0
 92
       12
 66
     7
 43
1.0
 76
     1
 77
     6
 78
     2
 67
     7
 79
     5
170
     0
171
     0
290
     0
174
     0
 93
        1
 44
0.0
173
     0
291
     1
 45
0.0
1001
ACAD
1000
AcDbSavedByObjectVersion
1070
     0
  0
DICTIONARYVAR
  5
206
102
{ACAD_REACTORS
330
204
102
}
330
204
100
DictionaryVariables
280
     0
  1
80.000000
  0
DICTIONARYVAR
  5
205
102
{ACAD_REACTORS
330
204
102
}
330
204
100
DictionaryVariables
280
     0
  1
5.000000
  0
ENDSEC
  0
EOF
