  0
SECTION
  2
HEADER
  9
$ACADVER
  1
AC1015
  9
$ACADMAINTVER
 70
     6
  9
$DWGCODEPAGE
  3
ANSI_1252
  9
$INSBASE
 10
0.0
 20
0.0
 30
0.0
  9
$EXTMIN
 10
0.0
 20
0.0
 30
0.0
  9
$EXTMAX
 10
297.0
 20
210.0
 30
0.0
  9
$LIMMIN
 10
0.0
 20
0.0
  9
$LIMMAX
 10
297.0
 20
210.0
  9
$ORTHOMODE
 70
     0
  9
$REGENMODE
 70
     1
  9
$FILLMODE
 70
     1
  9
$QTEXTMODE
 70
     0
  9
$MIRRTEXT
 70
     1
  9
$LTSCALE
 40
1.0
  9
$ATTMODE
 70
     1
  9
$TEXTSIZE
 40
2.0
  9
$TRACEWID
 40
1.0
  9
$TEXTSTYLE
  7
Standard
  9
$CLAYER
  8
0
  9
$CELTYPE
  6
ByLayer
  9
$CECOLOR
 62
   256
  9
$CELTSCALE
 40
1.0
  9
$DISPSILH
 70
     0
  9
$DIMSCALE
 40
1.0
  9
$DIMASZ
 40
3.0
  9
$DIMEXO
 40
0.0
  9
$DIMDLI
 40
3.75
  9
$DIMRND
 40
0.0
  9
$DIMDLE
 40
0.0
  9
$DIMEXE
 40
1.0
  9
$DIMTP
 40
0.0
  9
$DIMTM
 40
0.0
  9
$DIMTXT
 40
2.0
  9
$DIMCEN
 40
2.5
  9
$DIMTSZ
 40
0.0
  9
$DIMTOL
 70
     0
  9
$DIMLIM
 70
     0
  9
$DIMTIH
 70
     1
  9
$DIMTOH
 70
     1
  9
$DIMSE1
 70
     0
  9
$DIMSE2
 70
     0
  9
$DIMTAD
 70
     1
  9
$DIMZIN
 70
     0
  9
$DIMBLK
  1

  9
$DIMASO
 70
     1
  9
$DIMSHO
 70
     1
  9
$DIMPOST
  1

  9
$DIMAPOST
  1

  9
$DIMALT
 70
     0
  9
$DIMALTD
 70
     3
  9
$DIMALTF
 40
0.0393700787
  9
$DIMLFAC
 40
1.0
  9
$DIMTOFL
 70
     1
  9
$DIMTVP
 40
0.0
  9
$DIMTIX
 70
     0
  9
$DIMSOXD
 70
     0
  9
$DIMSAH
 70
     0
  9
$DIMBLK1
  1

  9
$DIMBLK2
  1

  9
$DIMSTYLE
  2
ISO-25
  9
$DIMCLRD
 70
     0
  9
$DIMCLRE
 70
     0
  9
$DIMCLRT
 70
     0
  9
$DIMTFAC
 40
1.0
  9
$DIMGAP
 40
1.524
  9
$DIMJUST
 70
     0
  9
$DIMSD1
 70
     0
  9
$DIMSD2
 70
     0
  9
$DIMTOLJ
 70
     0
  9
$DIMTZIN
 70
     0
  9
$DIMALTZ
 70
     0
  9
$DIMALTTZ
 70
     0
  9
$DIMUPT
 70
     0
  9
$DIMDEC
 70
     2
  9
$DIMTDEC
 70
     3
  9
$DIMALTU
 70
     2
  9
$DIMALTTD
 70
     3
  9
$DIMTXSTY
  7
Standard
  9
$DIMAUNIT
 70
     0
  9
$DIMADEC
 70
     2
  9
$DIMALTRND
 40
0.0
  9
$DIMAZIN
 70
     0
  9
$DIMDSEP
 70
    44
  9
$DIMATFIT
 70
     3
  9
$DIMFRAC
 70
     0
  9
$DIMLDRBLK
  1

  9
$DIMLUNIT
 70
     2
  9
$DIMLWD
 70
    -2
  9
$DIMLWE
 70
    -2
  9
$DIMTMOVE
 70
     0
  9
$LUNITS
 70
     2
  9
$LUPREC
 70
     2
  9
$SKETCHINC
 40
1.0
  9
$FILLETRAD
 40
10.0
  9
$AUNITS
 70
     0
  9
$AUPREC
 70
     2
  9
$MENU
  1
.
  9
$ELEVATION
 40
0.0
  9
$PELEVATION
 40
0.0
  9
$THICKNESS
 40
0.0
  9
$LIMCHECK
 70
     0
  9
$CHAMFERA
 40
10.0
  9
$CHAMFERB
 40
10.0
  9
$CHAMFERC
 40
20.0
  9
$CHAMFERD
 40
0.0
  9
$SKPOLY
 70
     0
  9
$TDCREATE
 40
2455684.33086868
  9
$TDUCREATE
 40
2455684.247535347
  9
$TDUPDATE
 40
2455684.330868692
  9
$TDUUPDATE
 40
2455684.247535359
  9
$TDINDWG
 40
0.0000000116
  9
$TDUSRTIMER
 40
0.0000000116
  9
$USRTIMER
 70
     1
  9
$ANGBASE
 50
0.0
  9
$ANGDIR
 70
     0
  9
$PDMODE
 70
     0
  9
$PDSIZE
 40
-1.0
  9
$PLINEWID
 40
0.0
  9
$SPLFRAME
 70
     0
  9
$SPLINETYPE
 70
     6
  9
$SPLINESEGS
 70
     8
  9
$HANDSEED
  5
207
  9
$SURFTAB1
 70
     6
  9
$SURFTAB2
 70
     6
  9
$SURFTYPE
 70
     6
  9
$SURFU
 70
     6
  9
$SURFV
 70
     6
  9
$UCSBASE
  2

  9
$UCSNAME
  2

  9
$UCSORG
 10
0.0
 20
0.0
 30
0.0
  9
$UCSXDIR
 10
1.0
 20
0.0
 30
0.0
  9
$UCSYDIR
 10
0.0
 20
1.0
 30
0.0
  9
$UCSORTHOREF
  2

  9
$UCSORTHOVIEW
 70
     0
  9
$UCSORGTOP
 10
0.0
 20
0.0
 30
0.0
  9
$UCSORGBOTTOM
 10
0.0
 20
0.0
 30
0.0
  9
$UCSORGLEFT
 10
0.0
 20
0.0
 30
0.0
  9
$UCSORGRIGHT
 10
0.0
 20
0.0
 30
0.0
  9
$UCSORGFRONT
 10
0.0
 20
0.0
 30
0.0
  9
$UCSORGBACK
 10
0.0
 20
0.0
 30
0.0
  9
$PUCSBASE
  2

  9
$PUCSNAME
  2

  9
$PUCSORG
 10
0.0
 20
0.0
 30
0.0
  9
$PUCSXDIR
 10
1.0
 20
0.0
 30
0.0
  9
$PUCSYDIR
 10
0.0
 20
1.0
 30
0.0
  9
$PUCSORTHOREF
  2

  9
$PUCSORTHOVIEW
 70
     0
  9
$PUCSORGTOP
 10
0.0
 20
0.0
 30
0.0
  9
$PUCSORGBOTTOM
 10
0.0
 20
0.0
 30
0.0
  9
$PUCSORGLEFT
 10
0.0
 20
0.0
 30
0.0
  9
$PUCSORGRIGHT
 10
0.0
 20
0.0
 30
0.0
  9
$PUCSORGFRONT
 10
0.0
 20
0.0
 30
0.0
  9
$PUCSORGBACK
 10
0.0
 20
0.0
 30
0.0
  9
$USERI1
 70
     0
  9
$USERI2
 70
     0
  9
$USERI3
 70
     0
  9
$USERI4
 70
     0
  9
$USERI5
 70
     0
  9
$USERR1
 40
0.0
  9
$USERR2
 40
0.0
  9
$USERR3
 40
0.0
  9
$USERR4
 40
0.0
  9
$USERR5
 40
0.0
  9
$WORLDVIEW
 70
     1
  9
$SHADEDGE
 70
     3
  9
$SHADEDIF
 70
    70
  9
$TILEMODE
 70
     1
  9
$MAXACTVP
 70
    64
  9
$PINSBASE
 10
0.0
 20
0.0
 30
0.0
  9
$PLIMCHECK
 70
     0
  9
$PEXTMIN
 10
1.0000000000E+20
 20
1.0000000000E+20
 30
1.0000000000E+20
  9
$PEXTMAX
 10
-1.0000000000E+20
 20
-1.0000000000E+20
 30
-1.0000000000E+20
  9
$PLIMMIN
 10
0.0
 20
0.0
  9
$PLIMMAX
 10
420.0
 20
297.0
  9
$UNITMODE
 70
     0
  9
$VISRETAIN
 70
     1
  9
$PLINEGEN
 70
     0
  9
$PSLTSCALE
 70
     1
  9
$TREEDEPTH
 70
  3020
  9
$CMLSTYLE
  2
Standard
  9
$CMLJUST
 70
     0
  9
$CMLSCALE
 40
20.0
  9
$PROXYGRAPHICS
 70
     1
  9
$MEASUREMENT
 70
     1
  9
$CELWEIGHT
370
    -1
  9
$ENDCAPS
280
     0
  9
$JOINSTYLE
280
     0
  9
$LWDISPLAY
290
     1
  9
$INSUNITS
 70
     4
  9
$HYPERLINKBASE
  1

  9
$STYLESHEET
  1

  9
$XEDIT
290
     1
  9
$CEPSNTYPE
380
     0
  9
$PSTYLEMODE
290
     1
  9
$FINGERPRINTGUID
  2
{E8481D20-F17A-48E8-B5AE-53985390FE12}
  9
$VERSIONGUID
  2
{FAEB1C32-E019-11D5-929B-00C0DF256EC4}
  9
$EXTNAMES
290
     1
  9
$PSVPSCALE
 40
0.0
  9
$OLESTARTUP
290
     0
  0
ENDSEC
  0
SECTION
  2
CLASSES
  0
CLASS
  1
ACDBDICTIONARYWDFLT
  2
AcDbDictionaryWithDefault
  3
ObjectDBX Classes
 90
        0
280
     0
281
     0
  0
CLASS
  1
VISUALSTYLE
  2
AcDbVisualStyle
  3
ObjectDBX Classes
 90
     4095
280
     0
281
     0
  0
CLASS
  1
DICTIONARYVAR
  2
AcDbDictionaryVar
  3
ObjectDBX Classes
 90
        0
280
     0
281
     0
  0
CLASS
  1
ACDBPLACEHOLDER
  2
AcDbPlaceHolder
  3
ObjectDBX Classes
 90
        0
280
     0
281
     0
  0
CLASS
  1
LAYOUT
  2
AcDbLayout
  3
ObjectDBX Classes
 90
        0
280
     0
281
     0
  0
ENDSEC
  0
SECTION
  2
TABLES
  0
TABLE
  2
VPORT
  5
8
330
0
100
AcDbSymbolTable
 70
     1
  0
VPORT
  5
29
330
8
100
AcDbSymbolTableRecord
100
AcDbViewportTableRecord
  2
*Active
 70
     0
 10
0.0
 20
0.0
 11
1.0
 21
1.0
 12
148.5
 22
105.0
 13
0.0
 23
0.0
 14
10.0
 24
10.0
 15
10.0
 25
10.0
 16
0.0
 26
0.0
 36
1.0
 17
0.0
 27
0.0
 37
0.0
 40
210.0
 41
1.4142857143
 42
50.0
 43
0.0
 44
0.0
 50
0.0
 51
0.0
 71
     0
 72
  2000
 73
     1
 74
     3
 75
     0
 76
     0
 77
     0
 78
     0
281
     0
 65
     1
110
0.0
120
0.0
130
0.0
111
1.0
121
0.0
131
0.0
112
0.0
122
1.0
132
0.0
 79
     0
146
0.0
  0
ENDTAB
  0
TABLE
  2
LTYPE
  5
5
330
0
100
AcDbSymbolTable
 70
     6
  0
LTYPE
  5
14
330
5
100
AcDbSymbolTableRecord
100
AcDbLinetypeTableRecord
  2
ByBlock
 70
     0
  3

 72
    65
 73
     0
 40
0.0
  0
LTYPE
  5
15
330
5
100
AcDbSymbolTableRecord
100
AcDbLinetypeTableRecord
  2
ByLayer
 70
     0
  3

 72
    65
 73
     0
 40
0.0
  0
LTYPE
  5
16
330
5
100
AcDbSymbolTableRecord
100
AcDbLinetypeTableRecord
  2
Continuous
 70
     0
  3
Solid line
 72
    65
 73
     0
 40
0.0
  0
LTYPE
  5
3B
330
5
100
AcDbSymbolTableRecord
100
AcDbLinetypeTableRecord
  2
HIDDEN
 70
     0
  3
Hidden __ __ __ __ __ __ __ __ __ __ __ __ __ __
 72
    65
 73
     2
 40
1.905
 49
1.27
 74
     0
 49
-0.635
 74
     0
  0
LTYPE
  5
3C
330
5
100
AcDbSymbolTableRecord
100
AcDbLinetypeTableRecord
  2
PHANTOM
 70
     0
  3
Phantom ______  __  __  ______  __  __  ______
 72
    65
 73
     6
 40
12.7
 49
6.35
 74
     0
 49
-1.27
 74
     0
 49
1.27
 74
     0
 49
-1.27
 74
     0
 49
1.27
 74
     0
 49
-1.27
 74
     0
  0
LTYPE
  5
3D
330
5
100
AcDbSymbolTableRecord
100
AcDbLinetypeTableRecord
  2
CENTER
 70
     0
  3
Center ____ _ ____ _ ____ _ ____ _ ____ _ ____
 72
    65
 73
     4
 40
10.16
 49
6.35
 74
     0
 49
-1.27
 74
     0
 49
1.27
 74
     0
 49
-1.27
 74
     0
  0
LTYPE
  5
3E
330
5
100
AcDbSymbolTableRecord
100
AcDbLinetypeTableRecord
  2
CENTERX2
 70
     0
  3
Center (2x) ________  __  ________  __  _____
 72
    65
 73
     4
 40
20.32
 49
12.7
 74
     0
 49
-2.54
 74
     0
 49
2.54
 74
     0
 49
-2.54
 74
     0
  0
LTYPE
  5
3F
330
5
100
AcDbSymbolTableRecord
100
AcDbLinetypeTableRecord
  2
DOT2
 70
     0
  3
Dot (.5x) ........................................
 72
    65
 73
     2
 40
0.635
 49
0.0
 74
     0
 49
-0.635
 74
     0
  0
ENDTAB
  0
TABLE
  2
LAYER
  5
2
330
0
100
AcDbSymbolTable
 70
     5
  0
LAYER
  5
10
330
2
100
AcDbSymbolTableRecord
100
AcDbLayerTableRecord
  2
0
 70
     0
 62
     7
  6
Continuous
370
    -3
390
F
  0
LAYER
  5
40
330
2
100
AcDbSymbolTableRecord
100
AcDbLayerTableRecord
  2
FORMAT
 70
     0
 62
     7
  6
Continuous
370
    -3
390
F
  0
LAYER
  5
41
330
2
100
AcDbSymbolTableRecord
100
AcDbLayerTableRecord
  2
VERMASSUNG
 70
     0
 62
     7
  6
Continuous
370
    -3
390
F
  0
LAYER
  5
42
330
2
100
AcDbSymbolTableRecord
100
AcDbLayerTableRecord
  2
KOPF_DÜNN
 70
     0
 62
     7
  6
Continuous
370
    -3
390
F
  0
LAYER
  5
43
330
2
100
AcDbSymbolTableRecord
100
AcDbLayerTableRecord
  2
KOPF_DICK
 70
     0
 62
     7
  6
Continuous
370
    15
390
F
  0
ENDTAB
  0
TABLE
  2
STYLE
  5
3
330
0
100
AcDbSymbolTable
 70
     3
  0
STYLE
  5
11
330
3
100
AcDbSymbolTableRecord
100
AcDbTextStyleTableRecord
  2
Standard
 70
     0
 40
0.0
 41
1.0
 50
0.0
 71
     0
 42
2.5
  3
txt
  4

  0
STYLE
  5
44
330
3
100
AcDbSymbolTableRecord
100
AcDbTextStyleTableRecord
  2
SLDTEXTSTYLE0
 70
     0
 40
0.0
 41
0.7
 50
0.0
 71
     0
 42
0.2
  3
TXT
  4

  0
STYLE
  5
48
330
3
100
AcDbSymbolTableRecord
100
AcDbTextStyleTableRecord
  2
SLDTEXTSTYLE1
 70
     0
 40
0.0
 41
0.65
 50
0.0
 71
     0
 42
0.2
  3
TXT
  4

  0
ENDTAB
  0
TABLE
  2
VIEW
  5
6
330
0
100
AcDbSymbolTable
 70
     0
  0
ENDTAB
  0
TABLE
  2
UCS
  5
7
330
0
100
AcDbSymbolTable
 70
     0
  0
ENDTAB
  0
TABLE
  2
APPID
  5
9
330
0
100
AcDbSymbolTable
 70
     1
  0
APPID
  5
12
330
9
100
AcDbSymbolTableRecord
100
AcDbRegAppTableRecord
  2
ACAD
 70
     0
  0
ENDTAB
  0
TABLE
  2
DIMSTYLE
  5
A
330
0
100
AcDbSymbolTable
 70
     5
100
AcDbDimStyleTable
  0
DIMSTYLE
105
27
330
A
100
AcDbSymbolTableRecord
100
AcDbDimStyleTableRecord
  2
ISO-25
 70
     0
 41
2.5
 42
0.625
 43
3.75
 44
1.25
 73
     0
 74
     0
 77
     1
 78
     8
140
2.5
141
2.5
143
0.0393700787
147
0.625
171
     3
172
     1
271
     2
272
     2
274
     3
278
    44
283
     0
284
     8
340
11
  0
DIMSTYLE
105
1A7
102
{ACAD_REACTORS
330
1A6
330
1D7
330
1E1
330
1EB
330
1F5
102
}
330
A
100
AcDbSymbolTableRecord
100
AcDbDimStyleTableRecord
  2
SLDDIMSTYLE0
 70
     0
 41
3.0
 44
0.0
 45
0.000000001
 73
     0
 74
     0
 77
     1
 78
    12
140
2.0
147
0.5
173
     1
271
     2
272
     3
284
    12
340
44
  0
DIMSTYLE
105
1B4
102
{ACAD_REACTORS
330
1B3
102
}
330
A
100
AcDbSymbolTableRecord
100
AcDbDimStyleTableRecord
  2
SLDDIMSTYLE1
 70
     0
 41
3.0
 44
0.0
 45
0.000000001
 73
     0
 74
     0
 77
     1
 78
    12
140
2.0
147
0.5
173
     1
271
     2
272
     2
284
    12
340
44
  0
DIMSTYLE
105
1BF
102
{ACAD_REACTORS
330
1BE
102
}
330
A
100
AcDbSymbolTableRecord
100
AcDbDimStyleTableRecord
  2
SLDDIMSTYLE2
 70
     0
 41
3.0
 44
0.0
 45
0.000000001
 73
     0
 74
     0
 77
     1
 78
    12
140
2.0
147
0.5
173
     1
271
     2
272
     2
284
    12
340
44
  0
DIMSTYLE
105
1CC
102
{ACAD_REACTORS
330
1CB
102
}
330
A
100
AcDbSymbolTableRecord
100
AcDbDimStyleTableRecord
  2
SLDDIMSTYLE3
 70
     0
 41
3.0
 44
0.0
 45
0.000000001
 73
     0
 74
     0
 77
     1
 78
    12
140
2.0
147
0.5
173
     1
271
     2
272
     3
284
    12
340
44
  0
ENDTAB
  0
TABLE
  2
BLOCK_RECORD
  5
1
330
0
100
AcDbSymbolTable
 70
     9
  0
BLOCK_RECORD
  5
1F
330
1
100
AcDbSymbolTableRecord
100
AcDbBlockTableRecord
  2
*Model_Space
340
22
  0
BLOCK_RECORD
  5
1B
330
1
100
AcDbSymbolTableRecord
100
AcDbBlockTableRecord
  2
*Paper_Space
340
1E
  0
BLOCK_RECORD
  5
23
330
1
100
AcDbSymbolTableRecord
100
AcDbBlockTableRecord
  2
*Paper_Space0
340
26
  0
BLOCK_RECORD
  5
1A8
330
1
100
AcDbSymbolTableRecord
100
AcDbBlockTableRecord
  2
*D1
340
0
  0
BLOCK_RECORD
  5
1B5
330
1
100
AcDbSymbolTableRecord
100
AcDbBlockTableRecord
  2
*D2
340
0
  0
BLOCK_RECORD
  5
1C0
330
1
100
AcDbSymbolTableRecord
100
AcDbBlockTableRecord
  2
*D3
340
0
  0
BLOCK_RECORD
  5
1CD
330
1
100
AcDbSymbolTableRecord
100
AcDbBlockTableRecord
  2
*D4
340
0
  0
BLOCK_RECORD
  5
1D8
330
1
100
AcDbSymbolTableRecord
100
AcDbBlockTableRecord
  2
*D5
340
0
  0
BLOCK_RECORD
  5
1E2
330
1
100
AcDbSymbolTableRecord
100
AcDbBlockTableRecord
  2
*D6
340
0
  0
BLOCK_RECORD
  5
1EC
330
1
100
AcDbSymbolTableRecord
100
AcDbBlockTableRecord
  2
*D7
340
0
  0
BLOCK_RECORD
  5
1F6
330
1
100
AcDbSymbolTableRecord
100
AcDbBlockTableRecord
  2
*D8
340
0
  0
ENDTAB
  0
ENDSEC
  0
SECTION
  2
BLOCKS
  0
BLOCK
  5
20
330
1F
100
AcDbEntity
  8
0
100
AcDbBlockBegin
  2
*Model_Space
 70
     0
 10
0.0
 20
0.0
 30
0.0
  3
*Model_Space
  1

  0
ENDBLK
  5
21
330
1F
100
AcDbEntity
  8
0
100
AcDbBlockEnd
  0
BLOCK
  5
1C
330
1B
100
AcDbEntity
 67
     1
  8
0
100
AcDbBlockBegin
  2
*Paper_Space
 70
     0
 10
0.0
 20
0.0
 30
0.0
  3
*Paper_Space
  1

  0
ENDBLK
  5
1D
330
1B
100
AcDbEntity
 67
     1
  8
0
100
AcDbBlockEnd
  0
BLOCK
  5
24
330
23
100
AcDbEntity
  8
0
100
AcDbBlockBegin
  2
*Paper_Space0
 70
     0
 10
0.0
 20
0.0
 30
0.0
  3
*Paper_Space0
  1

  0
ENDBLK
  5
25
330
23
100
AcDbEntity
  8
0
100
AcDbBlockEnd
  0
BLOCK
  5
1A9
330
1A8
100
AcDbEntity
  8
0
100
AcDbBlockBegin
  2
*D1
 70
     1
 10
0.0
 20
0.0
 30
0.0
  3
*D1
  1

  0
SOLID
  5
1AB
330
1A8
100
AcDbEntity
  8
VERMASSUNG
100
AcDbTrace
 10
67.2757313109
 20
157.9413790541
 30
0.0
 11
66.8257313109
 21
154.9413790541
 31
0.0
 12
67.7257313109
 22
154.9413790541
 32
0.0
 13
67.7257313109
 23
154.9413790541
 33
0.0
  0
SOLID
  5
1AC
330
1A8
100
AcDbEntity
  8
VERMASSUNG
100
AcDbTrace
 10
67.2757313109
 20
57.9413790541
 30
0.0
 11
67.7257313109
 21
60.9413790541
 31
0.0
 12
66.8257313109
 22
60.9413790541
 32
0.0
 13
66.8257313109
 23
60.9413790541
 33
0.0
  0
LINE
  5
1AD
330
1A8
100
AcDbEntity
  8
VERMASSUNG
100
AcDbLine
 10
122.7827261026
 20
157.9413790541
 30
0.0
 11
66.2757313109
 21
157.9413790541
 31
0.0
  0
LINE
  5
1AE
330
1A8
100
AcDbEntity
  8
VERMASSUNG
100
AcDbLine
 10
122.7827261026
 20
57.9413790541
 30
0.0
 11
66.2757313109
 21
57.9413790541
 31
0.0
  0
LINE
  5
1AF
330
1A8
100
AcDbEntity
  8
VERMASSUNG
100
AcDbLine
 10
67.2757313109
 20
157.9413790541
 30
0.0
 11
67.2757313109
 21
57.9413790541
 31
0.0
  0
MTEXT
  5
1B0
330
1A8
100
AcDbEntity
  8
VERMASSUNG
100
AcDbMText
 10
64.4975958219
 20
99.7377279165
 30
0.0
 40
2.0
 41
0.0
 71
     1
 72
     1
  1
HSK A 
  7
SLDTEXTSTYLE0
 11
-7.044195017643634E-15
 21
1.0
 31
0.0
 73
     1
 44
1.0
  0
MTEXT
  5
1B1
330
1A8
100
AcDbEntity
  8
VERMASSUNG
100
AcDbMText
 10
64.6975958314
 20
108.7377284604
 30
0.0
 40
2.0
 41
0.0
 71
     1
 72
     1
  1
%%c
  7
SLDTEXTSTYLE0
 11
-7.044195017643634E-15
 21
1.0
 31
0.0
 73
     1
 44
1.0
  0
MTEXT
  5
1B2
330
1A8
100
AcDbEntity
  8
VERMASSUNG
100
AcDbMText
 10
64.6975959478
 20
112.3460551105
 30
0.0
 40
2.0
 41
0.0
 71
     1
 72
     1
  1
100
  7
SLDTEXTSTYLE0
 11
-7.044195017643634E-15
 21
1.0
 31
0.0
 73
     1
 44
1.0
  0
ENDBLK
  5
1AA
330
1A8
100
AcDbEntity
  8
0
100
AcDbBlockEnd
  0
BLOCK
  5
1B6
330
1B5
100
AcDbEntity
  8
0
100
AcDbBlockBegin
  2
*D2
 70
     1
 10
0.0
 20
0.0
 30
0.0
  3
*D2
  1

  0
SOLID
  5
1B8
330
1B5
100
AcDbEntity
  8
VERMASSUNG
100
AcDbTrace
 10
170.7827261026
 20
161.7409534128
 30
0.0
 11
173.7827261026
 21
161.2909534128
 31
0.0
 12
173.7827261026
 22
162.1909534128
 32
0.0
 13
173.7827261026
 23
162.1909534128
 33
0.0
  0
SOLID
  5
1B9
330
1B5
100
AcDbEntity
  8
VERMASSUNG
100
AcDbTrace
 10
217.2827261026
 20
161.7409534128
 30
0.0
 11
214.2827261026
 21
162.1909534128
 31
0.0
 12
214.2827261026
 22
161.2909534128
 32
0.0
 13
214.2827261026
 23
161.2909534128
 33
0.0
  0
LINE
  5
1BA
330
1B5
100
AcDbEntity
  8
VERMASSUNG
100
AcDbLine
 10
170.7827261026
 20
114.8413790541
 30
0.0
 11
170.7827261026
 21
162.7409534128
 31
0.0
  0
LINE
  5
1BB
330
1B5
100
AcDbEntity
  8
VERMASSUNG
100
AcDbLine
 10
217.2827261026
 20
119.5925980708
 30
0.0
 11
217.2827261026
 21
162.7409534128
 31
0.0
  0
LINE
  5
1BC
330
1B5
100
AcDbEntity
  8
VERMASSUNG
100
AcDbLine
 10
170.7827261026
 20
161.7409534128
 30
0.0
 11
217.2827261026
 21
161.7409534128
 31
0.0
  0
MTEXT
  5
1BD
330
1B5
100
AcDbEntity
  8
VERMASSUNG
100
AcDbMText
 10
191.5333393204
 20
164.3190887759
 30
0.0
 40
2.0
 41
0.0
 71
     1
 72
     1
  1
46.5
  7
SLDTEXTSTYLE0
 73
     1
 44
1.0
  0
ENDBLK
  5
1B7
330
1B5
100
AcDbEntity
  8
0
100
AcDbBlockEnd
  0
BLOCK
  5
1C1
330
1C0
100
AcDbEntity
  8
0
100
AcDbBlockBegin
  2
*D3
 70
     1
 10
0.0
 20
0.0
 30
0.0
  3
*D3
  1

  0
SOLID
  5
1C3
330
1C0
100
AcDbEntity
  8
VERMASSUNG
100
AcDbTrace
 10
225.1504875406
 20
100.9413790541
 30
0.0
 11
225.6004875406
 21
103.9413790541
 31
0.0
 12
224.7004875406
 22
103.9413790541
 32
0.0
 13
224.7004875406
 23
103.9413790541
 33
0.0
  0
SOLID
  5
1C4
330
1C0
100
AcDbEntity
  8
VERMASSUNG
100
AcDbTrace
 10
225.1504875406
 20
114.9413790541
 30
0.0
 11
224.7004875406
 21
111.9413790541
 31
0.0
 12
225.6004875406
 22
111.9413790541
 32
0.0
 13
225.6004875406
 23
111.9413790541
 33
0.0
  0
LINE
  5
1C5
330
1C0
100
AcDbEntity
  8
VERMASSUNG
100
AcDbLine
 10
213.7827261026
 20
100.9413790541
 30
0.0
 11
226.1504875406
 21
100.9413790541
 31
0.0
  0
LINE
  5
1C6
330
1C0
100
AcDbEntity
  8
VERMASSUNG
100
AcDbLine
 10
213.7827261026
 20
114.9413790541
 30
0.0
 11
226.1504875406
 21
114.9413790541
 31
0.0
  0
LINE
  5
1C7
330
1C0
100
AcDbEntity
  8
VERMASSUNG
100
AcDbLine
 10
225.1504875406
 20
100.9413790541
 30
0.0
 11
225.1504875406
 21
114.9413790541
 31
0.0
  0
MTEXT
  5
1C8
330
1C0
100
AcDbEntity
  8
VERMASSUNG
100
AcDbMText
 10
222.5723520611
 20
104.2375524019
 30
0.0
 40
2.0
 41
0.0
 71
     1
 72
     1
  1
%%c
  7
SLDTEXTSTYLE0
 11
6.123233995736766E-17
 21
1.0
 31
0.0
 73
     1
 44
1.0
  0
MTEXT
  5
1C9
330
1C0
100
AcDbEntity
  8
VERMASSUNG
100
AcDbMText
 10
222.5723521775
 20
107.8462306251
 30
0.0
 40
2.0
 41
0.0
 71
     1
 72
     1
  1
14
  7
SLDTEXTSTYLE0
 11
6.123233995736766E-17
 21
1.0
 31
0.0
 73
     1
 44
1.0
  0
MTEXT
  5
1CA
330
1C0
100
AcDbEntity
  8
VERMASSUNG
100
AcDbMText
 10
222.5723521775
 20
110.4454072231
 30
0.0
 40
2.0
 41
0.0
 71
     1
 72
     1
  1
 
  7
SLDTEXTSTYLE0
 11
6.123233995736766E-17
 21
1.0
 31
0.0
 73
     1
 44
1.0
  0
ENDBLK
  5
1C2
330
1C0
100
AcDbEntity
  8
0
100
AcDbBlockEnd
  0
BLOCK
  5
1CE
330
1CD
100
AcDbEntity
  8
0
100
AcDbBlockBegin
  2
*D4
 70
     1
 10
0.0
 20
0.0
 30
0.0
  3
*D4
  1

  0
SOLID
  5
1D0
330
1CD
100
AcDbEntity
  8
VERMASSUNG
100
AcDbTrace
 10
231.1504875406
 20
94.4413790541
 30
0.0
 11
231.6004875406
 21
97.4413790541
 31
0.0
 12
230.7004875406
 22
97.4413790541
 32
0.0
 13
230.7004875406
 23
97.4413790541
 33
0.0
  0
SOLID
  5
1D1
330
1CD
100
AcDbEntity
  8
VERMASSUNG
100
AcDbTrace
 10
231.1504875406
 20
121.4413790541
 30
0.0
 11
230.7004875406
 21
118.4413790541
 31
0.0
 12
231.6004875406
 22
118.4413790541
 32
0.0
 13
231.6004875406
 23
118.4413790541
 33
0.0
  0
LINE
  5
1D2
330
1CD
100
AcDbEntity
  8
VERMASSUNG
100
AcDbLine
 10
217.2827261026
 20
94.4413790541
 30
0.0
 11
232.1504875406
 21
94.4413790541
 31
0.0
  0
LINE
  5
1D3
330
1CD
100
AcDbEntity
  8
VERMASSUNG
100
AcDbLine
 10
217.2827261026
 20
121.4413790541
 30
0.0
 11
232.1504875406
 21
121.4413790541
 31
0.0
  0
LINE
  5
1D4
330
1CD
100
AcDbEntity
  8
VERMASSUNG
100
AcDbLine
 10
231.1504875406
 20
94.4413790541
 30
0.0
 11
231.1504875406
 21
121.4413790541
 31
0.0
  0
MTEXT
  5
1D5
330
1CD
100
AcDbEntity
  8
VERMASSUNG
100
AcDbMText
 10
228.5723520611
 20
104.7376618277
 30
0.0
 40
2.0
 41
0.0
 71
     1
 72
     1
  1
%%c
  7
SLDTEXTSTYLE0
 11
6.123233995736766E-17
 21
1.0
 31
0.0
 73
     1
 44
1.0
  0
MTEXT
  5
1D6
330
1CD
100
AcDbEntity
  8
VERMASSUNG
100
AcDbMText
 10
228.5723521775
 20
108.3463400509
 30
0.0
 40
2.0
 41
0.0
 71
     1
 72
     1
  1
27
  7
SLDTEXTSTYLE0
 11
6.123233995736766E-17
 21
1.0
 31
0.0
 73
     1
 44
1.0
  0
ENDBLK
  5
1CF
330
1CD
100
AcDbEntity
  8
0
100
AcDbBlockEnd
  0
BLOCK
  5
1D9
330
1D8
100
AcDbEntity
  8
0
100
AcDbBlockBegin
  2
*D5
 70
     1
 10
0.0
 20
0.0
 30
0.0
  3
*D5
  1

  0
SOLID
  5
1DB
330
1D8
100
AcDbEntity
  8
VERMASSUNG
100
AcDbTrace
 10
122.2827261026
 20
173.7409534128
 30
0.0
 11
125.2827261026
 21
173.2909534128
 31
0.0
 12
125.2827261026
 22
174.1909534128
 32
0.0
 13
125.2827261026
 23
174.1909534128
 33
0.0
  0
SOLID
  5
1DC
330
1D8
100
AcDbEntity
  8
VERMASSUNG
100
AcDbTrace
 10
217.2827261026
 20
173.7409534128
 30
0.0
 11
214.2827261026
 21
174.1909534128
 31
0.0
 12
214.2827261026
 22
173.2909534128
 32
0.0
 13
214.2827261026
 23
173.2909534128
 33
0.0
  0
LINE
  5
1DD
330
1D8
100
AcDbEntity
  8
VERMASSUNG
100
AcDbLine
 10
122.2827261026
 20
157.4413790541
 30
0.0
 11
122.2827261026
 21
174.7409534128
 31
0.0
  0
LINE
  5
1DE
330
1D8
100
AcDbEntity
  8
VERMASSUNG
100
AcDbLine
 10
217.2827261026
 20
119.5925980708
 30
0.0
 11
217.2827261026
 21
174.7409534128
 31
0.0
  0
LINE
  5
1DF
330
1D8
100
AcDbEntity
  8
VERMASSUNG
100
AcDbLine
 10
122.2827261026
 20
173.7409534128
 30
0.0
 11
217.2827261026
 21
173.7409534128
 31
0.0
  0
MTEXT
  5
1E0
330
1D8
100
AcDbEntity
  8
VERMASSUNG
100
AcDbMText
 10
168.3833479878
 20
176.3190887759
 30
0.0
 40
2.0
 41
0.0
 71
     1
 72
     1
  1
95
  7
SLDTEXTSTYLE0
 73
     1
 44
1.0
  0
ENDBLK
  5
1DA
330
1D8
100
AcDbEntity
  8
0
100
AcDbBlockEnd
  0
BLOCK
  5
1E3
330
1E2
100
AcDbEntity
  8
0
100
AcDbBlockBegin
  2
*D6
 70
     1
 10
0.0
 20
0.0
 30
0.0
  3
*D6
  1

  0
SOLID
  5
1E5
330
1E2
100
AcDbEntity
  8
VERMASSUNG
100
AcDbTrace
 10
151.2327261026
 20
167.7409534128
 30
0.0
 11
154.2327261026
 21
167.2909534128
 31
0.0
 12
154.2327261026
 22
168.1909534128
 32
0.0
 13
154.2327261026
 23
168.1909534128
 33
0.0
  0
SOLID
  5
1E6
330
1E2
100
AcDbEntity
  8
VERMASSUNG
100
AcDbTrace
 10
217.2827261026
 20
167.7409534128
 30
0.0
 11
214.2827261026
 21
168.1909534128
 31
0.0
 12
214.2827261026
 22
167.2909534128
 32
0.0
 13
214.2827261026
 23
167.2909534128
 33
0.0
  0
LINE
  5
1E7
330
1E2
100
AcDbEntity
  8
VERMASSUNG
100
AcDbLine
 10
151.2327261026
 20
155.910118875
 30
0.0
 11
151.2327261026
 21
168.7409534128
 31
0.0
  0
LINE
  5
1E8
330
1E2
100
AcDbEntity
  8
VERMASSUNG
100
AcDbLine
 10
217.2827261026
 20
119.5925980708
 30
0.0
 11
217.2827261026
 21
168.7409534128
 31
0.0
  0
LINE
  5
1E9
330
1E2
100
AcDbEntity
  8
VERMASSUNG
100
AcDbLine
 10
151.2327261026
 20
167.7409534128
 30
0.0
 11
217.2827261026
 21
167.7409534128
 31
0.0
  0
MTEXT
  5
1EA
330
1E2
100
AcDbEntity
  8
VERMASSUNG
100
AcDbMText
 10
181.1584400788
 20
170.3190887759
 30
0.0
 40
2.0
 41
0.0
 71
     1
 72
     1
  1
66.05
  7
SLDTEXTSTYLE0
 73
     1
 44
1.0
  0
ENDBLK
  5
1E4
330
1E2
100
AcDbEntity
  8
0
100
AcDbBlockEnd
  0
BLOCK
  5
1ED
330
1EC
100
AcDbEntity
  8
0
100
AcDbBlockBegin
  2
*D7
 70
     1
 10
0.0
 20
0.0
 30
0.0
  3
*D7
  1

  0
SOLID
  5
1EF
330
1EC
100
AcDbEntity
  8
VERMASSUNG
100
AcDbTrace
 10
72.3827261026
 20
179.7409534128
 30
0.0
 11
75.3827261026
 21
179.2909534128
 31
0.0
 12
75.3827261026
 22
180.1909534128
 32
0.0
 13
75.3827261026
 23
180.1909534128
 33
0.0
  0
SOLID
  5
1F0
330
1EC
100
AcDbEntity
  8
VERMASSUNG
100
AcDbTrace
 10
217.2827261026
 20
179.7409534128
 30
0.0
 11
214.2827261026
 21
180.1909534128
 31
0.0
 12
214.2827261026
 22
179.2909534128
 32
0.0
 13
214.2827261026
 23
179.2909534128
 33
0.0
  0
LINE
  5
1F1
330
1EC
100
AcDbEntity
  8
VERMASSUNG
100
AcDbLine
 10
72.3827261026
 20
138.4440487967
 30
0.0
 11
72.3827261026
 21
180.7409534128
 31
0.0
  0
LINE
  5
1F2
330
1EC
100
AcDbEntity
  8
VERMASSUNG
100
AcDbLine
 10
217.2827261026
 20
119.5925980708
 30
0.0
 11
217.2827261026
 21
180.7409534128
 31
0.0
  0
LINE
  5
1F3
330
1EC
100
AcDbEntity
  8
VERMASSUNG
100
AcDbLine
 10
72.3827261026
 20
179.7409534128
 30
0.0
 11
217.2827261026
 21
179.7409534128
 31
0.0
  0
MTEXT
  5
1F4
330
1EC
100
AcDbEntity
  8
VERMASSUNG
100
AcDbMText
 10
141.7334400788
 20
182.3190887759
 30
0.0
 40
2.0
 41
0.0
 71
     1
 72
     1
  1
144.9
  7
SLDTEXTSTYLE0
 73
     1
 44
1.0
  0
ENDBLK
  5
1EE
330
1EC
100
AcDbEntity
  8
0
100
AcDbBlockEnd
  0
BLOCK
  5
1F7
330
1F6
100
AcDbEntity
  8
0
100
AcDbBlockBegin
  2
*D8
 70
     1
 10
0.0
 20
0.0
 30
0.0
  3
*D8
  1

  0
SOLID
  5
1F9
330
1F6
100
AcDbEntity
  8
VERMASSUNG
100
AcDbTrace
 10
237.1504875406
 20
124.9413790541
 30
0.0
 11
236.7004875406
 21
121.9413790541
 31
0.0
 12
237.6004875406
 22
121.9413790541
 32
0.0
 13
237.6004875406
 23
121.9413790541
 33
0.0
  0
SOLID
  5
1FA
330
1F6
100
AcDbEntity
  8
VERMASSUNG
100
AcDbTrace
 10
237.1504875406
 20
90.9413790541
 30
0.0
 11
237.6004875406
 21
93.9413790541
 31
0.0
 12
236.7004875406
 22
93.9413790541
 32
0.0
 13
236.7004875406
 23
93.9413790541
 33
0.0
  0
LINE
  5
1FB
330
1F6
100
AcDbEntity
  8
VERMASSUNG
100
AcDbLine
 10
172.811009526
 20
124.9413790541
 30
0.0
 11
238.1504875406
 21
124.9413790541
 31
0.0
  0
LINE
  5
1FC
330
1F6
100
AcDbEntity
  8
VERMASSUNG
100
AcDbLine
 10
172.811009526
 20
90.9413790541
 30
0.0
 11
238.1504875406
 21
90.9413790541
 31
0.0
  0
LINE
  5
1FD
330
1F6
100
AcDbEntity
  8
VERMASSUNG
100
AcDbLine
 10
237.1504875406
 20
124.9413790541
 30
0.0
 11
237.1504875406
 21
90.9413790541
 31
0.0
  0
MTEXT
  5
1FE
330
1F6
100
AcDbEntity
  8
VERMASSUNG
100
AcDbMText
 10
234.5723520611
 20
104.6378720119
 30
0.0
 40
2.0
 41
0.0
 71
     1
 72
     1
  1
%%c
  7
SLDTEXTSTYLE0
 11
-7.044195017643634E-15
 21
1.0
 31
0.0
 73
     1
 44
1.0
  0
MTEXT
  5
1FF
330
1F6
100
AcDbEntity
  8
VERMASSUNG
100
AcDbMText
 10
234.5723521775
 20
108.2465502351
 30
0.0
 40
2.0
 41
0.0
 71
     1
 72
     1
  1
34
  7
SLDTEXTSTYLE0
 11
-7.044195017643634E-15
 21
1.0
 31
0.0
 73
     1
 44
1.0
  0
ENDBLK
  5
1F8
330
1F6
100
AcDbEntity
  8
0
100
AcDbBlockEnd
  0
ENDSEC
  0
SECTION
  2
ENTITIES
  0
MTEXT
  5
45
330
1F
100
AcDbEntity
  8
KOPF_DÜNN
100
AcDbMText
 10
13.8892156294
 20
23.8442973028
 30
0.0
 40
3.0
 41
0.0
 71
     1
 72
     1
  1
HA0.S14.K21.095
  7
SLDTEXTSTYLE0
 73
     1
 44
1.0
  0
MTEXT
  5
46
330
1F
100
AcDbEntity
  8
VERMASSUNG
100
AcDbMText
 10
13.9329988022
 20
28.8834360957
 30
0.0
 40
3.0
 41
0.0
 71
     1
 72
     1
  1
Schrumpffutter_Heat shrink chuck
  7
SLDTEXTSTYLE0
 73
     1
 44
1.0
  0
MTEXT
  5
47
330
1F
100
AcDbEntity
  8
VERMASSUNG
100
AcDbMText
 10
98.8601118557
 20
13.8365368179
 30
0.0
 40
2.0
 41
0.0
 71
     1
 72
     1
  1
Datum: 02.05.2011
  7
SLDTEXTSTYLE0
 73
     1
 44
1.0
  0
MTEXT
  5
49
330
1F
100
AcDbEntity
  8
VERMASSUNG
100
AcDbMText
 10
13.933048693
 20
18.0482802738
 30
0.0
 40
2.0
 41
0.0
 71
     1
 72
     1
  1
DIN 69 893 HSK A 100
  7
SLDTEXTSTYLE1
 73
     1
 44
1.0
  0
MTEXT
  5
4A
330
1F
100
AcDbEntity
  8
VERMASSUNG
100
AcDbMText
 10
13.9808475933
 20
13.9090973692
 30
0.0
 40
2.0
 41
0.0
 71
     1
 72
     1
  1
Gewicht: 2331g
  7
SLDTEXTSTYLE0
 73
     1
 44
1.0
  0
LINE
  5
4B
330
1F
100
AcDbEntity
  8
0
  6
Continuous
 62
     7
370
    15
100
AcDbLine
 10
122.7827261026
 20
57.9413790541
 30
0.0
 11
127.2327261026
 21
57.9413790541
 31
0.0
  0
LINE
  5
4C
330
1F
100
AcDbEntity
  8
0
  6
Continuous
 62
     7
370
    15
100
AcDbLine
 10
127.2481040741
 20
157.9413790541
 30
0.0
 11
122.7827261026
 21
157.9413790541
 31
0.0
  0
ARC
  5
4D
330
1F
100
AcDbEntity
  8
0
  6
Continuous
 62
     7
370
    15
100
AcDbCircle
 10
122.7827261026
 20
58.4413790541
 30
0.0
 40
0.5000000000000071
100
AcDbArc
 50
180.0
 51
270.0
  0
ARC
  5
4E
330
1F
100
AcDbEntity
  8
0
  6
Continuous
 62
     7
370
    15
100
AcDbCircle
 10
122.7827261026
 20
157.4413790541
 30
0.0
 40
0.5
100
AcDbArc
 50
90.0
 51
180.0
  0
ARC
  5
4F
330
1F
100
AcDbEntity
  8
0
  6
Continuous
 62
     7
370
    15
100
AcDbCircle
 10
121.3857891842
 20
69.3128937297
 30
0.0
 40
0.9962338214386793
100
AcDbArc
 50
25.7988228126
 51
90.0
  0
ARC
  5
50
330
1F
100
AcDbEntity
  8
0
  6
Continuous
 62
     7
370
    15
100
AcDbCircle
 10
121.3857891842
 20
146.5698643786
 30
0.0
 40
0.9962338214386932
100
AcDbArc
 50
270.0
 51
334.2011771874
  0
LINE
  5
51
330
1F
100
AcDbEntity
  8
0
  6
Continuous
 62
     7
370
    15
100
AcDbLine
 10
100.802047184
 20
144.8726947396
 30
0.0
 11
82.4827261026
 21
143.9548930822
 31
0.0
  0
LINE
  5
52
330
1F
100
AcDbEntity
  8
0
  6
Continuous
 62
     7
370
    15
100
AcDbLine
 10
119.7827261026
 20
145.8236305571
 30
0.0
 11
113.7146869482
 21
145.5196205795
 31
0.0
  0
LINE
  5
53
330
1F
100
AcDbEntity
  8
0
  6
Continuous
 62
     7
370
    15
100
AcDbLine
 10
113.7148102246
 20
70.3631313526
 30
0.0
 11
119.7827261026
 21
70.0591275511
 31
0.0
  0
LINE
  5
54
330
1F
100
AcDbEntity
  8
0
  6
Continuous
 62
     7
370
    15
100
AcDbLine
 10
87.4827261026
 20
71.6773640241
 30
0.0
 11
100.8026772566
 21
71.0100318019
 31
0.0
  0
LINE
  5
55
330
1F
100
AcDbEntity
  8
0
  6
Continuous
 62
     7
370
    15
100
AcDbLine
 10
119.7827261026
 20
70.0591275511
 30
0.0
 11
120.588572257
 21
70.2750533774
 31
0.0
  0
LINE
  5
56
330
1F
100
AcDbEntity
  8
0
  6
Continuous
 62
     7
370
    15
100
AcDbLine
 10
120.588572257
 20
145.6077047308
 30
0.0
 11
119.7827261026
 21
145.8236305571
 31
0.0
  0
ARC
  5
57
330
1F
100
AcDbEntity
  8
0
  6
Continuous
 62
     7
370
    15
100
AcDbCircle
 10
120.8473913021
 20
69.3091275511
 30
0.0
 40
0.9999999999999957
100
AcDbArc
 50
90.0
 51
105.0
  0
ARC
  5
58
330
1F
100
AcDbEntity
  8
0
  6
Continuous
 62
     7
370
    15
100
AcDbCircle
 10
120.8473913021
 20
146.5736305571
 30
0.0
 40
0.9999999999999716
100
AcDbArc
 50
255.0
 51
270.0
  0
LINE
  5
59
330
1F
100
AcDbEntity
  8
0
  6
Continuous
 62
     7
370
    15
100
AcDbLine
 10
120.8473913021
 20
70.3091275511
 30
0.0
 11
121.3857891842
 21
70.3091275511
 31
0.0
  0
LINE
  5
5A
330
1F
100
AcDbEntity
  8
0
  6
Continuous
 62
     7
370
    15
100
AcDbLine
 10
121.3857891842
 20
145.5736305571
 30
0.0
 11
120.8473913021
 21
145.5736305571
 31
0.0
  0
ARC
  5
5B
330
1F
100
AcDbEntity
  8
0
  6
Continuous
 62
     7
370
    15
100
AcDbCircle
 10
156.2327261026
 20
85.9413790541
 30
0.0
 40
5.000000000000028
100
AcDbArc
 50
90.0
 51
180.0
  0
ARC
  5
5C
330
1F
100
AcDbEntity
  8
0
  6
Continuous
 62
     7
370
    15
100
AcDbCircle
 10
156.2327261026
 20
129.9413790541
 30
0.0
 40
5.000000000000028
100
AcDbArc
 50
180.0
 51
270.0
  0
LINE
  5
5D
330
1F
100
AcDbEntity
  8
0
  6
Continuous
 62
     7
370
    15
100
AcDbLine
 10
74.0327261026
 20
75.6913790541
 30
0.0
 11
85.5827261026
 21
75.6913790541
 31
0.0
  0
LINE
  5
5E
330
1F
100
AcDbEntity
  8
0
  6
Continuous
 62
     7
370
    15
100
AcDbLine
 10
167.7315040328
 20
90.9413790541
 30
0.0
 11
172.811009526
 21
90.9413790541
 31
0.0
  0
LINE
  5
5F
330
1F
100
AcDbEntity
  8
0
  6
Continuous
 62
     7
370
    15
100
AcDbLine
 10
156.2327261026
 20
90.9413790541
 30
0.0
 11
160.7430810067
 21
90.9413790541
 31
0.0
  0
LINE
  5
60
330
1F
100
AcDbEntity
  8
0
  6
Continuous
 62
     7
370
    15
100
AcDbLine
 10
160.7347237047
 20
124.9413790541
 30
0.0
 11
156.2327261026
 21
124.9413790541
 31
0.0
  0
LINE
  5
61
330
1F
100
AcDbEntity
  8
0
  6
Continuous
 62
     7
370
    15
100
AcDbLine
 10
172.811009526
 20
124.9413790541
 30
0.0
 11
167.7287327326
 21
124.9413790541
 31
0.0
  0
LINE
  5
62
330
1F
100
AcDbEntity
  8
0
  6
Continuous
 62
     7
370
    15
100
AcDbLine
 10
172.811009526
 20
90.9413790541
 30
0.0
 11
215.4396442941
 21
94.29632537
 31
0.0
  0
LINE
  5
63
330
1F
100
AcDbEntity
  8
0
  6
Continuous
 62
     7
370
    15
100
AcDbLine
 10
215.4396442941
 20
121.5864327383
 30
0.0
 11
172.811009526
 21
124.9413790541
 31
0.0
  0
ARC
  5
64
330
1F
100
AcDbEntity
  8
0
  6
Continuous
 62
     7
370
    15
100
AcDbCircle
 10
85.5827261026
 20
73.7913790541
 30
0.0
 40
1.899999999999991
100
AcDbArc
 50
35.5995333592
 51
90.0
  0
ARC
  5
65
330
1F
100
AcDbEntity
  8
0
  6
Continuous
 62
     7
370
    15
100
AcDbCircle
 10
80.5827261026
 20
142.0913790541
 30
0.0
 40
1.899999999999986
100
AcDbArc
 50
270.0
 51
310.9212832533
  0
LINE
  5
66
330
1F
100
AcDbEntity
  8
0
  6
Continuous
 62
     7
370
    15
100
AcDbLine
 10
74.0327261026
 20
140.1913790541
 30
0.0
 11
72.4404396377
 21
138.5990925892
 31
0.0
  0
LINE
  5
67
330
1F
100
AcDbEntity
  8
0
  6
Continuous
 62
     7
370
    15
100
AcDbLine
 10
72.4402929977
 20
77.283812159
 30
0.0
 11
74.0327261026
 21
75.6913790541
 31
0.0
  0
LINE
  5
68
330
1F
100
AcDbEntity
  8
0
  6
Continuous
 62
     7
370
    15
100
AcDbLine
 10
80.5827261026
 20
140.1913790541
 30
0.0
 11
74.0327261026
 21
140.1913790541
 31
0.0
  0
ARC
  5
69
330
1F
100
AcDbEntity
  8
0
  6
Continuous
 62
     7
370
    15
100
AcDbCircle
 10
215.2827261026
 20
96.2901600374
 30
0.0
 40
2.000000000000002
100
AcDbArc
 50
274.5
 51
0.0
  0
ARC
  5
6A
330
1F
100
AcDbEntity
  8
0
  6
Continuous
 62
     7
370
    15
100
AcDbCircle
 10
215.2827261026
 20
119.5925980708
 30
0.0
 40
2.000000000000002
100
AcDbArc
 50
0.0
 51
85.5
  0
LINE
  5
6B
330
1F
100
AcDbEntity
  8
0
  6
Continuous
 62
     7
370
    15
100
AcDbLine
 10
217.2827261026
 20
96.5770107938
 30
0.0
 11
217.3600483098
 21
96.7239761362
 31
0.0
  0
LINE
  5
6C
330
1F
100
AcDbEntity
  8
0
  6
Continuous
 62
     7
370
    15
100
AcDbLine
 10
217.3011585861
 20
119.1610957556
 30
0.0
 11
217.2827261026
 21
119.1961301442
 31
0.0
  0
SPLINE
  5
6D
330
1F
100
AcDbEntity
  8
0
  6
Continuous
 62
     7
370
    15
100
AcDbSpline
210
0.0
220
0.0
230
1.0
 70
     8
 71
     3
 72
    80
 73
    76
 74
     0
 42
0.00000001
 43
0.00000001
 40
-0.0312500000000001
 40
-0.0312500000000001
 40
0.0
 40
0.0
 40
0.0312499999999995
 40
0.0312499999999995
 40
0.0468749999999993
 40
0.0468749999999993
 40
0.0624999999999991
 40
0.0624999999999991
 40
0.0937499999999988
 40
0.0937499999999988
 40
0.1249999999999986
 40
0.1249999999999986
 40
0.1562499999999983
 40
0.1562499999999983
 40
0.1874999999999981
 40
0.1874999999999981
 40
0.2187499999999978
 40
0.2187499999999978
 40
0.2499999999999976
 40
0.2499999999999976
 40
0.2812499999999973
 40
0.2812499999999973
 40
0.3124999999999971
 40
0.3124999999999971
 40
0.3281249999999971
 40
0.3281249999999971
 40
0.3437499999999971
 40
0.3437499999999971
 40
0.3749999999999973
 40
0.3749999999999973
 40
0.4062499999999975
 40
0.4062499999999975
 40
0.4218749999999975
 40
0.4218749999999975
 40
0.4374999999999974
 40
0.4374999999999974
 40
0.4687499999999973
 40
0.4687499999999973
 40
0.4999999999999972
 40
0.4999999999999972
 40
0.531249999999997
 40
0.531249999999997
 40
0.562499999999997
 40
0.562499999999997
 40
0.5937499999999969
 40
0.5937499999999969
 40
0.6249999999999969
 40
0.6249999999999969
 40
0.6562499999999968
 40
0.6562499999999968
 40
0.6874999999999968
 40
0.6874999999999968
 40
0.7031249999999968
 40
0.7031249999999968
 40
0.7187499999999969
 40
0.7187499999999969
 40
0.7499999999999973
 40
0.7499999999999973
 40
0.7812499999999979
 40
0.7812499999999979
 40
0.7968749999999982
 40
0.7968749999999982
 40
0.8124999999999984
 40
0.8124999999999984
 40
0.8437499999999988
 40
0.8437499999999988
 40
0.874999999999999
 40
0.874999999999999
 40
0.9062499999999993
 40
0.9062499999999993
 40
0.9374999999999996
 40
0.9374999999999996
 40
0.9687499999999999
 40
0.9687499999999999
 40
1.0
 40
1.0
 40
1.03125
 40
1.03125
 10
130.952180789873
 20
151.3560085177628
 30
0.0
 10
131.6132714154256
 20
151.3560085177628
 30
0.0
 10
131.9382515446772
 20
151.372216749145
 30
0.0
 10
132.4177249559236
 20
151.4195813811646
 30
0.0
 10
132.5762067737644
 20
151.4392355930552
 30
0.0
 10
132.8904263062687
 20
151.4863467492478
 30
0.0
 10
133.0465465899491
 20
151.5139280687425
 30
0.0
 10
133.5006006189057
 20
151.6064638555363
 30
0.0
 10
133.7877040018455
 20
151.6815342891328
 30
0.0
 10
134.3310585578725
 20
151.8567725977434
 30
0.0
 10
134.5881621690781
 20
151.9577738955817
 30
0.0
 10
135.0490684240169
 20
152.1751300940425
 30
0.0
 10
135.2559661332319
 20
152.2922944258148
 30
0.0
 10
135.6214914472241
 20
152.5423643500434
 30
0.0
 10
135.77669696935
 20
152.6733104388024
 30
0.0
 10
136.0261273559497
 20
152.9390453825148
 30
0.0
 10
136.1222173117349
 20
153.0757989758257
 30
0.0
 10
136.2507361609285
 20
153.3498645506647
 30
0.0
 10
136.2825470311062
 20
153.4848046411335
 30
0.0
 10
136.2829036808795
 20
153.7502762782023
 30
0.0
 10
136.2504064286825
 20
153.8821007553435
 30
0.0
 10
136.122780954968
 20
154.131550354964
 30
0.0
 10
136.0283525539161
 20
154.2499830468919
 30
0.0
 10
135.8404917339305
 20
154.418852243986
 30
0.0
 10
135.7696637351273
 20
154.4739382391062
 30
0.0
 10
135.6149418431621
 20
154.5791910675946
 30
0.0
 10
135.5309653729786
 20
154.629526296355
 30
0.0
 10
135.2596417033342
 20
154.774102128893
 30
0.0
 10
135.0530924847319
 20
154.8619637153101
 30
0.0
 10
134.5864823445429
 20
155.0216848083095
 30
0.0
 10
134.3341167749174
 20
155.0909231047767
 30
0.0
 10
133.9282154332387
 20
155.1807104940065
 30
0.0
 10
133.7883148157612
 20
155.2082764560928
 30
0.0
 10
133.4990908805143
 20
155.2587672570191
 30
0.0
 10
133.349251424225
 20
155.2817306958698
 30
0.0
 10
132.8951348546142
 20
155.3423612122886
 30
0.0
 10
132.5834836358774
 20
155.3724352410844
 30
0.0
 10
131.942487170965
 20
155.4130248283431
 30
0.0
 10
131.6109595430128
 20
155.4233370585591
 30
0.0
 10
130.9581684979413
 20
155.4234126257249
 30
0.0
 10
130.6336322929095
 20
155.4135110202572
 30
0.0
 10
129.9883628434931
 20
155.3730244897319
 30
0.0
 10
129.6726198373304
 20
155.3425631898472
 30
0.0
 10
129.0707305423467
 20
155.2624125184107
 30
0.0
 10
128.7799813115352
 20
155.2121302866035
 30
0.0
 10
128.2330695198507
 20
155.0914601038305
 30
0.0
 10
127.9812921560138
 20
155.0222362446605
 30
0.0
 10
127.5199041633927
 20
154.8647845170198
 30
0.0
 10
127.3086348837946
 20
154.7754360423461
 30
0.0
 10
126.9453305314184
 20
154.5821881716453
 30
0.0
 10
126.7915238829756
 20
154.478060179766
 30
0.0
 10
126.6029044133782
 20
154.3094357935825
 30
0.0
 10
126.5468739271691
 20
154.2508073919076
 30
0.0
 10
126.4513001654329
 20
154.1313524770814
 30
0.0
 10
126.4115372484079
 20
154.0704326882431
 30
0.0
 10
126.3157654980958
 20
153.8840279620692
 30
0.0
 10
126.2830426589697
 20
153.7549151442742
 30
0.0
 10
126.2824140726406
 20
153.4862582213183
 30
0.0
 10
126.3146002173753
 20
153.3508874805616
 30
0.0
 10
126.4095109192309
 20
153.1473371723256
 30
0.0
 10
126.4489777026299
 20
153.0793652482621
 30
0.0
 10
126.5439077013508
 20
152.9432730251313
 30
0.0
 10
126.5996645291141
 20
152.8749229249219
 30
0.0
 10
126.787604647084
 20
152.6742199118797
 30
0.0
 10
126.9409661168002
 20
152.544831638067
 30
0.0
 10
127.3032303516806
 20
152.2961662060171
 30
0.0
 10
127.5140788251465
 20
152.176356563649
 30
0.0
 10
127.9747487954654
 20
151.9588342760763
 30
0.0
 10
128.2261231750492
 20
151.8597491762404
 30
0.0
 10
128.7720310619474
 20
151.6830767023235
 30
0.0
 10
129.0628536365986
 20
151.6070196141895
 30
0.0
 10
129.6641802513786
 20
151.4841746368365
 30
0.0
 10
129.978698835991
 20
151.4364685117834
 30
0.0
 10
130.6252802921109
 20
151.3722199766638
 30
0.0
 10
130.952180789873
 20
151.3560085177628
 30
0.0
 10
131.6132714154256
 20
151.3560085177628
 30
0.0
  0
LINE
  5
6E
330
1F
100
AcDbEntity
  8
0
  6
Continuous
 62
     7
370
    15
100
AcDbLine
 10
127.2327261026
 20
139.2913790541
 30
0.0
 11
139.0206970817
 21
139.2913790541
 31
0.0
  0
LINE
  5
6F
330
1F
100
AcDbEntity
  8
0
  6
Continuous
 62
     7
370
    15
100
AcDbLine
 10
139.0206970817
 20
59.1663854611
 30
0.0
 11
139.0206970817
 21
139.2913790541
 31
0.0
  0
LINE
  5
70
330
1F
100
AcDbEntity
  8
0
  6
Continuous
 62
     7
370
    15
100
AcDbLine
 10
139.0206970817
 20
59.1663854611
 30
0.0
 11
137.2327261026
 21
59.1663854611
 31
0.0
  0
SPLINE
  5
71
330
1F
100
AcDbEntity
  8
0
  6
Continuous
 62
     7
370
    15
100
AcDbSpline
210
0.0
220
0.0
230
1.0
 70
     8
 71
     3
 72
    30
 73
    26
 74
     0
 42
0.00000001
 43
0.00000001
 40
0.0
 40
0.0
 40
0.0
 40
0.0
 40
0.1250000000000002
 40
0.1250000000000002
 40
0.1875000000000003
 40
0.1875000000000003
 40
0.2500000000000004
 40
0.2500000000000004
 40
0.3750000000000001
 40
0.3750000000000001
 40
0.4374999999999998
 40
0.4374999999999998
 40
0.4999999999999996
 40
0.4999999999999996
 40
0.6249999999999996
 40
0.6249999999999996
 40
0.6874999999999997
 40
0.6874999999999997
 40
0.7499999999999997
 40
0.7499999999999997
 40
0.8124999999999998
 40
0.8124999999999998
 40
0.8749999999999999
 40
0.8749999999999999
 40
1.0
 40
1.0
 40
1.0
 40
1.0
 10
137.2327261026493
 20
59.16638546110272
 30
0.0
 10
136.5699814088042
 20
59.16638546110273
 30
0.0
 10
135.9187255496885
 20
59.15154538451392
 30
0.0
 10
134.9582750114302
 20
59.10917582028429
 30
0.0
 10
134.6408835681973
 20
59.09169771750512
 30
0.0
 10
134.0117200666424
 20
59.05036943095281
 30
0.0
 10
133.6995718802007
 20
59.02644415749512
 30
0.0
 10
132.7922645783524
 20
58.94763764102821
 30
0.0
 10
132.2188396207112
 20
58.88533162105174
 30
0.0
 10
131.4049627511365
 20
58.78220230081238
 30
0.0
 10
131.1401565545667
 20
58.74601838176587
 30
0.0
 10
130.6332491437523
 20
58.67222359756537
 30
0.0
 10
130.3918549923988
 20
58.63474973879372
 30
0.0
 10
129.7027135202665
 20
58.52203779545399
 30
0.0
 10
129.2896587054022
 20
58.4465016979802
 30
0.0
 10
128.7415038860272
 20
58.33810844096271
 30
0.0
 10
128.5720412786816
 20
58.30303620929945
 30
0.0
 10
128.2640240306662
 20
58.2368007486996
 30
0.0
 10
128.1246440100579
 20
58.20547405194488
 30
0.0
 10
127.8748584974311
 20
58.14706528036395
 30
0.0
 10
127.7644523847772
 20
58.1199820451811
 30
0.0
 10
127.5731945311395
 20
58.07072229056751
 30
0.0
 10
127.4920750128552
 20
58.04846031075986
 30
0.0
 10
127.2979280927468
 20
57.99089340359159
 30
0.0
 10
127.2327261026492
 20
57.9646337988056
 30
0.0
 10
127.2327261026492
 20
57.95138005433157
 30
0.0
  0
LINE
  5
72
330
1F
100
AcDbEntity
  8
0
  6
Continuous
 62
     7
370
    15
100
AcDbLine
 10
127.2327261026
 20
57.9513800543
 30
0.0
 11
127.2327261026
 21
57.9413790541
 31
0.0
  0
SPLINE
  5
73
330
1F
100
AcDbEntity
  8
0
  6
Continuous
 62
     7
370
    15
100
AcDbSpline
210
0.0
220
0.0
230
1.0
 70
     8
 71
     3
 72
    23
 73
    19
 74
     0
 42
0.00000001
 43
0.00000001
 40
0.0
 40
0.0
 40
0.0
 40
0.0
 40
0.0520256687590417
 40
0.1044186119084699
 40
0.1579654762732603
 40
0.2119084390155455
 40
0.2639329008030786
 40
0.3697142245600881
 40
0.4235868577364621
 40
0.4762679679182533
 40
0.5833878371337101
 40
0.6379530306539528
 40
0.6910551819358521
 40
0.7445319929992287
 40
0.7992014233075218
 40
0.8542881036302091
 40
0.9066815619543741
 40
1.0
 40
1.0
 40
1.0
 40
1.0
 10
137.2327261026493
 20
156.9311739097951
 30
0.0
 10
136.9597137054542
 20
156.9324954783019
 30
0.0
 10
136.41176158434
 20
156.9351479449076
 30
0.0
 10
135.5886152268848
 20
156.9566228333352
 30
0.0
 10
134.7673701262926
 20
156.9908405520033
 30
0.0
 10
133.9659413161844
 20
157.0378924621707
 30
0.0
 10
132.9335580620415
 20
157.1148814129965
 30
0.0
 10
131.9563100474174
 20
157.210758663657
 30
0.0
 10
131.0552630361615
 20
157.3176881114452
 30
0.0
 10
130.2062892570601
 20
157.4295349192857
 30
0.0
 10
129.4487208114519
 20
157.543763518015
 30
0.0
 10
128.8037325210024
 20
157.6503432643788
 30
0.0
 10
128.3791586478046
 20
157.72427322078
 30
0.0
 10
128.0166019981555
 20
157.7901637788368
 30
0.0
 10
127.7154004410318
 20
157.8468601300509
 30
0.0
 10
127.488146868997
 20
157.8907963762856
 30
0.0
 10
127.2820395717745
 20
157.9314548231137
 30
0.0
 10
127.2613526337415
 20
157.9356382625031
 30
0.0
 10
127.2481040741298
 20
157.9383174674219
 30
0.0
  0
LINE
  5
74
330
1F
100
AcDbEntity
  8
0
  6
Continuous
 62
     7
370
    15
100
AcDbLine
 10
139.0206970817
 20
156.9311739098
 30
0.0
 11
137.2327261026
 21
156.9311739098
 31
0.0
  0
LINE
  5
75
330
1F
100
AcDbEntity
  8
0
  6
Continuous
 62
     7
370
    15
100
AcDbLine
 10
139.0206970817
 20
146.892341815
 30
0.0
 11
139.0206970817
 21
156.9311739098
 31
0.0
  0
LINE
  5
76
330
1F
100
AcDbEntity
  8
0
  6
Continuous
 62
     7
370
    15
100
AcDbLine
 10
136.9406929508
 20
146.892341815
 30
0.0
 11
139.0206970817
 21
146.892341815
 31
0.0
  0
SPLINE
  5
77
330
1F
100
AcDbEntity
  8
0
  6
Continuous
 62
     7
370
    15
100
AcDbSpline
210
0.0
220
0.0
230
1.0
 70
     8
 71
     3
 72
    22
 73
    18
 74
     0
 42
0.00000001
 43
0.00000001
 40
0.0
 40
0.0
 40
0.0
 40
0.0
 40
0.2500000000000002
 40
0.2500000000000002
 40
0.3750000000000003
 40
0.3750000000000003
 40
0.5000000000000004
 40
0.5000000000000004
 40
0.6250000000000004
 40
0.6250000000000004
 40
0.7500000000000004
 40
0.7500000000000004
 40
0.8750000000000004
 40
0.8750000000000004
 40
0.9375000000000002
 40
0.9375000000000002
 40
1.0
 40
1.0
 40
1.0
 40
1.0
 10
127.2327261026492
 20
139.2913790541315
 30
0.0
 10
127.4354510585683
 20
140.3106253959961
 30
0.0
 10
127.7501947803637
 20
141.2697335459355
 30
0.0
 10
128.4582502500347
 20
142.6122126234447
 30
0.0
 10
128.7367128802523
 20
143.0464212061847
 30
0.0
 10
129.3754802868895
 20
143.8580489216868
 30
0.0
 10
129.7358939666797
 20
144.2373292146237
 30
0.0
 10
130.553426198669
 20
144.9402877936447
 30
0.0
 10
131.0145941819561
 20
145.2653166113453
 30
0.0
 10
132.0125844284399
 20
145.8303319347362
 30
0.0
 10
132.5523436224322
 20
146.0740355289427
 30
0.0
 10
133.7269365864635
 20
146.4782354565876
 30
0.0
 10
134.3386727724554
 20
146.6306726496331
 30
0.0
 10
135.2905819973171
 20
146.7860001972419
 30
0.0
 10
135.6138151615777
 20
146.8255049772919
 30
0.0
 10
136.272878332853
 20
146.8788140979606
 30
0.0
 10
136.606942343427
 20
146.8923418150185
 30
0.0
 10
136.9406929508285
 20
146.8923418150185
 30
0.0
  0
LINE
  5
78
330
1F
100
AcDbEntity
  8
0
  6
Continuous
 62
     7
370
    15
100
AcDbLine
 10
150.2327261026
 20
59.1663854611
 30
0.0
 11
145.5447551236
 21
59.1663854611
 31
0.0
  0
LINE
  5
79
330
1F
100
AcDbEntity
  8
0
  6
Continuous
 62
     7
370
    15
100
AcDbLine
 10
145.5447551236
 20
59.1663854611
 30
0.0
 11
145.5447551236
 21
139.2913790541
 31
0.0
  0
LINE
  5
7A
330
1F
100
AcDbEntity
  8
0
  6
Continuous
 62
     7
370
    15
100
AcDbLine
 10
145.5447551236
 20
139.2913790541
 30
0.0
 11
150.2327261026
 21
139.2913790541
 31
0.0
  0
SPLINE
  5
7B
330
1F
100
AcDbEntity
  8
0
  6
Continuous
 62
     7
370
    15
100
AcDbSpline
210
0.0
220
0.0
230
1.0
 70
     8
 71
     3
 72
     8
 73
     4
 74
     0
 42
0.00000001
 43
0.00000001
 40
0.0
 40
0.0
 40
0.0
 40
0.0
 40
1.0
 40
1.0
 40
1.0
 40
1.0
 10
145.5447551235706
 20
59.16638546110272
 30
0.0
 10
145.0936503941704
 20
59.96734539292264
 30
0.0
 10
144.642952566927
 20
60.7685354044833
 30
0.0
 10
144.1927261026492
 20
61.56999076710806
 30
0.0
  0
LINE
  5
7C
330
1F
100
AcDbEntity
  8
0
  6
Continuous
 62
     7
370
    15
100
AcDbLine
 10
144.1927261026
 20
61.5699907671
 30
0.0
 11
144.1927261026
 21
139.2913790541
 31
0.0
  0
SPLINE
  5
7D
330
1F
100
AcDbEntity
  8
0
  6
Continuous
 62
     7
370
    15
100
AcDbSpline
210
0.0
220
0.0
230
1.0
 70
    24
 71
     3
 72
     8
 73
     4
 74
     0
 42
0.00000001
 43
0.00000001
 40
0.0
 40
0.0
 40
0.0
 40
0.0
 40
1.0
 40
1.0
 40
1.0
 40
1.0
 10
144.1927261026492
 20
139.2913790541315
 30
0.0
 10
144.6369389850032
 20
139.2913790541315
 30
0.0
 10
145.0879535512424
 20
139.2913790541315
 30
0.0
 10
145.5447551235706
 20
139.2913790541315
 30
0.0
  0
LINE
  5
7E
330
1F
100
AcDbEntity
  8
0
  6
Continuous
 62
     7
370
    15
100
AcDbLine
 10
122.2827261026
 20
58.4413790541
 30
0.0
 11
122.2827261026
 21
157.4413790541
 31
0.0
  0
LINE
  5
7F
330
1F
100
AcDbEntity
  8
0
  6
Continuous
 62
     7
370
    15
100
AcDbLine
 10
151.2327261026
 20
60.1920335089
 30
0.0
 11
151.2327261026
 21
139.2913790541
 31
0.0
  0
SPLINE
  5
80
330
1F
100
AcDbEntity
  8
0
  6
Continuous
 62
     7
370
    15
100
AcDbSpline
210
0.0
220
0.0
230
1.0
 70
     8
 71
     3
 72
    14
 73
    10
 74
     0
 42
0.00000001
 43
0.00000001
 40
0.0
 40
0.0
 40
0.0
 40
0.0
 40
0.25
 40
0.25
 40
0.5
 40
0.5
 40
0.75
 40
0.75
 40
1.0
 40
1.0
 40
1.0
 40
1.0
 10
151.2327261026493
 20
60.19203350887823
 30
0.0
 10
151.2327261026493
 20
60.05860781282369
 30
0.0
 10
151.2074150027384
 20
59.92676000497934
 30
0.0
 10
151.1090802388936
 20
59.68023745628523
 30
0.0
 10
151.0359362346376
 20
59.56643226804469
 30
0.0
 10
150.8524981735419
 20
59.37597509109742
 30
0.0
 10
150.7408118392033
 20
59.2983402272475
 30
0.0
 10
150.498308408897
 20
59.19404881713503
 30
0.0
 10
150.3649339802028
 20
59.16638546110268
 30
0.0
 10
150.2327261026493
 20
59.16638546110268
 30
0.0
  0
SPLINE
  5
81
330
1F
100
AcDbEntity
  8
0
  6
Continuous
 62
     7
370
    15
100
AcDbSpline
210
0.0
220
0.0
230
1.0
 70
    24
 71
     3
 72
    12
 73
     8
 74
     0
 42
0.00000001
 43
0.00000001
 40
0.0
 40
0.0
 40
0.0
 40
0.0
 40
0.2500000000000032
 40
0.2500000000000032
 40
0.5000000000000064
 40
0.5000000000000064
 40
1.0
 40
1.0
 40
1.0
 40
1.0
 10
150.2327261026493
 20
139.2913790541315
 30
0.0
 10
150.3848163395942
 20
139.2913790541315
 30
0.0
 10
150.5332756006696
 20
139.2913790541315
 30
0.0
 10
150.7906792329354
 20
139.2913790541315
 30
0.0
 10
150.8997839807773
 20
139.2913790541315
 30
0.0
 10
151.1538434571848
 20
139.2913790541315
 30
0.0
 10
151.2327261026493
 20
139.2913790541315
 30
0.0
 10
151.2327261026493
 20
139.2913790541315
 30
0.0
  0
LINE
  5
82
330
1F
100
AcDbEntity
  8
0
  6
Continuous
 62
     7
370
    15
100
AcDbLine
 10
140.3727261026
 20
61.5699907671
 30
0.0
 11
140.3727261026
 21
139.2913790541
 31
0.0
  0
SPLINE
  5
83
330
1F
100
AcDbEntity
  8
0
  6
Continuous
 62
     7
370
    15
100
AcDbSpline
210
0.0
220
0.0
230
1.0
 70
     8
 71
     3
 72
     8
 73
     4
 74
     0
 42
0.00000001
 43
0.00000001
 40
0.0
 40
0.0
 40
0.0
 40
0.0
 40
1.0
 40
1.0
 40
1.0
 40
1.0
 10
140.3727261026493
 20
61.56999076710805
 30
0.0
 10
139.9224996383715
 20
60.7685354044833
 30
0.0
 10
139.4718018111281
 20
59.96734539292263
 30
0.0
 10
139.0206970817279
 20
59.16638546110272
 30
0.0
  0
SPLINE
  5
84
330
1F
100
AcDbEntity
  8
0
  6
Continuous
 62
     7
370
    15
100
AcDbSpline
210
0.0
220
0.0
230
1.0
 70
    24
 71
     3
 72
     8
 73
     4
 74
     0
 42
0.00000001
 43
0.00000001
 40
0.0
 40
0.0
 40
0.0
 40
0.0
 40
1.0
 40
1.0
 40
1.0
 40
1.0
 10
139.0206970817279
 20
139.2913790541315
 30
0.0
 10
139.4774986540561
 20
139.2913790541315
 30
0.0
 10
139.9285132202953
 20
139.2913790541315
 30
0.0
 10
140.3727261026493
 20
139.2913790541315
 30
0.0
  0
SPLINE
  5
85
330
1F
100
AcDbEntity
  8
0
  6
Continuous
 62
     7
370
    15
100
AcDbSpline
210
0.0
220
0.0
230
1.0
 70
     8
 71
     3
 72
    12
 73
     8
 74
     0
 42
0.00000001
 43
0.00000001
 40
0.0
 40
0.0
 40
0.0
 40
0.0
 40
0.25
 40
0.25
 40
0.5
 40
0.5
 40
1.0
 40
1.0
 40
1.0
 40
1.0
 10
141.1727261026492
 20
63.30170359608189
 30
0.0
 10
141.0669654493003
 20
63.30170359608186
 30
0.0
 10
140.9589778211174
 20
63.27916409008147
 30
0.0
 10
140.7643831558518
 20
63.19459345808617
 30
0.0
 10
140.6755112430129
 20
63.13211180532738
 30
0.0
 10
140.456318950687
 20
62.90272285385522
 30
0.0
 10
140.3727261026492
 20
62.69013951633283
 30
0.0
 10
140.3727261026492
 20
62.47820027173664
 30
0.0
  0
SPLINE
  5
86
330
1F
100
AcDbEntity
  8
0
  6
Continuous
 62
     7
370
    15
100
AcDbSpline
210
0.0
220
0.0
230
1.0
 70
    24
 71
     3
 72
    14
 73
    10
 74
     0
 42
0.00000001
 43
0.00000001
 40
0.0
 40
0.0
 40
0.0
 40
0.0
 40
0.25
 40
0.25
 40
0.5
 40
0.5
 40
0.75
 40
0.75
 40
1.0
 40
1.0
 40
1.0
 40
1.0
 10
140.3727261026492
 20
139.2913790541315
 30
0.0
 10
140.3727261026492
 20
139.2913790541315
 30
0.0
 10
140.3884404231152
 20
139.2913790541315
 30
0.0
 10
140.4521244015835
 20
139.2913790541315
 30
0.0
 10
140.500727595994
 20
139.2913790541315
 30
0.0
 10
140.6334111184196
 20
139.2913790541315
 30
0.0
 10
140.7185132227303
 20
139.2913790541315
 30
0.0
 10
140.9249554576403
 20
139.2913790541315
 30
0.0
 10
141.0490363992633
 20
139.2913790541315
 30
0.0
 10
141.1727261026492
 20
139.2913790541315
 30
0.0
  0
SPLINE
  5
87
330
1F
100
AcDbEntity
  8
0
  6
Continuous
 62
     7
370
    15
100
AcDbSpline
210
0.0
220
0.0
230
1.0
 70
     8
 71
     3
 72
    14
 73
    10
 74
     0
 42
0.00000001
 43
0.00000001
 40
0.0
 40
0.0
 40
0.0
 40
0.0
 40
0.25
 40
0.25
 40
0.5
 40
0.5
 40
0.75
 40
0.75
 40
1.0
 40
1.0
 40
1.0
 40
1.0
 10
144.1927261026492
 20
62.47820027173664
 30
0.0
 10
144.1927261026492
 20
62.58524435273102
 30
0.0
 10
144.1726084154911
 20
62.69047949297346
 30
0.0
 10
144.0941172262254
 20
62.88832997982116
 30
0.0
 10
144.0359606014242
 20
62.97938174338608
 30
0.0
 10
143.8894453458062
 20
63.13254783731086
 30
0.0
 10
143.8008027971651
 20
63.19484228352027
 30
0.0
 10
143.6050794743648
 20
63.27963606905626
 30
0.0
 10
143.4998482832939
 20
63.30170359608188
 30
0.0
 10
143.3927261026492
 20
63.30170359608189
 30
0.0
  0
SPLINE
  5
88
330
1F
100
AcDbEntity
  8
0
  6
Continuous
 62
     7
370
    15
100
AcDbSpline
210
0.0
220
0.0
230
1.0
 70
    24
 71
     3
 72
    14
 73
    10
 74
     0
 42
0.00000001
 43
0.00000001
 40
0.0
 40
0.0
 40
0.0
 40
0.0
 40
0.25
 40
0.25
 40
0.5
 40
0.5
 40
0.75
 40
0.75
 40
1.0
 40
1.0
 40
1.0
 40
1.0
 10
143.3927261026492
 20
139.2913790541315
 30
0.0
 10
143.5164958674144
 20
139.2913790541315
 30
0.0
 10
143.6408629714213
 20
139.2913790541315
 30
0.0
 10
143.8472194401473
 20
139.2913790541315
 30
0.0
 10
143.9325475835657
 20
139.2913790541315
 30
0.0
 10
144.0647396422809
 20
139.2913790541315
 30
0.0
 10
144.1133848860315
 20
139.2913790541315
 30
0.0
 10
144.1769206777602
 20
139.2913790541315
 30
0.0
 10
144.1927261026493
 20
139.2913790541315
 30
0.0
 10
144.1927261026492
 20
139.2913790541315
 30
0.0
  0
LINE
  5
89
330
1F
100
AcDbEntity
  8
0
  6
Continuous
 62
     7
370
    15
100
AcDbLine
 10
143.3927261026
 20
63.3017035961
 30
0.0
 11
141.1727261026
 21
63.3017035961
 31
0.0
  0
LINE
  5
8A
330
1F
100
AcDbEntity
  8
0
  6
Continuous
 62
     7
370
    15
100
AcDbLine
 10
141.1727261026
 20
139.2913790541
 30
0.0
 11
143.3927261026
 21
139.2913790541
 31
0.0
  0
LINE
  5
8B
330
1F
100
AcDbEntity
  8
0
  6
Continuous
 62
     7
370
    15
100
AcDbLine
 10
87.4827261026
 20
71.6773640241
 30
0.0
 11
87.4827261026
 21
74.0720457888
 31
0.0
  0
SPLINE
  5
8C
330
1F
100
AcDbEntity
  8
0
  6
Continuous
 62
     7
370
    15
100
AcDbSpline
210
0.0
220
0.0
230
1.0
 70
     8
 71
     3
 72
    14
 73
    10
 74
     0
 42
0.00000001
 43
0.00000001
 40
0.0
 40
0.0
 40
0.0
 40
0.0
 40
0.25
 40
0.25
 40
0.5
 40
0.5
 40
0.75
 40
0.75
 40
1.0
 40
1.0
 40
1.0
 40
1.0
 10
86.47830363131229
 20
75.774897710388
 30
0.0
 10
86.5670722092576
 20
75.61636357908006
 30
0.0
 10
86.68879004793652
 20
75.46392090219149
 30
0.0
 10
86.92383965779335
 20
75.16678627836257
 30
0.0
 10
87.03946984401024
 20
75.0221036347452
 30
0.0
 10
87.23987477743805
 20
74.7388144322418
 30
0.0
 10
87.32527506942239
 20
74.60026043920494
 30
0.0
 10
87.44698070313962
 20
74.32887640917141
 30
0.0
 10
87.48272610265226
 20
74.1967405405368
 30
0.0
 10
87.48272610265225
 20
74.07204578876603
 30
0.0
  0
SPLINE
  5
8D
330
1F
100
AcDbEntity
  8
0
  6
Continuous
 62
     7
370
    15
100
AcDbSpline
210
0.0
220
0.0
230
1.0
 70
     8
 71
     3
 72
    14
 73
    10
 74
     0
 42
0.00000001
 43
0.00000001
 40
0.0
 40
0.0
 40
0.0
 40
0.0
 40
0.124999999999999
 40
0.124999999999999
 40
0.249999999999998
 40
0.249999999999998
 40
0.5000000000000007
 40
0.5000000000000007
 40
1.0
 40
1.0
 40
1.0
 40
1.0
 10
85.58272610264925
 20
76.4037276494881
 30
0.0
 10
85.65030840243374
 20
76.4108835345895
 30
0.0
 10
85.72279598018163
 20
76.40645906455049
 30
0.0
 10
85.85508708944758
 20
76.37675290678014
 30
0.0
 10
85.91236446883775
 20
76.35346862520191
 30
0.0
 10
86.06201489603804
 20
76.2759833853516
 30
0.0
 10
86.13572819155954
 20
76.21413155845022
 30
0.0
 10
86.32353617488577
 20
76.0294541058019
 30
0.0
 10
86.40757648124722
 20
75.90121118251069
 30
0.0
 10
86.47830363131351
 20
75.7748977103881
 30
0.0
  0
SPLINE
  5
8E
330
1F
100
AcDbEntity
  8
0
  6
Continuous
 62
     7
370
    15
100
AcDbSpline
210
0.0
220
0.0
230
1.0
 70
     8
 71
     3
 72
     8
 73
     4
 74
     0
 42
0.00000001
 43
0.00000001
 40
0.0
 40
0.0
 40
0.0
 40
0.0
 40
1.0
 40
1.0
 40
1.0
 40
1.0
 10
82.03808571456845
 20
75.98567906469633
 30
0.0
 10
83.20338402527733
 20
76.14086653658295
 30
0.0
 10
84.38799923931714
 20
76.27722517489327
 30
0.0
 10
85.58272610264922
 20
76.4037276494881
 30
0.0
  0
SPLINE
  5
8F
330
1F
100
AcDbEntity
  8
0
  6
Continuous
 62
     7
370
    15
100
AcDbSpline
210
0.0
220
0.0
230
1.0
 70
     8
 71
     3
 72
    14
 73
    10
 74
     0
 42
0.00000001
 43
0.00000001
 40
0.0
 40
0.0
 40
0.0
 40
0.0
 40
0.4999999999999972
 40
0.4999999999999972
 40
0.7499999999999971
 40
0.7499999999999971
 40
0.8749999999999986
 40
0.8749999999999986
 40
1.0
 40
1.0
 40
1.0
 40
1.0
 10
74.28265121862054
 20
75.6955468855664
 30
0.0
 10
75.5909527811543
 20
75.70256160930752
 30
0.0
 10
76.89601215581109
 20
75.71797018575202
 30
0.0
 10
78.84188820729943
 20
75.77186674121869
 30
0.0
 10
79.48858571103843
 20
75.79489830582138
 30
0.0
 10
80.45242807489277
 20
75.84584083069214
 30
0.0
 10
80.77266676682684
 20
75.86557575292532
 30
0.0
 10
81.40936199316926
 20
75.9150628813969
 30
0.0
 10
81.72607740145219
 20
75.94412766032613
 30
0.0
 10
82.0380857145685
 20
75.98567906469627
 30
0.0
  0
SPLINE
  5
90
330
1F
100
AcDbEntity
  8
0
  6
Continuous
 62
     7
370
    15
100
AcDbSpline
210
0.0
220
0.0
230
1.0
 70
     8
 71
     3
 72
    12
 73
     8
 74
     0
 42
0.00000001
 43
0.00000001
 40
0.0
 40
0.0
 40
0.0
 40
0.0
 40
0.2500000000000009
 40
0.2500000000000009
 40
0.5000000000000018
 40
0.5000000000000018
 40
1.0
 40
1.0
 40
1.0
 40
1.0
 10
80.58272610264925
 20
140.0279019456279
 30
0.0
 10
80.06402728082104
 20
140.0604247204762
 30
0.0
 10
79.54231570761605
 20
140.0837214616467
 30
0.0
 10
78.4960236911205
 20
140.1215669760687
 30
0.0
 10
77.97135206545022
 20
140.1358354505649
 30
0.0
 10
76.394506042911
 20
140.1700449380232
 30
0.0
 10
75.33955072836407
 20
140.1815444419671
 30
0.0
 10
74.28265121861885
 20
140.1872112226966
 30
0.0
  0
SPLINE
  5
91
330
1F
100
AcDbEntity
  8
0
  6
Continuous
 62
     7
370
    15
100
AcDbSpline
210
0.0
220
0.0
230
1.0
 70
     8
 71
     3
 72
    20
 73
    16
 74
     0
 42
0.00000001
 43
0.00000001
 40
0.0
 40
0.0
 40
0.0
 40
0.0
 40
0.2500000000000011
 40
0.2500000000000011
 40
0.5000000000000021
 40
0.5000000000000021
 40
0.7500000000000031
 40
0.7500000000000031
 40
0.8750000000000008
 40
0.8750000000000008
 40
0.9375000000000006
 40
0.9375000000000006
 40
0.9687500000000003
 40
0.9687500000000003
 40
1.0
 40
1.0
 40
1.0
 40
1.0
 10
82.48272610264924
 20
141.6859877911161
 30
0.0
 10
82.48272610264922
 20
141.5503054713693
 30
0.0
 10
82.43401431343261
 20
141.4092184852292
 30
0.0
 10
82.26485289020744
 20
141.1171467664987
 30
0.0
 10
82.1430724762891
 20
140.9654980244083
 30
0.0
 10
81.8455253815396
 20
140.6630895842552
 30
0.0
 10
81.67161277583682
 20
140.5105009481319
 30
0.0
 10
81.352197941955
 20
140.2852301842896
 30
0.0
 10
81.23715716650774
 20
140.2105070897788
 30
0.0
 10
81.03007284249132
 20
140.1110966805219
 30
0.0
 10
80.95396500768493
 20
140.0795315881773
 30
0.0
 10
80.8225704681316
 20
140.0450882039843
 30
0.0
 10
80.77601724913013
 20
140.0360366322167
 30
0.0
 10
80.67968389804942
 20
140.0258609833782
 30
0.0
 10
80.63042447469398
 20
140.0249112247032
 30
0.0
 10
80.58272610264724
 20
140.0279019456178
 30
0.0
  0
LINE
  5
92
330
1F
100
AcDbEntity
  8
0
  6
Continuous
 62
     7
370
    15
100
AcDbLine
 10
82.4827261026
 20
141.6859877911
 30
0.0
 11
82.4827261026
 21
143.9548930822
 31
0.0
  0
LINE
  5
93
330
1F
100
AcDbEntity
  8
0
  6
Continuous
 62
     7
370
    15
100
AcDbLine
 10
119.7827261026
 20
70.0591275511
 30
0.0
 11
119.7827261026
 21
145.8236305571
 31
0.0
  0
SPLINE
  5
94
330
1F
100
AcDbEntity
  8
0
  6
Continuous
 62
     7
370
    15
100
AcDbSpline
210
0.0
220
0.0
230
1.0
 70
     8
 71
     3
 72
    24
 73
    20
 74
     0
 42
0.00000001
 43
0.00000001
 40
0.0
 40
0.0
 40
0.0
 40
0.0
 40
0.0002934293894791
 40
0.062808005175641
 40
0.1260453927228619
 40
0.18907467666103
 40
0.2513200540860133
 40
0.3133304633786588
 40
0.3759158453762907
 40
0.4383740564599686
 40
0.5000631094857209
 40
0.5616593988040849
 40
0.6245050380644152
 40
0.6872231506510951
 40
0.7494953263230465
 40
0.8117583797535242
 40
0.8747365508229858
 40
0.9378980306234599
 40
1.0
 40
1.0
 40
1.0
 40
1.0
 10
100.8026823664887
 20
71.01013379581916
 30
0.0
 10
100.8024875136039
 20
71.01010948842517
 30
0.0
 10
100.7607796225927
 20
71.00490653677097
 30
0.0
 10
100.9058980141232
 20
71.02354116010147
 30
0.0
 10
101.2609769556624
 20
71.0660609386502
 30
0.0
 10
101.8655525932056
 20
71.13419722225203
 30
0.0
 10
102.6719879020218
 20
71.20745275926791
 30
0.0
 10
103.6574653259407
 20
71.27197210008579
 30
0.0
 10
104.7891349226203
 20
71.31053632814687
 30
0.0
 10
106.0114273927826
 20
71.31423083414826
 30
0.0
 10
107.2787560742344
 20
71.27180485409929
 30
0.0
 10
108.5452416046609
 20
71.18355771331831
 30
0.0
 10
109.7613789684809
 20
71.05516444305162
 30
0.0
 10
110.8867894643216
 20
70.9025234544591
 30
0.0
 10
111.8642065258756
 20
70.74074883935478
 30
0.0
 10
112.6674720044181
 20
70.58821994625389
 30
0.0
 10
113.2559655274193
 20
70.46420620298649
 30
0.0
 10
113.6448716390714
 20
70.3792822767102
 30
0.0
 10
113.6916327698094
 20
70.3685559654314
 30
0.0
 10
113.7148155763518
 20
70.36323817273981
 30
0.0
  0
SPLINE
  5
95
330
1F
100
AcDbEntity
  8
0
  6
Continuous
 62
     7
370
    15
100
AcDbSpline
210
0.0
220
0.0
230
1.0
 70
     8
 71
     3
 72
    41
 73
    37
 74
     0
 42
0.00000001
 43
0.00000001
 40
0.0
 40
0.0
 40
0.0
 40
0.0
 40
0.0619930061482746
 40
0.1254347783466151
 40
0.1886508898234768
 40
0.2510246408607227
 40
0.3131658188976554
 40
0.3756581641417402
 40
0.4382227146727798
 40
0.4998044922940677
 40
0.56151641971787
 40
0.6240683094121985
 40
0.686725723240935
 40
0.7488365305144522
 40
0.8110685944253986
 40
0.8741742884451361
 40
0.9373212787645211
 40
0.9685511709617411
 40
0.9842086872487193
 40
0.9920641182531791
 40
0.996000486125535
 40
0.9979710794120144
 40
0.9989570090489596
 40
0.9994501359395065
 40
0.9996967403802177
 40
0.9998200529090742
 40
0.9998817117580818
 40
0.999912541829664
 40
0.9999279570273361
 40
0.9999356646666602
 40
0.9999395184964466
 40
0.9999414454138695
 40
0.9999424088732151
 40
0.9999433723329806
 40
0.9999501697010513
 40
1.0
 40
1.0
 40
1.0
 40
1.0
 10
113.7146942458738
 20
145.5194749175717
 30
0.0
 10
113.6911226005302
 20
145.5141654379219
 30
0.0
 10
113.6434284444852
 20
145.5034223969823
 30
0.0
 10
113.2513864550596
 20
145.4181932605269
 30
0.0
 10
112.6608724057894
 20
145.2936244818861
 30
0.0
 10
111.8568349597443
 20
145.1406775357343
 30
0.0
 10
110.8807595595628
 20
144.9789209817807
 30
0.0
 10
109.7589508242823
 20
144.8266882138485
 30
0.0
 10
108.545419904495
 20
144.6989082726471
 30
0.0
 10
107.2805891980958
 20
144.6110597209645
 30
0.0
 10
106.0125461606531
 20
144.5686742370939
 30
0.0
 10
104.789038802952
 20
144.5724100450655
 30
0.0
 10
103.655540262538
 20
144.6110055155137
 30
0.0
 10
102.6694344515638
 20
144.6754448868048
 30
0.0
 10
101.8608066427766
 20
144.748954694086
 30
0.0
 10
101.2641879476674
 20
144.8162683788977
 30
0.0
 10
100.9487966582093
 20
144.8542329301657
 30
0.0
 10
100.8387300894114
 20
144.8680319894976
 30
0.0
 10
100.8113107015972
 20
144.8715180634182
 30
0.0
 10
100.8043886507677
 20
144.8723972891115
 30
0.0
 10
100.8026204105842
 20
144.8726180637179
 30
0.0
 10
100.8021600314109
 20
144.8726732664286
 30
0.0
 10
100.8020358727261
 20
144.8726870062157
 30
0.0
 10
100.8020003182329
 20
144.8726904020467
 30
0.0
 10
100.8019891741628
 20
144.872691230367
 30
0.0
 10
100.8019852609667
 20
144.8726914269558
 30
0.0
 10
100.8019837187619
 20
144.8726914708859
 30
0.0
 10
100.8019830517604
 20
144.8726914791926
 30
0.0
 10
100.8019827435826
 20
144.8726914800229
 30
0.0
 10
100.8019825968166
 20
144.8726914794777
 30
0.0
 10
100.8019825238641
 20
144.8726914791478
 30
0.0
 10
100.8019824894717
 20
144.8726914787105
 30
0.0
 10
100.8019824672266
 20
144.8726914787991
 30
0.0
 10
100.8019824401171
 20
144.8726914759641
 30
0.0
 10
100.8019799205558
 20
144.8726917628191
 30
0.0
 10
100.8020160104738
 20
144.8726871427185
 30
0.0
 10
100.8020477682965
 20
144.8726830771971
 30
0.0
  0
SPLINE
  5
96
330
1F
100
AcDbEntity
  8
0
  6
Continuous
 62
     7
370
    15
100
AcDbSpline
210
0.0
220
0.0
230
1.0
 70
     8
 71
     3
 72
    20
 73
    16
 74
     0
 42
0.00000001
 43
0.00000001
 40
0.0
 40
0.0
 40
0.0
 40
0.0
 40
0.249999999999986
 40
0.249999999999986
 40
0.3749999999999789
 40
0.3749999999999789
 40
0.4374999999999789
 40
0.4374999999999789
 40
0.4999999999999789
 40
0.4999999999999789
 40
0.6249999999999835
 40
0.6249999999999835
 40
0.7499999999999879
 40
0.7499999999999879
 40
1.0
 40
1.0
 40
1.0
 40
1.0
 10
72.67354033436526
 20
77.26289590143082
 30
0.0
 10
72.69981255157866
 20
77.28221384251329
 30
0.0
 10
72.7304926938335
 20
77.29660255361506
 30
0.0
 10
72.80196356421543
 20
77.28969819177905
 30
0.0
 10
72.82999060125975
 20
77.28253218843064
 30
0.0
 10
72.88507419075727
 20
77.25283316172704
 30
0.0
 10
72.90596551930969
 20
77.2393595191657
 30
0.0
 10
72.95117416675515
 20
77.20416125364969
 30
0.0
 10
72.97557837915072
 20
77.18225302492243
 30
0.0
 10
73.04691069720218
 20
77.11012816492688
 30
0.0
 10
73.08880748202243
 20
77.05778762397684
 30
0.0
 10
73.16038344087832
 20
76.96030423207608
 30
0.0
 10
73.19121143069563
 20
76.91355046219766
 30
0.0
 10
73.27431136353118
 20
76.78025724635854
 30
0.0
 10
73.31916626890148
 20
76.69761984844334
 30
0.0
 10
73.35927834435407
 20
76.61851295365256
 30
0.0
  0
SPLINE
  5
97
330
1F
100
AcDbEntity
  8
0
  6
Continuous
 62
     7
370
    15
100
AcDbSpline
210
0.0
220
0.0
230
1.0
 70
     8
 71
     3
 72
    14
 73
    10
 74
     0
 42
0.00000001
 43
0.00000001
 40
0.0
 40
0.0
 40
0.0
 40
0.0
 40
0.25
 40
0.25
 40
0.5
 40
0.5
 40
0.75
 40
0.75
 40
1.0
 40
1.0
 40
1.0
 40
1.0
 10
72.38272610264926
 20
77.4387093115636
 30
0.0
 10
72.38272610264926
 20
77.39746238053925
 30
0.0
 10
72.39133581903052
 20
77.36055540825677
 30
0.0
 10
72.42242199860084
 20
77.29965534835736
 30
0.0
 10
72.4448115520849
 20
77.27547442881767
 30
0.0
 10
72.49955548326102
 20
77.24150683793442
 30
0.0
 10
72.53200572284621
 20
77.23158675396623
 30
0.0
 10
72.60200723757427
 20
77.23023554506138
 30
0.0
 10
72.64021773769683
 20
77.23839382175754
 30
0.0
 10
72.6735403343699
 20
77.26289590142562
 30
0.0
  0
LINE
  5
98
330
1F
100
AcDbEntity
  8
0
  6
Continuous
 62
     7
370
    15
100
AcDbLine
 10
72.3827261026
 20
77.4387093116
 30
0.0
 11
72.3827261026
 21
138.4440487967
 31
0.0
  0
SPLINE
  5
99
330
1F
100
AcDbEntity
  8
0
  6
Continuous
 62
     7
370
    15
100
AcDbSpline
210
0.0
220
0.0
230
1.0
 70
     8
 71
     3
 72
    12
 73
     8
 74
     0
 42
0.00000001
 43
0.00000001
 40
0.0
 40
0.0
 40
0.0
 40
0.0
 40
0.0592077505114064
 40
0.3503612113849183
 40
0.644012000323884
 40
0.9432672693652688
 40
1.0
 40
1.0
 40
1.0
 40
1.0
 10
72.67354033436987
 20
138.6198622068374
 30
0.0
 10
72.66870445102141
 20
138.6231348504571
 30
0.0
 10
72.64008816458174
 20
138.6425006830232
 30
0.0
 10
72.58208982654138
 20
138.6564665801876
 30
0.0
 10
72.5100895860811
 20
138.6453935523724
 30
0.0
 10
72.46144989707035
 20
138.6240932484627
 30
0.0
 10
72.44466502500791
 20
138.6011918782879
 30
0.0
 10
72.44199007072203
 20
138.5975421562005
 30
0.0
  0
SPLINE
  5
9A
330
1F
100
AcDbEntity
  8
0
  6
Continuous
 62
     7
370
    15
100
AcDbSpline
210
0.0
220
0.0
230
1.0
 70
     8
 71
     3
 72
     8
 73
     4
 74
     0
 42
0.00000001
 43
0.00000001
 40
0.0
 40
0.0
 40
0.0
 40
0.0
 40
1.0
 40
1.0
 40
1.0
 40
1.0
 10
72.40635977158546
 20
138.5516282977691
 30
0.0
 10
72.3910107329494
 20
138.5211182427732
 30
0.0
 10
72.38272610264926
 20
138.4848066872609
 30
0.0
 10
72.38272610264926
 20
138.4440487966994
 30
0.0
  0
SPLINE
  5
9B
330
1F
100
AcDbEntity
  8
0
  6
Continuous
 62
     7
370
    15
100
AcDbSpline
210
0.0
220
0.0
230
1.0
 70
     8
 71
     3
 72
    20
 73
    16
 74
     0
 42
0.00000001
 43
0.00000001
 40
0.0
 40
0.0
 40
0.0
 40
0.0
 40
0.2500000000000037
 40
0.2500000000000037
 40
0.3750000000000055
 40
0.3750000000000055
 40
0.5000000000000073
 40
0.5000000000000073
 40
0.5625000000000057
 40
0.5625000000000057
 40
0.625000000000004
 40
0.625000000000004
 40
0.7500000000000027
 40
0.7500000000000027
 40
1.0
 40
1.0
 40
1.0
 40
1.0
 10
73.35927834435167
 20
139.2642451546097
 30
0.0
 10
73.31928212652782
 20
139.1853667480522
 30
0.0
 10
73.27416849869017
 20
139.1022371013607
 30
0.0
 10
73.19091428432364
 20
138.9687484370098
 30
0.0
 10
73.16069495570315
 20
138.9228833811278
 30
0.0
 10
73.08860672056173
 20
138.8246918287229
 30
0.0
 10
73.04668940315065
 20
138.7723820091993
 30
0.0
 10
72.97543879859917
 20
138.7003761064649
 30
0.0
 10
72.95120298621987
 20
138.6786058941632
 30
0.0
 10
72.90560479603522
 20
138.6431312358343
 30
0.0
 10
72.8848023064355
 20
138.6297610516567
 30
0.0
 10
72.82986130801639
 20
138.6001911395215
 30
0.0
 10
72.80179231992956
 20
138.5930646172195
 30
0.0
 10
72.73128948986674
 20
138.5861902457368
 30
0.0
 10
72.69986540207586
 20
138.600505404824
 30
0.0
 10
72.67354033436726
 20
138.6198622068345
 30
0.0
  0
SPLINE
  5
9C
330
1F
100
AcDbEntity
  8
0
  6
Continuous
 62
     7
370
    15
100
AcDbSpline
210
0.0
220
0.0
230
1.0
 70
     8
 71
     3
 72
    10
 73
     6
 74
     0
 42
0.00000001
 43
0.00000001
 40
0.0
 40
0.0
 40
0.0
 40
0.0
 40
0.4999999999999989
 40
0.4999999999999989
 40
1.0
 40
1.0
 40
1.0
 40
1.0
 10
74.03272610264925
 20
140.1896642559515
 30
0.0
 10
73.90783783189906
 20
140.05866797788
 30
0.0
 10
73.78638771383861
 20
139.914955141215
 30
0.0
 10
73.55680373888119
 20
139.6043848485258
 30
0.0
 10
73.4465287634852
 20
139.4363157754628
 30
0.0
 10
73.35927834435167
 20
139.2642451546097
 30
0.0
  0
SPLINE
  5
9D
330
1F
100
AcDbEntity
  8
0
  6
Continuous
 62
     7
370
    15
100
AcDbSpline
210
0.0
220
0.0
230
1.0
 70
     8
 71
     3
 72
     8
 73
     4
 74
     0
 42
0.00000001
 43
0.00000001
 40
0.0
 40
0.0
 40
0.0
 40
0.0
 40
1.0
 40
1.0
 40
1.0
 40
1.0
 10
74.28265121861499
 20
140.1872112226961
 30
0.0
 10
74.19563318876662
 20
140.1876777874832
 30
0.0
 10
74.11267916238668
 20
140.1887178070593
 30
0.0
 10
74.03272610264693
 20
140.1896642559516
 30
0.0
  0
SPLINE
  5
9E
330
1F
100
AcDbEntity
  8
0
  6
Continuous
 62
     7
370
    15
100
AcDbSpline
210
0.0
220
0.0
230
1.0
 70
     8
 71
     3
 72
     8
 73
     4
 74
     0
 42
0.00000001
 43
0.00000001
 40
0.0
 40
0.0
 40
0.0
 40
0.0
 40
1.0
 40
1.0
 40
1.0
 40
1.0
 10
74.03272610264693
 20
75.69309385231145
 30
0.0
 10
74.1126791623872
 20
75.69404030120371
 30
0.0
 10
74.1956331887677
 20
75.69508032077985
 30
0.0
 10
74.28265121861669
 20
75.69554688556691
 30
0.0
  0
SPLINE
  5
9F
330
1F
100
AcDbEntity
  8
0
  6
Continuous
 62
     7
370
    15
100
AcDbSpline
210
0.0
220
0.0
230
1.0
 70
     8
 71
     3
 72
    10
 73
     6
 74
     0
 42
0.00000001
 43
0.00000001
 40
0.0
 40
0.0
 40
0.0
 40
0.0
 40
0.4999999999999989
 40
0.4999999999999989
 40
1.0
 40
1.0
 40
1.0
 40
1.0
 10
73.35927834435074
 20
76.61851295365513
 30
0.0
 10
73.44652876348422
 20
76.44644233280177
 30
0.0
 10
73.55680373888038
 20
76.27837325973833
 30
0.0
 10
73.78638771383822
 20
75.9678029670485
 30
0.0
 10
73.90783783189886
 20
75.82409013038323
 30
0.0
 10
74.03272610264925
 20
75.69309385231152
 30
0.0
  0
LINE
  5
A0
330
1F
100
AcDbEntity
  8
0
  6
Continuous
 62
     7
370
    15
100
AcDbLine
 10
150.2327261026
 20
156.9311739098
 30
0.0
 11
145.5447551236
 21
156.9311739098
 31
0.0
  0
LINE
  5
A1
330
1F
100
AcDbEntity
  8
0
  6
Continuous
 62
     7
370
    15
100
AcDbLine
 10
145.5447551236
 20
146.892341815
 30
0.0
 11
150.2327261026
 21
146.892341815
 31
0.0
  0
LINE
  5
A2
330
1F
100
AcDbEntity
  8
0
  6
Continuous
 62
     7
370
    15
100
AcDbLine
 10
145.5447551236
 20
146.892341815
 30
0.0
 11
145.5447551236
 21
156.9311739098
 31
0.0
  0
SPLINE
  5
A3
330
1F
100
AcDbEntity
  8
0
  6
Continuous
 62
     7
370
    15
100
AcDbSpline
210
0.0
220
0.0
230
1.0
 70
     8
 71
     3
 72
     8
 73
     4
 74
     0
 42
0.00000001
 43
0.00000001
 40
0.0
 40
0.0
 40
0.0
 40
0.0
 40
1.0
 40
1.0
 40
1.0
 40
1.0
 10
140.3727261026493
 20
154.5386499148364
 30
0.0
 10
139.9224178669647
 20
155.33636503995
 30
0.0
 10
139.4717240504411
 20
156.1338633396072
 30
0.0
 10
139.0206970817279
 20
156.9311739097951
 30
0.0
  0
LINE
  5
A4
330
1F
100
AcDbEntity
  8
0
  6
Continuous
 62
     7
370
    15
100
AcDbLine
 10
140.3727261026
 20
143.8368265603
 30
0.0
 11
140.3727261026
 21
154.5386499148
 31
0.0
  0
SPLINE
  5
A5
330
1F
100
AcDbEntity
  8
0
  6
Continuous
 62
     7
370
    15
100
AcDbSpline
210
0.0
220
0.0
230
1.0
 70
     8
 71
     3
 72
     8
 73
     4
 74
     0
 42
0.00000001
 43
0.00000001
 40
0.0
 40
0.0
 40
0.0
 40
0.0
 40
1.0
 40
1.0
 40
1.0
 40
1.0
 10
139.0206970817278
 20
146.8923418150185
 30
0.0
 10
139.4776234355274
 20
145.8764238453442
 30
0.0
 10
139.9288290773304
 20
144.857628016253
 30
0.0
 10
140.3727261026493
 20
143.8368265602694
 30
0.0
  0
LINE
  5
A6
330
1F
100
AcDbEntity
  8
0
  6
Continuous
 62
     7
370
    15
100
AcDbLine
 10
140.3727261026
 20
143.8368265603
 30
0.0
 11
140.3727261026
 21
142.6556142466
 31
0.0
  0
SPLINE
  5
A7
330
1F
100
AcDbEntity
  8
0
  6
Continuous
 62
     7
370
    15
100
AcDbSpline
210
0.0
220
0.0
230
1.0
 70
     8
 71
     3
 72
    14
 73
    10
 74
     0
 42
0.00000001
 43
0.00000001
 40
0.0
 40
0.0
 40
0.0
 40
0.0
 40
0.25
 40
0.25
 40
0.5
 40
0.5
 40
0.75
 40
0.75
 40
1.0
 40
1.0
 40
1.0
 40
1.0
 10
140.3727261026492
 20
142.6556142466286
 30
0.0
 10
140.3727261026492
 20
142.5317473698394
 30
0.0
 10
140.3885852302768
 20
142.4074876930019
 30
0.0
 10
140.4519468757967
 20
142.169879330596
 30
0.0
 10
140.5005365838461
 20
142.0530989458435
 30
0.0
 10
140.6328221886209
 20
141.8442964172345
 30
0.0
 10
140.7181469798815
 20
141.7497857136419
 30
0.0
 10
140.9250382281877
 20
141.6118289128396
 30
0.0
 10
141.0490061740777
 20
141.569910467204
 30
0.0
 10
141.1727261026492
 20
141.5699104672039
 30
0.0
  0
LINE
  5
A8
330
1F
100
AcDbEntity
  8
0
  6
Continuous
 62
     7
370
    15
100
AcDbLine
 10
141.1727261026
 20
141.5699104672
 30
0.0
 11
143.3927261026
 21
141.5699104672
 31
0.0
  0
SPLINE
  5
A9
330
1F
100
AcDbEntity
  8
0
  6
Continuous
 62
     7
370
    15
100
AcDbSpline
210
0.0
220
0.0
230
1.0
 70
     8
 71
     3
 72
    12
 73
     8
 74
     0
 42
0.00000001
 43
0.00000001
 40
0.0
 40
0.0
 40
0.0
 40
0.0
 40
0.250000000000002
 40
0.250000000000002
 40
0.500000000000004
 40
0.500000000000004
 40
1.0
 40
1.0
 40
1.0
 40
1.0
 10
143.3927261026492
 20
141.569910467204
 30
0.0
 10
143.5164270526292
 20
141.569910467204
 30
0.0
 10
143.6405236648994
 20
141.6119040789365
 30
0.0
 10
143.8471788279864
 20
141.7496994055809
 30
0.0
 10
143.9322195947133
 20
141.8436730040458
 30
0.0
 10
144.1316981631869
 20
142.1584612102667
 30
0.0
 10
144.1927261026493
 20
142.4087002024943
 30
0.0
 10
144.1927261026493
 20
142.6556142466286
 30
0.0
  0
LINE
  5
AA
330
1F
100
AcDbEntity
  8
0
  6
Continuous
 62
     7
370
    15
100
AcDbLine
 10
144.1927261026
 20
142.6556142466
 30
0.0
 11
144.1927261026
 21
143.8368265603
 31
0.0
  0
SPLINE
  5
AB
330
1F
100
AcDbEntity
  8
0
  6
Continuous
 62
     7
370
    15
100
AcDbSpline
210
0.0
220
0.0
230
1.0
 70
     8
 71
     3
 72
     8
 73
     4
 74
     0
 42
0.00000001
 43
0.00000001
 40
0.0
 40
0.0
 40
0.0
 40
0.0
 40
1.0
 40
1.0
 40
1.0
 40
1.0
 10
144.1927261026492
 20
143.8368265602694
 30
0.0
 10
144.6368761136747
 20
144.858209791221
 30
0.0
 10
145.0879504239327
 20
145.8766943279893
 30
0.0
 10
145.5447551235706
 20
146.8923418150185
 30
0.0
  0
SPLINE
  5
AC
330
1F
100
AcDbEntity
  8
0
  6
Continuous
 62
     7
370
    15
100
AcDbSpline
210
0.0
220
0.0
230
1.0
 70
     8
 71
     3
 72
    16
 73
    12
 74
     0
 42
0.00000001
 43
0.00000001
 40
0.0
 40
0.0
 40
0.0
 40
0.0
 40
0.1249999999999978
 40
0.1249999999999978
 40
0.2499999999999955
 40
0.2499999999999955
 40
0.499999999999997
 40
0.499999999999997
 40
0.7499999999999984
 40
0.7499999999999984
 40
1.0
 40
1.0
 40
1.0
 40
1.0
 10
150.2327261026493
 20
146.8923418150185
 30
0.0
 10
150.3083638090604
 20
146.8923418150185
 30
0.0
 10
150.3846794734786
 20
146.8809968148835
 30
0.0
 10
150.5290902113706
 20
146.838344264245
 30
0.0
 10
150.597536660479
 20
146.8074099395621
 30
0.0
 10
150.7924679130922
 20
146.6881535677946
 30
0.0
 10
150.9003090868731
 20
146.578001554174
 30
0.0
 10
151.0690218350851
 20
146.3298654685159
 30
0.0
 10
151.1313862478086
 20
146.1895231445122
 30
0.0
 10
151.212690172317
 20
145.9012514530236
 30
0.0
 10
151.2327261026492
 20
145.7504464800438
 30
0.0
 10
151.2327261026493
 20
145.6000765886985
 30
0.0
  0
LINE
  5
AD
330
1F
100
AcDbEntity
  8
0
  6
Continuous
 62
     7
370
    15
100
AcDbLine
 10
151.2327261026
 20
145.6000765887
 30
0.0
 11
151.2327261026
 21
139.2913790541
 31
0.0
  0
SPLINE
  5
AE
330
1F
100
AcDbEntity
  8
0
  6
Continuous
 62
     7
370
    15
100
AcDbSpline
210
0.0
220
0.0
230
1.0
 70
     8
 71
     3
 72
    12
 73
     8
 74
     0
 42
0.00000001
 43
0.00000001
 40
0.0
 40
0.0
 40
0.0
 40
0.0
 40
0.4999999999999953
 40
0.4999999999999953
 40
0.7499999999999977
 40
0.7499999999999977
 40
1.0
 40
1.0
 40
1.0
 40
1.0
 10
151.2327261026493
 20
155.9101188749773
 30
0.0
 10
151.2327261026493
 20
156.1753883077438
 30
0.0
 10
151.1281193591628
 20
156.4379034133962
 30
0.0
 10
150.8514510074175
 20
156.7234410194334
 30
0.0
 10
150.7410857480655
 20
156.7997626362948
 30
0.0
 10
150.4970136994498
 20
156.904104801135
 30
0.0
 10
150.365261238118
 20
156.9311739097951
 30
0.0
 10
150.2327261026493
 20
156.9311739097951
 30
0.0
  0
LINE
  5
AF
330
1F
100
AcDbEntity
  8
0
  6
Continuous
 62
     7
370
    15
100
AcDbLine
 10
151.2327261026
 20
145.6000765887
 30
0.0
 11
151.2327261026
 21
155.910118875
 31
0.0
  0
SPLINE
  5
B0
330
1F
100
AcDbEntity
  8
0
  6
Continuous
 62
     7
370
    15
100
AcDbSpline
210
0.0
220
0.0
230
1.0
 70
     8
 71
     3
 72
    14
 73
    10
 74
     0
 42
0.00000001
 43
0.00000001
 40
0.0
 40
0.0
 40
0.0
 40
0.0
 40
0.25
 40
0.25
 40
0.5
 40
0.5
 40
0.75
 40
0.75
 40
1.0
 40
1.0
 40
1.0
 40
1.0
 10
144.1927261026492
 20
153.6349302949795
 30
0.0
 10
144.1927261026493
 20
153.5285736012272
 30
0.0
 10
144.172338546508
 20
153.422733113467
 30
0.0
 10
144.0937042010465
 20
153.2261681999306
 30
0.0
 10
144.0349728414078
 20
153.1349974576435
 30
0.0
 10
143.8883639358053
 20
152.9830863686119
 30
0.0
 10
143.7989586157787
 20
152.9210175317923
 30
0.0
 10
143.6050678831784
 20
152.8377494840336
 30
0.0
 10
143.4985628932886
 20
152.8156548143039
 30
0.0
 10
143.3927261026492
 20
152.8156548143039
 30
0.0
  0
SPLINE
  5
B1
330
1F
100
AcDbEntity
  8
0
  6
Continuous
 62
     7
370
    15
100
AcDbSpline
210
0.0
220
0.0
230
1.0
 70
     8
 71
     3
 72
     8
 73
     4
 74
     0
 42
0.00000001
 43
0.00000001
 40
0.0
 40
0.0
 40
0.0
 40
0.0
 40
1.0
 40
1.0
 40
1.0
 40
1.0
 10
145.5447551235706
 20
156.9311739097951
 30
0.0
 10
145.0937281548574
 20
156.1338633396072
 30
0.0
 10
144.6430343383338
 20
155.33636503995
 30
0.0
 10
144.1927261026492
 20
154.5386499148364
 30
0.0
  0
LINE
  5
B2
330
1F
100
AcDbEntity
  8
0
  6
Continuous
 62
     7
370
    15
100
AcDbLine
 10
144.1927261026
 20
143.8368265603
 30
0.0
 11
144.1927261026
 21
154.5386499148
 31
0.0
  0
SPLINE
  5
B3
330
1F
100
AcDbEntity
  8
0
  6
Continuous
 62
     7
370
    15
100
AcDbSpline
210
0.0
220
0.0
230
1.0
 70
     8
 71
     3
 72
    10
 73
     6
 74
     0
 42
0.00000001
 43
0.00000001
 40
0.0
 40
0.0
 40
0.0
 40
0.0
 40
0.5
 40
0.5
 40
1.0
 40
1.0
 40
1.0
 40
1.0
 10
141.1727261026492
 20
152.8156548143039
 30
0.0
 10
140.9601897887929
 20
152.8156548143039
 30
0.0
 10
140.7502536171389
 20
152.9070674009341
 30
0.0
 10
140.4565464761276
 20
153.2118122668384
 30
0.0
 10
140.3727261026492
 20
153.423967236747
 30
0.0
 10
140.3727261026492
 20
153.6349302949795
 30
0.0
  0
LINE
  5
B4
330
1F
100
AcDbEntity
  8
0
  6
Continuous
 62
     7
370
    15
100
AcDbLine
 10
143.3927261026
 20
152.8156548143
 30
0.0
 11
141.1727261026
 21
152.8156548143
 31
0.0
  0
ARC
  5
B5
330
1F
100
AcDbEntity
  8
0
  6
Continuous
 62
     7
370
    15
100
AcDbCircle
 10
131.2829340161
 20
140.6215955513
 30
0.0
 40
11.33786238475942
100
AcDbArc
 50
77.5421928469
 51
102.5246235813
  0
LINE
  5
B6
330
1F
100
AcDbEntity
  8
0
  6
Continuous
 62
     7
370
    15
100
AcDbLine
 10
74.0327261026
 20
75.6913790541
 30
0.0
 11
74.0327261026
 21
75.6930938523
 31
0.0
  0
SPLINE
  5
B7
330
1F
100
AcDbEntity
  8
0
  6
Continuous
 62
     7
370
    15
100
AcDbSpline
210
0.0
220
0.0
230
1.0
 70
     8
 71
     3
 72
    37
 73
    33
 74
     0
 42
0.00000001
 43
0.00000001
 40
0.0
 40
0.0
 40
0.0
 40
0.0
 40
0.0243233406197276
 40
0.0473846717985462
 40
0.0680695455676992
 40
0.1100860600096845
 40
0.1314480565192211
 40
0.1533430675181565
 40
0.1977346139040904
 40
0.2202529371221365
 40
0.2450549321275051
 40
0.2953283104322653
 40
0.3208270291703507
 40
0.3490477819293851
 40
0.4063088942459446
 40
0.4353946967332755
 40
0.466089659711624
 40
0.528466877991537
 40
0.5602179851337424
 40
0.5917307544983492
 40
0.6234670090947048
 40
0.6559258483608682
 40
0.6886437795376091
 40
0.7192999382127248
 40
0.7818494183889629
 40
0.8138830978441083
 40
0.8370548201545843
 40
0.8841268542439958
 40
0.9081044387475633
 40
0.9312816497571368
 40
0.9785815619411151
 40
1.0
 40
1.0
 40
1.0
 40
1.0
 10
160.743081006695
 20
90.94294838902032
 30
0.0
 10
160.7410117040116
 20
90.94263580982955
 30
0.0
 10
160.7369804638116
 20
90.94202686952829
 30
0.0
 10
160.7746067981034
 20
90.94771335645873
 30
0.0
 10
160.8397501319391
 20
90.95743797510562
 30
0.0
 10
160.9391323561218
 20
90.97199173901453
 30
0.0
 10
161.0699847812852
 20
90.99038109554489
 30
0.0
 10
161.2247289084441
 20
91.01145908610528
 30
0.0
 10
161.4106949323466
 20
91.03544832377182
 30
0.0
 10
161.6276358291994
 20
91.06128373728963
 30
0.0
 10
161.8756315398363
 20
91.0890165839956
 30
0.0
 10
162.1565547926894
 20
91.11699729380179
 30
0.0
 10
162.4666398611957
 20
91.14329962801003
 30
0.0
 10
162.8106615330152
 20
91.1688045292459
 30
0.0
 10
163.1842869593388
 20
91.18987870487635
 30
0.0
 10
163.5765878245052
 20
91.20428372689284
 30
0.0
 10
163.9916152294589
 20
91.21385099891566
 30
0.0
 10
164.421174079294
 20
91.2144056221064
 30
0.0
 10
164.8487255038734
 20
91.20553151569652
 30
0.0
 10
165.1678433474257
 20
91.1942693518263
 30
0.0
 10
165.4827181565453
 20
91.1786705987938
 30
0.0
 10
165.7923705872497
 20
91.15900224649103
 30
0.0
 10
166.0868186393278
 20
91.13629985602113
 30
0.0
 10
166.4549900799992
 20
91.10334131389932
 30
0.0
 10
166.7899121956634
 20
91.06739590704179
 30
0.0
 10
167.0623552527051
 20
91.03434219531151
 30
0.0
 10
167.2746525162976
 20
91.0070329949623
 30
0.0
 10
167.439127352946
 20
90.98439074512007
 30
0.0
 10
167.5659593734629
 20
90.96618591735948
 30
0.0
 10
167.6657485284742
 20
90.95152430024604
 30
0.0
 10
167.7255415062094
 20
90.94246899001813
 30
0.0
 10
167.7300872083641
 20
90.9417792889517
 30
0.0
 10
167.7315040328322
 20
90.94156431988567
 30
0.0
  0
SPLINE
  5
B8
330
1F
100
AcDbEntity
  8
0
  6
Continuous
 62
     7
370
    15
100
AcDbSpline
210
0.0
220
0.0
230
1.0
 70
     8
 71
     3
 72
     9
 73
     5
 74
     0
 42
0.00000001
 43
0.00000001
 40
0.0
 40
0.0
 40
0.0
 40
0.0
 40
0.1017170788011785
 40
1.0
 40
1.0
 40
1.0
 40
1.0
 10
162.1873168930298
 20
91.11863657600186
 30
0.0
 10
162.1766678007895
 20
91.11778396118989
 30
0.0
 10
162.0719745441035
 20
91.10940174237248
 30
0.0
 10
161.979508023763
 20
91.09947541425997
 30
0.0
 10
161.8964469277585
 20
91.0905587632463
 30
0.0
  0
SPLINE
  5
B9
330
1F
100
AcDbEntity
  8
0
  6
Continuous
 62
     7
370
    15
100
AcDbSpline
210
0.0
220
0.0
230
1.0
 70
     8
 71
     3
 72
    66
 73
    62
 74
     0
 42
0.00000001
 43
0.00000001
 40
-0.0625000000000001
 40
-0.0625000000000001
 40
0.0
 40
0.0
 40
0.0624999999999991
 40
0.0624999999999991
 40
0.0937499999999992
 40
0.0937499999999992
 40
0.1249999999999992
 40
0.1249999999999992
 40
0.1562499999999992
 40
0.1562499999999992
 40
0.1874999999999993
 40
0.1874999999999993
 40
0.2187499999999993
 40
0.2187499999999993
 40
0.2499999999999993
 40
0.2499999999999993
 40
0.2812499999999994
 40
0.2812499999999994
 40
0.3124999999999994
 40
0.3124999999999994
 40
0.3437499999999995
 40
0.3437499999999995
 40
0.3749999999999995
 40
0.3749999999999995
 40
0.4062499999999996
 40
0.4062499999999996
 40
0.4374999999999997
 40
0.4374999999999997
 40
0.4687499999999997
 40
0.4687499999999997
 40
0.4999999999999998
 40
0.4999999999999998
 40
0.5312499999999998
 40
0.5312499999999998
 40
0.5624999999999998
 40
0.5624999999999998
 40
0.5937499999999998
 40
0.5937499999999998
 40
0.6249999999999998
 40
0.6249999999999998
 40
0.6562499999999998
 40
0.6562499999999998
 40
0.6874999999999998
 40
0.6874999999999998
 40
0.7187499999999998
 40
0.7187499999999998
 40
0.7499999999999998
 40
0.7499999999999998
 40
0.7812499999999999
 40
0.7812499999999999
 40
0.8124999999999999
 40
0.8124999999999999
 40
0.8437499999999999
 40
0.8437499999999999
 40
0.8749999999999999
 40
0.8749999999999999
 40
0.9062499999999999
 40
0.9062499999999999
 40
0.9374999999999999
 40
0.9374999999999999
 40
1.0
 40
1.0
 40
1.062499999999999
 40
1.062499999999999
 10
161.5573239222563
 20
109.9241145544621
 30
0.0
 10
162.2355699345447
 20
110.4530202713713
 30
0.0
 10
162.6143643272503
 20
110.6487936345898
 30
0.0
 10
163.2272442628732
 20
110.8467770180024
 30
0.0
 10
163.4346982261274
 20
110.8950741621019
 30
0.0
 10
163.8556309225653
 20
110.9580839082486
 30
0.0
 10
164.0706781409944
 20
110.9727373275137
 30
0.0
 10
164.4996110622974
 20
110.9670857469218
 30
0.0
 10
164.7114315578179
 20
110.9470876671385
 30
0.0
 10
165.1298864958801
 20
110.8733706740645
 30
0.0
 10
165.3378673221978
 20
110.8191765845863
 30
0.0
 10
165.7421285561921
 20
110.6764998802529
 30
0.0
 10
165.9355851966756
 20
110.5892853905057
 30
0.0
 10
166.3050393566615
 20
110.3826774522082
 30
0.0
 10
166.4819792819912
 20
110.2625603722464
 30
0.0
 10
166.8122071675436
 20
109.9890589226086
 30
0.0
 10
166.9617303997253
 20
109.8390623972417
 30
0.0
 10
167.2283242212868
 20
109.5112883895407
 30
0.0
 10
167.3464774105796
 20
109.3314710850776
 30
0.0
 10
167.5395991586064
 20
108.9482895147981
 30
0.0
 10
167.612946714126
 20
108.7492140257618
 30
0.0
 10
167.711200454222
 20
108.3353838973202
 30
0.0
 10
167.7355419537247
 20
108.1176584395325
 30
0.0
 10
167.7293718579759
 20
107.6905612078039
 30
0.0
 10
167.6997795146769
 20
107.4777999849083
 30
0.0
 10
167.5884509854746
 20
107.0606587840496
 30
0.0
 10
167.5087080816781
 20
106.8625360309055
 30
0.0
 10
167.3054289664958
 20
106.485212422073
 30
0.0
 10
167.1818375377579
 20
106.3072041926044
 30
0.0
 10
166.9042260503568
 20
105.9834538431852
 30
0.0
 10
166.7474799144505
 20
105.8344264540548
 30
0.0
 10
166.4109599374192
 20
105.5699482601356
 30
0.0
 10
166.2319121062957
 20
105.4544875538074
 30
0.0
 10
165.8535928081844
 20
105.2547666337082
 30
0.0
 10
165.6538729456348
 20
105.1707919924042
 30
0.0
 10
165.2482480633051
 20
105.0387111512043
 30
0.0
 10
165.0406837876487
 20
104.9896287239446
 30
0.0
 10
164.6160685777796
 20
104.9251681192761
 30
0.0
 10
164.4003673080731
 20
104.9103248441506
 30
0.0
 10
163.9741229359204
 20
104.9151975817214
 30
0.0
 10
163.7618655449646
 20
104.9346131861157
 30
0.0
 10
163.3391300383737
 20
105.0084434351823
 30
0.0
 10
163.1299373061566
 20
105.06299846619
 30
0.0
 10
162.728804780042
 20
105.2040813556936
 30
0.0
 10
162.5349662110076
 20
105.2908649023314
 30
0.0
 10
162.1615834186536
 20
105.4991863199512
 30
0.0
 10
161.9826788761043
 20
105.6209608884832
 30
0.0
 10
161.6560324816585
 20
105.8912857035319
 30
0.0
 10
161.5061457855808
 20
106.0408546232801
 30
0.0
 10
161.2363081844242
 20
106.3723393103948
 30
0.0
 10
161.1173568296447
 20
106.5541600284546
 30
0.0
 10
160.92564837009
 20
106.9352151931909
 30
0.0
 10
160.8504506561905
 20
107.1393793529247
 30
0.0
 10
160.7525541741022
 20
107.5574529725595
 30
0.0
 10
160.7294985731145
 20
107.7694227364066
 30
0.0
 10
160.7366715017777
 20
108.1994051419011
 30
0.0
 10
160.7676621924138
 20
108.4148725165041
 30
0.0
 10
160.8791849299665
 20
108.8277273485448
 30
0.0
 10
160.9611725591284
 20
109.0300628941997
 30
0.0
 10
161.2678680666893
 20
109.5943611120492
 30
0.0
 10
161.5573239222563
 20
109.9241145544621
 30
0.0
 10
162.2355699345447
 20
110.4530202713713
 30
0.0
  0
SPLINE
  5
BA
330
1F
100
AcDbEntity
  8
0
  6
Continuous
 62
     7
370
    15
100
AcDbSpline
210
0.0
220
0.0
230
1.0
 70
     8
 71
     3
 72
    37
 73
    33
 74
     0
 42
0.00000001
 43
0.00000001
 40
0.0
 40
0.0
 40
0.0
 40
0.0
 40
0.0392082674721525
 40
0.061772285270461
 40
0.0824993429531819
 40
0.1245821907564976
 40
0.1459656004379276
 40
0.1682643626245653
 40
0.2134680386877021
 40
0.2363947677783508
 40
0.2617822342811127
 40
0.3132472624548505
 40
0.3393544177005671
 40
0.368100085499698
 40
0.4264410736046841
 40
0.4560857751342147
 40
0.4870369945912177
 40
0.5499505762700446
 40
0.5819857289179787
 40
0.6134814457590133
 40
0.6452036883143563
 40
0.6776635973566087
 40
0.7103905437966891
 40
0.7406864992394614
 40
0.8025359961814189
 40
0.8342375053655082
 40
0.8568043247967105
 40
0.9026526567983079
 40
0.9260082882235713
 40
0.9485799697760541
 40
0.9946195106363278
 40
1.0
 40
1.0
 40
1.0
 40
1.0
 10
167.7287327325541
 20
124.9407752025918
 30
0.0
 10
167.7246337699791
 20
124.9401481760418
 30
0.0
 10
167.7181758900007
 20
124.9391603011517
 30
0.0
 10
167.6594588548301
 20
124.9303451356427
 30
0.0
 10
167.5781796017043
 20
124.9183315914319
 30
0.0
 10
167.4644141296257
 20
124.9019231868525
 30
0.0
 10
167.3193611469756
 20
124.8819506442513
 30
0.0
 10
167.1493927993942
 20
124.8593608144567
 30
0.0
 10
166.9478832879322
 20
124.8341915313677
 30
0.0
 10
166.7154265481524
 20
124.8076390246934
 30
0.0
 10
166.4508030263414
 20
124.7794815982344
 30
0.0
 10
166.1532393121359
 20
124.7517349021904
 30
0.0
 10
165.8275090743207
 20
124.7264639998245
 30
0.0
 10
165.468595443811
 20
124.7026629026218
 30
0.0
 10
165.0817209259596
 20
124.6842035016936
 30
0.0
 10
164.6790987334664
 20
124.6731867433226
 30
0.0
 10
164.2571228211419
 20
124.6675501218888
 30
0.0
 10
163.8243235072476
 20
124.6713342660558
 30
0.0
 10
163.3976053334545
 20
124.6844591231862
 30
0.0
 10
163.0819191277138
 20
124.6987082573891
 30
0.0
 10
162.7730430856393
 20
124.7169546923111
 30
0.0
 10
162.4710770110255
 20
124.7388935342174
 30
0.0
 10
162.1870485519618
 20
124.7632491625516
 30
0.0
 10
161.8364685998305
 20
124.7974461837765
 30
0.0
 10
161.5229937193669
 20
124.8332752808925
 30
0.0
 10
161.2744166737052
 20
124.8648476416037
 30
0.0
 10
161.0855060454885
 20
124.8900712774535
 30
0.0
 10
160.9443059507825
 20
124.9100429893147
 30
0.0
 10
160.8404900586803
 20
124.9252242371366
 30
0.0
 10
160.7646745086148
 20
124.9365125637857
 30
0.0
 10
160.7285953940259
 20
124.9420059101093
 30
0.0
 10
160.7341431940018
 20
124.9411641779425
 30
0.0
 10
160.7347237047217
 20
124.9410761007681
 30
0.0
  0
SPLINE
  5
BB
330
1F
100
AcDbEntity
  8
0
  6
Continuous
 62
     7
370
    15
100
AcDbSpline
210
0.0
220
0.0
230
1.0
 70
     8
 71
     3
 72
     9
 73
     5
 74
     0
 42
0.00000001
 43
0.00000001
 40
0.0
 40
0.0
 40
0.0
 40
0.0
 40
0.3854829157791015
 40
1.0
 40
1.0
 40
1.0
 40
1.0
 10
161.4909256037457
 20
124.8381046747384
 30
0.0
 10
161.5388896333981
 20
124.8322531343291
 30
0.0
 10
161.6633154579655
 20
124.8170733684568
 30
0.0
 10
161.807712486302
 20
124.8016668895676
 30
0.0
 10
161.8964469271255
 20
124.7921993450826
 30
0.0
  0
LINE
  5
BC
330
1F
100
AcDbEntity
  8
0
  6
Continuous
 62
     7
370
    15
100
AcDbLine
 10
172.811009526
 20
90.9413790541
 30
0.0
 11
172.811009526
 21
124.9413790541
 31
0.0
  0
CIRCLE
  5
BD
330
1F
100
AcDbEntity
  8
0
  6
Continuous
 62
     7
370
    15
100
AcDbCircle
 10
164.2327261026
 20
107.9413790541
 30
0.0
 40
2.500000000000014
  0
LINE
  5
BE
330
1F
100
AcDbEntity
  8
0
  6
Continuous
 62
     7
370
    15
100
AcDbLine
 10
74.0327261026
 20
140.1913790541
 30
0.0
 11
74.0327261026
 21
140.189664256
 31
0.0
  0
LINE
  5
BF
330
1F
100
AcDbEntity
  8
0
  6
Continuous
 62
     7
370
    15
100
AcDbLine
 10
217.2827261026
 20
96.2901600374
 30
0.0
 11
217.2827261026
 21
119.5925979995
 31
0.0
  0
LINE
  5
C0
330
1F
100
AcDbEntity
  8
0
  6
Continuous
 62
     7
370
    15
100
AcDbLine
 10
217.3121709645
 20
97.9425359459
 30
0.0
 11
217.3600483098
 21
96.7239761362
 31
0.0
  0
LINE
  5
C1
330
1F
100
AcDbEntity
  8
0
  6
Continuous
 62
     7
370
    15
100
AcDbLine
 10
217.2827261026
 20
98.6919577231
 30
0.0
 11
217.3121709645
 21
97.9425359459
 31
0.0
  0
LINE
  5
C2
330
1F
100
AcDbEntity
  8
0
  6
Continuous
 62
     7
370
    15
100
AcDbLine
 10
217.3011585861
 20
119.1610957556
 30
0.0
 11
217.2827261026
 21
118.6919577231
 31
0.0
  0
SPLINE
  5
C3
330
1F
100
AcDbEntity
  8
0
  6
HIDDEN
 62
     7
370
     0
100
AcDbSpline
210
0.0
220
0.0
230
1.0
 70
     8
 71
     3
 72
    80
 73
    76
 74
     0
 42
0.00000001
 43
0.00000001
 40
-0.03125
 40
-0.03125
 40
0.0
 40
0.0
 40
0.0312500000000002
 40
0.0312500000000002
 40
0.0468750000000002
 40
0.0468750000000002
 40
0.0625000000000001
 40
0.0625000000000001
 40
0.0937499999999999
 40
0.0937499999999999
 40
0.1249999999999997
 40
0.1249999999999997
 40
0.1562499999999995
 40
0.1562499999999995
 40
0.1874999999999993
 40
0.1874999999999993
 40
0.2187499999999991
 40
0.2187499999999991
 40
0.2499999999999989
 40
0.2499999999999989
 40
0.2812499999999987
 40
0.2812499999999987
 40
0.3124999999999984
 40
0.3124999999999984
 40
0.3281249999999985
 40
0.3281249999999985
 40
0.3437499999999986
 40
0.3437499999999986
 40
0.3749999999999986
 40
0.3749999999999986
 40
0.4062499999999987
 40
0.4062499999999987
 40
0.4218749999999989
 40
0.4218749999999989
 40
0.4374999999999991
 40
0.4374999999999991
 40
0.4687499999999993
 40
0.4687499999999993
 40
0.4999999999999994
 40
0.4999999999999994
 40
0.5312499999999997
 40
0.5312499999999997
 40
0.5624999999999998
 40
0.5624999999999998
 40
0.59375
 40
0.59375
 40
0.6250000000000001
 40
0.6250000000000001
 40
0.6562500000000003
 40
0.6562500000000003
 40
0.6875000000000006
 40
0.6875000000000006
 40
0.7031250000000007
 40
0.7031250000000007
 40
0.7187500000000007
 40
0.7187500000000007
 40
0.7500000000000003
 40
0.7500000000000003
 40
0.78125
 40
0.78125
 40
0.7968749999999998
 40
0.7968749999999998
 40
0.8124999999999997
 40
0.8124999999999997
 40
0.8437499999999998
 40
0.8437499999999998
 40
0.8749999999999998
 40
0.8749999999999998
 40
0.9062499999999999
 40
0.9062499999999999
 40
0.9375
 40
0.9375
 40
0.96875
 40
0.96875
 40
1.0
 40
1.0
 40
1.03125
 40
1.03125
 10
130.952180789873
 20
156.8009283106095
 30
0.0
 10
131.6132714154256
 20
156.8009283106095
 30
0.0
 10
131.9382515446772
 20
156.7940301647827
 30
0.0
 10
132.4177249559236
 20
156.7735037368022
 30
0.0
 10
132.5762067737644
 20
156.7649475097146
 30
0.0
 10
132.8904263062687
 20
156.744221134497
 30
0.0
 10
133.0465465899491
 20
156.7319938342906
 30
0.0
 10
133.5006006189057
 20
156.6904245404614
 30
0.0
 10
133.7877040018455
 20
156.6560802553636
 30
0.0
 10
134.3310585578725
 20
156.5727561310413
 30
0.0
 10
134.5881621690781
 20
156.5233179082668
 30
0.0
 10
135.0490684240169
 20
156.4119381785069
 30
0.0
 10
135.2559661332319
 20
156.3496436649948
 30
0.0
 10
135.6214914472241
 20
156.2097140221238
 30
0.0
 10
135.77669696935
 20
156.1330981243748
 30
0.0
 10
136.0261273559497
 20
155.969139504519
 30
0.0
 10
136.1222173117349
 20
155.8805826504233
 30
0.0
 10
136.2507361609285
 20
155.6931019683175
 30
0.0
 10
136.2825470311062
 20
155.595865506863
 30
0.0
 10
136.2829036808795
 20
155.3942328675359
 30
0.0
 10
136.2504064286825
 20
155.2886840756979
 30
0.0
 10
136.1227809549679
 20
155.0785692930093
 30
0.0
 10
136.0283525539161
 20
154.9735037850404
 30
0.0
 10
135.8404917339305
 20
154.8166260777893
 30
0.0
 10
135.7696637351273
 20
154.7641923440836
 30
0.0
 10
135.614941843162
 20
154.6617538984538
 30
0.0
 10
135.5309653729786
 20
154.611606169802
 30
0.0
 10
135.2596417033342
 20
154.4645902133685
 30
0.0
 10
135.0530924847319
 20
154.3711023929341
 30
0.0
 10
134.5864823445428
 20
154.1953155353197
 30
0.0
 10
134.3341167749174
 20
154.115937060236
 30
0.0
 10
133.9282154332387
 20
154.0104546227419
 30
0.0
 10
133.7883148157612
 20
153.9775690579018
 30
0.0
 10
133.4990908805143
 20
153.9166535786732
 30
0.0
 10
133.349251424225
 20
153.8885730070307
 30
0.0
 10
132.8951348546142
 20
153.813770964988
 30
0.0
 10
132.5834836358773
 20
153.7757329067418
 30
0.0
 10
131.942487170965
 20
153.7241209802177
 30
0.0
 10
131.6109595430128
 20
153.7108070466962
 30
0.0
 10
130.9581684979413
 20
153.7107099603681
 30
0.0
 10
130.6336322929095
 20
153.7234980455292
 30
0.0
 10
129.9883628434931
 20
153.7749882351251
 30
0.0
 10
129.6726198373304
 20
153.8135128144452
 30
0.0
 10
129.0707305423467
 20
153.9124153773032
 30
0.0
 10
128.7799813115352
 20
153.9735194752282
 30
0.0
 10
128.2330695198507
 20
154.115328908339
 30
0.0
 10
127.9812921560138
 20
154.1946633929181
 30
0.0
 10
127.5199041633927
 20
154.3680421375796
 30
0.0
 10
127.3086348837946
 20
154.4632020823336
 30
0.0
 10
126.9453305314184
 20
154.6597746057095
 30
0.0
 10
126.7915238829756
 20
154.7615308341159
 30
0.0
 10
126.6029044133782
 20
154.9183167969014
 30
0.0
 10
126.5468739271691
 20
154.9715708306514
 30
0.0
 10
126.4513001654329
 20
155.0773753922041
 30
0.0
 10
126.4115372484079
 20
155.1300284565597
 30
0.0
 10
126.3157654980958
 20
155.2871021760189
 30
0.0
 10
126.2830426589697
 20
155.390627211346
 30
0.0
 10
126.2824140726406
 20
155.5948419455731
 30
0.0
 10
126.3146002173754
 20
155.6923457831579
 30
0.0
 10
126.4095109192309
 20
155.8316728335095
 30
0.0
 10
126.4489777026299
 20
155.876989565014
 30
0.0
 10
126.5439077013508
 20
155.9654293860028
 30
0.0
 10
126.5996645291141
 20
156.0086836364628
 30
0.0
 10
126.7876046470841
 20
156.1325751110527
 30
0.0
 10
126.9409661168002
 20
156.2082774018268
 30
0.0
 10
127.3032303516806
 20
156.347531773285
 30
0.0
 10
127.5140788251465
 20
156.4112936148137
 30
0.0
 10
127.9747487954654
 20
156.5227904542816
 30
0.0
 10
128.2261231750492
 20
156.5713165265982
 30
0.0
 10
128.7720310619474
 20
156.6553705099787
 30
0.0
 10
129.0628536365986
 20
156.6901690636454
 30
0.0
 10
129.6641802513786
 20
156.7453655284092
 30
0.0
 10
129.978698835991
 20
156.7661833771631
 30
0.0
 10
130.6252802921109
 20
156.7940307100738
 30
0.0
 10
130.952180789873
 20
156.8009283106095
 30
0.0
 10
131.6132714154256
 20
156.8009283106095
 30
0.0
  0
LINE
  5
C4
330
1F
100
AcDbEntity
  8
0
  6
HIDDEN
 62
     7
370
     0
100
AcDbLine
 10
139.0206970817
 20
146.892341815
 30
0.0
 11
139.0206970817
 21
139.2913790541
 31
0.0
  0
LINE
  5
C5
330
1F
100
AcDbEntity
  8
0
  6
HIDDEN
 62
     7
370
     0
100
AcDbLine
 10
102.6961508521
 20
71.2055726919
 30
0.0
 11
102.4261951513
 21
71.1816465926
 31
0.0
  0
SPLINE
  5
C6
330
1F
100
AcDbEntity
  8
0
  6
HIDDEN
 62
     7
370
     0
100
AcDbSpline
210
0.0
220
0.0
230
1.0
 70
     8
 71
     3
 72
    12
 73
     8
 74
     0
 42
0.00000001
 43
0.00000001
 40
0.0
 40
0.0
 40
0.0
 40
0.0
 40
0.1661348616735903
 40
0.3322013257393936
 40
0.5008932044678248
 40
0.752137078264078
 40
1.0
 40
1.0
 40
1.0
 40
1.0
 10
100.8020477682965
 20
144.8726830771971
 30
0.0
 10
100.8124403924045
 20
144.8713049531356
 30
0.0
 10
100.8332213619845
 20
144.8685492723855
 30
0.0
 10
101.0065208514314
 20
144.8469458974235
 30
0.0
 10
101.3284724406751
 20
144.8090809454816
 30
0.0
 10
101.8496382765944
 20
144.7486971787654
 30
0.0
 10
102.4151962164322
 20
144.700904041616
 30
0.0
 10
102.6960596401202
 20
144.6771693485227
 30
0.0
  0
SPLINE
  5
C7
330
1F
100
AcDbEntity
  8
0
  6
HIDDEN
 62
     7
370
     0
100
AcDbSpline
210
0.0
220
0.0
230
1.0
 70
     8
 71
     3
 72
    13
 73
     9
 74
     0
 42
0.00000001
 43
0.00000001
 40
0.0
 40
0.0
 40
0.0
 40
0.0
 40
0.1623825417891473
 40
0.3259014349258758
 40
0.492989583858809
 40
0.661306407887699
 40
0.8237193419369498
 40
0.9999999999999999
 40
0.9999999999999999
 40
0.9999999999999999
 40
0.9999999999999999
 10
112.5359317578403
 20
139.3077012748786
 30
0.0
 10
112.6115212678657
 20
139.3200770472744
 30
0.0
 10
112.7632292625258
 20
139.3449151975931
 30
0.0
 10
112.9461281460891
 20
139.3721735433998
 30
0.0
 10
113.0951904589536
 20
139.3932933992946
 30
0.0
 10
113.1991407624729
 20
139.4072797962245
 30
0.0
 10
113.2744712447133
 20
139.417072579517
 30
0.0
 10
113.266242232873
 20
139.4160013448584
 30
0.0
 10
113.261959259542
 20
139.4154437968122
 30
0.0
  0
SPLINE
  5
C8
330
1F
100
AcDbEntity
  8
0
  6
HIDDEN
 62
     7
370
     0
100
AcDbSpline
210
0.0
220
0.0
230
1.0
 70
     8
 71
     3
 72
    13
 73
     9
 74
     0
 42
0.00000001
 43
0.00000001
 40
0.0
 40
0.0
 40
0.0
 40
0.0
 40
0.1540229996579996
 40
0.3222984070216329
 40
0.4885666284787927
 40
0.6560440466388391
 40
0.8273550585563615
 40
1.0
 40
1.0
 40
1.0
 40
1.0
 10
113.2619591645786
 20
76.46731432373552
 30
0.0
 10
113.2671448717479
 20
76.4666424896086
 30
0.0
 10
113.2779961417768
 20
76.46523665366607
 30
0.0
 10
113.2086546432059
 20
76.47422355434827
 30
0.0
 10
113.1085371657712
 20
76.4876376721975
 30
0.0
 10
112.9620094013068
 20
76.50827822010254
 30
0.0
 10
112.7757955024487
 20
76.53584368114174
 30
0.0
 10
112.6160927923232
 20
76.56195203151353
 30
0.0
 10
112.5359317578403
 20
76.57505683338445
 30
0.0
  0
SPLINE
  5
C9
330
1F
100
AcDbEntity
  8
0
  6
HIDDEN
 62
     7
370
     0
100
AcDbSpline
210
0.0
220
0.0
230
1.0
 70
     8
 71
     3
 72
    33
 73
    29
 74
     0
 42
0.00000001
 43
0.00000001
 40
0.0
 40
0.0
 40
0.0
 40
0.0
 40
0.0315773698875104
 40
0.0633753287769057
 40
0.0958656851178231
 40
0.1285943208117605
 40
0.1601713694082662
 40
0.2244011681247345
 40
0.2571344568799636
 40
0.2885965627565487
 40
0.3526214070085076
 40
0.3852675959519929
 40
0.4162212184009612
 40
0.4791910353915302
 40
0.5112817741273479
 40
0.5421256322990662
 40
0.6048360558905652
 40
0.6367710793564881
 40
0.6680663384719832
 40
0.7316979547407203
 40
0.7641081282919966
 40
0.7957194290717577
 40
0.8275524266255816
 40
0.8600900250720824
 40
0.8928737620729298
 40
0.9241775068323748
 40
0.9878778414776339
 40
1.0
 40
1.0
 40
1.0
 40
1.0
 10
112.5359317578403
 20
76.57505683338445
 30
0.0
 10
112.452060610835
 20
76.58893057176618
 30
0.0
 10
112.2837324208911
 20
76.61677496585094
 30
0.0
 10
111.9843778245496
 20
76.66320760608133
 30
0.0
 10
111.6503783572907
 20
76.71182020810217
 30
0.0
 10
111.2846083954035
 20
76.76096814128941
 30
0.0
 10
110.7612284807146
 20
76.82503392688204
 30
0.0
 10
110.18480127212
 20
76.88481544128717
 30
0.0
 10
109.5696641252685
 20
76.93481504875122
 30
0.0
 10
108.9333483991855
 20
76.97695504143465
 30
0.0
 10
108.2695678617469
 20
77.00558976617266
 30
0.0
 10
107.5975021101637
 20
77.01784921725627
 30
0.0
 10
106.928053526732
 20
77.01917850836455
 30
0.0
 10
106.262868959618
 20
77.00431798545509
 30
0.0
 10
105.6165777207275
 20
76.97446002106592
 30
0.0
 10
104.9873877698692
 20
76.93571679300463
 30
0.0
 10
104.3876720776899
 20
76.88513855924477
 30
0.0
 10
103.8293725115681
 20
76.82673854477824
 30
0.0
 10
103.2991776411805
 20
76.76441531340872
 30
0.0
 10
102.8200109388689
 20
76.69900673887317
 30
0.0
 10
102.4050929536741
 20
76.63621783526719
 30
0.0
 10
102.127820569748
 20
76.59171323644581
 30
0.0
 10
101.8862652841869
 20
76.55100428701084
 30
0.0
 10
101.6807732798385
 20
76.51494715636136
 30
0.0
 10
101.5166088560942
 20
76.485190131409
 30
0.0
 10
101.3571749095289
 20
76.45560481798458
 30
0.0
 10
101.2789366815803
 20
76.44065553897971
 30
0.0
 10
101.2866614719251
 20
76.44212796158092
 30
0.0
 10
101.2878964765946
 20
76.44236336587112
 30
0.0
  0
SPLINE
  5
CA
330
1F
100
AcDbEntity
  8
0
  6
HIDDEN
 62
     7
370
     0
100
AcDbSpline
210
0.0
220
0.0
230
1.0
 70
     8
 71
     3
 72
    32
 73
    28
 74
     0
 42
0.00000001
 43
0.00000001
 40
0.0
 40
0.0
 40
0.0
 40
0.0
 40
0.020356822172105
 40
0.0512207857583794
 40
0.1139954454389432
 40
0.1459779869097674
 40
0.1769364677636727
 40
0.2398766914470389
 40
0.2719275468465721
 40
0.3033698011481659
 40
0.3673099924152954
 40
0.3998847012176188
 40
0.4314690120325909
 40
0.4957360700021212
 40
0.5285028301030422
 40
0.5596434488300034
 40
0.6230067766607702
 40
0.6553079823205556
 40
0.6861132872619372
 40
0.748756262689177
 40
0.7806634244345373
 40
0.8117607067089887
 40
0.8749825776111492
 40
0.9071778073885584
 40
0.9301738434827028
 40
0.9765719131095674
 40
1.0
 40
1.0
 40
1.0
 40
1.0
 10
101.2878964765946
 20
139.440394742392
 30
0.0
 10
101.2875394246883
 20
139.4404622213188
 30
0.0
 10
101.2866410291018
 20
139.4406320083135
 30
0.0
 10
101.3492347756545
 20
139.4287377671261
 30
0.0
 10
101.491045957118
 20
139.4020908902065
 30
0.0
 10
101.7150905489935
 20
139.3617088187939
 30
0.0
 10
101.9896326648277
 20
139.3138395770435
 30
0.0
 10
102.3383239538353
 20
139.2563696917637
 30
0.0
 10
102.7545999162127
 20
139.1938751447091
 30
0.0
 10
103.2161939630754
 20
139.1293494630698
 30
0.0
 10
103.7397319121706
 20
139.0647690860866
 30
0.0
 10
104.3119293866253
 20
139.0060137212018
 30
0.0
 10
104.9141357570773
 20
138.9526408648196
 30
0.0
 10
105.5553622638588
 20
138.9097783029873
 30
0.0
 10
106.216447581855
 20
138.8817142569663
 30
0.0
 10
106.8831585363015
 20
138.8641255994266
 30
0.0
 10
107.5570477569084
 20
138.8626789511859
 30
0.0
 10
108.2213972408562
 20
138.8776044903236
 30
0.0
 10
108.8729315150159
 20
138.9026112155474
 30
0.0
 10
109.5035907276719
 20
138.9417152582292
 30
0.0
 10
110.1011297034944
 20
138.9918164160129
 30
0.0
 10
110.6751276714491
 20
139.0479875824961
 30
0.0
 10
111.2060773848424
 20
139.1109016111849
 30
0.0
 10
111.6494582661065
 20
139.1710051132385
 30
0.0
 10
112.0009789136801
 20
139.2218948302237
 30
0.0
 10
112.290646423657
 20
139.2670173067616
 30
0.0
 10
112.4743091880547
 20
139.297480318649
 30
0.0
 10
112.5359317578403
 20
139.3077012748786
 30
0.0
  0
LINE
  5
CB
330
1F
100
AcDbEntity
  8
0
  6
HIDDEN
 62
     7
370
     0
100
AcDbLine
 10
92.2793504297
 20
81.4413790541
 30
0.0
 11
92.2793504297
 21
134.4413790541
 31
0.0
  0
LINE
  5
CC
330
1F
100
AcDbEntity
  8
0
  6
HIDDEN
 62
     7
370
     0
100
AcDbLine
 10
131.566803721
 20
81.4413790541
 30
0.0
 11
131.566803721
 21
134.4413790541
 31
0.0
  0
LINE
  5
CD
330
1F
100
AcDbEntity
  8
0
  6
HIDDEN
 62
     7
370
     0
100
AcDbLine
 10
134.7327261026
 20
83.0663790541
 30
0.0
 11
134.7327261026
 21
132.8163790465
 31
0.0
  0
SPLINE
  5
CE
330
1F
100
AcDbEntity
  8
0
  6
HIDDEN
 62
     7
370
     0
100
AcDbSpline
210
0.0
220
0.0
230
1.0
 70
     8
 71
     3
 72
    20
 73
    16
 74
     0
 42
0.00000001
 43
0.00000001
 40
0.0
 40
0.0
 40
0.0
 40
0.0
 40
0.2499999999999978
 40
0.2499999999999978
 40
0.3749999999999982
 40
0.3749999999999982
 40
0.4999999999999986
 40
0.4999999999999986
 40
0.6249999999999989
 40
0.6249999999999989
 40
0.7499999999999992
 40
0.7499999999999992
 40
0.8749999999999997
 40
0.8749999999999997
 40
1.0
 40
1.0
 40
1.0
 40
1.0
 10
82.48272610264924
 20
133.1698926845458
 30
0.0
 10
82.48272610264925
 20
133.0906896980135
 30
0.0
 10
82.4357436074365
 20
133.0095934796106
 30
0.0
 10
82.29792201665893
 20
132.8893967878597
 30
0.0
 10
82.24163973274895
 20
132.8504700838576
 30
0.0
 10
82.10855488128173
 20
132.7752813514333
 30
0.0
 10
82.03071493904868
 20
132.7386391460913
 30
0.0
 10
81.85808258293433
 20
132.6710486132594
 30
0.0
 10
81.76368958584324
 20
132.6400904314838
 30
0.0
 10
81.55825227952809
 20
132.5845660101141
 30
0.0
 10
81.44590603954093
 20
132.5598574962809
 30
0.0
 10
81.2136651756413
 20
132.5200612691727
 30
0.0
 10
81.09295453321857
 20
132.5046414317756
 30
0.0
 10
80.84188367394954
 20
132.483561456936
 30
0.0
 10
80.71236167753376
 20
132.478084211915
 30
0.0
 10
80.58272610264925
 20
132.478084211915
 30
0.0
  0
LINE
  5
CF
330
1F
100
AcDbEntity
  8
0
  6
HIDDEN
 62
     7
370
     0
100
AcDbLine
 10
80.5827261026
 20
132.4780842119
 30
0.0
 11
74.0327261026
 21
132.4780842119
 31
0.0
  0
LINE
  5
D0
330
1F
100
AcDbEntity
  8
0
  6
HIDDEN
 62
     7
370
     0
100
AcDbLine
 10
74.0327261026
 20
83.4046738963
 30
0.0
 11
85.5827261026
 21
83.4046738963
 31
0.0
  0
SPLINE
  5
D1
330
1F
100
AcDbEntity
  8
0
  6
HIDDEN
 62
     7
370
     0
100
AcDbSpline
210
0.0
220
0.0
230
1.0
 70
     8
 71
     3
 72
    18
 73
    14
 74
     0
 42
0.00000001
 43
0.00000001
 40
0.0
 40
0.0
 40
0.0
 40
0.0
 40
0.1249999999999982
 40
0.1249999999999982
 40
0.2499999999999964
 40
0.2499999999999964
 40
0.4999999999999988
 40
0.4999999999999988
 40
0.7500000000000011
 40
0.7500000000000011
 40
0.8750000000000006
 40
0.8750000000000006
 40
1.0
 40
1.0
 40
1.0
 40
1.0
 10
85.58272610264925
 20
83.40467389634802
 30
0.0
 10
85.71219341560646
 20
83.40467389634802
 30
0.0
 10
85.83920416450309
 20
83.39932089775537
 30
0.0
 10
86.08856748570035
 20
83.37858292506658
 30
0.0
 10
86.21219114032878
 20
83.36291102081229
 30
0.0
 10
86.56122347726283
 20
83.30321629241021
 30
0.0
 10
86.77173524206961
 20
83.24545111272921
 30
0.0
 10
87.11565191976914
 20
83.11092927145172
 30
0.0
 10
87.25200232128694
 20
83.03326015794632
 30
0.0
 10
87.38904037784947
 20
82.91396902385897
 30
0.0
 10
87.42425939656239
 20
82.87305001472393
 30
0.0
 10
87.47088297350095
 20
82.7923940214339
 30
0.0
 10
87.48272610264927
 20
82.75242550124104
 30
0.0
 10
87.48272610264925
 20
82.71286542371722
 30
0.0
  0
LINE
  5
D2
330
1F
100
AcDbEntity
  8
0
  6
HIDDEN
 62
     7
370
     0
100
AcDbLine
 10
74.0327261026
 20
83.4046738963
 30
0.0
 11
74.0327261026
 21
132.4780842119
 31
0.0
  0
LWPOLYLINE
  5
D3
330
1F
100
AcDbEntity
  8
0
  6
HIDDEN
 62
     7
370
     0
100
AcDbPolyline
 90
       14
 70
   128
 43
0.0
 10
131.2827261026
 20
147.8851096174
 10
132.2892187031
 20
147.9267392323
 10
133.2545053782
 20
148.0499237557
 10
134.1390671781
 20
148.2496199986
 10
134.9066900388
 20
148.5176523735
 10
135.5259473901
 20
148.8430476035
 10
135.9714867634
 20
149.2124839695
 10
136.2250677243
 20
149.6108367034
 10
136.2763086385
 20
150.0217971973
 10
136.123111697
 20
150.4285406806
 10
135.7717488005
 20
150.814415027
 10
135.2366047873
 20
151.1636224955
 10
134.5395885163
 20
151.4618664915
 10
133.728744571
 20
151.6925094334
  0
LWPOLYLINE
  5
D4
330
1F
100
AcDbEntity
  8
0
  6
HIDDEN
 62
     7
370
     0
100
AcDbPolyline
 90
       14
 70
   128
 43
0.0
 10
128.8242145963
 20
151.6896496834
 10
128.025863689
 20
151.4618664915
 10
127.328847418
 20
151.1636224955
 10
126.7937034048
 20
150.814415027
 10
126.4423405083
 20
150.4285406806
 10
126.2891435668
 20
150.0217971973
 10
126.340384481
 20
149.6108367034
 10
126.5939654419
 20
149.2124839695
 10
127.0395048152
 20
148.8430476035
 10
127.6587621665
 20
148.5176523735
 10
128.4263850272
 20
148.2496199986
 10
129.3109468271
 20
148.0499237557
 10
130.2762335022
 20
147.9267392323
 10
131.2827261026
 20
147.8851096174
  0
LINE
  5
D5
330
1F
100
AcDbEntity
  8
0
  6
HIDDEN
 62
     7
370
     0
100
AcDbLine
 10
74.0327261026
 20
80.5713790541
 30
0.0
 11
74.0327261026
 21
75.6930938523
 31
0.0
  0
LINE
  5
D6
330
1F
100
AcDbEntity
  8
0
  6
HIDDEN
 62
     7
370
     0
100
AcDbLine
 10
87.4827261026
 20
80.5713790541
 30
0.0
 11
87.4827261026
 21
74.0720457888
 31
0.0
  0
LINE
  5
D7
330
1F
100
AcDbEntity
  8
0
  6
HIDDEN
 62
     7
370
     0
100
AcDbLine
 10
82.4827261026
 20
135.3113790541
 30
0.0
 11
82.4827261026
 21
141.6859877911
 31
0.0
  0
LINE
  5
D8
330
1F
100
AcDbEntity
  8
0
  6
HIDDEN
 62
     7
370
     0
100
AcDbLine
 10
74.0327261026
 20
135.3113790541
 30
0.0
 11
74.0327261026
 21
140.189664256
 31
0.0
  0
LINE
  5
D9
330
1F
100
AcDbEntity
  8
0
  6
HIDDEN
 62
     7
370
     0
100
AcDbLine
 10
146.5827261026
 20
94.9413790541
 30
0.0
 11
146.5827261026
 21
120.9413790541
 31
0.0
  0
LINE
  5
DA
330
1F
100
AcDbEntity
  8
0
  6
HIDDEN
 62
     7
370
     0
100
AcDbLine
 10
150.5827261026
 20
94.9413790541
 30
0.0
 11
150.5827261026
 21
120.9413790541
 31
0.0
  0
LINE
  5
DB
330
1F
100
AcDbEntity
  8
0
  6
HIDDEN
 62
     7
370
     0
100
AcDbLine
 10
135.4827261026
 20
96.6913790541
 30
0.0
 11
135.4827261026
 21
119.1913790541
 31
0.0
  0
ELLIPSE
  5
DC
330
1F
100
AcDbEntity
  8
0
  6
HIDDEN
 62
     7
370
     0
100
AcDbEllipse
 10
66.0980529024
 20
107.9413790541
 30
0.0
 11
31.08108570811662
 21
1.421085471520200E-14
 31
0.0
210
0.0
220
0.0
230
1.0
 40
0.8164965809
 41
1.312649268214811
 42
1.367189972061495
  0
ELLIPSE
  5
DD
330
1F
100
AcDbEntity
  8
0
  6
HIDDEN
 62
     7
370
     0
100
AcDbEllipse
 10
66.0980529024
 20
107.9413790541
 30
0.0
 11
31.08108570811662
 21
-1.421085471520200E-14
 31
0.0
210
0.0
220
0.0
230
1.0
 40
0.8164965809
 41
4.915995335118103
 42
4.970536038964788
  0
LINE
  5
DE
330
1F
100
AcDbEntity
  8
0
  6
HIDDEN
 62
     7
370
     0
100
AcDbLine
 10
151.2327261026
 20
64.0413790541
 30
0.0
 11
137.2327261026
 21
64.0413790541
 31
0.0
  0
LINE
  5
DF
330
1F
100
AcDbEntity
  8
0
  6
HIDDEN
 62
     7
370
     0
100
AcDbLine
 10
127.2327261026
 20
57.9513800543
 30
0.0
 11
127.2327261026
 21
64.0413790541
 31
0.0
  0
LINE
  5
E0
330
1F
100
AcDbEntity
  8
0
  6
HIDDEN
 62
     7
370
     0
100
AcDbLine
 10
137.2327261026
 20
64.0413790541
 30
0.0
 11
127.2327261026
 21
64.0413790541
 31
0.0
  0
LINE
  5
E1
330
1F
100
AcDbEntity
  8
0
  6
HIDDEN
 62
     7
370
     0
100
AcDbLine
 10
87.4827261026
 20
80.5713790541
 30
0.0
 11
87.4827261026
 21
82.7128654237
 31
0.0
  0
LINE
  5
E2
330
1F
100
AcDbEntity
  8
0
  6
HIDDEN
 62
     7
370
     0
100
AcDbLine
 10
74.0327261026
 20
80.5713790541
 30
0.0
 11
74.0327261026
 21
83.4046738963
 31
0.0
  0
LINE
  5
E3
330
1F
100
AcDbEntity
  8
0
  6
HIDDEN
 62
     7
370
     0
100
AcDbLine
 10
82.4827261026
 20
135.3113790541
 30
0.0
 11
82.4827261026
 21
133.1698926845
 31
0.0
  0
LINE
  5
E4
330
1F
100
AcDbEntity
  8
0
  6
HIDDEN
 62
     7
370
     0
100
AcDbLine
 10
74.0327261026
 20
135.3113790541
 30
0.0
 11
74.0327261026
 21
132.4780842119
 31
0.0
  0
LINE
  5
E5
330
1F
100
AcDbEntity
  8
0
  6
HIDDEN
 62
     7
370
     0
100
AcDbLine
 10
137.2327261026
 20
151.8413790541
 30
0.0
 11
127.2327261026
 21
151.8413790541
 31
0.0
  0
LINE
  5
E6
330
1F
100
AcDbEntity
  8
0
  6
HIDDEN
 62
     7
370
     0
100
AcDbLine
 10
151.2327261026
 20
151.8413790541
 30
0.0
 11
137.2327261026
 21
151.8413790541
 31
0.0
  0
LINE
  5
E7
330
1F
100
AcDbEntity
  8
0
  6
HIDDEN
 62
     7
370
     0
100
AcDbLine
 10
213.7827261026
 20
100.9413790541
 30
0.0
 11
213.7827261026
 21
114.9413790541
 31
0.0
  0
SPLINE
  5
E8
330
1F
100
AcDbEntity
  8
0
  6
HIDDEN
 62
     7
370
     0
100
AcDbSpline
210
0.0
220
0.0
230
1.0
 70
     8
 71
     3
 72
    22
 73
    18
 74
     0
 42
0.00000001
 43
0.00000001
 40
0.0
 40
0.0
 40
0.0
 40
0.0
 40
0.0519896521095927
 40
0.1577624224973364
 40
0.2116693902382852
 40
0.2636577677428011
 40
0.3693637946841125
 40
0.4231965442254654
 40
0.475877866267887
 40
0.5829963374881096
 40
0.6375598122718654
 40
0.6906866748763882
 40
0.7441886946285291
 40
0.7988855239645539
 40
0.8540006550865757
 40
0.9063802635437684
 40
1.0
 40
1.0
 40
1.0
 40
1.0
 10
172.7827261026492
 20
115.0856074939282
 30
0.0
 10
172.823642939374
 20
115.0858196174994
 30
0.0
 10
172.9478049412474
 20
115.0864633057545
 30
0.0
 10
173.1129502074027
 20
115.0924674596484
 30
0.0
 10
173.2724192667046
 20
115.1020430400064
 30
0.0
 10
173.4271835914135
 20
115.1139161155719
 30
0.0
 10
173.573664163693
 20
115.1286798153154
 30
0.0
 10
173.7087657748707
 20
115.1451543968248
 30
0.0
 10
173.836113921306
 20
115.1623922059945
 30
0.0
 10
173.9497885187133
 20
115.1800023658069
 30
0.0
 10
174.0466067603693
 20
115.1964387119548
 30
0.0
 10
174.1103644894086
 20
115.2078443396314
 30
0.0
 10
174.1648307827591
 20
115.2180136589384
 30
0.0
 10
174.2100921439085
 20
115.2267663299399
 30
0.0
 10
174.244249298661
 20
115.2335507158276
 30
0.0
 10
174.2752778055191
 20
115.2398390135946
 30
0.0
 10
174.2784405799775
 20
115.2404960256479
 30
0.0
 10
174.2804686583326
 20
115.2409173240813
 30
0.0
  0
LINE
  5
E9
330
1F
100
AcDbEntity
  8
0
  6
HIDDEN
 62
     7
370
     0
100
AcDbLine
 10
172.8327582114
 20
115.0860368736
 30
0.0
 11
172.619648506
 21
115.0878087645
 31
0.0
  0
SPLINE
  5
EA
330
1F
100
AcDbEntity
  8
0
  6
HIDDEN
 62
     7
370
     0
100
AcDbSpline
210
0.0
220
0.0
230
1.0
 70
     8
 71
     3
 72
    22
 73
    18
 74
     0
 42
0.00000001
 43
0.00000001
 40
0.0
 40
0.0
 40
0.0
 40
0.0
 40
0.0376721330528753
 40
0.1430662431782186
 40
0.1967734955662818
 40
0.2484870893492853
 40
0.3536217529557646
 40
0.4071562454379997
 40
0.4597476028158872
 40
0.566677854500326
 40
0.6211411373875064
 40
0.6742797430535501
 40
0.7277924195767498
 40
0.7824962506643734
 40
0.837617246439634
 40
0.9181180281337609
 40
1.0
 40
1.0
 40
1.0
 40
1.0
 10
171.2837160685353
 20
115.2411757676809
 30
0.0
 10
171.2838773247251
 20
115.2411427522293
 30
0.0
 10
171.2844897221496
 20
115.2410173705149
 30
0.0
 10
171.3084340779052
 20
115.2360972730979
 30
0.0
 10
171.3519715243475
 20
115.2274343052166
 30
0.0
 10
171.4088518829246
 20
115.2164035966037
 30
0.0
 10
171.4844893416122
 20
115.2023750064351
 30
0.0
 10
171.5777805747124
 20
115.1863839158611
 30
0.0
 10
171.6829141832965
 20
115.1694168786313
 30
0.0
 10
171.804454048967
 20
115.151752501137
 30
0.0
 10
171.9395237098569
 20
115.1349444936581
 30
0.0
 10
172.0470279312788
 20
115.1231122576134
 30
0.0
 10
172.1599606176684
 20
115.1123914612873
 30
0.0
 10
172.2789202471813
 20
115.1029957799935
 30
0.0
 10
172.4219781677665
 20
115.0941874130953
 30
0.0
 10
172.5903546418937
 20
115.0871151687825
 30
0.0
 10
172.7182396954943
 20
115.0861128939191
 30
0.0
 10
172.7827261026492
 20
115.0856074939282
 30
0.0
  0
SPLINE
  5
EB
330
1F
100
AcDbEntity
  8
0
  6
HIDDEN
 62
     7
370
     0
100
AcDbSpline
210
0.0
220
0.0
230
1.0
 70
     8
 71
     3
 72
    38
 73
    34
 74
     0
 42
0.00000001
 43
0.00000001
 40
0.0
 40
0.0
 40
0.0
 40
0.0
 40
0.025999465290813
 40
0.0521824390237827
 40
0.0789420269894963
 40
0.105899571160984
 40
0.1318984414191568
 40
0.1847619198640106
 40
0.2116842599737579
 40
0.2380145179048556
 40
0.2915520821463095
 40
0.3188223041101036
 40
0.3453862455935932
 40
0.3721376688411692
 40
0.3994863375147878
 40
0.4270442167231003
 40
0.4532355164926946
 40
0.5065355132777819
 40
0.5337119584412474
 40
0.5595032850781916
 40
0.6119540616661204
 40
0.638671824009278
 40
0.6646590295870154
 40
0.7174870187833281
 40
0.7443853859407241
 40
0.7708552064917812
 40
0.8246884555135472
 40
0.8521181207272
 40
0.8786144360326994
 40
0.9325351190323482
 40
0.9600308404078671
 40
0.9860637532117859
 40
1.0
 40
1.0
 40
1.0
 40
1.0
 10
174.2827261026492
 20
100.6413790541315
 30
0.0
 10
174.2817573792018
 20
100.6415784257285
 30
0.0
 10
174.2798130948997
 20
100.6419785761193
 30
0.0
 10
174.2639651728106
 20
100.6452200452906
 30
0.0
 10
174.238339204589
 20
100.650390956904
 30
0.0
 10
174.2023154511849
 20
100.6575134252191
 30
0.0
 10
174.1415659209436
 20
100.6691929772109
 30
0.0
 10
174.0618852271406
 20
100.6837914005115
 30
0.0
 10
173.9647733553123
 20
100.7001567988543
 30
0.0
 10
173.8561304035911
 20
100.7173344918383
 30
0.0
 10
173.7314828730761
 20
100.7349741104915
 30
0.0
 10
173.5937244238311
 20
100.7515268402938
 30
0.0
 10
173.4844787395727
 20
100.7630514270255
 30
0.0
 10
173.3700889032411
 20
100.7733641305292
 30
0.0
 10
173.2499116011604
 20
100.7822433259412
 30
0.0
 10
173.1270075250369
 20
100.789214478659
 30
0.0
 10
172.9614807007885
 20
100.7957507446876
 30
0.0
 10
172.7929528743751
 20
100.7980214430631
 30
0.0
 10
172.6258584033771
 20
100.7957884520921
 30
0.0
 10
172.4616282006959
 20
100.7907429928223
 30
0.0
 10
172.3017515275278
 20
100.7817114429405
 30
0.0
 10
172.1492141159106
 20
100.769408335551
 30
0.0
 10
172.002042002638
 20
100.7552529057018
 30
0.0
 10
171.8646946424805
 20
100.7388978339155
 30
0.0
 10
171.7402038378521
 20
100.7216698125539
 30
0.0
 10
171.6242679544641
 20
100.7042082091569
 30
0.0
 10
171.5235186758748
 20
100.6872502885038
 30
0.0
 10
171.4411941726534
 20
100.6723578879622
 30
0.0
 10
171.3716273371034
 20
100.6592470644678
 30
0.0
 10
171.3210901254756
 20
100.6491942485153
 30
0.0
 10
171.2939554593803
 20
100.6436842384381
 30
0.0
 10
171.2816828233161
 20
100.6411659111736
 30
0.0
 10
171.2854581181858
 20
100.6419390220625
 30
0.0
 10
171.2867744691309
 20
100.642208586503
 30
0.0
  0
LINE
  5
EC
330
1F
100
AcDbEntity
  8
0
  6
HIDDEN
 62
     7
370
     0
100
AcDbLine
 10
170.7827261026
 20
101.0413790541
 30
0.0
 11
170.7827261026
 21
114.8413787355
 31
0.0
  0
LINE
  5
ED
330
1F
100
AcDbEntity
  8
0
  6
HIDDEN
 62
     7
370
     0
100
AcDbLine
 10
181.2827261026
 20
100.9413790541
 30
0.0
 11
181.2827261026
 21
114.9413790541
 31
0.0
  0
SPLINE
  5
EE
330
1F
100
AcDbEntity
  8
0
  6
HIDDEN
 62
     7
370
     0
100
AcDbSpline
210
0.0
220
0.0
230
1.0
 70
     8
 71
     3
 72
    30
 73
    26
 74
     0
 42
0.00000001
 43
0.00000001
 40
0.0
 40
0.0
 40
0.0
 40
0.0
 40
0.0531207861952147
 40
0.1125029112916687
 40
0.1779016269642065
 40
0.2129264706573497
 40
0.2494803908350004
 40
0.2912471434366933
 40
0.3260902485723193
 40
0.354005993780864
 40
0.3749917317656016
 40
0.4414508382535284
 40
0.500169711795709
 40
0.5546855975139607
 40
0.6144310960430982
 40
0.6794578444744312
 40
0.714015594443558
 40
0.749913347921502
 40
0.7913787541730892
 40
0.826046444544281
 40
0.8539126351392741
 40
0.8749744737954144
 40
0.9411623767314526
 40
0.9999141549937554
 40
1.0
 40
1.0
 40
1.0
 40
1.0
 10
113.2822266394692
 20
70.84146315380214
 30
0.0
 10
113.2660346846592
 20
70.84636208006309
 30
0.0
 10
113.2317422318154
 20
70.85673736827015
 30
0.0
 10
112.9304524949386
 20
70.9323840678239
 30
0.0
 10
112.4882872163118
 20
71.02866952506342
 30
0.0
 10
111.9934540157069
 20
71.12833448164248
 30
0.0
 10
111.5229784464786
 20
71.22061259910501
 30
0.0
 10
110.992056992053
 20
71.31624464045086
 30
0.0
 10
110.4539064966029
 20
71.40189488159224
 30
0.0
 10
109.9958591610723
 20
71.46918667496965
 30
0.0
 10
109.3402948402602
 20
71.55753484385266
 30
0.0
 10
108.4569884020849
 20
71.65419292815345
 30
0.0
 10
107.3283266694242
 20
71.74096810490104
 30
0.0
 10
106.238564919666
 20
71.77904680261771
 30
0.0
 10
105.1425366412392
 20
71.78089723738016
 30
0.0
 10
104.2371453942944
 20
71.75473578179533
 30
0.0
 10
103.5408426838795
 20
71.7181285566664
 30
0.0
 10
103.0141629556044
 20
71.67911168118934
 30
0.0
 10
102.5475168405718
 20
71.6369025537174
 30
0.0
 10
102.176301564848
 20
71.599898464148
 30
0.0
 10
101.9222550876059
 20
71.5711977037037
 30
0.0
 10
101.6211999348965
 20
71.5348177531138
 30
0.0
 10
101.3657161400924
 20
71.5020375861273
 30
0.0
 10
101.2664954151477
 20
71.48569970141857
 30
0.0
 10
101.2827759724298
 20
71.48829328759167
 30
0.0
 10
101.2827997260158
 20
71.48829707167417
 30
0.0
  0
SPLINE
  5
EF
330
1F
100
AcDbEntity
  8
0
  6
HIDDEN
 62
     7
370
     0
100
AcDbSpline
210
0.0
220
0.0
230
1.0
 70
     8
 71
     3
 72
    30
 73
    26
 74
     0
 42
0.00000001
 43
0.00000001
 40
0.0
 40
0.0
 40
0.0
 40
0.0
 40
0.0001219116858065
 40
0.0285524256669272
 40
0.0588556995788886
 40
0.0910359080063689
 40
0.1250964761229174
 40
0.1546847156924129
 40
0.1963631581429925
 40
0.2501173365409708
 40
0.3205318992935816
 40
0.3856163183076391
 40
0.44540917611453
 40
0.4999619616204113
 40
0.5283539591293989
 40
0.5586382570610308
 40
0.5908225180763287
 40
0.6249130663094866
 40
0.6541877718665238
 40
0.6958659226993945
 40
0.7499331258710686
 40
0.8215922384380653
 40
0.8871433725949819
 40
0.9466383863070995
 40
1.0
 40
1.0
 40
1.0
 40
1.0
 10
101.2828295606365
 20
144.3943889907737
 30
0.0
 10
101.2827949720955
 20
144.3943965327367
 30
0.0
 10
101.2746941346681
 20
144.3961629043281
 30
0.0
 10
101.3033529693377
 20
144.3907085632391
 30
0.0
 10
101.3767429397587
 20
144.3801650893896
 30
0.0
 10
101.5203985658067
 20
144.3604800657213
 30
0.0
 10
101.7214345222758
 20
144.3356407504283
 30
0.0
 10
102.0040650056334
 20
144.3014322985066
 30
0.0
 10
102.4174741559854
 20
144.257752396778
 30
0.0
 10
103.0937616472451
 20
144.1947093312345
 30
0.0
 10
104.0321925517698
 20
144.1334121600781
 30
0.0
 10
105.1416857643061
 20
144.1021237167701
 30
0.0
 10
106.2391664952222
 20
144.1037788843211
 30
0.0
 10
107.1391977336303
 20
144.1350850864283
 30
0.0
 10
107.8505386594879
 20
144.1819182352294
 30
0.0
 10
108.4159555604771
 20
144.2290850971256
 30
0.0
 10
109.0048789833059
 20
144.2885241036756
 30
0.0
 10
109.5692886357833
 20
144.3548813102836
 30
0.0
 10
110.1634848297195
 20
144.4368007167151
 30
0.0
 10
110.83009299069
 20
144.5384486994655
 30
0.0
 10
111.6314257363902
 20
144.6805876100658
 30
0.0
 10
112.3839357208981
 20
144.8318321808322
 30
0.0
 10
112.9292222158643
 20
144.9496830540916
 30
0.0
 10
113.2319437473632
 20
145.0259122858408
 30
0.0
 10
113.2662341979762
 20
145.0363645953354
 30
0.0
 10
113.2824476346262
 20
145.0413067251355
 30
0.0
  0
LINE
  5
F0
330
1F
100
AcDbEntity
  8
0
  6
HIDDEN
 62
     7
370
     0
100
AcDbLine
 10
170.2827261026
 20
103.4413790541
 30
0.0
 11
170.2827261026
 21
112.4413790541
 31
0.0
  0
LINE
  5
F1
330
1F
100
AcDbEntity
  8
0
  6
HIDDEN
 62
     7
370
     0
100
AcDbLine
 10
164.2327261026
 20
124.3640287849
 30
0.0
 11
166.7327261026
 21
124.3640287849
 31
0.0
  0
LINE
  5
F2
330
1F
100
AcDbEntity
  8
0
  6
HIDDEN
 62
     7
370
     0
100
AcDbLine
 10
161.7327261026
 20
124.3640287849
 30
0.0
 11
164.2327261026
 21
124.3640287849
 31
0.0
  0
LINE
  5
F3
330
1F
100
AcDbEntity
  8
0
  6
HIDDEN
 62
     7
370
     0
100
AcDbLine
 10
166.7327261026
 20
91.5187293233
 30
0.0
 11
161.7327261026
 21
91.5187293233
 31
0.0
  0
LINE
  5
F4
330
1F
100
AcDbEntity
  8
0
  6
HIDDEN
 62
     7
370
     0
100
AcDbLine
 10
164.2327261026
 20
115.9413790541
 30
0.0
 11
166.7327261026
 21
115.9413790541
 31
0.0
  0
LINE
  5
F5
330
1F
100
AcDbEntity
  8
0
  6
HIDDEN
 62
     7
370
     0
100
AcDbLine
 10
161.7327261026
 20
115.9413790541
 30
0.0
 11
164.2327261026
 21
115.9413790541
 31
0.0
  0
LINE
  5
F6
330
1F
100
AcDbEntity
  8
0
  6
HIDDEN
 62
     7
370
     0
100
AcDbLine
 10
166.7327261026
 20
99.9413790541
 30
0.0
 11
161.7327261026
 21
99.9413790541
 31
0.0
  0
SPLINE
  5
F7
330
1F
100
AcDbEntity
  8
0
  6
HIDDEN
 62
     7
370
     0
100
AcDbSpline
210
0.0
220
0.0
230
1.0
 70
     8
 71
     3
 72
    30
 73
    26
 74
     0
 42
0.00000001
 43
0.00000001
 40
0.0
 40
0.0
 40
0.0
 40
0.0
 40
0.0412274297564294
 40
0.0838627324950375
 40
0.1250516510534607
 40
0.1672473279861977
 40
0.2244849111414905
 40
0.2833611997047468
 40
0.3419130967478416
 40
0.4019328869320846
 40
0.4346453182317871
 40
0.4680030772970318
 40
0.5007963769266193
 40
0.5349012334331571
 40
0.5631174209943244
 40
0.5919349488450907
 40
0.6414698556812101
 40
0.6923287517706392
 40
0.7450260126139346
 40
0.7988519530009878
 40
0.8464596455547795
 40
0.8953104661842536
 40
0.9429925514063188
 40
0.9925828888811876
 40
1.0
 40
1.0
 40
1.0
 40
1.0
 10
174.2827261026493
 20
118.3798892072076
 30
0.0
 10
174.2807844318092
 20
118.382293943718
 30
0.0
 10
174.2768347841301
 20
118.3871855359392
 30
0.0
 10
174.2457422799609
 20
118.4259066257556
 30
0.0
 10
174.1987234921664
 20
118.4852085455818
 30
0.0
 10
174.1304987805585
 20
118.5729122329296
 30
0.0
 10
174.0384522710435
 20
118.6951486044874
 30
0.0
 10
173.9258232150292
 20
118.8543714740938
 30
0.0
 10
173.8091106319013
 20
119.0378259878429
 30
0.0
 10
173.7169324143936
 20
119.2132525574551
 30
0.0
 10
173.6559165311298
 20
119.3727602261481
 30
0.0
 10
173.6220657555842
 20
119.5053399105153
 30
0.0
 10
173.6079309426842
 20
119.6453104604698
 30
0.0
 10
173.6174670129569
 20
119.7787556081638
 30
0.0
 10
173.6452892264926
 20
119.9020960584286
 30
0.0
 10
173.6933022321644
 20
120.0392055320228
 30
0.0
 10
173.7693486355922
 20
120.1925720907107
 30
0.0
 10
173.8707716451802
 20
120.3555608370908
 30
0.0
 10
173.9768956562215
 20
120.5048734496992
 30
0.0
 10
174.0751510052441
 20
120.6321036530884
 30
0.0
 10
174.1591184223942
 20
120.7356390063425
 30
0.0
 10
174.2244774236034
 20
120.8137163661016
 30
0.0
 10
174.2672867019264
 20
120.8639022230289
 30
0.0
 10
174.2851718584323
 20
120.8846614202294
 30
0.0
 10
174.2817314499826
 20
120.8806617303542
 30
0.0
 10
174.2812838261651
 20
120.8801413396863
 30
0.0
  0
SPLINE
  5
F8
330
1F
100
AcDbEntity
  8
0
  6
HIDDEN
 62
     7
370
     0
100
AcDbSpline
210
0.0
220
0.0
230
1.0
 70
     8
 71
     3
 72
    10
 73
     6
 74
     0
 42
0.00000001
 43
0.00000001
 40
0.0
 40
0.0
 40
0.0
 40
0.0
 40
0.3026314160087502
 40
0.7588357203612283
 40
1.0
 40
1.0
 40
1.0
 40
1.0
 10
171.2862549536584
 20
120.8683877079838
 30
0.0
 10
171.2863414429444
 20
120.8684171827176
 30
0.0
 10
171.2865583112408
 20
120.8684910893897
 30
0.0
 10
171.3175357307061
 20
120.8770066690477
 30
0.0
 10
171.3516259299887
 20
120.8928827469652
 30
0.0
 10
171.3634150161929
 20
120.8983730185122
 30
0.0
  0
SPLINE
  5
F9
330
1F
100
AcDbEntity
  8
0
  6
HIDDEN
 62
     7
370
     0
100
AcDbSpline
210
0.0
220
0.0
230
1.0
 70
     8
 71
     3
 72
    28
 73
    24
 74
     0
 42
0.00000001
 43
0.00000001
 40
0.0
 40
0.0
 40
0.0
 40
0.0
 40
0.0009226336076705
 40
0.0497723604002862
 40
0.0941872649949922
 40
0.1397247581105998
 40
0.1876965976085476
 40
0.2366559380810598
 40
0.294034543825122
 40
0.3525705444224433
 40
0.4083427951638828
 40
0.4653815754032081
 40
0.5004134615345348
 40
0.5362690999382772
 40
0.571370432991604
 40
0.6077333217656302
 40
0.6500257938007298
 40
0.6934941368969944
 40
0.7617653176676186
 40
0.8319032389476767
 40
0.9025101008984895
 40
0.975506921752798
 40
1.0
 40
1.0
 40
1.0
 40
1.0
 10
171.2829189931032
 20
118.4979839225186
 30
0.0
 10
171.2828548517072
 20
118.4979093046338
 30
0.0
 10
171.2793946821997
 20
118.4938839708253
 30
0.0
 10
171.2914884331574
 20
118.5079268915539
 30
0.0
 10
171.319231003747
 20
118.540328275137
 30
0.0
 10
171.3649856362454
 20
118.5944000101022
 30
0.0
 10
171.4257621855949
 20
118.6676810143479
 30
0.0
 10
171.5038356555653
 20
118.7647317902565
 30
0.0
 10
171.5968729733073
 20
118.8860745788329
 30
0.0
 10
171.6987227199604
 20
119.0302270089196
 30
0.0
 10
171.7982630201046
 20
119.1910247060004
 30
0.0
 10
171.8745929161596
 20
119.3455197520006
 30
0.0
 10
171.9244087062683
 20
119.4907723408679
 30
0.0
 10
171.9503796926799
 20
119.6178672601205
 30
0.0
 10
171.9566322806409
 20
119.7503064988178
 30
0.0
 10
171.9408123054723
 20
119.8895996346733
 30
0.0
 10
171.9016140976467
 20
120.0327383964687
 30
0.0
 10
171.8319502838366
 20
120.201273698324
 30
0.0
 10
171.7320124065549
 20
120.3825799339481
 30
0.0
 10
171.6105969648189
 20
120.5677966107235
 30
0.0
 10
171.4919657797683
 20
120.7319550009596
 30
0.0
 10
171.4101722337663
 20
120.8387102426058
 30
0.0
 10
171.3728034424597
 20
120.8863932728913
 30
0.0
 10
171.3634150161929
 20
120.8983730185122
 30
0.0
  0
LINE
  5
FA
330
1F
100
AcDbEntity
  8
0
  6
HIDDEN
 62
     7
370
     0
100
AcDbLine
 10
174.2827261026
 20
121.9413790541
 30
0.0
 11
171.2827261026
 21
121.9413790541
 31
0.0
  0
LWPOLYLINE
  5
FB
330
1F
100
AcDbEntity
  8
0
  6
HIDDEN
 62
     7
370
     0
100
AcDbPolyline
 90
       27
 70
   128
 43
0.0
 10
174.2812838262
 20
95.0026167686
 10
174.2762677813
 20
95.0084496141
 10
174.2503090381
 20
95.0387878815
 10
174.2093561746
 20
95.0871895939
 10
174.153604578
 20
95.1542894461
 10
174.0612177605
 20
95.269290242
 10
173.9531671191
 20
95.4122241344
 10
173.8416526591
 20
95.5754121662
 10
173.7334139916
 20
95.7648744175
 10
173.6786831009
 20
95.8884410006
 10
173.636390634
 20
96.0232691201
 10
173.6163133155
 20
96.1398198302
 10
173.6126887508
 20
96.2621854825
 10
173.626055791
 20
96.3801867609
 10
173.6546617149
 20
96.497198198
 10
173.7212285409
 20
96.6698263418
 10
173.8053761848
 20
96.8322038478
 10
173.867348141
 20
96.9353410909
 10
173.9307093592
 20
97.0326418999
 10
173.9946144586
 20
97.1251065867
 10
174.0565082223
 20
97.2107271793
 10
174.1385191252
 20
97.3197612655
 10
174.2081258738
 20
97.4092921794
 10
174.249678564
 20
97.4616841315
 10
174.2756364311
 20
97.4940672632
 10
174.2827261026
 20
97.5028689011
 10
174.2827261026
 20
97.5028689011
  0
LINE
  5
FC
330
1F
100
AcDbEntity
  8
0
  6
HIDDEN
 62
     7
370
     0
100
AcDbLine
 10
172.7827261026
 20
93.9413790541
 30
0.0
 11
174.2827261026
 21
93.9413790541
 31
0.0
  0
LINE
  5
FD
330
1F
100
AcDbEntity
  8
0
  6
HIDDEN
 62
     7
370
     0
100
AcDbLine
 10
171.2827261026
 20
93.9413790541
 30
0.0
 11
172.7827261026
 21
93.9413790541
 31
0.0
  0
SPLINE
  5
FE
330
1F
100
AcDbEntity
  8
0
  6
HIDDEN
 62
     7
370
     0
100
AcDbSpline
210
0.0
220
0.0
230
1.0
 70
     8
 71
     3
 72
    10
 73
     6
 74
     0
 42
0.00000001
 43
0.00000001
 40
0.0
 40
0.0
 40
0.0
 40
0.0
 40
0.4231540259896279
 40
0.8575207044509677
 40
1.0
 40
1.0
 40
1.0
 40
1.0
 10
171.3634150161929
 20
94.98438508975083
 30
0.0
 10
171.3439918793098
 20
94.99298723866272
 30
0.0
 10
171.3046309350682
 20
95.01041947454291
 30
0.0
 10
171.2813297794832
 20
95.01566206410982
 30
0.0
 10
171.2852794070224
 20
95.01462624469407
 30
0.0
 10
171.2862549536584
 20
95.01437040027925
 30
0.0
  0
SPLINE
  5
FF
330
1F
100
AcDbEntity
  8
0
  6
HIDDEN
 62
     7
370
     0
100
AcDbSpline
210
0.0
220
0.0
230
1.0
 70
     8
 71
     3
 72
    26
 73
    22
 74
     0
 42
0.00000001
 43
0.00000001
 40
0.0
 40
0.0
 40
0.0
 40
0.0
 40
0.0621414425335528
 40
0.1263791547706018
 40
0.1883973073355877
 40
0.251691011279973
 40
0.3019186141872187
 40
0.3531168608029061
 40
0.3877513465274075
 40
0.4232409516439719
 40
0.4579380902054343
 40
0.4938371704945238
 40
0.5373939267941703
 40
0.5821512230818704
 40
0.6494245966400182
 40
0.7185832660866919
 40
0.7869932854978494
 40
0.8578672733760778
 40
0.9051082661486207
 40
0.9536395479215646
 40
1.0
 40
1.0
 40
1.0
 40
1.0
 10
171.3634150161929
 20
94.98438508975086
 30
0.0
 10
171.3886078821224
 20
95.01663684952551
 30
0.0
 10
171.4398434661805
 20
95.08222834489486
 30
0.0
 10
171.539434991173
 20
95.21544332776588
 30
0.0
 10
171.6468688896228
 20
95.3686760190329
 30
0.0
 10
171.7483441136918
 20
95.52895502515965
 30
0.0
 10
171.83715314275
 20
95.69423091446566
 30
0.0
 10
171.8993376872743
 20
95.84305522440363
 30
0.0
 10
171.9382887469679
 20
95.98487054232952
 30
0.0
 10
171.9555731603002
 20
96.11267015808514
 30
0.0
 10
171.9527891237311
 20
96.2437271063098
 30
0.0
 10
171.9280829497283
 20
96.38155076494826
 30
0.0
 10
171.8799827197071
 20
96.52316655848428
 30
0.0
 10
171.8014360836337
 20
96.68662781513889
 30
0.0
 10
171.6959469554239
 20
96.85799594760736
 30
0.0
 10
171.5743472669805
 20
97.0274834589383
 30
0.0
 10
171.4597263887534
 20
97.17387243911661
 30
0.0
 10
171.3744038973963
 20
97.27720415770746
 30
0.0
 10
171.3194404029738
 20
97.34220572663604
 30
0.0
 10
171.2884505417118
 20
97.37835840343234
 30
0.0
 10
171.2847345054968
 20
97.38266845855541
 30
0.0
 10
171.2829189931032
 20
97.38477418574448
 30
0.0
  0
LINE
  5
100
330
1F
100
AcDbEntity
  8
0
  6
HIDDEN
 62
     7
370
     0
100
AcDbLine
 10
171.2691156659
 20
97.3844638245
 30
0.0
 11
171.3634150162
 21
94.9843850898
 31
0.0
  0
LINE
  5
101
330
1F
100
AcDbEntity
  8
0
  6
HIDDEN
 62
     7
370
     0
100
AcDbLine
 10
171.2691156659
 20
118.4982942837
 30
0.0
 11
171.3634150162
 21
120.8983730185
 31
0.0
  0
LWPOLYLINE
  5
102
330
1F
100
AcDbEntity
  8
0
  6
HIDDEN
 62
     7
370
     0
100
AcDbPolyline
 90
       32
 70
   128
 43
0.0
 10
131.2827261026
 20
153.2540849059
 10
132.2892187031
 20
153.2224569258
 10
133.2545053782
 20
153.1288678386
 10
134.1390671781
 20
152.9771491925
 10
134.9066900388
 20
152.7735123668
 10
135.5259473901
 20
152.5262942771
 10
135.9714867634
 20
152.2456160609
 10
136.2250677243
 20
151.9429687174
 10
136.2763086385
 20
151.6307426644
 10
136.123111697
 20
151.3217204733
 10
135.7717488005
 20
151.0285535488
 10
135.2366047873
 20
150.7632441792
 10
134.5395885163
 20
150.5366541614
 10
133.7092359153
 20
150.3580601172
 10
132.7795417175
 20
150.2347737079
 10
131.7885677126
 20
150.1718422935
 10
130.7768844927
 20
150.1718422935
 10
129.7859104878
 20
150.2347737079
 10
128.85621629
 20
150.3580601172
 10
128.025863689
 20
150.5366541614
 10
127.328847418
 20
150.7632441792
 10
126.7937034048
 20
151.0285535488
 10
126.4423405083
 20
151.3217204733
 10
126.2891435668
 20
151.6307426644
 10
126.340384481
 20
151.9429687174
 10
126.5939654419
 20
152.2456160609
 10
127.0395048152
 20
152.5262942771
 10
127.6587621665
 20
152.7735123668
 10
128.4263850272
 20
152.9771491925
 10
129.3109468271
 20
153.1288678386
 10
130.2762335022
 20
153.2224569258
 10
131.2827261026
 20
153.2540849059
  0
LINE
  5
103
330
1F
100
AcDbEntity
  8
0
  6
HIDDEN
 62
     7
370
     0
100
AcDbLine
 10
145.5447551236
 20
146.892341815
 30
0.0
 11
145.5447551236
 21
139.2913790541
 31
0.0
  0
LINE
  5
104
330
1F
100
AcDbEntity
  8
0
  6
HIDDEN
 62
     7
370
     0
100
AcDbLine
 10
144.1927261026
 20
142.6556142466
 30
0.0
 11
144.1927261026
 21
139.2913790541
 31
0.0
  0
LINE
  5
105
330
1F
100
AcDbEntity
  8
0
  6
HIDDEN
 62
     7
370
     0
100
AcDbLine
 10
140.3727261026
 20
142.6556142466
 30
0.0
 11
140.3727261026
 21
139.2913790541
 31
0.0
  0
CIRCLE
  5
106
330
1F
100
AcDbEntity
  8
0
  6
HIDDEN
 62
     7
370
     0
100
AcDbCircle
 10
129.2827261026
 20
107.9413790541
 30
0.0
 40
5.0
  0
LINE
  5
107
330
1F
100
AcDbEntity
  8
0
  6
HIDDEN
 62
     7
370
     0
100
AcDbLine
 10
217.150349069
 20
97.9361779463
 30
0.0
 11
217.2092387927
 21
96.437334392
 31
0.0
  0
LINE
  5
108
330
1F
100
AcDbEntity
  8
0
  6
HIDDEN
 62
     7
370
     0
100
AcDbLine
 10
217.0914593454
 20
99.4350215007
 30
0.0
 11
217.150349069
 21
97.9361779463
 31
0.0
  0
LINE
  5
109
330
1F
100
AcDbEntity
  8
0
  6
HIDDEN
 62
     7
370
     0
100
AcDbLine
 10
211.8164112651
 20
97.7266069592
 30
0.0
 11
211.8753009888
 21
96.2277634049
 31
0.0
  0
LINE
  5
10A
330
1F
100
AcDbEntity
  8
0
  6
HIDDEN
 62
     7
370
     0
100
AcDbLine
 10
211.7575215415
 20
99.2254505136
 30
0.0
 11
211.8164112651
 21
97.7266069592
 31
0.0
  0
LINE
  5
10B
330
1F
100
AcDbEntity
  8
0
  6
HIDDEN
 62
     7
370
     0
100
AcDbLine
 10
217.2642936192
 20
99.1610957556
 30
0.0
 11
217.2827261026
 21
98.6919577231
 31
0.0
  0
LINE
  5
10C
330
1F
100
AcDbEntity
  8
0
  6
HIDDEN
 62
     7
370
     0
100
AcDbLine
 10
211.316796747
 20
97.7069770513
 30
0.0
 11
211.3560565628
 21
96.7077480151
 31
0.0
  0
LINE
  5
10D
330
1F
100
AcDbEntity
  8
0
  6
HIDDEN
 62
     7
370
     0
100
AcDbLine
 10
211.2775369313
 20
98.7062060876
 30
0.0
 11
211.316796747
 21
97.7069770513
 31
0.0
  0
LINE
  5
10E
330
1F
100
AcDbEntity
  8
0
  6
HIDDEN
 62
     7
370
     0
100
AcDbLine
 10
215.313712892
 20
97.8640163144
 30
0.0
 11
217.3121709645
 21
97.9425359459
 31
0.0
  0
LINE
  5
10F
330
1F
100
AcDbEntity
  8
0
  6
HIDDEN
 62
     7
370
     0
100
AcDbLine
 10
215.3431577538
 20
97.1145945372
 30
0.0
 11
215.313712892
 21
97.8640163144
 31
0.0
  0
LINE
  5
110
330
1F
100
AcDbEntity
  8
0
  6
HIDDEN
 62
     7
370
     0
100
AcDbLine
 10
215.2842680302
 20
98.6134380916
 30
0.0
 11
215.313712892
 21
97.8640163144
 31
0.0
  0
LINE
  5
111
330
1F
100
AcDbEntity
  8
0
  6
HIDDEN
 62
     7
370
     0
100
AcDbLine
 10
215.2842680302
 20
98.6134380916
 30
0.0
 11
217.2827261026
 21
98.6919577231
 31
0.0
  0
LINE
  5
112
330
1F
100
AcDbEntity
  8
0
  6
HIDDEN
 62
     7
370
     0
100
AcDbLine
 10
215.3431577538
 20
97.1145945372
 30
0.0
 11
217.3416158263
 21
97.1931141687
 31
0.0
  0
LINE
  5
113
330
1F
100
AcDbEntity
  8
0
  6
HIDDEN
 62
     7
370
     0
100
AcDbLine
 10
211.8164112651
 20
119.6573084869
 30
0.0
 11
211.6986318179
 21
116.6596213782
 31
0.0
  0
LINE
  5
114
330
1F
100
AcDbEntity
  8
0
  6
HIDDEN
 62
     7
370
     0
100
AcDbLine
 10
211.2971668391
 20
119.1773238767
 30
0.0
 11
211.2186472076
 21
117.1788658042
 31
0.0
  0
LINE
  5
115
330
1F
100
AcDbEntity
  8
0
  6
HIDDEN
 62
     7
370
     0
100
AcDbLine
 10
217.150349069
 20
119.4477374999
 30
0.0
 11
217.0325696218
 21
116.4500503911
 31
0.0
  0
LINE
  5
116
330
1F
100
AcDbEntity
  8
0
  6
HIDDEN
 62
     7
370
     0
100
AcDbLine
 10
217.2827261026
 20
118.6919577231
 30
0.0
 11
217.2054038955
 21
116.7239761362
 31
0.0
  0
LINE
  5
117
330
1F
100
AcDbEntity
  8
0
  6
HIDDEN
 62
     7
370
     0
100
AcDbLine
 10
215.2548231683
 20
118.0210555774
 30
0.0
 11
217.2532812408
 21
117.9425359459
 31
0.0
  0
LINE
  5
118
330
1F
100
AcDbEntity
  8
0
  6
HIDDEN
 62
     7
370
     0
100
AcDbLine
 10
215.2253783065
 20
117.2716338002
 30
0.0
 11
215.2548231683
 21
118.0210555774
 31
0.0
  0
LINE
  5
119
330
1F
100
AcDbEntity
  8
0
  6
HIDDEN
 62
     7
370
     0
100
AcDbLine
 10
215.2842680302
 20
118.7704773546
 30
0.0
 11
215.2548231683
 21
118.0210555774
 31
0.0
  0
LINE
  5
11A
330
1F
100
AcDbEntity
  8
0
  6
HIDDEN
 62
     7
370
     0
100
AcDbLine
 10
215.2842680302
 20
118.7704773546
 30
0.0
 11
217.2827261026
 21
118.6919577231
 31
0.0
  0
LINE
  5
11B
330
1F
100
AcDbEntity
  8
0
  6
HIDDEN
 62
     7
370
     0
100
AcDbLine
 10
215.2253783065
 20
117.2716338002
 30
0.0
 11
217.223836379
 21
117.1931141687
 31
0.0
  0
LINE
  5
11C
330
1F
100
AcDbEntity
  8
0
  6
HIDDEN
 62
     7
370
     0
100
AcDbLine
 10
177.2827261026
 20
103.4413790541
 30
0.0
 11
177.2827261026
 21
112.4413790541
 31
0.0
  0
LINE
  5
11D
330
1F
100
AcDbEntity
  8
0
  6
HIDDEN
 62
     7
370
     0
100
AcDbLine
 10
176.7827261026
 20
102.9413790541
 30
0.0
 11
176.7827261026
 21
112.9413790541
 31
0.0
  0
LINE
  5
11E
330
1F
100
AcDbEntity
  8
0
  6
HIDDEN
 62
     7
370
     0
100
AcDbLine
 10
161.2827261026
 20
102.9413790541
 30
0.0
 11
161.2827261026
 21
112.9413790541
 31
0.0
  0
LINE
  5
11F
330
1F
100
AcDbEntity
  8
0
  6
HIDDEN
 62
     7
370
     0
100
AcDbLine
 10
160.7827261026
 20
103.4413790541
 30
0.0
 11
160.7827261026
 21
107.7304667123
 31
0.0
  0
LINE
  5
120
330
1F
100
AcDbEntity
  8
0
  6
HIDDEN
 62
     7
370
     0
100
AcDbLine
 10
160.7827261026
 20
108.3134639975
 30
0.0
 11
160.7827261026
 21
112.4413790541
 31
0.0
  0
LINE
  5
121
330
1F
100
AcDbEntity
  8
0
  6
HIDDEN
 62
     7
370
     0
100
AcDbLine
 10
180.7827261026
 20
106.9413790541
 30
0.0
 11
178.7827261026
 21
106.9413790541
 31
0.0
  0
LINE
  5
122
330
1F
100
AcDbEntity
  8
0
  6
HIDDEN
 62
     7
370
     0
100
AcDbLine
 10
180.7827261026
 20
103.4413790541
 30
0.0
 11
180.7827261026
 21
106.9413790541
 31
0.0
  0
LINE
  5
123
330
1F
100
AcDbEntity
  8
0
  6
HIDDEN
 62
     7
370
     0
100
AcDbLine
 10
180.7827261026
 20
108.9413790541
 30
0.0
 11
180.7827261026
 21
112.4413790541
 31
0.0
  0
LINE
  5
124
330
1F
100
AcDbEntity
  8
0
  6
HIDDEN
 62
     7
370
     0
100
AcDbLine
 10
178.7827261026
 20
108.9413790541
 30
0.0
 11
180.7827261026
 21
108.9413790541
 31
0.0
  0
LINE
  5
125
330
1F
100
AcDbEntity
  8
0
  6
HIDDEN
 62
     7
370
     0
100
AcDbLine
 10
178.7827261026
 20
106.9413790541
 30
0.0
 11
178.7827261026
 21
108.9413790541
 31
0.0
  0
LINE
  5
126
330
1F
100
AcDbEntity
  8
0
  6
HIDDEN
 62
     7
370
     0
100
AcDbLine
 10
174.7827261026
 20
107.9413790541
 30
0.0
 11
178.7827261026
 21
107.9413790541
 31
0.0
  0
LINE
  5
127
330
1F
100
AcDbEntity
  8
0
  6
HIDDEN
 62
     7
370
     0
100
AcDbLine
 10
174.7827261026
 20
109.1913790541
 30
0.0
 11
174.7827261026
 21
107.9413790541
 31
0.0
  0
LINE
  5
128
330
1F
100
AcDbEntity
  8
0
  6
HIDDEN
 62
     7
370
     0
100
AcDbLine
 10
174.7827261026
 20
107.9413790541
 30
0.0
 11
174.7827261026
 21
106.6913790541
 31
0.0
  0
LINE
  5
129
330
1F
100
AcDbEntity
  8
0
  6
HIDDEN
 62
     7
370
     0
100
AcDbLine
 10
166.7827261026
 20
107.9413790541
 30
0.0
 11
166.7827261026
 21
109.1913790541
 31
0.0
  0
LINE
  5
12A
330
1F
100
AcDbEntity
  8
0
  6
HIDDEN
 62
     7
370
     0
100
AcDbLine
 10
166.7827261026
 20
107.9413790541
 30
0.0
 11
160.7827261026
 21
107.9413790541
 31
0.0
  0
LINE
  5
12B
330
1F
100
AcDbEntity
  8
0
  6
HIDDEN
 62
     7
370
     0
100
AcDbLine
 10
166.7827261026
 20
106.6913790541
 30
0.0
 11
166.7827261026
 21
107.9413790541
 31
0.0
  0
LINE
  5
12C
330
1F
100
AcDbEntity
  8
0
  6
HIDDEN
 62
     7
370
     0
100
AcDbLine
 10
174.7827261026
 20
110.4413790541
 30
0.0
 11
174.7827261026
 21
109.1913790541
 31
0.0
  0
LINE
  5
12D
330
1F
100
AcDbEntity
  8
0
  6
HIDDEN
 62
     7
370
     0
100
AcDbLine
 10
174.7827261026
 20
106.6913790541
 30
0.0
 11
174.7827261026
 21
105.4413790541
 31
0.0
  0
LINE
  5
12E
330
1F
100
AcDbEntity
  8
0
  6
HIDDEN
 62
     7
370
     0
100
AcDbLine
 10
166.7827261026
 20
105.4413790541
 30
0.0
 11
166.7827261026
 21
106.6913790541
 31
0.0
  0
LINE
  5
12F
330
1F
100
AcDbEntity
  8
0
  6
HIDDEN
 62
     7
370
     0
100
AcDbLine
 10
166.7827261026
 20
109.1913790541
 30
0.0
 11
166.7827261026
 21
110.4413790541
 31
0.0
  0
LINE
  5
130
330
1F
100
AcDbEntity
  8
0
  6
HIDDEN
 62
     7
370
     0
100
AcDbLine
 10
174.7827261026
 20
110.4413790541
 30
0.0
 11
180.7827261026
 21
110.4413790541
 31
0.0
  0
LINE
  5
131
330
1F
100
AcDbEntity
  8
0
  6
HIDDEN
 62
     7
370
     0
100
AcDbLine
 10
166.7827261026
 20
110.4413790541
 30
0.0
 11
160.7827261026
 21
110.4413790541
 31
0.0
  0
LINE
  5
132
330
1F
100
AcDbEntity
  8
0
  6
HIDDEN
 62
     7
370
     0
100
AcDbLine
 10
166.7827261026
 20
105.4413790541
 30
0.0
 11
160.7827261026
 21
105.4413790541
 31
0.0
  0
LINE
  5
133
330
1F
100
AcDbEntity
  8
0
  6
HIDDEN
 62
     7
370
     0
100
AcDbLine
 10
174.7827261026
 20
105.4413790541
 30
0.0
 11
180.7827261026
 21
105.4413790541
 31
0.0
  0
LINE
  5
134
330
1F
100
AcDbEntity
  8
0
  6
HIDDEN
 62
     7
370
     0
100
AcDbLine
 10
122.2827261026
 20
68.5366960975
 30
0.0
 11
122.3723277266
 21
69.1742447795
 31
0.0
  0
LINE
  5
135
330
1F
100
AcDbEntity
  8
0
  6
HIDDEN
 62
     7
370
     0
100
AcDbLine
 10
122.3723277266
 20
146.7085133288
 30
0.0
 11
122.2827261026
 21
147.3460620107
 31
0.0
  0
ARC
  5
136
330
1F
100
AcDbEntity
  8
0
  6
HIDDEN
 62
     7
370
     0
100
AcDbCircle
 10
121.3857891842
 20
69.3128937297
 30
0.0
 40
0.9962338214386842
100
AcDbArc
 50
352.0
 51
0.0
  0
ARC
  5
137
330
1F
100
AcDbEntity
  8
0
  6
HIDDEN
 62
     7
370
     0
100
AcDbCircle
 10
121.3857891842
 20
69.3128937297
 30
0.0
 40
0.9962338214386793
100
AcDbArc
 50
0.0
 51
25.7988228126
  0
ARC
  5
138
330
1F
100
AcDbEntity
  8
0
  6
HIDDEN
 62
     7
370
     0
100
AcDbCircle
 10
121.3857891842
 20
146.5698643786
 30
0.0
 40
0.9962338214386862
100
AcDbArc
 50
348.75
 51
8.0
  0
LWPOLYLINE
  5
139
330
1F
100
AcDbEntity
  8
0
  6
HIDDEN
 62
     7
370
     0
100
AcDbPolyline
 90
        3
 70
   128
 43
0.0
 10
122.3628806521
 20
146.3755088015
 10
122.3061892214
 20
146.1886222003
 10
122.2827261026
 20
146.1362908654
  0
LINE
  5
13A
330
1F
100
AcDbEntity
  8
0
  6
HIDDEN
 62
     7
370
     0
100
AcDbLine
 10
122.3820230056
 20
69.3128937297
 30
0.0
 11
122.3820230056
 21
146.5698643786
 31
0.0
  0
ARC
  5
13B
330
1F
100
AcDbEntity
  8
0
  6
HIDDEN
 62
     7
370
     0
100
AcDbCircle
 10
112.5359317578
 20
88.4413790541
 30
0.0
 40
11.99999999999999
100
AcDbArc
 50
273.4632953328
 51
324.3146652873
  0
ARC
  5
13C
330
1F
100
AcDbEntity
  8
0
  6
HIDDEN
 62
     7
370
     0
100
AcDbCircle
 10
112.5359317578
 20
127.4413790541
 30
0.0
 40
11.99999999999999
100
AcDbArc
 50
35.6853347127
 51
86.5367708992
  0
ARC
  5
13D
330
1F
100
AcDbEntity
  8
0
  6
HIDDEN
 62
     7
370
     0
100
AcDbCircle
 10
95.7434520448
 20
77.4413790541
 30
0.0
 40
1.000000000000008
100
AcDbArc
 50
210.0
 51
270.0
  0
ARC
  5
13E
330
1F
100
AcDbEntity
  8
0
  6
HIDDEN
 62
     7
370
     0
100
AcDbCircle
 10
95.7434520448
 20
138.4413790541
 30
0.0
 40
1.000000000000008
100
AcDbArc
 50
90.0
 51
150.0
  0
LINE
  5
13F
330
1F
100
AcDbEntity
  8
0
  6
HIDDEN
 62
     7
370
     0
100
AcDbLine
 10
95.7434520448
 20
76.4413790541
 30
0.0
 11
101.2878964766
 21
76.4413790541
 31
0.0
  0
LINE
  5
140
330
1F
100
AcDbEntity
  8
0
  6
HIDDEN
 62
     7
370
     0
100
AcDbLine
 10
101.2878964766
 20
139.4413790541
 30
0.0
 11
95.7434520448
 21
139.4413790541
 31
0.0
  0
LINE
  5
141
330
1F
100
AcDbEntity
  8
0
  6
HIDDEN
 62
     7
370
     0
100
AcDbLine
 10
94.877426641
 20
138.9413790541
 30
0.0
 11
92.2793504297
 21
134.4413790541
 31
0.0
  0
LINE
  5
142
330
1F
100
AcDbEntity
  8
0
  6
HIDDEN
 62
     7
370
     0
100
AcDbLine
 10
92.2793504297
 20
81.4413790541
 30
0.0
 11
94.877426641
 21
76.9413790541
 31
0.0
  0
ARC
  5
143
330
1F
100
AcDbEntity
  8
0
  6
HIDDEN
 62
     7
370
     0
100
AcDbCircle
 10
132.7327261026
 20
83.0663790541
 30
0.0
 40
2.000000000000015
100
AcDbArc
 50
234.3409123039
 51
0.0
  0
ARC
  5
144
330
1F
100
AcDbEntity
  8
0
  6
HIDDEN
 62
     7
370
     0
100
AcDbCircle
 10
132.7327261026
 20
132.8163790541
 30
0.0
 40
2.000000000000026
100
AcDbArc
 50
0.0
 51
125.6590876961
  0
LINE
  5
145
330
1F
100
AcDbEntity
  8
0
  6
HIDDEN
 62
     7
370
     0
100
AcDbLine
 10
122.2827261026
 20
81.4413790541
 30
0.0
 11
131.566803721
 21
81.4413790541
 31
0.0
  0
LINE
  5
146
330
1F
100
AcDbEntity
  8
0
  6
HIDDEN
 62
     7
370
     0
100
AcDbLine
 10
131.566803721
 20
134.4413790541
 30
0.0
 11
122.2827261026
 21
134.4413790541
 31
0.0
  0
LINE
  5
147
330
1F
100
AcDbEntity
  8
0
  6
HIDDEN
 62
     7
370
     0
100
AcDbLine
 10
87.4827261026
 20
81.4413790541
 30
0.0
 11
92.2793504297
 21
81.4413790541
 31
0.0
  0
LINE
  5
148
330
1F
100
AcDbEntity
  8
0
  6
HIDDEN
 62
     7
370
     0
100
AcDbLine
 10
92.2793504297
 20
134.4413790541
 30
0.0
 11
82.4827261026
 21
134.4413790541
 31
0.0
  0
LINE
  5
149
330
1F
100
AcDbEntity
  8
0
  6
HIDDEN
 62
     7
370
     0
100
AcDbLine
 10
126.2827261026
 20
153.6185419362
 30
0.0
 11
126.2827261026
 21
149.9187928328
 31
0.0
  0
LINE
  5
14A
330
1F
100
AcDbEntity
  8
0
  6
HIDDEN
 62
     7
370
     0
100
AcDbLine
 10
136.2827261026
 20
149.9187928328
 30
0.0
 11
136.2827261026
 21
153.617169987
 31
0.0
  0
LINE
  5
14B
330
1F
100
AcDbEntity
  8
0
  6
HIDDEN
 62
     7
370
     0
100
AcDbLine
 10
146.5827261026
 20
94.9413790541
 30
0.0
 11
150.5827261026
 21
94.9413790541
 31
0.0
  0
LINE
  5
14C
330
1F
100
AcDbEntity
  8
0
  6
HIDDEN
 62
     7
370
     0
100
AcDbLine
 10
150.5827261026
 20
120.9413790541
 30
0.0
 11
146.5827261026
 21
120.9413790541
 31
0.0
  0
LINE
  5
14D
330
1F
100
AcDbEntity
  8
0
  6
HIDDEN
 62
     7
370
     0
100
AcDbLine
 10
134.7327261026
 20
95.9413790541
 30
0.0
 11
135.4827261026
 21
96.6913790541
 31
0.0
  0
LINE
  5
14E
330
1F
100
AcDbEntity
  8
0
  6
HIDDEN
 62
     7
370
     0
100
AcDbLine
 10
135.4827261026
 20
119.1913790541
 30
0.0
 11
134.7327261026
 21
119.9413790541
 31
0.0
  0
LINE
  5
14F
330
1F
100
AcDbEntity
  8
0
  6
HIDDEN
 62
     7
370
     0
100
AcDbLine
 10
135.4827261026
 20
96.6913790541
 30
0.0
 11
146.5827261026
 21
96.6913790541
 31
0.0
  0
LINE
  5
150
330
1F
100
AcDbEntity
  8
0
  6
HIDDEN
 62
     7
370
     0
100
AcDbLine
 10
146.5827261026
 20
119.1913790541
 30
0.0
 11
135.4827261026
 21
119.1913790541
 31
0.0
  0
LINE
  5
151
330
1F
100
AcDbEntity
  8
0
  6
HIDDEN
 62
     7
370
     0
100
AcDbLine
 10
127.2327261026
 20
157.9413790541
 30
0.0
 11
127.2327261026
 21
151.8413790541
 31
0.0
  0
ARC
  5
152
330
1F
100
AcDbEntity
  8
0
  6
HIDDEN
 62
     7
370
     0
100
AcDbCircle
 10
216.7827261026
 20
99.9046848061
 30
0.0
 40
0.5000000000000014
100
AcDbArc
 50
0.0
 51
80.0
  0
ARC
  5
153
330
1F
100
AcDbEntity
  8
0
  6
HIDDEN
 62
     7
370
     0
100
AcDbCircle
 10
216.7827261026
 20
115.9780733022
 30
0.0
 40
0.5000000000000014
100
AcDbArc
 50
280.0
 51
0.0
  0
LINE
  5
154
330
1F
100
AcDbEntity
  8
0
  6
HIDDEN
 62
     7
370
     0
100
AcDbLine
 10
216.8695501915
 20
115.4856694257
 30
0.0
 11
213.7827261026
 21
114.9413790541
 31
0.0
  0
LINE
  5
155
330
1F
100
AcDbEntity
  8
0
  6
HIDDEN
 62
     7
370
     0
100
AcDbLine
 10
213.7827261026
 20
100.9413790541
 30
0.0
 11
216.8695501915
 21
100.3970886826
 31
0.0
  0
ARC
  5
156
330
1F
100
AcDbEntity
  8
0
  6
HIDDEN
 62
     7
370
     0
100
AcDbCircle
 10
180.3879520845
 20
101.0413790541
 30
0.0
 40
0.4000000000000171
100
AcDbArc
 50
270.0
 51
290.0
  0
ARC
  5
157
330
1F
100
AcDbEntity
  8
0
  6
HIDDEN
 62
     7
370
     0
100
AcDbCircle
 10
180.3879520845
 20
114.8413790541
 30
0.0
 40
0.4000000000000171
100
AcDbArc
 50
70.0
 51
90.0
  0
LINE
  5
158
330
1F
100
AcDbEntity
  8
0
  6
HIDDEN
 62
     7
370
     0
100
AcDbLine
 10
174.2827261026
 20
100.6413790541
 30
0.0
 11
180.3879520845
 21
100.6413790541
 31
0.0
  0
LINE
  5
159
330
1F
100
AcDbEntity
  8
0
  6
HIDDEN
 62
     7
370
     0
100
AcDbLine
 10
171.1827261026
 20
100.6413790541
 30
0.0
 11
171.2867744691
 21
100.6413790541
 31
0.0
  0
LINE
  5
15A
330
1F
100
AcDbEntity
  8
0
  6
HIDDEN
 62
     7
370
     0
100
AcDbLine
 10
171.2837160685
 20
115.2413790541
 30
0.0
 11
171.1827261026
 21
115.2413790541
 31
0.0
  0
LINE
  5
15B
330
1F
100
AcDbEntity
  8
0
  6
HIDDEN
 62
     7
370
     0
100
AcDbLine
 10
180.3879520845
 20
115.2413790541
 30
0.0
 11
174.2804686583
 21
115.2413790541
 31
0.0
  0
ARC
  5
15C
330
1F
100
AcDbEntity
  8
0
  6
HIDDEN
 62
     7
370
     0
100
AcDbCircle
 10
171.1827261026
 20
101.0413790541
 30
0.0
 40
0.4000000000000057
100
AcDbArc
 50
180.0
 51
270.0
  0
ARC
  5
15D
330
1F
100
AcDbEntity
  8
0
  6
HIDDEN
 62
     7
370
     0
100
AcDbCircle
 10
171.1827261026
 20
114.8413790541
 30
0.0
 40
0.4000000000000057
100
AcDbArc
 50
90.0
 51
180.0
  0
LINE
  5
15E
330
1F
100
AcDbEntity
  8
0
  6
HIDDEN
 62
     7
370
     0
100
AcDbLine
 10
180.5247601419
 20
100.6655020058
 30
0.0
 11
181.2827261026
 21
100.9413790541
 31
0.0
  0
LINE
  5
15F
330
1F
100
AcDbEntity
  8
0
  6
HIDDEN
 62
     7
370
     0
100
AcDbLine
 10
181.2827261026
 20
114.9413790541
 30
0.0
 11
180.5247601419
 21
115.2172561024
 31
0.0
  0
LINE
  5
160
330
1F
100
AcDbEntity
  8
0
  6
HIDDEN
 62
     7
370
     0
100
AcDbLine
 10
181.2827261026
 20
100.9413790541
 30
0.0
 11
213.7827261026
 21
100.9413790541
 31
0.0
  0
LINE
  5
161
330
1F
100
AcDbEntity
  8
0
  6
HIDDEN
 62
     7
370
     0
100
AcDbLine
 10
213.7827261026
 20
114.9413790541
 30
0.0
 11
181.2827261026
 21
114.9413790541
 31
0.0
  0
LINE
  5
162
330
1F
100
AcDbEntity
  8
0
  6
HIDDEN
 62
     7
370
     0
100
AcDbLine
 10
113.7154387187
 20
70.3630994835
 30
0.0
 11
113.2827294322
 21
70.8413242009
 31
0.0
  0
LINE
  5
163
330
1F
100
AcDbEntity
  8
0
  6
HIDDEN
 62
     7
370
     0
100
AcDbLine
 10
101.2827265607
 20
71.4882855576
 30
0.0
 11
100.8020992555
 21
71.0100608468
 31
0.0
  0
LINE
  5
164
330
1F
100
AcDbEntity
  8
0
  6
HIDDEN
 62
     7
370
     0
100
AcDbLine
 10
100.801980914
 20
144.8726913454
 30
0.0
 11
101.282726378
 21
144.3944116735
 31
0.0
  0
LINE
  5
165
330
1F
100
AcDbEntity
  8
0
  6
HIDDEN
 62
     7
370
     0
100
AcDbLine
 10
113.2827261048
 20
145.0413840608
 30
0.0
 11
113.7155477745
 21
145.5196637337
 31
0.0
  0
LINE
  5
166
330
1F
100
AcDbEntity
  8
0
  6
HIDDEN
 62
     7
370
     0
100
AcDbLine
 10
113.2827261026
 20
70.7411953584
 30
0.0
 11
113.2827261026
 21
76.4673141602
 31
0.0
  0
LINE
  5
167
330
1F
100
AcDbEntity
  8
0
  6
HIDDEN
 62
     7
370
     0
100
AcDbLine
 10
101.2827261026
 20
76.4423632535
 30
0.0
 11
101.2827261026
 21
71.4883239721
 31
0.0
  0
LINE
  5
168
330
1F
100
AcDbEntity
  8
0
  6
HIDDEN
 62
     7
370
     0
100
AcDbLine
 10
113.2827261026
 20
139.4154439481
 30
0.0
 11
113.2827261026
 21
145.1413878869
 31
0.0
  0
LINE
  5
169
330
1F
100
AcDbEntity
  8
0
  6
HIDDEN
 62
     7
370
     0
100
AcDbLine
 10
101.2827261026
 20
144.3944011742
 30
0.0
 11
101.2827261026
 21
139.4403948548
 31
0.0
  0
LINE
  5
16A
330
1F
100
AcDbEntity
  8
0
  6
HIDDEN
 62
     7
370
     0
100
AcDbLine
 10
170.7827261026
 20
112.9413790541
 30
0.0
 11
170.2827261026
 21
112.4413790541
 31
0.0
  0
LINE
  5
16B
330
1F
100
AcDbEntity
  8
0
  6
HIDDEN
 62
     7
370
     0
100
AcDbLine
 10
170.2827261026
 20
103.4413790541
 30
0.0
 11
170.7827261026
 21
102.9413790541
 31
0.0
  0
LINE
  5
16C
330
1F
100
AcDbEntity
  8
0
  6
HIDDEN
 62
     7
370
     0
100
AcDbLine
 10
150.5827261026
 20
103.4413790541
 30
0.0
 11
170.2827261026
 21
103.4413790541
 31
0.0
  0
LINE
  5
16D
330
1F
100
AcDbEntity
  8
0
  6
HIDDEN
 62
     7
370
     0
100
AcDbLine
 10
170.2827261026
 20
112.4413790541
 30
0.0
 11
150.5827261026
 21
112.4413790541
 31
0.0
  0
LINE
  5
16E
330
1F
100
AcDbEntity
  8
0
  6
HIDDEN
 62
     7
370
     0
100
AcDbLine
 10
160.7327261026
 20
124.9413790541
 30
0.0
 11
161.7327261026
 21
124.3640287849
 31
0.0
  0
LINE
  5
16F
330
1F
100
AcDbEntity
  8
0
  6
HIDDEN
 62
     7
370
     0
100
AcDbLine
 10
166.7327261026
 20
124.3640287849
 30
0.0
 11
167.7327261026
 21
124.9413790541
 31
0.0
  0
LINE
  5
170
330
1F
100
AcDbEntity
  8
0
  6
HIDDEN
 62
     7
370
     0
100
AcDbLine
 10
167.7327261026
 20
90.9413790541
 30
0.0
 11
166.7327261026
 21
91.5187293233
 31
0.0
  0
LINE
  5
171
330
1F
100
AcDbEntity
  8
0
  6
HIDDEN
 62
     7
370
     0
100
AcDbLine
 10
161.7327261026
 20
91.5187293233
 30
0.0
 11
160.7327261026
 21
90.9413790541
 31
0.0
  0
LINE
  5
172
330
1F
100
AcDbEntity
  8
0
  6
HIDDEN
 62
     7
370
     0
100
AcDbLine
 10
161.7327261026
 20
124.3640287849
 30
0.0
 11
161.7327261026
 21
115.9413790541
 31
0.0
  0
LINE
  5
173
330
1F
100
AcDbEntity
  8
0
  6
HIDDEN
 62
     7
370
     0
100
AcDbLine
 10
166.7327261026
 20
115.9413790541
 30
0.0
 11
166.7327261026
 21
124.3640287849
 31
0.0
  0
LINE
  5
174
330
1F
100
AcDbEntity
  8
0
  6
HIDDEN
 62
     7
370
     0
100
AcDbLine
 10
161.7327261026
 20
115.9413790541
 30
0.0
 11
164.2327261026
 21
114.4392275066
 31
0.0
  0
LINE
  5
175
330
1F
100
AcDbEntity
  8
0
  6
HIDDEN
 62
     7
370
     0
100
AcDbLine
 10
164.2327261026
 20
114.4392275066
 30
0.0
 11
166.7327261026
 21
115.9413790541
 31
0.0
  0
LINE
  5
176
330
1F
100
AcDbEntity
  8
0
  6
HIDDEN
 62
     7
370
     0
100
AcDbLine
 10
166.7327261026
 20
91.5187293233
 30
0.0
 11
166.7327261026
 21
99.9413790541
 31
0.0
  0
LINE
  5
177
330
1F
100
AcDbEntity
  8
0
  6
HIDDEN
 62
     7
370
     0
100
AcDbLine
 10
161.7327261026
 20
99.9413790541
 30
0.0
 11
161.7327261026
 21
91.5187293233
 31
0.0
  0
LINE
  5
178
330
1F
100
AcDbEntity
  8
0
  6
HIDDEN
 62
     7
370
     0
100
AcDbLine
 10
166.7327261026
 20
99.9413790541
 30
0.0
 11
164.2327261026
 21
101.4435306017
 31
0.0
  0
LINE
  5
179
330
1F
100
AcDbEntity
  8
0
  6
HIDDEN
 62
     7
370
     0
100
AcDbLine
 10
164.2327261026
 20
101.4435306017
 30
0.0
 11
161.7327261026
 21
99.9413790541
 31
0.0
  0
LINE
  5
17A
330
1F
100
AcDbEntity
  8
0
  6
HIDDEN
 62
     7
370
     0
100
AcDbLine
 10
171.2827261026
 20
118.4979839225
 30
0.0
 11
171.2827261026
 21
115.2411758345
 31
0.0
  0
LINE
  5
17B
330
1F
100
AcDbEntity
  8
0
  6
HIDDEN
 62
     7
370
     0
100
AcDbLine
 10
171.2827261026
 20
121.9413790541
 30
0.0
 11
171.2827261026
 21
120.868387708
 31
0.0
  0
LINE
  5
17C
330
1F
100
AcDbEntity
  8
0
  6
HIDDEN
 62
     7
370
     0
100
AcDbLine
 10
174.2827261026
 20
120.8801413397
 30
0.0
 11
174.2827261026
 21
121.9413790541
 31
0.0
  0
LINE
  5
17D
330
1F
100
AcDbEntity
  8
0
  6
HIDDEN
 62
     7
370
     0
100
AcDbLine
 10
174.2827261026
 20
115.2409191098
 30
0.0
 11
174.2827261026
 21
118.3798892072
 31
0.0
  0
LINE
  5
17E
330
1F
100
AcDbEntity
  8
0
  6
HIDDEN
 62
     7
370
     0
100
AcDbLine
 10
171.2827261026
 20
95.0143704003
 30
0.0
 11
171.2827261026
 21
93.9413790541
 31
0.0
  0
LINE
  5
17F
330
1F
100
AcDbEntity
  8
0
  6
HIDDEN
 62
     7
370
     0
100
AcDbLine
 10
171.2827261026
 20
100.6422073417
 30
0.0
 11
171.2827261026
 21
97.3847741857
 31
0.0
  0
LINE
  5
180
330
1F
100
AcDbEntity
  8
0
  6
HIDDEN
 62
     7
370
     0
100
AcDbLine
 10
174.2827261026
 20
97.5028689011
 30
0.0
 11
174.2827261026
 21
100.6413790541
 31
0.0
  0
LINE
  5
181
330
1F
100
AcDbEntity
  8
0
  6
HIDDEN
 62
     7
370
     0
100
AcDbLine
 10
174.2827261026
 20
93.9413790541
 30
0.0
 11
174.2827261026
 21
95.0026167686
 31
0.0
  0
LINE
  5
182
330
1F
100
AcDbEntity
  8
0
  6
HIDDEN
 62
     7
370
     0
100
AcDbLine
 10
171.2827261026
 20
93.9413790541
 30
0.0
 11
172.7827261026
 21
93.0400881256
 31
0.0
  0
LINE
  5
183
330
1F
100
AcDbEntity
  8
0
  6
HIDDEN
 62
     7
370
     0
100
AcDbLine
 10
172.7827261026
 20
93.0400881256
 30
0.0
 11
174.2827261026
 21
93.9413790541
 31
0.0
  0
LINE
  5
184
330
1F
100
AcDbEntity
  8
0
  6
HIDDEN
 62
     7
370
     0
100
AcDbLine
 10
174.2813526174
 20
95.0008860402
 30
0.0
 11
217.2827261026
 21
96.6904146059
 31
0.0
  0
LINE
  5
185
330
1F
100
AcDbEntity
  8
0
  6
HIDDEN
 62
     7
370
     0
100
AcDbLine
 10
217.2827261026
 20
99.1923435024
 30
0.0
 11
174.2827261026
 21
97.5028689011
 31
0.0
  0
LINE
  5
186
330
1F
100
AcDbEntity
  8
0
  6
HIDDEN
 62
     7
370
     0
100
AcDbLine
 10
174.2827261026
 20
118.3798892072
 30
0.0
 11
217.2827261026
 21
116.6904146059
 31
0.0
  0
LINE
  5
187
330
1F
100
AcDbEntity
  8
0
  6
HIDDEN
 62
     7
370
     0
100
AcDbLine
 10
217.2827261026
 20
119.1923435024
 30
0.0
 11
174.2813526174
 21
120.8818720681
 31
0.0
  0
LINE
  5
188
330
1F
100
AcDbEntity
  8
0
  6
HIDDEN
 62
     7
370
     0
100
AcDbLine
 10
171.2691156659
 20
97.3844638245
 30
0.0
 11
170.567693714
 21
96.1059404327
 31
0.0
  0
LINE
  5
189
330
1F
100
AcDbEntity
  8
0
  6
HIDDEN
 62
     7
370
     0
100
AcDbLine
 10
170.567693714
 20
96.1059404327
 30
0.0
 11
171.2842297301
 21
95.0130413812
 31
0.0
  0
LINE
  5
18A
330
1F
100
AcDbEntity
  8
0
  6
HIDDEN
 62
     7
370
     0
100
AcDbLine
 10
171.2842297301
 20
120.869716727
 30
0.0
 11
170.567693714
 21
119.7768176755
 31
0.0
  0
LINE
  5
18B
330
1F
100
AcDbEntity
  8
0
  6
HIDDEN
 62
     7
370
     0
100
AcDbLine
 10
170.567693714
 20
119.7768176755
 30
0.0
 11
171.2691156659
 21
118.4982942837
 31
0.0
  0
LINE
  5
18C
330
1F
100
AcDbEntity
  8
0
  6
HIDDEN
 62
     7
370
     0
100
AcDbLine
 10
126.2827261026
 20
155.4940903522
 30
0.0
 11
126.2827261026
 21
153.6185419362
 31
0.0
  0
LINE
  5
18D
330
1F
100
AcDbEntity
  8
0
  6
HIDDEN
 62
     7
370
     0
100
AcDbLine
 10
136.2827261026
 20
153.617169987
 30
0.0
 11
136.2827261026
 21
155.4926620694
 31
0.0
  0
LINE
  5
18E
330
1F
100
AcDbEntity
  8
0
  6
HIDDEN
 62
     7
370
     0
100
AcDbLine
 10
72.4404396377
 20
138.5990925892
 30
0.0
 11
72.4395097407
 21
138.5981626922
 31
0.0
  0
LINE
  5
18F
330
1F
100
AcDbEntity
  8
0
  6
HIDDEN
 62
     7
370
     0
100
AcDbLine
 10
72.4402490031
 20
77.2838561537
 30
0.0
 11
72.4402929977
 21
77.283812159
 31
0.0
  0
LINE
  5
190
330
1F
100
AcDbEntity
  8
0
  6
HIDDEN
 62
     7
370
     0
100
AcDbLine
 10
217.0914593454
 20
99.4350215007
 30
0.0
 11
211.7575215415
 21
99.2254505136
 31
0.0
  0
LINE
  5
191
330
1F
100
AcDbEntity
  8
0
  6
HIDDEN
 62
     7
370
     0
100
AcDbLine
 10
211.8753009888
 20
96.2277634049
 30
0.0
 11
217.2092387927
 21
96.437334392
 31
0.0
  0
LINE
  5
192
330
1F
100
AcDbEntity
  8
0
  6
HIDDEN
 62
     7
370
     0
100
AcDbLine
 10
217.2092387927
 20
96.437334392
 30
0.0
 11
217.2827261026
 21
96.5770107938
 31
0.0
  0
LINE
  5
193
330
1F
100
AcDbEntity
  8
0
  6
HIDDEN
 62
     7
370
     0
100
AcDbLine
 10
217.2642936192
 20
99.1610957556
 30
0.0
 11
217.0914593454
 21
99.4350215007
 31
0.0
  0
LINE
  5
194
330
1F
100
AcDbEntity
  8
0
  6
HIDDEN
 62
     7
370
     0
100
AcDbLine
 10
211.7575215415
 20
99.2254505136
 30
0.0
 11
211.2775369313
 21
98.7062060876
 31
0.0
  0
LINE
  5
195
330
1F
100
AcDbEntity
  8
0
  6
HIDDEN
 62
     7
370
     0
100
AcDbLine
 10
211.3560565628
 20
96.7077480151
 30
0.0
 11
211.8753009888
 21
96.2277634049
 31
0.0
  0
LINE
  5
196
330
1F
100
AcDbEntity
  8
0
  6
HIDDEN
 62
     7
370
     0
100
AcDbLine
 10
211.8164112651
 20
119.6573084869
 30
0.0
 11
211.2971668391
 21
119.1773238767
 31
0.0
  0
LINE
  5
197
330
1F
100
AcDbEntity
  8
0
  6
HIDDEN
 62
     7
370
     0
100
AcDbLine
 10
211.2186472076
 20
117.1788658042
 30
0.0
 11
211.6986318179
 21
116.6596213782
 31
0.0
  0
LINE
  5
198
330
1F
100
AcDbEntity
  8
0
  6
HIDDEN
 62
     7
370
     0
100
AcDbLine
 10
217.150349069
 20
119.4477374999
 30
0.0
 11
211.8164112651
 21
119.6573084869
 31
0.0
  0
LINE
  5
199
330
1F
100
AcDbEntity
  8
0
  6
HIDDEN
 62
     7
370
     0
100
AcDbLine
 10
211.6986318179
 20
116.6596213782
 30
0.0
 11
217.0325696218
 21
116.4500503911
 31
0.0
  0
LINE
  5
19A
330
1F
100
AcDbEntity
  8
0
  6
HIDDEN
 62
     7
370
     0
100
AcDbLine
 10
217.0325696218
 20
116.4500503911
 30
0.0
 11
217.2054038955
 21
116.7239761362
 31
0.0
  0
LINE
  5
19B
330
1F
100
AcDbEntity
  8
0
  6
HIDDEN
 62
     7
370
     0
100
AcDbLine
 10
217.2827261026
 20
119.1961301442
 30
0.0
 11
217.150349069
 21
119.4477374999
 31
0.0
  0
LINE
  5
19C
330
1F
100
AcDbEntity
  8
0
  6
HIDDEN
 62
     7
370
     0
100
AcDbLine
 10
176.7827261026
 20
102.9413790541
 30
0.0
 11
177.2827261026
 21
103.4413790541
 31
0.0
  0
LINE
  5
19D
330
1F
100
AcDbEntity
  8
0
  6
HIDDEN
 62
     7
370
     0
100
AcDbLine
 10
177.2827261026
 20
112.4413790541
 30
0.0
 11
176.7827261026
 21
112.9413790541
 31
0.0
  0
LINE
  5
19E
330
1F
100
AcDbEntity
  8
0
  6
HIDDEN
 62
     7
370
     0
100
AcDbLine
 10
161.2827261026
 20
102.9413790541
 30
0.0
 11
176.7827261026
 21
102.9413790541
 31
0.0
  0
LINE
  5
19F
330
1F
100
AcDbEntity
  8
0
  6
HIDDEN
 62
     7
370
     0
100
AcDbLine
 10
176.7827261026
 20
112.9413790541
 30
0.0
 11
161.2827261026
 21
112.9413790541
 31
0.0
  0
LINE
  5
1A0
330
1F
100
AcDbEntity
  8
0
  6
HIDDEN
 62
     7
370
     0
100
AcDbLine
 10
161.2827261026
 20
112.9413790541
 30
0.0
 11
160.7827261026
 21
112.4413790541
 31
0.0
  0
LINE
  5
1A1
330
1F
100
AcDbEntity
  8
0
  6
HIDDEN
 62
     7
370
     0
100
AcDbLine
 10
160.7827261026
 20
103.4413790541
 30
0.0
 11
161.2827261026
 21
102.9413790541
 31
0.0
  0
LINE
  5
1A2
330
1F
100
AcDbEntity
  8
0
  6
HIDDEN
 62
     7
370
     0
100
AcDbLine
 10
177.2827261026
 20
103.4413790541
 30
0.0
 11
180.7827261026
 21
103.4413790541
 31
0.0
  0
LINE
  5
1A3
330
1F
100
AcDbEntity
  8
0
  6
HIDDEN
 62
     7
370
     0
100
AcDbLine
 10
180.7827261026
 20
112.4413790541
 30
0.0
 11
177.2827261026
 21
112.4413790541
 31
0.0
  0
LINE
  5
1A4
330
1F
100
AcDbEntity
  8
0
  6
HIDDEN
 62
     7
370
     0
100
AcDbLine
 10
166.7827261026
 20
105.4413790541
 30
0.0
 11
174.7827261026
 21
105.4413790541
 31
0.0
  0
LINE
  5
1A5
330
1F
100
AcDbEntity
  8
0
  6
HIDDEN
 62
     7
370
     0
100
AcDbLine
 10
174.7827261026
 20
110.4413790541
 30
0.0
 11
166.7827261026
 21
110.4413790541
 31
0.0
  0
DIMENSION
  5
1A6
330
1F
100
AcDbEntity
  8
VERMASSUNG
100
AcDbDimension
  2
*D1
 10
67.2757313109
 20
57.9413790541
 30
0.0
 11
67.2757313109
 21
107.9413790541
 31
0.0
 70
   160
  1
HSK A %%c<>
 71
     2
 42
-1.0
  3
SLDDIMSTYLE0
100
AcDbAlignedDimension
 13
122.7827261026
 23
157.9413790541
 33
0.0
 14
122.7827261026
 24
57.9413790541
 34
0.0
 50
90.0
100
AcDbRotatedDimension
  0
DIMENSION
  5
1B3
330
1F
100
AcDbEntity
  8
VERMASSUNG
100
AcDbDimension
  2
*D2
 10
217.2827261026
 20
161.7409534128
 30
0.0
 11
194.0327261026
 21
161.7409534128
 31
0.0
 70
   160
 71
     2
 42
-1.0
  3
SLDDIMSTYLE1
100
AcDbAlignedDimension
 13
170.7827261026
 23
114.8413790541
 33
0.0
 14
217.2827261026
 24
119.5925980708
 34
0.0
 50
0.0
100
AcDbRotatedDimension
  0
DIMENSION
  5
1BE
330
1F
100
AcDbEntity
  8
VERMASSUNG
100
AcDbDimension
  2
*D3
 10
225.1504875406
 20
114.9413790541
 30
0.0
 11
225.1504875406
 21
107.9413790541
 31
0.0
 70
   160
  1
%%c<> 
 71
     2
 42
-1.0
  3
SLDDIMSTYLE2
100
AcDbAlignedDimension
 13
213.7827261026
 23
100.9413790541
 33
0.0
 14
213.7827261026
 24
114.9413790541
 34
0.0
 50
90.0
100
AcDbRotatedDimension
  0
DIMENSION
  5
1CB
330
1F
100
AcDbEntity
  8
VERMASSUNG
100
AcDbDimension
  2
*D4
 10
231.1504875406
 20
121.4413790541
 30
0.0
 11
231.1504875406
 21
107.9413790541
 31
0.0
 70
   160
  1
%%c<>
 71
     2
 42
-1.0
  3
SLDDIMSTYLE3
100
AcDbAlignedDimension
 13
217.2827261026
 23
94.4413790541
 33
0.0
 14
217.2827261026
 24
121.4413790541
 34
0.0
 50
90.0
100
AcDbRotatedDimension
  0
DIMENSION
  5
1D7
330
1F
100
AcDbEntity
  8
VERMASSUNG
100
AcDbDimension
  2
*D5
 10
217.2827261026
 20
173.7409534128
 30
0.0
 11
169.7827261026
 21
173.7409534128
 31
0.0
 70
   160
 71
     2
 42
-1.0
  3
SLDDIMSTYLE0
100
AcDbAlignedDimension
 13
122.2827261026
 23
157.4413790541
 33
0.0
 14
217.2827261026
 24
119.5925980708
 34
0.0
100
AcDbRotatedDimension
  0
DIMENSION
  5
1E1
330
1F
100
AcDbEntity
  8
VERMASSUNG
100
AcDbDimension
  2
*D6
 10
217.2827261026
 20
167.7409534128
 30
0.0
 11
184.2577261026
 21
167.7409534128
 31
0.0
 70
   160
 71
     2
 42
-1.0
  3
SLDDIMSTYLE0
100
AcDbAlignedDimension
 13
151.2327261026
 23
155.910118875
 33
0.0
 14
217.2827261026
 24
119.5925980708
 34
0.0
100
AcDbRotatedDimension
  0
DIMENSION
  5
1EB
330
1F
100
AcDbEntity
  8
VERMASSUNG
100
AcDbDimension
  2
*D7
 10
217.2827261026
 20
179.7409534128
 30
0.0
 11
144.8327261026
 21
179.7409534128
 31
0.0
 70
   160
 71
     2
 42
-1.0
  3
SLDDIMSTYLE0
100
AcDbAlignedDimension
 13
72.3827261026
 23
138.4440487967
 33
0.0
 14
217.2827261026
 24
119.5925980708
 34
0.0
100
AcDbRotatedDimension
  0
DIMENSION
  5
1F5
330
1F
100
AcDbEntity
  8
VERMASSUNG
100
AcDbDimension
  2
*D8
 10
237.1504875406
 20
90.9413790541
 30
0.0
 11
237.1504875406
 21
107.9413790541
 31
0.0
 70
   160
  1
%%c<>
 71
     2
 42
-1.0
  3
SLDDIMSTYLE0
100
AcDbAlignedDimension
 13
172.811009526
 23
124.9413790541
 33
0.0
 14
172.811009526
 24
90.9413790541
 34
0.0
 50
90.0
100
AcDbRotatedDimension
  0
LINE
  5
200
330
1F
100
AcDbEntity
  8
VERMASSUNG
  6
CENTERX2
370
     0
100
AcDbLine
 10
70.4454049328
 20
107.9413790541
 30
0.0
 11
219.2827261026
 21
107.9413790541
 31
0.0
  0
OLE2FRAME
  5
201
330
1F
100
AcDbEntity
  8
0
100
AcDbOle2Frame
 70
     2
  3
Bitmap Image
 10
13.8511154363
 20
38.264191557
 30
0.0
 11
51.6290888628
 21
31.9806341108
 31
0.0
 71
     2
 72
     0
 73
     1
 90
    12928
310
80552BED0767C5B32B40DDAF6807D121434000000000000000006FFBDDFB85D0
310
4940DDAF6807D121434000000000000000006FFBDDFB85D04940416F4BD60AFB
310
3F4000000000000000002BED0767C5B32B40416F4BD60AFB3F40000000000000
310
0000000000000100000000010000010000000100000000000100000000320000
310
D0CF11E0A1B11AE1000000000000000000000000000000003E000300FEFF0900
310
0600000000000000000000000100000001000000000000000010000002000000
310
01000000FEFFFFFF0000000000000000FFFFFFFFFFFFFFFFFFFFFFFFFFFFFFFF
310
FFFFFFFFFFFFFFFFFFFFFFFFFFFFFFFFFFFFFFFFFFFFFFFFFFFFFFFFFFFFFFFF
310
FFFFFFFFFFFFFFFFFFFFFFFFFFFFFFFFFFFFFFFFFFFFFFFFFFFFFFFFFFFFFFFF
310
FFFFFFFFFFFFFFFFFFFFFFFFFFFFFFFFFFFFFFFFFFFFFFFFFFFFFFFFFFFFFFFF
310
FFFFFFFFFFFFFFFFFFFFFFFFFFFFFFFFFFFFFFFFFFFFFFFFFFFFFFFFFFFFFFFF
310
FFFFFFFFFFFFFFFFFFFFFFFFFFFFFFFFFFFFFFFFFFFFFFFFFFFFFFFFFFFFFFFF
310
FFFFFFFFFFFFFFFFFFFFFFFFFFFFFFFFFFFFFFFFFFFFFFFFFFFFFFFFFFFFFFFF
310
FFFFFFFFFFFFFFFFFFFFFFFFFFFFFFFFFFFFFFFFFFFFFFFFFFFFFFFFFFFFFFFF
310
FFFFFFFFFFFFFFFFFFFFFFFFFFFFFFFFFFFFFFFFFFFFFFFFFFFFFFFFFFFFFFFF
310
FFFFFFFFFFFFFFFFFFFFFFFFFFFFFFFFFFFFFFFFFFFFFFFFFFFFFFFFFFFFFFFF
310
FFFFFFFFFFFFFFFFFFFFFFFFFFFFFFFFFFFFFFFFFFFFFFFFFFFFFFFFFFFFFFFF
310
FFFFFFFFFFFFFFFFFFFFFFFFFFFFFFFFFFFFFFFFFFFFFFFFFFFFFFFFFFFFFFFF
310
FFFFFFFFFFFFFFFFFFFFFFFFFFFFFFFFFFFFFFFFFFFFFFFFFFFFFFFFFFFFFFFF
310
FFFFFFFFFFFFFFFFFFFFFFFFFFFFFFFFFFFFFFFFFFFFFFFFFFFFFFFFFFFFFFFF
310
FDFFFFFFFEFFFFFFFEFFFFFFFEFFFFFF05000000060000000700000008000000
310
090000000A0000000B0000000C0000000D0000000E0000000F00000010000000
310
11000000120000001300000014000000150000001600000017000000FEFFFFFF
310
FFFFFFFFFFFFFFFFFFFFFFFFFFFFFFFFFFFFFFFFFFFFFFFFFFFFFFFFFFFFFFFF
310
FFFFFFFFFFFFFFFFFFFFFFFFFFFFFFFFFFFFFFFFFFFFFFFFFFFFFFFFFFFFFFFF
310
FFFFFFFFFFFFFFFFFFFFFFFFFFFFFFFFFFFFFFFFFFFFFFFFFFFFFFFFFFFFFFFF
310
FFFFFFFFFFFFFFFFFFFFFFFFFFFFFFFFFFFFFFFFFFFFFFFFFFFFFFFFFFFFFFFF
310
FFFFFFFFFFFFFFFFFFFFFFFFFFFFFFFFFFFFFFFFFFFFFFFFFFFFFFFFFFFFFFFF
310
FFFFFFFFFFFFFFFFFFFFFFFFFFFFFFFFFFFFFFFFFFFFFFFFFFFFFFFFFFFFFFFF
310
FFFFFFFFFFFFFFFFFFFFFFFFFFFFFFFFFFFFFFFFFFFFFFFFFFFFFFFFFFFFFFFF
310
FFFFFFFFFFFFFFFFFFFFFFFFFFFFFFFFFFFFFFFFFFFFFFFFFFFFFFFFFFFFFFFF
310
FFFFFFFFFFFFFFFFFFFFFFFFFFFFFFFFFFFFFFFFFFFFFFFFFFFFFFFFFFFFFFFF
310
FFFFFFFFFFFFFFFFFFFFFFFFFFFFFFFFFFFFFFFFFFFFFFFFFFFFFFFFFFFFFFFF
310
FFFFFFFFFFFFFFFFFFFFFFFFFFFFFFFFFFFFFFFFFFFFFFFFFFFFFFFFFFFFFFFF
310
FFFFFFFFFFFFFFFFFFFFFFFFFFFFFFFFFFFFFFFFFFFFFFFFFFFFFFFFFFFFFFFF
310
FFFFFFFFFFFFFFFFFFFFFFFFFFFFFFFFFFFFFFFFFFFFFFFFFFFFFFFFFFFFFFFF
310
52006F006F007400200045006E00740072007900000000000000000000000000
310
0000000000000000000000000000000000000000000000000000000000000000
310
16000500FFFFFFFFFFFFFFFF020000000A00030000000000C000000000000046
310
000000000000000000000000B0E9F5AC8D08CC0103000000C000000000000000
310
01004F006C006500000000000000000000000000000000000000000000000000
310
0000000000000000000000000000000000000000000000000000000000000000
310
0A000200FFFFFFFFFFFFFFFFFFFFFFFF00000000000000000000000000000000
310
0000000000000000000000000000000000000000000000001400000000000000
310
010043006F006D0070004F0062006A0000000000000000000000000000000000
310
0000000000000000000000000000000000000000000000000000000000000000
310
120002010100000003000000FFFFFFFF00000000000000000000000000000000
310
0000000000000000000000000000000000000000010000004D00000000000000
310
01004F006C006500310030004E00610074006900760065000000000000000000
310
0000000000000000000000000000000000000000000000000000000000000000
310
1A000200FFFFFFFFFFFFFFFFFFFFFFFF00000000000000000000000000000000
310
0000000000000000000000000000000000000000040000002426000000000000
310
FEFFFFFF02000000FEFFFFFFFFFFFFFFFFFFFFFFFFFFFFFFFFFFFFFFFFFFFFFF
310
FFFFFFFFFFFFFFFFFFFFFFFFFFFFFFFFFFFFFFFFFFFFFFFFFFFFFFFFFFFFFFFF
310
FFFFFFFFFFFFFFFFFFFFFFFFFFFFFFFFFFFFFFFFFFFFFFFFFFFFFFFFFFFFFFFF
310
FFFFFFFFFFFFFFFFFFFFFFFFFFFFFFFFFFFFFFFFFFFFFFFFFFFFFFFFFFFFFFFF
310
FFFFFFFFFFFFFFFFFFFFFFFFFFFFFFFFFFFFFFFFFFFFFFFFFFFFFFFFFFFFFFFF
310
FFFFFFFFFFFFFFFFFFFFFFFFFFFFFFFFFFFFFFFFFFFFFFFFFFFFFFFFFFFFFFFF
310
FFFFFFFFFFFFFFFFFFFFFFFFFFFFFFFFFFFFFFFFFFFFFFFFFFFFFFFFFFFFFFFF
310
FFFFFFFFFFFFFFFFFFFFFFFFFFFFFFFFFFFFFFFFFFFFFFFFFFFFFFFFFFFFFFFF
310
FFFFFFFFFFFFFFFFFFFFFFFFFFFFFFFFFFFFFFFFFFFFFFFFFFFFFFFFFFFFFFFF
310
FFFFFFFFFFFFFFFFFFFFFFFFFFFFFFFFFFFFFFFFFFFFFFFFFFFFFFFFFFFFFFFF
310
FFFFFFFFFFFFFFFFFFFFFFFFFFFFFFFFFFFFFFFFFFFFFFFFFFFFFFFFFFFFFFFF
310
FFFFFFFFFFFFFFFFFFFFFFFFFFFFFFFFFFFFFFFFFFFFFFFFFFFFFFFFFFFFFFFF
310
FFFFFFFFFFFFFFFFFFFFFFFFFFFFFFFFFFFFFFFFFFFFFFFFFFFFFFFFFFFFFFFF
310
FFFFFFFFFFFFFFFFFFFFFFFFFFFFFFFFFFFFFFFFFFFFFFFFFFFFFFFFFFFFFFFF
310
FFFFFFFFFFFFFFFFFFFFFFFFFFFFFFFFFFFFFFFFFFFFFFFFFFFFFFFFFFFFFFFF
310
FFFFFFFFFFFFFFFFFFFFFFFFFFFFFFFFFFFFFFFFFFFFFFFFFFFFFFFFFFFFFFFF
310
0100000200000000000000000000000000000000000000000000000000000000
310
0000000000000000000000000000000000000000000000000000000000000000
310
0100FEFF030A0000FFFFFFFF0A00030000000000C00000000000004607000000
310
5042727573680007000000504272757368000700000050427275736800F439B2
310
7100000000000000000000000000000000000000000000000000000000000000
310
0000000000000000000000000000000000000000000000000000000000000000
310
0000000000000000000000000000000000000000000000000000000000000000
310
0000000000000000000000000000000000000000000000000000000000000000
310
0000000000000000000000000000000000000000000000000000000000000000
310
0000000000000000000000000000000000000000000000000000000000000000
310
0000000000000000000000000000000000000000000000000000000000000000
310
0000000000000000000000000000000000000000000000000000000000000000
310
0000000000000000000000000000000000000000000000000000000000000000
310
0000000000000000000000000000000000000000000000000000000000000000
310
0000000000000000000000000000000000000000000000000000000000000000
310
0000000000000000000000000000000000000000000000000000000000000000
310
20260000424D0E260000000000003E00000028000000B40200006E0000000100
310
01000000000000000000130B0000130B00000200000002000000000000FFFFFF
310
FFFFFFFFFFFFFFFFFFFFFFFFFFFFFFFFFFFFFFFFFFFFFFFFFFFFFFFFFFFFFFFF
310
FFFFFFFFFFFFFFFFFFFFFFFFFFFFFFFFFFFFFFFFFFFFFFFFFFFFFFFFFFFFFFFF
310
FFFFFFFFFFFFFFFFFFFFFFFFFFFFFFFFFFFFFFFFFFFFFFFFF000FFFFFFFFFFFF
310
FFFFFFFFFFFFFFFFFFFFFFFFFFFFFFFFFFFFFFFFFFFFFFFFFFFFFFFFFFFFFFFF
310
FFFFFFFFFFFFFFFFFFFFFFFFFFFFFFFFFFFFFFFFFFFFFFFFFFFFFFFFFFFFFFFF
310
FFFFFFFFFFFFFFFFFFFFFFFFFFFFFFFFF000FFFFFFFFFFFFFFFFFFFFFFFFFFFF
310
FFFFFFFFFFFFFFFFFFFFFFFFFFFFFFFFFFFFFFFFFFFFFFFFFFFFFFFFFFFFFFFF
310
FFFFFFFFFFFFFFFFFFFFFFFFFFFFFFFFFFFFFFFFFFFFFFFFFFFFFFFFFFFFFFFF
310
FFFFFFFFFFFFFFFFF000FFFFFFFFFFFFFFFFFFFFFFFFFFFFFFFFFFFFFFFFFFFF
310
FFFFFFFFFFFFFFFFFFFFFFFFFFFFFFFFFFFFFFFFFFFFFFFFFFFFFFFFFFFFFFFF
310
FFFFFFFFFFFFFFFFFFFFFFFFFFFFFFFFFFFFFFFFFFFFFFFFFFFFFFFFFFFFFFFF
310
F000FFFFFFFFFFFFFFFFFFFFFFFFFFFFFFFFFFFFFFFFFFFFFFFFFFFFFFFFFFFF
310
FFFFFFFFFFFFFFFFFFFFFFFFFFFFFFFFFFFFFFFFFFFFFFFFFFFFFFFFFFFFFFFF
310
FFFFFFFFFFFFFFFFFFFFFFFFFFFFFFFFFFFFFFFFFFFFFFFFF000FFFFFFFFFFFF
310
FFFFFFFFFFFFFFFFFFFFFFFFFFFFFFFFFFFFFFFFFFFFFFFFFFFFFFFFFFFFFFFF
310
FFFFFFFFFFFFFFFFFFFFFFFFFFFFFFFFFFFFFFFFFFFFFFFFFFFFFFFFFFFFFFFF
310
FFFFFFFFFFFFFFFFFFFFFFFFFFFFFFFFF000FFFFFFFFFFFFFFFFFFFFFFFFFFFF
310
FFFFFFFFFFFFFFFFFFFFFFFFFFFFFFFFFFFFFFFFFFFFFFFFFFFFFFFFFFFFFFFF
310
FFFFFFFFFFFFFFFFFFFFFFFFFFFFFFFFFFFFFFFFFFFFFFFFFFFFFFFFFFFFFFFF
310
FFFFFFFFFFFFFFFFF000FFFFFFFFFFFFFFFFFFFFFFFFFFFFFFFFFFFFFFFFFFFF
310
FFFFFFFFFFFFFFFFFFFFFFFFFFFFFFFFFFFFFFFFFFFFFFFFFFFFFFFFFFFFFFFF
310
FFFFFFFFFFFFFFFFFFFFFFFFFFFFFFFFFFFFFFFFFFFFFFFFFFFFFFFFFFFFFFFF
310
F000FFFFFFFFFFFFFFFFFFFFFFFFFFFFFFFFFFFFFFFFFFFFFFFFFFFFFFFFFFFF
310
FFFFFFFFFFFFFFFFFFFFFFFFFFFFFFFFFFFFFFFFFFFFFFFFFFFFFFFFFFFFFFFF
310
FFFFFFFFFFFFFFFFFFFFFFFFFFFFFFFFFFFFFFFFFFFFFFFFF000FFFFFFFFFFFF
310
FFFFFFFFFFFFFFFFFFFFFFFFFFFFFFFFFFFFFFFFFFFFFFFFFFFFFFFFFFFFFFFF
310
FFFFFFFFFFFFFFFFFFFFFFFFFFFFFFFFFFFFFFFFFFFFFFFFFFFFFFFFFFFFFFFF
310
FFFFFFFFFFFFFFFFFFFFFFFFFFFFFFFFF000FFFFFFFFFFFFFFFFFFFFFFFFFFFF
310
FFFFFFFFFFFFFFFFFFFFFFFFFFFFFFFFFFFFFFFFFFFFFFFFFFFFFFFFFFFFFFFF
310
FFFFFFFFFFFFFFFFFFFFFFFFFFFFFFFFFFFFFFFFFFFFFFFFFFFFFFFFFFFFFFFF
310
FFFFFFFFFFFFFFFFF000FFFFFFFFFFFFFFFFFFFFFFFFFFFFFFFFFFFFFFFFFFFF
310
FFFFFFFFFFFFFFFFFFFFFFFFFFFFFFFFFFFFFFFFFFFFFFFFFFFFFFFFFFFFFFFF
310
FFFFFFFFFFFFFFFFFFFFFFFFFFFFFFFFFFFFFFFFFFFFFFFFFFFFFFFFFFFFFFFF
310
F000FFFFFFFFFFFFFFFFFFFFFFFFFFFFFFFFFFFFFFFFFFFFFFFFFFFFFFFFFFFF
310
FFFFFFFFFFFFFFFFFFFFFFFFFFFFFFFFFFFFFFFFFFFFFFFFFFFFFFFFFFFFFFFF
310
FFFFFFFFFFFFFFFFFFFFFFFFFFFFFFFFFFFFFFFFFFFFFFFFF000FFFFFFFFFFFF
310
FFFFFFFFFFFFFFFFFFFFFFFFFFFFFFFFFFFFFFFFFFFFFFFFFFFFFFFFFFFFFFFF
310
FFFFFFFFFFFFFFFFFFFFFFFFFFFFFFFFFFFFFFFFFFFFFFFFFFFFFFFFFFFFFFFF
310
FFFFFFFFFFFFFFFFFFFFFFFFFFFFFFFFF000FFFFFFFFFFFFFFFFFFFFFFFFFFFF
310
FFFFFFFFFFFFFFFFFFFFFFFFFFFFFFFFFFFFFFFFFFFFFFFFFFFFFFFFFFFFFFFF
310
FFFFFFFFFFFFFFFFFFFFFFFFFFFFFFFFFFFFFFFFFFFFFFFFFFFFFFFFFFFFFFFF
310
FFFFFFFFFFFFFFFFF000FFFFFFFFFFFFFFFFFFFFFFFFFFFFFFFFFFFFFFFFFFFF
310
FFFFFFFFFFFFFFFFFFFFFFFFFFFFFFFFFFFFFFFFFFFFFFFFFFFFFFFFFFFFFFFF
310
FFFFFFFFFFFFFFFFFFFFFFFFFFFFFFFFFFFFFFFFFFFFFFFFFFFFFFFFFFFFFFFF
310
F000FFFFFFFFFFFFFFFFFFFFFFFFFFFFFFFFFFFFFFFFFFFFFFFFFFFFFFFFFFFF
310
FFFFFFFFFFFFFFFFFFFFFFFFFFFFFFFFFFFFFFFFFFFFFFFFFFFFFFFFFFFFFFFF
310
FFFFFFFFFFFFFFFFFFFFFFFFFFFFFFFFFFFFFFFFFFFFFFFFF000FFFFFFFFFFFF
310
FFFFFFFFFFFFFFFFFFFFFFFFFFFFFFFFFFFFFFFFFFFFFFFFFFFFFFFFFFFFFFFF
310
FFFFFFFFFFFFFFFFFFFFFFFFFFFFFFFFFFFFFFFFFFFFFFFFFFFFFFFFFFFFFFFF
310
FFFFFFFFFFFFFFFFFFFFFFFFFFFFFFFFF000FFFFFFFFFFFFFFFFFFFFFFFFFFFF
310
FFFFFFFFFFFFFFFFFFFFFFFFFFFFFFFFFFFFFFFFFFFFFFFFFFFFFFFFFFFFFFFF
310
FFFFFFFFFFFFFFFFFFFFFFFFFFFFFFFFFFFFFFFFFFFFFFFFFFFFFFFFFFFFFFFF
310
FFFFFFFFFFFFFFFFF000FFFFF80003FFFFFFFFFFFFFFFFFFFFFFFFFFFFFFFFFF
310
FFFFF00007FFFFFFFFFF00007FFFFFF800000000000000007FFFFFFFFFFFFFFF
310
FFFFFFFC001FFFFFFFFFFFFFFC001FFFFFFFFFFFFFFFFFFFFFFFFFFE0007FFFF
310
F000FFFF8000007FFFFFFFF8000FFFFFC0007FFFFF80007FFFFF0000007FFFFF
310
FFF8000007FFFFF800000000000000007FFFFFF0001FFFFFFFFFFFC00001FFFF
310
FFFFFFFFC00001FFFFFFFF000000000003FFFFE000007FFFF000FFFE0000000F
310
FFFFFFF0000FFFFF80007FFFFF80007FFFFC0000001FFFFFFFC0000001FFFFF8
310
00000000000000007FFFFFF0001FFFFFFFFFFE0000003FFFFFFFFFFE0000003F
310
FFFFFF000000000003FFFF0000000FFFF000FFF800000003FFFFFFF00007FFFF
310
80007FFFFF80007FFFF000000007FFFFFF000000003FFFF80000000000000000
310
7FFFFFF0001FFFFFFFFFF80000000FFFFFFFFFF80000000FFFFFFF0000000000
310
03FFFC00000003FFF000FFE000000000FFFFFFF00007FFFF80003FFFFF80007F
310
FFC000000001FFFFFC000000001FFFF800000000000000007FFFFFF0001FFFFF
310
FFFFE000000003FFFFFFFFE000000003FFFFFF000000000003FFF000000000FF
310
F000FF80000000007FFFFFF00007FFFF80003FFFFF80007FFF8000000000FFFF
310
F80000000007FFF800000000000000007FFFFFF0001FFFFFFFFFC000000001FF
310
FFFFFFC000000001FFFFFF000000000003FFC0000000007FF000FF0000000000
310
3FFFFFE00007FFFF00003FFFFF80007FFE00000000003FFFF00000000003FFF8
310
00000000000000007FFFFFF0001FFFFFFFFF8000000000FFFFFFFF8000000000
310
FFFFFF000000000003FF80000000003FF000FE00000000001FFFFFE00003FFFF
310
00003FFFFF80007FFC00000000001FFFE00000000001FFF8000001FFFE000000
310
7FFFFFF0001FFFFFFFFE00000000003FFFFFFE00000000003FFFFF0000000000
310
03FF00000000001FF000FC00000000000FFFFFE00003FFFF00001FFFFF80007F
310
F800000000001FFFC00000000000FFF8000001FFFE0000007FFFFFF0001FFFFF
310
FFFC00000000001FFFFFFC00000000001FFFFF000000000003FE00000000000F
310
F000F8000000000007FFFFE00003FFFF00001FFFFF80007FF800000000000FFF
310
800000000000FFF8000001FFFE0000007FFFFFF0001FFFFFFFF800000000000F
310
FFFFF800000000000FFFFF000000000003FC000000000007F000F80000000000
310
03FFFFC00003FFFE00001FFFFF80007FF0000000000007FF0000000000007FF8
310
000001FFFE0000007FFFFFF0001FFFFFFFF0000000000007FFFFF00000000000
310
07FFFF000000000003F8000000000003F000F0000000000003FFFFC00001FFFE
310
00001FFFFF80007FE0000000000007FE0000000000003FF8000001FFFE000000
310
7FFFFFF0001FFFFFFFF0000000000007FFFFF0000000000007FFFF0000000000
310
03F800001F800003F000E00001FFF00001FFFFC00001FFFE00000FFFFF80007F
310
E00001FFE00003FE00001FFF00003FF8000001FFFE0000007FFFFFF0001FFFFF
310
FFE000003E000003FFFFE000003E000003FFFF000000000003F00001FFF80001
310
F000E00007FFFC0001FFFFC00001FFFE00000FFFFF80007FC0000FFFFC0003FC
310
0000FFFFC0001FF8000001FFFE0000007FFFFFF0001FFFFFFFC00003FFE00001
310
FFFFC00003FFE00001FFFF0001FFFFFFFFF00007FFFE0001F000E0000FFFFF00
310
00FFFF800001FFFC00000FFFFF80007FC0001FFFFE0001FC0001FFFFE0001FF8
310
000001FFFE0000007FFFFFF0001FFFFFFF80000FFFF80000FFFF80000FFFF800
310
00FFFF0003FFFFFFFFE0000FFFFF8000F000C0003FFFFF8000FFFF800000FFFC
310
000007FFFF80007F80003FFFFF0001FC0003FFFFF0001FF8000001FFFE000000
310
7FFFFFF0001FFFFFFF80003FFFFE0000FFFF80003FFFFE0000FFFF0003FFFFFF
310
FFE0003FFFFF8000F000C0003FFFFF8000FFFF800000FFFC000007FFFF80007F
310
80007FFFFF8001F80007FFFFF8000FF8000001FFFE0000007FFFFFF0001FFFFF
310
FF00007FFFFF00007FFF00007FFFFF00007FFF0003FFFFFFFFE0003FFFFFC000
310
F000C0007FFFFFC000FFFF000000FFFC000007FFFF80007F8000FFFFFF8000F8
310
000FFFFFF8000FF8000001FFFE0000007FFFFFF0001FFFFFFF0000FFFFFF8000
310
7FFF0000FFFFFF80007FFF0003FFFFFFFFC0007FFFFFC00070008000FFFFFFC0
310
00FFFF000000FFF8000007FFFF80007F8000FFFFFF8000F8000FFFFFF8000FF8
310
000001FFFE0000007FFFFFF0001FFFFFFE0001FFFFFFC0003FFE0001FFFFFFC0
310
003FFF0003FFFFFFFFC0007FFFFFE00070008000FFFFFFC0007FFF0000007FF8
310
000003FFFF80007F0001FFFFFF8000F8000FFFFFF8000FF8000001FFFE000000
310
7FFFFFF0001FFFFFFE0001FFFFFFC0003FFE0001FFFFFFC0003FFF0003FFFFFF
310
FFC000FFFFFFE00070008000FFFFFFC0007FFF0000007FF8000003FFFF80007F
310
0001FFFFFF8000F8001FFFFFF8000FF8000001FFFE0000007FFFFFF0001FFFFF
310
FE0003FFFFFFE0003FFE0003FFFFFFE0003FFF0003FFFFFFFFC000FFFFFFE000
310
70008000FFFFFFC0007FFE0000007FF8000003FFFF80007F0001FFFFFF8000F0
310
001FFFFFF8000FF8000001FFFE0000007FFFFFF0001FFFFFFC0003FFFFFFE000
310
1FFC0003FFFFFFE0001FFF0003FFFFFFFFC000FFFFFFC00070008000FFFFFF80
310
007FFE0000007FF0000003FFFF80007F0001FFFFFF0000F0001FFFFFF8000FF8
310
000001FFFE0000007FFFFFF0001FFFFFFC0007FFFFFFF0001FFC0007FFFFFFF0
310
001FFF0003FFFFFFFFC000FFFFFFC00070008001FFFFFF0000FFFE0000003FF0
310
000001FFFF80007F0001FFFFFF0000F8001FFFFFF0000FF8000001FFFE000000
310
7FFFFFF0001FFFFFFC0007FFFFFFF0001FFC0007FFFFFFF0001FFF0003FFFFFF
310
FFC001FFFFFF80007000FFFFFFFFFE0000FFFE0008003FF0008001FFFF80007F
310
FFFFFFFFFC0000FFFFFFFFFFE0000FF8000001FFFE0000007FFFFFF0001FFFFF
310
F8000FFFFFFFF8000FF8000FFFFFFFF8000FFF0003FFFFFFFFFFFFFFFFFF0000
310
7000FFFFFFFFFC0000FFFC0008003FF0008001FFFF80007FFFFFFFFFF80001FF
310
FFFFFFFF80000FF8000001FFFE0000007FFFFFF0001FFFFFF8000FFFFFFFF800
310
0FF8000FFFFFFFF8000FFF0003FFFFFFFFFFFFFFFFFE0000F000FFFFFFFFE000
310
00FFFC000C003FE000C001FFFF80007FFFFFFFFFC00001FFFFFFFFFE00001FF8
310
000001FFFE0000007FFFFFF0001FFFFFF8000FFFFFFFF8000FF8000FFFFFFFF8
310
000FFF0003FFFFFFFFFFFFFFFFF00000F000FFFFFFFE000001FFFC000C001FE0
310
00C000FFFF80007FFFFFFFFE000001FFFFFFFFE000001FF80FFFFFFFFFFFFFC0
310
7FFFFFF0001FFFFFF8000FFFFFFFF8000FF8000FFFFFFFF8000FFF0003FFFFFF
310
FFFFFFFFFF800000F000FFFFFFC0000001FFFC001C001FE001C000FFFF80007F
310
FFFFFF80000003FFFFFFF80000001FF80FFFFFFFFFFFFFC07FFFFFF0001FFFFF
310
F8001FFFFFFFFC000FF8001FFFFFFFFC000FFF0003FFFFFFFFFFFFFFF0000001
310
F000FFFFF800000001FFF8001C001FE001C000FFFF80007FFFFFF800000003FF
310
FFFF800000003FF80FFFFFFFFFFFFFC07FFFFFF0001FFFFFF8001FFFFFFFFC00
310
0FF8001FFFFFFFFC000FFF0003FFFFFFFFFFFFFE00000001F000FFFFC0000000
310
03FFF8001E001FC001E000FFFF80007FFFFF8000000007FFFFFC000000003FF8
310
0FFFFFFFFFFFFFC07FFFFFF0001FFFFFF8001FFFFFFFFC000FF8001FFFFFFFFC
310
000FFF0003FFFFFFFFFFFFE000000003F000FFFE0000000007FFF8001E000FC0
310
01E0007FFF80007FFFFE0000000007FFFFE0000000007FF80FFFFFFFFFFFFFC0
310
7FFFFFF0001FFFFFF0001FFFFFFFFC0007F0001FFFFFFFFC0007FF0003FFFFFF
310
FFFFFF0000000003F000FFF80000000007FFF8001E000FC003E0007FFF80007F
310
FFF0000000000FFFFF8000000000FFF80FFFFFFFFFFFFFC07FFFFFF0001FFFFF
310
F0001FFFFFFFFC0007F0001FFFFFFFFC0007FF0003FFFFFFFFFFFC0000000007
310
F000FFE0000000000FFFF0003E000FC003E0007FFF80007FFFC0000000001FFF
310
FE0000000001FFF80FFFFFFFFFFFFFC07FFFFFF0001FFFFFF0001FFFFFFFFC00
310
07F0001FFFFFFFFC0007FF0003FFFFFFFFFFF0000000000FF000FFC000000000
310
1FFFF0003F000F8003F0003FFF80007FFF80000000003FFFF80000000003FFF8
310
0FFFFFFFFFFFFFC07FFFFFF0001FFFFFF0001FFFFFFFFC0007F0001FFFFFFFFC
310
0007FF0003FFFFFFFFFFE0000000001FF000FF00000000007FFFF0003F000780
310
03F0003FFF80007FFF00000000007FFFF00000000007FFF80FFFFFFFFFFFFFC0
310
7FFFFFF0001FFFFFF0001FFFFFFFFC0007F0001FFFFFFFFC0007FF0003FFFFFF
310
FFFF80000000007FF000FE0000000000FFFFE0003F00078007F0003FFF80007F
310
FE0000000001FFFFE0000000001FFFF80FFFFFFFFFFFFFC07FFFFFF0001FFFFF
310
F0001FFFFFFFFC0007F0001FFFFFFFFC0007FF0003FFFFFFFFFF0000000000FF
310
F000FC0000000003FFFFE0007F00078007F0003FFF80007FFC0000000007FFFF
310
C0000000007FFFF80FFFFFFFFFFFFFC07FFFFFF0001FFFFFF8001FFFFFFFFC00
310
0FF8001FFFFFFFFC000FFF0003FFFFFFFFFE0000000003FFF000FC000000000F
310
FFFFE0007F80070007F8001FFF80007FF8000000001FFFFF8000000001FFFFF8
310
0FFFFFFFFFFFFFC07FFFFFF0001FFFFFF8001FFFFFFFFC000FF8001FFFFFFFFC
310
000FFF0003FFFFFFFFFC000000000FFFF000F8000000007FFFFFE0007F800700
310
07F8001FFF80007FF000000000FFFFFF800000000FFFFFF80FFFFFFFFFFFFFC0
310
7FFFFFF0001FFFFFF8000FFFFFFFF8000FF8000FFFFFFFF8000FFF0003FFFFFF
310
FFFC000000007FFFF000F800000007FFFFFFC0007F8003000FF8001FFF80007F
310
F000000007FFFFFF000000007FFFFFF80FFFFFFFFFFFFFC07FFFFFF0001FFFFF
310
F8000FFFFFFFF8000FF8000FFFFFFFF8000FFF0003FFFFFFFFF80000000FFFFF
310
F000F0000000FFFFFFFFC000FF8003000FF8001FFF80007FE0000000FFFFFFFF
310
0000000FFFFFFFF8000001FFFE0000007FFFFFF0001FFFFFF8000FFFFFFFF800
310
0FF8000FFFFFFFF8000FFF0003FFFFFFFFF8000000FFFFFFF000F000000FFFFF
310
FFFFC000FFC002000FF8000FFF80007FE000001FFFFFFFFE000001FFFFFFFFF8
310
000001FFFE0000007FFFFFF0001FFFFFF8000FFFFFFFF8000FF8000FFFFFFFF8
310
000FFF0003FFFFFFFFF000001FFFFFFFF000E00000FFFFFFFFFFC000FFC00200
310
0FFC000FFF80007FE00001FFFFFFFFFE00001FFFFFFFFFF8000001FFFE000000
310
7FFFFFF0001FFFFFFC000FFFFFFFF8001FFC000FFFFFFFF8001FFF0003FFFFFF
310
FFF00001FFFFFFFFF000E00007FFFFFFFFFF8000FFC000001FFC000FFF80007F
310
C0000FFFFFFFFFFE0000FFFFFFFFFFF8000001FFFE0000007FFFFFF0001FFFFF
310
FC0007FFFFFFF0001FFC0007FFFFFFF0001FFF0003FFFFFFFFF00007FFFFFFFF
310
F000E0001FFFFFFFFFFF8000FFC000001FFC000FFF80007FC0003FFFFFFFFFFE
310
0001FFFFFFFFFFF8000001FFFE0000007FFFFFF0001FFFFFFC0007FFFFFFF000
310
1FFC0007FFFFFFF0001FFF0003FFFFFFFFF0001FFFFFFFFFF000E0003FFFFF00
310
03FF8001FFE000001FFC0007FF80007FC0007FFFFF0007FC0003FFFFF0003FF8
310
000001FFFE0000007FFFFFF0001FFFFFFC0003FFFFFFE0001FFC0003FFFFFFE0
310
001FFF0003FFFFFFFFF0003FFFFFFFFFF000E0003FFFFF0001FF8001FFE00000
310
1FFE0007FF80007FC0007FFFFE0003FC0007FFFFE0003FF8000001FFFE000000
310
7FFFFFF0001FFFFFFE0003FFFFFFE0003FFE0003FFFFFFE0003FFF0003FFFFFF
310
FFF0003FFFFF8001F000E0003FFFFF0001FF0001FFE000001FFE0007FF80007F
310
C0007FFFFE0003FC0007FFFFE0003FF8000001FFFE0000007FFFFFF0001FFFFF
310
FE0001FFFFFFC0003FFE0001FFFFFFC0003FFF0003FFFFFFFFF0003FFFFF0001
310
F000E0003FFFFF0003FF0001FFE000003FFE0007FF80007FC0007FFFFE0003FC
310
0007FFFFE0003FF8000001FFFE0000007FFFFFF0001FFFFFFF0001FFFFFFC000
310
7FFF0001FFFFFFC0007FFF0003FFFFFFFFF0003FFFFF0001F000E0003FFFFE00
310
03FF0003FFF000003FFE0003FF80007FC0007FFFFC0003FE0007FFFFE0003FF8
310
000001FFFE0000007FFFFFF0001FFFFFFF0000FFFFFF80007FFF0000FFFFFF80
310
007FFF0003FFFFFFFFF0003FFFFF0001F000E0003FFFFE0003FF0003FFF00000
310
3FFF0003FF80007FC0007FFFFC0007FE0007FFFFC0003FF8000001FFFE000000
310
7FFFFFF0001FFFFFFF80007FFFFF0000FFFF80007FFFFF0000FFFF0003FFFFFF
310
FFF0003FFFFF0003F000E0003FFFFC0003FE0003FFF000003FFF0003FF80007F
310
E0003FFFF80007FE0003FFFFC0007FF8000001FFFE0000007FFFFFF0001FFFFF
310
FF80003FFFFE0000FFFF80003FFFFE0000FFFF0003FFFFFFFFF0001FFFFE0003
310
F000F0001FFFF80003FE0003FFF000007FFF0001FF80007FE0003FFFF00007FE
310
0001FFFF80007FF8000001FFFE0000007FFFFFF0001FFFFFFFC0000FFFF80001
310
FFFFC0000FFFF80001FFFF0003FFFFFFFFF0001FFFFC0003F000F0000FFFF000
310
07FE0007FFF800007FFF0001FF80007FE0001FFFE00007FF0000FFFE00007FF8
310
000001FFFE0000007FFFFFF0001FFFFFFFC00003FFE00001FFFFC00003FFE000
310
01FFFF0003FFFFFFFFF8000FFFF80003F000F00003FFC00007FC0007FFF80000
310
7FFF8001FF80007FF00007FF80000FFF00007FF80000FFF8000001FFFE000000
310
7F80000000000001FFE000003E000003FFFFE000003E000003FFFF0003FFFFFF
310
FFF80003FFE00007F000F800000000000FFC0007FFF800007FFF8001FF80007F
310
F000000000000FFF000000000000FFF8000001FFFE0000007F80000000000001
310
FFF0000000000007FFFFF0000000000007FFFF0003FFFFFFFFFC00007E000007
310
F000F800000000000FFC0007FFF80000FFFF8000FF80007FF800000000001FFF
310
800000000001FFF8000001FFFE0000007F80000000000001FFF800000000000F
310
FFFFF800000000000FFFFF0003FFFFFFFFFC00000000000FF000FC0000000000
310
1FFC0007FFFC0000FFFF8000FF80007FF800000000003FFFC00000000001FFF8
310
000001FFFE0000007F80000000000001FFF800000000000FFFFFF80000000000
310
0FFFFF0003FFFFFFFFFE00000000001FF000FE00000000003FF8000FFFFC0000
310
FFFF8000FF80007FFC00000000003FFFC00000000003FFF8000001FFFE000000
310
7F80000000000001FFFC00000000001FFFFFFC00000000001FFFFF0003FFFFFF
310
FFFF00000000001FF000FF00000000003FF8000FFFFC0000FFFFC000FF80007F
310
FE00000000007FFFE00000000007FFF8000001FFFE0000007F80000000000001
310
FFFE00000000003FFFFFFE00000000003FFFFF0003FFFFFFFFFF80000000003F
310
F000FF80000000007FF8000FFFFC0001FFFFC0007F80007FFF0000000000FFFF
310
F0000000000FFFF800000000000000007F80000000000001FFFF8000000000FF
310
FFFFFF8000000000FFFFFF0003FFFFFFFFFFC0000000007FF000FFC000000000
310
FFF8000FFFFE0001FFFFC0007F80007FFF8000000001FFFFF8000000001FFFF8
310
00000000000000007F80000000000001FFFFC000000001FFFFFFFFC000000001
310
FFFFFF0003FFFFFFFFFFE000000000FFF000FFE000000003FFF0001FFFFE0001
310
FFFFC0007F80007FFFC000000007FFFFFE000000003FFFF80000000000000000
310
7F80000000000001FFFFE000000003FFFFFFFFE000000003FFFFFF0003FFFFFF
310
FFFFF000000003FFF000FFF80000000FFFF0001FFFFE0001FFFFE0007F80007F
310
FFF00000000FFFFFFF00000000FFFFF800000000000000007F80000000000001
310
FFFFF80000000FFFFFFFFFF80000000FFFFFFF0003FFFFFFFFFFFC0000000FFF
310
F000FFFE0000003FFFF0001FFFFE0003FFFFE0003F80007FFFFC0000003FFFFF
310
FFC0000003FFFFF800000000000000007F80000000000001FFFFFE0000003FFF
310
FFFFFFFE0000003FFFFFFF0003FFFFFFFFFFFF0000003FFFF000FFFF800000FF
310
FFF0001FFFFF0003FFFFE0003F80007FFFFF000001FFFFFFFFF800001FFFFFF8
310
00000000000000007F80000000000001FFFFFFC00001FFFFFFFFFFFFC00001FF
310
FFFFFF0003FFFFFFFFFFFFC00000FFFFF000FFFFF8000FFFFFFFFFFFFFFFFFFF
310
FFFFFFFFFFFFFFFFFFFFF0001FFFFFFFFFFF0000FFFFFFF80000000000000000
310
7FFFFFFFFFFFFFFFFFFFFFFC001FFFFFFFFFFFFFFC001FFFFFFFFFFFFFFFFFFF
310
FFFFFFFC001FFFFFF000FFFFFFFFFFFFFFFFFFFFFFFFFFFFFFFFFFFFFFFFFFFF
310
FFFFFFFFFFFFFFFFFFFFFFFFFFFFFFFFFFFFFFFFFFFFFFFFFFFFFFFFFFFFFFFF
310
FFFFFFFFFFFFFFFFFFFFFFFFFFFFFFFFFFFFFFFFFFFFFFFFFFFFFFFFFFFFFFFF
310
F000FFFFFFFFFFFFFFFFFFFFFFFFFFFFFFFFFFFFFFFFFFFFFFFFFFFFFFFFFFFF
310
FFFFFFFFFFFFFFFFFFFFFFFFFFFFFFFFFFFFFFFFFFFFFFFFFFFFFFFFFFFFFFFF
310
FFFFFFFFFFFFFFFFFFFFFFFFFFFFFFFFFFFFFFFFFFFFFFFFF000FFFFFFFFFFFF
310
FFFFFFFFFFFFFFFFFFFFFFFFFFFFFFFFFFFFFFFFFFFFFFFFFFFFFFFFFFFFFFFF
310
FFFFFFFFFFFFFFFFFFFFFFFFFFFFFFFFFFFFFFFFFFFFFFFFFFFFFFFFFFFFFFFF
310
FFFFFFFFFFFFFFFFFFFFFFFFFFFFFFFFF000FFFFFFFFFFFFFFFFFFFFFFFFFFFF
310
FFFFFFFFFFFFFFFFFFFFFFFFFFFFFFFFFFFFFFFFFFFFFFFFFFFFFFFFFFFFFFFF
310
FFFFFFFFFFFFFFFFFFFFFFFFFFFFFFFFFFFFFFFFFFFFFFFFFFFFFFFFFFFFFFFF
310
FFFFFFFFFFFFFFFFF000FFFFFFFFFFFFFFFFFFFFFFFFFFFFFFFFFFFFFFFFFFFF
310
FFFFFFFFFFFFFFFFFFFFFFFFFFFFFFFFFFFFFFFFFFFFFFFFFFFFFFFFFFFFFFFF
310
FFFFFFFFFFFFFFFFFFFFFFFFFFFFFFFFFFFFFFFFFFFFFFFFFFFFFFFFFFFFFFFF
310
F000FFFFFFFFFFFFFFFFFFFFFFFFFFFFFFFFFFFFFFFFFFFFFFFFFFFFFFFFFFFF
310
FFFFFFFFFFFFFFFFFFFFFFFFFFFFFFFFFFFFFFFFFFFFFFFFFFFFFFFFFFFFFFFF
310
FFFFFFFFFFFFFFFFFFFFFFFFFFFFFFFFFFFFFFFFFFFFFFFFF000FFFFFFFFFFFF
310
FFFFFFFFFFFFFFFFFFFFFFFFFFFFFFFFFFFFFFFFFFFFFFFFFFFFFFFFFFFFFFFF
310
FFFFFFFFFFFFFFFFFFFFFFFFFFFFFFFFFFFFFFFFFFFFFFFFFFFFFFFFFFFFFFFF
310
FFFFFFFFFFFFFFFFFFFFFFFFFFFFFFFFF000FFFFFFFFFFFFFFFFFFFFFFFFFFFF
310
FFFFFFFFFFFFFFFFFFFFFFFFFFFFFFFFFFFFFFFFFFFFFFFFFFFFFFFFFFFFFFFF
310
FFFFFFFFFFFFFFFFFFFFFFFFFFFFFFFFFFFFFFFFFFFFFFFFFFFFFFFFFFFFFFFF
310
FFFFFFFFFFFFFFFFF000FFFFFFFFFFFFFFFFFFFFFFFFFFFFFFFFFFFFFFFFFFFF
310
FFFFFFFFFFFFFFFFFFFFFFFFFFFFFFFFFFFFFFFFFFFFFFFFFFFFFFFFFFFFFFFF
310
FFFFFFFFFFFFFFFFFFFFFFFFFFFFFFFFFFFFFFFFFFFFFFFFFFFFFFFFFFFFFFFF
310
F000FFFFFFFFFFFFFFFFFFFFFFFFFFFFFFFFFFFFFFFFFFFFFFFFFFFFFFFFFFFF
310
FFFFFFFFFFFFFFFFFFFFFFFFFFFFFFFFFFFFFFFFFFFFFFFFFFFFFFFFFFFFFFFF
310
FFFFFFFFFFFFFFFFFFFFFFFFFFFFFFFFFFFFFFFFFFFFFFFFF000FFFFFFFFFFFF
310
FFFFFFFFFFFFFFFFFFFFFFFFFFFFFFFFFFFFFFFFFFFFFFFFFFFFFFFFFFFFFFFF
310
FFFFFFFFFFFFFFFFFFFFFFFFFFFFFFFFFFFFFFFFFFFFFFFFFFFFFFFFFFFFFFFF
310
FFFFFFFFFFFFFFFFFFFFFFFFFFFFFFFFF000FFFFFFFFFFFFFFFFFFFFFFFFFFFF
310
FFFFFFFFFFFFFFFFFFFFFFFFFFFFFFFFFFFFFFFFFFFFFFFFFFFFFFFFFFFFFFFF
310
FFFFFFFFFFFFFFFFFFFFFFFFFFFFFFFFFFFFFFFFFFFFFFFFFFFFFFFFFFFFFFFF
310
FFFFFFFFFFFFFFFFF000FFFFFFFFFFFFFFFFFFFFFFFFFFFFFFFFFFFFFFFFFFFF
310
FFFFFFFFFFFFFFFFFFFFFFFFFFFFFFFFFFFFFFFFFFFFFFFFFFFFFFFFFFFFFFFF
310
FFFFFFFFFFFFFFFFFFFFFFFFFFFFFFFFFFFFFFFFFFFFFFFFFFFFFFFFFFFFFFFF
310
F000FFFFFFFFFFFFFFFFFFFFFFFFFFFFFFFFFFFFFFFFFFFFFFFFFFFFFFFFFFFF
310
FFFFFFFFFFFFFFFFFFFFFFFFFFFFFFFFFFFFFFFFFFFFFFFFFFFFFFFFFFFFFFFF
310
FFFFFFFFFFFFFFFFFFFFFFFFFFFFFFFFFFFFFFFFFFFFFFFFF000FFFFFFFFFFFF
310
FFFFFFFFFFFFFFFFFFFFFFFFFFFFFFFFFFFFFFFFFFFFFFFFFFFFFFFFFFFFFFFF
310
FFFFFFFFFFFFFFFFFFFFFFFFFFFFFFFFFFFFFFFFFFFFFFFFFFFFFFFFFFFFFFFF
310
FFFFFFFFFFFFFFFFFFFFFFFFFFFFFFFFF000FFFFFFFFFFFFFFFFFFFFFFFFFFFF
310
FFFFFFFFFFFFFFFFFFFFFFFFFFFFFFFFFFFFFFFFFFFFFFFFFFFFFFFFFFFFFFFF
310
FFFFFFFFFFFFFFFFFFFFFFFFFFFFFFFFFFFFFFFFFFFFFFFFFFFFFFFFFFFFFFFF
310
FFFFFFFFFFFFFFFFF000FFFFFFFFFFFFFFFFFFFFFFFFFFFFFFFFFFFFFFFFFFFF
310
FFFFFFFFFFFFFFFFFFFFFFFFFFFFFFFFFFFFFFFFFFFFFFFFFFFFFFFFFFFFFFFF
310
FFFFFFFFFFFFFFFFFFFFFFFFFFFFFFFFFFFFFFFFFFFFFFFFFFFFFFFFFFFFFFFF
310
F000FFFFFFFFFFFFFFFFFFFFFFFFFFFFFFFFFFFFFFFFFFFFFFFFFFFFFFFFFFFF
310
FFFFFFFFFFFFFFFFFFFFFFFFFFFFFFFFFFFFFFFFFFFFFFFFFFFFFFFFFFFFFFFF
310
FFFFFFFFFFFFFFFFFFFFFFFFFFFFFFFFFFFFFFFFFFFFFFFFF000FFFFFFFFFFFF
310
FFFFFFFFFFFFFFFFFFFFFFFFFFFFFFFFFFFFFFFFFFFFFFFFFFFFFFFFFFFFFFFF
310
FFFFFFFFFFFFFFFFFFFFFFFFFFFFFFFFFFFFFFFFFFFFFFFFFFFFFFFFFFFFFFFF
310
FFFFFFFFFFFFFFFFFFFFFFFFFFFFFFFFF000FFFFFFFFFFFFFFFFFFFFFFFFFFFF
310
FFFFFFFFFFFFFFFFFFFFFFFFFFFFFFFFFFFFFFFFFFFFFFFFFFFFFFFFFFFFFFFF
310
FFFFFFFFFFFFFFFFFFFFFFFFFFFFFFFFFFFFFFFFFFFFFFFFFFFFFFFFFFFFFFFF
310
FFFFFFFFFFFFFFFFF000FFFFFFFFFFFFFFFFFFFFFFFFFFFFFFFFFFFFFFFFFFFF
310
FFFFFFFFFFFFFFFFFFFFFFFFFFFFFFFFFFFFFFFFFFFFFFFFFFFFFFFFFFFFFFFF
310
FFFFFFFFFFFFFFFFFFFFFFFFFFFFFFFFFFFFFFFFFFFFFFFFFFFFFFFFFFFFFFFF
310
F000FFFFFFFFFFFFFFFFFFFFFFFFFFFFFFFFFFFFFFFFFFFFFFFFFFFFFFFFFFFF
310
FFFFFFFFFFFFFFFFFFFFFFFFFFFFFFFFFFFFFFFFFFFFFFFFFFFFFFFFFFFFFFFF
310
FFFFFFFFFFFFFFFFFFFFFFFFFFFFFFFFFFFFFFFFFFFFFFFFF000FFFFFFFFFFFF
310
FFFFFFFFFFFFFFFFFFFFFFFFFFFFFFFFFFFFFFFFFFFFFFFFFFFFFFFFFFFFFFFF
310
FFFFFFFFFFFFFFFFFFFFFFFFFFFFFFFFFFFFFFFFFFFFFFFFFFFFFFFFFFFFFFFF
310
FFFFFFFFFFFFFFFFFFFFFFFFFFFFFFFFF0000000000000000000000000000000
310
0000000001000000010000000100000000000000010000000000000001000000
310
0100000001000000010000000100000000000000010000000100000001000000
310
0100000001000000010000000000000001000000010000000100000001000000
310
0100000001000000000000000100000001000000010000000100000001000000
310
0100000001000000010000000100000001000000010000000100000001000000
310
0100000001000000010000000100000001000000010000000100000001000000
310
0100000001000000010000000100000001000000000000000100000001000000
310
0100000001000000010000000100000001000000010000000100000001000000
310
0100000001000000010000000100000001000000010000000100000001000000
310
0100000001000000010000000100000001000000010000000100000000000000
310
0100000001000000010000000100000001000000010000000100000001000000
310
0100000001000000010000000100000001000000010000000100000001000000
310
0100000001000000010000000100000001000000010000000100000001000000
310
0100000001000000010000000100000001000000010000000100000001000000
310
0100000001000000010000000100000000000000010000000100000001000000
  1
OLE
  0
ENDSEC
  0
SECTION
  2
OBJECTS
  0
DICTIONARY
  5
C
330
0
100
AcDbDictionary
281
     1
  3
ACAD_GROUP
350
D
  3
ACAD_LAYOUT
350
1A
  3
ACAD_MLEADERSTYLE
350
203
  3
ACAD_MLINESTYLE
350
17
  3
ACAD_PLOTSETTINGS
350
19
  3
ACAD_PLOTSTYLENAME
350
E
  3
ACAD_TABLESTYLE
350
202
  3
ACAD_VISUALSTYLE
350
2A
  3
AcDbVariableDictionary
350
204
  0
DICTIONARY
  5
D
102
{ACAD_REACTORS
330
C
102
}
330
C
100
AcDbDictionary
281
     1
  0
DICTIONARY
  5
1A
102
{ACAD_REACTORS
330
C
102
}
330
C
100
AcDbDictionary
281
     1
  3
Layout1
350
1E
  3
Layout2
350
26
  3
Model
350
22
  0
DICTIONARY
  5
203
102
{ACAD_REACTORS
330
C
102
}
330
C
100
AcDbDictionary
281
     1
  0
DICTIONARY
  5
17
102
{ACAD_REACTORS
330
C
102
}
330
C
100
AcDbDictionary
281
     1
  3
Standard
350
18
  0
DICTIONARY
  5
19
102
{ACAD_REACTORS
330
C
102
}
330
C
100
AcDbDictionary
281
     1
  0
ACDBDICTIONARYWDFLT
  5
E
102
{ACAD_REACTORS
330
C
102
}
330
C
100
AcDbDictionary
281
     1
  3
Normal
350
F
100
AcDbDictionaryWithDefault
340
F
  0
DICTIONARY
  5
202
102
{ACAD_REACTORS
330
C
102
}
330
C
100
AcDbDictionary
281
     1
  0
DICTIONARY
  5
2A
102
{ACAD_REACTORS
330
C
102
}
330
C
100
AcDbDictionary
281
     1
  3
2dWireframe
350
2F
  3
3D Hidden
350
31
  3
3dWireframe
350
30
  3
Basic
350
32
  3
Brighten
350
36
  3
ColorChange
350
3A
  3
Conceptual
350
34
  3
Dim
350
35
  3
Facepattern
350
39
  3
Flat
350
2B
  3
FlatWithEdges
350
2C
  3
Gouraud
350
2D
  3
GouraudWithEdges
350
2E
  3
Linepattern
350
38
  3
Realistic
350
33
  3
Thicken
350
37
  0
DICTIONARY
  5
204
102
{ACAD_REACTORS
330
C
102
}
330
C
100
AcDbDictionary
281
     1
  3
PSOLHEIGHT
350
206
  3
PSOLWIDTH
350
205
  0
LAYOUT
  5
1E
102
{ACAD_REACTORS
330
1A
102
}
330
1A
100
AcDbPlotSettings
  1

  2
none_device
  4

  6

 40
0.0
 41
0.0
 42
0.0
 43
0.0
 44
0.0
 45
0.0
 46
0.0
 47
0.0
 48
0.0
 49
0.0
140
0.0
141
0.0
142
1.0
143
1.0
 70
   688
 72
     0
 73
     0
 74
     5
  7

 75
    16
147
1.0
148
0.0
149
0.0
100
AcDbLayout
  1
Layout1
 70
     1
 71
     1
 10
0.0
 20
0.0
 11
420.0
 21
297.0
 12
0.0
 22
0.0
 32
0.0
 14
1.0000000000E+20
 24
1.0000000000E+20
 34
1.0000000000E+20
 15
-1.0000000000E+20
 25
-1.0000000000E+20
 35
-1.0000000000E+20
146
0.0
 13
0.0
 23
0.0
 33
0.0
 16
1.0
 26
0.0
 36
0.0
 17
0.0
 27
1.0
 37
0.0
 76
     0
330
1B
  0
LAYOUT
  5
26
102
{ACAD_REACTORS
330
1A
102
}
330
1A
100
AcDbPlotSettings
  1

  2
none_device
  4

  6

 40
0.0
 41
0.0
 42
0.0
 43
0.0
 44
0.0
 45
0.0
 46
0.0
 47
0.0
 48
0.0
 49
0.0
140
0.0
141
0.0
142
1.0
143
1.0
 70
   688
 72
     0
 73
     0
 74
     5
  7

 75
    16
147
1.0
148
0.0
149
0.0
100
AcDbLayout
  1
Layout2
 70
     1
 71
     2
 10
0.0
 20
0.0
 11
0.0
 21
0.0
 12
0.0
 22
0.0
 32
0.0
 14
0.0
 24
0.0
 34
0.0
 15
0.0
 25
0.0
 35
0.0
146
0.0
 13
0.0
 23
0.0
 33
0.0
 16
1.0
 26
0.0
 36
0.0
 17
0.0
 27
1.0
 37
0.0
 76
     0
330
23
  0
LAYOUT
  5
22
102
{ACAD_REACTORS
330
1A
102
}
330
1A
100
AcDbPlotSettings
  1

  2
none_device
  4

  6

 40
0.0
 41
0.0
 42
0.0
 43
0.0
 44
0.0
 45
0.0
 46
0.0
 47
0.0
 48
0.0
 49
0.0
140
0.0
141
0.0
142
1.0
143
1.0
 70
  1712
 72
     0
 73
     0
 74
     0
  7

 75
     0
147
1.0
148
0.0
149
0.0
100
AcDbLayout
  1
Model
 70
     1
 71
     0
 10
0.0
 20
0.0
 11
297.0
 21
210.0
 12
0.0
 22
0.0
 32
0.0
 14
0.0
 24
0.0
 34
0.0
 15
297.0
 25
210.0
 35
0.0
146
0.0
 13
0.0
 23
0.0
 33
0.0
 16
1.0
 26
0.0
 36
0.0
 17
0.0
 27
1.0
 37
0.0
 76
     0
330
1F
331
29
  0
MLINESTYLE
  5
18
102
{ACAD_REACTORS
330
17
102
}
330
17
100
AcDbMlineStyle
  2
Standard
 70
     0
  3

 62
   256
 51
90.0
 52
90.0
 71
     2
 49
0.5
 62
   256
  6
BYLAYER
 49
-0.5
 62
   256
  6
BYLAYER
  0
ACDBPLACEHOLDER
  5
F
102
{ACAD_REACTORS
330
E
102
}
330
E
  0
VISUALSTYLE
  5
2F
102
{ACAD_REACTORS
330
2A
102
}
330
2A
100
AcDbVisualStyle
  2
2dWireframe
 70
     4
 71
     0
 72
     2
 73
     0
 90
        0
 40
-0.6
 41
-30.0
 62
     5
 63
     7
 74
     1
 91
        4
 64
     7
 65
   257
 75
     1
175
     1
 42
1.0
 92
        0
 66
   257
 43
1.0
 76
     1
 77
     6
 78
     2
 67
     7
 79
     5
170
     0
171
     0
290
     0
174
     0
 93
        1
 44
0.0
173
     0
291
     0
 45
0.0
1001
ACAD
1000
AcDbSavedByObjectVersion
1070
     0
  0
VISUALSTYLE
  5
31
102
{ACAD_REACTORS
330
2A
102
}
330
2A
100
AcDbVisualStyle
  2
3D Hidden
 70
     6
 71
     1
 72
     2
 73
     2
 90
        0
 40
-0.6
 41
-30.0
 62
     5
 63
     7
 74
     2
 91
        2
 64
     7
 65
   257
 75
     2
175
     1
 42
40.0
 92
        0
 66
   257
 43
1.0
 76
     1
 77
     6
 78
     2
 67
     7
 79
     3
170
     0
171
     0
290
     0
174
     0
 93
        1
 44
0.0
173
     0
291
     0
 45
0.0
1001
ACAD
1000
AcDbSavedByObjectVersion
1070
     0
  0
VISUALSTYLE
  5
30
102
{ACAD_REACTORS
330
2A
102
}
330
2A
100
AcDbVisualStyle
  2
3dWireframe
 70
     5
 71
     0
 72
     2
 73
     0
 90
        0
 40
-0.6
 41
-30.0
 62
     5
 63
     7
 74
     1
 91
        4
 64
     7
 65
   257
 75
     1
175
     1
 42
1.0
 92
        0
 66
   257
 43
1.0
 76
     1
 77
     6
 78
     2
 67
     7
 79
     5
170
     0
171
     0
290
     0
174
     0
 93
        1
 44
0.0
173
     0
291
     0
 45
0.0
1001
ACAD
1000
AcDbSavedByObjectVersion
1070
     0
  0
VISUALSTYLE
  5
32
102
{ACAD_REACTORS
330
2A
102
}
330
2A
100
AcDbVisualStyle
  2
Basic
 70
     7
 71
     1
 72
     0
 73
     1
 90
        0
 40
-0.6
 41
-30.0
 62
     5
 63
     7
 74
     0
 91
        4
 64
     7
 65
   257
 75
     1
175
     1
 42
1.0
 92
        8
 66
     7
 43
1.0
 76
     1
 77
     6
 78
     2
 67
     7
 79
     5
170
     0
171
     0
290
     0
174
     0
 93
        1
 44
0.0
173
     0
291
     1
 45
0.0
1001
ACAD
1000
AcDbSavedByObjectVersion
1070
     0
  0
VISUALSTYLE
  5
36
102
{ACAD_REACTORS
330
2A
102
}
330
2A
100
AcDbVisualStyle
  2
Brighten
 70
    12
 71
     2
 72
     2
 73
     0
 90
        0
 40
-0.6
 41
-30.0
 62
     5
 63
     7
 74
     1
 91
        4
 64
     7
 65
   257
 75
     1
175
     1
 42
1.0
 92
        8
 66
     7
 43
1.0
 76
     1
 77
     6
 78
     2
 67
     7
 79
     5
170
     0
171
     0
290
     0
174
     0
 93
        1
 44
50.0
173
     0
291
     1
 45
0.0
1001
ACAD
1000
AcDbSavedByObjectVersion
1070
     0
  0
VISUALSTYLE
  5
3A
102
{ACAD_REACTORS
330
2A
102
}
330
2A
100
AcDbVisualStyle
  2
ColorChange
 70
    16
 71
     2
 72
     2
 73
     3
 90
        0
 40
-0.6
 41
-30.0
 62
     5
 63
     8
 74
     1
 91
        4
 64
     7
 65
   257
 75
     1
175
     1
 42
1.0
 92
        8
 66
     8
 43
1.0
 76
     1
 77
     6
 78
     2
 67
     7
 79
     5
170
     0
171
     0
290
     0
174
     0
 93
        1
 44
0.0
173
     0
291
     1
 45
0.0
1001
ACAD
1000
AcDbSavedByObjectVersion
1070
     0
  0
VISUALSTYLE
  5
34
102
{ACAD_REACTORS
330
2A
102
}
330
2A
100
AcDbVisualStyle
  2
Conceptual
 70
     9
 71
     3
 72
     2
 73
     0
 90
        0
 40
-0.6
 41
-30.0
 62
     5
 63
     7
 74
     2
 91
        2
 64
     7
 65
   257
 75
     1
175
     1
 42
40.0
 92
        8
 66
     7
 43
1.0
 76
     1
 77
     6
 78
     2
 67
     7
 79
     3
170
     0
171
     0
290
     0
174
     0
 93
        1
 44
0.0
173
     0
291
     0
 45
0.0
1001
ACAD
1000
AcDbSavedByObjectVersion
1070
     0
  0
VISUALSTYLE
  5
35
102
{ACAD_REACTORS
330
2A
102
}
330
2A
100
AcDbVisualStyle
  2
Dim
 70
    11
 71
     2
 72
     2
 73
     0
 90
        0
 40
-0.6
 41
-30.0
 62
     5
 63
     7
 74
     1
 91
        4
 64
     7
 65
   257
 75
     1
175
     1
 42
1.0
 92
        8
 66
     7
 43
1.0
 76
     1
 77
     6
 78
     2
 67
     7
 79
     5
170
     0
171
     0
290
     0
174
     0
 93
        1
 44
-50.0
173
     0
291
     1
 45
0.0
1001
ACAD
1000
AcDbSavedByObjectVersion
1070
     0
  0
VISUALSTYLE
  5
39
102
{ACAD_REACTORS
330
2A
102
}
330
2A
100
AcDbVisualStyle
  2
Facepattern
 70
    15
 71
     2
 72
     2
 73
     0
 90
        0
 40
-0.6
 41
-30.0
 62
     5
 63
     7
 74
     1
 91
        4
 64
     7
 65
   257
 75
     1
175
     1
 42
1.0
 92
        8
 66
     7
 43
1.0
 76
     1
 77
     6
 78
     2
 67
     7
 79
     5
170
     0
171
     0
290
     0
174
     0
 93
        1
 44
0.0
173
     0
291
     1
 45
0.0
1001
ACAD
1000
AcDbSavedByObjectVersion
1070
     0
  0
VISUALSTYLE
  5
2B
102
{ACAD_REACTORS
330
2A
102
}
330
2A
100
AcDbVisualStyle
  2
Flat
 70
     0
 71
     2
 72
     1
 73
     1
 90
        2
 40
-0.6
 41
30.0
 62
     5
 63
     7
 74
     0
 91
        4
 64
     7
 65
   257
 75
     1
175
     1
 42
1.0
 92
        8
 66
     7
 43
1.0
 76
     1
 77
     6
 78
     2
 67
     7
 79
     5
170
     0
171
     0
290
     0
174
     0
 93
       13
 44
0.0
173
     0
291
     1
 45
0.0
1001
ACAD
1000
AcDbSavedByObjectVersion
1070
     0
  0
VISUALSTYLE
  5
2C
102
{ACAD_REACTORS
330
2A
102
}
330
2A
100
AcDbVisualStyle
  2
FlatWithEdges
 70
     1
 71
     2
 72
     1
 73
     1
 90
        2
 40
-0.6
 41
30.0
 62
     5
 63
     7
 74
     1
 91
        4
 64
     7
 65
   257
 75
     1
175
     1
 42
1.0
 92
        0
 66
   257
 43
1.0
 76
     1
 77
     6
 78
     2
 67
     7
 79
     5
170
     0
171
     0
290
     0
174
     0
 93
       13
 44
0.0
173
     0
291
     1
 45
0.0
1001
ACAD
1000
AcDbSavedByObjectVersion
1070
     0
  0
VISUALSTYLE
  5
2D
102
{ACAD_REACTORS
330
2A
102
}
330
2A
100
AcDbVisualStyle
  2
Gouraud
 70
     2
 71
     2
 72
     2
 73
     1
 90
        2
 40
-0.6
 41
30.0
 62
     5
 63
     7
 74
     0
 91
        4
 64
     7
 65
   257
 75
     1
175
     1
 42
1.0
 92
        0
 66
     7
 43
1.0
 76
     1
 77
     6
 78
     2
 67
     7
 79
     5
170
     0
171
     0
290
     0
174
     0
 93
       13
 44
0.0
173
     0
291
     1
 45
0.0
1001
ACAD
1000
AcDbSavedByObjectVersion
1070
     0
  0
VISUALSTYLE
  5
2E
102
{ACAD_REACTORS
330
2A
102
}
330
2A
100
AcDbVisualStyle
  2
GouraudWithEdges
 70
     3
 71
     2
 72
     2
 73
     1
 90
        2
 40
-0.6
 41
30.0
 62
     5
 63
     7
 74
     1
 91
        4
 64
     7
 65
   257
 75
     1
175
     1
 42
1.0
 92
        0
 66
   257
 43
1.0
 76
     1
 77
     6
 78
     2
 67
     7
 79
     5
170
     0
171
     0
290
     0
174
     0
 93
       13
 44
0.0
173
     0
291
     1
 45
0.0
1001
ACAD
1000
AcDbSavedByObjectVersion
1070
     0
  0
VISUALSTYLE
  5
38
102
{ACAD_REACTORS
330
2A
102
}
330
2A
100
AcDbVisualStyle
  2
Linepattern
 70
    14
 71
     2
 72
     2
 73
     0
 90
        0
 40
-0.6
 41
-30.0
 62
     5
 63
     7
 74
     1
 91
        4
 64
     7
 65
   257
 75
     7
175
     7
 42
1.0
 92
        8
 66
     7
 43
1.0
 76
     1
 77
     6
 78
     2
 67
     7
 79
     5
170
     0
171
     0
290
     0
174
     0
 93
        1
 44
0.0
173
     0
291
     1
 45
0.0
1001
ACAD
1000
AcDbSavedByObjectVersion
1070
     0
  0
VISUALSTYLE
  5
33
102
{ACAD_REACTORS
330
2A
102
}
330
2A
100
AcDbVisualStyle
  2
Realistic
 70
     8
 71
     2
 72
     2
 73
     0
 90
        0
 40
-0.6
 41
-30.0
 62
     5
 63
     7
 74
     1
 91
        0
 64
     7
 65
   257
 75
     1
175
     1
 42
1.0
 92
        8
 66
     8
 43
1.0
 76
     1
 77
     6
 78
     2
 67
     7
 79
     5
170
     0
171
     0
290
     0
174
     0
 93
       13
 44
0.0
173
     0
291
     0
 45
0.0
1001
ACAD
1000
AcDbSavedByObjectVersion
1070
     0
  0
VISUALSTYLE
  5
37
102
{ACAD_REACTORS
330
2A
102
}
330
2A
100
AcDbVisualStyle
  2
Thicken
 70
    13
 71
     2
 72
     2
 73
     0
 90
        0
 40
-0.6
 41
-30.0
 62
     5
 63
     7
 74
     1
 91
        4
 64
     7
 65
   257
 75
     1
175
     1
 42
1.0
 92
       12
 66
     7
 43
1.0
 76
     1
 77
     6
 78
     2
 67
     7
 79
     5
170
     0
171
     0
290
     0
174
     0
 93
        1
 44
0.0
173
     0
291
     1
 45
0.0
1001
ACAD
1000
AcDbSavedByObjectVersion
1070
     0
  0
DICTIONARYVAR
  5
206
102
{ACAD_REACTORS
330
204
102
}
330
204
100
DictionaryVariables
280
     0
  1
80.000000
  0
DICTIONARYVAR
  5
205
102
{ACAD_REACTORS
330
204
102
}
330
204
100
DictionaryVariables
280
     0
  1
5.000000
  0
ENDSEC
  0
EOF
