  0
SECTION
  2
HEADER
  9
$ACADVER
  1
AC1015
  9
$ACADMAINTVER
 70
     6
  9
$DWGCODEPAGE
  3
ANSI_1252
  9
$INSBASE
 10
0.0
 20
0.0
 30
0.0
  9
$EXTMIN
 10
0.0
 20
0.0
 30
0.0
  9
$EXTMAX
 10
297.0
 20
210.0
 30
0.0
  9
$LIMMIN
 10
0.0
 20
0.0
  9
$LIMMAX
 10
297.0
 20
210.0
  9
$ORTHOMODE
 70
     0
  9
$REGENMODE
 70
     1
  9
$FILLMODE
 70
     1
  9
$QTEXTMODE
 70
     0
  9
$MIRRTEXT
 70
     1
  9
$LTSCALE
 40
1.0
  9
$ATTMODE
 70
     1
  9
$TEXTSIZE
 40
2.0
  9
$TRACEWID
 40
1.0
  9
$TEXTSTYLE
  7
Standard
  9
$CLAYER
  8
0
  9
$CELTYPE
  6
ByLayer
  9
$CECOLOR
 62
   256
  9
$CELTSCALE
 40
1.0
  9
$DISPSILH
 70
     0
  9
$DIMSCALE
 40
1.0
  9
$DIMASZ
 40
3.0
  9
$DIMEXO
 40
0.0
  9
$DIMDLI
 40
3.75
  9
$DIMRND
 40
0.0
  9
$DIMDLE
 40
0.0
  9
$DIMEXE
 40
1.0
  9
$DIMTP
 40
0.0
  9
$DIMTM
 40
0.0
  9
$DIMTXT
 40
2.0
  9
$DIMCEN
 40
2.5
  9
$DIMTSZ
 40
0.0
  9
$DIMTOL
 70
     0
  9
$DIMLIM
 70
     0
  9
$DIMTIH
 70
     1
  9
$DIMTOH
 70
     1
  9
$DIMSE1
 70
     0
  9
$DIMSE2
 70
     0
  9
$DIMTAD
 70
     1
  9
$DIMZIN
 70
     0
  9
$DIMBLK
  1

  9
$DIMASO
 70
     1
  9
$DIMSHO
 70
     1
  9
$DIMPOST
  1

  9
$DIMAPOST
  1

  9
$DIMALT
 70
     0
  9
$DIMALTD
 70
     3
  9
$DIMALTF
 40
0.0393700787
  9
$DIMLFAC
 40
1.0
  9
$DIMTOFL
 70
     1
  9
$DIMTVP
 40
0.0
  9
$DIMTIX
 70
     0
  9
$DIMSOXD
 70
     0
  9
$DIMSAH
 70
     0
  9
$DIMBLK1
  1

  9
$DIMBLK2
  1

  9
$DIMSTYLE
  2
ISO-25
  9
$DIMCLRD
 70
     0
  9
$DIMCLRE
 70
     0
  9
$DIMCLRT
 70
     0
  9
$DIMTFAC
 40
1.0
  9
$DIMGAP
 40
1.524
  9
$DIMJUST
 70
     0
  9
$DIMSD1
 70
     0
  9
$DIMSD2
 70
     0
  9
$DIMTOLJ
 70
     0
  9
$DIMTZIN
 70
     0
  9
$DIMALTZ
 70
     0
  9
$DIMALTTZ
 70
     0
  9
$DIMUPT
 70
     0
  9
$DIMDEC
 70
     2
  9
$DIMTDEC
 70
     3
  9
$DIMALTU
 70
     2
  9
$DIMALTTD
 70
     3
  9
$DIMTXSTY
  7
Standard
  9
$DIMAUNIT
 70
     0
  9
$DIMADEC
 70
     2
  9
$DIMALTRND
 40
0.0
  9
$DIMAZIN
 70
     0
  9
$DIMDSEP
 70
    44
  9
$DIMATFIT
 70
     3
  9
$DIMFRAC
 70
     0
  9
$DIMLDRBLK
  1

  9
$DIMLUNIT
 70
     2
  9
$DIMLWD
 70
    -2
  9
$DIMLWE
 70
    -2
  9
$DIMTMOVE
 70
     0
  9
$LUNITS
 70
     2
  9
$LUPREC
 70
     2
  9
$SKETCHINC
 40
1.0
  9
$FILLETRAD
 40
10.0
  9
$AUNITS
 70
     0
  9
$AUPREC
 70
     2
  9
$MENU
  1
.
  9
$ELEVATION
 40
0.0
  9
$PELEVATION
 40
0.0
  9
$THICKNESS
 40
0.0
  9
$LIMCHECK
 70
     0
  9
$CHAMFERA
 40
10.0
  9
$CHAMFERB
 40
10.0
  9
$CHAMFERC
 40
20.0
  9
$CHAMFERD
 40
0.0
  9
$SKPOLY
 70
     0
  9
$TDCREATE
 40
2455684.326358877
  9
$TDUCREATE
 40
2455684.243025544
  9
$TDUPDATE
 40
2455684.326358889
  9
$TDUUPDATE
 40
2455684.243025556
  9
$TDINDWG
 40
0.0000000116
  9
$TDUSRTIMER
 40
0.0000000116
  9
$USRTIMER
 70
     1
  9
$ANGBASE
 50
0.0
  9
$ANGDIR
 70
     0
  9
$PDMODE
 70
     0
  9
$PDSIZE
 40
-1.0
  9
$PLINEWID
 40
0.0
  9
$SPLFRAME
 70
     0
  9
$SPLINETYPE
 70
     6
  9
$SPLINESEGS
 70
     8
  9
$HANDSEED
  5
21F
  9
$SURFTAB1
 70
     6
  9
$SURFTAB2
 70
     6
  9
$SURFTYPE
 70
     6
  9
$SURFU
 70
     6
  9
$SURFV
 70
     6
  9
$UCSBASE
  2

  9
$UCSNAME
  2

  9
$UCSORG
 10
0.0
 20
0.0
 30
0.0
  9
$UCSXDIR
 10
1.0
 20
0.0
 30
0.0
  9
$UCSYDIR
 10
0.0
 20
1.0
 30
0.0
  9
$UCSORTHOREF
  2

  9
$UCSORTHOVIEW
 70
     0
  9
$UCSORGTOP
 10
0.0
 20
0.0
 30
0.0
  9
$UCSORGBOTTOM
 10
0.0
 20
0.0
 30
0.0
  9
$UCSORGLEFT
 10
0.0
 20
0.0
 30
0.0
  9
$UCSORGRIGHT
 10
0.0
 20
0.0
 30
0.0
  9
$UCSORGFRONT
 10
0.0
 20
0.0
 30
0.0
  9
$UCSORGBACK
 10
0.0
 20
0.0
 30
0.0
  9
$PUCSBASE
  2

  9
$PUCSNAME
  2

  9
$PUCSORG
 10
0.0
 20
0.0
 30
0.0
  9
$PUCSXDIR
 10
1.0
 20
0.0
 30
0.0
  9
$PUCSYDIR
 10
0.0
 20
1.0
 30
0.0
  9
$PUCSORTHOREF
  2

  9
$PUCSORTHOVIEW
 70
     0
  9
$PUCSORGTOP
 10
0.0
 20
0.0
 30
0.0
  9
$PUCSORGBOTTOM
 10
0.0
 20
0.0
 30
0.0
  9
$PUCSORGLEFT
 10
0.0
 20
0.0
 30
0.0
  9
$PUCSORGRIGHT
 10
0.0
 20
0.0
 30
0.0
  9
$PUCSORGFRONT
 10
0.0
 20
0.0
 30
0.0
  9
$PUCSORGBACK
 10
0.0
 20
0.0
 30
0.0
  9
$USERI1
 70
     0
  9
$USERI2
 70
     0
  9
$USERI3
 70
     0
  9
$USERI4
 70
     0
  9
$USERI5
 70
     0
  9
$USERR1
 40
0.0
  9
$USERR2
 40
0.0
  9
$USERR3
 40
0.0
  9
$USERR4
 40
0.0
  9
$USERR5
 40
0.0
  9
$WORLDVIEW
 70
     1
  9
$SHADEDGE
 70
     3
  9
$SHADEDIF
 70
    70
  9
$TILEMODE
 70
     1
  9
$MAXACTVP
 70
    64
  9
$PINSBASE
 10
0.0
 20
0.0
 30
0.0
  9
$PLIMCHECK
 70
     0
  9
$PEXTMIN
 10
1.0000000000E+20
 20
1.0000000000E+20
 30
1.0000000000E+20
  9
$PEXTMAX
 10
-1.0000000000E+20
 20
-1.0000000000E+20
 30
-1.0000000000E+20
  9
$PLIMMIN
 10
0.0
 20
0.0
  9
$PLIMMAX
 10
420.0
 20
297.0
  9
$UNITMODE
 70
     0
  9
$VISRETAIN
 70
     1
  9
$PLINEGEN
 70
     0
  9
$PSLTSCALE
 70
     1
  9
$TREEDEPTH
 70
  3020
  9
$CMLSTYLE
  2
Standard
  9
$CMLJUST
 70
     0
  9
$CMLSCALE
 40
20.0
  9
$PROXYGRAPHICS
 70
     1
  9
$MEASUREMENT
 70
     1
  9
$CELWEIGHT
370
    -1
  9
$ENDCAPS
280
     0
  9
$JOINSTYLE
280
     0
  9
$LWDISPLAY
290
     1
  9
$INSUNITS
 70
     4
  9
$HYPERLINKBASE
  1

  9
$STYLESHEET
  1

  9
$XEDIT
290
     1
  9
$CEPSNTYPE
380
     0
  9
$PSTYLEMODE
290
     1
  9
$FINGERPRINTGUID
  2
{E5BF3D9A-79A5-4CC3-B020-B80F61AC23A4}
  9
$VERSIONGUID
  2
{FAEB1C32-E019-11D5-929B-00C0DF256EC4}
  9
$EXTNAMES
290
     1
  9
$PSVPSCALE
 40
0.0
  9
$OLESTARTUP
290
     0
  0
ENDSEC
  0
SECTION
  2
CLASSES
  0
CLASS
  1
ACDBDICTIONARYWDFLT
  2
AcDbDictionaryWithDefault
  3
ObjectDBX Classes
 90
        0
280
     0
281
     0
  0
CLASS
  1
VISUALSTYLE
  2
AcDbVisualStyle
  3
ObjectDBX Classes
 90
     4095
280
     0
281
     0
  0
CLASS
  1
DICTIONARYVAR
  2
AcDbDictionaryVar
  3
ObjectDBX Classes
 90
        0
280
     0
281
     0
  0
CLASS
  1
ACDBPLACEHOLDER
  2
AcDbPlaceHolder
  3
ObjectDBX Classes
 90
        0
280
     0
281
     0
  0
CLASS
  1
LAYOUT
  2
AcDbLayout
  3
ObjectDBX Classes
 90
        0
280
     0
281
     0
  0
ENDSEC
  0
SECTION
  2
TABLES
  0
TABLE
  2
VPORT
  5
8
330
0
100
AcDbSymbolTable
 70
     1
  0
VPORT
  5
29
330
8
100
AcDbSymbolTableRecord
100
AcDbViewportTableRecord
  2
*Active
 70
     0
 10
0.0
 20
0.0
 11
1.0
 21
1.0
 12
148.5
 22
105.0
 13
0.0
 23
0.0
 14
10.0
 24
10.0
 15
10.0
 25
10.0
 16
0.0
 26
0.0
 36
1.0
 17
0.0
 27
0.0
 37
0.0
 40
210.0
 41
1.4142857143
 42
50.0
 43
0.0
 44
0.0
 50
0.0
 51
0.0
 71
     0
 72
  2000
 73
     1
 74
     3
 75
     0
 76
     0
 77
     0
 78
     0
281
     0
 65
     1
110
0.0
120
0.0
130
0.0
111
1.0
121
0.0
131
0.0
112
0.0
122
1.0
132
0.0
 79
     0
146
0.0
  0
ENDTAB
  0
TABLE
  2
LTYPE
  5
5
330
0
100
AcDbSymbolTable
 70
     6
  0
LTYPE
  5
14
330
5
100
AcDbSymbolTableRecord
100
AcDbLinetypeTableRecord
  2
ByBlock
 70
     0
  3

 72
    65
 73
     0
 40
0.0
  0
LTYPE
  5
15
330
5
100
AcDbSymbolTableRecord
100
AcDbLinetypeTableRecord
  2
ByLayer
 70
     0
  3

 72
    65
 73
     0
 40
0.0
  0
LTYPE
  5
16
330
5
100
AcDbSymbolTableRecord
100
AcDbLinetypeTableRecord
  2
Continuous
 70
     0
  3
Solid line
 72
    65
 73
     0
 40
0.0
  0
LTYPE
  5
3B
330
5
100
AcDbSymbolTableRecord
100
AcDbLinetypeTableRecord
  2
HIDDEN
 70
     0
  3
Hidden __ __ __ __ __ __ __ __ __ __ __ __ __ __
 72
    65
 73
     2
 40
1.905
 49
1.27
 74
     0
 49
-0.635
 74
     0
  0
LTYPE
  5
3C
330
5
100
AcDbSymbolTableRecord
100
AcDbLinetypeTableRecord
  2
PHANTOM
 70
     0
  3
Phantom ______  __  __  ______  __  __  ______
 72
    65
 73
     6
 40
12.7
 49
6.35
 74
     0
 49
-1.27
 74
     0
 49
1.27
 74
     0
 49
-1.27
 74
     0
 49
1.27
 74
     0
 49
-1.27
 74
     0
  0
LTYPE
  5
3D
330
5
100
AcDbSymbolTableRecord
100
AcDbLinetypeTableRecord
  2
CENTER
 70
     0
  3
Center ____ _ ____ _ ____ _ ____ _ ____ _ ____
 72
    65
 73
     4
 40
10.16
 49
6.35
 74
     0
 49
-1.27
 74
     0
 49
1.27
 74
     0
 49
-1.27
 74
     0
  0
LTYPE
  5
3E
330
5
100
AcDbSymbolTableRecord
100
AcDbLinetypeTableRecord
  2
CENTERX2
 70
     0
  3
Center (2x) ________  __  ________  __  _____
 72
    65
 73
     4
 40
20.32
 49
12.7
 74
     0
 49
-2.54
 74
     0
 49
2.54
 74
     0
 49
-2.54
 74
     0
  0
LTYPE
  5
3F
330
5
100
AcDbSymbolTableRecord
100
AcDbLinetypeTableRecord
  2
DOT2
 70
     0
  3
Dot (.5x) ........................................
 72
    65
 73
     2
 40
0.635
 49
0.0
 74
     0
 49
-0.635
 74
     0
  0
ENDTAB
  0
TABLE
  2
LAYER
  5
2
330
0
100
AcDbSymbolTable
 70
     5
  0
LAYER
  5
10
330
2
100
AcDbSymbolTableRecord
100
AcDbLayerTableRecord
  2
0
 70
     0
 62
     7
  6
Continuous
370
    -3
390
F
  0
LAYER
  5
40
330
2
100
AcDbSymbolTableRecord
100
AcDbLayerTableRecord
  2
FORMAT
 70
     0
 62
     7
  6
Continuous
370
    -3
390
F
  0
LAYER
  5
41
330
2
100
AcDbSymbolTableRecord
100
AcDbLayerTableRecord
  2
VERMASSUNG
 70
     0
 62
     7
  6
Continuous
370
    -3
390
F
  0
LAYER
  5
42
330
2
100
AcDbSymbolTableRecord
100
AcDbLayerTableRecord
  2
KOPF_DÜNN
 70
     0
 62
     7
  6
Continuous
370
    -3
390
F
  0
LAYER
  5
43
330
2
100
AcDbSymbolTableRecord
100
AcDbLayerTableRecord
  2
KOPF_DICK
 70
     0
 62
     7
  6
Continuous
370
    15
390
F
  0
ENDTAB
  0
TABLE
  2
STYLE
  5
3
330
0
100
AcDbSymbolTable
 70
     3
  0
STYLE
  5
11
330
3
100
AcDbSymbolTableRecord
100
AcDbTextStyleTableRecord
  2
Standard
 70
     0
 40
0.0
 41
1.0
 50
0.0
 71
     0
 42
2.5
  3
txt
  4

  0
STYLE
  5
44
330
3
100
AcDbSymbolTableRecord
100
AcDbTextStyleTableRecord
  2
SLDTEXTSTYLE0
 70
     0
 40
0.0
 41
0.7
 50
0.0
 71
     0
 42
0.2
  3
TXT
  4

  0
STYLE
  5
48
330
3
100
AcDbSymbolTableRecord
100
AcDbTextStyleTableRecord
  2
SLDTEXTSTYLE1
 70
     0
 40
0.0
 41
0.65
 50
0.0
 71
     0
 42
0.2
  3
TXT
  4

  0
ENDTAB
  0
TABLE
  2
VIEW
  5
6
330
0
100
AcDbSymbolTable
 70
     0
  0
ENDTAB
  0
TABLE
  2
UCS
  5
7
330
0
100
AcDbSymbolTable
 70
     0
  0
ENDTAB
  0
TABLE
  2
APPID
  5
9
330
0
100
AcDbSymbolTable
 70
     1
  0
APPID
  5
12
330
9
100
AcDbSymbolTableRecord
100
AcDbRegAppTableRecord
  2
ACAD
 70
     0
  0
ENDTAB
  0
TABLE
  2
DIMSTYLE
  5
A
330
0
100
AcDbSymbolTable
 70
     5
100
AcDbDimStyleTable
  0
DIMSTYLE
105
27
330
A
100
AcDbSymbolTableRecord
100
AcDbDimStyleTableRecord
  2
ISO-25
 70
     0
 41
2.5
 42
0.625
 43
3.75
 44
1.25
 73
     0
 74
     0
 77
     1
 78
     8
140
2.5
141
2.5
143
0.0393700787
147
0.625
171
     3
172
     1
271
     2
272
     2
274
     3
278
    44
283
     0
284
     8
340
11
  0
DIMSTYLE
105
1C0
102
{ACAD_REACTORS
330
1BF
330
1EF
330
1F9
330
203
330
20D
102
}
330
A
100
AcDbSymbolTableRecord
100
AcDbDimStyleTableRecord
  2
SLDDIMSTYLE0
 70
     0
 41
3.0
 44
0.0
 45
0.000000001
 73
     0
 74
     0
 77
     1
 78
    12
140
2.0
147
0.5
173
     1
271
     2
272
     3
284
    12
340
44
  0
DIMSTYLE
105
1CD
102
{ACAD_REACTORS
330
1CC
102
}
330
A
100
AcDbSymbolTableRecord
100
AcDbDimStyleTableRecord
  2
SLDDIMSTYLE1
 70
     0
 41
3.0
 44
0.0
 45
0.000000001
 73
     0
 74
     0
 77
     1
 78
    12
140
2.0
147
0.5
173
     1
271
     2
272
     2
284
    12
340
44
  0
DIMSTYLE
105
1D8
102
{ACAD_REACTORS
330
1D7
102
}
330
A
100
AcDbSymbolTableRecord
100
AcDbDimStyleTableRecord
  2
SLDDIMSTYLE2
 70
     0
 41
3.0
 44
0.0
 45
0.000000001
 73
     0
 74
     0
 77
     1
 78
    12
140
2.0
147
0.5
173
     1
271
     2
272
     2
284
    12
340
44
  0
DIMSTYLE
105
1E4
102
{ACAD_REACTORS
330
1E3
102
}
330
A
100
AcDbSymbolTableRecord
100
AcDbDimStyleTableRecord
  2
SLDDIMSTYLE3
 70
     0
 41
3.0
 44
0.0
 45
0.000000001
 73
     0
 74
     0
 77
     1
 78
    12
140
2.0
147
0.5
173
     1
271
     2
272
     3
284
    12
340
44
  0
ENDTAB
  0
TABLE
  2
BLOCK_RECORD
  5
1
330
0
100
AcDbSymbolTable
 70
     9
  0
BLOCK_RECORD
  5
1F
330
1
100
AcDbSymbolTableRecord
100
AcDbBlockTableRecord
  2
*Model_Space
340
22
  0
BLOCK_RECORD
  5
1B
330
1
100
AcDbSymbolTableRecord
100
AcDbBlockTableRecord
  2
*Paper_Space
340
1E
  0
BLOCK_RECORD
  5
23
330
1
100
AcDbSymbolTableRecord
100
AcDbBlockTableRecord
  2
*Paper_Space0
340
26
  0
BLOCK_RECORD
  5
1C1
330
1
100
AcDbSymbolTableRecord
100
AcDbBlockTableRecord
  2
*D1
340
0
  0
BLOCK_RECORD
  5
1CE
330
1
100
AcDbSymbolTableRecord
100
AcDbBlockTableRecord
  2
*D2
340
0
  0
BLOCK_RECORD
  5
1D9
330
1
100
AcDbSymbolTableRecord
100
AcDbBlockTableRecord
  2
*D3
340
0
  0
BLOCK_RECORD
  5
1E5
330
1
100
AcDbSymbolTableRecord
100
AcDbBlockTableRecord
  2
*D4
340
0
  0
BLOCK_RECORD
  5
1F0
330
1
100
AcDbSymbolTableRecord
100
AcDbBlockTableRecord
  2
*D5
340
0
  0
BLOCK_RECORD
  5
1FA
330
1
100
AcDbSymbolTableRecord
100
AcDbBlockTableRecord
  2
*D6
340
0
  0
BLOCK_RECORD
  5
204
330
1
100
AcDbSymbolTableRecord
100
AcDbBlockTableRecord
  2
*D7
340
0
  0
BLOCK_RECORD
  5
20E
330
1
100
AcDbSymbolTableRecord
100
AcDbBlockTableRecord
  2
*D8
340
0
  0
ENDTAB
  0
ENDSEC
  0
SECTION
  2
BLOCKS
  0
BLOCK
  5
20
330
1F
100
AcDbEntity
  8
0
100
AcDbBlockBegin
  2
*Model_Space
 70
     0
 10
0.0
 20
0.0
 30
0.0
  3
*Model_Space
  1

  0
ENDBLK
  5
21
330
1F
100
AcDbEntity
  8
0
100
AcDbBlockEnd
  0
BLOCK
  5
1C
330
1B
100
AcDbEntity
 67
     1
  8
0
100
AcDbBlockBegin
  2
*Paper_Space
 70
     0
 10
0.0
 20
0.0
 30
0.0
  3
*Paper_Space
  1

  0
ENDBLK
  5
1D
330
1B
100
AcDbEntity
 67
     1
  8
0
100
AcDbBlockEnd
  0
BLOCK
  5
24
330
23
100
AcDbEntity
  8
0
100
AcDbBlockBegin
  2
*Paper_Space0
 70
     0
 10
0.0
 20
0.0
 30
0.0
  3
*Paper_Space0
  1

  0
ENDBLK
  5
25
330
23
100
AcDbEntity
  8
0
100
AcDbBlockEnd
  0
BLOCK
  5
1C2
330
1C1
100
AcDbEntity
  8
0
100
AcDbBlockBegin
  2
*D1
 70
     1
 10
0.0
 20
0.0
 30
0.0
  3
*D1
  1

  0
SOLID
  5
1C4
330
1C1
100
AcDbEntity
  8
VERMASSUNG
100
AcDbTrace
 10
37.3387865655
 20
159.0612134345
 30
0.0
 11
36.8887865655
 21
156.0612134345
 31
0.0
 12
37.7887865655
 22
156.0612134345
 32
0.0
 13
37.7887865655
 23
156.0612134345
 33
0.0
  0
SOLID
  5
1C5
330
1C1
100
AcDbEntity
  8
VERMASSUNG
100
AcDbTrace
 10
37.3387865655
 20
59.0612134345
 30
0.0
 11
37.7887865655
 21
62.0612134345
 31
0.0
 12
36.8887865655
 22
62.0612134345
 32
0.0
 13
36.8887865655
 23
62.0612134345
 33
0.0
  0
LINE
  5
1C6
330
1C1
100
AcDbEntity
  8
VERMASSUNG
100
AcDbLine
 10
93.324081803
 20
159.0612134345
 30
0.0
 11
36.3387865655
 21
159.0612134345
 31
0.0
  0
LINE
  5
1C7
330
1C1
100
AcDbEntity
  8
VERMASSUNG
100
AcDbLine
 10
93.324081803
 20
59.0612134345
 30
0.0
 11
36.3387865655
 21
59.0612134345
 31
0.0
  0
LINE
  5
1C8
330
1C1
100
AcDbEntity
  8
VERMASSUNG
100
AcDbLine
 10
37.3387865655
 20
159.0612134345
 30
0.0
 11
37.3387865655
 21
59.0612134345
 31
0.0
  0
MTEXT
  5
1C9
330
1C1
100
AcDbEntity
  8
VERMASSUNG
100
AcDbMText
 10
34.5606510765
 20
100.8575622969
 30
0.0
 40
2.0
 41
0.0
 71
     1
 72
     1
  1
HSK A 
  7
SLDTEXTSTYLE0
 11
-7.044195017643634E-15
 21
1.0
 31
0.0
 73
     1
 44
1.0
  0
MTEXT
  5
1CA
330
1C1
100
AcDbEntity
  8
VERMASSUNG
100
AcDbMText
 10
34.760651086
 20
109.8575628408
 30
0.0
 40
2.0
 41
0.0
 71
     1
 72
     1
  1
%%c
  7
SLDTEXTSTYLE0
 11
-7.044195017643634E-15
 21
1.0
 31
0.0
 73
     1
 44
1.0
  0
MTEXT
  5
1CB
330
1C1
100
AcDbEntity
  8
VERMASSUNG
100
AcDbMText
 10
34.7606512024
 20
113.4658894908
 30
0.0
 40
2.0
 41
0.0
 71
     1
 72
     1
  1
100
  7
SLDTEXTSTYLE0
 11
-7.044195017643634E-15
 21
1.0
 31
0.0
 73
     1
 44
1.0
  0
ENDBLK
  5
1C3
330
1C1
100
AcDbEntity
  8
0
100
AcDbBlockEnd
  0
BLOCK
  5
1CF
330
1CE
100
AcDbEntity
  8
0
100
AcDbBlockBegin
  2
*D2
 70
     1
 10
0.0
 20
0.0
 30
0.0
  3
*D2
  1

  0
SOLID
  5
1D1
330
1CE
100
AcDbEntity
  8
VERMASSUNG
100
AcDbTrace
 10
206.324081803
 20
160.5806067172
 30
0.0
 11
209.324081803
 21
160.1306067172
 31
0.0
 12
209.324081803
 22
161.0306067172
 32
0.0
 13
209.324081803
 23
161.0306067172
 33
0.0
  0
SOLID
  5
1D2
330
1CE
100
AcDbEntity
  8
VERMASSUNG
100
AcDbTrace
 10
252.824081803
 20
160.5806067172
 30
0.0
 11
249.824081803
 21
161.0306067172
 31
0.0
 12
249.824081803
 22
160.1306067172
 32
0.0
 13
249.824081803
 23
160.1306067172
 33
0.0
  0
LINE
  5
1D3
330
1CE
100
AcDbEntity
  8
VERMASSUNG
100
AcDbLine
 10
206.324081803
 20
114.9612134345
 30
0.0
 11
206.324081803
 21
161.5806067172
 31
0.0
  0
LINE
  5
1D4
330
1CE
100
AcDbEntity
  8
VERMASSUNG
100
AcDbLine
 10
252.824081803
 20
119.2124324511
 30
0.0
 11
252.824081803
 21
161.5806067172
 31
0.0
  0
LINE
  5
1D5
330
1CE
100
AcDbEntity
  8
VERMASSUNG
100
AcDbLine
 10
206.324081803
 20
160.5806067172
 30
0.0
 11
252.824081803
 21
160.5806067172
 31
0.0
  0
MTEXT
  5
1D6
330
1CE
100
AcDbEntity
  8
VERMASSUNG
100
AcDbMText
 10
227.0746950208
 20
163.1587420804
 30
0.0
 40
2.0
 41
0.0
 71
     1
 72
     1
  1
46.5
  7
SLDTEXTSTYLE0
 73
     1
 44
1.0
  0
ENDBLK
  5
1D0
330
1CE
100
AcDbEntity
  8
0
100
AcDbBlockEnd
  0
BLOCK
  5
1DA
330
1D9
100
AcDbEntity
  8
0
100
AcDbBlockBegin
  2
*D3
 70
     1
 10
0.0
 20
0.0
 30
0.0
  3
*D3
  1

  0
SOLID
  5
1DC
330
1D9
100
AcDbEntity
  8
VERMASSUNG
100
AcDbTrace
 10
258.732936078
 20
103.0612134345
 30
0.0
 11
259.182936078
 21
106.0612134345
 31
0.0
 12
258.282936078
 22
106.0612134345
 32
0.0
 13
258.282936078
 23
106.0612134345
 33
0.0
  0
SOLID
  5
1DD
330
1D9
100
AcDbEntity
  8
VERMASSUNG
100
AcDbTrace
 10
258.732936078
 20
115.0612134345
 30
0.0
 11
258.282936078
 21
112.0612134345
 31
0.0
 12
259.182936078
 22
112.0612134345
 32
0.0
 13
259.182936078
 23
112.0612134345
 33
0.0
  0
LINE
  5
1DE
330
1D9
100
AcDbEntity
  8
VERMASSUNG
100
AcDbLine
 10
249.324081803
 20
103.0612134345
 30
0.0
 11
259.732936078
 21
103.0612134345
 31
0.0
  0
LINE
  5
1DF
330
1D9
100
AcDbEntity
  8
VERMASSUNG
100
AcDbLine
 10
249.324081803
 20
115.0612134345
 30
0.0
 11
259.732936078
 21
115.0612134345
 31
0.0
  0
LINE
  5
1E0
330
1D9
100
AcDbEntity
  8
VERMASSUNG
100
AcDbLine
 10
258.732936078
 20
103.0612134345
 30
0.0
 11
258.732936078
 21
115.0612134345
 31
0.0
  0
MTEXT
  5
1E1
330
1D9
100
AcDbEntity
  8
VERMASSUNG
100
AcDbMText
 10
256.1548005985
 20
106.0570758397
 30
0.0
 40
2.0
 41
0.0
 71
     1
 72
     1
  1
%%c
  7
SLDTEXTSTYLE0
 11
6.123233995736766E-17
 21
1.0
 31
0.0
 73
     1
 44
1.0
  0
MTEXT
  5
1E2
330
1D9
100
AcDbEntity
  8
VERMASSUNG
100
AcDbMText
 10
256.1548007149
 20
109.6657540628
 30
0.0
 40
2.0
 41
0.0
 71
     1
 72
     1
  1
12
  7
SLDTEXTSTYLE0
 11
6.123233995736766E-17
 21
1.0
 31
0.0
 73
     1
 44
1.0
  0
ENDBLK
  5
1DB
330
1D9
100
AcDbEntity
  8
0
100
AcDbBlockEnd
  0
BLOCK
  5
1E6
330
1E5
100
AcDbEntity
  8
0
100
AcDbBlockBegin
  2
*D4
 70
     1
 10
0.0
 20
0.0
 30
0.0
  3
*D4
  1

  0
SOLID
  5
1E8
330
1E5
100
AcDbEntity
  8
VERMASSUNG
100
AcDbTrace
 10
264.732936078
 20
97.0612134345
 30
0.0
 11
265.182936078
 21
100.0612134345
 31
0.0
 12
264.282936078
 22
100.0612134345
 32
0.0
 13
264.282936078
 23
100.0612134345
 33
0.0
  0
SOLID
  5
1E9
330
1E5
100
AcDbEntity
  8
VERMASSUNG
100
AcDbTrace
 10
264.732936078
 20
121.0612134345
 30
0.0
 11
264.282936078
 21
118.0612134345
 31
0.0
 12
265.182936078
 22
118.0612134345
 32
0.0
 13
265.182936078
 23
118.0612134345
 33
0.0
  0
LINE
  5
1EA
330
1E5
100
AcDbEntity
  8
VERMASSUNG
100
AcDbLine
 10
252.824081803
 20
97.0612134345
 30
0.0
 11
265.732936078
 21
97.0612134345
 31
0.0
  0
LINE
  5
1EB
330
1E5
100
AcDbEntity
  8
VERMASSUNG
100
AcDbLine
 10
252.824081803
 20
121.0612134345
 30
0.0
 11
265.732936078
 21
121.0612134345
 31
0.0
  0
LINE
  5
1EC
330
1E5
100
AcDbEntity
  8
VERMASSUNG
100
AcDbLine
 10
264.732936078
 20
97.0612134345
 30
0.0
 11
264.732936078
 21
121.0612134345
 31
0.0
  0
MTEXT
  5
1ED
330
1E5
100
AcDbEntity
  8
VERMASSUNG
100
AcDbMText
 10
262.1548005985
 20
105.7577063922
 30
0.0
 40
2.0
 41
0.0
 71
     1
 72
     1
  1
%%c
  7
SLDTEXTSTYLE0
 11
6.123233995736766E-17
 21
1.0
 31
0.0
 73
     1
 44
1.0
  0
MTEXT
  5
1EE
330
1E5
100
AcDbEntity
  8
VERMASSUNG
100
AcDbMText
 10
262.1548007149
 20
109.3663846154
 30
0.0
 40
2.0
 41
0.0
 71
     1
 72
     1
  1
24
  7
SLDTEXTSTYLE0
 11
6.123233995736766E-17
 21
1.0
 31
0.0
 73
     1
 44
1.0
  0
ENDBLK
  5
1E7
330
1E5
100
AcDbEntity
  8
0
100
AcDbBlockEnd
  0
BLOCK
  5
1F1
330
1F0
100
AcDbEntity
  8
0
100
AcDbBlockBegin
  2
*D5
 70
     1
 10
0.0
 20
0.0
 30
0.0
  3
*D5
  1

  0
SOLID
  5
1F3
330
1F0
100
AcDbEntity
  8
VERMASSUNG
100
AcDbTrace
 10
92.824081803
 20
172.5806067172
 30
0.0
 11
95.824081803
 21
172.1306067172
 31
0.0
 12
95.824081803
 22
173.0306067172
 32
0.0
 13
95.824081803
 23
173.0306067172
 33
0.0
  0
SOLID
  5
1F4
330
1F0
100
AcDbEntity
  8
VERMASSUNG
100
AcDbTrace
 10
252.824081803
 20
172.5806067172
 30
0.0
 11
249.824081803
 21
173.0306067172
 31
0.0
 12
249.824081803
 22
172.1306067172
 32
0.0
 13
249.824081803
 23
172.1306067172
 33
0.0
  0
LINE
  5
1F5
330
1F0
100
AcDbEntity
  8
VERMASSUNG
100
AcDbLine
 10
92.824081803
 20
158.5612134345
 30
0.0
 11
92.824081803
 21
173.5806067172
 31
0.0
  0
LINE
  5
1F6
330
1F0
100
AcDbEntity
  8
VERMASSUNG
100
AcDbLine
 10
252.824081803
 20
119.2124324511
 30
0.0
 11
252.824081803
 21
173.5806067172
 31
0.0
  0
LINE
  5
1F7
330
1F0
100
AcDbEntity
  8
VERMASSUNG
100
AcDbLine
 10
92.824081803
 20
172.5806067172
 30
0.0
 11
252.824081803
 21
172.5806067172
 31
0.0
  0
MTEXT
  5
1F8
330
1F0
100
AcDbEntity
  8
VERMASSUNG
100
AcDbMText
 10
170.9245942624
 20
175.1587420804
 30
0.0
 40
2.0
 41
0.0
 71
     1
 72
     1
  1
160
  7
SLDTEXTSTYLE0
 73
     1
 44
1.0
  0
ENDBLK
  5
1F2
330
1F0
100
AcDbEntity
  8
0
100
AcDbBlockEnd
  0
BLOCK
  5
1FB
330
1FA
100
AcDbEntity
  8
0
100
AcDbBlockBegin
  2
*D6
 70
     1
 10
0.0
 20
0.0
 30
0.0
  3
*D6
  1

  0
SOLID
  5
1FD
330
1FA
100
AcDbEntity
  8
VERMASSUNG
100
AcDbTrace
 10
121.774081803
 20
166.5806067172
 30
0.0
 11
124.774081803
 21
166.1306067172
 31
0.0
 12
124.774081803
 22
167.0306067172
 32
0.0
 13
124.774081803
 23
167.0306067172
 33
0.0
  0
SOLID
  5
1FE
330
1FA
100
AcDbEntity
  8
VERMASSUNG
100
AcDbTrace
 10
252.824081803
 20
166.5806067172
 30
0.0
 11
249.824081803
 21
167.0306067172
 31
0.0
 12
249.824081803
 22
166.1306067172
 32
0.0
 13
249.824081803
 23
166.1306067172
 33
0.0
  0
LINE
  5
1FF
330
1FA
100
AcDbEntity
  8
VERMASSUNG
100
AcDbLine
 10
121.774081803
 20
157.0299532553
 30
0.0
 11
121.774081803
 21
167.5806067172
 31
0.0
  0
LINE
  5
200
330
1FA
100
AcDbEntity
  8
VERMASSUNG
100
AcDbLine
 10
252.824081803
 20
119.199144083
 30
0.0
 11
252.824081803
 21
167.5806067172
 31
0.0
  0
LINE
  5
201
330
1FA
100
AcDbEntity
  8
VERMASSUNG
100
AcDbLine
 10
121.774081803
 20
166.5806067172
 30
0.0
 11
252.824081803
 21
166.5806067172
 31
0.0
  0
MTEXT
  5
202
330
1FA
100
AcDbEntity
  8
VERMASSUNG
100
AcDbMText
 10
183.899265985
 20
169.1587420804
 30
0.0
 40
2.0
 41
0.0
 71
     1
 72
     1
  1
131.05
  7
SLDTEXTSTYLE0
 73
     1
 44
1.0
  0
ENDBLK
  5
1FC
330
1FA
100
AcDbEntity
  8
0
100
AcDbBlockEnd
  0
BLOCK
  5
205
330
204
100
AcDbEntity
  8
0
100
AcDbBlockBegin
  2
*D7
 70
     1
 10
0.0
 20
0.0
 30
0.0
  3
*D7
  1

  0
SOLID
  5
207
330
204
100
AcDbEntity
  8
VERMASSUNG
100
AcDbTrace
 10
42.924081803
 20
178.5806067172
 30
0.0
 11
45.924081803
 21
178.1306067172
 31
0.0
 12
45.924081803
 22
179.0306067172
 32
0.0
 13
45.924081803
 23
179.0306067172
 33
0.0
  0
SOLID
  5
208
330
204
100
AcDbEntity
  8
VERMASSUNG
100
AcDbTrace
 10
252.824081803
 20
178.5806067172
 30
0.0
 11
249.824081803
 21
179.0306067172
 31
0.0
 12
249.824081803
 22
178.1306067172
 32
0.0
 13
249.824081803
 23
178.1306067172
 33
0.0
  0
LINE
  5
209
330
204
100
AcDbEntity
  8
VERMASSUNG
100
AcDbLine
 10
42.924081803
 20
139.563883177
 30
0.0
 11
42.924081803
 21
179.5806067172
 31
0.0
  0
LINE
  5
20A
330
204
100
AcDbEntity
  8
VERMASSUNG
100
AcDbLine
 10
252.824081803
 20
119.199144083
 30
0.0
 11
252.824081803
 21
179.5806067172
 31
0.0
  0
LINE
  5
20B
330
204
100
AcDbEntity
  8
VERMASSUNG
100
AcDbLine
 10
42.924081803
 20
178.5806067172
 30
0.0
 11
252.824081803
 21
178.5806067172
 31
0.0
  0
MTEXT
  5
20C
330
204
100
AcDbEntity
  8
VERMASSUNG
100
AcDbMText
 10
144.7747957791
 20
181.1587420804
 30
0.0
 40
2.0
 41
0.0
 71
     1
 72
     1
  1
209.9
  7
SLDTEXTSTYLE0
 73
     1
 44
1.0
  0
ENDBLK
  5
206
330
204
100
AcDbEntity
  8
0
100
AcDbBlockEnd
  0
BLOCK
  5
20F
330
20E
100
AcDbEntity
  8
0
100
AcDbBlockBegin
  2
*D8
 70
     1
 10
0.0
 20
0.0
 30
0.0
  3
*D8
  1

  0
SOLID
  5
211
330
20E
100
AcDbEntity
  8
VERMASSUNG
100
AcDbTrace
 10
270.732936078
 20
126.0612134345
 30
0.0
 11
270.282936078
 21
123.0612134345
 31
0.0
 12
271.182936078
 22
123.0612134345
 32
0.0
 13
271.182936078
 23
123.0612134345
 33
0.0
  0
SOLID
  5
212
330
20E
100
AcDbEntity
  8
VERMASSUNG
100
AcDbTrace
 10
270.732936078
 20
92.0612134345
 30
0.0
 11
271.182936078
 21
95.0612134345
 31
0.0
 12
270.282936078
 22
95.0612134345
 32
0.0
 13
270.282936078
 23
95.0612134345
 33
0.0
  0
LINE
  5
213
330
20E
100
AcDbEntity
  8
VERMASSUNG
100
AcDbLine
 10
170.774081803
 20
126.0612134345
 30
0.0
 11
271.732936078
 21
126.0612134345
 31
0.0
  0
LINE
  5
214
330
20E
100
AcDbEntity
  8
VERMASSUNG
100
AcDbLine
 10
170.774081803
 20
92.0612134345
 30
0.0
 11
271.732936078
 21
92.0612134345
 31
0.0
  0
LINE
  5
215
330
20E
100
AcDbEntity
  8
VERMASSUNG
100
AcDbLine
 10
270.732936078
 20
126.0612134345
 30
0.0
 11
270.732936078
 21
92.0612134345
 31
0.0
  0
MTEXT
  5
216
330
20E
100
AcDbEntity
  8
VERMASSUNG
100
AcDbMText
 10
268.1548005985
 20
105.7577063922
 30
0.0
 40
2.0
 41
0.0
 71
     1
 72
     1
  1
%%c
  7
SLDTEXTSTYLE0
 11
-7.044195017643634E-15
 21
1.0
 31
0.0
 73
     1
 44
1.0
  0
MTEXT
  5
217
330
20E
100
AcDbEntity
  8
VERMASSUNG
100
AcDbMText
 10
268.1548007149
 20
109.3663846154
 30
0.0
 40
2.0
 41
0.0
 71
     1
 72
     1
  1
34
  7
SLDTEXTSTYLE0
 11
-7.044195017643634E-15
 21
1.0
 31
0.0
 73
     1
 44
1.0
  0
ENDBLK
  5
210
330
20E
100
AcDbEntity
  8
0
100
AcDbBlockEnd
  0
ENDSEC
  0
SECTION
  2
ENTITIES
  0
MTEXT
  5
45
330
1F
100
AcDbEntity
  8
KOPF_DÜNN
100
AcDbMText
 10
13.8892156294
 20
23.8442973028
 30
0.0
 40
3.0
 41
0.0
 71
     1
 72
     1
  1
HA0.S12.K21.160
  7
SLDTEXTSTYLE0
 73
     1
 44
1.0
  0
MTEXT
  5
46
330
1F
100
AcDbEntity
  8
VERMASSUNG
100
AcDbMText
 10
13.9329988022
 20
28.8834360957
 30
0.0
 40
3.0
 41
0.0
 71
     1
 72
     1
  1
Schrumpffutter_Heat shrink chuck
  7
SLDTEXTSTYLE0
 73
     1
 44
1.0
  0
MTEXT
  5
47
330
1F
100
AcDbEntity
  8
VERMASSUNG
100
AcDbMText
 10
98.8601118557
 20
13.8365368179
 30
0.0
 40
2.0
 41
0.0
 71
     1
 72
     1
  1
Datum: 02.05.2011
  7
SLDTEXTSTYLE0
 73
     1
 44
1.0
  0
MTEXT
  5
49
330
1F
100
AcDbEntity
  8
VERMASSUNG
100
AcDbMText
 10
13.933048693
 20
18.0482802738
 30
0.0
 40
2.0
 41
0.0
 71
     1
 72
     1
  1
DIN 69 893 HSK A 100
  7
SLDTEXTSTYLE1
 73
     1
 44
1.0
  0
MTEXT
  5
4A
330
1F
100
AcDbEntity
  8
VERMASSUNG
100
AcDbMText
 10
13.9808475933
 20
13.9090973692
 30
0.0
 40
2.0
 41
0.0
 71
     1
 72
     1
  1
Gewicht: 2728g
  7
SLDTEXTSTYLE0
 73
     1
 44
1.0
  0
LINE
  5
4B
330
1F
100
AcDbEntity
  8
0
  6
Continuous
 62
     7
370
    15
100
AcDbLine
 10
93.324081803
 20
59.0612134345
 30
0.0
 11
97.774081803
 21
59.0612134345
 31
0.0
  0
LINE
  5
4C
330
1F
100
AcDbEntity
  8
0
  6
Continuous
 62
     7
370
    15
100
AcDbLine
 10
97.8081546354
 20
159.0612134345
 30
0.0
 11
93.324081803
 21
159.0612134345
 31
0.0
  0
ARC
  5
4D
330
1F
100
AcDbEntity
  8
0
  6
Continuous
 62
     7
370
    15
100
AcDbCircle
 10
93.324081803
 20
59.5612134345
 30
0.0
 40
0.5
100
AcDbArc
 50
180.0
 51
270.0
  0
ARC
  5
4E
330
1F
100
AcDbEntity
  8
0
  6
Continuous
 62
     7
370
    15
100
AcDbCircle
 10
93.324081803
 20
158.5612134345
 30
0.0
 40
0.5
100
AcDbArc
 50
90.0
 51
180.0
  0
ARC
  5
4F
330
1F
100
AcDbEntity
  8
0
  6
Continuous
 62
     7
370
    15
100
AcDbCircle
 10
91.9271448845
 20
70.43272811
 30
0.0
 40
0.9962338214386932
100
AcDbArc
 50
25.7988228126
 51
90.0
  0
ARC
  5
50
330
1F
100
AcDbEntity
  8
0
  6
Continuous
 62
     7
370
    15
100
AcDbCircle
 10
91.9271448845
 20
147.6896987589
 30
0.0
 40
0.9962338214386932
100
AcDbArc
 50
270.0
 51
334.2011771874
  0
LINE
  5
51
330
1F
100
AcDbEntity
  8
0
  6
Continuous
 62
     7
370
    15
100
AcDbLine
 10
90.324081803
 20
71.1789619314
 30
0.0
 11
91.1299279574
 21
71.3948877577
 31
0.0
  0
LINE
  5
52
330
1F
100
AcDbEntity
  8
0
  6
Continuous
 62
     7
370
    15
100
AcDbLine
 10
91.1299279574
 20
146.7275391112
 30
0.0
 11
90.324081803
 21
146.9434649375
 31
0.0
  0
LINE
  5
53
330
1F
100
AcDbEntity
  8
0
  6
Continuous
 62
     7
370
    15
100
AcDbLine
 10
71.3434028843
 20
145.9925291199
 30
0.0
 11
53.024081803
 21
145.0747274625
 31
0.0
  0
LINE
  5
54
330
1F
100
AcDbEntity
  8
0
  6
Continuous
 62
     7
370
    15
100
AcDbLine
 10
90.324081803
 20
146.9434649375
 30
0.0
 11
84.2560426485
 21
146.6394549598
 31
0.0
  0
LINE
  5
55
330
1F
100
AcDbEntity
  8
0
  6
Continuous
 62
     7
370
    15
100
AcDbLine
 10
84.256165925
 20
71.482965733
 30
0.0
 11
90.324081803
 21
71.1789619314
 31
0.0
  0
LINE
  5
56
330
1F
100
AcDbEntity
  8
0
  6
Continuous
 62
     7
370
    15
100
AcDbLine
 10
58.024081803
 20
72.7971984044
 30
0.0
 11
71.3440329569
 21
72.1298661823
 31
0.0
  0
ARC
  5
57
330
1F
100
AcDbEntity
  8
0
  6
Continuous
 62
     7
370
    15
100
AcDbCircle
 10
91.3887470025
 20
70.4289619314
 30
0.0
 40
1.0
100
AcDbArc
 50
90.0
 51
105.0
  0
ARC
  5
58
330
1F
100
AcDbEntity
  8
0
  6
Continuous
 62
     7
370
    15
100
AcDbCircle
 10
91.3887470025
 20
147.6934649375
 30
0.0
 40
1.0
100
AcDbArc
 50
255.0
 51
270.0
  0
LINE
  5
59
330
1F
100
AcDbEntity
  8
0
  6
Continuous
 62
     7
370
    15
100
AcDbLine
 10
91.3887470025
 20
71.4289619314
 30
0.0
 11
91.9271448845
 21
71.4289619314
 31
0.0
  0
LINE
  5
5A
330
1F
100
AcDbEntity
  8
0
  6
Continuous
 62
     7
370
    15
100
AcDbLine
 10
91.9271448845
 20
146.6934649375
 30
0.0
 11
91.3887470025
 21
146.6934649375
 31
0.0
  0
ARC
  5
5B
330
1F
100
AcDbEntity
  8
0
  6
Continuous
 62
     7
370
    15
100
AcDbCircle
 10
126.774081803
 20
83.1435937283
 30
0.0
 40
5.0
100
AcDbArc
 50
106.5116637356
 51
180.0
  0
ARC
  5
5C
330
1F
100
AcDbEntity
  8
0
  6
Continuous
 62
     7
370
    15
100
AcDbCircle
 10
126.774081803
 20
134.9788331406
 30
0.0
 40
5.0
100
AcDbArc
 50
180.0
 51
253.4883362644
  0
ARC
  5
5D
330
1F
100
AcDbEntity
  8
0
  6
Continuous
 62
     7
370
    15
100
AcDbCircle
 10
153.774081803
 20
-7.9387865655
 30
0.0
 40
100.0
100
AcDbArc
 50
90.0
 51
106.5116637356
  0
ARC
  5
5E
330
1F
100
AcDbEntity
  8
0
  6
Continuous
 62
     7
370
    15
100
AcDbCircle
 10
153.774081803
 20
226.0612134345
 30
0.0
 40
100.0
100
AcDbArc
 50
253.4883362644
 51
270.0
  0
LINE
  5
5F
330
1F
100
AcDbEntity
  8
0
  6
Continuous
 62
     7
370
    15
100
AcDbLine
 10
44.574081803
 20
76.8112134345
 30
0.0
 11
56.124081803
 21
76.8112134345
 31
0.0
  0
LINE
  5
60
330
1F
100
AcDbEntity
  8
0
  6
Continuous
 62
     7
370
    15
100
AcDbLine
 10
165.2728597332
 20
92.0612134345
 30
0.0
 11
170.774081803
 21
92.0612134345
 31
0.0
  0
LINE
  5
61
330
1F
100
AcDbEntity
  8
0
  6
Continuous
 62
     7
370
    15
100
AcDbLine
 10
153.774081803
 20
92.0612134345
 30
0.0
 11
158.284436707
 21
92.0612134345
 31
0.0
  0
LINE
  5
62
330
1F
100
AcDbEntity
  8
0
  6
Continuous
 62
     7
370
    15
100
AcDbLine
 10
158.2760794051
 20
126.0612134345
 30
0.0
 11
153.774081803
 21
126.0612134345
 31
0.0
  0
LINE
  5
63
330
1F
100
AcDbEntity
  8
0
  6
Continuous
 62
     7
370
    15
100
AcDbLine
 10
170.774081803
 20
126.0612134345
 30
0.0
 11
165.2700884329
 21
126.0612134345
 31
0.0
  0
ARC
  5
64
330
1F
100
AcDbEntity
  8
0
  6
Continuous
 62
     7
370
    15
100
AcDbCircle
 10
198.6846532769
 20
-296.9387865655
 30
0.0
 40
390.0
100
AcDbArc
 50
90.0
 51
94.1039132162
  0
ARC
  5
65
330
1F
100
AcDbEntity
  8
0
  6
Continuous
 62
     7
370
    15
100
AcDbCircle
 10
198.6846532769
 20
515.0612134345
 30
0.0
 40
389.9999999999999
100
AcDbArc
 50
265.8960867838
 51
270.0
  0
ARC
  5
66
330
1F
100
AcDbEntity
  8
0
  6
Continuous
 62
     7
370
    15
100
AcDbCircle
 10
56.124081803
 20
74.9112134345
 30
0.0
 40
1.900000000000011
100
AcDbArc
 50
35.6630613694
 51
90.0
  0
ARC
  5
67
330
1F
100
AcDbEntity
  8
0
  6
Continuous
 62
     7
370
    15
100
AcDbCircle
 10
51.124081803
 20
143.2112134345
 30
0.0
 40
1.900000000000006
100
AcDbArc
 50
270.0
 51
312.7708047792
  0
LINE
  5
68
330
1F
100
AcDbEntity
  8
0
  6
Continuous
 62
     7
370
    15
100
AcDbLine
 10
44.574081803
 20
141.3112134345
 30
0.0
 11
42.980865441
 21
139.7179970725
 31
0.0
  0
LINE
  5
69
330
1F
100
AcDbEntity
  8
0
  6
Continuous
 62
     7
370
    15
100
AcDbLine
 10
42.9816047034
 20
78.403690534
 30
0.0
 11
44.574081803
 21
76.8112134345
 31
0.0
  0
LINE
  5
6A
330
1F
100
AcDbEntity
  8
0
  6
Continuous
 62
     7
370
    15
100
AcDbLine
 10
51.124081803
 20
141.3112134345
 30
0.0
 11
44.574081803
 21
141.3112134345
 31
0.0
  0
LINE
  5
6B
330
1F
100
AcDbEntity
  8
0
  6
Continuous
 62
     7
370
    15
100
AcDbLine
 10
198.6846532769
 20
93.0612134345
 30
0.0
 11
201.9992628583
 21
93.0612134345
 31
0.0
  0
LINE
  5
6C
330
1F
100
AcDbEntity
  8
0
  6
Continuous
 62
     7
370
    15
100
AcDbLine
 10
201.9992628583
 20
125.0612134345
 30
0.0
 11
198.6846532769
 21
125.0612134345
 31
0.0
  0
LINE
  5
6D
330
1F
100
AcDbEntity
  8
0
  6
Continuous
 62
     7
370
    15
100
AcDbLine
 10
201.9992628583
 20
93.0612134345
 30
0.0
 11
250.9809999944
 21
96.9161597503
 31
0.0
  0
LINE
  5
6E
330
1F
100
AcDbEntity
  8
0
  6
Continuous
 62
     7
370
    15
100
AcDbLine
 10
250.9809999944
 20
121.2062671186
 30
0.0
 11
201.9992628583
 21
125.0612134345
 31
0.0
  0
ARC
  5
6F
330
1F
100
AcDbEntity
  8
0
  6
Continuous
 62
     7
370
    15
100
AcDbCircle
 10
250.824081803
 20
98.9099944178
 30
0.0
 40
2.000000000000004
100
AcDbArc
 50
274.5
 51
353.0847181901
  0
ARC
  5
70
330
1F
100
AcDbEntity
  8
0
  6
Continuous
 62
     7
370
    15
100
AcDbCircle
 10
250.824081803
 20
119.2124324511
 30
0.0
 40
2.0
100
AcDbArc
 50
0.0
 51
85.5
  0
LINE
  5
71
330
1F
100
AcDbEntity
  8
0
  6
Continuous
 62
     7
370
    15
100
AcDbLine
 10
252.8425142865
 20
119.2809301359
 30
0.0
 11
252.8210982619
 21
119.3216353034
 31
0.0
  0
LINE
  5
72
330
1F
100
AcDbEntity
  8
0
  6
Continuous
 62
     7
370
    15
100
AcDbLine
 10
252.8095323309
 20
98.6691911763
 30
0.0
 11
252.9014040101
 21
98.8438105165
 31
0.0
  0
SPLINE
  5
73
330
1F
100
AcDbEntity
  8
0
  6
Continuous
 62
     7
370
    15
100
AcDbSpline
210
0.0
220
0.0
230
1.0
 70
     8
 71
     3
 72
    80
 73
    76
 74
     0
 42
0.00000001
 43
0.00000001
 40
-0.0312499999999993
 40
-0.0312499999999993
 40
0.0
 40
0.0
 40
0.0312500000000006
 40
0.0312500000000006
 40
0.0468750000000008
 40
0.0468750000000008
 40
0.062500000000001
 40
0.062500000000001
 40
0.0937500000000012
 40
0.0937500000000012
 40
0.1250000000000014
 40
0.1250000000000014
 40
0.1562500000000016
 40
0.1562500000000016
 40
0.1875000000000017
 40
0.1875000000000017
 40
0.2187500000000019
 40
0.2187500000000019
 40
0.2500000000000021
 40
0.2500000000000021
 40
0.2812500000000023
 40
0.2812500000000023
 40
0.3125000000000025
 40
0.3125000000000025
 40
0.3281250000000026
 40
0.3281250000000026
 40
0.3437500000000028
 40
0.3437500000000028
 40
0.3750000000000032
 40
0.3750000000000032
 40
0.4062500000000037
 40
0.4062500000000037
 40
0.4218750000000038
 40
0.4218750000000038
 40
0.4375000000000038
 40
0.4375000000000038
 40
0.4687500000000037
 40
0.4687500000000037
 40
0.5000000000000036
 40
0.5000000000000036
 40
0.5312500000000036
 40
0.5312500000000036
 40
0.5625000000000034
 40
0.5625000000000034
 40
0.5937500000000034
 40
0.5937500000000034
 40
0.6250000000000034
 40
0.6250000000000034
 40
0.6562500000000033
 40
0.6562500000000033
 40
0.6875000000000033
 40
0.6875000000000033
 40
0.7031250000000033
 40
0.7031250000000033
 40
0.7187500000000033
 40
0.7187500000000033
 40
0.7500000000000036
 40
0.7500000000000036
 40
0.7812500000000039
 40
0.7812500000000039
 40
0.7968750000000038
 40
0.7968750000000038
 40
0.8125000000000037
 40
0.8125000000000037
 40
0.8437500000000031
 40
0.8437500000000031
 40
0.8750000000000024
 40
0.8750000000000024
 40
0.9062500000000019
 40
0.9062500000000019
 40
0.9375000000000013
 40
0.9375000000000013
 40
0.9687500000000007
 40
0.9687500000000007
 40
1.0
 40
1.0
 40
1.031250000000001
 40
1.031250000000001
 10
101.493536490209
 20
152.4758428980842
 30
0.0
 10
102.1546271157615
 20
152.4758428980842
 30
0.0
 10
102.4796072450132
 20
152.4920511294664
 30
0.0
 10
102.9590806562596
 20
152.5394157614859
 30
0.0
 10
103.1175624741004
 20
152.5590699733766
 30
0.0
 10
103.4317820066047
 20
152.6061811295693
 30
0.0
 10
103.5879022902851
 20
152.633762449064
 30
0.0
 10
104.0419563192417
 20
152.7262982358577
 30
0.0
 10
104.3290597021815
 20
152.8013686694543
 30
0.0
 10
104.8724142582085
 20
152.9766069780648
 30
0.0
 10
105.1295178694141
 20
153.0776082759031
 30
0.0
 10
105.5904241243529
 20
153.294964474364
 30
0.0
 10
105.7973218335678
 20
153.4121288061362
 30
0.0
 10
106.1628471475601
 20
153.6621987303649
 30
0.0
 10
106.318052669686
 20
153.7931448191238
 30
0.0
 10
106.5674830562857
 20
154.0588797628362
 30
0.0
 10
106.6635730120709
 20
154.1956333561471
 30
0.0
 10
106.7920918612645
 20
154.4696989309861
 30
0.0
 10
106.8239027314422
 20
154.6046390214549
 30
0.0
 10
106.8242593812155
 20
154.8701106585237
 30
0.0
 10
106.7917621290185
 20
155.001935135665
 30
0.0
 10
106.664136655304
 20
155.2513847352853
 30
0.0
 10
106.5697082542521
 20
155.3698174272133
 30
0.0
 10
106.3818474342665
 20
155.5386866243074
 30
0.0
 10
106.3110194354633
 20
155.5937726194277
 30
0.0
 10
106.156297543498
 20
155.6990254479161
 30
0.0
 10
106.0723210733146
 20
155.7493606766764
 30
0.0
 10
105.8009974036702
 20
155.8939365092144
 30
0.0
 10
105.5944481850679
 20
155.9817980956315
 30
0.0
 10
105.1278380448789
 20
156.141519188631
 30
0.0
 10
104.8754724752534
 20
156.2107574850982
 30
0.0
 10
104.4695711335747
 20
156.300544874328
 30
0.0
 10
104.3296705160972
 20
156.3281108364143
 30
0.0
 10
104.0404465808503
 20
156.3786016373405
 30
0.0
 10
103.890607124561
 20
156.4015650761912
 30
0.0
 10
103.4364905549502
 20
156.46219559261
 30
0.0
 10
103.1248393362134
 20
156.4922696214058
 30
0.0
 10
102.483842871301
 20
156.5328592086645
 30
0.0
 10
102.1523152433488
 20
156.5431714388806
 30
0.0
 10
101.4995241982773
 20
156.5432470060463
 30
0.0
 10
101.1749879932455
 20
156.5333454005786
 30
0.0
 10
100.5297185438291
 20
156.4928588700533
 30
0.0
 10
100.2139755376664
 20
156.4623975701687
 30
0.0
 10
99.61208624268266
 20
156.3822468987321
 30
0.0
 10
99.32133701187121
 20
156.3319646669249
 30
0.0
 10
98.7744252201867
 20
156.211294484152
 30
0.0
 10
98.52264785634979
 20
156.1420706249819
 30
0.0
 10
98.06125986372865
 20
155.9846188973412
 30
0.0
 10
97.84999058413057
 20
155.8952704226675
 30
0.0
 10
97.48668623175436
 20
155.7020225519667
 30
0.0
 10
97.33287958331158
 20
155.5978945600874
 30
0.0
 10
97.14426011371417
 20
155.4292701739039
 30
0.0
 10
97.08822962750506
 20
155.370641772229
 30
0.0
 10
96.9926558657689
 20
155.2511868574028
 30
0.0
 10
96.95289294874391
 20
155.1902670685646
 30
0.0
 10
96.85712119843176
 20
155.0038623423907
 30
0.0
 10
96.82439835930565
 20
154.8747495245957
 30
0.0
 10
96.82376977297656
 20
154.6060926016398
 30
0.0
 10
96.85595591771134
 20
154.470721860883
 30
0.0
 10
96.95086661956692
 20
154.267171552647
 30
0.0
 10
96.99033340296589
 20
154.1991996285836
 30
0.0
 10
97.08526340168676
 20
154.0631074054527
 30
0.0
 10
97.14102022945013
 20
153.9947573052433
 30
0.0
 10
97.32896034742004
 20
153.7940542922011
 30
0.0
 10
97.4823218171362
 20
153.6646660183884
 30
0.0
 10
97.84458605201655
 20
153.4160005863386
 30
0.0
 10
98.05543452548245
 20
153.2961909439704
 30
0.0
 10
98.51610449580139
 20
153.0786686563978
 30
0.0
 10
98.76747887538521
 20
152.9795835565618
 30
0.0
 10
99.31338676228334
 20
152.802911082645
 30
0.0
 10
99.60420933693456
 20
152.726853994511
 30
0.0
 10
100.2055359517146
 20
152.604009017158
 30
0.0
 10
100.520054536327
 20
152.5563028921048
 30
0.0
 10
101.1666359924469
 20
152.4920543569852
 30
0.0
 10
101.493536490209
 20
152.4758428980842
 30
0.0
 10
102.1546271157615
 20
152.4758428980842
 30
0.0
  0
LINE
  5
74
330
1F
100
AcDbEntity
  8
0
  6
Continuous
 62
     7
370
    15
100
AcDbLine
 10
97.774081803
 20
140.4112134345
 30
0.0
 11
109.5620527821
 21
140.4112134345
 31
0.0
  0
LINE
  5
75
330
1F
100
AcDbEntity
  8
0
  6
Continuous
 62
     7
370
    15
100
AcDbLine
 10
109.5620527821
 20
60.2862198414
 30
0.0
 11
109.5620527821
 21
140.4112134345
 31
0.0
  0
LINE
  5
76
330
1F
100
AcDbEntity
  8
0
  6
Continuous
 62
     7
370
    15
100
AcDbLine
 10
109.5620527821
 20
60.2862198414
 30
0.0
 11
107.774081803
 21
60.2862198414
 31
0.0
  0
SPLINE
  5
77
330
1F
100
AcDbEntity
  8
0
  6
Continuous
 62
     7
370
    15
100
AcDbSpline
210
0.0
220
0.0
230
1.0
 70
     8
 71
     3
 72
    30
 73
    26
 74
     0
 42
0.00000001
 43
0.00000001
 40
0.0
 40
0.0
 40
0.0
 40
0.0
 40
0.1249999999999998
 40
0.1249999999999998
 40
0.1874999999999996
 40
0.1874999999999996
 40
0.2499999999999995
 40
0.2499999999999995
 40
0.3749999999999994
 40
0.3749999999999994
 40
0.4374999999999993
 40
0.4374999999999993
 40
0.4999999999999992
 40
0.4999999999999992
 40
0.6249999999999996
 40
0.6249999999999996
 40
0.6874999999999997
 40
0.6874999999999997
 40
0.7499999999999998
 40
0.7499999999999998
 40
0.8124999999999999
 40
0.8124999999999999
 40
0.8749999999999999
 40
0.8749999999999999
 40
1.0
 40
1.0
 40
1.0
 40
1.0
 10
107.7740818029852
 20
60.28621984142413
 30
0.0
 10
107.1113371091402
 20
60.28621984142413
 30
0.0
 10
106.4600812500245
 20
60.27137976483531
 30
0.0
 10
105.4996307117662
 20
60.22901020060572
 30
0.0
 10
105.1822392685333
 20
60.21153209782651
 30
0.0
 10
104.5530757669784
 20
60.17020381127425
 30
0.0
 10
104.2409275805367
 20
60.14627853781652
 30
0.0
 10
103.3336202786884
 20
60.06747202134962
 30
0.0
 10
102.7601953210472
 20
60.00516600137314
 30
0.0
 10
101.9463184514725
 20
59.90203668113377
 30
0.0
 10
101.6815122549026
 20
59.86585276208728
 30
0.0
 10
101.1746048440883
 20
59.79205797788677
 30
0.0
 10
100.9332106927348
 20
59.75458411911513
 30
0.0
 10
100.2440692206025
 20
59.64187217577538
 30
0.0
 10
99.83101440573823
 20
59.56633607830162
 30
0.0
 10
99.28285958636317
 20
59.45794282128412
 30
0.0
 10
99.11339697901758
 20
59.42287058962086
 30
0.0
 10
98.8053797310022
 20
59.35663512902101
 30
0.0
 10
98.66599971039385
 20
59.3253084322663
 30
0.0
 10
98.4162141977671
 20
59.26689966068537
 30
0.0
 10
98.30580808511318
 20
59.23981642550252
 30
0.0
 10
98.11455023147548
 20
59.19055667088891
 30
0.0
 10
98.03343071319118
 20
59.16829469108128
 30
0.0
 10
97.83928379308279
 20
59.11072778391299
 30
0.0
 10
97.77408180298522
 20
59.08446817912699
 30
0.0
 10
97.77408180298522
 20
59.07121443465298
 30
0.0
  0
LINE
  5
78
330
1F
100
AcDbEntity
  8
0
  6
Continuous
 62
     7
370
    15
100
AcDbLine
 10
97.774081803
 20
59.0712144347
 30
0.0
 11
97.774081803
 21
59.0612134345
 31
0.0
  0
SPLINE
  5
79
330
1F
100
AcDbEntity
  8
0
  6
Continuous
 62
     7
370
    15
100
AcDbSpline
210
0.0
220
0.0
230
1.0
 70
     8
 71
     3
 72
    17
 73
    13
 74
     0
 42
0.00000001
 43
0.00000001
 40
0.0
 40
0.0
 40
0.0
 40
0.0
 40
0.104384384054747
 40
0.2118345768143992
 40
0.3162082005190449
 40
0.4235375806108391
 40
0.529227623619385
 40
0.6379275864803489
 40
0.744471484418968
 40
0.8541836219421854
 40
0.9593080534965213
 40
1.0
 40
1.0
 40
1.0
 40
1.0
 10
107.7740818029852
 20
158.0510082901165
 30
0.0
 10
107.2261433551259
 20
158.0563764938653
 30
0.0
 10
106.1141733006611
 20
158.0672705675303
 30
0.0
 10
104.5013173874462
 20
158.1524479417891
 30
0.0
 10
102.9678041704693
 20
158.2788226480817
 30
0.0
 10
101.5767833211326
 20
158.4357254686585
 30
0.0
 10
100.3412668039023
 20
158.6074242981791
 30
0.0
 10
99.317911036747
 20
158.7727605742802
 30
0.0
 10
98.51756903848188
 20
158.9164740538667
 30
0.0
 10
98.00723693656832
 20
159.0146288610459
 30
0.0
 10
97.7673285077438
 20
159.0625572579158
 30
0.0
 10
97.79924728716361
 20
159.0561898586761
 30
0.0
 10
97.8081546354458
 20
159.0544129535529
 30
0.0
  0
LINE
  5
7A
330
1F
100
AcDbEntity
  8
0
  6
Continuous
 62
     7
370
    15
100
AcDbLine
 10
109.5620527821
 20
158.0510082901
 30
0.0
 11
107.774081803
 21
158.0510082901
 31
0.0
  0
LINE
  5
7B
330
1F
100
AcDbEntity
  8
0
  6
Continuous
 62
     7
370
    15
100
AcDbLine
 10
109.5620527821
 20
148.0121761953
 30
0.0
 11
109.5620527821
 21
158.0510082901
 31
0.0
  0
LINE
  5
7C
330
1F
100
AcDbEntity
  8
0
  6
Continuous
 62
     7
370
    15
100
AcDbLine
 10
107.4820486512
 20
148.0121761953
 30
0.0
 11
109.5620527821
 21
148.0121761953
 31
0.0
  0
SPLINE
  5
7D
330
1F
100
AcDbEntity
  8
0
  6
Continuous
 62
     7
370
    15
100
AcDbSpline
210
0.0
220
0.0
230
1.0
 70
     8
 71
     3
 72
    22
 73
    18
 74
     0
 42
0.00000001
 43
0.00000001
 40
0.0
 40
0.0
 40
0.0
 40
0.0
 40
0.2500000000000009
 40
0.2500000000000009
 40
0.3750000000000009
 40
0.3750000000000009
 40
0.500000000000001
 40
0.500000000000001
 40
0.6250000000000009
 40
0.6250000000000009
 40
0.7500000000000007
 40
0.7500000000000007
 40
0.8750000000000004
 40
0.8750000000000004
 40
0.9375000000000002
 40
0.9375000000000002
 40
1.0
 40
1.0
 40
1.0
 40
1.0
 10
97.77408180298522
 20
140.4112134344529
 30
0.0
 10
97.97680675890432
 20
141.4304597763176
 30
0.0
 10
98.2915504806997
 20
142.3895679262569
 30
0.0
 10
98.99960595037066
 20
143.7320470037661
 30
0.0
 10
99.27806858058831
 20
144.1662555865062
 30
0.0
 10
99.91683598722551
 20
144.9778833020083
 30
0.0
 10
100.2772496670157
 20
145.3571635949451
 30
0.0
 10
101.094781899005
 20
146.0601221739661
 30
0.0
 10
101.5559498822921
 20
146.3851509916667
 30
0.0
 10
102.5539401287759
 20
146.9501663150576
 30
0.0
 10
103.0936993227682
 20
147.1938699092641
 30
0.0
 10
104.2682922867995
 20
147.5980698369091
 30
0.0
 10
104.8800284727914
 20
147.7505070299546
 30
0.0
 10
105.8319376976531
 20
147.9058345775633
 30
0.0
 10
106.1551708619138
 20
147.9453393576133
 30
0.0
 10
106.814234033189
 20
147.998648478282
 30
0.0
 10
107.148298043763
 20
148.0121761953399
 30
0.0
 10
107.4820486511645
 20
148.0121761953399
 30
0.0
  0
LINE
  5
7E
330
1F
100
AcDbEntity
  8
0
  6
Continuous
 62
     7
370
    15
100
AcDbLine
 10
110.914081803
 20
62.6898251474
 30
0.0
 11
110.914081803
 21
140.4112134345
 31
0.0
  0
SPLINE
  5
7F
330
1F
100
AcDbEntity
  8
0
  6
Continuous
 62
     7
370
    15
100
AcDbSpline
210
0.0
220
0.0
230
1.0
 70
     8
 71
     3
 72
     8
 73
     4
 74
     0
 42
0.00000001
 43
0.00000001
 40
0.0
 40
0.0
 40
0.0
 40
0.0
 40
1.0
 40
1.0
 40
1.0
 40
1.0
 10
110.9140818029853
 20
62.68982514742946
 30
0.0
 10
110.4638553387074
 20
61.88836978480471
 30
0.0
 10
110.0131575114641
 20
61.08717977324403
 30
0.0
 10
109.5620527820638
 20
60.28621984142412
 30
0.0
  0
SPLINE
  5
80
330
1F
100
AcDbEntity
  8
0
  6
Continuous
 62
     7
370
    15
100
AcDbSpline
210
0.0
220
0.0
230
1.0
 70
    24
 71
     3
 72
     8
 73
     4
 74
     0
 42
0.00000001
 43
0.00000001
 40
0.0
 40
0.0
 40
0.0
 40
0.0
 40
1.0
 40
1.0
 40
1.0
 40
1.0
 10
109.5620527820638
 20
140.4112134344529
 30
0.0
 10
110.0188543543921
 20
140.4112134344529
 30
0.0
 10
110.4698689206313
 20
140.4112134344529
 30
0.0
 10
110.9140818029853
 20
140.4112134344529
 30
0.0
  0
LINE
  5
81
330
1F
100
AcDbEntity
  8
0
  6
Continuous
 62
     7
370
    15
100
AcDbLine
 10
92.824081803
 20
59.5612134345
 30
0.0
 11
92.824081803
 21
158.5612134317
 31
0.0
  0
LINE
  5
82
330
1F
100
AcDbEntity
  8
0
  6
Continuous
 62
     7
370
    15
100
AcDbLine
 10
120.774081803
 20
60.2862198414
 30
0.0
 11
116.0861108239
 21
60.2862198414
 31
0.0
  0
LINE
  5
83
330
1F
100
AcDbEntity
  8
0
  6
Continuous
 62
     7
370
    15
100
AcDbLine
 10
116.0861108239
 20
60.2862198414
 30
0.0
 11
116.0861108239
 21
140.4112134345
 31
0.0
  0
LINE
  5
84
330
1F
100
AcDbEntity
  8
0
  6
Continuous
 62
     7
370
    15
100
AcDbLine
 10
116.0861108239
 20
140.4112134345
 30
0.0
 11
120.774081803
 21
140.4112134345
 31
0.0
  0
LINE
  5
85
330
1F
100
AcDbEntity
  8
0
  6
Continuous
 62
     7
370
    15
100
AcDbLine
 10
121.774081803
 20
61.3118678892
 30
0.0
 11
121.774081803
 21
140.4112134345
 31
0.0
  0
SPLINE
  5
86
330
1F
100
AcDbEntity
  8
0
  6
Continuous
 62
     7
370
    15
100
AcDbSpline
210
0.0
220
0.0
230
1.0
 70
     8
 71
     3
 72
    14
 73
    10
 74
     0
 42
0.00000001
 43
0.00000001
 40
0.0
 40
0.0
 40
0.0
 40
0.0
 40
0.25
 40
0.25
 40
0.5
 40
0.5
 40
0.75
 40
0.75
 40
1.0
 40
1.0
 40
1.0
 40
1.0
 10
121.7740818029852
 20
61.31186788919965
 30
0.0
 10
121.7740818029852
 20
61.1784421931451
 30
0.0
 10
121.7487707030744
 20
61.04659438530075
 30
0.0
 10
121.6504359392296
 20
60.80007183660665
 30
0.0
 10
121.5772919349735
 20
60.68626664836611
 30
0.0
 10
121.3938538738779
 20
60.49580947141883
 30
0.0
 10
121.2821675395393
 20
60.41817460756891
 30
0.0
 10
121.039664109233
 20
60.31388319745645
 30
0.0
 10
120.9062896805388
 20
60.28621984142409
 30
0.0
 10
120.7740818029852
 20
60.2862198414241
 30
0.0
  0
SPLINE
  5
87
330
1F
100
AcDbEntity
  8
0
  6
Continuous
 62
     7
370
    15
100
AcDbSpline
210
0.0
220
0.0
230
1.0
 70
    24
 71
     3
 72
    12
 73
     8
 74
     0
 42
0.00000001
 43
0.00000001
 40
0.0
 40
0.0
 40
0.0
 40
0.0
 40
0.2500000000000032
 40
0.2500000000000032
 40
0.5000000000000064
 40
0.5000000000000064
 40
1.0
 40
1.0
 40
1.0
 40
1.0
 10
120.7740818029852
 20
140.4112134344529
 30
0.0
 10
120.9261720399302
 20
140.4112134344529
 30
0.0
 10
121.0746313010056
 20
140.4112134344529
 30
0.0
 10
121.3320349332714
 20
140.4112134344529
 30
0.0
 10
121.4411396811133
 20
140.4112134344529
 30
0.0
 10
121.6951991575208
 20
140.4112134344529
 30
0.0
 10
121.7740818029852
 20
140.4112134344529
 30
0.0
 10
121.7740818029852
 20
140.4112134344529
 30
0.0
  0
SPLINE
  5
88
330
1F
100
AcDbEntity
  8
0
  6
Continuous
 62
     7
370
    15
100
AcDbSpline
210
0.0
220
0.0
230
1.0
 70
     8
 71
     3
 72
     8
 73
     4
 74
     0
 42
0.00000001
 43
0.00000001
 40
0.0
 40
0.0
 40
0.0
 40
0.0
 40
1.0
 40
1.0
 40
1.0
 40
1.0
 10
116.0861108239066
 20
60.28621984142413
 30
0.0
 10
115.6350060945064
 20
61.08717977324405
 30
0.0
 10
115.184308267263
 20
61.88836978480472
 30
0.0
 10
114.7340818029852
 20
62.68982514742947
 30
0.0
  0
LINE
  5
89
330
1F
100
AcDbEntity
  8
0
  6
Continuous
 62
     7
370
    15
100
AcDbLine
 10
114.734081803
 20
62.6898251474
 30
0.0
 11
114.734081803
 21
140.4112134345
 31
0.0
  0
SPLINE
  5
8A
330
1F
100
AcDbEntity
  8
0
  6
Continuous
 62
     7
370
    15
100
AcDbSpline
210
0.0
220
0.0
230
1.0
 70
    24
 71
     3
 72
     8
 73
     4
 74
     0
 42
0.00000001
 43
0.00000001
 40
0.0
 40
0.0
 40
0.0
 40
0.0
 40
1.0
 40
1.0
 40
1.0
 40
1.0
 10
114.7340818029852
 20
140.4112134344529
 30
0.0
 10
115.1782946853392
 20
140.4112134344529
 30
0.0
 10
115.6293092515784
 20
140.4112134344529
 30
0.0
 10
116.0861108239066
 20
140.4112134344529
 30
0.0
  0
SPLINE
  5
8B
330
1F
100
AcDbEntity
  8
0
  6
Continuous
 62
     7
370
    15
100
AcDbSpline
210
0.0
220
0.0
230
1.0
 70
     8
 71
     3
 72
    14
 73
    10
 74
     0
 42
0.00000001
 43
0.00000001
 40
0.0
 40
0.0
 40
0.0
 40
0.0
 40
0.25
 40
0.25
 40
0.5
 40
0.5
 40
0.75
 40
0.75
 40
1.0
 40
1.0
 40
1.0
 40
1.0
 10
114.7340818029852
 20
63.59803465205805
 30
0.0
 10
114.7340818029852
 20
63.70507873305244
 30
0.0
 10
114.7139641158271
 20
63.81031387329489
 30
0.0
 10
114.6354729265614
 20
64.00816436014256
 30
0.0
 10
114.5773163017602
 20
64.09921612370749
 30
0.0
 10
114.4308010461422
 20
64.25238221763227
 30
0.0
 10
114.3421584975011
 20
64.31467666384168
 30
0.0
 10
114.1464351747008
 20
64.39947044937766
 30
0.0
 10
114.0412039836298
 20
64.42153797640329
 30
0.0
 10
113.9340818029852
 20
64.42153797640329
 30
0.0
  0
SPLINE
  5
8C
330
1F
100
AcDbEntity
  8
0
  6
Continuous
 62
     7
370
    15
100
AcDbSpline
210
0.0
220
0.0
230
1.0
 70
    24
 71
     3
 72
    14
 73
    10
 74
     0
 42
0.00000001
 43
0.00000001
 40
0.0
 40
0.0
 40
0.0
 40
0.0
 40
0.25
 40
0.25
 40
0.5
 40
0.5
 40
0.75
 40
0.75
 40
1.0
 40
1.0
 40
1.0
 40
1.0
 10
113.9340818029852
 20
140.4112134344529
 30
0.0
 10
114.0578515677504
 20
140.4112134344529
 30
0.0
 10
114.1822186717573
 20
140.4112134344529
 30
0.0
 10
114.3885751404833
 20
140.4112134344529
 30
0.0
 10
114.4739032839017
 20
140.4112134344529
 30
0.0
 10
114.6060953426169
 20
140.4112134344529
 30
0.0
 10
114.6547405863675
 20
140.4112134344529
 30
0.0
 10
114.7182763780962
 20
140.4112134344529
 30
0.0
 10
114.7340818029852
 20
140.4112134344529
 30
0.0
 10
114.7340818029852
 20
140.4112134344529
 30
0.0
  0
SPLINE
  5
8D
330
1F
100
AcDbEntity
  8
0
  6
Continuous
 62
     7
370
    15
100
AcDbSpline
210
0.0
220
0.0
230
1.0
 70
     8
 71
     3
 72
    12
 73
     8
 74
     0
 42
0.00000001
 43
0.00000001
 40
0.0
 40
0.0
 40
0.0
 40
0.0
 40
0.250000000000003
 40
0.250000000000003
 40
0.500000000000006
 40
0.500000000000006
 40
1.0
 40
1.0
 40
1.0
 40
1.0
 10
111.7140818029852
 20
64.42153797640329
 30
0.0
 10
111.6083211496363
 20
64.42153797640329
 30
0.0
 10
111.5003335214533
 20
64.3989984704029
 30
0.0
 10
111.3057388561877
 20
64.31442783840757
 30
0.0
 10
111.2168669433489
 20
64.25194618564875
 30
0.0
 10
110.997674651023
 20
64.02255723417652
 30
0.0
 10
110.9140818029852
 20
63.80997389665411
 30
0.0
 10
110.9140818029852
 20
63.5980346520579
 30
0.0
  0
SPLINE
  5
8E
330
1F
100
AcDbEntity
  8
0
  6
Continuous
 62
     7
370
    15
100
AcDbSpline
210
0.0
220
0.0
230
1.0
 70
    24
 71
     3
 72
    14
 73
    10
 74
     0
 42
0.00000001
 43
0.00000001
 40
0.0
 40
0.0
 40
0.0
 40
0.0
 40
0.25
 40
0.25
 40
0.5
 40
0.5
 40
0.75
 40
0.75
 40
1.0
 40
1.0
 40
1.0
 40
1.0
 10
110.9140818029852
 20
140.4112134344529
 30
0.0
 10
110.9140818029852
 20
140.4112134344529
 30
0.0
 10
110.9297961234512
 20
140.4112134344529
 30
0.0
 10
110.9934801019195
 20
140.4112134344529
 30
0.0
 10
111.04208329633
 20
140.4112134344529
 30
0.0
 10
111.1747668187556
 20
140.4112134344529
 30
0.0
 10
111.2598689230663
 20
140.4112134344529
 30
0.0
 10
111.4663111579763
 20
140.4112134344529
 30
0.0
 10
111.5903920995993
 20
140.4112134344529
 30
0.0
 10
111.7140818029852
 20
140.4112134344529
 30
0.0
  0
LINE
  5
8F
330
1F
100
AcDbEntity
  8
0
  6
Continuous
 62
     7
370
    15
100
AcDbLine
 10
113.934081803
 20
64.4215379764
 30
0.0
 11
111.714081803
 21
64.4215379764
 31
0.0
  0
LINE
  5
90
330
1F
100
AcDbEntity
  8
0
  6
Continuous
 62
     7
370
    15
100
AcDbLine
 10
111.714081803
 20
140.4112134345
 30
0.0
 11
113.934081803
 21
140.4112134345
 31
0.0
  0
LINE
  5
91
330
1F
100
AcDbEntity
  8
0
  6
Continuous
 62
     7
370
    15
100
AcDbLine
 10
90.324081803
 20
71.1789619314
 30
0.0
 11
90.324081803
 21
146.9434649375
 31
0.0
  0
LINE
  5
92
330
1F
100
AcDbEntity
  8
0
  6
Continuous
 62
     7
370
    15
100
AcDbLine
 10
58.024081803
 20
72.7971984044
 30
0.0
 11
58.024081803
 21
75.1918801691
 31
0.0
  0
SPLINE
  5
93
330
1F
100
AcDbEntity
  8
0
  6
Continuous
 62
     7
370
    15
100
AcDbSpline
210
0.0
220
0.0
230
1.0
 70
     8
 71
     3
 72
    14
 73
    10
 74
     0
 42
0.00000001
 43
0.00000001
 40
0.0
 40
0.0
 40
0.0
 40
0.0
 40
0.2500000000000008
 40
0.2500000000000008
 40
0.5000000000000006
 40
0.5000000000000006
 40
0.7500000000000003
 40
0.7500000000000003
 40
1.0
 40
1.0
 40
1.0
 40
1.0
 10
57.01965933164828
 20
76.89473209070941
 30
0.0
 10
57.10842790959359
 20
76.73619795940145
 30
0.0
 10
57.23014574827253
 20
76.58375528251291
 30
0.0
 10
57.46519535812933
 20
76.28662065868399
 30
0.0
 10
57.58082554434624
 20
76.1419380150666
 30
0.0
 10
57.78123047777406
 20
75.85864881256322
 30
0.0
 10
57.86663076975837
 20
75.72009481952635
 30
0.0
 10
57.98833640347561
 20
75.44871078949282
 30
0.0
 10
58.02408180298823
 20
75.31657492085819
 30
0.0
 10
58.02408180298823
 20
75.19188016908745
 30
0.0
  0
SPLINE
  5
94
330
1F
100
AcDbEntity
  8
0
  6
Continuous
 62
     7
370
    15
100
AcDbSpline
210
0.0
220
0.0
230
1.0
 70
     8
 71
     3
 72
    14
 73
    10
 74
     0
 42
0.00000001
 43
0.00000001
 40
0.0
 40
0.0
 40
0.0
 40
0.0
 40
0.125000000000005
 40
0.125000000000005
 40
0.2500000000000099
 40
0.2500000000000099
 40
0.5000000000000063
 40
0.5000000000000063
 40
1.0
 40
1.0
 40
1.0
 40
1.0
 10
56.12408180298522
 20
77.52356202980954
 30
0.0
 10
56.19166410276971
 20
77.53071791491091
 30
0.0
 10
56.26415168051763
 20
77.52629344487191
 30
0.0
 10
56.39644278978358
 20
77.49658728710158
 30
0.0
 10
56.45372016917374
 20
77.47330300552332
 30
0.0
 10
56.60337059637405
 20
77.395817765673
 30
0.0
 10
56.67708389189555
 20
77.33396593877164
 30
0.0
 10
56.86489187522176
 20
77.1492884861233
 30
0.0
 10
56.94893218158322
 20
77.0210455628321
 30
0.0
 10
57.01965933164949
 20
76.89473209070951
 30
0.0
  0
SPLINE
  5
95
330
1F
100
AcDbEntity
  8
0
  6
Continuous
 62
     7
370
    15
100
AcDbSpline
210
0.0
220
0.0
230
1.0
 70
     8
 71
     3
 72
     8
 73
     4
 74
     0
 42
0.00000001
 43
0.00000001
 40
0.0
 40
0.0
 40
0.0
 40
0.0
 40
1.0
 40
1.0
 40
1.0
 40
1.0
 10
52.57944141490431
 20
77.10551344501772
 30
0.0
 10
53.74473972561322
 20
77.26070091690434
 30
0.0
 10
54.92935493965309
 20
77.39705955521467
 30
0.0
 10
56.12408180298522
 20
77.52356202980954
 30
0.0
  0
SPLINE
  5
96
330
1F
100
AcDbEntity
  8
0
  6
Continuous
 62
     7
370
    15
100
AcDbSpline
210
0.0
220
0.0
230
1.0
 70
     8
 71
     3
 72
    14
 73
    10
 74
     0
 42
0.00000001
 43
0.00000001
 40
0.0
 40
0.0
 40
0.0
 40
0.0
 40
0.5000000000000001
 40
0.5000000000000001
 40
0.7499999999999989
 40
0.7499999999999989
 40
0.8749999999999996
 40
0.8749999999999996
 40
1.0
 40
1.0
 40
1.0
 40
1.0
 10
44.8240069189549
 20
76.8153812658878
 30
0.0
 10
46.1323084814889
 20
76.82239598962892
 30
0.0
 10
47.43736785614594
 20
76.8378045660734
 30
0.0
 10
49.38324390763463
 20
76.89170112154008
 30
0.0
 10
50.02994141137378
 20
76.91473268614277
 30
0.0
 10
50.9937837752283
 20
76.96567521101349
 30
0.0
 10
51.31402246716243
 20
76.9854101332467
 30
0.0
 10
51.95071769350498
 20
77.03489726171829
 30
0.0
 10
52.26743310178794
 20
77.06396204064752
 30
0.0
 10
52.57944141490434
 20
77.10551344501769
 30
0.0
  0
SPLINE
  5
97
330
1F
100
AcDbEntity
  8
0
  6
Continuous
 62
     7
370
    15
100
AcDbSpline
210
0.0
220
0.0
230
1.0
 70
     8
 71
     3
 72
    12
 73
     8
 74
     0
 42
0.00000001
 43
0.00000001
 40
0.0
 40
0.0
 40
0.0
 40
0.0
 40
0.2500000000000001
 40
0.2500000000000001
 40
0.5000000000000001
 40
0.5000000000000001
 40
1.0
 40
1.0
 40
1.0
 40
1.0
 10
51.12408180298524
 20
141.1477363259494
 30
0.0
 10
50.60538298115705
 20
141.1802591007976
 30
0.0
 10
50.08367140795206
 20
141.2035558419681
 30
0.0
 10
49.0373793914565
 20
141.2414013563902
 30
0.0
 10
48.51270776578622
 20
141.2556698308863
 30
0.0
 10
46.93586174324699
 20
141.2898793183446
 30
0.0
 10
45.8809064287001
 20
141.3013788222885
 30
0.0
 10
44.82400691895489
 20
141.3070456030181
 30
0.0
  0
SPLINE
  5
98
330
1F
100
AcDbEntity
  8
0
  6
Continuous
 62
     7
370
    15
100
AcDbSpline
210
0.0
220
0.0
230
1.0
 70
     8
 71
     3
 72
    20
 73
    16
 74
     0
 42
0.00000001
 43
0.00000001
 40
0.0
 40
0.0
 40
0.0
 40
0.0
 40
0.2499999999999988
 40
0.2499999999999988
 40
0.4999999999999977
 40
0.4999999999999977
 40
0.7499999999999964
 40
0.7499999999999964
 40
0.8749999999999971
 40
0.8749999999999971
 40
0.9374999999999982
 40
0.9374999999999982
 40
0.9687499999999991
 40
0.9687499999999991
 40
1.0
 40
1.0
 40
1.0
 40
1.0
 10
53.02408180298524
 20
142.8058221714375
 30
0.0
 10
53.02408180298524
 20
142.6701398516907
 30
0.0
 10
52.9753700137686
 20
142.5290528655507
 30
0.0
 10
52.80620859054341
 20
142.2369811468201
 30
0.0
 10
52.6844281766251
 20
142.0853324047298
 30
0.0
 10
52.38688108187559
 20
141.7829239645766
 30
0.0
 10
52.21296847617281
 20
141.6303353284533
 30
0.0
 10
51.89355364229101
 20
141.405064564611
 30
0.0
 10
51.77851286684376
 20
141.3303414701003
 30
0.0
 10
51.57142854282733
 20
141.2309310608433
 30
0.0
 10
51.49532070802095
 20
141.1993659684987
 30
0.0
 10
51.36392616846759
 20
141.1649225843057
 30
0.0
 10
51.31737294946612
 20
141.1558710125381
 30
0.0
 10
51.2210395983854
 20
141.1456953636996
 30
0.0
 10
51.17178017502997
 20
141.1447456050246
 30
0.0
 10
51.12408180298325
 20
141.1477363259392
 30
0.0
  0
LINE
  5
99
330
1F
100
AcDbEntity
  8
0
  6
Continuous
 62
     7
370
    15
100
AcDbLine
 10
53.024081803
 20
142.8058221714
 30
0.0
 11
53.024081803
 21
145.0747274625
 31
0.0
  0
SPLINE
  5
9A
330
1F
100
AcDbEntity
  8
0
  6
Continuous
 62
     7
370
    15
100
AcDbSpline
210
0.0
220
0.0
230
1.0
 70
     8
 71
     3
 72
    22
 73
    18
 74
     0
 42
0.00000001
 43
0.00000001
 40
0.0
 40
0.0
 40
0.0
 40
0.0
 40
0.0002937850458186
 40
0.0628841327413374
 40
0.1261981682954104
 40
0.2510182590426629
 40
0.3131038291610295
 40
0.3757650688901447
 40
0.4382989835655121
 40
0.5000628079114054
 40
0.5617337561125819
 40
0.6246555685552126
 40
0.7491916976530685
 40
0.8115302181315633
 40
0.8745847230191042
 40
0.9378227588212174
 40
0.9999999999999999
 40
0.9999999999999999
 40
0.9999999999999999
 40
0.9999999999999999
 10
71.34403806682467
 20
72.12996817614057
 30
0.0
 10
71.34384321341444
 20
72.12994386882072
 30
0.0
 10
71.30213520993343
 20
72.12474093303408
 30
0.0
 10
71.44739831311972
 20
72.14335514092151
 30
0.0
 10
71.91754449028575
 20
72.19988109151771
 30
0.0
 10
72.8860005728719
 20
72.30610272094339
 30
0.0
 10
74.1984603824353
 20
72.39173552837433
 30
0.0
 10
75.33058409106586
 20
72.43039159447355
 30
0.0
 10
76.55277086768709
 20
72.43405290225202
 30
0.0
 10
77.8200692552082
 20
72.39166748748283
 30
0.0
 10
79.08678090943981
 20
72.30329050980615
 30
0.0
 10
80.70243890530958
 20
72.13324138118485
 30
0.0
 10
82.14240151534064
 20
71.91105964662883
 30
0.0
 10
83.2082706715063
 20
71.70806353849459
 30
0.0
 10
83.79747105494309
 20
71.58403810554505
 30
0.0
 10
84.18619057022917
 20
71.49911726510067
 30
0.0
 10
84.23297628305998
 20
71.4883905472963
 30
0.0
 10
84.25617127668781
 20
71.48307255306122
 30
0.0
  0
SPLINE
  5
9B
330
1F
100
AcDbEntity
  8
0
  6
Continuous
 62
     7
370
    15
100
AcDbSpline
210
0.0
220
0.0
230
1.0
 70
     8
 71
     3
 72
    41
 73
    37
 74
     0
 42
0.00000001
 43
0.00000001
 40
0.0
 40
0.0
 40
0.0
 40
0.0
 40
0.0619930061484559
 40
0.1254347783466237
 40
0.1886508898235997
 40
0.2510246408607235
 40
0.3131658188974684
 40
0.3756581641417405
 40
0.4382227146725277
 40
0.499804492294069
 40
0.5615164197174299
 40
0.6240683094121933
 40
0.6867257232409624
 40
0.7488365305144747
 40
0.8110685944254461
 40
0.8741742884451352
 40
0.9373212787639088
 40
0.9685511709612862
 40
0.9842086872484516
 40
0.9920641182530343
 40
0.996000486125458
 40
0.9979710794119774
 40
0.9989570090489371
 40
0.9994501359394937
 40
0.9996967403802097
 40
0.9998200529090677
 40
0.9998817117580786
 40
0.9999125418296593
 40
0.999927957027333
 40
0.9999356646666572
 40
0.9999395184964435
 40
0.9999414454138664
 40
0.999942408873212
 40
0.9999433723329776
 40
0.9999501697003241
 40
1.0
 40
1.0
 40
1.0
 40
1.0
 10
84.2560499462098
 20
146.6393092978932
 30
0.0
 10
84.23247830086642
 20
146.6339998182433
 30
0.0
 10
84.18478414482192
 20
146.6232567773038
 30
0.0
 10
83.7927421553949
 20
146.5380276408481
 30
0.0
 10
83.20222810612357
 20
146.4134588622075
 30
0.0
 10
82.39819066008086
 20
146.2605119160558
 30
0.0
 10
81.42211525989953
 20
146.0987553621023
 30
0.0
 10
80.3003065246211
 20
145.9465225941702
 30
0.0
 10
79.08677560483277
 20
145.8187426529687
 30
0.0
 10
77.82194489843654
 20
145.7308941012861
 30
0.0
 10
76.55390186099226
 20
145.6885086174156
 30
0.0
 10
75.33039450329086
 20
145.692244425387
 30
0.0
 10
74.19689596287157
 20
145.7308398958344
 30
0.0
 10
73.21079015189943
 20
145.7952792671263
 30
0.0
 10
72.40216234311593
 20
145.8687890744077
 30
0.0
 10
71.80554364800449
 20
145.9361027592188
 30
0.0
 10
71.49015235854655
 20
145.9740673104868
 30
0.0
 10
71.38008578974934
 20
145.9878663698189
 30
0.0
 10
71.35266640193436
 20
145.9913524437396
 30
0.0
 10
71.34574435110433
 20
145.992231669433
 30
0.0
 10
71.34397611092055
 20
145.9924524440393
 30
0.0
 10
71.34351573174705
 20
145.99250764675
 30
0.0
 10
71.34339157306216
 20
145.9925213865371
 30
0.0
 10
71.34335601856893
 20
145.9925247823681
 30
0.0
 10
71.34334487449884
 20
145.9925256106884
 30
0.0
 10
71.3433409613027
 20
145.9925258072772
 30
0.0
 10
71.34333941909787
 20
145.9925258512073
 30
0.0
 10
71.34333875209636
 20
145.992525859514
 30
0.0
 10
71.34333844391861
 20
145.9925258603443
 30
0.0
 10
71.34333829715254
 20
145.9925258597991
 30
0.0
 10
71.34333822420011
 20
145.9925258594692
 30
0.0
 10
71.34333818980772
 20
145.9925258590319
 30
0.0
 10
71.34333816756255
 20
145.9925258591205
 30
0.0
 10
71.34333814045313
 20
145.9925258562855
 30
0.0
 10
71.34333562089199
 20
145.9925261431406
 30
0.0
 10
71.34337171081019
 20
145.9925215230399
 30
0.0
 10
71.34340346863343
 20
145.9925174575183
 30
0.0
  0
SPLINE
  5
9C
330
1F
100
AcDbEntity
  8
0
  6
Continuous
 62
     7
370
    15
100
AcDbSpline
210
0.0
220
0.0
230
1.0
 70
     8
 71
     3
 72
    20
 73
    16
 74
     0
 42
0.00000001
 43
0.00000001
 40
0.0
 40
0.0
 40
0.0
 40
0.0
 40
0.249999999999986
 40
0.249999999999986
 40
0.3749999999999789
 40
0.3749999999999789
 40
0.4374999999999789
 40
0.4374999999999789
 40
0.4999999999999789
 40
0.4999999999999789
 40
0.6249999999999835
 40
0.6249999999999835
 40
0.7499999999999879
 40
0.7499999999999879
 40
1.0
 40
1.0
 40
1.0
 40
1.0
 10
43.21489603470125
 20
78.38273028175225
 30
0.0
 10
43.24116825191465
 20
78.4020482228347
 30
0.0
 10
43.27184839416949
 20
78.41643693393648
 30
0.0
 10
43.34331926455141
 20
78.40953257210046
 30
0.0
 10
43.37134630159575
 20
78.40236656875204
 30
0.0
 10
43.42642989109326
 20
78.37266754204846
 30
0.0
 10
43.44732121964569
 20
78.35919389948712
 30
0.0
 10
43.49252986709115
 20
78.32399563397111
 30
0.0
 10
43.51693407948672
 20
78.30208740524384
 30
0.0
 10
43.58826639753816
 20
78.2299625452483
 30
0.0
 10
43.63016318235843
 20
78.17762200429824
 30
0.0
 10
43.7017391412143
 20
78.0801386123975
 30
0.0
 10
43.7325671310316
 20
78.03338484251908
 30
0.0
 10
43.81566706386718
 20
77.90009162667997
 30
0.0
 10
43.86052196923748
 20
77.81745422876475
 30
0.0
 10
43.90063404469005
 20
77.73834733397398
 30
0.0
  0
SPLINE
  5
9D
330
1F
100
AcDbEntity
  8
0
  6
Continuous
 62
     7
370
    15
100
AcDbSpline
210
0.0
220
0.0
230
1.0
 70
     8
 71
     3
 72
    14
 73
    10
 74
     0
 42
0.00000001
 43
0.00000001
 40
0.0
 40
0.0
 40
0.0
 40
0.0
 40
0.2499999999999994
 40
0.2499999999999994
 40
0.4999999999999988
 40
0.4999999999999988
 40
0.7499999999999982
 40
0.7499999999999982
 40
1.0
 40
1.0
 40
1.0
 40
1.0
 10
42.92408180298523
 20
78.55854369188502
 30
0.0
 10
42.92408180298523
 20
78.51729676086066
 30
0.0
 10
42.93269151936649
 20
78.48038978857818
 30
0.0
 10
42.96377769893683
 20
78.41948972867878
 30
0.0
 10
42.98616725242091
 20
78.39530880913908
 30
0.0
 10
43.04091118359701
 20
78.36134121825582
 30
0.0
 10
43.0733614231822
 20
78.35142113428765
 30
0.0
 10
43.14336293791027
 20
78.3500699253828
 30
0.0
 10
43.18157343803279
 20
78.35822820207893
 30
0.0
 10
43.21489603470589
 20
78.38273028174704
 30
0.0
  0
LINE
  5
9E
330
1F
100
AcDbEntity
  8
0
  6
Continuous
 62
     7
370
    15
100
AcDbLine
 10
42.924081803
 20
78.5585436919
 30
0.0
 11
42.924081803
 21
139.563883177
 31
0.0
  0
SPLINE
  5
9F
330
1F
100
AcDbEntity
  8
0
  6
Continuous
 62
     7
370
    15
100
AcDbSpline
210
0.0
220
0.0
230
1.0
 70
     8
 71
     3
 72
    10
 73
     6
 74
     0
 42
0.00000001
 43
0.00000001
 40
0.0
 40
0.0
 40
0.0
 40
0.0
 40
0.0592402688376383
 40
0.6438088530391344
 40
1.0
 40
1.0
 40
1.0
 40
1.0
 10
43.21489603470588
 20
139.7396965871588
 30
0.0
 10
43.21006377708468
 20
139.7429454937905
 30
0.0
 10
43.15754797494994
 20
139.7782538219461
 30
0.0
 10
43.05859777727117
 20
139.7845081185047
 30
0.0
 10
43.00916925237983
 20
139.7293078808158
 30
0.0
 10
42.99045458763552
 20
139.7084079258925
 30
0.0
  0
SPLINE
  5
A0
330
1F
100
AcDbEntity
  8
0
  6
Continuous
 62
     7
370
    15
100
AcDbSpline
210
0.0
220
0.0
230
1.0
 70
     8
 71
     3
 72
     8
 73
     4
 74
     0
 42
0.00000001
 43
0.00000001
 40
0.0
 40
0.0
 40
0.0
 40
0.0
 40
1.0
 40
1.0
 40
1.0
 40
1.0
 10
42.94771547192144
 20
139.6714626780905
 30
0.0
 10
42.93236643328541
 20
139.6409526230946
 30
0.0
 10
42.92408180298523
 20
139.6046410675822
 30
0.0
 10
42.92408180298523
 20
139.5638831770208
 30
0.0
  0
SPLINE
  5
A1
330
1F
100
AcDbEntity
  8
0
  6
Continuous
 62
     7
370
    15
100
AcDbSpline
210
0.0
220
0.0
230
1.0
 70
     8
 71
     3
 72
    20
 73
    16
 74
     0
 42
0.00000001
 43
0.00000001
 40
0.0
 40
0.0
 40
0.0
 40
0.0
 40
0.2500000000000037
 40
0.2500000000000037
 40
0.3750000000000055
 40
0.3750000000000055
 40
0.5000000000000073
 40
0.5000000000000073
 40
0.5625000000000057
 40
0.5625000000000057
 40
0.625000000000004
 40
0.625000000000004
 40
0.7500000000000027
 40
0.7500000000000027
 40
1.0
 40
1.0
 40
1.0
 40
1.0
 10
43.90063404468766
 20
140.3840795349311
 30
0.0
 10
43.86063782686384
 20
140.3052011283737
 30
0.0
 10
43.81552419902618
 20
140.2220714816821
 30
0.0
 10
43.73226998465965
 20
140.0885828173312
 30
0.0
 10
43.70205065603915
 20
140.0427177614492
 30
0.0
 10
43.62996242089773
 20
139.9445262090443
 30
0.0
 10
43.58804510348663
 20
139.8922163895207
 30
0.0
 10
43.51679449893517
 20
139.8202104867862
 30
0.0
 10
43.49255868655585
 20
139.7984402744847
 30
0.0
 10
43.4469604963712
 20
139.7629656161557
 30
0.0
 10
43.42615800677149
 20
139.7495954319781
 30
0.0
 10
43.37121700835237
 20
139.7200255198429
 30
0.0
 10
43.34314802026557
 20
139.7128989975409
 30
0.0
 10
43.27264519020272
 20
139.7060246260583
 30
0.0
 10
43.24122110241186
 20
139.7203397851454
 30
0.0
 10
43.21489603470326
 20
139.7396965871559
 30
0.0
  0
SPLINE
  5
A2
330
1F
100
AcDbEntity
  8
0
  6
Continuous
 62
     7
370
    15
100
AcDbSpline
210
0.0
220
0.0
230
1.0
 70
     8
 71
     3
 72
    10
 73
     6
 74
     0
 42
0.00000001
 43
0.00000001
 40
0.0
 40
0.0
 40
0.0
 40
0.0
 40
0.4999999999999989
 40
0.4999999999999989
 40
1.0
 40
1.0
 40
1.0
 40
1.0
 10
44.57408180298525
 20
141.3094986362729
 30
0.0
 10
44.44919353223504
 20
141.1785023582015
 30
0.0
 10
44.3277434141746
 20
141.0347895215365
 30
0.0
 10
44.09815943921716
 20
140.7242192288472
 30
0.0
 10
43.98788446382118
 20
140.5561501557842
 30
0.0
 10
43.90063404468766
 20
140.3840795349311
 30
0.0
  0
SPLINE
  5
A3
330
1F
100
AcDbEntity
  8
0
  6
Continuous
 62
     7
370
    15
100
AcDbSpline
210
0.0
220
0.0
230
1.0
 70
     8
 71
     3
 72
     8
 73
     4
 74
     0
 42
0.00000001
 43
0.00000001
 40
0.0
 40
0.0
 40
0.0
 40
0.0
 40
1.0
 40
1.0
 40
1.0
 40
1.0
 10
44.82400691895101
 20
141.3070456030175
 30
0.0
 10
44.73698888910263
 20
141.3075121678046
 30
0.0
 10
44.65403486272268
 20
141.3085521873807
 30
0.0
 10
44.57408180298293
 20
141.309498636273
 30
0.0
  0
SPLINE
  5
A4
330
1F
100
AcDbEntity
  8
0
  6
Continuous
 62
     7
370
    15
100
AcDbSpline
210
0.0
220
0.0
230
1.0
 70
     8
 71
     3
 72
     8
 73
     4
 74
     0
 42
0.00000001
 43
0.00000001
 40
0.0
 40
0.0
 40
0.0
 40
0.0
 40
1.0
 40
1.0
 40
1.0
 40
1.0
 10
44.57408180298293
 20
76.81292823263286
 30
0.0
 10
44.6540348627227
 20
76.81387468152512
 30
0.0
 10
44.73698888910265
 20
76.81491470110124
 30
0.0
 10
44.82400691895103
 20
76.81538126588833
 30
0.0
  0
SPLINE
  5
A5
330
1F
100
AcDbEntity
  8
0
  6
Continuous
 62
     7
370
    15
100
AcDbSpline
210
0.0
220
0.0
230
1.0
 70
     8
 71
     3
 72
    10
 73
     6
 74
     0
 42
0.00000001
 43
0.00000001
 40
0.0
 40
0.0
 40
0.0
 40
0.0
 40
0.4999999999999989
 40
0.4999999999999989
 40
1.0
 40
1.0
 40
1.0
 40
1.0
 10
43.90063404468673
 20
77.73834733397653
 30
0.0
 10
43.98788446382021
 20
77.56627671312316
 30
0.0
 10
44.09815943921637
 20
77.39820764005972
 30
0.0
 10
44.3277434141742
 20
77.08763734736992
 30
0.0
 10
44.44919353223484
 20
76.94392451070465
 30
0.0
 10
44.57408180298525
 20
76.81292823263294
 30
0.0
  0
SPLINE
  5
A6
330
1F
100
AcDbEntity
  8
0
  6
Continuous
 62
     7
370
    15
100
AcDbSpline
210
0.0
220
0.0
230
1.0
 70
     8
 71
     3
 72
     8
 73
     4
 74
     0
 42
0.00000001
 43
0.00000001
 40
0.0
 40
0.0
 40
0.0
 40
0.0
 40
1.0
 40
1.0
 40
1.0
 40
1.0
 10
109.5620527820638
 20
148.0121761953399
 30
0.0
 10
110.0189791358634
 20
146.9962582256656
 30
0.0
 10
110.4701847776664
 20
145.9774623965744
 30
0.0
 10
110.9140818029853
 20
144.9566609405908
 30
0.0
  0
LINE
  5
A7
330
1F
100
AcDbEntity
  8
0
  6
Continuous
 62
     7
370
    15
100
AcDbLine
 10
110.914081803
 20
144.9566609406
 30
0.0
 11
110.914081803
 21
143.7754486269
 31
0.0
  0
SPLINE
  5
A8
330
1F
100
AcDbEntity
  8
0
  6
Continuous
 62
     7
370
    15
100
AcDbSpline
210
0.0
220
0.0
230
1.0
 70
     8
 71
     3
 72
    14
 73
    10
 74
     0
 42
0.00000001
 43
0.00000001
 40
0.0
 40
0.0
 40
0.0
 40
0.0
 40
0.25
 40
0.25
 40
0.5
 40
0.5
 40
0.75
 40
0.75
 40
1.0
 40
1.0
 40
1.0
 40
1.0
 10
110.9140818029852
 20
143.77544862695
 30
0.0
 10
110.9140818029852
 20
143.6515817501608
 30
0.0
 10
110.9299409306128
 20
143.5273220733233
 30
0.0
 10
110.9933025761327
 20
143.2897137109174
 30
0.0
 10
111.0418922841821
 20
143.1729333261649
 30
0.0
 10
111.1741778889569
 20
142.9641307975559
 30
0.0
 10
111.2595026802175
 20
142.8696200939633
 30
0.0
 10
111.4663939285237
 20
142.731663293161
 30
0.0
 10
111.5903618744137
 20
142.6897448475254
 30
0.0
 10
111.7140818029852
 20
142.6897448475254
 30
0.0
  0
LINE
  5
A9
330
1F
100
AcDbEntity
  8
0
  6
Continuous
 62
     7
370
    15
100
AcDbLine
 10
111.714081803
 20
142.6897448475
 30
0.0
 11
113.934081803
 21
142.6897448475
 31
0.0
  0
SPLINE
  5
AA
330
1F
100
AcDbEntity
  8
0
  6
Continuous
 62
     7
370
    15
100
AcDbSpline
210
0.0
220
0.0
230
1.0
 70
     8
 71
     3
 72
    12
 73
     8
 74
     0
 42
0.00000001
 43
0.00000001
 40
0.0
 40
0.0
 40
0.0
 40
0.0
 40
0.250000000000002
 40
0.250000000000002
 40
0.500000000000004
 40
0.500000000000004
 40
1.0
 40
1.0
 40
1.0
 40
1.0
 10
113.9340818029873
 20
142.6897448475254
 30
0.0
 10
114.0577827529671
 20
142.6897448475259
 30
0.0
 10
114.181879365237
 20
142.7317384592587
 30
0.0
 10
114.3885345283234
 20
142.8695337859033
 30
0.0
 10
114.47357529505
 20
142.9635073843681
 30
0.0
 10
114.6730538635231
 20
143.2782955905889
 30
0.0
 10
114.7340818029852
 20
143.5285345828161
 30
0.0
 10
114.7340818029852
 20
143.77544862695
 30
0.0
  0
LINE
  5
AB
330
1F
100
AcDbEntity
  8
0
  6
Continuous
 62
     7
370
    15
100
AcDbLine
 10
114.734081803
 20
143.7754486269
 30
0.0
 11
114.734081803
 21
144.9566609406
 31
0.0
  0
SPLINE
  5
AC
330
1F
100
AcDbEntity
  8
0
  6
Continuous
 62
     7
370
    15
100
AcDbSpline
210
0.0
220
0.0
230
1.0
 70
     8
 71
     3
 72
     8
 73
     4
 74
     0
 42
0.00000001
 43
0.00000001
 40
0.0
 40
0.0
 40
0.0
 40
0.0
 40
1.0
 40
1.0
 40
1.0
 40
1.0
 10
114.7340818029852
 20
144.9566609405908
 30
0.0
 10
115.1782318140107
 20
145.9780441715424
 30
0.0
 10
115.6293061242687
 20
146.9965287083108
 30
0.0
 10
116.0861108239066
 20
148.0121761953399
 30
0.0
  0
LINE
  5
AD
330
1F
100
AcDbEntity
  8
0
  6
Continuous
 62
     7
370
    15
100
AcDbLine
 10
116.0861108239
 20
148.0121761953
 30
0.0
 11
120.774081803
 21
148.0121761953
 31
0.0
  0
SPLINE
  5
AE
330
1F
100
AcDbEntity
  8
0
  6
Continuous
 62
     7
370
    15
100
AcDbSpline
210
0.0
220
0.0
230
1.0
 70
     8
 71
     3
 72
    16
 73
    12
 74
     0
 42
0.00000001
 43
0.00000001
 40
0.0
 40
0.0
 40
0.0
 40
0.0
 40
0.125
 40
0.125
 40
0.25
 40
0.25
 40
0.5
 40
0.5
 40
0.75
 40
0.75
 40
1.0
 40
1.0
 40
1.0
 40
1.0
 10
120.7740818029843
 20
148.0121761953399
 30
0.0
 10
120.8497195093955
 20
148.01217619534
 30
0.0
 10
120.9260351738137
 20
148.0008311952051
 30
0.0
 10
121.0704459117058
 20
147.9581786445667
 30
0.0
 10
121.1388923608143
 20
147.9272443198839
 30
0.0
 10
121.3338236134277
 20
147.8079879481164
 30
0.0
 10
121.4416647872087
 20
147.6978359344958
 30
0.0
 10
121.6103775354209
 20
147.4496998488377
 30
0.0
 10
121.6727419481445
 20
147.309357524834
 30
0.0
 10
121.754045872653
 20
147.0210858333452
 30
0.0
 10
121.7740818029852
 20
146.8702808603653
 30
0.0
 10
121.7740818029852
 20
146.7199109690199
 30
0.0
  0
LINE
  5
AF
330
1F
100
AcDbEntity
  8
0
  6
Continuous
 62
     7
370
    15
100
AcDbLine
 10
121.774081803
 20
146.719910969
 30
0.0
 11
121.774081803
 21
140.4112134345
 31
0.0
  0
LINE
  5
B0
330
1F
100
AcDbEntity
  8
0
  6
Continuous
 62
     7
370
    15
100
AcDbLine
 10
120.774081803
 20
158.0510082901
 30
0.0
 11
116.0861108239
 21
158.0510082901
 31
0.0
  0
LINE
  5
B1
330
1F
100
AcDbEntity
  8
0
  6
Continuous
 62
     7
370
    15
100
AcDbLine
 10
116.0861108239
 20
148.0121761953
 30
0.0
 11
116.0861108239
 21
158.0510082901
 31
0.0
  0
SPLINE
  5
B2
330
1F
100
AcDbEntity
  8
0
  6
Continuous
 62
     7
370
    15
100
AcDbSpline
210
0.0
220
0.0
230
1.0
 70
     8
 71
     3
 72
    14
 73
    10
 74
     0
 42
0.00000001
 43
0.00000001
 40
0.0
 40
0.0
 40
0.0
 40
0.0
 40
0.25
 40
0.25
 40
0.5
 40
0.5
 40
0.75
 40
0.75
 40
1.0
 40
1.0
 40
1.0
 40
1.0
 10
114.7340818029852
 20
154.7547646753009
 30
0.0
 10
114.7340818029852
 20
154.6484079815486
 30
0.0
 10
114.713694246844
 20
154.5425674937884
 30
0.0
 10
114.6350599013824
 20
154.3460025802519
 30
0.0
 10
114.5763285417438
 20
154.2548318379648
 30
0.0
 10
114.4297196361412
 20
154.1029207489332
 30
0.0
 10
114.3403143161146
 20
154.0408519121136
 30
0.0
 10
114.1464235835142
 20
153.9575838643549
 30
0.0
 10
114.0399185936243
 20
153.9354891946253
 30
0.0
 10
113.934081802985
 20
153.9354891946253
 30
0.0
  0
SPLINE
  5
B3
330
1F
100
AcDbEntity
  8
0
  6
Continuous
 62
     7
370
    15
100
AcDbSpline
210
0.0
220
0.0
230
1.0
 70
     8
 71
     3
 72
    10
 73
     6
 74
     0
 42
0.00000001
 43
0.00000001
 40
0.0
 40
0.0
 40
0.0
 40
0.0
 40
0.5
 40
0.5
 40
1.0
 40
1.0
 40
1.0
 40
1.0
 10
111.7140818029852
 20
153.9354891946254
 30
0.0
 10
111.5015454891289
 20
153.9354891946254
 30
0.0
 10
111.2916093174749
 20
154.0269017812556
 30
0.0
 10
110.9979021764636
 20
154.3316466471598
 30
0.0
 10
110.9140818029852
 20
154.5438016170684
 30
0.0
 10
110.9140818029852
 20
154.7547646753009
 30
0.0
  0
SPLINE
  5
B4
330
1F
100
AcDbEntity
  8
0
  6
Continuous
 62
     7
370
    15
100
AcDbSpline
210
0.0
220
0.0
230
1.0
 70
     8
 71
     3
 72
     8
 73
     4
 74
     0
 42
0.00000001
 43
0.00000001
 40
0.0
 40
0.0
 40
0.0
 40
0.0
 40
1.0
 40
1.0
 40
1.0
 40
1.0
 10
116.0861108239066
 20
158.0510082901165
 30
0.0
 10
115.6350838551934
 20
157.2536977199287
 30
0.0
 10
115.1843900386698
 20
156.4561994202714
 30
0.0
 10
114.7340818029852
 20
155.6584842951578
 30
0.0
  0
LINE
  5
B5
330
1F
100
AcDbEntity
  8
0
  6
Continuous
 62
     7
370
    15
100
AcDbLine
 10
114.734081803
 20
144.9566609406
 30
0.0
 11
114.734081803
 21
155.6584842952
 31
0.0
  0
SPLINE
  5
B6
330
1F
100
AcDbEntity
  8
0
  6
Continuous
 62
     7
370
    15
100
AcDbSpline
210
0.0
220
0.0
230
1.0
 70
     8
 71
     3
 72
    12
 73
     8
 74
     0
 42
0.00000001
 43
0.00000001
 40
0.0
 40
0.0
 40
0.0
 40
0.0
 40
0.5
 40
0.5
 40
0.75
 40
0.75
 40
1.0
 40
1.0
 40
1.0
 40
1.0
 10
121.7740818029852
 20
157.0299532552988
 30
0.0
 10
121.7740818029852
 20
157.2952226880652
 30
0.0
 10
121.6694750594988
 20
157.5577377937176
 30
0.0
 10
121.3928067077535
 20
157.8432753997548
 30
0.0
 10
121.2824414484015
 20
157.9195970166163
 30
0.0
 10
121.0383693997858
 20
158.0239391814564
 30
0.0
 10
120.906616938454
 20
158.0510082901165
 30
0.0
 10
120.7740818029852
 20
158.0510082901165
 30
0.0
  0
LINE
  5
B7
330
1F
100
AcDbEntity
  8
0
  6
Continuous
 62
     7
370
    15
100
AcDbLine
 10
121.774081803
 20
146.719910969
 30
0.0
 11
121.774081803
 21
157.0299532553
 31
0.0
  0
SPLINE
  5
B8
330
1F
100
AcDbEntity
  8
0
  6
Continuous
 62
     7
370
    15
100
AcDbSpline
210
0.0
220
0.0
230
1.0
 70
     8
 71
     3
 72
     8
 73
     4
 74
     0
 42
0.00000001
 43
0.00000001
 40
0.0
 40
0.0
 40
0.0
 40
0.0
 40
1.0
 40
1.0
 40
1.0
 40
1.0
 10
110.9140818029853
 20
155.6584842951578
 30
0.0
 10
110.4637735673007
 20
156.4561994202715
 30
0.0
 10
110.0130797507771
 20
157.2536977199287
 30
0.0
 10
109.5620527820638
 20
158.0510082901165
 30
0.0
  0
LINE
  5
B9
330
1F
100
AcDbEntity
  8
0
  6
Continuous
 62
     7
370
    15
100
AcDbLine
 10
110.914081803
 20
144.9566609406
 30
0.0
 11
110.914081803
 21
155.6584842952
 31
0.0
  0
LINE
  5
BA
330
1F
100
AcDbEntity
  8
0
  6
Continuous
 62
     7
370
    15
100
AcDbLine
 10
113.934081803
 20
153.9354891946
 30
0.0
 11
111.714081803
 21
153.9354891946
 31
0.0
  0
ARC
  5
BB
330
1F
100
AcDbEntity
  8
0
  6
Continuous
 62
     7
370
    15
100
AcDbCircle
 10
101.8253010196
 20
141.6303847678
 30
0.0
 40
11.44672023523099
100
AcDbArc
 50
78.050103935
 51
102.2889719443
  0
LINE
  5
BC
330
1F
100
AcDbEntity
  8
0
  6
Continuous
 62
     7
370
    15
100
AcDbLine
 10
44.574081803
 20
76.8112134345
 30
0.0
 11
44.574081803
 21
76.8129282326
 31
0.0
  0
SPLINE
  5
BD
330
1F
100
AcDbEntity
  8
0
  6
Continuous
 62
     7
370
    15
100
AcDbSpline
210
0.0
220
0.0
230
1.0
 70
     8
 71
     3
 72
    66
 73
    62
 74
     0
 42
0.00000001
 43
0.00000001
 40
-0.0625000000000009
 40
-0.0625000000000009
 40
0.0
 40
0.0
 40
0.0624999999999999
 40
0.0624999999999999
 40
0.0937499999999999
 40
0.0937499999999999
 40
0.1249999999999999
 40
0.1249999999999999
 40
0.1562499999999999
 40
0.1562499999999999
 40
0.1874999999999998
 40
0.1874999999999998
 40
0.2187499999999998
 40
0.2187499999999998
 40
0.2499999999999998
 40
0.2499999999999998
 40
0.2812499999999998
 40
0.2812499999999998
 40
0.3124999999999997
 40
0.3124999999999997
 40
0.3437499999999997
 40
0.3437499999999997
 40
0.3749999999999997
 40
0.3749999999999997
 40
0.4062499999999997
 40
0.4062499999999997
 40
0.4374999999999996
 40
0.4374999999999996
 40
0.4687499999999996
 40
0.4687499999999996
 40
0.4999999999999996
 40
0.4999999999999996
 40
0.5312499999999996
 40
0.5312499999999996
 40
0.5624999999999996
 40
0.5624999999999996
 40
0.5937499999999994
 40
0.5937499999999994
 40
0.6249999999999994
 40
0.6249999999999994
 40
0.6562499999999994
 40
0.6562499999999994
 40
0.6874999999999993
 40
0.6874999999999993
 40
0.7187499999999993
 40
0.7187499999999993
 40
0.7499999999999993
 40
0.7499999999999993
 40
0.7812499999999993
 40
0.7812499999999993
 40
0.8124999999999993
 40
0.8124999999999993
 40
0.8437499999999992
 40
0.8437499999999992
 40
0.8749999999999992
 40
0.8749999999999992
 40
0.9062499999999992
 40
0.9062499999999992
 40
0.9374999999999991
 40
0.9374999999999991
 40
1.0
 40
1.0
 40
1.0625
 40
1.0625
 10
159.0986796225923
 20
111.0439489347835
 30
0.0
 10
159.7769256348807
 20
111.5728546516927
 30
0.0
 10
160.1557200275863
 20
111.7686280149112
 30
0.0
 10
160.7685999632092
 20
111.9666113983238
 30
0.0
 10
160.9760539264634
 20
112.0149085424233
 30
0.0
 10
161.3969866229013
 20
112.07791828857
 30
0.0
 10
161.6120338413305
 20
112.0925717078351
 30
0.0
 10
162.0409667626334
 20
112.0869201272432
 30
0.0
 10
162.2527872581539
 20
112.0669220474599
 30
0.0
 10
162.6712421962161
 20
111.9932050543859
 30
0.0
 10
162.8792230225338
 20
111.9390109649077
 30
0.0
 10
163.2834842565282
 20
111.7963342605743
 30
0.0
 10
163.4769408970116
 20
111.7091197708271
 30
0.0
 10
163.8463950569976
 20
111.5025118325296
 30
0.0
 10
164.0233349823272
 20
111.3823947525678
 30
0.0
 10
164.3535628678797
 20
111.10889330293
 30
0.0
 10
164.5030861000614
 20
110.9588967775632
 30
0.0
 10
164.7696799216228
 20
110.6311227698621
 30
0.0
 10
164.8878331109156
 20
110.451305465399
 30
0.0
 10
165.0809548589424
 20
110.0681238951195
 30
0.0
 10
165.1543024144621
 20
109.8690484060833
 30
0.0
 10
165.252556154558
 20
109.4552182776416
 30
0.0
 10
165.2768976540608
 20
109.237492819854
 30
0.0
 10
165.270727558312
 20
108.8103955881253
 30
0.0
 10
165.2411352150129
 20
108.5976343652297
 30
0.0
 10
165.1298066858107
 20
108.180493164371
 30
0.0
 10
165.0500637820141
 20
107.9823704112269
 30
0.0
 10
164.8467846668318
 20
107.6050468023944
 30
0.0
 10
164.7231932380939
 20
107.4270385729258
 30
0.0
 10
164.4455817506928
 20
107.1032882235066
 30
0.0
 10
164.2888356147865
 20
106.9542608343761
 30
0.0
 10
163.9523156377552
 20
106.689782640457
 30
0.0
 10
163.7732678066318
 20
106.5743219341288
 30
0.0
 10
163.3949485085204
 20
106.3746010140296
 30
0.0
 10
163.1952286459708
 20
106.2906263727256
 30
0.0
 10
162.7896037636411
 20
106.1585455315257
 30
0.0
 10
162.5820394879848
 20
106.1094631042659
 30
0.0
 10
162.1574242781156
 20
106.0450024995974
 30
0.0
 10
161.941723008409
 20
106.030159224472
 30
0.0
 10
161.5154786362563
 20
106.0350319620428
 30
0.0
 10
161.3032212453007
 20
106.0544475664371
 30
0.0
 10
160.8804857387097
 20
106.1282778155037
 30
0.0
 10
160.6712930064927
 20
106.1828328465114
 30
0.0
 10
160.270160480378
 20
106.323915736015
 30
0.0
 10
160.0763219113436
 20
106.4106992826528
 30
0.0
 10
159.7029391189895
 20
106.6190207002726
 30
0.0
 10
159.5240345764403
 20
106.7407952688046
 30
0.0
 10
159.1973881819945
 20
107.0111200838533
 30
0.0
 10
159.0475014859168
 20
107.1606890036015
 30
0.0
 10
158.7776638847601
 20
107.4921736907162
 30
0.0
 10
158.6587125299807
 20
107.6739944087761
 30
0.0
 10
158.4670040704259
 20
108.0550495735123
 30
0.0
 10
158.3918063565265
 20
108.2592137332462
 30
0.0
 10
158.2939098744382
 20
108.6772873528809
 30
0.0
 10
158.2708542734505
 20
108.889257116728
 30
0.0
 10
158.2780272021137
 20
109.3192395222226
 30
0.0
 10
158.3090178927498
 20
109.5347068968256
 30
0.0
 10
158.4205406303025
 20
109.9475617288662
 30
0.0
 10
158.5025282594644
 20
110.1498972745212
 30
0.0
 10
158.8092237670253
 20
110.7141954923706
 30
0.0
 10
159.0986796225923
 20
111.0439489347835
 30
0.0
 10
159.7769256348807
 20
111.5728546516927
 30
0.0
  0
CIRCLE
  5
BE
330
1F
100
AcDbEntity
  8
0
  6
Continuous
 62
     7
370
    15
100
AcDbCircle
 10
161.774081803
 20
109.0612134345
 30
0.0
 40
2.5
  0
LINE
  5
BF
330
1F
100
AcDbEntity
  8
0
  6
Continuous
 62
     7
370
    15
100
AcDbLine
 10
170.774081803
 20
92.0612134345
 30
0.0
 11
170.774081803
 21
126.0612134345
 31
0.0
  0
SPLINE
  5
C0
330
1F
100
AcDbEntity
  8
0
  6
Continuous
 62
     7
370
    15
100
AcDbSpline
210
0.0
220
0.0
230
1.0
 70
     8
 71
     3
 72
    37
 73
    33
 74
     0
 42
0.00000001
 43
0.00000001
 40
0.0
 40
0.0
 40
0.0
 40
0.0
 40
0.0392082674721532
 40
0.0617722852704615
 40
0.0824993429531825
 40
0.1245821907564973
 40
0.1459656004379278
 40
0.1682643626245665
 40
0.2134680386877023
 40
0.2363947677783512
 40
0.2617822342811135
 40
0.3132472624548522
 40
0.3393544177005684
 40
0.3681000854996998
 40
0.426441073604687
 40
0.4560857751342166
 40
0.4870369945912195
 40
0.5499505762700458
 40
0.5819857289179804
 40
0.6134814457590149
 40
0.6452036883143585
 40
0.6776635973566109
 40
0.7103905437966898
 40
0.7406864992394622
 40
0.80253599618142
 40
0.8342375053655096
 40
0.8568043247967118
 40
0.9026526567983093
 40
0.9260082882235732
 40
0.9485799697760557
 40
0.9946195106363295
 40
0.9999999999999999
 40
0.9999999999999999
 40
0.9999999999999999
 40
0.9999999999999999
 10
165.2700884328902
 20
126.0606095829133
 30
0.0
 10
165.2659894703152
 20
126.0599825563632
 30
0.0
 10
165.2595315903368
 20
126.0589946814731
 30
0.0
 10
165.2008145551661
 20
126.0501795159642
 30
0.0
 10
165.1195353020404
 20
126.0381659717533
 30
0.0
 10
165.0057698299617
 20
126.0217575671739
 30
0.0
 10
164.8607168473116
 20
126.0017850245727
 30
0.0
 10
164.6907484997302
 20
125.9791951947781
 30
0.0
 10
164.4892389882682
 20
125.9540259116891
 30
0.0
 10
164.2567822484885
 20
125.9274734050148
 30
0.0
 10
163.9921587266773
 20
125.8993159785558
 30
0.0
 10
163.6945950124719
 20
125.8715692825119
 30
0.0
 10
163.3688647746567
 20
125.8462983801459
 30
0.0
 10
163.009951144147
 20
125.8224972829432
 30
0.0
 10
162.6230766262956
 20
125.804037882015
 30
0.0
 10
162.2204544338023
 20
125.793021123644
 30
0.0
 10
161.7984785214779
 20
125.7873845022102
 30
0.0
 10
161.3656792075835
 20
125.7911686463773
 30
0.0
 10
160.9389610337905
 20
125.8042935035076
 30
0.0
 10
160.6232748280498
 20
125.8185426377105
 30
0.0
 10
160.3143987859752
 20
125.8367890726326
 30
0.0
 10
160.0124327113615
 20
125.8587279145388
 30
0.0
 10
159.7284042522978
 20
125.8830835428731
 30
0.0
 10
159.3778243001664
 20
125.9172805640979
 30
0.0
 10
159.0643494197029
 20
125.953109661214
 30
0.0
 10
158.8157723740412
 20
125.9846820219251
 30
0.0
 10
158.6268617458245
 20
126.009905657775
 30
0.0
 10
158.4856616511184
 20
126.0298773696361
 30
0.0
 10
158.3818457590163
 20
126.045058617458
 30
0.0
 10
158.3060302089508
 20
126.0563469441071
 30
0.0
 10
158.2699510943619
 20
126.0618402904307
 30
0.0
 10
158.2754988943378
 20
126.0609985582639
 30
0.0
 10
158.2760794050577
 20
126.0609104810895
 30
0.0
  0
SPLINE
  5
C1
330
1F
100
AcDbEntity
  8
0
  6
Continuous
 62
     7
370
    15
100
AcDbSpline
210
0.0
220
0.0
230
1.0
 70
     8
 71
     3
 72
     9
 73
     5
 74
     0
 42
0.00000001
 43
0.00000001
 40
0.0
 40
0.0
 40
0.0
 40
0.0
 40
0.385482915779356
 40
1.0
 40
1.0
 40
1.0
 40
1.0
 10
159.0322813040815
 20
125.9579390550599
 30
0.0
 10
159.080245333734
 20
125.9520875146505
 30
0.0
 10
159.2046711583014
 20
125.9369077487782
 30
0.0
 10
159.349068186638
 20
125.9215012698891
 30
0.0
 10
159.4378026274615
 20
125.912033725404
 30
0.0
  0
LINE
  5
C2
330
1F
100
AcDbEntity
  8
0
  6
Continuous
 62
     7
370
    15
100
AcDbLine
 10
159.4378026281
 20
92.2103931436
 30
0.0
 11
159.3763614505
 21
92.2037364015
 31
0.0
  0
SPLINE
  5
C3
330
1F
100
AcDbEntity
  8
0
  6
Continuous
 62
     7
370
    15
100
AcDbSpline
210
0.0
220
0.0
230
1.0
 70
     8
 71
     3
 72
    37
 73
    33
 74
     0
 42
0.00000001
 43
0.00000001
 40
0.0
 40
0.0
 40
0.0
 40
0.0
 40
0.0243233406197269
 40
0.0473846717985458
 40
0.0680695455676987
 40
0.1100860600096839
 40
0.1314480565192209
 40
0.1533430675181562
 40
0.19773461390409
 40
0.2202529371221354
 40
0.2450549321275036
 40
0.2953283104322638
 40
0.3208270291703492
 40
0.3490477819293833
 40
0.4063088942459442
 40
0.4353946967332755
 40
0.4660896597116238
 40
0.5284668779915365
 40
0.5602179851337422
 40
0.5917307544983488
 40
0.6234670090947034
 40
0.6559258483608681
 40
0.688643779537608
 40
0.7192999382127239
 40
0.7818494183889615
 40
0.8138830978441083
 40
0.837054820154585
 40
0.8841268542439958
 40
0.9081044387475637
 40
0.9312816497571369
 40
0.9785815619411151
 40
1.0
 40
1.0
 40
1.0
 40
1.0
 10
158.2844367070309
 20
92.06278276934171
 30
0.0
 10
158.2823674043476
 20
92.06247019015096
 30
0.0
 10
158.2783361641476
 20
92.06186124984968
 30
0.0
 10
158.3159624984394
 20
92.06754773678014
 30
0.0
 10
158.381105832275
 20
92.07727235542701
 30
0.0
 10
158.4804880564577
 20
92.09182611933593
 30
0.0
 10
158.6113404816212
 20
92.11021547586627
 30
0.0
 10
158.7660846087801
 20
92.13129346642668
 30
0.0
 10
158.9520506326826
 20
92.15528270409321
 30
0.0
 10
159.1689915295353
 20
92.18111811761102
 30
0.0
 10
159.4169872401723
 20
92.208850964317
 30
0.0
 10
159.6979104930254
 20
92.23683167412318
 30
0.0
 10
160.0079955615316
 20
92.26313400833143
 30
0.0
 10
160.3520172333511
 20
92.28863890956731
 30
0.0
 10
160.7256426596748
 20
92.30971308519774
 30
0.0
 10
161.1179435248412
 20
92.32411810721422
 30
0.0
 10
161.5329709297948
 20
92.33368537923705
 30
0.0
 10
161.96252977963
 20
92.33424000242778
 30
0.0
 10
162.3900812042094
 20
92.32536589601791
 30
0.0
 10
162.7091990477617
 20
92.31410373214771
 30
0.0
 10
163.0240738568813
 20
92.2985049791152
 30
0.0
 10
163.3337262875857
 20
92.27883662681242
 30
0.0
 10
163.6281743396638
 20
92.25613423634252
 30
0.0
 10
163.9963457803352
 20
92.22317569422073
 30
0.0
 10
164.3312678959994
 20
92.18723028736316
 30
0.0
 10
164.6037109530412
 20
92.1541765756329
 30
0.0
 10
164.8160082166335
 20
92.1268673752837
 30
0.0
 10
164.980483053282
 20
92.10422512544146
 30
0.0
 10
165.1073150737989
 20
92.08602029768088
 30
0.0
 10
165.2071042288102
 20
92.07135868056743
 30
0.0
 10
165.2668972065454
 20
92.06230337033952
 30
0.0
 10
165.2714429087001
 20
92.0616136692731
 30
0.0
 10
165.2728597331683
 20
92.06139870020708
 30
0.0
  0
SPLINE
  5
C4
330
1F
100
AcDbEntity
  8
0
  6
Continuous
 62
     7
370
    15
100
AcDbSpline
210
0.0
220
0.0
230
1.0
 70
     8
 71
     3
 72
     9
 73
     5
 74
     0
 42
0.00000001
 43
0.00000001
 40
0.0
 40
0.0
 40
0.0
 40
0.0
 40
0.1017170788009976
 40
0.9999999999999999
 40
0.9999999999999999
 40
0.9999999999999999
 40
0.9999999999999999
 10
159.7286725933657
 20
92.23847095632325
 30
0.0
 10
159.7180235011255
 20
92.23761834151126
 30
0.0
 10
159.6133302444395
 20
92.22923612269386
 30
0.0
 10
159.520863724099
 20
92.21930979458138
 30
0.0
 10
159.4378026280945
 20
92.2103931435677
 30
0.0
  0
LINE
  5
C5
330
1F
100
AcDbEntity
  8
0
  6
Continuous
 62
     7
370
    15
100
AcDbLine
 10
44.574081803
 20
141.3112134345
 30
0.0
 11
44.574081803
 21
141.3094986363
 31
0.0
  0
LINE
  5
C6
330
1F
100
AcDbEntity
  8
0
  6
Continuous
 62
     7
370
    15
100
AcDbLine
 10
201.9992628583
 20
93.0612134345
 30
0.0
 11
201.9992628583
 21
125.0612134345
 31
0.0
  0
SPLINE
  5
C7
330
1F
100
AcDbEntity
  8
0
  6
Continuous
 62
     7
370
    15
100
AcDbSpline
210
0.0
220
0.0
230
1.0
 70
     8
 71
     3
 72
    10
 73
     6
 74
     0
 42
0.00000001
 43
0.00000001
 40
0.0
 40
0.0
 40
0.0
 40
0.0
 40
0.0650913207390306
 40
0.4645438964964163
 40
1.0
 40
1.0
 40
1.0
 40
1.0
 10
252.8216893739679
 20
119.3098619383689
 30
0.0
 10
252.8216567704213
 20
119.3106201517239
 30
0.0
 10
252.8214240853505
 20
119.3160313706445
 30
0.0
 10
252.8228480190503
 20
119.2902795116623
 30
0.0
 10
252.8236325014608
 20
119.2323324605297
 30
0.0
 10
252.8240818029852
 20
119.1991440829937
 30
0.0
  0
LINE
  5
C8
330
1F
100
AcDbEntity
  8
0
  6
Continuous
 62
     7
370
    15
100
AcDbLine
 10
252.824081803
 20
98.9232827859
 30
0.0
 11
252.824081803
 21
119.199144083
 31
0.0
  0
LINE
  5
C9
330
1F
100
AcDbEntity
  8
0
  6
Continuous
 62
     7
370
    15
100
AcDbLine
 10
252.8425142865
 20
119.2809301359
 30
0.0
 11
252.824081803
 21
118.8117921034
 31
0.0
  0
LINE
  5
CA
330
1F
100
AcDbEntity
  8
0
  6
Continuous
 62
     7
370
    15
100
AcDbLine
 10
252.824081803
 20
100.8117921034
 30
0.0
 11
252.9014040101
 21
98.8438105165
 31
0.0
  0
SPLINE
  5
CB
330
1F
100
AcDbEntity
  8
0
  6
HIDDEN
 62
     7
370
     0
100
AcDbSpline
210
0.0
220
0.0
230
1.0
 70
     8
 71
     3
 72
    80
 73
    76
 74
     0
 42
0.00000001
 43
0.00000001
 40
-0.0312500000000007
 40
-0.0312500000000007
 40
0.0
 40
0.0
 40
0.0312499999999999
 40
0.0312499999999999
 40
0.0468749999999997
 40
0.0468749999999997
 40
0.0624999999999995
 40
0.0624999999999995
 40
0.0937499999999991
 40
0.0937499999999991
 40
0.1249999999999987
 40
0.1249999999999987
 40
0.1562499999999983
 40
0.1562499999999983
 40
0.1874999999999979
 40
0.1874999999999979
 40
0.2187499999999975
 40
0.2187499999999975
 40
0.2499999999999971
 40
0.2499999999999971
 40
0.2812499999999969
 40
0.2812499999999969
 40
0.3124999999999967
 40
0.3124999999999967
 40
0.3281249999999967
 40
0.3281249999999967
 40
0.3437499999999967
 40
0.3437499999999967
 40
0.3749999999999966
 40
0.3749999999999966
 40
0.4062499999999966
 40
0.4062499999999966
 40
0.4218749999999964
 40
0.4218749999999964
 40
0.4374999999999962
 40
0.4374999999999962
 40
0.4687499999999959
 40
0.4687499999999959
 40
0.4999999999999956
 40
0.4999999999999956
 40
0.5312499999999952
 40
0.5312499999999952
 40
0.5624999999999949
 40
0.5624999999999949
 40
0.5937499999999946
 40
0.5937499999999946
 40
0.6249999999999942
 40
0.6249999999999942
 40
0.6562499999999939
 40
0.6562499999999939
 40
0.6874999999999936
 40
0.6874999999999936
 40
0.7031249999999936
 40
0.7031249999999936
 40
0.7187499999999937
 40
0.7187499999999937
 40
0.7499999999999942
 40
0.7499999999999942
 40
0.7812499999999947
 40
0.7812499999999947
 40
0.7968749999999951
 40
0.7968749999999951
 40
0.8124999999999954
 40
0.8124999999999954
 40
0.8437499999999962
 40
0.8437499999999962
 40
0.874999999999997
 40
0.874999999999997
 40
0.9062499999999978
 40
0.9062499999999978
 40
0.9374999999999986
 40
0.9374999999999986
 40
0.9687499999999993
 40
0.9687499999999993
 40
1.0
 40
1.0
 40
1.03125
 40
1.03125
 10
101.4935364902089
 20
157.920762690931
 30
0.0
 10
102.1546271157615
 20
157.9207626909309
 30
0.0
 10
102.4796072450132
 20
157.913864545104
 30
0.0
 10
102.9590806562596
 20
157.8933381171236
 30
0.0
 10
103.1175624741004
 20
157.884781890036
 30
0.0
 10
103.4317820066047
 20
157.8640555148184
 30
0.0
 10
103.5879022902851
 20
157.8518282146121
 30
0.0
 10
104.0419563192416
 20
157.8102589207828
 30
0.0
 10
104.3290597021815
 20
157.775914635685
 30
0.0
 10
104.8724142582085
 20
157.6925905113627
 30
0.0
 10
105.1295178694141
 20
157.6431522885882
 30
0.0
 10
105.5904241243529
 20
157.5317725588283
 30
0.0
 10
105.7973218335678
 20
157.4694780453162
 30
0.0
 10
106.16284714756
 20
157.3295484024452
 30
0.0
 10
106.318052669686
 20
157.2529325046961
 30
0.0
 10
106.5674830562857
 20
157.0889738848404
 30
0.0
 10
106.6635730120709
 20
157.0004170307447
 30
0.0
 10
106.7920918612644
 20
156.8129363486389
 30
0.0
 10
106.8239027314422
 20
156.7156998871845
 30
0.0
 10
106.8242593812155
 20
156.5140672478574
 30
0.0
 10
106.7917621290184
 20
156.4085184560192
 30
0.0
 10
106.6641366553039
 20
156.1984036733308
 30
0.0
 10
106.5697082542521
 20
156.0933381653618
 30
0.0
 10
106.3818474342665
 20
155.9364604581108
 30
0.0
 10
106.3110194354633
 20
155.884026724405
 30
0.0
 10
106.156297543498
 20
155.7815882787753
 30
0.0
 10
106.0723210733146
 20
155.7314405501234
 30
0.0
 10
105.8009974036702
 20
155.5844245936899
 30
0.0
 10
105.5944481850679
 20
155.4909367732555
 30
0.0
 10
105.1278380448789
 20
155.3151499156411
 30
0.0
 10
104.8754724752534
 20
155.2357714405574
 30
0.0
 10
104.4695711335747
 20
155.1302890030634
 30
0.0
 10
104.3296705160972
 20
155.0974034382233
 30
0.0
 10
104.0404465808503
 20
155.0364879589946
 30
0.0
 10
103.890607124561
 20
155.0084073873521
 30
0.0
 10
103.4364905549502
 20
154.9336053453093
 30
0.0
 10
103.1248393362134
 20
154.8955672870632
 30
0.0
 10
102.483842871301
 20
154.8439553605391
 30
0.0
 10
102.1523152433488
 20
154.8306414270176
 30
0.0
 10
101.4995241982773
 20
154.8305443406896
 30
0.0
 10
101.1749879932455
 20
154.8433324258506
 30
0.0
 10
100.5297185438291
 20
154.8948226154466
 30
0.0
 10
100.2139755376664
 20
154.9333471947666
 30
0.0
 10
99.61208624268268
 20
155.0322497576247
 30
0.0
 10
99.32133701187121
 20
155.0933538555497
 30
0.0
 10
98.7744252201867
 20
155.2351632886604
 30
0.0
 10
98.5226478563498
 20
155.3144977732395
 30
0.0
 10
98.06125986372867
 20
155.4878765179011
 30
0.0
 10
97.84999058413058
 20
155.5830364626551
 30
0.0
 10
97.48668623175438
 20
155.779608986031
 30
0.0
 10
97.3328795833116
 20
155.8813652144374
 30
0.0
 10
97.14426011371418
 20
156.0381511772228
 30
0.0
 10
97.08822962750507
 20
156.0914052109729
 30
0.0
 10
96.99265586576891
 20
156.1972097725256
 30
0.0
 10
96.95289294874391
 20
156.2498628368811
 30
0.0
 10
96.85712119843177
 20
156.4069365563403
 30
0.0
 10
96.82439835930568
 20
156.5104615916674
 30
0.0
 10
96.82376977297658
 20
156.7146763258945
 30
0.0
 10
96.85595591771134
 20
156.8121801634793
 30
0.0
 10
96.95086661956694
 20
156.951507213831
 30
0.0
 10
96.99033340296589
 20
156.9968239453354
 30
0.0
 10
97.08526340168677
 20
157.0852637663242
 30
0.0
 10
97.14102022945015
 20
157.1285180167842
 30
0.0
 10
97.32896034742004
 20
157.2524094913742
 30
0.0
 10
97.48232181713621
 20
157.3281117821482
 30
0.0
 10
97.84458605201657
 20
157.4673661536064
 30
0.0
 10
98.05543452548247
 20
157.5311279951351
 30
0.0
 10
98.51610449580139
 20
157.642624834603
 30
0.0
 10
98.76747887538521
 20
157.6911509069196
 30
0.0
 10
99.31338676228336
 20
157.7752048903001
 30
0.0
 10
99.60420933693457
 20
157.8100034439668
 30
0.0
 10
100.2055359517146
 20
157.8651999087306
 30
0.0
 10
100.520054536327
 20
157.8860177574845
 30
0.0
 10
101.1666359924469
 20
157.9138650903952
 30
0.0
 10
101.4935364902089
 20
157.920762690931
 30
0.0
 10
102.1546271157615
 20
157.9207626909309
 30
0.0
  0
LINE
  5
CC
330
1F
100
AcDbEntity
  8
0
  6
HIDDEN
 62
     7
370
     0
100
AcDbLine
 10
109.5620527821
 20
148.0121761953
 30
0.0
 11
109.5620527821
 21
140.4112134345
 31
0.0
  0
SPLINE
  5
CD
330
1F
100
AcDbEntity
  8
0
  6
HIDDEN
 62
     7
370
     0
100
AcDbSpline
210
0.0
220
0.0
230
1.0
 70
     8
 71
     3
 72
     9
 73
     5
 74
     0
 42
0.00000001
 43
0.00000001
 40
0.0
 40
0.0
 40
0.0
 40
0.0
 40
0.5038163044187015
 40
1.0
 40
1.0
 40
1.0
 40
1.0
 10
73.23750655241258
 20
72.3254070721788
 30
0.0
 10
72.95382736767247
 20
72.30125389808
 30
0.0
 10
72.39076662062615
 20
72.25331346049005
 30
0.0
 10
72.03440557881785
 20
72.2120011122041
 30
0.0
 10
71.85758504013221
 20
72.19150259855844
 30
0.0
  0
SPLINE
  5
CE
330
1F
100
AcDbEntity
  8
0
  6
HIDDEN
 62
     7
370
     0
100
AcDbSpline
210
0.0
220
0.0
230
1.0
 70
     8
 71
     3
 72
    12
 73
     8
 74
     0
 42
0.00000001
 43
0.00000001
 40
0.0
 40
0.0
 40
0.0
 40
0.0
 40
0.1661348616725355
 40
0.3322013257383251
 40
0.5008932044678458
 40
0.7521370782640883
 40
1.0
 40
1.0
 40
1.0
 40
1.0
 10
71.34340346863341
 20
145.9925174575183
 30
0.0
 10
71.35379609274028
 20
145.9911393334569
 30
0.0
 10
71.3745770623179
 20
145.9883836527069
 30
0.0
 10
71.54787655176584
 20
145.966780277745
 30
0.0
 10
71.86982814101043
 20
145.9289153258032
 30
0.0
 10
72.39099397693039
 20
145.8685315590868
 30
0.0
 10
72.95655191676816
 20
145.8207384219374
 30
0.0
 10
73.23741534045621
 20
145.7970037288441
 30
0.0
  0
SPLINE
  5
CF
330
1F
100
AcDbEntity
  8
0
  6
HIDDEN
 62
     7
370
     0
100
AcDbSpline
210
0.0
220
0.0
230
1.0
 70
     8
 71
     3
 72
    33
 73
    29
 74
     0
 42
0.00000001
 43
0.00000001
 40
0.0
 40
0.0
 40
0.0
 40
0.0
 40
0.0315773698875104
 40
0.0633753287769057
 40
0.0958656851178231
 40
0.1285943208117605
 40
0.1601713694082662
 40
0.2244011681247345
 40
0.2571344568799636
 40
0.2885965627565487
 40
0.3526214070085076
 40
0.3852675959519929
 40
0.4162212184009612
 40
0.4791910353915302
 40
0.5112817741273479
 40
0.5421256322990662
 40
0.6048360558905652
 40
0.6367710793564881
 40
0.6680663384719832
 40
0.7316979547407203
 40
0.7641081282919966
 40
0.7957194290717577
 40
0.8275524266255816
 40
0.8600900250720824
 40
0.8928737620729298
 40
0.9241775068323748
 40
0.9878778414776339
 40
1.0
 40
1.0
 40
1.0
 40
1.0
 10
83.07728745817627
 20
77.69489121370587
 30
0.0
 10
82.99341631117102
 20
77.7087649520876
 30
0.0
 10
82.82508812122708
 20
77.73660934617236
 30
0.0
 10
82.52573352488558
 20
77.78304198640276
 30
0.0
 10
82.19173405762673
 20
77.83165458842359
 30
0.0
 10
81.82596409573947
 20
77.88080252161082
 30
0.0
 10
81.30258418105059
 20
77.94486830720346
 30
0.0
 10
80.726156972456
 20
78.00464982160858
 30
0.0
 10
80.11101982560446
 20
78.05464942907264
 30
0.0
 10
79.47470409952153
 20
78.09678942175604
 30
0.0
 10
78.81092356208283
 20
78.12542414649408
 30
0.0
 10
78.13885781049972
 20
78.13768359757768
 30
0.0
 10
77.46940922706798
 20
78.13901288868597
 30
0.0
 10
76.80422465995403
 20
78.12415236577651
 30
0.0
 10
76.15793342106353
 20
78.09429440138733
 30
0.0
 10
75.52874347020516
 20
78.05555117332605
 30
0.0
 10
74.92902777802588
 20
78.00497293956619
 30
0.0
 10
74.37072821190408
 20
77.94657292509966
 30
0.0
 10
73.8405333415165
 20
77.88424969373013
 30
0.0
 10
73.36136663920492
 20
77.81884111919457
 30
0.0
 10
72.94644865401007
 20
77.75605221558861
 30
0.0
 10
72.66917627008402
 20
77.7115476167672
 30
0.0
 10
72.42762098452285
 20
77.67083866733225
 30
0.0
 10
72.22212898017443
 20
77.63478153668277
 30
0.0
 10
72.05796455643019
 20
77.6050245117304
 30
0.0
 10
71.8985306098649
 20
77.57543919830599
 30
0.0
 10
71.8202923819163
 20
77.56048991930115
 30
0.0
 10
71.82801717226111
 20
77.56196234190236
 30
0.0
 10
71.82925217693057
 20
77.56219774619252
 30
0.0
  0
SPLINE
  5
D0
330
1F
100
AcDbEntity
  8
0
  6
HIDDEN
 62
     7
370
     0
100
AcDbSpline
210
0.0
220
0.0
230
1.0
 70
     8
 71
     3
 72
    32
 73
    28
 74
     0
 42
0.00000001
 43
0.00000001
 40
0.0
 40
0.0
 40
0.0
 40
0.0
 40
0.020356822172105
 40
0.0512207857583794
 40
0.1139954454389432
 40
0.1459779869097674
 40
0.1769364677636727
 40
0.2398766914470389
 40
0.2719275468465721
 40
0.3033698011481659
 40
0.3673099924152954
 40
0.3998847012176188
 40
0.4314690120325909
 40
0.4957360700021212
 40
0.5285028301030422
 40
0.5596434488300034
 40
0.6230067766607702
 40
0.6553079823205556
 40
0.6861132872619372
 40
0.748756262689177
 40
0.7806634244345373
 40
0.8117607067089887
 40
0.8749825776111492
 40
0.9071778073885584
 40
0.9301738434827028
 40
0.9765719131095674
 40
1.0
 40
1.0
 40
1.0
 40
1.0
 10
71.82925217693057
 20
140.5602291227133
 30
0.0
 10
71.82889512502432
 20
140.5602966016402
 30
0.0
 10
71.82799672943781
 20
140.5604663886349
 30
0.0
 10
71.89059047599045
 20
140.5485721474475
 30
0.0
 10
72.03240165745396
 20
140.5219252705279
 30
0.0
 10
72.25644624932947
 20
140.4815431991153
 30
0.0
 10
72.5309883651637
 20
140.4336739573649
 30
0.0
 10
72.87967965417124
 20
140.3762040720851
 30
0.0
 10
73.29595561654865
 20
140.3137095250305
 30
0.0
 10
73.75754966341144
 20
140.2491838433913
 30
0.0
 10
74.2810876125066
 20
140.184603466408
 30
0.0
 10
74.85328508696135
 20
140.1258481015232
 30
0.0
 10
75.45549145741332
 20
140.072475245141
 30
0.0
 10
76.0967179641948
 20
140.0296126833088
 30
0.0
 10
76.75780328219095
 20
140.0015486372877
 30
0.0
 10
77.42451423663752
 20
139.983959979748
 30
0.0
 10
78.09840345724444
 20
139.9825133315073
 30
0.0
 10
78.76275294119225
 20
139.9974388706451
 30
0.0
 10
79.41428721535188
 20
140.0224455958688
 30
0.0
 10
80.04494642800789
 20
140.0615496385507
 30
0.0
 10
80.64248540383036
 20
140.1116507963343
 30
0.0
 10
81.2164833717851
 20
140.1678219628175
 30
0.0
 10
81.74743308517841
 20
140.2307359915063
 30
0.0
 10
82.1908139664425
 20
140.2908394935599
 30
0.0
 10
82.54233461401614
 20
140.3417292105451
 30
0.0
 10
82.83200212399299
 20
140.386851687083
 30
0.0
 10
83.0156648883907
 20
140.4173146989704
 30
0.0
 10
83.07728745817627
 20
140.4275356552
 30
0.0
  0
SPLINE
  5
D1
330
1F
100
AcDbEntity
  8
0
  6
HIDDEN
 62
     7
370
     0
100
AcDbSpline
210
0.0
220
0.0
230
1.0
 70
     8
 71
     3
 72
    13
 73
     9
 74
     0
 42
0.00000001
 43
0.00000001
 40
0.0
 40
0.0
 40
0.0
 40
0.0
 40
0.1623799816591789
 40
0.3258962967501759
 40
0.4929818113643412
 40
0.6612959817031199
 40
0.8237063551432365
 40
1.0
 40
1.0
 40
1.0
 40
1.0
 10
83.07728745817627
 20
140.4275356552
 30
0.0
 10
83.15287696713362
 20
140.4399114274569
 30
0.0
 10
83.30458495965004
 20
140.4647495774969
 30
0.0
 10
83.48748385949492
 20
140.4920079254206
 30
0.0
 10
83.63654610893734
 20
140.5131277730691
 30
0.0
 10
83.74049664938056
 20
140.5271142008045
 30
0.0
 10
83.81582859449792
 20
140.5369071742452
 30
0.0
 10
83.80759879583081
 20
140.5358358372218
 30
0.0
 10
83.80331522927982
 20
140.5352782119841
 30
0.0
  0
SPLINE
  5
D2
330
1F
100
AcDbEntity
  8
0
  6
HIDDEN
 62
     7
370
     0
100
AcDbSpline
210
0.0
220
0.0
230
1.0
 70
     8
 71
     3
 72
    13
 73
     9
 74
     0
 42
0.00000001
 43
0.00000001
 40
0.0
 40
0.0
 40
0.0
 40
0.0
 40
0.1540223516861439
 40
0.3222978879394844
 40
0.4885662367489577
 40
0.6560437831874955
 40
0.8273549263198314
 40
1.0
 40
1.0
 40
1.0
 40
1.0
 10
83.80331487800407
 20
77.58714870236366
 30
0.0
 10
83.8085005489735
 20
77.58647687292701
 30
0.0
 10
83.81935177142722
 20
77.58507104314893
 30
0.0
 10
83.75001033311841
 20
77.59405793602052
 30
0.0
 10
83.64989286890544
 20
77.60747205215627
 30
0.0
 10
83.5033651008754
 20
77.62811260052338
 30
0.0
 10
83.31715120298011
 20
77.65567806143784
 30
0.0
 10
83.15744849272454
 20
77.68178641182647
 30
0.0
 10
83.07728745817627
 20
77.69489121370586
 30
0.0
  0
LINE
  5
D3
330
1F
100
AcDbEntity
  8
0
  6
HIDDEN
 62
     7
370
     0
100
AcDbLine
 10
62.82070613
 20
82.5612134345
 30
0.0
 11
62.82070613
 21
135.5612134345
 31
0.0
  0
LINE
  5
D4
330
1F
100
AcDbEntity
  8
0
  6
HIDDEN
 62
     7
370
     0
100
AcDbLine
 10
102.1081594213
 20
82.5612134345
 30
0.0
 11
102.1081594213
 21
135.5612134345
 31
0.0
  0
LINE
  5
D5
330
1F
100
AcDbEntity
  8
0
  6
HIDDEN
 62
     7
370
     0
100
AcDbLine
 10
105.274081803
 20
84.1862134345
 30
0.0
 11
105.274081803
 21
133.9362134345
 31
0.0
  0
SPLINE
  5
D6
330
1F
100
AcDbEntity
  8
0
  6
HIDDEN
 62
     7
370
     0
100
AcDbSpline
210
0.0
220
0.0
230
1.0
 70
     8
 71
     3
 72
    20
 73
    16
 74
     0
 42
0.00000001
 43
0.00000001
 40
0.0
 40
0.0
 40
0.0
 40
0.0
 40
0.2499999999999963
 40
0.2499999999999963
 40
0.3749999999999969
 40
0.3749999999999969
 40
0.4999999999999976
 40
0.4999999999999976
 40
0.6249999999999981
 40
0.6249999999999981
 40
0.7499999999999988
 40
0.7499999999999988
 40
0.8749999999999993
 40
0.8749999999999993
 40
1.0
 40
1.0
 40
1.0
 40
1.0
 10
53.02408180298524
 20
134.2897270648672
 30
0.0
 10
53.02408180298524
 20
134.210524078335
 30
0.0
 10
52.97709930777251
 20
134.129427859932
 30
0.0
 10
52.83927771699494
 20
134.0092311681811
 30
0.0
 10
52.78299543308494
 20
133.970304464179
 30
0.0
 10
52.64991058161773
 20
133.8951157317547
 30
0.0
 10
52.57207063938468
 20
133.8584735264127
 30
0.0
 10
52.39943828327031
 20
133.7908829935808
 30
0.0
 10
52.30504528617924
 20
133.7599248118052
 30
0.0
 10
52.0996079798641
 20
133.7044003904355
 30
0.0
 10
51.98726173987691
 20
133.6796918766023
 30
0.0
 10
51.75502087597727
 20
133.6398956494941
 30
0.0
 10
51.63431023355455
 20
133.624475812097
 30
0.0
 10
51.38323937428552
 20
133.6033958372574
 30
0.0
 10
51.25371737786974
 20
133.5979185922365
 30
0.0
 10
51.12408180298525
 20
133.5979185922365
 30
0.0
  0
LINE
  5
D7
330
1F
100
AcDbEntity
  8
0
  6
HIDDEN
 62
     7
370
     0
100
AcDbLine
 10
51.124081803
 20
133.5979185922
 30
0.0
 11
44.574081803
 21
133.5979185922
 31
0.0
  0
LINE
  5
D8
330
1F
100
AcDbEntity
  8
0
  6
HIDDEN
 62
     7
370
     0
100
AcDbLine
 10
44.574081803
 20
84.5245082767
 30
0.0
 11
56.124081803
 21
84.5245082767
 31
0.0
  0
SPLINE
  5
D9
330
1F
100
AcDbEntity
  8
0
  6
HIDDEN
 62
     7
370
     0
100
AcDbSpline
210
0.0
220
0.0
230
1.0
 70
     8
 71
     3
 72
    18
 73
    14
 74
     0
 42
0.00000001
 43
0.00000001
 40
0.0
 40
0.0
 40
0.0
 40
0.0
 40
0.1249999999999979
 40
0.1249999999999979
 40
0.2499999999999958
 40
0.2499999999999958
 40
0.4999999999999977
 40
0.4999999999999977
 40
0.7499999999999994
 40
0.7499999999999994
 40
0.8749999999999998
 40
0.8749999999999998
 40
1.0
 40
1.0
 40
1.0
 40
1.0
 10
56.12408180298522
 20
84.52450827666942
 30
0.0
 10
56.25354911594246
 20
84.52450827666944
 30
0.0
 10
56.38055986483909
 20
84.51915527807678
 30
0.0
 10
56.62992318603632
 20
84.49841730538799
 30
0.0
 10
56.75354684066478
 20
84.4827454011337
 30
0.0
 10
57.10257917759881
 20
84.4230506727316
 30
0.0
 10
57.31309094240561
 20
84.36528549305062
 30
0.0
 10
57.65700762010512
 20
84.23076365177313
 30
0.0
 10
57.79335802162293
 20
84.15309453826774
 30
0.0
 10
57.93039607818547
 20
84.03380340418039
 30
0.0
 10
57.96561509689835
 20
83.99288439504534
 30
0.0
 10
58.01223867383693
 20
83.9122284017553
 30
0.0
 10
58.02408180298524
 20
83.87225988156244
 30
0.0
 10
58.02408180298524
 20
83.83269980403864
 30
0.0
  0
LINE
  5
DA
330
1F
100
AcDbEntity
  8
0
  6
HIDDEN
 62
     7
370
     0
100
AcDbLine
 10
44.574081803
 20
84.5245082767
 30
0.0
 11
44.574081803
 21
133.5979185922
 31
0.0
  0
LWPOLYLINE
  5
DB
330
1F
100
AcDbEntity
  8
0
  6
HIDDEN
 62
     7
370
     0
100
AcDbPolyline
 90
       13
 70
   128
 43
0.0
 10
101.824081803
 20
149.0049439978
 10
102.9771611567
 20
149.059762192
 10
104.068077704
 20
149.2212615118
 10
105.0380198514
 20
149.4807354869
 10
105.8346977668
 20
149.8241958083
 10
106.4151623374
 20
150.233126441
 10
106.748120568
 20
150.6854818288
 10
106.8156225943
 20
151.1568753757
 10
106.6140293646
 20
151.6218941336
 10
106.1542088219
 20
152.0554688208
 10
105.4609500109
 20
152.4342253138
 10
104.5716266933
 20
152.7377447519
 10
104.1954158976
 20
152.8290435986
  0
LWPOLYLINE
  5
DC
330
1F
100
AcDbEntity
  8
0
  6
HIDDEN
 62
     7
370
     0
100
AcDbPolyline
 90
       13
 70
   128
 43
0.0
 10
99.3889544755
 20
152.8148212605
 10
99.0765369126
 20
152.7377447519
 10
98.1872135951
 20
152.4342253138
 10
97.4939547841
 20
152.0554688208
 10
97.0341342414
 20
151.6218941336
 10
96.8325410116
 20
151.1568753757
 10
96.9000430379
 20
150.6854818288
 10
97.2330012686
 20
150.233126441
 10
97.8134658392
 20
149.8241958083
 10
98.6101437546
 20
149.4807354869
 10
99.580085902
 20
149.2212615118
 10
100.6710024493
 20
149.059762192
 10
101.824081803
 20
149.0049439978
  0
LINE
  5
DD
330
1F
100
AcDbEntity
  8
0
  6
HIDDEN
 62
     7
370
     0
100
AcDbLine
 10
44.574081803
 20
81.6912134345
 30
0.0
 11
44.574081803
 21
76.8129282326
 31
0.0
  0
LINE
  5
DE
330
1F
100
AcDbEntity
  8
0
  6
HIDDEN
 62
     7
370
     0
100
AcDbLine
 10
58.024081803
 20
81.6912134345
 30
0.0
 11
58.024081803
 21
75.1918801691
 31
0.0
  0
LINE
  5
DF
330
1F
100
AcDbEntity
  8
0
  6
HIDDEN
 62
     7
370
     0
100
AcDbLine
 10
53.024081803
 20
136.4312134345
 30
0.0
 11
53.024081803
 21
142.8058221714
 31
0.0
  0
LINE
  5
E0
330
1F
100
AcDbEntity
  8
0
  6
HIDDEN
 62
     7
370
     0
100
AcDbLine
 10
44.574081803
 20
136.4312134345
 30
0.0
 11
44.574081803
 21
141.3094986363
 31
0.0
  0
LINE
  5
E1
330
1F
100
AcDbEntity
  8
0
  6
HIDDEN
 62
     7
370
     0
100
AcDbLine
 10
117.124081803
 20
96.0612134345
 30
0.0
 11
117.124081803
 21
122.0612134345
 31
0.0
  0
LINE
  5
E2
330
1F
100
AcDbEntity
  8
0
  6
HIDDEN
 62
     7
370
     0
100
AcDbLine
 10
121.124081803
 20
96.0612134345
 30
0.0
 11
121.124081803
 21
122.0612134345
 31
0.0
  0
SPLINE
  5
E3
330
1F
100
AcDbEntity
  8
0
  6
HIDDEN
 62
     7
370
     0
100
AcDbSpline
210
0.0
220
0.0
230
1.0
 70
     8
 71
     3
 72
     9
 73
     5
 74
     0
 42
0.00000001
 43
0.00000001
 40
0.0
 40
0.0
 40
0.0
 40
0.0
 40
0.6762853039761688
 40
1.0
 40
1.0
 40
1.0
 40
1.0
 10
252.8240818029852
 20
98.92328278591212
 30
0.0
 10
252.8232861383445
 20
98.8804377404597
 30
0.0
 10
252.8221096161933
 20
98.81708423388409
 30
0.0
 10
252.8217920543421
 20
98.81366796006228
 30
0.0
 10
252.821689254904
 20
98.81256206202049
 30
0.0
  0
LINE
  5
E4
330
1F
100
AcDbEntity
  8
0
  6
HIDDEN
 62
     7
370
     0
100
AcDbLine
 10
106.024081803
 20
97.8112134345
 30
0.0
 11
106.024081803
 21
120.3112134345
 31
0.0
  0
ELLIPSE
  5
E5
330
1F
100
AcDbEntity
  8
0
  6
HIDDEN
 62
     7
370
     0
100
AcDbEllipse
 10
36.6394086027
 20
109.0612134345
 30
0.0
 11
31.08108570811669
 21
-1.421085471520200E-14
 31
0.0
210
0.0
220
0.0
230
1.0
 40
0.8164965809
 41
4.915995335118105
 42
4.970536038964791
  0
ELLIPSE
  5
E6
330
1F
100
AcDbEntity
  8
0
  6
HIDDEN
 62
     7
370
     0
100
AcDbEllipse
 10
36.6394086027
 20
109.0612134345
 30
0.0
 11
31.08108570811669
 21
1.421085471520200E-14
 31
0.0
210
0.0
220
0.0
230
1.0
 40
0.8164965809
 41
1.312649268214807
 42
1.367189972061492
  0
LINE
  5
E7
330
1F
100
AcDbEntity
  8
0
  6
HIDDEN
 62
     7
370
     0
100
AcDbLine
 10
121.774081803
 20
65.1612134345
 30
0.0
 11
107.774081803
 21
65.1612134345
 31
0.0
  0
LINE
  5
E8
330
1F
100
AcDbEntity
  8
0
  6
HIDDEN
 62
     7
370
     0
100
AcDbLine
 10
97.774081803
 20
59.0712144347
 30
0.0
 11
97.774081803
 21
65.1612134345
 31
0.0
  0
LINE
  5
E9
330
1F
100
AcDbEntity
  8
0
  6
HIDDEN
 62
     7
370
     0
100
AcDbLine
 10
107.774081803
 20
65.1612134345
 30
0.0
 11
97.774081803
 21
65.1612134345
 31
0.0
  0
LINE
  5
EA
330
1F
100
AcDbEntity
  8
0
  6
HIDDEN
 62
     7
370
     0
100
AcDbLine
 10
58.024081803
 20
81.6912134345
 30
0.0
 11
58.024081803
 21
83.832699804
 31
0.0
  0
LINE
  5
EB
330
1F
100
AcDbEntity
  8
0
  6
HIDDEN
 62
     7
370
     0
100
AcDbLine
 10
44.574081803
 20
81.6912134345
 30
0.0
 11
44.574081803
 21
84.5245082767
 31
0.0
  0
LINE
  5
EC
330
1F
100
AcDbEntity
  8
0
  6
HIDDEN
 62
     7
370
     0
100
AcDbLine
 10
53.024081803
 20
136.4312134345
 30
0.0
 11
53.024081803
 21
134.2897270649
 31
0.0
  0
LINE
  5
ED
330
1F
100
AcDbEntity
  8
0
  6
HIDDEN
 62
     7
370
     0
100
AcDbLine
 10
44.574081803
 20
136.4312134345
 30
0.0
 11
44.574081803
 21
133.5979185922
 31
0.0
  0
LINE
  5
EE
330
1F
100
AcDbEntity
  8
0
  6
HIDDEN
 62
     7
370
     0
100
AcDbLine
 10
121.774081803
 20
152.9612134345
 30
0.0
 11
107.774081803
 21
152.9612134345
 31
0.0
  0
LINE
  5
EF
330
1F
100
AcDbEntity
  8
0
  6
HIDDEN
 62
     7
370
     0
100
AcDbLine
 10
107.774081803
 20
152.9612134345
 30
0.0
 11
97.774081803
 21
152.9612134345
 31
0.0
  0
SPLINE
  5
F0
330
1F
100
AcDbEntity
  8
0
  6
HIDDEN
 62
     7
370
     0
100
AcDbSpline
210
0.0
220
0.0
230
1.0
 70
     8
 71
     3
 72
    30
 73
    26
 74
     0
 42
0.00000001
 43
0.00000001
 40
0.0
 40
0.0
 40
0.0
 40
0.0
 40
0.0531668058202276
 40
0.1125460448583103
 40
0.1779415820676537
 40
0.2129647235110639
 40
0.2495168671262004
 40
0.291281589847634
 40
0.3261230015740527
 40
0.3540373900248375
 40
0.3750221080318999
 40
0.4414779845106176
 40
0.5001940042389676
 40
0.5547072404138226
 40
0.6144498352304115
 40
0.6794734232704714
 40
0.7140294936834801
 40
0.7499255024786287
 40
0.791388893361869
 40
0.8260548988045775
 40
0.8539197350949332
 40
0.8749805502089562
 40
0.9411652363101328
 40
0.9999141591659438
 40
1.0
 40
1.0
 40
1.0
 40
1.0
 10
83.82365865626792
 20
71.96127644506319
 30
0.0
 10
83.80745712466407
 20
71.96617859764389
 30
0.0
 10
83.77316094541217
 20
71.9765557093725
 30
0.0
 10
83.47181433093296
 20
72.05221697695467
 30
0.0
 10
83.02964206227968
 20
72.14850411025792
 30
0.0
 10
82.53480989141416
 20
72.24816881992638
 30
0.0
 10
82.06433409090661
 20
72.34044699282666
 30
0.0
 10
81.53341270494285
 20
72.43607901772216
 30
0.0
 10
80.99526219366696
 20
72.52172926262455
 30
0.0
 10
80.53721486128545
 20
72.58902105526256
 30
0.0
 10
79.88165054000895
 20
72.67736922428809
 30
0.0
 10
78.99834410256847
 20
72.77402730842327
 30
0.0
 10
77.86968236973617
 20
72.86080248522686
 30
0.0
 10
76.77992061995099
 20
72.89888118296788
 30
0.0
 10
75.68389234149254
 20
72.90073161773996
 30
0.0
 10
74.77850109456695
 20
72.87457016214726
 30
0.0
 10
74.08219838418461
 20
72.83796293700398
 30
0.0
 10
73.5555186563645
 20
72.79894606154122
 30
0.0
 10
73.08887254178444
 20
72.7567369341002
 30
0.0
 10
72.71765726620801
 20
72.71973284455835
 30
0.0
 10
72.46361078852857
 20
72.69103208408877
 30
0.0
 10
72.16255563542572
 20
72.65465213346636
 30
0.0
 10
71.90707184044004
 20
72.62187196643572
 30
0.0
 10
71.80785111548121
 20
72.60553408174363
 30
0.0
 10
71.82413167276584
 20
72.60812766791308
 30
0.0
 10
71.8241554263518
 20
72.60813145199559
 30
0.0
  0
SPLINE
  5
F1
330
1F
100
AcDbEntity
  8
0
  6
HIDDEN
 62
     7
370
     0
100
AcDbSpline
210
0.0
220
0.0
230
1.0
 70
     8
 71
     3
 72
    30
 73
    26
 74
     0
 42
0.00000001
 43
0.00000001
 40
0.0
 40
0.0
 40
0.0
 40
0.0
 40
0.0001123288057692
 40
0.0285431152706638
 40
0.0588466796121224
 40
0.0910271964548352
 40
0.1250880910051814
 40
0.1546766141816535
 40
0.1963554560804497
 40
0.2501101496293133
 40
0.3205253872349852
 40
0.385610430020096
 40
0.4454038608858225
 40
0.4999571692318041
 40
0.5283494388476924
 40
0.5586340270243796
 40
0.5908185964963244
 40
0.624909471458329
 40
0.654184457524067
 40
0.6958630078023593
 40
0.7499307292180755
 40
0.8215905285811296
 40
0.8871422909871766
 40
0.9466378748984584
 40
1.0
 40
1.0
 40
1.0
 40
1.0
 10
71.82417713508511
 20
145.5142251434813
 30
0.0
 10
71.82414527532697
 20
145.5142320906075
 30
0.0
 10
71.8160496070549
 20
145.5159973780005
 30
0.0
 10
71.84471108472988
 20
145.5105424592749
 30
0.0
 10
71.91809793089688
 20
145.4999996119292
 30
0.0
 10
72.0617544744505
 20
145.4803144042768
 30
0.0
 10
72.26279017446637
 20
145.4554751404086
 30
0.0
 10
72.54542072384034
 20
145.4212666752621
 30
0.0
 10
72.95882984948275
 20
145.3775867785033
 30
0.0
 10
73.63511735055661
 20
145.3145437109777
 30
0.0
 10
74.57354825128687
 20
145.2532465405503
 30
0.0
 10
75.68304146475518
 20
145.2219580970491
 30
0.0
 10
76.78052219546203
 20
145.2236132646479
 30
0.0
 10
77.68055343392817
 20
145.2549194667461
 30
0.0
 10
78.39189435977299
 20
145.3017526155486
 30
0.0
 10
78.95731126074362
 20
145.3489194774434
 30
0.0
 10
79.54623468359416
 20
145.4083584839965
 30
0.0
 10
80.11064433573769
 20
145.4747156905555
 30
0.0
 10
80.7048405293674
 20
145.5566350969495
 30
0.0
 10
81.37144869041593
 20
145.6582830797018
 30
0.0
 10
82.17278143654238
 20
145.8004219903452
 30
0.0
 10
82.92529142133743
 20
145.9516665611517
 30
0.0
 10
83.47057791628856
 20
146.0695174344143
 30
0.0
 10
83.77329944771833
 20
146.1457466661655
 30
0.0
 10
83.80758989831922
 20
146.156198975658
 30
0.0
 10
83.82380333496222
 20
146.1611411054569
 30
0.0
  0
LINE
  5
F2
330
1F
100
AcDbEntity
  8
0
  6
HIDDEN
 62
     7
370
     0
100
AcDbLine
 10
249.324081803
 20
103.0612134345
 30
0.0
 11
249.324081803
 21
115.0612134345
 31
0.0
  0
SPLINE
  5
F3
330
1F
100
AcDbEntity
  8
0
  6
HIDDEN
 62
     7
370
     0
100
AcDbSpline
210
0.0
220
0.0
230
1.0
 70
     8
 71
     3
 72
    22
 73
    18
 74
     0
 42
0.00000001
 43
0.00000001
 40
0.0
 40
0.0
 40
0.0
 40
0.0
 40
0.0517222006515871
 40
0.1569606720658434
 40
0.2105992409795499
 40
0.2623197259632333
 40
0.3674686382934063
 40
0.421007766415027
 40
0.473656505602179
 40
0.5806967258199357
 40
0.6352137093767857
 40
0.6884700412458062
 40
0.7421045313305772
 40
0.7969473674336789
 40
0.8522151218778753
 40
0.9044757023389401
 40
1.0
 40
1.0
 40
1.0
 40
1.0
 10
208.3240818029853
 20
115.1800368507643
 30
0.0
 10
208.3648267950929
 20
115.1802824506199
 30
0.0
 10
208.4884750788854
 20
115.1810277692242
 30
0.0
 10
208.6529295264531
 20
115.1879795789601
 30
0.0
 10
208.8117083500881
 20
115.1990581030142
 30
0.0
 10
208.9657815183684
 20
115.2127869302413
 30
0.0
 10
209.1116008470209
 20
115.2298440397959
 30
0.0
 10
209.2463322241051
 20
115.2488948829434
 30
0.0
 10
209.3736913458947
 20
115.2688790110971
 30
0.0
 10
209.4876174764539
 20
115.2893320444784
 30
0.0
 10
209.5848902874905
 20
115.3084633663828
 30
0.0
 10
209.6491159973874
 20
115.3217727275452
 30
0.0
 10
209.7041246648643
 20
115.3336698314117
 30
0.0
 10
209.7499177612194
 20
115.3439274605125
 30
0.0
 10
209.7845278429134
 20
115.3518904139085
 30
0.0
 10
209.816296590107
 20
115.3593480716085
 30
0.0
 10
209.8198538510073
 20
115.3602035122278
 30
0.0
 10
209.8221531718405
 20
115.3607564467728
 30
0.0
  0
LINE
  5
F4
330
1F
100
AcDbEntity
  8
0
  6
HIDDEN
 62
     7
370
     0
100
AcDbLine
 10
208.384367353
 20
115.1806383719
 30
0.0
 11
208.2020702826
 21
115.1820781028
 31
0.0
  0
SPLINE
  5
F5
330
1F
100
AcDbEntity
  8
0
  6
HIDDEN
 62
     7
370
     0
100
AcDbSpline
210
0.0
220
0.0
230
1.0
 70
     8
 71
     3
 72
    22
 73
    18
 74
     0
 42
0.00000001
 43
0.00000001
 40
0.0
 40
0.0
 40
0.0
 40
0.0
 40
0.030305524087581
 40
0.1351289769913072
 40
0.1885491599216225
 40
0.2398906872763514
 40
0.344255114949494
 40
0.3973867919096702
 40
0.449862796567037
 40
0.5565420910733001
 40
0.610867211797349
 40
0.6641421035336281
 40
0.7177928979897096
 40
0.7726442282426866
 40
0.8279179107124454
 40
0.9131253009000119
 40
1.0
 40
1.0
 40
1.0
 40
1.0
 10
206.8252794414142
 20
115.3609284036286
 30
0.0
 10
206.8251832074037
 20
115.3609514417035
 30
0.0
 10
206.8247541106042
 20
115.361054165929
 30
0.0
 10
206.8463941785608
 20
115.3558948426453
 30
0.0
 10
206.8876299085791
 20
115.3463533750337
 30
0.0
 10
206.9421540080664
 20
115.3340371475841
 30
0.0
 10
207.0151814961262
 20
115.3182179062909
 30
0.0
 10
207.1058288921756
 20
115.2999995487676
 30
0.0
 10
207.2085171161219
 20
115.2805132115586
 30
0.0
 10
207.3278070948216
 20
115.2600299499798
 30
0.0
 10
207.4609600061783
 20
115.2403298825615
 30
0.0
 10
207.5673785245548
 20
115.2263343346036
 30
0.0
 10
207.6796057895043
 20
115.2135295820766
 30
0.0
 10
207.7980739098845
 20
115.2021952167909
 30
0.0
 10
207.9441807077197
 20
115.191169246534
 30
0.0
 10
208.1199300511122
 20
115.1820218686265
 30
0.0
 10
208.2555930712353
 20
115.1807027836041
 30
0.0
 10
208.3240818029853
 20
115.1800368507643
 30
0.0
  0
SPLINE
  5
F6
330
1F
100
AcDbEntity
  8
0
  6
HIDDEN
 62
     7
370
     0
100
AcDbSpline
210
0.0
220
0.0
230
1.0
 70
     8
 71
     3
 72
    26
 73
    22
 74
     0
 42
0.00000001
 43
0.00000001
 40
0.0
 40
0.0
 40
0.0
 40
0.0
 40
0.0519111261485151
 40
0.1053531762961752
 40
0.1572573064982305
 40
0.2106199625145123
 40
0.2633999566746222
 40
0.3176692172864112
 40
0.3711038661191949
 40
0.4261427701719377
 40
0.4785856815712763
 40
0.5326182109985013
 40
0.583959509902781
 40
0.6367655693078481
 40
0.6886125762382528
 40
0.7418897763437657
 40
0.7950462581831144
 40
0.8497328180665602
 40
0.9029973160868536
 40
0.9578785649270092
 40
1.0
 40
1.0
 40
1.0
 40
1.0
 10
209.8240818029853
 20
102.7612134344529
 30
0.0
 10
209.8201978092644
 20
102.7621439558399
 30
0.0
 10
209.8123152779928
 20
102.7640324408528
 30
0.0
 10
209.7490009003068
 20
102.7788335645561
 30
0.0
 10
209.649138850818
 20
102.8009052480342
 30
0.0
 10
209.5130654076151
 20
102.8285488924113
 30
0.0
 10
209.3424030562626
 20
102.8591287746339
 30
0.0
 10
209.1429765599044
 20
102.8890439064927
 30
0.0
 10
208.9169876875903
 20
102.9152234504438
 30
0.0
 10
208.6758241530626
 20
102.9339588827636
 30
0.0
 10
208.4233510061337
 20
102.9433205544802
 30
0.0
 10
208.1735902694791
 20
102.942227338856
 30
0.0
 10
207.9278532064299
 20
102.9311123004221
 30
0.0
 10
207.6965383453205
 20
102.911648374452
 30
0.0
 10
207.4799923330919
 20
102.8855626069511
 30
0.0
 10
207.2861261573194
 20
102.8558372437699
 30
0.0
 10
207.1179049361498
 20
102.8252384275899
 30
0.0
 10
206.9832461020755
 20
102.79753320246
 30
0.0
 10
206.8867489428097
 20
102.7759895342124
 30
0.0
 10
206.8315566160491
 20
102.7630009112807
 30
0.0
 10
206.8285110252075
 20
102.7622686005392
 30
0.0
 10
206.8271885395637
 20
102.7619506095506
 30
0.0
  0
LINE
  5
F7
330
1F
100
AcDbEntity
  8
0
  6
HIDDEN
 62
     7
370
     0
100
AcDbLine
 10
206.324081803
 20
103.1612134345
 30
0.0
 11
206.324081803
 21
114.9612134345
 31
0.0
  0
LINE
  5
F8
330
1F
100
AcDbEntity
  8
0
  6
HIDDEN
 62
     7
370
     0
100
AcDbLine
 10
216.824081803
 20
103.0612134345
 30
0.0
 11
216.824081803
 21
115.0612134345
 31
0.0
  0
LINE
  5
F9
330
1F
100
AcDbEntity
  8
0
  6
HIDDEN
 62
     7
370
     0
100
AcDbLine
 10
185.4227908744
 20
103.0612134345
 30
0.0
 11
185.4227908744
 21
115.0612134345
 31
0.0
  0
LINE
  5
FA
330
1F
100
AcDbEntity
  8
0
  6
HIDDEN
 62
     7
370
     0
100
AcDbLine
 10
186.324081803
 20
104.5612134345
 30
0.0
 11
186.324081803
 21
113.5612134345
 31
0.0
  0
LINE
  5
FB
330
1F
100
AcDbEntity
  8
0
  6
HIDDEN
 62
     7
370
     0
100
AcDbLine
 10
161.774081803
 20
125.4838631653
 30
0.0
 11
164.274081803
 21
125.4838631653
 31
0.0
  0
LINE
  5
FC
330
1F
100
AcDbEntity
  8
0
  6
HIDDEN
 62
     7
370
     0
100
AcDbLine
 10
159.274081803
 20
125.4838631653
 30
0.0
 11
161.774081803
 21
125.4838631653
 31
0.0
  0
LINE
  5
FD
330
1F
100
AcDbEntity
  8
0
  6
HIDDEN
 62
     7
370
     0
100
AcDbLine
 10
164.274081803
 20
92.6385637036
 30
0.0
 11
159.274081803
 21
92.6385637036
 31
0.0
  0
LINE
  5
FE
330
1F
100
AcDbEntity
  8
0
  6
HIDDEN
 62
     7
370
     0
100
AcDbLine
 10
161.774081803
 20
117.0612134345
 30
0.0
 11
164.274081803
 21
117.0612134345
 31
0.0
  0
LINE
  5
FF
330
1F
100
AcDbEntity
  8
0
  6
HIDDEN
 62
     7
370
     0
100
AcDbLine
 10
159.274081803
 20
117.0612134345
 30
0.0
 11
161.774081803
 21
117.0612134345
 31
0.0
  0
LINE
  5
100
330
1F
100
AcDbEntity
  8
0
  6
HIDDEN
 62
     7
370
     0
100
AcDbLine
 10
164.274081803
 20
101.0612134345
 30
0.0
 11
159.274081803
 21
101.0612134345
 31
0.0
  0
SPLINE
  5
101
330
1F
100
AcDbEntity
  8
0
  6
HIDDEN
 62
     7
370
     0
100
AcDbSpline
210
0.0
220
0.0
230
1.0
 70
     8
 71
     3
 72
    36
 73
    32
 74
     0
 42
0.00000001
 43
0.00000001
 40
0.0
 40
0.0
 40
0.0
 40
0.0
 40
0.0412142186759401
 40
0.0838358591896778
 40
0.125011579008293
 40
0.1671937345915906
 40
0.1957202523930281
 40
0.2244664419833787
 40
0.2538260104882967
 40
0.2833688191076266
 40
0.3125743130236898
 40
0.3419428125961483
 40
0.3718585396618598
 40
0.4020029235047955
 40
0.4347048723037555
 40
0.4680519420768828
 40
0.5008347332919633
 40
0.5349286611035253
 40
0.5631358069580605
 40
0.5919441004063385
 40
0.6414631340811876
 40
0.6923057327449998
 40
0.7449861070698106
 40
0.7987947992598486
 40
0.8463872362165327
 40
0.8952224028960272
 40
0.9189772193187538
 40
0.9429425359063462
 40
0.9676281180500756
 40
0.9925852656495755
 40
1.0
 40
1.0
 40
1.0
 40
1.0
 10
209.8240818029853
 20
118.499723587529
 30
0.0
 10
209.8221402700443
 20
118.5021281684421
 30
0.0
 10
209.8181909028724
 20
118.5070194441552
 30
0.0
 10
209.7870962644644
 20
118.5457429421229
 30
0.0
 10
209.7400854404993
 20
118.6050358760264
 30
0.0
 10
209.6857588991452
 20
118.6748690631167
 30
0.0
 10
209.6307494378033
 20
118.7473431828859
 30
0.0
 10
209.5790558350925
 20
118.8171489750783
 30
0.0
 10
209.5239843589146
 20
118.8939216713492
 30
0.0
 10
209.4669009208004
 20
118.9768728980066
 30
0.0
 10
209.4092570553637
 20
119.0652908173783
 30
0.0
 10
209.3520985987793
 20
119.1594513550764
 30
0.0
 10
209.2966683725328
 20
119.2601992874517
 30
0.0
 10
209.2438236556193
 20
119.3708437818563
 30
0.0
 10
209.1972756888779
 20
119.4926014720872
 30
0.0
 10
209.1634205399444
 20
119.6251724721685
 30
0.0
 10
209.1492869001839
 20
119.7651453504754
 30
0.0
 10
209.1588226526418
 20
119.8985898716183
 30
0.0
 10
209.1866449539024
 20
120.0219304816289
 30
0.0
 10
209.2346578598826
 20
120.1590398227143
 30
0.0
 10
209.310704791453
 20
120.3124069993742
 30
0.0
 10
209.4121256073963
 20
120.4753932081977
 30
0.0
 10
209.518258148919
 20
120.6247156798349
 30
0.0
 10
209.6164820552937
 20
120.7519095460123
 30
0.0
 10
209.7005551872778
 20
120.8555670697683
 30
0.0
 10
209.7547423597851
 20
120.9203113297806
 30
0.0
 10
209.7875366021179
 20
120.9589872730477
 30
0.0
 10
209.8066091395297
 20
120.9813152603008
 30
0.0
 10
209.8185748886993
 20
120.9952553740398
 30
0.0
 10
209.8251891783698
 20
121.0029401737775
 30
0.0
 10
209.823114686066
 20
121.0005281831032
 30
0.0
 10
209.822639526501
 20
120.9999757200078
 30
0.0
  0
SPLINE
  5
102
330
1F
100
AcDbEntity
  8
0
  6
HIDDEN
 62
     7
370
     0
100
AcDbSpline
210
0.0
220
0.0
230
1.0
 70
     8
 71
     3
 72
    10
 73
     6
 74
     0
 42
0.00000001
 43
0.00000001
 40
0.0
 40
0.0
 40
0.0
 40
0.0
 40
0.3026314160088163
 40
0.7588357203613187
 40
1.0
 40
1.0
 40
1.0
 40
1.0
 10
206.8276106539944
 20
120.9882220883053
 30
0.0
 10
206.8276971432804
 20
120.988251563039
 30
0.0
 10
206.8279140115769
 20
120.9883254697111
 30
0.0
 10
206.8588914310421
 20
120.9968410493691
 30
0.0
 10
206.8929816303247
 20
121.0127171272866
 30
0.0
 10
206.9047707165288
 20
121.0182073988336
 30
0.0
  0
SPLINE
  5
103
330
1F
100
AcDbEntity
  8
0
  6
HIDDEN
 62
     7
370
     0
100
AcDbSpline
210
0.0
220
0.0
230
1.0
 70
     8
 71
     3
 72
    28
 73
    24
 74
     0
 42
0.00000001
 43
0.00000001
 40
0.0
 40
0.0
 40
0.0
 40
0.0
 40
0.0009226336076723
 40
0.0497723604002876
 40
0.0941872649949927
 40
0.1397247581105989
 40
0.1876965976085448
 40
0.2366559380810593
 40
0.2940345438251208
 40
0.3525705444224385
 40
0.4083427951638737
 40
0.4653815754031974
 40
0.5004134615345246
 40
0.5362690999382664
 40
0.5713704329915932
 40
0.6077333217656192
 40
0.6500257938007168
 40
0.6934941368969786
 40
0.7617653176676007
 40
0.831903238947659
 40
0.90251010089847
 40
0.9755069217527796
 40
0.9999999999999999
 40
0.9999999999999999
 40
0.9999999999999999
 40
0.9999999999999999
 10
206.8242746934392
 20
118.61781830284
 30
0.0
 10
206.8242105520432
 20
118.6177436849552
 30
0.0
 10
206.8207503825357
 20
118.6137183511467
 30
0.0
 10
206.8328441334934
 20
118.6277612718753
 30
0.0
 10
206.860586704083
 20
118.6601626554584
 30
0.0
 10
206.9063413365814
 20
118.7142343904236
 30
0.0
 10
206.9671178859308
 20
118.7875153946694
 30
0.0
 10
207.0451913559013
 20
118.884566170578
 30
0.0
 10
207.1382286736433
 20
119.0059089591544
 30
0.0
 10
207.2400784202964
 20
119.150061389241
 30
0.0
 10
207.3396187204407
 20
119.3108590863218
 30
0.0
 10
207.4159486164957
 20
119.465354132322
 30
0.0
 10
207.4657644066043
 20
119.6106067211893
 30
0.0
 10
207.4917353930159
 20
119.7377016404419
 30
0.0
 10
207.497987980977
 20
119.8701408791392
 30
0.0
 10
207.4821680058083
 20
120.0094340149947
 30
0.0
 10
207.4429697979828
 20
120.1525727767902
 30
0.0
 10
207.3733059841727
 20
120.3211080786454
 30
0.0
 10
207.273368106891
 20
120.5024143142694
 30
0.0
 10
207.1519526651548
 20
120.6876309910449
 30
0.0
 10
207.0333214801044
 20
120.851789381281
 30
0.0
 10
206.9515279341022
 20
120.9585446229272
 30
0.0
 10
206.9141591427957
 20
121.0062276532127
 30
0.0
 10
206.9047707165289
 20
121.0182073988337
 30
0.0
  0
LINE
  5
104
330
1F
100
AcDbEntity
  8
0
  6
HIDDEN
 62
     7
370
     0
100
AcDbLine
 10
209.824081803
 20
121.0612134345
 30
0.0
 11
206.824081803
 21
121.0612134345
 31
0.0
  0
SPLINE
  5
105
330
1F
100
AcDbEntity
  8
0
  6
HIDDEN
 62
     7
370
     0
100
AcDbSpline
210
0.0
220
0.0
230
1.0
 70
    11
 71
     3
 72
    30
 73
    26
 74
     0
 42
0.00000001
 43
0.00000001
 40
0.0
 40
0.0
 40
0.0
 40
0.0
 40
0.0624999999999996
 40
0.0624999999999996
 40
0.1249999999999992
 40
0.1249999999999992
 40
0.2499999999999984
 40
0.2499999999999984
 40
0.3749999999999976
 40
0.3749999999999976
 40
0.4374999999999971
 40
0.4374999999999971
 40
0.4999999999999967
 40
0.4999999999999967
 40
0.6249999999999958
 40
0.6249999999999958
 40
0.7499999999999949
 40
0.7499999999999949
 40
0.8124999999999961
 40
0.8124999999999961
 40
0.8749999999999974
 40
0.8749999999999974
 40
0.9374999999999987
 40
0.9374999999999987
 40
1.0
 40
1.0
 40
1.0
 40
1.0
 10
207.4668124621334
 20
98.06121343445294
 30
0.0
 10
207.4901344801138
 20
98.15402226269099
 30
0.0
 10
207.4999745350932
 20
98.24950716168136
 30
0.0
 10
207.4846543942334
 20
98.44255171581973
 30
0.0
 10
207.4602687284454
 20
98.53460306085128
 30
0.0
 10
207.3590323683023
 20
98.79522466262533
 30
0.0
 10
207.2610925878254
 20
98.94330578115024
 30
0.0
 10
207.0795528188413
 20
99.19744549841022
 30
0.0
 10
206.9915022864681
 20
99.30551845346592
 30
0.0
 10
206.8956384432844
 20
99.42098055136874
 30
0.0
 10
206.869242496265
 20
99.45205800245074
 30
0.0
 10
206.8338411131315
 20
99.493538039836
 30
0.0
 10
206.8242581677272
 20
99.50462808861221
 30
0.0
 10
206.8237363654691
 20
99.50523423322336
 30
0.0
 10
206.8622594344098
 20
99.46113980628937
 30
0.0
 10
206.9901312744656
 20
99.30721251368158
 30
0.0
 10
207.0773288368163
 20
99.20041024031073
 30
0.0
 10
207.2150024918276
 20
99.00790071912094
 30
0.0
 10
207.2613291857672
 20
98.93922769981333
 30
0.0
 10
207.3496757255683
 20
98.79047491428788
 30
0.0
 10
207.392211349479
 20
98.7094389427133
 30
0.0
 10
207.4595406656661
 20
98.5368404813712
 30
0.0
 10
207.4844488387748
 20
98.4429512008504
 30
0.0
 10
207.499939053466
 20
98.25211070964701
 30
0.0
 10
207.4901643088254
 20
98.15414096458983
 30
0.0
 10
207.4668124621329
 20
98.06121343445297
 30
0.0
  0
LINE
  5
106
330
1F
100
AcDbEntity
  8
0
  6
HIDDEN
 62
     7
370
     0
100
AcDbLine
 10
207.4668124621
 20
98.0612134345
 30
0.0
 11
209.2011211586
 21
98.0612134345
 31
0.0
  0
SPLINE
  5
107
330
1F
100
AcDbEntity
  8
0
  6
HIDDEN
 62
     7
370
     0
100
AcDbSpline
210
0.0
220
0.0
230
1.0
 70
    11
 71
     3
 72
    30
 73
    26
 74
     0
 42
0.00000001
 43
0.00000001
 40
0.0
 40
0.0
 40
0.0
 40
0.0
 40
0.0624999999999989
 40
0.0624999999999989
 40
0.1249999999999978
 40
0.1249999999999978
 40
0.2499999999999993
 40
0.2499999999999993
 40
0.3750000000000007
 40
0.3750000000000007
 40
0.4375000000000015
 40
0.4375000000000015
 40
0.5000000000000022
 40
0.5000000000000022
 40
0.5625000000000029
 40
0.5625000000000029
 40
0.6250000000000036
 40
0.6250000000000036
 40
0.750000000000002
 40
0.750000000000002
 40
0.8750000000000006
 40
0.8750000000000006
 40
0.9375000000000002
 40
0.9375000000000002
 40
1.0
 40
1.0
 40
1.0
 40
1.0
 10
209.2011211585959
 20
98.06121343445294
 30
0.0
 10
209.1701312533968
 20
98.15515891748825
 30
0.0
 10
209.1521033205943
 20
98.2542458241711
 30
0.0
 10
209.1544887095855
 20
98.45615378124546
 30
0.0
 10
209.1747398179598
 20
98.55502669944688
 30
0.0
 10
209.2682466871574
 20
98.8335875493656
 30
0.0
 10
209.3671321435223
 20
98.99480497756025
 30
0.0
 10
209.5526716099949
 20
99.27378307790005
 30
0.0
 10
209.6446388967773
 20
99.39453372865565
 30
0.0
 10
209.7469176783188
 20
99.52614847812127
 30
0.0
 10
209.7751502283068
 20
99.56164741562753
 30
0.0
 10
209.8136066321696
 20
99.60976200247894
 30
0.0
 10
209.8240270053942
 20
99.62263532052471
 30
0.0
 10
209.8241361514114
 20
99.62277068516764
 30
0.0
 10
209.8138355667393
 20
99.6100462676725
 30
0.0
 10
209.7755050282549
 20
99.56209345497463
 30
0.0
 10
209.7472057810806
 20
99.52651215111618
 30
0.0
 10
209.6453098508792
 20
99.39541112816117
 30
0.0
 10
209.5533481793903
 20
99.2747133628428
 30
0.0
 10
209.3677282321722
 20
98.99578767296119
 30
0.0
 10
209.2688484393654
 20
98.83509087622936
 30
0.0
 10
209.1747111736703
 20
98.55508539875558
 30
0.0
 10
209.1544892262922
 20
98.45609470840427
 30
0.0
 10
209.1521030406147
 20
98.25432492424655
 30
0.0
 10
209.1701271054831
 20
98.15517149185634
 30
0.0
 10
209.2011211586026
 20
98.06121343445463
 30
0.0
  0
LINE
  5
108
330
1F
100
AcDbEntity
  8
0
  6
HIDDEN
 62
     7
370
     0
100
AcDbLine
 10
206.8104713662
 20
99.5042982048
 30
0.0
 11
206.9086209056
 21
97.0062256142
 31
0.0
  0
SPLINE
  5
109
330
1F
100
AcDbEntity
  8
0
  6
HIDDEN
 62
     7
370
     0
100
AcDbSpline
210
0.0
220
0.0
230
1.0
 70
     8
 71
     3
 72
    12
 73
     8
 74
     0
 42
0.00000001
 43
0.00000001
 40
0.0
 40
0.0
 40
0.0
 40
0.0
 40
0.25
 40
0.25
 40
0.5
 40
0.5
 40
1.0
 40
1.0
 40
1.0
 40
1.0
 10
207.4668124621333
 20
98.06121343445275
 30
0.0
 10
207.6065663320153
 20
98.0081158015271
 30
0.0
 10
207.7471705130333
 20
97.95958931967976
 30
0.0
 10
208.0343586245637
 20
97.8856521376047
 30
0.0
 10
208.1836882715654
 20
97.86082276512626
 30
0.0
 10
208.6339433125268
 20
97.85837361532056
 30
0.0
 10
208.9218744244287
 20
97.95185230159319
 30
0.0
 10
209.2011211585959
 20
98.06121343445277
 30
0.0
  0
LINE
  5
10A
330
1F
100
AcDbEntity
  8
0
  6
HIDDEN
 62
     7
370
     0
100
AcDbLine
 10
206.8104713662
 20
118.6181286641
 30
0.0
 11
206.9047707165
 21
121.0182073988
 31
0.0
  0
LWPOLYLINE
  5
10B
330
1F
100
AcDbEntity
  8
0
  6
HIDDEN
 62
     7
370
     0
100
AcDbPolyline
 90
       28
 70
   128
 43
0.0
 10
101.824081803
 20
154.3739192862
 10
102.9771611567
 20
154.3322713208
 10
104.068077704
 20
154.2095726773
 10
105.0380198514
 20
154.0124380712
 10
105.8346977668
 20
153.7514950802
 10
106.4151623374
 20
153.4408112085
 10
106.748120568
 20
153.0971355041
 10
106.8156225943
 20
152.738995613
 10
106.6140293646
 20
152.3856989496
 10
106.1542088219
 20
152.0562918284
 10
105.4609500109
 20
151.7685326726
 10
104.5716266933
 20
151.5379346528
 10
103.5341825196
 20
151.3769293678
 10
102.4045463736
 20
151.2941966543
 10
101.2436172324
 20
151.2941966543
 10
100.1139810864
 20
151.3769293678
 10
99.0765369126
 20
151.5379346528
 10
98.1872135951
 20
151.7685326726
 10
97.4939547841
 20
152.0562918284
 10
97.0341342414
 20
152.3856989496
 10
96.8325410116
 20
152.738995613
 10
96.9000430379
 20
153.0971355041
 10
97.2330012686
 20
153.4408112085
 10
97.8134658392
 20
153.7514950802
 10
98.6101437546
 20
154.0124380712
 10
99.580085902
 20
154.2095726773
 10
100.6710024493
 20
154.3322713208
 10
101.824081803
 20
154.3739192862
  0
LINE
  5
10C
330
1F
100
AcDbEntity
  8
0
  6
HIDDEN
 62
     7
370
     0
100
AcDbLine
 10
110.914081803
 20
143.7754486269
 30
0.0
 11
110.914081803
 21
140.4112134345
 31
0.0
  0
LINE
  5
10D
330
1F
100
AcDbEntity
  8
0
  6
HIDDEN
 62
     7
370
     0
100
AcDbLine
 10
116.0861108239
 20
148.0121761953
 30
0.0
 11
116.0861108239
 21
140.4112134345
 31
0.0
  0
LINE
  5
10E
330
1F
100
AcDbEntity
  8
0
  6
HIDDEN
 62
     7
370
     0
100
AcDbLine
 10
114.734081803
 20
143.7754486269
 30
0.0
 11
114.734081803
 21
140.4112134345
 31
0.0
  0
CIRCLE
  5
10F
330
1F
100
AcDbEntity
  8
0
  6
HIDDEN
 62
     7
370
     0
100
AcDbCircle
 10
99.824081803
 20
109.0612134345
 30
0.0
 40
5.0
  0
LINE
  5
110
330
1F
100
AcDbEntity
  8
0
  6
HIDDEN
 62
     7
370
     0
100
AcDbLine
 10
252.824081803
 20
118.8117921034
 30
0.0
 11
252.7467595958
 21
116.8438105165
 31
0.0
  0
LINE
  5
111
330
1F
100
AcDbEntity
  8
0
  6
HIDDEN
 62
     7
370
     0
100
AcDbLine
 10
252.6917047694
 20
119.5675718802
 30
0.0
 11
252.5739253221
 21
116.5698847715
 31
0.0
  0
LINE
  5
112
330
1F
100
AcDbEntity
  8
0
  6
HIDDEN
 62
     7
370
     0
100
AcDbLine
 10
247.3577669655
 20
119.7771428673
 30
0.0
 11
247.2399875182
 21
116.7794557585
 31
0.0
  0
LINE
  5
113
330
1F
100
AcDbEntity
  8
0
  6
HIDDEN
 62
     7
370
     0
100
AcDbLine
 10
246.8385225395
 20
119.297158257
 30
0.0
 11
246.760002908
 21
117.2987001845
 31
0.0
  0
LINE
  5
114
330
1F
100
AcDbEntity
  8
0
  6
HIDDEN
 62
     7
370
     0
100
AcDbLine
 10
250.7961788687
 20
118.1408899577
 30
0.0
 11
250.7667340069
 21
117.3914681806
 31
0.0
  0
LINE
  5
115
330
1F
100
AcDbEntity
  8
0
  6
HIDDEN
 62
     7
370
     0
100
AcDbLine
 10
250.8256237305
 20
118.8903117349
 30
0.0
 11
250.7961788687
 21
118.1408899577
 31
0.0
  0
LINE
  5
116
330
1F
100
AcDbEntity
  8
0
  6
HIDDEN
 62
     7
370
     0
100
AcDbLine
 10
250.7961788687
 20
118.1408899577
 30
0.0
 11
252.7946369412
 21
118.0623703262
 31
0.0
  0
LINE
  5
117
330
1F
100
AcDbEntity
  8
0
  6
HIDDEN
 62
     7
370
     0
100
AcDbLine
 10
250.7667340069
 20
117.3914681806
 30
0.0
 11
252.7651920793
 21
117.312948549
 31
0.0
  0
LINE
  5
118
330
1F
100
AcDbEntity
  8
0
  6
HIDDEN
 62
     7
370
     0
100
AcDbLine
 10
250.8256237305
 20
118.8903117349
 30
0.0
 11
252.824081803
 21
118.8117921034
 31
0.0
  0
LINE
  5
119
330
1F
100
AcDbEntity
  8
0
  6
HIDDEN
 62
     7
370
     0
100
AcDbLine
 10
252.6328150457
 20
101.554855881
 30
0.0
 11
252.750594493
 21
98.5571687723
 31
0.0
  0
LINE
  5
11A
330
1F
100
AcDbEntity
  8
0
  6
HIDDEN
 62
     7
370
     0
100
AcDbLine
 10
247.2988772418
 20
101.3452848939
 30
0.0
 11
247.4166566891
 21
98.3475977852
 31
0.0
  0
LINE
  5
11B
330
1F
100
AcDbEntity
  8
0
  6
HIDDEN
 62
     7
370
     0
100
AcDbLine
 10
252.8056493195
 20
101.2809301359
 30
0.0
 11
252.824081803
 21
100.8117921034
 31
0.0
  0
LINE
  5
11C
330
1F
100
AcDbEntity
  8
0
  6
HIDDEN
 62
     7
370
     0
100
AcDbLine
 10
246.8188926316
 20
100.8260404679
 30
0.0
 11
246.8974122631
 21
98.8275823954
 31
0.0
  0
LINE
  5
11D
330
1F
100
AcDbEntity
  8
0
  6
HIDDEN
 62
     7
370
     0
100
AcDbLine
 10
250.8550685923
 20
99.9838506947
 30
0.0
 11
250.8845134541
 21
99.2344289175
 31
0.0
  0
LINE
  5
11E
330
1F
100
AcDbEntity
  8
0
  6
HIDDEN
 62
     7
370
     0
100
AcDbLine
 10
250.8256237305
 20
100.7332724719
 30
0.0
 11
250.8550685923
 21
99.9838506947
 31
0.0
  0
LINE
  5
11F
330
1F
100
AcDbEntity
  8
0
  6
HIDDEN
 62
     7
370
     0
100
AcDbLine
 10
250.8550685923
 20
99.9838506947
 30
0.0
 11
252.8535266648
 21
100.0623703262
 31
0.0
  0
LINE
  5
120
330
1F
100
AcDbEntity
  8
0
  6
HIDDEN
 62
     7
370
     0
100
AcDbLine
 10
250.8845134541
 20
99.2344289175
 30
0.0
 11
252.8829715266
 21
99.312948549
 31
0.0
  0
LINE
  5
121
330
1F
100
AcDbEntity
  8
0
  6
HIDDEN
 62
     7
370
     0
100
AcDbLine
 10
250.8256237305
 20
100.7332724719
 30
0.0
 11
252.824081803
 21
100.8117921034
 31
0.0
  0
LINE
  5
122
330
1F
100
AcDbEntity
  8
0
  6
HIDDEN
 62
     7
370
     0
100
AcDbLine
 10
205.824081803
 20
104.0612134345
 30
0.0
 11
205.824081803
 21
114.0612134345
 31
0.0
  0
LINE
  5
123
330
1F
100
AcDbEntity
  8
0
  6
HIDDEN
 62
     7
370
     0
100
AcDbLine
 10
190.324081803
 20
104.0612134345
 30
0.0
 11
190.324081803
 21
114.0612134345
 31
0.0
  0
LINE
  5
124
330
1F
100
AcDbEntity
  8
0
  6
HIDDEN
 62
     7
370
     0
100
AcDbLine
 10
189.824081803
 20
104.5612134345
 30
0.0
 11
189.824081803
 21
113.5612134345
 31
0.0
  0
LINE
  5
125
330
1F
100
AcDbEntity
  8
0
  6
HIDDEN
 62
     7
370
     0
100
AcDbLine
 10
209.824081803
 20
105.5485559163
 30
0.0
 11
207.824081803
 21
105.5485559163
 31
0.0
  0
LINE
  5
126
330
1F
100
AcDbEntity
  8
0
  6
HIDDEN
 62
     7
370
     0
100
AcDbLine
 10
209.824081803
 20
104.5612134345
 30
0.0
 11
209.824081803
 21
105.5485559163
 31
0.0
  0
LINE
  5
127
330
1F
100
AcDbEntity
  8
0
  6
HIDDEN
 62
     7
370
     0
100
AcDbLine
 10
207.824081803
 20
111.0081134942
 30
0.0
 11
209.824081803
 21
111.0081134942
 31
0.0
  0
LINE
  5
128
330
1F
100
AcDbEntity
  8
0
  6
HIDDEN
 62
     7
370
     0
100
AcDbLine
 10
209.824081803
 20
112.5738709526
 30
0.0
 11
207.824081803
 21
112.5738709526
 31
0.0
  0
LINE
  5
129
330
1F
100
AcDbEntity
  8
0
  6
HIDDEN
 62
     7
370
     0
100
AcDbLine
 10
209.824081803
 20
107.1143133747
 30
0.0
 11
209.824081803
 21
113.5612134345
 31
0.0
  0
LINE
  5
12A
330
1F
100
AcDbEntity
  8
0
  6
HIDDEN
 62
     7
370
     0
100
AcDbLine
 10
207.824081803
 20
107.1143133747
 30
0.0
 11
209.824081803
 21
107.1143133747
 31
0.0
  0
LINE
  5
12B
330
1F
100
AcDbEntity
  8
0
  6
HIDDEN
 62
     7
370
     0
100
AcDbLine
 10
207.824081803
 20
105.5485559163
 30
0.0
 11
207.824081803
 21
107.1143133747
 31
0.0
  0
LINE
  5
12C
330
1F
100
AcDbEntity
  8
0
  6
HIDDEN
 62
     7
370
     0
100
AcDbLine
 10
207.824081803
 20
108.4072420988
 30
0.0
 11
207.824081803
 21
107.1143133747
 31
0.0
  0
LINE
  5
12D
330
1F
100
AcDbEntity
  8
0
  6
HIDDEN
 62
     7
370
     0
100
AcDbLine
 10
209.824081803
 20
108.4072420988
 30
0.0
 11
207.824081803
 21
108.4072420988
 31
0.0
  0
LINE
  5
12E
330
1F
100
AcDbEntity
  8
0
  6
HIDDEN
 62
     7
370
     0
100
AcDbLine
 10
203.824081803
 20
110.1203789669
 30
0.0
 11
203.824081803
 21
108.6927649101
 31
0.0
  0
LINE
  5
12F
330
1F
100
AcDbEntity
  8
0
  6
HIDDEN
 62
     7
370
     0
100
AcDbLine
 10
195.8240818029
 20
108.6927649101
 30
0.0
 11
195.8240818029
 21
110.1203789669
 31
0.0
  0
LINE
  5
130
330
1F
100
AcDbEntity
  8
0
  6
HIDDEN
 62
     7
370
     0
100
AcDbLine
 10
203.824081803
 20
108.6927649101
 30
0.0
 11
203.824081803
 21
107.2651508534
 31
0.0
  0
LINE
  5
131
330
1F
100
AcDbEntity
  8
0
  6
HIDDEN
 62
     7
370
     0
100
AcDbLine
 10
195.8240818029
 20
107.2651508534
 30
0.0
 11
195.8240818029
 21
108.6927649101
 31
0.0
  0
LINE
  5
132
330
1F
100
AcDbEntity
  8
0
  6
HIDDEN
 62
     7
370
     0
100
AcDbLine
 10
207.824081803
 20
106.8414846404
 30
0.0
 11
209.824081803
 21
106.8414846404
 31
0.0
  0
LINE
  5
133
330
1F
100
AcDbEntity
  8
0
  6
HIDDEN
 62
     7
370
     0
100
AcDbLine
 10
209.824081803
 20
106.8414846404
 30
0.0
 11
209.824081803
 21
105.5485559163
 31
0.0
  0
LINE
  5
134
330
1F
100
AcDbEntity
  8
0
  6
HIDDEN
 62
     7
370
     0
100
AcDbLine
 10
203.824081803
 20
111.0184102574
 30
0.0
 11
203.824081803
 21
110.1203789669
 31
0.0
  0
LINE
  5
135
330
1F
100
AcDbEntity
  8
0
  6
HIDDEN
 62
     7
370
     0
100
AcDbLine
 10
203.824081803
 20
110.1203789669
 30
0.0
 11
209.824081803
 21
110.1203789669
 31
0.0
  0
LINE
  5
136
330
1F
100
AcDbEntity
  8
0
  6
HIDDEN
 62
     7
370
     0
100
AcDbLine
 10
195.8240818029
 20
110.1203789669
 30
0.0
 11
195.8240818029
 21
111.0184102574
 31
0.0
  0
LINE
  5
137
330
1F
100
AcDbEntity
  8
0
  6
HIDDEN
 62
     7
370
     0
100
AcDbLine
 10
195.8240818029
 20
110.1203789669
 30
0.0
 11
189.8240818029
 21
110.1203789669
 31
0.0
  0
LINE
  5
138
330
1F
100
AcDbEntity
  8
0
  6
HIDDEN
 62
     7
370
     0
100
AcDbLine
 10
203.824081803
 20
107.2651508534
 30
0.0
 11
203.824081803
 21
106.7355680872
 31
0.0
  0
LINE
  5
139
330
1F
100
AcDbEntity
  8
0
  6
HIDDEN
 62
     7
370
     0
100
AcDbLine
 10
203.824081803
 20
107.2651508534
 30
0.0
 11
207.824081803
 21
107.2651508534
 31
0.0
  0
LINE
  5
13A
330
1F
100
AcDbEntity
  8
0
  6
HIDDEN
 62
     7
370
     0
100
AcDbLine
 10
195.8240818029
 20
106.7355680872
 30
0.0
 11
195.8240818029
 21
107.2651508534
 31
0.0
  0
LINE
  5
13B
330
1F
100
AcDbEntity
  8
0
  6
HIDDEN
 62
     7
370
     0
100
AcDbLine
 10
195.8240818029
 20
107.2651508534
 30
0.0
 11
189.824081803
 21
107.2651508534
 31
0.0
  0
LINE
  5
13C
330
1F
100
AcDbEntity
  8
0
  6
HIDDEN
 62
     7
370
     0
100
AcDbLine
 10
195.8240818029
 20
111.0184102574
 30
0.0
 11
195.8240818029
 21
111.9164415479
 31
0.0
  0
LINE
  5
13D
330
1F
100
AcDbEntity
  8
0
  6
HIDDEN
 62
     7
370
     0
100
AcDbLine
 10
203.824081803
 20
111.9164415479
 30
0.0
 11
203.824081803
 21
111.0184102574
 31
0.0
  0
LINE
  5
13E
330
1F
100
AcDbEntity
  8
0
  6
HIDDEN
 62
     7
370
     0
100
AcDbLine
 10
195.8240818029
 20
106.205985321
 30
0.0
 11
195.8240818029
 21
106.7355680872
 31
0.0
  0
LINE
  5
13F
330
1F
100
AcDbEntity
  8
0
  6
HIDDEN
 62
     7
370
     0
100
AcDbLine
 10
203.824081803
 20
106.7355680872
 30
0.0
 11
203.824081803
 21
106.205985321
 31
0.0
  0
LINE
  5
140
330
1F
100
AcDbEntity
  8
0
  6
HIDDEN
 62
     7
370
     0
100
AcDbLine
 10
207.824081803
 20
111.2809422285
 30
0.0
 11
209.824081803
 21
111.2809422285
 31
0.0
  0
LINE
  5
141
330
1F
100
AcDbEntity
  8
0
  6
HIDDEN
 62
     7
370
     0
100
AcDbLine
 10
207.824081803
 20
110.8572760155
 30
0.0
 11
207.824081803
 21
111.2809422285
 31
0.0
  0
LINE
  5
142
330
1F
100
AcDbEntity
  8
0
  6
HIDDEN
 62
     7
370
     0
100
AcDbLine
 10
203.824081803
 20
110.8572760155
 30
0.0
 11
207.824081803
 21
110.8572760155
 31
0.0
  0
LINE
  5
143
330
1F
100
AcDbEntity
  8
0
  6
HIDDEN
 62
     7
370
     0
100
AcDbLine
 10
203.824081803
 20
111.9164415479
 30
0.0
 11
209.824081803
 21
111.9164415479
 31
0.0
  0
LINE
  5
144
330
1F
100
AcDbEntity
  8
0
  6
HIDDEN
 62
     7
370
     0
100
AcDbLine
 10
195.8240818029
 20
110.8572760155
 30
0.0
 11
189.8240818029
 21
110.8572760155
 31
0.0
  0
LINE
  5
145
330
1F
100
AcDbEntity
  8
0
  6
HIDDEN
 62
     7
370
     0
100
AcDbLine
 10
195.8240818029
 20
111.9164415479
 30
0.0
 11
189.8240818029
 21
111.9164415479
 31
0.0
  0
LINE
  5
146
330
1F
100
AcDbEntity
  8
0
  6
HIDDEN
 62
     7
370
     0
100
AcDbLine
 10
203.824081803
 20
108.002047902
 30
0.0
 11
209.824081803
 21
108.002047902
 31
0.0
  0
LINE
  5
147
330
1F
100
AcDbEntity
  8
0
  6
HIDDEN
 62
     7
370
     0
100
AcDbLine
 10
203.824081803
 20
106.205985321
 30
0.0
 11
209.824081803
 21
106.205985321
 31
0.0
  0
LINE
  5
148
330
1F
100
AcDbEntity
  8
0
  6
HIDDEN
 62
     7
370
     0
100
AcDbLine
 10
209.824081803
 20
107.1143133747
 30
0.0
 11
209.824081803
 21
106.8414846404
 31
0.0
  0
LINE
  5
149
330
1F
100
AcDbEntity
  8
0
  6
HIDDEN
 62
     7
370
     0
100
AcDbLine
 10
195.8240818029
 20
108.002047902
 30
0.0
 11
189.8240818029
 21
108.002047902
 31
0.0
  0
LINE
  5
14A
330
1F
100
AcDbEntity
  8
0
  6
HIDDEN
 62
     7
370
     0
100
AcDbLine
 10
195.8240818029
 20
106.205985321
 30
0.0
 11
189.8240818029
 21
106.205985321
 31
0.0
  0
LINE
  5
14B
330
1F
100
AcDbEntity
  8
0
  6
HIDDEN
 62
     7
370
     0
100
AcDbLine
 10
207.824081803
 20
109.7151847701
 30
0.0
 11
207.824081803
 21
110.8572760155
 31
0.0
  0
LINE
  5
14C
330
1F
100
AcDbEntity
  8
0
  6
HIDDEN
 62
     7
370
     0
100
AcDbLine
 10
209.824081803
 20
109.7151847701
 30
0.0
 11
207.824081803
 21
109.7151847701
 31
0.0
  0
LINE
  5
14D
330
1F
100
AcDbEntity
  8
0
  6
HIDDEN
 62
     7
370
     0
100
AcDbLine
 10
207.824081803
 20
112.5738709526
 30
0.0
 11
207.824081803
 21
111.2809422285
 31
0.0
  0
LINE
  5
14E
330
1F
100
AcDbEntity
  8
0
  6
HIDDEN
 62
     7
370
     0
100
AcDbLine
 10
92.824081803
 20
69.6565304779
 30
0.0
 11
92.9136834269
 21
70.2940791598
 31
0.0
  0
LINE
  5
14F
330
1F
100
AcDbEntity
  8
0
  6
HIDDEN
 62
     7
370
     0
100
AcDbLine
 10
92.9136834269
 20
147.8283477091
 30
0.0
 11
92.824081803
 21
148.465896391
 31
0.0
  0
ARC
  5
150
330
1F
100
AcDbEntity
  8
0
  6
HIDDEN
 62
     7
370
     0
100
AcDbCircle
 10
91.9271448845
 20
70.43272811
 30
0.0
 40
0.9962338214386932
100
AcDbArc
 50
352.0
 51
0.0
  0
ARC
  5
151
330
1F
100
AcDbEntity
  8
0
  6
HIDDEN
 62
     7
370
     0
100
AcDbCircle
 10
91.9271448845
 20
70.43272811
 30
0.0
 40
0.9962338214386932
100
AcDbArc
 50
0.0
 51
25.7988228126
  0
ARC
  5
152
330
1F
100
AcDbEntity
  8
0
  6
HIDDEN
 62
     7
370
     0
100
AcDbCircle
 10
91.9271448845
 20
147.6896987589
 30
0.0
 40
0.9962338214386862
100
AcDbArc
 50
348.75
 51
8.0
  0
LWPOLYLINE
  5
153
330
1F
100
AcDbEntity
  8
0
  6
HIDDEN
 62
     7
370
     0
100
AcDbPolyline
 90
        3
 70
   128
 43
0.0
 10
92.9042363524
 20
147.4953431819
 10
92.8475449218
 20
147.3084565807
 10
92.824081803
 20
147.2561252458
  0
LINE
  5
154
330
1F
100
AcDbEntity
  8
0
  6
HIDDEN
 62
     7
370
     0
100
AcDbLine
 10
92.923378706
 20
70.43272811
 30
0.0
 11
92.923378706
 21
147.6896987589
 31
0.0
  0
ARC
  5
155
330
1F
100
AcDbEntity
  8
0
  6
HIDDEN
 62
     7
370
     0
100
AcDbCircle
 10
66.2848077451
 20
78.5612134345
 30
0.0
 40
1.0
100
AcDbArc
 50
210.0
 51
270.0
  0
ARC
  5
156
330
1F
100
AcDbEntity
  8
0
  6
HIDDEN
 62
     7
370
     0
100
AcDbCircle
 10
66.2848077451
 20
139.5612134345
 30
0.0
 40
1.0
100
AcDbArc
 50
90.0
 51
150.0
  0
LINE
  5
157
330
1F
100
AcDbEntity
  8
0
  6
HIDDEN
 62
     7
370
     0
100
AcDbLine
 10
66.2848077451
 20
77.5612134345
 30
0.0
 11
71.8292521769
 21
77.5612134345
 31
0.0
  0
LINE
  5
158
330
1F
100
AcDbEntity
  8
0
  6
HIDDEN
 62
     7
370
     0
100
AcDbLine
 10
71.8292521769
 20
140.5612134345
 30
0.0
 11
66.2848077451
 21
140.5612134345
 31
0.0
  0
ARC
  5
159
330
1F
100
AcDbEntity
  8
0
  6
HIDDEN
 62
     7
370
     0
100
AcDbCircle
 10
83.0772874582
 20
89.5612134345
 30
0.0
 40
12.00000000000002
100
AcDbArc
 50
273.4752677657
 51
324.3146652873
  0
ARC
  5
15A
330
1F
100
AcDbEntity
  8
0
  6
HIDDEN
 62
     7
370
     0
100
AcDbCircle
 10
83.0772874582
 20
128.5612134345
 30
0.0
 40
12.00000000000002
100
AcDbArc
 50
35.6853347127
 51
86.5206515763
  0
LINE
  5
15B
330
1F
100
AcDbEntity
  8
0
  6
HIDDEN
 62
     7
370
     0
100
AcDbLine
 10
65.4187823414
 20
140.0612134345
 30
0.0
 11
62.82070613
 21
135.5612134345
 31
0.0
  0
LINE
  5
15C
330
1F
100
AcDbEntity
  8
0
  6
HIDDEN
 62
     7
370
     0
100
AcDbLine
 10
62.82070613
 20
82.5612134345
 30
0.0
 11
65.4187823414
 21
78.0612134345
 31
0.0
  0
ARC
  5
15D
330
1F
100
AcDbEntity
  8
0
  6
HIDDEN
 62
     7
370
     0
100
AcDbCircle
 10
103.274081803
 20
84.1862134345
 30
0.0
 40
2.0
100
AcDbArc
 50
234.3409123039
 51
0.0
  0
ARC
  5
15E
330
1F
100
AcDbEntity
  8
0
  6
HIDDEN
 62
     7
370
     0
100
AcDbCircle
 10
103.274081803
 20
133.9362134345
 30
0.0
 40
2.0
100
AcDbArc
 50
0.0
 51
125.6590876961
  0
LINE
  5
15F
330
1F
100
AcDbEntity
  8
0
  6
HIDDEN
 62
     7
370
     0
100
AcDbLine
 10
58.024081803
 20
82.5612134345
 30
0.0
 11
62.82070613
 21
82.5612134345
 31
0.0
  0
LINE
  5
160
330
1F
100
AcDbEntity
  8
0
  6
HIDDEN
 62
     7
370
     0
100
AcDbLine
 10
62.82070613
 20
135.5612134345
 30
0.0
 11
53.024081803
 21
135.5612134345
 31
0.0
  0
LINE
  5
161
330
1F
100
AcDbEntity
  8
0
  6
HIDDEN
 62
     7
370
     0
100
AcDbLine
 10
92.824081803
 20
82.5612134345
 30
0.0
 11
102.1081594213
 21
82.5612134345
 31
0.0
  0
LINE
  5
162
330
1F
100
AcDbEntity
  8
0
  6
HIDDEN
 62
     7
370
     0
100
AcDbLine
 10
102.1081594213
 20
135.5612134345
 30
0.0
 11
92.824081803
 21
135.5612134345
 31
0.0
  0
LINE
  5
163
330
1F
100
AcDbEntity
  8
0
  6
HIDDEN
 62
     7
370
     0
100
AcDbLine
 10
96.824081803
 20
154.738275072
 30
0.0
 11
96.824081803
 21
151.0386272131
 31
0.0
  0
LINE
  5
164
330
1F
100
AcDbEntity
  8
0
  6
HIDDEN
 62
     7
370
     0
100
AcDbLine
 10
106.824081803
 20
151.0386272131
 30
0.0
 11
106.824081803
 21
154.7327668136
 31
0.0
  0
LINE
  5
165
330
1F
100
AcDbEntity
  8
0
  6
HIDDEN
 62
     7
370
     0
100
AcDbLine
 10
117.124081803
 20
96.0612134345
 30
0.0
 11
121.124081803
 21
96.0612134345
 31
0.0
  0
LINE
  5
166
330
1F
100
AcDbEntity
  8
0
  6
HIDDEN
 62
     7
370
     0
100
AcDbLine
 10
121.124081803
 20
122.0612134345
 30
0.0
 11
117.124081803
 21
122.0612134345
 31
0.0
  0
LINE
  5
167
330
1F
100
AcDbEntity
  8
0
  6
HIDDEN
 62
     7
370
     0
100
AcDbLine
 10
252.8095323309
 20
98.6691911763
 30
0.0
 11
252.824081803
 21
98.9099944178
 31
0.0
  0
LINE
  5
168
330
1F
100
AcDbEntity
  8
0
  6
HIDDEN
 62
     7
370
     0
100
AcDbLine
 10
105.274081803
 20
97.0612134345
 30
0.0
 11
106.024081803
 21
97.8112134345
 31
0.0
  0
LINE
  5
169
330
1F
100
AcDbEntity
  8
0
  6
HIDDEN
 62
     7
370
     0
100
AcDbLine
 10
106.024081803
 20
120.3112134345
 30
0.0
 11
105.274081803
 21
121.0612134345
 31
0.0
  0
LINE
  5
16A
330
1F
100
AcDbEntity
  8
0
  6
HIDDEN
 62
     7
370
     0
100
AcDbLine
 10
106.024081803
 20
97.8112134345
 30
0.0
 11
117.124081803
 21
97.8112134345
 31
0.0
  0
LINE
  5
16B
330
1F
100
AcDbEntity
  8
0
  6
HIDDEN
 62
     7
370
     0
100
AcDbLine
 10
117.124081803
 20
120.3112134345
 30
0.0
 11
106.024081803
 21
120.3112134345
 31
0.0
  0
LINE
  5
16C
330
1F
100
AcDbEntity
  8
0
  6
HIDDEN
 62
     7
370
     0
100
AcDbLine
 10
97.774081803
 20
159.0612134345
 30
0.0
 11
97.774081803
 21
152.9612134345
 31
0.0
  0
ARC
  5
16D
330
1F
100
AcDbEntity
  8
0
  6
HIDDEN
 62
     7
370
     0
100
AcDbCircle
 10
252.324081803
 20
102.0245191864
 30
0.0
 40
0.5000000000000014
100
AcDbArc
 50
0.0
 51
80.0
  0
ARC
  5
16E
330
1F
100
AcDbEntity
  8
0
  6
HIDDEN
 62
     7
370
     0
100
AcDbCircle
 10
252.324081803
 20
116.0979076825
 30
0.0
 40
0.5000000000000154
100
AcDbArc
 50
280.0
 51
0.0
  0
LINE
  5
16F
330
1F
100
AcDbEntity
  8
0
  6
HIDDEN
 62
     7
370
     0
100
AcDbLine
 10
84.256794419
 20
71.4829338638
 30
0.0
 11
83.8240851325
 21
71.9611585812
 31
0.0
  0
LINE
  5
170
330
1F
100
AcDbEntity
  8
0
  6
HIDDEN
 62
     7
370
     0
100
AcDbLine
 10
71.824082261
 20
72.6081199379
 30
0.0
 11
71.3434549558
 21
72.1298952271
 31
0.0
  0
LINE
  5
171
330
1F
100
AcDbEntity
  8
0
  6
HIDDEN
 62
     7
370
     0
100
AcDbLine
 10
71.3433366143
 20
145.9925257257
 30
0.0
 11
71.8240820784
 21
145.5142460538
 31
0.0
  0
LINE
  5
172
330
1F
100
AcDbEntity
  8
0
  6
HIDDEN
 62
     7
370
     0
100
AcDbLine
 10
83.8240818051
 20
146.1612184412
 30
0.0
 11
84.2569034748
 21
146.6394981141
 31
0.0
  0
LINE
  5
173
330
1F
100
AcDbEntity
  8
0
  6
HIDDEN
 62
     7
370
     0
100
AcDbLine
 10
252.4109058918
 20
115.605503806
 30
0.0
 11
249.324081803
 21
115.0612134345
 31
0.0
  0
LINE
  5
174
330
1F
100
AcDbEntity
  8
0
  6
HIDDEN
 62
     7
370
     0
100
AcDbLine
 10
249.324081803
 20
103.0612134345
 30
0.0
 11
252.4109058918
 21
102.5169230629
 31
0.0
  0
LINE
  5
175
330
1F
100
AcDbEntity
  8
0
  6
HIDDEN
 62
     7
370
     0
100
AcDbLine
 10
209.824081803
 20
102.7612134345
 30
0.0
 11
215.9293077849
 21
102.7612134345
 31
0.0
  0
LINE
  5
176
330
1F
100
AcDbEntity
  8
0
  6
HIDDEN
 62
     7
370
     0
100
AcDbLine
 10
206.724081803
 20
102.7612134345
 30
0.0
 11
206.8271885396
 21
102.7612134345
 31
0.0
  0
LINE
  5
177
330
1F
100
AcDbEntity
  8
0
  6
HIDDEN
 62
     7
370
     0
100
AcDbLine
 10
206.8252794414
 20
115.3612134345
 30
0.0
 11
206.724081803
 21
115.3612134345
 31
0.0
  0
LINE
  5
178
330
1F
100
AcDbEntity
  8
0
  6
HIDDEN
 62
     7
370
     0
100
AcDbLine
 10
215.9293077849
 20
115.3612134345
 30
0.0
 11
209.8221531718
 21
115.3612134345
 31
0.0
  0
ARC
  5
179
330
1F
100
AcDbEntity
  8
0
  6
HIDDEN
 62
     7
370
     0
100
AcDbCircle
 10
215.9293077849
 20
103.1612134345
 30
0.0
 40
0.3999999999999915
100
AcDbArc
 50
270.0
 51
290.0
  0
ARC
  5
17A
330
1F
100
AcDbEntity
  8
0
  6
HIDDEN
 62
     7
370
     0
100
AcDbCircle
 10
215.9293077849
 20
114.9612134345
 30
0.0
 40
0.3999999999999915
100
AcDbArc
 50
70.0
 51
90.0
  0
ARC
  5
17B
330
1F
100
AcDbEntity
  8
0
  6
HIDDEN
 62
     7
370
     0
100
AcDbCircle
 10
206.724081803
 20
103.1612134345
 30
0.0
 40
0.3999999999999915
100
AcDbArc
 50
180.0
 51
270.0
  0
ARC
  5
17C
330
1F
100
AcDbEntity
  8
0
  6
HIDDEN
 62
     7
370
     0
100
AcDbCircle
 10
206.724081803
 20
114.9612134345
 30
0.0
 40
0.3999999999999915
100
AcDbArc
 50
90.0
 51
180.0
  0
LINE
  5
17D
330
1F
100
AcDbEntity
  8
0
  6
HIDDEN
 62
     7
370
     0
100
AcDbLine
 10
216.0661158422
 20
102.7853363861
 30
0.0
 11
216.824081803
 21
103.0612134345
 31
0.0
  0
LINE
  5
17E
330
1F
100
AcDbEntity
  8
0
  6
HIDDEN
 62
     7
370
     0
100
AcDbLine
 10
216.824081803
 20
115.0612134345
 30
0.0
 11
216.0661158422
 21
115.3370904828
 31
0.0
  0
LINE
  5
17F
330
1F
100
AcDbEntity
  8
0
  6
HIDDEN
 62
     7
370
     0
100
AcDbLine
 10
83.824081803
 20
71.8610297386
 30
0.0
 11
83.824081803
 21
77.5871485405
 31
0.0
  0
LINE
  5
180
330
1F
100
AcDbEntity
  8
0
  6
HIDDEN
 62
     7
370
     0
100
AcDbLine
 10
71.824081803
 20
77.5621976338
 30
0.0
 11
71.824081803
 21
72.6081583524
 31
0.0
  0
LINE
  5
181
330
1F
100
AcDbEntity
  8
0
  6
HIDDEN
 62
     7
370
     0
100
AcDbLine
 10
83.824081803
 20
140.5352783284
 30
0.0
 11
83.824081803
 21
146.2612222672
 31
0.0
  0
LINE
  5
182
330
1F
100
AcDbEntity
  8
0
  6
HIDDEN
 62
     7
370
     0
100
AcDbLine
 10
71.824081803
 20
145.5142355545
 30
0.0
 11
71.824081803
 21
140.5602292351
 31
0.0
  0
LINE
  5
183
330
1F
100
AcDbEntity
  8
0
  6
HIDDEN
 62
     7
370
     0
100
AcDbLine
 10
216.824081803
 20
103.0612134345
 30
0.0
 11
249.324081803
 21
103.0612134345
 31
0.0
  0
LINE
  5
184
330
1F
100
AcDbEntity
  8
0
  6
HIDDEN
 62
     7
370
     0
100
AcDbLine
 10
249.324081803
 20
115.0612134345
 30
0.0
 11
216.824081803
 21
115.0612134345
 31
0.0
  0
LINE
  5
185
330
1F
100
AcDbEntity
  8
0
  6
HIDDEN
 62
     7
370
     0
100
AcDbLine
 10
185.4227908744
 20
103.0612134345
 30
0.0
 11
186.324081803
 21
104.5612134345
 31
0.0
  0
LINE
  5
186
330
1F
100
AcDbEntity
  8
0
  6
HIDDEN
 62
     7
370
     0
100
AcDbLine
 10
186.324081803
 20
113.5612134345
 30
0.0
 11
185.4227908744
 21
115.0612134345
 31
0.0
  0
LINE
  5
187
330
1F
100
AcDbEntity
  8
0
  6
HIDDEN
 62
     7
370
     0
100
AcDbLine
 10
121.124081803
 20
103.0612134345
 30
0.0
 11
185.4227908744
 21
103.0612134345
 31
0.0
  0
LINE
  5
188
330
1F
100
AcDbEntity
  8
0
  6
HIDDEN
 62
     7
370
     0
100
AcDbLine
 10
185.4227908744
 20
115.0612134345
 30
0.0
 11
121.124081803
 21
115.0612134345
 31
0.0
  0
LINE
  5
189
330
1F
100
AcDbEntity
  8
0
  6
HIDDEN
 62
     7
370
     0
100
AcDbLine
 10
206.324081803
 20
114.0612134345
 30
0.0
 11
205.824081803
 21
113.5612134345
 31
0.0
  0
LINE
  5
18A
330
1F
100
AcDbEntity
  8
0
  6
HIDDEN
 62
     7
370
     0
100
AcDbLine
 10
205.824081803
 20
104.5612134345
 30
0.0
 11
206.324081803
 21
104.0612134345
 31
0.0
  0
LINE
  5
18B
330
1F
100
AcDbEntity
  8
0
  6
HIDDEN
 62
     7
370
     0
100
AcDbLine
 10
186.324081803
 20
104.5612134345
 30
0.0
 11
205.824081803
 21
104.5612134345
 31
0.0
  0
LINE
  5
18C
330
1F
100
AcDbEntity
  8
0
  6
HIDDEN
 62
     7
370
     0
100
AcDbLine
 10
205.824081803
 20
113.5612134345
 30
0.0
 11
186.324081803
 21
113.5612134345
 31
0.0
  0
LINE
  5
18D
330
1F
100
AcDbEntity
  8
0
  6
HIDDEN
 62
     7
370
     0
100
AcDbLine
 10
158.274081803
 20
126.0612134345
 30
0.0
 11
159.274081803
 21
125.4838631653
 31
0.0
  0
LINE
  5
18E
330
1F
100
AcDbEntity
  8
0
  6
HIDDEN
 62
     7
370
     0
100
AcDbLine
 10
164.274081803
 20
125.4838631653
 30
0.0
 11
165.274081803
 21
126.0612134345
 31
0.0
  0
LINE
  5
18F
330
1F
100
AcDbEntity
  8
0
  6
HIDDEN
 62
     7
370
     0
100
AcDbLine
 10
165.274081803
 20
92.0612134345
 30
0.0
 11
164.274081803
 21
92.6385637036
 31
0.0
  0
LINE
  5
190
330
1F
100
AcDbEntity
  8
0
  6
HIDDEN
 62
     7
370
     0
100
AcDbLine
 10
159.274081803
 20
92.6385637036
 30
0.0
 11
158.274081803
 21
92.0612134345
 31
0.0
  0
LINE
  5
191
330
1F
100
AcDbEntity
  8
0
  6
HIDDEN
 62
     7
370
     0
100
AcDbLine
 10
159.274081803
 20
125.4838631653
 30
0.0
 11
159.274081803
 21
117.0612134345
 31
0.0
  0
LINE
  5
192
330
1F
100
AcDbEntity
  8
0
  6
HIDDEN
 62
     7
370
     0
100
AcDbLine
 10
164.274081803
 20
117.0612134345
 30
0.0
 11
164.274081803
 21
125.4838631653
 31
0.0
  0
LINE
  5
193
330
1F
100
AcDbEntity
  8
0
  6
HIDDEN
 62
     7
370
     0
100
AcDbLine
 10
159.274081803
 20
117.0612134345
 30
0.0
 11
161.774081803
 21
115.5590618869
 31
0.0
  0
LINE
  5
194
330
1F
100
AcDbEntity
  8
0
  6
HIDDEN
 62
     7
370
     0
100
AcDbLine
 10
161.774081803
 20
115.5590618869
 30
0.0
 11
164.274081803
 21
117.0612134345
 31
0.0
  0
LINE
  5
195
330
1F
100
AcDbEntity
  8
0
  6
HIDDEN
 62
     7
370
     0
100
AcDbLine
 10
164.274081803
 20
101.0612134345
 30
0.0
 11
161.774081803
 21
102.563364982
 31
0.0
  0
LINE
  5
196
330
1F
100
AcDbEntity
  8
0
  6
HIDDEN
 62
     7
370
     0
100
AcDbLine
 10
161.774081803
 20
102.563364982
 30
0.0
 11
159.274081803
 21
101.0612134345
 31
0.0
  0
LINE
  5
197
330
1F
100
AcDbEntity
  8
0
  6
HIDDEN
 62
     7
370
     0
100
AcDbLine
 10
164.274081803
 20
92.6385637036
 30
0.0
 11
164.274081803
 21
101.0612134345
 31
0.0
  0
LINE
  5
198
330
1F
100
AcDbEntity
  8
0
  6
HIDDEN
 62
     7
370
     0
100
AcDbLine
 10
159.274081803
 20
101.0612134345
 30
0.0
 11
159.274081803
 21
92.6385637036
 31
0.0
  0
LINE
  5
199
330
1F
100
AcDbEntity
  8
0
  6
HIDDEN
 62
     7
370
     0
100
AcDbLine
 10
206.824081803
 20
118.6178183028
 30
0.0
 11
206.824081803
 21
115.3609284174
 31
0.0
  0
LINE
  5
19A
330
1F
100
AcDbEntity
  8
0
  6
HIDDEN
 62
     7
370
     0
100
AcDbLine
 10
206.824081803
 20
121.0612134345
 30
0.0
 11
206.824081803
 21
120.9882220883
 31
0.0
  0
LINE
  5
19B
330
1F
100
AcDbEntity
  8
0
  6
HIDDEN
 62
     7
370
     0
100
AcDbLine
 10
209.824081803
 20
120.99997572
 30
0.0
 11
209.824081803
 21
121.0612134345
 31
0.0
  0
LINE
  5
19C
330
1F
100
AcDbEntity
  8
0
  6
HIDDEN
 62
     7
370
     0
100
AcDbLine
 10
209.824081803
 20
115.3607583691
 30
0.0
 11
209.824081803
 21
118.4997235875
 31
0.0
  0
LINE
  5
19D
330
1F
100
AcDbEntity
  8
0
  6
HIDDEN
 62
     7
370
     0
100
AcDbLine
 10
206.824081803
 20
102.7619488145
 30
0.0
 11
206.824081803
 21
99.5011267688
 31
0.0
  0
LINE
  5
19E
330
1F
100
AcDbEntity
  8
0
  6
HIDDEN
 62
     7
370
     0
100
AcDbLine
 10
209.824081803
 20
99.610363782
 30
0.0
 11
209.824081803
 21
102.7612134345
 31
0.0
  0
LINE
  5
19F
330
1F
100
AcDbEntity
  8
0
  6
HIDDEN
 62
     7
370
     0
100
AcDbLine
 10
206.9086209056
 20
97.0062256142
 30
0.0
 11
252.8947562444
 21
98.8130257926
 31
0.0
  0
LINE
  5
1A0
330
1F
100
AcDbEntity
  8
0
  6
HIDDEN
 62
     7
370
     0
100
AcDbLine
 10
252.824081803
 20
101.3121778827
 30
0.0
 11
209.8136777708
 21
99.6222945058
 31
0.0
  0
LINE
  5
1A1
330
1F
100
AcDbEntity
  8
0
  6
HIDDEN
 62
     7
370
     0
100
AcDbLine
 10
209.824081803
 20
118.4997235875
 30
0.0
 11
252.824081803
 21
116.8102489862
 31
0.0
  0
LINE
  5
1A2
330
1F
100
AcDbEntity
  8
0
  6
HIDDEN
 62
     7
370
     0
100
AcDbLine
 10
252.8947562444
 20
119.3094010763
 30
0.0
 11
209.8227083177
 21
121.0017064484
 31
0.0
  0
LINE
  5
1A3
330
1F
100
AcDbEntity
  8
0
  6
HIDDEN
 62
     7
370
     0
100
AcDbLine
 10
206.8104713662
 20
99.5042982048
 30
0.0
 11
206.1090494143
 21
98.225774813
 31
0.0
  0
LINE
  5
1A4
330
1F
100
AcDbEntity
  8
0
  6
HIDDEN
 62
     7
370
     0
100
AcDbLine
 10
206.1090494143
 20
98.225774813
 30
0.0
 11
206.9086209056
 21
97.0062256142
 31
0.0
  0
LINE
  5
1A5
330
1F
100
AcDbEntity
  8
0
  6
HIDDEN
 62
     7
370
     0
100
AcDbLine
 10
206.8255854305
 20
120.9895511073
 30
0.0
 11
206.1090494143
 21
119.8966520559
 31
0.0
  0
LINE
  5
1A6
330
1F
100
AcDbEntity
  8
0
  6
HIDDEN
 62
     7
370
     0
100
AcDbLine
 10
206.1090494143
 20
119.8966520559
 30
0.0
 11
206.8104713662
 21
118.6181286641
 31
0.0
  0
LINE
  5
1A7
330
1F
100
AcDbEntity
  8
0
  6
HIDDEN
 62
     7
370
     0
100
AcDbLine
 10
96.824081803
 20
156.6138193307
 30
0.0
 11
96.824081803
 21
154.738275072
 31
0.0
  0
LINE
  5
1A8
330
1F
100
AcDbEntity
  8
0
  6
HIDDEN
 62
     7
370
     0
100
AcDbLine
 10
106.824081803
 20
154.7327668136
 30
0.0
 11
106.824081803
 21
156.6080848979
 31
0.0
  0
LINE
  5
1A9
330
1F
100
AcDbEntity
  8
0
  6
HIDDEN
 62
     7
370
     0
100
AcDbLine
 10
252.5739253221
 20
116.5698847715
 30
0.0
 11
252.7467595958
 21
116.8438105165
 31
0.0
  0
LINE
  5
1AA
330
1F
100
AcDbEntity
  8
0
  6
HIDDEN
 62
     7
370
     0
100
AcDbLine
 10
252.8210982619
 20
119.3216353034
 30
0.0
 11
252.6917047694
 21
119.5675718802
 31
0.0
  0
LINE
  5
1AB
330
1F
100
AcDbEntity
  8
0
  6
HIDDEN
 62
     7
370
     0
100
AcDbLine
 10
252.6917047694
 20
119.5675718802
 30
0.0
 11
247.3577669655
 21
119.7771428673
 31
0.0
  0
LINE
  5
1AC
330
1F
100
AcDbEntity
  8
0
  6
HIDDEN
 62
     7
370
     0
100
AcDbLine
 10
247.2399875182
 20
116.7794557585
 30
0.0
 11
252.5739253221
 21
116.5698847715
 31
0.0
  0
LINE
  5
1AD
330
1F
100
AcDbEntity
  8
0
  6
HIDDEN
 62
     7
370
     0
100
AcDbLine
 10
247.3577669655
 20
119.7771428673
 30
0.0
 11
246.8385225395
 21
119.297158257
 31
0.0
  0
LINE
  5
1AE
330
1F
100
AcDbEntity
  8
0
  6
HIDDEN
 62
     7
370
     0
100
AcDbLine
 10
246.760002908
 20
117.2987001845
 30
0.0
 11
247.2399875182
 21
116.7794557585
 31
0.0
  0
LINE
  5
1AF
330
1F
100
AcDbEntity
  8
0
  6
HIDDEN
 62
     7
370
     0
100
AcDbLine
 10
252.6328150457
 20
101.554855881
 30
0.0
 11
247.2988772418
 21
101.3452848939
 31
0.0
  0
LINE
  5
1B0
330
1F
100
AcDbEntity
  8
0
  6
HIDDEN
 62
     7
370
     0
100
AcDbLine
 10
247.4166566891
 20
98.3475977852
 30
0.0
 11
252.750594493
 21
98.5571687723
 31
0.0
  0
LINE
  5
1B1
330
1F
100
AcDbEntity
  8
0
  6
HIDDEN
 62
     7
370
     0
100
AcDbLine
 10
252.750594493
 20
98.5571687723
 30
0.0
 11
252.8095323309
 21
98.6691911763
 31
0.0
  0
LINE
  5
1B2
330
1F
100
AcDbEntity
  8
0
  6
HIDDEN
 62
     7
370
     0
100
AcDbLine
 10
252.8056493195
 20
101.2809301359
 30
0.0
 11
252.6328150457
 21
101.554855881
 31
0.0
  0
LINE
  5
1B3
330
1F
100
AcDbEntity
  8
0
  6
HIDDEN
 62
     7
370
     0
100
AcDbLine
 10
247.2988772418
 20
101.3452848939
 30
0.0
 11
246.8188926316
 21
100.8260404679
 31
0.0
  0
LINE
  5
1B4
330
1F
100
AcDbEntity
  8
0
  6
HIDDEN
 62
     7
370
     0
100
AcDbLine
 10
246.8974122631
 20
98.8275823954
 30
0.0
 11
247.4166566891
 21
98.3475977852
 31
0.0
  0
LINE
  5
1B5
330
1F
100
AcDbEntity
  8
0
  6
HIDDEN
 62
     7
370
     0
100
AcDbLine
 10
190.324081803
 20
104.0612134345
 30
0.0
 11
205.824081803
 21
104.0612134345
 31
0.0
  0
LINE
  5
1B6
330
1F
100
AcDbEntity
  8
0
  6
HIDDEN
 62
     7
370
     0
100
AcDbLine
 10
205.824081803
 20
114.0612134345
 30
0.0
 11
190.324081803
 21
114.0612134345
 31
0.0
  0
LINE
  5
1B7
330
1F
100
AcDbEntity
  8
0
  6
HIDDEN
 62
     7
370
     0
100
AcDbLine
 10
205.824081803
 20
104.0612134345
 30
0.0
 11
206.324081803
 21
104.5612134345
 31
0.0
  0
LINE
  5
1B8
330
1F
100
AcDbEntity
  8
0
  6
HIDDEN
 62
     7
370
     0
100
AcDbLine
 10
206.324081803
 20
113.5612134345
 30
0.0
 11
205.824081803
 21
114.0612134345
 31
0.0
  0
LINE
  5
1B9
330
1F
100
AcDbEntity
  8
0
  6
HIDDEN
 62
     7
370
     0
100
AcDbLine
 10
190.324081803
 20
114.0612134345
 30
0.0
 11
189.824081803
 21
113.5612134345
 31
0.0
  0
LINE
  5
1BA
330
1F
100
AcDbEntity
  8
0
  6
HIDDEN
 62
     7
370
     0
100
AcDbLine
 10
189.824081803
 20
104.5612134345
 30
0.0
 11
190.324081803
 21
104.0612134345
 31
0.0
  0
LINE
  5
1BB
330
1F
100
AcDbEntity
  8
0
  6
HIDDEN
 62
     7
370
     0
100
AcDbLine
 10
206.324081803
 20
104.5612134345
 30
0.0
 11
209.824081803
 21
104.5612134345
 31
0.0
  0
LINE
  5
1BC
330
1F
100
AcDbEntity
  8
0
  6
HIDDEN
 62
     7
370
     0
100
AcDbLine
 10
209.824081803
 20
113.5612134345
 30
0.0
 11
206.324081803
 21
113.5612134345
 31
0.0
  0
LINE
  5
1BD
330
1F
100
AcDbEntity
  8
0
  6
HIDDEN
 62
     7
370
     0
100
AcDbLine
 10
195.8240818029
 20
106.5612134345
 30
0.0
 11
203.824081803
 21
106.5612134345
 31
0.0
  0
LINE
  5
1BE
330
1F
100
AcDbEntity
  8
0
  6
HIDDEN
 62
     7
370
     0
100
AcDbLine
 10
203.824081803
 20
111.5612134345
 30
0.0
 11
195.8240818029
 21
111.5612134345
 31
0.0
  0
DIMENSION
  5
1BF
330
1F
100
AcDbEntity
  8
VERMASSUNG
100
AcDbDimension
  2
*D1
 10
37.3387865655
 20
59.0612134345
 30
0.0
 11
37.3387865655
 21
109.0612134345
 31
0.0
 70
   160
  1
HSK A %%c<>
 71
     2
 42
-1.0
  3
SLDDIMSTYLE0
100
AcDbAlignedDimension
 13
93.324081803
 23
159.0612134345
 33
0.0
 14
93.324081803
 24
59.0612134345
 34
0.0
 50
90.0
100
AcDbRotatedDimension
  0
DIMENSION
  5
1CC
330
1F
100
AcDbEntity
  8
VERMASSUNG
100
AcDbDimension
  2
*D2
 10
252.824081803
 20
160.5806067172
 30
0.0
 11
229.574081803
 21
160.5806067172
 31
0.0
 70
   160
 71
     2
 42
-1.0
  3
SLDDIMSTYLE1
100
AcDbAlignedDimension
 13
206.324081803
 23
114.9612134345
 33
0.0
 14
252.824081803
 24
119.2124324511
 34
0.0
 50
0.0
100
AcDbRotatedDimension
  0
DIMENSION
  5
1D7
330
1F
100
AcDbEntity
  8
VERMASSUNG
100
AcDbDimension
  2
*D3
 10
258.732936078
 20
115.0612134345
 30
0.0
 11
258.732936078
 21
109.0612134345
 31
0.0
 70
   160
  1
%%c<>
 71
     2
 42
-1.0
  3
SLDDIMSTYLE2
100
AcDbAlignedDimension
 13
249.324081803
 23
103.0612134345
 33
0.0
 14
249.324081803
 24
115.0612134345
 34
0.0
 50
90.0
100
AcDbRotatedDimension
  0
DIMENSION
  5
1E3
330
1F
100
AcDbEntity
  8
VERMASSUNG
100
AcDbDimension
  2
*D4
 10
264.732936078
 20
121.0612134345
 30
0.0
 11
264.732936078
 21
109.0612134345
 31
0.0
 70
   160
  1
%%c<>
 71
     2
 42
-1.0
  3
SLDDIMSTYLE3
100
AcDbAlignedDimension
 13
252.824081803
 23
97.0612134345
 33
0.0
 14
252.824081803
 24
121.0612134345
 34
0.0
 50
90.0
100
AcDbRotatedDimension
  0
DIMENSION
  5
1EF
330
1F
100
AcDbEntity
  8
VERMASSUNG
100
AcDbDimension
  2
*D5
 10
252.824081803
 20
172.5806067172
 30
0.0
 11
172.824081803
 21
172.5806067172
 31
0.0
 70
   160
 71
     2
 42
-1.0
  3
SLDDIMSTYLE0
100
AcDbAlignedDimension
 13
92.824081803
 23
158.5612134345
 33
0.0
 14
252.824081803
 24
119.2124324511
 34
0.0
100
AcDbRotatedDimension
  0
DIMENSION
  5
1F9
330
1F
100
AcDbEntity
  8
VERMASSUNG
100
AcDbDimension
  2
*D6
 10
252.824081803
 20
166.5806067172
 30
0.0
 11
187.299081803
 21
166.5806067172
 31
0.0
 70
   160
 71
     2
 42
-1.0
  3
SLDDIMSTYLE0
100
AcDbAlignedDimension
 13
121.774081803
 23
157.0299532553
 33
0.0
 14
252.824081803
 24
119.199144083
 34
0.0
100
AcDbRotatedDimension
  0
DIMENSION
  5
203
330
1F
100
AcDbEntity
  8
VERMASSUNG
100
AcDbDimension
  2
*D7
 10
252.824081803
 20
178.5806067172
 30
0.0
 11
147.874081803
 21
178.5806067172
 31
0.0
 70
   160
 71
     2
 42
-1.0
  3
SLDDIMSTYLE0
100
AcDbAlignedDimension
 13
42.924081803
 23
139.563883177
 33
0.0
 14
252.824081803
 24
119.199144083
 34
0.0
100
AcDbRotatedDimension
  0
DIMENSION
  5
20D
330
1F
100
AcDbEntity
  8
VERMASSUNG
100
AcDbDimension
  2
*D8
 10
270.732936078
 20
92.0612134345
 30
0.0
 11
270.732936078
 21
109.0612134345
 31
0.0
 70
   160
  1
%%c<>
 71
     2
 42
-1.0
  3
SLDDIMSTYLE0
100
AcDbAlignedDimension
 13
170.774081803
 23
126.0612134345
 33
0.0
 14
170.774081803
 24
92.0612134345
 34
0.0
 50
90.0
100
AcDbRotatedDimension
  0
LINE
  5
218
330
1F
100
AcDbEntity
  8
VERMASSUNG
  6
CENTERX2
370
     0
100
AcDbLine
 10
40.673612442
 20
109.0612134345
 30
0.0
 11
254.7877573131
 21
109.0612134345
 31
0.0
  0
OLE2FRAME
  5
219
330
1F
100
AcDbEntity
  8
0
100
AcDbOle2Frame
 70
     2
  3
Bitmap Image
 10
13.8511154363
 20
38.264191557
 30
0.0
 11
51.6290888628
 21
31.9806341108
 31
0.0
 71
     2
 72
     0
 73
     1
 90
    12928
310
80552BED0767C5B32B40DDAF6807D121434000000000000000006FFBDDFB85D0
310
4940DDAF6807D121434000000000000000006FFBDDFB85D04940416F4BD60AFB
310
3F4000000000000000002BED0767C5B32B40416F4BD60AFB3F40000000000000
310
0000000000000100000000010000010000000100000000000100000000320000
310
D0CF11E0A1B11AE1000000000000000000000000000000003E000300FEFF0900
310
0600000000000000000000000100000001000000000000000010000002000000
310
01000000FEFFFFFF0000000000000000FFFFFFFFFFFFFFFFFFFFFFFFFFFFFFFF
310
FFFFFFFFFFFFFFFFFFFFFFFFFFFFFFFFFFFFFFFFFFFFFFFFFFFFFFFFFFFFFFFF
310
FFFFFFFFFFFFFFFFFFFFFFFFFFFFFFFFFFFFFFFFFFFFFFFFFFFFFFFFFFFFFFFF
310
FFFFFFFFFFFFFFFFFFFFFFFFFFFFFFFFFFFFFFFFFFFFFFFFFFFFFFFFFFFFFFFF
310
FFFFFFFFFFFFFFFFFFFFFFFFFFFFFFFFFFFFFFFFFFFFFFFFFFFFFFFFFFFFFFFF
310
FFFFFFFFFFFFFFFFFFFFFFFFFFFFFFFFFFFFFFFFFFFFFFFFFFFFFFFFFFFFFFFF
310
FFFFFFFFFFFFFFFFFFFFFFFFFFFFFFFFFFFFFFFFFFFFFFFFFFFFFFFFFFFFFFFF
310
FFFFFFFFFFFFFFFFFFFFFFFFFFFFFFFFFFFFFFFFFFFFFFFFFFFFFFFFFFFFFFFF
310
FFFFFFFFFFFFFFFFFFFFFFFFFFFFFFFFFFFFFFFFFFFFFFFFFFFFFFFFFFFFFFFF
310
FFFFFFFFFFFFFFFFFFFFFFFFFFFFFFFFFFFFFFFFFFFFFFFFFFFFFFFFFFFFFFFF
310
FFFFFFFFFFFFFFFFFFFFFFFFFFFFFFFFFFFFFFFFFFFFFFFFFFFFFFFFFFFFFFFF
310
FFFFFFFFFFFFFFFFFFFFFFFFFFFFFFFFFFFFFFFFFFFFFFFFFFFFFFFFFFFFFFFF
310
FFFFFFFFFFFFFFFFFFFFFFFFFFFFFFFFFFFFFFFFFFFFFFFFFFFFFFFFFFFFFFFF
310
FFFFFFFFFFFFFFFFFFFFFFFFFFFFFFFFFFFFFFFFFFFFFFFFFFFFFFFFFFFFFFFF
310
FDFFFFFFFEFFFFFFFEFFFFFFFEFFFFFF05000000060000000700000008000000
310
090000000A0000000B0000000C0000000D0000000E0000000F00000010000000
310
11000000120000001300000014000000150000001600000017000000FEFFFFFF
310
FFFFFFFFFFFFFFFFFFFFFFFFFFFFFFFFFFFFFFFFFFFFFFFFFFFFFFFFFFFFFFFF
310
FFFFFFFFFFFFFFFFFFFFFFFFFFFFFFFFFFFFFFFFFFFFFFFFFFFFFFFFFFFFFFFF
310
FFFFFFFFFFFFFFFFFFFFFFFFFFFFFFFFFFFFFFFFFFFFFFFFFFFFFFFFFFFFFFFF
310
FFFFFFFFFFFFFFFFFFFFFFFFFFFFFFFFFFFFFFFFFFFFFFFFFFFFFFFFFFFFFFFF
310
FFFFFFFFFFFFFFFFFFFFFFFFFFFFFFFFFFFFFFFFFFFFFFFFFFFFFFFFFFFFFFFF
310
FFFFFFFFFFFFFFFFFFFFFFFFFFFFFFFFFFFFFFFFFFFFFFFFFFFFFFFFFFFFFFFF
310
FFFFFFFFFFFFFFFFFFFFFFFFFFFFFFFFFFFFFFFFFFFFFFFFFFFFFFFFFFFFFFFF
310
FFFFFFFFFFFFFFFFFFFFFFFFFFFFFFFFFFFFFFFFFFFFFFFFFFFFFFFFFFFFFFFF
310
FFFFFFFFFFFFFFFFFFFFFFFFFFFFFFFFFFFFFFFFFFFFFFFFFFFFFFFFFFFFFFFF
310
FFFFFFFFFFFFFFFFFFFFFFFFFFFFFFFFFFFFFFFFFFFFFFFFFFFFFFFFFFFFFFFF
310
FFFFFFFFFFFFFFFFFFFFFFFFFFFFFFFFFFFFFFFFFFFFFFFFFFFFFFFFFFFFFFFF
310
FFFFFFFFFFFFFFFFFFFFFFFFFFFFFFFFFFFFFFFFFFFFFFFFFFFFFFFFFFFFFFFF
310
FFFFFFFFFFFFFFFFFFFFFFFFFFFFFFFFFFFFFFFFFFFFFFFFFFFFFFFFFFFFFFFF
310
52006F006F007400200045006E00740072007900000000000000000000000000
310
0000000000000000000000000000000000000000000000000000000000000000
310
16000500FFFFFFFFFFFFFFFF020000000A00030000000000C000000000000046
310
000000000000000000000000C09DB1C48C08CC0103000000C000000000000000
310
01004F006C006500000000000000000000000000000000000000000000000000
310
0000000000000000000000000000000000000000000000000000000000000000
310
0A000200FFFFFFFFFFFFFFFFFFFFFFFF00000000000000000000000000000000
310
0000000000000000000000000000000000000000000000001400000000000000
310
010043006F006D0070004F0062006A0000000000000000000000000000000000
310
0000000000000000000000000000000000000000000000000000000000000000
310
120002010100000003000000FFFFFFFF00000000000000000000000000000000
310
0000000000000000000000000000000000000000010000004D00000000000000
310
01004F006C006500310030004E00610074006900760065000000000000000000
310
0000000000000000000000000000000000000000000000000000000000000000
310
1A000200FFFFFFFFFFFFFFFFFFFFFFFF00000000000000000000000000000000
310
0000000000000000000000000000000000000000040000002426000000000000
310
FEFFFFFF02000000FEFFFFFFFFFFFFFFFFFFFFFFFFFFFFFFFFFFFFFFFFFFFFFF
310
FFFFFFFFFFFFFFFFFFFFFFFFFFFFFFFFFFFFFFFFFFFFFFFFFFFFFFFFFFFFFFFF
310
FFFFFFFFFFFFFFFFFFFFFFFFFFFFFFFFFFFFFFFFFFFFFFFFFFFFFFFFFFFFFFFF
310
FFFFFFFFFFFFFFFFFFFFFFFFFFFFFFFFFFFFFFFFFFFFFFFFFFFFFFFFFFFFFFFF
310
FFFFFFFFFFFFFFFFFFFFFFFFFFFFFFFFFFFFFFFFFFFFFFFFFFFFFFFFFFFFFFFF
310
FFFFFFFFFFFFFFFFFFFFFFFFFFFFFFFFFFFFFFFFFFFFFFFFFFFFFFFFFFFFFFFF
310
FFFFFFFFFFFFFFFFFFFFFFFFFFFFFFFFFFFFFFFFFFFFFFFFFFFFFFFFFFFFFFFF
310
FFFFFFFFFFFFFFFFFFFFFFFFFFFFFFFFFFFFFFFFFFFFFFFFFFFFFFFFFFFFFFFF
310
FFFFFFFFFFFFFFFFFFFFFFFFFFFFFFFFFFFFFFFFFFFFFFFFFFFFFFFFFFFFFFFF
310
FFFFFFFFFFFFFFFFFFFFFFFFFFFFFFFFFFFFFFFFFFFFFFFFFFFFFFFFFFFFFFFF
310
FFFFFFFFFFFFFFFFFFFFFFFFFFFFFFFFFFFFFFFFFFFFFFFFFFFFFFFFFFFFFFFF
310
FFFFFFFFFFFFFFFFFFFFFFFFFFFFFFFFFFFFFFFFFFFFFFFFFFFFFFFFFFFFFFFF
310
FFFFFFFFFFFFFFFFFFFFFFFFFFFFFFFFFFFFFFFFFFFFFFFFFFFFFFFFFFFFFFFF
310
FFFFFFFFFFFFFFFFFFFFFFFFFFFFFFFFFFFFFFFFFFFFFFFFFFFFFFFFFFFFFFFF
310
FFFFFFFFFFFFFFFFFFFFFFFFFFFFFFFFFFFFFFFFFFFFFFFFFFFFFFFFFFFFFFFF
310
FFFFFFFFFFFFFFFFFFFFFFFFFFFFFFFFFFFFFFFFFFFFFFFFFFFFFFFFFFFFFFFF
310
010000020000000000000000000000000000000086000000310082008A000004
310
D80525000000000020112F00000000008D000000900000008F000000FEFFFFFF
310
0100FEFF030A0000FFFFFFFF0A00030000000000C00000000000004607000000
310
5042727573680007000000504272757368000700000050427275736800F439B2
310
71000000000000000000000000000000A5000000A6000000A7000000A8000000
310
A9000000AA000000AB000000AC000000AD000000AE000000AF000000B0000000
310
B1000000B2000000B3000000B4000000B5000000B6000000B7000000B8000000
310
B9000000BA000000BB000000BC000000BD000000BE000000BF000000C0000000
310
C1000000C2000000C3000000C4000000FEFFFFFFFEFFFFFFC7000000C8000000
310
FEFFFFFFFFFFFFFFFFFFFFFFFFFFFFFFFFFFFFFFFFFFFFFFFFFFFFFFFFFFFFFF
310
FFFFFFFFFFFFFFFFFFFFFFFFFFFFFFFFFFFFFFFFFFFFFFFFFFFFFFFFFFFFFFFF
310
FFFFFFFFFFFFFFFFFFFFFFFFFFFFFFFFFFFFFFFFFFFFFFFFFFFFFFFFFFFFFFFF
310
FFFFFFFFFFFFFFFFFFFFFFFFFFFFFFFFFFFFFFFFFFFFFFFFFFFFFFFFFFFFFFFF
310
FFFFFFFFFFFFFFFFFFFFFFFFFFFFFFFFFFFFFFFFFFFFFFFFFFFFFFFFFFFFFFFF
310
FFFFFFFFFFFFFFFFFEFFFFFFFFFFFFFFFFFFFFFFFFFFFFFFFEFFFFFFFFFFFFFF
310
F9000000FA000000FEFFFFFFFFFFFFFFFFFFFFFFFFFFFFFFFFFFFFFFFFFFFFFF
310
20260000424D0E260000000000003E00000028000000B40200006E0000000100
310
01000000000000000000130B0000130B00000200000002000000000000FFFFFF
310
FFFFFFFFFFFFFFFFFFFFFFFFFFFFFFFFFFFFFFFFFFFFFFFFFFFFFFFFFFFFFFFF
310
FFFFFFFFFFFFFFFFFFFFFFFFFFFFFFFFFFFFFFFFFFFFFFFFFFFFFFFFFFFFFFFF
310
FFFFFFFFFFFFFFFFFFFFFFFFFFFFFFFFFFFFFFFFFFFFFFFFF000FFFFFFFFFFFF
310
FFFFFFFFFFFFFFFFFFFFFFFFFFFFFFFFFFFFFFFFFFFFFFFFFFFFFFFFFFFFFFFF
310
FFFFFFFFFFFFFFFFFFFFFFFFFFFFFFFFFFFFFFFFFFFFFFFFFFFFFFFFFFFFFFFF
310
FFFFFFFFFFFFFFFFFFFFFFFFFFFFFFFFF000FFFFFFFFFFFFFFFFFFFFFFFFFFFF
310
FFFFFFFFFFFFFFFFFFFFFFFFFFFFFFFFFFFFFFFFFFFFFFFFFFFFFFFFFFFFFFFF
310
FFFFFFFFFFFFFFFFFFFFFFFFFFFFFFFFFFFFFFFFFFFFFFFFFFFFFFFFFFFFFFFF
310
FFFFFFFFFFFFFFFFF000FFFFFFFFFFFFFFFFFFFFFFFFFFFFFFFFFFFFFFFFFFFF
310
FFFFFFFFFFFFFFFFFFFFFFFFFFFFFFFFFFFFFFFFFFFFFFFFFFFFFFFFFFFFFFFF
310
FFFFFFFFFFFFFFFFFFFFFFFFFFFFFFFFFFFFFFFFFFFFFFFFFFFFFFFFFFFFFFFF
310
F000FFFFFFFFFFFFFFFFFFFFFFFFFFFFFFFFFFFFFFFFFFFFFFFFFFFFFFFFFFFF
310
FFFFFFFFFFFFFFFFFFFFFFFFFFFFFFFFFFFFFFFFFFFFFFFFFFFFFFFFFFFFFFFF
310
FFFFFFFFFFFFFFFFFFFFFFFFFFFFFFFFFFFFFFFFFFFFFFFFF000FFFFFFFFFFFF
310
FFFFFFFFFFFFFFFFFFFFFFFFFFFFFFFFFFFFFFFFFFFFFFFFFFFFFFFFFFFFFFFF
310
FFFFFFFFFFFFFFFFFFFFFFFFFFFFFFFFFFFFFFFFFFFFFFFFFFFFFFFFFFFFFFFF
310
FFFFFFFFFFFFFFFFFFFFFFFFFFFFFFFFF000FFFFFFFFFFFFFFFFFFFFFFFFFFFF
310
FFFFFFFFFFFFFFFFFFFFFFFFFFFFFFFFFFFFFFFFFFFFFFFFFFFFFFFFFFFFFFFF
310
FFFFFFFFFFFFFFFFFFFFFFFFFFFFFFFFFFFFFFFFFFFFFFFFFFFFFFFFFFFFFFFF
310
FFFFFFFFFFFFFFFFF000FFFFFFFFFFFFFFFFFFFFFFFFFFFFFFFFFFFFFFFFFFFF
310
FFFFFFFFFFFFFFFFFFFFFFFFFFFFFFFFFFFFFFFFFFFFFFFFFFFFFFFFFFFFFFFF
310
FFFFFFFFFFFFFFFFFFFFFFFFFFFFFFFFFFFFFFFFFFFFFFFFFFFFFFFFFFFFFFFF
310
F000FFFFFFFFFFFFFFFFFFFFFFFFFFFFFFFFFFFFFFFFFFFFFFFFFFFFFFFFFFFF
310
FFFFFFFFFFFFFFFFFFFFFFFFFFFFFFFFFFFFFFFFFFFFFFFFFFFFFFFFFFFFFFFF
310
FFFFFFFFFFFFFFFFFFFFFFFFFFFFFFFFFFFFFFFFFFFFFFFFF000FFFFFFFFFFFF
310
FFFFFFFFFFFFFFFFFFFFFFFFFFFFFFFFFFFFFFFFFFFFFFFFFFFFFFFFFFFFFFFF
310
FFFFFFFFFFFFFFFFFFFFFFFFFFFFFFFFFFFFFFFFFFFFFFFFFFFFFFFFFFFFFFFF
310
FFFFFFFFFFFFFFFFFFFFFFFFFFFFFFFFF000FFFFFFFFFFFFFFFFFFFFFFFFFFFF
310
FFFFFFFFFFFFFFFFFFFFFFFFFFFFFFFFFFFFFFFFFFFFFFFFFFFFFFFFFFFFFFFF
310
FFFFFFFFFFFFFFFFFFFFFFFFFFFFFFFFFFFFFFFFFFFFFFFFFFFFFFFFFFFFFFFF
310
FFFFFFFFFFFFFFFFF000FFFFFFFFFFFFFFFFFFFFFFFFFFFFFFFFFFFFFFFFFFFF
310
FFFFFFFFFFFFFFFFFFFFFFFFFFFFFFFFFFFFFFFFFFFFFFFFFFFFFFFFFFFFFFFF
310
FFFFFFFFFFFFFFFFFFFFFFFFFFFFFFFFFFFFFFFFFFFFFFFFFFFFFFFFFFFFFFFF
310
F000FFFFFFFFFFFFFFFFFFFFFFFFFFFFFFFFFFFFFFFFFFFFFFFFFFFFFFFFFFFF
310
FFFFFFFFFFFFFFFFFFFFFFFFFFFFFFFFFFFFFFFFFFFFFFFFFFFFFFFFFFFFFFFF
310
FFFFFFFFFFFFFFFFFFFFFFFFFFFFFFFFFFFFFFFFFFFFFFFFF000FFFFFFFFFFFF
310
FFFFFFFFFFFFFFFFFFFFFFFFFFFFFFFFFFFFFFFFFFFFFFFFFFFFFFFFFFFFFFFF
310
FFFFFFFFFFFFFFFFFFFFFFFFFFFFFFFFFFFFFFFFFFFFFFFFFFFFFFFFFFFFFFFF
310
FFFFFFFFFFFFFFFFFFFFFFFFFFFFFFFFF000FFFFFFFFFFFFFFFFFFFFFFFFFFFF
310
FFFFFFFFFFFFFFFFFFFFFFFFFFFFFFFFFFFFFFFFFFFFFFFFFFFFFFFFFFFFFFFF
310
FFFFFFFFFFFFFFFFFFFFFFFFFFFFFFFFFFFFFFFFFFFFFFFFFFFFFFFFFFFFFFFF
310
FFFFFFFFFFFFFFFFF000FFFFFFFFFFFFFFFFFFFFFFFFFFFFFFFFFFFFFFFFFFFF
310
FFFFFFFFFFFFFFFFFFFFFFFFFFFFFFFFFFFFFFFFFFFFFFFFFFFFFFFFFFFFFFFF
310
FFFFFFFFFFFFFFFFFFFFFFFFFFFFFFFFFFFFFFFFFFFFFFFFFFFFFFFFFFFFFFFF
310
F000FFFFFFFFFFFFFFFFFFFFFFFFFFFFFFFFFFFFFFFFFFFFFFFFFFFFFFFFFFFF
310
FFFFFFFFFFFFFFFFFFFFFFFFFFFFFFFFFFFFFFFFFFFFFFFFFFFFFFFFFFFFFFFF
310
FFFFFFFFFFFFFFFFFFFFFFFFFFFFFFFFFFFFFFFFFFFFFFFFF000FFFFFFFFFFFF
310
FFFFFFFFFFFFFFFFFFFFFFFFFFFFFFFFFFFFFFFFFFFFFFFFFFFFFFFFFFFFFFFF
310
FFFFFFFFFFFFFFFFFFFFFFFFFFFFFFFFFFFFFFFFFFFFFFFFFFFFFFFFFFFFFFFF
310
FFFFFFFFFFFFFFFFFFFFFFFFFFFFFFFFF000FFFFFFFFFFFFFFFFFFFFFFFFFFFF
310
FFFFFFFFFFFFFFFFFFFFFFFFFFFFFFFFFFFFFFFFFFFFFFFFFFFFFFFFFFFFFFFF
310
FFFFFFFFFFFFFFFFFFFFFFFFFFFFFFFFFFFFFFFFFFFFFFFFFFFFFFFFFFFFFFFF
310
FFFFFFFFFFFFFFFFF000FFFFF80003FFFFFFFFFFFFFFFFFFFFFFFFFFFFFFFFFF
310
FFFFF00007FFFFFFFFFF00007FFFFFF800000000000000007FFFFFFFFFFFFFFF
310
FFFFFFFC001FFFFFFFFFFFFFFC001FFFFFFFFFFFFFFFFFFFFFFFFFFE0007FFFF
310
F000FFFF8000007FFFFFFFF8000FFFFFC0007FFFFF80007FFFFF0000007FFFFF
310
FFF8000007FFFFF800000000000000007FFFFFF0001FFFFFFFFFFFC00001FFFF
310
FFFFFFFFC00001FFFFFFFF000000000003FFFFE000007FFFF000FFFE0000000F
310
FFFFFFF0000FFFFF80007FFFFF80007FFFFC0000001FFFFFFFC0000001FFFFF8
310
00000000000000007FFFFFF0001FFFFFFFFFFE0000003FFFFFFFFFFE0000003F
310
FFFFFF000000000003FFFF0000000FFFF000FFF800000003FFFFFFF00007FFFF
310
80007FFFFF80007FFFF000000007FFFFFF000000003FFFF80000000000000000
310
7FFFFFF0001FFFFFFFFFF80000000FFFFFFFFFF80000000FFFFFFF0000000000
310
03FFFC00000003FFF000FFE000000000FFFFFFF00007FFFF80003FFFFF80007F
310
FFC000000001FFFFFC000000001FFFF800000000000000007FFFFFF0001FFFFF
310
FFFFE000000003FFFFFFFFE000000003FFFFFF000000000003FFF000000000FF
310
F000FF80000000007FFFFFF00007FFFF80003FFFFF80007FFF8000000000FFFF
310
F80000000007FFF800000000000000007FFFFFF0001FFFFFFFFFC000000001FF
310
FFFFFFC000000001FFFFFF000000000003FFC0000000007FF000FF0000000000
310
3FFFFFE00007FFFF00003FFFFF80007FFE00000000003FFFF00000000003FFF8
310
00000000000000007FFFFFF0001FFFFFFFFF8000000000FFFFFFFF8000000000
310
FFFFFF000000000003FF80000000003FF000FE00000000001FFFFFE00003FFFF
310
00003FFFFF80007FFC00000000001FFFE00000000001FFF8000001FFFE000000
310
7FFFFFF0001FFFFFFFFE00000000003FFFFFFE00000000003FFFFF0000000000
310
03FF00000000001FF000FC00000000000FFFFFE00003FFFF00001FFFFF80007F
310
F800000000001FFFC00000000000FFF8000001FFFE0000007FFFFFF0001FFFFF
310
FFFC00000000001FFFFFFC00000000001FFFFF000000000003FE00000000000F
310
F000F8000000000007FFFFE00003FFFF00001FFFFF80007FF800000000000FFF
310
800000000000FFF8000001FFFE0000007FFFFFF0001FFFFFFFF800000000000F
310
FFFFF800000000000FFFFF000000000003FC000000000007F000F80000000000
310
03FFFFC00003FFFE00001FFFFF80007FF0000000000007FF0000000000007FF8
310
000001FFFE0000007FFFFFF0001FFFFFFFF0000000000007FFFFF00000000000
310
07FFFF000000000003F8000000000003F000F0000000000003FFFFC00001FFFE
310
00001FFFFF80007FE0000000000007FE0000000000003FF8000001FFFE000000
310
7FFFFFF0001FFFFFFFF0000000000007FFFFF0000000000007FFFF0000000000
310
03F800001F800003F000E00001FFF00001FFFFC00001FFFE00000FFFFF80007F
310
E00001FFE00003FE00001FFF00003FF8000001FFFE0000007FFFFFF0001FFFFF
310
FFE000003E000003FFFFE000003E000003FFFF000000000003F00001FFF80001
310
F000E00007FFFC0001FFFFC00001FFFE00000FFFFF80007FC0000FFFFC0003FC
310
0000FFFFC0001FF8000001FFFE0000007FFFFFF0001FFFFFFFC00003FFE00001
310
FFFFC00003FFE00001FFFF0001FFFFFFFFF00007FFFE0001F000E0000FFFFF00
310
00FFFF800001FFFC00000FFFFF80007FC0001FFFFE0001FC0001FFFFE0001FF8
310
000001FFFE0000007FFFFFF0001FFFFFFF80000FFFF80000FFFF80000FFFF800
310
00FFFF0003FFFFFFFFE0000FFFFF8000F000C0003FFFFF8000FFFF800000FFFC
310
000007FFFF80007F80003FFFFF0001FC0003FFFFF0001FF8000001FFFE000000
310
7FFFFFF0001FFFFFFF80003FFFFE0000FFFF80003FFFFE0000FFFF0003FFFFFF
310
FFE0003FFFFF8000F000C0003FFFFF8000FFFF800000FFFC000007FFFF80007F
310
80007FFFFF8001F80007FFFFF8000FF8000001FFFE0000007FFFFFF0001FFFFF
310
FF00007FFFFF00007FFF00007FFFFF00007FFF0003FFFFFFFFE0003FFFFFC000
310
F000C0007FFFFFC000FFFF000000FFFC000007FFFF80007F8000FFFFFF8000F8
310
000FFFFFF8000FF8000001FFFE0000007FFFFFF0001FFFFFFF0000FFFFFF8000
310
7FFF0000FFFFFF80007FFF0003FFFFFFFFC0007FFFFFC00070008000FFFFFFC0
310
00FFFF000000FFF8000007FFFF80007F8000FFFFFF8000F8000FFFFFF8000FF8
310
000001FFFE0000007FFFFFF0001FFFFFFE0001FFFFFFC0003FFE0001FFFFFFC0
310
003FFF0003FFFFFFFFC0007FFFFFE00070008000FFFFFFC0007FFF0000007FF8
310
000003FFFF80007F0001FFFFFF8000F8000FFFFFF8000FF8000001FFFE000000
310
7FFFFFF0001FFFFFFE0001FFFFFFC0003FFE0001FFFFFFC0003FFF0003FFFFFF
310
FFC000FFFFFFE00070008000FFFFFFC0007FFF0000007FF8000003FFFF80007F
310
0001FFFFFF8000F8001FFFFFF8000FF8000001FFFE0000007FFFFFF0001FFFFF
310
FE0003FFFFFFE0003FFE0003FFFFFFE0003FFF0003FFFFFFFFC000FFFFFFE000
310
70008000FFFFFFC0007FFE0000007FF8000003FFFF80007F0001FFFFFF8000F0
310
001FFFFFF8000FF8000001FFFE0000007FFFFFF0001FFFFFFC0003FFFFFFE000
310
1FFC0003FFFFFFE0001FFF0003FFFFFFFFC000FFFFFFC00070008000FFFFFF80
310
007FFE0000007FF0000003FFFF80007F0001FFFFFF0000F0001FFFFFF8000FF8
310
000001FFFE0000007FFFFFF0001FFFFFFC0007FFFFFFF0001FFC0007FFFFFFF0
310
001FFF0003FFFFFFFFC000FFFFFFC00070008001FFFFFF0000FFFE0000003FF0
310
000001FFFF80007F0001FFFFFF0000F8001FFFFFF0000FF8000001FFFE000000
310
7FFFFFF0001FFFFFFC0007FFFFFFF0001FFC0007FFFFFFF0001FFF0003FFFFFF
310
FFC001FFFFFF80007000FFFFFFFFFE0000FFFE0008003FF0008001FFFF80007F
310
FFFFFFFFFC0000FFFFFFFFFFE0000FF8000001FFFE0000007FFFFFF0001FFFFF
310
F8000FFFFFFFF8000FF8000FFFFFFFF8000FFF0003FFFFFFFFFFFFFFFFFF0000
310
7000FFFFFFFFFC0000FFFC0008003FF0008001FFFF80007FFFFFFFFFF80001FF
310
FFFFFFFF80000FF8000001FFFE0000007FFFFFF0001FFFFFF8000FFFFFFFF800
310
0FF8000FFFFFFFF8000FFF0003FFFFFFFFFFFFFFFFFE0000F000FFFFFFFFE000
310
00FFFC000C003FE000C001FFFF80007FFFFFFFFFC00001FFFFFFFFFE00001FF8
310
000001FFFE0000007FFFFFF0001FFFFFF8000FFFFFFFF8000FF8000FFFFFFFF8
310
000FFF0003FFFFFFFFFFFFFFFFF00000F000FFFFFFFE000001FFFC000C001FE0
310
00C000FFFF80007FFFFFFFFE000001FFFFFFFFE000001FF80FFFFFFFFFFFFFC0
310
7FFFFFF0001FFFFFF8000FFFFFFFF8000FF8000FFFFFFFF8000FFF0003FFFFFF
310
FFFFFFFFFF800000F000FFFFFFC0000001FFFC001C001FE001C000FFFF80007F
310
FFFFFF80000003FFFFFFF80000001FF80FFFFFFFFFFFFFC07FFFFFF0001FFFFF
310
F8001FFFFFFFFC000FF8001FFFFFFFFC000FFF0003FFFFFFFFFFFFFFF0000001
310
F000FFFFF800000001FFF8001C001FE001C000FFFF80007FFFFFF800000003FF
310
FFFF800000003FF80FFFFFFFFFFFFFC07FFFFFF0001FFFFFF8001FFFFFFFFC00
310
0FF8001FFFFFFFFC000FFF0003FFFFFFFFFFFFFE00000001F000FFFFC0000000
310
03FFF8001E001FC001E000FFFF80007FFFFF8000000007FFFFFC000000003FF8
310
0FFFFFFFFFFFFFC07FFFFFF0001FFFFFF8001FFFFFFFFC000FF8001FFFFFFFFC
310
000FFF0003FFFFFFFFFFFFE000000003F000FFFE0000000007FFF8001E000FC0
310
01E0007FFF80007FFFFE0000000007FFFFE0000000007FF80FFFFFFFFFFFFFC0
310
7FFFFFF0001FFFFFF0001FFFFFFFFC0007F0001FFFFFFFFC0007FF0003FFFFFF
310
FFFFFF0000000003F000FFF80000000007FFF8001E000FC003E0007FFF80007F
310
FFF0000000000FFFFF8000000000FFF80FFFFFFFFFFFFFC07FFFFFF0001FFFFF
310
F0001FFFFFFFFC0007F0001FFFFFFFFC0007FF0003FFFFFFFFFFFC0000000007
310
F000FFE0000000000FFFF0003E000FC003E0007FFF80007FFFC0000000001FFF
310
FE0000000001FFF80FFFFFFFFFFFFFC07FFFFFF0001FFFFFF0001FFFFFFFFC00
310
07F0001FFFFFFFFC0007FF0003FFFFFFFFFFF0000000000FF000FFC000000000
310
1FFFF0003F000F8003F0003FFF80007FFF80000000003FFFF80000000003FFF8
310
0FFFFFFFFFFFFFC07FFFFFF0001FFFFFF0001FFFFFFFFC0007F0001FFFFFFFFC
310
0007FF0003FFFFFFFFFFE0000000001FF000FF00000000007FFFF0003F000780
310
03F0003FFF80007FFF00000000007FFFF00000000007FFF80FFFFFFFFFFFFFC0
310
7FFFFFF0001FFFFFF0001FFFFFFFFC0007F0001FFFFFFFFC0007FF0003FFFFFF
310
FFFF80000000007FF000FE0000000000FFFFE0003F00078007F0003FFF80007F
310
FE0000000001FFFFE0000000001FFFF80FFFFFFFFFFFFFC07FFFFFF0001FFFFF
310
F0001FFFFFFFFC0007F0001FFFFFFFFC0007FF0003FFFFFFFFFF0000000000FF
310
F000FC0000000003FFFFE0007F00078007F0003FFF80007FFC0000000007FFFF
310
C0000000007FFFF80FFFFFFFFFFFFFC07FFFFFF0001FFFFFF8001FFFFFFFFC00
310
0FF8001FFFFFFFFC000FFF0003FFFFFFFFFE0000000003FFF000FC000000000F
310
FFFFE0007F80070007F8001FFF80007FF8000000001FFFFF8000000001FFFFF8
310
0FFFFFFFFFFFFFC07FFFFFF0001FFFFFF8001FFFFFFFFC000FF8001FFFFFFFFC
310
000FFF0003FFFFFFFFFC000000000FFFF000F8000000007FFFFFE0007F800700
310
07F8001FFF80007FF000000000FFFFFF800000000FFFFFF80FFFFFFFFFFFFFC0
310
7FFFFFF0001FFFFFF8000FFFFFFFF8000FF8000FFFFFFFF8000FFF0003FFFFFF
310
FFFC000000007FFFF000F800000007FFFFFFC0007F8003000FF8001FFF80007F
310
F000000007FFFFFF000000007FFFFFF80FFFFFFFFFFFFFC07FFFFFF0001FFFFF
310
F8000FFFFFFFF8000FF8000FFFFFFFF8000FFF0003FFFFFFFFF80000000FFFFF
310
F000F0000000FFFFFFFFC000FF8003000FF8001FFF80007FE0000000FFFFFFFF
310
0000000FFFFFFFF8000001FFFE0000007FFFFFF0001FFFFFF8000FFFFFFFF800
310
0FF8000FFFFFFFF8000FFF0003FFFFFFFFF8000000FFFFFFF000F000000FFFFF
310
FFFFC000FFC002000FF8000FFF80007FE000001FFFFFFFFE000001FFFFFFFFF8
310
000001FFFE0000007FFFFFF0001FFFFFF8000FFFFFFFF8000FF8000FFFFFFFF8
310
000FFF0003FFFFFFFFF000001FFFFFFFF000E00000FFFFFFFFFFC000FFC00200
310
0FFC000FFF80007FE00001FFFFFFFFFE00001FFFFFFFFFF8000001FFFE000000
310
7FFFFFF0001FFFFFFC000FFFFFFFF8001FFC000FFFFFFFF8001FFF0003FFFFFF
310
FFF00001FFFFFFFFF000E00007FFFFFFFFFF8000FFC000001FFC000FFF80007F
310
C0000FFFFFFFFFFE0000FFFFFFFFFFF8000001FFFE0000007FFFFFF0001FFFFF
310
FC0007FFFFFFF0001FFC0007FFFFFFF0001FFF0003FFFFFFFFF00007FFFFFFFF
310
F000E0001FFFFFFFFFFF8000FFC000001FFC000FFF80007FC0003FFFFFFFFFFE
310
0001FFFFFFFFFFF8000001FFFE0000007FFFFFF0001FFFFFFC0007FFFFFFF000
310
1FFC0007FFFFFFF0001FFF0003FFFFFFFFF0001FFFFFFFFFF000E0003FFFFF00
310
03FF8001FFE000001FFC0007FF80007FC0007FFFFF0007FC0003FFFFF0003FF8
310
000001FFFE0000007FFFFFF0001FFFFFFC0003FFFFFFE0001FFC0003FFFFFFE0
310
001FFF0003FFFFFFFFF0003FFFFFFFFFF000E0003FFFFF0001FF8001FFE00000
310
1FFE0007FF80007FC0007FFFFE0003FC0007FFFFE0003FF8000001FFFE000000
310
7FFFFFF0001FFFFFFE0003FFFFFFE0003FFE0003FFFFFFE0003FFF0003FFFFFF
310
FFF0003FFFFF8001F000E0003FFFFF0001FF0001FFE000001FFE0007FF80007F
310
C0007FFFFE0003FC0007FFFFE0003FF8000001FFFE0000007FFFFFF0001FFFFF
310
FE0001FFFFFFC0003FFE0001FFFFFFC0003FFF0003FFFFFFFFF0003FFFFF0001
310
F000E0003FFFFF0003FF0001FFE000003FFE0007FF80007FC0007FFFFE0003FC
310
0007FFFFE0003FF8000001FFFE0000007FFFFFF0001FFFFFFF0001FFFFFFC000
310
7FFF0001FFFFFFC0007FFF0003FFFFFFFFF0003FFFFF0001F000E0003FFFFE00
310
03FF0003FFF000003FFE0003FF80007FC0007FFFFC0003FE0007FFFFE0003FF8
310
000001FFFE0000007FFFFFF0001FFFFFFF0000FFFFFF80007FFF0000FFFFFF80
310
007FFF0003FFFFFFFFF0003FFFFF0001F000E0003FFFFE0003FF0003FFF00000
310
3FFF0003FF80007FC0007FFFFC0007FE0007FFFFC0003FF8000001FFFE000000
310
7FFFFFF0001FFFFFFF80007FFFFF0000FFFF80007FFFFF0000FFFF0003FFFFFF
310
FFF0003FFFFF0003F000E0003FFFFC0003FE0003FFF000003FFF0003FF80007F
310
E0003FFFF80007FE0003FFFFC0007FF8000001FFFE0000007FFFFFF0001FFFFF
310
FF80003FFFFE0000FFFF80003FFFFE0000FFFF0003FFFFFFFFF0001FFFFE0003
310
F000F0001FFFF80003FE0003FFF000007FFF0001FF80007FE0003FFFF00007FE
310
0001FFFF80007FF8000001FFFE0000007FFFFFF0001FFFFFFFC0000FFFF80001
310
FFFFC0000FFFF80001FFFF0003FFFFFFFFF0001FFFFC0003F000F0000FFFF000
310
07FE0007FFF800007FFF0001FF80007FE0001FFFE00007FF0000FFFE00007FF8
310
000001FFFE0000007FFFFFF0001FFFFFFFC00003FFE00001FFFFC00003FFE000
310
01FFFF0003FFFFFFFFF8000FFFF80003F000F00003FFC00007FC0007FFF80000
310
7FFF8001FF80007FF00007FF80000FFF00007FF80000FFF8000001FFFE000000
310
7F80000000000001FFE000003E000003FFFFE000003E000003FFFF0003FFFFFF
310
FFF80003FFE00007F000F800000000000FFC0007FFF800007FFF8001FF80007F
310
F000000000000FFF000000000000FFF8000001FFFE0000007F80000000000001
310
FFF0000000000007FFFFF0000000000007FFFF0003FFFFFFFFFC00007E000007
310
F000F800000000000FFC0007FFF80000FFFF8000FF80007FF800000000001FFF
310
800000000001FFF8000001FFFE0000007F80000000000001FFF800000000000F
310
FFFFF800000000000FFFFF0003FFFFFFFFFC00000000000FF000FC0000000000
310
1FFC0007FFFC0000FFFF8000FF80007FF800000000003FFFC00000000001FFF8
310
000001FFFE0000007F80000000000001FFF800000000000FFFFFF80000000000
310
0FFFFF0003FFFFFFFFFE00000000001FF000FE00000000003FF8000FFFFC0000
310
FFFF8000FF80007FFC00000000003FFFC00000000003FFF8000001FFFE000000
310
7F80000000000001FFFC00000000001FFFFFFC00000000001FFFFF0003FFFFFF
310
FFFF00000000001FF000FF00000000003FF8000FFFFC0000FFFFC000FF80007F
310
FE00000000007FFFE00000000007FFF8000001FFFE0000007F80000000000001
310
FFFE00000000003FFFFFFE00000000003FFFFF0003FFFFFFFFFF80000000003F
310
F000FF80000000007FF8000FFFFC0001FFFFC0007F80007FFF0000000000FFFF
310
F0000000000FFFF800000000000000007F80000000000001FFFF8000000000FF
310
FFFFFF8000000000FFFFFF0003FFFFFFFFFFC0000000007FF000FFC000000000
310
FFF8000FFFFE0001FFFFC0007F80007FFF8000000001FFFFF8000000001FFFF8
310
00000000000000007F80000000000001FFFFC000000001FFFFFFFFC000000001
310
FFFFFF0003FFFFFFFFFFE000000000FFF000FFE000000003FFF0001FFFFE0001
310
FFFFC0007F80007FFFC000000007FFFFFE000000003FFFF80000000000000000
310
7F80000000000001FFFFE000000003FFFFFFFFE000000003FFFFFF0003FFFFFF
310
FFFFF000000003FFF000FFF80000000FFFF0001FFFFE0001FFFFE0007F80007F
310
FFF00000000FFFFFFF00000000FFFFF800000000000000007F80000000000001
310
FFFFF80000000FFFFFFFFFF80000000FFFFFFF0003FFFFFFFFFFFC0000000FFF
310
F000FFFE0000003FFFF0001FFFFE0003FFFFE0003F80007FFFFC0000003FFFFF
310
FFC0000003FFFFF800000000000000007F80000000000001FFFFFE0000003FFF
310
FFFFFFFE0000003FFFFFFF0003FFFFFFFFFFFF0000003FFFF000FFFF800000FF
310
FFF0001FFFFF0003FFFFE0003F80007FFFFF000001FFFFFFFFF800001FFFFFF8
310
00000000000000007F80000000000001FFFFFFC00001FFFFFFFFFFFFC00001FF
310
FFFFFF0003FFFFFFFFFFFFC00000FFFFF000FFFFF8000FFFFFFFFFFFFFFFFFFF
310
FFFFFFFFFFFFFFFFFFFFF0001FFFFFFFFFFF0000FFFFFFF80000000000000000
310
7FFFFFFFFFFFFFFFFFFFFFFC001FFFFFFFFFFFFFFC001FFFFFFFFFFFFFFFFFFF
310
FFFFFFFC001FFFFFF000FFFFFFFFFFFFFFFFFFFFFFFFFFFFFFFFFFFFFFFFFFFF
310
FFFFFFFFFFFFFFFFFFFFFFFFFFFFFFFFFFFFFFFFFFFFFFFFFFFFFFFFFFFFFFFF
310
FFFFFFFFFFFFFFFFFFFFFFFFFFFFFFFFFFFFFFFFFFFFFFFFFFFFFFFFFFFFFFFF
310
F000FFFFFFFFFFFFFFFFFFFFFFFFFFFFFFFFFFFFFFFFFFFFFFFFFFFFFFFFFFFF
310
FFFFFFFFFFFFFFFFFFFFFFFFFFFFFFFFFFFFFFFFFFFFFFFFFFFFFFFFFFFFFFFF
310
FFFFFFFFFFFFFFFFFFFFFFFFFFFFFFFFFFFFFFFFFFFFFFFFF000FFFFFFFFFFFF
310
FFFFFFFFFFFFFFFFFFFFFFFFFFFFFFFFFFFFFFFFFFFFFFFFFFFFFFFFFFFFFFFF
310
FFFFFFFFFFFFFFFFFFFFFFFFFFFFFFFFFFFFFFFFFFFFFFFFFFFFFFFFFFFFFFFF
310
FFFFFFFFFFFFFFFFFFFFFFFFFFFFFFFFF000FFFFFFFFFFFFFFFFFFFFFFFFFFFF
310
FFFFFFFFFFFFFFFFFFFFFFFFFFFFFFFFFFFFFFFFFFFFFFFFFFFFFFFFFFFFFFFF
310
FFFFFFFFFFFFFFFFFFFFFFFFFFFFFFFFFFFFFFFFFFFFFFFFFFFFFFFFFFFFFFFF
310
FFFFFFFFFFFFFFFFF000FFFFFFFFFFFFFFFFFFFFFFFFFFFFFFFFFFFFFFFFFFFF
310
FFFFFFFFFFFFFFFFFFFFFFFFFFFFFFFFFFFFFFFFFFFFFFFFFFFFFFFFFFFFFFFF
310
FFFFFFFFFFFFFFFFFFFFFFFFFFFFFFFFFFFFFFFFFFFFFFFFFFFFFFFFFFFFFFFF
310
F000FFFFFFFFFFFFFFFFFFFFFFFFFFFFFFFFFFFFFFFFFFFFFFFFFFFFFFFFFFFF
310
FFFFFFFFFFFFFFFFFFFFFFFFFFFFFFFFFFFFFFFFFFFFFFFFFFFFFFFFFFFFFFFF
310
FFFFFFFFFFFFFFFFFFFFFFFFFFFFFFFFFFFFFFFFFFFFFFFFF000FFFFFFFFFFFF
310
FFFFFFFFFFFFFFFFFFFFFFFFFFFFFFFFFFFFFFFFFFFFFFFFFFFFFFFFFFFFFFFF
310
FFFFFFFFFFFFFFFFFFFFFFFFFFFFFFFFFFFFFFFFFFFFFFFFFFFFFFFFFFFFFFFF
310
FFFFFFFFFFFFFFFFFFFFFFFFFFFFFFFFF000FFFFFFFFFFFFFFFFFFFFFFFFFFFF
310
FFFFFFFFFFFFFFFFFFFFFFFFFFFFFFFFFFFFFFFFFFFFFFFFFFFFFFFFFFFFFFFF
310
FFFFFFFFFFFFFFFFFFFFFFFFFFFFFFFFFFFFFFFFFFFFFFFFFFFFFFFFFFFFFFFF
310
FFFFFFFFFFFFFFFFF000FFFFFFFFFFFFFFFFFFFFFFFFFFFFFFFFFFFFFFFFFFFF
310
FFFFFFFFFFFFFFFFFFFFFFFFFFFFFFFFFFFFFFFFFFFFFFFFFFFFFFFFFFFFFFFF
310
FFFFFFFFFFFFFFFFFFFFFFFFFFFFFFFFFFFFFFFFFFFFFFFFFFFFFFFFFFFFFFFF
310
F000FFFFFFFFFFFFFFFFFFFFFFFFFFFFFFFFFFFFFFFFFFFFFFFFFFFFFFFFFFFF
310
FFFFFFFFFFFFFFFFFFFFFFFFFFFFFFFFFFFFFFFFFFFFFFFFFFFFFFFFFFFFFFFF
310
FFFFFFFFFFFFFFFFFFFFFFFFFFFFFFFFFFFFFFFFFFFFFFFFF000FFFFFFFFFFFF
310
FFFFFFFFFFFFFFFFFFFFFFFFFFFFFFFFFFFFFFFFFFFFFFFFFFFFFFFFFFFFFFFF
310
FFFFFFFFFFFFFFFFFFFFFFFFFFFFFFFFFFFFFFFFFFFFFFFFFFFFFFFFFFFFFFFF
310
FFFFFFFFFFFFFFFFFFFFFFFFFFFFFFFFF000FFFFFFFFFFFFFFFFFFFFFFFFFFFF
310
FFFFFFFFFFFFFFFFFFFFFFFFFFFFFFFFFFFFFFFFFFFFFFFFFFFFFFFFFFFFFFFF
310
FFFFFFFFFFFFFFFFFFFFFFFFFFFFFFFFFFFFFFFFFFFFFFFFFFFFFFFFFFFFFFFF
310
FFFFFFFFFFFFFFFFF000FFFFFFFFFFFFFFFFFFFFFFFFFFFFFFFFFFFFFFFFFFFF
310
FFFFFFFFFFFFFFFFFFFFFFFFFFFFFFFFFFFFFFFFFFFFFFFFFFFFFFFFFFFFFFFF
310
FFFFFFFFFFFFFFFFFFFFFFFFFFFFFFFFFFFFFFFFFFFFFFFFFFFFFFFFFFFFFFFF
310
F000FFFFFFFFFFFFFFFFFFFFFFFFFFFFFFFFFFFFFFFFFFFFFFFFFFFFFFFFFFFF
310
FFFFFFFFFFFFFFFFFFFFFFFFFFFFFFFFFFFFFFFFFFFFFFFFFFFFFFFFFFFFFFFF
310
FFFFFFFFFFFFFFFFFFFFFFFFFFFFFFFFFFFFFFFFFFFFFFFFF000FFFFFFFFFFFF
310
FFFFFFFFFFFFFFFFFFFFFFFFFFFFFFFFFFFFFFFFFFFFFFFFFFFFFFFFFFFFFFFF
310
FFFFFFFFFFFFFFFFFFFFFFFFFFFFFFFFFFFFFFFFFFFFFFFFFFFFFFFFFFFFFFFF
310
FFFFFFFFFFFFFFFFFFFFFFFFFFFFFFFFF000FFFFFFFFFFFFFFFFFFFFFFFFFFFF
310
FFFFFFFFFFFFFFFFFFFFFFFFFFFFFFFFFFFFFFFFFFFFFFFFFFFFFFFFFFFFFFFF
310
FFFFFFFFFFFFFFFFFFFFFFFFFFFFFFFFFFFFFFFFFFFFFFFFFFFFFFFFFFFFFFFF
310
FFFFFFFFFFFFFFFFF000FFFFFFFFFFFFFFFFFFFFFFFFFFFFFFFFFFFFFFFFFFFF
310
FFFFFFFFFFFFFFFFFFFFFFFFFFFFFFFFFFFFFFFFFFFFFFFFFFFFFFFFFFFFFFFF
310
FFFFFFFFFFFFFFFFFFFFFFFFFFFFFFFFFFFFFFFFFFFFFFFFFFFFFFFFFFFFFFFF
310
F000FFFFFFFFFFFFFFFFFFFFFFFFFFFFFFFFFFFFFFFFFFFFFFFFFFFFFFFFFFFF
310
FFFFFFFFFFFFFFFFFFFFFFFFFFFFFFFFFFFFFFFFFFFFFFFFFFFFFFFFFFFFFFFF
310
FFFFFFFFFFFFFFFFFFFFFFFFFFFFFFFFFFFFFFFFFFFFFFFFF000FFFFFFFFFFFF
310
FFFFFFFFFFFFFFFFFFFFFFFFFFFFFFFFFFFFFFFFFFFFFFFFFFFFFFFFFFFFFFFF
310
FFFFFFFFFFFFFFFFFFFFFFFFFFFFFFFFFFFFFFFFFFFFFFFFFFFFFFFFFFFFFFFF
310
FFFFFFFFFFFFFFFFFFFFFFFFFFFFFFFFF000FFFFFFFFFFFFFFFFFFFFFFFFFFFF
310
FFFFFFFFFFFFFFFFFFFFFFFFFFFFFFFFFFFFFFFFFFFFFFFFFFFFFFFFFFFFFFFF
310
FFFFFFFFFFFFFFFFFFFFFFFFFFFFFFFFFFFFFFFFFFFFFFFFFFFFFFFFFFFFFFFF
310
FFFFFFFFFFFFFFFFF000FFFFFFFFFFFFFFFFFFFFFFFFFFFFFFFFFFFFFFFFFFFF
310
FFFFFFFFFFFFFFFFFFFFFFFFFFFFFFFFFFFFFFFFFFFFFFFFFFFFFFFFFFFFFFFF
310
FFFFFFFFFFFFFFFFFFFFFFFFFFFFFFFFFFFFFFFFFFFFFFFFFFFFFFFFFFFFFFFF
310
F000FFFFFFFFFFFFFFFFFFFFFFFFFFFFFFFFFFFFFFFFFFFFFFFFFFFFFFFFFFFF
310
FFFFFFFFFFFFFFFFFFFFFFFFFFFFFFFFFFFFFFFFFFFFFFFFFFFFFFFFFFFFFFFF
310
FFFFFFFFFFFFFFFFFFFFFFFFFFFFFFFFFFFFFFFFFFFFFFFFF000FFFFFFFFFFFF
310
FFFFFFFFFFFFFFFFFFFFFFFFFFFFFFFFFFFFFFFFFFFFFFFFFFFFFFFFFFFFFFFF
310
FFFFFFFFFFFFFFFFFFFFFFFFFFFFFFFFFFFFFFFFFFFFFFFFFFFFFFFFFFFFFFFF
310
FFFFFFFFFFFFFFFFFFFFFFFFFFFFFFFFF0000000000000000000000000000000
310
00000000000000000000000042006C00610063006B0000000000000000000000
310
0000000000000000000000000000000000000000000000000000000000000000
310
0000000000000000000000000000FFFFFFFFFFFFFFFFFFFFFFFFFFFFFFFFFFFF
310
FFFFFFFFFFFFFFFFFFFFFFFFFFFFFFFFFFFFFFFFFFFFFFFFFFFFFFFFFFFFFFFF
310
FFFFFFFFFFFFFFFFFFFFFFFF6476000800000000FFFFFFFF20FF202026000000
310
1E00000008000000060000000000000011000000200000008403000000000000
310
6000000060000000200002FB200020000000002B00FFFFFF40002200E8030000
310
A80400001C020000AF0000804A20004000000000000000000100000000000000
310
616C000800000000E40100007001000002000000270000001100000000000000
310
00000000BC0200000000000003020122420065006C006C00200047006F007400
310
680069006300200053007400640020004C006900670068007400000000000000
310
00000000000000000000000000000000420065006C006C0047006F0074006800
310
690063005300740064002D0042006F006C006400000000000000000000000000
310
0000000000000000000000000000000000000000000000000000000000000000
310
0000000000000000000000000000000000000000000000000000000000000000
  1
OLE
  0
ENDSEC
  0
SECTION
  2
OBJECTS
  0
DICTIONARY
  5
C
330
0
100
AcDbDictionary
281
     1
  3
ACAD_GROUP
350
D
  3
ACAD_LAYOUT
350
1A
  3
ACAD_MLEADERSTYLE
350
21B
  3
ACAD_MLINESTYLE
350
17
  3
ACAD_PLOTSETTINGS
350
19
  3
ACAD_PLOTSTYLENAME
350
E
  3
ACAD_TABLESTYLE
350
21A
  3
ACAD_VISUALSTYLE
350
2A
  3
AcDbVariableDictionary
350
21C
  0
DICTIONARY
  5
D
102
{ACAD_REACTORS
330
C
102
}
330
C
100
AcDbDictionary
281
     1
  0
DICTIONARY
  5
1A
102
{ACAD_REACTORS
330
C
102
}
330
C
100
AcDbDictionary
281
     1
  3
Layout1
350
1E
  3
Layout2
350
26
  3
Model
350
22
  0
DICTIONARY
  5
21B
102
{ACAD_REACTORS
330
C
102
}
330
C
100
AcDbDictionary
281
     1
  0
DICTIONARY
  5
17
102
{ACAD_REACTORS
330
C
102
}
330
C
100
AcDbDictionary
281
     1
  3
Standard
350
18
  0
DICTIONARY
  5
19
102
{ACAD_REACTORS
330
C
102
}
330
C
100
AcDbDictionary
281
     1
  0
ACDBDICTIONARYWDFLT
  5
E
102
{ACAD_REACTORS
330
C
102
}
330
C
100
AcDbDictionary
281
     1
  3
Normal
350
F
100
AcDbDictionaryWithDefault
340
F
  0
DICTIONARY
  5
21A
102
{ACAD_REACTORS
330
C
102
}
330
C
100
AcDbDictionary
281
     1
  0
DICTIONARY
  5
2A
102
{ACAD_REACTORS
330
C
102
}
330
C
100
AcDbDictionary
281
     1
  3
2dWireframe
350
2F
  3
3D Hidden
350
31
  3
3dWireframe
350
30
  3
Basic
350
32
  3
Brighten
350
36
  3
ColorChange
350
3A
  3
Conceptual
350
34
  3
Dim
350
35
  3
Facepattern
350
39
  3
Flat
350
2B
  3
FlatWithEdges
350
2C
  3
Gouraud
350
2D
  3
GouraudWithEdges
350
2E
  3
Linepattern
350
38
  3
Realistic
350
33
  3
Thicken
350
37
  0
DICTIONARY
  5
21C
102
{ACAD_REACTORS
330
C
102
}
330
C
100
AcDbDictionary
281
     1
  3
PSOLHEIGHT
350
21E
  3
PSOLWIDTH
350
21D
  0
LAYOUT
  5
1E
102
{ACAD_REACTORS
330
1A
102
}
330
1A
100
AcDbPlotSettings
  1

  2
none_device
  4

  6

 40
0.0
 41
0.0
 42
0.0
 43
0.0
 44
0.0
 45
0.0
 46
0.0
 47
0.0
 48
0.0
 49
0.0
140
0.0
141
0.0
142
1.0
143
1.0
 70
   688
 72
     0
 73
     0
 74
     5
  7

 75
    16
147
1.0
148
0.0
149
0.0
100
AcDbLayout
  1
Layout1
 70
     1
 71
     1
 10
0.0
 20
0.0
 11
420.0
 21
297.0
 12
0.0
 22
0.0
 32
0.0
 14
1.0000000000E+20
 24
1.0000000000E+20
 34
1.0000000000E+20
 15
-1.0000000000E+20
 25
-1.0000000000E+20
 35
-1.0000000000E+20
146
0.0
 13
0.0
 23
0.0
 33
0.0
 16
1.0
 26
0.0
 36
0.0
 17
0.0
 27
1.0
 37
0.0
 76
     0
330
1B
  0
LAYOUT
  5
26
102
{ACAD_REACTORS
330
1A
102
}
330
1A
100
AcDbPlotSettings
  1

  2
none_device
  4

  6

 40
0.0
 41
0.0
 42
0.0
 43
0.0
 44
0.0
 45
0.0
 46
0.0
 47
0.0
 48
0.0
 49
0.0
140
0.0
141
0.0
142
1.0
143
1.0
 70
   688
 72
     0
 73
     0
 74
     5
  7

 75
    16
147
1.0
148
0.0
149
0.0
100
AcDbLayout
  1
Layout2
 70
     1
 71
     2
 10
0.0
 20
0.0
 11
0.0
 21
0.0
 12
0.0
 22
0.0
 32
0.0
 14
0.0
 24
0.0
 34
0.0
 15
0.0
 25
0.0
 35
0.0
146
0.0
 13
0.0
 23
0.0
 33
0.0
 16
1.0
 26
0.0
 36
0.0
 17
0.0
 27
1.0
 37
0.0
 76
     0
330
23
  0
LAYOUT
  5
22
102
{ACAD_REACTORS
330
1A
102
}
330
1A
100
AcDbPlotSettings
  1

  2
none_device
  4

  6

 40
0.0
 41
0.0
 42
0.0
 43
0.0
 44
0.0
 45
0.0
 46
0.0
 47
0.0
 48
0.0
 49
0.0
140
0.0
141
0.0
142
1.0
143
1.0
 70
  1712
 72
     0
 73
     0
 74
     0
  7

 75
     0
147
1.0
148
0.0
149
0.0
100
AcDbLayout
  1
Model
 70
     1
 71
     0
 10
0.0
 20
0.0
 11
297.0
 21
210.0
 12
0.0
 22
0.0
 32
0.0
 14
0.0
 24
0.0
 34
0.0
 15
297.0
 25
210.0
 35
0.0
146
0.0
 13
0.0
 23
0.0
 33
0.0
 16
1.0
 26
0.0
 36
0.0
 17
0.0
 27
1.0
 37
0.0
 76
     0
330
1F
331
29
  0
MLINESTYLE
  5
18
102
{ACAD_REACTORS
330
17
102
}
330
17
100
AcDbMlineStyle
  2
Standard
 70
     0
  3

 62
   256
 51
90.0
 52
90.0
 71
     2
 49
0.5
 62
   256
  6
BYLAYER
 49
-0.5
 62
   256
  6
BYLAYER
  0
ACDBPLACEHOLDER
  5
F
102
{ACAD_REACTORS
330
E
102
}
330
E
  0
VISUALSTYLE
  5
2F
102
{ACAD_REACTORS
330
2A
102
}
330
2A
100
AcDbVisualStyle
  2
2dWireframe
 70
     4
 71
     0
 72
     2
 73
     0
 90
        0
 40
-0.6
 41
-30.0
 62
     5
 63
     7
 74
     1
 91
        4
 64
     7
 65
   257
 75
     1
175
     1
 42
1.0
 92
        0
 66
   257
 43
1.0
 76
     1
 77
     6
 78
     2
 67
     7
 79
     5
170
     0
171
     0
290
     0
174
     0
 93
        1
 44
0.0
173
     0
291
     0
 45
0.0
1001
ACAD
1000
AcDbSavedByObjectVersion
1070
     0
  0
VISUALSTYLE
  5
31
102
{ACAD_REACTORS
330
2A
102
}
330
2A
100
AcDbVisualStyle
  2
3D Hidden
 70
     6
 71
     1
 72
     2
 73
     2
 90
        0
 40
-0.6
 41
-30.0
 62
     5
 63
     7
 74
     2
 91
        2
 64
     7
 65
   257
 75
     2
175
     1
 42
40.0
 92
        0
 66
   257
 43
1.0
 76
     1
 77
     6
 78
     2
 67
     7
 79
     3
170
     0
171
     0
290
     0
174
     0
 93
        1
 44
0.0
173
     0
291
     0
 45
0.0
1001
ACAD
1000
AcDbSavedByObjectVersion
1070
     0
  0
VISUALSTYLE
  5
30
102
{ACAD_REACTORS
330
2A
102
}
330
2A
100
AcDbVisualStyle
  2
3dWireframe
 70
     5
 71
     0
 72
     2
 73
     0
 90
        0
 40
-0.6
 41
-30.0
 62
     5
 63
     7
 74
     1
 91
        4
 64
     7
 65
   257
 75
     1
175
     1
 42
1.0
 92
        0
 66
   257
 43
1.0
 76
     1
 77
     6
 78
     2
 67
     7
 79
     5
170
     0
171
     0
290
     0
174
     0
 93
        1
 44
0.0
173
     0
291
     0
 45
0.0
1001
ACAD
1000
AcDbSavedByObjectVersion
1070
     0
  0
VISUALSTYLE
  5
32
102
{ACAD_REACTORS
330
2A
102
}
330
2A
100
AcDbVisualStyle
  2
Basic
 70
     7
 71
     1
 72
     0
 73
     1
 90
        0
 40
-0.6
 41
-30.0
 62
     5
 63
     7
 74
     0
 91
        4
 64
     7
 65
   257
 75
     1
175
     1
 42
1.0
 92
        8
 66
     7
 43
1.0
 76
     1
 77
     6
 78
     2
 67
     7
 79
     5
170
     0
171
     0
290
     0
174
     0
 93
        1
 44
0.0
173
     0
291
     1
 45
0.0
1001
ACAD
1000
AcDbSavedByObjectVersion
1070
     0
  0
VISUALSTYLE
  5
36
102
{ACAD_REACTORS
330
2A
102
}
330
2A
100
AcDbVisualStyle
  2
Brighten
 70
    12
 71
     2
 72
     2
 73
     0
 90
        0
 40
-0.6
 41
-30.0
 62
     5
 63
     7
 74
     1
 91
        4
 64
     7
 65
   257
 75
     1
175
     1
 42
1.0
 92
        8
 66
     7
 43
1.0
 76
     1
 77
     6
 78
     2
 67
     7
 79
     5
170
     0
171
     0
290
     0
174
     0
 93
        1
 44
50.0
173
     0
291
     1
 45
0.0
1001
ACAD
1000
AcDbSavedByObjectVersion
1070
     0
  0
VISUALSTYLE
  5
3A
102
{ACAD_REACTORS
330
2A
102
}
330
2A
100
AcDbVisualStyle
  2
ColorChange
 70
    16
 71
     2
 72
     2
 73
     3
 90
        0
 40
-0.6
 41
-30.0
 62
     5
 63
     8
 74
     1
 91
        4
 64
     7
 65
   257
 75
     1
175
     1
 42
1.0
 92
        8
 66
     8
 43
1.0
 76
     1
 77
     6
 78
     2
 67
     7
 79
     5
170
     0
171
     0
290
     0
174
     0
 93
        1
 44
0.0
173
     0
291
     1
 45
0.0
1001
ACAD
1000
AcDbSavedByObjectVersion
1070
     0
  0
VISUALSTYLE
  5
34
102
{ACAD_REACTORS
330
2A
102
}
330
2A
100
AcDbVisualStyle
  2
Conceptual
 70
     9
 71
     3
 72
     2
 73
     0
 90
        0
 40
-0.6
 41
-30.0
 62
     5
 63
     7
 74
     2
 91
        2
 64
     7
 65
   257
 75
     1
175
     1
 42
40.0
 92
        8
 66
     7
 43
1.0
 76
     1
 77
     6
 78
     2
 67
     7
 79
     3
170
     0
171
     0
290
     0
174
     0
 93
        1
 44
0.0
173
     0
291
     0
 45
0.0
1001
ACAD
1000
AcDbSavedByObjectVersion
1070
     0
  0
VISUALSTYLE
  5
35
102
{ACAD_REACTORS
330
2A
102
}
330
2A
100
AcDbVisualStyle
  2
Dim
 70
    11
 71
     2
 72
     2
 73
     0
 90
        0
 40
-0.6
 41
-30.0
 62
     5
 63
     7
 74
     1
 91
        4
 64
     7
 65
   257
 75
     1
175
     1
 42
1.0
 92
        8
 66
     7
 43
1.0
 76
     1
 77
     6
 78
     2
 67
     7
 79
     5
170
     0
171
     0
290
     0
174
     0
 93
        1
 44
-50.0
173
     0
291
     1
 45
0.0
1001
ACAD
1000
AcDbSavedByObjectVersion
1070
     0
  0
VISUALSTYLE
  5
39
102
{ACAD_REACTORS
330
2A
102
}
330
2A
100
AcDbVisualStyle
  2
Facepattern
 70
    15
 71
     2
 72
     2
 73
     0
 90
        0
 40
-0.6
 41
-30.0
 62
     5
 63
     7
 74
     1
 91
        4
 64
     7
 65
   257
 75
     1
175
     1
 42
1.0
 92
        8
 66
     7
 43
1.0
 76
     1
 77
     6
 78
     2
 67
     7
 79
     5
170
     0
171
     0
290
     0
174
     0
 93
        1
 44
0.0
173
     0
291
     1
 45
0.0
1001
ACAD
1000
AcDbSavedByObjectVersion
1070
     0
  0
VISUALSTYLE
  5
2B
102
{ACAD_REACTORS
330
2A
102
}
330
2A
100
AcDbVisualStyle
  2
Flat
 70
     0
 71
     2
 72
     1
 73
     1
 90
        2
 40
-0.6
 41
30.0
 62
     5
 63
     7
 74
     0
 91
        4
 64
     7
 65
   257
 75
     1
175
     1
 42
1.0
 92
        8
 66
     7
 43
1.0
 76
     1
 77
     6
 78
     2
 67
     7
 79
     5
170
     0
171
     0
290
     0
174
     0
 93
       13
 44
0.0
173
     0
291
     1
 45
0.0
1001
ACAD
1000
AcDbSavedByObjectVersion
1070
     0
  0
VISUALSTYLE
  5
2C
102
{ACAD_REACTORS
330
2A
102
}
330
2A
100
AcDbVisualStyle
  2
FlatWithEdges
 70
     1
 71
     2
 72
     1
 73
     1
 90
        2
 40
-0.6
 41
30.0
 62
     5
 63
     7
 74
     1
 91
        4
 64
     7
 65
   257
 75
     1
175
     1
 42
1.0
 92
        0
 66
   257
 43
1.0
 76
     1
 77
     6
 78
     2
 67
     7
 79
     5
170
     0
171
     0
290
     0
174
     0
 93
       13
 44
0.0
173
     0
291
     1
 45
0.0
1001
ACAD
1000
AcDbSavedByObjectVersion
1070
     0
  0
VISUALSTYLE
  5
2D
102
{ACAD_REACTORS
330
2A
102
}
330
2A
100
AcDbVisualStyle
  2
Gouraud
 70
     2
 71
     2
 72
     2
 73
     1
 90
        2
 40
-0.6
 41
30.0
 62
     5
 63
     7
 74
     0
 91
        4
 64
     7
 65
   257
 75
     1
175
     1
 42
1.0
 92
        0
 66
     7
 43
1.0
 76
     1
 77
     6
 78
     2
 67
     7
 79
     5
170
     0
171
     0
290
     0
174
     0
 93
       13
 44
0.0
173
     0
291
     1
 45
0.0
1001
ACAD
1000
AcDbSavedByObjectVersion
1070
     0
  0
VISUALSTYLE
  5
2E
102
{ACAD_REACTORS
330
2A
102
}
330
2A
100
AcDbVisualStyle
  2
GouraudWithEdges
 70
     3
 71
     2
 72
     2
 73
     1
 90
        2
 40
-0.6
 41
30.0
 62
     5
 63
     7
 74
     1
 91
        4
 64
     7
 65
   257
 75
     1
175
     1
 42
1.0
 92
        0
 66
   257
 43
1.0
 76
     1
 77
     6
 78
     2
 67
     7
 79
     5
170
     0
171
     0
290
     0
174
     0
 93
       13
 44
0.0
173
     0
291
     1
 45
0.0
1001
ACAD
1000
AcDbSavedByObjectVersion
1070
     0
  0
VISUALSTYLE
  5
38
102
{ACAD_REACTORS
330
2A
102
}
330
2A
100
AcDbVisualStyle
  2
Linepattern
 70
    14
 71
     2
 72
     2
 73
     0
 90
        0
 40
-0.6
 41
-30.0
 62
     5
 63
     7
 74
     1
 91
        4
 64
     7
 65
   257
 75
     7
175
     7
 42
1.0
 92
        8
 66
     7
 43
1.0
 76
     1
 77
     6
 78
     2
 67
     7
 79
     5
170
     0
171
     0
290
     0
174
     0
 93
        1
 44
0.0
173
     0
291
     1
 45
0.0
1001
ACAD
1000
AcDbSavedByObjectVersion
1070
     0
  0
VISUALSTYLE
  5
33
102
{ACAD_REACTORS
330
2A
102
}
330
2A
100
AcDbVisualStyle
  2
Realistic
 70
     8
 71
     2
 72
     2
 73
     0
 90
        0
 40
-0.6
 41
-30.0
 62
     5
 63
     7
 74
     1
 91
        0
 64
     7
 65
   257
 75
     1
175
     1
 42
1.0
 92
        8
 66
     8
 43
1.0
 76
     1
 77
     6
 78
     2
 67
     7
 79
     5
170
     0
171
     0
290
     0
174
     0
 93
       13
 44
0.0
173
     0
291
     0
 45
0.0
1001
ACAD
1000
AcDbSavedByObjectVersion
1070
     0
  0
VISUALSTYLE
  5
37
102
{ACAD_REACTORS
330
2A
102
}
330
2A
100
AcDbVisualStyle
  2
Thicken
 70
    13
 71
     2
 72
     2
 73
     0
 90
        0
 40
-0.6
 41
-30.0
 62
     5
 63
     7
 74
     1
 91
        4
 64
     7
 65
   257
 75
     1
175
     1
 42
1.0
 92
       12
 66
     7
 43
1.0
 76
     1
 77
     6
 78
     2
 67
     7
 79
     5
170
     0
171
     0
290
     0
174
     0
 93
        1
 44
0.0
173
     0
291
     1
 45
0.0
1001
ACAD
1000
AcDbSavedByObjectVersion
1070
     0
  0
DICTIONARYVAR
  5
21E
102
{ACAD_REACTORS
330
21C
102
}
330
21C
100
DictionaryVariables
280
     0
  1
80.000000
  0
DICTIONARYVAR
  5
21D
102
{ACAD_REACTORS
330
21C
102
}
330
21C
100
DictionaryVariables
280
     0
  1
5.000000
  0
ENDSEC
  0
EOF
