  0
SECTION
  2
HEADER
  9
$ACADVER
  1
AC1015
  9
$ACADMAINTVER
 70
     6
  9
$DWGCODEPAGE
  3
ANSI_1252
  9
$INSBASE
 10
0.0
 20
0.0
 30
0.0
  9
$EXTMIN
 10
0.0
 20
0.0
 30
0.0
  9
$EXTMAX
 10
297.0
 20
210.0
 30
0.0
  9
$LIMMIN
 10
0.0
 20
0.0
  9
$LIMMAX
 10
297.0
 20
210.0
  9
$ORTHOMODE
 70
     0
  9
$REGENMODE
 70
     1
  9
$FILLMODE
 70
     1
  9
$QTEXTMODE
 70
     0
  9
$MIRRTEXT
 70
     1
  9
$LTSCALE
 40
1.0
  9
$ATTMODE
 70
     1
  9
$TEXTSIZE
 40
2.0
  9
$TRACEWID
 40
1.0
  9
$TEXTSTYLE
  7
Standard
  9
$CLAYER
  8
0
  9
$CELTYPE
  6
ByLayer
  9
$CECOLOR
 62
   256
  9
$CELTSCALE
 40
1.0
  9
$DISPSILH
 70
     0
  9
$DIMSCALE
 40
1.0
  9
$DIMASZ
 40
3.0
  9
$DIMEXO
 40
0.0
  9
$DIMDLI
 40
3.75
  9
$DIMRND
 40
0.0
  9
$DIMDLE
 40
0.0
  9
$DIMEXE
 40
1.0
  9
$DIMTP
 40
0.0
  9
$DIMTM
 40
0.0
  9
$DIMTXT
 40
2.0
  9
$DIMCEN
 40
2.5
  9
$DIMTSZ
 40
0.0
  9
$DIMTOL
 70
     0
  9
$DIMLIM
 70
     0
  9
$DIMTIH
 70
     1
  9
$DIMTOH
 70
     1
  9
$DIMSE1
 70
     0
  9
$DIMSE2
 70
     0
  9
$DIMTAD
 70
     1
  9
$DIMZIN
 70
     0
  9
$DIMBLK
  1

  9
$DIMASO
 70
     1
  9
$DIMSHO
 70
     1
  9
$DIMPOST
  1

  9
$DIMAPOST
  1

  9
$DIMALT
 70
     0
  9
$DIMALTD
 70
     3
  9
$DIMALTF
 40
0.0393700787
  9
$DIMLFAC
 40
1.0
  9
$DIMTOFL
 70
     1
  9
$DIMTVP
 40
0.0
  9
$DIMTIX
 70
     0
  9
$DIMSOXD
 70
     0
  9
$DIMSAH
 70
     0
  9
$DIMBLK1
  1

  9
$DIMBLK2
  1

  9
$DIMSTYLE
  2
ISO-25
  9
$DIMCLRD
 70
     0
  9
$DIMCLRE
 70
     0
  9
$DIMCLRT
 70
     0
  9
$DIMTFAC
 40
1.0
  9
$DIMGAP
 40
1.524
  9
$DIMJUST
 70
     0
  9
$DIMSD1
 70
     0
  9
$DIMSD2
 70
     0
  9
$DIMTOLJ
 70
     0
  9
$DIMTZIN
 70
     0
  9
$DIMALTZ
 70
     0
  9
$DIMALTTZ
 70
     0
  9
$DIMUPT
 70
     0
  9
$DIMDEC
 70
     2
  9
$DIMTDEC
 70
     3
  9
$DIMALTU
 70
     2
  9
$DIMALTTD
 70
     3
  9
$DIMTXSTY
  7
Standard
  9
$DIMAUNIT
 70
     0
  9
$DIMADEC
 70
     2
  9
$DIMALTRND
 40
0.0
  9
$DIMAZIN
 70
     0
  9
$DIMDSEP
 70
    44
  9
$DIMATFIT
 70
     3
  9
$DIMFRAC
 70
     0
  9
$DIMLDRBLK
  1

  9
$DIMLUNIT
 70
     2
  9
$DIMLWD
 70
    -2
  9
$DIMLWE
 70
    -2
  9
$DIMTMOVE
 70
     0
  9
$LUNITS
 70
     2
  9
$LUPREC
 70
     2
  9
$SKETCHINC
 40
1.0
  9
$FILLETRAD
 40
10.0
  9
$AUNITS
 70
     0
  9
$AUPREC
 70
     2
  9
$MENU
  1
.
  9
$ELEVATION
 40
0.0
  9
$PELEVATION
 40
0.0
  9
$THICKNESS
 40
0.0
  9
$LIMCHECK
 70
     0
  9
$CHAMFERA
 40
10.0
  9
$CHAMFERB
 40
10.0
  9
$CHAMFERC
 40
20.0
  9
$CHAMFERD
 40
0.0
  9
$SKPOLY
 70
     0
  9
$TDCREATE
 40
2455684.32343978
  9
$TDUCREATE
 40
2455684.240106447
  9
$TDUPDATE
 40
2455684.323439792
  9
$TDUUPDATE
 40
2455684.240106458
  9
$TDINDWG
 40
0.0000000116
  9
$TDUSRTIMER
 40
0.0000000116
  9
$USRTIMER
 70
     1
  9
$ANGBASE
 50
0.0
  9
$ANGDIR
 70
     0
  9
$PDMODE
 70
     0
  9
$PDSIZE
 40
-1.0
  9
$PLINEWID
 40
0.0
  9
$SPLFRAME
 70
     0
  9
$SPLINETYPE
 70
     6
  9
$SPLINESEGS
 70
     8
  9
$HANDSEED
  5
216
  9
$SURFTAB1
 70
     6
  9
$SURFTAB2
 70
     6
  9
$SURFTYPE
 70
     6
  9
$SURFU
 70
     6
  9
$SURFV
 70
     6
  9
$UCSBASE
  2

  9
$UCSNAME
  2

  9
$UCSORG
 10
0.0
 20
0.0
 30
0.0
  9
$UCSXDIR
 10
1.0
 20
0.0
 30
0.0
  9
$UCSYDIR
 10
0.0
 20
1.0
 30
0.0
  9
$UCSORTHOREF
  2

  9
$UCSORTHOVIEW
 70
     0
  9
$UCSORGTOP
 10
0.0
 20
0.0
 30
0.0
  9
$UCSORGBOTTOM
 10
0.0
 20
0.0
 30
0.0
  9
$UCSORGLEFT
 10
0.0
 20
0.0
 30
0.0
  9
$UCSORGRIGHT
 10
0.0
 20
0.0
 30
0.0
  9
$UCSORGFRONT
 10
0.0
 20
0.0
 30
0.0
  9
$UCSORGBACK
 10
0.0
 20
0.0
 30
0.0
  9
$PUCSBASE
  2

  9
$PUCSNAME
  2

  9
$PUCSORG
 10
0.0
 20
0.0
 30
0.0
  9
$PUCSXDIR
 10
1.0
 20
0.0
 30
0.0
  9
$PUCSYDIR
 10
0.0
 20
1.0
 30
0.0
  9
$PUCSORTHOREF
  2

  9
$PUCSORTHOVIEW
 70
     0
  9
$PUCSORGTOP
 10
0.0
 20
0.0
 30
0.0
  9
$PUCSORGBOTTOM
 10
0.0
 20
0.0
 30
0.0
  9
$PUCSORGLEFT
 10
0.0
 20
0.0
 30
0.0
  9
$PUCSORGRIGHT
 10
0.0
 20
0.0
 30
0.0
  9
$PUCSORGFRONT
 10
0.0
 20
0.0
 30
0.0
  9
$PUCSORGBACK
 10
0.0
 20
0.0
 30
0.0
  9
$USERI1
 70
     0
  9
$USERI2
 70
     0
  9
$USERI3
 70
     0
  9
$USERI4
 70
     0
  9
$USERI5
 70
     0
  9
$USERR1
 40
0.0
  9
$USERR2
 40
0.0
  9
$USERR3
 40
0.0
  9
$USERR4
 40
0.0
  9
$USERR5
 40
0.0
  9
$WORLDVIEW
 70
     1
  9
$SHADEDGE
 70
     3
  9
$SHADEDIF
 70
    70
  9
$TILEMODE
 70
     1
  9
$MAXACTVP
 70
    64
  9
$PINSBASE
 10
0.0
 20
0.0
 30
0.0
  9
$PLIMCHECK
 70
     0
  9
$PEXTMIN
 10
1.0000000000E+20
 20
1.0000000000E+20
 30
1.0000000000E+20
  9
$PEXTMAX
 10
-1.0000000000E+20
 20
-1.0000000000E+20
 30
-1.0000000000E+20
  9
$PLIMMIN
 10
0.0
 20
0.0
  9
$PLIMMAX
 10
420.0
 20
297.0
  9
$UNITMODE
 70
     0
  9
$VISRETAIN
 70
     1
  9
$PLINEGEN
 70
     0
  9
$PSLTSCALE
 70
     1
  9
$TREEDEPTH
 70
  3020
  9
$CMLSTYLE
  2
Standard
  9
$CMLJUST
 70
     0
  9
$CMLSCALE
 40
20.0
  9
$PROXYGRAPHICS
 70
     1
  9
$MEASUREMENT
 70
     1
  9
$CELWEIGHT
370
    -1
  9
$ENDCAPS
280
     0
  9
$JOINSTYLE
280
     0
  9
$LWDISPLAY
290
     1
  9
$INSUNITS
 70
     4
  9
$HYPERLINKBASE
  1

  9
$STYLESHEET
  1

  9
$XEDIT
290
     1
  9
$CEPSNTYPE
380
     0
  9
$PSTYLEMODE
290
     1
  9
$FINGERPRINTGUID
  2
{25FED892-65AC-469E-B3FE-1728CDE6F033}
  9
$VERSIONGUID
  2
{FAEB1C32-E019-11D5-929B-00C0DF256EC4}
  9
$EXTNAMES
290
     1
  9
$PSVPSCALE
 40
0.0
  9
$OLESTARTUP
290
     0
  0
ENDSEC
  0
SECTION
  2
CLASSES
  0
CLASS
  1
ACDBDICTIONARYWDFLT
  2
AcDbDictionaryWithDefault
  3
ObjectDBX Classes
 90
        0
280
     0
281
     0
  0
CLASS
  1
VISUALSTYLE
  2
AcDbVisualStyle
  3
ObjectDBX Classes
 90
     4095
280
     0
281
     0
  0
CLASS
  1
DICTIONARYVAR
  2
AcDbDictionaryVar
  3
ObjectDBX Classes
 90
        0
280
     0
281
     0
  0
CLASS
  1
ACDBPLACEHOLDER
  2
AcDbPlaceHolder
  3
ObjectDBX Classes
 90
        0
280
     0
281
     0
  0
CLASS
  1
LAYOUT
  2
AcDbLayout
  3
ObjectDBX Classes
 90
        0
280
     0
281
     0
  0
ENDSEC
  0
SECTION
  2
TABLES
  0
TABLE
  2
VPORT
  5
8
330
0
100
AcDbSymbolTable
 70
     1
  0
VPORT
  5
29
330
8
100
AcDbSymbolTableRecord
100
AcDbViewportTableRecord
  2
*Active
 70
     0
 10
0.0
 20
0.0
 11
1.0
 21
1.0
 12
148.5
 22
105.0
 13
0.0
 23
0.0
 14
10.0
 24
10.0
 15
10.0
 25
10.0
 16
0.0
 26
0.0
 36
1.0
 17
0.0
 27
0.0
 37
0.0
 40
210.0
 41
1.4142857143
 42
50.0
 43
0.0
 44
0.0
 50
0.0
 51
0.0
 71
     0
 72
  2000
 73
     1
 74
     3
 75
     0
 76
     0
 77
     0
 78
     0
281
     0
 65
     1
110
0.0
120
0.0
130
0.0
111
1.0
121
0.0
131
0.0
112
0.0
122
1.0
132
0.0
 79
     0
146
0.0
  0
ENDTAB
  0
TABLE
  2
LTYPE
  5
5
330
0
100
AcDbSymbolTable
 70
     6
  0
LTYPE
  5
14
330
5
100
AcDbSymbolTableRecord
100
AcDbLinetypeTableRecord
  2
ByBlock
 70
     0
  3

 72
    65
 73
     0
 40
0.0
  0
LTYPE
  5
15
330
5
100
AcDbSymbolTableRecord
100
AcDbLinetypeTableRecord
  2
ByLayer
 70
     0
  3

 72
    65
 73
     0
 40
0.0
  0
LTYPE
  5
16
330
5
100
AcDbSymbolTableRecord
100
AcDbLinetypeTableRecord
  2
Continuous
 70
     0
  3
Solid line
 72
    65
 73
     0
 40
0.0
  0
LTYPE
  5
3B
330
5
100
AcDbSymbolTableRecord
100
AcDbLinetypeTableRecord
  2
HIDDEN
 70
     0
  3
Hidden __ __ __ __ __ __ __ __ __ __ __ __ __ __
 72
    65
 73
     2
 40
1.905
 49
1.27
 74
     0
 49
-0.635
 74
     0
  0
LTYPE
  5
3C
330
5
100
AcDbSymbolTableRecord
100
AcDbLinetypeTableRecord
  2
PHANTOM
 70
     0
  3
Phantom ______  __  __  ______  __  __  ______
 72
    65
 73
     6
 40
12.7
 49
6.35
 74
     0
 49
-1.27
 74
     0
 49
1.27
 74
     0
 49
-1.27
 74
     0
 49
1.27
 74
     0
 49
-1.27
 74
     0
  0
LTYPE
  5
3D
330
5
100
AcDbSymbolTableRecord
100
AcDbLinetypeTableRecord
  2
CENTER
 70
     0
  3
Center ____ _ ____ _ ____ _ ____ _ ____ _ ____
 72
    65
 73
     4
 40
10.16
 49
6.35
 74
     0
 49
-1.27
 74
     0
 49
1.27
 74
     0
 49
-1.27
 74
     0
  0
LTYPE
  5
3E
330
5
100
AcDbSymbolTableRecord
100
AcDbLinetypeTableRecord
  2
CENTERX2
 70
     0
  3
Center (2x) ________  __  ________  __  _____
 72
    65
 73
     4
 40
20.32
 49
12.7
 74
     0
 49
-2.54
 74
     0
 49
2.54
 74
     0
 49
-2.54
 74
     0
  0
LTYPE
  5
3F
330
5
100
AcDbSymbolTableRecord
100
AcDbLinetypeTableRecord
  2
DOT2
 70
     0
  3
Dot (.5x) ........................................
 72
    65
 73
     2
 40
0.635
 49
0.0
 74
     0
 49
-0.635
 74
     0
  0
ENDTAB
  0
TABLE
  2
LAYER
  5
2
330
0
100
AcDbSymbolTable
 70
     5
  0
LAYER
  5
10
330
2
100
AcDbSymbolTableRecord
100
AcDbLayerTableRecord
  2
0
 70
     0
 62
     7
  6
Continuous
370
    -3
390
F
  0
LAYER
  5
40
330
2
100
AcDbSymbolTableRecord
100
AcDbLayerTableRecord
  2
FORMAT
 70
     0
 62
     7
  6
Continuous
370
    -3
390
F
  0
LAYER
  5
41
330
2
100
AcDbSymbolTableRecord
100
AcDbLayerTableRecord
  2
VERMASSUNG
 70
     0
 62
     7
  6
Continuous
370
    -3
390
F
  0
LAYER
  5
42
330
2
100
AcDbSymbolTableRecord
100
AcDbLayerTableRecord
  2
KOPF_DÜNN
 70
     0
 62
     7
  6
Continuous
370
    -3
390
F
  0
LAYER
  5
43
330
2
100
AcDbSymbolTableRecord
100
AcDbLayerTableRecord
  2
KOPF_DICK
 70
     0
 62
     7
  6
Continuous
370
    15
390
F
  0
ENDTAB
  0
TABLE
  2
STYLE
  5
3
330
0
100
AcDbSymbolTable
 70
     3
  0
STYLE
  5
11
330
3
100
AcDbSymbolTableRecord
100
AcDbTextStyleTableRecord
  2
Standard
 70
     0
 40
0.0
 41
1.0
 50
0.0
 71
     0
 42
2.5
  3
txt
  4

  0
STYLE
  5
44
330
3
100
AcDbSymbolTableRecord
100
AcDbTextStyleTableRecord
  2
SLDTEXTSTYLE0
 70
     0
 40
0.0
 41
0.7
 50
0.0
 71
     0
 42
0.2
  3
TXT
  4

  0
STYLE
  5
48
330
3
100
AcDbSymbolTableRecord
100
AcDbTextStyleTableRecord
  2
SLDTEXTSTYLE1
 70
     0
 40
0.0
 41
0.65
 50
0.0
 71
     0
 42
0.2
  3
TXT
  4

  0
ENDTAB
  0
TABLE
  2
VIEW
  5
6
330
0
100
AcDbSymbolTable
 70
     0
  0
ENDTAB
  0
TABLE
  2
UCS
  5
7
330
0
100
AcDbSymbolTable
 70
     0
  0
ENDTAB
  0
TABLE
  2
APPID
  5
9
330
0
100
AcDbSymbolTable
 70
     1
  0
APPID
  5
12
330
9
100
AcDbSymbolTableRecord
100
AcDbRegAppTableRecord
  2
ACAD
 70
     0
  0
ENDTAB
  0
TABLE
  2
DIMSTYLE
  5
A
330
0
100
AcDbSymbolTable
 70
     5
100
AcDbDimStyleTable
  0
DIMSTYLE
105
27
330
A
100
AcDbSymbolTableRecord
100
AcDbDimStyleTableRecord
  2
ISO-25
 70
     0
 41
2.5
 42
0.625
 43
3.75
 44
1.25
 73
     0
 74
     0
 77
     1
 78
     8
140
2.5
141
2.5
143
0.0393700787
147
0.625
171
     3
172
     1
271
     2
272
     2
274
     3
278
    44
283
     0
284
     8
340
11
  0
DIMSTYLE
105
1B6
102
{ACAD_REACTORS
330
1B5
330
1E6
330
1F0
330
1FA
330
204
102
}
330
A
100
AcDbSymbolTableRecord
100
AcDbDimStyleTableRecord
  2
SLDDIMSTYLE0
 70
     0
 41
3.0
 44
0.0
 45
0.000000001
 73
     0
 74
     0
 77
     1
 78
    12
140
2.0
147
0.5
173
     1
271
     2
272
     3
284
    12
340
44
  0
DIMSTYLE
105
1C3
102
{ACAD_REACTORS
330
1C2
102
}
330
A
100
AcDbSymbolTableRecord
100
AcDbDimStyleTableRecord
  2
SLDDIMSTYLE1
 70
     0
 41
3.0
 44
0.0
 45
0.000000001
 73
     0
 74
     0
 77
     1
 78
    12
140
2.0
147
0.5
173
     1
271
     2
272
     2
284
    12
340
44
  0
DIMSTYLE
105
1CE
102
{ACAD_REACTORS
330
1CD
102
}
330
A
100
AcDbSymbolTableRecord
100
AcDbDimStyleTableRecord
  2
SLDDIMSTYLE2
 70
     0
 41
3.0
 44
0.0
 45
0.000000001
 73
     0
 74
     0
 77
     1
 78
    12
140
2.0
147
0.5
173
     1
271
     2
272
     2
284
    12
340
44
  0
DIMSTYLE
105
1DB
102
{ACAD_REACTORS
330
1DA
102
}
330
A
100
AcDbSymbolTableRecord
100
AcDbDimStyleTableRecord
  2
SLDDIMSTYLE3
 70
     0
 41
3.0
 44
0.0
 45
0.000000001
 73
     0
 74
     0
 77
     1
 78
    12
140
2.0
147
0.5
173
     1
271
     2
272
     3
284
    12
340
44
  0
ENDTAB
  0
TABLE
  2
BLOCK_RECORD
  5
1
330
0
100
AcDbSymbolTable
 70
     9
  0
BLOCK_RECORD
  5
1F
330
1
100
AcDbSymbolTableRecord
100
AcDbBlockTableRecord
  2
*Model_Space
340
22
  0
BLOCK_RECORD
  5
1B
330
1
100
AcDbSymbolTableRecord
100
AcDbBlockTableRecord
  2
*Paper_Space
340
1E
  0
BLOCK_RECORD
  5
23
330
1
100
AcDbSymbolTableRecord
100
AcDbBlockTableRecord
  2
*Paper_Space0
340
26
  0
BLOCK_RECORD
  5
1B7
330
1
100
AcDbSymbolTableRecord
100
AcDbBlockTableRecord
  2
*D1
340
0
  0
BLOCK_RECORD
  5
1C4
330
1
100
AcDbSymbolTableRecord
100
AcDbBlockTableRecord
  2
*D2
340
0
  0
BLOCK_RECORD
  5
1CF
330
1
100
AcDbSymbolTableRecord
100
AcDbBlockTableRecord
  2
*D3
340
0
  0
BLOCK_RECORD
  5
1DC
330
1
100
AcDbSymbolTableRecord
100
AcDbBlockTableRecord
  2
*D4
340
0
  0
BLOCK_RECORD
  5
1E7
330
1
100
AcDbSymbolTableRecord
100
AcDbBlockTableRecord
  2
*D5
340
0
  0
BLOCK_RECORD
  5
1F1
330
1
100
AcDbSymbolTableRecord
100
AcDbBlockTableRecord
  2
*D6
340
0
  0
BLOCK_RECORD
  5
1FB
330
1
100
AcDbSymbolTableRecord
100
AcDbBlockTableRecord
  2
*D7
340
0
  0
BLOCK_RECORD
  5
205
330
1
100
AcDbSymbolTableRecord
100
AcDbBlockTableRecord
  2
*D8
340
0
  0
ENDTAB
  0
ENDSEC
  0
SECTION
  2
BLOCKS
  0
BLOCK
  5
20
330
1F
100
AcDbEntity
  8
0
100
AcDbBlockBegin
  2
*Model_Space
 70
     0
 10
0.0
 20
0.0
 30
0.0
  3
*Model_Space
  1

  0
ENDBLK
  5
21
330
1F
100
AcDbEntity
  8
0
100
AcDbBlockEnd
  0
BLOCK
  5
1C
330
1B
100
AcDbEntity
 67
     1
  8
0
100
AcDbBlockBegin
  2
*Paper_Space
 70
     0
 10
0.0
 20
0.0
 30
0.0
  3
*Paper_Space
  1

  0
ENDBLK
  5
1D
330
1B
100
AcDbEntity
 67
     1
  8
0
100
AcDbBlockEnd
  0
BLOCK
  5
24
330
23
100
AcDbEntity
  8
0
100
AcDbBlockBegin
  2
*Paper_Space0
 70
     0
 10
0.0
 20
0.0
 30
0.0
  3
*Paper_Space0
  1

  0
ENDBLK
  5
25
330
23
100
AcDbEntity
  8
0
100
AcDbBlockEnd
  0
BLOCK
  5
1B8
330
1B7
100
AcDbEntity
  8
0
100
AcDbBlockBegin
  2
*D1
 70
     1
 10
0.0
 20
0.0
 30
0.0
  3
*D1
  1

  0
SOLID
  5
1BA
330
1B7
100
AcDbEntity
  8
VERMASSUNG
100
AcDbTrace
 10
52.887432286
 20
155.3481040087
 30
0.0
 11
52.437432286
 21
152.3481040087
 31
0.0
 12
53.337432286
 22
152.3481040087
 32
0.0
 13
53.337432286
 23
152.3481040087
 33
0.0
  0
SOLID
  5
1BB
330
1B7
100
AcDbEntity
  8
VERMASSUNG
100
AcDbTrace
 10
52.887432286
 20
55.3481040087
 30
0.0
 11
53.337432286
 21
58.3481040087
 31
0.0
 12
52.437432286
 22
58.3481040087
 32
0.0
 13
52.437432286
 23
58.3481040087
 33
0.0
  0
LINE
  5
1BC
330
1B7
100
AcDbEntity
  8
VERMASSUNG
100
AcDbLine
 10
110.1806365159
 20
155.3481040087
 30
0.0
 11
51.887432286
 21
155.3481040087
 31
0.0
  0
LINE
  5
1BD
330
1B7
100
AcDbEntity
  8
VERMASSUNG
100
AcDbLine
 10
110.1806365159
 20
55.3481040087
 30
0.0
 11
51.887432286
 21
55.3481040087
 31
0.0
  0
LINE
  5
1BE
330
1B7
100
AcDbEntity
  8
VERMASSUNG
100
AcDbLine
 10
52.887432286
 20
155.3481040087
 30
0.0
 11
52.887432286
 21
55.3481040087
 31
0.0
  0
MTEXT
  5
1BF
330
1B7
100
AcDbEntity
  8
VERMASSUNG
100
AcDbMText
 10
50.109296797
 20
97.1444528711
 30
0.0
 40
2.0
 41
0.0
 71
     1
 72
     1
  1
HSK A 
  7
SLDTEXTSTYLE0
 11
-7.044195017643634E-15
 21
1.0
 31
0.0
 73
     1
 44
1.0
  0
MTEXT
  5
1C0
330
1B7
100
AcDbEntity
  8
VERMASSUNG
100
AcDbMText
 10
50.3092968065
 20
106.144453415
 30
0.0
 40
2.0
 41
0.0
 71
     1
 72
     1
  1
%%c
  7
SLDTEXTSTYLE0
 11
-7.044195017643634E-15
 21
1.0
 31
0.0
 73
     1
 44
1.0
  0
MTEXT
  5
1C1
330
1B7
100
AcDbEntity
  8
VERMASSUNG
100
AcDbMText
 10
50.3092969229
 20
109.752780065
 30
0.0
 40
2.0
 41
0.0
 71
     1
 72
     1
  1
100
  7
SLDTEXTSTYLE0
 11
-7.044195017643634E-15
 21
1.0
 31
0.0
 73
     1
 44
1.0
  0
ENDBLK
  5
1B9
330
1B7
100
AcDbEntity
  8
0
100
AcDbBlockEnd
  0
BLOCK
  5
1C5
330
1C4
100
AcDbEntity
  8
0
100
AcDbBlockBegin
  2
*D2
 70
     1
 10
0.0
 20
0.0
 30
0.0
  3
*D2
  1

  0
SOLID
  5
1C7
330
1C4
100
AcDbEntity
  8
VERMASSUNG
100
AcDbTrace
 10
193.1806365159
 20
155.939219935
 30
0.0
 11
196.1806365159
 21
155.489219935
 31
0.0
 12
196.1806365159
 22
156.389219935
 32
0.0
 13
196.1806365159
 23
156.389219935
 33
0.0
  0
SOLID
  5
1C8
330
1C4
100
AcDbEntity
  8
VERMASSUNG
100
AcDbTrace
 10
239.6806365159
 20
155.939219935
 30
0.0
 11
236.6806365159
 21
156.389219935
 31
0.0
 12
236.6806365159
 22
155.489219935
 32
0.0
 13
236.6806365159
 23
155.489219935
 33
0.0
  0
LINE
  5
1C9
330
1C4
100
AcDbEntity
  8
VERMASSUNG
100
AcDbLine
 10
193.1806365159
 20
111.2481040087
 30
0.0
 11
193.1806365159
 21
156.939219935
 31
0.0
  0
LINE
  5
1CA
330
1C4
100
AcDbEntity
  8
VERMASSUNG
100
AcDbLine
 10
239.6806365159
 20
115.4993230254
 30
0.0
 11
239.6806365159
 21
156.939219935
 31
0.0
  0
LINE
  5
1CB
330
1C4
100
AcDbEntity
  8
VERMASSUNG
100
AcDbLine
 10
193.1806365159
 20
155.939219935
 30
0.0
 11
239.6806365159
 21
155.939219935
 31
0.0
  0
MTEXT
  5
1CC
330
1C4
100
AcDbEntity
  8
VERMASSUNG
100
AcDbMText
 10
213.9312497336
 20
158.5173552981
 30
0.0
 40
2.0
 41
0.0
 71
     1
 72
     1
  1
46.5
  7
SLDTEXTSTYLE0
 73
     1
 44
1.0
  0
ENDBLK
  5
1C6
330
1C4
100
AcDbEntity
  8
0
100
AcDbBlockEnd
  0
BLOCK
  5
1D0
330
1CF
100
AcDbEntity
  8
0
100
AcDbBlockBegin
  2
*D3
 70
     1
 10
0.0
 20
0.0
 30
0.0
  3
*D3
  1

  0
SOLID
  5
1D2
330
1CF
100
AcDbEntity
  8
VERMASSUNG
100
AcDbTrace
 10
249.7905262362
 20
99.3481040087
 30
0.0
 11
250.2405262362
 21
102.3481040087
 31
0.0
 12
249.3405262362
 22
102.3481040087
 32
0.0
 13
249.3405262362
 23
102.3481040087
 33
0.0
  0
SOLID
  5
1D3
330
1CF
100
AcDbEntity
  8
VERMASSUNG
100
AcDbTrace
 10
249.7905262362
 20
111.3481040087
 30
0.0
 11
249.3405262362
 21
108.3481040087
 31
0.0
 12
250.2405262362
 22
108.3481040087
 32
0.0
 13
250.2405262362
 23
108.3481040087
 33
0.0
  0
LINE
  5
1D4
330
1CF
100
AcDbEntity
  8
VERMASSUNG
100
AcDbLine
 10
236.1806365159
 20
99.3481040087
 30
0.0
 11
250.7905262362
 21
99.3481040087
 31
0.0
  0
LINE
  5
1D5
330
1CF
100
AcDbEntity
  8
VERMASSUNG
100
AcDbLine
 10
236.1806365159
 20
111.3481040087
 30
0.0
 11
250.7905262362
 21
111.3481040087
 31
0.0
  0
LINE
  5
1D6
330
1CF
100
AcDbEntity
  8
VERMASSUNG
100
AcDbLine
 10
249.7905262362
 20
99.3481040087
 30
0.0
 11
249.7905262362
 21
111.3481040087
 31
0.0
  0
MTEXT
  5
1D7
330
1CF
100
AcDbEntity
  8
VERMASSUNG
100
AcDbMText
 10
247.2123907567
 20
101.7440671723
 30
0.0
 40
2.0
 41
0.0
 71
     1
 72
     1
  1
%%c
  7
SLDTEXTSTYLE0
 11
6.123233995736766E-17
 21
1.0
 31
0.0
 73
     1
 44
1.0
  0
MTEXT
  5
1D8
330
1CF
100
AcDbEntity
  8
VERMASSUNG
100
AcDbMText
 10
247.2123908731
 20
105.3527453954
 30
0.0
 40
2.0
 41
0.0
 71
     1
 72
     1
  1
12
  7
SLDTEXTSTYLE0
 11
6.123233995736766E-17
 21
1.0
 31
0.0
 73
     1
 44
1.0
  0
MTEXT
  5
1D9
330
1CF
100
AcDbEntity
  8
VERMASSUNG
100
AcDbMText
 10
247.2123908731
 20
107.7523423619
 30
0.0
 40
2.0
 41
0.0
 71
     1
 72
     1
  1
 
  7
SLDTEXTSTYLE0
 11
6.123233995736766E-17
 21
1.0
 31
0.0
 73
     1
 44
1.0
  0
ENDBLK
  5
1D1
330
1CF
100
AcDbEntity
  8
0
100
AcDbBlockEnd
  0
BLOCK
  5
1DD
330
1DC
100
AcDbEntity
  8
0
100
AcDbBlockBegin
  2
*D4
 70
     1
 10
0.0
 20
0.0
 30
0.0
  3
*D4
  1

  0
SOLID
  5
1DF
330
1DC
100
AcDbEntity
  8
VERMASSUNG
100
AcDbTrace
 10
255.7905262362
 20
93.3481040087
 30
0.0
 11
256.2405262362
 21
96.3481040087
 31
0.0
 12
255.3405262362
 22
96.3481040087
 32
0.0
 13
255.3405262362
 23
96.3481040087
 33
0.0
  0
SOLID
  5
1E0
330
1DC
100
AcDbEntity
  8
VERMASSUNG
100
AcDbTrace
 10
255.7905262362
 20
117.3481040087
 30
0.0
 11
255.3405262362
 21
114.3481040087
 31
0.0
 12
256.2405262362
 22
114.3481040087
 32
0.0
 13
256.2405262362
 23
114.3481040087
 33
0.0
  0
LINE
  5
1E1
330
1DC
100
AcDbEntity
  8
VERMASSUNG
100
AcDbLine
 10
239.6806365159
 20
93.3481040087
 30
0.0
 11
256.7905262362
 21
93.3481040087
 31
0.0
  0
LINE
  5
1E2
330
1DC
100
AcDbEntity
  8
VERMASSUNG
100
AcDbLine
 10
239.6806365159
 20
117.3481040087
 30
0.0
 11
256.7905262362
 21
117.3481040087
 31
0.0
  0
LINE
  5
1E3
330
1DC
100
AcDbEntity
  8
VERMASSUNG
100
AcDbLine
 10
255.7905262362
 20
93.3481040087
 30
0.0
 11
255.7905262362
 21
117.3481040087
 31
0.0
  0
MTEXT
  5
1E4
330
1DC
100
AcDbEntity
  8
VERMASSUNG
100
AcDbMText
 10
253.2123907567
 20
102.0445969664
 30
0.0
 40
2.0
 41
0.0
 71
     1
 72
     1
  1
%%c
  7
SLDTEXTSTYLE0
 11
6.123233995736766E-17
 21
1.0
 31
0.0
 73
     1
 44
1.0
  0
MTEXT
  5
1E5
330
1DC
100
AcDbEntity
  8
VERMASSUNG
100
AcDbMText
 10
253.2123908731
 20
105.6532751896
 30
0.0
 40
2.0
 41
0.0
 71
     1
 72
     1
  1
24
  7
SLDTEXTSTYLE0
 11
6.123233995736766E-17
 21
1.0
 31
0.0
 73
     1
 44
1.0
  0
ENDBLK
  5
1DE
330
1DC
100
AcDbEntity
  8
0
100
AcDbBlockEnd
  0
BLOCK
  5
1E8
330
1E7
100
AcDbEntity
  8
0
100
AcDbBlockBegin
  2
*D5
 70
     1
 10
0.0
 20
0.0
 30
0.0
  3
*D5
  1

  0
SOLID
  5
1EA
330
1E7
100
AcDbEntity
  8
VERMASSUNG
100
AcDbTrace
 10
109.6806365159
 20
167.939219935
 30
0.0
 11
112.6806365159
 21
167.489219935
 31
0.0
 12
112.6806365159
 22
168.389219935
 32
0.0
 13
112.6806365159
 23
168.389219935
 33
0.0
  0
SOLID
  5
1EB
330
1E7
100
AcDbEntity
  8
VERMASSUNG
100
AcDbTrace
 10
239.6806365159
 20
167.939219935
 30
0.0
 11
236.6806365159
 21
168.389219935
 31
0.0
 12
236.6806365159
 22
167.489219935
 32
0.0
 13
236.6806365159
 23
167.489219935
 33
0.0
  0
LINE
  5
1EC
330
1E7
100
AcDbEntity
  8
VERMASSUNG
100
AcDbLine
 10
109.6806365159
 20
154.8481040087
 30
0.0
 11
109.6806365159
 21
168.939219935
 31
0.0
  0
LINE
  5
1ED
330
1E7
100
AcDbEntity
  8
VERMASSUNG
100
AcDbLine
 10
239.6806365159
 20
115.4993230254
 30
0.0
 11
239.6806365159
 21
168.939219935
 31
0.0
  0
LINE
  5
1EE
330
1E7
100
AcDbEntity
  8
VERMASSUNG
100
AcDbLine
 10
109.6806365159
 20
167.939219935
 30
0.0
 11
239.6806365159
 21
167.939219935
 31
0.0
  0
MTEXT
  5
1EF
330
1E7
100
AcDbEntity
  8
VERMASSUNG
100
AcDbMText
 10
172.7811489752
 20
170.5173552981
 30
0.0
 40
2.0
 41
0.0
 71
     1
 72
     1
  1
130
  7
SLDTEXTSTYLE0
 73
     1
 44
1.0
  0
ENDBLK
  5
1E9
330
1E7
100
AcDbEntity
  8
0
100
AcDbBlockEnd
  0
BLOCK
  5
1F2
330
1F1
100
AcDbEntity
  8
0
100
AcDbBlockBegin
  2
*D6
 70
     1
 10
0.0
 20
0.0
 30
0.0
  3
*D6
  1

  0
SOLID
  5
1F4
330
1F1
100
AcDbEntity
  8
VERMASSUNG
100
AcDbTrace
 10
138.6306365159
 20
161.939219935
 30
0.0
 11
141.6306365159
 21
161.489219935
 31
0.0
 12
141.6306365159
 22
162.389219935
 32
0.0
 13
141.6306365159
 23
162.389219935
 33
0.0
  0
SOLID
  5
1F5
330
1F1
100
AcDbEntity
  8
VERMASSUNG
100
AcDbTrace
 10
239.6806365159
 20
161.939219935
 30
0.0
 11
236.6806365159
 21
162.389219935
 31
0.0
 12
236.6806365159
 22
161.489219935
 32
0.0
 13
236.6806365159
 23
161.489219935
 33
0.0
  0
LINE
  5
1F6
330
1F1
100
AcDbEntity
  8
VERMASSUNG
100
AcDbLine
 10
138.6306365159
 20
153.3168438295
 30
0.0
 11
138.6306365159
 21
162.939219935
 31
0.0
  0
LINE
  5
1F7
330
1F1
100
AcDbEntity
  8
VERMASSUNG
100
AcDbLine
 10
239.6806365159
 20
115.4860346572
 30
0.0
 11
239.6806365159
 21
162.939219935
 31
0.0
  0
LINE
  5
1F8
330
1F1
100
AcDbEntity
  8
VERMASSUNG
100
AcDbLine
 10
138.6306365159
 20
161.939219935
 30
0.0
 11
239.6806365159
 21
161.939219935
 31
0.0
  0
MTEXT
  5
1F9
330
1F1
100
AcDbEntity
  8
VERMASSUNG
100
AcDbMText
 10
185.7558206979
 20
164.5173552981
 30
0.0
 40
2.0
 41
0.0
 71
     1
 72
     1
  1
101.05
  7
SLDTEXTSTYLE0
 73
     1
 44
1.0
  0
ENDBLK
  5
1F3
330
1F1
100
AcDbEntity
  8
0
100
AcDbBlockEnd
  0
BLOCK
  5
1FC
330
1FB
100
AcDbEntity
  8
0
100
AcDbBlockBegin
  2
*D7
 70
     1
 10
0.0
 20
0.0
 30
0.0
  3
*D7
  1

  0
SOLID
  5
1FE
330
1FB
100
AcDbEntity
  8
VERMASSUNG
100
AcDbTrace
 10
59.7806365159
 20
173.939219935
 30
0.0
 11
62.7806365159
 21
173.489219935
 31
0.0
 12
62.7806365159
 22
174.389219935
 32
0.0
 13
62.7806365159
 23
174.389219935
 33
0.0
  0
SOLID
  5
1FF
330
1FB
100
AcDbEntity
  8
VERMASSUNG
100
AcDbTrace
 10
239.6806365159
 20
173.939219935
 30
0.0
 11
236.6806365159
 21
174.389219935
 31
0.0
 12
236.6806365159
 22
173.489219935
 32
0.0
 13
236.6806365159
 23
173.489219935
 33
0.0
  0
LINE
  5
200
330
1FB
100
AcDbEntity
  8
VERMASSUNG
100
AcDbLine
 10
59.7806365159
 20
135.8507737512
 30
0.0
 11
59.7806365159
 21
174.939219935
 31
0.0
  0
LINE
  5
201
330
1FB
100
AcDbEntity
  8
VERMASSUNG
100
AcDbLine
 10
239.6806365159
 20
115.4860346572
 30
0.0
 11
239.6806365159
 21
174.939219935
 31
0.0
  0
LINE
  5
202
330
1FB
100
AcDbEntity
  8
VERMASSUNG
100
AcDbLine
 10
59.7806365159
 20
173.939219935
 30
0.0
 11
239.6806365159
 21
173.939219935
 31
0.0
  0
MTEXT
  5
203
330
1FB
100
AcDbEntity
  8
VERMASSUNG
100
AcDbMText
 10
146.8309301237
 20
176.5173552981
 30
0.0
 40
2.0
 41
0.0
 71
     1
 72
     1
  1
179.9
  7
SLDTEXTSTYLE0
 73
     1
 44
1.0
  0
ENDBLK
  5
1FD
330
1FB
100
AcDbEntity
  8
0
100
AcDbBlockEnd
  0
BLOCK
  5
206
330
205
100
AcDbEntity
  8
0
100
AcDbBlockBegin
  2
*D8
 70
     1
 10
0.0
 20
0.0
 30
0.0
  3
*D8
  1

  0
SOLID
  5
208
330
205
100
AcDbEntity
  8
VERMASSUNG
100
AcDbTrace
 10
261.7905262362
 20
122.3481040087
 30
0.0
 11
261.3405262362
 21
119.3481040087
 31
0.0
 12
262.2405262362
 22
119.3481040087
 32
0.0
 13
262.2405262362
 23
119.3481040087
 33
0.0
  0
SOLID
  5
209
330
205
100
AcDbEntity
  8
VERMASSUNG
100
AcDbTrace
 10
261.7905262362
 20
88.3481040087
 30
0.0
 11
262.2405262362
 21
91.3481040087
 31
0.0
 12
261.3405262362
 22
91.3481040087
 32
0.0
 13
261.3405262362
 23
91.3481040087
 33
0.0
  0
LINE
  5
20A
330
205
100
AcDbEntity
  8
VERMASSUNG
100
AcDbLine
 10
160.6306365159
 20
122.3481040087
 30
0.0
 11
262.7905262362
 21
122.3481040087
 31
0.0
  0
LINE
  5
20B
330
205
100
AcDbEntity
  8
VERMASSUNG
100
AcDbLine
 10
160.6306365159
 20
88.3481040087
 30
0.0
 11
262.7905262362
 21
88.3481040087
 31
0.0
  0
LINE
  5
20C
330
205
100
AcDbEntity
  8
VERMASSUNG
100
AcDbLine
 10
261.7905262362
 20
122.3481040087
 30
0.0
 11
261.7905262362
 21
88.3481040087
 31
0.0
  0
MTEXT
  5
20D
330
205
100
AcDbEntity
  8
VERMASSUNG
100
AcDbMText
 10
259.2123907567
 20
102.0445969664
 30
0.0
 40
2.0
 41
0.0
 71
     1
 72
     1
  1
%%c
  7
SLDTEXTSTYLE0
 11
-7.044195017643634E-15
 21
1.0
 31
0.0
 73
     1
 44
1.0
  0
MTEXT
  5
20E
330
205
100
AcDbEntity
  8
VERMASSUNG
100
AcDbMText
 10
259.2123908731
 20
105.6532751896
 30
0.0
 40
2.0
 41
0.0
 71
     1
 72
     1
  1
34
  7
SLDTEXTSTYLE0
 11
-7.044195017643634E-15
 21
1.0
 31
0.0
 73
     1
 44
1.0
  0
ENDBLK
  5
207
330
205
100
AcDbEntity
  8
0
100
AcDbBlockEnd
  0
ENDSEC
  0
SECTION
  2
ENTITIES
  0
MTEXT
  5
45
330
1F
100
AcDbEntity
  8
KOPF_DÜNN
100
AcDbMText
 10
13.8892156294
 20
23.8442973028
 30
0.0
 40
3.0
 41
0.0
 71
     1
 72
     1
  1
HA0.S12.K21.130
  7
SLDTEXTSTYLE0
 73
     1
 44
1.0
  0
MTEXT
  5
46
330
1F
100
AcDbEntity
  8
VERMASSUNG
100
AcDbMText
 10
13.9329988022
 20
28.8834360957
 30
0.0
 40
3.0
 41
0.0
 71
     1
 72
     1
  1
Schrumpffutter_Heat shrink chuck
  7
SLDTEXTSTYLE0
 73
     1
 44
1.0
  0
MTEXT
  5
47
330
1F
100
AcDbEntity
  8
VERMASSUNG
100
AcDbMText
 10
98.8601118557
 20
13.8365368179
 30
0.0
 40
2.0
 41
0.0
 71
     1
 72
     1
  1
Datum: 02.05.2011
  7
SLDTEXTSTYLE0
 73
     1
 44
1.0
  0
MTEXT
  5
49
330
1F
100
AcDbEntity
  8
VERMASSUNG
100
AcDbMText
 10
13.933048693
 20
18.0482802738
 30
0.0
 40
2.0
 41
0.0
 71
     1
 72
     1
  1
DIN 69 893 HSK A 100
  7
SLDTEXTSTYLE1
 73
     1
 44
1.0
  0
MTEXT
  5
4A
330
1F
100
AcDbEntity
  8
VERMASSUNG
100
AcDbMText
 10
13.9808475933
 20
13.9090973692
 30
0.0
 40
2.0
 41
0.0
 71
     1
 72
     1
  1
Gewicht: 2495g
  7
SLDTEXTSTYLE0
 73
     1
 44
1.0
  0
LINE
  5
4B
330
1F
100
AcDbEntity
  8
0
  6
Continuous
 62
     7
370
    15
100
AcDbLine
 10
110.1806365159
 20
55.3481040087
 30
0.0
 11
114.6306365159
 21
55.3481040087
 31
0.0
  0
LINE
  5
4C
330
1F
100
AcDbEntity
  8
0
  6
Continuous
 62
     7
370
    15
100
AcDbLine
 10
114.6460144874
 20
155.3481040087
 30
0.0
 11
110.1806365159
 21
155.3481040087
 31
0.0
  0
ARC
  5
4D
330
1F
100
AcDbEntity
  8
0
  6
Continuous
 62
     7
370
    15
100
AcDbCircle
 10
110.1806365159
 20
55.8481040087
 30
0.0
 40
0.5
100
AcDbArc
 50
180.0
 51
270.0
  0
ARC
  5
4E
330
1F
100
AcDbEntity
  8
0
  6
Continuous
 62
     7
370
    15
100
AcDbCircle
 10
110.1806365159
 20
154.8481040087
 30
0.0
 40
0.5
100
AcDbArc
 50
90.0
 51
180.0
  0
ARC
  5
4F
330
1F
100
AcDbEntity
  8
0
  6
Continuous
 62
     7
370
    15
100
AcDbCircle
 10
108.7836995974
 20
66.7196186842
 30
0.0
 40
0.9962338214386921
100
AcDbArc
 50
25.7988228126
 51
90.0
  0
ARC
  5
50
330
1F
100
AcDbEntity
  8
0
  6
Continuous
 62
     7
370
    15
100
AcDbCircle
 10
108.7836995974
 20
143.9765893331
 30
0.0
 40
0.9962338214386932
100
AcDbArc
 50
270.0
 51
334.2011771874
  0
LINE
  5
51
330
1F
100
AcDbEntity
  8
0
  6
Continuous
 62
     7
370
    15
100
AcDbLine
 10
107.1806365159
 20
67.4658525057
 30
0.0
 11
107.9864826703
 21
67.681778332
 31
0.0
  0
LINE
  5
52
330
1F
100
AcDbEntity
  8
0
  6
Continuous
 62
     7
370
    15
100
AcDbLine
 10
107.9864826703
 20
143.0144296854
 30
0.0
 11
107.1806365159
 21
143.2303555117
 31
0.0
  0
LINE
  5
53
330
1F
100
AcDbEntity
  8
0
  6
Continuous
 62
     7
370
    15
100
AcDbLine
 10
88.1999575972
 20
142.2794196941
 30
0.0
 11
69.8806365159
 21
141.3616180367
 31
0.0
  0
LINE
  5
54
330
1F
100
AcDbEntity
  8
0
  6
Continuous
 62
     7
370
    15
100
AcDbLine
 10
107.1806365159
 20
143.2303555117
 30
0.0
 11
101.1125973614
 21
142.926345534
 31
0.0
  0
LINE
  5
55
330
1F
100
AcDbEntity
  8
0
  6
Continuous
 62
     7
370
    15
100
AcDbLine
 10
101.1127206379
 20
67.7698563072
 30
0.0
 11
107.1806365159
 21
67.4658525057
 31
0.0
  0
LINE
  5
56
330
1F
100
AcDbEntity
  8
0
  6
Continuous
 62
     7
370
    15
100
AcDbLine
 10
74.8806365159
 20
69.0840889786
 30
0.0
 11
88.2005876698
 21
68.4167567565
 31
0.0
  0
ARC
  5
57
330
1F
100
AcDbEntity
  8
0
  6
Continuous
 62
     7
370
    15
100
AcDbCircle
 10
108.2453017154
 20
66.7158525057
 30
0.0
 40
0.9999999999999957
100
AcDbArc
 50
90.0
 51
105.0
  0
ARC
  5
58
330
1F
100
AcDbEntity
  8
0
  6
Continuous
 62
     7
370
    15
100
AcDbCircle
 10
108.2453017154
 20
143.9803555117
 30
0.0
 40
0.9999999999999716
100
AcDbArc
 50
255.0
 51
270.0
  0
LINE
  5
59
330
1F
100
AcDbEntity
  8
0
  6
Continuous
 62
     7
370
    15
100
AcDbLine
 10
108.2453017154
 20
67.7158525057
 30
0.0
 11
108.7836995974
 21
67.7158525057
 31
0.0
  0
LINE
  5
5A
330
1F
100
AcDbEntity
  8
0
  6
Continuous
 62
     7
370
    15
100
AcDbLine
 10
108.7836995974
 20
142.9803555117
 30
0.0
 11
108.2453017154
 21
142.9803555117
 31
0.0
  0
ARC
  5
5B
330
1F
100
AcDbEntity
  8
0
  6
Continuous
 62
     7
370
    15
100
AcDbCircle
 10
143.6306365159
 20
83.3481040087
 30
0.0
 40
5.0
100
AcDbArc
 50
90.0
 51
180.0
  0
ARC
  5
5C
330
1F
100
AcDbEntity
  8
0
  6
Continuous
 62
     7
370
    15
100
AcDbCircle
 10
143.6306365159
 20
127.3481040087
 30
0.0
 40
5.000000000000014
100
AcDbArc
 50
180.0
 51
270.0
  0
LINE
  5
5D
330
1F
100
AcDbEntity
  8
0
  6
Continuous
 62
     7
370
    15
100
AcDbLine
 10
61.4306365159
 20
73.0981040087
 30
0.0
 11
72.9806365159
 21
73.0981040087
 31
0.0
  0
ARC
  5
5E
330
1F
100
AcDbEntity
  8
0
  6
Continuous
 62
     7
370
    15
100
AcDbCircle
 10
188.5412079898
 20
-300.6518959913
 30
0.0
 40
390.0
100
AcDbArc
 50
90.0
 51
94.1039132162
  0
ARC
  5
5F
330
1F
100
AcDbEntity
  8
0
  6
Continuous
 62
     7
370
    15
100
AcDbCircle
 10
188.5412079898
 20
511.3481040087
 30
0.0
 40
390.0
100
AcDbArc
 50
265.8960867838
 51
270.0
  0
LINE
  5
60
330
1F
100
AcDbEntity
  8
0
  6
Continuous
 62
     7
370
    15
100
AcDbLine
 10
155.1294144461
 20
88.3481040087
 30
0.0
 11
160.6306365159
 21
88.3481040087
 31
0.0
  0
LINE
  5
61
330
1F
100
AcDbEntity
  8
0
  6
Continuous
 62
     7
370
    15
100
AcDbLine
 10
143.6306365159
 20
88.3481040087
 30
0.0
 11
148.1409914199
 21
88.3481040087
 31
0.0
  0
LINE
  5
62
330
1F
100
AcDbEntity
  8
0
  6
Continuous
 62
     7
370
    15
100
AcDbLine
 10
148.132634118
 20
122.3481040087
 30
0.0
 11
143.6306365159
 21
122.3481040087
 31
0.0
  0
LINE
  5
63
330
1F
100
AcDbEntity
  8
0
  6
Continuous
 62
     7
370
    15
100
AcDbLine
 10
160.6306365159
 20
122.3481040087
 30
0.0
 11
155.1266431458
 21
122.3481040087
 31
0.0
  0
ARC
  5
64
330
1F
100
AcDbEntity
  8
0
  6
Continuous
 62
     7
370
    15
100
AcDbCircle
 10
72.9806365159
 20
71.1981040087
 30
0.0
 40
1.899999999999996
100
AcDbArc
 50
35.6630613694
 51
90.0
  0
ARC
  5
65
330
1F
100
AcDbEntity
  8
0
  6
Continuous
 62
     7
370
    15
100
AcDbCircle
 10
67.9806365159
 20
139.4981040087
 30
0.0
 40
1.9
100
AcDbArc
 50
270.0
 51
312.7708047792
  0
LINE
  5
66
330
1F
100
AcDbEntity
  8
0
  6
Continuous
 62
     7
370
    15
100
AcDbLine
 10
61.4306365159
 20
137.5981040087
 30
0.0
 11
59.8374201539
 21
136.0048876467
 31
0.0
  0
LINE
  5
67
330
1F
100
AcDbEntity
  8
0
  6
Continuous
 62
     7
370
    15
100
AcDbLine
 10
59.8381594163
 20
74.6905811082
 30
0.0
 11
61.4306365159
 21
73.0981040087
 31
0.0
  0
LINE
  5
68
330
1F
100
AcDbEntity
  8
0
  6
Continuous
 62
     7
370
    15
100
AcDbLine
 10
67.9806365159
 20
137.5981040087
 30
0.0
 11
61.4306365159
 21
137.5981040087
 31
0.0
  0
LINE
  5
69
330
1F
100
AcDbEntity
  8
0
  6
Continuous
 62
     7
370
    15
100
AcDbLine
 10
188.5412079898
 20
89.3481040087
 30
0.0
 11
188.8558175712
 21
89.3481040087
 31
0.0
  0
LINE
  5
6A
330
1F
100
AcDbEntity
  8
0
  6
Continuous
 62
     7
370
    15
100
AcDbLine
 10
188.8558175712
 20
121.3481040087
 30
0.0
 11
188.5412079898
 21
121.3481040087
 31
0.0
  0
LINE
  5
6B
330
1F
100
AcDbEntity
  8
0
  6
Continuous
 62
     7
370
    15
100
AcDbLine
 10
188.8558175712
 20
89.3481040087
 30
0.0
 11
237.8375547073
 21
93.2030503245
 31
0.0
  0
LINE
  5
6C
330
1F
100
AcDbEntity
  8
0
  6
Continuous
 62
     7
370
    15
100
AcDbLine
 10
237.8375547073
 20
117.4931576928
 30
0.0
 11
188.8558175712
 21
121.3481040087
 31
0.0
  0
ARC
  5
6D
330
1F
100
AcDbEntity
  8
0
  6
Continuous
 62
     7
370
    15
100
AcDbCircle
 10
237.6806365159
 20
95.196884992
 30
0.0
 40
2.000000000000005
100
AcDbArc
 50
274.5
 51
353.0847181901
  0
ARC
  5
6E
330
1F
100
AcDbEntity
  8
0
  6
Continuous
 62
     7
370
    15
100
AcDbCircle
 10
237.6806365159
 20
115.4993230254
 30
0.0
 40
2.0
100
AcDbArc
 50
0.0
 51
85.5
  0
LINE
  5
6F
330
1F
100
AcDbEntity
  8
0
  6
Continuous
 62
     7
370
    15
100
AcDbLine
 10
239.6990689994
 20
115.5678207101
 30
0.0
 11
239.6776529748
 21
115.6085258776
 31
0.0
  0
LINE
  5
70
330
1F
100
AcDbEntity
  8
0
  6
Continuous
 62
     7
370
    15
100
AcDbLine
 10
239.6660870438
 20
94.9560817506
 30
0.0
 11
239.757958723
 21
95.1307010907
 31
0.0
  0
SPLINE
  5
71
330
1F
100
AcDbEntity
  8
0
  6
Continuous
 62
     7
370
    15
100
AcDbSpline
210
0.0
220
0.0
230
1.0
 70
     8
 71
     3
 72
    80
 73
    76
 74
     0
 42
0.00000001
 43
0.00000001
 40
-0.0312500000000001
 40
-0.0312500000000001
 40
0.0
 40
0.0
 40
0.0312499999999995
 40
0.0312499999999995
 40
0.0468749999999993
 40
0.0468749999999993
 40
0.0624999999999991
 40
0.0624999999999991
 40
0.0937499999999988
 40
0.0937499999999988
 40
0.1249999999999986
 40
0.1249999999999986
 40
0.1562499999999983
 40
0.1562499999999983
 40
0.1874999999999981
 40
0.1874999999999981
 40
0.2187499999999978
 40
0.2187499999999978
 40
0.2499999999999976
 40
0.2499999999999976
 40
0.2812499999999973
 40
0.2812499999999973
 40
0.3124999999999971
 40
0.3124999999999971
 40
0.3281249999999971
 40
0.3281249999999971
 40
0.3437499999999971
 40
0.3437499999999971
 40
0.3749999999999973
 40
0.3749999999999973
 40
0.4062499999999975
 40
0.4062499999999975
 40
0.4218749999999975
 40
0.4218749999999975
 40
0.4374999999999974
 40
0.4374999999999974
 40
0.4687499999999973
 40
0.4687499999999973
 40
0.4999999999999972
 40
0.4999999999999972
 40
0.531249999999997
 40
0.531249999999997
 40
0.562499999999997
 40
0.562499999999997
 40
0.5937499999999969
 40
0.5937499999999969
 40
0.6249999999999969
 40
0.6249999999999969
 40
0.6562499999999968
 40
0.6562499999999968
 40
0.6874999999999968
 40
0.6874999999999968
 40
0.7031249999999968
 40
0.7031249999999968
 40
0.7187499999999969
 40
0.7187499999999969
 40
0.7499999999999973
 40
0.7499999999999973
 40
0.7812499999999979
 40
0.7812499999999979
 40
0.7968749999999982
 40
0.7968749999999982
 40
0.8124999999999984
 40
0.8124999999999984
 40
0.8437499999999988
 40
0.8437499999999988
 40
0.874999999999999
 40
0.874999999999999
 40
0.9062499999999993
 40
0.9062499999999993
 40
0.9374999999999996
 40
0.9374999999999996
 40
0.9687499999999999
 40
0.9687499999999999
 40
1.0
 40
1.0
 40
1.03125
 40
1.03125
 10
118.3500912031016
 20
148.7627334722987
 30
0.0
 10
119.0111818286542
 20
148.7627334722987
 30
0.0
 10
119.3361619579058
 20
148.7789417036809
 30
0.0
 10
119.8156353691522
 20
148.8263063357005
 30
0.0
 10
119.9741171869931
 20
148.8459605475911
 30
0.0
 10
120.2883367194973
 20
148.8930717037837
 30
0.0
 10
120.4444570031777
 20
148.9206530232784
 30
0.0
 10
120.8985110321343
 20
149.0131888100722
 30
0.0
 10
121.1856144150741
 20
149.0882592436687
 30
0.0
 10
121.7289689711011
 20
149.2634975522793
 30
0.0
 10
121.9860725823067
 20
149.3644988501176
 30
0.0
 10
122.4469788372455
 20
149.5818550485785
 30
0.0
 10
122.6538765464605
 20
149.6990193803507
 30
0.0
 10
123.0194018604527
 20
149.9490893045793
 30
0.0
 10
123.1746073825786
 20
150.0800353933383
 30
0.0
 10
123.4240377691783
 20
150.3457703370507
 30
0.0
 10
123.5201277249635
 20
150.4825239303616
 30
0.0
 10
123.6486465741571
 20
150.7565895052006
 30
0.0
 10
123.6804574443349
 20
150.8915295956694
 30
0.0
 10
123.6808140941081
 20
151.1570012327382
 30
0.0
 10
123.6483168419111
 20
151.2888257098795
 30
0.0
 10
123.5206913681966
 20
151.5382753094999
 30
0.0
 10
123.4262629671447
 20
151.6567080014279
 30
0.0
 10
123.2384021471591
 20
151.8255771985219
 30
0.0
 10
123.167574148356
 20
151.8806631936421
 30
0.0
 10
123.0128522563907
 20
151.9859160221305
 30
0.0
 10
122.9288757862073
 20
152.0362512508909
 30
0.0
 10
122.6575521165628
 20
152.1808270834289
 30
0.0
 10
122.4510028979605
 20
152.268688669846
 30
0.0
 10
121.9843927577715
 20
152.4284097628455
 30
0.0
 10
121.732027188146
 20
152.4976480593126
 30
0.0
 10
121.3261258464673
 20
152.5874354485425
 30
0.0
 10
121.1862252289898
 20
152.6150014106287
 30
0.0
 10
120.8970012937429
 20
152.665492211555
 30
0.0
 10
120.7471618374536
 20
152.6884556504057
 30
0.0
 10
120.2930452678428
 20
152.7490861668245
 30
0.0
 10
119.981394049106
 20
152.7791601956204
 30
0.0
 10
119.3403975841936
 20
152.819749782879
 30
0.0
 10
119.0088699562414
 20
152.830062013095
 30
0.0
 10
118.35607891117
 20
152.8301375802608
 30
0.0
 10
118.0315427061381
 20
152.8202359747931
 30
0.0
 10
117.3862732567217
 20
152.7797494442678
 30
0.0
 10
117.070530250559
 20
152.7492881443831
 30
0.0
 10
116.4686409555753
 20
152.6691374729466
 30
0.0
 10
116.1778917247638
 20
152.6188552411394
 30
0.0
 10
115.6309799330793
 20
152.4981850583664
 30
0.0
 10
115.3792025692424
 20
152.4289611991964
 30
0.0
 10
114.9178145766213
 20
152.2715094715558
 30
0.0
 10
114.7065452970232
 20
152.182160996882
 30
0.0
 10
114.343240944647
 20
151.9889131261812
 30
0.0
 10
114.1894342962042
 20
151.8847851343019
 30
0.0
 10
114.0008148266068
 20
151.7161607481184
 30
0.0
 10
113.9447843403977
 20
151.6575323464435
 30
0.0
 10
113.8492105786615
 20
151.5380774316173
 30
0.0
 10
113.8094476616365
 20
151.477157642779
 30
0.0
 10
113.7136759113244
 20
151.2907529166052
 30
0.0
 10
113.6809530721983
 20
151.1616400988102
 30
0.0
 10
113.6803244858692
 20
150.8929831758543
 30
0.0
 10
113.712510630604
 20
150.7576124350975
 30
0.0
 10
113.8074213324596
 20
150.5540621268615
 30
0.0
 10
113.8468881158585
 20
150.4860902027981
 30
0.0
 10
113.9418181145794
 20
150.3499979796672
 30
0.0
 10
113.9975749423428
 20
150.2816478794578
 30
0.0
 10
114.1855150603127
 20
150.0809448664156
 30
0.0
 10
114.3388765300288
 20
149.9515565926029
 30
0.0
 10
114.7011407649092
 20
149.7028911605531
 30
0.0
 10
114.9119892383751
 20
149.5830815181849
 30
0.0
 10
115.372659208694
 20
149.3655592306122
 30
0.0
 10
115.6240335882778
 20
149.2664741307763
 30
0.0
 10
116.169941475176
 20
149.0898016568595
 30
0.0
 10
116.4607640498272
 20
149.0137445687255
 30
0.0
 10
117.0620906646072
 20
148.8908995913725
 30
0.0
 10
117.3766092492196
 20
148.8431934663193
 30
0.0
 10
118.0231907053396
 20
148.7789449311997
 30
0.0
 10
118.3500912031016
 20
148.7627334722987
 30
0.0
 10
119.0111818286542
 20
148.7627334722987
 30
0.0
  0
LINE
  5
72
330
1F
100
AcDbEntity
  8
0
  6
Continuous
 62
     7
370
    15
100
AcDbLine
 10
114.6306365159
 20
136.6981040087
 30
0.0
 11
126.418607495
 21
136.6981040087
 31
0.0
  0
LINE
  5
73
330
1F
100
AcDbEntity
  8
0
  6
Continuous
 62
     7
370
    15
100
AcDbLine
 10
126.418607495
 20
56.5731104156
 30
0.0
 11
126.418607495
 21
136.6981040087
 31
0.0
  0
LINE
  5
74
330
1F
100
AcDbEntity
  8
0
  6
Continuous
 62
     7
370
    15
100
AcDbLine
 10
126.418607495
 20
56.5731104156
 30
0.0
 11
124.6306365159
 21
56.5731104156
 31
0.0
  0
SPLINE
  5
75
330
1F
100
AcDbEntity
  8
0
  6
Continuous
 62
     7
370
    15
100
AcDbSpline
210
0.0
220
0.0
230
1.0
 70
     8
 71
     3
 72
    30
 73
    26
 74
     0
 42
0.00000001
 43
0.00000001
 40
0.0
 40
0.0
 40
0.0
 40
0.0
 40
0.1250000000000002
 40
0.1250000000000002
 40
0.1875000000000003
 40
0.1875000000000003
 40
0.2500000000000004
 40
0.2500000000000004
 40
0.3750000000000001
 40
0.3750000000000001
 40
0.4374999999999998
 40
0.4374999999999998
 40
0.4999999999999996
 40
0.4999999999999996
 40
0.6249999999999996
 40
0.6249999999999996
 40
0.6874999999999997
 40
0.6874999999999997
 40
0.7499999999999997
 40
0.7499999999999997
 40
0.8124999999999998
 40
0.8124999999999998
 40
0.8749999999999999
 40
0.8749999999999999
 40
1.0
 40
1.0
 40
1.0
 40
1.0
 10
124.6306365158779
 20
56.57311041563864
 30
0.0
 10
123.9678918220328
 20
56.57311041563865
 30
0.0
 10
123.3166359629171
 20
56.55827033904983
 30
0.0
 10
122.3561854246588
 20
56.51590077482021
 30
0.0
 10
122.0387939814259
 20
56.49842267204104
 30
0.0
 10
121.409630479871
 20
56.45709438548873
 30
0.0
 10
121.0974822934293
 20
56.43316911203104
 30
0.0
 10
120.190174991581
 20
56.35436259556413
 30
0.0
 10
119.6167500339398
 20
56.29205657558766
 30
0.0
 10
118.8028731643651
 20
56.1889272553483
 30
0.0
 10
118.5380669677953
 20
56.15274333630179
 30
0.0
 10
118.0311595569809
 20
56.07894855210129
 30
0.0
 10
117.7897654056274
 20
56.04147469332964
 30
0.0
 10
117.1006239334951
 20
55.9287627499899
 30
0.0
 10
116.6875691186309
 20
55.85322665251612
 30
0.0
 10
116.1394142992558
 20
55.74483339549863
 30
0.0
 10
115.9699516919102
 20
55.70976116383537
 30
0.0
 10
115.6619344438948
 20
55.64352570323552
 30
0.0
 10
115.5225544232865
 20
55.61219900648079
 30
0.0
 10
115.2727689106597
 20
55.55379023489986
 30
0.0
 10
115.1623627980058
 20
55.52670699971701
 30
0.0
 10
114.9711049443681
 20
55.47744724510343
 30
0.0
 10
114.8899854260838
 20
55.45518526529578
 30
0.0
 10
114.6958385059754
 20
55.39761835812751
 30
0.0
 10
114.6306365158779
 20
55.37135875334152
 30
0.0
 10
114.6306365158779
 20
55.35810500886749
 30
0.0
  0
LINE
  5
76
330
1F
100
AcDbEntity
  8
0
  6
Continuous
 62
     7
370
    15
100
AcDbLine
 10
114.6306365159
 20
55.3581050089
 30
0.0
 11
114.6306365159
 21
55.3481040087
 31
0.0
  0
SPLINE
  5
77
330
1F
100
AcDbEntity
  8
0
  6
Continuous
 62
     7
370
    15
100
AcDbSpline
210
0.0
220
0.0
230
1.0
 70
     8
 71
     3
 72
    23
 73
    19
 74
     0
 42
0.00000001
 43
0.00000001
 40
0.0
 40
0.0
 40
0.0
 40
0.0
 40
0.0520256687590417
 40
0.1044186119084699
 40
0.1579654762732603
 40
0.2119084390155455
 40
0.2639329008030786
 40
0.3697142245600881
 40
0.4235868577364621
 40
0.4762679679182533
 40
0.5833878371337101
 40
0.6379530306539528
 40
0.6910551819358521
 40
0.7445319929992287
 40
0.7992014233075218
 40
0.8542881036302091
 40
0.9066815619543741
 40
1.0
 40
1.0
 40
1.0
 40
1.0
 10
124.6306365158779
 20
154.337898864331
 30
0.0
 10
124.3576241186829
 20
154.3392204328378
 30
0.0
 10
123.8096719975687
 20
154.3418728994436
 30
0.0
 10
122.9865256401134
 20
154.3633477878711
 30
0.0
 10
122.1652805395212
 20
154.3975655065392
 30
0.0
 10
121.3638517294131
 20
154.4446174167066
 30
0.0
 10
120.3314684752701
 20
154.5216063675324
 30
0.0
 10
119.3542204606461
 20
154.6174836181929
 30
0.0
 10
118.4531734493901
 20
154.7244130659811
 30
0.0
 10
117.6041996702887
 20
154.8362598738216
 30
0.0
 10
116.8466312246805
 20
154.9504884725509
 30
0.0
 10
116.201642934231
 20
155.0570682189147
 30
0.0
 10
115.7770690610332
 20
155.1309981753159
 30
0.0
 10
115.4145124113841
 20
155.1968887333727
 30
0.0
 10
115.1133108542604
 20
155.2535850845869
 30
0.0
 10
114.8860572822257
 20
155.2975213308215
 30
0.0
 10
114.6799499850032
 20
155.3381797776496
 30
0.0
 10
114.6592630469701
 20
155.342363217039
 30
0.0
 10
114.6460144873584
 20
155.3450424219579
 30
0.0
  0
LINE
  5
78
330
1F
100
AcDbEntity
  8
0
  6
Continuous
 62
     7
370
    15
100
AcDbLine
 10
126.418607495
 20
154.3378988643
 30
0.0
 11
124.6306365159
 21
154.3378988643
 31
0.0
  0
LINE
  5
79
330
1F
100
AcDbEntity
  8
0
  6
Continuous
 62
     7
370
    15
100
AcDbLine
 10
126.418607495
 20
144.2990667696
 30
0.0
 11
126.418607495
 21
154.3378988643
 31
0.0
  0
LINE
  5
7A
330
1F
100
AcDbEntity
  8
0
  6
Continuous
 62
     7
370
    15
100
AcDbLine
 10
124.3386033641
 20
144.2990667696
 30
0.0
 11
126.418607495
 21
144.2990667696
 31
0.0
  0
SPLINE
  5
7B
330
1F
100
AcDbEntity
  8
0
  6
Continuous
 62
     7
370
    15
100
AcDbSpline
210
0.0
220
0.0
230
1.0
 70
     8
 71
     3
 72
    22
 73
    18
 74
     0
 42
0.00000001
 43
0.00000001
 40
0.0
 40
0.0
 40
0.0
 40
0.0
 40
0.2500000000000002
 40
0.2500000000000002
 40
0.3750000000000003
 40
0.3750000000000003
 40
0.5000000000000004
 40
0.5000000000000004
 40
0.6250000000000004
 40
0.6250000000000004
 40
0.7500000000000004
 40
0.7500000000000004
 40
0.8750000000000004
 40
0.8750000000000004
 40
0.9375000000000002
 40
0.9375000000000002
 40
1.0
 40
1.0
 40
1.0
 40
1.0
 10
114.6306365158779
 20
136.6981040086674
 30
0.0
 10
114.8333614717969
 20
137.7173503505321
 30
0.0
 10
115.1481051935923
 20
138.6764585004714
 30
0.0
 10
115.8561606632633
 20
140.0189375779806
 30
0.0
 10
116.1346232934809
 20
140.4531461607206
 30
0.0
 10
116.7733907001181
 20
141.2647738762228
 30
0.0
 10
117.1338043799083
 20
141.6440541691596
 30
0.0
 10
117.9513366118976
 20
142.3470127481806
 30
0.0
 10
118.4125045951848
 20
142.6720415658812
 30
0.0
 10
119.4104948416686
 20
143.2370568892721
 30
0.0
 10
119.9502540356608
 20
143.4807604834786
 30
0.0
 10
121.1248469996921
 20
143.8849604111236
 30
0.0
 10
121.736583185684
 20
144.0373976041691
 30
0.0
 10
122.6884924105457
 20
144.1927251517778
 30
0.0
 10
123.0117255748064
 20
144.2322299318278
 30
0.0
 10
123.6707887460816
 20
144.2855390524965
 30
0.0
 10
124.0048527566556
 20
144.2990667695544
 30
0.0
 10
124.3386033640572
 20
144.2990667695544
 30
0.0
  0
LINE
  5
7C
330
1F
100
AcDbEntity
  8
0
  6
Continuous
 62
     7
370
    15
100
AcDbLine
 10
138.6306365159
 20
57.5987584634
 30
0.0
 11
138.6306365159
 21
136.6981040087
 31
0.0
  0
SPLINE
  5
7D
330
1F
100
AcDbEntity
  8
0
  6
Continuous
 62
     7
370
    15
100
AcDbSpline
210
0.0
220
0.0
230
1.0
 70
     8
 71
     3
 72
    14
 73
    10
 74
     0
 42
0.00000001
 43
0.00000001
 40
0.0
 40
0.0
 40
0.0
 40
0.0
 40
0.25
 40
0.25
 40
0.5
 40
0.5
 40
0.75
 40
0.75
 40
1.0
 40
1.0
 40
1.0
 40
1.0
 10
138.6306365158779
 20
57.59875846341415
 30
0.0
 10
138.6306365158779
 20
57.46533276735961
 30
0.0
 10
138.605325415967
 20
57.33348495951525
 30
0.0
 10
138.5069906521223
 20
57.08696241082115
 30
0.0
 10
138.4338466478662
 20
56.97315722258061
 30
0.0
 10
138.2504085867705
 20
56.78270004563333
 30
0.0
 10
138.1387222524319
 20
56.70506518178342
 30
0.0
 10
137.8962188221256
 20
56.60077377167095
 30
0.0
 10
137.7628443934314
 20
56.5731104156386
 30
0.0
 10
137.6306365158779
 20
56.5731104156386
 30
0.0
  0
SPLINE
  5
7E
330
1F
100
AcDbEntity
  8
0
  6
Continuous
 62
     7
370
    15
100
AcDbSpline
210
0.0
220
0.0
230
1.0
 70
    24
 71
     3
 72
    12
 73
     8
 74
     0
 42
0.00000001
 43
0.00000001
 40
0.0
 40
0.0
 40
0.0
 40
0.0
 40
0.2500000000000032
 40
0.2500000000000032
 40
0.5000000000000064
 40
0.5000000000000064
 40
1.0
 40
1.0
 40
1.0
 40
1.0
 10
137.6306365158779
 20
136.6981040086674
 30
0.0
 10
137.7827267528229
 20
136.6981040086674
 30
0.0
 10
137.9311860138983
 20
136.6981040086674
 30
0.0
 10
138.188589646164
 20
136.6981040086674
 30
0.0
 10
138.2976943940059
 20
136.6981040086674
 30
0.0
 10
138.5517538704134
 20
136.6981040086674
 30
0.0
 10
138.6306365158779
 20
136.6981040086674
 30
0.0
 10
138.6306365158779
 20
136.6981040086674
 30
0.0
  0
LINE
  5
7F
330
1F
100
AcDbEntity
  8
0
  6
Continuous
 62
     7
370
    15
100
AcDbLine
 10
137.6306365159
 20
56.5731104156
 30
0.0
 11
132.9426655368
 21
56.5731104156
 31
0.0
  0
LINE
  5
80
330
1F
100
AcDbEntity
  8
0
  6
Continuous
 62
     7
370
    15
100
AcDbLine
 10
132.9426655368
 20
56.5731104156
 30
0.0
 11
132.9426655368
 21
136.6981040087
 31
0.0
  0
LINE
  5
81
330
1F
100
AcDbEntity
  8
0
  6
Continuous
 62
     7
370
    15
100
AcDbLine
 10
132.9426655368
 20
136.6981040087
 30
0.0
 11
137.6306365159
 21
136.6981040087
 31
0.0
  0
SPLINE
  5
82
330
1F
100
AcDbEntity
  8
0
  6
Continuous
 62
     7
370
    15
100
AcDbSpline
210
0.0
220
0.0
230
1.0
 70
     8
 71
     3
 72
     8
 73
     4
 74
     0
 42
0.00000001
 43
0.00000001
 40
0.0
 40
0.0
 40
0.0
 40
0.0
 40
1.0
 40
1.0
 40
1.0
 40
1.0
 10
132.9426655367993
 20
56.57311041563864
 30
0.0
 10
132.4915608073991
 20
57.37407034745856
 30
0.0
 10
132.0408629801557
 20
58.17526035901922
 30
0.0
 10
131.5906365158779
 20
58.97671572164398
 30
0.0
  0
LINE
  5
83
330
1F
100
AcDbEntity
  8
0
  6
Continuous
 62
     7
370
    15
100
AcDbLine
 10
131.5906365159
 20
58.9767157216
 30
0.0
 11
131.5906365159
 21
136.6981040087
 31
0.0
  0
SPLINE
  5
84
330
1F
100
AcDbEntity
  8
0
  6
Continuous
 62
     7
370
    15
100
AcDbSpline
210
0.0
220
0.0
230
1.0
 70
    24
 71
     3
 72
     8
 73
     4
 74
     0
 42
0.00000001
 43
0.00000001
 40
0.0
 40
0.0
 40
0.0
 40
0.0
 40
1.0
 40
1.0
 40
1.0
 40
1.0
 10
131.5906365158779
 20
136.6981040086674
 30
0.0
 10
132.0348493982318
 20
136.6981040086674
 30
0.0
 10
132.485863964471
 20
136.6981040086674
 30
0.0
 10
132.9426655367993
 20
136.6981040086674
 30
0.0
  0
LINE
  5
85
330
1F
100
AcDbEntity
  8
0
  6
Continuous
 62
     7
370
    15
100
AcDbLine
 10
109.6806365159
 20
55.8481040087
 30
0.0
 11
109.6806365159
 21
154.8481040042
 31
0.0
  0
LINE
  5
86
330
1F
100
AcDbEntity
  8
0
  6
Continuous
 62
     7
370
    15
100
AcDbLine
 10
127.7706365159
 20
58.9767157216
 30
0.0
 11
127.7706365159
 21
136.6981040087
 31
0.0
  0
SPLINE
  5
87
330
1F
100
AcDbEntity
  8
0
  6
Continuous
 62
     7
370
    15
100
AcDbSpline
210
0.0
220
0.0
230
1.0
 70
     8
 71
     3
 72
     8
 73
     4
 74
     0
 42
0.00000001
 43
0.00000001
 40
0.0
 40
0.0
 40
0.0
 40
0.0
 40
1.0
 40
1.0
 40
1.0
 40
1.0
 10
127.7706365158779
 20
58.97671572164396
 30
0.0
 10
127.3204100516001
 20
58.17526035901921
 30
0.0
 10
126.8697122243567
 20
57.37407034745854
 30
0.0
 10
126.4186074949565
 20
56.57311041563863
 30
0.0
  0
SPLINE
  5
88
330
1F
100
AcDbEntity
  8
0
  6
Continuous
 62
     7
370
    15
100
AcDbSpline
210
0.0
220
0.0
230
1.0
 70
    24
 71
     3
 72
     8
 73
     4
 74
     0
 42
0.00000001
 43
0.00000001
 40
0.0
 40
0.0
 40
0.0
 40
0.0
 40
1.0
 40
1.0
 40
1.0
 40
1.0
 10
126.4186074949565
 20
136.6981040086674
 30
0.0
 10
126.8754090672847
 20
136.6981040086674
 30
0.0
 10
127.3264236335239
 20
136.6981040086674
 30
0.0
 10
127.7706365158779
 20
136.6981040086674
 30
0.0
  0
SPLINE
  5
89
330
1F
100
AcDbEntity
  8
0
  6
Continuous
 62
     7
370
    15
100
AcDbSpline
210
0.0
220
0.0
230
1.0
 70
     8
 71
     3
 72
    12
 73
     8
 74
     0
 42
0.00000001
 43
0.00000001
 40
0.0
 40
0.0
 40
0.0
 40
0.0
 40
0.25
 40
0.25
 40
0.5
 40
0.5
 40
1.0
 40
1.0
 40
1.0
 40
1.0
 10
128.5706365158779
 20
60.7084285506178
 30
0.0
 10
128.4648758625289
 20
60.70842855061779
 30
0.0
 10
128.356888234346
 20
60.68588904461739
 30
0.0
 10
128.1622935690804
 20
60.60131841262208
 30
0.0
 10
128.0734216562415
 20
60.5388367598633
 30
0.0
 10
127.8542293639157
 20
60.30944780839113
 30
0.0
 10
127.7706365158778
 20
60.09686447086874
 30
0.0
 10
127.7706365158778
 20
59.88492522627256
 30
0.0
  0
SPLINE
  5
8A
330
1F
100
AcDbEntity
  8
0
  6
Continuous
 62
     7
370
    15
100
AcDbSpline
210
0.0
220
0.0
230
1.0
 70
    24
 71
     3
 72
    14
 73
    10
 74
     0
 42
0.00000001
 43
0.00000001
 40
0.0
 40
0.0
 40
0.0
 40
0.0
 40
0.25
 40
0.25
 40
0.5
 40
0.5
 40
0.75
 40
0.75
 40
1.0
 40
1.0
 40
1.0
 40
1.0
 10
127.7706365158779
 20
136.6981040086674
 30
0.0
 10
127.7706365158778
 20
136.6981040086674
 30
0.0
 10
127.7863508363438
 20
136.6981040086674
 30
0.0
 10
127.8500348148122
 20
136.6981040086674
 30
0.0
 10
127.8986380092226
 20
136.6981040086674
 30
0.0
 10
128.0313215316482
 20
136.6981040086674
 30
0.0
 10
128.1164236359589
 20
136.6981040086674
 30
0.0
 10
128.322865870869
 20
136.6981040086674
 30
0.0
 10
128.4469468124919
 20
136.6981040086674
 30
0.0
 10
128.5706365158779
 20
136.6981040086674
 30
0.0
  0
SPLINE
  5
8B
330
1F
100
AcDbEntity
  8
0
  6
Continuous
 62
     7
370
    15
100
AcDbSpline
210
0.0
220
0.0
230
1.0
 70
     8
 71
     3
 72
    14
 73
    10
 74
     0
 42
0.00000001
 43
0.00000001
 40
0.0
 40
0.0
 40
0.0
 40
0.0
 40
0.25
 40
0.25
 40
0.5
 40
0.5
 40
0.75
 40
0.75
 40
1.0
 40
1.0
 40
1.0
 40
1.0
 10
131.5906365158779
 20
59.88492522627256
 30
0.0
 10
131.5906365158779
 20
59.99196930726694
 30
0.0
 10
131.5705188287197
 20
60.09720444750938
 30
0.0
 10
131.4920276394541
 20
60.29505493435707
 30
0.0
 10
131.4338710146529
 20
60.386106697922
 30
0.0
 10
131.2873557590348
 20
60.53927279184678
 30
0.0
 10
131.1987132103937
 20
60.60156723805618
 30
0.0
 10
131.0029898875934
 20
60.68636102359217
 30
0.0
 10
130.8977586965225
 20
60.7084285506178
 30
0.0
 10
130.7906365158778
 20
60.7084285506178
 30
0.0
  0
SPLINE
  5
8C
330
1F
100
AcDbEntity
  8
0
  6
Continuous
 62
     7
370
    15
100
AcDbSpline
210
0.0
220
0.0
230
1.0
 70
    24
 71
     3
 72
    14
 73
    10
 74
     0
 42
0.00000001
 43
0.00000001
 40
0.0
 40
0.0
 40
0.0
 40
0.0
 40
0.25
 40
0.25
 40
0.5
 40
0.5
 40
0.75
 40
0.75
 40
1.0
 40
1.0
 40
1.0
 40
1.0
 10
130.7906365158778
 20
136.6981040086674
 30
0.0
 10
130.914406280643
 20
136.6981040086674
 30
0.0
 10
131.0387733846499
 20
136.6981040086674
 30
0.0
 10
131.2451298533759
 20
136.6981040086674
 30
0.0
 10
131.3304579967943
 20
136.6981040086674
 30
0.0
 10
131.4626500555095
 20
136.6981040086674
 30
0.0
 10
131.5112952992601
 20
136.6981040086674
 30
0.0
 10
131.5748310909889
 20
136.6981040086674
 30
0.0
 10
131.5906365158779
 20
136.6981040086674
 30
0.0
 10
131.5906365158779
 20
136.6981040086674
 30
0.0
  0
LINE
  5
8D
330
1F
100
AcDbEntity
  8
0
  6
Continuous
 62
     7
370
    15
100
AcDbLine
 10
130.7906365159
 20
60.7084285506
 30
0.0
 11
128.5706365159
 21
60.7084285506
 31
0.0
  0
LINE
  5
8E
330
1F
100
AcDbEntity
  8
0
  6
Continuous
 62
     7
370
    15
100
AcDbLine
 10
128.5706365159
 20
136.6981040087
 30
0.0
 11
130.7906365159
 21
136.6981040087
 31
0.0
  0
LINE
  5
8F
330
1F
100
AcDbEntity
  8
0
  6
Continuous
 62
     7
370
    15
100
AcDbLine
 10
107.1806365159
 20
67.4658525057
 30
0.0
 11
107.1806365159
 21
143.2303555117
 31
0.0
  0
LINE
  5
90
330
1F
100
AcDbEntity
  8
0
  6
Continuous
 62
     7
370
    15
100
AcDbLine
 10
74.8806365159
 20
69.0840889786
 30
0.0
 11
74.8806365159
 21
71.4787707433
 31
0.0
  0
SPLINE
  5
91
330
1F
100
AcDbEntity
  8
0
  6
Continuous
 62
     7
370
    15
100
AcDbSpline
210
0.0
220
0.0
230
1.0
 70
     8
 71
     3
 72
    14
 73
    10
 74
     0
 42
0.00000001
 43
0.00000001
 40
0.0
 40
0.0
 40
0.0
 40
0.0
 40
0.25
 40
0.25
 40
0.5
 40
0.5
 40
0.75
 40
0.75
 40
1.0
 40
1.0
 40
1.0
 40
1.0
 10
73.8762140445409
 20
73.18162266492392
 30
0.0
 10
73.96498262248623
 20
73.02308853361598
 30
0.0
 10
74.08670046116514
 20
72.8706458567274
 30
0.0
 10
74.32175007102197
 20
72.57351123289848
 30
0.0
 10
74.43738025723887
 20
72.42882858928112
 30
0.0
 10
74.63778519066669
 20
72.14553938677771
 30
0.0
 10
74.723185482651
 20
72.00698539374086
 30
0.0
 10
74.84489111636825
 20
71.73560136370732
 30
0.0
 10
74.88063651588088
 20
71.60346549507271
 30
0.0
 10
74.88063651588087
 20
71.47877074330195
 30
0.0
  0
SPLINE
  5
92
330
1F
100
AcDbEntity
  8
0
  6
Continuous
 62
     7
370
    15
100
AcDbSpline
210
0.0
220
0.0
230
1.0
 70
     8
 71
     3
 72
    14
 73
    10
 74
     0
 42
0.00000001
 43
0.00000001
 40
0.0
 40
0.0
 40
0.0
 40
0.0
 40
0.124999999999999
 40
0.124999999999999
 40
0.249999999999998
 40
0.249999999999998
 40
0.5000000000000007
 40
0.5000000000000007
 40
1.0
 40
1.0
 40
1.0
 40
1.0
 10
72.98063651587786
 20
73.81045260402402
 30
0.0
 10
73.04821881566235
 20
73.81760848912542
 30
0.0
 10
73.12070639341026
 20
73.8131840190864
 30
0.0
 10
73.2529975026762
 20
73.78347786131606
 30
0.0
 10
73.31027488206637
 20
73.76019357973783
 30
0.0
 10
73.45992530926665
 20
73.68270833988751
 30
0.0
 10
73.53363860478815
 20
73.62085651298614
 30
0.0
 10
73.72144658811439
 20
73.43617906033782
 30
0.0
 10
73.80548689447585
 20
73.30793613704661
 30
0.0
 10
73.87621404454211
 20
73.18162266492402
 30
0.0
  0
SPLINE
  5
93
330
1F
100
AcDbEntity
  8
0
  6
Continuous
 62
     7
370
    15
100
AcDbSpline
210
0.0
220
0.0
230
1.0
 70
     8
 71
     3
 72
     8
 73
     4
 74
     0
 42
0.00000001
 43
0.00000001
 40
0.0
 40
0.0
 40
0.0
 40
0.0
 40
1.0
 40
1.0
 40
1.0
 40
1.0
 10
69.43599612779708
 20
73.39240401923225
 30
0.0
 10
70.60129443850595
 20
73.54759149111887
 30
0.0
 10
71.78590965254577
 20
73.68395012942919
 30
0.0
 10
72.98063651587786
 20
73.81045260402402
 30
0.0
  0
SPLINE
  5
94
330
1F
100
AcDbEntity
  8
0
  6
Continuous
 62
     7
370
    15
100
AcDbSpline
210
0.0
220
0.0
230
1.0
 70
     8
 71
     3
 72
    14
 73
    10
 74
     0
 42
0.00000001
 43
0.00000001
 40
0.0
 40
0.0
 40
0.0
 40
0.0
 40
0.4999999999999972
 40
0.4999999999999972
 40
0.7499999999999971
 40
0.7499999999999971
 40
0.8749999999999986
 40
0.8749999999999986
 40
1.0
 40
1.0
 40
1.0
 40
1.0
 10
61.68056163184917
 20
73.10227184010232
 30
0.0
 10
62.9888631943829
 20
73.10928656384344
 30
0.0
 10
64.29392256903972
 20
73.12469514028794
 30
0.0
 10
66.23979862052805
 20
73.1785916957546
 30
0.0
 10
66.88649612426704
 20
73.2016232603573
 30
0.0
 10
67.85033848812138
 20
73.25256578522806
 30
0.0
 10
68.17057718005546
 20
73.27230070746124
 30
0.0
 10
68.80727240639787
 20
73.32178783593282
 30
0.0
 10
69.12398781468079
 20
73.35085261486205
 30
0.0
 10
69.43599612779711
 20
73.39240401923219
 30
0.0
  0
SPLINE
  5
95
330
1F
100
AcDbEntity
  8
0
  6
Continuous
 62
     7
370
    15
100
AcDbSpline
210
0.0
220
0.0
230
1.0
 70
     8
 71
     3
 72
    12
 73
     8
 74
     0
 42
0.00000001
 43
0.00000001
 40
0.0
 40
0.0
 40
0.0
 40
0.0
 40
0.2500000000000009
 40
0.2500000000000009
 40
0.5000000000000018
 40
0.5000000000000018
 40
1.0
 40
1.0
 40
1.0
 40
1.0
 10
67.98063651587786
 20
137.4346269001639
 30
0.0
 10
67.46193769404968
 20
137.4671496750121
 30
0.0
 10
66.94022612084468
 20
137.4904464161826
 30
0.0
 10
65.8939341043491
 20
137.5282919306047
 30
0.0
 10
65.36926247867885
 20
137.5425604051008
 30
0.0
 10
63.79241645613962
 20
137.5767698925591
 30
0.0
 10
62.7374611415927
 20
137.5882693965031
 30
0.0
 10
61.68056163184747
 20
137.5939361772326
 30
0.0
  0
SPLINE
  5
96
330
1F
100
AcDbEntity
  8
0
  6
Continuous
 62
     7
370
    15
100
AcDbSpline
210
0.0
220
0.0
230
1.0
 70
     8
 71
     3
 72
    20
 73
    16
 74
     0
 42
0.00000001
 43
0.00000001
 40
0.0
 40
0.0
 40
0.0
 40
0.0
 40
0.2500000000000011
 40
0.2500000000000011
 40
0.5000000000000021
 40
0.5000000000000021
 40
0.7500000000000031
 40
0.7500000000000031
 40
0.8750000000000008
 40
0.8750000000000008
 40
0.9375000000000006
 40
0.9375000000000006
 40
0.9687500000000003
 40
0.9687500000000003
 40
1.0
 40
1.0
 40
1.0
 40
1.0
 10
69.88063651587787
 20
139.092712745652
 30
0.0
 10
69.88063651587787
 20
138.9570304259052
 30
0.0
 10
69.83192472666123
 20
138.8159434397652
 30
0.0
 10
69.66276330343604
 20
138.5238717210346
 30
0.0
 10
69.54098288951774
 20
138.3722229789442
 30
0.0
 10
69.24343579476822
 20
138.0698145387911
 30
0.0
 10
69.06952318906545
 20
137.9172259026678
 30
0.0
 10
68.75010835518363
 20
137.6919551388255
 30
0.0
 10
68.63506757973636
 20
137.6172320443148
 30
0.0
 10
68.42798325571994
 20
137.5178216350578
 30
0.0
 10
68.35187542091356
 20
137.4862565427132
 30
0.0
 10
68.2204808813602
 20
137.4518131585202
 30
0.0
 10
68.17392766235875
 20
137.4427615867526
 30
0.0
 10
68.07759431127803
 20
137.4325859379141
 30
0.0
 10
68.0283348879226
 20
137.4316361792391
 30
0.0
 10
67.98063651587589
 20
137.4346269001537
 30
0.0
  0
LINE
  5
97
330
1F
100
AcDbEntity
  8
0
  6
Continuous
 62
     7
370
    15
100
AcDbLine
 10
69.8806365159
 20
139.0927127457
 30
0.0
 11
69.8806365159
 21
141.3616180367
 31
0.0
  0
SPLINE
  5
98
330
1F
100
AcDbEntity
  8
0
  6
Continuous
 62
     7
370
    15
100
AcDbSpline
210
0.0
220
0.0
230
1.0
 70
     8
 71
     3
 72
    24
 73
    20
 74
     0
 42
0.00000001
 43
0.00000001
 40
0.0
 40
0.0
 40
0.0
 40
0.0
 40
0.0002934293894791
 40
0.062808005175641
 40
0.1260453927228619
 40
0.18907467666103
 40
0.2513200540860133
 40
0.3133304633786588
 40
0.3759158453762907
 40
0.4383740564599686
 40
0.5000631094857209
 40
0.5616593988040849
 40
0.6245050380644152
 40
0.6872231506510951
 40
0.7494953263230465
 40
0.8117583797535242
 40
0.8747365508229858
 40
0.9378980306234599
 40
1.0
 40
1.0
 40
1.0
 40
1.0
 10
88.20059277971728
 20
68.41685875035508
 30
0.0
 10
88.20039792683251
 20
68.41683444296109
 30
0.0
 10
88.15869003582135
 20
68.41163149130688
 30
0.0
 10
88.3038084273518
 20
68.43026611463739
 30
0.0
 10
88.65888736889104
 20
68.47278589318611
 30
0.0
 10
89.26346300643421
 20
68.54092217678794
 30
0.0
 10
90.06989831525038
 20
68.61417771380383
 30
0.0
 10
91.05537573916938
 20
68.67869705462171
 30
0.0
 10
92.18704533584891
 20
68.71726128268278
 30
0.0
 10
93.40933780601118
 20
68.72095578868418
 30
0.0
 10
94.67666648746304
 20
68.6785298086352
 30
0.0
 10
95.94315201788956
 20
68.59028266785423
 30
0.0
 10
97.15928938170948
 20
68.46188939758754
 30
0.0
 10
98.28469987755025
 20
68.30924840899502
 30
0.0
 10
99.26211693910422
 20
68.14747379389068
 30
0.0
 10
100.0653824176467
 20
67.9949449007898
 30
0.0
 10
100.6538759406479
 20
67.8709311575224
 30
0.0
 10
101.0427820523
 20
67.78600723124612
 30
0.0
 10
101.089543183038
 20
67.77528091996732
 30
0.0
 10
101.1127259895804
 20
67.76996312727573
 30
0.0
  0
SPLINE
  5
99
330
1F
100
AcDbEntity
  8
0
  6
Continuous
 62
     7
370
    15
100
AcDbSpline
210
0.0
220
0.0
230
1.0
 70
     8
 71
     3
 72
    41
 73
    37
 74
     0
 42
0.00000001
 43
0.00000001
 40
0.0
 40
0.0
 40
0.0
 40
0.0
 40
0.0619930061482746
 40
0.1254347783466151
 40
0.1886508898234768
 40
0.2510246408607227
 40
0.3131658188976554
 40
0.3756581641417402
 40
0.4382227146727798
 40
0.4998044922940677
 40
0.56151641971787
 40
0.6240683094121985
 40
0.686725723240935
 40
0.7488365305144522
 40
0.8110685944253986
 40
0.8741742884451361
 40
0.9373212787645211
 40
0.9685511709617411
 40
0.9842086872487193
 40
0.9920641182531791
 40
0.996000486125535
 40
0.9979710794120144
 40
0.9989570090489596
 40
0.9994501359395065
 40
0.9996967403802177
 40
0.9998200529090742
 40
0.9998817117580818
 40
0.999912541829664
 40
0.9999279570273361
 40
0.9999356646666602
 40
0.9999395184964466
 40
0.9999414454138695
 40
0.9999424088732151
 40
0.9999433723329806
 40
0.9999501697010513
 40
1.0
 40
1.0
 40
1.0
 40
1.0
 10
101.1126046591024
 20
142.9261998721076
 30
0.0
 10
101.0890330137588
 20
142.9208903924578
 30
0.0
 10
101.0413388577138
 20
142.9101473515182
 30
0.0
 10
100.6492968682882
 20
142.8249182150628
 30
0.0
 10
100.058782819018
 20
142.700349436422
 30
0.0
 10
99.25474537297293
 20
142.5474024902702
 30
0.0
 10
98.27866997279142
 20
142.3856459363166
 30
0.0
 10
97.15686123751092
 20
142.2334131683844
 30
0.0
 10
95.94333031772368
 20
142.1056332271831
 30
0.0
 10
94.67849961132447
 20
142.0177846755005
 30
0.0
 10
93.41045657388173
 20
141.9753991916298
 30
0.0
 10
92.18694921618062
 20
141.9791349996015
 30
0.0
 10
91.05345067576661
 20
142.0177304700496
 30
0.0
 10
90.06734486479242
 20
142.0821698413407
 30
0.0
 10
89.25871705600518
 20
142.1556796486219
 30
0.0
 10
88.66209836089598
 20
142.2229933334337
 30
0.0
 10
88.34670707143792
 20
142.2609578847016
 30
0.0
 10
88.23664050263999
 20
142.2747569440335
 30
0.0
 10
88.2092211148258
 20
142.2782430179541
 30
0.0
 10
88.20229906399629
 20
142.2791222436475
 30
0.0
 10
88.20053082381288
 20
142.2793430182538
 30
0.0
 10
88.20007044463951
 20
142.2793982209646
 30
0.0
 10
88.19994628595471
 20
142.2794119607516
 30
0.0
 10
88.19991073146153
 20
142.2794153565826
 30
0.0
 10
88.19989958739144
 20
142.2794161849029
 30
0.0
 10
88.19989567419532
 20
142.2794163814917
 30
0.0
 10
88.1998941319905
 20
142.2794164254218
 30
0.0
 10
88.19989346498899
 20
142.2794164337285
 30
0.0
 10
88.19989315681124
 20
142.2794164345588
 30
0.0
 10
88.19989301004519
 20
142.2794164340136
 30
0.0
 10
88.19989293709274
 20
142.2794164336837
 30
0.0
 10
88.19989290270036
 20
142.2794164332465
 30
0.0
 10
88.1998928804552
 20
142.279416433335
 30
0.0
 10
88.19989285334576
 20
142.2794164305
 30
0.0
 10
88.19989033378441
 20
142.279416717355
 30
0.0
 10
88.19992642370245
 20
142.2794120972544
 30
0.0
 10
88.19995818152509
 20
142.279408031733
 30
0.0
  0
SPLINE
  5
9A
330
1F
100
AcDbEntity
  8
0
  6
Continuous
 62
     7
370
    15
100
AcDbSpline
210
0.0
220
0.0
230
1.0
 70
     8
 71
     3
 72
    20
 73
    16
 74
     0
 42
0.00000001
 43
0.00000001
 40
0.0
 40
0.0
 40
0.0
 40
0.0
 40
0.249999999999986
 40
0.249999999999986
 40
0.3749999999999789
 40
0.3749999999999789
 40
0.4374999999999789
 40
0.4374999999999789
 40
0.4999999999999789
 40
0.4999999999999789
 40
0.6249999999999835
 40
0.6249999999999835
 40
0.7499999999999879
 40
0.7499999999999879
 40
1.0
 40
1.0
 40
1.0
 40
1.0
 10
60.07145074759387
 20
74.66962085596674
 30
0.0
 10
60.09772296480728
 20
74.6889387970492
 30
0.0
 10
60.12840310706212
 20
74.70332750815098
 30
0.0
 10
60.19987397744404
 20
74.69642314631497
 30
0.0
 10
60.22790101448838
 20
74.68925714296655
 30
0.0
 10
60.28298460398589
 20
74.65955811626296
 30
0.0
 10
60.30387593253832
 20
74.64608447370162
 30
0.0
 10
60.34908457998378
 20
74.6108862081856
 30
0.0
 10
60.37348879237935
 20
74.58897797945835
 30
0.0
 10
60.44482111043079
 20
74.5168531194628
 30
0.0
 10
60.48671789525106
 20
74.46451257851275
 30
0.0
 10
60.55829385410694
 20
74.367029186612
 30
0.0
 10
60.58912184392423
 20
74.32027541673358
 30
0.0
 10
60.67222177675981
 20
74.18698220089446
 30
0.0
 10
60.71707668213011
 20
74.10434480297926
 30
0.0
 10
60.75718875758268
 20
74.02523790818847
 30
0.0
  0
SPLINE
  5
9B
330
1F
100
AcDbEntity
  8
0
  6
Continuous
 62
     7
370
    15
100
AcDbSpline
210
0.0
220
0.0
230
1.0
 70
     8
 71
     3
 72
    14
 73
    10
 74
     0
 42
0.00000001
 43
0.00000001
 40
0.0
 40
0.0
 40
0.0
 40
0.0
 40
0.25
 40
0.25
 40
0.5
 40
0.5
 40
0.75
 40
0.75
 40
1.0
 40
1.0
 40
1.0
 40
1.0
 10
59.78063651587787
 20
74.84543426609952
 30
0.0
 10
59.78063651587788
 20
74.80418733507517
 30
0.0
 10
59.78924623225912
 20
74.76728036279269
 30
0.0
 10
59.82033241182946
 20
74.70638030289328
 30
0.0
 10
59.84272196531352
 20
74.68219938335359
 30
0.0
 10
59.89746589648964
 20
74.64823179247034
 30
0.0
 10
59.92991613607483
 20
74.63831170850214
 30
0.0
 10
59.9999176508029
 20
74.6369604995973
 30
0.0
 10
60.03812815092544
 20
74.64511877629346
 30
0.0
 10
60.07145074759853
 20
74.66962085596154
 30
0.0
  0
LINE
  5
9C
330
1F
100
AcDbEntity
  8
0
  6
Continuous
 62
     7
370
    15
100
AcDbLine
 10
59.7806365159
 20
74.8454342661
 30
0.0
 11
59.7806365159
 21
135.8507737512
 31
0.0
  0
SPLINE
  5
9D
330
1F
100
AcDbEntity
  8
0
  6
Continuous
 62
     7
370
    15
100
AcDbSpline
210
0.0
220
0.0
230
1.0
 70
     8
 71
     3
 72
    10
 73
     6
 74
     0
 42
0.00000001
 43
0.00000001
 40
0.0
 40
0.0
 40
0.0
 40
0.0
 40
0.0592402688376383
 40
0.6438088530391344
 40
1.0
 40
1.0
 40
1.0
 40
1.0
 10
60.07145074759851
 20
136.0265871613733
 30
0.0
 10
60.06661848997731
 20
136.029836068005
 30
0.0
 10
60.01410268784257
 20
136.0651443961606
 30
0.0
 10
59.9151524901638
 20
136.0713986927192
 30
0.0
 10
59.86572396527245
 20
136.0161984550303
 30
0.0
 10
59.84700930052815
 20
135.995298500107
 30
0.0
  0
SPLINE
  5
9E
330
1F
100
AcDbEntity
  8
0
  6
Continuous
 62
     7
370
    15
100
AcDbSpline
210
0.0
220
0.0
230
1.0
 70
     8
 71
     3
 72
     8
 73
     4
 74
     0
 42
0.00000001
 43
0.00000001
 40
0.0
 40
0.0
 40
0.0
 40
0.0
 40
1.0
 40
1.0
 40
1.0
 40
1.0
 10
59.80427018481407
 20
135.958353252305
 30
0.0
 10
59.78892114617803
 20
135.9278431973091
 30
0.0
 10
59.78063651587787
 20
135.8915316417968
 30
0.0
 10
59.78063651587787
 20
135.8507737512354
 30
0.0
  0
SPLINE
  5
9F
330
1F
100
AcDbEntity
  8
0
  6
Continuous
 62
     7
370
    15
100
AcDbSpline
210
0.0
220
0.0
230
1.0
 70
     8
 71
     3
 72
    20
 73
    16
 74
     0
 42
0.00000001
 43
0.00000001
 40
0.0
 40
0.0
 40
0.0
 40
0.0
 40
0.2500000000000037
 40
0.2500000000000037
 40
0.3750000000000055
 40
0.3750000000000055
 40
0.5000000000000073
 40
0.5000000000000073
 40
0.5625000000000057
 40
0.5625000000000057
 40
0.625000000000004
 40
0.625000000000004
 40
0.7500000000000027
 40
0.7500000000000027
 40
1.0
 40
1.0
 40
1.0
 40
1.0
 10
60.75718875758029
 20
136.6709701091456
 30
0.0
 10
60.71719253975647
 20
136.5920917025882
 30
0.0
 10
60.67207891191881
 20
136.5089620558967
 30
0.0
 10
60.58882469755228
 20
136.3754733915457
 30
0.0
 10
60.55860536893177
 20
136.3296083356637
 30
0.0
 10
60.48651713379036
 20
136.2314167832589
 30
0.0
 10
60.44459981637926
 20
136.1791069637353
 30
0.0
 10
60.3733492118278
 20
136.1071010610008
 30
0.0
 10
60.34911339944848
 20
136.0853308486992
 30
0.0
 10
60.30351520926383
 20
136.0498561903702
 30
0.0
 10
60.28271271966412
 20
136.0364860061926
 30
0.0
 10
60.22777172124499
 20
136.0069160940574
 30
0.0
 10
60.1997027331582
 20
135.9997895717554
 30
0.0
 10
60.12919990309535
 20
135.9929152002727
 30
0.0
 10
60.09777581530448
 20
136.0072303593599
 30
0.0
 10
60.07145074759589
 20
136.0265871613705
 30
0.0
  0
SPLINE
  5
A0
330
1F
100
AcDbEntity
  8
0
  6
Continuous
 62
     7
370
    15
100
AcDbSpline
210
0.0
220
0.0
230
1.0
 70
     8
 71
     3
 72
    10
 73
     6
 74
     0
 42
0.00000001
 43
0.00000001
 40
0.0
 40
0.0
 40
0.0
 40
0.0
 40
0.4999999999999989
 40
0.4999999999999989
 40
1.0
 40
1.0
 40
1.0
 40
1.0
 10
61.43063651587788
 20
137.5963892104874
 30
0.0
 10
61.30574824512767
 20
137.465392932416
 30
0.0
 10
61.18429812706723
 20
137.321680095751
 30
0.0
 10
60.95471415210979
 20
137.0111098030617
 30
0.0
 10
60.84443917671381
 20
136.8430407299987
 30
0.0
 10
60.75718875758029
 20
136.6709701091456
 30
0.0
  0
SPLINE
  5
A1
330
1F
100
AcDbEntity
  8
0
  6
Continuous
 62
     7
370
    15
100
AcDbSpline
210
0.0
220
0.0
230
1.0
 70
     8
 71
     3
 72
     8
 73
     4
 74
     0
 42
0.00000001
 43
0.00000001
 40
0.0
 40
0.0
 40
0.0
 40
0.0
 40
1.0
 40
1.0
 40
1.0
 40
1.0
 10
61.6805616318436
 20
137.593936177232
 30
0.0
 10
61.59354360199524
 20
137.5944027420191
 30
0.0
 10
61.51058957561531
 20
137.5954427615953
 30
0.0
 10
61.43063651587556
 20
137.5963892104875
 30
0.0
  0
SPLINE
  5
A2
330
1F
100
AcDbEntity
  8
0
  6
Continuous
 62
     7
370
    15
100
AcDbSpline
210
0.0
220
0.0
230
1.0
 70
     8
 71
     3
 72
     8
 73
     4
 74
     0
 42
0.00000001
 43
0.00000001
 40
0.0
 40
0.0
 40
0.0
 40
0.0
 40
1.0
 40
1.0
 40
1.0
 40
1.0
 10
61.43063651587556
 20
73.09981880684737
 30
0.0
 10
61.51058957561584
 20
73.10076525573963
 30
0.0
 10
61.59354360199632
 20
73.10180527531577
 30
0.0
 10
61.68056163184529
 20
73.10227184010283
 30
0.0
  0
SPLINE
  5
A3
330
1F
100
AcDbEntity
  8
0
  6
Continuous
 62
     7
370
    15
100
AcDbSpline
210
0.0
220
0.0
230
1.0
 70
     8
 71
     3
 72
    10
 73
     6
 74
     0
 42
0.00000001
 43
0.00000001
 40
0.0
 40
0.0
 40
0.0
 40
0.0
 40
0.4999999999999989
 40
0.4999999999999989
 40
1.0
 40
1.0
 40
1.0
 40
1.0
 10
60.75718875757936
 20
74.02523790819104
 30
0.0
 10
60.84443917671284
 20
73.85316728733768
 30
0.0
 10
60.954714152109
 20
73.68509821427425
 30
0.0
 10
61.18429812706682
 20
73.37452792158442
 30
0.0
 10
61.30574824512747
 20
73.23081508491914
 30
0.0
 10
61.43063651587788
 20
73.09981880684744
 30
0.0
  0
SPLINE
  5
A4
330
1F
100
AcDbEntity
  8
0
  6
Continuous
 62
     7
370
    15
100
AcDbSpline
210
0.0
220
0.0
230
1.0
 70
     8
 71
     3
 72
     8
 73
     4
 74
     0
 42
0.00000001
 43
0.00000001
 40
0.0
 40
0.0
 40
0.0
 40
0.0
 40
1.0
 40
1.0
 40
1.0
 40
1.0
 10
127.7706365158779
 20
151.9453748693723
 30
0.0
 10
127.3203282801933
 20
152.743089994486
 30
0.0
 10
126.8696344636697
 20
153.5405882941431
 30
0.0
 10
126.4186074949565
 20
154.337898864331
 30
0.0
  0
LINE
  5
A5
330
1F
100
AcDbEntity
  8
0
  6
Continuous
 62
     7
370
    15
100
AcDbLine
 10
127.7706365159
 20
141.2435515148
 30
0.0
 11
127.7706365159
 21
151.9453748694
 31
0.0
  0
SPLINE
  5
A6
330
1F
100
AcDbEntity
  8
0
  6
Continuous
 62
     7
370
    15
100
AcDbSpline
210
0.0
220
0.0
230
1.0
 70
     8
 71
     3
 72
     8
 73
     4
 74
     0
 42
0.00000001
 43
0.00000001
 40
0.0
 40
0.0
 40
0.0
 40
0.0
 40
1.0
 40
1.0
 40
1.0
 40
1.0
 10
126.4186074949565
 20
144.2990667695544
 30
0.0
 10
126.875533848756
 20
143.2831487998801
 30
0.0
 10
127.326739490559
 20
142.2643529707889
 30
0.0
 10
127.7706365158779
 20
141.2435515148053
 30
0.0
  0
SPLINE
  5
A7
330
1F
100
AcDbEntity
  8
0
  6
Continuous
 62
     7
370
    15
100
AcDbSpline
210
0.0
220
0.0
230
1.0
 70
     8
 71
     3
 72
     8
 73
     4
 74
     0
 42
0.00000001
 43
0.00000001
 40
0.0
 40
0.0
 40
0.0
 40
0.0
 40
1.0
 40
1.0
 40
1.0
 40
1.0
 10
132.9426655367993
 20
154.337898864331
 30
0.0
 10
132.491638568086
 20
153.5405882941431
 30
0.0
 10
132.0409447515624
 20
152.743089994486
 30
0.0
 10
131.5906365158779
 20
151.9453748693723
 30
0.0
  0
LINE
  5
A8
330
1F
100
AcDbEntity
  8
0
  6
Continuous
 62
     7
370
    15
100
AcDbLine
 10
132.9426655368
 20
144.2990667696
 30
0.0
 11
132.9426655368
 21
154.3378988643
 31
0.0
  0
SPLINE
  5
A9
330
1F
100
AcDbEntity
  8
0
  6
Continuous
 62
     7
370
    15
100
AcDbSpline
210
0.0
220
0.0
230
1.0
 70
     8
 71
     3
 72
     8
 73
     4
 74
     0
 42
0.00000001
 43
0.00000001
 40
0.0
 40
0.0
 40
0.0
 40
0.0
 40
1.0
 40
1.0
 40
1.0
 40
1.0
 10
131.5906365158779
 20
141.2435515148053
 30
0.0
 10
132.0347865269034
 20
142.2649347457569
 30
0.0
 10
132.4858608371613
 20
143.2834192825252
 30
0.0
 10
132.9426655367992
 20
144.2990667695544
 30
0.0
  0
LINE
  5
AA
330
1F
100
AcDbEntity
  8
0
  6
Continuous
 62
     7
370
    15
100
AcDbLine
 10
131.5906365159
 20
141.2435515148
 30
0.0
 11
131.5906365159
 21
151.9453748694
 31
0.0
  0
LINE
  5
AB
330
1F
100
AcDbEntity
  8
0
  6
Continuous
 62
     7
370
    15
100
AcDbLine
 10
137.6306365159
 20
154.3378988643
 30
0.0
 11
132.9426655368
 21
154.3378988643
 31
0.0
  0
LINE
  5
AC
330
1F
100
AcDbEntity
  8
0
  6
Continuous
 62
     7
370
    15
100
AcDbLine
 10
132.9426655368
 20
144.2990667696
 30
0.0
 11
137.6306365159
 21
144.2990667696
 31
0.0
  0
SPLINE
  5
AD
330
1F
100
AcDbEntity
  8
0
  6
Continuous
 62
     7
370
    15
100
AcDbSpline
210
0.0
220
0.0
230
1.0
 70
     8
 71
     3
 72
    14
 73
    10
 74
     0
 42
0.00000001
 43
0.00000001
 40
0.0
 40
0.0
 40
0.0
 40
0.0
 40
0.25
 40
0.25
 40
0.5
 40
0.5
 40
0.75
 40
0.75
 40
1.0
 40
1.0
 40
1.0
 40
1.0
 10
131.5906365158779
 20
151.0416552495154
 30
0.0
 10
131.5906365158779
 20
150.9352985557631
 30
0.0
 10
131.5702489597366
 20
150.829458068003
 30
0.0
 10
131.4916146142751
 20
150.6328931544665
 30
0.0
 10
131.4328832546365
 20
150.5417224121794
 30
0.0
 10
131.2862743490339
 20
150.3898113231478
 30
0.0
 10
131.1968690290074
 20
150.3277424863282
 30
0.0
 10
131.002978296407
 20
150.2444744385695
 30
0.0
 10
130.8964733065172
 20
150.2223797688399
 30
0.0
 10
130.7906365158779
 20
150.2223797688398
 30
0.0
  0
SPLINE
  5
AE
330
1F
100
AcDbEntity
  8
0
  6
Continuous
 62
     7
370
    15
100
AcDbSpline
210
0.0
220
0.0
230
1.0
 70
     8
 71
     3
 72
    12
 73
     8
 74
     0
 42
0.00000001
 43
0.00000001
 40
0.0
 40
0.0
 40
0.0
 40
0.0
 40
0.250000000000002
 40
0.250000000000002
 40
0.500000000000004
 40
0.500000000000004
 40
1.0
 40
1.0
 40
1.0
 40
1.0
 10
130.7906365158778
 20
138.9766354217399
 30
0.0
 10
130.9143374658578
 20
138.9766354217399
 30
0.0
 10
131.038434078128
 20
139.0186290334725
 30
0.0
 10
131.2450892412151
 20
139.1564243601169
 30
0.0
 10
131.3301300079419
 20
139.2503979585817
 30
0.0
 10
131.5296085764155
 20
139.5651861648026
 30
0.0
 10
131.5906365158779
 20
139.8154251570302
 30
0.0
 10
131.5906365158779
 20
140.0623392011645
 30
0.0
  0
LINE
  5
AF
330
1F
100
AcDbEntity
  8
0
  6
Continuous
 62
     7
370
    15
100
AcDbLine
 10
127.7706365159
 20
141.2435515148
 30
0.0
 11
127.7706365159
 21
140.0623392012
 31
0.0
  0
SPLINE
  5
B0
330
1F
100
AcDbEntity
  8
0
  6
Continuous
 62
     7
370
    15
100
AcDbSpline
210
0.0
220
0.0
230
1.0
 70
     8
 71
     3
 72
    14
 73
    10
 74
     0
 42
0.00000001
 43
0.00000001
 40
0.0
 40
0.0
 40
0.0
 40
0.0
 40
0.25
 40
0.25
 40
0.5
 40
0.5
 40
0.75
 40
0.75
 40
1.0
 40
1.0
 40
1.0
 40
1.0
 10
127.7706365158778
 20
140.0623392011645
 30
0.0
 10
127.7706365158779
 20
139.9384723243753
 30
0.0
 10
127.7864956435054
 20
139.8142126475378
 30
0.0
 10
127.8498572890253
 20
139.5766042851319
 30
0.0
 10
127.8984469970747
 20
139.4598239003795
 30
0.0
 10
128.0307326018496
 20
139.2510213717705
 30
0.0
 10
128.1160573931101
 20
139.1565106681778
 30
0.0
 10
128.3229486414163
 20
139.0185538673755
 30
0.0
 10
128.4469165873063
 20
138.9766354217399
 30
0.0
 10
128.5706365158779
 20
138.9766354217398
 30
0.0
  0
LINE
  5
B1
330
1F
100
AcDbEntity
  8
0
  6
Continuous
 62
     7
370
    15
100
AcDbLine
 10
128.5706365159
 20
138.9766354217
 30
0.0
 11
130.7906365159
 21
138.9766354217
 31
0.0
  0
LINE
  5
B2
330
1F
100
AcDbEntity
  8
0
  6
Continuous
 62
     7
370
    15
100
AcDbLine
 10
131.5906365159
 20
140.0623392012
 30
0.0
 11
131.5906365159
 21
141.2435515148
 31
0.0
  0
SPLINE
  5
B3
330
1F
100
AcDbEntity
  8
0
  6
Continuous
 62
     7
370
    15
100
AcDbSpline
210
0.0
220
0.0
230
1.0
 70
     8
 71
     3
 72
    16
 73
    12
 74
     0
 42
0.00000001
 43
0.00000001
 40
0.0
 40
0.0
 40
0.0
 40
0.0
 40
0.1249999999999978
 40
0.1249999999999978
 40
0.2499999999999955
 40
0.2499999999999955
 40
0.499999999999997
 40
0.499999999999997
 40
0.7499999999999984
 40
0.7499999999999984
 40
1.0
 40
1.0
 40
1.0
 40
1.0
 10
137.6306365158779
 20
144.2990667695544
 30
0.0
 10
137.706274222289
 20
144.2990667695544
 30
0.0
 10
137.7825898867073
 20
144.2877217694194
 30
0.0
 10
137.9270006245992
 20
144.2450692187809
 30
0.0
 10
137.9954470737077
 20
144.2141348940981
 30
0.0
 10
138.1903783263208
 20
144.0948785223305
 30
0.0
 10
138.2982195001017
 20
143.9847265087099
 30
0.0
 10
138.4669322483137
 20
143.7365904230518
 30
0.0
 10
138.5292966610373
 20
143.5962480990482
 30
0.0
 10
138.6106005855456
 20
143.3079764075595
 30
0.0
 10
138.6306365158779
 20
143.1571714345797
 30
0.0
 10
138.6306365158779
 20
143.0068015432344
 30
0.0
  0
LINE
  5
B4
330
1F
100
AcDbEntity
  8
0
  6
Continuous
 62
     7
370
    15
100
AcDbLine
 10
138.6306365159
 20
143.0068015432
 30
0.0
 11
138.6306365159
 21
136.6981040087
 31
0.0
  0
SPLINE
  5
B5
330
1F
100
AcDbEntity
  8
0
  6
Continuous
 62
     7
370
    15
100
AcDbSpline
210
0.0
220
0.0
230
1.0
 70
     8
 71
     3
 72
    12
 73
     8
 74
     0
 42
0.00000001
 43
0.00000001
 40
0.0
 40
0.0
 40
0.0
 40
0.0
 40
0.4999999999999953
 40
0.4999999999999953
 40
0.7499999999999977
 40
0.7499999999999977
 40
1.0
 40
1.0
 40
1.0
 40
1.0
 10
138.6306365158779
 20
153.3168438295133
 30
0.0
 10
138.6306365158779
 20
153.5821132622797
 30
0.0
 10
138.5260297723914
 20
153.8446283679321
 30
0.0
 10
138.2493614206461
 20
154.1301659739693
 30
0.0
 10
138.1389961612941
 20
154.2064875908308
 30
0.0
 10
137.8949241126784
 20
154.3108297556709
 30
0.0
 10
137.7631716513466
 20
154.337898864331
 30
0.0
 10
137.6306365158779
 20
154.337898864331
 30
0.0
  0
LINE
  5
B6
330
1F
100
AcDbEntity
  8
0
  6
Continuous
 62
     7
370
    15
100
AcDbLine
 10
138.6306365159
 20
143.0068015432
 30
0.0
 11
138.6306365159
 21
153.3168438295
 31
0.0
  0
SPLINE
  5
B7
330
1F
100
AcDbEntity
  8
0
  6
Continuous
 62
     7
370
    15
100
AcDbSpline
210
0.0
220
0.0
230
1.0
 70
     8
 71
     3
 72
    10
 73
     6
 74
     0
 42
0.00000001
 43
0.00000001
 40
0.0
 40
0.0
 40
0.0
 40
0.0
 40
0.5
 40
0.5
 40
1.0
 40
1.0
 40
1.0
 40
1.0
 10
128.5706365158779
 20
150.2223797688399
 30
0.0
 10
128.3581002020215
 20
150.2223797688399
 30
0.0
 10
128.1481640303675
 20
150.31379235547
 30
0.0
 10
127.8544568893563
 20
150.6185372213743
 30
0.0
 10
127.7706365158778
 20
150.8306921912829
 30
0.0
 10
127.7706365158779
 20
151.0416552495154
 30
0.0
  0
LINE
  5
B8
330
1F
100
AcDbEntity
  8
0
  6
Continuous
 62
     7
370
    15
100
AcDbLine
 10
130.7906365159
 20
150.2223797688
 30
0.0
 11
128.5706365159
 21
150.2223797688
 31
0.0
  0
ARC
  5
B9
330
1F
100
AcDbEntity
  8
0
  6
Continuous
 62
     7
370
    15
100
AcDbCircle
 10
118.680910576
 20
137.9148775242
 30
0.0
 40
11.44864639011291
100
AcDbArc
 50
77.6649884509
 51
102.4018279774
  0
LINE
  5
BA
330
1F
100
AcDbEntity
  8
0
  6
Continuous
 62
     7
370
    15
100
AcDbLine
 10
61.4306365159
 20
73.0981040087
 30
0.0
 11
61.4306365159
 21
73.0998188068
 31
0.0
  0
LINE
  5
BB
330
1F
100
AcDbEntity
  8
0
  6
Continuous
 62
     7
370
    15
100
AcDbLine
 10
160.6306365159
 20
88.3481040087
 30
0.0
 11
160.6306365159
 21
122.3481040087
 31
0.0
  0
SPLINE
  5
BC
330
1F
100
AcDbEntity
  8
0
  6
Continuous
 62
     7
370
    15
100
AcDbSpline
210
0.0
220
0.0
230
1.0
 70
     8
 71
     3
 72
    37
 73
    33
 74
     0
 42
0.00000001
 43
0.00000001
 40
0.0
 40
0.0
 40
0.0
 40
0.0
 40
0.0392082674721527
 40
0.061772285270461
 40
0.0824993429531819
 40
0.124582190756497
 40
0.1459656004379273
 40
0.1682643626245656
 40
0.2134680386877016
 40
0.2363947677783502
 40
0.2617822342811121
 40
0.3132472624548513
 40
0.3393544177005676
 40
0.3681000854996985
 40
0.4264410736046838
 40
0.4560857751342142
 40
0.4870369945912171
 40
0.5499505762700437
 40
0.5819857289179776
 40
0.6134814457590136
 40
0.6452036883143566
 40
0.6776635973566102
 40
0.7103905437966898
 40
0.7406864992394617
 40
0.8025359961814186
 40
0.8342375053655077
 40
0.8568043247967096
 40
0.9026526567983079
 40
0.9260082882235716
 40
0.9485799697760544
 40
0.9946195106363281
 40
1.0
 40
1.0
 40
1.0
 40
1.0
 10
155.1266431457828
 20
122.3475001571278
 30
0.0
 10
155.1225441832078
 20
122.3468731305777
 30
0.0
 10
155.1160863032293
 20
122.3458852556876
 30
0.0
 10
155.0573692680587
 20
122.3370700901787
 30
0.0
 10
154.976090014933
 20
122.3250565459678
 30
0.0
 10
154.8623245428543
 20
122.3086481413884
 30
0.0
 10
154.7172715602042
 20
122.2886755987872
 30
0.0
 10
154.5473032126228
 20
122.2660857689926
 30
0.0
 10
154.3457937011608
 20
122.2409164859036
 30
0.0
 10
154.1133369613811
 20
122.2143639792293
 30
0.0
 10
153.84871343957
 20
122.1862065527703
 30
0.0
 10
153.5511497253646
 20
122.1584598567263
 30
0.0
 10
153.2254194875493
 20
122.1331889543604
 30
0.0
 10
152.8665058570396
 20
122.1093878571577
 30
0.0
 10
152.4796313391883
 20
122.0909284562295
 30
0.0
 10
152.077009146695
 20
122.0799116978585
 30
0.0
 10
151.6550332343705
 20
122.0742750764247
 30
0.0
 10
151.2222339204762
 20
122.0780592205918
 30
0.0
 10
150.7955157466831
 20
122.0911840777221
 30
0.0
 10
150.4798295409424
 20
122.105433211925
 30
0.0
 10
150.1709534988678
 20
122.1236796468471
 30
0.0
 10
149.8689874242541
 20
122.1456184887533
 30
0.0
 10
149.5849589651904
 20
122.1699741170875
 30
0.0
 10
149.2343790130591
 20
122.2041711383124
 30
0.0
 10
148.9209041325955
 20
122.2400002354284
 30
0.0
 10
148.6723270869338
 20
122.2715725961396
 30
0.0
 10
148.4834164587171
 20
122.2967962319895
 30
0.0
 10
148.3422163640111
 20
122.3167679438506
 30
0.0
 10
148.238400471909
 20
122.3319491916725
 30
0.0
 10
148.1625849218435
 20
122.3432375183216
 30
0.0
 10
148.1265058072545
 20
122.3487308646452
 30
0.0
 10
148.1320536072304
 20
122.3478891324784
 30
0.0
 10
148.1326341179503
 20
122.347801055304
 30
0.0
  0
SPLINE
  5
BD
330
1F
100
AcDbEntity
  8
0
  6
Continuous
 62
     7
370
    15
100
AcDbSpline
210
0.0
220
0.0
230
1.0
 70
     8
 71
     3
 72
     9
 73
     5
 74
     0
 42
0.00000001
 43
0.00000001
 40
0.0
 40
0.0
 40
0.0
 40
0.0
 40
0.3854829157794664
 40
1.0
 40
1.0
 40
1.0
 40
1.0
 10
148.8888360169741
 20
122.2448296292743
 30
0.0
 10
148.9368000466266
 20
122.2389780888651
 30
0.0
 10
149.061225871194
 20
122.2237983229927
 30
0.0
 10
149.2056228995306
 20
122.2083918441036
 30
0.0
 10
149.2943573403541
 20
122.1989242996185
 30
0.0
  0
SPLINE
  5
BE
330
1F
100
AcDbEntity
  8
0
  6
Continuous
 62
     7
370
    15
100
AcDbSpline
210
0.0
220
0.0
230
1.0
 70
     8
 71
     3
 72
    66
 73
    62
 74
     0
 42
0.00000001
 43
0.00000001
 40
-0.0625000000000006
 40
-0.0625000000000006
 40
0.0
 40
0.0
 40
0.0624999999999991
 40
0.0624999999999991
 40
0.0937499999999991
 40
0.0937499999999991
 40
0.1249999999999991
 40
0.1249999999999991
 40
0.1562499999999992
 40
0.1562499999999992
 40
0.1874999999999992
 40
0.1874999999999992
 40
0.2187499999999992
 40
0.2187499999999992
 40
0.2499999999999992
 40
0.2499999999999992
 40
0.2812499999999993
 40
0.2812499999999993
 40
0.3124999999999993
 40
0.3124999999999993
 40
0.3437499999999994
 40
0.3437499999999994
 40
0.3749999999999994
 40
0.3749999999999994
 40
0.4062499999999994
 40
0.4062499999999994
 40
0.4374999999999995
 40
0.4374999999999995
 40
0.4687499999999996
 40
0.4687499999999996
 40
0.4999999999999996
 40
0.4999999999999996
 40
0.5312499999999996
 40
0.5312499999999996
 40
0.5624999999999996
 40
0.5624999999999996
 40
0.5937499999999996
 40
0.5937499999999996
 40
0.6249999999999996
 40
0.6249999999999996
 40
0.6562499999999996
 40
0.6562499999999996
 40
0.6874999999999996
 40
0.6874999999999996
 40
0.7187499999999996
 40
0.7187499999999996
 40
0.7499999999999994
 40
0.7499999999999994
 40
0.7812499999999994
 40
0.7812499999999994
 40
0.8124999999999994
 40
0.8124999999999994
 40
0.8437499999999994
 40
0.8437499999999994
 40
0.8749999999999994
 40
0.8749999999999994
 40
0.9062499999999994
 40
0.9062499999999994
 40
0.9374999999999994
 40
0.9374999999999994
 40
1.0
 40
1.0
 40
1.062499999999999
 40
1.062499999999999
 10
148.9552343354849
 20
107.330839508998
 30
0.0
 10
149.6334803477734
 20
107.8597452259072
 30
0.0
 10
150.0122747404789
 20
108.0555185891258
 30
0.0
 10
150.6251546761018
 20
108.2535019725383
 30
0.0
 10
150.832608639356
 20
108.3017991166378
 30
0.0
 10
151.2535413357939
 20
108.3648088627845
 30
0.0
 10
151.4685885542231
 20
108.3794622820496
 30
0.0
 10
151.897521475526
 20
108.3738107014577
 30
0.0
 10
152.1093419710466
 20
108.3538126216744
 30
0.0
 10
152.5277969091087
 20
108.2800956286004
 30
0.0
 10
152.7357777354265
 20
108.2259015391222
 30
0.0
 10
153.1400389694208
 20
108.0832248347888
 30
0.0
 10
153.3334956099043
 20
107.9960103450416
 30
0.0
 10
153.7029497698902
 20
107.7894024067441
 30
0.0
 10
153.8798896952198
 20
107.6692853267823
 30
0.0
 10
154.2101175807722
 20
107.3957838771446
 30
0.0
 10
154.359640812954
 20
107.2457873517777
 30
0.0
 10
154.6262346345154
 20
106.9180133440766
 30
0.0
 10
154.7443878238082
 20
106.7381960396135
 30
0.0
 10
154.937509571835
 20
106.355014469334
 30
0.0
 10
155.0108571273546
 20
106.1559389802978
 30
0.0
 10
155.1091108674506
 20
105.7421088518562
 30
0.0
 10
155.1334523669534
 20
105.5243833940685
 30
0.0
 10
155.1272822712046
 20
105.0972861623398
 30
0.0
 10
155.0976899279055
 20
104.8845249394442
 30
0.0
 10
154.9863613987033
 20
104.4673837385855
 30
0.0
 10
154.9066184949067
 20
104.2692609854414
 30
0.0
 10
154.7033393797244
 20
103.8919373766089
 30
0.0
 10
154.5797479509865
 20
103.7139291471403
 30
0.0
 10
154.3021364635855
 20
103.3901787977211
 30
0.0
 10
154.1453903276791
 20
103.2411514085907
 30
0.0
 10
153.8088703506478
 20
102.9766732146716
 30
0.0
 10
153.6298225195244
 20
102.8612125083433
 30
0.0
 10
153.251503221413
 20
102.6614915882441
 30
0.0
 10
153.0517833588634
 20
102.5775169469402
 30
0.0
 10
152.6461584765337
 20
102.4454361057402
 30
0.0
 10
152.4385942008774
 20
102.3963536784805
 30
0.0
 10
152.0139789910082
 20
102.331893073812
 30
0.0
 10
151.7982777213017
 20
102.3170497986865
 30
0.0
 10
151.372033349149
 20
102.3219225362573
 30
0.0
 10
151.1597759581933
 20
102.3413381406516
 30
0.0
 10
150.7370404516023
 20
102.4151683897182
 30
0.0
 10
150.5278477193853
 20
102.469723420726
 30
0.0
 10
150.1267151932706
 20
102.6108063102295
 30
0.0
 10
149.9328766242362
 20
102.6975898568673
 30
0.0
 10
149.5594938318822
 20
102.9059112744871
 30
0.0
 10
149.3805892893329
 20
103.0276858430191
 30
0.0
 10
149.0539428948872
 20
103.2980106580678
 30
0.0
 10
148.9040561988095
 20
103.447579577816
 30
0.0
 10
148.6342185976528
 20
103.7790642649307
 30
0.0
 10
148.5152672428733
 20
103.9608849829905
 30
0.0
 10
148.3235587833186
 20
104.3419401477268
 30
0.0
 10
148.2483610694192
 20
104.5461043074606
 30
0.0
 10
148.1504645873308
 20
104.9641779270954
 30
0.0
 10
148.1274089863431
 20
105.1761476909425
 30
0.0
 10
148.1345819150063
 20
105.6061300964371
 30
0.0
 10
148.1655726056424
 20
105.8215974710401
 30
0.0
 10
148.2770953431951
 20
106.2344523030807
 30
0.0
 10
148.359082972357
 20
106.4367878487357
 30
0.0
 10
148.6657784799179
 20
107.0010860665851
 30
0.0
 10
148.9552343354849
 20
107.330839508998
 30
0.0
 10
149.6334803477734
 20
107.8597452259072
 30
0.0
  0
SPLINE
  5
BF
330
1F
100
AcDbEntity
  8
0
  6
Continuous
 62
     7
370
    15
100
AcDbSpline
210
0.0
220
0.0
230
1.0
 70
     8
 71
     3
 72
    37
 73
    33
 74
     0
 42
0.00000001
 43
0.00000001
 40
0.0
 40
0.0
 40
0.0
 40
0.0
 40
0.0243233406197266
 40
0.047384671798545
 40
0.068069545567698
 40
0.1100860600096828
 40
0.1314480565192198
 40
0.1533430675181551
 40
0.1977346139040885
 40
0.2202529371221348
 40
0.2450549321275039
 40
0.2953283104322632
 40
0.3208270291703489
 40
0.3490477819293828
 40
0.4063088942459439
 40
0.4353946967332747
 40
0.466089659711623
 40
0.5284668779915359
 40
0.560217985133741
 40
0.5917307544983484
 40
0.6234670090947039
 40
0.6559258483608665
 40
0.688643779537608
 40
0.7192999382127234
 40
0.781849418388961
 40
0.8138830978441064
 40
0.837054820154582
 40
0.8841268542439934
 40
0.9081044387475615
 40
0.9312816497571346
 40
0.9785815619411129
 40
1.0
 40
1.0
 40
1.0
 40
1.0
 10
148.1409914199236
 20
88.34967334355623
 30
0.0
 10
148.1389221172402
 20
88.34936076436547
 30
0.0
 10
148.1348908770402
 20
88.3487518240642
 30
0.0
 10
148.172517211332
 20
88.35443831099465
 30
0.0
 10
148.2376605451677
 20
88.36416292964152
 30
0.0
 10
148.3370427693504
 20
88.37871669355043
 30
0.0
 10
148.4678951945138
 20
88.3971060500808
 30
0.0
 10
148.6226393216727
 20
88.4181840406412
 30
0.0
 10
148.8086053455752
 20
88.44217327830773
 30
0.0
 10
149.0255462424279
 20
88.46800869182555
 30
0.0
 10
149.2735419530649
 20
88.4957415385315
 30
0.0
 10
149.554465205918
 20
88.52372224833769
 30
0.0
 10
149.8645502744243
 20
88.55002458254594
 30
0.0
 10
150.2085719462438
 20
88.57552948378184
 30
0.0
 10
150.5821973725674
 20
88.59660365941227
 30
0.0
 10
150.9744982377338
 20
88.61100868142874
 30
0.0
 10
151.3895256426874
 20
88.62057595345158
 30
0.0
 10
151.8190844925226
 20
88.6211305766423
 30
0.0
 10
152.246635917102
 20
88.61225647023244
 30
0.0
 10
152.5657537606543
 20
88.60099430636222
 30
0.0
 10
152.8806285697739
 20
88.58539555332972
 30
0.0
 10
153.1902810004784
 20
88.56572720102695
 30
0.0
 10
153.4847290525564
 20
88.54302481055704
 30
0.0
 10
153.8529004932278
 20
88.51006626843524
 30
0.0
 10
154.187822608892
 20
88.4741208615777
 30
0.0
 10
154.4602656659337
 20
88.44106714984743
 30
0.0
 10
154.6725629295262
 20
88.4137579494982
 30
0.0
 10
154.8370377661746
 20
88.39111569965597
 30
0.0
 10
154.9638697866915
 20
88.3729108718954
 30
0.0
 10
155.0636589417028
 20
88.35824925478194
 30
0.0
 10
155.123451919438
 20
88.34919394455405
 30
0.0
 10
155.1279976215927
 20
88.34850424348761
 30
0.0
 10
155.1294144460609
 20
88.34828927442159
 30
0.0
  0
SPLINE
  5
C0
330
1F
100
AcDbEntity
  8
0
  6
Continuous
 62
     7
370
    15
100
AcDbSpline
210
0.0
220
0.0
230
1.0
 70
     8
 71
     3
 72
     9
 73
     5
 74
     0
 42
0.00000001
 43
0.00000001
 40
0.0
 40
0.0
 40
0.0
 40
0.0
 40
0.1017170788007978
 40
1.0
 40
1.0
 40
1.0
 40
1.0
 10
149.5852273062583
 20
88.52536153053777
 30
0.0
 10
149.574578214018
 20
88.52450891572579
 30
0.0
 10
149.4698849573321
 20
88.51612669690837
 30
0.0
 10
149.3774184369916
 20
88.50620036879589
 30
0.0
 10
149.2943573409871
 20
88.49728371778222
 30
0.0
  0
CIRCLE
  5
C1
330
1F
100
AcDbEntity
  8
0
  6
Continuous
 62
     7
370
    15
100
AcDbCircle
 10
151.6306365159
 20
105.3481040087
 30
0.0
 40
2.5
  0
LINE
  5
C2
330
1F
100
AcDbEntity
  8
0
  6
Continuous
 62
     7
370
    15
100
AcDbLine
 10
61.4306365159
 20
137.5981040087
 30
0.0
 11
61.4306365159
 21
137.5963892105
 31
0.0
  0
LINE
  5
C3
330
1F
100
AcDbEntity
  8
0
  6
Continuous
 62
     7
370
    15
100
AcDbLine
 10
188.8558175712
 20
89.3481040087
 30
0.0
 11
188.8558175712
 21
121.3481040087
 31
0.0
  0
SPLINE
  5
C4
330
1F
100
AcDbEntity
  8
0
  6
Continuous
 62
     7
370
    15
100
AcDbSpline
210
0.0
220
0.0
230
1.0
 70
     8
 71
     3
 72
    10
 73
     6
 74
     0
 42
0.00000001
 43
0.00000001
 40
0.0
 40
0.0
 40
0.0
 40
0.0
 40
0.0650913207389211
 40
0.4645438964962768
 40
1.0
 40
1.0
 40
1.0
 40
1.0
 10
239.6782440868605
 20
115.5967525125834
 30
0.0
 10
239.6782114833139
 20
115.5975107259384
 30
0.0
 10
239.6779787982431
 20
115.602921944859
 30
0.0
 10
239.679402731943
 20
115.5771700858768
 30
0.0
 10
239.6801872143535
 20
115.5192230347442
 30
0.0
 10
239.6806365158779
 20
115.4860346572083
 30
0.0
  0
LINE
  5
C5
330
1F
100
AcDbEntity
  8
0
  6
Continuous
 62
     7
370
    15
100
AcDbLine
 10
239.6806365159
 20
95.2101733601
 30
0.0
 11
239.6806365159
 21
115.4860346572
 31
0.0
  0
LINE
  5
C6
330
1F
100
AcDbEntity
  8
0
  6
Continuous
 62
     7
370
    15
100
AcDbLine
 10
239.6926546514
 20
115.4045646517
 30
0.0
 11
239.6806365159
 21
115.0986826776
 31
0.0
  0
LINE
  5
C7
330
1F
100
AcDbEntity
  8
0
  6
Continuous
 62
     7
370
    15
100
AcDbLine
 10
239.6990689994
 20
115.5678207101
 30
0.0
 11
239.6926546514
 21
115.4045646517
 31
0.0
  0
LINE
  5
C8
330
1F
100
AcDbEntity
  8
0
  6
Continuous
 62
     7
370
    15
100
AcDbLine
 10
239.6806365159
 20
97.0986826776
 30
0.0
 11
239.757958723
 21
95.1307010907
 31
0.0
  0
SPLINE
  5
C9
330
1F
100
AcDbEntity
  8
0
  6
HIDDEN
 62
     7
370
     0
100
AcDbSpline
210
0.0
220
0.0
230
1.0
 70
     8
 71
     3
 72
    80
 73
    76
 74
     0
 42
0.00000001
 43
0.00000001
 40
-0.03125
 40
-0.03125
 40
0.0
 40
0.0
 40
0.0312500000000002
 40
0.0312500000000002
 40
0.0468750000000002
 40
0.0468750000000002
 40
0.0625000000000001
 40
0.0625000000000001
 40
0.0937499999999999
 40
0.0937499999999999
 40
0.1249999999999997
 40
0.1249999999999997
 40
0.1562499999999995
 40
0.1562499999999995
 40
0.1874999999999993
 40
0.1874999999999993
 40
0.2187499999999991
 40
0.2187499999999991
 40
0.2499999999999989
 40
0.2499999999999989
 40
0.2812499999999987
 40
0.2812499999999987
 40
0.3124999999999984
 40
0.3124999999999984
 40
0.3281249999999985
 40
0.3281249999999985
 40
0.3437499999999986
 40
0.3437499999999986
 40
0.3749999999999986
 40
0.3749999999999986
 40
0.4062499999999987
 40
0.4062499999999987
 40
0.4218749999999989
 40
0.4218749999999989
 40
0.4374999999999991
 40
0.4374999999999991
 40
0.4687499999999993
 40
0.4687499999999993
 40
0.4999999999999994
 40
0.4999999999999994
 40
0.5312499999999997
 40
0.5312499999999997
 40
0.5624999999999998
 40
0.5624999999999998
 40
0.59375
 40
0.59375
 40
0.6250000000000001
 40
0.6250000000000001
 40
0.6562500000000003
 40
0.6562500000000003
 40
0.6875000000000006
 40
0.6875000000000006
 40
0.7031250000000007
 40
0.7031250000000007
 40
0.7187500000000007
 40
0.7187500000000007
 40
0.7500000000000003
 40
0.7500000000000003
 40
0.78125
 40
0.78125
 40
0.7968749999999998
 40
0.7968749999999998
 40
0.8124999999999997
 40
0.8124999999999997
 40
0.8437499999999998
 40
0.8437499999999998
 40
0.8749999999999998
 40
0.8749999999999998
 40
0.9062499999999999
 40
0.9062499999999999
 40
0.9375
 40
0.9375
 40
0.96875
 40
0.96875
 40
1.0
 40
1.0
 40
1.03125
 40
1.03125
 10
118.3500912031016
 20
154.2076532651454
 30
0.0
 10
119.0111818286542
 20
154.2076532651454
 30
0.0
 10
119.3361619579058
 20
154.2007551193186
 30
0.0
 10
119.8156353691522
 20
154.1802286913381
 30
0.0
 10
119.974117186993
 20
154.1716724642505
 30
0.0
 10
120.2883367194973
 20
154.1509460890329
 30
0.0
 10
120.4444570031777
 20
154.1387187888265
 30
0.0
 10
120.8985110321343
 20
154.0971494949973
 30
0.0
 10
121.1856144150741
 20
154.0628052098995
 30
0.0
 10
121.7289689711011
 20
153.9794810855772
 30
0.0
 10
121.9860725823067
 20
153.9300428628027
 30
0.0
 10
122.4469788372455
 20
153.8186631330428
 30
0.0
 10
122.6538765464605
 20
153.7563686195307
 30
0.0
 10
123.0194018604527
 20
153.6164389766597
 30
0.0
 10
123.1746073825786
 20
153.5398230789107
 30
0.0
 10
123.4240377691783
 20
153.3758644590549
 30
0.0
 10
123.5201277249635
 20
153.2873076049592
 30
0.0
 10
123.6486465741571
 20
153.0998269228534
 30
0.0
 10
123.6804574443348
 20
153.002590461399
 30
0.0
 10
123.6808140941081
 20
152.8009578220719
 30
0.0
 10
123.6483168419111
 20
152.6954090302338
 30
0.0
 10
123.5206913681966
 20
152.4852942475453
 30
0.0
 10
123.4262629671447
 20
152.3802287395763
 30
0.0
 10
123.2384021471591
 20
152.2233510323252
 30
0.0
 10
123.1675741483559
 20
152.1709172986195
 30
0.0
 10
123.0128522563907
 20
152.0684788529898
 30
0.0
 10
122.9288757862073
 20
152.0183311243379
 30
0.0
 10
122.6575521165628
 20
151.8713151679044
 30
0.0
 10
122.4510028979605
 20
151.77782734747
 30
0.0
 10
121.9843927577715
 20
151.6020404898557
 30
0.0
 10
121.732027188146
 20
151.5226620147719
 30
0.0
 10
121.3261258464673
 20
151.4171795772779
 30
0.0
 10
121.1862252289898
 20
151.3842940124377
 30
0.0
 10
120.8970012937429
 20
151.3233785332091
 30
0.0
 10
120.7471618374536
 20
151.2952979615667
 30
0.0
 10
120.2930452678428
 20
151.2204959195239
 30
0.0
 10
119.981394049106
 20
151.1824578612777
 30
0.0
 10
119.3403975841936
 20
151.1308459347536
 30
0.0
 10
119.0088699562414
 20
151.1175320012321
 30
0.0
 10
118.3560789111699
 20
151.1174349149041
 30
0.0
 10
118.0315427061381
 20
151.1302230000651
 30
0.0
 10
117.3862732567217
 20
151.181713189661
 30
0.0
 10
117.070530250559
 20
151.2202377689811
 30
0.0
 10
116.4686409555753
 20
151.3191403318391
 30
0.0
 10
116.1778917247638
 20
151.3802444297642
 30
0.0
 10
115.6309799330793
 20
151.5220538628749
 30
0.0
 10
115.3792025692424
 20
151.601388347454
 30
0.0
 10
114.9178145766213
 20
151.7747670921156
 30
0.0
 10
114.7065452970232
 20
151.8699270368695
 30
0.0
 10
114.343240944647
 20
152.0664995602454
 30
0.0
 10
114.1894342962042
 20
152.1682557886518
 30
0.0
 10
114.0008148266068
 20
152.3250417514373
 30
0.0
 10
113.9447843403977
 20
152.3782957851873
 30
0.0
 10
113.8492105786615
 20
152.4841003467401
 30
0.0
 10
113.8094476616365
 20
152.5367534110956
 30
0.0
 10
113.7136759113244
 20
152.6938271305548
 30
0.0
 10
113.6809530721983
 20
152.7973521658819
 30
0.0
 10
113.6803244858692
 20
153.001566900109
 30
0.0
 10
113.712510630604
 20
153.0990707376938
 30
0.0
 10
113.8074213324596
 20
153.2383977880454
 30
0.0
 10
113.8468881158585
 20
153.2837145195499
 30
0.0
 10
113.9418181145794
 20
153.3721543405387
 30
0.0
 10
113.9975749423428
 20
153.4154085909987
 30
0.0
 10
114.1855150603127
 20
153.5393000655887
 30
0.0
 10
114.3388765300288
 20
153.6150023563627
 30
0.0
 10
114.7011407649092
 20
153.7542567278209
 30
0.0
 10
114.9119892383751
 20
153.8180185693496
 30
0.0
 10
115.372659208694
 20
153.9295154088175
 30
0.0
 10
115.6240335882779
 20
153.9780414811341
 30
0.0
 10
116.169941475176
 20
154.0620954645146
 30
0.0
 10
116.4607640498272
 20
154.0968940181813
 30
0.0
 10
117.0620906646072
 20
154.1520904829451
 30
0.0
 10
117.3766092492196
 20
154.172908331699
 30
0.0
 10
118.0231907053396
 20
154.2007556646097
 30
0.0
 10
118.3500912031016
 20
154.2076532651454
 30
0.0
 10
119.0111818286542
 20
154.2076532651454
 30
0.0
  0
LINE
  5
CA
330
1F
100
AcDbEntity
  8
0
  6
HIDDEN
 62
     7
370
     0
100
AcDbLine
 10
126.418607495
 20
144.2990667696
 30
0.0
 11
126.418607495
 21
136.6981040087
 31
0.0
  0
LINE
  5
CB
330
1F
100
AcDbEntity
  8
0
  6
HIDDEN
 62
     7
370
     0
100
AcDbLine
 10
90.0940612653
 20
68.6122976464
 30
0.0
 11
89.8241055645
 21
68.5883715471
 31
0.0
  0
SPLINE
  5
CC
330
1F
100
AcDbEntity
  8
0
  6
HIDDEN
 62
     7
370
     0
100
AcDbSpline
210
0.0
220
0.0
230
1.0
 70
     8
 71
     3
 72
    12
 73
     8
 74
     0
 42
0.00000001
 43
0.00000001
 40
0.0
 40
0.0
 40
0.0
 40
0.0
 40
0.1661348616735903
 40
0.3322013257393936
 40
0.5008932044678248
 40
0.752137078264078
 40
1.0
 40
1.0
 40
1.0
 40
1.0
 10
88.19995818152509
 20
142.279408031733
 30
0.0
 10
88.21035080563315
 20
142.2780299076715
 30
0.0
 10
88.2311317752131
 20
142.2752742269214
 30
0.0
 10
88.40443126466002
 20
142.2536708519594
 30
0.0
 10
88.72638285390374
 20
142.2158059000175
 30
0.0
 10
89.24754868982306
 20
142.1554221333014
 30
0.0
 10
89.8131066296608
 20
142.107628996152
 30
0.0
 10
90.09397005334884
 20
142.0838943030586
 30
0.0
  0
SPLINE
  5
CD
330
1F
100
AcDbEntity
  8
0
  6
HIDDEN
 62
     7
370
     0
100
AcDbSpline
210
0.0
220
0.0
230
1.0
 70
     8
 71
     3
 72
    33
 73
    29
 74
     0
 42
0.00000001
 43
0.00000001
 40
0.0
 40
0.0
 40
0.0
 40
0.0
 40
0.0315773698875104
 40
0.0633753287769057
 40
0.0958656851178231
 40
0.1285943208117605
 40
0.1601713694082662
 40
0.2244011681247345
 40
0.2571344568799636
 40
0.2885965627565487
 40
0.3526214070085076
 40
0.3852675959519929
 40
0.4162212184009612
 40
0.4791910353915302
 40
0.5112817741273479
 40
0.5421256322990662
 40
0.6048360558905652
 40
0.6367710793564881
 40
0.6680663384719832
 40
0.7316979547407203
 40
0.7641081282919966
 40
0.7957194290717577
 40
0.8275524266255816
 40
0.8600900250720824
 40
0.8928737620729298
 40
0.9241775068323748
 40
0.9878778414776339
 40
1.0
 40
1.0
 40
1.0
 40
1.0
 10
99.9338421710689
 20
73.98178178792037
 30
0.0
 10
99.84997102406365
 20
73.9956555263021
 30
0.0
 10
99.68164283411971
 20
74.02349992038685
 30
0.0
 10
99.38228823777821
 20
74.06993256061725
 30
0.0
 10
99.04828877051936
 20
74.11854516263809
 30
0.0
 10
98.68251880863207
 20
74.16769309582533
 30
0.0
 10
98.15913889394321
 20
74.23175888141796
 30
0.0
 10
97.58271168534863
 20
74.29154039582309
 30
0.0
 10
96.96757453849708
 20
74.34154000328714
 30
0.0
 10
96.33125881241416
 20
74.38367999597057
 30
0.0
 10
95.66747827497547
 20
74.41231472070858
 30
0.0
 10
94.99541252339235
 20
74.42457417179219
 30
0.0
 10
94.3259639399606
 20
74.42590346290046
 30
0.0
 10
93.66077937284666
 20
74.411042939991
 30
0.0
 10
93.01448813395616
 20
74.38118497560184
 30
0.0
 10
92.38529818309779
 20
74.34244174754055
 30
0.0
 10
91.78558249091851
 20
74.29186351378068
 30
0.0
 10
91.22728292479671
 20
74.23346349931415
 30
0.0
 10
90.69708805440914
 20
74.17114026794464
 30
0.0
 10
90.21792135209755
 20
74.10573169340908
 30
0.0
 10
89.8030033669027
 20
74.0429427898031
 30
0.0
 10
89.52573098297665
 20
73.99843819098173
 30
0.0
 10
89.28417569741548
 20
73.95772924154676
 30
0.0
 10
89.07868369306706
 20
73.92167211089728
 30
0.0
 10
88.91451926932282
 20
73.89191508594492
 30
0.0
 10
88.75508532275754
 20
73.8623297725205
 30
0.0
 10
88.67684709480893
 20
73.84738049351563
 30
0.0
 10
88.68457188515374
 20
73.84885291611684
 30
0.0
 10
88.6858068898232
 20
73.84908832040703
 30
0.0
  0
SPLINE
  5
CE
330
1F
100
AcDbEntity
  8
0
  6
HIDDEN
 62
     7
370
     0
100
AcDbSpline
210
0.0
220
0.0
230
1.0
 70
     8
 71
     3
 72
    32
 73
    28
 74
     0
 42
0.00000001
 43
0.00000001
 40
0.0
 40
0.0
 40
0.0
 40
0.0
 40
0.020356822172105
 40
0.0512207857583794
 40
0.1139954454389432
 40
0.1459779869097674
 40
0.1769364677636727
 40
0.2398766914470389
 40
0.2719275468465721
 40
0.3033698011481659
 40
0.3673099924152954
 40
0.3998847012176188
 40
0.4314690120325909
 40
0.4957360700021212
 40
0.5285028301030422
 40
0.5596434488300034
 40
0.6230067766607702
 40
0.6553079823205556
 40
0.6861132872619372
 40
0.748756262689177
 40
0.7806634244345373
 40
0.8117607067089887
 40
0.8749825776111492
 40
0.9071778073885584
 40
0.9301738434827028
 40
0.9765719131095674
 40
1.0
 40
1.0
 40
1.0
 40
1.0
 10
88.6858068898232
 20
136.8471196969279
 30
0.0
 10
88.68544983791695
 20
136.8471871758547
 30
0.0
 10
88.68455144233045
 20
136.8473569628494
 30
0.0
 10
88.74714518888308
 20
136.8354627216621
 30
0.0
 10
88.88895637034659
 20
136.8088158447424
 30
0.0
 10
89.1130009622221
 20
136.7684337733298
 30
0.0
 10
89.38754307805632
 20
136.7205645315794
 30
0.0
 10
89.73623436706387
 20
136.6630946462996
 30
0.0
 10
90.15251032944128
 20
136.600600099245
 30
0.0
 10
90.61410437630407
 20
136.5360744176057
 30
0.0
 10
91.13764232539923
 20
136.4714940406225
 30
0.0
 10
91.70983979985398
 20
136.4127386757377
 30
0.0
 10
92.31204617030595
 20
136.3593658193555
 30
0.0
 10
92.95327267708743
 20
136.3165032575233
 30
0.0
 10
93.61435799508358
 20
136.2884392115022
 30
0.0
 10
94.28106894953015
 20
136.2708505539625
 30
0.0
 10
94.95495817013708
 20
136.2694039057218
 30
0.0
 10
95.61930765408486
 20
136.2843294448596
 30
0.0
 10
96.27084192824451
 20
136.3093361700833
 30
0.0
 10
96.90150114090052
 20
136.3484402127652
 30
0.0
 10
97.49904011672298
 20
136.3985413705489
 30
0.0
 10
98.07303808467773
 20
136.454712537032
 30
0.0
 10
98.60398779807103
 20
136.5176265657208
 30
0.0
 10
99.04736867933514
 20
136.5777300677744
 30
0.0
 10
99.39888932690877
 20
136.6286197847596
 30
0.0
 10
99.68855683688562
 20
136.6737422612975
 30
0.0
 10
99.87221960128332
 20
136.704205273185
 30
0.0
 10
99.9338421710689
 20
136.7144262294145
 30
0.0
  0
SPLINE
  5
CF
330
1F
100
AcDbEntity
  8
0
  6
HIDDEN
 62
     7
370
     0
100
AcDbSpline
210
0.0
220
0.0
230
1.0
 70
     8
 71
     3
 72
    13
 73
     9
 74
     0
 42
0.00000001
 43
0.00000001
 40
0.0
 40
0.0
 40
0.0
 40
0.0
 40
0.1623836687590154
 40
0.3259036967521354
 40
0.4929930053128654
 40
0.6613109974968223
 40
0.8237250587268701
 40
1.0
 40
1.0
 40
1.0
 40
1.0
 10
99.9338421710689
 20
136.7144262294145
 30
0.0
 10
100.0094316815645
 20
136.7268020018714
 30
0.0
 10
100.1611396771683
 20
136.7516401523129
 30
0.0
 10
100.3440385535641
 20
136.7788984971877
 30
0.0
 10
100.4931008943484
 20
136.8000183567127
 30
0.0
 10
100.5970510935685
 20
136.8140047400812
 30
0.0
 10
100.6723809318752
 20
136.8237974396737
 30
0.0
 10
100.6641522663892
 20
136.8227262500752
 30
0.0
 10
100.6598695541825
 20
136.8221687360073
 30
0.0
  0
SPLINE
  5
D0
330
1F
100
AcDbEntity
  8
0
  6
HIDDEN
 62
     7
370
     0
100
AcDbSpline
210
0.0
220
0.0
230
1.0
 70
     8
 71
     3
 72
    13
 73
     9
 74
     0
 42
0.00000001
 43
0.00000001
 40
0.0
 40
0.0
 40
0.0
 40
0.0
 40
0.1539979175619511
 40
0.3222783140682305
 40
0.4885514651576366
 40
0.6560338488010076
 40
0.8273499398628251
 40
1.0
 40
1.0
 40
1.0
 40
1.0
 10
100.6598700844678
 20
73.87403921272865
 30
0.0
 10
100.6650543904666
 20
73.87336756014611
 30
0.0
 10
100.6759038189743
 20
73.87196196281486
 30
0.0
 10
100.6065646529269
 20
73.88094856117644
 30
0.0
 10
100.5064476873219
 20
73.89436261269547
 30
0.0
 10
100.3599197848275
 20
73.91500317848842
 30
0.0
 10
100.1737059232423
 20
73.94256863469728
 30
0.0
 10
100.01400320808
 20
73.9686769857218
 30
0.0
 10
99.9338421710689
 20
73.98178178792037
 30
0.0
  0
LINE
  5
D1
330
1F
100
AcDbEntity
  8
0
  6
HIDDEN
 62
     7
370
     0
100
AcDbLine
 10
79.6772608429
 20
78.8481040087
 30
0.0
 11
79.6772608429
 21
131.8481040087
 31
0.0
  0
LINE
  5
D2
330
1F
100
AcDbEntity
  8
0
  6
HIDDEN
 62
     7
370
     0
100
AcDbLine
 10
118.9647141342
 20
78.8481040087
 30
0.0
 11
118.9647141342
 21
131.8481040087
 31
0.0
  0
LINE
  5
D3
330
1F
100
AcDbEntity
  8
0
  6
HIDDEN
 62
     7
370
     0
100
AcDbLine
 10
122.1306365159
 20
80.4731040087
 30
0.0
 11
122.1306365159
 21
130.2231039908
 31
0.0
  0
SPLINE
  5
D4
330
1F
100
AcDbEntity
  8
0
  6
HIDDEN
 62
     7
370
     0
100
AcDbSpline
210
0.0
220
0.0
230
1.0
 70
     8
 71
     3
 72
    20
 73
    16
 74
     0
 42
0.00000001
 43
0.00000001
 40
0.0
 40
0.0
 40
0.0
 40
0.0
 40
0.2499999999999978
 40
0.2499999999999978
 40
0.3749999999999982
 40
0.3749999999999982
 40
0.4999999999999986
 40
0.4999999999999986
 40
0.6249999999999989
 40
0.6249999999999989
 40
0.7499999999999992
 40
0.7499999999999992
 40
0.8749999999999997
 40
0.8749999999999997
 40
1.0
 40
1.0
 40
1.0
 40
1.0
 10
69.88063651587787
 20
130.5766176390817
 30
0.0
 10
69.88063651587787
 20
130.4974146525495
 30
0.0
 10
69.83365402066514
 20
130.4163184341465
 30
0.0
 10
69.69583242988756
 20
130.2961217423956
 30
0.0
 10
69.63955014597757
 20
130.2571950383935
 30
0.0
 10
69.50646529451035
 20
130.1820063059692
 30
0.0
 10
69.42862535227728
 20
130.1453641006272
 30
0.0
 10
69.25599299616295
 20
130.0777735677953
 30
0.0
 10
69.16159999907187
 20
130.0468153860197
 30
0.0
 10
68.95616269275673
 20
129.99129096465
 30
0.0
 10
68.84381645276954
 20
129.9665824508168
 30
0.0
 10
68.61157558886991
 20
129.9267862237086
 30
0.0
 10
68.49086494644719
 20
129.9113663863115
 30
0.0
 10
68.23979408717815
 20
129.8902864114719
 30
0.0
 10
68.11027209076236
 20
129.884809166451
 30
0.0
 10
67.98063651587788
 20
129.884809166451
 30
0.0
  0
LINE
  5
D5
330
1F
100
AcDbEntity
  8
0
  6
HIDDEN
 62
     7
370
     0
100
AcDbLine
 10
67.9806365159
 20
129.8848091665
 30
0.0
 11
61.4306365159
 21
129.8848091665
 31
0.0
  0
LINE
  5
D6
330
1F
100
AcDbEntity
  8
0
  6
HIDDEN
 62
     7
370
     0
100
AcDbLine
 10
61.4306365159
 20
80.8113988509
 30
0.0
 11
72.9806365159
 21
80.8113988509
 31
0.0
  0
SPLINE
  5
D7
330
1F
100
AcDbEntity
  8
0
  6
HIDDEN
 62
     7
370
     0
100
AcDbSpline
210
0.0
220
0.0
230
1.0
 70
     8
 71
     3
 72
    18
 73
    14
 74
     0
 42
0.00000001
 43
0.00000001
 40
0.0
 40
0.0
 40
0.0
 40
0.0
 40
0.1249999999999982
 40
0.1249999999999982
 40
0.2499999999999964
 40
0.2499999999999964
 40
0.4999999999999988
 40
0.4999999999999988
 40
0.7500000000000011
 40
0.7500000000000011
 40
0.8750000000000006
 40
0.8750000000000006
 40
1.0
 40
1.0
 40
1.0
 40
1.0
 10
72.98063651587786
 20
80.81139885088392
 30
0.0
 10
73.1101038288351
 20
80.81139885088392
 30
0.0
 10
73.23711457773172
 20
80.80604585229129
 30
0.0
 10
73.48647789892897
 20
80.7853078796025
 30
0.0
 10
73.6101015535574
 20
80.76963597534821
 30
0.0
 10
73.95913389049144
 20
80.70994124694613
 30
0.0
 10
74.16964565529824
 20
80.65217606726513
 30
0.0
 10
74.51356233299775
 20
80.51765422598764
 30
0.0
 10
74.64991273451557
 20
80.43998511248223
 30
0.0
 10
74.7869507910781
 20
80.32069397839489
 30
0.0
 10
74.822169809791
 20
80.27977496925985
 30
0.0
 10
74.86879338672955
 20
80.19911897596982
 30
0.0
 10
74.88063651587788
 20
80.15915045577695
 30
0.0
 10
74.88063651587787
 20
80.11959037825314
 30
0.0
  0
LINE
  5
D8
330
1F
100
AcDbEntity
  8
0
  6
HIDDEN
 62
     7
370
     0
100
AcDbLine
 10
61.4306365159
 20
80.8113988509
 30
0.0
 11
61.4306365159
 21
129.8848091665
 31
0.0
  0
LWPOLYLINE
  5
D9
330
1F
100
AcDbEntity
  8
0
  6
HIDDEN
 62
     7
370
     0
100
AcDbPolyline
 90
       14
 70
   128
 43
0.0
 10
118.6806365159
 20
145.291834572
 10
119.7554887169
 20
145.3393809554
 10
120.7800820237
 20
145.4797968897
 10
121.7065075918
 20
145.7065166817
 10
122.4914467915
 20
146.0089391661
 10
123.0981967381
 20
146.3729234036
 10
123.4983864785
 20
146.7814498956
 10
123.6733035851
 20
147.2154163977
 10
123.6147691286
 20
147.6545311183
 10
123.325520115
 20
148.0782615412
 10
122.8190815067
 20
148.4667945029
 10
122.1191338101
 20
148.8019626337
 10
121.2584058018
 20
149.0680938445
 10
121.1266549843
 20
149.099234388
  0
LWPOLYLINE
  5
DA
330
1F
100
AcDbEntity
  8
0
  6
HIDDEN
 62
     7
370
     0
100
AcDbPolyline
 90
       14
 70
   128
 43
0.0
 10
116.2221250096
 20
149.0963746379
 10
116.10286723
 20
149.0680938445
 10
115.2421392216
 20
148.8019626337
 10
114.5421915251
 20
148.4667945029
 10
114.0357529168
 20
148.0782615412
 10
113.7465039032
 20
147.6545311183
 10
113.6879694466
 20
147.2154163977
 10
113.8628865533
 20
146.7814498956
 10
114.2630762936
 20
146.3729234036
 10
114.8698262402
 20
146.0089391661
 10
115.6547654399
 20
145.7065166817
 10
116.5811910081
 20
145.4797968897
 10
117.6057843148
 20
145.3393809554
 10
118.6806365159
 20
145.291834572
  0
LINE
  5
DB
330
1F
100
AcDbEntity
  8
0
  6
HIDDEN
 62
     7
370
     0
100
AcDbLine
 10
61.4306365159
 20
77.9781040087
 30
0.0
 11
61.4306365159
 21
73.0998188068
 31
0.0
  0
LINE
  5
DC
330
1F
100
AcDbEntity
  8
0
  6
HIDDEN
 62
     7
370
     0
100
AcDbLine
 10
74.8806365159
 20
77.9781040087
 30
0.0
 11
74.8806365159
 21
71.4787707433
 31
0.0
  0
LINE
  5
DD
330
1F
100
AcDbEntity
  8
0
  6
HIDDEN
 62
     7
370
     0
100
AcDbLine
 10
69.8806365159
 20
132.7181040087
 30
0.0
 11
69.8806365159
 21
139.0927127457
 31
0.0
  0
LINE
  5
DE
330
1F
100
AcDbEntity
  8
0
  6
HIDDEN
 62
     7
370
     0
100
AcDbLine
 10
61.4306365159
 20
132.7181040087
 30
0.0
 11
61.4306365159
 21
137.5963892105
 31
0.0
  0
LINE
  5
DF
330
1F
100
AcDbEntity
  8
0
  6
HIDDEN
 62
     7
370
     0
100
AcDbLine
 10
133.9806365159
 20
92.3481040087
 30
0.0
 11
133.9806365159
 21
118.3481040087
 31
0.0
  0
LINE
  5
E0
330
1F
100
AcDbEntity
  8
0
  6
HIDDEN
 62
     7
370
     0
100
AcDbLine
 10
137.9806365159
 20
92.3481040087
 30
0.0
 11
137.9806365159
 21
118.3481040087
 31
0.0
  0
SPLINE
  5
E1
330
1F
100
AcDbEntity
  8
0
  6
HIDDEN
 62
     7
370
     0
100
AcDbSpline
210
0.0
220
0.0
230
1.0
 70
     8
 71
     3
 72
     9
 73
     5
 74
     0
 42
0.00000001
 43
0.00000001
 40
0.0
 40
0.0
 40
0.0
 40
0.0
 40
0.6762853039760367
 40
0.9999999999999999
 40
0.9999999999999999
 40
0.9999999999999999
 40
0.9999999999999999
 10
239.6806365158779
 20
95.21017336012663
 30
0.0
 10
239.6798408512372
 20
95.16732831467421
 30
0.0
 10
239.6786643290859
 20
95.10397480809863
 30
0.0
 10
239.6783467672347
 20
95.10055853427677
 30
0.0
 10
239.6782439677966
 20
95.099452636235
 30
0.0
  0
LINE
  5
E2
330
1F
100
AcDbEntity
  8
0
  6
HIDDEN
 62
     7
370
     0
100
AcDbLine
 10
122.8806365159
 20
94.0981040087
 30
0.0
 11
122.8806365159
 21
116.5981040087
 31
0.0
  0
ELLIPSE
  5
E3
330
1F
100
AcDbEntity
  8
0
  6
HIDDEN
 62
     7
370
     0
100
AcDbEllipse
 10
53.4959633156
 20
105.3481040087
 30
0.0
 11
31.08108570811662
 21
1.421085471520200E-14
 31
0.0
210
0.0
220
0.0
230
1.0
 40
0.8164965809
 41
1.312649268214811
 42
1.367189972061495
  0
ELLIPSE
  5
E4
330
1F
100
AcDbEntity
  8
0
  6
HIDDEN
 62
     7
370
     0
100
AcDbEllipse
 10
53.4959633156
 20
105.3481040087
 30
0.0
 11
31.08108570811662
 21
-1.421085471520200E-14
 31
0.0
210
0.0
220
0.0
230
1.0
 40
0.8164965809
 41
4.915995335118103
 42
4.970536038964788
  0
LINE
  5
E5
330
1F
100
AcDbEntity
  8
0
  6
HIDDEN
 62
     7
370
     0
100
AcDbLine
 10
138.6306365159
 20
61.4481040087
 30
0.0
 11
124.6306365159
 21
61.4481040087
 31
0.0
  0
LINE
  5
E6
330
1F
100
AcDbEntity
  8
0
  6
HIDDEN
 62
     7
370
     0
100
AcDbLine
 10
114.6306365159
 20
55.3581050089
 30
0.0
 11
114.6306365159
 21
61.4481040087
 31
0.0
  0
LINE
  5
E7
330
1F
100
AcDbEntity
  8
0
  6
HIDDEN
 62
     7
370
     0
100
AcDbLine
 10
124.6306365159
 20
61.4481040087
 30
0.0
 11
114.6306365159
 21
61.4481040087
 31
0.0
  0
LINE
  5
E8
330
1F
100
AcDbEntity
  8
0
  6
HIDDEN
 62
     7
370
     0
100
AcDbLine
 10
74.8806365159
 20
77.9781040087
 30
0.0
 11
74.8806365159
 21
80.1195903783
 31
0.0
  0
LINE
  5
E9
330
1F
100
AcDbEntity
  8
0
  6
HIDDEN
 62
     7
370
     0
100
AcDbLine
 10
61.4306365159
 20
77.9781040087
 30
0.0
 11
61.4306365159
 21
80.8113988509
 31
0.0
  0
LINE
  5
EA
330
1F
100
AcDbEntity
  8
0
  6
HIDDEN
 62
     7
370
     0
100
AcDbLine
 10
61.4306365159
 20
132.7181040087
 30
0.0
 11
61.4306365159
 21
129.8848091665
 31
0.0
  0
LINE
  5
EB
330
1F
100
AcDbEntity
  8
0
  6
HIDDEN
 62
     7
370
     0
100
AcDbLine
 10
69.8806365159
 20
132.7181040087
 30
0.0
 11
69.8806365159
 21
130.5766176391
 31
0.0
  0
LINE
  5
EC
330
1F
100
AcDbEntity
  8
0
  6
HIDDEN
 62
     7
370
     0
100
AcDbLine
 10
124.6306365159
 20
149.2481040087
 30
0.0
 11
114.6306365159
 21
149.2481040087
 31
0.0
  0
LINE
  5
ED
330
1F
100
AcDbEntity
  8
0
  6
HIDDEN
 62
     7
370
     0
100
AcDbLine
 10
138.6306365159
 20
149.2481040087
 30
0.0
 11
124.6306365159
 21
149.2481040087
 31
0.0
  0
SPLINE
  5
EE
330
1F
100
AcDbEntity
  8
0
  6
HIDDEN
 62
     7
370
     0
100
AcDbSpline
210
0.0
220
0.0
230
1.0
 70
     8
 71
     3
 72
    30
 73
    26
 74
     0
 42
0.00000001
 43
0.00000001
 40
0.0
 40
0.0
 40
0.0
 40
0.0
 40
0.0531447579710286
 40
0.1125253797131272
 40
0.1779224397116067
 40
0.2129463966942924
 40
0.2494993914504459
 40
0.291265086659374
 40
0.3261073096855474
 40
0.3540223481619386
 40
0.3750075548588426
 40
0.4414649788272059
 40
0.5001823658063147
 40
0.5546968713669163
 40
0.6144408573423134
 40
0.6794659595165392
 40
0.71402283460044
 40
0.7499196792688061
 40
0.7913840357566979
 40
0.826050848459345
 40
0.8539163335767396
 40
0.8749776390184348
 40
0.9411638663008652
 40
0.9999141571670602
 40
1.0
 40
1.0
 40
1.0
 40
1.0
 10
100.6801768052589
 20
68.24817712323555
 30
0.0
 10
100.6639798613894
 20
68.25307773020252
 30
0.0
 10
100.6296854675737
 20
68.26345396825185
 30
0.0
 10
100.3283661048297
 20
68.33910825587112
 30
0.0
 10
99.88619718433523
 20
68.43539458634964
 30
0.0
 10
99.39136452025544
 20
68.53505941428192
 30
0.0
 10
98.9208888306479
 20
68.62733756060871
 30
0.0
 10
98.38996741206648
 20
68.72296959335992
 30
0.0
 10
97.85181690851289
 20
68.80861983644435
 30
0.0
 10
97.39376957452347
 20
68.87591162945219
 30
0.0
 10
96.73820525330008
 20
68.96425979843387
 30
0.0
 10
95.85489881537599
 20
69.06091788267437
 30
0.0
 10
94.7262370826383
 20
69.14769305944046
 30
0.0
 10
93.63647533289875
 20
69.18577175715262
 30
0.0
 10
92.54044705446651
 20
69.18762219191638
 30
0.0
 10
91.6350558075232
 20
69.16146073633122
 30
0.0
 10
90.93875309710808
 20
69.12485351120232
 30
0.0
 10
90.41207336883305
 20
69.08583663572523
 30
0.0
 10
89.9454272538004
 20
69.04362750825332
 30
0.0
 10
89.57421197807659
 20
69.00662341868394
 30
0.0
 10
89.32016550083455
 20
68.97792265823959
 30
0.0
 10
89.01911034812508
 20
68.94154270764975
 30
0.0
 10
88.7636265533221
 20
68.90876254066298
 30
0.0
 10
88.66440582837427
 20
68.89242465595491
 30
0.0
 10
88.68068638565848
 20
68.89501824212759
 30
0.0
 10
88.68071013924443
 20
68.89502202621009
 30
0.0
  0
SPLINE
  5
EF
330
1F
100
AcDbEntity
  8
0
  6
HIDDEN
 62
     7
370
     0
100
AcDbSpline
210
0.0
220
0.0
230
1.0
 70
     8
 71
     3
 72
    30
 73
    26
 74
     0
 42
0.00000001
 43
0.00000001
 40
0.0
 40
0.0
 40
0.0
 40
0.0
 40
0.0001123288057695
 40
0.0285431152663135
 40
0.0588466796063202
 40
0.091027196450477
 40
0.1250880910051604
 40
0.1546766141497773
 40
0.1963554560485685
 40
0.2501101496291966
 40
0.320525387238388
 40
0.3856104300246703
 40
0.445403860889207
 40
0.4999571692316274
 40
0.5283494388508946
 40
0.558634027028705
 40
0.5908185964995195
 40
0.6249094714581434
 40
0.6541844575853767
 40
0.6958630078636641
 40
0.7499307292180327
 40
0.8215905285694356
 40
0.8871422909715975
 40
0.9466378748868088
 40
1.0
 40
1.0
 40
1.0
 40
1.0
 10
88.68073184797774
 20
141.8011157176958
 30
0.0
 10
88.6806999882196
 20
141.801122664822
 30
0.0
 10
88.67260431994873
 20
141.8028879522142
 30
0.0
 10
88.70126579761813
 20
141.7974330334892
 30
0.0
 10
88.77465264377237
 20
141.7868901861431
 30
0.0
 10
88.9183091873231
 20
141.7672049784896
 30
0.0
 10
89.1193448872806
 20
141.7423657146344
 30
0.0
 10
89.40197543654963
 20
141.7081572494956
 30
0.0
 10
89.8153845621243
 20
141.6644773527356
 30
0.0
 10
90.49167206330652
 20
141.6014342852023
 30
0.0
 10
91.43010296422247
 20
141.5401371147696
 30
0.0
 10
92.53959617771837
 20
141.5088486712691
 30
0.0
 10
93.6370769084071
 20
141.5105038388658
 30
0.0
 10
94.5371081468644
 20
141.5418100409631
 30
0.0
 10
95.24844907271533
 20
141.5886431897655
 30
0.0
 10
95.81386597370611
 20
141.6358100516615
 30
0.0
 10
96.40278939653443
 20
141.6952490582115
 30
0.0
 10
96.96719904901194
 20
141.7616062648195
 30
0.0
 10
97.5613952429481
 20
141.843525671251
 30
0.0
 10
98.2280034039186
 20
141.9451736540015
 30
0.0
 10
99.02933614961884
 20
142.0873125646017
 30
0.0
 10
99.78184613412675
 20
142.2385571353681
 30
0.0
 10
100.3271326290929
 20
142.3564080086275
 30
0.0
 10
100.6298541605918
 20
142.4326372403767
 30
0.0
 10
100.6641446112048
 20
142.4430895498713
 30
0.0
 10
100.6803580478548
 20
142.4480316796715
 30
0.0
  0
LINE
  5
F0
330
1F
100
AcDbEntity
  8
0
  6
HIDDEN
 62
     7
370
     0
100
AcDbLine
 10
236.1806365159
 20
99.3481040087
 30
0.0
 11
236.1806365159
 21
111.3481040087
 31
0.0
  0
SPLINE
  5
F1
330
1F
100
AcDbEntity
  8
0
  6
HIDDEN
 62
     7
370
     0
100
AcDbSpline
210
0.0
220
0.0
230
1.0
 70
     8
 71
     3
 72
    17
 73
    13
 74
     0
 42
0.00000001
 43
0.00000001
 40
0.0
 40
0.0
 40
0.0
 40
0.0
 40
0.1037687820445035
 40
0.2106024128740476
 40
0.3143559180242058
 40
0.421018635576496
 40
0.5266328029869415
 40
0.635230961053045
 40
0.7420769577904224
 40
0.8521325120066471
 40
0.9569843285680544
 40
1.0
 40
1.0
 40
1.0
 40
1.0
 10
195.1806365158779
 20
111.4669274249788
 30
0.0
 10
195.2624314767347
 20
111.4678853929863
 30
0.0
 10
195.4284372424185
 20
111.4698296229354
 30
0.0
 10
195.6691592580261
 20
111.4850191998371
 30
0.0
 10
195.8979881284091
 20
111.5075248065399
 30
0.0
 10
196.1060037846038
 20
111.5354894108558
 30
0.0
 10
196.2913122857949
 20
111.5661583499039
 30
0.0
 10
196.4455879513923
 20
111.5958269129548
 30
0.0
 10
196.566745951754
 20
111.6217157022272
 30
0.0
 10
196.6444130405651
 20
111.6394914976819
 30
0.0
 10
196.6812452021219
 20
111.6482478151512
 30
0.0
 10
196.6767385507127
 20
111.6471775166009
 30
0.0
 10
196.6754275347557
 20
111.6468661593755
 30
0.0
  0
LINE
  5
F2
330
1F
100
AcDbEntity
  8
0
  6
HIDDEN
 62
     7
370
     0
100
AcDbLine
 10
195.2810195525
 20
111.468930044
 30
0.0
 11
195.1543823099
 21
111.4673666577
 31
0.0
  0
SPLINE
  5
F3
330
1F
100
AcDbEntity
  8
0
  6
HIDDEN
 62
     7
370
     0
100
AcDbSpline
210
0.0
220
0.0
230
1.0
 70
     8
 71
     3
 72
    17
 73
    13
 74
     0
 42
0.00000001
 43
0.00000001
 40
0.0
 40
0.0
 40
0.0
 40
0.0
 40
0.0821226100939133
 40
0.1885270672755707
 40
0.2915213507943811
 40
0.3973795741053673
 40
0.5026494428257589
 40
0.6108736476404988
 40
0.7177583927958938
 40
0.8278323811871101
 40
0.9130821217881797
 40
1.0
 40
1.0
 40
1.0
 40
1.0
 10
193.6838854341491
 20
111.6473329289525
 30
0.0
 10
193.6850186028302
 20
111.6470602246263
 30
0.0
 10
193.6876199932139
 20
111.6464341833109
 30
0.0
 10
193.7398435366942
 20
111.6341368509296
 30
0.0
 10
193.8306140999289
 20
111.6137957799748
 30
0.0
 10
193.9583297978503
 20
111.5872760837709
 30
0.0
 10
194.1211920327235
 20
111.5571406820336
 30
0.0
 10
194.3142395212204
 20
111.5268312522055
 30
0.0
 10
194.5351353104263
 20
111.4994143116424
 30
0.0
 10
194.7584750333233
 20
111.4802232963897
 30
0.0
 10
194.9764713562339
 20
111.4689213719674
 30
0.0
 10
195.1121432860954
 20
111.4675963533576
 30
0.0
 10
195.1806365158779
 20
111.4669274249788
 30
0.0
  0
SPLINE
  5
F4
330
1F
100
AcDbEntity
  8
0
  6
HIDDEN
 62
     7
370
     0
100
AcDbSpline
210
0.0
220
0.0
230
1.0
 70
     8
 71
     3
 72
    26
 73
    22
 74
     0
 42
0.00000001
 43
0.00000001
 40
0.0
 40
0.0
 40
0.0
 40
0.0
 40
0.0519111261485144
 40
0.1053531762961745
 40
0.1572573064982299
 40
0.2106199625145117
 40
0.2633999566746217
 40
0.3176692172864107
 40
0.3711038661191944
 40
0.4261427701719372
 40
0.4785856815712758
 40
0.5326182109985009
 40
0.5839595099027806
 40
0.6367655693078478
 40
0.6886125762382526
 40
0.7418897763437655
 40
0.7950462581831141
 40
0.8497328180665601
 40
0.9029973160868535
 40
0.9578785649270091
 40
1.0
 40
1.0
 40
1.0
 40
1.0
 10
196.6806365158779
 20
99.04810400866744
 30
0.0
 10
196.676752522157
 20
99.04903453005446
 30
0.0
 10
196.6688699908854
 20
99.05092301506734
 30
0.0
 10
196.6055556131995
 20
99.0657241387706
 30
0.0
 10
196.5056935637107
 20
99.08779582224867
 30
0.0
 10
196.3696201205077
 20
99.11543946662582
 30
0.0
 10
196.1989577691552
 20
99.14601934884837
 30
0.0
 10
195.9995312727971
 20
99.17593448070721
 30
0.0
 10
195.7735424004829
 20
99.20211402465831
 30
0.0
 10
195.5323788659552
 20
99.22084945697814
 30
0.0
 10
195.2799057190264
 20
99.23021112869475
 30
0.0
 10
195.0301449823718
 20
99.22911791307045
 30
0.0
 10
194.7844079193225
 20
99.21800287463654
 30
0.0
 10
194.5530930582132
 20
99.19853894866655
 30
0.0
 10
194.3365470459845
 20
99.17245318116558
 30
0.0
 10
194.142680870212
 20
99.14272781798438
 30
0.0
 10
193.9744596490425
 20
99.1121290018044
 30
0.0
 10
193.8398008149681
 20
99.08442377667453
 30
0.0
 10
193.7433036557024
 20
99.06288010842684
 30
0.0
 10
193.6881113289418
 20
99.04989148549517
 30
0.0
 10
193.6850657381002
 20
99.04915917475367
 30
0.0
 10
193.6837432524563
 20
99.0488411837651
 30
0.0
  0
LINE
  5
F5
330
1F
100
AcDbEntity
  8
0
  6
HIDDEN
 62
     7
370
     0
100
AcDbLine
 10
193.1806365159
 20
99.4481040087
 30
0.0
 11
193.1806365159
 21
111.2481039035
 31
0.0
  0
LINE
  5
F6
330
1F
100
AcDbEntity
  8
0
  6
HIDDEN
 62
     7
370
     0
100
AcDbLine
 10
203.6806365159
 20
99.3481040087
 30
0.0
 11
203.6806365159
 21
111.3481040087
 31
0.0
  0
LINE
  5
F7
330
1F
100
AcDbEntity
  8
0
  6
HIDDEN
 62
     7
370
     0
100
AcDbLine
 10
172.2793455873
 20
99.3481040087
 30
0.0
 11
172.2793455873
 21
111.3481040087
 31
0.0
  0
LINE
  5
F8
330
1F
100
AcDbEntity
  8
0
  6
HIDDEN
 62
     7
370
     0
100
AcDbLine
 10
173.1806365159
 20
100.8481040087
 30
0.0
 11
173.1806365159
 21
109.8481040087
 31
0.0
  0
LINE
  5
F9
330
1F
100
AcDbEntity
  8
0
  6
HIDDEN
 62
     7
370
     0
100
AcDbLine
 10
151.6306365159
 20
121.7707537395
 30
0.0
 11
154.1306365159
 21
121.7707537395
 31
0.0
  0
LINE
  5
FA
330
1F
100
AcDbEntity
  8
0
  6
HIDDEN
 62
     7
370
     0
100
AcDbLine
 10
149.1306365159
 20
121.7707537395
 30
0.0
 11
151.6306365159
 21
121.7707537395
 31
0.0
  0
LINE
  5
FB
330
1F
100
AcDbEntity
  8
0
  6
HIDDEN
 62
     7
370
     0
100
AcDbLine
 10
154.1306365159
 20
88.9254542779
 30
0.0
 11
149.1306365159
 21
88.9254542779
 31
0.0
  0
LINE
  5
FC
330
1F
100
AcDbEntity
  8
0
  6
HIDDEN
 62
     7
370
     0
100
AcDbLine
 10
151.6306365159
 20
114.3481040087
 30
0.0
 11
154.1306365159
 21
114.3481040087
 31
0.0
  0
LINE
  5
FD
330
1F
100
AcDbEntity
  8
0
  6
HIDDEN
 62
     7
370
     0
100
AcDbLine
 10
149.1306365159
 20
114.3481040087
 30
0.0
 11
151.6306365159
 21
114.3481040087
 31
0.0
  0
LINE
  5
FE
330
1F
100
AcDbEntity
  8
0
  6
HIDDEN
 62
     7
370
     0
100
AcDbLine
 10
154.1306365159
 20
96.3481040087
 30
0.0
 11
149.1306365159
 21
96.3481040087
 31
0.0
  0
SPLINE
  5
FF
330
1F
100
AcDbEntity
  8
0
  6
HIDDEN
 62
     7
370
     0
100
AcDbSpline
210
0.0
220
0.0
230
1.0
 70
     8
 71
     3
 72
    36
 73
    32
 74
     0
 42
0.00000001
 43
0.00000001
 40
0.0
 40
0.0
 40
0.0
 40
0.0
 40
0.0412142186759406
 40
0.0838358591896784
 40
0.1250115790082936
 40
0.1671937345915916
 40
0.1957202523930291
 40
0.2244664419833798
 40
0.2538260104882981
 40
0.2833688191076283
 40
0.3125743130236919
 40
0.3419428125961503
 40
0.3718585396618617
 40
0.4020029235047969
 40
0.4347048723037592
 40
0.468051942076887
 40
0.5008347332919677
 40
0.5349286611035313
 40
0.5631358069580675
 40
0.5919441004063452
 40
0.641463134081197
 40
0.6923057327450085
 40
0.7449861070698227
 40
0.7987947992598626
 40
0.846387236216546
 40
0.8952224028960368
 40
0.9189772193187639
 40
0.942942535906355
 40
0.9676281180500841
 40
0.992585265649583
 40
1.0
 40
1.0
 40
1.0
 40
1.0
 10
196.6806365158779
 20
114.7866141617435
 30
0.0
 10
196.6786949829369
 20
114.7890187426566
 30
0.0
 10
196.6747456157651
 20
114.7939100183697
 30
0.0
 10
196.6436509773569
 20
114.8326335163374
 30
0.0
 10
196.5966401533919
 20
114.8919264502409
 30
0.0
 10
196.5423136120378
 20
114.9617596373312
 30
0.0
 10
196.4873041506959
 20
115.0342337571005
 30
0.0
 10
196.4356105479851
 20
115.1040395492928
 30
0.0
 10
196.3805390718072
 20
115.1808122455637
 30
0.0
 10
196.323455633693
 20
115.2637634722211
 30
0.0
 10
196.2658117682564
 20
115.3521813915928
 30
0.0
 10
196.2086533116719
 20
115.446341929291
 30
0.0
 10
196.1532230854255
 20
115.5470898616663
 30
0.0
 10
196.100378368512
 20
115.6577343560708
 30
0.0
 10
196.0538304017705
 20
115.7794920463017
 30
0.0
 10
196.0199752528371
 20
115.912063046383
 30
0.0
 10
196.0058416130765
 20
116.0520359246899
 30
0.0
 10
196.0153773655344
 20
116.1854804458329
 30
0.0
 10
196.043199666795
 20
116.3088210558435
 30
0.0
 10
196.0912125727753
 20
116.4459303969289
 30
0.0
 10
196.1672595043457
 20
116.5992975735887
 30
0.0
 10
196.268680320289
 20
116.7622837824122
 30
0.0
 10
196.3748128618116
 20
116.9116062540494
 30
0.0
 10
196.4730367681864
 20
117.0388001202268
 30
0.0
 10
196.5571099001704
 20
117.1424576439829
 30
0.0
 10
196.6112970726778
 20
117.2072019039951
 30
0.0
 10
196.6440913150105
 20
117.2458778472622
 30
0.0
 10
196.6631638524224
 20
117.2682058345153
 30
0.0
 10
196.6751296015919
 20
117.2821459482543
 30
0.0
 10
196.6817438912624
 20
117.289830747992
 30
0.0
 10
196.6796693989587
 20
117.2874187573177
 30
0.0
 10
196.6791942393937
 20
117.2868662942223
 30
0.0
  0
SPLINE
  5
100
330
1F
100
AcDbEntity
  8
0
  6
HIDDEN
 62
     7
370
     0
100
AcDbSpline
210
0.0
220
0.0
230
1.0
 70
     8
 71
     3
 72
    10
 73
     6
 74
     0
 42
0.00000001
 43
0.00000001
 40
0.0
 40
0.0
 40
0.0
 40
0.0
 40
0.3026314160090692
 40
0.758835720361751
 40
1.0
 40
1.0
 40
1.0
 40
1.0
 10
193.684165366887
 20
117.2751126625198
 30
0.0
 10
193.6842518561731
 20
117.2751421372536
 30
0.0
 10
193.6844687244695
 20
117.2752160439257
 30
0.0
 10
193.7154461439347
 20
117.2837316235836
 30
0.0
 10
193.7495363432174
 20
117.2996077015012
 30
0.0
 10
193.7613254294215
 20
117.3050979730482
 30
0.0
  0
SPLINE
  5
101
330
1F
100
AcDbEntity
  8
0
  6
HIDDEN
 62
     7
370
     0
100
AcDbSpline
210
0.0
220
0.0
230
1.0
 70
     8
 71
     3
 72
    28
 73
    24
 74
     0
 42
0.00000001
 43
0.00000001
 40
0.0
 40
0.0
 40
0.0
 40
0.0
 40
0.0009226336076469
 40
0.0497723604002602
 40
0.0941872649949634
 40
0.1397247581105679
 40
0.1876965976085102
 40
0.2366559380810155
 40
0.2940345438250738
 40
0.3525705444223897
 40
0.4083427951638356
 40
0.4653815754031679
 40
0.5004134615344926
 40
0.5362690999382341
 40
0.5713704329915585
 40
0.6077333217655834
 40
0.650025793800677
 40
0.6934941368969365
 40
0.7617653176675528
 40
0.8319032389476028
 40
0.9025101008984102
 40
0.9755069217527162
 40
0.9999999999999999
 40
0.9999999999999999
 40
0.9999999999999999
 40
0.9999999999999999
 10
193.6808294063318
 20
114.9047088770545
 30
0.0
 10
193.6807652649358
 20
114.9046342591697
 30
0.0
 10
193.6773050954283
 20
114.9006089253612
 30
0.0
 10
193.689398846386
 20
114.9146518460898
 30
0.0
 10
193.7171414169757
 20
114.9470532296729
 30
0.0
 10
193.762896049474
 20
115.0011249646381
 30
0.0
 10
193.8236725988234
 20
115.0744059688838
 30
0.0
 10
193.9017460687938
 20
115.1714567447924
 30
0.0
 10
193.9947833865359
 20
115.2927995333688
 30
0.0
 10
194.096633133189
 20
115.4369519634554
 30
0.0
 10
194.1961734333332
 20
115.5977496605363
 30
0.0
 10
194.2725033293883
 20
115.7522447065365
 30
0.0
 10
194.3223191194969
 20
115.8974972954038
 30
0.0
 10
194.3482901059085
 20
116.0245922146564
 30
0.0
 10
194.3545426938696
 20
116.1570314533537
 30
0.0
 10
194.3387227187009
 20
116.2963245892092
 30
0.0
 10
194.2995245108754
 20
116.4394633510046
 30
0.0
 10
194.2298606970654
 20
116.6079986528599
 30
0.0
 10
194.1299228197836
 20
116.7893048884839
 30
0.0
 10
194.0085073780475
 20
116.9745215652594
 30
0.0
 10
193.889876192997
 20
117.1386799554954
 30
0.0
 10
193.8080826469949
 20
117.2454351971418
 30
0.0
 10
193.7707138556883
 20
117.2931182274272
 30
0.0
 10
193.7613254294215
 20
117.3050979730482
 30
0.0
  0
LINE
  5
102
330
1F
100
AcDbEntity
  8
0
  6
HIDDEN
 62
     7
370
     0
100
AcDbLine
 10
196.6806365159
 20
117.3481040087
 30
0.0
 11
193.6806365159
 21
117.3481040087
 31
0.0
  0
LWPOLYLINE
  5
103
330
1F
100
AcDbEntity
  8
0
  6
HIDDEN
 62
     7
370
     0
100
AcDbPolyline
 90
       15
 70
   128
 43
0.0
 10
196.6774173333
 20
93.4114217369
 10
196.6482194514
 20
93.445512836
 10
196.5515149912
 20
93.5610144006
 10
196.3510775324
 20
93.8189490889
 10
196.1313244048
 20
94.171599372
 10
196.0343010472
 20
94.4299940746
 10
196.0105991641
 20
94.668910437
 10
196.0525721281
 20
94.9039231526
 10
196.203286598
 20
95.2389288023
 10
196.3286197724
 20
95.4393668545
 10
196.4544186355
 20
95.6174521339
 10
196.606036287
 20
95.8160171339
 10
196.6735468443
 20
95.9007922177
 10
196.6806365159
 20
95.9095938556
 10
196.6806365159
 20
95.9095938556
  0
LINE
  5
104
330
1F
100
AcDbEntity
  8
0
  6
HIDDEN
 62
     7
370
     0
100
AcDbLine
 10
195.1806365159
 20
93.3481040087
 30
0.0
 11
196.6806365159
 21
93.3481040087
 31
0.0
  0
LINE
  5
105
330
1F
100
AcDbEntity
  8
0
  6
HIDDEN
 62
     7
370
     0
100
AcDbLine
 10
193.6806365159
 20
93.3481040087
 30
0.0
 11
195.1806365159
 21
93.3481040087
 31
0.0
  0
SPLINE
  5
106
330
1F
100
AcDbEntity
  8
0
  6
HIDDEN
 62
     7
370
     0
100
AcDbSpline
210
0.0
220
0.0
230
1.0
 70
     8
 71
     3
 72
     9
 73
     5
 74
     0
 42
0.00000001
 43
0.00000001
 40
0.0
 40
0.0
 40
0.0
 40
0.0
 40
0.8578782661611555
 40
1.0
 40
1.0
 40
1.0
 40
1.0
 10
193.7613254294215
 20
93.3911100442867
 30
0.0
 10
193.717543645715
 20
93.40771039442085
 30
0.0
 10
193.6665086848896
 20
93.42706086731302
 30
0.0
 10
193.6865644987681
 20
93.42019249066233
 30
0.0
 10
193.6894148658101
 20
93.41921634506407
 30
0.0
  0
SPLINE
  5
107
330
1F
100
AcDbEntity
  8
0
  6
HIDDEN
 62
     7
370
     0
100
AcDbSpline
210
0.0
220
0.0
230
1.0
 70
     8
 71
     3
 72
    26
 73
    22
 74
     0
 42
0.00000001
 43
0.00000001
 40
0.0
 40
0.0
 40
0.0
 40
0.0
 40
0.0621414425335798
 40
0.12637915477062
 40
0.1883973073355949
 40
0.2516910112799706
 40
0.3019186141872319
 40
0.3531168608029329
 40
0.3877513465274328
 40
0.4232409516439943
 40
0.4579380902054538
 40
0.4938371704945413
 40
0.5373939267941807
 40
0.5821512230818735
 40
0.6494245966400132
 40
0.718583266086679
 40
0.7869932854978295
 40
0.8578672733760523
 40
0.9051082661485944
 40
0.9536395479215348
 40
1.0
 40
1.0
 40
1.0
 40
1.0
 10
193.7613254294215
 20
93.39111004428666
 30
0.0
 10
193.786518295351
 20
93.42336180406132
 30
0.0
 10
193.8377538794091
 20
93.48895329943066
 30
0.0
 10
193.9373454044016
 20
93.62216828230167
 30
0.0
 10
194.0447793028514
 20
93.77540097356868
 30
0.0
 10
194.1462545269203
 20
93.93567997969544
 30
0.0
 10
194.2350635559786
 20
94.10095586900144
 30
0.0
 10
194.2972481005029
 20
94.24978017893945
 30
0.0
 10
194.3361991601966
 20
94.39159549686535
 30
0.0
 10
194.3534835735288
 20
94.51939511262097
 30
0.0
 10
194.3506995369598
 20
94.65045206084565
 30
0.0
 10
194.325993362957
 20
94.78827571948409
 30
0.0
 10
194.2778931329358
 20
94.92989151302012
 30
0.0
 10
194.1993464968624
 20
95.09335276967474
 30
0.0
 10
194.0938573686526
 20
95.26472090214321
 30
0.0
 10
193.9722576802092
 20
95.43420841347414
 30
0.0
 10
193.857636801982
 20
95.58059739365247
 30
0.0
 10
193.772314310625
 20
95.68392911224333
 30
0.0
 10
193.7173508162025
 20
95.74893068117193
 30
0.0
 10
193.6863609549404
 20
95.78508335796826
 30
0.0
 10
193.6826449187255
 20
95.78939341309135
 30
0.0
 10
193.6808294063318
 20
95.79149914028041
 30
0.0
  0
SPLINE
  5
108
330
1F
100
AcDbEntity
  8
0
  6
HIDDEN
 62
     7
370
     0
100
AcDbSpline
210
0.0
220
0.0
230
1.0
 70
    27
 71
     3
 72
     8
 73
     4
 74
     0
 42
0.00000001
 43
0.00000001
 40
0.0
 40
0.0
 40
0.0
 40
0.0
 40
1.0
 40
1.0
 40
1.0
 40
1.0
 10
193.7648088350665
 20
93.30245145029595
 30
0.0
 10
193.75927658316
 20
93.29921095675101
 30
0.0
 10
193.75927658316
 20
93.29921095675101
 30
0.0
 10
193.7648088350665
 20
93.30245145029595
 30
0.0
  0
SPLINE
  5
109
330
1F
100
AcDbEntity
  8
0
  6
HIDDEN
 62
     7
370
     0
100
AcDbSpline
210
0.0
220
0.0
230
1.0
 70
    27
 71
     3
 72
     8
 73
     4
 74
     0
 42
0.00000001
 43
0.00000001
 40
0.0
 40
0.0
 40
0.0
 40
0.0
 40
1.0
 40
1.0
 40
1.0
 40
1.0
 10
193.7648088350665
 20
93.3024514502959
 30
0.0
 10
193.7740787861547
 20
93.29043999147513
 30
0.0
 10
193.7740685801404
 20
93.29045321582983
 30
0.0
 10
193.7648088350665
 20
93.30245145029593
 30
0.0
  0
LINE
  5
10A
330
1F
100
AcDbEntity
  8
0
  6
HIDDEN
 62
     7
370
     0
100
AcDbLine
 10
193.6670260791
 20
114.9050192383
 30
0.0
 11
193.7613254294
 21
117.305097973
 31
0.0
  0
LINE
  5
10B
330
1F
100
AcDbEntity
  8
0
  6
HIDDEN
 62
     7
370
     0
100
AcDbLine
 10
193.6670260791
 20
95.7911887791
 30
0.0
 11
193.7613254294
 21
93.3911100443
 31
0.0
  0
LINE
  5
10C
330
1F
100
AcDbEntity
  8
0
  6
HIDDEN
 62
     7
370
     0
100
AcDbLine
 10
193.7648088351
 20
93.3024514503
 30
0.0
 11
193.7651756185
 21
93.2931161884
 31
0.0
  0
LWPOLYLINE
  5
10D
330
1F
100
AcDbEntity
  8
0
  6
HIDDEN
 62
     7
370
     0
100
AcDbPolyline
 90
       30
 70
   128
 43
0.0
 10
118.6806365159
 20
150.6608098604
 10
119.7554887169
 20
150.6246866324
 10
120.7800820237
 20
150.5180060303
 10
121.7065075918
 20
150.3457563206
 10
122.4914467915
 20
150.1159917082
 10
123.0981967381
 20
149.839455731
 10
123.4983864785
 20
149.529078904
 10
123.6733035851
 20
149.1993741026
 10
123.6147691286
 20
148.865757957
 10
123.325520115
 20
148.5438299872
 10
122.8190815067
 20
148.2486431875
 10
122.1191338101
 20
147.9940001644
 10
121.2584058018
 20
147.7918077426
 10
120.2771441666
 20
147.6515202152
 10
119.221231608
 20
147.579697271
 10
118.1400414238
 20
147.579697271
 10
117.0841288652
 20
147.6515202152
 10
116.10286723
 20
147.7918077426
 10
115.2421392216
 20
147.9940001644
 10
114.5421915251
 20
148.2486431875
 10
114.0357529168
 20
148.5438299872
 10
113.7465039032
 20
148.865757957
 10
113.6879694466
 20
149.1993741026
 10
113.8628865533
 20
149.529078904
 10
114.2630762936
 20
149.839455731
 10
114.8698262402
 20
150.1159917082
 10
115.6547654399
 20
150.3457563206
 10
116.5811910081
 20
150.5180060303
 10
117.6057843148
 20
150.6246866324
 10
118.6806365159
 20
150.6608098604
  0
LINE
  5
10E
330
1F
100
AcDbEntity
  8
0
  6
HIDDEN
 62
     7
370
     0
100
AcDbLine
 10
132.9426655368
 20
144.2990667696
 30
0.0
 11
132.9426655368
 21
136.6981040087
 31
0.0
  0
LINE
  5
10F
330
1F
100
AcDbEntity
  8
0
  6
HIDDEN
 62
     7
370
     0
100
AcDbLine
 10
131.5906365159
 20
140.0623392012
 30
0.0
 11
131.5906365159
 21
136.6981040087
 31
0.0
  0
LINE
  5
110
330
1F
100
AcDbEntity
  8
0
  6
HIDDEN
 62
     7
370
     0
100
AcDbLine
 10
127.7706365159
 20
140.0623392012
 30
0.0
 11
127.7706365159
 21
136.6981040087
 31
0.0
  0
CIRCLE
  5
111
330
1F
100
AcDbEntity
  8
0
  6
HIDDEN
 62
     7
370
     0
100
AcDbCircle
 10
116.6806365159
 20
105.3481040087
 30
0.0
 40
5.0
  0
LINE
  5
112
330
1F
100
AcDbEntity
  8
0
  6
HIDDEN
 62
     7
370
     0
100
AcDbLine
 10
239.5403697553
 20
115.6536554944
 30
0.0
 11
239.430480035
 21
112.8567753457
 31
0.0
  0
LINE
  5
113
330
1F
100
AcDbEntity
  8
0
  6
HIDDEN
 62
     7
370
     0
100
AcDbLine
 10
239.5482594823
 20
115.8544624544
 30
0.0
 11
239.5403697553
 21
115.6536554944
 31
0.0
  0
LINE
  5
114
330
1F
100
AcDbEntity
  8
0
  6
HIDDEN
 62
     7
370
     0
100
AcDbLine
 10
234.2064319514
 20
115.8632264815
 30
0.0
 11
234.0965422311
 21
113.0663463328
 31
0.0
  0
LINE
  5
115
330
1F
100
AcDbEntity
  8
0
  6
HIDDEN
 62
     7
370
     0
100
AcDbLine
 10
234.2143216784
 20
116.0640334415
 30
0.0
 11
234.2064319514
 21
115.8632264815
 31
0.0
  0
LINE
  5
116
330
1F
100
AcDbEntity
  8
0
  6
HIDDEN
 62
     7
370
     0
100
AcDbLine
 10
239.6806365159
 20
115.0986826776
 30
0.0
 11
239.6033143087
 21
113.1307010907
 31
0.0
  0
LINE
  5
117
330
1F
100
AcDbEntity
  8
0
  6
HIDDEN
 62
     7
370
     0
100
AcDbLine
 10
233.6898174344
 20
115.4501775246
 30
0.0
 11
233.6165576209
 21
113.5855907588
 31
0.0
  0
LINE
  5
118
330
1F
100
AcDbEntity
  8
0
  6
HIDDEN
 62
     7
370
     0
100
AcDbLine
 10
233.6950772524
 20
115.5840488312
 30
0.0
 11
233.6898174344
 21
115.4501775246
 31
0.0
  0
LINE
  5
119
330
1F
100
AcDbEntity
  8
0
  6
HIDDEN
 62
     7
370
     0
100
AcDbLine
 10
237.6527335816
 20
114.427780532
 30
0.0
 11
237.6821784434
 21
115.1772023091
 31
0.0
  0
LINE
  5
11A
330
1F
100
AcDbEntity
  8
0
  6
HIDDEN
 62
     7
370
     0
100
AcDbLine
 10
237.6527335816
 20
114.427780532
 30
0.0
 11
237.6232887198
 21
113.6783587548
 31
0.0
  0
LINE
  5
11B
330
1F
100
AcDbEntity
  8
0
  6
HIDDEN
 62
     7
370
     0
100
AcDbLine
 10
237.6527335816
 20
114.427780532
 30
0.0
 11
239.6511916541
 21
114.3492609004
 31
0.0
  0
LINE
  5
11C
330
1F
100
AcDbEntity
  8
0
  6
HIDDEN
 62
     7
370
     0
100
AcDbLine
 10
237.6232887198
 20
113.6783587548
 30
0.0
 11
239.6217467922
 21
113.5998391233
 31
0.0
  0
LINE
  5
11D
330
1F
100
AcDbEntity
  8
0
  6
HIDDEN
 62
     7
370
     0
100
AcDbLine
 10
237.6821784434
 20
115.1772023091
 30
0.0
 11
239.6806365159
 21
115.0986826776
 31
0.0
  0
LINE
  5
11E
330
1F
100
AcDbEntity
  8
0
  6
HIDDEN
 62
     7
370
     0
100
AcDbLine
 10
239.6622040324
 20
97.5678207101
 30
0.0
 11
239.6806365159
 21
97.0986826776
 31
0.0
  0
LINE
  5
11F
330
1F
100
AcDbEntity
  8
0
  6
HIDDEN
 62
     7
370
     0
100
AcDbLine
 10
239.4893697586
 20
97.8417464552
 30
0.0
 11
239.6071492059
 21
94.8440593465
 31
0.0
  0
LINE
  5
120
330
1F
100
AcDbEntity
  8
0
  6
HIDDEN
 62
     7
370
     0
100
AcDbLine
 10
234.1554319547
 20
97.6321754681
 30
0.0
 11
234.273211402
 21
94.6344883594
 31
0.0
  0
LINE
  5
121
330
1F
100
AcDbEntity
  8
0
  6
HIDDEN
 62
     7
370
     0
100
AcDbLine
 10
233.6754473445
 20
97.1129310421
 30
0.0
 11
233.753966976
 21
95.1144729696
 31
0.0
  0
LINE
  5
122
330
1F
100
AcDbEntity
  8
0
  6
HIDDEN
 62
     7
370
     0
100
AcDbLine
 10
237.7116233052
 20
96.2707412689
 30
0.0
 11
237.6821784434
 21
97.0201630461
 31
0.0
  0
LINE
  5
123
330
1F
100
AcDbEntity
  8
0
  6
HIDDEN
 62
     7
370
     0
100
AcDbLine
 10
237.741068167
 20
95.5213194917
 30
0.0
 11
237.7116233052
 21
96.2707412689
 31
0.0
  0
LINE
  5
124
330
1F
100
AcDbEntity
  8
0
  6
HIDDEN
 62
     7
370
     0
100
AcDbLine
 10
237.7116233052
 20
96.2707412689
 30
0.0
 11
239.7100813777
 21
96.3492609004
 31
0.0
  0
LINE
  5
125
330
1F
100
AcDbEntity
  8
0
  6
HIDDEN
 62
     7
370
     0
100
AcDbLine
 10
237.6821784434
 20
97.0201630461
 30
0.0
 11
239.6806365159
 21
97.0986826776
 31
0.0
  0
LINE
  5
126
330
1F
100
AcDbEntity
  8
0
  6
HIDDEN
 62
     7
370
     0
100
AcDbLine
 10
237.741068167
 20
95.5213194917
 30
0.0
 11
239.7395262395
 21
95.5998391233
 31
0.0
  0
LINE
  5
127
330
1F
100
AcDbEntity
  8
0
  6
HIDDEN
 62
     7
370
     0
100
AcDbLine
 10
192.6806365159
 20
100.3481040087
 30
0.0
 11
192.6806365159
 21
110.3481040087
 31
0.0
  0
LINE
  5
128
330
1F
100
AcDbEntity
  8
0
  6
HIDDEN
 62
     7
370
     0
100
AcDbLine
 10
177.1806365159
 20
100.3481040087
 30
0.0
 11
177.1806365159
 21
110.3481040087
 31
0.0
  0
LINE
  5
129
330
1F
100
AcDbEntity
  8
0
  6
HIDDEN
 62
     7
370
     0
100
AcDbLine
 10
176.6806365159
 20
100.8481040087
 30
0.0
 11
176.6806365159
 21
109.8481040087
 31
0.0
  0
LINE
  5
12A
330
1F
100
AcDbEntity
  8
0
  6
HIDDEN
 62
     7
370
     0
100
AcDbLine
 10
196.6806365159
 20
104.3481040087
 30
0.0
 11
194.6806365159
 21
104.3481040087
 31
0.0
  0
LINE
  5
12B
330
1F
100
AcDbEntity
  8
0
  6
HIDDEN
 62
     7
370
     0
100
AcDbLine
 10
196.6806365159
 20
100.8481040087
 30
0.0
 11
196.6806365159
 21
104.3481040087
 31
0.0
  0
LINE
  5
12C
330
1F
100
AcDbEntity
  8
0
  6
HIDDEN
 62
     7
370
     0
100
AcDbLine
 10
196.6806365159
 20
106.3481040087
 30
0.0
 11
196.6806365159
 21
109.8481040087
 31
0.0
  0
LINE
  5
12D
330
1F
100
AcDbEntity
  8
0
  6
HIDDEN
 62
     7
370
     0
100
AcDbLine
 10
194.6806365159
 20
106.3481040087
 30
0.0
 11
196.6806365159
 21
106.3481040087
 31
0.0
  0
LINE
  5
12E
330
1F
100
AcDbEntity
  8
0
  6
HIDDEN
 62
     7
370
     0
100
AcDbLine
 10
194.6806365159
 20
104.3481040087
 30
0.0
 11
194.6806365159
 21
106.3481040087
 31
0.0
  0
LINE
  5
12F
330
1F
100
AcDbEntity
  8
0
  6
HIDDEN
 62
     7
370
     0
100
AcDbLine
 10
190.6806365159
 20
105.3481040087
 30
0.0
 11
194.6806365159
 21
105.3481040087
 31
0.0
  0
LINE
  5
130
330
1F
100
AcDbEntity
  8
0
  6
HIDDEN
 62
     7
370
     0
100
AcDbLine
 10
190.6806365159
 20
106.5981040087
 30
0.0
 11
190.6806365159
 21
105.3481040087
 31
0.0
  0
LINE
  5
131
330
1F
100
AcDbEntity
  8
0
  6
HIDDEN
 62
     7
370
     0
100
AcDbLine
 10
190.6806365159
 20
105.3481040087
 30
0.0
 11
190.6806365159
 21
104.0981040087
 31
0.0
  0
LINE
  5
132
330
1F
100
AcDbEntity
  8
0
  6
HIDDEN
 62
     7
370
     0
100
AcDbLine
 10
182.6806365158
 20
105.3481040087
 30
0.0
 11
176.6806365159
 21
105.3481040087
 31
0.0
  0
LINE
  5
133
330
1F
100
AcDbEntity
  8
0
  6
HIDDEN
 62
     7
370
     0
100
AcDbLine
 10
182.6806365158
 20
104.0981040087
 30
0.0
 11
182.6806365158
 21
105.3481040087
 31
0.0
  0
LINE
  5
134
330
1F
100
AcDbEntity
  8
0
  6
HIDDEN
 62
     7
370
     0
100
AcDbLine
 10
182.6806365158
 20
105.3481040087
 30
0.0
 11
182.6806365158
 21
106.5981040087
 31
0.0
  0
LINE
  5
135
330
1F
100
AcDbEntity
  8
0
  6
HIDDEN
 62
     7
370
     0
100
AcDbLine
 10
190.6806365159
 20
107.8481040087
 30
0.0
 11
190.6806365159
 21
106.5981040087
 31
0.0
  0
LINE
  5
136
330
1F
100
AcDbEntity
  8
0
  6
HIDDEN
 62
     7
370
     0
100
AcDbLine
 10
182.6806365158
 20
102.8481040087
 30
0.0
 11
182.6806365158
 21
104.0981040087
 31
0.0
  0
LINE
  5
137
330
1F
100
AcDbEntity
  8
0
  6
HIDDEN
 62
     7
370
     0
100
AcDbLine
 10
190.6806365159
 20
104.0981040087
 30
0.0
 11
190.6806365159
 21
102.8481040087
 31
0.0
  0
LINE
  5
138
330
1F
100
AcDbEntity
  8
0
  6
HIDDEN
 62
     7
370
     0
100
AcDbLine
 10
182.6806365158
 20
106.5981040087
 30
0.0
 11
182.6806365158
 21
107.8481040087
 31
0.0
  0
LINE
  5
139
330
1F
100
AcDbEntity
  8
0
  6
HIDDEN
 62
     7
370
     0
100
AcDbLine
 10
182.6806365158
 20
102.8481040087
 30
0.0
 11
176.6806365158
 21
102.8481040087
 31
0.0
  0
LINE
  5
13A
330
1F
100
AcDbEntity
  8
0
  6
HIDDEN
 62
     7
370
     0
100
AcDbLine
 10
190.6806365159
 20
107.8481040087
 30
0.0
 11
196.6806365159
 21
107.8481040087
 31
0.0
  0
LINE
  5
13B
330
1F
100
AcDbEntity
  8
0
  6
HIDDEN
 62
     7
370
     0
100
AcDbLine
 10
182.6806365158
 20
107.8481040087
 30
0.0
 11
176.6806365158
 21
107.8481040087
 31
0.0
  0
LINE
  5
13C
330
1F
100
AcDbEntity
  8
0
  6
HIDDEN
 62
     7
370
     0
100
AcDbLine
 10
190.6806365159
 20
102.8481040087
 30
0.0
 11
196.6806365159
 21
102.8481040087
 31
0.0
  0
LINE
  5
13D
330
1F
100
AcDbEntity
  8
0
  6
HIDDEN
 62
     7
370
     0
100
AcDbLine
 10
109.6806365159
 20
65.9434210521
 30
0.0
 11
109.7702381398
 21
66.580969734
 31
0.0
  0
LINE
  5
13E
330
1F
100
AcDbEntity
  8
0
  6
HIDDEN
 62
     7
370
     0
100
AcDbLine
 10
109.7702381398
 20
144.1152382833
 30
0.0
 11
109.6806365159
 21
144.7527869653
 31
0.0
  0
ARC
  5
13F
330
1F
100
AcDbEntity
  8
0
  6
HIDDEN
 62
     7
370
     0
100
AcDbCircle
 10
108.7836995974
 20
66.7196186842
 30
0.0
 40
0.9962338214387074
100
AcDbArc
 50
352.0
 51
0.0
  0
ARC
  5
140
330
1F
100
AcDbEntity
  8
0
  6
HIDDEN
 62
     7
370
     0
100
AcDbCircle
 10
108.7836995974
 20
66.7196186842
 30
0.0
 40
0.9962338214387074
100
AcDbArc
 50
0.0
 51
25.7988228126
  0
ARC
  5
141
330
1F
100
AcDbEntity
  8
0
  6
HIDDEN
 62
     7
370
     0
100
AcDbCircle
 10
108.7836995974
 20
143.9765893331
 30
0.0
 40
0.9962338214387002
100
AcDbArc
 50
348.75
 51
8.0
  0
LWPOLYLINE
  5
142
330
1F
100
AcDbEntity
  8
0
  6
HIDDEN
 62
     7
370
     0
100
AcDbPolyline
 90
        3
 70
   128
 43
0.0
 10
109.7607910653
 20
143.7822337561
 10
109.7040996347
 20
143.5953471549
 10
109.6806365159
 20
143.54301582
  0
LINE
  5
143
330
1F
100
AcDbEntity
  8
0
  6
HIDDEN
 62
     7
370
     0
100
AcDbLine
 10
109.7799334189
 20
66.7196186842
 30
0.0
 11
109.7799334189
 21
143.9765893331
 31
0.0
  0
LINE
  5
144
330
1F
100
AcDbEntity
  8
0
  6
HIDDEN
 62
     7
370
     0
100
AcDbLine
 10
83.141362458
 20
73.8481040087
 30
0.0
 11
88.6858068898
 21
73.8481040087
 31
0.0
  0
LINE
  5
145
330
1F
100
AcDbEntity
  8
0
  6
HIDDEN
 62
     7
370
     0
100
AcDbLine
 10
88.6858068898
 20
136.8481040087
 30
0.0
 11
83.141362458
 21
136.8481040087
 31
0.0
  0
ARC
  5
146
330
1F
100
AcDbEntity
  8
0
  6
HIDDEN
 62
     7
370
     0
100
AcDbCircle
 10
99.9338421711
 20
85.8481040087
 30
0.0
 40
11.99999999999999
100
AcDbArc
 50
273.4750678888
 51
324.3146652873
  0
ARC
  5
147
330
1F
100
AcDbEntity
  8
0
  6
HIDDEN
 62
     7
370
     0
100
AcDbCircle
 10
99.9338421711
 20
124.8481040087
 30
0.0
 40
12.00000000000002
100
AcDbArc
 50
35.6853347127
 51
86.5284337865
  0
ARC
  5
148
330
1F
100
AcDbEntity
  8
0
  6
HIDDEN
 62
     7
370
     0
100
AcDbCircle
 10
83.141362458
 20
74.8481040087
 30
0.0
 40
1.0
100
AcDbArc
 50
210.0
 51
270.0
  0
ARC
  5
149
330
1F
100
AcDbEntity
  8
0
  6
HIDDEN
 62
     7
370
     0
100
AcDbCircle
 10
83.141362458
 20
135.8481040087
 30
0.0
 40
1.0
100
AcDbArc
 50
90.0
 51
150.0
  0
LINE
  5
14A
330
1F
100
AcDbEntity
  8
0
  6
HIDDEN
 62
     7
370
     0
100
AcDbLine
 10
82.2753370543
 20
136.3481040087
 30
0.0
 11
79.6772608429
 21
131.8481040087
 31
0.0
  0
LINE
  5
14B
330
1F
100
AcDbEntity
  8
0
  6
HIDDEN
 62
     7
370
     0
100
AcDbLine
 10
79.6772608429
 20
78.8481040087
 30
0.0
 11
82.2753370543
 21
74.3481040087
 31
0.0
  0
ARC
  5
14C
330
1F
100
AcDbEntity
  8
0
  6
HIDDEN
 62
     7
370
     0
100
AcDbCircle
 10
120.1306365159
 20
80.4731040087
 30
0.0
 40
2.000000000000015
100
AcDbArc
 50
234.3409123039
 51
0.0
  0
ARC
  5
14D
330
1F
100
AcDbEntity
  8
0
  6
HIDDEN
 62
     7
370
     0
100
AcDbCircle
 10
120.1306365159
 20
130.2231040087
 30
0.0
 40
2.000000000000026
100
AcDbArc
 50
0.0
 51
125.6590876961
  0
LINE
  5
14E
330
1F
100
AcDbEntity
  8
0
  6
HIDDEN
 62
     7
370
     0
100
AcDbLine
 10
109.6806365159
 20
78.8481040087
 30
0.0
 11
118.9647141342
 21
78.8481040087
 31
0.0
  0
LINE
  5
14F
330
1F
100
AcDbEntity
  8
0
  6
HIDDEN
 62
     7
370
     0
100
AcDbLine
 10
118.9647141342
 20
131.8481040087
 30
0.0
 11
109.6806365159
 21
131.8481040087
 31
0.0
  0
LINE
  5
150
330
1F
100
AcDbEntity
  8
0
  6
HIDDEN
 62
     7
370
     0
100
AcDbLine
 10
74.8806365159
 20
78.8481040087
 30
0.0
 11
79.6772608429
 21
78.8481040087
 31
0.0
  0
LINE
  5
151
330
1F
100
AcDbEntity
  8
0
  6
HIDDEN
 62
     7
370
     0
100
AcDbLine
 10
79.6772608429
 20
131.8481040087
 30
0.0
 11
69.8806365159
 21
131.8481040087
 31
0.0
  0
LINE
  5
152
330
1F
100
AcDbEntity
  8
0
  6
HIDDEN
 62
     7
370
     0
100
AcDbLine
 10
113.6806365159
 20
151.0252668908
 30
0.0
 11
113.6806365159
 21
147.3255177873
 31
0.0
  0
LINE
  5
153
330
1F
100
AcDbEntity
  8
0
  6
HIDDEN
 62
     7
370
     0
100
AcDbLine
 10
123.6806365159
 20
147.3255177873
 30
0.0
 11
123.6806365159
 21
151.0238949415
 31
0.0
  0
LINE
  5
154
330
1F
100
AcDbEntity
  8
0
  6
HIDDEN
 62
     7
370
     0
100
AcDbLine
 10
133.9806365159
 20
92.3481040087
 30
0.0
 11
137.9806365159
 21
92.3481040087
 31
0.0
  0
LINE
  5
155
330
1F
100
AcDbEntity
  8
0
  6
HIDDEN
 62
     7
370
     0
100
AcDbLine
 10
137.9806365159
 20
118.3481040087
 30
0.0
 11
133.9806365159
 21
118.3481040087
 31
0.0
  0
LINE
  5
156
330
1F
100
AcDbEntity
  8
0
  6
HIDDEN
 62
     7
370
     0
100
AcDbLine
 10
239.6660870438
 20
94.9560817506
 30
0.0
 11
239.6806365159
 21
95.196884992
 31
0.0
  0
LINE
  5
157
330
1F
100
AcDbEntity
  8
0
  6
HIDDEN
 62
     7
370
     0
100
AcDbLine
 10
122.1306365159
 20
93.3481040087
 30
0.0
 11
122.8806365159
 21
94.0981040087
 31
0.0
  0
LINE
  5
158
330
1F
100
AcDbEntity
  8
0
  6
HIDDEN
 62
     7
370
     0
100
AcDbLine
 10
122.8806365159
 20
116.5981040087
 30
0.0
 11
122.1306365159
 21
117.3481040087
 31
0.0
  0
LINE
  5
159
330
1F
100
AcDbEntity
  8
0
  6
HIDDEN
 62
     7
370
     0
100
AcDbLine
 10
122.8806365159
 20
94.0981040087
 30
0.0
 11
133.9806365159
 21
94.0981040087
 31
0.0
  0
LINE
  5
15A
330
1F
100
AcDbEntity
  8
0
  6
HIDDEN
 62
     7
370
     0
100
AcDbLine
 10
133.9806365159
 20
116.5981040087
 30
0.0
 11
122.8806365159
 21
116.5981040087
 31
0.0
  0
LINE
  5
15B
330
1F
100
AcDbEntity
  8
0
  6
HIDDEN
 62
     7
370
     0
100
AcDbLine
 10
114.6306365159
 20
155.3481040087
 30
0.0
 11
114.6306365159
 21
149.2481040087
 31
0.0
  0
ARC
  5
15C
330
1F
100
AcDbEntity
  8
0
  6
HIDDEN
 62
     7
370
     0
100
AcDbCircle
 10
239.1806365159
 20
98.3114097606
 30
0.0
 40
0.4999999999999826
100
AcDbArc
 50
0.0
 51
80.0
  0
ARC
  5
15D
330
1F
100
AcDbEntity
  8
0
  6
HIDDEN
 62
     7
370
     0
100
AcDbCircle
 10
239.1806365159
 20
112.3847982567
 30
0.0
 40
0.4999999999999826
100
AcDbArc
 50
280.0
 51
0.0
  0
LINE
  5
15E
330
1F
100
AcDbEntity
  8
0
  6
HIDDEN
 62
     7
370
     0
100
AcDbLine
 10
101.1133491319
 20
67.7698244381
 30
0.0
 11
100.6806398454
 21
68.2480491554
 31
0.0
  0
LINE
  5
15F
330
1F
100
AcDbEntity
  8
0
  6
HIDDEN
 62
     7
370
     0
100
AcDbLine
 10
88.6806369739
 20
68.8950105121
 30
0.0
 11
88.2000096687
 21
68.4167858013
 31
0.0
  0
LINE
  5
160
330
1F
100
AcDbEntity
  8
0
  6
HIDDEN
 62
     7
370
     0
100
AcDbLine
 10
88.1998913272
 20
142.2794162999
 30
0.0
 11
88.6806367912
 21
141.801136628
 31
0.0
  0
LINE
  5
161
330
1F
100
AcDbEntity
  8
0
  6
HIDDEN
 62
     7
370
     0
100
AcDbLine
 10
100.680636518
 20
142.4481090154
 30
0.0
 11
101.1134581877
 21
142.9263886883
 31
0.0
  0
LINE
  5
162
330
1F
100
AcDbEntity
  8
0
  6
HIDDEN
 62
     7
370
     0
100
AcDbLine
 10
239.2674606047
 20
111.8923943802
 30
0.0
 11
236.1806365159
 21
111.3481040087
 31
0.0
  0
LINE
  5
163
330
1F
100
AcDbEntity
  8
0
  6
HIDDEN
 62
     7
370
     0
100
AcDbLine
 10
236.1806365159
 20
99.3481040087
 30
0.0
 11
239.2674606047
 21
98.8038136371
 31
0.0
  0
ARC
  5
164
330
1F
100
AcDbEntity
  8
0
  6
HIDDEN
 62
     7
370
     0
100
AcDbCircle
 10
202.7858624978
 20
99.4481040087
 30
0.0
 40
0.4000000000000199
100
AcDbArc
 50
270.0
 51
290.0
  0
ARC
  5
165
330
1F
100
AcDbEntity
  8
0
  6
HIDDEN
 62
     7
370
     0
100
AcDbCircle
 10
202.7858624978
 20
111.2481040087
 30
0.0
 40
0.4000000000000199
100
AcDbArc
 50
70.0
 51
90.0
  0
LINE
  5
166
330
1F
100
AcDbEntity
  8
0
  6
HIDDEN
 62
     7
370
     0
100
AcDbLine
 10
196.6806365159
 20
99.0481040087
 30
0.0
 11
202.7858624978
 21
99.0481040087
 31
0.0
  0
LINE
  5
167
330
1F
100
AcDbEntity
  8
0
  6
HIDDEN
 62
     7
370
     0
100
AcDbLine
 10
193.5806365159
 20
99.0481040087
 30
0.0
 11
193.6837432525
 21
99.0481040087
 31
0.0
  0
LINE
  5
168
330
1F
100
AcDbEntity
  8
0
  6
HIDDEN
 62
     7
370
     0
100
AcDbLine
 10
193.6838854341
 20
111.6481040087
 30
0.0
 11
193.5806365159
 21
111.6481040087
 31
0.0
  0
LINE
  5
169
330
1F
100
AcDbEntity
  8
0
  6
HIDDEN
 62
     7
370
     0
100
AcDbLine
 10
202.7858624978
 20
111.6481040087
 30
0.0
 11
196.6754275348
 21
111.6481040087
 31
0.0
  0
ARC
  5
16A
330
1F
100
AcDbEntity
  8
0
  6
HIDDEN
 62
     7
370
     0
100
AcDbCircle
 10
193.5806365159
 20
99.4481040087
 30
0.0
 40
0.4000000000000057
100
AcDbArc
 50
180.0
 51
270.0
  0
ARC
  5
16B
330
1F
100
AcDbEntity
  8
0
  6
HIDDEN
 62
     7
370
     0
100
AcDbCircle
 10
193.5806365159
 20
111.2481040087
 30
0.0
 40
0.4000000000000057
100
AcDbArc
 50
90.0
 51
180.0
  0
LINE
  5
16C
330
1F
100
AcDbEntity
  8
0
  6
HIDDEN
 62
     7
370
     0
100
AcDbLine
 10
202.9226705551
 20
99.0722269604
 30
0.0
 11
203.6806365159
 21
99.3481040087
 31
0.0
  0
LINE
  5
16D
330
1F
100
AcDbEntity
  8
0
  6
HIDDEN
 62
     7
370
     0
100
AcDbLine
 10
203.6806365159
 20
111.3481040087
 30
0.0
 11
202.9226705551
 21
111.623981057
 31
0.0
  0
LINE
  5
16E
330
1F
100
AcDbEntity
  8
0
  6
HIDDEN
 62
     7
370
     0
100
AcDbLine
 10
100.6806365159
 20
68.1479203129
 30
0.0
 11
100.6806365159
 21
73.8740391147
 31
0.0
  0
LINE
  5
16F
330
1F
100
AcDbEntity
  8
0
  6
HIDDEN
 62
     7
370
     0
100
AcDbLine
 10
88.6806365159
 20
73.849088208
 30
0.0
 11
88.6806365159
 21
68.8950489266
 31
0.0
  0
LINE
  5
170
330
1F
100
AcDbEntity
  8
0
  6
HIDDEN
 62
     7
370
     0
100
AcDbLine
 10
100.6806365159
 20
136.8221689026
 30
0.0
 11
100.6806365159
 21
142.5481128414
 31
0.0
  0
LINE
  5
171
330
1F
100
AcDbEntity
  8
0
  6
HIDDEN
 62
     7
370
     0
100
AcDbLine
 10
88.6806365159
 20
141.8011261288
 30
0.0
 11
88.6806365159
 21
136.8471198093
 31
0.0
  0
LINE
  5
172
330
1F
100
AcDbEntity
  8
0
  6
HIDDEN
 62
     7
370
     0
100
AcDbLine
 10
137.9806365159
 20
99.3481040087
 30
0.0
 11
172.2793455873
 21
99.3481040087
 31
0.0
  0
LINE
  5
173
330
1F
100
AcDbEntity
  8
0
  6
HIDDEN
 62
     7
370
     0
100
AcDbLine
 10
172.2793455873
 20
111.3481040087
 30
0.0
 11
137.9806365159
 21
111.3481040087
 31
0.0
  0
LINE
  5
174
330
1F
100
AcDbEntity
  8
0
  6
HIDDEN
 62
     7
370
     0
100
AcDbLine
 10
172.2793455873
 20
99.3481040087
 30
0.0
 11
173.1806365159
 21
100.8481040087
 31
0.0
  0
LINE
  5
175
330
1F
100
AcDbEntity
  8
0
  6
HIDDEN
 62
     7
370
     0
100
AcDbLine
 10
173.1806365159
 20
109.8481040087
 30
0.0
 11
172.2793455873
 21
111.3481040087
 31
0.0
  0
LINE
  5
176
330
1F
100
AcDbEntity
  8
0
  6
HIDDEN
 62
     7
370
     0
100
AcDbLine
 10
203.6806365159
 20
99.3481040087
 30
0.0
 11
236.1806365159
 21
99.3481040087
 31
0.0
  0
LINE
  5
177
330
1F
100
AcDbEntity
  8
0
  6
HIDDEN
 62
     7
370
     0
100
AcDbLine
 10
236.1806365159
 20
111.3481040087
 30
0.0
 11
203.6806365159
 21
111.3481040087
 31
0.0
  0
LINE
  5
178
330
1F
100
AcDbEntity
  8
0
  6
HIDDEN
 62
     7
370
     0
100
AcDbLine
 10
193.1806365159
 20
110.3481040087
 30
0.0
 11
192.6806365159
 21
109.8481040087
 31
0.0
  0
LINE
  5
179
330
1F
100
AcDbEntity
  8
0
  6
HIDDEN
 62
     7
370
     0
100
AcDbLine
 10
192.6806365159
 20
100.8481040087
 30
0.0
 11
193.1806365159
 21
100.3481040087
 31
0.0
  0
LINE
  5
17A
330
1F
100
AcDbEntity
  8
0
  6
HIDDEN
 62
     7
370
     0
100
AcDbLine
 10
173.1806365159
 20
100.8481040087
 30
0.0
 11
192.6806365159
 21
100.8481040087
 31
0.0
  0
LINE
  5
17B
330
1F
100
AcDbEntity
  8
0
  6
HIDDEN
 62
     7
370
     0
100
AcDbLine
 10
192.6806365159
 20
109.8481040087
 30
0.0
 11
173.1806365159
 21
109.8481040087
 31
0.0
  0
LINE
  5
17C
330
1F
100
AcDbEntity
  8
0
  6
HIDDEN
 62
     7
370
     0
100
AcDbLine
 10
148.1306365159
 20
122.3481040087
 30
0.0
 11
149.1306365159
 21
121.7707537395
 31
0.0
  0
LINE
  5
17D
330
1F
100
AcDbEntity
  8
0
  6
HIDDEN
 62
     7
370
     0
100
AcDbLine
 10
154.1306365159
 20
121.7707537395
 30
0.0
 11
155.1306365159
 21
122.3481040087
 31
0.0
  0
LINE
  5
17E
330
1F
100
AcDbEntity
  8
0
  6
HIDDEN
 62
     7
370
     0
100
AcDbLine
 10
155.1306365159
 20
88.3481040087
 30
0.0
 11
154.1306365159
 21
88.9254542779
 31
0.0
  0
LINE
  5
17F
330
1F
100
AcDbEntity
  8
0
  6
HIDDEN
 62
     7
370
     0
100
AcDbLine
 10
149.1306365159
 20
88.9254542779
 30
0.0
 11
148.1306365159
 21
88.3481040087
 31
0.0
  0
LINE
  5
180
330
1F
100
AcDbEntity
  8
0
  6
HIDDEN
 62
     7
370
     0
100
AcDbLine
 10
149.1306365159
 20
121.7707537395
 30
0.0
 11
149.1306365159
 21
114.3481040087
 31
0.0
  0
LINE
  5
181
330
1F
100
AcDbEntity
  8
0
  6
HIDDEN
 62
     7
370
     0
100
AcDbLine
 10
154.1306365159
 20
114.3481040087
 30
0.0
 11
154.1306365159
 21
121.7707537395
 31
0.0
  0
LINE
  5
182
330
1F
100
AcDbEntity
  8
0
  6
HIDDEN
 62
     7
370
     0
100
AcDbLine
 10
149.1306365159
 20
114.3481040087
 30
0.0
 11
151.6306365159
 21
112.8459524611
 31
0.0
  0
LINE
  5
183
330
1F
100
AcDbEntity
  8
0
  6
HIDDEN
 62
     7
370
     0
100
AcDbLine
 10
151.6306365159
 20
112.8459524611
 30
0.0
 11
154.1306365159
 21
114.3481040087
 31
0.0
  0
LINE
  5
184
330
1F
100
AcDbEntity
  8
0
  6
HIDDEN
 62
     7
370
     0
100
AcDbLine
 10
154.1306365159
 20
88.9254542779
 30
0.0
 11
154.1306365159
 21
96.3481040087
 31
0.0
  0
LINE
  5
185
330
1F
100
AcDbEntity
  8
0
  6
HIDDEN
 62
     7
370
     0
100
AcDbLine
 10
149.1306365159
 20
96.3481040087
 30
0.0
 11
149.1306365159
 21
88.9254542779
 31
0.0
  0
LINE
  5
186
330
1F
100
AcDbEntity
  8
0
  6
HIDDEN
 62
     7
370
     0
100
AcDbLine
 10
154.1306365159
 20
96.3481040087
 30
0.0
 11
151.6306365159
 21
97.8502555562
 31
0.0
  0
LINE
  5
187
330
1F
100
AcDbEntity
  8
0
  6
HIDDEN
 62
     7
370
     0
100
AcDbLine
 10
151.6306365159
 20
97.8502555562
 30
0.0
 11
149.1306365159
 21
96.3481040087
 31
0.0
  0
LINE
  5
188
330
1F
100
AcDbEntity
  8
0
  6
HIDDEN
 62
     7
370
     0
100
AcDbLine
 10
193.6806365159
 20
114.9047088771
 30
0.0
 11
193.6806365159
 21
111.6473346053
 31
0.0
  0
LINE
  5
189
330
1F
100
AcDbEntity
  8
0
  6
HIDDEN
 62
     7
370
     0
100
AcDbLine
 10
193.6806365159
 20
117.3481040087
 30
0.0
 11
193.6806365159
 21
117.2751126625
 31
0.0
  0
LINE
  5
18A
330
1F
100
AcDbEntity
  8
0
  6
HIDDEN
 62
     7
370
     0
100
AcDbLine
 10
196.6806365159
 20
117.2868662942
 30
0.0
 11
196.6806365159
 21
117.3481040087
 31
0.0
  0
LINE
  5
18B
330
1F
100
AcDbEntity
  8
0
  6
HIDDEN
 62
     7
370
     0
100
AcDbLine
 10
196.6806365159
 20
111.6468665112
 30
0.0
 11
196.6806365159
 21
114.7866141617
 31
0.0
  0
LINE
  5
18C
330
1F
100
AcDbEntity
  8
0
  6
HIDDEN
 62
     7
370
     0
100
AcDbLine
 10
193.6806365159
 20
93.4192163451
 30
0.0
 11
193.6806365159
 21
93.3481040087
 31
0.0
  0
LINE
  5
18D
330
1F
100
AcDbEntity
  8
0
  6
HIDDEN
 62
     7
370
     0
100
AcDbLine
 10
193.6806365159
 20
99.0488393887
 30
0.0
 11
193.6806365159
 21
95.7914991403
 31
0.0
  0
LINE
  5
18E
330
1F
100
AcDbEntity
  8
0
  6
HIDDEN
 62
     7
370
     0
100
AcDbLine
 10
196.6806365159
 20
95.9095938556
 30
0.0
 11
196.6806365159
 21
99.0481040087
 31
0.0
  0
LINE
  5
18F
330
1F
100
AcDbEntity
  8
0
  6
HIDDEN
 62
     7
370
     0
100
AcDbLine
 10
196.6806365159
 20
93.3481040087
 30
0.0
 11
196.6806365159
 21
93.4114217369
 31
0.0
  0
LINE
  5
190
330
1F
100
AcDbEntity
  8
0
  6
HIDDEN
 62
     7
370
     0
100
AcDbLine
 10
193.769204762
 20
93.2948868375
 30
0.0
 11
195.1806365159
 21
92.4468130801
 31
0.0
  0
LINE
  5
191
330
1F
100
AcDbEntity
  8
0
  6
HIDDEN
 62
     7
370
     0
100
AcDbLine
 10
193.6806365159
 20
93.3481040087
 30
0.0
 11
193.7626353388
 21
93.2988341451
 31
0.0
  0
LINE
  5
192
330
1F
100
AcDbEntity
  8
0
  6
HIDDEN
 62
     7
370
     0
100
AcDbLine
 10
195.1806365159
 20
92.4468130801
 30
0.0
 11
196.6806365159
 21
93.3481040087
 31
0.0
  0
LINE
  5
193
330
1F
100
AcDbEntity
  8
0
  6
HIDDEN
 62
     7
370
     0
100
AcDbLine
 10
196.6775818192
 20
93.4075449397
 30
0.0
 11
239.7513109573
 21
95.0999163668
 31
0.0
  0
LINE
  5
194
330
1F
100
AcDbEntity
  8
0
  6
HIDDEN
 62
     7
370
     0
100
AcDbLine
 10
239.6806365159
 20
97.5990684569
 30
0.0
 11
196.6806365159
 21
95.9095938556
 31
0.0
  0
LINE
  5
195
330
1F
100
AcDbEntity
  8
0
  6
HIDDEN
 62
     7
370
     0
100
AcDbLine
 10
196.6806365159
 20
114.7866141617
 30
0.0
 11
239.6806365159
 21
113.0971395604
 31
0.0
  0
LINE
  5
196
330
1F
100
AcDbEntity
  8
0
  6
HIDDEN
 62
     7
370
     0
100
AcDbLine
 10
239.7513109573
 20
115.5962916506
 30
0.0
 11
196.6792630306
 21
117.2885970226
 31
0.0
  0
LINE
  5
197
330
1F
100
AcDbEntity
  8
0
  6
HIDDEN
 62
     7
370
     0
100
AcDbLine
 10
193.6821401434
 20
117.2764416816
 30
0.0
 11
192.9656041272
 21
116.1835426301
 31
0.0
  0
LINE
  5
198
330
1F
100
AcDbEntity
  8
0
  6
HIDDEN
 62
     7
370
     0
100
AcDbLine
 10
192.9656041272
 20
116.1835426301
 30
0.0
 11
193.6670260791
 21
114.9050192383
 31
0.0
  0
LINE
  5
199
330
1F
100
AcDbEntity
  8
0
  6
HIDDEN
 62
     7
370
     0
100
AcDbLine
 10
193.6670260791
 20
95.7911887791
 30
0.0
 11
192.9656041272
 21
94.5126653873
 31
0.0
  0
LINE
  5
19A
330
1F
100
AcDbEntity
  8
0
  6
HIDDEN
 62
     7
370
     0
100
AcDbLine
 10
192.9656041272
 20
94.5126653873
 30
0.0
 11
193.6846029525
 21
93.4160099276
 31
0.0
  0
LINE
  5
19B
330
1F
100
AcDbEntity
  8
0
  6
HIDDEN
 62
     7
370
     0
100
AcDbLine
 10
193.7461512695
 20
93.2923687197
 30
0.0
 11
193.7898553732
 21
93.2940858587
 31
0.0
  0
LINE
  5
19C
330
1F
100
AcDbEntity
  8
0
  6
HIDDEN
 62
     7
370
     0
100
AcDbLine
 10
193.7607848561
 20
93.2998132141
 30
0.0
 11
193.7651756185
 21
93.2931161884
 31
0.0
  0
LINE
  5
19D
330
1F
100
AcDbEntity
  8
0
  6
HIDDEN
 62
     7
370
     0
100
AcDbLine
 10
113.6806365159
 20
152.9008153067
 30
0.0
 11
113.6806365159
 21
151.0252668908
 31
0.0
  0
LINE
  5
19E
330
1F
100
AcDbEntity
  8
0
  6
HIDDEN
 62
     7
370
     0
100
AcDbLine
 10
123.6806365159
 20
151.0238949415
 30
0.0
 11
123.6806365159
 21
152.8993870239
 31
0.0
  0
LINE
  5
19F
330
1F
100
AcDbEntity
  8
0
  6
HIDDEN
 62
     7
370
     0
100
AcDbLine
 10
239.5482594823
 20
115.8544624544
 30
0.0
 11
234.2143216784
 21
116.0640334415
 31
0.0
  0
LINE
  5
1A0
330
1F
100
AcDbEntity
  8
0
  6
HIDDEN
 62
     7
370
     0
100
AcDbLine
 10
234.0965422311
 20
113.0663463328
 30
0.0
 11
239.430480035
 21
112.8567753457
 31
0.0
  0
LINE
  5
1A1
330
1F
100
AcDbEntity
  8
0
  6
HIDDEN
 62
     7
370
     0
100
AcDbLine
 10
239.430480035
 20
112.8567753457
 30
0.0
 11
239.6033143087
 21
113.1307010907
 31
0.0
  0
LINE
  5
1A2
330
1F
100
AcDbEntity
  8
0
  6
HIDDEN
 62
     7
370
     0
100
AcDbLine
 10
239.6776529748
 20
115.6085258776
 30
0.0
 11
239.5482594823
 21
115.8544624544
 31
0.0
  0
LINE
  5
1A3
330
1F
100
AcDbEntity
  8
0
  6
HIDDEN
 62
     7
370
     0
100
AcDbLine
 10
234.2143216784
 20
116.0640334415
 30
0.0
 11
233.6950772524
 21
115.5840488312
 31
0.0
  0
LINE
  5
1A4
330
1F
100
AcDbEntity
  8
0
  6
HIDDEN
 62
     7
370
     0
100
AcDbLine
 10
233.6165576209
 20
113.5855907588
 30
0.0
 11
234.0965422311
 21
113.0663463328
 31
0.0
  0
LINE
  5
1A5
330
1F
100
AcDbEntity
  8
0
  6
HIDDEN
 62
     7
370
     0
100
AcDbLine
 10
239.6071492059
 20
94.8440593465
 30
0.0
 11
239.6660870438
 21
94.9560817506
 31
0.0
  0
LINE
  5
1A6
330
1F
100
AcDbEntity
  8
0
  6
HIDDEN
 62
     7
370
     0
100
AcDbLine
 10
239.6622040324
 20
97.5678207101
 30
0.0
 11
239.4893697586
 21
97.8417464552
 31
0.0
  0
LINE
  5
1A7
330
1F
100
AcDbEntity
  8
0
  6
HIDDEN
 62
     7
370
     0
100
AcDbLine
 10
239.4893697586
 20
97.8417464552
 30
0.0
 11
234.1554319547
 21
97.6321754681
 31
0.0
  0
LINE
  5
1A8
330
1F
100
AcDbEntity
  8
0
  6
HIDDEN
 62
     7
370
     0
100
AcDbLine
 10
234.273211402
 20
94.6344883594
 30
0.0
 11
239.6071492059
 21
94.8440593465
 31
0.0
  0
LINE
  5
1A9
330
1F
100
AcDbEntity
  8
0
  6
HIDDEN
 62
     7
370
     0
100
AcDbLine
 10
234.1554319547
 20
97.6321754681
 30
0.0
 11
233.6754473445
 21
97.1129310421
 31
0.0
  0
LINE
  5
1AA
330
1F
100
AcDbEntity
  8
0
  6
HIDDEN
 62
     7
370
     0
100
AcDbLine
 10
233.753966976
 20
95.1144729696
 30
0.0
 11
234.273211402
 21
94.6344883594
 31
0.0
  0
LINE
  5
1AB
330
1F
100
AcDbEntity
  8
0
  6
HIDDEN
 62
     7
370
     0
100
AcDbLine
 10
177.1806365159
 20
100.3481040087
 30
0.0
 11
192.6806365159
 21
100.3481040087
 31
0.0
  0
LINE
  5
1AC
330
1F
100
AcDbEntity
  8
0
  6
HIDDEN
 62
     7
370
     0
100
AcDbLine
 10
192.6806365159
 20
110.3481040087
 30
0.0
 11
177.1806365159
 21
110.3481040087
 31
0.0
  0
LINE
  5
1AD
330
1F
100
AcDbEntity
  8
0
  6
HIDDEN
 62
     7
370
     0
100
AcDbLine
 10
192.6806365159
 20
100.3481040087
 30
0.0
 11
193.1806365159
 21
100.8481040087
 31
0.0
  0
LINE
  5
1AE
330
1F
100
AcDbEntity
  8
0
  6
HIDDEN
 62
     7
370
     0
100
AcDbLine
 10
193.1806365159
 20
109.8481040087
 30
0.0
 11
192.6806365159
 21
110.3481040087
 31
0.0
  0
LINE
  5
1AF
330
1F
100
AcDbEntity
  8
0
  6
HIDDEN
 62
     7
370
     0
100
AcDbLine
 10
177.1806365159
 20
110.3481040087
 30
0.0
 11
176.6806365159
 21
109.8481040087
 31
0.0
  0
LINE
  5
1B0
330
1F
100
AcDbEntity
  8
0
  6
HIDDEN
 62
     7
370
     0
100
AcDbLine
 10
176.6806365159
 20
100.8481040087
 30
0.0
 11
177.1806365159
 21
100.3481040087
 31
0.0
  0
LINE
  5
1B1
330
1F
100
AcDbEntity
  8
0
  6
HIDDEN
 62
     7
370
     0
100
AcDbLine
 10
193.1806365159
 20
100.8481040087
 30
0.0
 11
196.6806365159
 21
100.8481040087
 31
0.0
  0
LINE
  5
1B2
330
1F
100
AcDbEntity
  8
0
  6
HIDDEN
 62
     7
370
     0
100
AcDbLine
 10
196.6806365159
 20
109.8481040087
 30
0.0
 11
193.1806365159
 21
109.8481040087
 31
0.0
  0
LINE
  5
1B3
330
1F
100
AcDbEntity
  8
0
  6
HIDDEN
 62
     7
370
     0
100
AcDbLine
 10
182.6806365158
 20
102.8481040087
 30
0.0
 11
190.6806365159
 21
102.8481040087
 31
0.0
  0
LINE
  5
1B4
330
1F
100
AcDbEntity
  8
0
  6
HIDDEN
 62
     7
370
     0
100
AcDbLine
 10
190.6806365159
 20
107.8481040087
 30
0.0
 11
182.6806365158
 21
107.8481040087
 31
0.0
  0
DIMENSION
  5
1B5
330
1F
100
AcDbEntity
  8
VERMASSUNG
100
AcDbDimension
  2
*D1
 10
52.887432286
 20
55.3481040087
 30
0.0
 11
52.887432286
 21
105.3481040087
 31
0.0
 70
   160
  1
HSK A %%c<>
 71
     2
 42
-1.0
  3
SLDDIMSTYLE0
100
AcDbAlignedDimension
 13
110.1806365159
 23
155.3481040087
 33
0.0
 14
110.1806365159
 24
55.3481040087
 34
0.0
 50
90.0
100
AcDbRotatedDimension
  0
DIMENSION
  5
1C2
330
1F
100
AcDbEntity
  8
VERMASSUNG
100
AcDbDimension
  2
*D2
 10
239.6806365159
 20
155.939219935
 30
0.0
 11
216.4306365159
 21
155.939219935
 31
0.0
 70
   160
 71
     2
 42
-1.0
  3
SLDDIMSTYLE1
100
AcDbAlignedDimension
 13
193.1806365159
 23
111.2481040087
 33
0.0
 14
239.6806365159
 24
115.4993230254
 34
0.0
 50
0.0
100
AcDbRotatedDimension
  0
DIMENSION
  5
1CD
330
1F
100
AcDbEntity
  8
VERMASSUNG
100
AcDbDimension
  2
*D3
 10
249.7905262362
 20
111.3481040087
 30
0.0
 11
249.7905262362
 21
105.3481040087
 31
0.0
 70
   160
  1
%%c<> 
 71
     2
 42
-1.0
  3
SLDDIMSTYLE2
100
AcDbAlignedDimension
 13
236.1806365159
 23
99.3481040087
 33
0.0
 14
236.1806365159
 24
111.3481040087
 34
0.0
 50
90.0
100
AcDbRotatedDimension
  0
DIMENSION
  5
1DA
330
1F
100
AcDbEntity
  8
VERMASSUNG
100
AcDbDimension
  2
*D4
 10
255.7905262362
 20
117.3481040087
 30
0.0
 11
255.7905262362
 21
105.3481040087
 31
0.0
 70
   160
  1
%%c<>
 71
     2
 42
-1.0
  3
SLDDIMSTYLE3
100
AcDbAlignedDimension
 13
239.6806365159
 23
93.3481040087
 33
0.0
 14
239.6806365159
 24
117.3481040087
 34
0.0
 50
90.0
100
AcDbRotatedDimension
  0
DIMENSION
  5
1E6
330
1F
100
AcDbEntity
  8
VERMASSUNG
100
AcDbDimension
  2
*D5
 10
239.6806365159
 20
167.939219935
 30
0.0
 11
174.6806365159
 21
167.939219935
 31
0.0
 70
   160
 71
     2
 42
-1.0
  3
SLDDIMSTYLE0
100
AcDbAlignedDimension
 13
109.6806365159
 23
154.8481040087
 33
0.0
 14
239.6806365159
 24
115.4993230254
 34
0.0
100
AcDbRotatedDimension
  0
DIMENSION
  5
1F0
330
1F
100
AcDbEntity
  8
VERMASSUNG
100
AcDbDimension
  2
*D6
 10
239.6806365159
 20
161.939219935
 30
0.0
 11
189.1556365159
 21
161.939219935
 31
0.0
 70
   160
 71
     2
 42
-1.0
  3
SLDDIMSTYLE0
100
AcDbAlignedDimension
 13
138.6306365159
 23
153.3168438295
 33
0.0
 14
239.6806365159
 24
115.4860346572
 34
0.0
100
AcDbRotatedDimension
  0
DIMENSION
  5
1FA
330
1F
100
AcDbEntity
  8
VERMASSUNG
100
AcDbDimension
  2
*D7
 10
239.6806365159
 20
173.939219935
 30
0.0
 11
149.7306365159
 21
173.939219935
 31
0.0
 70
   160
 71
     2
 42
-1.0
  3
SLDDIMSTYLE0
100
AcDbAlignedDimension
 13
59.7806365159
 23
135.8507737512
 33
0.0
 14
239.6806365159
 24
115.4860346572
 34
0.0
100
AcDbRotatedDimension
  0
DIMENSION
  5
204
330
1F
100
AcDbEntity
  8
VERMASSUNG
100
AcDbDimension
  2
*D8
 10
261.7905262362
 20
88.3481040087
 30
0.0
 11
261.7905262362
 21
105.3481040087
 31
0.0
 70
   160
  1
%%c<>
 71
     2
 42
-1.0
  3
SLDDIMSTYLE0
100
AcDbAlignedDimension
 13
160.6306365159
 23
122.3481040087
 33
0.0
 14
160.6306365159
 24
88.3481040087
 34
0.0
 50
90.0
100
AcDbRotatedDimension
  0
LINE
  5
20F
330
1F
100
AcDbEntity
  8
VERMASSUNG
  6
CENTERX2
370
     0
100
AcDbLine
 10
57.5301671549
 20
105.3481040087
 30
0.0
 11
243.1842903575
 21
105.3481040087
 31
0.0
  0
OLE2FRAME
  5
210
330
1F
100
AcDbEntity
  8
0
100
AcDbOle2Frame
 70
     2
  3
Bitmap Image
 10
13.8511154363
 20
38.264191557
 30
0.0
 11
51.6290888628
 21
31.9806341108
 31
0.0
 71
     2
 72
     0
 73
     1
 90
    12928
310
80552BED0767C5B32B40DDAF6807D121434000000000000000006FFBDDFB85D0
310
4940DDAF6807D121434000000000000000006FFBDDFB85D04940416F4BD60AFB
310
3F4000000000000000002BED0767C5B32B40416F4BD60AFB3F40000000000000
310
0000000000000100000000010000010000000100000000000100000000320000
310
D0CF11E0A1B11AE1000000000000000000000000000000003E000300FEFF0900
310
0600000000000000000000000100000001000000000000000010000002000000
310
01000000FEFFFFFF0000000000000000FFFFFFFFFFFFFFFFFFFFFFFFFFFFFFFF
310
FFFFFFFFFFFFFFFFFFFFFFFFFFFFFFFFFFFFFFFFFFFFFFFFFFFFFFFFFFFFFFFF
310
FFFFFFFFFFFFFFFFFFFFFFFFFFFFFFFFFFFFFFFFFFFFFFFFFFFFFFFFFFFFFFFF
310
FFFFFFFFFFFFFFFFFFFFFFFFFFFFFFFFFFFFFFFFFFFFFFFFFFFFFFFFFFFFFFFF
310
FFFFFFFFFFFFFFFFFFFFFFFFFFFFFFFFFFFFFFFFFFFFFFFFFFFFFFFFFFFFFFFF
310
FFFFFFFFFFFFFFFFFFFFFFFFFFFFFFFFFFFFFFFFFFFFFFFFFFFFFFFFFFFFFFFF
310
FFFFFFFFFFFFFFFFFFFFFFFFFFFFFFFFFFFFFFFFFFFFFFFFFFFFFFFFFFFFFFFF
310
FFFFFFFFFFFFFFFFFFFFFFFFFFFFFFFFFFFFFFFFFFFFFFFFFFFFFFFFFFFFFFFF
310
FFFFFFFFFFFFFFFFFFFFFFFFFFFFFFFFFFFFFFFFFFFFFFFFFFFFFFFFFFFFFFFF
310
FFFFFFFFFFFFFFFFFFFFFFFFFFFFFFFFFFFFFFFFFFFFFFFFFFFFFFFFFFFFFFFF
310
FFFFFFFFFFFFFFFFFFFFFFFFFFFFFFFFFFFFFFFFFFFFFFFFFFFFFFFFFFFFFFFF
310
FFFFFFFFFFFFFFFFFFFFFFFFFFFFFFFFFFFFFFFFFFFFFFFFFFFFFFFFFFFFFFFF
310
FFFFFFFFFFFFFFFFFFFFFFFFFFFFFFFFFFFFFFFFFFFFFFFFFFFFFFFFFFFFFFFF
310
FFFFFFFFFFFFFFFFFFFFFFFFFFFFFFFFFFFFFFFFFFFFFFFFFFFFFFFFFFFFFFFF
310
FDFFFFFFFEFFFFFFFEFFFFFFFEFFFFFF05000000060000000700000008000000
310
090000000A0000000B0000000C0000000D0000000E0000000F00000010000000
310
11000000120000001300000014000000150000001600000017000000FEFFFFFF
310
FFFFFFFFFFFFFFFFFFFFFFFFFFFFFFFFFFFFFFFFFFFFFFFFFFFFFFFFFFFFFFFF
310
FFFFFFFFFFFFFFFFFFFFFFFFFFFFFFFFFFFFFFFFFFFFFFFFFFFFFFFFFFFFFFFF
310
FFFFFFFFFFFFFFFFFFFFFFFFFFFFFFFFFFFFFFFFFFFFFFFFFFFFFFFFFFFFFFFF
310
FFFFFFFFFFFFFFFFFFFFFFFFFFFFFFFFFFFFFFFFFFFFFFFFFFFFFFFFFFFFFFFF
310
FFFFFFFFFFFFFFFFFFFFFFFFFFFFFFFFFFFFFFFFFFFFFFFFFFFFFFFFFFFFFFFF
310
FFFFFFFFFFFFFFFFFFFFFFFFFFFFFFFFFFFFFFFFFFFFFFFFFFFFFFFFFFFFFFFF
310
FFFFFFFFFFFFFFFFFFFFFFFFFFFFFFFFFFFFFFFFFFFFFFFFFFFFFFFFFFFFFFFF
310
FFFFFFFFFFFFFFFFFFFFFFFFFFFFFFFFFFFFFFFFFFFFFFFFFFFFFFFFFFFFFFFF
310
FFFFFFFFFFFFFFFFFFFFFFFFFFFFFFFFFFFFFFFFFFFFFFFFFFFFFFFFFFFFFFFF
310
FFFFFFFFFFFFFFFFFFFFFFFFFFFFFFFFFFFFFFFFFFFFFFFFFFFFFFFFFFFFFFFF
310
FFFFFFFFFFFFFFFFFFFFFFFFFFFFFFFFFFFFFFFFFFFFFFFFFFFFFFFFFFFFFFFF
310
FFFFFFFFFFFFFFFFFFFFFFFFFFFFFFFFFFFFFFFFFFFFFFFFFFFFFFFFFFFFFFFF
310
FFFFFFFFFFFFFFFFFFFFFFFFFFFFFFFFFFFFFFFFFFFFFFFFFFFFFFFFFFFFFFFF
310
52006F006F007400200045006E00740072007900000000000000000000000000
310
0000000000000000000000000000000000000000000000000000000000000000
310
16000500FFFFFFFFFFFFFFFF020000000A00030000000000C000000000000046
310
0000000000000000000000009098642E8C08CC0103000000C000000000000000
310
01004F006C006500000000000000000000000000000000000000000000000000
310
0000000000000000000000000000000000000000000000000000000000000000
310
0A000200FFFFFFFFFFFFFFFFFFFFFFFF00000000000000000000000000000000
310
0000000000000000000000000000000000000000000000001400000000000000
310
010043006F006D0070004F0062006A0000000000000000000000000000000000
310
0000000000000000000000000000000000000000000000000000000000000000
310
120002010100000003000000FFFFFFFF00000000000000000000000000000000
310
0000000000000000000000000000000000000000010000004D00000000000000
310
01004F006C006500310030004E00610074006900760065000000000000000000
310
0000000000000000000000000000000000000000000000000000000000000000
310
1A000200FFFFFFFFFFFFFFFFFFFFFFFF00000000000000000000000000000000
310
0000000000000000000000000000000000000000040000002426000000000000
310
FEFFFFFF02000000FEFFFFFFFFFFFFFFFFFFFFFFFFFFFFFFFFFFFFFFFFFFFFFF
310
FFFFFFFFFFFFFFFFFFFFFFFFFFFFFFFFFFFFFFFFFFFFFFFFFFFFFFFFFFFFFFFF
310
FFFFFFFFFFFFFFFFFFFFFFFFFFFFFFFFFFFFFFFFFFFFFFFFFFFFFFFFFFFFFFFF
310
FFFFFFFFFFFFFFFFFFFFFFFFFFFFFFFFFFFFFFFFFFFFFFFFFFFFFFFFFFFFFFFF
310
FFFFFFFFFFFFFFFFFFFFFFFFFFFFFFFFFFFFFFFFFFFFFFFFFFFFFFFFFFFFFFFF
310
FFFFFFFFFFFFFFFFFFFFFFFFFFFFFFFFFFFFFFFFFFFFFFFFFFFFFFFFFFFFFFFF
310
FFFFFFFFFFFFFFFFFFFFFFFFFFFFFFFFFFFFFFFFFFFFFFFFFFFFFFFFFFFFFFFF
310
FFFFFFFFFFFFFFFFFFFFFFFFFFFFFFFFFFFFFFFFFFFFFFFFFFFFFFFFFFFFFFFF
310
FFFFFFFFFFFFFFFFFFFFFFFFFFFFFFFFFFFFFFFFFFFFFFFFFFFFFFFFFFFFFFFF
310
FFFFFFFFFFFFFFFFFFFFFFFFFFFFFFFFFFFFFFFFFFFFFFFFFFFFFFFFFFFFFFFF
310
FFFFFFFFFFFFFFFFFFFFFFFFFFFFFFFFFFFFFFFFFFFFFFFFFFFFFFFFFFFFFFFF
310
FFFFFFFFFFFFFFFFFFFFFFFFFFFFFFFFFFFFFFFFFFFFFFFFFFFFFFFFFFFFFFFF
310
FFFFFFFFFFFFFFFFFFFFFFFFFFFFFFFFFFFFFFFFFFFFFFFFFFFFFFFFFFFFFFFF
310
FFFFFFFFFFFFFFFFFFFFFFFFFFFFFFFFFFFFFFFFFFFFFFFFFFFFFFFFFFFFFFFF
310
FFFFFFFFFFFFFFFFFFFFFFFFFFFFFFFFFFFFFFFFFFFFFFFFFFFFFFFFFFFFFFFF
310
FFFFFFFFFFFFFFFFFFFFFFFFFFFFFFFFFFFFFFFFFFFFFFFFFFFFFFFFFFFFFFFF
310
010000020000000000000000000000000000000086000000370082008A000004
310
38062500000000001098190F000000008D000000900000008F000000FEFFFFFF
310
0100FEFF030A0000FFFFFFFF0A00030000000000C00000000000004607000000
310
5042727573680007000000504272757368000700000050427275736800F439B2
310
71000000000000000000000000000000A5000000A6000000A7000000A8000000
310
A9000000AA000000AB000000AC000000AD000000AE000000AF000000B0000000
310
B1000000B2000000B3000000B4000000B5000000B6000000B7000000B8000000
310
B9000000BA000000BB000000BC000000BD000000BE000000BF000000C0000000
310
C1000000C2000000C3000000C4000000C5000000FEFFFFFFFEFFFFFFC8000000
310
C9000000FEFFFFFFFFFFFFFFFFFFFFFFFFFFFFFFFFFFFFFFFFFFFFFFFFFFFFFF
310
FFFFFFFFFFFFFFFFFFFFFFFFFFFFFFFFFFFFFFFFFFFFFFFFFFFFFFFFFFFFFFFF
310
FFFFFFFFFFFFFFFFFFFFFFFFFFFFFFFFFFFFFFFFFFFFFFFFFFFFFFFFFFFFFFFF
310
FFFFFFFFFFFFFFFFFFFFFFFFFFFFFFFFFFFFFFFFFFFFFFFFFFFFFFFFFFFFFFFF
310
FFFFFFFFFFFFFFFFFFFFFFFFFFFFFFFFFFFFFFFFFFFFFFFFFFFFFFFFFFFFFFFF
310
FFFFFFFFFFFFFFFFFFFFFFFFFEFFFFFFFFFFFFFFFFFFFFFFFFFFFFFFFEFFFFFF
310
FFFFFFFFFA000000FB000000FEFFFFFFFFFFFFFFFFFFFFFFFFFFFFFFFFFFFFFF
310
20260000424D0E260000000000003E00000028000000B40200006E0000000100
310
01000000000000000000130B0000130B00000200000002000000000000FFFFFF
310
FFFFFFFFFFFFFFFFFFFFFFFFFFFFFFFFFFFFFFFFFFFFFFFFFFFFFFFFFFFFFFFF
310
FFFFFFFFFFFFFFFFFFFFFFFFFFFFFFFFFFFFFFFFFFFFFFFFFFFFFFFFFFFFFFFF
310
FFFFFFFFFFFFFFFFFFFFFFFFFFFFFFFFFFFFFFFFFFFFFFFFF000FFFFFFFFFFFF
310
FFFFFFFFFFFFFFFFFFFFFFFFFFFFFFFFFFFFFFFFFFFFFFFFFFFFFFFFFFFFFFFF
310
FFFFFFFFFFFFFFFFFFFFFFFFFFFFFFFFFFFFFFFFFFFFFFFFFFFFFFFFFFFFFFFF
310
FFFFFFFFFFFFFFFFFFFFFFFFFFFFFFFFF000FFFFFFFFFFFFFFFFFFFFFFFFFFFF
310
FFFFFFFFFFFFFFFFFFFFFFFFFFFFFFFFFFFFFFFFFFFFFFFFFFFFFFFFFFFFFFFF
310
FFFFFFFFFFFFFFFFFFFFFFFFFFFFFFFFFFFFFFFFFFFFFFFFFFFFFFFFFFFFFFFF
310
FFFFFFFFFFFFFFFFF000FFFFFFFFFFFFFFFFFFFFFFFFFFFFFFFFFFFFFFFFFFFF
310
FFFFFFFFFFFFFFFFFFFFFFFFFFFFFFFFFFFFFFFFFFFFFFFFFFFFFFFFFFFFFFFF
310
FFFFFFFFFFFFFFFFFFFFFFFFFFFFFFFFFFFFFFFFFFFFFFFFFFFFFFFFFFFFFFFF
310
F000FFFFFFFFFFFFFFFFFFFFFFFFFFFFFFFFFFFFFFFFFFFFFFFFFFFFFFFFFFFF
310
FFFFFFFFFFFFFFFFFFFFFFFFFFFFFFFFFFFFFFFFFFFFFFFFFFFFFFFFFFFFFFFF
310
FFFFFFFFFFFFFFFFFFFFFFFFFFFFFFFFFFFFFFFFFFFFFFFFF000FFFFFFFFFFFF
310
FFFFFFFFFFFFFFFFFFFFFFFFFFFFFFFFFFFFFFFFFFFFFFFFFFFFFFFFFFFFFFFF
310
FFFFFFFFFFFFFFFFFFFFFFFFFFFFFFFFFFFFFFFFFFFFFFFFFFFFFFFFFFFFFFFF
310
FFFFFFFFFFFFFFFFFFFFFFFFFFFFFFFFF000FFFFFFFFFFFFFFFFFFFFFFFFFFFF
310
FFFFFFFFFFFFFFFFFFFFFFFFFFFFFFFFFFFFFFFFFFFFFFFFFFFFFFFFFFFFFFFF
310
FFFFFFFFFFFFFFFFFFFFFFFFFFFFFFFFFFFFFFFFFFFFFFFFFFFFFFFFFFFFFFFF
310
FFFFFFFFFFFFFFFFF000FFFFFFFFFFFFFFFFFFFFFFFFFFFFFFFFFFFFFFFFFFFF
310
FFFFFFFFFFFFFFFFFFFFFFFFFFFFFFFFFFFFFFFFFFFFFFFFFFFFFFFFFFFFFFFF
310
FFFFFFFFFFFFFFFFFFFFFFFFFFFFFFFFFFFFFFFFFFFFFFFFFFFFFFFFFFFFFFFF
310
F000FFFFFFFFFFFFFFFFFFFFFFFFFFFFFFFFFFFFFFFFFFFFFFFFFFFFFFFFFFFF
310
FFFFFFFFFFFFFFFFFFFFFFFFFFFFFFFFFFFFFFFFFFFFFFFFFFFFFFFFFFFFFFFF
310
FFFFFFFFFFFFFFFFFFFFFFFFFFFFFFFFFFFFFFFFFFFFFFFFF000FFFFFFFFFFFF
310
FFFFFFFFFFFFFFFFFFFFFFFFFFFFFFFFFFFFFFFFFFFFFFFFFFFFFFFFFFFFFFFF
310
FFFFFFFFFFFFFFFFFFFFFFFFFFFFFFFFFFFFFFFFFFFFFFFFFFFFFFFFFFFFFFFF
310
FFFFFFFFFFFFFFFFFFFFFFFFFFFFFFFFF000FFFFFFFFFFFFFFFFFFFFFFFFFFFF
310
FFFFFFFFFFFFFFFFFFFFFFFFFFFFFFFFFFFFFFFFFFFFFFFFFFFFFFFFFFFFFFFF
310
FFFFFFFFFFFFFFFFFFFFFFFFFFFFFFFFFFFFFFFFFFFFFFFFFFFFFFFFFFFFFFFF
310
FFFFFFFFFFFFFFFFF000FFFFFFFFFFFFFFFFFFFFFFFFFFFFFFFFFFFFFFFFFFFF
310
FFFFFFFFFFFFFFFFFFFFFFFFFFFFFFFFFFFFFFFFFFFFFFFFFFFFFFFFFFFFFFFF
310
FFFFFFFFFFFFFFFFFFFFFFFFFFFFFFFFFFFFFFFFFFFFFFFFFFFFFFFFFFFFFFFF
310
F000FFFFFFFFFFFFFFFFFFFFFFFFFFFFFFFFFFFFFFFFFFFFFFFFFFFFFFFFFFFF
310
FFFFFFFFFFFFFFFFFFFFFFFFFFFFFFFFFFFFFFFFFFFFFFFFFFFFFFFFFFFFFFFF
310
FFFFFFFFFFFFFFFFFFFFFFFFFFFFFFFFFFFFFFFFFFFFFFFFF000FFFFFFFFFFFF
310
FFFFFFFFFFFFFFFFFFFFFFFFFFFFFFFFFFFFFFFFFFFFFFFFFFFFFFFFFFFFFFFF
310
FFFFFFFFFFFFFFFFFFFFFFFFFFFFFFFFFFFFFFFFFFFFFFFFFFFFFFFFFFFFFFFF
310
FFFFFFFFFFFFFFFFFFFFFFFFFFFFFFFFF000FFFFFFFFFFFFFFFFFFFFFFFFFFFF
310
FFFFFFFFFFFFFFFFFFFFFFFFFFFFFFFFFFFFFFFFFFFFFFFFFFFFFFFFFFFFFFFF
310
FFFFFFFFFFFFFFFFFFFFFFFFFFFFFFFFFFFFFFFFFFFFFFFFFFFFFFFFFFFFFFFF
310
FFFFFFFFFFFFFFFFF000FFFFFFFFFFFFFFFFFFFFFFFFFFFFFFFFFFFFFFFFFFFF
310
FFFFFFFFFFFFFFFFFFFFFFFFFFFFFFFFFFFFFFFFFFFFFFFFFFFFFFFFFFFFFFFF
310
FFFFFFFFFFFFFFFFFFFFFFFFFFFFFFFFFFFFFFFFFFFFFFFFFFFFFFFFFFFFFFFF
310
F000FFFFFFFFFFFFFFFFFFFFFFFFFFFFFFFFFFFFFFFFFFFFFFFFFFFFFFFFFFFF
310
FFFFFFFFFFFFFFFFFFFFFFFFFFFFFFFFFFFFFFFFFFFFFFFFFFFFFFFFFFFFFFFF
310
FFFFFFFFFFFFFFFFFFFFFFFFFFFFFFFFFFFFFFFFFFFFFFFFF000FFFFFFFFFFFF
310
FFFFFFFFFFFFFFFFFFFFFFFFFFFFFFFFFFFFFFFFFFFFFFFFFFFFFFFFFFFFFFFF
310
FFFFFFFFFFFFFFFFFFFFFFFFFFFFFFFFFFFFFFFFFFFFFFFFFFFFFFFFFFFFFFFF
310
FFFFFFFFFFFFFFFFFFFFFFFFFFFFFFFFF000FFFFFFFFFFFFFFFFFFFFFFFFFFFF
310
FFFFFFFFFFFFFFFFFFFFFFFFFFFFFFFFFFFFFFFFFFFFFFFFFFFFFFFFFFFFFFFF
310
FFFFFFFFFFFFFFFFFFFFFFFFFFFFFFFFFFFFFFFFFFFFFFFFFFFFFFFFFFFFFFFF
310
FFFFFFFFFFFFFFFFF000FFFFF80003FFFFFFFFFFFFFFFFFFFFFFFFFFFFFFFFFF
310
FFFFF00007FFFFFFFFFF00007FFFFFF800000000000000007FFFFFFFFFFFFFFF
310
FFFFFFFC001FFFFFFFFFFFFFFC001FFFFFFFFFFFFFFFFFFFFFFFFFFE0007FFFF
310
F000FFFF8000007FFFFFFFF8000FFFFFC0007FFFFF80007FFFFF0000007FFFFF
310
FFF8000007FFFFF800000000000000007FFFFFF0001FFFFFFFFFFFC00001FFFF
310
FFFFFFFFC00001FFFFFFFF000000000003FFFFE000007FFFF000FFFE0000000F
310
FFFFFFF0000FFFFF80007FFFFF80007FFFFC0000001FFFFFFFC0000001FFFFF8
310
00000000000000007FFFFFF0001FFFFFFFFFFE0000003FFFFFFFFFFE0000003F
310
FFFFFF000000000003FFFF0000000FFFF000FFF800000003FFFFFFF00007FFFF
310
80007FFFFF80007FFFF000000007FFFFFF000000003FFFF80000000000000000
310
7FFFFFF0001FFFFFFFFFF80000000FFFFFFFFFF80000000FFFFFFF0000000000
310
03FFFC00000003FFF000FFE000000000FFFFFFF00007FFFF80003FFFFF80007F
310
FFC000000001FFFFFC000000001FFFF800000000000000007FFFFFF0001FFFFF
310
FFFFE000000003FFFFFFFFE000000003FFFFFF000000000003FFF000000000FF
310
F000FF80000000007FFFFFF00007FFFF80003FFFFF80007FFF8000000000FFFF
310
F80000000007FFF800000000000000007FFFFFF0001FFFFFFFFFC000000001FF
310
FFFFFFC000000001FFFFFF000000000003FFC0000000007FF000FF0000000000
310
3FFFFFE00007FFFF00003FFFFF80007FFE00000000003FFFF00000000003FFF8
310
00000000000000007FFFFFF0001FFFFFFFFF8000000000FFFFFFFF8000000000
310
FFFFFF000000000003FF80000000003FF000FE00000000001FFFFFE00003FFFF
310
00003FFFFF80007FFC00000000001FFFE00000000001FFF8000001FFFE000000
310
7FFFFFF0001FFFFFFFFE00000000003FFFFFFE00000000003FFFFF0000000000
310
03FF00000000001FF000FC00000000000FFFFFE00003FFFF00001FFFFF80007F
310
F800000000001FFFC00000000000FFF8000001FFFE0000007FFFFFF0001FFFFF
310
FFFC00000000001FFFFFFC00000000001FFFFF000000000003FE00000000000F
310
F000F8000000000007FFFFE00003FFFF00001FFFFF80007FF800000000000FFF
310
800000000000FFF8000001FFFE0000007FFFFFF0001FFFFFFFF800000000000F
310
FFFFF800000000000FFFFF000000000003FC000000000007F000F80000000000
310
03FFFFC00003FFFE00001FFFFF80007FF0000000000007FF0000000000007FF8
310
000001FFFE0000007FFFFFF0001FFFFFFFF0000000000007FFFFF00000000000
310
07FFFF000000000003F8000000000003F000F0000000000003FFFFC00001FFFE
310
00001FFFFF80007FE0000000000007FE0000000000003FF8000001FFFE000000
310
7FFFFFF0001FFFFFFFF0000000000007FFFFF0000000000007FFFF0000000000
310
03F800001F800003F000E00001FFF00001FFFFC00001FFFE00000FFFFF80007F
310
E00001FFE00003FE00001FFF00003FF8000001FFFE0000007FFFFFF0001FFFFF
310
FFE000003E000003FFFFE000003E000003FFFF000000000003F00001FFF80001
310
F000E00007FFFC0001FFFFC00001FFFE00000FFFFF80007FC0000FFFFC0003FC
310
0000FFFFC0001FF8000001FFFE0000007FFFFFF0001FFFFFFFC00003FFE00001
310
FFFFC00003FFE00001FFFF0001FFFFFFFFF00007FFFE0001F000E0000FFFFF00
310
00FFFF800001FFFC00000FFFFF80007FC0001FFFFE0001FC0001FFFFE0001FF8
310
000001FFFE0000007FFFFFF0001FFFFFFF80000FFFF80000FFFF80000FFFF800
310
00FFFF0003FFFFFFFFE0000FFFFF8000F000C0003FFFFF8000FFFF800000FFFC
310
000007FFFF80007F80003FFFFF0001FC0003FFFFF0001FF8000001FFFE000000
310
7FFFFFF0001FFFFFFF80003FFFFE0000FFFF80003FFFFE0000FFFF0003FFFFFF
310
FFE0003FFFFF8000F000C0003FFFFF8000FFFF800000FFFC000007FFFF80007F
310
80007FFFFF8001F80007FFFFF8000FF8000001FFFE0000007FFFFFF0001FFFFF
310
FF00007FFFFF00007FFF00007FFFFF00007FFF0003FFFFFFFFE0003FFFFFC000
310
F000C0007FFFFFC000FFFF000000FFFC000007FFFF80007F8000FFFFFF8000F8
310
000FFFFFF8000FF8000001FFFE0000007FFFFFF0001FFFFFFF0000FFFFFF8000
310
7FFF0000FFFFFF80007FFF0003FFFFFFFFC0007FFFFFC00070008000FFFFFFC0
310
00FFFF000000FFF8000007FFFF80007F8000FFFFFF8000F8000FFFFFF8000FF8
310
000001FFFE0000007FFFFFF0001FFFFFFE0001FFFFFFC0003FFE0001FFFFFFC0
310
003FFF0003FFFFFFFFC0007FFFFFE00070008000FFFFFFC0007FFF0000007FF8
310
000003FFFF80007F0001FFFFFF8000F8000FFFFFF8000FF8000001FFFE000000
310
7FFFFFF0001FFFFFFE0001FFFFFFC0003FFE0001FFFFFFC0003FFF0003FFFFFF
310
FFC000FFFFFFE00070008000FFFFFFC0007FFF0000007FF8000003FFFF80007F
310
0001FFFFFF8000F8001FFFFFF8000FF8000001FFFE0000007FFFFFF0001FFFFF
310
FE0003FFFFFFE0003FFE0003FFFFFFE0003FFF0003FFFFFFFFC000FFFFFFE000
310
70008000FFFFFFC0007FFE0000007FF8000003FFFF80007F0001FFFFFF8000F0
310
001FFFFFF8000FF8000001FFFE0000007FFFFFF0001FFFFFFC0003FFFFFFE000
310
1FFC0003FFFFFFE0001FFF0003FFFFFFFFC000FFFFFFC00070008000FFFFFF80
310
007FFE0000007FF0000003FFFF80007F0001FFFFFF0000F0001FFFFFF8000FF8
310
000001FFFE0000007FFFFFF0001FFFFFFC0007FFFFFFF0001FFC0007FFFFFFF0
310
001FFF0003FFFFFFFFC000FFFFFFC00070008001FFFFFF0000FFFE0000003FF0
310
000001FFFF80007F0001FFFFFF0000F8001FFFFFF0000FF8000001FFFE000000
310
7FFFFFF0001FFFFFFC0007FFFFFFF0001FFC0007FFFFFFF0001FFF0003FFFFFF
310
FFC001FFFFFF80007000FFFFFFFFFE0000FFFE0008003FF0008001FFFF80007F
310
FFFFFFFFFC0000FFFFFFFFFFE0000FF8000001FFFE0000007FFFFFF0001FFFFF
310
F8000FFFFFFFF8000FF8000FFFFFFFF8000FFF0003FFFFFFFFFFFFFFFFFF0000
310
7000FFFFFFFFFC0000FFFC0008003FF0008001FFFF80007FFFFFFFFFF80001FF
310
FFFFFFFF80000FF8000001FFFE0000007FFFFFF0001FFFFFF8000FFFFFFFF800
310
0FF8000FFFFFFFF8000FFF0003FFFFFFFFFFFFFFFFFE0000F000FFFFFFFFE000
310
00FFFC000C003FE000C001FFFF80007FFFFFFFFFC00001FFFFFFFFFE00001FF8
310
000001FFFE0000007FFFFFF0001FFFFFF8000FFFFFFFF8000FF8000FFFFFFFF8
310
000FFF0003FFFFFFFFFFFFFFFFF00000F000FFFFFFFE000001FFFC000C001FE0
310
00C000FFFF80007FFFFFFFFE000001FFFFFFFFE000001FF80FFFFFFFFFFFFFC0
310
7FFFFFF0001FFFFFF8000FFFFFFFF8000FF8000FFFFFFFF8000FFF0003FFFFFF
310
FFFFFFFFFF800000F000FFFFFFC0000001FFFC001C001FE001C000FFFF80007F
310
FFFFFF80000003FFFFFFF80000001FF80FFFFFFFFFFFFFC07FFFFFF0001FFFFF
310
F8001FFFFFFFFC000FF8001FFFFFFFFC000FFF0003FFFFFFFFFFFFFFF0000001
310
F000FFFFF800000001FFF8001C001FE001C000FFFF80007FFFFFF800000003FF
310
FFFF800000003FF80FFFFFFFFFFFFFC07FFFFFF0001FFFFFF8001FFFFFFFFC00
310
0FF8001FFFFFFFFC000FFF0003FFFFFFFFFFFFFE00000001F000FFFFC0000000
310
03FFF8001E001FC001E000FFFF80007FFFFF8000000007FFFFFC000000003FF8
310
0FFFFFFFFFFFFFC07FFFFFF0001FFFFFF8001FFFFFFFFC000FF8001FFFFFFFFC
310
000FFF0003FFFFFFFFFFFFE000000003F000FFFE0000000007FFF8001E000FC0
310
01E0007FFF80007FFFFE0000000007FFFFE0000000007FF80FFFFFFFFFFFFFC0
310
7FFFFFF0001FFFFFF0001FFFFFFFFC0007F0001FFFFFFFFC0007FF0003FFFFFF
310
FFFFFF0000000003F000FFF80000000007FFF8001E000FC003E0007FFF80007F
310
FFF0000000000FFFFF8000000000FFF80FFFFFFFFFFFFFC07FFFFFF0001FFFFF
310
F0001FFFFFFFFC0007F0001FFFFFFFFC0007FF0003FFFFFFFFFFFC0000000007
310
F000FFE0000000000FFFF0003E000FC003E0007FFF80007FFFC0000000001FFF
310
FE0000000001FFF80FFFFFFFFFFFFFC07FFFFFF0001FFFFFF0001FFFFFFFFC00
310
07F0001FFFFFFFFC0007FF0003FFFFFFFFFFF0000000000FF000FFC000000000
310
1FFFF0003F000F8003F0003FFF80007FFF80000000003FFFF80000000003FFF8
310
0FFFFFFFFFFFFFC07FFFFFF0001FFFFFF0001FFFFFFFFC0007F0001FFFFFFFFC
310
0007FF0003FFFFFFFFFFE0000000001FF000FF00000000007FFFF0003F000780
310
03F0003FFF80007FFF00000000007FFFF00000000007FFF80FFFFFFFFFFFFFC0
310
7FFFFFF0001FFFFFF0001FFFFFFFFC0007F0001FFFFFFFFC0007FF0003FFFFFF
310
FFFF80000000007FF000FE0000000000FFFFE0003F00078007F0003FFF80007F
310
FE0000000001FFFFE0000000001FFFF80FFFFFFFFFFFFFC07FFFFFF0001FFFFF
310
F0001FFFFFFFFC0007F0001FFFFFFFFC0007FF0003FFFFFFFFFF0000000000FF
310
F000FC0000000003FFFFE0007F00078007F0003FFF80007FFC0000000007FFFF
310
C0000000007FFFF80FFFFFFFFFFFFFC07FFFFFF0001FFFFFF8001FFFFFFFFC00
310
0FF8001FFFFFFFFC000FFF0003FFFFFFFFFE0000000003FFF000FC000000000F
310
FFFFE0007F80070007F8001FFF80007FF8000000001FFFFF8000000001FFFFF8
310
0FFFFFFFFFFFFFC07FFFFFF0001FFFFFF8001FFFFFFFFC000FF8001FFFFFFFFC
310
000FFF0003FFFFFFFFFC000000000FFFF000F8000000007FFFFFE0007F800700
310
07F8001FFF80007FF000000000FFFFFF800000000FFFFFF80FFFFFFFFFFFFFC0
310
7FFFFFF0001FFFFFF8000FFFFFFFF8000FF8000FFFFFFFF8000FFF0003FFFFFF
310
FFFC000000007FFFF000F800000007FFFFFFC0007F8003000FF8001FFF80007F
310
F000000007FFFFFF000000007FFFFFF80FFFFFFFFFFFFFC07FFFFFF0001FFFFF
310
F8000FFFFFFFF8000FF8000FFFFFFFF8000FFF0003FFFFFFFFF80000000FFFFF
310
F000F0000000FFFFFFFFC000FF8003000FF8001FFF80007FE0000000FFFFFFFF
310
0000000FFFFFFFF8000001FFFE0000007FFFFFF0001FFFFFF8000FFFFFFFF800
310
0FF8000FFFFFFFF8000FFF0003FFFFFFFFF8000000FFFFFFF000F000000FFFFF
310
FFFFC000FFC002000FF8000FFF80007FE000001FFFFFFFFE000001FFFFFFFFF8
310
000001FFFE0000007FFFFFF0001FFFFFF8000FFFFFFFF8000FF8000FFFFFFFF8
310
000FFF0003FFFFFFFFF000001FFFFFFFF000E00000FFFFFFFFFFC000FFC00200
310
0FFC000FFF80007FE00001FFFFFFFFFE00001FFFFFFFFFF8000001FFFE000000
310
7FFFFFF0001FFFFFFC000FFFFFFFF8001FFC000FFFFFFFF8001FFF0003FFFFFF
310
FFF00001FFFFFFFFF000E00007FFFFFFFFFF8000FFC000001FFC000FFF80007F
310
C0000FFFFFFFFFFE0000FFFFFFFFFFF8000001FFFE0000007FFFFFF0001FFFFF
310
FC0007FFFFFFF0001FFC0007FFFFFFF0001FFF0003FFFFFFFFF00007FFFFFFFF
310
F000E0001FFFFFFFFFFF8000FFC000001FFC000FFF80007FC0003FFFFFFFFFFE
310
0001FFFFFFFFFFF8000001FFFE0000007FFFFFF0001FFFFFFC0007FFFFFFF000
310
1FFC0007FFFFFFF0001FFF0003FFFFFFFFF0001FFFFFFFFFF000E0003FFFFF00
310
03FF8001FFE000001FFC0007FF80007FC0007FFFFF0007FC0003FFFFF0003FF8
310
000001FFFE0000007FFFFFF0001FFFFFFC0003FFFFFFE0001FFC0003FFFFFFE0
310
001FFF0003FFFFFFFFF0003FFFFFFFFFF000E0003FFFFF0001FF8001FFE00000
310
1FFE0007FF80007FC0007FFFFE0003FC0007FFFFE0003FF8000001FFFE000000
310
7FFFFFF0001FFFFFFE0003FFFFFFE0003FFE0003FFFFFFE0003FFF0003FFFFFF
310
FFF0003FFFFF8001F000E0003FFFFF0001FF0001FFE000001FFE0007FF80007F
310
C0007FFFFE0003FC0007FFFFE0003FF8000001FFFE0000007FFFFFF0001FFFFF
310
FE0001FFFFFFC0003FFE0001FFFFFFC0003FFF0003FFFFFFFFF0003FFFFF0001
310
F000E0003FFFFF0003FF0001FFE000003FFE0007FF80007FC0007FFFFE0003FC
310
0007FFFFE0003FF8000001FFFE0000007FFFFFF0001FFFFFFF0001FFFFFFC000
310
7FFF0001FFFFFFC0007FFF0003FFFFFFFFF0003FFFFF0001F000E0003FFFFE00
310
03FF0003FFF000003FFE0003FF80007FC0007FFFFC0003FE0007FFFFE0003FF8
310
000001FFFE0000007FFFFFF0001FFFFFFF0000FFFFFF80007FFF0000FFFFFF80
310
007FFF0003FFFFFFFFF0003FFFFF0001F000E0003FFFFE0003FF0003FFF00000
310
3FFF0003FF80007FC0007FFFFC0007FE0007FFFFC0003FF8000001FFFE000000
310
7FFFFFF0001FFFFFFF80007FFFFF0000FFFF80007FFFFF0000FFFF0003FFFFFF
310
FFF0003FFFFF0003F000E0003FFFFC0003FE0003FFF000003FFF0003FF80007F
310
E0003FFFF80007FE0003FFFFC0007FF8000001FFFE0000007FFFFFF0001FFFFF
310
FF80003FFFFE0000FFFF80003FFFFE0000FFFF0003FFFFFFFFF0001FFFFE0003
310
F000F0001FFFF80003FE0003FFF000007FFF0001FF80007FE0003FFFF00007FE
310
0001FFFF80007FF8000001FFFE0000007FFFFFF0001FFFFFFFC0000FFFF80001
310
FFFFC0000FFFF80001FFFF0003FFFFFFFFF0001FFFFC0003F000F0000FFFF000
310
07FE0007FFF800007FFF0001FF80007FE0001FFFE00007FF0000FFFE00007FF8
310
000001FFFE0000007FFFFFF0001FFFFFFFC00003FFE00001FFFFC00003FFE000
310
01FFFF0003FFFFFFFFF8000FFFF80003F000F00003FFC00007FC0007FFF80000
310
7FFF8001FF80007FF00007FF80000FFF00007FF80000FFF8000001FFFE000000
310
7F80000000000001FFE000003E000003FFFFE000003E000003FFFF0003FFFFFF
310
FFF80003FFE00007F000F800000000000FFC0007FFF800007FFF8001FF80007F
310
F000000000000FFF000000000000FFF8000001FFFE0000007F80000000000001
310
FFF0000000000007FFFFF0000000000007FFFF0003FFFFFFFFFC00007E000007
310
F000F800000000000FFC0007FFF80000FFFF8000FF80007FF800000000001FFF
310
800000000001FFF8000001FFFE0000007F80000000000001FFF800000000000F
310
FFFFF800000000000FFFFF0003FFFFFFFFFC00000000000FF000FC0000000000
310
1FFC0007FFFC0000FFFF8000FF80007FF800000000003FFFC00000000001FFF8
310
000001FFFE0000007F80000000000001FFF800000000000FFFFFF80000000000
310
0FFFFF0003FFFFFFFFFE00000000001FF000FE00000000003FF8000FFFFC0000
310
FFFF8000FF80007FFC00000000003FFFC00000000003FFF8000001FFFE000000
310
7F80000000000001FFFC00000000001FFFFFFC00000000001FFFFF0003FFFFFF
310
FFFF00000000001FF000FF00000000003FF8000FFFFC0000FFFFC000FF80007F
310
FE00000000007FFFE00000000007FFF8000001FFFE0000007F80000000000001
310
FFFE00000000003FFFFFFE00000000003FFFFF0003FFFFFFFFFF80000000003F
310
F000FF80000000007FF8000FFFFC0001FFFFC0007F80007FFF0000000000FFFF
310
F0000000000FFFF800000000000000007F80000000000001FFFF8000000000FF
310
FFFFFF8000000000FFFFFF0003FFFFFFFFFFC0000000007FF000FFC000000000
310
FFF8000FFFFE0001FFFFC0007F80007FFF8000000001FFFFF8000000001FFFF8
310
00000000000000007F80000000000001FFFFC000000001FFFFFFFFC000000001
310
FFFFFF0003FFFFFFFFFFE000000000FFF000FFE000000003FFF0001FFFFE0001
310
FFFFC0007F80007FFFC000000007FFFFFE000000003FFFF80000000000000000
310
7F80000000000001FFFFE000000003FFFFFFFFE000000003FFFFFF0003FFFFFF
310
FFFFF000000003FFF000FFF80000000FFFF0001FFFFE0001FFFFE0007F80007F
310
FFF00000000FFFFFFF00000000FFFFF800000000000000007F80000000000001
310
FFFFF80000000FFFFFFFFFF80000000FFFFFFF0003FFFFFFFFFFFC0000000FFF
310
F000FFFE0000003FFFF0001FFFFE0003FFFFE0003F80007FFFFC0000003FFFFF
310
FFC0000003FFFFF800000000000000007F80000000000001FFFFFE0000003FFF
310
FFFFFFFE0000003FFFFFFF0003FFFFFFFFFFFF0000003FFFF000FFFF800000FF
310
FFF0001FFFFF0003FFFFE0003F80007FFFFF000001FFFFFFFFF800001FFFFFF8
310
00000000000000007F80000000000001FFFFFFC00001FFFFFFFFFFFFC00001FF
310
FFFFFF0003FFFFFFFFFFFFC00000FFFFF000FFFFF8000FFFFFFFFFFFFFFFFFFF
310
FFFFFFFFFFFFFFFFFFFFF0001FFFFFFFFFFF0000FFFFFFF80000000000000000
310
7FFFFFFFFFFFFFFFFFFFFFFC001FFFFFFFFFFFFFFC001FFFFFFFFFFFFFFFFFFF
310
FFFFFFFC001FFFFFF000FFFFFFFFFFFFFFFFFFFFFFFFFFFFFFFFFFFFFFFFFFFF
310
FFFFFFFFFFFFFFFFFFFFFFFFFFFFFFFFFFFFFFFFFFFFFFFFFFFFFFFFFFFFFFFF
310
FFFFFFFFFFFFFFFFFFFFFFFFFFFFFFFFFFFFFFFFFFFFFFFFFFFFFFFFFFFFFFFF
310
F000FFFFFFFFFFFFFFFFFFFFFFFFFFFFFFFFFFFFFFFFFFFFFFFFFFFFFFFFFFFF
310
FFFFFFFFFFFFFFFFFFFFFFFFFFFFFFFFFFFFFFFFFFFFFFFFFFFFFFFFFFFFFFFF
310
FFFFFFFFFFFFFFFFFFFFFFFFFFFFFFFFFFFFFFFFFFFFFFFFF000FFFFFFFFFFFF
310
FFFFFFFFFFFFFFFFFFFFFFFFFFFFFFFFFFFFFFFFFFFFFFFFFFFFFFFFFFFFFFFF
310
FFFFFFFFFFFFFFFFFFFFFFFFFFFFFFFFFFFFFFFFFFFFFFFFFFFFFFFFFFFFFFFF
310
FFFFFFFFFFFFFFFFFFFFFFFFFFFFFFFFF000FFFFFFFFFFFFFFFFFFFFFFFFFFFF
310
FFFFFFFFFFFFFFFFFFFFFFFFFFFFFFFFFFFFFFFFFFFFFFFFFFFFFFFFFFFFFFFF
310
FFFFFFFFFFFFFFFFFFFFFFFFFFFFFFFFFFFFFFFFFFFFFFFFFFFFFFFFFFFFFFFF
310
FFFFFFFFFFFFFFFFF000FFFFFFFFFFFFFFFFFFFFFFFFFFFFFFFFFFFFFFFFFFFF
310
FFFFFFFFFFFFFFFFFFFFFFFFFFFFFFFFFFFFFFFFFFFFFFFFFFFFFFFFFFFFFFFF
310
FFFFFFFFFFFFFFFFFFFFFFFFFFFFFFFFFFFFFFFFFFFFFFFFFFFFFFFFFFFFFFFF
310
F000FFFFFFFFFFFFFFFFFFFFFFFFFFFFFFFFFFFFFFFFFFFFFFFFFFFFFFFFFFFF
310
FFFFFFFFFFFFFFFFFFFFFFFFFFFFFFFFFFFFFFFFFFFFFFFFFFFFFFFFFFFFFFFF
310
FFFFFFFFFFFFFFFFFFFFFFFFFFFFFFFFFFFFFFFFFFFFFFFFF000FFFFFFFFFFFF
310
FFFFFFFFFFFFFFFFFFFFFFFFFFFFFFFFFFFFFFFFFFFFFFFFFFFFFFFFFFFFFFFF
310
FFFFFFFFFFFFFFFFFFFFFFFFFFFFFFFFFFFFFFFFFFFFFFFFFFFFFFFFFFFFFFFF
310
FFFFFFFFFFFFFFFFFFFFFFFFFFFFFFFFF000FFFFFFFFFFFFFFFFFFFFFFFFFFFF
310
FFFFFFFFFFFFFFFFFFFFFFFFFFFFFFFFFFFFFFFFFFFFFFFFFFFFFFFFFFFFFFFF
310
FFFFFFFFFFFFFFFFFFFFFFFFFFFFFFFFFFFFFFFFFFFFFFFFFFFFFFFFFFFFFFFF
310
FFFFFFFFFFFFFFFFF000FFFFFFFFFFFFFFFFFFFFFFFFFFFFFFFFFFFFFFFFFFFF
310
FFFFFFFFFFFFFFFFFFFFFFFFFFFFFFFFFFFFFFFFFFFFFFFFFFFFFFFFFFFFFFFF
310
FFFFFFFFFFFFFFFFFFFFFFFFFFFFFFFFFFFFFFFFFFFFFFFFFFFFFFFFFFFFFFFF
310
F000FFFFFFFFFFFFFFFFFFFFFFFFFFFFFFFFFFFFFFFFFFFFFFFFFFFFFFFFFFFF
310
FFFFFFFFFFFFFFFFFFFFFFFFFFFFFFFFFFFFFFFFFFFFFFFFFFFFFFFFFFFFFFFF
310
FFFFFFFFFFFFFFFFFFFFFFFFFFFFFFFFFFFFFFFFFFFFFFFFF000FFFFFFFFFFFF
310
FFFFFFFFFFFFFFFFFFFFFFFFFFFFFFFFFFFFFFFFFFFFFFFFFFFFFFFFFFFFFFFF
310
FFFFFFFFFFFFFFFFFFFFFFFFFFFFFFFFFFFFFFFFFFFFFFFFFFFFFFFFFFFFFFFF
310
FFFFFFFFFFFFFFFFFFFFFFFFFFFFFFFFF000FFFFFFFFFFFFFFFFFFFFFFFFFFFF
310
FFFFFFFFFFFFFFFFFFFFFFFFFFFFFFFFFFFFFFFFFFFFFFFFFFFFFFFFFFFFFFFF
310
FFFFFFFFFFFFFFFFFFFFFFFFFFFFFFFFFFFFFFFFFFFFFFFFFFFFFFFFFFFFFFFF
310
FFFFFFFFFFFFFFFFF000FFFFFFFFFFFFFFFFFFFFFFFFFFFFFFFFFFFFFFFFFFFF
310
FFFFFFFFFFFFFFFFFFFFFFFFFFFFFFFFFFFFFFFFFFFFFFFFFFFFFFFFFFFFFFFF
310
FFFFFFFFFFFFFFFFFFFFFFFFFFFFFFFFFFFFFFFFFFFFFFFFFFFFFFFFFFFFFFFF
310
F000FFFFFFFFFFFFFFFFFFFFFFFFFFFFFFFFFFFFFFFFFFFFFFFFFFFFFFFFFFFF
310
FFFFFFFFFFFFFFFFFFFFFFFFFFFFFFFFFFFFFFFFFFFFFFFFFFFFFFFFFFFFFFFF
310
FFFFFFFFFFFFFFFFFFFFFFFFFFFFFFFFFFFFFFFFFFFFFFFFF000FFFFFFFFFFFF
310
FFFFFFFFFFFFFFFFFFFFFFFFFFFFFFFFFFFFFFFFFFFFFFFFFFFFFFFFFFFFFFFF
310
FFFFFFFFFFFFFFFFFFFFFFFFFFFFFFFFFFFFFFFFFFFFFFFFFFFFFFFFFFFFFFFF
310
FFFFFFFFFFFFFFFFFFFFFFFFFFFFFFFFF000FFFFFFFFFFFFFFFFFFFFFFFFFFFF
310
FFFFFFFFFFFFFFFFFFFFFFFFFFFFFFFFFFFFFFFFFFFFFFFFFFFFFFFFFFFFFFFF
310
FFFFFFFFFFFFFFFFFFFFFFFFFFFFFFFFFFFFFFFFFFFFFFFFFFFFFFFFFFFFFFFF
310
FFFFFFFFFFFFFFFFF000FFFFFFFFFFFFFFFFFFFFFFFFFFFFFFFFFFFFFFFFFFFF
310
FFFFFFFFFFFFFFFFFFFFFFFFFFFFFFFFFFFFFFFFFFFFFFFFFFFFFFFFFFFFFFFF
310
FFFFFFFFFFFFFFFFFFFFFFFFFFFFFFFFFFFFFFFFFFFFFFFFFFFFFFFFFFFFFFFF
310
F000FFFFFFFFFFFFFFFFFFFFFFFFFFFFFFFFFFFFFFFFFFFFFFFFFFFFFFFFFFFF
310
FFFFFFFFFFFFFFFFFFFFFFFFFFFFFFFFFFFFFFFFFFFFFFFFFFFFFFFFFFFFFFFF
310
FFFFFFFFFFFFFFFFFFFFFFFFFFFFFFFFFFFFFFFFFFFFFFFFF000FFFFFFFFFFFF
310
FFFFFFFFFFFFFFFFFFFFFFFFFFFFFFFFFFFFFFFFFFFFFFFFFFFFFFFFFFFFFFFF
310
FFFFFFFFFFFFFFFFFFFFFFFFFFFFFFFFFFFFFFFFFFFFFFFFFFFFFFFFFFFFFFFF
310
FFFFFFFFFFFFFFFFFFFFFFFFFFFFFFFFF000FFFFFFFFFFFFFFFFFFFFFFFFFFFF
310
FFFFFFFFFFFFFFFFFFFFFFFFFFFFFFFFFFFFFFFFFFFFFFFFFFFFFFFFFFFFFFFF
310
FFFFFFFFFFFFFFFFFFFFFFFFFFFFFFFFFFFFFFFFFFFFFFFFFFFFFFFFFFFFFFFF
310
FFFFFFFFFFFFFFFFF000FFFFFFFFFFFFFFFFFFFFFFFFFFFFFFFFFFFFFFFFFFFF
310
FFFFFFFFFFFFFFFFFFFFFFFFFFFFFFFFFFFFFFFFFFFFFFFFFFFFFFFFFFFFFFFF
310
FFFFFFFFFFFFFFFFFFFFFFFFFFFFFFFFFFFFFFFFFFFFFFFFFFFFFFFFFFFFFFFF
310
F000FFFFFFFFFFFFFFFFFFFFFFFFFFFFFFFFFFFFFFFFFFFFFFFFFFFFFFFFFFFF
310
FFFFFFFFFFFFFFFFFFFFFFFFFFFFFFFFFFFFFFFFFFFFFFFFFFFFFFFFFFFFFFFF
310
FFFFFFFFFFFFFFFFFFFFFFFFFFFFFFFFFFFFFFFFFFFFFFFFF000FFFFFFFFFFFF
310
FFFFFFFFFFFFFFFFFFFFFFFFFFFFFFFFFFFFFFFFFFFFFFFFFFFFFFFFFFFFFFFF
310
FFFFFFFFFFFFFFFFFFFFFFFFFFFFFFFFFFFFFFFFFFFFFFFFFFFFFFFFFFFFFFFF
310
FFFFFFFFFFFFFFFFFFFFFFFFFFFFFFFFF0000000000000000000000000000000
310
00000000000000000000000042006C00610063006B0000000000000000000000
310
0000000000000000000000000000000000000000000000000000000000000000
310
0000000000000000000000000000FFFFFFFFFFFFFFFFFFFFFFFFFFFFFFFFFFFF
310
FFFFFFFFFFFFFFFFFFFFFFFFFFFFFFFFFFFFFFFFFFFFFFFFFFFFFFFFFFFFFFFF
310
FFFFFFFFFFFFFFFFFFFFFFFF6476000800000000FFFFFFFF20FF202026000000
310
1E00000008000000060000000000000011000000200000008403000000000000
310
6000000060000000200002FB200020000000002B00FFFFFF40002200E8030000
310
A80400001C020000AF0000804A20004000000000000000000100000000000000
310
616C000800000000E40100007001000002000000270000001100000000000000
310
00000000BC0200000000000003020122420065006C006C00200047006F007400
310
680069006300200053007400640020004C006900670068007400000000000000
310
00000000000000000000000000000000420065006C006C0047006F0074006800
310
690063005300740064002D0042006F006C006400000000000000000000000000
310
0000000000000000000000000000000000000000000000000000000000000000
310
0000000000000000000000000000000000000000000000000000000000000000
  1
OLE
  0
ENDSEC
  0
SECTION
  2
OBJECTS
  0
DICTIONARY
  5
C
330
0
100
AcDbDictionary
281
     1
  3
ACAD_GROUP
350
D
  3
ACAD_LAYOUT
350
1A
  3
ACAD_MLEADERSTYLE
350
212
  3
ACAD_MLINESTYLE
350
17
  3
ACAD_PLOTSETTINGS
350
19
  3
ACAD_PLOTSTYLENAME
350
E
  3
ACAD_TABLESTYLE
350
211
  3
ACAD_VISUALSTYLE
350
2A
  3
AcDbVariableDictionary
350
213
  0
DICTIONARY
  5
D
102
{ACAD_REACTORS
330
C
102
}
330
C
100
AcDbDictionary
281
     1
  0
DICTIONARY
  5
1A
102
{ACAD_REACTORS
330
C
102
}
330
C
100
AcDbDictionary
281
     1
  3
Layout1
350
1E
  3
Layout2
350
26
  3
Model
350
22
  0
DICTIONARY
  5
212
102
{ACAD_REACTORS
330
C
102
}
330
C
100
AcDbDictionary
281
     1
  0
DICTIONARY
  5
17
102
{ACAD_REACTORS
330
C
102
}
330
C
100
AcDbDictionary
281
     1
  3
Standard
350
18
  0
DICTIONARY
  5
19
102
{ACAD_REACTORS
330
C
102
}
330
C
100
AcDbDictionary
281
     1
  0
ACDBDICTIONARYWDFLT
  5
E
102
{ACAD_REACTORS
330
C
102
}
330
C
100
AcDbDictionary
281
     1
  3
Normal
350
F
100
AcDbDictionaryWithDefault
340
F
  0
DICTIONARY
  5
211
102
{ACAD_REACTORS
330
C
102
}
330
C
100
AcDbDictionary
281
     1
  0
DICTIONARY
  5
2A
102
{ACAD_REACTORS
330
C
102
}
330
C
100
AcDbDictionary
281
     1
  3
2dWireframe
350
2F
  3
3D Hidden
350
31
  3
3dWireframe
350
30
  3
Basic
350
32
  3
Brighten
350
36
  3
ColorChange
350
3A
  3
Conceptual
350
34
  3
Dim
350
35
  3
Facepattern
350
39
  3
Flat
350
2B
  3
FlatWithEdges
350
2C
  3
Gouraud
350
2D
  3
GouraudWithEdges
350
2E
  3
Linepattern
350
38
  3
Realistic
350
33
  3
Thicken
350
37
  0
DICTIONARY
  5
213
102
{ACAD_REACTORS
330
C
102
}
330
C
100
AcDbDictionary
281
     1
  3
PSOLHEIGHT
350
215
  3
PSOLWIDTH
350
214
  0
LAYOUT
  5
1E
102
{ACAD_REACTORS
330
1A
102
}
330
1A
100
AcDbPlotSettings
  1

  2
none_device
  4

  6

 40
0.0
 41
0.0
 42
0.0
 43
0.0
 44
0.0
 45
0.0
 46
0.0
 47
0.0
 48
0.0
 49
0.0
140
0.0
141
0.0
142
1.0
143
1.0
 70
   688
 72
     0
 73
     0
 74
     5
  7

 75
    16
147
1.0
148
0.0
149
0.0
100
AcDbLayout
  1
Layout1
 70
     1
 71
     1
 10
0.0
 20
0.0
 11
420.0
 21
297.0
 12
0.0
 22
0.0
 32
0.0
 14
1.0000000000E+20
 24
1.0000000000E+20
 34
1.0000000000E+20
 15
-1.0000000000E+20
 25
-1.0000000000E+20
 35
-1.0000000000E+20
146
0.0
 13
0.0
 23
0.0
 33
0.0
 16
1.0
 26
0.0
 36
0.0
 17
0.0
 27
1.0
 37
0.0
 76
     0
330
1B
  0
LAYOUT
  5
26
102
{ACAD_REACTORS
330
1A
102
}
330
1A
100
AcDbPlotSettings
  1

  2
none_device
  4

  6

 40
0.0
 41
0.0
 42
0.0
 43
0.0
 44
0.0
 45
0.0
 46
0.0
 47
0.0
 48
0.0
 49
0.0
140
0.0
141
0.0
142
1.0
143
1.0
 70
   688
 72
     0
 73
     0
 74
     5
  7

 75
    16
147
1.0
148
0.0
149
0.0
100
AcDbLayout
  1
Layout2
 70
     1
 71
     2
 10
0.0
 20
0.0
 11
0.0
 21
0.0
 12
0.0
 22
0.0
 32
0.0
 14
0.0
 24
0.0
 34
0.0
 15
0.0
 25
0.0
 35
0.0
146
0.0
 13
0.0
 23
0.0
 33
0.0
 16
1.0
 26
0.0
 36
0.0
 17
0.0
 27
1.0
 37
0.0
 76
     0
330
23
  0
LAYOUT
  5
22
102
{ACAD_REACTORS
330
1A
102
}
330
1A
100
AcDbPlotSettings
  1

  2
none_device
  4

  6

 40
0.0
 41
0.0
 42
0.0
 43
0.0
 44
0.0
 45
0.0
 46
0.0
 47
0.0
 48
0.0
 49
0.0
140
0.0
141
0.0
142
1.0
143
1.0
 70
  1712
 72
     0
 73
     0
 74
     0
  7

 75
     0
147
1.0
148
0.0
149
0.0
100
AcDbLayout
  1
Model
 70
     1
 71
     0
 10
0.0
 20
0.0
 11
297.0
 21
210.0
 12
0.0
 22
0.0
 32
0.0
 14
0.0
 24
0.0
 34
0.0
 15
297.0
 25
210.0
 35
0.0
146
0.0
 13
0.0
 23
0.0
 33
0.0
 16
1.0
 26
0.0
 36
0.0
 17
0.0
 27
1.0
 37
0.0
 76
     0
330
1F
331
29
  0
MLINESTYLE
  5
18
102
{ACAD_REACTORS
330
17
102
}
330
17
100
AcDbMlineStyle
  2
Standard
 70
     0
  3

 62
   256
 51
90.0
 52
90.0
 71
     2
 49
0.5
 62
   256
  6
BYLAYER
 49
-0.5
 62
   256
  6
BYLAYER
  0
ACDBPLACEHOLDER
  5
F
102
{ACAD_REACTORS
330
E
102
}
330
E
  0
VISUALSTYLE
  5
2F
102
{ACAD_REACTORS
330
2A
102
}
330
2A
100
AcDbVisualStyle
  2
2dWireframe
 70
     4
 71
     0
 72
     2
 73
     0
 90
        0
 40
-0.6
 41
-30.0
 62
     5
 63
     7
 74
     1
 91
        4
 64
     7
 65
   257
 75
     1
175
     1
 42
1.0
 92
        0
 66
   257
 43
1.0
 76
     1
 77
     6
 78
     2
 67
     7
 79
     5
170
     0
171
     0
290
     0
174
     0
 93
        1
 44
0.0
173
     0
291
     0
 45
0.0
1001
ACAD
1000
AcDbSavedByObjectVersion
1070
     0
  0
VISUALSTYLE
  5
31
102
{ACAD_REACTORS
330
2A
102
}
330
2A
100
AcDbVisualStyle
  2
3D Hidden
 70
     6
 71
     1
 72
     2
 73
     2
 90
        0
 40
-0.6
 41
-30.0
 62
     5
 63
     7
 74
     2
 91
        2
 64
     7
 65
   257
 75
     2
175
     1
 42
40.0
 92
        0
 66
   257
 43
1.0
 76
     1
 77
     6
 78
     2
 67
     7
 79
     3
170
     0
171
     0
290
     0
174
     0
 93
        1
 44
0.0
173
     0
291
     0
 45
0.0
1001
ACAD
1000
AcDbSavedByObjectVersion
1070
     0
  0
VISUALSTYLE
  5
30
102
{ACAD_REACTORS
330
2A
102
}
330
2A
100
AcDbVisualStyle
  2
3dWireframe
 70
     5
 71
     0
 72
     2
 73
     0
 90
        0
 40
-0.6
 41
-30.0
 62
     5
 63
     7
 74
     1
 91
        4
 64
     7
 65
   257
 75
     1
175
     1
 42
1.0
 92
        0
 66
   257
 43
1.0
 76
     1
 77
     6
 78
     2
 67
     7
 79
     5
170
     0
171
     0
290
     0
174
     0
 93
        1
 44
0.0
173
     0
291
     0
 45
0.0
1001
ACAD
1000
AcDbSavedByObjectVersion
1070
     0
  0
VISUALSTYLE
  5
32
102
{ACAD_REACTORS
330
2A
102
}
330
2A
100
AcDbVisualStyle
  2
Basic
 70
     7
 71
     1
 72
     0
 73
     1
 90
        0
 40
-0.6
 41
-30.0
 62
     5
 63
     7
 74
     0
 91
        4
 64
     7
 65
   257
 75
     1
175
     1
 42
1.0
 92
        8
 66
     7
 43
1.0
 76
     1
 77
     6
 78
     2
 67
     7
 79
     5
170
     0
171
     0
290
     0
174
     0
 93
        1
 44
0.0
173
     0
291
     1
 45
0.0
1001
ACAD
1000
AcDbSavedByObjectVersion
1070
     0
  0
VISUALSTYLE
  5
36
102
{ACAD_REACTORS
330
2A
102
}
330
2A
100
AcDbVisualStyle
  2
Brighten
 70
    12
 71
     2
 72
     2
 73
     0
 90
        0
 40
-0.6
 41
-30.0
 62
     5
 63
     7
 74
     1
 91
        4
 64
     7
 65
   257
 75
     1
175
     1
 42
1.0
 92
        8
 66
     7
 43
1.0
 76
     1
 77
     6
 78
     2
 67
     7
 79
     5
170
     0
171
     0
290
     0
174
     0
 93
        1
 44
50.0
173
     0
291
     1
 45
0.0
1001
ACAD
1000
AcDbSavedByObjectVersion
1070
     0
  0
VISUALSTYLE
  5
3A
102
{ACAD_REACTORS
330
2A
102
}
330
2A
100
AcDbVisualStyle
  2
ColorChange
 70
    16
 71
     2
 72
     2
 73
     3
 90
        0
 40
-0.6
 41
-30.0
 62
     5
 63
     8
 74
     1
 91
        4
 64
     7
 65
   257
 75
     1
175
     1
 42
1.0
 92
        8
 66
     8
 43
1.0
 76
     1
 77
     6
 78
     2
 67
     7
 79
     5
170
     0
171
     0
290
     0
174
     0
 93
        1
 44
0.0
173
     0
291
     1
 45
0.0
1001
ACAD
1000
AcDbSavedByObjectVersion
1070
     0
  0
VISUALSTYLE
  5
34
102
{ACAD_REACTORS
330
2A
102
}
330
2A
100
AcDbVisualStyle
  2
Conceptual
 70
     9
 71
     3
 72
     2
 73
     0
 90
        0
 40
-0.6
 41
-30.0
 62
     5
 63
     7
 74
     2
 91
        2
 64
     7
 65
   257
 75
     1
175
     1
 42
40.0
 92
        8
 66
     7
 43
1.0
 76
     1
 77
     6
 78
     2
 67
     7
 79
     3
170
     0
171
     0
290
     0
174
     0
 93
        1
 44
0.0
173
     0
291
     0
 45
0.0
1001
ACAD
1000
AcDbSavedByObjectVersion
1070
     0
  0
VISUALSTYLE
  5
35
102
{ACAD_REACTORS
330
2A
102
}
330
2A
100
AcDbVisualStyle
  2
Dim
 70
    11
 71
     2
 72
     2
 73
     0
 90
        0
 40
-0.6
 41
-30.0
 62
     5
 63
     7
 74
     1
 91
        4
 64
     7
 65
   257
 75
     1
175
     1
 42
1.0
 92
        8
 66
     7
 43
1.0
 76
     1
 77
     6
 78
     2
 67
     7
 79
     5
170
     0
171
     0
290
     0
174
     0
 93
        1
 44
-50.0
173
     0
291
     1
 45
0.0
1001
ACAD
1000
AcDbSavedByObjectVersion
1070
     0
  0
VISUALSTYLE
  5
39
102
{ACAD_REACTORS
330
2A
102
}
330
2A
100
AcDbVisualStyle
  2
Facepattern
 70
    15
 71
     2
 72
     2
 73
     0
 90
        0
 40
-0.6
 41
-30.0
 62
     5
 63
     7
 74
     1
 91
        4
 64
     7
 65
   257
 75
     1
175
     1
 42
1.0
 92
        8
 66
     7
 43
1.0
 76
     1
 77
     6
 78
     2
 67
     7
 79
     5
170
     0
171
     0
290
     0
174
     0
 93
        1
 44
0.0
173
     0
291
     1
 45
0.0
1001
ACAD
1000
AcDbSavedByObjectVersion
1070
     0
  0
VISUALSTYLE
  5
2B
102
{ACAD_REACTORS
330
2A
102
}
330
2A
100
AcDbVisualStyle
  2
Flat
 70
     0
 71
     2
 72
     1
 73
     1
 90
        2
 40
-0.6
 41
30.0
 62
     5
 63
     7
 74
     0
 91
        4
 64
     7
 65
   257
 75
     1
175
     1
 42
1.0
 92
        8
 66
     7
 43
1.0
 76
     1
 77
     6
 78
     2
 67
     7
 79
     5
170
     0
171
     0
290
     0
174
     0
 93
       13
 44
0.0
173
     0
291
     1
 45
0.0
1001
ACAD
1000
AcDbSavedByObjectVersion
1070
     0
  0
VISUALSTYLE
  5
2C
102
{ACAD_REACTORS
330
2A
102
}
330
2A
100
AcDbVisualStyle
  2
FlatWithEdges
 70
     1
 71
     2
 72
     1
 73
     1
 90
        2
 40
-0.6
 41
30.0
 62
     5
 63
     7
 74
     1
 91
        4
 64
     7
 65
   257
 75
     1
175
     1
 42
1.0
 92
        0
 66
   257
 43
1.0
 76
     1
 77
     6
 78
     2
 67
     7
 79
     5
170
     0
171
     0
290
     0
174
     0
 93
       13
 44
0.0
173
     0
291
     1
 45
0.0
1001
ACAD
1000
AcDbSavedByObjectVersion
1070
     0
  0
VISUALSTYLE
  5
2D
102
{ACAD_REACTORS
330
2A
102
}
330
2A
100
AcDbVisualStyle
  2
Gouraud
 70
     2
 71
     2
 72
     2
 73
     1
 90
        2
 40
-0.6
 41
30.0
 62
     5
 63
     7
 74
     0
 91
        4
 64
     7
 65
   257
 75
     1
175
     1
 42
1.0
 92
        0
 66
     7
 43
1.0
 76
     1
 77
     6
 78
     2
 67
     7
 79
     5
170
     0
171
     0
290
     0
174
     0
 93
       13
 44
0.0
173
     0
291
     1
 45
0.0
1001
ACAD
1000
AcDbSavedByObjectVersion
1070
     0
  0
VISUALSTYLE
  5
2E
102
{ACAD_REACTORS
330
2A
102
}
330
2A
100
AcDbVisualStyle
  2
GouraudWithEdges
 70
     3
 71
     2
 72
     2
 73
     1
 90
        2
 40
-0.6
 41
30.0
 62
     5
 63
     7
 74
     1
 91
        4
 64
     7
 65
   257
 75
     1
175
     1
 42
1.0
 92
        0
 66
   257
 43
1.0
 76
     1
 77
     6
 78
     2
 67
     7
 79
     5
170
     0
171
     0
290
     0
174
     0
 93
       13
 44
0.0
173
     0
291
     1
 45
0.0
1001
ACAD
1000
AcDbSavedByObjectVersion
1070
     0
  0
VISUALSTYLE
  5
38
102
{ACAD_REACTORS
330
2A
102
}
330
2A
100
AcDbVisualStyle
  2
Linepattern
 70
    14
 71
     2
 72
     2
 73
     0
 90
        0
 40
-0.6
 41
-30.0
 62
     5
 63
     7
 74
     1
 91
        4
 64
     7
 65
   257
 75
     7
175
     7
 42
1.0
 92
        8
 66
     7
 43
1.0
 76
     1
 77
     6
 78
     2
 67
     7
 79
     5
170
     0
171
     0
290
     0
174
     0
 93
        1
 44
0.0
173
     0
291
     1
 45
0.0
1001
ACAD
1000
AcDbSavedByObjectVersion
1070
     0
  0
VISUALSTYLE
  5
33
102
{ACAD_REACTORS
330
2A
102
}
330
2A
100
AcDbVisualStyle
  2
Realistic
 70
     8
 71
     2
 72
     2
 73
     0
 90
        0
 40
-0.6
 41
-30.0
 62
     5
 63
     7
 74
     1
 91
        0
 64
     7
 65
   257
 75
     1
175
     1
 42
1.0
 92
        8
 66
     8
 43
1.0
 76
     1
 77
     6
 78
     2
 67
     7
 79
     5
170
     0
171
     0
290
     0
174
     0
 93
       13
 44
0.0
173
     0
291
     0
 45
0.0
1001
ACAD
1000
AcDbSavedByObjectVersion
1070
     0
  0
VISUALSTYLE
  5
37
102
{ACAD_REACTORS
330
2A
102
}
330
2A
100
AcDbVisualStyle
  2
Thicken
 70
    13
 71
     2
 72
     2
 73
     0
 90
        0
 40
-0.6
 41
-30.0
 62
     5
 63
     7
 74
     1
 91
        4
 64
     7
 65
   257
 75
     1
175
     1
 42
1.0
 92
       12
 66
     7
 43
1.0
 76
     1
 77
     6
 78
     2
 67
     7
 79
     5
170
     0
171
     0
290
     0
174
     0
 93
        1
 44
0.0
173
     0
291
     1
 45
0.0
1001
ACAD
1000
AcDbSavedByObjectVersion
1070
     0
  0
DICTIONARYVAR
  5
215
102
{ACAD_REACTORS
330
213
102
}
330
213
100
DictionaryVariables
280
     0
  1
80.000000
  0
DICTIONARYVAR
  5
214
102
{ACAD_REACTORS
330
213
102
}
330
213
100
DictionaryVariables
280
     0
  1
5.000000
  0
ENDSEC
  0
EOF
