  0
SECTION
  2
HEADER
  9
$ACADVER
  1
AC1015
  9
$ACADMAINTVER
 70
     6
  9
$DWGCODEPAGE
  3
ANSI_1252
  9
$INSBASE
 10
0.0
 20
0.0
 30
0.0
  9
$EXTMIN
 10
0.0
 20
0.0
 30
0.0
  9
$EXTMAX
 10
297.0
 20
210.0
 30
0.0
  9
$LIMMIN
 10
0.0
 20
0.0
  9
$LIMMAX
 10
297.0
 20
210.0
  9
$ORTHOMODE
 70
     0
  9
$REGENMODE
 70
     1
  9
$FILLMODE
 70
     1
  9
$QTEXTMODE
 70
     0
  9
$MIRRTEXT
 70
     1
  9
$LTSCALE
 40
1.0
  9
$ATTMODE
 70
     1
  9
$TEXTSIZE
 40
2.0
  9
$TRACEWID
 40
1.0
  9
$TEXTSTYLE
  7
Standard
  9
$CLAYER
  8
0
  9
$CELTYPE
  6
ByLayer
  9
$CECOLOR
 62
   256
  9
$CELTSCALE
 40
1.0
  9
$DISPSILH
 70
     0
  9
$DIMSCALE
 40
1.0
  9
$DIMASZ
 40
3.0
  9
$DIMEXO
 40
0.0
  9
$DIMDLI
 40
3.75
  9
$DIMRND
 40
0.0
  9
$DIMDLE
 40
0.0
  9
$DIMEXE
 40
1.0
  9
$DIMTP
 40
0.0
  9
$DIMTM
 40
0.0
  9
$DIMTXT
 40
2.0
  9
$DIMCEN
 40
2.5
  9
$DIMTSZ
 40
0.0
  9
$DIMTOL
 70
     0
  9
$DIMLIM
 70
     0
  9
$DIMTIH
 70
     1
  9
$DIMTOH
 70
     1
  9
$DIMSE1
 70
     0
  9
$DIMSE2
 70
     0
  9
$DIMTAD
 70
     1
  9
$DIMZIN
 70
     0
  9
$DIMBLK
  1

  9
$DIMASO
 70
     1
  9
$DIMSHO
 70
     1
  9
$DIMPOST
  1

  9
$DIMAPOST
  1

  9
$DIMALT
 70
     0
  9
$DIMALTD
 70
     3
  9
$DIMALTF
 40
0.0393700787
  9
$DIMLFAC
 40
1.0
  9
$DIMTOFL
 70
     1
  9
$DIMTVP
 40
0.0
  9
$DIMTIX
 70
     0
  9
$DIMSOXD
 70
     0
  9
$DIMSAH
 70
     0
  9
$DIMBLK1
  1

  9
$DIMBLK2
  1

  9
$DIMSTYLE
  2
ISO-25
  9
$DIMCLRD
 70
     0
  9
$DIMCLRE
 70
     0
  9
$DIMCLRT
 70
     0
  9
$DIMTFAC
 40
1.0
  9
$DIMGAP
 40
1.524
  9
$DIMJUST
 70
     0
  9
$DIMSD1
 70
     0
  9
$DIMSD2
 70
     0
  9
$DIMTOLJ
 70
     0
  9
$DIMTZIN
 70
     0
  9
$DIMALTZ
 70
     0
  9
$DIMALTTZ
 70
     0
  9
$DIMUPT
 70
     0
  9
$DIMDEC
 70
     2
  9
$DIMTDEC
 70
     3
  9
$DIMALTU
 70
     2
  9
$DIMALTTD
 70
     3
  9
$DIMTXSTY
  7
Standard
  9
$DIMAUNIT
 70
     0
  9
$DIMADEC
 70
     2
  9
$DIMALTRND
 40
0.0
  9
$DIMAZIN
 70
     0
  9
$DIMDSEP
 70
    44
  9
$DIMATFIT
 70
     3
  9
$DIMFRAC
 70
     0
  9
$DIMLDRBLK
  1

  9
$DIMLUNIT
 70
     2
  9
$DIMLWD
 70
    -2
  9
$DIMLWE
 70
    -2
  9
$DIMTMOVE
 70
     0
  9
$LUNITS
 70
     2
  9
$LUPREC
 70
     2
  9
$SKETCHINC
 40
1.0
  9
$FILLETRAD
 40
10.0
  9
$AUNITS
 70
     0
  9
$AUPREC
 70
     2
  9
$MENU
  1
.
  9
$ELEVATION
 40
0.0
  9
$PELEVATION
 40
0.0
  9
$THICKNESS
 40
0.0
  9
$LIMCHECK
 70
     0
  9
$CHAMFERA
 40
10.0
  9
$CHAMFERB
 40
10.0
  9
$CHAMFERC
 40
20.0
  9
$CHAMFERD
 40
0.0
  9
$SKPOLY
 70
     0
  9
$TDCREATE
 40
2455684.324009629
  9
$TDUCREATE
 40
2455684.240676296
  9
$TDUPDATE
 40
2455684.324009641
  9
$TDUUPDATE
 40
2455684.240676308
  9
$TDINDWG
 40
0.0000000116
  9
$TDUSRTIMER
 40
0.0000000116
  9
$USRTIMER
 70
     1
  9
$ANGBASE
 50
0.0
  9
$ANGDIR
 70
     0
  9
$PDMODE
 70
     0
  9
$PDSIZE
 40
-1.0
  9
$PLINEWID
 40
0.0
  9
$SPLFRAME
 70
     0
  9
$SPLINETYPE
 70
     6
  9
$SPLINESEGS
 70
     8
  9
$HANDSEED
  5
209
  9
$SURFTAB1
 70
     6
  9
$SURFTAB2
 70
     6
  9
$SURFTYPE
 70
     6
  9
$SURFU
 70
     6
  9
$SURFV
 70
     6
  9
$UCSBASE
  2

  9
$UCSNAME
  2

  9
$UCSORG
 10
0.0
 20
0.0
 30
0.0
  9
$UCSXDIR
 10
1.0
 20
0.0
 30
0.0
  9
$UCSYDIR
 10
0.0
 20
1.0
 30
0.0
  9
$UCSORTHOREF
  2

  9
$UCSORTHOVIEW
 70
     0
  9
$UCSORGTOP
 10
0.0
 20
0.0
 30
0.0
  9
$UCSORGBOTTOM
 10
0.0
 20
0.0
 30
0.0
  9
$UCSORGLEFT
 10
0.0
 20
0.0
 30
0.0
  9
$UCSORGRIGHT
 10
0.0
 20
0.0
 30
0.0
  9
$UCSORGFRONT
 10
0.0
 20
0.0
 30
0.0
  9
$UCSORGBACK
 10
0.0
 20
0.0
 30
0.0
  9
$PUCSBASE
  2

  9
$PUCSNAME
  2

  9
$PUCSORG
 10
0.0
 20
0.0
 30
0.0
  9
$PUCSXDIR
 10
1.0
 20
0.0
 30
0.0
  9
$PUCSYDIR
 10
0.0
 20
1.0
 30
0.0
  9
$PUCSORTHOREF
  2

  9
$PUCSORTHOVIEW
 70
     0
  9
$PUCSORGTOP
 10
0.0
 20
0.0
 30
0.0
  9
$PUCSORGBOTTOM
 10
0.0
 20
0.0
 30
0.0
  9
$PUCSORGLEFT
 10
0.0
 20
0.0
 30
0.0
  9
$PUCSORGRIGHT
 10
0.0
 20
0.0
 30
0.0
  9
$PUCSORGFRONT
 10
0.0
 20
0.0
 30
0.0
  9
$PUCSORGBACK
 10
0.0
 20
0.0
 30
0.0
  9
$USERI1
 70
     0
  9
$USERI2
 70
     0
  9
$USERI3
 70
     0
  9
$USERI4
 70
     0
  9
$USERI5
 70
     0
  9
$USERR1
 40
0.0
  9
$USERR2
 40
0.0
  9
$USERR3
 40
0.0
  9
$USERR4
 40
0.0
  9
$USERR5
 40
0.0
  9
$WORLDVIEW
 70
     1
  9
$SHADEDGE
 70
     3
  9
$SHADEDIF
 70
    70
  9
$TILEMODE
 70
     1
  9
$MAXACTVP
 70
    64
  9
$PINSBASE
 10
0.0
 20
0.0
 30
0.0
  9
$PLIMCHECK
 70
     0
  9
$PEXTMIN
 10
1.0000000000E+20
 20
1.0000000000E+20
 30
1.0000000000E+20
  9
$PEXTMAX
 10
-1.0000000000E+20
 20
-1.0000000000E+20
 30
-1.0000000000E+20
  9
$PLIMMIN
 10
0.0
 20
0.0
  9
$PLIMMAX
 10
420.0
 20
297.0
  9
$UNITMODE
 70
     0
  9
$VISRETAIN
 70
     1
  9
$PLINEGEN
 70
     0
  9
$PSLTSCALE
 70
     1
  9
$TREEDEPTH
 70
  3020
  9
$CMLSTYLE
  2
Standard
  9
$CMLJUST
 70
     0
  9
$CMLSCALE
 40
20.0
  9
$PROXYGRAPHICS
 70
     1
  9
$MEASUREMENT
 70
     1
  9
$CELWEIGHT
370
    -1
  9
$ENDCAPS
280
     0
  9
$JOINSTYLE
280
     0
  9
$LWDISPLAY
290
     1
  9
$INSUNITS
 70
     4
  9
$HYPERLINKBASE
  1

  9
$STYLESHEET
  1

  9
$XEDIT
290
     1
  9
$CEPSNTYPE
380
     0
  9
$PSTYLEMODE
290
     1
  9
$FINGERPRINTGUID
  2
{8EE64ECC-5913-4B39-923E-1DF8BBE135F2}
  9
$VERSIONGUID
  2
{FAEB1C32-E019-11D5-929B-00C0DF256EC4}
  9
$EXTNAMES
290
     1
  9
$PSVPSCALE
 40
0.0
  9
$OLESTARTUP
290
     0
  0
ENDSEC
  0
SECTION
  2
CLASSES
  0
CLASS
  1
ACDBDICTIONARYWDFLT
  2
AcDbDictionaryWithDefault
  3
ObjectDBX Classes
 90
        0
280
     0
281
     0
  0
CLASS
  1
VISUALSTYLE
  2
AcDbVisualStyle
  3
ObjectDBX Classes
 90
     4095
280
     0
281
     0
  0
CLASS
  1
DICTIONARYVAR
  2
AcDbDictionaryVar
  3
ObjectDBX Classes
 90
        0
280
     0
281
     0
  0
CLASS
  1
ACDBPLACEHOLDER
  2
AcDbPlaceHolder
  3
ObjectDBX Classes
 90
        0
280
     0
281
     0
  0
CLASS
  1
LAYOUT
  2
AcDbLayout
  3
ObjectDBX Classes
 90
        0
280
     0
281
     0
  0
ENDSEC
  0
SECTION
  2
TABLES
  0
TABLE
  2
VPORT
  5
8
330
0
100
AcDbSymbolTable
 70
     1
  0
VPORT
  5
29
330
8
100
AcDbSymbolTableRecord
100
AcDbViewportTableRecord
  2
*Active
 70
     0
 10
0.0
 20
0.0
 11
1.0
 21
1.0
 12
148.5
 22
105.0
 13
0.0
 23
0.0
 14
10.0
 24
10.0
 15
10.0
 25
10.0
 16
0.0
 26
0.0
 36
1.0
 17
0.0
 27
0.0
 37
0.0
 40
210.0
 41
1.4142857143
 42
50.0
 43
0.0
 44
0.0
 50
0.0
 51
0.0
 71
     0
 72
  2000
 73
     1
 74
     3
 75
     0
 76
     0
 77
     0
 78
     0
281
     0
 65
     1
110
0.0
120
0.0
130
0.0
111
1.0
121
0.0
131
0.0
112
0.0
122
1.0
132
0.0
 79
     0
146
0.0
  0
ENDTAB
  0
TABLE
  2
LTYPE
  5
5
330
0
100
AcDbSymbolTable
 70
     6
  0
LTYPE
  5
14
330
5
100
AcDbSymbolTableRecord
100
AcDbLinetypeTableRecord
  2
ByBlock
 70
     0
  3

 72
    65
 73
     0
 40
0.0
  0
LTYPE
  5
15
330
5
100
AcDbSymbolTableRecord
100
AcDbLinetypeTableRecord
  2
ByLayer
 70
     0
  3

 72
    65
 73
     0
 40
0.0
  0
LTYPE
  5
16
330
5
100
AcDbSymbolTableRecord
100
AcDbLinetypeTableRecord
  2
Continuous
 70
     0
  3
Solid line
 72
    65
 73
     0
 40
0.0
  0
LTYPE
  5
3B
330
5
100
AcDbSymbolTableRecord
100
AcDbLinetypeTableRecord
  2
HIDDEN
 70
     0
  3
Hidden __ __ __ __ __ __ __ __ __ __ __ __ __ __
 72
    65
 73
     2
 40
1.905
 49
1.27
 74
     0
 49
-0.635
 74
     0
  0
LTYPE
  5
3C
330
5
100
AcDbSymbolTableRecord
100
AcDbLinetypeTableRecord
  2
PHANTOM
 70
     0
  3
Phantom ______  __  __  ______  __  __  ______
 72
    65
 73
     6
 40
12.7
 49
6.35
 74
     0
 49
-1.27
 74
     0
 49
1.27
 74
     0
 49
-1.27
 74
     0
 49
1.27
 74
     0
 49
-1.27
 74
     0
  0
LTYPE
  5
3D
330
5
100
AcDbSymbolTableRecord
100
AcDbLinetypeTableRecord
  2
CENTER
 70
     0
  3
Center ____ _ ____ _ ____ _ ____ _ ____ _ ____
 72
    65
 73
     4
 40
10.16
 49
6.35
 74
     0
 49
-1.27
 74
     0
 49
1.27
 74
     0
 49
-1.27
 74
     0
  0
LTYPE
  5
3E
330
5
100
AcDbSymbolTableRecord
100
AcDbLinetypeTableRecord
  2
CENTERX2
 70
     0
  3
Center (2x) ________  __  ________  __  _____
 72
    65
 73
     4
 40
20.32
 49
12.7
 74
     0
 49
-2.54
 74
     0
 49
2.54
 74
     0
 49
-2.54
 74
     0
  0
LTYPE
  5
3F
330
5
100
AcDbSymbolTableRecord
100
AcDbLinetypeTableRecord
  2
DOT2
 70
     0
  3
Dot (.5x) ........................................
 72
    65
 73
     2
 40
0.635
 49
0.0
 74
     0
 49
-0.635
 74
     0
  0
ENDTAB
  0
TABLE
  2
LAYER
  5
2
330
0
100
AcDbSymbolTable
 70
     5
  0
LAYER
  5
10
330
2
100
AcDbSymbolTableRecord
100
AcDbLayerTableRecord
  2
0
 70
     0
 62
     7
  6
Continuous
370
    -3
390
F
  0
LAYER
  5
40
330
2
100
AcDbSymbolTableRecord
100
AcDbLayerTableRecord
  2
FORMAT
 70
     0
 62
     7
  6
Continuous
370
    -3
390
F
  0
LAYER
  5
41
330
2
100
AcDbSymbolTableRecord
100
AcDbLayerTableRecord
  2
VERMASSUNG
 70
     0
 62
     7
  6
Continuous
370
    -3
390
F
  0
LAYER
  5
42
330
2
100
AcDbSymbolTableRecord
100
AcDbLayerTableRecord
  2
KOPF_DÜNN
 70
     0
 62
     7
  6
Continuous
370
    -3
390
F
  0
LAYER
  5
43
330
2
100
AcDbSymbolTableRecord
100
AcDbLayerTableRecord
  2
KOPF_DICK
 70
     0
 62
     7
  6
Continuous
370
    15
390
F
  0
ENDTAB
  0
TABLE
  2
STYLE
  5
3
330
0
100
AcDbSymbolTable
 70
     3
  0
STYLE
  5
11
330
3
100
AcDbSymbolTableRecord
100
AcDbTextStyleTableRecord
  2
Standard
 70
     0
 40
0.0
 41
1.0
 50
0.0
 71
     0
 42
2.5
  3
txt
  4

  0
STYLE
  5
44
330
3
100
AcDbSymbolTableRecord
100
AcDbTextStyleTableRecord
  2
SLDTEXTSTYLE0
 70
     0
 40
0.0
 41
0.7
 50
0.0
 71
     0
 42
0.2
  3
TXT
  4

  0
STYLE
  5
48
330
3
100
AcDbSymbolTableRecord
100
AcDbTextStyleTableRecord
  2
SLDTEXTSTYLE1
 70
     0
 40
0.0
 41
0.65
 50
0.0
 71
     0
 42
0.2
  3
TXT
  4

  0
ENDTAB
  0
TABLE
  2
VIEW
  5
6
330
0
100
AcDbSymbolTable
 70
     0
  0
ENDTAB
  0
TABLE
  2
UCS
  5
7
330
0
100
AcDbSymbolTable
 70
     0
  0
ENDTAB
  0
TABLE
  2
APPID
  5
9
330
0
100
AcDbSymbolTable
 70
     1
  0
APPID
  5
12
330
9
100
AcDbSymbolTableRecord
100
AcDbRegAppTableRecord
  2
ACAD
 70
     0
  0
ENDTAB
  0
TABLE
  2
DIMSTYLE
  5
A
330
0
100
AcDbSymbolTable
 70
     5
100
AcDbDimStyleTable
  0
DIMSTYLE
105
27
330
A
100
AcDbSymbolTableRecord
100
AcDbDimStyleTableRecord
  2
ISO-25
 70
     0
 41
2.5
 42
0.625
 43
3.75
 44
1.25
 73
     0
 74
     0
 77
     1
 78
     8
140
2.5
141
2.5
143
0.0393700787
147
0.625
171
     3
172
     1
271
     2
272
     2
274
     3
278
    44
283
     0
284
     8
340
11
  0
DIMSTYLE
105
1AA
102
{ACAD_REACTORS
330
1A9
330
1D9
330
1E3
330
1ED
330
1F7
102
}
330
A
100
AcDbSymbolTableRecord
100
AcDbDimStyleTableRecord
  2
SLDDIMSTYLE0
 70
     0
 41
3.0
 44
0.0
 45
0.000000001
 73
     0
 74
     0
 77
     1
 78
    12
140
2.0
147
0.5
173
     1
271
     2
272
     3
284
    12
340
44
  0
DIMSTYLE
105
1B7
102
{ACAD_REACTORS
330
1B6
102
}
330
A
100
AcDbSymbolTableRecord
100
AcDbDimStyleTableRecord
  2
SLDDIMSTYLE1
 70
     0
 41
3.0
 44
0.0
 45
0.000000001
 73
     0
 74
     0
 77
     1
 78
    12
140
2.0
147
0.5
173
     1
271
     2
272
     2
284
    12
340
44
  0
DIMSTYLE
105
1C2
102
{ACAD_REACTORS
330
1C1
102
}
330
A
100
AcDbSymbolTableRecord
100
AcDbDimStyleTableRecord
  2
SLDDIMSTYLE2
 70
     0
 41
3.0
 44
0.0
 45
0.000000001
 73
     0
 74
     0
 77
     1
 78
    12
140
2.0
147
0.5
173
     1
271
     2
272
     2
284
    12
340
44
  0
DIMSTYLE
105
1CE
102
{ACAD_REACTORS
330
1CD
102
}
330
A
100
AcDbSymbolTableRecord
100
AcDbDimStyleTableRecord
  2
SLDDIMSTYLE3
 70
     0
 41
3.0
 44
0.0
 45
0.000000001
 73
     0
 74
     0
 77
     1
 78
    12
140
2.0
147
0.5
173
     1
271
     2
272
     3
284
    12
340
44
  0
ENDTAB
  0
TABLE
  2
BLOCK_RECORD
  5
1
330
0
100
AcDbSymbolTable
 70
     9
  0
BLOCK_RECORD
  5
1F
330
1
100
AcDbSymbolTableRecord
100
AcDbBlockTableRecord
  2
*Model_Space
340
22
  0
BLOCK_RECORD
  5
1B
330
1
100
AcDbSymbolTableRecord
100
AcDbBlockTableRecord
  2
*Paper_Space
340
1E
  0
BLOCK_RECORD
  5
23
330
1
100
AcDbSymbolTableRecord
100
AcDbBlockTableRecord
  2
*Paper_Space0
340
26
  0
BLOCK_RECORD
  5
1AB
330
1
100
AcDbSymbolTableRecord
100
AcDbBlockTableRecord
  2
*D1
340
0
  0
BLOCK_RECORD
  5
1B8
330
1
100
AcDbSymbolTableRecord
100
AcDbBlockTableRecord
  2
*D2
340
0
  0
BLOCK_RECORD
  5
1C3
330
1
100
AcDbSymbolTableRecord
100
AcDbBlockTableRecord
  2
*D3
340
0
  0
BLOCK_RECORD
  5
1CF
330
1
100
AcDbSymbolTableRecord
100
AcDbBlockTableRecord
  2
*D4
340
0
  0
BLOCK_RECORD
  5
1DA
330
1
100
AcDbSymbolTableRecord
100
AcDbBlockTableRecord
  2
*D5
340
0
  0
BLOCK_RECORD
  5
1E4
330
1
100
AcDbSymbolTableRecord
100
AcDbBlockTableRecord
  2
*D6
340
0
  0
BLOCK_RECORD
  5
1EE
330
1
100
AcDbSymbolTableRecord
100
AcDbBlockTableRecord
  2
*D7
340
0
  0
BLOCK_RECORD
  5
1F8
330
1
100
AcDbSymbolTableRecord
100
AcDbBlockTableRecord
  2
*D8
340
0
  0
ENDTAB
  0
ENDSEC
  0
SECTION
  2
BLOCKS
  0
BLOCK
  5
20
330
1F
100
AcDbEntity
  8
0
100
AcDbBlockBegin
  2
*Model_Space
 70
     0
 10
0.0
 20
0.0
 30
0.0
  3
*Model_Space
  1

  0
ENDBLK
  5
21
330
1F
100
AcDbEntity
  8
0
100
AcDbBlockEnd
  0
BLOCK
  5
1C
330
1B
100
AcDbEntity
 67
     1
  8
0
100
AcDbBlockBegin
  2
*Paper_Space
 70
     0
 10
0.0
 20
0.0
 30
0.0
  3
*Paper_Space
  1

  0
ENDBLK
  5
1D
330
1B
100
AcDbEntity
 67
     1
  8
0
100
AcDbBlockEnd
  0
BLOCK
  5
24
330
23
100
AcDbEntity
  8
0
100
AcDbBlockBegin
  2
*Paper_Space0
 70
     0
 10
0.0
 20
0.0
 30
0.0
  3
*Paper_Space0
  1

  0
ENDBLK
  5
25
330
23
100
AcDbEntity
  8
0
100
AcDbBlockEnd
  0
BLOCK
  5
1AC
330
1AB
100
AcDbEntity
  8
0
100
AcDbBlockBegin
  2
*D1
 70
     1
 10
0.0
 20
0.0
 30
0.0
  3
*D1
  1

  0
SOLID
  5
1AE
330
1AB
100
AcDbEntity
  8
VERMASSUNG
100
AcDbTrace
 10
64.7282231198
 20
160.2211139899
 30
0.0
 11
64.2782231198
 21
157.2211139899
 31
0.0
 12
65.1782231198
 22
157.2211139899
 32
0.0
 13
65.1782231198
 23
157.2211139899
 33
0.0
  0
SOLID
  5
1AF
330
1AB
100
AcDbEntity
  8
VERMASSUNG
100
AcDbTrace
 10
64.7282231198
 20
60.2211139899
 30
0.0
 11
65.1782231198
 21
63.2211139899
 31
0.0
 12
64.2782231198
 22
63.2211139899
 32
0.0
 13
64.2782231198
 23
63.2211139899
 33
0.0
  0
LINE
  5
1B0
330
1AB
100
AcDbEntity
  8
VERMASSUNG
100
AcDbLine
 10
122.816371686
 20
160.2211139899
 30
0.0
 11
63.7282231198
 21
160.2211139899
 31
0.0
  0
LINE
  5
1B1
330
1AB
100
AcDbEntity
  8
VERMASSUNG
100
AcDbLine
 10
122.816371686
 20
60.2211139899
 30
0.0
 11
63.7282231198
 21
60.2211139899
 31
0.0
  0
LINE
  5
1B2
330
1AB
100
AcDbEntity
  8
VERMASSUNG
100
AcDbLine
 10
64.7282231198
 20
160.2211139899
 30
0.0
 11
64.7282231198
 21
60.2211139899
 31
0.0
  0
MTEXT
  5
1B3
330
1AB
100
AcDbEntity
  8
VERMASSUNG
100
AcDbMText
 10
61.9500876308
 20
102.0174628523
 30
0.0
 40
2.0
 41
0.0
 71
     1
 72
     1
  1
HSK A 
  7
SLDTEXTSTYLE0
 11
-7.044195017643634E-15
 21
1.0
 31
0.0
 73
     1
 44
1.0
  0
MTEXT
  5
1B4
330
1AB
100
AcDbEntity
  8
VERMASSUNG
100
AcDbMText
 10
62.1500876403
 20
111.0174633962
 30
0.0
 40
2.0
 41
0.0
 71
     1
 72
     1
  1
%%c
  7
SLDTEXTSTYLE0
 11
-7.044195017643634E-15
 21
1.0
 31
0.0
 73
     1
 44
1.0
  0
MTEXT
  5
1B5
330
1AB
100
AcDbEntity
  8
VERMASSUNG
100
AcDbMText
 10
62.1500877567
 20
114.6257900462
 30
0.0
 40
2.0
 41
0.0
 71
     1
 72
     1
  1
100
  7
SLDTEXTSTYLE0
 11
-7.044195017643634E-15
 21
1.0
 31
0.0
 73
     1
 44
1.0
  0
ENDBLK
  5
1AD
330
1AB
100
AcDbEntity
  8
0
100
AcDbBlockEnd
  0
BLOCK
  5
1B9
330
1B8
100
AcDbEntity
  8
0
100
AcDbBlockBegin
  2
*D2
 70
     1
 10
0.0
 20
0.0
 30
0.0
  3
*D2
  1

  0
SOLID
  5
1BB
330
1B8
100
AcDbEntity
  8
VERMASSUNG
100
AcDbTrace
 10
170.816371686
 20
158.2211139899
 30
0.0
 11
173.816371686
 21
157.7711139899
 31
0.0
 12
173.816371686
 22
158.6711139899
 32
0.0
 13
173.816371686
 23
158.6711139899
 33
0.0
  0
SOLID
  5
1BC
330
1B8
100
AcDbEntity
  8
VERMASSUNG
100
AcDbTrace
 10
217.316371686
 20
158.2211139899
 30
0.0
 11
214.316371686
 21
158.6711139899
 31
0.0
 12
214.316371686
 22
157.7711139899
 32
0.0
 13
214.316371686
 23
157.7711139899
 33
0.0
  0
LINE
  5
1BD
330
1B8
100
AcDbEntity
  8
VERMASSUNG
100
AcDbLine
 10
170.816371686
 20
116.1211139899
 30
0.0
 11
170.816371686
 21
159.2211139899
 31
0.0
  0
LINE
  5
1BE
330
1B8
100
AcDbEntity
  8
VERMASSUNG
100
AcDbLine
 10
217.316371686
 20
120.3723330066
 30
0.0
 11
217.316371686
 21
159.2211139899
 31
0.0
  0
LINE
  5
1BF
330
1B8
100
AcDbEntity
  8
VERMASSUNG
100
AcDbLine
 10
170.816371686
 20
158.2211139899
 30
0.0
 11
217.316371686
 21
158.2211139899
 31
0.0
  0
MTEXT
  5
1C0
330
1B8
100
AcDbEntity
  8
VERMASSUNG
100
AcDbMText
 10
191.5669849038
 20
160.799249353
 30
0.0
 40
2.0
 41
0.0
 71
     1
 72
     1
  1
46.5
  7
SLDTEXTSTYLE0
 73
     1
 44
1.0
  0
ENDBLK
  5
1BA
330
1B8
100
AcDbEntity
  8
0
100
AcDbBlockEnd
  0
BLOCK
  5
1C4
330
1C3
100
AcDbEntity
  8
0
100
AcDbBlockBegin
  2
*D3
 70
     1
 10
0.0
 20
0.0
 30
0.0
  3
*D3
  1

  0
SOLID
  5
1C6
330
1C3
100
AcDbEntity
  8
VERMASSUNG
100
AcDbTrace
 10
224.1462369447
 20
104.2211139899
 30
0.0
 11
224.5962369447
 21
107.2211139899
 31
0.0
 12
223.6962369447
 22
107.2211139899
 32
0.0
 13
223.6962369447
 23
107.2211139899
 33
0.0
  0
SOLID
  5
1C7
330
1C3
100
AcDbEntity
  8
VERMASSUNG
100
AcDbTrace
 10
224.1462369447
 20
116.2211139899
 30
0.0
 11
223.6962369447
 21
113.2211139899
 31
0.0
 12
224.5962369447
 22
113.2211139899
 32
0.0
 13
224.5962369447
 23
113.2211139899
 33
0.0
  0
LINE
  5
1C8
330
1C3
100
AcDbEntity
  8
VERMASSUNG
100
AcDbLine
 10
213.816371686
 20
104.2211139899
 30
0.0
 11
225.1462369447
 21
104.2211139899
 31
0.0
  0
LINE
  5
1C9
330
1C3
100
AcDbEntity
  8
VERMASSUNG
100
AcDbLine
 10
213.816371686
 20
116.2211139899
 30
0.0
 11
225.1462369447
 21
116.2211139899
 31
0.0
  0
LINE
  5
1CA
330
1C3
100
AcDbEntity
  8
VERMASSUNG
100
AcDbLine
 10
224.1462369447
 20
104.2211139899
 30
0.0
 11
224.1462369447
 21
116.2211139899
 31
0.0
  0
MTEXT
  5
1CB
330
1C3
100
AcDbEntity
  8
VERMASSUNG
100
AcDbMText
 10
221.5681014652
 20
107.2169763951
 30
0.0
 40
2.0
 41
0.0
 71
     1
 72
     1
  1
%%c
  7
SLDTEXTSTYLE0
 11
6.123233995736766E-17
 21
1.0
 31
0.0
 73
     1
 44
1.0
  0
MTEXT
  5
1CC
330
1C3
100
AcDbEntity
  8
VERMASSUNG
100
AcDbMText
 10
221.5681015816
 20
110.8256546183
 30
0.0
 40
2.0
 41
0.0
 71
     1
 72
     1
  1
12
  7
SLDTEXTSTYLE0
 11
6.123233995736766E-17
 21
1.0
 31
0.0
 73
     1
 44
1.0
  0
ENDBLK
  5
1C5
330
1C3
100
AcDbEntity
  8
0
100
AcDbBlockEnd
  0
BLOCK
  5
1D0
330
1CF
100
AcDbEntity
  8
0
100
AcDbBlockBegin
  2
*D4
 70
     1
 10
0.0
 20
0.0
 30
0.0
  3
*D4
  1

  0
SOLID
  5
1D2
330
1CF
100
AcDbEntity
  8
VERMASSUNG
100
AcDbTrace
 10
230.1462369447
 20
98.2211139899
 30
0.0
 11
230.5962369447
 21
101.2211139899
 31
0.0
 12
229.6962369447
 22
101.2211139899
 32
0.0
 13
229.6962369447
 23
101.2211139899
 33
0.0
  0
SOLID
  5
1D3
330
1CF
100
AcDbEntity
  8
VERMASSUNG
100
AcDbTrace
 10
230.1462369447
 20
122.2211139899
 30
0.0
 11
229.6962369447
 21
119.2211139899
 31
0.0
 12
230.5962369447
 22
119.2211139899
 32
0.0
 13
230.5962369447
 23
119.2211139899
 33
0.0
  0
LINE
  5
1D4
330
1CF
100
AcDbEntity
  8
VERMASSUNG
100
AcDbLine
 10
217.316371686
 20
98.2211139899
 30
0.0
 11
231.1462369447
 21
98.2211139899
 31
0.0
  0
LINE
  5
1D5
330
1CF
100
AcDbEntity
  8
VERMASSUNG
100
AcDbLine
 10
217.316371686
 20
122.2211139899
 30
0.0
 11
231.1462369447
 21
122.2211139899
 31
0.0
  0
LINE
  5
1D6
330
1CF
100
AcDbEntity
  8
VERMASSUNG
100
AcDbLine
 10
230.1462369447
 20
98.2211139899
 30
0.0
 11
230.1462369447
 21
122.2211139899
 31
0.0
  0
MTEXT
  5
1D7
330
1CF
100
AcDbEntity
  8
VERMASSUNG
100
AcDbMText
 10
227.5681014652
 20
106.9176069476
 30
0.0
 40
2.0
 41
0.0
 71
     1
 72
     1
  1
%%c
  7
SLDTEXTSTYLE0
 11
6.123233995736766E-17
 21
1.0
 31
0.0
 73
     1
 44
1.0
  0
MTEXT
  5
1D8
330
1CF
100
AcDbEntity
  8
VERMASSUNG
100
AcDbMText
 10
227.5681015816
 20
110.5262851708
 30
0.0
 40
2.0
 41
0.0
 71
     1
 72
     1
  1
24
  7
SLDTEXTSTYLE0
 11
6.123233995736766E-17
 21
1.0
 31
0.0
 73
     1
 44
1.0
  0
ENDBLK
  5
1D1
330
1CF
100
AcDbEntity
  8
0
100
AcDbBlockEnd
  0
BLOCK
  5
1DB
330
1DA
100
AcDbEntity
  8
0
100
AcDbBlockBegin
  2
*D5
 70
     1
 10
0.0
 20
0.0
 30
0.0
  3
*D5
  1

  0
SOLID
  5
1DD
330
1DA
100
AcDbEntity
  8
VERMASSUNG
100
AcDbTrace
 10
122.316371686
 20
170.2211139899
 30
0.0
 11
125.316371686
 21
169.7711139899
 31
0.0
 12
125.316371686
 22
170.6711139899
 32
0.0
 13
125.316371686
 23
170.6711139899
 33
0.0
  0
SOLID
  5
1DE
330
1DA
100
AcDbEntity
  8
VERMASSUNG
100
AcDbTrace
 10
217.316371686
 20
170.2211139899
 30
0.0
 11
214.316371686
 21
170.6711139899
 31
0.0
 12
214.316371686
 22
169.7711139899
 32
0.0
 13
214.316371686
 23
169.7711139899
 33
0.0
  0
LINE
  5
1DF
330
1DA
100
AcDbEntity
  8
VERMASSUNG
100
AcDbLine
 10
122.316371686
 20
159.7211139899
 30
0.0
 11
122.316371686
 21
171.2211139899
 31
0.0
  0
LINE
  5
1E0
330
1DA
100
AcDbEntity
  8
VERMASSUNG
100
AcDbLine
 10
217.316371686
 20
120.3723330066
 30
0.0
 11
217.316371686
 21
171.2211139899
 31
0.0
  0
LINE
  5
1E1
330
1DA
100
AcDbEntity
  8
VERMASSUNG
100
AcDbLine
 10
122.316371686
 20
170.2211139899
 30
0.0
 11
217.316371686
 21
170.2211139899
 31
0.0
  0
MTEXT
  5
1E2
330
1DA
100
AcDbEntity
  8
VERMASSUNG
100
AcDbMText
 10
168.4169935712
 20
172.799249353
 30
0.0
 40
2.0
 41
0.0
 71
     1
 72
     1
  1
95
  7
SLDTEXTSTYLE0
 73
     1
 44
1.0
  0
ENDBLK
  5
1DC
330
1DA
100
AcDbEntity
  8
0
100
AcDbBlockEnd
  0
BLOCK
  5
1E5
330
1E4
100
AcDbEntity
  8
0
100
AcDbBlockBegin
  2
*D6
 70
     1
 10
0.0
 20
0.0
 30
0.0
  3
*D6
  1

  0
SOLID
  5
1E7
330
1E4
100
AcDbEntity
  8
VERMASSUNG
100
AcDbTrace
 10
151.266371686
 20
164.2211139899
 30
0.0
 11
154.266371686
 21
163.7711139899
 31
0.0
 12
154.266371686
 22
164.6711139899
 32
0.0
 13
154.266371686
 23
164.6711139899
 33
0.0
  0
SOLID
  5
1E8
330
1E4
100
AcDbEntity
  8
VERMASSUNG
100
AcDbTrace
 10
217.316371686
 20
164.2211139899
 30
0.0
 11
214.316371686
 21
164.6711139899
 31
0.0
 12
214.316371686
 22
163.7711139899
 32
0.0
 13
214.316371686
 23
163.7711139899
 33
0.0
  0
LINE
  5
1E9
330
1E4
100
AcDbEntity
  8
VERMASSUNG
100
AcDbLine
 10
151.266371686
 20
158.1898538107
 30
0.0
 11
151.266371686
 21
165.2211139899
 31
0.0
  0
LINE
  5
1EA
330
1E4
100
AcDbEntity
  8
VERMASSUNG
100
AcDbLine
 10
217.316371686
 20
120.3590446384
 30
0.0
 11
217.316371686
 21
165.2211139899
 31
0.0
  0
LINE
  5
1EB
330
1E4
100
AcDbEntity
  8
VERMASSUNG
100
AcDbLine
 10
151.266371686
 20
164.2211139899
 30
0.0
 11
217.316371686
 21
164.2211139899
 31
0.0
  0
MTEXT
  5
1EC
330
1E4
100
AcDbEntity
  8
VERMASSUNG
100
AcDbMText
 10
181.1920856622
 20
166.799249353
 30
0.0
 40
2.0
 41
0.0
 71
     1
 72
     1
  1
66.05
  7
SLDTEXTSTYLE0
 73
     1
 44
1.0
  0
ENDBLK
  5
1E6
330
1E4
100
AcDbEntity
  8
0
100
AcDbBlockEnd
  0
BLOCK
  5
1EF
330
1EE
100
AcDbEntity
  8
0
100
AcDbBlockBegin
  2
*D7
 70
     1
 10
0.0
 20
0.0
 30
0.0
  3
*D7
  1

  0
SOLID
  5
1F1
330
1EE
100
AcDbEntity
  8
VERMASSUNG
100
AcDbTrace
 10
72.416371686
 20
176.2211139899
 30
0.0
 11
75.416371686
 21
175.7711139899
 31
0.0
 12
75.416371686
 22
176.6711139899
 32
0.0
 13
75.416371686
 23
176.6711139899
 33
0.0
  0
SOLID
  5
1F2
330
1EE
100
AcDbEntity
  8
VERMASSUNG
100
AcDbTrace
 10
217.316371686
 20
176.2211139899
 30
0.0
 11
214.316371686
 21
176.6711139899
 31
0.0
 12
214.316371686
 22
175.7711139899
 32
0.0
 13
214.316371686
 23
175.7711139899
 33
0.0
  0
LINE
  5
1F3
330
1EE
100
AcDbEntity
  8
VERMASSUNG
100
AcDbLine
 10
72.416371686
 20
140.7237837325
 30
0.0
 11
72.416371686
 21
177.2211139899
 31
0.0
  0
LINE
  5
1F4
330
1EE
100
AcDbEntity
  8
VERMASSUNG
100
AcDbLine
 10
217.316371686
 20
120.3590446384
 30
0.0
 11
217.316371686
 21
177.2211139899
 31
0.0
  0
LINE
  5
1F5
330
1EE
100
AcDbEntity
  8
VERMASSUNG
100
AcDbLine
 10
72.416371686
 20
176.2211139899
 30
0.0
 11
217.316371686
 21
176.2211139899
 31
0.0
  0
MTEXT
  5
1F6
330
1EE
100
AcDbEntity
  8
VERMASSUNG
100
AcDbMText
 10
141.7670856622
 20
178.799249353
 30
0.0
 40
2.0
 41
0.0
 71
     1
 72
     1
  1
144.9
  7
SLDTEXTSTYLE0
 73
     1
 44
1.0
  0
ENDBLK
  5
1F0
330
1EE
100
AcDbEntity
  8
0
100
AcDbBlockEnd
  0
BLOCK
  5
1F9
330
1F8
100
AcDbEntity
  8
0
100
AcDbBlockBegin
  2
*D8
 70
     1
 10
0.0
 20
0.0
 30
0.0
  3
*D8
  1

  0
SOLID
  5
1FB
330
1F8
100
AcDbEntity
  8
VERMASSUNG
100
AcDbTrace
 10
236.1462369447
 20
125.2211139899
 30
0.0
 11
235.6962369447
 21
122.2211139899
 31
0.0
 12
236.5962369447
 22
122.2211139899
 32
0.0
 13
236.5962369447
 23
122.2211139899
 33
0.0
  0
SOLID
  5
1FC
330
1F8
100
AcDbEntity
  8
VERMASSUNG
100
AcDbTrace
 10
236.1462369447
 20
95.2211139899
 30
0.0
 11
236.5962369447
 21
98.2211139899
 31
0.0
 12
235.6962369447
 22
98.2211139899
 32
0.0
 13
235.6962369447
 23
98.2211139899
 33
0.0
  0
LINE
  5
1FD
330
1F8
100
AcDbEntity
  8
VERMASSUNG
100
AcDbLine
 10
179.1977574775
 20
125.2211139899
 30
0.0
 11
237.1462369447
 21
125.2211139899
 31
0.0
  0
LINE
  5
1FE
330
1F8
100
AcDbEntity
  8
VERMASSUNG
100
AcDbLine
 10
179.1977574775
 20
95.2211139899
 30
0.0
 11
237.1462369447
 21
95.2211139899
 31
0.0
  0
LINE
  5
1FF
330
1F8
100
AcDbEntity
  8
VERMASSUNG
100
AcDbLine
 10
236.1462369447
 20
125.2211139899
 30
0.0
 11
236.1462369447
 21
95.2211139899
 31
0.0
  0
MTEXT
  5
200
330
1F8
100
AcDbEntity
  8
VERMASSUNG
100
AcDbMText
 10
233.5681014652
 20
107.0173967635
 30
0.0
 40
2.0
 41
0.0
 71
     1
 72
     1
  1
%%c
  7
SLDTEXTSTYLE0
 11
-7.044195017643634E-15
 21
1.0
 31
0.0
 73
     1
 44
1.0
  0
MTEXT
  5
201
330
1F8
100
AcDbEntity
  8
VERMASSUNG
100
AcDbMText
 10
233.5681015816
 20
110.6260749866
 30
0.0
 40
2.0
 41
0.0
 71
     1
 72
     1
  1
30
  7
SLDTEXTSTYLE0
 11
-7.044195017643634E-15
 21
1.0
 31
0.0
 73
     1
 44
1.0
  0
ENDBLK
  5
1FA
330
1F8
100
AcDbEntity
  8
0
100
AcDbBlockEnd
  0
ENDSEC
  0
SECTION
  2
ENTITIES
  0
MTEXT
  5
45
330
1F
100
AcDbEntity
  8
KOPF_DÜNN
100
AcDbMText
 10
13.8892156294
 20
23.8442973028
 30
0.0
 40
3.0
 41
0.0
 71
     1
 72
     1
  1
HA0.S12.K21.095
  7
SLDTEXTSTYLE0
 73
     1
 44
1.0
  0
MTEXT
  5
46
330
1F
100
AcDbEntity
  8
VERMASSUNG
100
AcDbMText
 10
13.9329988022
 20
28.8834360957
 30
0.0
 40
3.0
 41
0.0
 71
     1
 72
     1
  1
Schrumpffutter_Heat shrink chuck
  7
SLDTEXTSTYLE0
 73
     1
 44
1.0
  0
MTEXT
  5
47
330
1F
100
AcDbEntity
  8
VERMASSUNG
100
AcDbMText
 10
98.8601118557
 20
13.8365368179
 30
0.0
 40
2.0
 41
0.0
 71
     1
 72
     1
  1
Datum: 02.05.2011
  7
SLDTEXTSTYLE0
 73
     1
 44
1.0
  0
MTEXT
  5
49
330
1F
100
AcDbEntity
  8
VERMASSUNG
100
AcDbMText
 10
13.933048693
 20
18.0482802738
 30
0.0
 40
2.0
 41
0.0
 71
     1
 72
     1
  1
DIN 69 893 HSK A 100
  7
SLDTEXTSTYLE1
 73
     1
 44
1.0
  0
MTEXT
  5
4A
330
1F
100
AcDbEntity
  8
VERMASSUNG
100
AcDbMText
 10
13.9808475933
 20
13.9090973692
 30
0.0
 40
2.0
 41
0.0
 71
     1
 72
     1
  1
Gewicht: 2263g
  7
SLDTEXTSTYLE0
 73
     1
 44
1.0
  0
LINE
  5
4B
330
1F
100
AcDbEntity
  8
0
  6
Continuous
 62
     7
370
    15
100
AcDbLine
 10
217.30181951
 20
99.8290916708
 30
0.0
 11
217.3936926194
 21
100.0037109282
 31
0.0
  0
LINE
  5
4C
330
1F
100
AcDbEntity
  8
0
  6
Continuous
 62
     7
370
    15
100
AcDbLine
 10
217.3348032303
 20
120.4408304569
 30
0.0
 11
217.3133902617
 21
120.4815357726
 31
0.0
  0
LINE
  5
4D
330
1F
100
AcDbEntity
  8
0
  6
Continuous
 62
     7
370
    15
100
AcDbLine
 10
122.8163717098
 20
60.2211132448
 30
0.0
 11
127.2663716592
 21
60.2211132448
 31
0.0
  0
LINE
  5
4E
330
1F
100
AcDbEntity
  8
0
  6
Continuous
 62
     7
370
    15
100
AcDbLine
 10
127.3004445613
 20
160.221114735
 30
0.0
 11
122.8163717098
 21
160.221114735
 31
0.0
  0
ARC
  5
4F
330
1F
100
AcDbEntity
  8
0
  6
Continuous
 62
     7
370
    15
100
AcDbCircle
 10
122.816371686
 20
60.7211139899
 30
0.0
 40
0.5
100
AcDbArc
 50
180.0
 51
270.0
  0
ARC
  5
50
330
1F
100
AcDbEntity
  8
0
  6
Continuous
 62
     7
370
    15
100
AcDbCircle
 10
122.816371686
 20
159.7211139899
 30
0.0
 40
0.5
100
AcDbArc
 50
90.0
 51
180.0
  0
ARC
  5
51
330
1F
100
AcDbEntity
  8
0
  6
Continuous
 62
     7
370
    15
100
AcDbCircle
 10
121.4194347676
 20
71.5926286655
 30
0.0
 40
0.996233821438679
100
AcDbArc
 50
25.7988228126
 51
90.0
  0
ARC
  5
52
330
1F
100
AcDbEntity
  8
0
  6
Continuous
 62
     7
370
    15
100
AcDbCircle
 10
121.4194347676
 20
148.8495993143
 30
0.0
 40
0.9962338214386932
100
AcDbArc
 50
270.0
 51
334.2011771874
  0
LINE
  5
53
330
1F
100
AcDbEntity
  8
0
  6
Continuous
 62
     7
370
    15
100
AcDbLine
 10
100.835692174
 20
147.1524312895
 30
0.0
 11
82.5163722403
 21
146.2346277934
 31
0.0
  0
LINE
  5
54
330
1F
100
AcDbEntity
  8
0
  6
Continuous
 62
     7
370
    15
100
AcDbLine
 10
119.8163717419
 20
148.1033637923
 30
0.0
 11
113.7483325221
 21
147.7993540269
 31
0.0
  0
LINE
  5
55
330
1F
100
AcDbEntity
  8
0
  6
Continuous
 62
     7
370
    15
100
AcDbLine
 10
113.7484554567
 20
72.6428665024
 30
0.0
 11
119.8163717419
 21
72.3388641875
 31
0.0
  0
LINE
  5
56
330
1F
100
AcDbEntity
  8
0
  6
Continuous
 62
     7
370
    15
100
AcDbLine
 10
87.5163711973
 20
73.9571004909
 30
0.0
 11
100.8363236107
 21
73.289766888
 31
0.0
  0
LINE
  5
57
330
1F
100
AcDbEntity
  8
0
  6
Continuous
 62
     7
370
    15
100
AcDbLine
 10
119.8163717419
 20
72.3388641875
 30
0.0
 11
120.6222178081
 21
72.5547894638
 31
0.0
  0
LINE
  5
58
330
1F
100
AcDbEntity
  8
0
  6
Continuous
 62
     7
370
    15
100
AcDbLine
 10
120.6222178081
 20
147.887438516
 30
0.0
 11
119.8163717419
 21
148.1033637923
 31
0.0
  0
ARC
  5
59
330
1F
100
AcDbEntity
  8
0
  6
Continuous
 62
     7
370
    15
100
AcDbCircle
 10
120.8810368855
 20
71.5888624869
 30
0.0
 40
0.9999999999999858
100
AcDbArc
 50
90.0
 51
105.0
  0
ARC
  5
5A
330
1F
100
AcDbEntity
  8
0
  6
Continuous
 62
     7
370
    15
100
AcDbCircle
 10
120.8810368855
 20
148.8533654929
 30
0.0
 40
0.9999999999999719
100
AcDbArc
 50
255.0
 51
270.0
  0
LINE
  5
5B
330
1F
100
AcDbEntity
  8
0
  6
Continuous
 62
     7
370
    15
100
AcDbLine
 10
120.8810368918
 20
72.5888609689
 30
0.0
 11
121.4194347632
 21
72.5888609689
 31
0.0
  0
LINE
  5
5C
330
1F
100
AcDbEntity
  8
0
  6
Continuous
 62
     7
370
    15
100
AcDbLine
 10
121.4194347632
 20
147.8533670109
 30
0.0
 11
120.8810368918
 21
147.8533670109
 31
0.0
  0
ARC
  5
5D
330
1F
100
AcDbEntity
  8
0
  6
Continuous
 62
     7
370
    15
100
AcDbCircle
 10
156.266371686
 20
90.2211139899
 30
0.0
 40
5.0
100
AcDbArc
 50
90.0
 51
180.0
  0
ARC
  5
5E
330
1F
100
AcDbEntity
  8
0
  6
Continuous
 62
     7
370
    15
100
AcDbCircle
 10
156.266371686
 20
130.2211139899
 30
0.0
 40
5.0
100
AcDbArc
 50
180.0
 51
270.0
  0
LINE
  5
5F
330
1F
100
AcDbEntity
  8
0
  6
Continuous
 62
     7
370
    15
100
AcDbLine
 10
74.0663707621
 20
77.9711156886
 30
0.0
 11
85.6163725622
 21
77.9711156886
 31
0.0
  0
ARC
  5
60
330
1F
100
AcDbEntity
  8
0
  6
Continuous
 62
     7
370
    15
100
AcDbCircle
 10
85.616371686
 20
76.0711139899
 30
0.0
 40
1.899999999999991
100
AcDbArc
 50
35.6630613694
 51
90.0
  0
ARC
  5
61
330
1F
100
AcDbEntity
  8
0
  6
Continuous
 62
     7
370
    15
100
AcDbCircle
 10
80.616371686
 20
144.3711139899
 30
0.0
 40
1.899999999999996
100
AcDbArc
 50
270.0
 51
310.9212832533
  0
LINE
  5
62
330
1F
100
AcDbEntity
  8
0
  6
Continuous
 62
     7
370
    15
100
AcDbLine
 10
74.0663707621
 20
142.4711122912
 30
0.0
 11
72.4670552082
 21
140.8717985999
 31
0.0
  0
LINE
  5
63
330
1F
100
AcDbEntity
  8
0
  6
Continuous
 62
     7
370
    15
100
AcDbLine
 10
72.4678933986
 20
79.5695930522
 30
0.0
 11
74.0663707621
 21
77.9711156886
 31
0.0
  0
LINE
  5
64
330
1F
100
AcDbEntity
  8
0
  6
Continuous
 62
     7
370
    15
100
AcDbLine
 10
80.61636988
 20
142.4711122912
 30
0.0
 11
74.0663707621
 21
142.4711122912
 31
0.0
  0
LINE
  5
65
330
1F
100
AcDbEntity
  8
0
  6
Continuous
 62
     7
370
    15
100
AcDbLine
 10
167.7408777542
 20
95.2211143252
 30
0.0
 11
179.1977584727
 21
95.2211143252
 31
0.0
  0
LINE
  5
66
330
1F
100
AcDbEntity
  8
0
  6
Continuous
 62
     7
370
    15
100
AcDbLine
 10
156.2663726874
 20
95.2211143252
 30
0.0
 11
160.8021259673
 21
95.2211143252
 31
0.0
  0
LINE
  5
67
330
1F
100
AcDbEntity
  8
0
  6
Continuous
 62
     7
370
    15
100
AcDbLine
 10
160.7711613543
 20
125.2211136546
 30
0.0
 11
156.2663726874
 21
125.2211136546
 31
0.0
  0
LINE
  5
68
330
1F
100
AcDbEntity
  8
0
  6
Continuous
 62
     7
370
    15
100
AcDbLine
 10
179.1977584727
 20
125.2211136546
 30
0.0
 11
167.7265130349
 21
125.2211136546
 31
0.0
  0
LINE
  5
69
330
1F
100
AcDbEntity
  8
0
  6
Continuous
 62
     7
370
    15
100
AcDbLine
 10
179.1977584727
 20
95.2211143252
 30
0.0
 11
215.4732905693
 21
98.0760603946
 31
0.0
  0
LINE
  5
6A
330
1F
100
AcDbEntity
  8
0
  6
Continuous
 62
     7
370
    15
100
AcDbLine
 10
215.4732905693
 20
122.3661675852
 30
0.0
 11
179.1977584727
 21
125.2211136546
 31
0.0
  0
ARC
  5
6B
330
1F
100
AcDbEntity
  8
0
  6
Continuous
 62
     7
370
    15
100
AcDbCircle
 10
215.316371686
 20
100.0698949732
 30
0.0
 40
2.00000000000001
100
AcDbArc
 50
274.5
 51
353.0847181901
  0
ARC
  5
6C
330
1F
100
AcDbEntity
  8
0
  6
Continuous
 62
     7
370
    15
100
AcDbCircle
 10
215.316371686
 20
120.3723330066
 30
0.0
 40
2.000000000000019
100
AcDbArc
 50
0.0
 51
85.5
  0
LWPOLYLINE
  5
6D
330
1F
100
AcDbEntity
  8
0
  6
Continuous
 62
     7
370
    15
100
AcDbPolyline
 90
        5
 70
   128
 43
0.0
 10
217.3458151884
 20
101.22227108
 10
217.3641361661
 20
100.7559485536
 10
217.3796706267
 20
100.3606188845
 10
217.3900492854
 20
100.096468794
 10
217.3936926194
 20
100.0037109282
  0
LWPOLYLINE
  5
6E
330
1F
100
AcDbEntity
  8
0
  6
Continuous
 62
     7
370
    15
100
AcDbPolyline
 90
        3
 70
   128
 43
0.0
 10
217.3163704939
 20
101.9716923859
 10
217.3274942108
 20
101.6885936063
 10
217.3458151884
 20
101.22227108
  0
LWPOLYLINE
  5
6F
330
1F
100
AcDbEntity
  8
0
  6
Continuous
 62
     7
370
    15
100
AcDbPolyline
 90
        4
 70
   128
 43
0.0
 10
217.3348032303
 20
120.4408304569
 10
217.3311598964
 20
120.3480735224
 10
217.3207812376
 20
120.0839225006
 10
217.3163704939
 20
119.9716925424
  0
SPLINE
  5
70
330
1F
100
AcDbEntity
  8
0
  6
Continuous
 62
     7
370
    15
100
AcDbSpline
210
0.0
220
0.0
230
1.0
 70
     8
 71
     3
 72
    80
 73
    76
 74
     0
 42
0.00000001
 43
0.00000001
 40
-0.0312500000000001
 40
-0.0312500000000001
 40
0.0
 40
0.0
 40
0.0312499999999995
 40
0.0312499999999995
 40
0.0468749999999993
 40
0.0468749999999993
 40
0.0624999999999991
 40
0.0624999999999991
 40
0.0937499999999988
 40
0.0937499999999988
 40
0.1249999999999986
 40
0.1249999999999986
 40
0.1562499999999983
 40
0.1562499999999983
 40
0.1874999999999981
 40
0.1874999999999981
 40
0.2187499999999978
 40
0.2187499999999978
 40
0.2499999999999976
 40
0.2499999999999976
 40
0.2812499999999973
 40
0.2812499999999973
 40
0.3124999999999971
 40
0.3124999999999971
 40
0.3281249999999971
 40
0.3281249999999971
 40
0.3437499999999971
 40
0.3437499999999971
 40
0.3749999999999973
 40
0.3749999999999973
 40
0.4062499999999975
 40
0.4062499999999975
 40
0.4218749999999975
 40
0.4218749999999975
 40
0.4374999999999974
 40
0.4374999999999974
 40
0.4687499999999973
 40
0.4687499999999973
 40
0.4999999999999972
 40
0.4999999999999972
 40
0.531249999999997
 40
0.531249999999997
 40
0.562499999999997
 40
0.562499999999997
 40
0.5937499999999969
 40
0.5937499999999969
 40
0.6249999999999969
 40
0.6249999999999969
 40
0.6562499999999968
 40
0.6562499999999968
 40
0.6874999999999968
 40
0.6874999999999968
 40
0.7031249999999968
 40
0.7031249999999968
 40
0.7187499999999969
 40
0.7187499999999969
 40
0.7499999999999973
 40
0.7499999999999973
 40
0.7812499999999979
 40
0.7812499999999979
 40
0.7968749999999982
 40
0.7968749999999982
 40
0.8124999999999984
 40
0.8124999999999984
 40
0.8437499999999988
 40
0.8437499999999988
 40
0.874999999999999
 40
0.874999999999999
 40
0.9062499999999993
 40
0.9062499999999993
 40
0.9374999999999996
 40
0.9374999999999996
 40
0.9687499999999999
 40
0.9687499999999999
 40
1.0
 40
1.0
 40
1.03125
 40
1.03125
 10
130.9858263732433
 20
153.6357434535306
 30
0.0
 10
131.6469169987959
 20
153.6357434535306
 30
0.0
 10
131.9718971280475
 20
153.6519516849128
 30
0.0
 10
132.4513705392939
 20
153.6993163169324
 30
0.0
 10
132.6098523571347
 20
153.718970528823
 30
0.0
 10
132.924071889639
 20
153.7660816850156
 30
0.0
 10
133.0801921733194
 20
153.7936630045104
 30
0.0
 10
133.534246202276
 20
153.8861987913041
 30
0.0
 10
133.8213495852158
 20
153.9612692249006
 30
0.0
 10
134.3647041412428
 20
154.1365075335112
 30
0.0
 10
134.6218077524484
 20
154.2375088313495
 30
0.0
 10
135.0827140073872
 20
154.4548650298104
 30
0.0
 10
135.2896117166022
 20
154.5720293615826
 30
0.0
 10
135.6551370305944
 20
154.8220992858112
 30
0.0
 10
135.8103425527203
 20
154.9530453745702
 30
0.0
 10
136.0597729393201
 20
155.2187803182826
 30
0.0
 10
136.1558628951052
 20
155.3555339115935
 30
0.0
 10
136.2843817442988
 20
155.6295994864325
 30
0.0
 10
136.3161926144766
 20
155.7645395769013
 30
0.0
 10
136.3165492642499
 20
156.0300112139701
 30
0.0
 10
136.2840520120528
 20
156.1618356911113
 30
0.0
 10
136.1564265383383
 20
156.4112852907318
 30
0.0
 10
136.0619981372864
 20
156.5297179826598
 30
0.0
 10
135.8741373173009
 20
156.6985871797538
 30
0.0
 10
135.8033093184977
 20
156.7536731748741
 30
0.0
 10
135.6485874265324
 20
156.8589260033625
 30
0.0
 10
135.564610956349
 20
156.9092612321228
 30
0.0
 10
135.2932872867046
 20
157.0538370646609
 30
0.0
 10
135.0867380681022
 20
157.1416986510779
 30
0.0
 10
134.6201279279132
 20
157.3014197440774
 30
0.0
 10
134.3677623582877
 20
157.3706580405446
 30
0.0
 10
133.961861016609
 20
157.4604454297744
 30
0.0
 10
133.8219603991315
 20
157.4880113918607
 30
0.0
 10
133.5327364638846
 20
157.5385021927869
 30
0.0
 10
133.3828970075953
 20
157.5614656316376
 30
0.0
 10
132.9287804379846
 20
157.6220961480564
 30
0.0
 10
132.6171292192477
 20
157.6521701768523
 30
0.0
 10
131.9761327543353
 20
157.6927597641109
 30
0.0
 10
131.6446051263831
 20
157.703071994327
 30
0.0
 10
130.9918140813117
 20
157.7031475614927
 30
0.0
 10
130.6672778762798
 20
157.693245956025
 30
0.0
 10
130.0220084268634
 20
157.6527594254997
 30
0.0
 10
129.7062654207007
 20
157.6222981256151
 30
0.0
 10
129.104376125717
 20
157.5421474541785
 30
0.0
 10
128.8136268949055
 20
157.4918652223713
 30
0.0
 10
128.266715103221
 20
157.3711950395983
 30
0.0
 10
128.0149377393841
 20
157.3019711804283
 30
0.0
 10
127.553549746763
 20
157.1445194527877
 30
0.0
 10
127.3422804671649
 20
157.0551709781139
 30
0.0
 10
126.9789761147887
 20
156.8619231074131
 30
0.0
 10
126.8251694663459
 20
156.7577951155338
 30
0.0
 10
126.6365499967485
 20
156.5891707293503
 30
0.0
 10
126.5805195105394
 20
156.5305423276754
 30
0.0
 10
126.4849457488032
 20
156.4110874128492
 30
0.0
 10
126.4451828317782
 20
156.350167624011
 30
0.0
 10
126.3494110814661
 20
156.1637628978371
 30
0.0
 10
126.31668824234
 20
156.034650080042
 30
0.0
 10
126.3160596560109
 20
155.7659931570862
 30
0.0
 10
126.3482458007457
 20
155.6306224163294
 30
0.0
 10
126.4431565026012
 20
155.4270721080934
 30
0.0
 10
126.4826232860002
 20
155.35910018403
 30
0.0
 10
126.5775532847211
 20
155.2230079608991
 30
0.0
 10
126.6333101124845
 20
155.1546578606897
 30
0.0
 10
126.8212502304544
 20
154.9539548476475
 30
0.0
 10
126.9746117001705
 20
154.8245665738349
 30
0.0
 10
127.3368759350509
 20
154.575901141785
 30
0.0
 10
127.5477244085168
 20
154.4560914994168
 30
0.0
 10
128.0083943788357
 20
154.2385692118442
 30
0.0
 10
128.2597687584195
 20
154.1394841120082
 30
0.0
 10
128.8056766453177
 20
153.9628116380914
 30
0.0
 10
129.0964992199689
 20
153.8867545499574
 30
0.0
 10
129.6978258347489
 20
153.7639095726044
 30
0.0
 10
130.0123444193613
 20
153.7162034475512
 30
0.0
 10
130.6589258754813
 20
153.6519549124316
 30
0.0
 10
130.9858263732433
 20
153.6357434535306
 30
0.0
 10
131.6469169987959
 20
153.6357434535306
 30
0.0
  0
LINE
  5
71
330
1F
100
AcDbEntity
  8
0
  6
Continuous
 62
     7
370
    15
100
AcDbLine
 10
127.2663716592
 20
141.5711156827
 30
0.0
 11
139.0543431409
 21
141.5711156827
 31
0.0
  0
LINE
  5
72
330
1F
100
AcDbEntity
  8
0
  6
Continuous
 62
     7
370
    15
100
AcDbLine
 10
139.0543431409
 20
61.4461190801
 30
0.0
 11
139.0543431409
 21
141.5711156827
 31
0.0
  0
LINE
  5
73
330
1F
100
AcDbEntity
  8
0
  6
Continuous
 62
     7
370
    15
100
AcDbLine
 10
139.0543431409
 20
61.4461190801
 30
0.0
 11
137.2663714357
 21
61.4461190801
 31
0.0
  0
SPLINE
  5
74
330
1F
100
AcDbEntity
  8
0
  6
Continuous
 62
     7
370
    15
100
AcDbSpline
210
0.0
220
0.0
230
1.0
 70
     8
 71
     3
 72
    30
 73
    26
 74
     0
 42
0.00000001
 43
0.00000001
 40
0.0
 40
0.0
 40
0.0
 40
0.0
 40
0.1250000000000002
 40
0.1250000000000002
 40
0.1875000000000003
 40
0.1875000000000003
 40
0.2500000000000004
 40
0.2500000000000004
 40
0.3750000000000001
 40
0.3750000000000001
 40
0.4374999999999998
 40
0.4374999999999998
 40
0.4999999999999996
 40
0.4999999999999996
 40
0.6249999999999996
 40
0.6249999999999996
 40
0.6874999999999997
 40
0.6874999999999997
 40
0.7499999999999997
 40
0.7499999999999997
 40
0.8124999999999998
 40
0.8124999999999998
 40
0.8749999999999999
 40
0.8749999999999999
 40
1.0
 40
1.0
 40
1.0
 40
1.0
 10
137.2663716860196
 20
61.44612039687055
 30
0.0
 10
136.6036269921746
 20
61.44612039687055
 30
0.0
 10
135.9523711330588
 20
61.43128032028174
 30
0.0
 10
134.9919205948005
 20
61.38891075605212
 30
0.0
 10
134.6745291515676
 20
61.37143265327295
 30
0.0
 10
134.0453656500127
 20
61.33010436672064
 30
0.0
 10
133.733217463571
 20
61.30617909326295
 30
0.0
 10
132.8259101617228
 20
61.22737257679604
 30
0.0
 10
132.2524852040815
 20
61.16506655681957
 30
0.0
 10
131.4386083345068
 20
61.06193723658021
 30
0.0
 10
131.173802137937
 20
61.02575331753371
 30
0.0
 10
130.6668947271226
 20
60.9519585333332
 30
0.0
 10
130.4255005757691
 20
60.91448467456155
 30
0.0
 10
129.7363591036368
 20
60.80177273122182
 30
0.0
 10
129.3233042887726
 20
60.72623663374804
 30
0.0
 10
128.7751494693975
 20
60.61784337673054
 30
0.0
 10
128.6056868620519
 20
60.58277114506728
 30
0.0
 10
128.2976696140366
 20
60.51653568446743
 30
0.0
 10
128.1582895934282
 20
60.48520898771271
 30
0.0
 10
127.9085040808014
 20
60.42680021613177
 30
0.0
 10
127.7980979681475
 20
60.39971698094892
 30
0.0
 10
127.6068401145098
 20
60.35045722633534
 30
0.0
 10
127.5257205962255
 20
60.3281952465277
 30
0.0
 10
127.3315736761171
 20
60.27062833935942
 30
0.0
 10
127.2663716860196
 20
60.24436873457343
 30
0.0
 10
127.2663716860196
 20
60.2311149900994
 30
0.0
  0
LINE
  5
75
330
1F
100
AcDbEntity
  8
0
  6
Continuous
 62
     7
370
    15
100
AcDbLine
 10
127.2663716592
 20
60.2311156493
 30
0.0
 11
127.2663716592
 21
60.2211132448
 31
0.0
  0
SPLINE
  5
76
330
1F
100
AcDbEntity
  8
0
  6
Continuous
 62
     7
370
    15
100
AcDbSpline
210
0.0
220
0.0
230
1.0
 70
     8
 71
     3
 72
    17
 73
    13
 74
     0
 42
0.00000001
 43
0.00000001
 40
0.0
 40
0.0
 40
0.0
 40
0.0
 40
0.1043843958185158
 40
0.2118345569819801
 40
0.3162081801235555
 40
0.4235375330682647
 40
0.5292275935501746
 40
0.6379275752951962
 40
0.7444714855043735
 40
0.8541836194561564
 40
0.959308052615968
 40
1.0
 40
1.0
 40
1.0
 40
1.0
 10
137.26637143568
 20
159.210909138272
 30
0.0
 10
136.7184328951664
 20
159.2162765786048
 30
0.0
 10
135.6064628820921
 20
159.2271691007688
 30
0.0
 10
133.9936075495696
 20
159.3123512845868
 30
0.0
 10
132.4600943988319
 20
159.4387217879183
 30
0.0
 10
131.0690735104577
 20
159.5956256594272
 30
0.0
 10
129.8335563941596
 20
159.7673210568628
 30
0.0
 10
128.8102012483031
 20
159.9326659110728
 30
0.0
 10
128.0098585754442
 20
160.0763702089049
 30
0.0
 10
127.4995270226841
 20
160.1745342048367
 30
0.0
 10
127.2596182642247
 20
160.2224555193095
 30
0.0
 10
127.2915371759941
 20
160.2160890112957
 30
0.0
 10
127.3004445612511
 20
160.2143123548724
 30
0.0
  0
LINE
  5
77
330
1F
100
AcDbEntity
  8
0
  6
Continuous
 62
     7
370
    15
100
AcDbLine
 10
139.0543431409
 20
159.2109091383
 30
0.0
 11
137.2663714357
 21
159.2109091383
 31
0.0
  0
LINE
  5
78
330
1F
100
AcDbEntity
  8
0
  6
Continuous
 62
     7
370
    15
100
AcDbLine
 10
139.0543431409
 20
149.1720750731
 30
0.0
 11
139.0543431409
 21
159.2109091383
 31
0.0
  0
LINE
  5
79
330
1F
100
AcDbEntity
  8
0
  6
Continuous
 62
     7
370
    15
100
AcDbLine
 10
136.9743384786
 20
149.1720750731
 30
0.0
 11
139.0543431409
 21
149.1720750731
 31
0.0
  0
SPLINE
  5
7A
330
1F
100
AcDbEntity
  8
0
  6
Continuous
 62
     7
370
    15
100
AcDbSpline
210
0.0
220
0.0
230
1.0
 70
     8
 71
     3
 72
    22
 73
    18
 74
     0
 42
0.00000001
 43
0.00000001
 40
0.0
 40
0.0
 40
0.0
 40
0.0
 40
0.2500000000000002
 40
0.2500000000000002
 40
0.3750000000000003
 40
0.3750000000000003
 40
0.5000000000000004
 40
0.5000000000000004
 40
0.6250000000000004
 40
0.6250000000000004
 40
0.7500000000000004
 40
0.7500000000000004
 40
0.8750000000000004
 40
0.8750000000000004
 40
0.9375000000000002
 40
0.9375000000000002
 40
1.0
 40
1.0
 40
1.0
 40
1.0
 10
127.2663716860196
 20
141.5711139898993
 30
0.0
 10
127.4690966419386
 20
142.590360331764
 30
0.0
 10
127.783840363734
 20
143.5494684817033
 30
0.0
 10
128.491895833405
 20
144.8919475592126
 30
0.0
 10
128.7703584636226
 20
145.3261561419526
 30
0.0
 10
129.4091258702598
 20
146.1377838574547
 30
0.0
 10
129.76953955005
 20
146.5170641503915
 30
0.0
 10
130.5870717820393
 20
147.2200227294125
 30
0.0
 10
131.0482397653265
 20
147.5450515471131
 30
0.0
 10
132.0462300118102
 20
148.110066870504
 30
0.0
 10
132.5859892058025
 20
148.3537704647105
 30
0.0
 10
133.7605821698338
 20
148.7579703923555
 30
0.0
 10
134.3723183558257
 20
148.910407585401
 30
0.0
 10
135.3242275806874
 20
149.0657351330097
 30
0.0
 10
135.6474607449481
 20
149.1052399130597
 30
0.0
 10
136.3065239162233
 20
149.1585490337284
 30
0.0
 10
136.6405879267973
 20
149.1720767507863
 30
0.0
 10
136.9743385341989
 20
149.1720767507863
 30
0.0
  0
LINE
  5
7B
330
1F
100
AcDbEntity
  8
0
  6
Continuous
 62
     7
370
    15
100
AcDbLine
 10
122.316371686
 20
60.7211142581
 30
0.0
 11
122.316371686
 21
159.7211137217
 31
0.0
  0
LINE
  5
7C
330
1F
100
AcDbEntity
  8
0
  6
Continuous
 62
     7
370
    15
100
AcDbLine
 10
145.5784011997
 20
61.4461190801
 30
0.0
 11
145.5784011997
 21
141.5711156827
 31
0.0
  0
SPLINE
  5
7D
330
1F
100
AcDbEntity
  8
0
  6
Continuous
 62
     7
370
    15
100
AcDbSpline
210
0.0
220
0.0
230
1.0
 70
     8
 71
     3
 72
     8
 73
     4
 74
     0
 42
0.00000001
 43
0.00000001
 40
0.0
 40
0.0
 40
0.0
 40
0.0
 40
1.0
 40
1.0
 40
1.0
 40
1.0
 10
145.578400706941
 20
61.44612039687055
 30
0.0
 10
145.1272959775407
 20
62.24708032869047
 30
0.0
 10
144.6765981502973
 20
63.04827034025112
 30
0.0
 10
144.2263716860196
 20
63.84972570287589
 30
0.0
  0
LINE
  5
7E
330
1F
100
AcDbEntity
  8
0
  6
Continuous
 62
     7
370
    15
100
AcDbLine
 10
144.2263722785
 20
63.8497248095
 30
0.0
 11
144.2263722785
 21
141.5711156827
 31
0.0
  0
SPLINE
  5
7F
330
1F
100
AcDbEntity
  8
0
  6
Continuous
 62
     7
370
    15
100
AcDbSpline
210
0.0
220
0.0
230
1.0
 70
    24
 71
     3
 72
     8
 73
     4
 74
     0
 42
0.00000001
 43
0.00000001
 40
0.0
 40
0.0
 40
0.0
 40
0.0
 40
1.0
 40
1.0
 40
1.0
 40
1.0
 10
144.2263716860196
 20
141.5711139898993
 30
0.0
 10
144.6705845683735
 20
141.5711139898993
 30
0.0
 10
145.1215991346127
 20
141.5711139898993
 30
0.0
 10
145.578400706941
 20
141.5711139898993
 30
0.0
  0
LINE
  5
80
330
1F
100
AcDbEntity
  8
0
  6
Continuous
 62
     7
370
    15
100
AcDbLine
 10
150.2663717039
 20
61.4461190801
 30
0.0
 11
145.5784011997
 21
61.4461190801
 31
0.0
  0
LINE
  5
81
330
1F
100
AcDbEntity
  8
0
  6
Continuous
 62
     7
370
    15
100
AcDbLine
 10
145.5784011997
 20
141.5711156827
 30
0.0
 11
150.2663717039
 21
141.5711156827
 31
0.0
  0
LINE
  5
82
330
1F
100
AcDbEntity
  8
0
  6
Continuous
 62
     7
370
    15
100
AcDbLine
 10
140.4063720621
 20
63.8497248095
 30
0.0
 11
140.4063720621
 21
141.5711156827
 31
0.0
  0
SPLINE
  5
83
330
1F
100
AcDbEntity
  8
0
  6
Continuous
 62
     7
370
    15
100
AcDbSpline
210
0.0
220
0.0
230
1.0
 70
     8
 71
     3
 72
     8
 73
     4
 74
     0
 42
0.00000001
 43
0.00000001
 40
0.0
 40
0.0
 40
0.0
 40
0.0
 40
1.0
 40
1.0
 40
1.0
 40
1.0
 10
140.4063716860196
 20
63.84972570287588
 30
0.0
 10
139.9561452217418
 20
63.04827034025112
 30
0.0
 10
139.5054473944984
 20
62.24708032869045
 30
0.0
 10
139.0543426650982
 20
61.44612039687054
 30
0.0
  0
SPLINE
  5
84
330
1F
100
AcDbEntity
  8
0
  6
Continuous
 62
     7
370
    15
100
AcDbSpline
210
0.0
220
0.0
230
1.0
 70
    24
 71
     3
 72
     8
 73
     4
 74
     0
 42
0.00000001
 43
0.00000001
 40
0.0
 40
0.0
 40
0.0
 40
0.0
 40
1.0
 40
1.0
 40
1.0
 40
1.0
 10
139.0543426650982
 20
141.5711139898993
 30
0.0
 10
139.5111442374264
 20
141.5711139898993
 30
0.0
 10
139.9621588036656
 20
141.5711139898993
 30
0.0
 10
140.4063716860196
 20
141.5711139898993
 30
0.0
  0
LINE
  5
85
330
1F
100
AcDbEntity
  8
0
  6
Continuous
 62
     7
370
    15
100
AcDbLine
 10
151.2663718678
 20
62.4717697304
 30
0.0
 11
151.2663718678
 21
141.5711156827
 31
0.0
  0
SPLINE
  5
86
330
1F
100
AcDbEntity
  8
0
  6
Continuous
 62
     7
370
    15
100
AcDbSpline
210
0.0
220
0.0
230
1.0
 70
     8
 71
     3
 72
    14
 73
    10
 74
     0
 42
0.00000001
 43
0.00000001
 40
0.0
 40
0.0
 40
0.0
 40
0.0
 40
0.25
 40
0.25
 40
0.5
 40
0.5
 40
0.75
 40
0.75
 40
1.0
 40
1.0
 40
1.0
 40
1.0
 10
151.2663716860196
 20
62.47176844464606
 30
0.0
 10
151.2663716860196
 20
62.33834274859152
 30
0.0
 10
151.2410605861087
 20
62.20649494074717
 30
0.0
 10
151.142725822264
 20
61.95997239205307
 30
0.0
 10
151.0695818180079
 20
61.84616720381252
 30
0.0
 10
150.8861437569122
 20
61.65571002686525
 30
0.0
 10
150.7744574225736
 20
61.57807516301533
 30
0.0
 10
150.5319539922673
 20
61.47378375290286
 30
0.0
 10
150.3985795635731
 20
61.44612039687051
 30
0.0
 10
150.2663716860196
 20
61.44612039687051
 30
0.0
  0
SPLINE
  5
87
330
1F
100
AcDbEntity
  8
0
  6
Continuous
 62
     7
370
    15
100
AcDbSpline
210
0.0
220
0.0
230
1.0
 70
    24
 71
     3
 72
    12
 73
     8
 74
     0
 42
0.00000001
 43
0.00000001
 40
0.0
 40
0.0
 40
0.0
 40
0.0
 40
0.2500000000000032
 40
0.2500000000000032
 40
0.5000000000000064
 40
0.5000000000000064
 40
1.0
 40
1.0
 40
1.0
 40
1.0
 10
150.2663716860196
 20
141.5711139898993
 30
0.0
 10
150.4184619229646
 20
141.5711139898993
 30
0.0
 10
150.56692118404
 20
141.5711139898993
 30
0.0
 10
150.8243248163057
 20
141.5711139898993
 30
0.0
 10
150.9334295641476
 20
141.5711139898993
 30
0.0
 10
151.1874890405552
 20
141.5711139898993
 30
0.0
 10
151.2663716860196
 20
141.5711139898993
 30
0.0
 10
151.2663716860196
 20
141.5711139898993
 30
0.0
  0
SPLINE
  5
88
330
1F
100
AcDbEntity
  8
0
  6
Continuous
 62
     7
370
    15
100
AcDbSpline
210
0.0
220
0.0
230
1.0
 70
     8
 71
     3
 72
    12
 73
     8
 74
     0
 42
0.00000001
 43
0.00000001
 40
0.0
 40
0.0
 40
0.0
 40
0.0
 40
0.25
 40
0.25
 40
0.5
 40
0.5
 40
1.0
 40
1.0
 40
1.0
 40
1.0
 10
141.2063716860196
 20
65.58143853184973
 30
0.0
 10
141.1006110326706
 20
65.5814385318497
 30
0.0
 10
140.9926234044877
 20
65.5588990258493
 30
0.0
 10
140.7980287392221
 20
65.47432839385401
 30
0.0
 10
140.7091568263832
 20
65.4118467410952
 30
0.0
 10
140.4899645340573
 20
65.18245778962304
 30
0.0
 10
140.4063716860196
 20
64.96987445210065
 30
0.0
 10
140.4063716860196
 20
64.75793520750447
 30
0.0
  0
SPLINE
  5
89
330
1F
100
AcDbEntity
  8
0
  6
Continuous
 62
     7
370
    15
100
AcDbSpline
210
0.0
220
0.0
230
1.0
 70
    24
 71
     3
 72
    14
 73
    10
 74
     0
 42
0.00000001
 43
0.00000001
 40
0.0
 40
0.0
 40
0.0
 40
0.0
 40
0.25
 40
0.25
 40
0.5
 40
0.5
 40
0.75
 40
0.75
 40
1.0
 40
1.0
 40
1.0
 40
1.0
 10
140.4063716860196
 20
141.5711139898993
 30
0.0
 10
140.4063716860196
 20
141.5711139898993
 30
0.0
 10
140.4220860064855
 20
141.5711139898993
 30
0.0
 10
140.4857699849539
 20
141.5711139898993
 30
0.0
 10
140.5343731793643
 20
141.5711139898993
 30
0.0
 10
140.6670567017899
 20
141.5711139898993
 30
0.0
 10
140.7521588061006
 20
141.5711139898993
 30
0.0
 10
140.9586010410106
 20
141.5711139898993
 30
0.0
 10
141.0826819826337
 20
141.5711139898993
 30
0.0
 10
141.2063716860196
 20
141.5711139898993
 30
0.0
  0
SPLINE
  5
8A
330
1F
100
AcDbEntity
  8
0
  6
Continuous
 62
     7
370
    15
100
AcDbSpline
210
0.0
220
0.0
230
1.0
 70
     8
 71
     3
 72
    14
 73
    10
 74
     0
 42
0.00000001
 43
0.00000001
 40
0.0
 40
0.0
 40
0.0
 40
0.0
 40
0.25
 40
0.25
 40
0.5
 40
0.5
 40
0.75
 40
0.75
 40
1.0
 40
1.0
 40
1.0
 40
1.0
 10
144.2263716860196
 20
64.75793520750447
 30
0.0
 10
144.2263716860196
 20
64.86497928849886
 30
0.0
 10
144.2062539988614
 20
64.97021442874129
 30
0.0
 10
144.1277628095958
 20
65.16806491558899
 30
0.0
 10
144.0696061847946
 20
65.2591166791539
 30
0.0
 10
143.9230909291765
 20
65.41228277307869
 30
0.0
 10
143.8344483805354
 20
65.4745772192881
 30
0.0
 10
143.6387250577351
 20
65.55937100482409
 30
0.0
 10
143.5334938666642
 20
65.58143853184971
 30
0.0
 10
143.4263716860196
 20
65.58143853184973
 30
0.0
  0
SPLINE
  5
8B
330
1F
100
AcDbEntity
  8
0
  6
Continuous
 62
     7
370
    15
100
AcDbSpline
210
0.0
220
0.0
230
1.0
 70
    24
 71
     3
 72
    14
 73
    10
 74
     0
 42
0.00000001
 43
0.00000001
 40
0.0
 40
0.0
 40
0.0
 40
0.0
 40
0.25
 40
0.25
 40
0.5
 40
0.5
 40
0.75
 40
0.75
 40
1.0
 40
1.0
 40
1.0
 40
1.0
 10
143.4263716860196
 20
141.5711139898993
 30
0.0
 10
143.5501414507847
 20
141.5711139898993
 30
0.0
 10
143.6745085547916
 20
141.5711139898993
 30
0.0
 10
143.8808650235177
 20
141.5711139898993
 30
0.0
 10
143.966193166936
 20
141.5711139898993
 30
0.0
 10
144.0983852256512
 20
141.5711139898993
 30
0.0
 10
144.1470304694018
 20
141.5711139898993
 30
0.0
 10
144.2105662611305
 20
141.5711139898993
 30
0.0
 10
144.2263716860196
 20
141.5711139898993
 30
0.0
 10
144.2263716860196
 20
141.5711139898993
 30
0.0
  0
LINE
  5
8C
330
1F
100
AcDbEntity
  8
0
  6
Continuous
 62
     7
370
    15
100
AcDbLine
 10
143.4263717748
 20
65.5814371806
 30
0.0
 11
141.2063725658
 21
65.5814371806
 31
0.0
  0
LINE
  5
8D
330
1F
100
AcDbEntity
  8
0
  6
Continuous
 62
     7
370
    15
100
AcDbLine
 10
141.2063725658
 20
141.5711156827
 30
0.0
 11
143.4263717748
 21
141.5711156827
 31
0.0
  0
LINE
  5
8E
330
1F
100
AcDbEntity
  8
0
  6
Continuous
 62
     7
370
    15
100
AcDbLine
 10
87.5163711973
 20
73.9571004909
 30
0.0
 11
87.5163711973
 21
76.3517804247
 31
0.0
  0
SPLINE
  5
8F
330
1F
100
AcDbEntity
  8
0
  6
Continuous
 62
     7
370
    15
100
AcDbSpline
210
0.0
220
0.0
230
1.0
 70
     8
 71
     3
 72
    14
 73
    10
 74
     0
 42
0.00000001
 43
0.00000001
 40
0.0
 40
0.0
 40
0.0
 40
0.0
 40
0.25
 40
0.25
 40
0.5
 40
0.5
 40
0.75
 40
0.75
 40
1.0
 40
1.0
 40
1.0
 40
1.0
 10
86.51194921468262
 20
78.05463264615584
 30
0.0
 10
86.60071779262793
 20
77.89609851484788
 30
0.0
 10
86.72243563130684
 20
77.74365583795932
 30
0.0
 10
86.95748524116367
 20
77.4465212141304
 30
0.0
 10
87.07311542738057
 20
77.30183857051304
 30
0.0
 10
87.27352036080838
 20
77.01854936800963
 30
0.0
 10
87.35892065279272
 20
76.87999537497278
 30
0.0
 10
87.48062628650993
 20
76.60861134493923
 30
0.0
 10
87.51637168602258
 20
76.47647547630463
 30
0.0
 10
87.51637168602257
 20
76.35178072453385
 30
0.0
  0
SPLINE
  5
90
330
1F
100
AcDbEntity
  8
0
  6
Continuous
 62
     7
370
    15
100
AcDbSpline
210
0.0
220
0.0
230
1.0
 70
     8
 71
     3
 72
    14
 73
    10
 74
     0
 42
0.00000001
 43
0.00000001
 40
0.0
 40
0.0
 40
0.0
 40
0.0
 40
0.124999999999999
 40
0.124999999999999
 40
0.249999999999998
 40
0.249999999999998
 40
0.5000000000000007
 40
0.5000000000000007
 40
1.0
 40
1.0
 40
1.0
 40
1.0
 10
85.61637168601958
 20
78.68346258525594
 30
0.0
 10
85.68395398580405
 20
78.69061847035732
 30
0.0
 10
85.75644156355196
 20
78.68619400031831
 30
0.0
 10
85.88873267281791
 20
78.65648784254797
 30
0.0
 10
85.94601005220808
 20
78.63320356096975
 30
0.0
 10
86.09566047940837
 20
78.55571832111941
 30
0.0
 10
86.16937377492987
 20
78.49386649421805
 30
0.0
 10
86.3571817582561
 20
78.30918904156974
 30
0.0
 10
86.44122206461755
 20
78.18094611827853
 30
0.0
 10
86.51194921468382
 20
78.05463264615594
 30
0.0
  0
SPLINE
  5
91
330
1F
100
AcDbEntity
  8
0
  6
Continuous
 62
     7
370
    15
100
AcDbSpline
210
0.0
220
0.0
230
1.0
 70
     8
 71
     3
 72
     8
 73
     4
 74
     0
 42
0.00000001
 43
0.00000001
 40
0.0
 40
0.0
 40
0.0
 40
0.0
 40
1.0
 40
1.0
 40
1.0
 40
1.0
 10
82.07173129793878
 20
78.26541400046416
 30
0.0
 10
83.23702960864765
 20
78.42060147235078
 30
0.0
 10
84.42164482268747
 20
78.5569601106611
 30
0.0
 10
85.61637168601955
 20
78.68346258525594
 30
0.0
  0
SPLINE
  5
92
330
1F
100
AcDbEntity
  8
0
  6
Continuous
 62
     7
370
    15
100
AcDbSpline
210
0.0
220
0.0
230
1.0
 70
     8
 71
     3
 72
    14
 73
    10
 74
     0
 42
0.00000001
 43
0.00000001
 40
0.0
 40
0.0
 40
0.0
 40
0.0
 40
0.4999999999999972
 40
0.4999999999999972
 40
0.7499999999999971
 40
0.7499999999999971
 40
0.8749999999999986
 40
0.8749999999999986
 40
1.0
 40
1.0
 40
1.0
 40
1.0
 10
74.31629680199087
 20
77.97528182133424
 30
0.0
 10
75.62459836452462
 20
77.98229654507536
 30
0.0
 10
76.92965773918142
 20
77.99770512151986
 30
0.0
 10
78.87553379066975
 20
78.05160167698652
 30
0.0
 10
79.52223129440874
 20
78.07463324158921
 30
0.0
 10
80.4860736582631
 20
78.12557576645997
 30
0.0
 10
80.80631235019717
 20
78.14531068869316
 30
0.0
 10
81.44300757653957
 20
78.19479781716474
 30
0.0
 10
81.7597229848225
 20
78.22386259609395
 30
0.0
 10
82.07173129793883
 20
78.2654140004641
 30
0.0
  0
SPLINE
  5
93
330
1F
100
AcDbEntity
  8
0
  6
Continuous
 62
     7
370
    15
100
AcDbSpline
210
0.0
220
0.0
230
1.0
 70
     8
 71
     3
 72
    12
 73
     8
 74
     0
 42
0.00000001
 43
0.00000001
 40
0.0
 40
0.0
 40
0.0
 40
0.0
 40
0.2500000000000009
 40
0.2500000000000009
 40
0.5000000000000018
 40
0.5000000000000018
 40
1.0
 40
1.0
 40
1.0
 40
1.0
 10
80.61637168601956
 20
142.3076368813958
 30
0.0
 10
80.09767286419137
 20
142.340159656244
 30
0.0
 10
79.57596129098637
 20
142.3634563974145
 30
0.0
 10
78.52966927449081
 20
142.4013019118366
 30
0.0
 10
78.00499764882055
 20
142.4155703863327
 30
0.0
 10
76.42815162628133
 20
142.449779873791
 30
0.0
 10
75.37319631173439
 20
142.4612793777349
 30
0.0
 10
74.31629680198917
 20
142.4669461584645
 30
0.0
  0
SPLINE
  5
94
330
1F
100
AcDbEntity
  8
0
  6
Continuous
 62
     7
370
    15
100
AcDbSpline
210
0.0
220
0.0
230
1.0
 70
     8
 71
     3
 72
    20
 73
    16
 74
     0
 42
0.00000001
 43
0.00000001
 40
0.0
 40
0.0
 40
0.0
 40
0.0
 40
0.2500000000000011
 40
0.2500000000000011
 40
0.5000000000000021
 40
0.5000000000000021
 40
0.7500000000000031
 40
0.7500000000000031
 40
0.8750000000000008
 40
0.8750000000000008
 40
0.9375000000000006
 40
0.9375000000000006
 40
0.9687500000000003
 40
0.9687500000000003
 40
1.0
 40
1.0
 40
1.0
 40
1.0
 10
82.51637168601957
 20
143.9657227268839
 30
0.0
 10
82.51637168601955
 20
143.8300404071371
 30
0.0
 10
82.46765989680294
 20
143.6889534209971
 30
0.0
 10
82.29849847357775
 20
143.3968817022665
 30
0.0
 10
82.17671805965942
 20
143.2452329601761
 30
0.0
 10
81.87917096490993
 20
142.942824520023
 30
0.0
 10
81.70525835920714
 20
142.7902358838997
 30
0.0
 10
81.38584352532533
 20
142.5649651200574
 30
0.0
 10
81.27080274987807
 20
142.4902420255467
 30
0.0
 10
81.06371842586165
 20
142.3908316162897
 30
0.0
 10
80.98761059105524
 20
142.3592665239451
 30
0.0
 10
80.85621605150192
 20
142.3248231397521
 30
0.0
 10
80.80966283250046
 20
142.3157715679845
 30
0.0
 10
80.71332948141973
 20
142.305595919146
 30
0.0
 10
80.66407005806431
 20
142.304646160471
 30
0.0
 10
80.61637168601757
 20
142.3076368813856
 30
0.0
  0
LINE
  5
95
330
1F
100
AcDbEntity
  8
0
  6
Continuous
 62
     7
370
    15
100
AcDbLine
 10
82.5163722403
 20
143.9657211107
 30
0.0
 11
82.5163722403
 21
146.2346277934
 31
0.0
  0
LINE
  5
96
330
1F
100
AcDbEntity
  8
0
  6
Continuous
 62
     7
370
    15
100
AcDbLine
 10
119.8163717419
 20
72.3388641875
 30
0.0
 11
119.8163717419
 21
148.1033637923
 31
0.0
  0
SPLINE
  5
97
330
1F
100
AcDbEntity
  8
0
  6
Continuous
 62
     7
370
    15
100
AcDbSpline
210
0.0
220
0.0
230
1.0
 70
     8
 71
     3
 72
    24
 73
    20
 74
     0
 42
0.00000001
 43
0.00000001
 40
0.0
 40
0.0
 40
0.0
 40
0.0
 40
0.0002934239329635
 40
0.0628079954843725
 40
0.1260453886222317
 40
0.1890746649056576
 40
0.2513200327496127
 40
0.3133304381321615
 40
0.3759158074016681
 40
0.4383740215105411
 40
0.5000631209931454
 40
0.5616593985498132
 40
0.6245050468179062
 40
0.6872231543007362
 40
0.7494953203649202
 40
0.811758388799549
 40
0.8747365576758938
 40
0.937898032705022
 40
1.0
 40
1.0
 40
1.0
 40
1.0
 10
100.8363273359915
 20
73.2898674708106
 30
0.0
 10
100.8361327922088
 20
73.28984377354999
 30
0.0
 10
100.7944902959531
 20
73.28477132624758
 30
0.0
 10
100.9395135081259
 20
73.3032126163937
 30
0.0
 10
101.2946307351444
 20
73.34581494516048
 30
0.0
 10
101.8991962887804
 20
73.41392527848684
 30
0.0
 10
102.7056334471861
 20
73.48719059181478
 30
0.0
 10
103.6911105572074
 20
73.5517061951235
 30
0.0
 10
104.8227796985896
 20
73.59027311040278
 30
0.0
 10
106.045072612252
 20
73.59396241224961
 30
0.0
 10
107.3124017582123
 20
73.55154398585545
 30
0.0
 10
108.5788870013092
 20
73.46328911960394
 30
0.0
 10
109.79502513217
 20
73.33490351237293
 30
0.0
 10
110.9204345577857
 20
73.18225578570299
 30
0.0
 10
111.8978527510037
 20
73.02048540433798
 30
0.0
 10
112.7011174315213
 20
72.86795296786156
 30
0.0
 10
113.2896108405528
 20
72.74393932910067
 30
0.0
 10
113.6785175770382
 20
72.65901773795005
 30
0.0
 10
113.7252783934085
 20
72.64829202964196
 30
0.0
 10
113.7484610445878
 20
72.64297453577299
 30
0.0
  0
SPLINE
  5
98
330
1F
100
AcDbEntity
  8
0
  6
Continuous
 62
     7
370
    15
100
AcDbSpline
210
0.0
220
0.0
230
1.0
 70
     8
 71
     3
 72
    41
 73
    37
 74
     0
 42
0.00000001
 43
0.00000001
 40
0.0
 40
0.0
 40
0.0
 40
0.0
 40
0.0619930057521228
 40
0.125434780003805
 40
0.1886508796717336
 40
0.2510246486109843
 40
0.3131658162995061
 40
0.3756581562437795
 40
0.4382226967007958
 40
0.4998044866844433
 40
0.5615163978929774
 40
0.6240683345302142
 40
0.6867257381925739
 40
0.7488365438330932
 40
0.8110686224406419
 40
0.8741742887465523
 40
0.937321279503927
 40
0.9685511676011523
 40
0.9842086839263064
 40
0.9920641174372576
 40
0.9960004855111666
 40
0.9979710789827718
 40
0.9989570084930103
 40
0.9994501352406044
 40
0.9996967397140213
 40
0.9998200522691518
 40
0.9998817111564905
 40
0.9999125412175116
 40
0.9999279564093942
 40
0.9999356640470698
 40
0.9999395178742543
 40
0.9999414447906289
 40
0.9999424082488162
 40
0.9999433717070034
 40
0.9999501690780732
 40
1.0
 40
1.0
 40
1.0
 40
1.0
 10
113.7483399726531
 20
147.7992087405422
 30
0.0
 10
113.7247683816941
 20
147.7938991554987
 30
0.0
 10
113.6770743347543
 20
147.7831559010984
 30
0.0
 10
113.285031241375
 20
147.6979290159229
 30
0.0
 10
112.6945185961891
 20
147.5733603349633
 30
0.0
 10
111.890480148119
 20
147.4204114248064
 30
0.0
 10
110.914405381731
 20
147.2586542221507
 30
0.0
 10
109.7925970687887
 20
147.1064208044002
 30
0.0
 10
108.5790654331829
 20
146.9786454499084
 30
0.0
 10
107.3142350017263
 20
146.8907969344328
 30
0.0
 10
106.0461916323812
 20
146.8484088952635
 30
0.0
 10
104.8226843225762
 20
146.8521479667127
 30
0.0
 10
103.6891850100582
 20
146.8907364462005
 30
0.0
 10
102.7030802646171
 20
146.9551828761077
 30
0.0
 10
101.8944508826685
 20
147.028689748252
 30
0.0
 10
101.2978343652726
 20
147.0960032782824
 30
0.0
 10
100.9824421347893
 20
147.1339663720742
 30
0.0
 10
100.8723758202249
 20
147.147765700424
 30
0.0
 10
100.8449574637711
 20
147.1512503149444
 30
0.0
 10
100.8380336498748
 20
147.1521315968732
 30
0.0
 10
100.8362651945103
 20
147.1523547046939
 30
0.0
 10
100.8358051627569
 20
147.1524077497987
 30
0.0
 10
100.8356807038964
 20
147.1524272993367
 30
0.0
 10
100.8356463381927
 20
147.1524206597439
 30
0.0
 10
100.8356352324901
 20
147.1524281758179
 30
0.0
 10
100.8356317424274
 20
147.1524275100283
 30
0.0
 10
100.8356285872403
 20
147.1524275690334
 30
0.0
 10
100.8356288669782
 20
147.152427563757
 30
0.0
 10
100.8356288417874
 20
147.1524275642956
 30
0.0
 10
100.8356288446056
 20
147.1524275641473
 30
0.0
 10
100.8356288435272
 20
147.1524275643025
 30
0.0
 10
100.8356288447925
 20
147.1524275640882
 30
0.0
 10
100.8356288427775
 20
147.1524275644334
 30
0.0
 10
100.8356288614534
 20
147.1524275612319
 30
0.0
 10
100.8356266232895
 20
147.1524279449168
 30
0.0
 10
100.8356624821206
 20
147.1524217976888
 30
0.0
 10
100.8356940366408
 20
147.1524163883426
 30
0.0
  0
SPLINE
  5
99
330
1F
100
AcDbEntity
  8
0
  6
Continuous
 62
     7
370
    15
100
AcDbSpline
210
0.0
220
0.0
230
1.0
 70
     8
 71
     3
 72
    20
 73
    16
 74
     0
 42
0.00000001
 43
0.00000001
 40
0.0
 40
0.0
 40
0.0
 40
0.0
 40
0.249999999999986
 40
0.249999999999986
 40
0.3749999999999789
 40
0.3749999999999789
 40
0.4374999999999789
 40
0.4374999999999789
 40
0.4999999999999789
 40
0.4999999999999789
 40
0.6249999999999835
 40
0.6249999999999835
 40
0.7499999999999879
 40
0.7499999999999879
 40
1.0
 40
1.0
 40
1.0
 40
1.0
 10
72.70718591773557
 20
79.54263083719864
 30
0.0
 10
72.73345813494899
 20
79.56194877828112
 30
0.0
 10
72.76413827720383
 20
79.5763374893829
 30
0.0
 10
72.83560914758574
 20
79.56943312754689
 30
0.0
 10
72.86363618463007
 20
79.56226712419846
 30
0.0
 10
72.9187197741276
 20
79.53256809749487
 30
0.0
 10
72.93961110268002
 20
79.51909445493354
 30
0.0
 10
72.98481975012547
 20
79.48389618941752
 30
0.0
 10
73.00922396252105
 20
79.46198796069027
 30
0.0
 10
73.0805562805725
 20
79.38986310069471
 30
0.0
 10
73.12245306539275
 20
79.33752255974466
 30
0.0
 10
73.19402902424864
 20
79.24003916784392
 30
0.0
 10
73.22485701406595
 20
79.1932853979655
 30
0.0
 10
73.30795694690151
 20
79.05999218212638
 30
0.0
 10
73.35281185227181
 20
78.97735478421117
 30
0.0
 10
73.3929239277244
 20
78.89824788942039
 30
0.0
  0
SPLINE
  5
9A
330
1F
100
AcDbEntity
  8
0
  6
Continuous
 62
     7
370
    15
100
AcDbSpline
210
0.0
220
0.0
230
1.0
 70
     8
 71
     3
 72
    14
 73
    10
 74
     0
 42
0.00000001
 43
0.00000001
 40
0.0
 40
0.0
 40
0.0
 40
0.0
 40
0.25
 40
0.25
 40
0.5
 40
0.5
 40
0.75
 40
0.75
 40
1.0
 40
1.0
 40
1.0
 40
1.0
 10
72.41637168601959
 20
79.71844424733143
 30
0.0
 10
72.41637168601959
 20
79.67719731630709
 30
0.0
 10
72.42498140240083
 20
79.6402903440246
 30
0.0
 10
72.45606758197117
 20
79.5793902841252
 30
0.0
 10
72.47845713545523
 20
79.55520936458551
 30
0.0
 10
72.53320106663135
 20
79.52124177370224
 30
0.0
 10
72.56565130621654
 20
79.51132168973406
 30
0.0
 10
72.6356528209446
 20
79.50997048082921
 30
0.0
 10
72.67386332106715
 20
79.51812875752537
 30
0.0
 10
72.70718591774022
 20
79.54263083719346
 30
0.0
  0
LINE
  5
9B
330
1F
100
AcDbEntity
  8
0
  6
Continuous
 62
     7
370
    15
100
AcDbLine
 10
72.4163726337
 20
79.7184444767
 30
0.0
 11
72.4163726337
 21
140.7237835031
 31
0.0
  0
SPLINE
  5
9C
330
1F
100
AcDbEntity
  8
0
  6
Continuous
 62
     7
370
    15
100
AcDbSpline
210
0.0
220
0.0
230
1.0
 70
     8
 71
     3
 72
     9
 73
     5
 74
     0
 42
0.00000001
 43
0.00000001
 40
0.0
 40
0.0
 40
0.0
 40
0.0
 40
0.0592942499244465
 40
1.0
 40
1.0
 40
1.0
 40
1.0
 10
72.70718742088283
 20
140.8995967161157
 30
0.0
 10
72.70230442318409
 20
140.9028898558134
 30
0.0
 10
72.61995246317147
 20
140.9584287942765
 30
0.0
 10
72.55382180875618
 20
140.9011365911637
 30
0.0
 10
72.49161232189145
 20
140.8472414862611
 30
0.0
  0
SPLINE
  5
9D
330
1F
100
AcDbEntity
  8
0
  6
Continuous
 62
     7
370
    15
100
AcDbSpline
210
0.0
220
0.0
230
1.0
 70
     8
 71
     3
 72
     8
 73
     4
 74
     0
 42
0.00000001
 43
0.00000001
 40
0.0
 40
0.0
 40
0.0
 40
0.0
 40
1.0
 40
1.0
 40
1.0
 40
1.0
 10
72.44000535495577
 20
140.831363233537
 30
0.0
 10
72.42465631631973
 20
140.800853178541
 30
0.0
 10
72.41637168601959
 20
140.7645416230287
 30
0.0
 10
72.41637168601959
 20
140.7237837324673
 30
0.0
  0
SPLINE
  5
9E
330
1F
100
AcDbEntity
  8
0
  6
Continuous
 62
     7
370
    15
100
AcDbSpline
210
0.0
220
0.0
230
1.0
 70
     8
 71
     3
 72
    20
 73
    16
 74
     0
 42
0.00000001
 43
0.00000001
 40
0.0
 40
0.0
 40
0.0
 40
0.0
 40
0.2500000000000037
 40
0.2500000000000037
 40
0.3750000000000055
 40
0.3750000000000055
 40
0.5000000000000073
 40
0.5000000000000073
 40
0.5625000000000057
 40
0.5625000000000057
 40
0.625000000000004
 40
0.625000000000004
 40
0.7500000000000027
 40
0.7500000000000027
 40
1.0
 40
1.0
 40
1.0
 40
1.0
 10
73.39292392772198
 20
141.5439800903775
 30
0.0
 10
73.35292770989815
 20
141.4651016838201
 30
0.0
 10
73.3078140820605
 20
141.3819720371286
 30
0.0
 10
73.22455986769397
 20
141.2484833727776
 30
0.0
 10
73.19434053907348
 20
141.2026183168956
 30
0.0
 10
73.12225230393204
 20
141.1044267644908
 30
0.0
 10
73.08033498652097
 20
141.0521169449672
 30
0.0
 10
73.0090843819695
 20
140.9801110422327
 30
0.0
 10
72.98484856959018
 20
140.9583408299311
 30
0.0
 10
72.93925037940555
 20
140.9228661716021
 30
0.0
 10
72.91844788980582
 20
140.9094959874245
 30
0.0
 10
72.8635068913867
 20
140.8799260752893
 30
0.0
 10
72.83543790329988
 20
140.8727995529873
 30
0.0
 10
72.76493507323706
 20
140.8659251815047
 30
0.0
 10
72.73351098544619
 20
140.8802403405918
 30
0.0
 10
72.70718591773759
 20
140.8995971426024
 30
0.0
  0
SPLINE
  5
9F
330
1F
100
AcDbEntity
  8
0
  6
Continuous
 62
     7
370
    15
100
AcDbSpline
210
0.0
220
0.0
230
1.0
 70
     8
 71
     3
 72
    10
 73
     6
 74
     0
 42
0.00000001
 43
0.00000001
 40
0.0
 40
0.0
 40
0.0
 40
0.0
 40
0.4999999999999989
 40
0.4999999999999989
 40
1.0
 40
1.0
 40
1.0
 40
1.0
 10
74.06637168601956
 20
142.4693991917194
 30
0.0
 10
73.94148341526937
 20
142.3384029136479
 30
0.0
 10
73.82003329720894
 20
142.1946900769829
 30
0.0
 10
73.5904493222515
 20
141.8841197842937
 30
0.0
 10
73.48017434685552
 20
141.7160507112306
 30
0.0
 10
73.392923927722
 20
141.5439800903775
 30
0.0
  0
SPLINE
  5
A0
330
1F
100
AcDbEntity
  8
0
  6
Continuous
 62
     7
370
    15
100
AcDbSpline
210
0.0
220
0.0
230
1.0
 70
     8
 71
     3
 72
     8
 73
     4
 74
     0
 42
0.00000001
 43
0.00000001
 40
0.0
 40
0.0
 40
0.0
 40
0.0
 40
1.0
 40
1.0
 40
1.0
 40
1.0
 10
74.31629680198532
 20
142.4669461584639
 30
0.0
 10
74.22927877213695
 20
142.467412723251
 30
0.0
 10
74.14632474575701
 20
142.4684527428272
 30
0.0
 10
74.06637168601726
 20
142.4693991917194
 30
0.0
  0
SPLINE
  5
A1
330
1F
100
AcDbEntity
  8
0
  6
Continuous
 62
     7
370
    15
100
AcDbSpline
210
0.0
220
0.0
230
1.0
 70
     8
 71
     3
 72
     8
 73
     4
 74
     0
 42
0.00000001
 43
0.00000001
 40
0.0
 40
0.0
 40
0.0
 40
0.0
 40
1.0
 40
1.0
 40
1.0
 40
1.0
 10
74.06637168601726
 20
77.97282878807928
 30
0.0
 10
74.14632474575752
 20
77.97377523697155
 30
0.0
 10
74.22927877213803
 20
77.97481525654767
 30
0.0
 10
74.31629680198701
 20
77.97528182133475
 30
0.0
  0
SPLINE
  5
A2
330
1F
100
AcDbEntity
  8
0
  6
Continuous
 62
     7
370
    15
100
AcDbSpline
210
0.0
220
0.0
230
1.0
 70
     8
 71
     3
 72
    10
 73
     6
 74
     0
 42
0.00000001
 43
0.00000001
 40
0.0
 40
0.0
 40
0.0
 40
0.0
 40
0.4999999999999989
 40
0.4999999999999989
 40
1.0
 40
1.0
 40
1.0
 40
1.0
 10
73.39292392772107
 20
78.89824788942296
 30
0.0
 10
73.48017434685455
 20
78.72617726856959
 30
0.0
 10
73.5904493222507
 20
78.55810819550615
 30
0.0
 10
73.82003329720854
 20
78.24753790281633
 30
0.0
 10
73.94148341526918
 20
78.10382506615106
 30
0.0
 10
74.06637168601956
 20
77.97282878807934
 30
0.0
  0
SPLINE
  5
A3
330
1F
100
AcDbEntity
  8
0
  6
Continuous
 62
     7
370
    15
100
AcDbSpline
210
0.0
220
0.0
230
1.0
 70
     8
 71
     3
 72
    12
 73
     8
 74
     0
 42
0.00000001
 43
0.00000001
 40
0.0
 40
0.0
 40
0.0
 40
0.0
 40
0.4999999999999953
 40
0.4999999999999953
 40
0.7499999999999977
 40
0.7499999999999977
 40
1.0
 40
1.0
 40
1.0
 40
1.0
 10
151.2663716860196
 20
158.1898538107452
 30
0.0
 10
151.2663716860196
 20
158.4551232435116
 30
0.0
 10
151.1617649425331
 20
158.717638349164
 30
0.0
 10
150.8850965907878
 20
159.0031759552012
 30
0.0
 10
150.7747313314358
 20
159.0794975720626
 30
0.0
 10
150.5306592828201
 20
159.1838397369028
 30
0.0
 10
150.3989068214883
 20
159.2109088455629
 30
0.0
 10
150.2663716860196
 20
159.2109088455629
 30
0.0
  0
SPLINE
  5
A4
330
1F
100
AcDbEntity
  8
0
  6
Continuous
 62
     7
370
    15
100
AcDbSpline
210
0.0
220
0.0
230
1.0
 70
     8
 71
     3
 72
    16
 73
    12
 74
     0
 42
0.00000001
 43
0.00000001
 40
0.0
 40
0.0
 40
0.0
 40
0.0
 40
0.1249999999999978
 40
0.1249999999999978
 40
0.2499999999999955
 40
0.2499999999999955
 40
0.499999999999997
 40
0.499999999999997
 40
0.7499999999999984
 40
0.7499999999999984
 40
1.0
 40
1.0
 40
1.0
 40
1.0
 10
150.2663716860196
 20
149.1720767507863
 30
0.0
 10
150.3420093924308
 20
149.1720767507863
 30
0.0
 10
150.418325056849
 20
149.1607317506514
 30
0.0
 10
150.5627357947409
 20
149.1180792000128
 30
0.0
 10
150.6311822438494
 20
149.08714487533
 30
0.0
 10
150.8261134964625
 20
148.9678885035624
 30
0.0
 10
150.9339546702434
 20
148.8577364899418
 30
0.0
 10
151.1026674184554
 20
148.6096004042837
 30
0.0
 10
151.1650318311789
 20
148.46925808028
 30
0.0
 10
151.2463357556874
 20
148.1809863887914
 30
0.0
 10
151.2663716860196
 20
148.0301814158116
 30
0.0
 10
151.2663716860196
 20
147.8798115244663
 30
0.0
  0
LINE
  5
A5
330
1F
100
AcDbEntity
  8
0
  6
Continuous
 62
     7
370
    15
100
AcDbLine
 10
151.2663718678
 20
147.8798128467
 30
0.0
 11
151.2663718678
 21
158.1898554962
 31
0.0
  0
LINE
  5
A6
330
1F
100
AcDbEntity
  8
0
  6
Continuous
 62
     7
370
    15
100
AcDbLine
 10
150.2663717039
 20
159.2109091383
 30
0.0
 11
145.5784011997
 21
159.2109091383
 31
0.0
  0
LINE
  5
A7
330
1F
100
AcDbEntity
  8
0
  6
Continuous
 62
     7
370
    15
100
AcDbLine
 10
145.5784011997
 20
149.1720750731
 30
0.0
 11
150.2663717039
 21
149.1720750731
 31
0.0
  0
LINE
  5
A8
330
1F
100
AcDbEntity
  8
0
  6
Continuous
 62
     7
370
    15
100
AcDbLine
 10
145.5784011997
 20
149.1720750731
 30
0.0
 11
145.5784011997
 21
159.2109091383
 31
0.0
  0
SPLINE
  5
A9
330
1F
100
AcDbEntity
  8
0
  6
Continuous
 62
     7
370
    15
100
AcDbSpline
210
0.0
220
0.0
230
1.0
 70
     8
 71
     3
 72
     8
 73
     4
 74
     0
 42
0.00000001
 43
0.00000001
 40
0.0
 40
0.0
 40
0.0
 40
0.0
 40
1.0
 40
1.0
 40
1.0
 40
1.0
 10
139.0543426650982
 20
149.1720767507863
 30
0.0
 10
139.5112690188977
 20
148.156158781112
 30
0.0
 10
139.9624746607007
 20
147.1373629520209
 30
0.0
 10
140.4063716860196
 20
146.1165614960372
 30
0.0
  0
LINE
  5
AA
330
1F
100
AcDbEntity
  8
0
  6
Continuous
 62
     7
370
    15
100
AcDbLine
 10
140.4063720621
 20
146.116562168
 30
0.0
 11
140.4063720621
 21
144.9353508454
 31
0.0
  0
SPLINE
  5
AB
330
1F
100
AcDbEntity
  8
0
  6
Continuous
 62
     7
370
    15
100
AcDbSpline
210
0.0
220
0.0
230
1.0
 70
     8
 71
     3
 72
    14
 73
    10
 74
     0
 42
0.00000001
 43
0.00000001
 40
0.0
 40
0.0
 40
0.0
 40
0.0
 40
0.25
 40
0.25
 40
0.5
 40
0.5
 40
0.75
 40
0.75
 40
1.0
 40
1.0
 40
1.0
 40
1.0
 10
140.4063716860196
 20
144.9353491823964
 30
0.0
 10
140.4063716860196
 20
144.8114823056072
 30
0.0
 10
140.4222308136472
 20
144.6872226287697
 30
0.0
 10
140.485592459167
 20
144.4496142663638
 30
0.0
 10
140.5341821672164
 20
144.3328338816114
 30
0.0
 10
140.6664677719913
 20
144.1240313530024
 30
0.0
 10
140.7517925632519
 20
144.0295206494097
 30
0.0
 10
140.958683811558
 20
143.8915638486075
 30
0.0
 10
141.082651757448
 20
143.8496454029718
 30
0.0
 10
141.2063716860196
 20
143.8496454029718
 30
0.0
  0
LINE
  5
AC
330
1F
100
AcDbEntity
  8
0
  6
Continuous
 62
     7
370
    15
100
AcDbLine
 10
141.2063725658
 20
143.8496447902
 30
0.0
 11
143.4263717748
 21
143.8496447902
 31
0.0
  0
SPLINE
  5
AD
330
1F
100
AcDbEntity
  8
0
  6
Continuous
 62
     7
370
    15
100
AcDbSpline
210
0.0
220
0.0
230
1.0
 70
     8
 71
     3
 72
    12
 73
     8
 74
     0
 42
0.00000001
 43
0.00000001
 40
0.0
 40
0.0
 40
0.0
 40
0.0
 40
0.250000000000002
 40
0.250000000000002
 40
0.500000000000004
 40
0.500000000000004
 40
1.0
 40
1.0
 40
1.0
 40
1.0
 10
143.4263716860196
 20
143.8496454029718
 30
0.0
 10
143.5500726359995
 20
143.8496454029718
 30
0.0
 10
143.6741692482697
 20
143.8916390147044
 30
0.0
 10
143.8808244113567
 20
144.0294343413488
 30
0.0
 10
143.9658651780836
 20
144.1234079398136
 30
0.0
 10
144.1653437465572
 20
144.4381961460346
 30
0.0
 10
144.2263716860196
 20
144.6884351382622
 30
0.0
 10
144.2263716860196
 20
144.9353491823964
 30
0.0
  0
LINE
  5
AE
330
1F
100
AcDbEntity
  8
0
  6
Continuous
 62
     7
370
    15
100
AcDbLine
 10
144.2263722785
 20
144.9353508454
 30
0.0
 11
144.2263722785
 21
146.116562168
 31
0.0
  0
SPLINE
  5
AF
330
1F
100
AcDbEntity
  8
0
  6
Continuous
 62
     7
370
    15
100
AcDbSpline
210
0.0
220
0.0
230
1.0
 70
     8
 71
     3
 72
     8
 73
     4
 74
     0
 42
0.00000001
 43
0.00000001
 40
0.0
 40
0.0
 40
0.0
 40
0.0
 40
1.0
 40
1.0
 40
1.0
 40
1.0
 10
144.2263716860196
 20
146.1165614960372
 30
0.0
 10
144.670521697045
 20
147.1379447269888
 30
0.0
 10
145.121596007303
 20
148.1564292637572
 30
0.0
 10
145.578400706941
 20
149.1720767507863
 30
0.0
  0
LINE
  5
B0
330
1F
100
AcDbEntity
  8
0
  6
Continuous
 62
     7
370
    15
100
AcDbLine
 10
151.2663718678
 20
147.8798128467
 30
0.0
 11
151.2663718678
 21
141.5711156827
 31
0.0
  0
SPLINE
  5
B1
330
1F
100
AcDbEntity
  8
0
  6
Continuous
 62
     7
370
    15
100
AcDbSpline
210
0.0
220
0.0
230
1.0
 70
     8
 71
     3
 72
     8
 73
     4
 74
     0
 42
0.00000001
 43
0.00000001
 40
0.0
 40
0.0
 40
0.0
 40
0.0
 40
1.0
 40
1.0
 40
1.0
 40
1.0
 10
140.4063716860196
 20
156.8183848506042
 30
0.0
 10
139.956063450335
 20
157.6160999757179
 30
0.0
 10
139.5053696338114
 20
158.4135982753751
 30
0.0
 10
139.0543426650982
 20
159.2109088455629
 30
0.0
  0
LINE
  5
B2
330
1F
100
AcDbEntity
  8
0
  6
Continuous
 62
     7
370
    15
100
AcDbLine
 10
140.4063720621
 20
146.116562168
 30
0.0
 11
140.4063720621
 21
156.8183861476
 31
0.0
  0
SPLINE
  5
B3
330
1F
100
AcDbEntity
  8
0
  6
Continuous
 62
     7
370
    15
100
AcDbSpline
210
0.0
220
0.0
230
1.0
 70
     8
 71
     3
 72
    14
 73
    10
 74
     0
 42
0.00000001
 43
0.00000001
 40
0.0
 40
0.0
 40
0.0
 40
0.0
 40
0.25
 40
0.25
 40
0.5
 40
0.5
 40
0.75
 40
0.75
 40
1.0
 40
1.0
 40
1.0
 40
1.0
 10
144.2263716860196
 20
155.9146652307473
 30
0.0
 10
144.2263716860196
 20
155.808308536995
 30
0.0
 10
144.2059841298783
 20
155.7024680492349
 30
0.0
 10
144.1273497844168
 20
155.5059031356984
 30
0.0
 10
144.0686184247782
 20
155.4147323934113
 30
0.0
 10
143.9220095191756
 20
155.2628213043797
 30
0.0
 10
143.8326041991491
 20
155.2007524675601
 30
0.0
 10
143.6387134665488
 20
155.1174844198014
 30
0.0
 10
143.5322084766589
 20
155.0953897500718
 30
0.0
 10
143.4263716860196
 20
155.0953897500717
 30
0.0
  0
SPLINE
  5
B4
330
1F
100
AcDbEntity
  8
0
  6
Continuous
 62
     7
370
    15
100
AcDbSpline
210
0.0
220
0.0
230
1.0
 70
     8
 71
     3
 72
     8
 73
     4
 74
     0
 42
0.00000001
 43
0.00000001
 40
0.0
 40
0.0
 40
0.0
 40
0.0
 40
1.0
 40
1.0
 40
1.0
 40
1.0
 10
145.578400706941
 20
159.2109088455629
 30
0.0
 10
145.1273737382277
 20
158.4135982753751
 30
0.0
 10
144.6766799217041
 20
157.6160999757179
 30
0.0
 10
144.2263716860196
 20
156.8183848506042
 30
0.0
  0
LINE
  5
B5
330
1F
100
AcDbEntity
  8
0
  6
Continuous
 62
     7
370
    15
100
AcDbLine
 10
144.2263722785
 20
146.116562168
 30
0.0
 11
144.2263722785
 21
156.8183861476
 31
0.0
  0
SPLINE
  5
B6
330
1F
100
AcDbEntity
  8
0
  6
Continuous
 62
     7
370
    15
100
AcDbSpline
210
0.0
220
0.0
230
1.0
 70
     8
 71
     3
 72
    10
 73
     6
 74
     0
 42
0.00000001
 43
0.00000001
 40
0.0
 40
0.0
 40
0.0
 40
0.0
 40
0.5
 40
0.5
 40
1.0
 40
1.0
 40
1.0
 40
1.0
 10
141.2063716860196
 20
155.0953897500718
 30
0.0
 10
140.9938353721632
 20
155.0953897500718
 30
0.0
 10
140.7838992005092
 20
155.186802336702
 30
0.0
 10
140.490192059498
 20
155.4915472026062
 30
0.0
 10
140.4063716860196
 20
155.7037021725148
 30
0.0
 10
140.4063716860196
 20
155.9146652307473
 30
0.0
  0
LINE
  5
B7
330
1F
100
AcDbEntity
  8
0
  6
Continuous
 62
     7
370
    15
100
AcDbLine
 10
143.4263717748
 20
155.0953909558
 30
0.0
 11
141.2063725658
 21
155.0953909558
 31
0.0
  0
ARC
  5
B8
330
1F
100
AcDbEntity
  8
0
  6
Continuous
 62
     7
370
    15
100
AcDbCircle
 10
131.317337743
 20
142.8735927284
 30
0.0
 40
11.36528243270388
100
AcDbArc
 50
77.9618946574
 51
102.3771119747
  0
LINE
  5
B9
330
1F
100
AcDbEntity
  8
0
  6
Continuous
 62
     7
370
    15
100
AcDbLine
 10
74.0663707621
 20
77.9711156886
 30
0.0
 11
74.0663707621
 21
77.9728293222
 31
0.0
  0
LINE
  5
BA
330
1F
100
AcDbEntity
  8
0
  6
Continuous
 62
     7
370
    15
100
AcDbLine
 10
74.0663707621
 20
142.4711122912
 30
0.0
 11
74.0663707621
 21
142.4693986576
 31
0.0
  0
LINE
  5
BB
330
1F
100
AcDbEntity
  8
0
  6
Continuous
 62
     7
370
    15
100
AcDbLine
 10
179.1977584727
 20
95.2211143252
 30
0.0
 11
179.1977584727
 21
125.2211136546
 31
0.0
  0
LINE
  5
BC
330
1F
100
AcDbEntity
  8
0
  6
Continuous
 62
     7
370
    15
100
AcDbLine
 10
161.9399488337
 20
125.0562090229
 30
0.0
 11
162.1557809778
 21
125.0371131849
 31
0.0
  0
SPLINE
  5
BD
330
1F
100
AcDbEntity
  8
0
  6
Continuous
 62
     7
370
    15
100
AcDbSpline
210
0.0
220
0.0
230
1.0
 70
     8
 71
     3
 72
    17
 73
    13
 74
     0
 42
0.00000001
 43
0.00000001
 40
0.0
 40
0.0
 40
0.0
 40
0.0
 40
0.0484987884566146
 40
0.1301735138891563
 40
0.2172840230264825
 40
0.3173415155418553
 40
0.43281172741516
 40
0.5594428607170655
 40
0.6897701294888722
 40
0.8168947078931353
 40
0.9095358937858102
 40
1.0
 40
1.0
 40
1.0
 40
1.0
 10
167.7265130348584
 20
125.2145254787304
 30
0.0
 10
167.7325672286048
 20
125.2155109290381
 30
0.0
 10
167.7488170298642
 20
125.2181559338598
 30
0.0
 10
167.447781561244
 20
125.1689673481364
 30
0.0
 10
166.8905259161538
 20
125.0887364285445
 30
0.0
 10
166.0399945772178
 20
124.992533334773
 30
0.0
 10
164.9258221834419
 20
124.9200405210464
 30
0.0
 10
163.6424414425855
 20
124.9169040122165
 30
0.0
 10
162.3819432234003
 20
124.9995130579239
 30
0.0
 10
161.4413222426927
 20
125.1147691103444
 30
0.0
 10
160.8680530764852
 20
125.2038610263734
 30
0.0
 10
160.8032015719134
 20
125.2148874218578
 30
0.0
 10
160.7711613543412
 20
125.2203350689509
 30
0.0
  0
LINE
  5
BE
330
1F
100
AcDbEntity
  8
0
  6
Continuous
 62
     7
370
    15
100
AcDbLine
 10
161.4948287971
 20
125.1132953715
 30
0.0
 11
161.9399488337
 21
125.0562090229
 31
0.0
  0
SPLINE
  5
BF
330
1F
100
AcDbEntity
  8
0
  6
Continuous
 62
     7
370
    15
100
AcDbSpline
210
0.0
220
0.0
230
1.0
 70
     8
 71
     3
 72
    60
 73
    56
 74
     0
 42
0.00000001
 43
0.00000001
 40
-0.0312500000000002
 40
-0.0312500000000002
 40
0.0
 40
0.0
 40
0.0625000000000008
 40
0.0625000000000008
 40
0.0937500000000011
 40
0.0937500000000011
 40
0.1250000000000015
 40
0.1250000000000015
 40
0.1875000000000012
 40
0.1875000000000012
 40
0.250000000000001
 40
0.250000000000001
 40
0.2812500000000009
 40
0.2812500000000009
 40
0.3125000000000008
 40
0.3125000000000008
 40
0.3437500000000007
 40
0.3437500000000007
 40
0.3750000000000005
 40
0.3750000000000005
 40
0.4062500000000004
 40
0.4062500000000004
 40
0.4375000000000003
 40
0.4375000000000003
 40
0.4687500000000002
 40
0.4687500000000002
 40
0.5
 40
0.5
 40
0.5624999999999991
 40
0.5624999999999991
 40
0.5937499999999986
 40
0.5937499999999986
 40
0.6249999999999981
 40
0.6249999999999981
 40
0.6562499999999976
 40
0.6562499999999976
 40
0.6874999999999971
 40
0.6874999999999971
 40
0.749999999999997
 40
0.749999999999997
 40
0.7812499999999974
 40
0.7812499999999974
 40
0.8124999999999978
 40
0.8124999999999978
 40
0.8437499999999982
 40
0.8437499999999982
 40
0.8749999999999986
 40
0.8749999999999986
 40
0.906249999999999
 40
0.906249999999999
 40
0.9374999999999993
 40
0.9374999999999993
 40
0.9687499999999998
 40
0.9687499999999998
 40
1.0
 40
1.0
 40
1.062500000000001
 40
1.062500000000001
 10
161.7702385406445
 20
112.3097877775554
 30
0.0
 10
162.2793676646816
 20
112.6980645710489
 30
0.0
 10
162.6565858202112
 20
112.8889125135185
 30
0.0
 10
163.2666708899222
 20
113.0821977335298
 30
0.0
 10
163.472972189489
 20
113.1293101270865
 30
0.0
 10
163.8911681080878
 20
113.1907686774086
 30
0.0
 10
164.1042759318053
 20
113.2050752684646
 30
0.0
 10
164.7441917252774
 20
113.1969409359856
 30
0.0
 10
165.1613152256205
 20
113.1256009686058
 30
0.0
 10
165.9679424852129
 20
112.8469021191631
 30
0.0
 10
166.337511489731
 20
112.6474344744956
 30
0.0
 10
166.8350619378782
 20
112.245083498556
 30
0.0
 10
166.9863212121375
 20
112.0970768603541
 30
0.0
 10
167.2562101232022
 20
111.772959857751
 30
0.0
 10
167.3764042800346
 20
111.5938852781377
 30
0.0
 10
167.5704071452997
 20
111.2176789683083
 30
0.0
 10
167.6449613044947
 20
111.0209220698145
 30
0.0
 10
167.7450848838057
 20
110.6084361766529
 30
0.0
 10
167.7694276845059
 20
110.392945836664
 30
0.0
 10
167.7626823038675
 20
109.9698159663195
 30
0.0
 10
167.7316644963124
 20
109.7558040441334
 30
0.0
 10
167.6184296647596
 20
109.3451540078382
 30
0.0
 10
167.5373817309885
 20
109.1491547475594
 30
0.0
 10
167.3295871953225
 20
108.7745123558497
 30
0.0
 10
167.2061901626662
 20
108.6019380995299
 30
0.0
 10
166.9259713061263
 20
108.2835770162743
 30
0.0
 10
166.7681100962327
 20
108.1374553466683
 30
0.0
 10
166.264444266058
 20
107.7511718063193
 30
0.0
 10
165.8785993058327
 20
107.5548072826363
 30
0.0
 10
165.2737820036643
 20
107.3621215316179
 30
0.0
 10
165.0652959114863
 20
107.3139187779692
 30
0.0
 10
164.6429228902052
 20
107.2514713965137
 30
0.0
 10
164.4315470204282
 20
107.2373699231216
 30
0.0
 10
164.0084288659413
 20
107.2422414834979
 30
0.0
 10
163.7954845033661
 20
107.2614303944029
 30
0.0
 10
163.3745826643471
 20
107.3339114930068
 30
0.0
 10
163.1697209876561
 20
107.3864579707845
 30
0.0
 10
162.5716867592654
 20
107.5926713581243
 30
0.0
 10
162.1898882751098
 20
107.7990774747201
 30
0.0
 10
161.7000807188716
 20
108.1952228881927
 30
0.0
 10
161.5489313404214
 20
108.3422060441777
 30
0.0
 10
161.2748258892302
 20
108.6712504680042
 30
0.0
 10
161.1569354892511
 20
108.8473217064566
 30
0.0
 10
160.9624841559388
 20
109.2241271423118
 30
0.0
 10
160.8858195212121
 20
109.4273546443231
 30
0.0
 10
160.7868522783299
 20
109.8392071995931
 30
0.0
 10
160.7629262665889
 20
110.0504273671133
 30
0.0
 10
160.7706118387687
 20
110.4808143994091
 30
0.0
 10
160.8019211766897
 20
110.6909003188614
 30
0.0
 10
160.9159434725716
 20
111.1015313559331
 30
0.0
 10
160.9992623499744
 20
111.301179100661
 30
0.0
 10
161.2060767625007
 20
111.6718721078116
 30
0.0
 10
161.3318132603045
 20
111.8471911045865
 30
0.0
 10
161.6136492801318
 20
112.1654982785083
 30
0.0
 10
161.7702385406445
 20
112.3097877775554
 30
0.0
 10
162.2793676646816
 20
112.6980645710489
 30
0.0
  0
LINE
  5
C0
330
1F
100
AcDbEntity
  8
0
  6
Continuous
 62
     7
370
    15
100
AcDbLine
 10
161.9399488337
 20
95.3860189568
 30
0.0
 11
161.7080271609
 21
95.3556513217
 31
0.0
  0
SPLINE
  5
C1
330
1F
100
AcDbEntity
  8
0
  6
Continuous
 62
     7
370
    15
100
AcDbSpline
210
0.0
220
0.0
230
1.0
 70
     8
 71
     3
 72
    18
 73
    14
 74
     0
 42
0.00000001
 43
0.00000001
 40
0.0
 40
0.0
 40
0.0
 40
0.0
 40
0.0288138001637166
 40
0.1106951284365312
 40
0.1956266647385194
 40
0.292101255690297
 40
0.4039724289682523
 40
0.5285624061087617
 40
0.658559136701434
 40
0.7871684138153253
 40
0.8841274116686059
 40
0.9815871052435429
 40
1.0
 40
1.0
 40
1.0
 40
1.0
 10
160.802125967302
 20
95.22701332236309
 30
0.0
 10
160.7920124989318
 20
95.22534730781207
 30
0.0
 10
160.753159183027
 20
95.21894691308266
 30
0.0
 10
160.9912921785244
 20
95.25841994090462
 30
0.0
 10
161.4806533967113
 20
95.33155157290516
 30
0.0
 10
162.264970662824
 20
95.42727042094764
 30
0.0
 10
163.3191968900763
 20
95.50954487098657
 30
0.0
 10
164.5786613516209
 20
95.53256906221235
 30
0.0
 10
165.8606068300534
 20
95.4693377940093
 30
0.0
 10
166.8958695297169
 20
95.35417307027453
 30
0.0
 10
167.5315157672898
 20
95.26043749676916
 30
0.0
 10
167.7978413045763
 20
95.21593631507741
 30
0.0
 10
167.7486884559946
 20
95.22402464591627
 30
0.0
 10
167.7408777542492
 20
95.22530993337412
 30
0.0
  0
SPLINE
  5
C2
330
1F
100
AcDbEntity
  8
0
  6
Continuous
 62
     7
370
    15
100
AcDbSpline
210
0.0
220
0.0
230
1.0
 70
     8
 71
     3
 72
     9
 73
     5
 74
     0
 42
0.00000001
 43
0.00000001
 40
0.0
 40
0.0
 40
0.0
 40
0.0
 40
0.1193858505027618
 40
1.0
 40
1.0
 40
1.0
 40
1.0
 10
162.1878445513627
 20
95.41191158706923
 30
0.0
 10
162.1767959555356
 20
95.41110631515859
 30
0.0
 10
162.0842506850487
 20
95.40436119496847
 30
0.0
 10
162.0075194473594
 20
95.3946078715004
 30
0.0
 10
161.9399488337418
 20
95.38601895684977
 30
0.0
  0
CIRCLE
  5
C3
330
1F
100
AcDbEntity
  8
0
  6
Continuous
 62
     7
370
    15
100
AcDbCircle
 10
164.266371686
 20
110.2211139899
 30
0.0
 40
2.5
  0
SPLINE
  5
C4
330
1F
100
AcDbEntity
  8
0
  6
Continuous
 62
     7
370
    15
100
AcDbSpline
210
0.0
220
0.0
230
1.0
 70
     8
 71
     3
 72
     9
 73
     5
 74
     0
 42
0.00000001
 43
0.00000001
 40
0.0
 40
0.0
 40
0.0
 40
0.0
 40
0.462997408394342
 40
1.0
 40
1.0
 40
1.0
 40
1.0
 10
217.3145674534222
 20
120.454951169739
 30
0.0
 10
217.314578997786
 20
120.4577769666696
 30
0.0
 10
217.3146039317565
 20
120.4638802339438
 30
0.0
 10
217.3157532871186
 20
120.3956723257797
 30
0.0
 10
217.3163704939267
 20
120.3590445023276
 30
0.0
  0
LINE
  5
C5
330
1F
100
AcDbEntity
  8
0
  6
Continuous
 62
     7
370
    15
100
AcDbLine
 10
217.3163704939
 20
100.0831834775
 30
0.0
 11
217.3163704939
 21
120.3590445023
 31
0.0
  0
LWPOLYLINE
  5
C6
330
1F
100
AcDbEntity
  8
0
  6
HIDDEN
 62
     7
370
     0
100
AcDbPolyline
 90
        4
 70
   128
 43
0.0
 10
217.2979377575
 20
102.4408307661
 10
217.3015810914
 20
102.3480733659
 10
217.3119597502
 20
102.0839223441
 10
217.3163704939
 20
101.9716923859
  0
LWPOLYLINE
  5
C7
330
1F
100
AcDbEntity
  8
0
  6
HIDDEN
 62
     7
370
     0
100
AcDbPolyline
 90
        5
 70
   128
 43
0.0
 10
217.1839960285
 20
101.2159129408
 10
217.2065340348
 20
100.6423299935
 10
217.2256373234
 20
100.1560706448
 10
217.238400168
 20
99.8311620008
 10
217.2428854175
 20
99.7170693975
  0
LWPOLYLINE
  5
C8
330
1F
100
AcDbEntity
  8
0
  6
HIDDEN
 62
     7
370
     0
100
AcDbPolyline
 90
        5
 70
   128
 43
0.0
 10
217.1251066394
 20
102.714756484
 10
217.1295844384
 20
102.6006638807
 10
217.1423547335
 20
102.2757552367
 10
217.1614580222
 20
101.789495888
 10
217.1839960285
 20
101.2159129408
  0
LWPOLYLINE
  5
C9
330
1F
100
AcDbEntity
  8
0
  6
HIDDEN
 62
     7
370
     0
100
AcDbPolyline
 90
        5
 70
   128
 43
0.0
 10
211.8500583239
 20
101.0063420784
 10
211.8725963302
 20
100.4327591311
 10
211.8916996189
 20
99.9464997825
 10
211.9044624634
 20
99.6215911385
 10
211.9089477129
 20
99.5074985352
  0
LWPOLYLINE
  5
CA
330
1F
100
AcDbEntity
  8
0
  6
HIDDEN
 62
     7
370
     0
100
AcDbPolyline
 90
        5
 70
   128
 43
0.0
 10
211.7911689349
 20
102.5051856216
 10
211.7956467338
 20
102.3910930183
 10
211.8084170289
 20
102.0661843743
 10
211.8275203176
 20
101.5799240943
 10
211.8500583239
 20
101.0063420784
  0
LWPOLYLINE
  5
CB
330
1F
100
AcDbEntity
  8
0
  6
HIDDEN
 62
     7
370
     0
100
AcDbPolyline
 90
        5
 70
   128
 43
0.0
 10
211.3504447408
 20
100.9867116612
 10
211.3654651113
 20
100.6043236505
 10
211.3782056041
 20
100.2801507514
 10
211.3867141672
 20
100.0635446783
 10
211.38970185
 20
99.9874826323
  0
LWPOLYLINE
  5
CC
330
1F
100
AcDbEntity
  8
0
  6
HIDDEN
 62
     7
370
     0
100
AcDbPolyline
 90
        5
 70
   128
 43
0.0
 10
211.3111801811
 20
101.98594069
 10
211.3141678639
 20
101.9098795753
 10
211.3226838775
 20
101.6932735022
 10
211.3354169197
 20
101.3691006031
 10
211.3504447408
 20
100.9867116612
  0
LINE
  5
CD
330
1F
100
AcDbEntity
  8
0
  6
HIDDEN
 62
     7
370
     0
100
AcDbLine
 10
215.3179161616
 20
101.8931725797
 30
0.0
 11
215.3473608561
 21
101.1437512737
 31
0.0
  0
LINE
  5
CE
330
1F
100
AcDbEntity
  8
0
  6
HIDDEN
 62
     7
370
     0
100
AcDbLine
 10
215.3473608561
 20
101.1437512737
 30
0.0
 11
217.3458151884
 21
101.22227108
 31
0.0
  0
LINE
  5
CF
330
1F
100
AcDbEntity
  8
0
  6
HIDDEN
 62
     7
370
     0
100
AcDbLine
 10
215.3768055506
 20
100.3943290364
 30
0.0
 11
215.3473608561
 21
101.1437512737
 31
0.0
  0
LINE
  5
D0
330
1F
100
AcDbEntity
  8
0
  6
HIDDEN
 62
     7
370
     0
100
AcDbLine
 10
215.3179161616
 20
101.8931725797
 30
0.0
 11
217.3163704939
 21
101.9716923859
 31
0.0
  0
LINE
  5
D1
330
1F
100
AcDbEntity
  8
0
  6
HIDDEN
 62
     7
370
     0
100
AcDbLine
 10
215.3768055506
 20
100.3943290364
 30
0.0
 11
217.375259883
 21
100.4728488427
 31
0.0
  0
LWPOLYLINE
  5
D2
330
1F
100
AcDbEntity
  8
0
  6
HIDDEN
 62
     7
370
     0
100
AcDbPolyline
 90
        9
 70
   128
 43
0.0
 10
217.1839960285
 20
120.7274719876
 10
217.1795107789
 20
120.6133793842
 10
217.1667479344
 20
120.2884716716
 10
217.1476446457
 20
119.8022113916
 10
217.1251066394
 20
119.2286284443
 10
217.1025686331
 20
118.6550464284
 10
217.0834653445
 20
118.1687861484
 10
217.0706950493
 20
117.8438779701
 10
217.0662172504
 20
117.7297853668
  0
LWPOLYLINE
  5
D3
330
1F
100
AcDbEntity
  8
0
  6
HIDDEN
 62
     7
370
     0
100
AcDbPolyline
 90
        9
 70
   128
 43
0.0
 10
211.8500583239
 20
120.9370437812
 10
211.8455730744
 20
120.8229511779
 10
211.8328102298
 20
120.4980425339
 10
211.8137069412
 20
120.0117822539
 10
211.7911689349
 20
119.438200238
 10
211.7686309286
 20
118.8646172907
 10
211.7495276399
 20
118.3783570107
 10
211.7367573448
 20
118.0534492981
 10
211.7322795458
 20
117.9393562291
  0
LWPOLYLINE
  5
D4
330
1F
100
AcDbEntity
  8
0
  6
HIDDEN
 62
     7
370
     0
100
AcDbPolyline
 90
       10
 70
   128
 43
0.0
 10
211.3308124609
 20
120.4570587527
 10
211.3278247781
 20
120.3809967067
 10
211.3193162151
 20
120.164391565
 10
211.3065757223
 20
119.8402177345
 10
211.2915553518
 20
119.4578297239
 10
211.2765275307
 20
119.0754417133
 10
211.2637944885
 20
118.7512678828
 10
211.2552784748
 20
118.5346627411
 10
211.252290792
 20
118.4586006951
 10
211.252290792
 20
118.4586006951
  0
LWPOLYLINE
  5
D5
330
1F
100
AcDbEntity
  8
0
  6
HIDDEN
 62
     7
370
     0
100
AcDbPolyline
 90
        7
 70
   128
 43
0.0
 10
217.3163704939
 20
119.9716925424
 10
217.3052467771
 20
119.6885937628
 10
217.2869257994
 20
119.2222712364
 10
217.2686048217
 20
118.7559477788
 10
217.2530703612
 20
118.360619041
 10
217.2426917024
 20
118.0964680191
 10
217.2390483685
 20
118.0037110847
  0
LINE
  5
D6
330
1F
100
AcDbEntity
  8
0
  6
HIDDEN
 62
     7
370
     0
100
AcDbLine
 10
215.3179161616
 20
120.0502123486
 30
0.0
 11
215.2884714671
 21
119.3007901114
 31
0.0
  0
LINE
  5
D7
330
1F
100
AcDbEntity
  8
0
  6
HIDDEN
 62
     7
370
     0
100
AcDbLine
 10
215.2590267725
 20
118.5513688054
 30
0.0
 11
215.2884714671
 21
119.3007901114
 31
0.0
  0
LINE
  5
D8
330
1F
100
AcDbEntity
  8
0
  6
HIDDEN
 62
     7
370
     0
100
AcDbLine
 10
215.2884714671
 20
119.3007901114
 30
0.0
 11
217.2869257994
 21
119.2222712364
 31
0.0
  0
LINE
  5
D9
330
1F
100
AcDbEntity
  8
0
  6
HIDDEN
 62
     7
370
     0
100
AcDbLine
 10
215.3179161616
 20
120.0502123486
 30
0.0
 11
217.3163704939
 21
119.9716925424
 31
0.0
  0
LINE
  5
DA
330
1F
100
AcDbEntity
  8
0
  6
HIDDEN
 62
     7
370
     0
100
AcDbLine
 10
215.2590267725
 20
118.5513688054
 30
0.0
 11
217.2574811049
 21
118.4728489992
 31
0.0
  0
LINE
  5
DB
330
1F
100
AcDbEntity
  8
0
  6
HIDDEN
 62
     7
370
     0
100
AcDbLine
 10
176.8163703747
 20
105.2211141017
 30
0.0
 11
176.8163703747
 21
115.2211138781
 31
0.0
  0
LINE
  5
DC
330
1F
100
AcDbEntity
  8
0
  6
HIDDEN
 62
     7
370
     0
100
AcDbLine
 10
161.3163724907
 20
105.2211141017
 30
0.0
 11
161.3163724907
 21
115.2211138781
 31
0.0
  0
LINE
  5
DD
330
1F
100
AcDbEntity
  8
0
  6
HIDDEN
 62
     7
370
     0
100
AcDbLine
 10
177.316371388
 20
105.7211141836
 30
0.0
 11
177.316371388
 21
114.7211137962
 31
0.0
  0
LINE
  5
DE
330
1F
100
AcDbEntity
  8
0
  6
HIDDEN
 62
     7
370
     0
100
AcDbLine
 10
160.8163714774
 20
105.7211141836
 30
0.0
 11
160.8163714774
 21
109.9620272383
 31
0.0
  0
LINE
  5
DF
330
1F
100
AcDbEntity
  8
0
  6
HIDDEN
 62
     7
370
     0
100
AcDbLine
 10
160.8163714774
 20
110.5276967085
 30
0.0
 11
160.8163714774
 21
114.7211137962
 31
0.0
  0
LINE
  5
E0
330
1F
100
AcDbEntity
  8
0
  6
HIDDEN
 62
     7
370
     0
100
AcDbLine
 10
180.8163710304
 20
109.2211139424
 30
0.0
 11
178.8163707025
 21
109.2211139424
 31
0.0
  0
LINE
  5
E1
330
1F
100
AcDbEntity
  8
0
  6
HIDDEN
 62
     7
370
     0
100
AcDbLine
 10
180.8163710304
 20
105.7211141836
 30
0.0
 11
180.8163710304
 21
109.2211139424
 31
0.0
  0
LINE
  5
E2
330
1F
100
AcDbEntity
  8
0
  6
HIDDEN
 62
     7
370
     0
100
AcDbLine
 10
180.8163710304
 20
111.2211140374
 30
0.0
 11
180.8163710304
 21
114.7211137962
 31
0.0
  0
LINE
  5
E3
330
1F
100
AcDbEntity
  8
0
  6
HIDDEN
 62
     7
370
     0
100
AcDbLine
 10
178.8163707025
 20
111.2211140374
 30
0.0
 11
180.8163710304
 21
111.2211140374
 31
0.0
  0
LINE
  5
E4
330
1F
100
AcDbEntity
  8
0
  6
HIDDEN
 62
     7
370
     0
100
AcDbLine
 10
178.8163707025
 20
109.2211139424
 30
0.0
 11
178.8163707025
 21
111.2211140374
 31
0.0
  0
LINE
  5
E5
330
1F
100
AcDbEntity
  8
0
  6
HIDDEN
 62
     7
370
     0
100
AcDbLine
 10
174.8163700469
 20
110.2211139899
 30
0.0
 11
174.8163700469
 21
108.9711140178
 31
0.0
  0
LINE
  5
E6
330
1F
100
AcDbEntity
  8
0
  6
HIDDEN
 62
     7
370
     0
100
AcDbLine
 10
174.8163700469
 20
111.471113962
 30
0.0
 11
174.8163700469
 21
110.2211139899
 31
0.0
  0
LINE
  5
E7
330
1F
100
AcDbEntity
  8
0
  6
HIDDEN
 62
     7
370
     0
100
AcDbLine
 10
174.8163700469
 20
110.2211139899
 30
0.0
 11
178.8163707025
 21
110.2211139899
 31
0.0
  0
LINE
  5
E8
330
1F
100
AcDbEntity
  8
0
  6
HIDDEN
 62
     7
370
     0
100
AcDbLine
 10
166.8163724609
 20
110.2211139899
 30
0.0
 11
160.8163714774
 21
110.2211139899
 31
0.0
  0
LINE
  5
E9
330
1F
100
AcDbEntity
  8
0
  6
HIDDEN
 62
     7
370
     0
100
AcDbLine
 10
166.8163724609
 20
108.9711140178
 30
0.0
 11
166.8163724609
 21
110.2211139899
 31
0.0
  0
LINE
  5
EA
330
1F
100
AcDbEntity
  8
0
  6
HIDDEN
 62
     7
370
     0
100
AcDbLine
 10
166.8163724609
 20
110.2211139899
 30
0.0
 11
166.8163724609
 21
111.471113962
 31
0.0
  0
LINE
  5
EB
330
1F
100
AcDbEntity
  8
0
  6
HIDDEN
 62
     7
370
     0
100
AcDbLine
 10
174.8163700469
 20
112.721113934
 30
0.0
 11
174.8163700469
 21
111.471113962
 31
0.0
  0
LINE
  5
EC
330
1F
100
AcDbEntity
  8
0
  6
HIDDEN
 62
     7
370
     0
100
AcDbLine
 10
166.8163724609
 20
107.7211140458
 30
0.0
 11
166.8163724609
 21
108.9711140178
 31
0.0
  0
LINE
  5
ED
330
1F
100
AcDbEntity
  8
0
  6
HIDDEN
 62
     7
370
     0
100
AcDbLine
 10
174.8163700469
 20
108.9711140178
 30
0.0
 11
174.8163700469
 21
107.7211140458
 31
0.0
  0
LINE
  5
EE
330
1F
100
AcDbEntity
  8
0
  6
HIDDEN
 62
     7
370
     0
100
AcDbLine
 10
166.8163724609
 20
111.471113962
 30
0.0
 11
166.8163724609
 21
112.721113934
 31
0.0
  0
LINE
  5
EF
330
1F
100
AcDbEntity
  8
0
  6
HIDDEN
 62
     7
370
     0
100
AcDbLine
 10
166.8163724609
 20
107.7211140458
 30
0.0
 11
160.8163714774
 21
107.7211140458
 31
0.0
  0
LINE
  5
F0
330
1F
100
AcDbEntity
  8
0
  6
HIDDEN
 62
     7
370
     0
100
AcDbLine
 10
166.8163724609
 20
112.721113934
 30
0.0
 11
160.8163714774
 21
112.721113934
 31
0.0
  0
LINE
  5
F1
330
1F
100
AcDbEntity
  8
0
  6
HIDDEN
 62
     7
370
     0
100
AcDbLine
 10
174.8163700469
 20
112.721113934
 30
0.0
 11
180.8163710304
 21
112.721113934
 31
0.0
  0
LINE
  5
F2
330
1F
100
AcDbEntity
  8
0
  6
HIDDEN
 62
     7
370
     0
100
AcDbLine
 10
174.8163700469
 20
107.7211140458
 30
0.0
 11
180.8163710304
 21
107.7211140458
 31
0.0
  0
SPLINE
  5
F3
330
1F
100
AcDbEntity
  8
0
  6
HIDDEN
 62
     7
370
     0
100
AcDbSpline
210
0.0
220
0.0
230
1.0
 70
     8
 71
     3
 72
    80
 73
    76
 74
     0
 42
0.00000001
 43
0.00000001
 40
-0.03125
 40
-0.03125
 40
0.0
 40
0.0
 40
0.0312500000000002
 40
0.0312500000000002
 40
0.0468750000000002
 40
0.0468750000000002
 40
0.0625000000000001
 40
0.0625000000000001
 40
0.0937499999999999
 40
0.0937499999999999
 40
0.1249999999999997
 40
0.1249999999999997
 40
0.1562499999999995
 40
0.1562499999999995
 40
0.1874999999999993
 40
0.1874999999999993
 40
0.2187499999999991
 40
0.2187499999999991
 40
0.2499999999999989
 40
0.2499999999999989
 40
0.2812499999999987
 40
0.2812499999999987
 40
0.3124999999999984
 40
0.3124999999999984
 40
0.3281249999999985
 40
0.3281249999999985
 40
0.3437499999999986
 40
0.3437499999999986
 40
0.3749999999999986
 40
0.3749999999999986
 40
0.4062499999999987
 40
0.4062499999999987
 40
0.4218749999999989
 40
0.4218749999999989
 40
0.4374999999999991
 40
0.4374999999999991
 40
0.4687499999999993
 40
0.4687499999999993
 40
0.4999999999999994
 40
0.4999999999999994
 40
0.5312499999999997
 40
0.5312499999999997
 40
0.5624999999999998
 40
0.5624999999999998
 40
0.59375
 40
0.59375
 40
0.6250000000000001
 40
0.6250000000000001
 40
0.6562500000000003
 40
0.6562500000000003
 40
0.6875000000000006
 40
0.6875000000000006
 40
0.7031250000000007
 40
0.7031250000000007
 40
0.7187500000000007
 40
0.7187500000000007
 40
0.7500000000000003
 40
0.7500000000000003
 40
0.78125
 40
0.78125
 40
0.7968749999999998
 40
0.7968749999999998
 40
0.8124999999999997
 40
0.8124999999999997
 40
0.8437499999999998
 40
0.8437499999999998
 40
0.8749999999999998
 40
0.8749999999999998
 40
0.9062499999999999
 40
0.9062499999999999
 40
0.9375
 40
0.9375
 40
0.96875
 40
0.96875
 40
1.0
 40
1.0
 40
1.03125
 40
1.03125
 10
130.9858263732433
 20
159.0806632463773
 30
0.0
 10
131.6469169987959
 20
159.0806632463774
 30
0.0
 10
131.9718971280475
 20
159.0737651005505
 30
0.0
 10
132.4513705392939
 20
159.05323867257
 30
0.0
 10
132.6098523571347
 20
159.0446824454824
 30
0.0
 10
132.924071889639
 20
159.0239560702648
 30
0.0
 10
133.0801921733194
 20
159.0117287700585
 30
0.0
 10
133.534246202276
 20
158.9701594762292
 30
0.0
 10
133.8213495852158
 20
158.9358151911314
 30
0.0
 10
134.3647041412428
 20
158.8524910668092
 30
0.0
 10
134.6218077524484
 20
158.8030528440347
 30
0.0
 10
135.0827140073872
 20
158.6916731142747
 30
0.0
 10
135.2896117166022
 20
158.6293786007626
 30
0.0
 10
135.6551370305944
 20
158.4894489578916
 30
0.0
 10
135.8103425527203
 20
158.4128330601426
 30
0.0
 10
136.05977293932
 20
158.2488744402868
 30
0.0
 10
136.1558628951052
 20
158.1603175861911
 30
0.0
 10
136.2843817442988
 20
157.9728369040853
 30
0.0
 10
136.3161926144766
 20
157.8756004426309
 30
0.0
 10
136.3165492642498
 20
157.6739678033038
 30
0.0
 10
136.2840520120528
 20
157.5684190114657
 30
0.0
 10
136.1564265383383
 20
157.3583042287772
 30
0.0
 10
136.0619981372864
 20
157.2532387208082
 30
0.0
 10
135.8741373173008
 20
157.0963610135571
 30
0.0
 10
135.8033093184977
 20
157.0439272798514
 30
0.0
 10
135.6485874265323
 20
156.9414888342217
 30
0.0
 10
135.564610956349
 20
156.8913411055698
 30
0.0
 10
135.2932872867045
 20
156.7443251491363
 30
0.0
 10
135.0867380681022
 20
156.6508373287019
 30
0.0
 10
134.6201279279132
 20
156.4750504710876
 30
0.0
 10
134.3677623582877
 20
156.3956719960038
 30
0.0
 10
133.961861016609
 20
156.2901895585098
 30
0.0
 10
133.8219603991315
 20
156.2573039936696
 30
0.0
 10
133.5327364638846
 20
156.196388514441
 30
0.0
 10
133.3828970075953
 20
156.1683079427986
 30
0.0
 10
132.9287804379845
 20
156.0935059007558
 30
0.0
 10
132.6171292192477
 20
156.0554678425096
 30
0.0
 10
131.9761327543353
 20
156.0038559159855
 30
0.0
 10
131.6446051263831
 20
155.990541982464
 30
0.0
 10
130.9918140813117
 20
155.990444896136
 30
0.0
 10
130.6672778762799
 20
156.003232981297
 30
0.0
 10
130.0220084268634
 20
156.0547231708929
 30
0.0
 10
129.7062654207007
 20
156.093247750213
 30
0.0
 10
129.104376125717
 20
156.192150313071
 30
0.0
 10
128.8136268949056
 20
156.2532544109961
 30
0.0
 10
128.2667151032211
 20
156.3950638441068
 30
0.0
 10
128.0149377393841
 20
156.474398328686
 30
0.0
 10
127.553549746763
 20
156.6477770733474
 30
0.0
 10
127.3422804671649
 20
156.7429370181015
 30
0.0
 10
126.9789761147887
 20
156.9395095414773
 30
0.0
 10
126.8251694663459
 20
157.0412657698838
 30
0.0
 10
126.6365499967485
 20
157.1980517326692
 30
0.0
 10
126.5805195105394
 20
157.2513057664192
 30
0.0
 10
126.4849457488032
 20
157.357110327972
 30
0.0
 10
126.4451828317782
 20
157.4097633923276
 30
0.0
 10
126.3494110814661
 20
157.5668371117867
 30
0.0
 10
126.31668824234
 20
157.6703621471138
 30
0.0
 10
126.3160596560109
 20
157.8745768813409
 30
0.0
 10
126.3482458007457
 20
157.9720807189257
 30
0.0
 10
126.4431565026013
 20
158.1114077692773
 30
0.0
 10
126.4826232860002
 20
158.1567245007818
 30
0.0
 10
126.5775532847211
 20
158.2451643217706
 30
0.0
 10
126.6333101124845
 20
158.2884185722306
 30
0.0
 10
126.8212502304544
 20
158.4123100468206
 30
0.0
 10
126.9746117001705
 20
158.4880123375947
 30
0.0
 10
127.3368759350509
 20
158.6272667090529
 30
0.0
 10
127.5477244085168
 20
158.6910285505815
 30
0.0
 10
128.0083943788357
 20
158.8025253900494
 30
0.0
 10
128.2597687584195
 20
158.851051462366
 30
0.0
 10
128.8056766453177
 20
158.9351054457465
 30
0.0
 10
129.0964992199689
 20
158.9699039994132
 30
0.0
 10
129.6978258347489
 20
159.025100464177
 30
0.0
 10
130.0123444193613
 20
159.0459183129309
 30
0.0
 10
130.6589258754813
 20
159.0737656458416
 30
0.0
 10
130.9858263732433
 20
159.0806632463773
 30
0.0
 10
131.6469169987959
 20
159.0806632463774
 30
0.0
  0
LINE
  5
F4
330
1F
100
AcDbEntity
  8
0
  6
HIDDEN
 62
     7
370
     0
100
AcDbLine
 10
139.0543431409
 20
149.1720750731
 30
0.0
 11
139.0543431409
 21
141.5711156827
 31
0.0
  0
LINE
  5
F5
330
1F
100
AcDbEntity
  8
0
  6
HIDDEN
 62
     7
370
     0
100
AcDbLine
 10
102.7297955372
 20
73.4853073757
 30
0.0
 11
102.459840513
 21
73.4613798362
 31
0.0
  0
SPLINE
  5
F6
330
1F
100
AcDbEntity
  8
0
  6
HIDDEN
 62
     7
370
     0
100
AcDbSpline
210
0.0
220
0.0
230
1.0
 70
     8
 71
     3
 72
    12
 73
     8
 74
     0
 42
0.00000001
 43
0.00000001
 40
0.0
 40
0.0
 40
0.0
 40
0.0
 40
0.1661348483723788
 40
0.3322012848936272
 40
0.5008930844532496
 40
0.7521368938593884
 40
1.0
 40
1.0
 40
1.0
 40
1.0
 10
100.8356940366408
 20
147.1524163883426
 30
0.0
 10
100.8460867782149
 20
147.1510394953091
 30
0.0
 10
100.8668679817873
 20
147.1482862762262
 30
0.0
 10
101.0401670156803
 20
147.1266805215235
 30
0.0
 10
101.3621178311968
 20
147.0888172347891
 30
0.0
 10
101.8832829647248
 20
147.0284311365292
 30
0.0
 10
102.4488420140769
 20
146.9806396087222
 30
0.0
 10
102.7297061301848
 20
146.9569057028987
 30
0.0
  0
SPLINE
  5
F7
330
1F
100
AcDbEntity
  8
0
  6
HIDDEN
 62
     7
370
     0
100
AcDbSpline
210
0.0
220
0.0
230
1.0
 70
     8
 71
     3
 72
    15
 73
    11
 74
     0
 42
0.00000001
 43
0.00000001
 40
0.0
 40
0.0
 40
0.0
 40
0.0
 40
0.1285821426710073
 40
0.2571635607496992
 40
0.3853235406184768
 40
0.5113778076015207
 40
0.636926046588634
 40
0.7643185585868897
 40
0.893060358186539
 40
1.0
 40
1.0
 40
1.0
 40
1.0
 10
112.5695770971557
 20
78.85479180032988
 30
0.0
 10
112.184054970012
 20
78.91659756548988
 30
0.0
 10
111.4130128882376
 20
79.040208747519
 30
0.0
 10
109.6344552248963
 20
79.23095820978557
 30
0.0
 10
107.640643963463
 20
79.31860459070775
 30
0.0
 10
105.6166063383036
 20
79.27170068735195
 30
0.0
 10
103.7884978494496
 20
79.11144955884109
 30
0.0
 10
102.357066894622
 20
78.91027197365975
 30
0.0
 10
101.4531816459879
 20
78.74772624563559
 30
0.0
 10
101.3905990089267
 20
78.73532658202723
 30
0.0
 10
101.3622023530385
 20
78.72970027739782
 30
0.0
  0
SPLINE
  5
F8
330
1F
100
AcDbEntity
  8
0
  6
HIDDEN
 62
     7
370
     0
100
AcDbSpline
210
0.0
220
0.0
230
1.0
 70
     8
 71
     3
 72
    16
 73
    12
 74
     0
 42
0.00000001
 43
0.00000001
 40
0.0
 40
0.0
 40
0.0
 40
0.0
 40
0.0205567972010308
 40
0.1461296555129789
 40
0.2720439735959893
 40
0.3999540038647748
 40
0.5285040859845025
 40
0.6552455845570215
 40
0.7805595113940985
 40
0.907037898122843
 40
1.0
 40
1.0
 40
1.0
 40
1.0
 10
101.3622023530385
 20
141.7125277024009
 30
0.0
 10
101.3475350713899
 20
141.715273398517
 30
0.0
 10
101.2432715135187
 20
141.7347914014271
 30
0.0
 10
101.6940514042828
 20
141.6484252868842
 30
0.0
 10
102.7072897109956
 20
141.4772881836289
 30
0.0
 10
104.3016188687531
 20
141.2737470504941
 30
0.0
 10
106.2281182650417
 20
141.1413563195516
 30
0.0
 10
108.2746101147718
 20
141.1375612325006
 30
0.0
 10
110.1877698067622
 20
141.2603358952001
 30
0.0
 10
111.6724780059199
 20
141.4421531914821
 30
0.0
 10
112.3026259909424
 20
141.5442041054026
 30
0.0
 10
112.5695770971557
 20
141.5874361794689
 30
0.0
  0
SPLINE
  5
F9
330
1F
100
AcDbEntity
  8
0
  6
HIDDEN
 62
     7
370
     0
100
AcDbSpline
210
0.0
220
0.0
230
1.0
 70
     8
 71
     3
 72
     9
 73
     5
 74
     0
 42
0.00000001
 43
0.00000001
 40
0.0
 40
0.0
 40
0.0
 40
0.0
 40
0.6612216730814873
 40
1.0
 40
1.0
 40
1.0
 40
1.0
 10
112.5695770971557
 20
141.5874361794689
 30
0.0
 10
112.8610796975255
 20
141.6312218563292
 30
0.0
 10
113.3019342735882
 20
141.697441217616
 30
0.0
 10
113.2505232036145
 20
141.6896353097962
 30
0.0
 10
113.2331062473437
 20
141.6869908374049
 30
0.0
  0
SPLINE
  5
FA
330
1F
100
AcDbEntity
  8
0
  6
HIDDEN
 62
     7
370
     0
100
AcDbSpline
210
0.0
220
0.0
230
1.0
 70
     8
 71
     3
 72
     9
 73
     5
 74
     0
 42
0.00000001
 43
0.00000001
 40
0.0
 40
0.0
 40
0.0
 40
0.0
 40
0.322473906363742
 40
1.0
 40
1.0
 40
1.0
 40
1.0
 10
113.2331062473437
 20
78.75523714239378
 30
0.0
 10
113.2517477117727
 20
78.75246909985555
 30
0.0
 10
113.3095553794977
 20
78.74388532770028
 30
0.0
 10
112.8684425496293
 20
78.80999844096293
 30
0.0
 10
112.5695770971557
 20
78.85479180032988
 30
0.0
  0
LINE
  5
FB
330
1F
100
AcDbEntity
  8
0
  6
HIDDEN
 62
     7
370
     0
100
AcDbLine
 10
92.3129953809
 20
83.7211143028
 30
0.0
 11
92.3129953809
 21
136.721113677
 31
0.0
  0
LINE
  5
FC
330
1F
100
AcDbEntity
  8
0
  6
HIDDEN
 62
     7
370
     0
100
AcDbLine
 10
131.6004488982
 20
83.7211143028
 30
0.0
 11
131.6004488982
 21
136.721113677
 31
0.0
  0
LINE
  5
FD
330
1F
100
AcDbEntity
  8
0
  6
HIDDEN
 62
     7
370
     0
100
AcDbLine
 10
134.7663719572
 20
85.3461138707
 30
0.0
 11
134.7663719572
 21
135.0961141091
 31
0.0
  0
SPLINE
  5
FE
330
1F
100
AcDbEntity
  8
0
  6
HIDDEN
 62
     7
370
     0
100
AcDbSpline
210
0.0
220
0.0
230
1.0
 70
     8
 71
     3
 72
    20
 73
    16
 74
     0
 42
0.00000001
 43
0.00000001
 40
0.0
 40
0.0
 40
0.0
 40
0.0
 40
0.2499999999999978
 40
0.2499999999999978
 40
0.3749999999999982
 40
0.3749999999999982
 40
0.4999999999999986
 40
0.4999999999999986
 40
0.6249999999999989
 40
0.6249999999999989
 40
0.7499999999999992
 40
0.7499999999999992
 40
0.8749999999999997
 40
0.8749999999999997
 40
1.0
 40
1.0
 40
1.0
 40
1.0
 10
82.51637168601957
 20
135.4496276203137
 30
0.0
 10
82.51637168601958
 20
135.3704246337814
 30
0.0
 10
82.46938919080684
 20
135.2893284153784
 30
0.0
 10
82.33156760002926
 20
135.1691317236275
 30
0.0
 10
82.27528531611927
 20
135.1302050196254
 30
0.0
 10
82.14220046465205
 20
135.0550162872011
 30
0.0
 10
82.064360522419
 20
135.0183740818591
 30
0.0
 10
81.89172816630465
 20
134.9507835490272
 30
0.0
 10
81.79733516921355
 20
134.9198253672516
 30
0.0
 10
81.59189786289842
 20
134.864300945882
 30
0.0
 10
81.47955162291125
 20
134.8395924320487
 30
0.0
 10
81.24731075901163
 20
134.7997962049405
 30
0.0
 10
81.1266001165889
 20
134.7843763675434
 30
0.0
 10
80.87552925731985
 20
134.7632963927038
 30
0.0
 10
80.74600726090408
 20
134.7578191476829
 30
0.0
 10
80.61637168601956
 20
134.7578191476829
 30
0.0
  0
LINE
  5
FF
330
1F
100
AcDbEntity
  8
0
  6
HIDDEN
 62
     7
370
     0
100
AcDbLine
 10
80.61636988
 20
134.7578186345
 30
0.0
 11
74.0663707621
 21
134.7578186345
 31
0.0
  0
LINE
  5
100
330
1F
100
AcDbEntity
  8
0
  6
HIDDEN
 62
     7
370
     0
100
AcDbLine
 10
74.0663707621
 20
85.6844093453
 30
0.0
 11
85.6163725622
 21
85.6844093453
 31
0.0
  0
SPLINE
  5
101
330
1F
100
AcDbEntity
  8
0
  6
HIDDEN
 62
     7
370
     0
100
AcDbSpline
210
0.0
220
0.0
230
1.0
 70
     8
 71
     3
 72
    18
 73
    14
 74
     0
 42
0.00000001
 43
0.00000001
 40
0.0
 40
0.0
 40
0.0
 40
0.0
 40
0.1249999999999982
 40
0.1249999999999982
 40
0.2499999999999964
 40
0.2499999999999964
 40
0.4999999999999988
 40
0.4999999999999988
 40
0.7500000000000011
 40
0.7500000000000011
 40
0.8750000000000006
 40
0.8750000000000006
 40
1.0
 40
1.0
 40
1.0
 40
1.0
 10
85.61637168601958
 20
85.68440883211584
 30
0.0
 10
85.74583899897678
 20
85.68440883211584
 30
0.0
 10
85.87284974787342
 20
85.6790558335232
 30
0.0
 10
86.12221306907067
 20
85.65831786083442
 30
0.0
 10
86.24583672369911
 20
85.64264595658013
 30
0.0
 10
86.59486906063316
 20
85.58295122817803
 30
0.0
 10
86.80538082543994
 20
85.52518604849705
 30
0.0
 10
87.14929750313946
 20
85.39066420721956
 30
0.0
 10
87.28564790465725
 20
85.31299509371415
 30
0.0
 10
87.4226859612198
 20
85.1937039596268
 30
0.0
 10
87.4579049799327
 20
85.15278495049176
 30
0.0
 10
87.50452855687126
 20
85.07212895720173
 30
0.0
 10
87.51637168601958
 20
85.03216043700887
 30
0.0
 10
87.51637168601957
 20
84.99260035948505
 30
0.0
  0
LINE
  5
102
330
1F
100
AcDbEntity
  8
0
  6
HIDDEN
 62
     7
370
     0
100
AcDbLine
 10
74.0663707621
 20
85.6844093453
 30
0.0
 11
74.0663707621
 21
134.7578186345
 31
0.0
  0
LWPOLYLINE
  5
103
330
1F
100
AcDbEntity
  8
0
  6
HIDDEN
 62
     7
370
     0
100
AcDbPolyline
 90
       15
 70
   128
 43
0.0
 10
131.3163712986
 20
150.1648463112
 10
132.3228646435
 20
150.206472705
 10
133.2881506898
 20
150.3296568793
 10
134.1727124892
 20
150.529354791
 10
134.9403355636
 20
150.7973857027
 10
135.5595933639
 20
151.1227823597
 10
136.0051324956
 20
151.4922193986
 10
136.2587130062
 20
151.8905721408
 10
136.3099543743
 20
152.3015312653
 10
136.1567573987
 20
152.7082770866
 10
135.805394537
 20
153.0941501063
 10
135.2702500664
 20
153.4433588188
 10
134.5732342817
 20
153.7416018348
 10
133.742881044
 20
153.976671378
 10
133.6877057694
 20
153.9889424842
  0
LWPOLYLINE
  5
104
330
1F
100
AcDbEntity
  8
0
  6
HIDDEN
 62
     7
370
     0
100
AcDbPolyline
 90
       14
 70
   128
 43
0.0
 10
128.881244491
 20
153.9747230511
 10
128.0595092468
 20
153.7416018348
 10
127.3624929965
 20
153.4433588188
 10
126.8273489915
 20
153.0941501063
 10
126.4759861298
 20
152.7082770866
 10
126.3227891542
 20
152.3015312653
 10
126.3740300566
 20
151.8905721408
 10
126.6276110329
 20
151.4922193986
 10
127.0731506303
 20
151.1227823597
 10
127.6924079649
 20
150.7973857027
 10
128.4600305736
 20
150.529354791
 10
129.3445923731
 20
150.3296568793
 10
130.309878885
 20
150.206472705
 10
131.3163712986
 20
150.1648463112
  0
LINE
  5
105
330
1F
100
AcDbEntity
  8
0
  6
HIDDEN
 62
     7
370
     0
100
AcDbLine
 10
74.0663707621
 20
82.8511137318
 30
0.0
 11
74.0663707621
 21
77.9728293222
 31
0.0
  0
LINE
  5
106
330
1F
100
AcDbEntity
  8
0
  6
HIDDEN
 62
     7
370
     0
100
AcDbLine
 10
87.5163711973
 20
82.8511137318
 30
0.0
 11
87.5163711973
 21
76.3517804247
 31
0.0
  0
LINE
  5
107
330
1F
100
AcDbEntity
  8
0
  6
HIDDEN
 62
     7
370
     0
100
AcDbLine
 10
82.5163722403
 20
137.591114248
 30
0.0
 11
82.5163722403
 21
143.9657211107
 31
0.0
  0
LINE
  5
108
330
1F
100
AcDbEntity
  8
0
  6
HIDDEN
 62
     7
370
     0
100
AcDbLine
 10
74.0663707621
 20
137.591114248
 30
0.0
 11
74.0663707621
 21
142.4693986576
 31
0.0
  0
LINE
  5
109
330
1F
100
AcDbEntity
  8
0
  6
HIDDEN
 62
     7
370
     0
100
AcDbLine
 10
146.616371385
 20
97.2211137217
 30
0.0
 11
146.616371385
 21
123.2211142581
 31
0.0
  0
LINE
  5
10A
330
1F
100
AcDbEntity
  8
0
  6
HIDDEN
 62
     7
370
     0
100
AcDbLine
 10
150.6163720407
 20
97.2211137217
 30
0.0
 11
150.6163720407
 21
123.2211142581
 31
0.0
  0
SPLINE
  5
10B
330
1F
100
AcDbEntity
  8
0
  6
HIDDEN
 62
     7
370
     0
100
AcDbSpline
210
0.0
220
0.0
230
1.0
 70
     8
 71
     3
 72
     9
 73
     5
 74
     0
 42
0.00000001
 43
0.00000001
 40
0.0
 40
0.0
 40
0.0
 40
0.0
 40
0.6763384911403677
 40
1.0
 40
1.0
 40
1.0
 40
1.0
 10
217.3163704939267
 20
100.0831834774711
 30
0.0
 10
217.3154392767721
 20
100.0368490502081
 30
0.0
 10
217.3140624260284
 20
99.96834130169184
 30
0.0
 10
217.3144439642015
 20
99.982645998866
 30
0.0
 10
217.3145674534222
 20
99.98727587873717
 30
0.0
  0
LINE
  5
10C
330
1F
100
AcDbEntity
  8
0
  6
HIDDEN
 62
     7
370
     0
100
AcDbLine
 10
135.5163716145
 20
98.9711135429
 30
0.0
 11
135.5163716145
 21
121.4711144369
 31
0.0
  0
ELLIPSE
  5
10D
330
1F
100
AcDbEntity
  8
0
  6
HIDDEN
 62
     7
370
     0
100
AcDbEllipse
 10
66.1316984857
 20
110.2211139899
 30
0.0
 11
31.08108570811662
 21
-1.421085471520200E-14
 31
0.0
210
0.0
220
0.0
230
1.0
 40
0.8164965809
 41
4.915995335118103
 42
4.970536038964787
  0
ELLIPSE
  5
10E
330
1F
100
AcDbEntity
  8
0
  6
HIDDEN
 62
     7
370
     0
100
AcDbEllipse
 10
66.1316984857
 20
110.2211139899
 30
0.0
 11
31.08108570811662
 21
1.421085471520200E-14
 31
0.0
210
0.0
220
0.0
230
1.0
 40
0.8164965809
 41
1.312649268214811
 42
1.367189972061495
  0
LINE
  5
10F
330
1F
100
AcDbEntity
  8
0
  6
HIDDEN
 62
     7
370
     0
100
AcDbLine
 10
151.2663718678
 20
66.3211121958
 30
0.0
 11
137.2663714357
 21
66.3211121958
 31
0.0
  0
LINE
  5
110
330
1F
100
AcDbEntity
  8
0
  6
HIDDEN
 62
     7
370
     0
100
AcDbLine
 10
127.2663716592
 20
60.2311156493
 30
0.0
 11
127.2663716592
 21
66.3211121958
 31
0.0
  0
LINE
  5
111
330
1F
100
AcDbEntity
  8
0
  6
HIDDEN
 62
     7
370
     0
100
AcDbLine
 10
137.2663714357
 20
66.3211121958
 30
0.0
 11
127.2663716592
 21
66.3211121958
 31
0.0
  0
LINE
  5
112
330
1F
100
AcDbEntity
  8
0
  6
HIDDEN
 62
     7
370
     0
100
AcDbLine
 10
87.5163711973
 20
82.8511137318
 30
0.0
 11
87.5163711973
 21
84.9926005852
 31
0.0
  0
LINE
  5
113
330
1F
100
AcDbEntity
  8
0
  6
HIDDEN
 62
     7
370
     0
100
AcDbLine
 10
74.0663707621
 20
82.8511137318
 30
0.0
 11
74.0663707621
 21
85.6844093453
 31
0.0
  0
LINE
  5
114
330
1F
100
AcDbEntity
  8
0
  6
HIDDEN
 62
     7
370
     0
100
AcDbLine
 10
74.0663707621
 20
137.591114248
 30
0.0
 11
74.0663707621
 21
134.7578186345
 31
0.0
  0
LINE
  5
115
330
1F
100
AcDbEntity
  8
0
  6
HIDDEN
 62
     7
370
     0
100
AcDbLine
 10
82.5163722403
 20
137.591114248
 30
0.0
 11
82.5163722403
 21
135.4496273946
 31
0.0
  0
LINE
  5
116
330
1F
100
AcDbEntity
  8
0
  6
HIDDEN
 62
     7
370
     0
100
AcDbLine
 10
137.2663714357
 20
154.121115784
 30
0.0
 11
127.2663716592
 21
154.121115784
 31
0.0
  0
LINE
  5
117
330
1F
100
AcDbEntity
  8
0
  6
HIDDEN
 62
     7
370
     0
100
AcDbLine
 10
151.2663718678
 20
154.121115784
 30
0.0
 11
137.2663714357
 21
154.121115784
 31
0.0
  0
SPLINE
  5
118
330
1F
100
AcDbEntity
  8
0
  6
HIDDEN
 62
     7
370
     0
100
AcDbSpline
210
0.0
220
0.0
230
1.0
 70
     8
 71
     3
 72
    30
 73
    26
 74
     0
 42
0.00000001
 43
0.00000001
 40
0.0
 40
0.0
 40
0.0
 40
0.0
 40
0.0531207820114274
 40
0.112502909478917
 40
0.1779016483622265
 40
0.2129264601929613
 40
0.2494804007029183
 40
0.2912471427551955
 40
0.3260902463836673
 40
0.3540060088595826
 40
0.3749917129430242
 40
0.4414508235595052
 40
0.5001697224888366
 40
0.5546856379747227
 40
0.614431053316233
 40
0.679457878747039
 40
0.7140156071724875
 40
0.7499133235517902
 40
0.7913787678294217
 40
0.8260464202364615
 40
0.85391265050764
 40
0.8749744577334105
 40
0.9411623771284334
 40
0.9999141558392971
 40
1.0
 40
1.0
 40
1.0
 40
1.0
 10
113.3158719532272
 20
73.12119750196715
 30
0.0
 10
113.299680270819
 20
73.12609600994996
 30
0.0
 10
113.2653883927383
 20
73.13647041294827
 30
0.0
 10
112.9640986306156
 20
73.21212020744467
 30
0.0
 10
112.5219323923307
 20
73.30840719692885
 30
0.0
 10
112.0270999262676
 20
73.40806848328714
 30
0.0
 10
111.5566239961479
 20
73.50034901847967
 30
0.0
 10
111.0257024397979
 20
73.59597894895461
 30
0.0
 10
110.4875518177793
 20
73.6816285259058
 30
0.0
 10
110.0295048814169
 20
73.74892274499847
 30
0.0
 10
109.3739400687554
 20
73.83726554520867
 30
0.0
 10
108.4906342245838
 20
73.93392979425317
 30
0.0
 10
107.3619718620892
 20
74.02070131563256
 30
0.0
 10
106.2722103283582
 20
74.05878252162019
 30
0.0
 10
105.1761821437286
 20
74.060633276961
 30
0.0
 10
104.2707909027166
 20
74.0344714250316
 30
0.0
 10
103.5744874352791
 20
73.99786518785275
 30
0.0
 10
103.0478098364798
 20
73.95884664737294
 30
0.0
 10
102.581161116422
 20
73.91663838103725
 30
0.0
 10
102.2099486977776
 20
73.87963397709463
 30
0.0
 10
101.955898740315
 20
73.85093271412615
 30
0.0
 10
101.6548511263348
 20
73.81455230358064
 30
0.0
 10
101.3993173273651
 20
73.78175550655239
 30
0.0
 10
101.3002194160745
 20
73.76546881258867
 30
0.0
 10
101.3164209742101
 20
73.76802709981592
 30
0.0
 10
101.3164446123024
 20
73.76803083235998
 30
0.0
  0
SPLINE
  5
119
330
1F
100
AcDbEntity
  8
0
  6
HIDDEN
 62
     7
370
     0
100
AcDbSpline
210
0.0
220
0.0
230
1.0
 70
     8
 71
     3
 72
    30
 73
    26
 74
     0
 42
0.00000001
 43
0.00000001
 40
0.0
 40
0.0
 40
0.0
 40
0.0
 40
0.0001219094096609
 40
0.0285524241957743
 40
0.0588556912391567
 40
0.0910359120075644
 40
0.1250964746260231
 40
0.1546847444947597
 40
0.1963631392241406
 40
0.2501173311722467
 40
0.3205319205012012
 40
0.385616359849797
 40
0.4454091377776316
 40
0.499961950384635
 40
0.5283539834689066
 40
0.5586382787310744
 40
0.5908225235711276
 40
0.6249130778538093
 40
0.6541877739034949
 40
0.6958659390740803
 40
0.7499331324725326
 40
0.8215922313479872
 40
0.8871433701310362
 40
0.9466383793079336
 40
1.0
 40
1.0
 40
1.0
 40
1.0
 10
101.3164744146248
 20
146.6741226416328
 30
0.0
 10
101.3164401331666
 20
146.674130118861
 30
0.0
 10
101.3084110668159
 20
146.6758813618015
 30
0.0
 10
101.3369642642319
 20
146.670451881446
 30
0.0
 10
101.4103973889012
 20
146.659898998099
 30
0.0
 10
101.5540418279575
 20
146.6402165965516
 30
0.0
 10
101.7550801652766
 20
146.6153749200839
 30
0.0
 10
102.0377115801276
 20
146.5811647186451
 30
0.0
 10
102.4511192361475
 20
146.5374906079591
 30
0.0
 10
103.127407044092
 20
146.4744457410974
 30
0.0
 10
104.0658387144132
 20
146.4131461506728
 30
0.0
 10
105.1753314412869
 20
146.3818562264032
 30
0.0
 10
106.2728118483058
 20
146.3835181361671
 30
0.0
 10
107.1728433763373
 20
146.4148149604218
 30
0.0
 10
107.8841841086953
 20
146.4616569192397
 30
0.0
 10
108.4496017028464
 20
146.5088162605819
 30
0.0
 10
109.0385242405895
 20
146.5682633471531
 30
0.0
 10
109.6029343389988
 20
146.6346143081747
 30
0.0
 10
110.1971306272519
 20
146.7165347686747
 30
0.0
 10
110.8637379734942
 20
146.8181868918301
 30
0.0
 10
111.6650715936131
 20
146.9603197869397
 30
0.0
 10
112.4175814597188
 20
147.1115647983686
 30
0.0
 10
112.962867261094
 20
147.2294207184798
 30
0.0
 10
113.2655887790522
 20
147.3056439898666
 30
0.0
 10
113.2998798678341
 20
147.3160984883498
 30
0.0
 10
113.3160936079999
 20
147.3210416537025
 30
0.0
  0
LINE
  5
11A
330
1F
100
AcDbEntity
  8
0
  6
HIDDEN
 62
     7
370
     0
100
AcDbLine
 10
213.8163708516
 20
104.2211139377
 30
0.0
 11
213.8163708516
 21
116.2211140421
 31
0.0
  0
LINE
  5
11B
330
1F
100
AcDbEntity
  8
0
  6
HIDDEN
 62
     7
370
     0
100
AcDbLine
 10
170.8163731165
 20
104.3211137679
 30
0.0
 11
170.8163731165
 21
116.1211137463
 31
0.0
  0
SPLINE
  5
11C
330
1F
100
AcDbEntity
  8
0
  6
HIDDEN
 62
     7
370
     0
100
AcDbSpline
210
0.0
220
0.0
230
1.0
 70
     8
 71
     3
 72
    12
 73
     8
 74
     0
 42
0.00000001
 43
0.00000001
 40
0.0
 40
0.0
 40
0.0
 40
0.0
 40
0.2106665820461675
 40
0.4211882667179974
 40
0.635498550505489
 40
0.8524491031828008
 40
1.0
 40
1.0
 40
1.0
 40
1.0
 10
172.8163734443566
 20
116.339937298397
 30
0.0
 10
172.9822743664124
 20
116.3439802865875
 30
0.0
 10
173.3139621031617
 20
116.3520634821839
 30
0.0
 10
173.7587210830731
 20
116.4085133363127
 30
0.0
 10
174.097351120084
 20
116.4704136788812
 30
0.0
 10
174.2955726324917
 20
116.5161044466479
 30
0.0
 10
174.2976370562572
 20
116.5166659475342
 30
0.0
 10
174.298472739019
 20
116.5168932441868
 30
0.0
  0
LINE
  5
11D
330
1F
100
AcDbEntity
  8
0
  6
HIDDEN
 62
     7
370
     0
100
AcDbLine
 10
172.9169749089
 20
116.3439466421
 30
0.0
 11
172.6200953491
 21
116.3463741344
 31
0.0
  0
SPLINE
  5
11E
330
1F
100
AcDbEntity
  8
0
  6
HIDDEN
 62
     7
370
     0
100
AcDbSpline
210
0.0
220
0.0
230
1.0
 70
     8
 71
     3
 72
    12
 73
     8
 74
     0
 42
0.00000001
 43
0.00000001
 40
0.0
 40
0.0
 40
0.0
 40
0.0
 40
0.1882943528001101
 40
0.3971809016131083
 40
0.6107007427024482
 40
0.827634292407604
 40
1.0
 40
1.0
 40
1.0
 40
1.0
 10
171.323850787439
 20
116.5193663712837
 30
0.0
 10
171.3337179845237
 20
116.5169491504102
 30
0.0
 10
171.3545314724282
 20
116.5118503572087
 30
0.0
 10
171.5823148254761
 20
116.4607760817848
 30
0.0
 10
171.939638392777
 20
116.3983016307302
 30
0.0
 10
172.3746127678511
 20
116.3487283743298
 30
0.0
 10
172.6808043838807
 20
116.3426351345064
 30
0.0
 10
172.8163734443566
 20
116.339937298397
 30
0.0
  0
SPLINE
  5
11F
330
1F
100
AcDbEntity
  8
0
  6
HIDDEN
 62
     7
370
     0
100
AcDbSpline
210
0.0
220
0.0
230
1.0
 70
     8
 71
     3
 72
    17
 73
    13
 74
     0
 42
0.00000001
 43
0.00000001
 40
0.0
 40
0.0
 40
0.0
 40
0.0
 40
0.1053370728181655
 40
0.2106060396982788
 40
0.3176546014217742
 40
0.4261021138929831
 40
0.5325488575007122
 40
0.6366925565713399
 40
0.7418252740259313
 40
0.8496595854896124
 40
0.9577749166054429
 40
1.0
 40
1.0
 40
1.0
 40
1.0
 10
174.3163727589032
 20
103.9211139817037
 30
0.0
 10
174.3002583201266
 20
103.9250506248638
 30
0.0
 10
174.2680398614027
 20
103.9329213659379
 30
0.0
 10
174.01745727039
 20
103.9880446660993
 30
0.0
 10
173.6448810842002
 20
104.0513133836127
 30
0.0
 10
173.17244491527
 20
104.0988562356434
 30
0.0
 10
172.6628567430927
 20
104.1072739448875
 30
0.0
 10
172.1776199716721
 20
104.0746450192328
 30
0.0
 10
171.7590448377723
 20
104.014984335294
 30
0.0
 10
171.4619218868366
 20
103.955603296536
 30
0.0
 10
171.3136407174193
 20
103.920480201814
 30
0.0
 10
171.3313057290692
 20
103.9246458005197
 30
0.0
 10
171.3362671800038
 20
103.9258157637217
 30
0.0
  0
LINE
  5
120
330
1F
100
AcDbEntity
  8
0
  6
HIDDEN
 62
     7
370
     0
100
AcDbLine
 10
181.3163720436
 20
104.2211139377
 30
0.0
 11
181.3163720436
 21
116.2211140421
 31
0.0
  0
LINE
  5
121
330
1F
100
AcDbEntity
  8
0
  6
HIDDEN
 62
     7
370
     0
100
AcDbLine
 10
170.3163721033
 20
105.7211141836
 30
0.0
 11
170.3163721033
 21
114.7211137962
 31
0.0
  0
LINE
  5
122
330
1F
100
AcDbEntity
  8
0
  6
HIDDEN
 62
     7
370
     0
100
AcDbLine
 10
166.7663716145
 20
95.7984644722
 30
0.0
 11
161.7663726576
 21
95.7984644722
 31
0.0
  0
LINE
  5
123
330
1F
100
AcDbEntity
  8
0
  6
HIDDEN
 62
     7
370
     0
100
AcDbLine
 10
164.2663702734
 20
124.6437635076
 30
0.0
 11
166.7663716145
 21
124.6437635076
 31
0.0
  0
LINE
  5
124
330
1F
100
AcDbEntity
  8
0
  6
HIDDEN
 62
     7
370
     0
100
AcDbLine
 10
161.7663726576
 20
124.6437635076
 30
0.0
 11
164.2663702734
 21
124.6437635076
 31
0.0
  0
LINE
  5
125
330
1F
100
AcDbEntity
  8
0
  6
HIDDEN
 62
     7
370
     0
100
AcDbLine
 10
164.2663702734
 20
117.221114206
 30
0.0
 11
166.7663716145
 21
117.221114206
 31
0.0
  0
LINE
  5
126
330
1F
100
AcDbEntity
  8
0
  6
HIDDEN
 62
     7
370
     0
100
AcDbLine
 10
161.7663726576
 20
117.221114206
 30
0.0
 11
164.2663702734
 21
117.221114206
 31
0.0
  0
LINE
  5
127
330
1F
100
AcDbEntity
  8
0
  6
HIDDEN
 62
     7
370
     0
100
AcDbLine
 10
166.7663716145
 20
103.2211137738
 30
0.0
 11
161.7663726576
 21
103.2211137738
 31
0.0
  0
SPLINE
  5
128
330
1F
100
AcDbEntity
  8
0
  6
HIDDEN
 62
     7
370
     0
100
AcDbSpline
210
0.0
220
0.0
230
1.0
 70
     8
 71
     3
 72
    19
 73
    15
 74
     0
 42
0.00000001
 43
0.00000001
 40
0.0
 40
0.0
 40
0.0
 40
0.0
 40
0.0838019458622301
 40
0.1672279857669947
 40
0.2833471992973348
 40
0.4019420046225247
 40
0.4680630216483453
 40
0.5348547088539832
 40
0.591940658562652
 40
0.6923720117144498
 40
0.7989709031867601
 40
0.8954356951557063
 40
0.9925523787728174
 40
1.0
 40
1.0
 40
1.0
 40
1.0
 10
174.3163727589032
 20
119.6596240427591
 30
0.0
 10
174.3081373951501
 20
119.6697818546558
 30
0.0
 10
174.2917036085796
 20
119.6900519140895
 30
0.0
 10
174.1603773428634
 20
119.855843285995
 30
0.0
 10
173.9599234038789
 20
120.1259997477559
 30
0.0
 10
173.7567354274946
 20
120.455369048096
 30
0.0
 10
173.6447254689831
 20
120.783348028228
 30
0.0
 10
173.6403006496565
 20
121.0558651666439
 30
0.0
 10
173.7313345046934
 20
121.3529222173942
 30
0.0
 10
173.9066343665799
 20
121.6479355225791
 30
0.0
 10
174.1140154342666
 20
121.9208823791599
 30
0.0
 10
174.2631788153293
 20
122.1000596734473
 30
0.0
 10
174.328908991924
 20
122.1761982524887
 30
0.0
 10
174.3142016430347
 20
122.1590198058873
 30
0.0
 10
174.3131541080853
 20
122.1577962663271
 30
0.0
  0
SPLINE
  5
129
330
1F
100
AcDbEntity
  8
0
  6
HIDDEN
 62
     7
370
     0
100
AcDbSpline
210
0.0
220
0.0
230
1.0
 70
     8
 71
     3
 72
     9
 73
     5
 74
     0
 42
0.00000001
 43
0.00000001
 40
0.0
 40
0.0
 40
0.0
 40
0.0
 40
0.7583657773084214
 40
1.0
 40
1.0
 40
1.0
 40
1.0
 10
171.3251509137532
 20
122.1500020277001
 30
0.0
 10
171.3291993578798
 20
122.1498347241666
 30
0.0
 10
171.3345377371259
 20
122.1496141135608
 30
0.0
 10
171.3848927081116
 20
122.1725631412196
 30
0.0
 10
171.3970601923844
 20
122.1781084116795
 30
0.0
  0
SPLINE
  5
12A
330
1F
100
AcDbEntity
  8
0
  6
HIDDEN
 62
     7
370
     0
100
AcDbSpline
210
0.0
220
0.0
230
1.0
 70
     8
 71
     3
 72
    18
 73
    14
 74
     0
 42
0.00000001
 43
0.00000001
 40
0.0
 40
0.0
 40
0.0
 40
0.0
 40
0.0497226721246382
 40
0.1396899636119061
 40
0.2366942312088368
 40
0.3526984949948423
 40
0.4655348694030686
 40
0.5364302996186027
 40
0.6078108670253192
 40
0.69357817284102
 40
0.831988605198153
 40
0.9754282754951518
 40
1.0
 40
1.0
 40
1.0
 40
1.0
 10
171.326771415033
 20
119.7895947646596
 30
0.0
 10
171.3249032542071
 20
119.7874157073065
 30
0.0
 10
171.3196548774275
 20
119.7812939035224
 30
0.0
 10
171.3958765349099
 20
119.8702027772684
 30
0.0
 10
171.5376615770151
 20
120.042331959851
 30
0.0
 10
171.7326958897865
 20
120.3015617064011
 30
0.0
 10
171.9072510447151
 20
120.5969164954715
 30
0.0
 10
171.9948609923755
 20
120.8969086301553
 30
0.0
 10
171.9836405697077
 20
121.183155551432
 30
0.0
 10
171.8585967840897
 20
121.5185593309934
 30
0.0
 10
171.63923631194
 20
121.8618645616954
 30
0.0
 10
171.4707302038803
 20
122.0840949890365
 30
0.0
 10
171.4064597661023
 20
122.1661132174524
 30
0.0
 10
171.3970601923844
 20
122.1781084116795
 30
0.0
  0
LINE
  5
12B
330
1F
100
AcDbEntity
  8
0
  6
HIDDEN
 62
     7
370
     0
100
AcDbLine
 10
174.3163727589
 20
123.0211136665
 30
0.0
 11
171.3163704045
 21
123.0211136665
 31
0.0
  0
LWPOLYLINE
  5
12C
330
1F
100
AcDbEntity
  8
0
  6
HIDDEN
 62
     7
370
     0
100
AcDbPolyline
 90
       14
 70
   128
 43
0.0
 10
174.3131541081
 20
98.2844317135
 10
174.2839552827
 20
98.3185227763
 10
174.1872504719
 20
98.4340244707
 10
173.9868112274
 20
98.6919589143
 10
173.7670600779
 20
99.0446097952
 10
173.6700348921
 20
99.3030043122
 10
173.6463345952
 20
99.5419202175
 10
173.688307441
 20
99.77693295
 10
173.8390215106
 20
100.1119389933
 10
174.0901545055
 20
100.4904620152
 10
174.2417700954
 20
100.6890274387
 10
174.3092835315
 20
100.7738020074
 10
174.3163727589
 20
100.782603937
 10
174.3163727589
 20
100.782603937
  0
LINE
  5
12D
330
1F
100
AcDbEntity
  8
0
  6
HIDDEN
 62
     7
370
     0
100
AcDbLine
 10
172.8163734444
 20
97.2211137217
 30
0.0
 11
174.3163727589
 21
97.2211137217
 31
0.0
  0
LINE
  5
12E
330
1F
100
AcDbEntity
  8
0
  6
HIDDEN
 62
     7
370
     0
100
AcDbLine
 10
171.3163704045
 20
97.2211137217
 30
0.0
 11
172.8163734444
 21
97.2211137217
 31
0.0
  0
SPLINE
  5
12F
330
1F
100
AcDbEntity
  8
0
  6
HIDDEN
 62
     7
370
     0
100
AcDbSpline
210
0.0
220
0.0
230
1.0
 70
     8
 71
     3
 72
     9
 73
     5
 74
     0
 42
0.00000001
 43
0.00000001
 40
0.0
 40
0.0
 40
0.0
 40
0.0
 40
0.8578781750352233
 40
1.0
 40
1.0
 40
1.0
 40
1.0
 10
171.3970601923844
 20
98.26411956811924
 30
0.0
 10
171.353278844271
 20
98.28072026890065
 30
0.0
 10
171.3022443857808
 20
98.30007115258614
 30
0.0
 10
171.322300501925
 20
98.29320218264256
 30
0.0
 10
171.3251509137532
 20
98.29222595209856
 30
0.0
  0
SPLINE
  5
130
330
1F
100
AcDbEntity
  8
0
  6
HIDDEN
 62
     7
370
     0
100
AcDbSpline
210
0.0
220
0.0
230
1.0
 70
     8
 71
     3
 72
    17
 73
    13
 74
     0
 42
0.00000001
 43
0.00000001
 40
0.0
 40
0.0
 40
0.0
 40
0.0
 40
0.1263227790480159
 40
0.2517576307797598
 40
0.3532749575132892
 40
0.4234158130652759
 40
0.49396205694787
 40
0.5823088258714112
 40
0.7187595580197399
 40
0.8578865461161242
 40
0.9536613294003246
 40
1.0
 40
1.0
 40
1.0
 40
1.0
 10
171.3970601923844
 20
98.26411956811924
 30
0.0
 10
171.4530725209158
 20
98.33613389380317
 30
0.0
 10
171.5647034653249
 20
98.47965635390908
 30
0.0
 10
171.7793374289888
 20
98.79194576458752
 30
0.0
 10
171.9354210429508
 20
99.10050510328513
 30
0.0
 10
172.0001162676236
 20
99.39283962623686
 30
0.0
 10
171.969027096803
 20
99.67786265972843
 30
0.0
 10
171.8268287629895
 20
100.0005080132049
 30
0.0
 10
171.5999831816144
 20
100.3233972636357
 30
0.0
 10
171.4092842822857
 20
100.5564978152881
 30
0.0
 10
171.3182569504293
 20
100.6625557382212
 30
0.0
 10
171.3246777853025
 20
100.6550730736967
 30
0.0
 10
171.326771415033
 20
100.6526332151391
 30
0.0
  0
LWPOLYLINE
  5
131
330
1F
100
AcDbEntity
  8
0
  6
HIDDEN
 62
     7
370
     0
100
AcDbPolyline
 90
        8
 70
   128
 43
0.0
 10
171.3027619191
 20
119.7780296009
 10
171.3038497038
 20
119.8057271343
 10
171.3122688599
 20
120.0199937251
 10
171.3276282318
 20
120.4109377962
 10
171.3472344346
 20
120.9099720966
 10
171.3676490255
 20
121.4295495104
 10
171.385288275
 20
121.8785159093
 10
171.3970601924
 20
122.1781084117
  0
LWPOLYLINE
  5
132
330
1F
100
AcDbEntity
  8
0
  6
HIDDEN
 62
     7
370
     0
100
AcDbPolyline
 90
        8
 70
   128
 43
0.0
 10
171.3027619191
 20
100.6641983789
 10
171.3038497038
 20
100.6365008455
 10
171.3122688599
 20
100.4222342547
 10
171.3276282318
 20
100.0312901836
 10
171.3472344346
 20
99.5322558832
 10
171.3676490255
 20
99.0126784694
 10
171.385288275
 20
98.5637120705
 10
171.3970601924
 20
98.2641195681
  0
LWPOLYLINE
  5
133
330
1F
100
AcDbEntity
  8
0
  6
HIDDEN
 62
     7
370
     0
100
AcDbPolyline
 90
       32
 70
   128
 43
0.0
 10
131.3163712986
 20
155.533820371
 10
132.3228646435
 20
155.5021926563
 10
133.2881506898
 20
155.4086021882
 10
134.1727124892
 20
155.2568822902
 10
134.9403355636
 20
155.0532467466
 10
135.5595933639
 20
154.8060290318
 10
136.0051324956
 20
154.5253507596
 10
136.2587130062
 20
154.2227044504
 10
136.3099543743
 20
153.9104766947
 10
136.1567573987
 20
153.6014564138
 10
135.805394537
 20
153.3082872432
 10
135.2702500664
 20
153.0429795187
 10
134.5732342817
 20
152.8163887363
 10
133.742881044
 20
152.6377945941
 10
132.8131873526
 20
152.514509837
 10
131.8222135671
 20
152.451578508
 10
130.8105299614
 20
152.451578508
 10
129.8195561759
 20
152.514509837
 10
128.8898620188
 20
152.6377945941
 10
128.0595092468
 20
152.8163887363
 10
127.3624929965
 20
153.0429795187
 10
126.8273489915
 20
153.3082872432
 10
126.4759861298
 20
153.6014564138
 10
126.3227891542
 20
153.9104766947
 10
126.3740300566
 20
154.2227044504
 10
126.6276110329
 20
154.5253507596
 10
127.0731506303
 20
154.8060290318
 10
127.6924079649
 20
155.0532467466
 10
128.4600305736
 20
155.2568822902
 10
129.3445923731
 20
155.4086021882
 10
130.309878885
 20
155.5021926563
 10
131.3163712986
 20
155.533820371
  0
LINE
  5
134
330
1F
100
AcDbEntity
  8
0
  6
HIDDEN
 62
     7
370
     0
100
AcDbLine
 10
145.5784011997
 20
149.1720750731
 30
0.0
 11
145.5784011997
 21
141.5711156827
 31
0.0
  0
LINE
  5
135
330
1F
100
AcDbEntity
  8
0
  6
HIDDEN
 62
     7
370
     0
100
AcDbLine
 10
140.4063720621
 20
144.9353508454
 30
0.0
 11
140.4063720621
 21
141.5711156827
 31
0.0
  0
LINE
  5
136
330
1F
100
AcDbEntity
  8
0
  6
HIDDEN
 62
     7
370
     0
100
AcDbLine
 10
144.2263722785
 20
144.9353508454
 30
0.0
 11
144.2263722785
 21
141.5711156827
 31
0.0
  0
CIRCLE
  5
137
330
1F
100
AcDbEntity
  8
0
  6
HIDDEN
 62
     7
370
     0
100
AcDbCircle
 10
129.316371686
 20
110.2211139899
 30
0.0
 40
5.0
  0
LINE
  5
138
330
1F
100
AcDbEntity
  8
0
  6
HIDDEN
 62
     7
370
     0
100
AcDbLine
 10
217.2428854175
 20
99.7170693975
 30
0.0
 11
217.30181951
 21
99.8290916708
 31
0.0
  0
LINE
  5
139
330
1F
100
AcDbEntity
  8
0
  6
HIDDEN
 62
     7
370
     0
100
AcDbLine
 10
217.2979377575
 20
102.4408307661
 30
0.0
 11
217.1251066394
 21
102.714756484
 31
0.0
  0
LINE
  5
13A
330
1F
100
AcDbEntity
  8
0
  6
HIDDEN
 62
     7
370
     0
100
AcDbLine
 10
217.1251066394
 20
102.714756484
 30
0.0
 11
211.7911689349
 21
102.5051856216
 31
0.0
  0
LINE
  5
13B
330
1F
100
AcDbEntity
  8
0
  6
HIDDEN
 62
     7
370
     0
100
AcDbLine
 10
211.9089477129
 20
99.5074985352
 30
0.0
 11
217.2428854175
 21
99.7170693975
 31
0.0
  0
LINE
  5
13C
330
1F
100
AcDbEntity
  8
0
  6
HIDDEN
 62
     7
370
     0
100
AcDbLine
 10
211.7911689349
 20
102.5051856216
 30
0.0
 11
211.3111801811
 21
101.98594069
 31
0.0
  0
LINE
  5
13D
330
1F
100
AcDbEntity
  8
0
  6
HIDDEN
 62
     7
370
     0
100
AcDbLine
 10
211.38970185
 20
99.9874826323
 30
0.0
 11
211.9089477129
 21
99.5074985352
 31
0.0
  0
LINE
  5
13E
330
1F
100
AcDbEntity
  8
0
  6
HIDDEN
 62
     7
370
     0
100
AcDbLine
 10
217.1839960285
 20
120.7274719876
 30
0.0
 11
211.8500583239
 21
120.9370437812
 31
0.0
  0
LINE
  5
13F
330
1F
100
AcDbEntity
  8
0
  6
HIDDEN
 62
     7
370
     0
100
AcDbLine
 10
211.7322795458
 20
117.9393562291
 30
0.0
 11
217.0662172504
 21
117.7297853668
 31
0.0
  0
LINE
  5
140
330
1F
100
AcDbEntity
  8
0
  6
HIDDEN
 62
     7
370
     0
100
AcDbLine
 10
211.8500583239
 20
120.9370437812
 30
0.0
 11
211.3308124609
 21
120.4570587527
 31
0.0
  0
LINE
  5
141
330
1F
100
AcDbEntity
  8
0
  6
HIDDEN
 62
     7
370
     0
100
AcDbLine
 10
211.252290792
 20
118.4586006951
 30
0.0
 11
211.7322795458
 21
117.9393562291
 31
0.0
  0
LINE
  5
142
330
1F
100
AcDbEntity
  8
0
  6
HIDDEN
 62
     7
370
     0
100
AcDbLine
 10
217.0662172504
 20
117.7297853668
 30
0.0
 11
217.2390483685
 21
118.0037110847
 31
0.0
  0
LINE
  5
143
330
1F
100
AcDbEntity
  8
0
  6
HIDDEN
 62
     7
370
     0
100
AcDbLine
 10
217.3133902617
 20
120.4815357726
 30
0.0
 11
217.1839960285
 21
120.7274719876
 31
0.0
  0
LINE
  5
144
330
1F
100
AcDbEntity
  8
0
  6
HIDDEN
 62
     7
370
     0
100
AcDbLine
 10
161.3163724907
 20
105.2211141017
 30
0.0
 11
176.8163703747
 21
105.2211141017
 31
0.0
  0
LINE
  5
145
330
1F
100
AcDbEntity
  8
0
  6
HIDDEN
 62
     7
370
     0
100
AcDbLine
 10
176.8163703747
 20
115.2211138781
 30
0.0
 11
161.3163724907
 21
115.2211138781
 31
0.0
  0
LINE
  5
146
330
1F
100
AcDbEntity
  8
0
  6
HIDDEN
 62
     7
370
     0
100
AcDbLine
 10
176.8163703747
 20
105.2211141017
 30
0.0
 11
177.316371388
 21
105.7211141836
 31
0.0
  0
LINE
  5
147
330
1F
100
AcDbEntity
  8
0
  6
HIDDEN
 62
     7
370
     0
100
AcDbLine
 10
177.316371388
 20
114.7211137962
 30
0.0
 11
176.8163703747
 21
115.2211138781
 31
0.0
  0
LINE
  5
148
330
1F
100
AcDbEntity
  8
0
  6
HIDDEN
 62
     7
370
     0
100
AcDbLine
 10
161.3163724907
 20
115.2211138781
 30
0.0
 11
160.8163714774
 21
114.7211137962
 31
0.0
  0
LINE
  5
149
330
1F
100
AcDbEntity
  8
0
  6
HIDDEN
 62
     7
370
     0
100
AcDbLine
 10
160.8163714774
 20
105.7211141836
 30
0.0
 11
161.3163724907
 21
105.2211141017
 31
0.0
  0
LINE
  5
14A
330
1F
100
AcDbEntity
  8
0
  6
HIDDEN
 62
     7
370
     0
100
AcDbLine
 10
177.316371388
 20
105.7211141836
 30
0.0
 11
180.8163710304
 21
105.7211141836
 31
0.0
  0
LINE
  5
14B
330
1F
100
AcDbEntity
  8
0
  6
HIDDEN
 62
     7
370
     0
100
AcDbLine
 10
180.8163710304
 20
114.7211137962
 30
0.0
 11
177.316371388
 21
114.7211137962
 31
0.0
  0
LINE
  5
14C
330
1F
100
AcDbEntity
  8
0
  6
HIDDEN
 62
     7
370
     0
100
AcDbLine
 10
166.8163724609
 20
107.7211140458
 30
0.0
 11
174.8163700469
 21
107.7211140458
 31
0.0
  0
LINE
  5
14D
330
1F
100
AcDbEntity
  8
0
  6
HIDDEN
 62
     7
370
     0
100
AcDbLine
 10
174.8163700469
 20
112.721113934
 30
0.0
 11
166.8163724609
 21
112.721113934
 31
0.0
  0
LINE
  5
14E
330
1F
100
AcDbEntity
  8
0
  6
HIDDEN
 62
     7
370
     0
100
AcDbLine
 10
122.316371686
 20
70.8164311748
 30
0.0
 11
122.4059733069
 21
71.4539810818
 31
0.0
  0
LINE
  5
14F
330
1F
100
AcDbEntity
  8
0
  6
HIDDEN
 62
     7
370
     0
100
AcDbLine
 10
122.4059733069
 20
148.988246898
 30
0.0
 11
122.316371686
 21
149.625796805
 31
0.0
  0
ARC
  5
150
330
1F
100
AcDbEntity
  8
0
  6
HIDDEN
 62
     7
370
     0
100
AcDbCircle
 10
121.4194347676
 20
71.5926286655
 30
0.0
 40
0.996233821438679
100
AcDbArc
 50
352.0
 51
0.0
  0
ARC
  5
151
330
1F
100
AcDbEntity
  8
0
  6
HIDDEN
 62
     7
370
     0
100
AcDbCircle
 10
121.4194347676
 20
71.5926286655
 30
0.0
 40
0.996233821438679
100
AcDbArc
 50
0.0
 51
25.7988228126
  0
ARC
  5
152
330
1F
100
AcDbEntity
  8
0
  6
HIDDEN
 62
     7
370
     0
100
AcDbCircle
 10
121.4194347676
 20
148.8495993143
 30
0.0
 40
0.9962338214386799
100
AcDbArc
 50
348.75
 51
8.0
  0
LWPOLYLINE
  5
153
330
1F
100
AcDbEntity
  8
0
  6
HIDDEN
 62
     7
370
     0
100
AcDbPolyline
 90
        3
 70
   128
 43
0.0
 10
122.3965262326
 20
148.6552431982
 10
122.3398348049
 20
148.4683565598
 10
122.316371686
 20
148.416027407
  0
LINE
  5
154
330
1F
100
AcDbEntity
  8
0
  6
HIDDEN
 62
     7
370
     0
100
AcDbLine
 10
122.4156685859
 20
71.5926289361
 30
0.0
 11
122.4156685859
 21
148.8495990437
 31
0.0
  0
LINE
  5
155
330
1F
100
AcDbEntity
  8
0
  6
HIDDEN
 62
     7
370
     0
100
AcDbLine
 10
95.777098126
 20
78.7211134833
 30
0.0
 11
101.362202353
 21
78.7211134833
 31
0.0
  0
LINE
  5
156
330
1F
100
AcDbEntity
  8
0
  6
HIDDEN
 62
     7
370
     0
100
AcDbLine
 10
101.362202353
 20
141.7211144965
 30
0.0
 11
95.777098126
 21
141.7211144965
 31
0.0
  0
ARC
  5
157
330
1F
100
AcDbEntity
  8
0
  6
HIDDEN
 62
     7
370
     0
100
AcDbCircle
 10
112.5695773412
 20
90.7211139899
 30
0.0
 40
12.0
100
AcDbArc
 50
273.1708914158
 51
324.3146652873
  0
ARC
  5
158
330
1F
100
AcDbEntity
  8
0
  6
HIDDEN
 62
     7
370
     0
100
AcDbCircle
 10
112.5695773412
 20
129.7211139899
 30
0.0
 40
12.00000000000001
100
AcDbArc
 50
35.6853347127
 51
86.8276190994
  0
ARC
  5
159
330
1F
100
AcDbEntity
  8
0
  6
HIDDEN
 62
     7
370
     0
100
AcDbCircle
 10
95.7770976282
 20
79.7211139899
 30
0.0
 40
1.0
100
AcDbArc
 50
210.0
 51
270.0
  0
ARC
  5
15A
330
1F
100
AcDbEntity
  8
0
  6
HIDDEN
 62
     7
370
     0
100
AcDbCircle
 10
95.7770976282
 20
140.7211139899
 30
0.0
 40
1.0
100
AcDbArc
 50
90.0
 51
150.0
  0
LINE
  5
15B
330
1F
100
AcDbEntity
  8
0
  6
HIDDEN
 62
     7
370
     0
100
AcDbLine
 10
94.9110724397
 20
141.2211134833
 30
0.0
 11
92.3129953809
 21
136.721113677
 31
0.0
  0
LINE
  5
15C
330
1F
100
AcDbEntity
  8
0
  6
HIDDEN
 62
     7
370
     0
100
AcDbLine
 10
92.3129953809
 20
83.7211143028
 30
0.0
 11
94.9110724397
 21
79.2211144965
 31
0.0
  0
ARC
  5
15D
330
1F
100
AcDbEntity
  8
0
  6
HIDDEN
 62
     7
370
     0
100
AcDbCircle
 10
132.766371686
 20
85.3461139899
 30
0.0
 40
2.000000000000026
100
AcDbArc
 50
234.3409123039
 51
0.0
  0
ARC
  5
15E
330
1F
100
AcDbEntity
  8
0
  6
HIDDEN
 62
     7
370
     0
100
AcDbCircle
 10
132.766371686
 20
135.0961139899
 30
0.0
 40
2.000000000000003
100
AcDbArc
 50
0.0
 51
125.6590876961
  0
LINE
  5
15F
330
1F
100
AcDbEntity
  8
0
  6
HIDDEN
 62
     7
370
     0
100
AcDbLine
 10
122.316371686
 20
83.7211143028
 30
0.0
 11
131.6004488982
 21
83.7211143028
 31
0.0
  0
LINE
  5
160
330
1F
100
AcDbEntity
  8
0
  6
HIDDEN
 62
     7
370
     0
100
AcDbLine
 10
131.6004488982
 20
136.721113677
 30
0.0
 11
122.316371686
 21
136.721113677
 31
0.0
  0
LINE
  5
161
330
1F
100
AcDbEntity
  8
0
  6
HIDDEN
 62
     7
370
     0
100
AcDbLine
 10
87.5163711973
 20
83.7211143028
 30
0.0
 11
92.3129953809
 21
83.7211143028
 31
0.0
  0
LINE
  5
162
330
1F
100
AcDbEntity
  8
0
  6
HIDDEN
 62
     7
370
     0
100
AcDbLine
 10
92.3129953809
 20
136.721113677
 30
0.0
 11
82.5163722403
 21
136.721113677
 31
0.0
  0
LINE
  5
163
330
1F
100
AcDbEntity
  8
0
  6
HIDDEN
 62
     7
370
     0
100
AcDbLine
 10
126.316371876
 20
155.8981761139
 30
0.0
 11
126.316371876
 21
152.1985269886
 31
0.0
  0
LINE
  5
164
330
1F
100
AcDbEntity
  8
0
  6
HIDDEN
 62
     7
370
     0
100
AcDbLine
 10
136.3163721182
 20
152.1985269886
 30
0.0
 11
136.3163721182
 21
155.8926664096
 31
0.0
  0
LINE
  5
165
330
1F
100
AcDbEntity
  8
0
  6
HIDDEN
 62
     7
370
     0
100
AcDbLine
 10
146.616371385
 20
97.2211137217
 30
0.0
 11
150.6163720407
 21
97.2211137217
 31
0.0
  0
LINE
  5
166
330
1F
100
AcDbEntity
  8
0
  6
HIDDEN
 62
     7
370
     0
100
AcDbLine
 10
150.6163720407
 20
123.2211142581
 30
0.0
 11
146.616371385
 21
123.2211142581
 31
0.0
  0
LINE
  5
167
330
1F
100
AcDbEntity
  8
0
  6
HIDDEN
 62
     7
370
     0
100
AcDbLine
 10
217.30181951
 20
99.8290916708
 30
0.0
 11
217.3163704939
 21
100.069895367
 31
0.0
  0
LINE
  5
168
330
1F
100
AcDbEntity
  8
0
  6
HIDDEN
 62
     7
370
     0
100
AcDbLine
 10
134.7663719572
 20
98.2211138856
 30
0.0
 11
135.5163716145
 21
98.9711135429
 31
0.0
  0
LINE
  5
169
330
1F
100
AcDbEntity
  8
0
  6
HIDDEN
 62
     7
370
     0
100
AcDbLine
 10
135.5163716145
 20
121.4711144369
 30
0.0
 11
134.7663719572
 21
122.2211140942
 31
0.0
  0
LINE
  5
16A
330
1F
100
AcDbEntity
  8
0
  6
HIDDEN
 62
     7
370
     0
100
AcDbLine
 10
135.5163716145
 20
98.9711135429
 30
0.0
 11
146.616371385
 21
98.9711135429
 31
0.0
  0
LINE
  5
16B
330
1F
100
AcDbEntity
  8
0
  6
HIDDEN
 62
     7
370
     0
100
AcDbLine
 10
146.616371385
 20
121.4711144369
 30
0.0
 11
135.5163716145
 21
121.4711144369
 31
0.0
  0
LINE
  5
16C
330
1F
100
AcDbEntity
  8
0
  6
HIDDEN
 62
     7
370
     0
100
AcDbLine
 10
127.2663716592
 20
160.221114735
 30
0.0
 11
127.2663716592
 21
154.121115784
 31
0.0
  0
ARC
  5
16D
330
1F
100
AcDbEntity
  8
0
  6
HIDDEN
 62
     7
370
     0
100
AcDbCircle
 10
216.816371686
 20
103.1844197418
 30
0.0
 40
0.5
100
AcDbArc
 50
0.0
 51
80.0
  0
ARC
  5
16E
330
1F
100
AcDbEntity
  8
0
  6
HIDDEN
 62
     7
370
     0
100
AcDbCircle
 10
216.816371686
 20
117.257808238
 30
0.0
 40
0.5
100
AcDbArc
 50
280.0
 51
0.0
  0
LINE
  5
16F
330
1F
100
AcDbEntity
  8
0
  6
HIDDEN
 62
     7
370
     0
100
AcDbLine
 10
113.7490840994
 20
72.6428329747
 30
0.0
 11
113.3163748674
 21
73.1210596662
 31
0.0
  0
LINE
  5
170
330
1F
100
AcDbEntity
  8
0
  6
HIDDEN
 62
     7
370
     0
100
AcDbLine
 10
101.3163719691
 20
73.7680196565
 30
0.0
 11
100.8357443281
 21
73.2897966903
 31
0.0
  0
LINE
  5
171
330
1F
100
AcDbEntity
  8
0
  6
HIDDEN
 62
     7
370
     0
100
AcDbLine
 10
100.8356269814
 20
147.1524275642
 30
0.0
 11
101.3163719691
 21
146.6741449934
 31
0.0
  0
LINE
  5
172
330
1F
100
AcDbEntity
  8
0
  6
HIDDEN
 62
     7
370
     0
100
AcDbLine
 10
113.3163720734
 20
147.3211198848
 30
0.0
 11
113.7491930641
 21
147.7993987303
 31
0.0
  0
LINE
  5
173
330
1F
100
AcDbEntity
  8
0
  6
HIDDEN
 62
     7
370
     0
100
AcDbLine
 10
216.9031985469
 20
116.765404566
 30
0.0
 11
213.8163708516
 21
116.2211140421
 31
0.0
  0
LINE
  5
174
330
1F
100
AcDbEntity
  8
0
  6
HIDDEN
 62
     7
370
     0
100
AcDbLine
 10
213.8163708516
 20
104.2211139377
 30
0.0
 11
216.9031985469
 21
103.6768234138
 31
0.0
  0
ARC
  5
175
330
1F
100
AcDbEntity
  8
0
  6
HIDDEN
 62
     7
370
     0
100
AcDbCircle
 10
171.216371686
 20
104.3211139899
 30
0.0
 40
0.4000000000000057
100
AcDbArc
 50
180.0
 51
270.0
  0
ARC
  5
176
330
1F
100
AcDbEntity
  8
0
  6
HIDDEN
 62
     7
370
     0
100
AcDbCircle
 10
171.216371686
 20
116.1211139899
 30
0.0
 40
0.4000000000000057
100
AcDbArc
 50
90.0
 51
180.0
  0
LINE
  5
177
330
1F
100
AcDbEntity
  8
0
  6
HIDDEN
 62
     7
370
     0
100
AcDbLine
 10
174.3163727589
 20
103.9211139817
 30
0.0
 11
180.4215982922
 21
103.9211139817
 31
0.0
  0
LINE
  5
178
330
1F
100
AcDbEntity
  8
0
  6
HIDDEN
 62
     7
370
     0
100
AcDbLine
 10
171.216372437
 20
103.9211139817
 30
0.0
 11
171.33626718
 21
103.9211139817
 31
0.0
  0
LINE
  5
179
330
1F
100
AcDbEntity
  8
0
  6
HIDDEN
 62
     7
370
     0
100
AcDbLine
 10
171.3238507874
 20
116.5211139981
 30
0.0
 11
171.216372437
 21
116.5211139981
 31
0.0
  0
LINE
  5
17A
330
1F
100
AcDbEntity
  8
0
  6
HIDDEN
 62
     7
370
     0
100
AcDbLine
 10
180.4215982922
 20
116.5211139981
 30
0.0
 11
174.298472739
 21
116.5211139981
 31
0.0
  0
ARC
  5
17B
330
1F
100
AcDbEntity
  8
0
  6
HIDDEN
 62
     7
370
     0
100
AcDbCircle
 10
180.4215976679
 20
104.3211139899
 30
0.0
 40
0.3999999999999915
100
AcDbArc
 50
270.0
 51
290.0
  0
ARC
  5
17C
330
1F
100
AcDbEntity
  8
0
  6
HIDDEN
 62
     7
370
     0
100
AcDbCircle
 10
180.4215976679
 20
116.1211139899
 30
0.0
 40
0.3999999999999915
100
AcDbArc
 50
70.0
 51
90.0
  0
LINE
  5
17D
330
1F
100
AcDbEntity
  8
0
  6
HIDDEN
 62
     7
370
     0
100
AcDbLine
 10
180.5584058531
 20
103.945237099
 30
0.0
 11
181.3163720436
 21
104.2211139377
 31
0.0
  0
LINE
  5
17E
330
1F
100
AcDbEntity
  8
0
  6
HIDDEN
 62
     7
370
     0
100
AcDbLine
 10
181.3163720436
 20
116.2211140421
 30
0.0
 11
180.5584058531
 21
116.4969908808
 31
0.0
  0
LINE
  5
17F
330
1F
100
AcDbEntity
  8
0
  6
HIDDEN
 62
     7
370
     0
100
AcDbLine
 10
113.3163720734
 20
141.6869908374
 30
0.0
 11
113.3163720734
 21
147.4211215776
 31
0.0
  0
LINE
  5
180
330
1F
100
AcDbEntity
  8
0
  6
HIDDEN
 62
     7
370
     0
100
AcDbLine
 10
101.3163719691
 20
146.6741375428
 30
0.0
 11
101.3163719691
 21
141.7126357358
 31
0.0
  0
LINE
  5
181
330
1F
100
AcDbEntity
  8
0
  6
HIDDEN
 62
     7
370
     0
100
AcDbLine
 10
113.3163720734
 20
73.0209313136
 30
0.0
 11
113.3163720734
 21
78.7552371424
 31
0.0
  0
LINE
  5
182
330
1F
100
AcDbEntity
  8
0
  6
HIDDEN
 62
     7
370
     0
100
AcDbLine
 10
101.3163719691
 20
78.729592244
 30
0.0
 11
101.3163719691
 21
73.7680606347
 31
0.0
  0
LINE
  5
183
330
1F
100
AcDbEntity
  8
0
  6
HIDDEN
 62
     7
370
     0
100
AcDbLine
 10
181.3163720436
 20
104.2211139377
 30
0.0
 11
213.8163708516
 21
104.2211139377
 31
0.0
  0
LINE
  5
184
330
1F
100
AcDbEntity
  8
0
  6
HIDDEN
 62
     7
370
     0
100
AcDbLine
 10
213.8163708516
 20
116.2211140421
 30
0.0
 11
181.3163720436
 21
116.2211140421
 31
0.0
  0
LINE
  5
185
330
1F
100
AcDbEntity
  8
0
  6
HIDDEN
 62
     7
370
     0
100
AcDbLine
 10
170.8163731165
 20
115.2211138781
 30
0.0
 11
170.3163721033
 21
114.7211137962
 31
0.0
  0
LINE
  5
186
330
1F
100
AcDbEntity
  8
0
  6
HIDDEN
 62
     7
370
     0
100
AcDbLine
 10
170.3163721033
 20
105.7211141836
 30
0.0
 11
170.8163731165
 21
105.2211141017
 31
0.0
  0
LINE
  5
187
330
1F
100
AcDbEntity
  8
0
  6
HIDDEN
 62
     7
370
     0
100
AcDbLine
 10
150.6163720407
 20
105.7211141836
 30
0.0
 11
170.3163721033
 21
105.7211141836
 31
0.0
  0
LINE
  5
188
330
1F
100
AcDbEntity
  8
0
  6
HIDDEN
 62
     7
370
     0
100
AcDbLine
 10
170.3163721033
 20
114.7211137962
 30
0.0
 11
150.6163720407
 21
114.7211137962
 31
0.0
  0
LINE
  5
189
330
1F
100
AcDbEntity
  8
0
  6
HIDDEN
 62
     7
370
     0
100
AcDbLine
 10
167.7663699158
 20
95.2211143252
 30
0.0
 11
166.7663716145
 21
95.7984644722
 31
0.0
  0
LINE
  5
18A
330
1F
100
AcDbEntity
  8
0
  6
HIDDEN
 62
     7
370
     0
100
AcDbLine
 10
161.7663726576
 20
95.7984644722
 30
0.0
 11
160.766370631
 21
95.2211143252
 31
0.0
  0
LINE
  5
18B
330
1F
100
AcDbEntity
  8
0
  6
HIDDEN
 62
     7
370
     0
100
AcDbLine
 10
160.766370631
 20
125.2211136546
 30
0.0
 11
161.7663726576
 21
124.6437635076
 31
0.0
  0
LINE
  5
18C
330
1F
100
AcDbEntity
  8
0
  6
HIDDEN
 62
     7
370
     0
100
AcDbLine
 10
166.7663716145
 20
124.6437635076
 30
0.0
 11
167.7663699158
 21
125.2211136546
 31
0.0
  0
LINE
  5
18D
330
1F
100
AcDbEntity
  8
0
  6
HIDDEN
 62
     7
370
     0
100
AcDbLine
 10
161.7663726576
 20
124.6437635076
 30
0.0
 11
161.7663726576
 21
117.221114206
 31
0.0
  0
LINE
  5
18E
330
1F
100
AcDbEntity
  8
0
  6
HIDDEN
 62
     7
370
     0
100
AcDbLine
 10
166.7663716145
 20
117.221114206
 30
0.0
 11
166.7663716145
 21
124.6437635076
 31
0.0
  0
LINE
  5
18F
330
1F
100
AcDbEntity
  8
0
  6
HIDDEN
 62
     7
370
     0
100
AcDbLine
 10
161.7663726576
 20
117.221114206
 30
0.0
 11
164.2663702734
 21
115.7189626049
 31
0.0
  0
LINE
  5
190
330
1F
100
AcDbEntity
  8
0
  6
HIDDEN
 62
     7
370
     0
100
AcDbLine
 10
164.2663702734
 20
115.7189626049
 30
0.0
 11
166.7663716145
 21
117.221114206
 31
0.0
  0
LINE
  5
191
330
1F
100
AcDbEntity
  8
0
  6
HIDDEN
 62
     7
370
     0
100
AcDbLine
 10
166.7663716145
 20
95.7984644722
 30
0.0
 11
166.7663716145
 21
103.2211137738
 31
0.0
  0
LINE
  5
192
330
1F
100
AcDbEntity
  8
0
  6
HIDDEN
 62
     7
370
     0
100
AcDbLine
 10
161.7663726576
 20
103.2211137738
 30
0.0
 11
161.7663726576
 21
95.7984644722
 31
0.0
  0
LINE
  5
193
330
1F
100
AcDbEntity
  8
0
  6
HIDDEN
 62
     7
370
     0
100
AcDbLine
 10
166.7663716145
 20
103.2211137738
 30
0.0
 11
164.2663702734
 21
104.7232653748
 31
0.0
  0
LINE
  5
194
330
1F
100
AcDbEntity
  8
0
  6
HIDDEN
 62
     7
370
     0
100
AcDbLine
 10
164.2663702734
 20
104.7232653748
 30
0.0
 11
161.7663726576
 21
103.2211137738
 31
0.0
  0
LINE
  5
195
330
1F
100
AcDbEntity
  8
0
  6
HIDDEN
 62
     7
370
     0
100
AcDbLine
 10
171.3163704045
 20
119.7895947647
 30
0.0
 11
171.3163704045
 21
116.5193947766
 31
0.0
  0
LINE
  5
196
330
1F
100
AcDbEntity
  8
0
  6
HIDDEN
 62
     7
370
     0
100
AcDbLine
 10
171.3163704045
 20
123.0211136665
 30
0.0
 11
171.3163704045
 21
122.1500020277
 31
0.0
  0
LINE
  5
197
330
1F
100
AcDbEntity
  8
0
  6
HIDDEN
 62
     7
370
     0
100
AcDbLine
 10
174.3163727589
 20
122.1577962663
 30
0.0
 11
174.3163727589
 21
123.0211136665
 31
0.0
  0
LINE
  5
198
330
1F
100
AcDbEntity
  8
0
  6
HIDDEN
 62
     7
370
     0
100
AcDbLine
 10
174.3163727589
 20
116.5169104737
 30
0.0
 11
174.3163727589
 21
119.6596240428
 31
0.0
  0
LINE
  5
199
330
1F
100
AcDbEntity
  8
0
  6
HIDDEN
 62
     7
370
     0
100
AcDbLine
 10
171.3163704045
 20
98.2922259521
 30
0.0
 11
171.3163704045
 21
97.2211137217
 31
0.0
  0
LINE
  5
19A
330
1F
100
AcDbEntity
  8
0
  6
HIDDEN
 62
     7
370
     0
100
AcDbLine
 10
171.3163704045
 20
103.9258111071
 30
0.0
 11
171.3163704045
 21
100.6526332151
 31
0.0
  0
LINE
  5
19B
330
1F
100
AcDbEntity
  8
0
  6
HIDDEN
 62
     7
370
     0
100
AcDbLine
 10
174.3163727589
 20
100.782603937
 30
0.0
 11
174.3163727589
 21
103.9211139817
 31
0.0
  0
LINE
  5
19C
330
1F
100
AcDbEntity
  8
0
  6
HIDDEN
 62
     7
370
     0
100
AcDbLine
 10
174.3163727589
 20
97.2211137217
 30
0.0
 11
174.3163727589
 21
98.2844317135
 31
0.0
  0
LINE
  5
19D
330
1F
100
AcDbEntity
  8
0
  6
HIDDEN
 62
     7
370
     0
100
AcDbLine
 10
171.3163704045
 20
97.2211137217
 30
0.0
 11
172.8163734444
 21
96.3198235061
 31
0.0
  0
LINE
  5
19E
330
1F
100
AcDbEntity
  8
0
  6
HIDDEN
 62
     7
370
     0
100
AcDbLine
 10
172.8163734444
 20
96.3198235061
 30
0.0
 11
174.3163727589
 21
97.2211137217
 31
0.0
  0
LINE
  5
19F
330
1F
100
AcDbEntity
  8
0
  6
HIDDEN
 62
     7
370
     0
100
AcDbLine
 10
174.3133180209
 20
98.2805546176
 30
0.0
 11
217.3870467015
 21
99.9729260605
 31
0.0
  0
LINE
  5
1A0
330
1F
100
AcDbEntity
  8
0
  6
HIDDEN
 62
     7
370
     0
100
AcDbLine
 10
217.3163704939
 20
102.4720785011
 30
0.0
 11
174.3163727589
 21
100.782603937
 31
0.0
  0
LINE
  5
1A1
330
1F
100
AcDbEntity
  8
0
  6
HIDDEN
 62
     7
370
     0
100
AcDbLine
 10
174.3163727589
 20
119.6596240428
 30
0.0
 11
217.3163704939
 21
117.9701494787
 31
0.0
  0
LINE
  5
1A2
330
1F
100
AcDbEntity
  8
0
  6
HIDDEN
 62
     7
370
     0
100
AcDbLine
 10
217.3870467015
 20
120.4693019193
 30
0.0
 11
174.3133180209
 21
122.1616733622
 31
0.0
  0
LINE
  5
1A3
330
1F
100
AcDbEntity
  8
0
  6
HIDDEN
 62
     7
370
     0
100
AcDbLine
 10
171.3203378387
 20
122.15320764
 30
0.0
 11
170.6013381846
 21
121.0565529567
 31
0.0
  0
LINE
  5
1A4
330
1F
100
AcDbEntity
  8
0
  6
HIDDEN
 62
     7
370
     0
100
AcDbLine
 10
170.6013381846
 20
121.0565529567
 30
0.0
 11
171.3027619191
 21
119.7780296009
 31
0.0
  0
LINE
  5
1A5
330
1F
100
AcDbEntity
  8
0
  6
HIDDEN
 62
     7
370
     0
100
AcDbLine
 10
171.3027619191
 20
100.6641983789
 30
0.0
 11
170.6013381846
 21
99.3856750231
 31
0.0
  0
LINE
  5
1A6
330
1F
100
AcDbEntity
  8
0
  6
HIDDEN
 62
     7
370
     0
100
AcDbLine
 10
170.6013381846
 20
99.3856750231
 30
0.0
 11
171.3203378387
 21
98.2890203398
 31
0.0
  0
LINE
  5
1A7
330
1F
100
AcDbEntity
  8
0
  6
HIDDEN
 62
     7
370
     0
100
AcDbLine
 10
126.316371876
 20
157.7737182182
 30
0.0
 11
126.316371876
 21
155.8981761139
 31
0.0
  0
LINE
  5
1A8
330
1F
100
AcDbEntity
  8
0
  6
HIDDEN
 62
     7
370
     0
100
AcDbLine
 10
136.3163721182
 20
155.8926664096
 30
0.0
 11
136.3163721182
 21
157.7679849964
 31
0.0
  0
DIMENSION
  5
1A9
330
1F
100
AcDbEntity
  8
VERMASSUNG
100
AcDbDimension
  2
*D1
 10
64.7282231198
 20
60.2211139899
 30
0.0
 11
64.7282231198
 21
110.2211139899
 31
0.0
 70
   160
  1
HSK A %%c<>
 71
     2
 42
-1.0
  3
SLDDIMSTYLE0
100
AcDbAlignedDimension
 13
122.816371686
 23
160.2211139899
 33
0.0
 14
122.816371686
 24
60.2211139899
 34
0.0
 50
90.0
100
AcDbRotatedDimension
  0
DIMENSION
  5
1B6
330
1F
100
AcDbEntity
  8
VERMASSUNG
100
AcDbDimension
  2
*D2
 10
217.316371686
 20
158.2211139899
 30
0.0
 11
194.066371686
 21
158.2211139899
 31
0.0
 70
   160
 71
     2
 42
-1.0
  3
SLDDIMSTYLE1
100
AcDbAlignedDimension
 13
170.816371686
 23
116.1211139899
 33
0.0
 14
217.316371686
 24
120.3723330066
 34
0.0
 50
0.0
100
AcDbRotatedDimension
  0
DIMENSION
  5
1C1
330
1F
100
AcDbEntity
  8
VERMASSUNG
100
AcDbDimension
  2
*D3
 10
224.1462369447
 20
116.2211139899
 30
0.0
 11
224.1462369447
 21
110.2211139899
 31
0.0
 70
   160
  1
%%c<>
 71
     2
 42
-1.0
  3
SLDDIMSTYLE2
100
AcDbAlignedDimension
 13
213.816371686
 23
104.2211139899
 33
0.0
 14
213.816371686
 24
116.2211139899
 34
0.0
 50
90.0
100
AcDbRotatedDimension
  0
DIMENSION
  5
1CD
330
1F
100
AcDbEntity
  8
VERMASSUNG
100
AcDbDimension
  2
*D4
 10
230.1462369447
 20
122.2211139899
 30
0.0
 11
230.1462369447
 21
110.2211139899
 31
0.0
 70
   160
  1
%%c<>
 71
     2
 42
-1.0
  3
SLDDIMSTYLE3
100
AcDbAlignedDimension
 13
217.316371686
 23
98.2211139899
 33
0.0
 14
217.316371686
 24
122.2211139899
 34
0.0
 50
90.0
100
AcDbRotatedDimension
  0
DIMENSION
  5
1D9
330
1F
100
AcDbEntity
  8
VERMASSUNG
100
AcDbDimension
  2
*D5
 10
217.316371686
 20
170.2211139899
 30
0.0
 11
169.816371686
 21
170.2211139899
 31
0.0
 70
   160
 71
     2
 42
-1.0
  3
SLDDIMSTYLE0
100
AcDbAlignedDimension
 13
122.316371686
 23
159.7211139899
 33
0.0
 14
217.316371686
 24
120.3723330066
 34
0.0
100
AcDbRotatedDimension
  0
DIMENSION
  5
1E3
330
1F
100
AcDbEntity
  8
VERMASSUNG
100
AcDbDimension
  2
*D6
 10
217.316371686
 20
164.2211139899
 30
0.0
 11
184.291371686
 21
164.2211139899
 31
0.0
 70
   160
 71
     2
 42
-1.0
  3
SLDDIMSTYLE0
100
AcDbAlignedDimension
 13
151.266371686
 23
158.1898538107
 33
0.0
 14
217.316371686
 24
120.3590446384
 34
0.0
100
AcDbRotatedDimension
  0
DIMENSION
  5
1ED
330
1F
100
AcDbEntity
  8
VERMASSUNG
100
AcDbDimension
  2
*D7
 10
217.316371686
 20
176.2211139899
 30
0.0
 11
144.866371686
 21
176.2211139899
 31
0.0
 70
   160
 71
     2
 42
-1.0
  3
SLDDIMSTYLE0
100
AcDbAlignedDimension
 13
72.416371686
 23
140.7237837325
 33
0.0
 14
217.316371686
 24
120.3590446384
 34
0.0
100
AcDbRotatedDimension
  0
DIMENSION
  5
1F7
330
1F
100
AcDbEntity
  8
VERMASSUNG
100
AcDbDimension
  2
*D8
 10
236.1462369447
 20
95.2211139899
 30
0.0
 11
236.1462369447
 21
110.2211139899
 31
0.0
 70
   160
  1
%%c<>
 71
     2
 42
-1.0
  3
SLDDIMSTYLE0
100
AcDbAlignedDimension
 13
179.1977574775
 23
125.2211139899
 33
0.0
 14
179.1977574775
 24
95.2211139899
 34
0.0
 50
90.0
100
AcDbRotatedDimension
  0
LINE
  5
202
330
1F
100
AcDbEntity
  8
VERMASSUNG
  6
CENTERX2
370
     0
100
AcDbLine
 10
67.0487182264
 20
110.2211139899
 30
0.0
 11
219.3870461274
 21
110.2211139899
 31
0.0
  0
OLE2FRAME
  5
203
330
1F
100
AcDbEntity
  8
0
100
AcDbOle2Frame
 70
     2
  3
Bitmap Image
 10
13.8511154363
 20
38.264191557
 30
0.0
 11
51.6290888628
 21
31.9806341108
 31
0.0
 71
     2
 72
     0
 73
     1
 90
    12928
310
80552BED0767C5B32B40DDAF6807D121434000000000000000006FFBDDFB85D0
310
4940DDAF6807D121434000000000000000006FFBDDFB85D04940416F4BD60AFB
310
3F4000000000000000002BED0767C5B32B40416F4BD60AFB3F40000000000000
310
0000000000000100000000010000010000000100000000000100000000320000
310
D0CF11E0A1B11AE1000000000000000000000000000000003E000300FEFF0900
310
0600000000000000000000000100000001000000000000000010000002000000
310
01000000FEFFFFFF0000000000000000FFFFFFFFFFFFFFFFFFFFFFFFFFFFFFFF
310
FFFFFFFFFFFFFFFFFFFFFFFFFFFFFFFFFFFFFFFFFFFFFFFFFFFFFFFFFFFFFFFF
310
FFFFFFFFFFFFFFFFFFFFFFFFFFFFFFFFFFFFFFFFFFFFFFFFFFFFFFFFFFFFFFFF
310
FFFFFFFFFFFFFFFFFFFFFFFFFFFFFFFFFFFFFFFFFFFFFFFFFFFFFFFFFFFFFFFF
310
FFFFFFFFFFFFFFFFFFFFFFFFFFFFFFFFFFFFFFFFFFFFFFFFFFFFFFFFFFFFFFFF
310
FFFFFFFFFFFFFFFFFFFFFFFFFFFFFFFFFFFFFFFFFFFFFFFFFFFFFFFFFFFFFFFF
310
FFFFFFFFFFFFFFFFFFFFFFFFFFFFFFFFFFFFFFFFFFFFFFFFFFFFFFFFFFFFFFFF
310
FFFFFFFFFFFFFFFFFFFFFFFFFFFFFFFFFFFFFFFFFFFFFFFFFFFFFFFFFFFFFFFF
310
FFFFFFFFFFFFFFFFFFFFFFFFFFFFFFFFFFFFFFFFFFFFFFFFFFFFFFFFFFFFFFFF
310
FFFFFFFFFFFFFFFFFFFFFFFFFFFFFFFFFFFFFFFFFFFFFFFFFFFFFFFFFFFFFFFF
310
FFFFFFFFFFFFFFFFFFFFFFFFFFFFFFFFFFFFFFFFFFFFFFFFFFFFFFFFFFFFFFFF
310
FFFFFFFFFFFFFFFFFFFFFFFFFFFFFFFFFFFFFFFFFFFFFFFFFFFFFFFFFFFFFFFF
310
FFFFFFFFFFFFFFFFFFFFFFFFFFFFFFFFFFFFFFFFFFFFFFFFFFFFFFFFFFFFFFFF
310
FFFFFFFFFFFFFFFFFFFFFFFFFFFFFFFFFFFFFFFFFFFFFFFFFFFFFFFFFFFFFFFF
310
FDFFFFFFFEFFFFFFFEFFFFFFFEFFFFFF05000000060000000700000008000000
310
090000000A0000000B0000000C0000000D0000000E0000000F00000010000000
310
11000000120000001300000014000000150000001600000017000000FEFFFFFF
310
FFFFFFFFFFFFFFFFFFFFFFFFFFFFFFFFFFFFFFFFFFFFFFFFFFFFFFFFFFFFFFFF
310
FFFFFFFFFFFFFFFFFFFFFFFFFFFFFFFFFFFFFFFFFFFFFFFFFFFFFFFFFFFFFFFF
310
FFFFFFFFFFFFFFFFFFFFFFFFFFFFFFFFFFFFFFFFFFFFFFFFFFFFFFFFFFFFFFFF
310
FFFFFFFFFFFFFFFFFFFFFFFFFFFFFFFFFFFFFFFFFFFFFFFFFFFFFFFFFFFFFFFF
310
FFFFFFFFFFFFFFFFFFFFFFFFFFFFFFFFFFFFFFFFFFFFFFFFFFFFFFFFFFFFFFFF
310
FFFFFFFFFFFFFFFFFFFFFFFFFFFFFFFFFFFFFFFFFFFFFFFFFFFFFFFFFFFFFFFF
310
FFFFFFFFFFFFFFFFFFFFFFFFFFFFFFFFFFFFFFFFFFFFFFFFFFFFFFFFFFFFFFFF
310
FFFFFFFFFFFFFFFFFFFFFFFFFFFFFFFFFFFFFFFFFFFFFFFFFFFFFFFFFFFFFFFF
310
FFFFFFFFFFFFFFFFFFFFFFFFFFFFFFFFFFFFFFFFFFFFFFFFFFFFFFFFFFFFFFFF
310
FFFFFFFFFFFFFFFFFFFFFFFFFFFFFFFFFFFFFFFFFFFFFFFFFFFFFFFFFFFFFFFF
310
FFFFFFFFFFFFFFFFFFFFFFFFFFFFFFFFFFFFFFFFFFFFFFFFFFFFFFFFFFFFFFFF
310
FFFFFFFFFFFFFFFFFFFFFFFFFFFFFFFFFFFFFFFFFFFFFFFFFFFFFFFFFFFFFFFF
310
FFFFFFFFFFFFFFFFFFFFFFFFFFFFFFFFFFFFFFFFFFFFFFFFFFFFFFFFFFFFFFFF
310
52006F006F007400200045006E00740072007900000000000000000000000000
310
0000000000000000000000000000000000000000000000000000000000000000
310
16000500FFFFFFFFFFFFFFFF020000000A00030000000000C000000000000046
310
000000000000000000000000C024C24B8C08CC0103000000C000000000000000
310
01004F006C006500000000000000000000000000000000000000000000000000
310
0000000000000000000000000000000000000000000000000000000000000000
310
0A000200FFFFFFFFFFFFFFFFFFFFFFFF00000000000000000000000000000000
310
0000000000000000000000000000000000000000000000001400000000000000
310
010043006F006D0070004F0062006A0000000000000000000000000000000000
310
0000000000000000000000000000000000000000000000000000000000000000
310
120002010100000003000000FFFFFFFF00000000000000000000000000000000
310
0000000000000000000000000000000000000000010000004D00000000000000
310
01004F006C006500310030004E00610074006900760065000000000000000000
310
0000000000000000000000000000000000000000000000000000000000000000
310
1A000200FFFFFFFFFFFFFFFFFFFFFFFF00000000000000000000000000000000
310
0000000000000000000000000000000000000000040000002426000000000000
310
FEFFFFFF02000000FEFFFFFFFFFFFFFFFFFFFFFFFFFFFFFFFFFFFFFFFFFFFFFF
310
FFFFFFFFFFFFFFFFFFFFFFFFFFFFFFFFFFFFFFFFFFFFFFFFFFFFFFFFFFFFFFFF
310
FFFFFFFFFFFFFFFFFFFFFFFFFFFFFFFFFFFFFFFFFFFFFFFFFFFFFFFFFFFFFFFF
310
FFFFFFFFFFFFFFFFFFFFFFFFFFFFFFFFFFFFFFFFFFFFFFFFFFFFFFFFFFFFFFFF
310
FFFFFFFFFFFFFFFFFFFFFFFFFFFFFFFFFFFFFFFFFFFFFFFFFFFFFFFFFFFFFFFF
310
FFFFFFFFFFFFFFFFFFFFFFFFFFFFFFFFFFFFFFFFFFFFFFFFFFFFFFFFFFFFFFFF
310
FFFFFFFFFFFFFFFFFFFFFFFFFFFFFFFFFFFFFFFFFFFFFFFFFFFFFFFFFFFFFFFF
310
FFFFFFFFFFFFFFFFFFFFFFFFFFFFFFFFFFFFFFFFFFFFFFFFFFFFFFFFFFFFFFFF
310
FFFFFFFFFFFFFFFFFFFFFFFFFFFFFFFFFFFFFFFFFFFFFFFFFFFFFFFFFFFFFFFF
310
FFFFFFFFFFFFFFFFFFFFFFFFFFFFFFFFFFFFFFFFFFFFFFFFFFFFFFFFFFFFFFFF
310
FFFFFFFFFFFFFFFFFFFFFFFFFFFFFFFFFFFFFFFFFFFFFFFFFFFFFFFFFFFFFFFF
310
FFFFFFFFFFFFFFFFFFFFFFFFFFFFFFFFFFFFFFFFFFFFFFFFFFFFFFFFFFFFFFFF
310
FFFFFFFFFFFFFFFFFFFFFFFFFFFFFFFFFFFFFFFFFFFFFFFFFFFFFFFFFFFFFFFF
310
FFFFFFFFFFFFFFFFFFFFFFFFFFFFFFFFFFFFFFFFFFFFFFFFFFFFFFFFFFFFFFFF
310
FFFFFFFFFFFFFFFFFFFFFFFFFFFFFFFFFFFFFFFFFFFFFFFFFFFFFFFFFFFFFFFF
310
FFFFFFFFFFFFFFFFFFFFFFFFFFFFFFFFFFFFFFFFFFFFFFFFFFFFFFFFFFFFFFFF
310
0100000200000000000000000000000000000000500260012003E003B0024004
310
B002F00180030003B002800350023001B0028003800380033001500250024004
310
0100FEFF030A0000FFFFFFFF0A00030000000000C00000000000004607000000
310
5042727573680007000000504272757368000700000050427275736800F439B2
310
7100000000000000000000000003200320032003200320032003B002E0032003
310
200320032003800320032003B002B002B002B002B002B00280035002B002B002
310
B002B002F001F001500250028003B002B002B002B002B002B002B0028003B002
310
B002B002B002B002B002B0020000803F00000000000000006A00900000000004
310
680925000000000068092500000000000000000000000000000080BF00000000
310
0000000000000000000080BF0000000000000000000034430000803F00000000
310
000000000000000000000000000080BF00000000000000000000803F00000000
310
0000000000000000000000000000803F00000000000000000000000000000000
310
0000803F000000000000000000000000000000000000803F0400000000000000
310
4050A463FF0700003051A463FF0700006052A463FF070000E053A463FF070000
310
6052A463FF0700008050A463FF0700008051A463FF070000C052A463FF070000
310
6054A463FF070000E056A463FF070000D055A463FF0700000000000000000000
310
20260000424D0E260000000000003E00000028000000B40200006E0000000100
310
01000000000000000000130B0000130B00000200000002000000000000FFFFFF
310
FFFFFFFFFFFFFFFFFFFFFFFFFFFFFFFFFFFFFFFFFFFFFFFFFFFFFFFFFFFFFFFF
310
FFFFFFFFFFFFFFFFFFFFFFFFFFFFFFFFFFFFFFFFFFFFFFFFFFFFFFFFFFFFFFFF
310
FFFFFFFFFFFFFFFFFFFFFFFFFFFFFFFFFFFFFFFFFFFFFFFFF000FFFFFFFFFFFF
310
FFFFFFFFFFFFFFFFFFFFFFFFFFFFFFFFFFFFFFFFFFFFFFFFFFFFFFFFFFFFFFFF
310
FFFFFFFFFFFFFFFFFFFFFFFFFFFFFFFFFFFFFFFFFFFFFFFFFFFFFFFFFFFFFFFF
310
FFFFFFFFFFFFFFFFFFFFFFFFFFFFFFFFF000FFFFFFFFFFFFFFFFFFFFFFFFFFFF
310
FFFFFFFFFFFFFFFFFFFFFFFFFFFFFFFFFFFFFFFFFFFFFFFFFFFFFFFFFFFFFFFF
310
FFFFFFFFFFFFFFFFFFFFFFFFFFFFFFFFFFFFFFFFFFFFFFFFFFFFFFFFFFFFFFFF
310
FFFFFFFFFFFFFFFFF000FFFFFFFFFFFFFFFFFFFFFFFFFFFFFFFFFFFFFFFFFFFF
310
FFFFFFFFFFFFFFFFFFFFFFFFFFFFFFFFFFFFFFFFFFFFFFFFFFFFFFFFFFFFFFFF
310
FFFFFFFFFFFFFFFFFFFFFFFFFFFFFFFFFFFFFFFFFFFFFFFFFFFFFFFFFFFFFFFF
310
F000FFFFFFFFFFFFFFFFFFFFFFFFFFFFFFFFFFFFFFFFFFFFFFFFFFFFFFFFFFFF
310
FFFFFFFFFFFFFFFFFFFFFFFFFFFFFFFFFFFFFFFFFFFFFFFFFFFFFFFFFFFFFFFF
310
FFFFFFFFFFFFFFFFFFFFFFFFFFFFFFFFFFFFFFFFFFFFFFFFF000FFFFFFFFFFFF
310
FFFFFFFFFFFFFFFFFFFFFFFFFFFFFFFFFFFFFFFFFFFFFFFFFFFFFFFFFFFFFFFF
310
FFFFFFFFFFFFFFFFFFFFFFFFFFFFFFFFFFFFFFFFFFFFFFFFFFFFFFFFFFFFFFFF
310
FFFFFFFFFFFFFFFFFFFFFFFFFFFFFFFFF000FFFFFFFFFFFFFFFFFFFFFFFFFFFF
310
FFFFFFFFFFFFFFFFFFFFFFFFFFFFFFFFFFFFFFFFFFFFFFFFFFFFFFFFFFFFFFFF
310
FFFFFFFFFFFFFFFFFFFFFFFFFFFFFFFFFFFFFFFFFFFFFFFFFFFFFFFFFFFFFFFF
310
FFFFFFFFFFFFFFFFF000FFFFFFFFFFFFFFFFFFFFFFFFFFFFFFFFFFFFFFFFFFFF
310
FFFFFFFFFFFFFFFFFFFFFFFFFFFFFFFFFFFFFFFFFFFFFFFFFFFFFFFFFFFFFFFF
310
FFFFFFFFFFFFFFFFFFFFFFFFFFFFFFFFFFFFFFFFFFFFFFFFFFFFFFFFFFFFFFFF
310
F000FFFFFFFFFFFFFFFFFFFFFFFFFFFFFFFFFFFFFFFFFFFFFFFFFFFFFFFFFFFF
310
FFFFFFFFFFFFFFFFFFFFFFFFFFFFFFFFFFFFFFFFFFFFFFFFFFFFFFFFFFFFFFFF
310
FFFFFFFFFFFFFFFFFFFFFFFFFFFFFFFFFFFFFFFFFFFFFFFFF000FFFFFFFFFFFF
310
FFFFFFFFFFFFFFFFFFFFFFFFFFFFFFFFFFFFFFFFFFFFFFFFFFFFFFFFFFFFFFFF
310
FFFFFFFFFFFFFFFFFFFFFFFFFFFFFFFFFFFFFFFFFFFFFFFFFFFFFFFFFFFFFFFF
310
FFFFFFFFFFFFFFFFFFFFFFFFFFFFFFFFF000FFFFFFFFFFFFFFFFFFFFFFFFFFFF
310
FFFFFFFFFFFFFFFFFFFFFFFFFFFFFFFFFFFFFFFFFFFFFFFFFFFFFFFFFFFFFFFF
310
FFFFFFFFFFFFFFFFFFFFFFFFFFFFFFFFFFFFFFFFFFFFFFFFFFFFFFFFFFFFFFFF
310
FFFFFFFFFFFFFFFFF000FFFFFFFFFFFFFFFFFFFFFFFFFFFFFFFFFFFFFFFFFFFF
310
FFFFFFFFFFFFFFFFFFFFFFFFFFFFFFFFFFFFFFFFFFFFFFFFFFFFFFFFFFFFFFFF
310
FFFFFFFFFFFFFFFFFFFFFFFFFFFFFFFFFFFFFFFFFFFFFFFFFFFFFFFFFFFFFFFF
310
F000FFFFFFFFFFFFFFFFFFFFFFFFFFFFFFFFFFFFFFFFFFFFFFFFFFFFFFFFFFFF
310
FFFFFFFFFFFFFFFFFFFFFFFFFFFFFFFFFFFFFFFFFFFFFFFFFFFFFFFFFFFFFFFF
310
FFFFFFFFFFFFFFFFFFFFFFFFFFFFFFFFFFFFFFFFFFFFFFFFF000FFFFFFFFFFFF
310
FFFFFFFFFFFFFFFFFFFFFFFFFFFFFFFFFFFFFFFFFFFFFFFFFFFFFFFFFFFFFFFF
310
FFFFFFFFFFFFFFFFFFFFFFFFFFFFFFFFFFFFFFFFFFFFFFFFFFFFFFFFFFFFFFFF
310
FFFFFFFFFFFFFFFFFFFFFFFFFFFFFFFFF000FFFFFFFFFFFFFFFFFFFFFFFFFFFF
310
FFFFFFFFFFFFFFFFFFFFFFFFFFFFFFFFFFFFFFFFFFFFFFFFFFFFFFFFFFFFFFFF
310
FFFFFFFFFFFFFFFFFFFFFFFFFFFFFFFFFFFFFFFFFFFFFFFFFFFFFFFFFFFFFFFF
310
FFFFFFFFFFFFFFFFF000FFFFFFFFFFFFFFFFFFFFFFFFFFFFFFFFFFFFFFFFFFFF
310
FFFFFFFFFFFFFFFFFFFFFFFFFFFFFFFFFFFFFFFFFFFFFFFFFFFFFFFFFFFFFFFF
310
FFFFFFFFFFFFFFFFFFFFFFFFFFFFFFFFFFFFFFFFFFFFFFFFFFFFFFFFFFFFFFFF
310
F000FFFFFFFFFFFFFFFFFFFFFFFFFFFFFFFFFFFFFFFFFFFFFFFFFFFFFFFFFFFF
310
FFFFFFFFFFFFFFFFFFFFFFFFFFFFFFFFFFFFFFFFFFFFFFFFFFFFFFFFFFFFFFFF
310
FFFFFFFFFFFFFFFFFFFFFFFFFFFFFFFFFFFFFFFFFFFFFFFFF000FFFFFFFFFFFF
310
FFFFFFFFFFFFFFFFFFFFFFFFFFFFFFFFFFFFFFFFFFFFFFFFFFFFFFFFFFFFFFFF
310
FFFFFFFFFFFFFFFFFFFFFFFFFFFFFFFFFFFFFFFFFFFFFFFFFFFFFFFFFFFFFFFF
310
FFFFFFFFFFFFFFFFFFFFFFFFFFFFFFFFF000FFFFFFFFFFFFFFFFFFFFFFFFFFFF
310
FFFFFFFFFFFFFFFFFFFFFFFFFFFFFFFFFFFFFFFFFFFFFFFFFFFFFFFFFFFFFFFF
310
FFFFFFFFFFFFFFFFFFFFFFFFFFFFFFFFFFFFFFFFFFFFFFFFFFFFFFFFFFFFFFFF
310
FFFFFFFFFFFFFFFFF000FFFFF80003FFFFFFFFFFFFFFFFFFFFFFFFFFFFFFFFFF
310
FFFFF00007FFFFFFFFFF00007FFFFFF800000000000000007FFFFFFFFFFFFFFF
310
FFFFFFFC001FFFFFFFFFFFFFFC001FFFFFFFFFFFFFFFFFFFFFFFFFFE0007FFFF
310
F000FFFF8000007FFFFFFFF8000FFFFFC0007FFFFF80007FFFFF0000007FFFFF
310
FFF8000007FFFFF800000000000000007FFFFFF0001FFFFFFFFFFFC00001FFFF
310
FFFFFFFFC00001FFFFFFFF000000000003FFFFE000007FFFF000FFFE0000000F
310
FFFFFFF0000FFFFF80007FFFFF80007FFFFC0000001FFFFFFFC0000001FFFFF8
310
00000000000000007FFFFFF0001FFFFFFFFFFE0000003FFFFFFFFFFE0000003F
310
FFFFFF000000000003FFFF0000000FFFF000FFF800000003FFFFFFF00007FFFF
310
80007FFFFF80007FFFF000000007FFFFFF000000003FFFF80000000000000000
310
7FFFFFF0001FFFFFFFFFF80000000FFFFFFFFFF80000000FFFFFFF0000000000
310
03FFFC00000003FFF000FFE000000000FFFFFFF00007FFFF80003FFFFF80007F
310
FFC000000001FFFFFC000000001FFFF800000000000000007FFFFFF0001FFFFF
310
FFFFE000000003FFFFFFFFE000000003FFFFFF000000000003FFF000000000FF
310
F000FF80000000007FFFFFF00007FFFF80003FFFFF80007FFF8000000000FFFF
310
F80000000007FFF800000000000000007FFFFFF0001FFFFFFFFFC000000001FF
310
FFFFFFC000000001FFFFFF000000000003FFC0000000007FF000FF0000000000
310
3FFFFFE00007FFFF00003FFFFF80007FFE00000000003FFFF00000000003FFF8
310
00000000000000007FFFFFF0001FFFFFFFFF8000000000FFFFFFFF8000000000
310
FFFFFF000000000003FF80000000003FF000FE00000000001FFFFFE00003FFFF
310
00003FFFFF80007FFC00000000001FFFE00000000001FFF8000001FFFE000000
310
7FFFFFF0001FFFFFFFFE00000000003FFFFFFE00000000003FFFFF0000000000
310
03FF00000000001FF000FC00000000000FFFFFE00003FFFF00001FFFFF80007F
310
F800000000001FFFC00000000000FFF8000001FFFE0000007FFFFFF0001FFFFF
310
FFFC00000000001FFFFFFC00000000001FFFFF000000000003FE00000000000F
310
F000F8000000000007FFFFE00003FFFF00001FFFFF80007FF800000000000FFF
310
800000000000FFF8000001FFFE0000007FFFFFF0001FFFFFFFF800000000000F
310
FFFFF800000000000FFFFF000000000003FC000000000007F000F80000000000
310
03FFFFC00003FFFE00001FFFFF80007FF0000000000007FF0000000000007FF8
310
000001FFFE0000007FFFFFF0001FFFFFFFF0000000000007FFFFF00000000000
310
07FFFF000000000003F8000000000003F000F0000000000003FFFFC00001FFFE
310
00001FFFFF80007FE0000000000007FE0000000000003FF8000001FFFE000000
310
7FFFFFF0001FFFFFFFF0000000000007FFFFF0000000000007FFFF0000000000
310
03F800001F800003F000E00001FFF00001FFFFC00001FFFE00000FFFFF80007F
310
E00001FFE00003FE00001FFF00003FF8000001FFFE0000007FFFFFF0001FFFFF
310
FFE000003E000003FFFFE000003E000003FFFF000000000003F00001FFF80001
310
F000E00007FFFC0001FFFFC00001FFFE00000FFFFF80007FC0000FFFFC0003FC
310
0000FFFFC0001FF8000001FFFE0000007FFFFFF0001FFFFFFFC00003FFE00001
310
FFFFC00003FFE00001FFFF0001FFFFFFFFF00007FFFE0001F000E0000FFFFF00
310
00FFFF800001FFFC00000FFFFF80007FC0001FFFFE0001FC0001FFFFE0001FF8
310
000001FFFE0000007FFFFFF0001FFFFFFF80000FFFF80000FFFF80000FFFF800
310
00FFFF0003FFFFFFFFE0000FFFFF8000F000C0003FFFFF8000FFFF800000FFFC
310
000007FFFF80007F80003FFFFF0001FC0003FFFFF0001FF8000001FFFE000000
310
7FFFFFF0001FFFFFFF80003FFFFE0000FFFF80003FFFFE0000FFFF0003FFFFFF
310
FFE0003FFFFF8000F000C0003FFFFF8000FFFF800000FFFC000007FFFF80007F
310
80007FFFFF8001F80007FFFFF8000FF8000001FFFE0000007FFFFFF0001FFFFF
310
FF00007FFFFF00007FFF00007FFFFF00007FFF0003FFFFFFFFE0003FFFFFC000
310
F000C0007FFFFFC000FFFF000000FFFC000007FFFF80007F8000FFFFFF8000F8
310
000FFFFFF8000FF8000001FFFE0000007FFFFFF0001FFFFFFF0000FFFFFF8000
310
7FFF0000FFFFFF80007FFF0003FFFFFFFFC0007FFFFFC00070008000FFFFFFC0
310
00FFFF000000FFF8000007FFFF80007F8000FFFFFF8000F8000FFFFFF8000FF8
310
000001FFFE0000007FFFFFF0001FFFFFFE0001FFFFFFC0003FFE0001FFFFFFC0
310
003FFF0003FFFFFFFFC0007FFFFFE00070008000FFFFFFC0007FFF0000007FF8
310
000003FFFF80007F0001FFFFFF8000F8000FFFFFF8000FF8000001FFFE000000
310
7FFFFFF0001FFFFFFE0001FFFFFFC0003FFE0001FFFFFFC0003FFF0003FFFFFF
310
FFC000FFFFFFE00070008000FFFFFFC0007FFF0000007FF8000003FFFF80007F
310
0001FFFFFF8000F8001FFFFFF8000FF8000001FFFE0000007FFFFFF0001FFFFF
310
FE0003FFFFFFE0003FFE0003FFFFFFE0003FFF0003FFFFFFFFC000FFFFFFE000
310
70008000FFFFFFC0007FFE0000007FF8000003FFFF80007F0001FFFFFF8000F0
310
001FFFFFF8000FF8000001FFFE0000007FFFFFF0001FFFFFFC0003FFFFFFE000
310
1FFC0003FFFFFFE0001FFF0003FFFFFFFFC000FFFFFFC00070008000FFFFFF80
310
007FFE0000007FF0000003FFFF80007F0001FFFFFF0000F0001FFFFFF8000FF8
310
000001FFFE0000007FFFFFF0001FFFFFFC0007FFFFFFF0001FFC0007FFFFFFF0
310
001FFF0003FFFFFFFFC000FFFFFFC00070008001FFFFFF0000FFFE0000003FF0
310
000001FFFF80007F0001FFFFFF0000F8001FFFFFF0000FF8000001FFFE000000
310
7FFFFFF0001FFFFFFC0007FFFFFFF0001FFC0007FFFFFFF0001FFF0003FFFFFF
310
FFC001FFFFFF80007000FFFFFFFFFE0000FFFE0008003FF0008001FFFF80007F
310
FFFFFFFFFC0000FFFFFFFFFFE0000FF8000001FFFE0000007FFFFFF0001FFFFF
310
F8000FFFFFFFF8000FF8000FFFFFFFF8000FFF0003FFFFFFFFFFFFFFFFFF0000
310
7000FFFFFFFFFC0000FFFC0008003FF0008001FFFF80007FFFFFFFFFF80001FF
310
FFFFFFFF80000FF8000001FFFE0000007FFFFFF0001FFFFFF8000FFFFFFFF800
310
0FF8000FFFFFFFF8000FFF0003FFFFFFFFFFFFFFFFFE0000F000FFFFFFFFE000
310
00FFFC000C003FE000C001FFFF80007FFFFFFFFFC00001FFFFFFFFFE00001FF8
310
000001FFFE0000007FFFFFF0001FFFFFF8000FFFFFFFF8000FF8000FFFFFFFF8
310
000FFF0003FFFFFFFFFFFFFFFFF00000F000FFFFFFFE000001FFFC000C001FE0
310
00C000FFFF80007FFFFFFFFE000001FFFFFFFFE000001FF80FFFFFFFFFFFFFC0
310
7FFFFFF0001FFFFFF8000FFFFFFFF8000FF8000FFFFFFFF8000FFF0003FFFFFF
310
FFFFFFFFFF800000F000FFFFFFC0000001FFFC001C001FE001C000FFFF80007F
310
FFFFFF80000003FFFFFFF80000001FF80FFFFFFFFFFFFFC07FFFFFF0001FFFFF
310
F8001FFFFFFFFC000FF8001FFFFFFFFC000FFF0003FFFFFFFFFFFFFFF0000001
310
F000FFFFF800000001FFF8001C001FE001C000FFFF80007FFFFFF800000003FF
310
FFFF800000003FF80FFFFFFFFFFFFFC07FFFFFF0001FFFFFF8001FFFFFFFFC00
310
0FF8001FFFFFFFFC000FFF0003FFFFFFFFFFFFFE00000001F000FFFFC0000000
310
03FFF8001E001FC001E000FFFF80007FFFFF8000000007FFFFFC000000003FF8
310
0FFFFFFFFFFFFFC07FFFFFF0001FFFFFF8001FFFFFFFFC000FF8001FFFFFFFFC
310
000FFF0003FFFFFFFFFFFFE000000003F000FFFE0000000007FFF8001E000FC0
310
01E0007FFF80007FFFFE0000000007FFFFE0000000007FF80FFFFFFFFFFFFFC0
310
7FFFFFF0001FFFFFF0001FFFFFFFFC0007F0001FFFFFFFFC0007FF0003FFFFFF
310
FFFFFF0000000003F000FFF80000000007FFF8001E000FC003E0007FFF80007F
310
FFF0000000000FFFFF8000000000FFF80FFFFFFFFFFFFFC07FFFFFF0001FFFFF
310
F0001FFFFFFFFC0007F0001FFFFFFFFC0007FF0003FFFFFFFFFFFC0000000007
310
F000FFE0000000000FFFF0003E000FC003E0007FFF80007FFFC0000000001FFF
310
FE0000000001FFF80FFFFFFFFFFFFFC07FFFFFF0001FFFFFF0001FFFFFFFFC00
310
07F0001FFFFFFFFC0007FF0003FFFFFFFFFFF0000000000FF000FFC000000000
310
1FFFF0003F000F8003F0003FFF80007FFF80000000003FFFF80000000003FFF8
310
0FFFFFFFFFFFFFC07FFFFFF0001FFFFFF0001FFFFFFFFC0007F0001FFFFFFFFC
310
0007FF0003FFFFFFFFFFE0000000001FF000FF00000000007FFFF0003F000780
310
03F0003FFF80007FFF00000000007FFFF00000000007FFF80FFFFFFFFFFFFFC0
310
7FFFFFF0001FFFFFF0001FFFFFFFFC0007F0001FFFFFFFFC0007FF0003FFFFFF
310
FFFF80000000007FF000FE0000000000FFFFE0003F00078007F0003FFF80007F
310
FE0000000001FFFFE0000000001FFFF80FFFFFFFFFFFFFC07FFFFFF0001FFFFF
310
F0001FFFFFFFFC0007F0001FFFFFFFFC0007FF0003FFFFFFFFFF0000000000FF
310
F000FC0000000003FFFFE0007F00078007F0003FFF80007FFC0000000007FFFF
310
C0000000007FFFF80FFFFFFFFFFFFFC07FFFFFF0001FFFFFF8001FFFFFFFFC00
310
0FF8001FFFFFFFFC000FFF0003FFFFFFFFFE0000000003FFF000FC000000000F
310
FFFFE0007F80070007F8001FFF80007FF8000000001FFFFF8000000001FFFFF8
310
0FFFFFFFFFFFFFC07FFFFFF0001FFFFFF8001FFFFFFFFC000FF8001FFFFFFFFC
310
000FFF0003FFFFFFFFFC000000000FFFF000F8000000007FFFFFE0007F800700
310
07F8001FFF80007FF000000000FFFFFF800000000FFFFFF80FFFFFFFFFFFFFC0
310
7FFFFFF0001FFFFFF8000FFFFFFFF8000FF8000FFFFFFFF8000FFF0003FFFFFF
310
FFFC000000007FFFF000F800000007FFFFFFC0007F8003000FF8001FFF80007F
310
F000000007FFFFFF000000007FFFFFF80FFFFFFFFFFFFFC07FFFFFF0001FFFFF
310
F8000FFFFFFFF8000FF8000FFFFFFFF8000FFF0003FFFFFFFFF80000000FFFFF
310
F000F0000000FFFFFFFFC000FF8003000FF8001FFF80007FE0000000FFFFFFFF
310
0000000FFFFFFFF8000001FFFE0000007FFFFFF0001FFFFFF8000FFFFFFFF800
310
0FF8000FFFFFFFF8000FFF0003FFFFFFFFF8000000FFFFFFF000F000000FFFFF
310
FFFFC000FFC002000FF8000FFF80007FE000001FFFFFFFFE000001FFFFFFFFF8
310
000001FFFE0000007FFFFFF0001FFFFFF8000FFFFFFFF8000FF8000FFFFFFFF8
310
000FFF0003FFFFFFFFF000001FFFFFFFF000E00000FFFFFFFFFFC000FFC00200
310
0FFC000FFF80007FE00001FFFFFFFFFE00001FFFFFFFFFF8000001FFFE000000
310
7FFFFFF0001FFFFFFC000FFFFFFFF8001FFC000FFFFFFFF8001FFF0003FFFFFF
310
FFF00001FFFFFFFFF000E00007FFFFFFFFFF8000FFC000001FFC000FFF80007F
310
C0000FFFFFFFFFFE0000FFFFFFFFFFF8000001FFFE0000007FFFFFF0001FFFFF
310
FC0007FFFFFFF0001FFC0007FFFFFFF0001FFF0003FFFFFFFFF00007FFFFFFFF
310
F000E0001FFFFFFFFFFF8000FFC000001FFC000FFF80007FC0003FFFFFFFFFFE
310
0001FFFFFFFFFFF8000001FFFE0000007FFFFFF0001FFFFFFC0007FFFFFFF000
310
1FFC0007FFFFFFF0001FFF0003FFFFFFFFF0001FFFFFFFFFF000E0003FFFFF00
310
03FF8001FFE000001FFC0007FF80007FC0007FFFFF0007FC0003FFFFF0003FF8
310
000001FFFE0000007FFFFFF0001FFFFFFC0003FFFFFFE0001FFC0003FFFFFFE0
310
001FFF0003FFFFFFFFF0003FFFFFFFFFF000E0003FFFFF0001FF8001FFE00000
310
1FFE0007FF80007FC0007FFFFE0003FC0007FFFFE0003FF8000001FFFE000000
310
7FFFFFF0001FFFFFFE0003FFFFFFE0003FFE0003FFFFFFE0003FFF0003FFFFFF
310
FFF0003FFFFF8001F000E0003FFFFF0001FF0001FFE000001FFE0007FF80007F
310
C0007FFFFE0003FC0007FFFFE0003FF8000001FFFE0000007FFFFFF0001FFFFF
310
FE0001FFFFFFC0003FFE0001FFFFFFC0003FFF0003FFFFFFFFF0003FFFFF0001
310
F000E0003FFFFF0003FF0001FFE000003FFE0007FF80007FC0007FFFFE0003FC
310
0007FFFFE0003FF8000001FFFE0000007FFFFFF0001FFFFFFF0001FFFFFFC000
310
7FFF0001FFFFFFC0007FFF0003FFFFFFFFF0003FFFFF0001F000E0003FFFFE00
310
03FF0003FFF000003FFE0003FF80007FC0007FFFFC0003FE0007FFFFE0003FF8
310
000001FFFE0000007FFFFFF0001FFFFFFF0000FFFFFF80007FFF0000FFFFFF80
310
007FFF0003FFFFFFFFF0003FFFFF0001F000E0003FFFFE0003FF0003FFF00000
310
3FFF0003FF80007FC0007FFFFC0007FE0007FFFFC0003FF8000001FFFE000000
310
7FFFFFF0001FFFFFFF80007FFFFF0000FFFF80007FFFFF0000FFFF0003FFFFFF
310
FFF0003FFFFF0003F000E0003FFFFC0003FE0003FFF000003FFF0003FF80007F
310
E0003FFFF80007FE0003FFFFC0007FF8000001FFFE0000007FFFFFF0001FFFFF
310
FF80003FFFFE0000FFFF80003FFFFE0000FFFF0003FFFFFFFFF0001FFFFE0003
310
F000F0001FFFF80003FE0003FFF000007FFF0001FF80007FE0003FFFF00007FE
310
0001FFFF80007FF8000001FFFE0000007FFFFFF0001FFFFFFFC0000FFFF80001
310
FFFFC0000FFFF80001FFFF0003FFFFFFFFF0001FFFFC0003F000F0000FFFF000
310
07FE0007FFF800007FFF0001FF80007FE0001FFFE00007FF0000FFFE00007FF8
310
000001FFFE0000007FFFFFF0001FFFFFFFC00003FFE00001FFFFC00003FFE000
310
01FFFF0003FFFFFFFFF8000FFFF80003F000F00003FFC00007FC0007FFF80000
310
7FFF8001FF80007FF00007FF80000FFF00007FF80000FFF8000001FFFE000000
310
7F80000000000001FFE000003E000003FFFFE000003E000003FFFF0003FFFFFF
310
FFF80003FFE00007F000F800000000000FFC0007FFF800007FFF8001FF80007F
310
F000000000000FFF000000000000FFF8000001FFFE0000007F80000000000001
310
FFF0000000000007FFFFF0000000000007FFFF0003FFFFFFFFFC00007E000007
310
F000F800000000000FFC0007FFF80000FFFF8000FF80007FF800000000001FFF
310
800000000001FFF8000001FFFE0000007F80000000000001FFF800000000000F
310
FFFFF800000000000FFFFF0003FFFFFFFFFC00000000000FF000FC0000000000
310
1FFC0007FFFC0000FFFF8000FF80007FF800000000003FFFC00000000001FFF8
310
000001FFFE0000007F80000000000001FFF800000000000FFFFFF80000000000
310
0FFFFF0003FFFFFFFFFE00000000001FF000FE00000000003FF8000FFFFC0000
310
FFFF8000FF80007FFC00000000003FFFC00000000003FFF8000001FFFE000000
310
7F80000000000001FFFC00000000001FFFFFFC00000000001FFFFF0003FFFFFF
310
FFFF00000000001FF000FF00000000003FF8000FFFFC0000FFFFC000FF80007F
310
FE00000000007FFFE00000000007FFF8000001FFFE0000007F80000000000001
310
FFFE00000000003FFFFFFE00000000003FFFFF0003FFFFFFFFFF80000000003F
310
F000FF80000000007FF8000FFFFC0001FFFFC0007F80007FFF0000000000FFFF
310
F0000000000FFFF800000000000000007F80000000000001FFFF8000000000FF
310
FFFFFF8000000000FFFFFF0003FFFFFFFFFFC0000000007FF000FFC000000000
310
FFF8000FFFFE0001FFFFC0007F80007FFF8000000001FFFFF8000000001FFFF8
310
00000000000000007F80000000000001FFFFC000000001FFFFFFFFC000000001
310
FFFFFF0003FFFFFFFFFFE000000000FFF000FFE000000003FFF0001FFFFE0001
310
FFFFC0007F80007FFFC000000007FFFFFE000000003FFFF80000000000000000
310
7F80000000000001FFFFE000000003FFFFFFFFE000000003FFFFFF0003FFFFFF
310
FFFFF000000003FFF000FFF80000000FFFF0001FFFFE0001FFFFE0007F80007F
310
FFF00000000FFFFFFF00000000FFFFF800000000000000007F80000000000001
310
FFFFF80000000FFFFFFFFFF80000000FFFFFFF0003FFFFFFFFFFFC0000000FFF
310
F000FFFE0000003FFFF0001FFFFE0003FFFFE0003F80007FFFFC0000003FFFFF
310
FFC0000003FFFFF800000000000000007F80000000000001FFFFFE0000003FFF
310
FFFFFFFE0000003FFFFFFF0003FFFFFFFFFFFF0000003FFFF000FFFF800000FF
310
FFF0001FFFFF0003FFFFE0003F80007FFFFF000001FFFFFFFFF800001FFFFFF8
310
00000000000000007F80000000000001FFFFFFC00001FFFFFFFFFFFFC00001FF
310
FFFFFF0003FFFFFFFFFFFFC00000FFFFF000FFFFF8000FFFFFFFFFFFFFFFFFFF
310
FFFFFFFFFFFFFFFFFFFFF0001FFFFFFFFFFF0000FFFFFFF80000000000000000
310
7FFFFFFFFFFFFFFFFFFFFFFC001FFFFFFFFFFFFFFC001FFFFFFFFFFFFFFFFFFF
310
FFFFFFFC001FFFFFF000FFFFFFFFFFFFFFFFFFFFFFFFFFFFFFFFFFFFFFFFFFFF
310
FFFFFFFFFFFFFFFFFFFFFFFFFFFFFFFFFFFFFFFFFFFFFFFFFFFFFFFFFFFFFFFF
310
FFFFFFFFFFFFFFFFFFFFFFFFFFFFFFFFFFFFFFFFFFFFFFFFFFFFFFFFFFFFFFFF
310
F000FFFFFFFFFFFFFFFFFFFFFFFFFFFFFFFFFFFFFFFFFFFFFFFFFFFFFFFFFFFF
310
FFFFFFFFFFFFFFFFFFFFFFFFFFFFFFFFFFFFFFFFFFFFFFFFFFFFFFFFFFFFFFFF
310
FFFFFFFFFFFFFFFFFFFFFFFFFFFFFFFFFFFFFFFFFFFFFFFFF000FFFFFFFFFFFF
310
FFFFFFFFFFFFFFFFFFFFFFFFFFFFFFFFFFFFFFFFFFFFFFFFFFFFFFFFFFFFFFFF
310
FFFFFFFFFFFFFFFFFFFFFFFFFFFFFFFFFFFFFFFFFFFFFFFFFFFFFFFFFFFFFFFF
310
FFFFFFFFFFFFFFFFFFFFFFFFFFFFFFFFF000FFFFFFFFFFFFFFFFFFFFFFFFFFFF
310
FFFFFFFFFFFFFFFFFFFFFFFFFFFFFFFFFFFFFFFFFFFFFFFFFFFFFFFFFFFFFFFF
310
FFFFFFFFFFFFFFFFFFFFFFFFFFFFFFFFFFFFFFFFFFFFFFFFFFFFFFFFFFFFFFFF
310
FFFFFFFFFFFFFFFFF000FFFFFFFFFFFFFFFFFFFFFFFFFFFFFFFFFFFFFFFFFFFF
310
FFFFFFFFFFFFFFFFFFFFFFFFFFFFFFFFFFFFFFFFFFFFFFFFFFFFFFFFFFFFFFFF
310
FFFFFFFFFFFFFFFFFFFFFFFFFFFFFFFFFFFFFFFFFFFFFFFFFFFFFFFFFFFFFFFF
310
F000FFFFFFFFFFFFFFFFFFFFFFFFFFFFFFFFFFFFFFFFFFFFFFFFFFFFFFFFFFFF
310
FFFFFFFFFFFFFFFFFFFFFFFFFFFFFFFFFFFFFFFFFFFFFFFFFFFFFFFFFFFFFFFF
310
FFFFFFFFFFFFFFFFFFFFFFFFFFFFFFFFFFFFFFFFFFFFFFFFF000FFFFFFFFFFFF
310
FFFFFFFFFFFFFFFFFFFFFFFFFFFFFFFFFFFFFFFFFFFFFFFFFFFFFFFFFFFFFFFF
310
FFFFFFFFFFFFFFFFFFFFFFFFFFFFFFFFFFFFFFFFFFFFFFFFFFFFFFFFFFFFFFFF
310
FFFFFFFFFFFFFFFFFFFFFFFFFFFFFFFFF000FFFFFFFFFFFFFFFFFFFFFFFFFFFF
310
FFFFFFFFFFFFFFFFFFFFFFFFFFFFFFFFFFFFFFFFFFFFFFFFFFFFFFFFFFFFFFFF
310
FFFFFFFFFFFFFFFFFFFFFFFFFFFFFFFFFFFFFFFFFFFFFFFFFFFFFFFFFFFFFFFF
310
FFFFFFFFFFFFFFFFF000FFFFFFFFFFFFFFFFFFFFFFFFFFFFFFFFFFFFFFFFFFFF
310
FFFFFFFFFFFFFFFFFFFFFFFFFFFFFFFFFFFFFFFFFFFFFFFFFFFFFFFFFFFFFFFF
310
FFFFFFFFFFFFFFFFFFFFFFFFFFFFFFFFFFFFFFFFFFFFFFFFFFFFFFFFFFFFFFFF
310
F000FFFFFFFFFFFFFFFFFFFFFFFFFFFFFFFFFFFFFFFFFFFFFFFFFFFFFFFFFFFF
310
FFFFFFFFFFFFFFFFFFFFFFFFFFFFFFFFFFFFFFFFFFFFFFFFFFFFFFFFFFFFFFFF
310
FFFFFFFFFFFFFFFFFFFFFFFFFFFFFFFFFFFFFFFFFFFFFFFFF000FFFFFFFFFFFF
310
FFFFFFFFFFFFFFFFFFFFFFFFFFFFFFFFFFFFFFFFFFFFFFFFFFFFFFFFFFFFFFFF
310
FFFFFFFFFFFFFFFFFFFFFFFFFFFFFFFFFFFFFFFFFFFFFFFFFFFFFFFFFFFFFFFF
310
FFFFFFFFFFFFFFFFFFFFFFFFFFFFFFFFF000FFFFFFFFFFFFFFFFFFFFFFFFFFFF
310
FFFFFFFFFFFFFFFFFFFFFFFFFFFFFFFFFFFFFFFFFFFFFFFFFFFFFFFFFFFFFFFF
310
FFFFFFFFFFFFFFFFFFFFFFFFFFFFFFFFFFFFFFFFFFFFFFFFFFFFFFFFFFFFFFFF
310
FFFFFFFFFFFFFFFFF000FFFFFFFFFFFFFFFFFFFFFFFFFFFFFFFFFFFFFFFFFFFF
310
FFFFFFFFFFFFFFFFFFFFFFFFFFFFFFFFFFFFFFFFFFFFFFFFFFFFFFFFFFFFFFFF
310
FFFFFFFFFFFFFFFFFFFFFFFFFFFFFFFFFFFFFFFFFFFFFFFFFFFFFFFFFFFFFFFF
310
F000FFFFFFFFFFFFFFFFFFFFFFFFFFFFFFFFFFFFFFFFFFFFFFFFFFFFFFFFFFFF
310
FFFFFFFFFFFFFFFFFFFFFFFFFFFFFFFFFFFFFFFFFFFFFFFFFFFFFFFFFFFFFFFF
310
FFFFFFFFFFFFFFFFFFFFFFFFFFFFFFFFFFFFFFFFFFFFFFFFF000FFFFFFFFFFFF
310
FFFFFFFFFFFFFFFFFFFFFFFFFFFFFFFFFFFFFFFFFFFFFFFFFFFFFFFFFFFFFFFF
310
FFFFFFFFFFFFFFFFFFFFFFFFFFFFFFFFFFFFFFFFFFFFFFFFFFFFFFFFFFFFFFFF
310
FFFFFFFFFFFFFFFFFFFFFFFFFFFFFFFFF000FFFFFFFFFFFFFFFFFFFFFFFFFFFF
310
FFFFFFFFFFFFFFFFFFFFFFFFFFFFFFFFFFFFFFFFFFFFFFFFFFFFFFFFFFFFFFFF
310
FFFFFFFFFFFFFFFFFFFFFFFFFFFFFFFFFFFFFFFFFFFFFFFFFFFFFFFFFFFFFFFF
310
FFFFFFFFFFFFFFFFF000FFFFFFFFFFFFFFFFFFFFFFFFFFFFFFFFFFFFFFFFFFFF
310
FFFFFFFFFFFFFFFFFFFFFFFFFFFFFFFFFFFFFFFFFFFFFFFFFFFFFFFFFFFFFFFF
310
FFFFFFFFFFFFFFFFFFFFFFFFFFFFFFFFFFFFFFFFFFFFFFFFFFFFFFFFFFFFFFFF
310
F000FFFFFFFFFFFFFFFFFFFFFFFFFFFFFFFFFFFFFFFFFFFFFFFFFFFFFFFFFFFF
310
FFFFFFFFFFFFFFFFFFFFFFFFFFFFFFFFFFFFFFFFFFFFFFFFFFFFFFFFFFFFFFFF
310
FFFFFFFFFFFFFFFFFFFFFFFFFFFFFFFFFFFFFFFFFFFFFFFFF000FFFFFFFFFFFF
310
FFFFFFFFFFFFFFFFFFFFFFFFFFFFFFFFFFFFFFFFFFFFFFFFFFFFFFFFFFFFFFFF
310
FFFFFFFFFFFFFFFFFFFFFFFFFFFFFFFFFFFFFFFFFFFFFFFFFFFFFFFFFFFFFFFF
310
FFFFFFFFFFFFFFFFFFFFFFFFFFFFFFFFF000FFFFFFFFFFFFFFFFFFFFFFFFFFFF
310
FFFFFFFFFFFFFFFFFFFFFFFFFFFFFFFFFFFFFFFFFFFFFFFFFFFFFFFFFFFFFFFF
310
FFFFFFFFFFFFFFFFFFFFFFFFFFFFFFFFFFFFFFFFFFFFFFFFFFFFFFFFFFFFFFFF
310
FFFFFFFFFFFFFFFFF000FFFFFFFFFFFFFFFFFFFFFFFFFFFFFFFFFFFFFFFFFFFF
310
FFFFFFFFFFFFFFFFFFFFFFFFFFFFFFFFFFFFFFFFFFFFFFFFFFFFFFFFFFFFFFFF
310
FFFFFFFFFFFFFFFFFFFFFFFFFFFFFFFFFFFFFFFFFFFFFFFFFFFFFFFFFFFFFFFF
310
F000FFFFFFFFFFFFFFFFFFFFFFFFFFFFFFFFFFFFFFFFFFFFFFFFFFFFFFFFFFFF
310
FFFFFFFFFFFFFFFFFFFFFFFFFFFFFFFFFFFFFFFFFFFFFFFFFFFFFFFFFFFFFFFF
310
FFFFFFFFFFFFFFFFFFFFFFFFFFFFFFFFFFFFFFFFFFFFFFFFF000FFFFFFFFFFFF
310
FFFFFFFFFFFFFFFFFFFFFFFFFFFFFFFFFFFFFFFFFFFFFFFFFFFFFFFFFFFFFFFF
310
FFFFFFFFFFFFFFFFFFFFFFFFFFFFFFFFFFFFFFFFFFFFFFFFFFFFFFFFFFFFFFFF
310
FFFFFFFFFFFFFFFFFFFFFFFFFFFFFFFFF0000000000000000000000000000000
310
00000000000000000000000042006C00610063006B0000000000000000000000
310
0000000000000000000000000000000000000000000000000000000000000000
310
0000000000000000000000000000FFFFFFFFFFFFFFFFFFFFFFFFFFFFFFFFFFFF
310
FFFFFFFFFFFFFFFFFFFFFFFFFFFFFFFFFFFFFFFFFFFFFFFFFFFFFFFFFFFFFFFF
310
FFFFFFFFFFFFFFFFFFFFFFFF6476000800000000FFFFFFFF20FF202026000000
310
1E00000008000000060000000000000011000000200000008403000000000000
310
6000000060000000200002FB200020000000002B00FFFFFF40002200E8030000
310
A80400001C020000AF0000804A20004000000000000000000100000000000000
310
616C000800000000E40100007001000002000000270000001100000000000000
310
00000000BC0200000000000003020122420065006C006C00200047006F007400
310
680069006300200053007400640020004C006900670068007400000000000000
310
00000000000000000000000000000000420065006C006C0047006F0074006800
310
690063005300740064002D0042006F006C006400000000000000000000000000
310
0000000000000000000000000000000000000000000000000000000000000000
310
0000000000000000000000000000000000000000000000000000000000000000
  1
OLE
  0
ENDSEC
  0
SECTION
  2
OBJECTS
  0
DICTIONARY
  5
C
330
0
100
AcDbDictionary
281
     1
  3
ACAD_GROUP
350
D
  3
ACAD_LAYOUT
350
1A
  3
ACAD_MLEADERSTYLE
350
205
  3
ACAD_MLINESTYLE
350
17
  3
ACAD_PLOTSETTINGS
350
19
  3
ACAD_PLOTSTYLENAME
350
E
  3
ACAD_TABLESTYLE
350
204
  3
ACAD_VISUALSTYLE
350
2A
  3
AcDbVariableDictionary
350
206
  0
DICTIONARY
  5
D
102
{ACAD_REACTORS
330
C
102
}
330
C
100
AcDbDictionary
281
     1
  0
DICTIONARY
  5
1A
102
{ACAD_REACTORS
330
C
102
}
330
C
100
AcDbDictionary
281
     1
  3
Layout1
350
1E
  3
Layout2
350
26
  3
Model
350
22
  0
DICTIONARY
  5
205
102
{ACAD_REACTORS
330
C
102
}
330
C
100
AcDbDictionary
281
     1
  0
DICTIONARY
  5
17
102
{ACAD_REACTORS
330
C
102
}
330
C
100
AcDbDictionary
281
     1
  3
Standard
350
18
  0
DICTIONARY
  5
19
102
{ACAD_REACTORS
330
C
102
}
330
C
100
AcDbDictionary
281
     1
  0
ACDBDICTIONARYWDFLT
  5
E
102
{ACAD_REACTORS
330
C
102
}
330
C
100
AcDbDictionary
281
     1
  3
Normal
350
F
100
AcDbDictionaryWithDefault
340
F
  0
DICTIONARY
  5
204
102
{ACAD_REACTORS
330
C
102
}
330
C
100
AcDbDictionary
281
     1
  0
DICTIONARY
  5
2A
102
{ACAD_REACTORS
330
C
102
}
330
C
100
AcDbDictionary
281
     1
  3
2dWireframe
350
2F
  3
3D Hidden
350
31
  3
3dWireframe
350
30
  3
Basic
350
32
  3
Brighten
350
36
  3
ColorChange
350
3A
  3
Conceptual
350
34
  3
Dim
350
35
  3
Facepattern
350
39
  3
Flat
350
2B
  3
FlatWithEdges
350
2C
  3
Gouraud
350
2D
  3
GouraudWithEdges
350
2E
  3
Linepattern
350
38
  3
Realistic
350
33
  3
Thicken
350
37
  0
DICTIONARY
  5
206
102
{ACAD_REACTORS
330
C
102
}
330
C
100
AcDbDictionary
281
     1
  3
PSOLHEIGHT
350
208
  3
PSOLWIDTH
350
207
  0
LAYOUT
  5
1E
102
{ACAD_REACTORS
330
1A
102
}
330
1A
100
AcDbPlotSettings
  1

  2
none_device
  4

  6

 40
0.0
 41
0.0
 42
0.0
 43
0.0
 44
0.0
 45
0.0
 46
0.0
 47
0.0
 48
0.0
 49
0.0
140
0.0
141
0.0
142
1.0
143
1.0
 70
   688
 72
     0
 73
     0
 74
     5
  7

 75
    16
147
1.0
148
0.0
149
0.0
100
AcDbLayout
  1
Layout1
 70
     1
 71
     1
 10
0.0
 20
0.0
 11
420.0
 21
297.0
 12
0.0
 22
0.0
 32
0.0
 14
1.0000000000E+20
 24
1.0000000000E+20
 34
1.0000000000E+20
 15
-1.0000000000E+20
 25
-1.0000000000E+20
 35
-1.0000000000E+20
146
0.0
 13
0.0
 23
0.0
 33
0.0
 16
1.0
 26
0.0
 36
0.0
 17
0.0
 27
1.0
 37
0.0
 76
     0
330
1B
  0
LAYOUT
  5
26
102
{ACAD_REACTORS
330
1A
102
}
330
1A
100
AcDbPlotSettings
  1

  2
none_device
  4

  6

 40
0.0
 41
0.0
 42
0.0
 43
0.0
 44
0.0
 45
0.0
 46
0.0
 47
0.0
 48
0.0
 49
0.0
140
0.0
141
0.0
142
1.0
143
1.0
 70
   688
 72
     0
 73
     0
 74
     5
  7

 75
    16
147
1.0
148
0.0
149
0.0
100
AcDbLayout
  1
Layout2
 70
     1
 71
     2
 10
0.0
 20
0.0
 11
0.0
 21
0.0
 12
0.0
 22
0.0
 32
0.0
 14
0.0
 24
0.0
 34
0.0
 15
0.0
 25
0.0
 35
0.0
146
0.0
 13
0.0
 23
0.0
 33
0.0
 16
1.0
 26
0.0
 36
0.0
 17
0.0
 27
1.0
 37
0.0
 76
     0
330
23
  0
LAYOUT
  5
22
102
{ACAD_REACTORS
330
1A
102
}
330
1A
100
AcDbPlotSettings
  1

  2
none_device
  4

  6

 40
0.0
 41
0.0
 42
0.0
 43
0.0
 44
0.0
 45
0.0
 46
0.0
 47
0.0
 48
0.0
 49
0.0
140
0.0
141
0.0
142
1.0
143
1.0
 70
  1712
 72
     0
 73
     0
 74
     0
  7

 75
     0
147
1.0
148
0.0
149
0.0
100
AcDbLayout
  1
Model
 70
     1
 71
     0
 10
0.0
 20
0.0
 11
297.0
 21
210.0
 12
0.0
 22
0.0
 32
0.0
 14
0.0
 24
0.0
 34
0.0
 15
297.0
 25
210.0
 35
0.0
146
0.0
 13
0.0
 23
0.0
 33
0.0
 16
1.0
 26
0.0
 36
0.0
 17
0.0
 27
1.0
 37
0.0
 76
     0
330
1F
331
29
  0
MLINESTYLE
  5
18
102
{ACAD_REACTORS
330
17
102
}
330
17
100
AcDbMlineStyle
  2
Standard
 70
     0
  3

 62
   256
 51
90.0
 52
90.0
 71
     2
 49
0.5
 62
   256
  6
BYLAYER
 49
-0.5
 62
   256
  6
BYLAYER
  0
ACDBPLACEHOLDER
  5
F
102
{ACAD_REACTORS
330
E
102
}
330
E
  0
VISUALSTYLE
  5
2F
102
{ACAD_REACTORS
330
2A
102
}
330
2A
100
AcDbVisualStyle
  2
2dWireframe
 70
     4
 71
     0
 72
     2
 73
     0
 90
        0
 40
-0.6
 41
-30.0
 62
     5
 63
     7
 74
     1
 91
        4
 64
     7
 65
   257
 75
     1
175
     1
 42
1.0
 92
        0
 66
   257
 43
1.0
 76
     1
 77
     6
 78
     2
 67
     7
 79
     5
170
     0
171
     0
290
     0
174
     0
 93
        1
 44
0.0
173
     0
291
     0
 45
0.0
1001
ACAD
1000
AcDbSavedByObjectVersion
1070
     0
  0
VISUALSTYLE
  5
31
102
{ACAD_REACTORS
330
2A
102
}
330
2A
100
AcDbVisualStyle
  2
3D Hidden
 70
     6
 71
     1
 72
     2
 73
     2
 90
        0
 40
-0.6
 41
-30.0
 62
     5
 63
     7
 74
     2
 91
        2
 64
     7
 65
   257
 75
     2
175
     1
 42
40.0
 92
        0
 66
   257
 43
1.0
 76
     1
 77
     6
 78
     2
 67
     7
 79
     3
170
     0
171
     0
290
     0
174
     0
 93
        1
 44
0.0
173
     0
291
     0
 45
0.0
1001
ACAD
1000
AcDbSavedByObjectVersion
1070
     0
  0
VISUALSTYLE
  5
30
102
{ACAD_REACTORS
330
2A
102
}
330
2A
100
AcDbVisualStyle
  2
3dWireframe
 70
     5
 71
     0
 72
     2
 73
     0
 90
        0
 40
-0.6
 41
-30.0
 62
     5
 63
     7
 74
     1
 91
        4
 64
     7
 65
   257
 75
     1
175
     1
 42
1.0
 92
        0
 66
   257
 43
1.0
 76
     1
 77
     6
 78
     2
 67
     7
 79
     5
170
     0
171
     0
290
     0
174
     0
 93
        1
 44
0.0
173
     0
291
     0
 45
0.0
1001
ACAD
1000
AcDbSavedByObjectVersion
1070
     0
  0
VISUALSTYLE
  5
32
102
{ACAD_REACTORS
330
2A
102
}
330
2A
100
AcDbVisualStyle
  2
Basic
 70
     7
 71
     1
 72
     0
 73
     1
 90
        0
 40
-0.6
 41
-30.0
 62
     5
 63
     7
 74
     0
 91
        4
 64
     7
 65
   257
 75
     1
175
     1
 42
1.0
 92
        8
 66
     7
 43
1.0
 76
     1
 77
     6
 78
     2
 67
     7
 79
     5
170
     0
171
     0
290
     0
174
     0
 93
        1
 44
0.0
173
     0
291
     1
 45
0.0
1001
ACAD
1000
AcDbSavedByObjectVersion
1070
     0
  0
VISUALSTYLE
  5
36
102
{ACAD_REACTORS
330
2A
102
}
330
2A
100
AcDbVisualStyle
  2
Brighten
 70
    12
 71
     2
 72
     2
 73
     0
 90
        0
 40
-0.6
 41
-30.0
 62
     5
 63
     7
 74
     1
 91
        4
 64
     7
 65
   257
 75
     1
175
     1
 42
1.0
 92
        8
 66
     7
 43
1.0
 76
     1
 77
     6
 78
     2
 67
     7
 79
     5
170
     0
171
     0
290
     0
174
     0
 93
        1
 44
50.0
173
     0
291
     1
 45
0.0
1001
ACAD
1000
AcDbSavedByObjectVersion
1070
     0
  0
VISUALSTYLE
  5
3A
102
{ACAD_REACTORS
330
2A
102
}
330
2A
100
AcDbVisualStyle
  2
ColorChange
 70
    16
 71
     2
 72
     2
 73
     3
 90
        0
 40
-0.6
 41
-30.0
 62
     5
 63
     8
 74
     1
 91
        4
 64
     7
 65
   257
 75
     1
175
     1
 42
1.0
 92
        8
 66
     8
 43
1.0
 76
     1
 77
     6
 78
     2
 67
     7
 79
     5
170
     0
171
     0
290
     0
174
     0
 93
        1
 44
0.0
173
     0
291
     1
 45
0.0
1001
ACAD
1000
AcDbSavedByObjectVersion
1070
     0
  0
VISUALSTYLE
  5
34
102
{ACAD_REACTORS
330
2A
102
}
330
2A
100
AcDbVisualStyle
  2
Conceptual
 70
     9
 71
     3
 72
     2
 73
     0
 90
        0
 40
-0.6
 41
-30.0
 62
     5
 63
     7
 74
     2
 91
        2
 64
     7
 65
   257
 75
     1
175
     1
 42
40.0
 92
        8
 66
     7
 43
1.0
 76
     1
 77
     6
 78
     2
 67
     7
 79
     3
170
     0
171
     0
290
     0
174
     0
 93
        1
 44
0.0
173
     0
291
     0
 45
0.0
1001
ACAD
1000
AcDbSavedByObjectVersion
1070
     0
  0
VISUALSTYLE
  5
35
102
{ACAD_REACTORS
330
2A
102
}
330
2A
100
AcDbVisualStyle
  2
Dim
 70
    11
 71
     2
 72
     2
 73
     0
 90
        0
 40
-0.6
 41
-30.0
 62
     5
 63
     7
 74
     1
 91
        4
 64
     7
 65
   257
 75
     1
175
     1
 42
1.0
 92
        8
 66
     7
 43
1.0
 76
     1
 77
     6
 78
     2
 67
     7
 79
     5
170
     0
171
     0
290
     0
174
     0
 93
        1
 44
-50.0
173
     0
291
     1
 45
0.0
1001
ACAD
1000
AcDbSavedByObjectVersion
1070
     0
  0
VISUALSTYLE
  5
39
102
{ACAD_REACTORS
330
2A
102
}
330
2A
100
AcDbVisualStyle
  2
Facepattern
 70
    15
 71
     2
 72
     2
 73
     0
 90
        0
 40
-0.6
 41
-30.0
 62
     5
 63
     7
 74
     1
 91
        4
 64
     7
 65
   257
 75
     1
175
     1
 42
1.0
 92
        8
 66
     7
 43
1.0
 76
     1
 77
     6
 78
     2
 67
     7
 79
     5
170
     0
171
     0
290
     0
174
     0
 93
        1
 44
0.0
173
     0
291
     1
 45
0.0
1001
ACAD
1000
AcDbSavedByObjectVersion
1070
     0
  0
VISUALSTYLE
  5
2B
102
{ACAD_REACTORS
330
2A
102
}
330
2A
100
AcDbVisualStyle
  2
Flat
 70
     0
 71
     2
 72
     1
 73
     1
 90
        2
 40
-0.6
 41
30.0
 62
     5
 63
     7
 74
     0
 91
        4
 64
     7
 65
   257
 75
     1
175
     1
 42
1.0
 92
        8
 66
     7
 43
1.0
 76
     1
 77
     6
 78
     2
 67
     7
 79
     5
170
     0
171
     0
290
     0
174
     0
 93
       13
 44
0.0
173
     0
291
     1
 45
0.0
1001
ACAD
1000
AcDbSavedByObjectVersion
1070
     0
  0
VISUALSTYLE
  5
2C
102
{ACAD_REACTORS
330
2A
102
}
330
2A
100
AcDbVisualStyle
  2
FlatWithEdges
 70
     1
 71
     2
 72
     1
 73
     1
 90
        2
 40
-0.6
 41
30.0
 62
     5
 63
     7
 74
     1
 91
        4
 64
     7
 65
   257
 75
     1
175
     1
 42
1.0
 92
        0
 66
   257
 43
1.0
 76
     1
 77
     6
 78
     2
 67
     7
 79
     5
170
     0
171
     0
290
     0
174
     0
 93
       13
 44
0.0
173
     0
291
     1
 45
0.0
1001
ACAD
1000
AcDbSavedByObjectVersion
1070
     0
  0
VISUALSTYLE
  5
2D
102
{ACAD_REACTORS
330
2A
102
}
330
2A
100
AcDbVisualStyle
  2
Gouraud
 70
     2
 71
     2
 72
     2
 73
     1
 90
        2
 40
-0.6
 41
30.0
 62
     5
 63
     7
 74
     0
 91
        4
 64
     7
 65
   257
 75
     1
175
     1
 42
1.0
 92
        0
 66
     7
 43
1.0
 76
     1
 77
     6
 78
     2
 67
     7
 79
     5
170
     0
171
     0
290
     0
174
     0
 93
       13
 44
0.0
173
     0
291
     1
 45
0.0
1001
ACAD
1000
AcDbSavedByObjectVersion
1070
     0
  0
VISUALSTYLE
  5
2E
102
{ACAD_REACTORS
330
2A
102
}
330
2A
100
AcDbVisualStyle
  2
GouraudWithEdges
 70
     3
 71
     2
 72
     2
 73
     1
 90
        2
 40
-0.6
 41
30.0
 62
     5
 63
     7
 74
     1
 91
        4
 64
     7
 65
   257
 75
     1
175
     1
 42
1.0
 92
        0
 66
   257
 43
1.0
 76
     1
 77
     6
 78
     2
 67
     7
 79
     5
170
     0
171
     0
290
     0
174
     0
 93
       13
 44
0.0
173
     0
291
     1
 45
0.0
1001
ACAD
1000
AcDbSavedByObjectVersion
1070
     0
  0
VISUALSTYLE
  5
38
102
{ACAD_REACTORS
330
2A
102
}
330
2A
100
AcDbVisualStyle
  2
Linepattern
 70
    14
 71
     2
 72
     2
 73
     0
 90
        0
 40
-0.6
 41
-30.0
 62
     5
 63
     7
 74
     1
 91
        4
 64
     7
 65
   257
 75
     7
175
     7
 42
1.0
 92
        8
 66
     7
 43
1.0
 76
     1
 77
     6
 78
     2
 67
     7
 79
     5
170
     0
171
     0
290
     0
174
     0
 93
        1
 44
0.0
173
     0
291
     1
 45
0.0
1001
ACAD
1000
AcDbSavedByObjectVersion
1070
     0
  0
VISUALSTYLE
  5
33
102
{ACAD_REACTORS
330
2A
102
}
330
2A
100
AcDbVisualStyle
  2
Realistic
 70
     8
 71
     2
 72
     2
 73
     0
 90
        0
 40
-0.6
 41
-30.0
 62
     5
 63
     7
 74
     1
 91
        0
 64
     7
 65
   257
 75
     1
175
     1
 42
1.0
 92
        8
 66
     8
 43
1.0
 76
     1
 77
     6
 78
     2
 67
     7
 79
     5
170
     0
171
     0
290
     0
174
     0
 93
       13
 44
0.0
173
     0
291
     0
 45
0.0
1001
ACAD
1000
AcDbSavedByObjectVersion
1070
     0
  0
VISUALSTYLE
  5
37
102
{ACAD_REACTORS
330
2A
102
}
330
2A
100
AcDbVisualStyle
  2
Thicken
 70
    13
 71
     2
 72
     2
 73
     0
 90
        0
 40
-0.6
 41
-30.0
 62
     5
 63
     7
 74
     1
 91
        4
 64
     7
 65
   257
 75
     1
175
     1
 42
1.0
 92
       12
 66
     7
 43
1.0
 76
     1
 77
     6
 78
     2
 67
     7
 79
     5
170
     0
171
     0
290
     0
174
     0
 93
        1
 44
0.0
173
     0
291
     1
 45
0.0
1001
ACAD
1000
AcDbSavedByObjectVersion
1070
     0
  0
DICTIONARYVAR
  5
208
102
{ACAD_REACTORS
330
206
102
}
330
206
100
DictionaryVariables
280
     0
  1
80.000000
  0
DICTIONARYVAR
  5
207
102
{ACAD_REACTORS
330
206
102
}
330
206
100
DictionaryVariables
280
     0
  1
5.000000
  0
ENDSEC
  0
EOF
