  0
SECTION
  2
HEADER
  9
$ACADVER
  1
AC1015
  9
$ACADMAINTVER
 70
     6
  9
$DWGCODEPAGE
  3
ANSI_1252
  9
$INSBASE
 10
0.0
 20
0.0
 30
0.0
  9
$EXTMIN
 10
0.0
 20
0.0
 30
0.0
  9
$EXTMAX
 10
297.0
 20
210.0
 30
0.0
  9
$LIMMIN
 10
0.0
 20
0.0
  9
$LIMMAX
 10
297.0
 20
210.0
  9
$ORTHOMODE
 70
     0
  9
$REGENMODE
 70
     1
  9
$FILLMODE
 70
     1
  9
$QTEXTMODE
 70
     0
  9
$MIRRTEXT
 70
     1
  9
$LTSCALE
 40
1.0
  9
$ATTMODE
 70
     1
  9
$TEXTSIZE
 40
2.0
  9
$TRACEWID
 40
1.0
  9
$TEXTSTYLE
  7
Standard
  9
$CLAYER
  8
0
  9
$CELTYPE
  6
ByLayer
  9
$CECOLOR
 62
   256
  9
$CELTSCALE
 40
1.0
  9
$DISPSILH
 70
     0
  9
$DIMSCALE
 40
1.0
  9
$DIMASZ
 40
3.0
  9
$DIMEXO
 40
0.0
  9
$DIMDLI
 40
3.75
  9
$DIMRND
 40
0.0
  9
$DIMDLE
 40
0.0
  9
$DIMEXE
 40
1.0
  9
$DIMTP
 40
0.0
  9
$DIMTM
 40
0.0
  9
$DIMTXT
 40
2.0
  9
$DIMCEN
 40
2.5
  9
$DIMTSZ
 40
0.0
  9
$DIMTOL
 70
     0
  9
$DIMLIM
 70
     0
  9
$DIMTIH
 70
     1
  9
$DIMTOH
 70
     1
  9
$DIMSE1
 70
     0
  9
$DIMSE2
 70
     0
  9
$DIMTAD
 70
     1
  9
$DIMZIN
 70
     0
  9
$DIMBLK
  1

  9
$DIMASO
 70
     1
  9
$DIMSHO
 70
     1
  9
$DIMPOST
  1

  9
$DIMAPOST
  1

  9
$DIMALT
 70
     0
  9
$DIMALTD
 70
     3
  9
$DIMALTF
 40
0.0393700787
  9
$DIMLFAC
 40
1.0
  9
$DIMTOFL
 70
     1
  9
$DIMTVP
 40
0.0
  9
$DIMTIX
 70
     0
  9
$DIMSOXD
 70
     0
  9
$DIMSAH
 70
     0
  9
$DIMBLK1
  1

  9
$DIMBLK2
  1

  9
$DIMSTYLE
  2
ISO-25
  9
$DIMCLRD
 70
     0
  9
$DIMCLRE
 70
     0
  9
$DIMCLRT
 70
     0
  9
$DIMTFAC
 40
1.0
  9
$DIMGAP
 40
1.524
  9
$DIMJUST
 70
     0
  9
$DIMSD1
 70
     0
  9
$DIMSD2
 70
     0
  9
$DIMTOLJ
 70
     0
  9
$DIMTZIN
 70
     0
  9
$DIMALTZ
 70
     0
  9
$DIMALTTZ
 70
     0
  9
$DIMUPT
 70
     0
  9
$DIMDEC
 70
     2
  9
$DIMTDEC
 70
     3
  9
$DIMALTU
 70
     2
  9
$DIMALTTD
 70
     3
  9
$DIMTXSTY
  7
Standard
  9
$DIMAUNIT
 70
     0
  9
$DIMADEC
 70
     2
  9
$DIMALTRND
 40
0.0
  9
$DIMAZIN
 70
     0
  9
$DIMDSEP
 70
    44
  9
$DIMATFIT
 70
     3
  9
$DIMFRAC
 70
     0
  9
$DIMLDRBLK
  1

  9
$DIMLUNIT
 70
     2
  9
$DIMLWD
 70
    -2
  9
$DIMLWE
 70
    -2
  9
$DIMTMOVE
 70
     0
  9
$LUNITS
 70
     2
  9
$LUPREC
 70
     2
  9
$SKETCHINC
 40
1.0
  9
$FILLETRAD
 40
10.0
  9
$AUNITS
 70
     0
  9
$AUPREC
 70
     2
  9
$MENU
  1
.
  9
$ELEVATION
 40
0.0
  9
$PELEVATION
 40
0.0
  9
$THICKNESS
 40
0.0
  9
$LIMCHECK
 70
     0
  9
$CHAMFERA
 40
10.0
  9
$CHAMFERB
 40
10.0
  9
$CHAMFERC
 40
20.0
  9
$CHAMFERD
 40
0.0
  9
$SKPOLY
 70
     0
  9
$TDCREATE
 40
2455680.573998033
  9
$TDUCREATE
 40
2455680.490664699
  9
$TDUPDATE
 40
2455680.573998044
  9
$TDUUPDATE
 40
2455680.490664711
  9
$TDINDWG
 40
0.0000000116
  9
$TDUSRTIMER
 40
0.0000000116
  9
$USRTIMER
 70
     1
  9
$ANGBASE
 50
0.0
  9
$ANGDIR
 70
     0
  9
$PDMODE
 70
     0
  9
$PDSIZE
 40
-1.0
  9
$PLINEWID
 40
0.0
  9
$SPLFRAME
 70
     0
  9
$SPLINETYPE
 70
     6
  9
$SPLINESEGS
 70
     8
  9
$HANDSEED
  5
217
  9
$SURFTAB1
 70
     6
  9
$SURFTAB2
 70
     6
  9
$SURFTYPE
 70
     6
  9
$SURFU
 70
     6
  9
$SURFV
 70
     6
  9
$UCSBASE
  2

  9
$UCSNAME
  2

  9
$UCSORG
 10
0.0
 20
0.0
 30
0.0
  9
$UCSXDIR
 10
1.0
 20
0.0
 30
0.0
  9
$UCSYDIR
 10
0.0
 20
1.0
 30
0.0
  9
$UCSORTHOREF
  2

  9
$UCSORTHOVIEW
 70
     0
  9
$UCSORGTOP
 10
0.0
 20
0.0
 30
0.0
  9
$UCSORGBOTTOM
 10
0.0
 20
0.0
 30
0.0
  9
$UCSORGLEFT
 10
0.0
 20
0.0
 30
0.0
  9
$UCSORGRIGHT
 10
0.0
 20
0.0
 30
0.0
  9
$UCSORGFRONT
 10
0.0
 20
0.0
 30
0.0
  9
$UCSORGBACK
 10
0.0
 20
0.0
 30
0.0
  9
$PUCSBASE
  2

  9
$PUCSNAME
  2

  9
$PUCSORG
 10
0.0
 20
0.0
 30
0.0
  9
$PUCSXDIR
 10
1.0
 20
0.0
 30
0.0
  9
$PUCSYDIR
 10
0.0
 20
1.0
 30
0.0
  9
$PUCSORTHOREF
  2

  9
$PUCSORTHOVIEW
 70
     0
  9
$PUCSORGTOP
 10
0.0
 20
0.0
 30
0.0
  9
$PUCSORGBOTTOM
 10
0.0
 20
0.0
 30
0.0
  9
$PUCSORGLEFT
 10
0.0
 20
0.0
 30
0.0
  9
$PUCSORGRIGHT
 10
0.0
 20
0.0
 30
0.0
  9
$PUCSORGFRONT
 10
0.0
 20
0.0
 30
0.0
  9
$PUCSORGBACK
 10
0.0
 20
0.0
 30
0.0
  9
$USERI1
 70
     0
  9
$USERI2
 70
     0
  9
$USERI3
 70
     0
  9
$USERI4
 70
     0
  9
$USERI5
 70
     0
  9
$USERR1
 40
0.0
  9
$USERR2
 40
0.0
  9
$USERR3
 40
0.0
  9
$USERR4
 40
0.0
  9
$USERR5
 40
0.0
  9
$WORLDVIEW
 70
     1
  9
$SHADEDGE
 70
     3
  9
$SHADEDIF
 70
    70
  9
$TILEMODE
 70
     1
  9
$MAXACTVP
 70
    64
  9
$PINSBASE
 10
0.0
 20
0.0
 30
0.0
  9
$PLIMCHECK
 70
     0
  9
$PEXTMIN
 10
1.0000000000E+20
 20
1.0000000000E+20
 30
1.0000000000E+20
  9
$PEXTMAX
 10
-1.0000000000E+20
 20
-1.0000000000E+20
 30
-1.0000000000E+20
  9
$PLIMMIN
 10
0.0
 20
0.0
  9
$PLIMMAX
 10
420.0
 20
297.0
  9
$UNITMODE
 70
     0
  9
$VISRETAIN
 70
     1
  9
$PLINEGEN
 70
     0
  9
$PSLTSCALE
 70
     1
  9
$TREEDEPTH
 70
  3020
  9
$CMLSTYLE
  2
Standard
  9
$CMLJUST
 70
     0
  9
$CMLSCALE
 40
20.0
  9
$PROXYGRAPHICS
 70
     1
  9
$MEASUREMENT
 70
     1
  9
$CELWEIGHT
370
    -1
  9
$ENDCAPS
280
     0
  9
$JOINSTYLE
280
     0
  9
$LWDISPLAY
290
     1
  9
$INSUNITS
 70
     4
  9
$HYPERLINKBASE
  1

  9
$STYLESHEET
  1

  9
$XEDIT
290
     1
  9
$CEPSNTYPE
380
     0
  9
$PSTYLEMODE
290
     1
  9
$FINGERPRINTGUID
  2
{AC4FC947-5469-49AD-A985-BED905F6AA8D}
  9
$VERSIONGUID
  2
{FAEB1C32-E019-11D5-929B-00C0DF256EC4}
  9
$EXTNAMES
290
     1
  9
$PSVPSCALE
 40
0.0
  9
$OLESTARTUP
290
     0
  0
ENDSEC
  0
SECTION
  2
CLASSES
  0
CLASS
  1
ACDBDICTIONARYWDFLT
  2
AcDbDictionaryWithDefault
  3
ObjectDBX Classes
 90
        0
280
     0
281
     0
  0
CLASS
  1
VISUALSTYLE
  2
AcDbVisualStyle
  3
ObjectDBX Classes
 90
     4095
280
     0
281
     0
  0
CLASS
  1
DICTIONARYVAR
  2
AcDbDictionaryVar
  3
ObjectDBX Classes
 90
        0
280
     0
281
     0
  0
CLASS
  1
ACDBPLACEHOLDER
  2
AcDbPlaceHolder
  3
ObjectDBX Classes
 90
        0
280
     0
281
     0
  0
CLASS
  1
LAYOUT
  2
AcDbLayout
  3
ObjectDBX Classes
 90
        0
280
     0
281
     0
  0
ENDSEC
  0
SECTION
  2
TABLES
  0
TABLE
  2
VPORT
  5
8
330
0
100
AcDbSymbolTable
 70
     1
  0
VPORT
  5
29
330
8
100
AcDbSymbolTableRecord
100
AcDbViewportTableRecord
  2
*Active
 70
     0
 10
0.0
 20
0.0
 11
1.0
 21
1.0
 12
148.5
 22
105.0
 13
0.0
 23
0.0
 14
10.0
 24
10.0
 15
10.0
 25
10.0
 16
0.0
 26
0.0
 36
1.0
 17
0.0
 27
0.0
 37
0.0
 40
210.0
 41
1.4142857143
 42
50.0
 43
0.0
 44
0.0
 50
0.0
 51
0.0
 71
     0
 72
  2000
 73
     1
 74
     3
 75
     0
 76
     0
 77
     0
 78
     0
281
     0
 65
     1
110
0.0
120
0.0
130
0.0
111
1.0
121
0.0
131
0.0
112
0.0
122
1.0
132
0.0
 79
     0
146
0.0
  0
ENDTAB
  0
TABLE
  2
LTYPE
  5
5
330
0
100
AcDbSymbolTable
 70
     6
  0
LTYPE
  5
14
330
5
100
AcDbSymbolTableRecord
100
AcDbLinetypeTableRecord
  2
ByBlock
 70
     0
  3

 72
    65
 73
     0
 40
0.0
  0
LTYPE
  5
15
330
5
100
AcDbSymbolTableRecord
100
AcDbLinetypeTableRecord
  2
ByLayer
 70
     0
  3

 72
    65
 73
     0
 40
0.0
  0
LTYPE
  5
16
330
5
100
AcDbSymbolTableRecord
100
AcDbLinetypeTableRecord
  2
Continuous
 70
     0
  3
Solid line
 72
    65
 73
     0
 40
0.0
  0
LTYPE
  5
3B
330
5
100
AcDbSymbolTableRecord
100
AcDbLinetypeTableRecord
  2
HIDDEN
 70
     0
  3
Hidden __ __ __ __ __ __ __ __ __ __ __ __ __ __
 72
    65
 73
     2
 40
1.905
 49
1.27
 74
     0
 49
-0.635
 74
     0
  0
LTYPE
  5
3C
330
5
100
AcDbSymbolTableRecord
100
AcDbLinetypeTableRecord
  2
PHANTOM
 70
     0
  3
Phantom ______  __  __  ______  __  __  ______
 72
    65
 73
     6
 40
12.7
 49
6.35
 74
     0
 49
-1.27
 74
     0
 49
1.27
 74
     0
 49
-1.27
 74
     0
 49
1.27
 74
     0
 49
-1.27
 74
     0
  0
LTYPE
  5
3D
330
5
100
AcDbSymbolTableRecord
100
AcDbLinetypeTableRecord
  2
CENTER
 70
     0
  3
Center ____ _ ____ _ ____ _ ____ _ ____ _ ____
 72
    65
 73
     4
 40
10.16
 49
6.35
 74
     0
 49
-1.27
 74
     0
 49
1.27
 74
     0
 49
-1.27
 74
     0
  0
LTYPE
  5
3E
330
5
100
AcDbSymbolTableRecord
100
AcDbLinetypeTableRecord
  2
CENTERX2
 70
     0
  3
Center (2x) ________  __  ________  __  _____
 72
    65
 73
     4
 40
20.32
 49
12.7
 74
     0
 49
-2.54
 74
     0
 49
2.54
 74
     0
 49
-2.54
 74
     0
  0
LTYPE
  5
3F
330
5
100
AcDbSymbolTableRecord
100
AcDbLinetypeTableRecord
  2
DOT2
 70
     0
  3
Dot (.5x) ........................................
 72
    65
 73
     2
 40
0.635
 49
0.0
 74
     0
 49
-0.635
 74
     0
  0
ENDTAB
  0
TABLE
  2
LAYER
  5
2
330
0
100
AcDbSymbolTable
 70
     5
  0
LAYER
  5
10
330
2
100
AcDbSymbolTableRecord
100
AcDbLayerTableRecord
  2
0
 70
     0
 62
     7
  6
Continuous
370
    -3
390
F
  0
LAYER
  5
40
330
2
100
AcDbSymbolTableRecord
100
AcDbLayerTableRecord
  2
FORMAT
 70
     0
 62
     7
  6
Continuous
370
    -3
390
F
  0
LAYER
  5
41
330
2
100
AcDbSymbolTableRecord
100
AcDbLayerTableRecord
  2
VERMASSUNG
 70
     0
 62
     7
  6
Continuous
370
    -3
390
F
  0
LAYER
  5
42
330
2
100
AcDbSymbolTableRecord
100
AcDbLayerTableRecord
  2
KOPF_DÜNN
 70
     0
 62
     7
  6
Continuous
370
    -3
390
F
  0
LAYER
  5
43
330
2
100
AcDbSymbolTableRecord
100
AcDbLayerTableRecord
  2
KOPF_DICK
 70
     0
 62
     7
  6
Continuous
370
    15
390
F
  0
ENDTAB
  0
TABLE
  2
STYLE
  5
3
330
0
100
AcDbSymbolTable
 70
     3
  0
STYLE
  5
11
330
3
100
AcDbSymbolTableRecord
100
AcDbTextStyleTableRecord
  2
Standard
 70
     0
 40
0.0
 41
1.0
 50
0.0
 71
     0
 42
2.5
  3
txt
  4

  0
STYLE
  5
44
330
3
100
AcDbSymbolTableRecord
100
AcDbTextStyleTableRecord
  2
SLDTEXTSTYLE0
 70
     0
 40
0.0
 41
0.7
 50
0.0
 71
     0
 42
0.2
  3
TXT
  4

  0
STYLE
  5
48
330
3
100
AcDbSymbolTableRecord
100
AcDbTextStyleTableRecord
  2
SLDTEXTSTYLE1
 70
     0
 40
0.0
 41
0.65
 50
0.0
 71
     0
 42
0.2
  3
TXT
  4

  0
ENDTAB
  0
TABLE
  2
VIEW
  5
6
330
0
100
AcDbSymbolTable
 70
     0
  0
ENDTAB
  0
TABLE
  2
UCS
  5
7
330
0
100
AcDbSymbolTable
 70
     0
  0
ENDTAB
  0
TABLE
  2
APPID
  5
9
330
0
100
AcDbSymbolTable
 70
     1
  0
APPID
  5
12
330
9
100
AcDbSymbolTableRecord
100
AcDbRegAppTableRecord
  2
ACAD
 70
     0
  0
ENDTAB
  0
TABLE
  2
DIMSTYLE
  5
A
330
0
100
AcDbSymbolTable
 70
     5
100
AcDbDimStyleTable
  0
DIMSTYLE
105
27
330
A
100
AcDbSymbolTableRecord
100
AcDbDimStyleTableRecord
  2
ISO-25
 70
     0
 41
2.5
 42
0.625
 43
3.75
 44
1.25
 73
     0
 74
     0
 77
     1
 78
     8
140
2.5
141
2.5
143
0.0393700787
147
0.625
171
     3
172
     1
271
     2
272
     2
274
     3
278
    44
283
     0
284
     8
340
11
  0
DIMSTYLE
105
1B8
102
{ACAD_REACTORS
330
1B7
330
1E7
330
1F1
330
1FB
330
205
102
}
330
A
100
AcDbSymbolTableRecord
100
AcDbDimStyleTableRecord
  2
SLDDIMSTYLE0
 70
     0
 41
3.0
 44
0.0
 45
0.000000001
 73
     0
 74
     0
 77
     1
 78
    12
140
2.0
147
0.5
173
     1
271
     2
272
     3
284
    12
340
44
  0
DIMSTYLE
105
1C5
102
{ACAD_REACTORS
330
1C4
102
}
330
A
100
AcDbSymbolTableRecord
100
AcDbDimStyleTableRecord
  2
SLDDIMSTYLE1
 70
     0
 41
3.0
 44
0.0
 45
0.000000001
 73
     0
 74
     0
 77
     1
 78
    12
140
2.0
147
0.5
173
     1
271
     2
272
     2
284
    12
340
44
  0
DIMSTYLE
105
1D0
102
{ACAD_REACTORS
330
1CF
102
}
330
A
100
AcDbSymbolTableRecord
100
AcDbDimStyleTableRecord
  2
SLDDIMSTYLE2
 70
     0
 41
3.0
 44
0.0
 45
0.000000001
 73
     0
 74
     0
 77
     1
 78
    12
140
2.0
147
0.5
173
     1
271
     2
272
     2
284
    12
340
44
  0
DIMSTYLE
105
1DC
102
{ACAD_REACTORS
330
1DB
102
}
330
A
100
AcDbSymbolTableRecord
100
AcDbDimStyleTableRecord
  2
SLDDIMSTYLE3
 70
     0
 41
3.0
 44
0.0
 45
0.000000001
 73
     0
 74
     0
 77
     1
 78
    12
140
2.0
147
0.5
173
     1
271
     2
272
     3
284
    12
340
44
  0
ENDTAB
  0
TABLE
  2
BLOCK_RECORD
  5
1
330
0
100
AcDbSymbolTable
 70
     9
  0
BLOCK_RECORD
  5
1F
330
1
100
AcDbSymbolTableRecord
100
AcDbBlockTableRecord
  2
*Model_Space
340
22
  0
BLOCK_RECORD
  5
1B
330
1
100
AcDbSymbolTableRecord
100
AcDbBlockTableRecord
  2
*Paper_Space
340
1E
  0
BLOCK_RECORD
  5
23
330
1
100
AcDbSymbolTableRecord
100
AcDbBlockTableRecord
  2
*Paper_Space0
340
26
  0
BLOCK_RECORD
  5
1B9
330
1
100
AcDbSymbolTableRecord
100
AcDbBlockTableRecord
  2
*D1
340
0
  0
BLOCK_RECORD
  5
1C6
330
1
100
AcDbSymbolTableRecord
100
AcDbBlockTableRecord
  2
*D2
340
0
  0
BLOCK_RECORD
  5
1D1
330
1
100
AcDbSymbolTableRecord
100
AcDbBlockTableRecord
  2
*D3
340
0
  0
BLOCK_RECORD
  5
1DD
330
1
100
AcDbSymbolTableRecord
100
AcDbBlockTableRecord
  2
*D4
340
0
  0
BLOCK_RECORD
  5
1E8
330
1
100
AcDbSymbolTableRecord
100
AcDbBlockTableRecord
  2
*D5
340
0
  0
BLOCK_RECORD
  5
1F2
330
1
100
AcDbSymbolTableRecord
100
AcDbBlockTableRecord
  2
*D6
340
0
  0
BLOCK_RECORD
  5
1FC
330
1
100
AcDbSymbolTableRecord
100
AcDbBlockTableRecord
  2
*D7
340
0
  0
BLOCK_RECORD
  5
206
330
1
100
AcDbSymbolTableRecord
100
AcDbBlockTableRecord
  2
*D8
340
0
  0
ENDTAB
  0
ENDSEC
  0
SECTION
  2
BLOCKS
  0
BLOCK
  5
20
330
1F
100
AcDbEntity
  8
0
100
AcDbBlockBegin
  2
*Model_Space
 70
     0
 10
0.0
 20
0.0
 30
0.0
  3
*Model_Space
  1

  0
ENDBLK
  5
21
330
1F
100
AcDbEntity
  8
0
100
AcDbBlockEnd
  0
BLOCK
  5
1C
330
1B
100
AcDbEntity
 67
     1
  8
0
100
AcDbBlockBegin
  2
*Paper_Space
 70
     0
 10
0.0
 20
0.0
 30
0.0
  3
*Paper_Space
  1

  0
ENDBLK
  5
1D
330
1B
100
AcDbEntity
 67
     1
  8
0
100
AcDbBlockEnd
  0
BLOCK
  5
24
330
23
100
AcDbEntity
  8
0
100
AcDbBlockBegin
  2
*Paper_Space0
 70
     0
 10
0.0
 20
0.0
 30
0.0
  3
*Paper_Space0
  1

  0
ENDBLK
  5
25
330
23
100
AcDbEntity
  8
0
100
AcDbBlockEnd
  0
BLOCK
  5
1BA
330
1B9
100
AcDbEntity
  8
0
100
AcDbBlockBegin
  2
*D1
 70
     1
 10
0.0
 20
0.0
 30
0.0
  3
*D1
  1

  0
SOLID
  5
1BC
330
1B9
100
AcDbEntity
  8
VERMASSUNG
100
AcDbTrace
 10
39.1953412784
 20
159.0612134345
 30
0.0
 11
38.7453412784
 21
156.0612134345
 31
0.0
 12
39.6453412784
 22
156.0612134345
 32
0.0
 13
39.6453412784
 23
156.0612134345
 33
0.0
  0
SOLID
  5
1BD
330
1B9
100
AcDbEntity
  8
VERMASSUNG
100
AcDbTrace
 10
39.1953412784
 20
59.0612134345
 30
0.0
 11
39.6453412784
 21
62.0612134345
 31
0.0
 12
38.7453412784
 22
62.0612134345
 32
0.0
 13
38.7453412784
 23
62.0612134345
 33
0.0
  0
LINE
  5
1BE
330
1B9
100
AcDbEntity
  8
VERMASSUNG
100
AcDbLine
 10
93.5561511421
 20
159.0612134345
 30
0.0
 11
38.1953412784
 21
159.0612134345
 31
0.0
  0
LINE
  5
1BF
330
1B9
100
AcDbEntity
  8
VERMASSUNG
100
AcDbLine
 10
93.5561511421
 20
59.0612134345
 30
0.0
 11
38.1953412784
 21
59.0612134345
 31
0.0
  0
LINE
  5
1C0
330
1B9
100
AcDbEntity
  8
VERMASSUNG
100
AcDbLine
 10
39.1953412784
 20
159.0612134345
 30
0.0
 11
39.1953412784
 21
59.0612134345
 31
0.0
  0
MTEXT
  5
1C1
330
1B9
100
AcDbEntity
  8
VERMASSUNG
100
AcDbMText
 10
36.4172057894
 20
100.8575622969
 30
0.0
 40
2.0
 41
0.0
 71
     1
 72
     1
  1
HSK A 
  7
SLDTEXTSTYLE0
 11
-7.044195017643634E-15
 21
1.0
 31
0.0
 73
     1
 44
1.0
  0
MTEXT
  5
1C2
330
1B9
100
AcDbEntity
  8
VERMASSUNG
100
AcDbMText
 10
36.6172057989
 20
109.8575628408
 30
0.0
 40
2.0
 41
0.0
 71
     1
 72
     1
  1
%%c
  7
SLDTEXTSTYLE0
 11
-7.044195017643634E-15
 21
1.0
 31
0.0
 73
     1
 44
1.0
  0
MTEXT
  5
1C3
330
1B9
100
AcDbEntity
  8
VERMASSUNG
100
AcDbMText
 10
36.6172059153
 20
113.4658894908
 30
0.0
 40
2.0
 41
0.0
 71
     1
 72
     1
  1
100
  7
SLDTEXTSTYLE0
 11
-7.044195017643634E-15
 21
1.0
 31
0.0
 73
     1
 44
1.0
  0
ENDBLK
  5
1BB
330
1B9
100
AcDbEntity
  8
0
100
AcDbBlockEnd
  0
BLOCK
  5
1C7
330
1C6
100
AcDbEntity
  8
0
100
AcDbBlockBegin
  2
*D2
 70
     1
 10
0.0
 20
0.0
 30
0.0
  3
*D2
  1

  0
SOLID
  5
1C9
330
1C6
100
AcDbEntity
  8
VERMASSUNG
100
AcDbTrace
 10
211.5561511421
 20
157.0612134345
 30
0.0
 11
214.5561511421
 21
156.6112134345
 31
0.0
 12
214.5561511421
 22
157.5112134345
 32
0.0
 13
214.5561511421
 23
157.5112134345
 33
0.0
  0
SOLID
  5
1CA
330
1C6
100
AcDbEntity
  8
VERMASSUNG
100
AcDbTrace
 10
253.0561511421
 20
157.0612134345
 30
0.0
 11
250.0561511421
 21
157.5112134345
 31
0.0
 12
250.0561511421
 22
156.6112134345
 32
0.0
 13
250.0561511421
 23
156.6112134345
 33
0.0
  0
LINE
  5
1CB
330
1C6
100
AcDbEntity
  8
VERMASSUNG
100
AcDbLine
 10
211.5561511421
 20
113.9612134345
 30
0.0
 11
211.5561511421
 21
158.0612134345
 31
0.0
  0
LINE
  5
1CC
330
1C6
100
AcDbEntity
  8
VERMASSUNG
100
AcDbLine
 10
253.0561511421
 20
119.2124324511
 30
0.0
 11
253.0561511421
 21
158.0612134345
 31
0.0
  0
LINE
  5
1CD
330
1C6
100
AcDbEntity
  8
VERMASSUNG
100
AcDbLine
 10
211.5561511421
 20
157.0612134345
 30
0.0
 11
253.0561511421
 21
157.0612134345
 31
0.0
  0
MTEXT
  5
1CE
330
1C6
100
AcDbEntity
  8
VERMASSUNG
100
AcDbMText
 10
230.0063439915
 20
159.6393487976
 30
0.0
 40
2.0
 41
0.0
 71
     1
 72
     1
  1
41.5
  7
SLDTEXTSTYLE0
 73
     1
 44
1.0
  0
ENDBLK
  5
1C8
330
1C6
100
AcDbEntity
  8
0
100
AcDbBlockEnd
  0
BLOCK
  5
1D2
330
1D1
100
AcDbEntity
  8
0
100
AcDbBlockBegin
  2
*D3
 70
     1
 10
0.0
 20
0.0
 30
0.0
  3
*D3
  1

  0
SOLID
  5
1D4
330
1D1
100
AcDbEntity
  8
VERMASSUNG
100
AcDbTrace
 10
260.5894907909
 20
104.0612134345
 30
0.0
 11
261.0394907909
 21
107.0612134345
 31
0.0
 12
260.1394907909
 22
107.0612134345
 32
0.0
 13
260.1394907909
 23
107.0612134345
 33
0.0
  0
SOLID
  5
1D5
330
1D1
100
AcDbEntity
  8
VERMASSUNG
100
AcDbTrace
 10
260.5894907909
 20
114.0612134345
 30
0.0
 11
260.1394907909
 21
111.0612134345
 31
0.0
 12
261.0394907909
 22
111.0612134345
 32
0.0
 13
261.0394907909
 23
111.0612134345
 33
0.0
  0
LINE
  5
1D6
330
1D1
100
AcDbEntity
  8
VERMASSUNG
100
AcDbLine
 10
249.5561511421
 20
104.0612134345
 30
0.0
 11
261.5894907909
 21
104.0612134345
 31
0.0
  0
LINE
  5
1D7
330
1D1
100
AcDbEntity
  8
VERMASSUNG
100
AcDbLine
 10
249.5561511421
 20
114.0612134345
 30
0.0
 11
261.5894907909
 21
114.0612134345
 31
0.0
  0
LINE
  5
1D8
330
1D1
100
AcDbEntity
  8
VERMASSUNG
100
AcDbLine
 10
260.5894907909
 20
104.0612134345
 30
0.0
 11
260.5894907909
 21
114.0612134345
 31
0.0
  0
MTEXT
  5
1D9
330
1D1
100
AcDbEntity
  8
VERMASSUNG
100
AcDbMText
 10
258.0113553114
 20
106.0570758397
 30
0.0
 40
2.0
 41
0.0
 71
     1
 72
     1
  1
%%c
  7
SLDTEXTSTYLE0
 11
6.123233995736766E-17
 21
1.0
 31
0.0
 73
     1
 44
1.0
  0
MTEXT
  5
1DA
330
1D1
100
AcDbEntity
  8
VERMASSUNG
100
AcDbMText
 10
258.0113554278
 20
109.6657540628
 30
0.0
 40
2.0
 41
0.0
 71
     1
 72
     1
  1
10
  7
SLDTEXTSTYLE0
 11
6.123233995736766E-17
 21
1.0
 31
0.0
 73
     1
 44
1.0
  0
ENDBLK
  5
1D3
330
1D1
100
AcDbEntity
  8
0
100
AcDbBlockEnd
  0
BLOCK
  5
1DE
330
1DD
100
AcDbEntity
  8
0
100
AcDbBlockBegin
  2
*D4
 70
     1
 10
0.0
 20
0.0
 30
0.0
  3
*D4
  1

  0
SOLID
  5
1E0
330
1DD
100
AcDbEntity
  8
VERMASSUNG
100
AcDbTrace
 10
266.5894907909
 20
97.0612134345
 30
0.0
 11
267.0394907909
 21
100.0612134345
 31
0.0
 12
266.1394907909
 22
100.0612134345
 32
0.0
 13
266.1394907909
 23
100.0612134345
 33
0.0
  0
SOLID
  5
1E1
330
1DD
100
AcDbEntity
  8
VERMASSUNG
100
AcDbTrace
 10
266.5894907909
 20
121.0612134345
 30
0.0
 11
266.1394907909
 21
118.0612134345
 31
0.0
 12
267.0394907909
 22
118.0612134345
 32
0.0
 13
267.0394907909
 23
118.0612134345
 33
0.0
  0
LINE
  5
1E2
330
1DD
100
AcDbEntity
  8
VERMASSUNG
100
AcDbLine
 10
253.0561511421
 20
97.0612134345
 30
0.0
 11
267.5894907909
 21
97.0612134345
 31
0.0
  0
LINE
  5
1E3
330
1DD
100
AcDbEntity
  8
VERMASSUNG
100
AcDbLine
 10
253.0561511421
 20
121.0612134345
 30
0.0
 11
267.5894907909
 21
121.0612134345
 31
0.0
  0
LINE
  5
1E4
330
1DD
100
AcDbEntity
  8
VERMASSUNG
100
AcDbLine
 10
266.5894907909
 20
97.0612134345
 30
0.0
 11
266.5894907909
 21
121.0612134345
 31
0.0
  0
MTEXT
  5
1E5
330
1DD
100
AcDbEntity
  8
VERMASSUNG
100
AcDbMText
 10
264.0113553114
 20
105.7577063922
 30
0.0
 40
2.0
 41
0.0
 71
     1
 72
     1
  1
%%c
  7
SLDTEXTSTYLE0
 11
6.123233995736766E-17
 21
1.0
 31
0.0
 73
     1
 44
1.0
  0
MTEXT
  5
1E6
330
1DD
100
AcDbEntity
  8
VERMASSUNG
100
AcDbMText
 10
264.0113554278
 20
109.3663846154
 30
0.0
 40
2.0
 41
0.0
 71
     1
 72
     1
  1
24
  7
SLDTEXTSTYLE0
 11
6.123233995736766E-17
 21
1.0
 31
0.0
 73
     1
 44
1.0
  0
ENDBLK
  5
1DF
330
1DD
100
AcDbEntity
  8
0
100
AcDbBlockEnd
  0
BLOCK
  5
1E9
330
1E8
100
AcDbEntity
  8
0
100
AcDbBlockBegin
  2
*D5
 70
     1
 10
0.0
 20
0.0
 30
0.0
  3
*D5
  1

  0
SOLID
  5
1EB
330
1E8
100
AcDbEntity
  8
VERMASSUNG
100
AcDbTrace
 10
93.0561511421
 20
169.0612134345
 30
0.0
 11
96.0561511421
 21
168.6112134345
 31
0.0
 12
96.0561511421
 22
169.5112134345
 32
0.0
 13
96.0561511421
 23
169.5112134345
 33
0.0
  0
SOLID
  5
1EC
330
1E8
100
AcDbEntity
  8
VERMASSUNG
100
AcDbTrace
 10
253.0561511421
 20
169.0612134345
 30
0.0
 11
250.0561511421
 21
169.5112134345
 31
0.0
 12
250.0561511421
 22
168.6112134345
 32
0.0
 13
250.0561511421
 23
168.6112134345
 33
0.0
  0
LINE
  5
1ED
330
1E8
100
AcDbEntity
  8
VERMASSUNG
100
AcDbLine
 10
93.0561511421
 20
158.5612134345
 30
0.0
 11
93.0561511421
 21
170.0612134345
 31
0.0
  0
LINE
  5
1EE
330
1E8
100
AcDbEntity
  8
VERMASSUNG
100
AcDbLine
 10
253.0561511421
 20
119.2124324511
 30
0.0
 11
253.0561511421
 21
170.0612134345
 31
0.0
  0
LINE
  5
1EF
330
1E8
100
AcDbEntity
  8
VERMASSUNG
100
AcDbLine
 10
93.0561511421
 20
169.0612134345
 30
0.0
 11
253.0561511421
 21
169.0612134345
 31
0.0
  0
MTEXT
  5
1F0
330
1E8
100
AcDbEntity
  8
VERMASSUNG
100
AcDbMText
 10
171.1566636015
 20
171.6393487976
 30
0.0
 40
2.0
 41
0.0
 71
     1
 72
     1
  1
160
  7
SLDTEXTSTYLE0
 73
     1
 44
1.0
  0
ENDBLK
  5
1EA
330
1E8
100
AcDbEntity
  8
0
100
AcDbBlockEnd
  0
BLOCK
  5
1F3
330
1F2
100
AcDbEntity
  8
0
100
AcDbBlockBegin
  2
*D6
 70
     1
 10
0.0
 20
0.0
 30
0.0
  3
*D6
  1

  0
SOLID
  5
1F5
330
1F2
100
AcDbEntity
  8
VERMASSUNG
100
AcDbTrace
 10
122.0061511421
 20
163.0612134345
 30
0.0
 11
125.0061511421
 21
162.6112134345
 31
0.0
 12
125.0061511421
 22
163.5112134345
 32
0.0
 13
125.0061511421
 23
163.5112134345
 33
0.0
  0
SOLID
  5
1F6
330
1F2
100
AcDbEntity
  8
VERMASSUNG
100
AcDbTrace
 10
253.0561511421
 20
163.0612134345
 30
0.0
 11
250.0561511421
 21
163.5112134345
 31
0.0
 12
250.0561511421
 22
162.6112134345
 32
0.0
 13
250.0561511421
 23
162.6112134345
 33
0.0
  0
LINE
  5
1F7
330
1F2
100
AcDbEntity
  8
VERMASSUNG
100
AcDbLine
 10
122.0061511421
 20
157.0299532553
 30
0.0
 11
122.0061511421
 21
164.0612134345
 31
0.0
  0
LINE
  5
1F8
330
1F2
100
AcDbEntity
  8
VERMASSUNG
100
AcDbLine
 10
253.0561511421
 20
119.2124324511
 30
0.0
 11
253.0561511421
 21
164.0612134345
 31
0.0
  0
LINE
  5
1F9
330
1F2
100
AcDbEntity
  8
VERMASSUNG
100
AcDbLine
 10
122.0061511421
 20
163.0612134345
 30
0.0
 11
253.0561511421
 21
163.0612134345
 31
0.0
  0
MTEXT
  5
1FA
330
1F2
100
AcDbEntity
  8
VERMASSUNG
100
AcDbMText
 10
184.1313353241
 20
165.6393487976
 30
0.0
 40
2.0
 41
0.0
 71
     1
 72
     1
  1
131.05
  7
SLDTEXTSTYLE0
 73
     1
 44
1.0
  0
ENDBLK
  5
1F4
330
1F2
100
AcDbEntity
  8
0
100
AcDbBlockEnd
  0
BLOCK
  5
1FD
330
1FC
100
AcDbEntity
  8
0
100
AcDbBlockBegin
  2
*D7
 70
     1
 10
0.0
 20
0.0
 30
0.0
  3
*D7
  1

  0
SOLID
  5
1FF
330
1FC
100
AcDbEntity
  8
VERMASSUNG
100
AcDbTrace
 10
43.1561511421
 20
175.0612134345
 30
0.0
 11
46.1561511421
 21
174.6112134345
 31
0.0
 12
46.1561511421
 22
175.5112134345
 32
0.0
 13
46.1561511421
 23
175.5112134345
 33
0.0
  0
SOLID
  5
200
330
1FC
100
AcDbEntity
  8
VERMASSUNG
100
AcDbTrace
 10
253.0561511421
 20
175.0612134345
 30
0.0
 11
250.0561511421
 21
175.5112134345
 31
0.0
 12
250.0561511421
 22
174.6112134345
 32
0.0
 13
250.0561511421
 23
174.6112134345
 33
0.0
  0
LINE
  5
201
330
1FC
100
AcDbEntity
  8
VERMASSUNG
100
AcDbLine
 10
43.1561511421
 20
139.563883177
 30
0.0
 11
43.1561511421
 21
176.0612134345
 31
0.0
  0
LINE
  5
202
330
1FC
100
AcDbEntity
  8
VERMASSUNG
100
AcDbLine
 10
253.0561511421
 20
119.2124324511
 30
0.0
 11
253.0561511421
 21
176.0612134345
 31
0.0
  0
LINE
  5
203
330
1FC
100
AcDbEntity
  8
VERMASSUNG
100
AcDbLine
 10
43.1561511421
 20
175.0612134345
 30
0.0
 11
253.0561511421
 21
175.0612134345
 31
0.0
  0
MTEXT
  5
204
330
1FC
100
AcDbEntity
  8
VERMASSUNG
100
AcDbMText
 10
145.0068651183
 20
177.6393487976
 30
0.0
 40
2.0
 41
0.0
 71
     1
 72
     1
  1
209.9
  7
SLDTEXTSTYLE0
 73
     1
 44
1.0
  0
ENDBLK
  5
1FE
330
1FC
100
AcDbEntity
  8
0
100
AcDbBlockEnd
  0
BLOCK
  5
207
330
206
100
AcDbEntity
  8
0
100
AcDbBlockBegin
  2
*D8
 70
     1
 10
0.0
 20
0.0
 30
0.0
  3
*D8
  1

  0
SOLID
  5
209
330
206
100
AcDbEntity
  8
VERMASSUNG
100
AcDbTrace
 10
272.5894907909
 20
126.0612134345
 30
0.0
 11
272.1394907909
 21
123.0612134345
 31
0.0
 12
273.0394907909
 22
123.0612134345
 32
0.0
 13
273.0394907909
 23
123.0612134345
 33
0.0
  0
SOLID
  5
20A
330
206
100
AcDbEntity
  8
VERMASSUNG
100
AcDbTrace
 10
272.5894907909
 20
92.0612134345
 30
0.0
 11
273.0394907909
 21
95.0612134345
 31
0.0
 12
272.1394907909
 22
95.0612134345
 32
0.0
 13
272.1394907909
 23
95.0612134345
 33
0.0
  0
LINE
  5
20B
330
206
100
AcDbEntity
  8
VERMASSUNG
100
AcDbLine
 10
171.0061511421
 20
126.0612134345
 30
0.0
 11
273.5894907909
 21
126.0612134345
 31
0.0
  0
LINE
  5
20C
330
206
100
AcDbEntity
  8
VERMASSUNG
100
AcDbLine
 10
171.0061511421
 20
92.0612134345
 30
0.0
 11
273.5894907909
 21
92.0612134345
 31
0.0
  0
LINE
  5
20D
330
206
100
AcDbEntity
  8
VERMASSUNG
100
AcDbLine
 10
272.5894907909
 20
126.0612134345
 30
0.0
 11
272.5894907909
 21
92.0612134345
 31
0.0
  0
MTEXT
  5
20E
330
206
100
AcDbEntity
  8
VERMASSUNG
100
AcDbMText
 10
270.0113553114
 20
105.7577063922
 30
0.0
 40
2.0
 41
0.0
 71
     1
 72
     1
  1
%%c
  7
SLDTEXTSTYLE0
 11
-7.044195017643634E-15
 21
1.0
 31
0.0
 73
     1
 44
1.0
  0
MTEXT
  5
20F
330
206
100
AcDbEntity
  8
VERMASSUNG
100
AcDbMText
 10
270.0113554278
 20
109.3663846154
 30
0.0
 40
2.0
 41
0.0
 71
     1
 72
     1
  1
34
  7
SLDTEXTSTYLE0
 11
-7.044195017643634E-15
 21
1.0
 31
0.0
 73
     1
 44
1.0
  0
ENDBLK
  5
208
330
206
100
AcDbEntity
  8
0
100
AcDbBlockEnd
  0
ENDSEC
  0
SECTION
  2
ENTITIES
  0
MTEXT
  5
45
330
1F
100
AcDbEntity
  8
KOPF_DÜNN
100
AcDbMText
 10
13.8892156294
 20
23.8442973028
 30
0.0
 40
3.0
 41
0.0
 71
     1
 72
     1
  1
HA0.S10.K21.160
  7
SLDTEXTSTYLE0
 73
     1
 44
1.0
  0
MTEXT
  5
46
330
1F
100
AcDbEntity
  8
VERMASSUNG
100
AcDbMText
 10
13.9329988022
 20
28.8834360957
 30
0.0
 40
3.0
 41
0.0
 71
     1
 72
     1
  1
Schrumpffutter_Heat shrink chuck
  7
SLDTEXTSTYLE0
 73
     1
 44
1.0
  0
MTEXT
  5
47
330
1F
100
AcDbEntity
  8
VERMASSUNG
100
AcDbMText
 10
98.8601118557
 20
13.8365368179
 30
0.0
 40
2.0
 41
0.0
 71
     1
 72
     1
  1
Datum: 28.04.2011
  7
SLDTEXTSTYLE0
 73
     1
 44
1.0
  0
MTEXT
  5
49
330
1F
100
AcDbEntity
  8
VERMASSUNG
100
AcDbMText
 10
13.933048693
 20
18.0482802738
 30
0.0
 40
2.0
 41
0.0
 71
     1
 72
     1
  1
DIN 69 893 HSK A 100
  7
SLDTEXTSTYLE1
 73
     1
 44
1.0
  0
MTEXT
  5
4A
330
1F
100
AcDbEntity
  8
VERMASSUNG
100
AcDbMText
 10
13.9808475933
 20
13.9090973692
 30
0.0
 40
2.0
 41
0.0
 71
     1
 72
     1
  1
Gewicht: 2757g
  7
SLDTEXTSTYLE0
 73
     1
 44
1.0
  0
LINE
  5
4B
330
1F
100
AcDbEntity
  8
0
  6
Continuous
 62
     7
370
    15
100
AcDbLine
 10
253.0561511421
 20
99.6968451741
 30
0.0
 11
253.1334733492
 21
99.8438105165
 31
0.0
  0
LINE
  5
4C
330
1F
100
AcDbEntity
  8
0
  6
Continuous
 62
     7
370
    15
100
AcDbLine
 10
253.0745836256
 20
118.2809301359
 30
0.0
 11
253.0561511421
 21
118.3159645245
 31
0.0
  0
ARC
  5
4D
330
1F
100
AcDbEntity
  8
0
  6
Continuous
 62
     7
370
    15
100
AcDbCircle
 10
93.5561511421
 20
59.5612134345
 30
0.0
 40
0.5
100
AcDbArc
 50
180.0
 51
270.0
  0
ARC
  5
4E
330
1F
100
AcDbEntity
  8
0
  6
Continuous
 62
     7
370
    15
100
AcDbCircle
 10
93.5561511421
 20
158.5612134345
 30
0.0
 40
0.5
100
AcDbArc
 50
90.0
 51
180.0
  0
LINE
  5
4F
330
1F
100
AcDbEntity
  8
0
  6
Continuous
 62
     7
370
    15
100
AcDbLine
 10
93.5561511421
 20
59.0612134345
 30
0.0
 11
98.0061511421
 21
59.0612134345
 31
0.0
  0
LINE
  5
50
330
1F
100
AcDbEntity
  8
0
  6
Continuous
 62
     7
370
    15
100
AcDbLine
 10
98.0402239746
 20
159.0612134345
 30
0.0
 11
93.5561511421
 21
159.0612134345
 31
0.0
  0
ARC
  5
51
330
1F
100
AcDbEntity
  8
0
  6
Continuous
 62
     7
370
    15
100
AcDbCircle
 10
92.1592142236
 20
70.43272811
 30
0.0
 40
0.9962338214386932
100
AcDbArc
 50
25.7988228126
 51
90.0
  0
ARC
  5
52
330
1F
100
AcDbEntity
  8
0
  6
Continuous
 62
     7
370
    15
100
AcDbCircle
 10
92.1592142236
 20
147.6896987589
 30
0.0
 40
0.9962338214386932
100
AcDbArc
 50
270.0
 51
334.2011771874
  0
LINE
  5
53
330
1F
100
AcDbEntity
  8
0
  6
Continuous
 62
     7
370
    15
100
AcDbLine
 10
90.5561511421
 20
71.1789619314
 30
0.0
 11
91.3619972965
 21
71.3948877577
 31
0.0
  0
LINE
  5
54
330
1F
100
AcDbEntity
  8
0
  6
Continuous
 62
     7
370
    15
100
AcDbLine
 10
91.3619972965
 20
146.7275391112
 30
0.0
 11
90.5561511421
 21
146.9434649375
 31
0.0
  0
LINE
  5
55
330
1F
100
AcDbEntity
  8
0
  6
Continuous
 62
     7
370
    15
100
AcDbLine
 10
71.5754722235
 20
145.9925291199
 30
0.0
 11
53.2561511421
 21
145.0747274625
 31
0.0
  0
LINE
  5
56
330
1F
100
AcDbEntity
  8
0
  6
Continuous
 62
     7
370
    15
100
AcDbLine
 10
90.5561511421
 20
146.9434649375
 30
0.0
 11
84.4881119876
 21
146.6394549598
 31
0.0
  0
LINE
  5
57
330
1F
100
AcDbEntity
  8
0
  6
Continuous
 62
     7
370
    15
100
AcDbLine
 10
84.4882352641
 20
71.482965733
 30
0.0
 11
90.5561511421
 21
71.1789619314
 31
0.0
  0
LINE
  5
58
330
1F
100
AcDbEntity
  8
0
  6
Continuous
 62
     7
370
    15
100
AcDbLine
 10
58.2561511421
 20
72.7971984044
 30
0.0
 11
71.576102296
 21
72.1298661823
 31
0.0
  0
ARC
  5
59
330
1F
100
AcDbEntity
  8
0
  6
Continuous
 62
     7
370
    15
100
AcDbCircle
 10
91.6208163416
 20
70.4289619314
 30
0.0
 40
1.0
100
AcDbArc
 50
90.0
 51
105.0
  0
ARC
  5
5A
330
1F
100
AcDbEntity
  8
0
  6
Continuous
 62
     7
370
    15
100
AcDbCircle
 10
91.6208163416
 20
147.6934649375
 30
0.0
 40
1.0
100
AcDbArc
 50
255.0
 51
270.0
  0
LINE
  5
5B
330
1F
100
AcDbEntity
  8
0
  6
Continuous
 62
     7
370
    15
100
AcDbLine
 10
91.6208163416
 20
71.4289619314
 30
0.0
 11
92.1592142236
 21
71.4289619314
 31
0.0
  0
LINE
  5
5C
330
1F
100
AcDbEntity
  8
0
  6
Continuous
 62
     7
370
    15
100
AcDbLine
 10
92.1592142236
 20
146.6934649375
 30
0.0
 11
91.6208163416
 21
146.6934649375
 31
0.0
  0
ARC
  5
5D
330
1F
100
AcDbEntity
  8
0
  6
Continuous
 62
     7
370
    15
100
AcDbCircle
 10
127.0061511421
 20
83.1435937283
 30
0.0
 40
5.0
100
AcDbArc
 50
106.5116637356
 51
180.0
  0
ARC
  5
5E
330
1F
100
AcDbEntity
  8
0
  6
Continuous
 62
     7
370
    15
100
AcDbCircle
 10
127.0061511421
 20
134.9788331406
 30
0.0
 40
5.0
100
AcDbArc
 50
180.0
 51
253.4883362644
  0
ARC
  5
5F
330
1F
100
AcDbEntity
  8
0
  6
Continuous
 62
     7
370
    15
100
AcDbCircle
 10
154.0061511421
 20
-7.9387865655
 30
0.0
 40
100.0
100
AcDbArc
 50
90.0
 51
106.5116637356
  0
ARC
  5
60
330
1F
100
AcDbEntity
  8
0
  6
Continuous
 62
     7
370
    15
100
AcDbCircle
 10
154.0061511421
 20
226.0612134345
 30
0.0
 40
100.0
100
AcDbArc
 50
253.4883362644
 51
270.0
  0
LINE
  5
61
330
1F
100
AcDbEntity
  8
0
  6
Continuous
 62
     7
370
    15
100
AcDbLine
 10
44.8061511421
 20
76.8112134345
 30
0.0
 11
56.3561511421
 21
76.8112134345
 31
0.0
  0
ARC
  5
62
330
1F
100
AcDbEntity
  8
0
  6
Continuous
 62
     7
370
    15
100
AcDbCircle
 10
198.916722616
 20
-296.9387865655
 30
0.0
 40
390.0
100
AcDbArc
 50
90.0
 51
94.1039132162
  0
ARC
  5
63
330
1F
100
AcDbEntity
  8
0
  6
Continuous
 62
     7
370
    15
100
AcDbCircle
 10
198.916722616
 20
515.0612134345
 30
0.0
 40
390.0
100
AcDbArc
 50
265.8960867838
 51
270.0
  0
LINE
  5
64
330
1F
100
AcDbEntity
  8
0
  6
Continuous
 62
     7
370
    15
100
AcDbLine
 10
165.5049290723
 20
92.0612134345
 30
0.0
 11
171.0061511421
 21
92.0612134345
 31
0.0
  0
LINE
  5
65
330
1F
100
AcDbEntity
  8
0
  6
Continuous
 62
     7
370
    15
100
AcDbLine
 10
154.0061511421
 20
92.0612134345
 30
0.0
 11
158.5165060461
 21
92.0612134345
 31
0.0
  0
LINE
  5
66
330
1F
100
AcDbEntity
  8
0
  6
Continuous
 62
     7
370
    15
100
AcDbLine
 10
158.5081487442
 20
126.0612134345
 30
0.0
 11
154.0061511421
 21
126.0612134345
 31
0.0
  0
LINE
  5
67
330
1F
100
AcDbEntity
  8
0
  6
Continuous
 62
     7
370
    15
100
AcDbLine
 10
171.0061511421
 20
126.0612134345
 30
0.0
 11
165.502157772
 21
126.0612134345
 31
0.0
  0
ARC
  5
68
330
1F
100
AcDbEntity
  8
0
  6
Continuous
 62
     7
370
    15
100
AcDbCircle
 10
56.3561511421
 20
74.9112134345
 30
0.0
 40
1.900000000000006
100
AcDbArc
 50
35.6630613694
 51
90.0
  0
ARC
  5
69
330
1F
100
AcDbEntity
  8
0
  6
Continuous
 62
     7
370
    15
100
AcDbCircle
 10
51.3561511421
 20
143.2112134345
 30
0.0
 40
1.900000000000006
100
AcDbArc
 50
270.0
 51
312.7708047792
  0
LINE
  5
6A
330
1F
100
AcDbEntity
  8
0
  6
Continuous
 62
     7
370
    15
100
AcDbLine
 10
44.8061511421
 20
141.3112134345
 30
0.0
 11
43.2138646772
 21
139.7189269695
 31
0.0
  0
LINE
  5
6B
330
1F
100
AcDbEntity
  8
0
  6
Continuous
 62
     7
370
    15
100
AcDbLine
 10
43.2136740425
 20
78.403690534
 30
0.0
 11
44.8061511421
 21
76.8112134345
 31
0.0
  0
LINE
  5
6C
330
1F
100
AcDbEntity
  8
0
  6
Continuous
 62
     7
370
    15
100
AcDbLine
 10
51.3561511421
 20
141.3112134345
 30
0.0
 11
44.8061511421
 21
141.3112134345
 31
0.0
  0
LINE
  5
6D
330
1F
100
AcDbEntity
  8
0
  6
Continuous
 62
     7
370
    15
100
AcDbLine
 10
198.916722616
 20
93.0612134345
 30
0.0
 11
202.2313321974
 21
93.0612134345
 31
0.0
  0
LINE
  5
6E
330
1F
100
AcDbEntity
  8
0
  6
Continuous
 62
     7
370
    15
100
AcDbLine
 10
202.2313321974
 20
125.0612134345
 30
0.0
 11
198.916722616
 21
125.0612134345
 31
0.0
  0
LINE
  5
6F
330
1F
100
AcDbEntity
  8
0
  6
Continuous
 62
     7
370
    15
100
AcDbLine
 10
202.2313321974
 20
93.0612134345
 30
0.0
 11
251.2130693336
 21
96.9161597503
 31
0.0
  0
LINE
  5
70
330
1F
100
AcDbEntity
  8
0
  6
Continuous
 62
     7
370
    15
100
AcDbLine
 10
251.2130693336
 20
121.2062671186
 30
0.0
 11
202.2313321974
 21
125.0612134345
 31
0.0
  0
ARC
  5
71
330
1F
100
AcDbEntity
  8
0
  6
Continuous
 62
     7
370
    15
100
AcDbCircle
 10
251.0561511421
 20
98.9099944178
 30
0.0
 40
2.000000000000004
100
AcDbArc
 50
274.5
 51
0.0
  0
ARC
  5
72
330
1F
100
AcDbEntity
  8
0
  6
Continuous
 62
     7
370
    15
100
AcDbCircle
 10
251.0561511421
 20
119.2124324511
 30
0.0
 40
2.0
100
AcDbArc
 50
0.0
 51
85.5
  0
LINE
  5
73
330
1F
100
AcDbEntity
  8
0
  6
Continuous
 62
     7
370
    15
100
AcDbLine
 10
253.0561511421
 20
101.8117921034
 30
0.0
 11
253.1334733492
 21
99.8438105165
 31
0.0
  0
LINE
  5
74
330
1F
100
AcDbEntity
  8
0
  6
Continuous
 62
     7
370
    15
100
AcDbLine
 10
253.0681692776
 20
118.1176740775
 30
0.0
 11
253.0561511421
 21
117.8117921034
 31
0.0
  0
LINE
  5
75
330
1F
100
AcDbEntity
  8
0
  6
Continuous
 62
     7
370
    15
100
AcDbLine
 10
253.0745836256
 20
118.2809301359
 30
0.0
 11
253.0681692776
 21
118.1176740775
 31
0.0
  0
LINE
  5
76
330
1F
100
AcDbEntity
  8
0
  6
Continuous
 62
     7
370
    15
100
AcDbLine
 10
116.318180163
 20
60.2862198414
 30
0.0
 11
116.318180163
 21
140.4112134345
 31
0.0
  0
SPLINE
  5
77
330
1F
100
AcDbEntity
  8
0
  6
Continuous
 62
     7
370
    15
100
AcDbSpline
210
0.0
220
0.0
230
1.0
 70
     8
 71
     3
 72
     8
 73
     4
 74
     0
 42
0.00000001
 43
0.00000001
 40
0.0
 40
0.0
 40
0.0
 40
0.0
 40
1.0
 40
1.0
 40
1.0
 40
1.0
 10
116.3181801630181
 20
60.28621984142413
 30
0.0
 10
115.8670754336179
 20
61.08717977324405
 30
0.0
 10
115.4163776063745
 20
61.88836978480472
 30
0.0
 10
114.9661511420967
 20
62.68982514742947
 30
0.0
  0
LINE
  5
78
330
1F
100
AcDbEntity
  8
0
  6
Continuous
 62
     7
370
    15
100
AcDbLine
 10
114.9661511421
 20
62.6898251474
 30
0.0
 11
114.9661511421
 21
140.4112134345
 31
0.0
  0
SPLINE
  5
79
330
1F
100
AcDbEntity
  8
0
  6
Continuous
 62
     7
370
    15
100
AcDbSpline
210
0.0
220
0.0
230
1.0
 70
    24
 71
     3
 72
     8
 73
     4
 74
     0
 42
0.00000001
 43
0.00000001
 40
0.0
 40
0.0
 40
0.0
 40
0.0
 40
1.0
 40
1.0
 40
1.0
 40
1.0
 10
114.9661511420967
 20
140.4112134344529
 30
0.0
 10
115.4103640244507
 20
140.4112134344529
 30
0.0
 10
115.8613785906899
 20
140.4112134344529
 30
0.0
 10
116.3181801630181
 20
140.4112134344529
 30
0.0
  0
LINE
  5
7A
330
1F
100
AcDbEntity
  8
0
  6
Continuous
 62
     7
370
    15
100
AcDbLine
 10
121.0061511421
 20
60.2862198414
 30
0.0
 11
116.318180163
 21
60.2862198414
 31
0.0
  0
LINE
  5
7B
330
1F
100
AcDbEntity
  8
0
  6
Continuous
 62
     7
370
    15
100
AcDbLine
 10
116.318180163
 20
140.4112134345
 30
0.0
 11
121.0061511421
 21
140.4112134345
 31
0.0
  0
LINE
  5
7C
330
1F
100
AcDbEntity
  8
0
  6
Continuous
 62
     7
370
    15
100
AcDbLine
 10
122.0061511421
 20
61.3118678892
 30
0.0
 11
122.0061511421
 21
140.4112134345
 31
0.0
  0
SPLINE
  5
7D
330
1F
100
AcDbEntity
  8
0
  6
Continuous
 62
     7
370
    15
100
AcDbSpline
210
0.0
220
0.0
230
1.0
 70
     8
 71
     3
 72
    14
 73
    10
 74
     0
 42
0.00000001
 43
0.00000001
 40
0.0
 40
0.0
 40
0.0
 40
0.0
 40
0.25
 40
0.25
 40
0.5
 40
0.5
 40
0.75
 40
0.75
 40
1.0
 40
1.0
 40
1.0
 40
1.0
 10
122.0061511420968
 20
61.31186788919965
 30
0.0
 10
122.0061511420968
 20
61.1784421931451
 30
0.0
 10
121.9808400421859
 20
61.04659438530075
 30
0.0
 10
121.8825052783411
 20
60.80007183660665
 30
0.0
 10
121.8093612740851
 20
60.68626664836611
 30
0.0
 10
121.6259232129894
 20
60.49580947141883
 30
0.0
 10
121.5142368786508
 20
60.41817460756891
 30
0.0
 10
121.2717334483445
 20
60.31388319745645
 30
0.0
 10
121.1383590196503
 20
60.28621984142409
 30
0.0
 10
121.0061511420968
 20
60.2862198414241
 30
0.0
  0
SPLINE
  5
7E
330
1F
100
AcDbEntity
  8
0
  6
Continuous
 62
     7
370
    15
100
AcDbSpline
210
0.0
220
0.0
230
1.0
 70
    24
 71
     3
 72
    12
 73
     8
 74
     0
 42
0.00000001
 43
0.00000001
 40
0.0
 40
0.0
 40
0.0
 40
0.0
 40
0.2500000000000032
 40
0.2500000000000032
 40
0.5000000000000064
 40
0.5000000000000064
 40
1.0
 40
1.0
 40
1.0
 40
1.0
 10
121.0061511420968
 20
140.4112134344529
 30
0.0
 10
121.1582413790417
 20
140.4112134344529
 30
0.0
 10
121.3067006401172
 20
140.4112134344529
 30
0.0
 10
121.5641042723829
 20
140.4112134344529
 30
0.0
 10
121.6732090202248
 20
140.4112134344529
 30
0.0
 10
121.9272684966323
 20
140.4112134344529
 30
0.0
 10
122.0061511420968
 20
140.4112134344529
 30
0.0
 10
122.0061511420968
 20
140.4112134344529
 30
0.0
  0
LINE
  5
7F
330
1F
100
AcDbEntity
  8
0
  6
Continuous
 62
     7
370
    15
100
AcDbLine
 10
93.0561511421
 20
59.5612134345
 30
0.0
 11
93.0561511421
 21
158.5612134317
 31
0.0
  0
SPLINE
  5
80
330
1F
100
AcDbEntity
  8
0
  6
Continuous
 62
     7
370
    15
100
AcDbSpline
210
0.0
220
0.0
230
1.0
 70
     8
 71
     3
 72
    80
 73
    76
 74
     0
 42
0.00000001
 43
0.00000001
 40
-0.0312500000000001
 40
-0.0312500000000001
 40
0.0
 40
0.0
 40
0.0312499999999995
 40
0.0312499999999995
 40
0.0468749999999993
 40
0.0468749999999993
 40
0.0624999999999991
 40
0.0624999999999991
 40
0.0937499999999988
 40
0.0937499999999988
 40
0.1249999999999986
 40
0.1249999999999986
 40
0.1562499999999983
 40
0.1562499999999983
 40
0.1874999999999981
 40
0.1874999999999981
 40
0.2187499999999978
 40
0.2187499999999978
 40
0.2499999999999976
 40
0.2499999999999976
 40
0.2812499999999973
 40
0.2812499999999973
 40
0.3124999999999971
 40
0.3124999999999971
 40
0.3281249999999971
 40
0.3281249999999971
 40
0.3437499999999971
 40
0.3437499999999971
 40
0.3749999999999973
 40
0.3749999999999973
 40
0.4062499999999975
 40
0.4062499999999975
 40
0.4218749999999975
 40
0.4218749999999975
 40
0.4374999999999974
 40
0.4374999999999974
 40
0.4687499999999973
 40
0.4687499999999973
 40
0.4999999999999972
 40
0.4999999999999972
 40
0.531249999999997
 40
0.531249999999997
 40
0.562499999999997
 40
0.562499999999997
 40
0.5937499999999969
 40
0.5937499999999969
 40
0.6249999999999969
 40
0.6249999999999969
 40
0.6562499999999968
 40
0.6562499999999968
 40
0.6874999999999968
 40
0.6874999999999968
 40
0.7031249999999968
 40
0.7031249999999968
 40
0.7187499999999969
 40
0.7187499999999969
 40
0.7499999999999973
 40
0.7499999999999973
 40
0.7812499999999979
 40
0.7812499999999979
 40
0.7968749999999982
 40
0.7968749999999982
 40
0.8124999999999984
 40
0.8124999999999984
 40
0.8437499999999988
 40
0.8437499999999988
 40
0.874999999999999
 40
0.874999999999999
 40
0.9062499999999993
 40
0.9062499999999993
 40
0.9374999999999996
 40
0.9374999999999996
 40
0.9687499999999999
 40
0.9687499999999999
 40
1.0
 40
1.0
 40
1.03125
 40
1.03125
 10
101.7256058293204
 20
152.4758428980842
 30
0.0
 10
102.3866964548731
 20
152.4758428980842
 30
0.0
 10
102.7116765841247
 20
152.4920511294664
 30
0.0
 10
103.1911499953711
 20
152.539415761486
 30
0.0
 10
103.3496318132119
 20
152.5590699733766
 30
0.0
 10
103.6638513457162
 20
152.6061811295693
 30
0.0
 10
103.8199716293966
 20
152.6337624490639
 30
0.0
 10
104.2740256583532
 20
152.7262982358577
 30
0.0
 10
104.561129041293
 20
152.8013686694542
 30
0.0
 10
105.10448359732
 20
152.9766069780648
 30
0.0
 10
105.3615872085256
 20
153.0776082759031
 30
0.0
 10
105.8224934634644
 20
153.294964474364
 30
0.0
 10
106.0293911726794
 20
153.4121288061362
 30
0.0
 10
106.3949164866716
 20
153.6621987303648
 30
0.0
 10
106.5501220087975
 20
153.7931448191238
 30
0.0
 10
106.7995523953972
 20
154.0588797628362
 30
0.0
 10
106.8956423511824
 20
154.1956333561471
 30
0.0
 10
107.024161200376
 20
154.4696989309861
 30
0.0
 10
107.0559720705538
 20
154.6046390214549
 30
0.0
 10
107.056328720327
 20
154.8701106585237
 30
0.0
 10
107.02383146813
 20
155.001935135665
 30
0.0
 10
106.8962059944155
 20
155.2513847352853
 30
0.0
 10
106.8017775933636
 20
155.3698174272133
 30
0.0
 10
106.613916773378
 20
155.5386866243074
 30
0.0
 10
106.5430887745748
 20
155.5937726194276
 30
0.0
 10
106.3883668826095
 20
155.699025447916
 30
0.0
 10
106.3043904124262
 20
155.7493606766764
 30
0.0
 10
106.0330667427817
 20
155.8939365092145
 30
0.0
 10
105.8265175241794
 20
155.9817980956315
 30
0.0
 10
105.3599073839904
 20
156.141519188631
 30
0.0
 10
105.1075418143649
 20
156.2107574850981
 30
0.0
 10
104.7016404726862
 20
156.300544874328
 30
0.0
 10
104.5617398552087
 20
156.3281108364142
 30
0.0
 10
104.2725159199618
 20
156.3786016373405
 30
0.0
 10
104.1226764636725
 20
156.4015650761912
 30
0.0
 10
103.6685598940617
 20
156.46219559261
 30
0.0
 10
103.3569086753249
 20
156.4922696214058
 30
0.0
 10
102.7159122104125
 20
156.5328592086645
 30
0.0
 10
102.3843845824603
 20
156.5431714388805
 30
0.0
 10
101.7315935373888
 20
156.5432470060463
 30
0.0
 10
101.407057332357
 20
156.5333454005786
 30
0.0
 10
100.7617878829406
 20
156.4928588700533
 30
0.0
 10
100.4460448767779
 20
156.4623975701687
 30
0.0
 10
99.84415558179418
 20
156.3822468987321
 30
0.0
 10
99.55340635098273
 20
156.3319646669249
 30
0.0
 10
99.00649455929822
 20
156.2112944841519
 30
0.0
 10
98.75471719546131
 20
156.1420706249819
 30
0.0
 10
98.29332920284017
 20
155.9846188973413
 30
0.0
 10
98.0820599232421
 20
155.8952704226675
 30
0.0
 10
97.7187555708659
 20
155.7020225519667
 30
0.0
 10
97.5649489224231
 20
155.5978945600874
 30
0.0
 10
97.37632945282569
 20
155.4292701739039
 30
0.0
 10
97.32029896661659
 20
155.370641772229
 30
0.0
 10
97.22472520488041
 20
155.2511868574028
 30
0.0
 10
97.18496228785541
 20
155.1902670685645
 30
0.0
 10
97.08919053754327
 20
155.0038623423907
 30
0.0
 10
97.05646769841717
 20
154.8747495245956
 30
0.0
 10
97.05583911208808
 20
154.6060926016398
 30
0.0
 10
97.08802525682286
 20
154.470721860883
 30
0.0
 10
97.18293595867844
 20
154.267171552647
 30
0.0
 10
97.22240274207739
 20
154.1991996285836
 30
0.0
 10
97.31733274079828
 20
154.0631074054527
 30
0.0
 10
97.37308956856165
 20
153.9947573052433
 30
0.0
 10
97.56102968653154
 20
153.7940542922011
 30
0.0
 10
97.71439115624771
 20
153.6646660183884
 30
0.0
 10
98.07665539112807
 20
153.4160005863386
 30
0.0
 10
98.28750386459397
 20
153.2961909439704
 30
0.0
 10
98.74817383491289
 20
153.0786686563978
 30
0.0
 10
98.99954821449671
 20
152.9795835565618
 30
0.0
 10
99.54545610139486
 20
152.802911082645
 30
0.0
 10
99.83627867604608
 20
152.726853994511
 30
0.0
 10
100.4376052908261
 20
152.6040090171579
 30
0.0
 10
100.7521238754385
 20
152.5563028921048
 30
0.0
 10
101.3987053315584
 20
152.4920543569852
 30
0.0
 10
101.7256058293204
 20
152.4758428980842
 30
0.0
 10
102.3866964548731
 20
152.4758428980842
 30
0.0
  0
LINE
  5
81
330
1F
100
AcDbEntity
  8
0
  6
Continuous
 62
     7
370
    15
100
AcDbLine
 10
98.0061511421
 20
140.4112134345
 30
0.0
 11
109.7941221212
 21
140.4112134345
 31
0.0
  0
LINE
  5
82
330
1F
100
AcDbEntity
  8
0
  6
Continuous
 62
     7
370
    15
100
AcDbLine
 10
109.7941221212
 20
60.2862198414
 30
0.0
 11
109.7941221212
 21
140.4112134345
 31
0.0
  0
LINE
  5
83
330
1F
100
AcDbEntity
  8
0
  6
Continuous
 62
     7
370
    15
100
AcDbLine
 10
109.7941221212
 20
60.2862198414
 30
0.0
 11
108.0061511421
 21
60.2862198414
 31
0.0
  0
SPLINE
  5
84
330
1F
100
AcDbEntity
  8
0
  6
Continuous
 62
     7
370
    15
100
AcDbSpline
210
0.0
220
0.0
230
1.0
 70
     8
 71
     3
 72
    30
 73
    26
 74
     0
 42
0.00000001
 43
0.00000001
 40
0.0
 40
0.0
 40
0.0
 40
0.0
 40
0.1250000000000002
 40
0.1250000000000002
 40
0.1875000000000003
 40
0.1875000000000003
 40
0.2500000000000004
 40
0.2500000000000004
 40
0.3750000000000001
 40
0.3750000000000001
 40
0.4374999999999998
 40
0.4374999999999998
 40
0.4999999999999996
 40
0.4999999999999996
 40
0.6249999999999996
 40
0.6249999999999996
 40
0.6874999999999997
 40
0.6874999999999997
 40
0.7499999999999997
 40
0.7499999999999997
 40
0.8124999999999998
 40
0.8124999999999998
 40
0.8749999999999999
 40
0.8749999999999999
 40
1.0
 40
1.0
 40
1.0
 40
1.0
 10
108.0061511420967
 20
60.28621984142413
 30
0.0
 10
107.3434064482517
 20
60.28621984142414
 30
0.0
 10
106.692150589136
 20
60.27137976483532
 30
0.0
 10
105.7317000508777
 20
60.22901020060571
 30
0.0
 10
105.4143086076448
 20
60.21153209782653
 30
0.0
 10
104.7851451060899
 20
60.17020381127423
 30
0.0
 10
104.4729969196482
 20
60.14627853781653
 30
0.0
 10
103.5656896177999
 20
60.06747202134962
 30
0.0
 10
102.9922646601587
 20
60.00516600137315
 30
0.0
 10
102.178387790584
 20
59.90203668113379
 30
0.0
 10
101.9135815940141
 20
59.86585276208729
 30
0.0
 10
101.4066741831998
 20
59.79205797788678
 30
0.0
 10
101.1652800318463
 20
59.75458411911514
 30
0.0
 10
100.476138559714
 20
59.6418721757754
 30
0.0
 10
100.0630837448497
 20
59.56633607830162
 30
0.0
 10
99.51492892547469
 20
59.45794282128412
 30
0.0
 10
99.3454663181291
 20
59.42287058962086
 30
0.0
 10
99.03744907011372
 20
59.35663512902102
 30
0.0
 10
98.89806904950537
 20
59.32530843226629
 30
0.0
 10
98.64828353687862
 20
59.26689966068536
 30
0.0
 10
98.5378774242247
 20
59.23981642550251
 30
0.0
 10
98.34661957058698
 20
59.19055667088892
 30
0.0
 10
98.2655000523027
 20
59.16829469108128
 30
0.0
 10
98.07135313219429
 20
59.11072778391301
 30
0.0
 10
98.00615114209674
 20
59.08446817912701
 30
0.0
 10
98.00615114209675
 20
59.07121443465299
 30
0.0
  0
LINE
  5
85
330
1F
100
AcDbEntity
  8
0
  6
Continuous
 62
     7
370
    15
100
AcDbLine
 10
98.0061511421
 20
59.0712144347
 30
0.0
 11
98.0061511421
 21
59.0612134345
 31
0.0
  0
SPLINE
  5
86
330
1F
100
AcDbEntity
  8
0
  6
Continuous
 62
     7
370
    15
100
AcDbSpline
210
0.0
220
0.0
230
1.0
 70
     8
 71
     3
 72
    17
 73
    13
 74
     0
 42
0.00000001
 43
0.00000001
 40
0.0
 40
0.0
 40
0.0
 40
0.0
 40
0.104384384054747
 40
0.2118345768143993
 40
0.316208200519045
 40
0.4235375806108392
 40
0.5292276236193852
 40
0.6379275864803491
 40
0.7444714844189683
 40
0.8541836219421859
 40
0.9593080534965217
 40
1.0
 40
1.0
 40
1.0
 40
1.0
 10
108.0061511420967
 20
158.0510082901165
 30
0.0
 10
107.4582126942374
 20
158.0563764938653
 30
0.0
 10
106.3462426397726
 20
158.0672705675302
 30
0.0
 10
104.7333867265577
 20
158.1524479417891
 30
0.0
 10
103.1998735095808
 20
158.2788226480817
 30
0.0
 10
101.8088526602441
 20
158.4357254686585
 30
0.0
 10
100.5733361430138
 20
158.6074242981791
 30
0.0
 10
99.54998037585852
 20
158.7727605742801
 30
0.0
 10
98.7496383775934
 20
158.9164740538667
 30
0.0
 10
98.23930627567984
 20
159.0146288610459
 30
0.0
 10
97.99939784685532
 20
159.0625572579158
 30
0.0
 10
98.03131662627513
 20
159.0561898586761
 30
0.0
 10
98.04022397455732
 20
159.0544129535529
 30
0.0
  0
LINE
  5
87
330
1F
100
AcDbEntity
  8
0
  6
Continuous
 62
     7
370
    15
100
AcDbLine
 10
109.7941221212
 20
158.0510082901
 30
0.0
 11
108.0061511421
 21
158.0510082901
 31
0.0
  0
LINE
  5
88
330
1F
100
AcDbEntity
  8
0
  6
Continuous
 62
     7
370
    15
100
AcDbLine
 10
109.7941221212
 20
148.0121761953
 30
0.0
 11
109.7941221212
 21
158.0510082901
 31
0.0
  0
LINE
  5
89
330
1F
100
AcDbEntity
  8
0
  6
Continuous
 62
     7
370
    15
100
AcDbLine
 10
107.7141179903
 20
148.0121761953
 30
0.0
 11
109.7941221212
 21
148.0121761953
 31
0.0
  0
SPLINE
  5
8A
330
1F
100
AcDbEntity
  8
0
  6
Continuous
 62
     7
370
    15
100
AcDbSpline
210
0.0
220
0.0
230
1.0
 70
     8
 71
     3
 72
    22
 73
    18
 74
     0
 42
0.00000001
 43
0.00000001
 40
0.0
 40
0.0
 40
0.0
 40
0.0
 40
0.2500000000000002
 40
0.2500000000000002
 40
0.3750000000000003
 40
0.3750000000000003
 40
0.5000000000000004
 40
0.5000000000000004
 40
0.6250000000000004
 40
0.6250000000000004
 40
0.7500000000000004
 40
0.7500000000000004
 40
0.8750000000000004
 40
0.8750000000000004
 40
0.9375000000000002
 40
0.9375000000000002
 40
1.0
 40
1.0
 40
1.0
 40
1.0
 10
98.00615114209674
 20
140.4112134344529
 30
0.0
 10
98.20887609801584
 20
141.4304597763176
 30
0.0
 10
98.52361981981122
 20
142.3895679262569
 30
0.0
 10
99.23167528948218
 20
143.7320470037661
 30
0.0
 10
99.51013791969983
 20
144.1662555865062
 30
0.0
 10
100.148905326337
 20
144.9778833020083
 30
0.0
 10
100.5093190061272
 20
145.3571635949451
 30
0.0
 10
101.3268512381165
 20
146.0601221739661
 30
0.0
 10
101.7880192214036
 20
146.3851509916667
 30
0.0
 10
102.7860094678874
 20
146.9501663150576
 30
0.0
 10
103.3257686618797
 20
147.1938699092641
 30
0.0
 10
104.500361625911
 20
147.5980698369091
 30
0.0
 10
105.1120978119029
 20
147.7505070299546
 30
0.0
 10
106.0640070367646
 20
147.9058345775633
 30
0.0
 10
106.3872402010253
 20
147.9453393576133
 30
0.0
 10
107.0463033723005
 20
147.998648478282
 30
0.0
 10
107.3803673828745
 20
148.0121761953399
 30
0.0
 10
107.7141179902761
 20
148.0121761953399
 30
0.0
  0
LINE
  5
8B
330
1F
100
AcDbEntity
  8
0
  6
Continuous
 62
     7
370
    15
100
AcDbLine
 10
111.1461511421
 20
62.6898251474
 30
0.0
 11
111.1461511421
 21
140.4112134345
 31
0.0
  0
SPLINE
  5
8C
330
1F
100
AcDbEntity
  8
0
  6
Continuous
 62
     7
370
    15
100
AcDbSpline
210
0.0
220
0.0
230
1.0
 70
     8
 71
     3
 72
     8
 73
     4
 74
     0
 42
0.00000001
 43
0.00000001
 40
0.0
 40
0.0
 40
0.0
 40
0.0
 40
1.0
 40
1.0
 40
1.0
 40
1.0
 10
111.1461511420968
 20
62.68982514742946
 30
0.0
 10
110.695924677819
 20
61.88836978480471
 30
0.0
 10
110.2452268505756
 20
61.08717977324404
 30
0.0
 10
109.7941221211754
 20
60.28621984142413
 30
0.0
  0
SPLINE
  5
8D
330
1F
100
AcDbEntity
  8
0
  6
Continuous
 62
     7
370
    15
100
AcDbSpline
210
0.0
220
0.0
230
1.0
 70
    24
 71
     3
 72
     8
 73
     4
 74
     0
 42
0.00000001
 43
0.00000001
 40
0.0
 40
0.0
 40
0.0
 40
0.0
 40
1.0
 40
1.0
 40
1.0
 40
1.0
 10
109.7941221211754
 20
140.4112134344529
 30
0.0
 10
110.2509236935036
 20
140.4112134344529
 30
0.0
 10
110.7019382597428
 20
140.4112134344529
 30
0.0
 10
111.1461511420968
 20
140.4112134344529
 30
0.0
  0
SPLINE
  5
8E
330
1F
100
AcDbEntity
  8
0
  6
Continuous
 62
     7
370
    15
100
AcDbSpline
210
0.0
220
0.0
230
1.0
 70
     8
 71
     3
 72
    14
 73
    10
 74
     0
 42
0.00000001
 43
0.00000001
 40
0.0
 40
0.0
 40
0.0
 40
0.0
 40
0.25
 40
0.25
 40
0.5
 40
0.5
 40
0.75
 40
0.75
 40
1.0
 40
1.0
 40
1.0
 40
1.0
 10
114.9661511420968
 20
63.59803465205805
 30
0.0
 10
114.9661511420967
 20
63.70507873305244
 30
0.0
 10
114.9460334549386
 20
63.81031387329489
 30
0.0
 10
114.867542265673
 20
64.00816436014256
 30
0.0
 10
114.8093856408718
 20
64.09921612370749
 30
0.0
 10
114.6628703852537
 20
64.25238221763227
 30
0.0
 10
114.5742278366126
 20
64.31467666384168
 30
0.0
 10
114.3785045138123
 20
64.39947044937766
 30
0.0
 10
114.2732733227413
 20
64.42153797640329
 30
0.0
 10
114.1661511420968
 20
64.42153797640329
 30
0.0
  0
SPLINE
  5
8F
330
1F
100
AcDbEntity
  8
0
  6
Continuous
 62
     7
370
    15
100
AcDbSpline
210
0.0
220
0.0
230
1.0
 70
    24
 71
     3
 72
    14
 73
    10
 74
     0
 42
0.00000001
 43
0.00000001
 40
0.0
 40
0.0
 40
0.0
 40
0.0
 40
0.25
 40
0.25
 40
0.5
 40
0.5
 40
0.75
 40
0.75
 40
1.0
 40
1.0
 40
1.0
 40
1.0
 10
114.1661511420968
 20
140.4112134344529
 30
0.0
 10
114.2899209068619
 20
140.4112134344529
 30
0.0
 10
114.4142880108688
 20
140.4112134344529
 30
0.0
 10
114.6206444795948
 20
140.4112134344529
 30
0.0
 10
114.7059726230132
 20
140.4112134344529
 30
0.0
 10
114.8381646817284
 20
140.4112134344529
 30
0.0
 10
114.886809925479
 20
140.4112134344529
 30
0.0
 10
114.9503457172078
 20
140.4112134344529
 30
0.0
 10
114.9661511420968
 20
140.4112134344529
 30
0.0
 10
114.9661511420968
 20
140.4112134344529
 30
0.0
  0
SPLINE
  5
90
330
1F
100
AcDbEntity
  8
0
  6
Continuous
 62
     7
370
    15
100
AcDbSpline
210
0.0
220
0.0
230
1.0
 70
     8
 71
     3
 72
    12
 73
     8
 74
     0
 42
0.00000001
 43
0.00000001
 40
0.0
 40
0.0
 40
0.0
 40
0.0
 40
0.250000000000003
 40
0.250000000000003
 40
0.500000000000006
 40
0.500000000000006
 40
1.0
 40
1.0
 40
1.0
 40
1.0
 10
111.9461511420967
 20
64.42153797640329
 30
0.0
 10
111.8403904887478
 20
64.42153797640329
 30
0.0
 10
111.7324028605648
 20
64.3989984704029
 30
0.0
 10
111.5378081952992
 20
64.31442783840757
 30
0.0
 10
111.4489362824604
 20
64.25194618564875
 30
0.0
 10
111.2297439901345
 20
64.02255723417652
 30
0.0
 10
111.1461511420967
 20
63.80997389665411
 30
0.0
 10
111.1461511420967
 20
63.5980346520579
 30
0.0
  0
SPLINE
  5
91
330
1F
100
AcDbEntity
  8
0
  6
Continuous
 62
     7
370
    15
100
AcDbSpline
210
0.0
220
0.0
230
1.0
 70
    24
 71
     3
 72
    14
 73
    10
 74
     0
 42
0.00000001
 43
0.00000001
 40
0.0
 40
0.0
 40
0.0
 40
0.0
 40
0.25
 40
0.25
 40
0.5
 40
0.5
 40
0.75
 40
0.75
 40
1.0
 40
1.0
 40
1.0
 40
1.0
 10
111.1461511420967
 20
140.4112134344529
 30
0.0
 10
111.1461511420967
 20
140.4112134344529
 30
0.0
 10
111.1618654625627
 20
140.4112134344529
 30
0.0
 10
111.2255494410311
 20
140.4112134344529
 30
0.0
 10
111.2741526354415
 20
140.4112134344529
 30
0.0
 10
111.4068361578671
 20
140.4112134344529
 30
0.0
 10
111.4919382621778
 20
140.4112134344529
 30
0.0
 10
111.6983804970878
 20
140.4112134344529
 30
0.0
 10
111.8224614387108
 20
140.4112134344529
 30
0.0
 10
111.9461511420967
 20
140.4112134344529
 30
0.0
  0
LINE
  5
92
330
1F
100
AcDbEntity
  8
0
  6
Continuous
 62
     7
370
    15
100
AcDbLine
 10
114.1661511421
 20
64.4215379764
 30
0.0
 11
111.9461511421
 21
64.4215379764
 31
0.0
  0
LINE
  5
93
330
1F
100
AcDbEntity
  8
0
  6
Continuous
 62
     7
370
    15
100
AcDbLine
 10
111.9461511421
 20
140.4112134345
 30
0.0
 11
114.1661511421
 21
140.4112134345
 31
0.0
  0
LINE
  5
94
330
1F
100
AcDbEntity
  8
0
  6
Continuous
 62
     7
370
    15
100
AcDbLine
 10
90.5561511421
 20
71.1789619314
 30
0.0
 11
90.5561511421
 21
146.9434649375
 31
0.0
  0
LINE
  5
95
330
1F
100
AcDbEntity
  8
0
  6
Continuous
 62
     7
370
    15
100
AcDbLine
 10
58.2561511421
 20
72.7971984044
 30
0.0
 11
58.2561511421
 21
75.1918801691
 31
0.0
  0
SPLINE
  5
96
330
1F
100
AcDbEntity
  8
0
  6
Continuous
 62
     7
370
    15
100
AcDbSpline
210
0.0
220
0.0
230
1.0
 70
     8
 71
     3
 72
    14
 73
    10
 74
     0
 42
0.00000001
 43
0.00000001
 40
0.0
 40
0.0
 40
0.0
 40
0.0
 40
0.25
 40
0.25
 40
0.5
 40
0.5
 40
0.75
 40
0.75
 40
1.0
 40
1.0
 40
1.0
 40
1.0
 10
57.2517286707598
 20
76.89473209070941
 30
0.0
 10
57.34049724870512
 20
76.73619795940145
 30
0.0
 10
57.46221508738402
 20
76.58375528251291
 30
0.0
 10
57.69726469724086
 20
76.28662065868399
 30
0.0
 10
57.81289488345776
 20
76.14193801506661
 30
0.0
 10
58.01329981688558
 20
75.85864881256322
 30
0.0
 10
58.09870010886989
 20
75.72009481952635
 30
0.0
 10
58.22040574258713
 20
75.44871078949284
 30
0.0
 10
58.25615114209977
 20
75.3165749208582
 30
0.0
 10
58.25615114209975
 20
75.19188016908744
 30
0.0
  0
SPLINE
  5
97
330
1F
100
AcDbEntity
  8
0
  6
Continuous
 62
     7
370
    15
100
AcDbSpline
210
0.0
220
0.0
230
1.0
 70
     8
 71
     3
 72
    14
 73
    10
 74
     0
 42
0.00000001
 43
0.00000001
 40
0.0
 40
0.0
 40
0.0
 40
0.0
 40
0.124999999999999
 40
0.124999999999999
 40
0.249999999999998
 40
0.249999999999998
 40
0.5000000000000007
 40
0.5000000000000007
 40
1.0
 40
1.0
 40
1.0
 40
1.0
 10
56.35615114209674
 20
77.52356202980953
 30
0.0
 10
56.42373344188125
 20
77.53071791491092
 30
0.0
 10
56.49622101962915
 20
77.52629344487188
 30
0.0
 10
56.62851212889508
 20
77.49658728710155
 30
0.0
 10
56.68578950828526
 20
77.47330300552332
 30
0.0
 10
56.83543993548554
 20
77.395817765673
 30
0.0
 10
56.90915323100704
 20
77.33396593877164
 30
0.0
 10
57.09696121433328
 20
77.14928848612333
 30
0.0
 10
57.18100152069474
 20
77.0210455628321
 30
0.0
 10
57.251728670761
 20
76.89473209070951
 30
0.0
  0
SPLINE
  5
98
330
1F
100
AcDbEntity
  8
0
  6
Continuous
 62
     7
370
    15
100
AcDbSpline
210
0.0
220
0.0
230
1.0
 70
     8
 71
     3
 72
     8
 73
     4
 74
     0
 42
0.00000001
 43
0.00000001
 40
0.0
 40
0.0
 40
0.0
 40
0.0
 40
1.0
 40
1.0
 40
1.0
 40
1.0
 10
52.81151075401597
 20
77.10551344501773
 30
0.0
 10
53.97680906472484
 20
77.26070091690434
 30
0.0
 10
55.16142427876465
 20
77.39705955521467
 30
0.0
 10
56.35615114209674
 20
77.52356202980954
 30
0.0
  0
SPLINE
  5
99
330
1F
100
AcDbEntity
  8
0
  6
Continuous
 62
     7
370
    15
100
AcDbSpline
210
0.0
220
0.0
230
1.0
 70
     8
 71
     3
 72
    14
 73
    10
 74
     0
 42
0.00000001
 43
0.00000001
 40
0.0
 40
0.0
 40
0.0
 40
0.0
 40
0.5000000000000012
 40
0.5000000000000012
 40
0.7500000000000018
 40
0.7500000000000018
 40
0.8750000000000009
 40
0.8750000000000009
 40
1.0
 40
1.0
 40
1.0
 40
1.0
 10
45.0560762580664
 20
76.8153812658878
 30
0.0
 10
46.36437782060043
 20
76.82239598962892
 30
0.0
 10
47.66943719525754
 20
76.8378045660734
 30
0.0
 10
49.61531324674623
 20
76.89170112154007
 30
0.0
 10
50.26201075048538
 20
76.91473268614277
 30
0.0
 10
51.22585311433993
 20
76.96567521101352
 30
0.0
 10
51.54609180627406
 20
76.98541013324672
 30
0.0
 10
52.18278703261661
 20
77.0348972617183
 30
0.0
 10
52.49950244089963
 20
77.06396204064754
 30
0.0
 10
52.81151075401599
 20
77.1055134450177
 30
0.0
  0
SPLINE
  5
9A
330
1F
100
AcDbEntity
  8
0
  6
Continuous
 62
     7
370
    15
100
AcDbSpline
210
0.0
220
0.0
230
1.0
 70
     8
 71
     3
 72
    12
 73
     8
 74
     0
 42
0.00000001
 43
0.00000001
 40
0.0
 40
0.0
 40
0.0
 40
0.0
 40
0.2500000000000001
 40
0.2500000000000001
 40
0.5000000000000001
 40
0.5000000000000001
 40
1.0
 40
1.0
 40
1.0
 40
1.0
 10
51.35615114209676
 20
141.1477363259494
 30
0.0
 10
50.83745232026857
 20
141.1802591007976
 30
0.0
 10
50.31574074706357
 20
141.2035558419681
 30
0.0
 10
49.26944873056802
 20
141.2414013563902
 30
0.0
 10
48.74477710489774
 20
141.2556698308863
 30
0.0
 10
47.16793108235851
 20
141.2898793183446
 30
0.0
 10
46.11297576781162
 20
141.3013788222885
 30
0.0
 10
45.0560762580664
 20
141.3070456030181
 30
0.0
  0
SPLINE
  5
9B
330
1F
100
AcDbEntity
  8
0
  6
Continuous
 62
     7
370
    15
100
AcDbSpline
210
0.0
220
0.0
230
1.0
 70
     8
 71
     3
 72
    20
 73
    16
 74
     0
 42
0.00000001
 43
0.00000001
 40
0.0
 40
0.0
 40
0.0
 40
0.0
 40
0.2500000000000011
 40
0.2500000000000011
 40
0.5000000000000021
 40
0.5000000000000021
 40
0.7500000000000031
 40
0.7500000000000031
 40
0.8750000000000008
 40
0.8750000000000008
 40
0.9375000000000006
 40
0.9375000000000006
 40
0.9687500000000003
 40
0.9687500000000003
 40
1.0
 40
1.0
 40
1.0
 40
1.0
 10
53.25615114209675
 20
142.8058221714375
 30
0.0
 10
53.25615114209675
 20
142.6701398516907
 30
0.0
 10
53.20743935288012
 20
142.5290528655507
 30
0.0
 10
53.03827792965493
 20
142.2369811468201
 30
0.0
 10
52.91649751573663
 20
142.0853324047297
 30
0.0
 10
52.6189504209871
 20
141.7829239645766
 30
0.0
 10
52.44503781528434
 20
141.6303353284533
 30
0.0
 10
52.12562298140251
 20
141.405064564611
 30
0.0
 10
52.01058220595525
 20
141.3303414701003
 30
0.0
 10
51.80349788193883
 20
141.2309310608433
 30
0.0
 10
51.72739004713245
 20
141.1993659684987
 30
0.0
 10
51.5959955075791
 20
141.1649225843057
 30
0.0
 10
51.54944228857764
 20
141.1558710125381
 30
0.0
 10
51.45310893749692
 20
141.1456953636996
 30
0.0
 10
51.40384951414148
 20
141.1447456050246
 30
0.0
 10
51.35615114209477
 20
141.1477363259392
 30
0.0
  0
LINE
  5
9C
330
1F
100
AcDbEntity
  8
0
  6
Continuous
 62
     7
370
    15
100
AcDbLine
 10
53.2561511421
 20
142.8058221714
 30
0.0
 11
53.2561511421
 21
145.0747274625
 31
0.0
  0
SPLINE
  5
9D
330
1F
100
AcDbEntity
  8
0
  6
Continuous
 62
     7
370
    15
100
AcDbSpline
210
0.0
220
0.0
230
1.0
 70
     8
 71
     3
 72
    22
 73
    18
 74
     0
 42
0.00000001
 43
0.00000001
 40
0.0
 40
0.0
 40
0.0
 40
0.0
 40
0.0002937850458186
 40
0.0628841327416245
 40
0.1261981682954119
 40
0.2510182590426545
 40
0.3131038291609287
 40
0.3757650688901397
 40
0.4382989835656159
 40
0.5000628079113862
 40
0.5617337561138577
 40
0.6246555685552369
 40
0.7491916976530832
 40
0.8115302181310354
 40
0.8745847230190956
 40
0.937822758820794
 40
1.0
 40
1.0
 40
1.0
 40
1.0
 10
71.57610740593617
 20
72.12996817614057
 30
0.0
 10
71.57591255252596
 20
72.12994386882072
 30
0.0
 10
71.5342045490453
 20
72.12474093303386
 30
0.0
 10
71.67946765222925
 20
72.14335514092177
 30
0.0
 10
72.14961382939958
 20
72.19988109151775
 30
0.0
 10
73.11806991198367
 20
72.30610272094319
 30
0.0
 10
74.43052972154504
 20
72.39173552837462
 30
0.0
 10
75.56265343017759
 20
72.4303915944735
 30
0.0
 10
76.78484020679959
 20
72.43405290225199
 30
0.0
 10
78.05213859432894
 20
72.39166748748212
 30
0.0
 10
79.31885024856203
 20
72.30329050980679
 30
0.0
 10
80.9345082444266
 20
72.13324138118293
 30
0.0
 10
82.37447085445021
 20
71.91105964662948
 30
0.0
 10
83.44034001061411
 20
71.70806353849494
 30
0.0
 10
84.02954039405205
 20
71.5840381055456
 30
0.0
 10
84.41825990934264
 20
71.4991172651007
 30
0.0
 10
84.46504562217206
 20
71.48839054729636
 30
0.0
 10
84.48824061579933
 20
71.48307255306122
 30
0.0
  0
SPLINE
  5
9E
330
1F
100
AcDbEntity
  8
0
  6
Continuous
 62
     7
370
    15
100
AcDbSpline
210
0.0
220
0.0
230
1.0
 70
     8
 71
     3
 72
    41
 73
    37
 74
     0
 42
0.00000001
 43
0.00000001
 40
0.0
 40
0.0
 40
0.0
 40
0.0
 40
0.0619930061482746
 40
0.1254347783466151
 40
0.1886508898234768
 40
0.2510246408607227
 40
0.3131658188976554
 40
0.3756581641417402
 40
0.4382227146727798
 40
0.4998044922940677
 40
0.56151641971787
 40
0.6240683094121985
 40
0.686725723240935
 40
0.7488365305144522
 40
0.8110685944253986
 40
0.8741742884451361
 40
0.9373212787645211
 40
0.9685511709617411
 40
0.9842086872487193
 40
0.9920641182531791
 40
0.996000486125535
 40
0.9979710794120144
 40
0.9989570090489596
 40
0.9994501359395065
 40
0.9996967403802177
 40
0.9998200529090742
 40
0.9998817117580818
 40
0.999912541829664
 40
0.9999279570273361
 40
0.9999356646666602
 40
0.9999395184964466
 40
0.9999414454138695
 40
0.9999424088732151
 40
0.9999433723329806
 40
0.9999501697010513
 40
1.0
 40
1.0
 40
1.0
 40
1.0
 10
84.48811928532132
 20
146.6393092978932
 30
0.0
 10
84.46454763997772
 20
146.6339998182433
 30
0.0
 10
84.41685348393266
 20
146.6232567773037
 30
0.0
 10
84.0248114945071
 20
146.5380276408483
 30
0.0
 10
83.43429744523691
 20
146.4134588622075
 30
0.0
 10
82.63025999919182
 20
146.2605119160557
 30
0.0
 10
81.6541845990103
 20
146.0987553621021
 30
0.0
 10
80.53237586372981
 20
145.9465225941699
 30
0.0
 10
79.31884494394257
 20
145.8187426529686
 30
0.0
 10
78.05401423754336
 20
145.7308941012859
 30
0.0
 10
76.78597120010062
 20
145.6885086174153
 30
0.0
 10
75.56246384239951
 20
145.692244425387
 30
0.0
 10
74.4289653019855
 20
145.7308398958351
 30
0.0
 10
73.4428594910113
 20
145.7952792671262
 30
0.0
 10
72.63423168222408
 20
145.8687890744074
 30
0.0
 10
72.03761298711488
 20
145.9361027592192
 30
0.0
 10
71.7222216976568
 20
145.9740673104871
 30
0.0
 10
71.61215512885887
 20
145.987866369819
 30
0.0
 10
71.58473574104468
 20
145.9913524437396
 30
0.0
 10
71.57781369021518
 20
145.992231669433
 30
0.0
 10
71.57604545003177
 20
145.9924524440393
 30
0.0
 10
71.5755850708584
 20
145.99250764675
 30
0.0
 10
71.5754609121736
 20
145.9925213865371
 30
0.0
 10
71.57542535768042
 20
145.9925247823681
 30
0.0
 10
71.57541421361033
 20
145.9925256106884
 30
0.0
 10
71.57541030041422
 20
145.9925258072772
 30
0.0
 10
71.57540875820939
 20
145.9925258512073
 30
0.0
 10
71.57540809120788
 20
145.992525859514
 30
0.0
 10
71.57540778303013
 20
145.9925258603443
 30
0.0
 10
71.57540763626407
 20
145.9925258597991
 30
0.0
 10
71.57540756331163
 20
145.9925258594692
 30
0.0
 10
71.57540752891924
 20
145.9925258590319
 30
0.0
 10
71.57540750667408
 20
145.9925258591205
 30
0.0
 10
71.57540747956465
 20
145.9925258562855
 30
0.0
 10
71.5754049600033
 20
145.9925261431406
 30
0.0
 10
71.57544104992134
 20
145.9925215230399
 30
0.0
 10
71.57547280774398
 20
145.9925174575185
 30
0.0
  0
SPLINE
  5
9F
330
1F
100
AcDbEntity
  8
0
  6
Continuous
 62
     7
370
    15
100
AcDbSpline
210
0.0
220
0.0
230
1.0
 70
     8
 71
     3
 72
    20
 73
    16
 74
     0
 42
0.00000001
 43
0.00000001
 40
0.0
 40
0.0
 40
0.0
 40
0.0
 40
0.249999999999986
 40
0.249999999999986
 40
0.3749999999999789
 40
0.3749999999999789
 40
0.4374999999999789
 40
0.4374999999999789
 40
0.4999999999999789
 40
0.4999999999999789
 40
0.6249999999999835
 40
0.6249999999999835
 40
0.7499999999999879
 40
0.7499999999999879
 40
1.0
 40
1.0
 40
1.0
 40
1.0
 10
43.44696537381276
 20
78.38273028175225
 30
0.0
 10
43.47323759102617
 20
78.4020482228347
 30
0.0
 10
43.50391773328101
 20
78.41643693393648
 30
0.0
 10
43.57538860366293
 20
78.40953257210046
 30
0.0
 10
43.60341564070727
 20
78.40236656875204
 30
0.0
 10
43.65849923020478
 20
78.37266754204846
 30
0.0
 10
43.67939055875721
 20
78.35919389948712
 30
0.0
 10
43.72459920620267
 20
78.32399563397111
 30
0.0
 10
43.74900341859824
 20
78.30208740524384
 30
0.0
 10
43.82033573664967
 20
78.2299625452483
 30
0.0
 10
43.86223252146995
 20
78.17762200429824
 30
0.0
 10
43.93380848032582
 20
78.0801386123975
 30
0.0
 10
43.96463647014312
 20
78.03338484251908
 30
0.0
 10
44.04773640297869
 20
77.90009162667997
 30
0.0
 10
44.092591308349
 20
77.81745422876475
 30
0.0
 10
44.13270338380157
 20
77.73834733397398
 30
0.0
  0
SPLINE
  5
A0
330
1F
100
AcDbEntity
  8
0
  6
Continuous
 62
     7
370
    15
100
AcDbSpline
210
0.0
220
0.0
230
1.0
 70
     8
 71
     3
 72
    14
 73
    10
 74
     0
 42
0.00000001
 43
0.00000001
 40
0.0
 40
0.0
 40
0.0
 40
0.0
 40
0.2499999999999994
 40
0.2499999999999994
 40
0.4999999999999988
 40
0.4999999999999988
 40
0.7499999999999982
 40
0.7499999999999982
 40
1.0
 40
1.0
 40
1.0
 40
1.0
 10
43.15615114209675
 20
78.55854369188502
 30
0.0
 10
43.15615114209675
 20
78.51729676086066
 30
0.0
 10
43.164760858478
 20
78.48038978857818
 30
0.0
 10
43.19584703804835
 20
78.41948972867878
 30
0.0
 10
43.21823659153242
 20
78.39530880913908
 30
0.0
 10
43.27298052270853
 20
78.36134121825582
 30
0.0
 10
43.30543076229372
 20
78.35142113428765
 30
0.0
 10
43.37543227702179
 20
78.3500699253828
 30
0.0
 10
43.41364277714431
 20
78.35822820207893
 30
0.0
 10
43.44696537381741
 20
78.38273028174704
 30
0.0
  0
LINE
  5
A1
330
1F
100
AcDbEntity
  8
0
  6
Continuous
 62
     7
370
    15
100
AcDbLine
 10
43.1561511421
 20
78.5585436919
 30
0.0
 11
43.1561511421
 21
139.563883177
 31
0.0
  0
SPLINE
  5
A2
330
1F
100
AcDbEntity
  8
0
  6
Continuous
 62
     7
370
    15
100
AcDbSpline
210
0.0
220
0.0
230
1.0
 70
     8
 71
     3
 72
    12
 73
     8
 74
     0
 42
0.00000001
 43
0.00000001
 40
0.0
 40
0.0
 40
0.0
 40
0.0
 40
0.0592077505114064
 40
0.3503612113849183
 40
0.644012000323884
 40
0.9432672693652688
 40
1.0
 40
1.0
 40
1.0
 40
1.0
 10
43.4469653738174
 20
139.7396965871588
 30
0.0
 10
43.44212949046892
 20
139.7429692307785
 30
0.0
 10
43.41351320402925
 20
139.7623350633446
 30
0.0
 10
43.3555148659889
 20
139.776300960509
 30
0.0
 10
43.2835146255286
 20
139.7652279326937
 30
0.0
 10
43.23487493651787
 20
139.7439276287841
 30
0.0
 10
43.2180900644554
 20
139.7210262586093
 30
0.0
 10
43.21541511016953
 20
139.7173765365219
 30
0.0
  0
SPLINE
  5
A3
330
1F
100
AcDbEntity
  8
0
  6
Continuous
 62
     7
370
    15
100
AcDbSpline
210
0.0
220
0.0
230
1.0
 70
     8
 71
     3
 72
    20
 73
    16
 74
     0
 42
0.00000001
 43
0.00000001
 40
0.0
 40
0.0
 40
0.0
 40
0.0
 40
0.2500000000000037
 40
0.2500000000000037
 40
0.3750000000000055
 40
0.3750000000000055
 40
0.5000000000000073
 40
0.5000000000000073
 40
0.5625000000000057
 40
0.5625000000000057
 40
0.625000000000004
 40
0.625000000000004
 40
0.7500000000000027
 40
0.7500000000000027
 40
1.0
 40
1.0
 40
1.0
 40
1.0
 10
44.13270338379918
 20
140.3840795349311
 30
0.0
 10
44.09270716597536
 20
140.3052011283737
 30
0.0
 10
44.0475935381377
 20
140.2220714816821
 30
0.0
 10
43.96433932377117
 20
140.0885828173312
 30
0.0
 10
43.93411999515067
 20
140.0427177614492
 30
0.0
 10
43.86203176000924
 20
139.9445262090443
 30
0.0
 10
43.82011444259815
 20
139.8922163895207
 30
0.0
 10
43.74886383804669
 20
139.8202104867862
 30
0.0
 10
43.72462802566737
 20
139.7984402744847
 30
0.0
 10
43.67902983548272
 20
139.7629656161557
 30
0.0
 10
43.65822734588301
 20
139.7495954319781
 30
0.0
 10
43.60328634746388
 20
139.7200255198429
 30
0.0
 10
43.57521735937708
 20
139.7128989975409
 30
0.0
 10
43.50471452931424
 20
139.7060246260583
 30
0.0
 10
43.47329044152337
 20
139.7203397851454
 30
0.0
 10
43.44696537381478
 20
139.7396965871559
 30
0.0
  0
SPLINE
  5
A4
330
1F
100
AcDbEntity
  8
0
  6
Continuous
 62
     7
370
    15
100
AcDbSpline
210
0.0
220
0.0
230
1.0
 70
     8
 71
     3
 72
    10
 73
     6
 74
     0
 42
0.00000001
 43
0.00000001
 40
0.0
 40
0.0
 40
0.0
 40
0.0
 40
0.4999999999999989
 40
0.4999999999999989
 40
1.0
 40
1.0
 40
1.0
 40
1.0
 10
44.80615114209677
 20
141.3094986362729
 30
0.0
 10
44.68126287134656
 20
141.1785023582015
 30
0.0
 10
44.55981275328612
 20
141.0347895215365
 30
0.0
 10
44.33022877832868
 20
140.7242192288472
 30
0.0
 10
44.2199538029327
 20
140.5561501557842
 30
0.0
 10
44.13270338379918
 20
140.3840795349311
 30
0.0
  0
SPLINE
  5
A5
330
1F
100
AcDbEntity
  8
0
  6
Continuous
 62
     7
370
    15
100
AcDbSpline
210
0.0
220
0.0
230
1.0
 70
     8
 71
     3
 72
     8
 73
     4
 74
     0
 42
0.00000001
 43
0.00000001
 40
0.0
 40
0.0
 40
0.0
 40
0.0
 40
1.0
 40
1.0
 40
1.0
 40
1.0
 10
45.05607625806253
 20
141.3070456030175
 30
0.0
 10
44.96905822821414
 20
141.3075121678046
 30
0.0
 10
44.8861042018342
 20
141.3085521873807
 30
0.0
 10
44.80615114209445
 20
141.309498636273
 30
0.0
  0
SPLINE
  5
A6
330
1F
100
AcDbEntity
  8
0
  6
Continuous
 62
     7
370
    15
100
AcDbSpline
210
0.0
220
0.0
230
1.0
 70
     8
 71
     3
 72
     8
 73
     4
 74
     0
 42
0.00000001
 43
0.00000001
 40
0.0
 40
0.0
 40
0.0
 40
0.0
 40
1.0
 40
1.0
 40
1.0
 40
1.0
 10
44.80615114209445
 20
76.81292823263286
 30
0.0
 10
44.88610420183421
 20
76.81387468152512
 30
0.0
 10
44.96905822821417
 20
76.81491470110124
 30
0.0
 10
45.05607625806255
 20
76.81538126588833
 30
0.0
  0
SPLINE
  5
A7
330
1F
100
AcDbEntity
  8
0
  6
Continuous
 62
     7
370
    15
100
AcDbSpline
210
0.0
220
0.0
230
1.0
 70
     8
 71
     3
 72
    10
 73
     6
 74
     0
 42
0.00000001
 43
0.00000001
 40
0.0
 40
0.0
 40
0.0
 40
0.0
 40
0.4999999999999989
 40
0.4999999999999989
 40
1.0
 40
1.0
 40
1.0
 40
1.0
 10
44.13270338379825
 20
77.73834733397653
 30
0.0
 10
44.21995380293173
 20
77.56627671312316
 30
0.0
 10
44.33022877832789
 20
77.39820764005972
 30
0.0
 10
44.55981275328572
 20
77.08763734736992
 30
0.0
 10
44.68126287134636
 20
76.94392451070465
 30
0.0
 10
44.80615114209677
 20
76.81292823263294
 30
0.0
  0
SPLINE
  5
A8
330
1F
100
AcDbEntity
  8
0
  6
Continuous
 62
     7
370
    15
100
AcDbSpline
210
0.0
220
0.0
230
1.0
 70
     8
 71
     3
 72
    12
 73
     8
 74
     0
 42
0.00000001
 43
0.00000001
 40
0.0
 40
0.0
 40
0.0
 40
0.0
 40
0.5
 40
0.5
 40
0.75
 40
0.75
 40
1.0
 40
1.0
 40
1.0
 40
1.0
 10
122.0061511420968
 20
157.0299532552988
 30
0.0
 10
122.0061511420968
 20
157.2952226880652
 30
0.0
 10
121.9015443986103
 20
157.5577377937176
 30
0.0
 10
121.624876046865
 20
157.8432753997548
 30
0.0
 10
121.514510787513
 20
157.9195970166163
 30
0.0
 10
121.2704387388973
 20
158.0239391814564
 30
0.0
 10
121.1386862775655
 20
158.0510082901165
 30
0.0
 10
121.0061511420968
 20
158.0510082901165
 30
0.0
  0
SPLINE
  5
A9
330
1F
100
AcDbEntity
  8
0
  6
Continuous
 62
     7
370
    15
100
AcDbSpline
210
0.0
220
0.0
230
1.0
 70
     8
 71
     3
 72
    16
 73
    12
 74
     0
 42
0.00000001
 43
0.00000001
 40
0.0
 40
0.0
 40
0.0
 40
0.0
 40
0.125
 40
0.125
 40
0.25
 40
0.25
 40
0.5
 40
0.5
 40
0.75
 40
0.75
 40
1.0
 40
1.0
 40
1.0
 40
1.0
 10
121.0061511420958
 20
148.0121761953399
 30
0.0
 10
121.081788848507
 20
148.01217619534
 30
0.0
 10
121.1581045129252
 20
148.0008311952051
 30
0.0
 10
121.3025152508174
 20
147.9581786445667
 30
0.0
 10
121.3709616999258
 20
147.9272443198839
 30
0.0
 10
121.5658929525392
 20
147.8079879481164
 30
0.0
 10
121.6737341263202
 20
147.6978359344958
 30
0.0
 10
121.8424468745324
 20
147.4496998488377
 30
0.0
 10
121.904811287256
 20
147.309357524834
 30
0.0
 10
121.9861152117645
 20
147.0210858333452
 30
0.0
 10
122.0061511420968
 20
146.8702808603653
 30
0.0
 10
122.0061511420968
 20
146.7199109690199
 30
0.0
  0
LINE
  5
AA
330
1F
100
AcDbEntity
  8
0
  6
Continuous
 62
     7
370
    15
100
AcDbLine
 10
122.0061511421
 20
146.719910969
 30
0.0
 11
122.0061511421
 21
157.0299532553
 31
0.0
  0
SPLINE
  5
AB
330
1F
100
AcDbEntity
  8
0
  6
Continuous
 62
     7
370
    15
100
AcDbSpline
210
0.0
220
0.0
230
1.0
 70
     8
 71
     3
 72
     8
 73
     4
 74
     0
 42
0.00000001
 43
0.00000001
 40
0.0
 40
0.0
 40
0.0
 40
0.0
 40
1.0
 40
1.0
 40
1.0
 40
1.0
 10
111.1461511420968
 20
155.6584842951578
 30
0.0
 10
110.6958429064122
 20
156.4561994202714
 30
0.0
 10
110.2451490898886
 20
157.2536977199287
 30
0.0
 10
109.7941221211754
 20
158.0510082901165
 30
0.0
  0
LINE
  5
AC
330
1F
100
AcDbEntity
  8
0
  6
Continuous
 62
     7
370
    15
100
AcDbLine
 10
111.1461511421
 20
144.9566609406
 30
0.0
 11
111.1461511421
 21
155.6584842952
 31
0.0
  0
SPLINE
  5
AD
330
1F
100
AcDbEntity
  8
0
  6
Continuous
 62
     7
370
    15
100
AcDbSpline
210
0.0
220
0.0
230
1.0
 70
     8
 71
     3
 72
     8
 73
     4
 74
     0
 42
0.00000001
 43
0.00000001
 40
0.0
 40
0.0
 40
0.0
 40
0.0
 40
1.0
 40
1.0
 40
1.0
 40
1.0
 10
109.7941221211754
 20
148.0121761953399
 30
0.0
 10
110.2510484749749
 20
146.9962582256656
 30
0.0
 10
110.7022541167779
 20
145.9774623965744
 30
0.0
 10
111.1461511420968
 20
144.9566609405908
 30
0.0
  0
LINE
  5
AE
330
1F
100
AcDbEntity
  8
0
  6
Continuous
 62
     7
370
    15
100
AcDbLine
 10
121.0061511421
 20
158.0510082901
 30
0.0
 11
116.318180163
 21
158.0510082901
 31
0.0
  0
LINE
  5
AF
330
1F
100
AcDbEntity
  8
0
  6
Continuous
 62
     7
370
    15
100
AcDbLine
 10
116.318180163
 20
148.0121761953
 30
0.0
 11
121.0061511421
 21
148.0121761953
 31
0.0
  0
LINE
  5
B0
330
1F
100
AcDbEntity
  8
0
  6
Continuous
 62
     7
370
    15
100
AcDbLine
 10
116.318180163
 20
148.0121761953
 30
0.0
 11
116.318180163
 21
158.0510082901
 31
0.0
  0
LINE
  5
B1
330
1F
100
AcDbEntity
  8
0
  6
Continuous
 62
     7
370
    15
100
AcDbLine
 10
111.1461511421
 20
144.9566609406
 30
0.0
 11
111.1461511421
 21
143.7754486269
 31
0.0
  0
SPLINE
  5
B2
330
1F
100
AcDbEntity
  8
0
  6
Continuous
 62
     7
370
    15
100
AcDbSpline
210
0.0
220
0.0
230
1.0
 70
     8
 71
     3
 72
    14
 73
    10
 74
     0
 42
0.00000001
 43
0.00000001
 40
0.0
 40
0.0
 40
0.0
 40
0.0
 40
0.25
 40
0.25
 40
0.5
 40
0.5
 40
0.75
 40
0.75
 40
1.0
 40
1.0
 40
1.0
 40
1.0
 10
111.1461511420967
 20
143.77544862695
 30
0.0
 10
111.1461511420967
 20
143.6515817501608
 30
0.0
 10
111.1620102697243
 20
143.5273220733233
 30
0.0
 10
111.2253719152442
 20
143.2897137109174
 30
0.0
 10
111.2739616232936
 20
143.1729333261649
 30
0.0
 10
111.4062472280684
 20
142.9641307975559
 30
0.0
 10
111.491572019329
 20
142.8696200939633
 30
0.0
 10
111.6984632676352
 20
142.731663293161
 30
0.0
 10
111.8224312135252
 20
142.6897448475254
 30
0.0
 10
111.9461511420967
 20
142.6897448475254
 30
0.0
  0
LINE
  5
B3
330
1F
100
AcDbEntity
  8
0
  6
Continuous
 62
     7
370
    15
100
AcDbLine
 10
111.9461511421
 20
142.6897448475
 30
0.0
 11
114.1661511421
 21
142.6897448475
 31
0.0
  0
SPLINE
  5
B4
330
1F
100
AcDbEntity
  8
0
  6
Continuous
 62
     7
370
    15
100
AcDbSpline
210
0.0
220
0.0
230
1.0
 70
     8
 71
     3
 72
    12
 73
     8
 74
     0
 42
0.00000001
 43
0.00000001
 40
0.0
 40
0.0
 40
0.0
 40
0.0
 40
0.250000000000002
 40
0.250000000000002
 40
0.500000000000004
 40
0.500000000000004
 40
1.0
 40
1.0
 40
1.0
 40
1.0
 10
114.1661511420988
 20
142.6897448475254
 30
0.0
 10
114.2898520920786
 20
142.6897448475259
 30
0.0
 10
114.4139487043485
 20
142.7317384592587
 30
0.0
 10
114.6206038674349
 20
142.8695337859033
 30
0.0
 10
114.7056446341616
 20
142.9635073843681
 30
0.0
 10
114.9051232026346
 20
143.2782955905889
 30
0.0
 10
114.9661511420968
 20
143.5285345828161
 30
0.0
 10
114.9661511420968
 20
143.77544862695
 30
0.0
  0
LINE
  5
B5
330
1F
100
AcDbEntity
  8
0
  6
Continuous
 62
     7
370
    15
100
AcDbLine
 10
114.9661511421
 20
143.7754486269
 30
0.0
 11
114.9661511421
 21
144.9566609406
 31
0.0
  0
SPLINE
  5
B6
330
1F
100
AcDbEntity
  8
0
  6
Continuous
 62
     7
370
    15
100
AcDbSpline
210
0.0
220
0.0
230
1.0
 70
     8
 71
     3
 72
     8
 73
     4
 74
     0
 42
0.00000001
 43
0.00000001
 40
0.0
 40
0.0
 40
0.0
 40
0.0
 40
1.0
 40
1.0
 40
1.0
 40
1.0
 10
114.9661511420967
 20
144.9566609405908
 30
0.0
 10
115.4103011531223
 20
145.9780441715424
 30
0.0
 10
115.8613754633802
 20
146.9965287083108
 30
0.0
 10
116.3181801630181
 20
148.0121761953399
 30
0.0
  0
LINE
  5
B7
330
1F
100
AcDbEntity
  8
0
  6
Continuous
 62
     7
370
    15
100
AcDbLine
 10
122.0061511421
 20
146.719910969
 30
0.0
 11
122.0061511421
 21
140.4112134345
 31
0.0
  0
SPLINE
  5
B8
330
1F
100
AcDbEntity
  8
0
  6
Continuous
 62
     7
370
    15
100
AcDbSpline
210
0.0
220
0.0
230
1.0
 70
     8
 71
     3
 72
    14
 73
    10
 74
     0
 42
0.00000001
 43
0.00000001
 40
0.0
 40
0.0
 40
0.0
 40
0.0
 40
0.25
 40
0.25
 40
0.5
 40
0.5
 40
0.75
 40
0.75
 40
1.0
 40
1.0
 40
1.0
 40
1.0
 10
114.9661511420968
 20
154.7547646753009
 30
0.0
 10
114.9661511420968
 20
154.6484079815486
 30
0.0
 10
114.9457635859555
 20
154.5425674937884
 30
0.0
 10
114.8671292404939
 20
154.3460025802519
 30
0.0
 10
114.8083978808553
 20
154.2548318379648
 30
0.0
 10
114.6617889752527
 20
154.1029207489332
 30
0.0
 10
114.5723836552261
 20
154.0408519121136
 30
0.0
 10
114.3784929226257
 20
153.9575838643549
 30
0.0
 10
114.2719879327359
 20
153.9354891946253
 30
0.0
 10
114.1661511420965
 20
153.9354891946253
 30
0.0
  0
SPLINE
  5
B9
330
1F
100
AcDbEntity
  8
0
  6
Continuous
 62
     7
370
    15
100
AcDbSpline
210
0.0
220
0.0
230
1.0
 70
     8
 71
     3
 72
    10
 73
     6
 74
     0
 42
0.00000001
 43
0.00000001
 40
0.0
 40
0.0
 40
0.0
 40
0.0
 40
0.5
 40
0.5
 40
1.0
 40
1.0
 40
1.0
 40
1.0
 10
111.9461511420967
 20
153.9354891946254
 30
0.0
 10
111.7336148282404
 20
153.9354891946254
 30
0.0
 10
111.5236786565864
 20
154.0269017812556
 30
0.0
 10
111.2299715155751
 20
154.3316466471598
 30
0.0
 10
111.1461511420967
 20
154.5438016170684
 30
0.0
 10
111.1461511420967
 20
154.7547646753009
 30
0.0
  0
SPLINE
  5
BA
330
1F
100
AcDbEntity
  8
0
  6
Continuous
 62
     7
370
    15
100
AcDbSpline
210
0.0
220
0.0
230
1.0
 70
     8
 71
     3
 72
     8
 73
     4
 74
     0
 42
0.00000001
 43
0.00000001
 40
0.0
 40
0.0
 40
0.0
 40
0.0
 40
1.0
 40
1.0
 40
1.0
 40
1.0
 10
116.3181801630181
 20
158.0510082901165
 30
0.0
 10
115.8671531943049
 20
157.2536977199287
 30
0.0
 10
115.4164593777813
 20
156.4561994202714
 30
0.0
 10
114.9661511420967
 20
155.6584842951578
 30
0.0
  0
LINE
  5
BB
330
1F
100
AcDbEntity
  8
0
  6
Continuous
 62
     7
370
    15
100
AcDbLine
 10
114.9661511421
 20
144.9566609406
 30
0.0
 11
114.9661511421
 21
155.6584842952
 31
0.0
  0
LINE
  5
BC
330
1F
100
AcDbEntity
  8
0
  6
Continuous
 62
     7
370
    15
100
AcDbLine
 10
114.1661511421
 20
153.9354891946
 30
0.0
 11
111.9461511421
 21
153.9354891946
 31
0.0
  0
ARC
  5
BD
330
1F
100
AcDbEntity
  8
0
  6
Continuous
 62
     7
370
    15
100
AcDbCircle
 10
102.0573703587
 20
141.6303847678
 30
0.0
 40
11.44672023523141
100
AcDbArc
 50
78.050103935
 51
102.2889719443
  0
LINE
  5
BE
330
1F
100
AcDbEntity
  8
0
  6
Continuous
 62
     7
370
    15
100
AcDbLine
 10
44.8061511421
 20
76.8112134345
 30
0.0
 11
44.8061511421
 21
76.8129282326
 31
0.0
  0
SPLINE
  5
BF
330
1F
100
AcDbEntity
  8
0
  6
Continuous
 62
     7
370
    15
100
AcDbSpline
210
0.0
220
0.0
230
1.0
 70
     8
 71
     3
 72
    66
 73
    62
 74
     0
 42
0.00000001
 43
0.00000001
 40
-0.0624999999999989
 40
-0.0624999999999989
 40
0.0
 40
0.0
 40
0.0625000000000018
 40
0.0625000000000018
 40
0.0937500000000017
 40
0.0937500000000017
 40
0.1250000000000017
 40
0.1250000000000017
 40
0.1562500000000016
 40
0.1562500000000016
 40
0.1875000000000015
 40
0.1875000000000015
 40
0.2187500000000015
 40
0.2187500000000015
 40
0.2500000000000014
 40
0.2500000000000014
 40
0.2812500000000014
 40
0.2812500000000014
 40
0.3125000000000013
 40
0.3125000000000013
 40
0.3437500000000013
 40
0.3437500000000013
 40
0.3750000000000012
 40
0.3750000000000012
 40
0.4062500000000012
 40
0.4062500000000012
 40
0.4375000000000012
 40
0.4375000000000012
 40
0.4687500000000011
 40
0.4687500000000011
 40
0.500000000000001
 40
0.500000000000001
 40
0.531250000000001
 40
0.531250000000001
 40
0.562500000000001
 40
0.562500000000001
 40
0.593750000000001
 40
0.593750000000001
 40
0.625000000000001
 40
0.625000000000001
 40
0.656250000000001
 40
0.656250000000001
 40
0.687500000000001
 40
0.687500000000001
 40
0.718750000000001
 40
0.718750000000001
 40
0.750000000000001
 40
0.750000000000001
 40
0.7812500000000011
 40
0.7812500000000011
 40
0.8125000000000011
 40
0.8125000000000011
 40
0.8437500000000011
 40
0.8437500000000011
 40
0.8750000000000011
 40
0.8750000000000011
 40
0.9062500000000011
 40
0.9062500000000011
 40
0.9375000000000011
 40
0.9375000000000011
 40
1.0
 40
1.0
 40
1.062500000000002
 40
1.062500000000002
 10
159.3307489617038
 20
111.0439489347835
 30
0.0
 10
160.0089949739922
 20
111.5728546516927
 30
0.0
 10
160.3877893666978
 20
111.7686280149112
 30
0.0
 10
161.0006693023207
 20
111.9666113983238
 30
0.0
 10
161.2081232655749
 20
112.0149085424233
 30
0.0
 10
161.6290559620128
 20
112.07791828857
 30
0.0
 10
161.8441031804421
 20
112.0925717078351
 30
0.0
 10
162.273036101745
 20
112.0869201272432
 30
0.0
 10
162.4848565972655
 20
112.0669220474599
 30
0.0
 10
162.9033115353276
 20
111.9932050543859
 30
0.0
 10
163.1112923616454
 20
111.9390109649077
 30
0.0
 10
163.5155535956396
 20
111.7963342605743
 30
0.0
 10
163.7090102361232
 20
111.7091197708271
 30
0.0
 10
164.078464396109
 20
111.5025118325296
 30
0.0
 10
164.2554043214386
 20
111.3823947525678
 30
0.0
 10
164.5856322069911
 20
111.10889330293
 30
0.0
 10
164.7351554391729
 20
110.9588967775632
 30
0.0
 10
165.0017492607343
 20
110.6311227698621
 30
0.0
 10
165.1199024500271
 20
110.451305465399
 30
0.0
 10
165.3130241980539
 20
110.0681238951196
 30
0.0
 10
165.3863717535735
 20
109.8690484060833
 30
0.0
 10
165.4846254936695
 20
109.4552182776416
 30
0.0
 10
165.5089669931723
 20
109.237492819854
 30
0.0
 10
165.5027968974235
 20
108.8103955881253
 30
0.0
 10
165.4732045541244
 20
108.5976343652297
 30
0.0
 10
165.3618760249222
 20
108.180493164371
 30
0.0
 10
165.2821331211256
 20
107.9823704112269
 30
0.0
 10
165.0788540059433
 20
107.6050468023944
 30
0.0
 10
164.9552625772054
 20
107.4270385729258
 30
0.0
 10
164.6776510898044
 20
107.1032882235066
 30
0.0
 10
164.520904953898
 20
106.9542608343762
 30
0.0
 10
164.1843849768667
 20
106.6897826404571
 30
0.0
 10
164.0053371457433
 20
106.5743219341288
 30
0.0
 10
163.6270178476319
 20
106.3746010140296
 30
0.0
 10
163.4272979850823
 20
106.2906263727256
 30
0.0
 10
163.0216731027526
 20
106.1585455315257
 30
0.0
 10
162.8141088270963
 20
106.109463104266
 30
0.0
 10
162.3894936172271
 20
106.0450024995975
 30
0.0
 10
162.1737923475206
 20
106.030159224472
 30
0.0
 10
161.7475479753679
 20
106.0350319620428
 30
0.0
 10
161.5352905844122
 20
106.0544475664371
 30
0.0
 10
161.1125550778212
 20
106.1282778155037
 30
0.0
 10
160.9033623456042
 20
106.1828328465114
 30
0.0
 10
160.5022298194895
 20
106.323915736015
 30
0.0
 10
160.3083912504551
 20
106.4106992826528
 30
0.0
 10
159.9350084581011
 20
106.6190207002726
 30
0.0
 10
159.7561039155518
 20
106.7407952688046
 30
0.0
 10
159.429457521106
 20
107.0111200838533
 30
0.0
 10
159.2795708250284
 20
107.1606890036015
 30
0.0
 10
159.0097332238717
 20
107.4921736907162
 30
0.0
 10
158.8907818690922
 20
107.673994408776
 30
0.0
 10
158.6990734095375
 20
108.0550495735123
 30
0.0
 10
158.623875695638
 20
108.2592137332461
 30
0.0
 10
158.5259792135497
 20
108.6772873528809
 30
0.0
 10
158.5029236125621
 20
108.889257116728
 30
0.0
 10
158.5100965412252
 20
109.3192395222226
 30
0.0
 10
158.5410872318613
 20
109.5347068968255
 30
0.0
 10
158.652609969414
 20
109.9475617288662
 30
0.0
 10
158.7345975985759
 20
110.1498972745212
 30
0.0
 10
159.0412931061369
 20
110.7141954923706
 30
0.0
 10
159.3307489617038
 20
111.0439489347835
 30
0.0
 10
160.0089949739922
 20
111.5728546516927
 30
0.0
  0
CIRCLE
  5
C0
330
1F
100
AcDbEntity
  8
0
  6
Continuous
 62
     7
370
    15
100
AcDbCircle
 10
162.0061511421
 20
109.0612134345
 30
0.0
 40
2.5
  0
LINE
  5
C1
330
1F
100
AcDbEntity
  8
0
  6
Continuous
 62
     7
370
    15
100
AcDbLine
 10
171.0061511421
 20
92.0612134345
 30
0.0
 11
171.0061511421
 21
126.0612134345
 31
0.0
  0
SPLINE
  5
C2
330
1F
100
AcDbEntity
  8
0
  6
Continuous
 62
     7
370
    15
100
AcDbSpline
210
0.0
220
0.0
230
1.0
 70
     8
 71
     3
 72
    37
 73
    33
 74
     0
 42
0.00000001
 43
0.00000001
 40
0.0
 40
0.0
 40
0.0
 40
0.0
 40
0.0392082674721514
 40
0.0617722852704599
 40
0.0824993429531809
 40
0.1245821907564957
 40
0.1459656004379264
 40
0.168264362624564
 40
0.2134680386877011
 40
0.2363947677783494
 40
0.2617822342811103
 40
0.3132472624548492
 40
0.3393544177005657
 40
0.3681000854996961
 40
0.4264410736046823
 40
0.4560857751342134
 40
0.4870369945912151
 40
0.5499505762700417
 40
0.5819857289179765
 40
0.6134814457590111
 40
0.6452036883143547
 40
0.677663597356607
 40
0.7103905437966874
 40
0.7406864992394598
 40
0.8025359961814179
 40
0.8342375053655068
 40
0.8568043247967098
 40
0.9026526567983065
 40
0.9260082882235697
 40
0.9485799697760529
 40
0.9946195106363261
 40
1.0
 40
1.0
 40
1.0
 40
1.0
 10
165.5021577720017
 20
126.0606095829132
 30
0.0
 10
165.4980588094267
 20
126.0599825563632
 30
0.0
 10
165.4916009294483
 20
126.0589946814731
 30
0.0
 10
165.4328838942776
 20
126.0501795159642
 30
0.0
 10
165.3516046411519
 20
126.0381659717533
 30
0.0
 10
165.2378391690732
 20
126.0217575671739
 30
0.0
 10
165.0927861864231
 20
126.0017850245727
 30
0.0
 10
164.9228178388417
 20
125.9791951947781
 30
0.0
 10
164.7213083273797
 20
125.9540259116891
 30
0.0
 10
164.4888515876
 20
125.9274734050148
 30
0.0
 10
164.2242280657889
 20
125.8993159785557
 30
0.0
 10
163.9266643515835
 20
125.8715692825118
 30
0.0
 10
163.6009341137682
 20
125.8462983801459
 30
0.0
 10
163.2420204832585
 20
125.8224972829432
 30
0.0
 10
162.8551459654072
 20
125.804037882015
 30
0.0
 10
162.4525237729139
 20
125.793021123644
 30
0.0
 10
162.0305478605895
 20
125.7873845022102
 30
0.0
 10
161.5977485466951
 20
125.7911686463772
 30
0.0
 10
161.171030372902
 20
125.8042935035076
 30
0.0
 10
160.8553441671613
 20
125.8185426377105
 30
0.0
 10
160.5464681250868
 20
125.8367890726325
 30
0.0
 10
160.2445020504731
 20
125.8587279145388
 30
0.0
 10
159.9604735914093
 20
125.883083542873
 30
0.0
 10
159.609893639278
 20
125.9172805640979
 30
0.0
 10
159.2964187588144
 20
125.9531096612139
 30
0.0
 10
159.0478417131527
 20
125.9846820219251
 30
0.0
 10
158.858931084936
 20
126.009905657775
 30
0.0
 10
158.71773099023
 20
126.0298773696361
 30
0.0
 10
158.6139150981279
 20
126.045058617458
 30
0.0
 10
158.5380995480623
 20
126.0563469441071
 30
0.0
 10
158.5020204334735
 20
126.0618402904307
 30
0.0
 10
158.5075682334493
 20
126.0609985582639
 30
0.0
 10
158.5081487441692
 20
126.0609104810895
 30
0.0
  0
SPLINE
  5
C3
330
1F
100
AcDbEntity
  8
0
  6
Continuous
 62
     7
370
    15
100
AcDbSpline
210
0.0
220
0.0
230
1.0
 70
     8
 71
     3
 72
     9
 73
     5
 74
     0
 42
0.00000001
 43
0.00000001
 40
0.0
 40
0.0
 40
0.0
 40
0.0
 40
0.3854829157792848
 40
1.0
 40
1.0
 40
1.0
 40
1.0
 10
159.2643506431931
 20
125.9579390550598
 30
0.0
 10
159.3123146728456
 20
125.9520875146505
 30
0.0
 10
159.436740497413
 20
125.9369077487782
 30
0.0
 10
159.5811375257495
 20
125.921501269889
 30
0.0
 10
159.669871966573
 20
125.912033725404
 30
0.0
  0
LINE
  5
C4
330
1F
100
AcDbEntity
  8
0
  6
Continuous
 62
     7
370
    15
100
AcDbLine
 10
159.6698719672
 20
92.2103931436
 30
0.0
 11
159.6084307896
 21
92.2037364015
 31
0.0
  0
SPLINE
  5
C5
330
1F
100
AcDbEntity
  8
0
  6
Continuous
 62
     7
370
    15
100
AcDbSpline
210
0.0
220
0.0
230
1.0
 70
     8
 71
     3
 72
    37
 73
    33
 74
     0
 42
0.00000001
 43
0.00000001
 40
0.0
 40
0.0
 40
0.0
 40
0.0
 40
0.0243233406197272
 40
0.0473846717985458
 40
0.0680695455676987
 40
0.1100860600096835
 40
0.1314480565192207
 40
0.1533430675181561
 40
0.1977346139040891
 40
0.2202529371221344
 40
0.2450549321275023
 40
0.2953283104322627
 40
0.3208270291703483
 40
0.3490477819293839
 40
0.406308894245945
 40
0.4353946967332765
 40
0.4660896597116249
 40
0.5284668779915365
 40
0.5602179851337424
 40
0.5917307544983491
 40
0.623467009094704
 40
0.6559258483608675
 40
0.6886437795376076
 40
0.7192999382127234
 40
0.7818494183889613
 40
0.8138830978441083
 40
0.8370548201545851
 40
0.8841268542439965
 40
0.9081044387475643
 40
0.9312816497571376
 40
0.9785815619411153
 40
0.9999999999999999
 40
0.9999999999999999
 40
0.9999999999999999
 40
0.9999999999999999
 10
158.5165060461425
 20
92.06278276934172
 30
0.0
 10
158.5144367434591
 20
92.06247019015098
 30
0.0
 10
158.5104055032591
 20
92.06186124984968
 30
0.0
 10
158.548031837551
 20
92.06754773678016
 30
0.0
 10
158.6131751713866
 20
92.07727235542703
 30
0.0
 10
158.7125573955693
 20
92.09182611933595
 30
0.0
 10
158.8434098207327
 20
92.11021547586628
 30
0.0
 10
158.9981539478916
 20
92.1312934664267
 30
0.0
 10
159.1841199717941
 20
92.15528270409322
 30
0.0
 10
159.4010608686469
 20
92.18111811761102
 30
0.0
 10
159.6490565792838
 20
92.20885096431701
 30
0.0
 10
159.9299798321369
 20
92.2368316741232
 30
0.0
 10
160.2400649006431
 20
92.26313400833145
 30
0.0
 10
160.5840865724627
 20
92.28863890956731
 30
0.0
 10
160.9577119987863
 20
92.30971308519777
 30
0.0
 10
161.3500128639527
 20
92.32411810721423
 30
0.0
 10
161.7650402689063
 20
92.33368537923707
 30
0.0
 10
162.1945991187416
 20
92.33424000242778
 30
0.0
 10
162.6221505433209
 20
92.32536589601793
 30
0.0
 10
162.9412683868732
 20
92.31410373214773
 30
0.0
 10
163.2561431959928
 20
92.29850497911521
 30
0.0
 10
163.5657956266973
 20
92.27883662681243
 30
0.0
 10
163.8602436787753
 20
92.25613423634253
 30
0.0
 10
164.2284151194467
 20
92.22317569422073
 30
0.0
 10
164.5633372351109
 20
92.18723028736319
 30
0.0
 10
164.8357802921527
 20
92.15417657563292
 30
0.0
 10
165.0480775557451
 20
92.12686737528371
 30
0.0
 10
165.2125523923935
 20
92.10422512544147
 30
0.0
 10
165.3393844129104
 20
92.08602029768092
 30
0.0
 10
165.4391735679218
 20
92.07135868056743
 30
0.0
 10
165.4989665456569
 20
92.06230337033952
 30
0.0
 10
165.5035122478116
 20
92.06161366927311
 30
0.0
 10
165.5049290722798
 20
92.06139870020709
 30
0.0
  0
SPLINE
  5
C6
330
1F
100
AcDbEntity
  8
0
  6
Continuous
 62
     7
370
    15
100
AcDbSpline
210
0.0
220
0.0
230
1.0
 70
     8
 71
     3
 72
     9
 73
     5
 74
     0
 42
0.00000001
 43
0.00000001
 40
0.0
 40
0.0
 40
0.0
 40
0.0
 40
0.1017170788013164
 40
1.0
 40
1.0
 40
1.0
 40
1.0
 10
159.9607419324774
 20
92.23847095632328
 30
0.0
 10
159.9500928402371
 20
92.2376183415113
 30
0.0
 10
159.845399583551
 20
92.22923612269388
 30
0.0
 10
159.7529330632105
 20
92.21930979458138
 30
0.0
 10
159.669871967206
 20
92.21039314356771
 30
0.0
  0
LINE
  5
C7
330
1F
100
AcDbEntity
  8
0
  6
Continuous
 62
     7
370
    15
100
AcDbLine
 10
44.8061511421
 20
141.3112134345
 30
0.0
 11
44.8061511421
 21
141.3094986363
 31
0.0
  0
LINE
  5
C8
330
1F
100
AcDbEntity
  8
0
  6
Continuous
 62
     7
370
    15
100
AcDbLine
 10
202.2313321974
 20
93.0612134345
 30
0.0
 11
202.2313321974
 21
125.0612134345
 31
0.0
  0
LINE
  5
C9
330
1F
100
AcDbEntity
  8
0
  6
Continuous
 62
     7
370
    15
100
AcDbLine
 10
253.0561511421
 20
98.9099944178
 30
0.0
 11
253.0561511421
 21
119.2124323443
 31
0.0
  0
LINE
  5
CA
330
1F
100
AcDbEntity
  8
0
  6
HIDDEN
 62
     7
370
     0
100
AcDbLine
 10
211.0561511421
 20
105.0612134345
 30
0.0
 11
211.0561511421
 21
113.0612134345
 31
0.0
  0
LINE
  5
CB
330
1F
100
AcDbEntity
  8
0
  6
HIDDEN
 62
     7
370
     0
100
AcDbLine
 10
195.5561511421
 20
105.0612134345
 30
0.0
 11
195.5561511421
 21
113.0612134345
 31
0.0
  0
LINE
  5
CC
330
1F
100
AcDbEntity
  8
0
  6
HIDDEN
 62
     7
370
     0
100
AcDbLine
 10
195.0561511421
 20
105.5612134345
 30
0.0
 11
195.0561511421
 21
112.5612134345
 31
0.0
  0
LINE
  5
CD
330
1F
100
AcDbEntity
  8
0
  6
HIDDEN
 62
     7
370
     0
100
AcDbLine
 10
215.0561511421
 20
108.0612134345
 30
0.0
 11
213.0561511421
 21
108.0612134345
 31
0.0
  0
LINE
  5
CE
330
1F
100
AcDbEntity
  8
0
  6
HIDDEN
 62
     7
370
     0
100
AcDbLine
 10
215.0561511421
 20
105.5612134345
 30
0.0
 11
215.0561511421
 21
108.0612134345
 31
0.0
  0
LINE
  5
CF
330
1F
100
AcDbEntity
  8
0
  6
HIDDEN
 62
     7
370
     0
100
AcDbLine
 10
215.0561511421
 20
110.0612134345
 30
0.0
 11
215.0561511421
 21
112.5612134345
 31
0.0
  0
LINE
  5
D0
330
1F
100
AcDbEntity
  8
0
  6
HIDDEN
 62
     7
370
     0
100
AcDbLine
 10
213.0561511421
 20
110.0612134345
 30
0.0
 11
215.0561511421
 21
110.0612134345
 31
0.0
  0
LINE
  5
D1
330
1F
100
AcDbEntity
  8
0
  6
HIDDEN
 62
     7
370
     0
100
AcDbLine
 10
213.0561511421
 20
108.0612134345
 30
0.0
 11
213.0561511421
 21
110.0612134345
 31
0.0
  0
LINE
  5
D2
330
1F
100
AcDbEntity
  8
0
  6
HIDDEN
 62
     7
370
     0
100
AcDbLine
 10
210.0561511421
 20
109.0612134345
 30
0.0
 11
213.0561511421
 21
109.0612134345
 31
0.0
  0
LINE
  5
D3
330
1F
100
AcDbEntity
  8
0
  6
HIDDEN
 62
     7
370
     0
100
AcDbLine
 10
210.0561511421
 20
109.0612134345
 30
0.0
 11
210.0561511421
 21
108.0612134345
 31
0.0
  0
LINE
  5
D4
330
1F
100
AcDbEntity
  8
0
  6
HIDDEN
 62
     7
370
     0
100
AcDbLine
 10
210.0561511421
 20
110.0612134345
 30
0.0
 11
210.0561511421
 21
109.0612134345
 31
0.0
  0
LINE
  5
D5
330
1F
100
AcDbEntity
  8
0
  6
HIDDEN
 62
     7
370
     0
100
AcDbLine
 10
200.056151142
 20
109.0612134345
 30
0.0
 11
195.0561511421
 21
109.0612134345
 31
0.0
  0
LINE
  5
D6
330
1F
100
AcDbEntity
  8
0
  6
HIDDEN
 62
     7
370
     0
100
AcDbLine
 10
200.056151142
 20
108.0612134345
 30
0.0
 11
200.056151142
 21
109.0612134345
 31
0.0
  0
LINE
  5
D7
330
1F
100
AcDbEntity
  8
0
  6
HIDDEN
 62
     7
370
     0
100
AcDbLine
 10
200.056151142
 20
109.0612134345
 30
0.0
 11
200.056151142
 21
110.0612134345
 31
0.0
  0
LINE
  5
D8
330
1F
100
AcDbEntity
  8
0
  6
HIDDEN
 62
     7
370
     0
100
AcDbLine
 10
200.056151142
 20
107.0612134345
 30
0.0
 11
200.056151142
 21
108.0612134345
 31
0.0
  0
LINE
  5
D9
330
1F
100
AcDbEntity
  8
0
  6
HIDDEN
 62
     7
370
     0
100
AcDbLine
 10
210.0561511421
 20
108.0612134345
 30
0.0
 11
210.0561511421
 21
107.0612134345
 31
0.0
  0
LINE
  5
DA
330
1F
100
AcDbEntity
  8
0
  6
HIDDEN
 62
     7
370
     0
100
AcDbLine
 10
200.056151142
 20
110.0612134345
 30
0.0
 11
200.056151142
 21
111.0612134345
 31
0.0
  0
LINE
  5
DB
330
1F
100
AcDbEntity
  8
0
  6
HIDDEN
 62
     7
370
     0
100
AcDbLine
 10
210.0561511421
 20
111.0612134345
 30
0.0
 11
210.0561511421
 21
110.0612134345
 31
0.0
  0
LINE
  5
DC
330
1F
100
AcDbEntity
  8
0
  6
HIDDEN
 62
     7
370
     0
100
AcDbLine
 10
200.056151142
 20
111.0612134345
 30
0.0
 11
195.056151142
 21
111.0612134345
 31
0.0
  0
LINE
  5
DD
330
1F
100
AcDbEntity
  8
0
  6
HIDDEN
 62
     7
370
     0
100
AcDbLine
 10
210.0561511421
 20
111.0612134345
 30
0.0
 11
215.0561511421
 21
111.0612134345
 31
0.0
  0
LINE
  5
DE
330
1F
100
AcDbEntity
  8
0
  6
HIDDEN
 62
     7
370
     0
100
AcDbLine
 10
200.056151142
 20
107.0612134345
 30
0.0
 11
195.056151142
 21
107.0612134345
 31
0.0
  0
LINE
  5
DF
330
1F
100
AcDbEntity
  8
0
  6
HIDDEN
 62
     7
370
     0
100
AcDbLine
 10
210.0561511421
 20
107.0612134345
 30
0.0
 11
215.0561511421
 21
107.0612134345
 31
0.0
  0
LINE
  5
E0
330
1F
100
AcDbEntity
  8
0
  6
HIDDEN
 62
     7
370
     0
100
AcDbLine
 10
252.8648843848
 20
102.554855881
 30
0.0
 11
252.9826638321
 21
99.5571687723
 31
0.0
  0
LINE
  5
E1
330
1F
100
AcDbEntity
  8
0
  6
HIDDEN
 62
     7
370
     0
100
AcDbLine
 10
247.530946581
 20
102.3452848939
 30
0.0
 11
247.6487260282
 21
99.3475977852
 31
0.0
  0
LINE
  5
E2
330
1F
100
AcDbEntity
  8
0
  6
HIDDEN
 62
     7
370
     0
100
AcDbLine
 10
253.0377186586
 20
102.2809301359
 30
0.0
 11
253.0561511421
 21
101.8117921034
 31
0.0
  0
LINE
  5
E3
330
1F
100
AcDbEntity
  8
0
  6
HIDDEN
 62
     7
370
     0
100
AcDbLine
 10
247.0509619707
 20
101.8260404679
 30
0.0
 11
247.1294816022
 21
99.8275823954
 31
0.0
  0
LINE
  5
E4
330
1F
100
AcDbEntity
  8
0
  6
HIDDEN
 62
     7
370
     0
100
AcDbLine
 10
251.0871379314
 20
100.9838506947
 30
0.0
 11
251.0576930696
 21
101.7332724719
 31
0.0
  0
LINE
  5
E5
330
1F
100
AcDbEntity
  8
0
  6
HIDDEN
 62
     7
370
     0
100
AcDbLine
 10
251.0871379314
 20
100.9838506947
 30
0.0
 11
253.0855960039
 21
101.0623703262
 31
0.0
  0
LINE
  5
E6
330
1F
100
AcDbEntity
  8
0
  6
HIDDEN
 62
     7
370
     0
100
AcDbLine
 10
251.1165827933
 20
100.2344289175
 30
0.0
 11
251.0871379314
 21
100.9838506947
 31
0.0
  0
LINE
  5
E7
330
1F
100
AcDbEntity
  8
0
  6
HIDDEN
 62
     7
370
     0
100
AcDbLine
 10
251.1165827933
 20
100.2344289175
 30
0.0
 11
253.1150408657
 21
100.312948549
 31
0.0
  0
LINE
  5
E8
330
1F
100
AcDbEntity
  8
0
  6
HIDDEN
 62
     7
370
     0
100
AcDbLine
 10
251.0576930696
 20
101.7332724719
 30
0.0
 11
253.0561511421
 21
101.8117921034
 31
0.0
  0
LINE
  5
E9
330
1F
100
AcDbEntity
  8
0
  6
HIDDEN
 62
     7
370
     0
100
AcDbLine
 10
252.9158843815
 20
118.3667649202
 30
0.0
 11
252.8059946612
 21
115.5698847715
 31
0.0
  0
LINE
  5
EA
330
1F
100
AcDbEntity
  8
0
  6
HIDDEN
 62
     7
370
     0
100
AcDbLine
 10
252.9237741085
 20
118.5675718802
 30
0.0
 11
252.9158843815
 21
118.3667649202
 31
0.0
  0
LINE
  5
EB
330
1F
100
AcDbEntity
  8
0
  6
HIDDEN
 62
     7
370
     0
100
AcDbLine
 10
247.5819465776
 20
118.5763359073
 30
0.0
 11
247.4720568573
 21
115.7794557585
 31
0.0
  0
LINE
  5
EC
330
1F
100
AcDbEntity
  8
0
  6
HIDDEN
 62
     7
370
     0
100
AcDbLine
 10
247.5898363046
 20
118.7771428673
 30
0.0
 11
247.5819465776
 21
118.5763359073
 31
0.0
  0
LINE
  5
ED
330
1F
100
AcDbEntity
  8
0
  6
HIDDEN
 62
     7
370
     0
100
AcDbLine
 10
247.0653320606
 20
118.1632869504
 30
0.0
 11
246.9920722471
 21
116.2987001845
 31
0.0
  0
LINE
  5
EE
330
1F
100
AcDbEntity
  8
0
  6
HIDDEN
 62
     7
370
     0
100
AcDbLine
 10
247.0705918786
 20
118.297158257
 30
0.0
 11
247.0653320606
 21
118.1632869504
 31
0.0
  0
LINE
  5
EF
330
1F
100
AcDbEntity
  8
0
  6
HIDDEN
 62
     7
370
     0
100
AcDbLine
 10
253.0561511421
 20
117.8117921034
 30
0.0
 11
252.978828935
 21
115.8438105165
 31
0.0
  0
LINE
  5
F0
330
1F
100
AcDbEntity
  8
0
  6
HIDDEN
 62
     7
370
     0
100
AcDbLine
 10
251.0282482078
 20
117.1408899577
 30
0.0
 11
251.0576930696
 21
117.8903117349
 31
0.0
  0
LINE
  5
F1
330
1F
100
AcDbEntity
  8
0
  6
HIDDEN
 62
     7
370
     0
100
AcDbLine
 10
251.0282482078
 20
117.1408899577
 30
0.0
 11
250.998803346
 21
116.3914681806
 31
0.0
  0
LINE
  5
F2
330
1F
100
AcDbEntity
  8
0
  6
HIDDEN
 62
     7
370
     0
100
AcDbLine
 10
251.0282482078
 20
117.1408899577
 30
0.0
 11
253.0267062803
 21
117.0623703262
 31
0.0
  0
LINE
  5
F3
330
1F
100
AcDbEntity
  8
0
  6
HIDDEN
 62
     7
370
     0
100
AcDbLine
 10
251.0576930696
 20
117.8903117349
 30
0.0
 11
253.0561511421
 21
117.8117921034
 31
0.0
  0
LINE
  5
F4
330
1F
100
AcDbEntity
  8
0
  6
HIDDEN
 62
     7
370
     0
100
AcDbLine
 10
250.998803346
 20
116.3914681806
 30
0.0
 11
252.9972614185
 21
116.312948549
 31
0.0
  0
SPLINE
  5
F5
330
1F
100
AcDbEntity
  8
0
  6
HIDDEN
 62
     7
370
     0
100
AcDbSpline
210
0.0
220
0.0
230
1.0
 70
     8
 71
     3
 72
    80
 73
    76
 74
     0
 42
0.00000001
 43
0.00000001
 40
-0.03125
 40
-0.03125
 40
0.0
 40
0.0
 40
0.0312500000000002
 40
0.0312500000000002
 40
0.0468750000000002
 40
0.0468750000000002
 40
0.0625000000000001
 40
0.0625000000000001
 40
0.0937499999999999
 40
0.0937499999999999
 40
0.1249999999999997
 40
0.1249999999999997
 40
0.1562499999999995
 40
0.1562499999999995
 40
0.1874999999999993
 40
0.1874999999999993
 40
0.2187499999999991
 40
0.2187499999999991
 40
0.2499999999999989
 40
0.2499999999999989
 40
0.2812499999999987
 40
0.2812499999999987
 40
0.3124999999999984
 40
0.3124999999999984
 40
0.3281249999999985
 40
0.3281249999999985
 40
0.3437499999999986
 40
0.3437499999999986
 40
0.3749999999999986
 40
0.3749999999999986
 40
0.4062499999999987
 40
0.4062499999999987
 40
0.4218749999999989
 40
0.4218749999999989
 40
0.4374999999999991
 40
0.4374999999999991
 40
0.4687499999999993
 40
0.4687499999999993
 40
0.4999999999999994
 40
0.4999999999999994
 40
0.5312499999999997
 40
0.5312499999999997
 40
0.5624999999999998
 40
0.5624999999999998
 40
0.59375
 40
0.59375
 40
0.6250000000000001
 40
0.6250000000000001
 40
0.6562500000000003
 40
0.6562500000000003
 40
0.6875000000000006
 40
0.6875000000000006
 40
0.7031250000000007
 40
0.7031250000000007
 40
0.7187500000000007
 40
0.7187500000000007
 40
0.7500000000000003
 40
0.7500000000000003
 40
0.78125
 40
0.78125
 40
0.7968749999999998
 40
0.7968749999999998
 40
0.8124999999999997
 40
0.8124999999999997
 40
0.8437499999999998
 40
0.8437499999999998
 40
0.8749999999999998
 40
0.8749999999999998
 40
0.9062499999999999
 40
0.9062499999999999
 40
0.9375
 40
0.9375
 40
0.96875
 40
0.96875
 40
1.0
 40
1.0
 40
1.03125
 40
1.03125
 10
101.7256058293204
 20
157.9207626909309
 30
0.0
 10
102.3866964548731
 20
157.9207626909309
 30
0.0
 10
102.7116765841247
 20
157.9138645451041
 30
0.0
 10
103.1911499953711
 20
157.8933381171236
 30
0.0
 10
103.3496318132119
 20
157.884781890036
 30
0.0
 10
103.6638513457162
 20
157.8640555148184
 30
0.0
 10
103.8199716293966
 20
157.851828214612
 30
0.0
 10
104.2740256583532
 20
157.8102589207828
 30
0.0
 10
104.561129041293
 20
157.775914635685
 30
0.0
 10
105.10448359732
 20
157.6925905113627
 30
0.0
 10
105.3615872085256
 20
157.6431522885883
 30
0.0
 10
105.8224934634644
 20
157.5317725588283
 30
0.0
 10
106.0293911726794
 20
157.4694780453162
 30
0.0
 10
106.3949164866716
 20
157.3295484024452
 30
0.0
 10
106.5501220087975
 20
157.2529325046962
 30
0.0
 10
106.7995523953972
 20
157.0889738848404
 30
0.0
 10
106.8956423511824
 20
157.0004170307447
 30
0.0
 10
107.024161200376
 20
156.8129363486389
 30
0.0
 10
107.0559720705537
 20
156.7156998871845
 30
0.0
 10
107.056328720327
 20
156.5140672478574
 30
0.0
 10
107.02383146813
 20
156.4085184560193
 30
0.0
 10
106.8962059944155
 20
156.1984036733307
 30
0.0
 10
106.8017775933636
 20
156.0933381653618
 30
0.0
 10
106.613916773378
 20
155.9364604581107
 30
0.0
 10
106.5430887745748
 20
155.884026724405
 30
0.0
 10
106.3883668826095
 20
155.7815882787753
 30
0.0
 10
106.3043904124261
 20
155.7314405501234
 30
0.0
 10
106.0330667427817
 20
155.5844245936899
 30
0.0
 10
105.8265175241794
 20
155.4909367732555
 30
0.0
 10
105.3599073839904
 20
155.3151499156411
 30
0.0
 10
105.1075418143649
 20
155.2357714405574
 30
0.0
 10
104.7016404726862
 20
155.1302890030634
 30
0.0
 10
104.5617398552087
 20
155.0974034382232
 30
0.0
 10
104.2725159199618
 20
155.0364879589945
 30
0.0
 10
104.1226764636725
 20
155.0084073873522
 30
0.0
 10
103.6685598940617
 20
154.9336053453094
 30
0.0
 10
103.3569086753249
 20
154.8955672870632
 30
0.0
 10
102.7159122104125
 20
154.8439553605391
 30
0.0
 10
102.3843845824603
 20
154.8306414270176
 30
0.0
 10
101.7315935373888
 20
154.8305443406896
 30
0.0
 10
101.407057332357
 20
154.8433324258506
 30
0.0
 10
100.7617878829406
 20
154.8948226154465
 30
0.0
 10
100.4460448767779
 20
154.9333471947666
 30
0.0
 10
99.8441555817942
 20
155.0322497576246
 30
0.0
 10
99.55340635098273
 20
155.0933538555497
 30
0.0
 10
99.00649455929822
 20
155.2351632886603
 30
0.0
 10
98.75471719546131
 20
155.3144977732395
 30
0.0
 10
98.29332920284017
 20
155.487876517901
 30
0.0
 10
98.0820599232421
 20
155.583036462655
 30
0.0
 10
97.7187555708659
 20
155.779608986031
 30
0.0
 10
97.56494892242311
 20
155.8813652144373
 30
0.0
 10
97.3763294528257
 20
156.0381511772228
 30
0.0
 10
97.32029896661659
 20
156.0914052109728
 30
0.0
 10
97.22472520488043
 20
156.1972097725256
 30
0.0
 10
97.18496228785541
 20
156.2498628368811
 30
0.0
 10
97.0891905375433
 20
156.4069365563403
 30
0.0
 10
97.0564676984172
 20
156.5104615916674
 30
0.0
 10
97.0558391120881
 20
156.7146763258945
 30
0.0
 10
97.08802525682286
 20
156.8121801634793
 30
0.0
 10
97.18293595867846
 20
156.951507213831
 30
0.0
 10
97.2224027420774
 20
156.9968239453354
 30
0.0
 10
97.31733274079829
 20
157.0852637663242
 30
0.0
 10
97.37308956856167
 20
157.1285180167842
 30
0.0
 10
97.56102968653154
 20
157.2524094913742
 30
0.0
 10
97.71439115624771
 20
157.3281117821483
 30
0.0
 10
98.07665539112809
 20
157.4673661536064
 30
0.0
 10
98.287503864594
 20
157.5311279951351
 30
0.0
 10
98.7481738349129
 20
157.642624834603
 30
0.0
 10
98.99954821449674
 20
157.6911509069196
 30
0.0
 10
99.54545610139488
 20
157.7752048903001
 30
0.0
 10
99.83627867604608
 20
157.8100034439668
 30
0.0
 10
100.4376052908261
 20
157.8651999087306
 30
0.0
 10
100.7521238754385
 20
157.8860177574845
 30
0.0
 10
101.3987053315584
 20
157.9138650903952
 30
0.0
 10
101.7256058293204
 20
157.9207626909309
 30
0.0
 10
102.3866964548731
 20
157.9207626909309
 30
0.0
  0
LINE
  5
F6
330
1F
100
AcDbEntity
  8
0
  6
HIDDEN
 62
     7
370
     0
100
AcDbLine
 10
109.7941221212
 20
148.0121761953
 30
0.0
 11
109.7941221212
 21
140.4112134345
 31
0.0
  0
SPLINE
  5
F7
330
1F
100
AcDbEntity
  8
0
  6
HIDDEN
 62
     7
370
     0
100
AcDbSpline
210
0.0
220
0.0
230
1.0
 70
     8
 71
     3
 72
     9
 73
     5
 74
     0
 42
0.00000001
 43
0.00000001
 40
0.0
 40
0.0
 40
0.0
 40
0.0
 40
0.5038163044167481
 40
1.0
 40
1.0
 40
1.0
 40
1.0
 10
73.4695758915241
 20
72.32540707217882
 30
0.0
 10
73.1858967067856
 20
72.30125389808009
 30
0.0
 10
72.62283595974029
 20
72.25331346049003
 30
0.0
 10
72.26647491793106
 20
72.2120011122042
 30
0.0
 10
72.08965437924427
 20
72.1915025985585
 30
0.0
  0
SPLINE
  5
F8
330
1F
100
AcDbEntity
  8
0
  6
HIDDEN
 62
     7
370
     0
100
AcDbSpline
210
0.0
220
0.0
230
1.0
 70
     8
 71
     3
 72
    12
 73
     8
 74
     0
 42
0.00000001
 43
0.00000001
 40
0.0
 40
0.0
 40
0.0
 40
0.0
 40
0.1661348616735903
 40
0.3322013257393936
 40
0.5008932044678248
 40
0.752137078264078
 40
1.0
 40
1.0
 40
1.0
 40
1.0
 10
71.57547280774398
 20
145.9925174575185
 30
0.0
 10
71.58586543185204
 20
145.991139333457
 30
0.0
 10
71.60664640143199
 20
145.9883836527069
 30
0.0
 10
71.7799458908789
 20
145.9667802777449
 30
0.0
 10
72.10189748012263
 20
145.928915325803
 30
0.0
 10
72.62306331604196
 20
145.8685315590868
 30
0.0
 10
73.18862125587968
 20
145.8207384219374
 30
0.0
 10
73.46948467956773
 20
145.7970037288441
 30
0.0
  0
SPLINE
  5
F9
330
1F
100
AcDbEntity
  8
0
  6
HIDDEN
 62
     7
370
     0
100
AcDbSpline
210
0.0
220
0.0
230
1.0
 70
     8
 71
     3
 72
    10
 73
     6
 74
     0
 42
0.00000001
 43
0.00000001
 40
0.0
 40
0.0
 40
0.0
 40
0.0
 40
0.3733270049511442
 40
0.6861838452108451
 40
1.0
 40
1.0
 40
1.0
 40
1.0
 10
43.21541511016953
 20
139.7173765365219
 30
0.0
 10
43.20244934022012
 20
139.7031290165181
 30
0.0
 10
43.17861794907504
 20
139.6769417385252
 30
0.0
 10
43.15997229239565
 20
139.6231646447906
 30
0.0
 10
43.15742615807527
 20
139.5836638223042
 30
0.0
 10
43.15615114209675
 20
139.5638831770208
 30
0.0
  0
SPLINE
  5
FA
330
1F
100
AcDbEntity
  8
0
  6
HIDDEN
 62
     7
370
     0
100
AcDbSpline
210
0.0
220
0.0
230
1.0
 70
     8
 71
     3
 72
    33
 73
    29
 74
     0
 42
0.00000001
 43
0.00000001
 40
0.0
 40
0.0
 40
0.0
 40
0.0
 40
0.0315773698875104
 40
0.0633753287769057
 40
0.0958656851178231
 40
0.1285943208117605
 40
0.1601713694082662
 40
0.2244011681247345
 40
0.2571344568799636
 40
0.2885965627565487
 40
0.3526214070085076
 40
0.3852675959519929
 40
0.4162212184009612
 40
0.4791910353915302
 40
0.5112817741273479
 40
0.5421256322990662
 40
0.6048360558905652
 40
0.6367710793564881
 40
0.6680663384719832
 40
0.7316979547407203
 40
0.7641081282919966
 40
0.7957194290717577
 40
0.8275524266255816
 40
0.8600900250720824
 40
0.8928737620729298
 40
0.9241775068323748
 40
0.9878778414776339
 40
1.0
 40
1.0
 40
1.0
 40
1.0
 10
83.30935679728779
 20
77.69489121370587
 30
0.0
 10
83.22548565028254
 20
77.7087649520876
 30
0.0
 10
83.0571574603386
 20
77.73660934617236
 30
0.0
 10
82.7578028639971
 20
77.78304198640276
 30
0.0
 10
82.42380339673825
 20
77.83165458842359
 30
0.0
 10
82.05803343485098
 20
77.88080252161082
 30
0.0
 10
81.53465352016211
 20
77.94486830720346
 30
0.0
 10
80.95822631156751
 20
78.00464982160858
 30
0.0
 10
80.34308916471596
 20
78.05464942907264
 30
0.0
 10
79.70677343863305
 20
78.09678942175604
 30
0.0
 10
79.04299290119435
 20
78.12542414649408
 30
0.0
 10
78.37092714961123
 20
78.13768359757768
 30
0.0
 10
77.7014785661795
 20
78.13901288868597
 30
0.0
 10
77.03629399906555
 20
78.12415236577651
 30
0.0
 10
76.39000276017505
 20
78.09429440138733
 30
0.0
 10
75.76081280931668
 20
78.05555117332605
 30
0.0
 10
75.1610971171374
 20
78.00497293956619
 30
0.0
 10
74.6027975510156
 20
77.94657292509966
 30
0.0
 10
74.07260268062802
 20
77.88424969373013
 30
0.0
 10
73.59343597831644
 20
77.81884111919457
 30
0.0
 10
73.17851799312159
 20
77.75605221558861
 30
0.0
 10
72.90124560919554
 20
77.7115476167672
 30
0.0
 10
72.65969032363436
 20
77.67083866733225
 30
0.0
 10
72.45419831928595
 20
77.63478153668277
 30
0.0
 10
72.29003389554171
 20
77.6050245117304
 30
0.0
 10
72.13059994897642
 20
77.57543919830599
 30
0.0
 10
72.05236172102782
 20
77.56048991930115
 30
0.0
 10
72.06008651137263
 20
77.56196234190236
 30
0.0
 10
72.06132151604209
 20
77.56219774619252
 30
0.0
  0
SPLINE
  5
FB
330
1F
100
AcDbEntity
  8
0
  6
HIDDEN
 62
     7
370
     0
100
AcDbSpline
210
0.0
220
0.0
230
1.0
 70
     8
 71
     3
 72
    32
 73
    28
 74
     0
 42
0.00000001
 43
0.00000001
 40
0.0
 40
0.0
 40
0.0
 40
0.0
 40
0.020356822172105
 40
0.0512207857583794
 40
0.1139954454389432
 40
0.1459779869097674
 40
0.1769364677636727
 40
0.2398766914470389
 40
0.2719275468465721
 40
0.3033698011481659
 40
0.3673099924152954
 40
0.3998847012176188
 40
0.4314690120325909
 40
0.4957360700021212
 40
0.5285028301030422
 40
0.5596434488300034
 40
0.6230067766607702
 40
0.6553079823205556
 40
0.6861132872619372
 40
0.748756262689177
 40
0.7806634244345373
 40
0.8117607067089887
 40
0.8749825776111492
 40
0.9071778073885584
 40
0.9301738434827028
 40
0.9765719131095674
 40
1.0
 40
1.0
 40
1.0
 40
1.0
 10
72.06132151604209
 20
140.5602291227133
 30
0.0
 10
72.06096446413584
 20
140.5602966016402
 30
0.0
 10
72.06006606854933
 20
140.5604663886349
 30
0.0
 10
72.12265981510197
 20
140.5485721474475
 30
0.0
 10
72.26447099656548
 20
140.5219252705279
 30
0.0
 10
72.48851558844099
 20
140.4815431991153
 30
0.0
 10
72.76305770427521
 20
140.4336739573649
 30
0.0
 10
73.11174899328276
 20
140.3762040720851
 30
0.0
 10
73.52802495566017
 20
140.3137095250305
 30
0.0
 10
73.98961900252296
 20
140.2491838433913
 30
0.0
 10
74.51315695161811
 20
140.184603466408
 30
0.0
 10
75.08535442607287
 20
140.1258481015232
 30
0.0
 10
75.68756079652483
 20
140.072475245141
 30
0.0
 10
76.32878730330631
 20
140.0296126833088
 30
0.0
 10
76.98987262130247
 20
140.0015486372877
 30
0.0
 10
77.65658357574904
 20
139.983959979748
 30
0.0
 10
78.33047279635596
 20
139.9825133315073
 30
0.0
 10
78.99482228030377
 20
139.9974388706451
 30
0.0
 10
79.6463565544634
 20
140.0224455958688
 30
0.0
 10
80.27701576711941
 20
140.0615496385507
 30
0.0
 10
80.87455474294188
 20
140.1116507963343
 30
0.0
 10
81.44855271089662
 20
140.1678219628175
 30
0.0
 10
81.97950242428993
 20
140.2307359915063
 30
0.0
 10
82.42288330555402
 20
140.2908394935599
 30
0.0
 10
82.77440395312766
 20
140.3417292105451
 30
0.0
 10
83.06407146310451
 20
140.386851687083
 30
0.0
 10
83.24773422750222
 20
140.4173146989704
 30
0.0
 10
83.30935679728779
 20
140.4275356552
 30
0.0
  0
SPLINE
  5
FC
330
1F
100
AcDbEntity
  8
0
  6
HIDDEN
 62
     7
370
     0
100
AcDbSpline
210
0.0
220
0.0
230
1.0
 70
     8
 71
     3
 72
    13
 73
     9
 74
     0
 42
0.00000001
 43
0.00000001
 40
0.0
 40
0.0
 40
0.0
 40
0.0
 40
0.1623799816591789
 40
0.3258962967501759
 40
0.4929818113643412
 40
0.6612959817031199
 40
0.8237063551432365
 40
1.0
 40
1.0
 40
1.0
 40
1.0
 10
83.30935679728779
 20
140.4275356552
 30
0.0
 10
83.38494630624514
 20
140.4399114274569
 30
0.0
 10
83.53665429876156
 20
140.4647495774969
 30
0.0
 10
83.71955319860643
 20
140.4920079254206
 30
0.0
 10
83.86861544804886
 20
140.5131277730691
 30
0.0
 10
83.97256598849208
 20
140.5271142008045
 30
0.0
 10
84.04789793360943
 20
140.5369071742452
 30
0.0
 10
84.03966813494233
 20
140.5358358372218
 30
0.0
 10
84.03538456839134
 20
140.5352782119841
 30
0.0
  0
SPLINE
  5
FD
330
1F
100
AcDbEntity
  8
0
  6
HIDDEN
 62
     7
370
     0
100
AcDbSpline
210
0.0
220
0.0
230
1.0
 70
     8
 71
     3
 72
    13
 73
     9
 74
     0
 42
0.00000001
 43
0.00000001
 40
0.0
 40
0.0
 40
0.0
 40
0.0
 40
0.1540223516861439
 40
0.3222978879394844
 40
0.4885662367489577
 40
0.6560437831874955
 40
0.8273549263198314
 40
1.0
 40
1.0
 40
1.0
 40
1.0
 10
84.03538421711559
 20
77.58714870236366
 30
0.0
 10
84.04056988808502
 20
77.58647687292701
 30
0.0
 10
84.05142111053874
 20
77.58507104314893
 30
0.0
 10
83.98207967222993
 20
77.59405793602052
 30
0.0
 10
83.88196220801696
 20
77.60747205215627
 30
0.0
 10
83.73543443998692
 20
77.62811260052338
 30
0.0
 10
83.54922054209163
 20
77.65567806143784
 30
0.0
 10
83.38951783183606
 20
77.68178641182647
 30
0.0
 10
83.30935679728779
 20
77.69489121370586
 30
0.0
  0
LINE
  5
FE
330
1F
100
AcDbEntity
  8
0
  6
HIDDEN
 62
     7
370
     0
100
AcDbLine
 10
63.0527754691
 20
82.5612134345
 30
0.0
 11
63.0527754691
 21
135.5612134345
 31
0.0
  0
LINE
  5
FF
330
1F
100
AcDbEntity
  8
0
  6
HIDDEN
 62
     7
370
     0
100
AcDbLine
 10
102.3402287605
 20
82.5612134345
 30
0.0
 11
102.3402287605
 21
135.5612134345
 31
0.0
  0
LINE
  5
100
330
1F
100
AcDbEntity
  8
0
  6
HIDDEN
 62
     7
370
     0
100
AcDbLine
 10
105.5061511421
 20
84.1862134345
 30
0.0
 11
105.5061511421
 21
133.9362134345
 31
0.0
  0
SPLINE
  5
101
330
1F
100
AcDbEntity
  8
0
  6
HIDDEN
 62
     7
370
     0
100
AcDbSpline
210
0.0
220
0.0
230
1.0
 70
     8
 71
     3
 72
    20
 73
    16
 74
     0
 42
0.00000001
 43
0.00000001
 40
0.0
 40
0.0
 40
0.0
 40
0.0
 40
0.2499999999999978
 40
0.2499999999999978
 40
0.3749999999999982
 40
0.3749999999999982
 40
0.4999999999999986
 40
0.4999999999999986
 40
0.6249999999999989
 40
0.6249999999999989
 40
0.7499999999999992
 40
0.7499999999999992
 40
0.8749999999999997
 40
0.8749999999999997
 40
1.0
 40
1.0
 40
1.0
 40
1.0
 10
53.25615114209675
 20
134.2897270648672
 30
0.0
 10
53.25615114209675
 20
134.210524078335
 30
0.0
 10
53.20916864688402
 20
134.129427859932
 30
0.0
 10
53.07134705610645
 20
134.0092311681811
 30
0.0
 10
53.01506477219646
 20
133.970304464179
 30
0.0
 10
52.88197992072924
 20
133.8951157317547
 30
0.0
 10
52.80413997849617
 20
133.8584735264127
 30
0.0
 10
52.63150762238183
 20
133.7908829935808
 30
0.0
 10
52.53711462529076
 20
133.7599248118052
 30
0.0
 10
52.33167731897561
 20
133.7044003904355
 30
0.0
 10
52.21933107898843
 20
133.6796918766023
 30
0.0
 10
51.98709021508879
 20
133.6398956494941
 30
0.0
 10
51.86637957266607
 20
133.624475812097
 30
0.0
 10
51.61530871339705
 20
133.6033958372574
 30
0.0
 10
51.48578671698126
 20
133.5979185922364
 30
0.0
 10
51.35615114209677
 20
133.5979185922364
 30
0.0
  0
LINE
  5
102
330
1F
100
AcDbEntity
  8
0
  6
HIDDEN
 62
     7
370
     0
100
AcDbLine
 10
51.3561511421
 20
133.5979185922
 30
0.0
 11
44.8061511421
 21
133.5979185922
 31
0.0
  0
LINE
  5
103
330
1F
100
AcDbEntity
  8
0
  6
HIDDEN
 62
     7
370
     0
100
AcDbLine
 10
44.8061511421
 20
84.5245082767
 30
0.0
 11
56.3561511421
 21
84.5245082767
 31
0.0
  0
SPLINE
  5
104
330
1F
100
AcDbEntity
  8
0
  6
HIDDEN
 62
     7
370
     0
100
AcDbSpline
210
0.0
220
0.0
230
1.0
 70
     8
 71
     3
 72
    18
 73
    14
 74
     0
 42
0.00000001
 43
0.00000001
 40
0.0
 40
0.0
 40
0.0
 40
0.0
 40
0.1249999999999982
 40
0.1249999999999982
 40
0.2499999999999964
 40
0.2499999999999964
 40
0.4999999999999988
 40
0.4999999999999988
 40
0.7500000000000011
 40
0.7500000000000011
 40
0.8750000000000006
 40
0.8750000000000006
 40
1.0
 40
1.0
 40
1.0
 40
1.0
 10
56.35615114209674
 20
84.52450827666944
 30
0.0
 10
56.48561845505398
 20
84.52450827666942
 30
0.0
 10
56.6126292039506
 20
84.51915527807678
 30
0.0
 10
56.86199252514785
 20
84.498417305388
 30
0.0
 10
56.98561617977629
 20
84.48274540113371
 30
0.0
 10
57.33464851671033
 20
84.42305067273162
 30
0.0
 10
57.54516028151713
 20
84.36528549305064
 30
0.0
 10
57.88907695921664
 20
84.23076365177313
 30
0.0
 10
58.02542736073446
 20
84.15309453826774
 30
0.0
 10
58.16246541729699
 20
84.0338034041804
 30
0.0
 10
58.19768443600989
 20
83.99288439504535
 30
0.0
 10
58.24430801294844
 20
83.91222840175531
 30
0.0
 10
58.25615114209677
 20
83.87225988156247
 30
0.0
 10
58.25615114209675
 20
83.83269980403864
 30
0.0
  0
LINE
  5
105
330
1F
100
AcDbEntity
  8
0
  6
HIDDEN
 62
     7
370
     0
100
AcDbLine
 10
44.8061511421
 20
84.5245082767
 30
0.0
 11
44.8061511421
 21
133.5979185922
 31
0.0
  0
LWPOLYLINE
  5
106
330
1F
100
AcDbEntity
  8
0
  6
HIDDEN
 62
     7
370
     0
100
AcDbPolyline
 90
       13
 70
   128
 43
0.0
 10
102.0561511421
 20
149.0049439978
 10
103.2092304958
 20
149.059762192
 10
104.3001470431
 20
149.2212615118
 10
105.2700891905
 20
149.4807354869
 10
106.0667671059
 20
149.8241958083
 10
106.6472316765
 20
150.233126441
 10
106.9801899072
 20
150.6854818288
 10
107.0476919335
 20
151.1568753757
 10
106.8460987037
 20
151.6218941336
 10
106.386278161
 20
152.0554688208
 10
105.69301935
 20
152.4342253138
 10
104.8036960325
 20
152.7377447519
 10
104.4274852367
 20
152.8290435986
  0
LWPOLYLINE
  5
107
330
1F
100
AcDbEntity
  8
0
  6
HIDDEN
 62
     7
370
     0
100
AcDbPolyline
 90
       13
 70
   128
 43
0.0
 10
99.6210238146
 20
152.8148212605
 10
99.3086062517
 20
152.7377447519
 10
98.4192829342
 20
152.4342253138
 10
97.7260241232
 20
152.0554688208
 10
97.2662035805
 20
151.6218941336
 10
97.0646103507
 20
151.1568753757
 10
97.132112377
 20
150.6854818288
 10
97.4650706077
 20
150.233126441
 10
98.0455351783
 20
149.8241958083
 10
98.8422130937
 20
149.4807354869
 10
99.8121552411
 20
149.2212615118
 10
100.9030717884
 20
149.059762192
 10
102.0561511421
 20
149.0049439978
  0
LINE
  5
108
330
1F
100
AcDbEntity
  8
0
  6
HIDDEN
 62
     7
370
     0
100
AcDbLine
 10
44.8061511421
 20
81.6912134345
 30
0.0
 11
44.8061511421
 21
76.8129282326
 31
0.0
  0
LINE
  5
109
330
1F
100
AcDbEntity
  8
0
  6
HIDDEN
 62
     7
370
     0
100
AcDbLine
 10
58.2561511421
 20
81.6912134345
 30
0.0
 11
58.2561511421
 21
75.1918801691
 31
0.0
  0
LINE
  5
10A
330
1F
100
AcDbEntity
  8
0
  6
HIDDEN
 62
     7
370
     0
100
AcDbLine
 10
53.2561511421
 20
136.4312134345
 30
0.0
 11
53.2561511421
 21
142.8058221714
 31
0.0
  0
LINE
  5
10B
330
1F
100
AcDbEntity
  8
0
  6
HIDDEN
 62
     7
370
     0
100
AcDbLine
 10
44.8061511421
 20
136.4312134345
 30
0.0
 11
44.8061511421
 21
141.3094986363
 31
0.0
  0
LINE
  5
10C
330
1F
100
AcDbEntity
  8
0
  6
HIDDEN
 62
     7
370
     0
100
AcDbLine
 10
117.3561511421
 20
96.0612134345
 30
0.0
 11
117.3561511421
 21
122.0612134345
 31
0.0
  0
LINE
  5
10D
330
1F
100
AcDbEntity
  8
0
  6
HIDDEN
 62
     7
370
     0
100
AcDbLine
 10
121.3561511421
 20
96.0612134345
 30
0.0
 11
121.3561511421
 21
122.0612134345
 31
0.0
  0
LINE
  5
10E
330
1F
100
AcDbEntity
  8
0
  6
HIDDEN
 62
     7
370
     0
100
AcDbLine
 10
106.2561511421
 20
97.8112134345
 30
0.0
 11
106.2561511421
 21
120.3112134345
 31
0.0
  0
ELLIPSE
  5
10F
330
1F
100
AcDbEntity
  8
0
  6
HIDDEN
 62
     7
370
     0
100
AcDbEllipse
 10
36.8714779418
 20
109.0612134345
 30
0.0
 11
31.08108570811662
 21
-1.421085471520200E-14
 31
0.0
210
0.0
220
0.0
230
1.0
 40
0.8164965809
 41
4.915995335118103
 42
4.970536038964788
  0
ELLIPSE
  5
110
330
1F
100
AcDbEntity
  8
0
  6
HIDDEN
 62
     7
370
     0
100
AcDbEllipse
 10
36.8714779418
 20
109.0612134345
 30
0.0
 11
31.08108570811662
 21
1.421085471520200E-14
 31
0.0
210
0.0
220
0.0
230
1.0
 40
0.8164965809
 41
1.31264926821481
 42
1.367189972061496
  0
LINE
  5
111
330
1F
100
AcDbEntity
  8
0
  6
HIDDEN
 62
     7
370
     0
100
AcDbLine
 10
122.0061511421
 20
65.1612134345
 30
0.0
 11
108.0061511421
 21
65.1612134345
 31
0.0
  0
LINE
  5
112
330
1F
100
AcDbEntity
  8
0
  6
HIDDEN
 62
     7
370
     0
100
AcDbLine
 10
98.0061511421
 20
59.0712144347
 30
0.0
 11
98.0061511421
 21
65.1612134345
 31
0.0
  0
LINE
  5
113
330
1F
100
AcDbEntity
  8
0
  6
HIDDEN
 62
     7
370
     0
100
AcDbLine
 10
108.0061511421
 20
65.1612134345
 30
0.0
 11
98.0061511421
 21
65.1612134345
 31
0.0
  0
LINE
  5
114
330
1F
100
AcDbEntity
  8
0
  6
HIDDEN
 62
     7
370
     0
100
AcDbLine
 10
58.2561511421
 20
81.6912134345
 30
0.0
 11
58.2561511421
 21
83.832699804
 31
0.0
  0
LINE
  5
115
330
1F
100
AcDbEntity
  8
0
  6
HIDDEN
 62
     7
370
     0
100
AcDbLine
 10
44.8061511421
 20
81.6912134345
 30
0.0
 11
44.8061511421
 21
84.5245082767
 31
0.0
  0
LINE
  5
116
330
1F
100
AcDbEntity
  8
0
  6
HIDDEN
 62
     7
370
     0
100
AcDbLine
 10
44.8061511421
 20
136.4312134345
 30
0.0
 11
44.8061511421
 21
133.5979185922
 31
0.0
  0
LINE
  5
117
330
1F
100
AcDbEntity
  8
0
  6
HIDDEN
 62
     7
370
     0
100
AcDbLine
 10
53.2561511421
 20
136.4312134345
 30
0.0
 11
53.2561511421
 21
134.2897270649
 31
0.0
  0
LINE
  5
118
330
1F
100
AcDbEntity
  8
0
  6
HIDDEN
 62
     7
370
     0
100
AcDbLine
 10
108.0061511421
 20
152.9612134345
 30
0.0
 11
98.0061511421
 21
152.9612134345
 31
0.0
  0
LINE
  5
119
330
1F
100
AcDbEntity
  8
0
  6
HIDDEN
 62
     7
370
     0
100
AcDbLine
 10
122.0061511421
 20
152.9612134345
 30
0.0
 11
108.0061511421
 21
152.9612134345
 31
0.0
  0
SPLINE
  5
11A
330
1F
100
AcDbEntity
  8
0
  6
HIDDEN
 62
     7
370
     0
100
AcDbSpline
210
0.0
220
0.0
230
1.0
 70
     8
 71
     3
 72
    30
 73
    26
 74
     0
 42
0.00000001
 43
0.00000001
 40
0.0
 40
0.0
 40
0.0
 40
0.0
 40
0.0531668058349484
 40
0.1125460448779716
 40
0.1779415820824531
 40
0.2129647235197383
 40
0.2495168671262985
 40
0.2912815898060335
 40
0.3261230015185468
 40
0.3540373899832548
 40
0.3750221080320941
 40
0.4414779845155039
 40
0.5001940042391968
 40
0.5547072404099836
 40
0.6144498352252388
 40
0.679473423266638
 40
0.714029493681308
 40
0.7499255024787708
 40
0.7913888934542497
 40
0.826054898927729
 40
0.8539197351873082
 40
0.8749805502089522
 40
0.9411652363213413
 40
0.9999141591659414
 40
1.0
 40
1.0
 40
1.0
 40
1.0
 10
84.05572799537956
 20
71.96127644506304
 30
0.0
 10
84.03952646376689
 20
71.96617859765102
 30
0.0
 10
84.00523028449986
 20
71.97655570939402
 30
0.0
 10
83.70388366993453
 20
72.05221697697701
 30
0.0
 10
83.26171140125001
 20
72.1485041102772
 30
0.0
 10
82.76687923043023
 20
72.24816881993665
 30
0.0
 10
82.29640343015076
 20
72.34044699280014
 30
0.0
 10
81.76548204452308
 20
72.43607901764976
 30
0.0
 10
81.22733153351942
 20
72.52172926252054
 30
0.0
 10
80.76928420094698
 20
72.58902105518864
 30
0.0
 10
80.11371987934544
 20
72.67736922426096
 30
0.0
 10
79.23041344165229
 20
72.7740273084461
 30
0.0
 10
78.1017517088438
 20
72.86080248522916
 30
0.0
 10
77.01198995912148
 20
72.8988811829372
 30
0.0
 10
75.91596168068419
 20
72.90073161770215
 30
0.0
 10
75.01057043374227
 20
72.87457016211668
 30
0.0
 10
74.31426772332695
 20
72.83796293698781
 30
0.0
 10
73.78758799505195
 20
72.79894606151075
 30
0.0
 10
73.32094188001929
 20
72.75673693403884
 30
0.0
 10
72.94972660429549
 20
72.71973284446942
 30
0.0
 10
72.69568012705342
 20
72.69103208402511
 30
0.0
 10
72.39462497434404
 20
72.65465213343522
 30
0.0
 10
72.13914117954003
 20
72.62187196644855
 30
0.0
 10
72.03992045459489
 20
72.60553408174025
 30
0.0
 10
72.05620101187736
 20
72.60812766791308
 30
0.0
 10
72.05622476546333
 20
72.6081314519956
 30
0.0
  0
SPLINE
  5
11B
330
1F
100
AcDbEntity
  8
0
  6
HIDDEN
 62
     7
370
     0
100
AcDbSpline
210
0.0
220
0.0
230
1.0
 70
     8
 71
     3
 72
    30
 73
    26
 74
     0
 42
0.00000001
 43
0.00000001
 40
0.0
 40
0.0
 40
0.0
 40
0.0
 40
0.0001123288057695
 40
0.0285431152663135
 40
0.0588466796063202
 40
0.091027196450477
 40
0.1250880910051604
 40
0.1546766141497773
 40
0.1963554560485685
 40
0.2501101496291966
 40
0.320525387238388
 40
0.3856104300246703
 40
0.445403860889207
 40
0.4999571692316274
 40
0.5283494388508946
 40
0.558634027028705
 40
0.5908185964995195
 40
0.6249094714581434
 40
0.6541844575853767
 40
0.6958630078636641
 40
0.7499307292180327
 40
0.8215905285694356
 40
0.8871422909715975
 40
0.9466378748868088
 40
1.0
 40
1.0
 40
1.0
 40
1.0
 10
72.05624647419663
 20
145.5142251434813
 30
0.0
 10
72.05621461443849
 20
145.5142320906075
 30
0.0
 10
72.04811894616762
 20
145.5159973779997
 30
0.0
 10
72.07678042383702
 20
145.5105424592747
 30
0.0
 10
72.15016726999126
 20
145.4999996119286
 30
0.0
 10
72.29382381354199
 20
145.4803144042751
 30
0.0
 10
72.49485951349949
 20
145.4554751404199
 30
0.0
 10
72.77749006276852
 20
145.4212666752811
 30
0.0
 10
73.19089918834318
 20
145.3775867785211
 30
0.0
 10
73.86718668952541
 20
145.3145437109878
 30
0.0
 10
74.80561759044136
 20
145.2532465405551
 30
0.0
 10
75.91511080393725
 20
145.2219580970546
 30
0.0
 10
77.01259153462598
 20
145.2236132646513
 30
0.0
 10
77.9126227730833
 20
145.2549194667486
 30
0.0
 10
78.62396369893422
 20
145.3017526155511
 30
0.0
 10
79.189380599925
 20
145.348919477447
 30
0.0
 10
79.77830402275332
 20
145.408358483997
 30
0.0
 10
80.34271367523081
 20
145.474715690605
 30
0.0
 10
80.93690986916701
 20
145.5566350970365
 30
0.0
 10
81.6035180301375
 20
145.6582830797869
 30
0.0
 10
82.40485077583773
 20
145.8004219903872
 30
0.0
 10
83.15736076034565
 20
145.9516665611536
 30
0.0
 10
83.70264725531182
 20
146.069517434413
 30
0.0
 10
84.00536878681066
 20
146.1457466661623
 30
0.0
 10
84.03965923742369
 20
146.1561989756568
 30
0.0
 10
84.05587267407371
 20
146.161141105457
 30
0.0
  0
LINE
  5
11C
330
1F
100
AcDbEntity
  8
0
  6
HIDDEN
 62
     7
370
     0
100
AcDbLine
 10
155.1561511421
 20
103.0612134345
 30
0.0
 11
155.1561511421
 21
115.0612134345
 31
0.0
  0
LINE
  5
11D
330
1F
100
AcDbEntity
  8
0
  6
HIDDEN
 62
     7
370
     0
100
AcDbLine
 10
156.2076572254
 20
104.8112134345
 30
0.0
 11
156.2076572254
 21
113.3112134345
 31
0.0
  0
LINE
  5
11E
330
1F
100
AcDbEntity
  8
0
  6
HIDDEN
 62
     7
370
     0
100
AcDbLine
 10
249.5561511421
 20
104.0612134345
 30
0.0
 11
249.5561511421
 21
114.0612134345
 31
0.0
  0
LINE
  5
11F
330
1F
100
AcDbEntity
  8
0
  6
HIDDEN
 62
     7
370
     0
100
AcDbLine
 10
211.5561511421
 20
104.1612134345
 30
0.0
 11
211.5561511421
 21
113.9612128442
 31
0.0
  0
SPLINE
  5
120
330
1F
100
AcDbEntity
  8
0
  6
HIDDEN
 62
     7
370
     0
100
AcDbSpline
210
0.0
220
0.0
230
1.0
 70
     8
 71
     3
 72
    17
 73
    13
 74
     0
 42
0.00000001
 43
0.00000001
 40
0.0
 40
0.0
 40
0.0
 40
0.0
 40
0.1029003775096876
 40
0.2088649274801683
 40
0.3117436565763957
 40
0.4174672306314477
 40
0.5229650528762706
 40
0.6314095129410098
 40
0.7386912099713632
 40
0.8492405839286742
 40
0.953738345134618
 40
1.0
 40
1.0
 40
1.0
 40
1.0
 10
213.5561511420968
 20
114.1445194453085
 30
0.0
 10
213.63738764834
 20
114.1456572270914
 30
0.0
 10
213.8022797254719
 20
114.1479666715787
 30
0.0
 10
214.0412983561011
 20
114.1659894179066
 30
0.0
 10
214.2684339692975
 20
114.1926407047685
 30
0.0
 10
214.4755370650842
 20
114.22579295104
 30
0.0
 10
214.6607950953945
 20
114.2622615885664
 30
0.0
 10
214.8161470051832
 20
114.2977692259165
 30
0.0
 10
214.9388713668603
 20
114.3289236308336
 30
0.0
 10
215.0181258229056
 20
114.3504727082309
 30
0.0
 10
215.0561879408655
 20
114.361222575605
 30
0.0
 10
215.052095004101
 20
114.3600671987996
 30
0.0
 10
215.0508390558298
 20
114.3597126627819
 30
0.0
  0
LINE
  5
121
330
1F
100
AcDbEntity
  8
0
  6
HIDDEN
 62
     7
370
     0
100
AcDbLine
 10
213.6665459889
 20
114.1471517595
 30
0.0
 11
213.5407455504
 21
114.1448589981
 31
0.0
  0
SPLINE
  5
122
330
1F
100
AcDbEntity
  8
0
  6
HIDDEN
 62
     7
370
     0
100
AcDbSpline
210
0.0
220
0.0
230
1.0
 70
     8
 71
     3
 72
    17
 73
    13
 74
     0
 42
0.00000001
 43
0.00000001
 40
0.0
 40
0.0
 40
0.0
 40
0.0
 40
0.0699347432071596
 40
0.1755084928048025
 40
0.2772783482571624
 40
0.3818405248814545
 40
0.4866085079501032
 40
0.5942644635702272
 40
0.7015732177526766
 40
0.8121002947477597
 40
0.9049416487452179
 40
1.0
 40
1.0
 40
1.0
 40
1.0
 10
212.0604109056307
 20
114.3600103813325
 30
0.0
 10
212.0604988212455
 20
114.3599835866906
 30
0.0
 10
212.0607194546005
 20
114.359916342757
 30
0.0
 10
212.1070215622374
 20
114.3469084133695
 30
0.0
 10
212.1918339614064
 20
114.3241197451989
 30
0.0
 10
212.3134731168706
 20
114.2936288522677
 30
0.0
 10
212.4702127464058
 20
114.2583058468287
 30
0.0
 10
212.6583411115742
 20
114.2219148725719
 30
0.0
 10
212.8757111408195
 20
114.1881410076707
 30
0.0
 10
213.1029362082271
 20
114.1630913735873
 30
0.0
 10
213.3327896670715
 20
114.1473988149481
 30
0.0
 10
213.4811139658741
 20
114.1454867552129
 30
0.0
 10
213.5561511420967
 20
114.1445194453085
 30
0.0
  0
SPLINE
  5
123
330
1F
100
AcDbEntity
  8
0
  6
HIDDEN
 62
     7
370
     0
100
AcDbSpline
210
0.0
220
0.0
230
1.0
 70
     8
 71
     3
 72
    26
 73
    22
 74
     0
 42
0.00000001
 43
0.00000001
 40
0.0
 40
0.0
 40
0.0
 40
0.0
 40
0.0515002071229721
 40
0.1045293690368015
 40
0.1560200192976416
 40
0.2089406319056973
 40
0.2616328246352755
 40
0.3157930593095664
 40
0.3694519113851856
 40
0.4247430590262242
 40
0.4770253680685976
 40
0.5309250526567293
 40
0.5816085817981924
 40
0.6337302604790945
 40
0.6850879945363628
 40
0.7378326729494342
 40
0.7910524461529187
 40
0.8457955088710294
 40
0.899237603513534
 40
0.9543306614834873
 40
1.0
 40
1.0
 40
1.0
 40
1.0
 10
215.0561511420968
 20
103.7612134344529
 30
0.0
 10
215.052315668639
 20
103.762305454002
 30
0.0
 10
215.0445308529482
 20
103.7645219133294
 30
0.0
 10
214.9820433897564
 20
103.7818977260015
 30
0.0
 10
214.883612376281
 20
103.8078288543159
 30
0.0
 10
214.7493623547332
 20
103.8404378059389
 30
0.0
 10
214.580620421116
 20
103.8767419037116
 30
0.0
 10
214.3823828033412
 20
103.9126210639781
 30
0.0
 10
214.156784064462
 20
103.9443355973517
 30
0.0
 10
213.9154811239902
 20
103.9672319085976
 30
0.0
 10
213.6629424847162
 20
103.9788686125962
 30
0.0
 10
213.4142464258298
 20
103.9779363822327
 30
0.0
 10
213.1702407213287
 20
103.9650890447915
 30
0.0
 10
212.9409180986491
 20
103.9424087552105
 30
0.0
 10
212.7256857549251
 20
103.9118389176153
 30
0.0
 10
212.531497351704
 20
103.8766933871612
 30
0.0
 10
212.3615895032982
 20
103.8401624675449
 30
0.0
 10
212.2241342435095
 20
103.8066945754267
 30
0.0
 10
212.1242649852545
 20
103.780276478206
 30
0.0
 10
212.0652531585037
 20
103.7638019376065
 30
0.0
 10
212.060410806451
 20
103.7624211842042
 30
0.0
 10
212.0582160689018
 20
103.7617953744107
 30
0.0
  0
LINE
  5
124
330
1F
100
AcDbEntity
  8
0
  6
HIDDEN
 62
     7
370
     0
100
AcDbLine
 10
222.0561511421
 20
104.0612134345
 30
0.0
 11
222.0561511421
 21
114.0612134345
 31
0.0
  0
LINE
  5
125
330
1F
100
AcDbEntity
  8
0
  6
HIDDEN
 62
     7
370
     0
100
AcDbLine
 10
191.0555056778
 20
104.8112134345
 30
0.0
 11
191.0555056778
 21
113.3112134345
 31
0.0
  0
LINE
  5
126
330
1F
100
AcDbEntity
  8
0
  6
HIDDEN
 62
     7
370
     0
100
AcDbLine
 10
191.5061511421
 20
105.5612134345
 30
0.0
 11
191.5061511421
 21
112.5612134345
 31
0.0
  0
LINE
  5
127
330
1F
100
AcDbEntity
  8
0
  6
HIDDEN
 62
     7
370
     0
100
AcDbLine
 10
162.0061511421
 20
125.4838631653
 30
0.0
 11
164.5061511421
 21
125.4838631653
 31
0.0
  0
LINE
  5
128
330
1F
100
AcDbEntity
  8
0
  6
HIDDEN
 62
     7
370
     0
100
AcDbLine
 10
159.5061511421
 20
125.4838631653
 30
0.0
 11
162.0061511421
 21
125.4838631653
 31
0.0
  0
LINE
  5
129
330
1F
100
AcDbEntity
  8
0
  6
HIDDEN
 62
     7
370
     0
100
AcDbLine
 10
164.5061511421
 20
92.6385637036
 30
0.0
 11
159.5061511421
 21
92.6385637036
 31
0.0
  0
LINE
  5
12A
330
1F
100
AcDbEntity
  8
0
  6
HIDDEN
 62
     7
370
     0
100
AcDbLine
 10
162.0061511421
 20
117.0612134345
 30
0.0
 11
164.5061511421
 21
117.0612134345
 31
0.0
  0
LINE
  5
12B
330
1F
100
AcDbEntity
  8
0
  6
HIDDEN
 62
     7
370
     0
100
AcDbLine
 10
159.5061511421
 20
117.0612134345
 30
0.0
 11
162.0061511421
 21
117.0612134345
 31
0.0
  0
LINE
  5
12C
330
1F
100
AcDbEntity
  8
0
  6
HIDDEN
 62
     7
370
     0
100
AcDbLine
 10
164.5061511421
 20
101.0612134345
 30
0.0
 11
159.5061511421
 21
101.0612134345
 31
0.0
  0
SPLINE
  5
12D
330
1F
100
AcDbEntity
  8
0
  6
HIDDEN
 62
     7
370
     0
100
AcDbSpline
210
0.0
220
0.0
230
1.0
 70
     8
 71
     3
 72
    23
 73
    19
 74
     0
 42
0.00000001
 43
0.00000001
 40
0.0
 40
0.0
 40
0.0
 40
0.0
 40
0.0836711452412587
 40
0.1669670145748512
 40
0.2243099826452895
 40
0.283294673281667
 40
0.3419543751334486
 40
0.4020846727875596
 40
0.4681027110220849
 40
0.5347900787377902
 40
0.5917868126990583
 40
0.64141292240689
 40
0.6923654590756962
 40
0.798798299231808
 40
0.8951124472230687
 40
0.942882323931572
 40
0.9925639663361574
 40
1.0
 40
1.0
 40
1.0
 40
1.0
 10
215.0561511420968
 20
117.3032730524906
 30
0.0
 10
215.0479493199215
 20
117.3133892787898
 30
0.0
 10
215.0315824618044
 20
117.3335763588048
 30
0.0
 10
214.9270107814687
 20
117.4655852724895
 30
0.0
 10
214.812040596608
 20
117.6183266385884
 30
0.0
 10
214.6992209481988
 20
117.7777924830423
 30
0.0
 10
214.5824810085889
 20
117.9612677303934
 30
0.0
 10
214.4704022996316
 20
118.1748275060721
 30
0.0
 10
214.3845200220594
 20
118.4270925460453
 30
0.0
 10
214.380132952881
 20
118.6994633180859
 30
0.0
 10
214.4503532918008
 20
118.9294876662137
 30
0.0
 10
214.5427278891098
 20
119.1159157634091
 30
0.0
 10
214.6797384710074
 20
119.3358837840498
 30
0.0
 10
214.8515691453322
 20
119.5617958199875
 30
0.0
 10
214.9847824781768
 20
119.7217172076917
 30
0.0
 10
215.0392706797977
 20
119.7855993878374
 30
0.0
 10
215.0623384693064
 20
119.8124250851109
 30
0.0
 10
215.0540155087882
 20
119.8027099630698
 30
0.0
 10
215.0529319595464
 20
119.8014451711609
 30
0.0
  0
SPLINE
  5
12E
330
1F
100
AcDbEntity
  8
0
  6
HIDDEN
 62
     7
370
     0
100
AcDbSpline
210
0.0
220
0.0
230
1.0
 70
     8
 71
     3
 72
     9
 73
     5
 74
     0
 42
0.00000001
 43
0.00000001
 40
0.0
 40
0.0
 40
0.0
 40
0.0
 40
0.8118227762720804
 40
0.9999999999999999
 40
0.9999999999999999
 40
0.9999999999999999
 40
0.9999999999999999
 10
212.0634268890044
 20
119.7992960557268
 30
0.0
 10
212.0688481823604
 20
119.7995415318893
 30
0.0
 10
212.0755261095072
 20
119.7998439084298
 30
0.0
 10
212.1240347635067
 20
119.8222214320708
 30
0.0
 10
212.1331629873431
 20
119.8264323723434
 30
0.0
  0
SPLINE
  5
12F
330
1F
100
AcDbEntity
  8
0
  6
HIDDEN
 62
     7
370
     0
100
AcDbSpline
210
0.0
220
0.0
230
1.0
 70
     8
 71
     3
 72
    18
 73
    14
 74
     0
 42
0.00000001
 43
0.00000001
 40
0.0
 40
0.0
 40
0.0
 40
0.0
 40
0.0466971613279791
 40
0.1363769787593127
 40
0.2326306798296283
 40
0.3475043521259615
 40
0.4621478747803847
 40
0.5330524836027744
 40
0.6044611993154984
 40
0.6892719424147015
 40
0.8263072955290688
 40
0.9686572885092626
 40
1.0
 40
1.0
 40
1.0
 40
1.0
 10
212.0666561919041
 20
117.4333661177574
 30
0.0
 10
212.0645202579682
 20
117.4308761444774
 30
0.0
 10
212.0582823580888
 20
117.4236042884703
 30
0.0
 10
212.1322917402328
 20
117.5098840509669
 30
0.0
 10
212.2718240012821
 20
117.678964580897
 30
0.0
 10
212.4667793393159
 20
117.9370239415955
 30
0.0
 10
212.6435173592783
 20
118.2324303601649
 30
0.0
 10
212.7339236571554
 20
118.5347020808165
 30
0.0
 10
212.7246701776513
 20
118.8209446034983
 30
0.0
 10
212.601686053388
 20
119.1558444298252
 30
0.0
 10
212.3841330839023
 20
119.4982887694015
 30
0.0
 10
212.2113969871194
 20
119.7266645080837
 30
0.0
 10
212.1451222172754
 20
119.8111813710915
 30
0.0
 10
212.1331629873431
 20
119.8264323723435
 30
0.0
  0
LINE
  5
130
330
1F
100
AcDbEntity
  8
0
  6
HIDDEN
 62
     7
370
     0
100
AcDbLine
 10
215.0561511421
 20
119.8612134345
 30
0.0
 11
212.0561511421
 21
119.8612134345
 31
0.0
  0
SPLINE
  5
131
330
1F
100
AcDbEntity
  8
0
  6
HIDDEN
 62
     7
370
     0
100
AcDbSpline
210
0.0
220
0.0
230
1.0
 70
    11
 71
     3
 72
    34
 73
    30
 74
     0
 42
0.00000001
 43
0.00000001
 40
0.0
 40
0.0
 40
0.0
 40
0.0
 40
0.0624999999999995
 40
0.0624999999999995
 40
0.124999999999999
 40
0.124999999999999
 40
0.1874999999999985
 40
0.1874999999999985
 40
0.249999999999998
 40
0.249999999999998
 40
0.3124999999999975
 40
0.3124999999999975
 40
0.374999999999997
 40
0.374999999999997
 40
0.4374999999999965
 40
0.4374999999999965
 40
0.499999999999996
 40
0.499999999999996
 40
0.624999999999995
 40
0.624999999999995
 40
0.749999999999994
 40
0.749999999999994
 40
0.8124999999999954
 40
0.8124999999999954
 40
0.874999999999997
 40
0.874999999999997
 40
0.9374999999999984
 40
0.9374999999999984
 40
1.0
 40
1.0
 40
1.0
 40
1.0
 10
212.6305624079423
 20
99.06121343445294
 30
0.0
 10
212.6709076934361
 20
99.15364904058686
 30
0.0
 10
212.7035404400302
 20
99.25238310597148
 30
0.0
 10
212.7330906164822
 20
99.45953210580241
 30
0.0
 10
212.7281492421377
 20
99.56615467815297
 30
0.0
 10
212.6821982528672
 20
99.76872843826526
 30
0.0
 10
212.6427999624255
 20
99.86432564375582
 30
0.0
 10
212.5539687149887
 20
100.0384461782711
 30
0.0
 10
212.5037968710129
 20
100.1189794706961
 30
0.0
 10
212.4031945846108
 20
100.2677560359722
 30
0.0
 10
212.3532438964382
 20
100.335149998845
 30
0.0
 10
212.2590095726927
 20
100.4574686600476
 30
0.0
 10
212.2150775530936
 20
100.5117773494433
 30
0.0
 10
212.1408147050262
 20
100.6019013743719
 30
0.0
 10
212.1097316256808
 20
100.6385968301512
 30
0.0
 10
212.0676779921921
 20
100.6879537629329
 30
0.0
 10
212.0562489830749
 20
100.7011698397906
 30
0.0
 10
212.0559574071362
 20
100.7015085448953
 30
0.0
 10
212.102357679621
 20
100.6485352396322
 30
0.0
 10
212.2516275832813
 20
100.4674573101366
 30
0.0
 10
212.352332110662
 20
100.342819825329
 30
0.0
 10
212.5027889164954
 20
100.1205464141905
 30
0.0
 10
212.5533677281165
 20
100.0394841958485
 30
0.0
 10
212.6423962901255
 20
99.86525531329153
 30
0.0
 10
212.6818643418762
 20
99.76958185023538
 30
0.0
 10
212.7279331711018
 20
99.56771848322416
 30
0.0
 10
212.733081928957
 20
99.45998256328636
 30
0.0
 10
212.7037235054844
 20
99.25315807174066
 30
0.0
 10
212.6709633688676
 20
99.15377659928942
 30
0.0
 10
212.6305624079422
 20
99.06121343445295
 30
0.0
  0
LINE
  5
132
330
1F
100
AcDbEntity
  8
0
  6
HIDDEN
 62
     7
370
     0
100
AcDbLine
 10
212.6305624079
 20
99.0612134345
 30
0.0
 11
214.5169470161
 21
99.0612134345
 31
0.0
  0
SPLINE
  5
133
330
1F
100
AcDbEntity
  8
0
  6
HIDDEN
 62
     7
370
     0
100
AcDbSpline
210
0.0
220
0.0
230
1.0
 70
    11
 71
     3
 72
    36
 73
    32
 74
     0
 42
0.00000001
 43
0.00000001
 40
0.0
 40
0.0
 40
0.0
 40
0.0
 40
0.0624999999999999
 40
0.0624999999999999
 40
0.1249999999999998
 40
0.1249999999999998
 40
0.1874999999999997
 40
0.1874999999999997
 40
0.2499999999999996
 40
0.2499999999999996
 40
0.3124999999999995
 40
0.3124999999999995
 40
0.3749999999999994
 40
0.3749999999999994
 40
0.4374999999999993
 40
0.4374999999999993
 40
0.4999999999999992
 40
0.4999999999999992
 40
0.5624999999999991
 40
0.5624999999999991
 40
0.624999999999999
 40
0.624999999999999
 40
0.7500000000000017
 40
0.7500000000000017
 40
0.8125000000000013
 40
0.8125000000000013
 40
0.8750000000000009
 40
0.8750000000000009
 40
0.9375000000000004
 40
0.9375000000000004
 40
1.0
 40
1.0
 40
1.0
 40
1.0
 10
214.5169470160966
 20
99.06121343445294
 30
0.0
 10
214.4696941100192
 20
99.1529578657388
 30
0.0
 10
214.4286866110511
 20
99.25227500675123
 30
0.0
 10
214.3823415772618
 20
99.46435866346867
 30
0.0
 10
214.3793407573103
 20
99.57638918381178
 30
0.0
 10
214.4152441880296
 20
99.79140980830977
 30
0.0
 10
214.4522496471979
 20
99.89417779606116
 30
0.0
 10
214.5389230374232
 20
100.0820963849375
 30
0.0
 10
214.589550459934
 20
100.1700534365562
 30
0.0
 10
214.691172599029
 20
100.3318878002887
 30
0.0
 10
214.7422672399393
 20
100.4058161917397
 30
0.0
 10
214.8396284204801
 20
100.5411324242835
 30
0.0
 10
214.8860056923328
 20
100.602456344493
 30
0.0
 10
214.9647578840775
 20
100.7045870396406
 30
0.0
 10
214.9981413251488
 20
100.7466847197135
 30
0.0
 10
215.043627531788
 20
100.8036926991922
 30
0.0
 10
215.0561025772694
 20
100.8190935855379
 30
0.0
 10
215.0561994118792
 20
100.8192136813733
 30
0.0
 10
215.0438824132594
 20
100.8040095806411
 30
0.0
 10
214.9984603673124
 20
100.7470871060539
 30
0.0
 10
214.9651651920366
 20
100.705107029421
 30
0.0
 10
214.8469888038643
 20
100.5518731817004
 30
0.0
 10
214.7420385873642
 20
100.4128005054477
 30
0.0
 10
214.5901975301377
 20
100.1711295648633
 30
0.0
 10
214.5394463489847
 20
100.0831109093974
 30
0.0
 10
214.4524162475296
 20
99.89465813665983
 30
0.0
 10
214.4154367623445
 20
99.7919507486667
 30
0.0
 10
214.3794296048187
 20
99.57752885802691
 30
0.0
 10
214.3823007211589
 20
99.46468693901167
 30
0.0
 10
214.4286170319838
 20
99.25245243977527
 30
0.0
 10
214.4696707358277
 20
99.15300324817308
 30
0.0
 10
214.5169470160967
 20
99.06121343445298
 30
0.0
  0
LINE
  5
134
330
1F
100
AcDbEntity
  8
0
  6
HIDDEN
 62
     7
370
     0
100
AcDbLine
 10
213.6029513093
 20
98.2736714435
 30
0.0
 11
213.6366052052
 21
98.2728769124
 31
0.0
  0
SPLINE
  5
135
330
1F
100
AcDbEntity
  8
0
  6
HIDDEN
 62
     7
370
     0
100
AcDbSpline
210
0.0
220
0.0
230
1.0
 70
     8
 71
     3
 72
    17
 73
    13
 74
     0
 42
0.00000001
 43
0.00000001
 40
0.0
 40
0.0
 40
0.0
 40
0.0
 40
0.0968479193927903
 40
0.2253618157002429
 40
0.3473120139673861
 40
0.4532189051026708
 40
0.5430497416166592
 40
0.6282748839706589
 40
0.7199582817782296
 40
0.8239029232139672
 40
0.9396101280862622
 40
1.0
 40
1.0
 40
1.0
 40
1.0
 10
213.729252442288
 20
98.26543837408265
 30
0.0
 10
213.7287668032261
 20
98.26550772187844
 30
0.0
 10
213.7276367376403
 20
98.26566909184147
 30
0.0
 10
213.6989352525543
 20
98.26919333355495
 30
0.0
 10
213.6519301789112
 20
98.27298571905203
 30
0.0
 10
213.5961454270193
 20
98.274183475333
 30
0.0
 10
213.5434456996766
 20
98.27205620365645
 30
0.0
 10
213.4967576427937
 20
98.26772914989309
 30
0.0
 10
213.4551294500241
 20
98.26198199967779
 30
0.0
 10
213.4220951423625
 20
98.25620864524275
 30
0.0
 10
213.4031113266076
 20
98.25238151088709
 30
0.0
 10
213.4046966017953
 20
98.25270110757495
 30
0.0
 10
213.4052402483298
 20
98.252810708503
 30
0.0
  0
LINE
  5
136
330
1F
100
AcDbEntity
  8
0
  6
HIDDEN
 62
     7
370
     0
100
AcDbLine
 10
212.0386858865
 20
100.7005972836
 30
0.0
 11
212.1368354259
 21
98.202524693
 31
0.0
  0
SPLINE
  5
137
330
1F
100
AcDbEntity
  8
0
  6
HIDDEN
 62
     7
370
     0
100
AcDbSpline
210
0.0
220
0.0
230
1.0
 70
     8
 71
     3
 72
    14
 73
    10
 74
     0
 42
0.00000001
 43
0.00000001
 40
0.0
 40
0.0
 40
0.0
 40
0.0
 40
0.25
 40
0.25
 40
0.5
 40
0.5
 40
0.75
 40
0.75
 40
1.0
 40
1.0
 40
1.0
 40
1.0
 10
214.5169470160966
 20
99.0612134344529
 30
0.0
 10
214.3660418201486
 20
98.99055875052102
 30
0.0
 10
214.2153758749679
 20
98.92226930255526
 30
0.0
 10
213.9048457436128
 20
98.80711849656582
 30
0.0
 10
213.7419799080092
 20
98.75970696394815
 30
0.0
 10
213.402727633161
 20
98.76454212657791
 30
0.0
 10
213.2435164303665
 20
98.81326885166712
 30
0.0
 10
212.9340267936049
 20
98.9263287759641
 30
0.0
 10
212.7826168355778
 20
98.9925470281091
 30
0.0
 10
212.6305624079423
 20
99.0612134344529
 30
0.0
  0
SPLINE
  5
138
330
1F
100
AcDbEntity
  8
0
  6
HIDDEN
 62
     7
370
     0
100
AcDbSpline
210
0.0
220
0.0
230
1.0
 70
     8
 71
     3
 72
    16
 73
    12
 74
     0
 42
0.00000001
 43
0.00000001
 40
0.0
 40
0.0
 40
0.0
 40
0.0
 40
0.2500000000000238
 40
0.2500000000000238
 40
0.3750000000000266
 40
0.3750000000000266
 40
0.5000000000000295
 40
0.5000000000000295
 40
0.7500000000000148
 40
0.7500000000000148
 40
1.0
 40
1.0
 40
1.0
 40
1.0
 10
212.6305624079422
 20
99.06121343445292
 30
0.0
 10
212.7829134298286
 20
98.99241308882395
 30
0.0
 10
212.9346396971745
 20
98.92604828171098
 30
0.0
 10
213.1674173874675
 20
98.84109724406272
 30
0.0
 10
213.2461703051285
 20
98.815254721646
 30
0.0
 10
213.4070536459566
 20
98.77612928616693
 30
0.0
 10
213.4909329181313
 20
98.76303055062102
 30
0.0
 10
213.7437110163504
 20
98.7602042432453
 30
0.0
 10
213.9075153109196
 20
98.80799622267139
 30
0.0
 10
214.2164153489138
 20
98.92276832011804
 30
0.0
 10
214.3665622852676
 20
98.99080243529443
 30
0.0
 10
214.5169470160967
 20
99.06121343445292
 30
0.0
  0
LINE
  5
139
330
1F
100
AcDbEntity
  8
0
  6
HIDDEN
 62
     7
370
     0
100
AcDbLine
 10
212.0386858865
 20
117.4218295853
 30
0.0
 11
212.1331629873
 21
119.8264323723
 31
0.0
  0
LWPOLYLINE
  5
13A
330
1F
100
AcDbEntity
  8
0
  6
HIDDEN
 62
     7
370
     0
100
AcDbPolyline
 90
       28
 70
   128
 43
0.0
 10
102.0561511421
 20
154.3739192862
 10
103.2092304958
 20
154.3322713208
 10
104.3001470431
 20
154.2095726773
 10
105.2700891905
 20
154.0124380712
 10
106.0667671059
 20
153.7514950802
 10
106.6472316765
 20
153.4408112085
 10
106.9801899072
 20
153.0971355041
 10
107.0476919335
 20
152.738995613
 10
106.8460987037
 20
152.3856989496
 10
106.386278161
 20
152.0562918284
 10
105.69301935
 20
151.7685326726
 10
104.8036960325
 20
151.5379346528
 10
103.7662518587
 20
151.3769293678
 10
102.6366157127
 20
151.2941966543
 10
101.4756865715
 20
151.2941966543
 10
100.3460504255
 20
151.3769293678
 10
99.3086062517
 20
151.5379346528
 10
98.4192829342
 20
151.7685326726
 10
97.7260241232
 20
152.0562918284
 10
97.2662035805
 20
152.3856989496
 10
97.0646103507
 20
152.738995613
 10
97.132112377
 20
153.0971355041
 10
97.4650706077
 20
153.4408112085
 10
98.0455351783
 20
153.7514950802
 10
98.8422130937
 20
154.0124380712
 10
99.8121552411
 20
154.2095726773
 10
100.9030717884
 20
154.3322713208
 10
102.0561511421
 20
154.3739192862
  0
LINE
  5
13B
330
1F
100
AcDbEntity
  8
0
  6
HIDDEN
 62
     7
370
     0
100
AcDbLine
 10
111.1461511421
 20
143.7754486269
 30
0.0
 11
111.1461511421
 21
140.4112134345
 31
0.0
  0
LINE
  5
13C
330
1F
100
AcDbEntity
  8
0
  6
HIDDEN
 62
     7
370
     0
100
AcDbLine
 10
116.318180163
 20
148.0121761953
 30
0.0
 11
116.318180163
 21
140.4112134345
 31
0.0
  0
LINE
  5
13D
330
1F
100
AcDbEntity
  8
0
  6
HIDDEN
 62
     7
370
     0
100
AcDbLine
 10
114.9661511421
 20
143.7754486269
 30
0.0
 11
114.9661511421
 21
140.4112134345
 31
0.0
  0
CIRCLE
  5
13E
330
1F
100
AcDbEntity
  8
0
  6
HIDDEN
 62
     7
370
     0
100
AcDbCircle
 10
100.0561511421
 20
109.0612134345
 30
0.0
 40
5.0
  0
LINE
  5
13F
330
1F
100
AcDbEntity
  8
0
  6
HIDDEN
 62
     7
370
     0
100
AcDbLine
 10
211.0561511421
 20
105.0612134345
 30
0.0
 11
211.5561511421
 21
105.5612134345
 31
0.0
  0
LINE
  5
140
330
1F
100
AcDbEntity
  8
0
  6
HIDDEN
 62
     7
370
     0
100
AcDbLine
 10
211.5561511421
 20
112.5612134345
 30
0.0
 11
211.0561511421
 21
113.0612134345
 31
0.0
  0
LINE
  5
141
330
1F
100
AcDbEntity
  8
0
  6
HIDDEN
 62
     7
370
     0
100
AcDbLine
 10
195.5561511421
 20
105.0612134345
 30
0.0
 11
211.0561511421
 21
105.0612134345
 31
0.0
  0
LINE
  5
142
330
1F
100
AcDbEntity
  8
0
  6
HIDDEN
 62
     7
370
     0
100
AcDbLine
 10
211.0561511421
 20
113.0612134345
 30
0.0
 11
195.5561511421
 21
113.0612134345
 31
0.0
  0
LINE
  5
143
330
1F
100
AcDbEntity
  8
0
  6
HIDDEN
 62
     7
370
     0
100
AcDbLine
 10
195.5561511421
 20
113.0612134345
 30
0.0
 11
195.0561511421
 21
112.5612134345
 31
0.0
  0
LINE
  5
144
330
1F
100
AcDbEntity
  8
0
  6
HIDDEN
 62
     7
370
     0
100
AcDbLine
 10
195.0561511421
 20
105.5612134345
 30
0.0
 11
195.5561511421
 21
105.0612134345
 31
0.0
  0
LINE
  5
145
330
1F
100
AcDbEntity
  8
0
  6
HIDDEN
 62
     7
370
     0
100
AcDbLine
 10
211.5561511421
 20
105.5612134345
 30
0.0
 11
215.0561511421
 21
105.5612134345
 31
0.0
  0
LINE
  5
146
330
1F
100
AcDbEntity
  8
0
  6
HIDDEN
 62
     7
370
     0
100
AcDbLine
 10
215.0561511421
 20
112.5612134345
 30
0.0
 11
211.5561511421
 21
112.5612134345
 31
0.0
  0
LINE
  5
147
330
1F
100
AcDbEntity
  8
0
  6
HIDDEN
 62
     7
370
     0
100
AcDbLine
 10
200.056151142
 20
107.0612134345
 30
0.0
 11
210.0561511421
 21
107.0612134345
 31
0.0
  0
LINE
  5
148
330
1F
100
AcDbEntity
  8
0
  6
HIDDEN
 62
     7
370
     0
100
AcDbLine
 10
210.0561511421
 20
111.0612134345
 30
0.0
 11
200.056151142
 21
111.0612134345
 31
0.0
  0
LINE
  5
149
330
1F
100
AcDbEntity
  8
0
  6
HIDDEN
 62
     7
370
     0
100
AcDbLine
 10
252.8648843848
 20
102.554855881
 30
0.0
 11
247.530946581
 21
102.3452848939
 31
0.0
  0
LINE
  5
14A
330
1F
100
AcDbEntity
  8
0
  6
HIDDEN
 62
     7
370
     0
100
AcDbLine
 10
247.6487260282
 20
99.3475977852
 30
0.0
 11
252.9826638321
 21
99.5571687723
 31
0.0
  0
LINE
  5
14B
330
1F
100
AcDbEntity
  8
0
  6
HIDDEN
 62
     7
370
     0
100
AcDbLine
 10
252.9826638321
 20
99.5571687723
 30
0.0
 11
253.0561511421
 21
99.6968451741
 31
0.0
  0
LINE
  5
14C
330
1F
100
AcDbEntity
  8
0
  6
HIDDEN
 62
     7
370
     0
100
AcDbLine
 10
253.0377186586
 20
102.2809301359
 30
0.0
 11
252.8648843848
 21
102.554855881
 31
0.0
  0
LINE
  5
14D
330
1F
100
AcDbEntity
  8
0
  6
HIDDEN
 62
     7
370
     0
100
AcDbLine
 10
247.530946581
 20
102.3452848939
 30
0.0
 11
247.0509619707
 21
101.8260404679
 31
0.0
  0
LINE
  5
14E
330
1F
100
AcDbEntity
  8
0
  6
HIDDEN
 62
     7
370
     0
100
AcDbLine
 10
247.1294816022
 20
99.8275823954
 30
0.0
 11
247.6487260282
 21
99.3475977852
 31
0.0
  0
LINE
  5
14F
330
1F
100
AcDbEntity
  8
0
  6
HIDDEN
 62
     7
370
     0
100
AcDbLine
 10
252.9237741085
 20
118.5675718802
 30
0.0
 11
247.5898363046
 21
118.7771428673
 31
0.0
  0
LINE
  5
150
330
1F
100
AcDbEntity
  8
0
  6
HIDDEN
 62
     7
370
     0
100
AcDbLine
 10
247.4720568573
 20
115.7794557585
 30
0.0
 11
252.8059946612
 21
115.5698847715
 31
0.0
  0
LINE
  5
151
330
1F
100
AcDbEntity
  8
0
  6
HIDDEN
 62
     7
370
     0
100
AcDbLine
 10
247.5898363046
 20
118.7771428673
 30
0.0
 11
247.0705918786
 21
118.297158257
 31
0.0
  0
LINE
  5
152
330
1F
100
AcDbEntity
  8
0
  6
HIDDEN
 62
     7
370
     0
100
AcDbLine
 10
246.9920722471
 20
116.2987001845
 30
0.0
 11
247.4720568573
 21
115.7794557585
 31
0.0
  0
LINE
  5
153
330
1F
100
AcDbEntity
  8
0
  6
HIDDEN
 62
     7
370
     0
100
AcDbLine
 10
252.8059946612
 20
115.5698847715
 30
0.0
 11
252.978828935
 21
115.8438105165
 31
0.0
  0
LINE
  5
154
330
1F
100
AcDbEntity
  8
0
  6
HIDDEN
 62
     7
370
     0
100
AcDbLine
 10
253.0561511421
 20
118.3159645245
 30
0.0
 11
252.9237741085
 21
118.5675718802
 31
0.0
  0
LINE
  5
155
330
1F
100
AcDbEntity
  8
0
  6
HIDDEN
 62
     7
370
     0
100
AcDbLine
 10
93.0561511421
 20
69.6565304779
 30
0.0
 11
93.145752766
 21
70.2940791598
 31
0.0
  0
LINE
  5
156
330
1F
100
AcDbEntity
  8
0
  6
HIDDEN
 62
     7
370
     0
100
AcDbLine
 10
93.145752766
 20
147.8283477091
 30
0.0
 11
93.0561511421
 21
148.465896391
 31
0.0
  0
ARC
  5
157
330
1F
100
AcDbEntity
  8
0
  6
HIDDEN
 62
     7
370
     0
100
AcDbCircle
 10
92.1592142236
 20
70.43272811
 30
0.0
 40
0.9962338214386932
100
AcDbArc
 50
352.0
 51
0.0
  0
ARC
  5
158
330
1F
100
AcDbEntity
  8
0
  6
HIDDEN
 62
     7
370
     0
100
AcDbCircle
 10
92.1592142236
 20
70.43272811
 30
0.0
 40
0.9962338214386932
100
AcDbArc
 50
0.0
 51
25.7988228126
  0
ARC
  5
159
330
1F
100
AcDbEntity
  8
0
  6
HIDDEN
 62
     7
370
     0
100
AcDbCircle
 10
92.1592142236
 20
147.6896987589
 30
0.0
 40
0.9962338214386862
100
AcDbArc
 50
348.75
 51
8.0
  0
LWPOLYLINE
  5
15A
330
1F
100
AcDbEntity
  8
0
  6
HIDDEN
 62
     7
370
     0
100
AcDbPolyline
 90
        3
 70
   128
 43
0.0
 10
93.1363056916
 20
147.4953431819
 10
93.0796142609
 20
147.3084565807
 10
93.0561511421
 20
147.2561252458
  0
LINE
  5
15B
330
1F
100
AcDbEntity
  8
0
  6
HIDDEN
 62
     7
370
     0
100
AcDbLine
 10
93.1554480451
 20
70.43272811
 30
0.0
 11
93.1554480451
 21
147.6896987589
 31
0.0
  0
LINE
  5
15C
330
1F
100
AcDbEntity
  8
0
  6
HIDDEN
 62
     7
370
     0
100
AcDbLine
 10
66.5168770843
 20
77.5612134345
 30
0.0
 11
72.061321516
 21
77.5612134345
 31
0.0
  0
LINE
  5
15D
330
1F
100
AcDbEntity
  8
0
  6
HIDDEN
 62
     7
370
     0
100
AcDbLine
 10
72.061321516
 20
140.5612134345
 30
0.0
 11
66.5168770843
 21
140.5612134345
 31
0.0
  0
ARC
  5
15E
330
1F
100
AcDbEntity
  8
0
  6
HIDDEN
 62
     7
370
     0
100
AcDbCircle
 10
66.5168770843
 20
78.5612134345
 30
0.0
 40
1.0
100
AcDbArc
 50
210.0
 51
270.0
  0
ARC
  5
15F
330
1F
100
AcDbEntity
  8
0
  6
HIDDEN
 62
     7
370
     0
100
AcDbCircle
 10
66.5168770843
 20
139.5612134345
 30
0.0
 40
1.0
100
AcDbArc
 50
90.0
 51
150.0
  0
ARC
  5
160
330
1F
100
AcDbEntity
  8
0
  6
HIDDEN
 62
     7
370
     0
100
AcDbCircle
 10
83.3093567973
 20
89.5612134345
 30
0.0
 40
12.00000000000002
100
AcDbArc
 50
273.4752677657
 51
324.3146652873
  0
ARC
  5
161
330
1F
100
AcDbEntity
  8
0
  6
HIDDEN
 62
     7
370
     0
100
AcDbCircle
 10
83.3093567973
 20
128.5612134345
 30
0.0
 40
12.00000000000002
100
AcDbArc
 50
35.6853347127
 51
86.5206515763
  0
LINE
  5
162
330
1F
100
AcDbEntity
  8
0
  6
HIDDEN
 62
     7
370
     0
100
AcDbLine
 10
65.6508516805
 20
140.0612134345
 30
0.0
 11
63.0527754691
 21
135.5612134345
 31
0.0
  0
LINE
  5
163
330
1F
100
AcDbEntity
  8
0
  6
HIDDEN
 62
     7
370
     0
100
AcDbLine
 10
63.0527754691
 20
82.5612134345
 30
0.0
 11
65.6508516805
 21
78.0612134345
 31
0.0
  0
ARC
  5
164
330
1F
100
AcDbEntity
  8
0
  6
HIDDEN
 62
     7
370
     0
100
AcDbCircle
 10
103.5061511421
 20
84.1862134345
 30
0.0
 40
2.0
100
AcDbArc
 50
234.3409123039
 51
0.0
  0
ARC
  5
165
330
1F
100
AcDbEntity
  8
0
  6
HIDDEN
 62
     7
370
     0
100
AcDbCircle
 10
103.5061511421
 20
133.9362134345
 30
0.0
 40
2.0
100
AcDbArc
 50
0.0
 51
125.6590876961
  0
LINE
  5
166
330
1F
100
AcDbEntity
  8
0
  6
HIDDEN
 62
     7
370
     0
100
AcDbLine
 10
93.0561511421
 20
82.5612134345
 30
0.0
 11
102.3402287605
 21
82.5612134345
 31
0.0
  0
LINE
  5
167
330
1F
100
AcDbEntity
  8
0
  6
HIDDEN
 62
     7
370
     0
100
AcDbLine
 10
102.3402287605
 20
135.5612134345
 30
0.0
 11
93.0561511421
 21
135.5612134345
 31
0.0
  0
LINE
  5
168
330
1F
100
AcDbEntity
  8
0
  6
HIDDEN
 62
     7
370
     0
100
AcDbLine
 10
58.2561511421
 20
82.5612134345
 30
0.0
 11
63.0527754691
 21
82.5612134345
 31
0.0
  0
LINE
  5
169
330
1F
100
AcDbEntity
  8
0
  6
HIDDEN
 62
     7
370
     0
100
AcDbLine
 10
63.0527754691
 20
135.5612134345
 30
0.0
 11
53.2561511421
 21
135.5612134345
 31
0.0
  0
LINE
  5
16A
330
1F
100
AcDbEntity
  8
0
  6
HIDDEN
 62
     7
370
     0
100
AcDbLine
 10
97.0561511421
 20
154.738275072
 30
0.0
 11
97.0561511421
 21
151.0386272131
 31
0.0
  0
LINE
  5
16B
330
1F
100
AcDbEntity
  8
0
  6
HIDDEN
 62
     7
370
     0
100
AcDbLine
 10
107.0561511421
 20
151.0386272131
 30
0.0
 11
107.0561511421
 21
154.7327668136
 31
0.0
  0
LINE
  5
16C
330
1F
100
AcDbEntity
  8
0
  6
HIDDEN
 62
     7
370
     0
100
AcDbLine
 10
117.3561511421
 20
96.0612134345
 30
0.0
 11
121.3561511421
 21
96.0612134345
 31
0.0
  0
LINE
  5
16D
330
1F
100
AcDbEntity
  8
0
  6
HIDDEN
 62
     7
370
     0
100
AcDbLine
 10
121.3561511421
 20
122.0612134345
 30
0.0
 11
117.3561511421
 21
122.0612134345
 31
0.0
  0
LINE
  5
16E
330
1F
100
AcDbEntity
  8
0
  6
HIDDEN
 62
     7
370
     0
100
AcDbLine
 10
105.5061511421
 20
97.0612134345
 30
0.0
 11
106.2561511421
 21
97.8112134345
 31
0.0
  0
LINE
  5
16F
330
1F
100
AcDbEntity
  8
0
  6
HIDDEN
 62
     7
370
     0
100
AcDbLine
 10
106.2561511421
 20
120.3112134345
 30
0.0
 11
105.5061511421
 21
121.0612134345
 31
0.0
  0
LINE
  5
170
330
1F
100
AcDbEntity
  8
0
  6
HIDDEN
 62
     7
370
     0
100
AcDbLine
 10
106.2561511421
 20
97.8112134345
 30
0.0
 11
117.3561511421
 21
97.8112134345
 31
0.0
  0
LINE
  5
171
330
1F
100
AcDbEntity
  8
0
  6
HIDDEN
 62
     7
370
     0
100
AcDbLine
 10
117.3561511421
 20
120.3112134345
 30
0.0
 11
106.2561511421
 21
120.3112134345
 31
0.0
  0
LINE
  5
172
330
1F
100
AcDbEntity
  8
0
  6
HIDDEN
 62
     7
370
     0
100
AcDbLine
 10
98.0061511421
 20
159.0612134345
 30
0.0
 11
98.0061511421
 21
152.9612134345
 31
0.0
  0
LINE
  5
173
330
1F
100
AcDbEntity
  8
0
  6
HIDDEN
 62
     7
370
     0
100
AcDbLine
 10
84.4888637581
 20
71.4829338638
 30
0.0
 11
84.0561544716
 21
71.9611585812
 31
0.0
  0
LINE
  5
174
330
1F
100
AcDbEntity
  8
0
  6
HIDDEN
 62
     7
370
     0
100
AcDbLine
 10
72.0561516001
 20
72.6081199379
 30
0.0
 11
71.5755242949
 21
72.1298952271
 31
0.0
  0
LINE
  5
175
330
1F
100
AcDbEntity
  8
0
  6
HIDDEN
 62
     7
370
     0
100
AcDbLine
 10
71.5754059534
 20
145.9925257257
 30
0.0
 11
72.0561514175
 21
145.5142460538
 31
0.0
  0
LINE
  5
176
330
1F
100
AcDbEntity
  8
0
  6
HIDDEN
 62
     7
370
     0
100
AcDbLine
 10
84.0561511442
 20
146.1612184412
 30
0.0
 11
84.4889728139
 21
146.6394981141
 31
0.0
  0
LINE
  5
177
330
1F
100
AcDbEntity
  8
0
  6
HIDDEN
 62
     7
370
     0
100
AcDbLine
 10
84.0561511421
 20
140.5352783284
 30
0.0
 11
84.0561511421
 21
146.2612222672
 31
0.0
  0
LINE
  5
178
330
1F
100
AcDbEntity
  8
0
  6
HIDDEN
 62
     7
370
     0
100
AcDbLine
 10
72.0561511421
 20
145.5142355545
 30
0.0
 11
72.0561511421
 21
140.5602292351
 31
0.0
  0
LINE
  5
179
330
1F
100
AcDbEntity
  8
0
  6
HIDDEN
 62
     7
370
     0
100
AcDbLine
 10
84.0561511421
 20
71.8610297387
 30
0.0
 11
84.0561511421
 21
77.5871485405
 31
0.0
  0
LINE
  5
17A
330
1F
100
AcDbEntity
  8
0
  6
HIDDEN
 62
     7
370
     0
100
AcDbLine
 10
72.0561511421
 20
77.5621976338
 30
0.0
 11
72.0561511421
 21
72.6081583524
 31
0.0
  0
ARC
  5
17B
330
1F
100
AcDbEntity
  8
0
  6
HIDDEN
 62
     7
370
     0
100
AcDbCircle
 10
252.5561511421
 20
103.0245191864
 30
0.0
 40
0.5
100
AcDbArc
 50
360.0
 51
80.0
  0
ARC
  5
17C
330
1F
100
AcDbEntity
  8
0
  6
HIDDEN
 62
     7
370
     0
100
AcDbCircle
 10
252.5561511421
 20
115.0979076825
 30
0.0
 40
0.5000000000000014
100
AcDbArc
 50
280.0
 51
0.0
  0
LINE
  5
17D
330
1F
100
AcDbEntity
  8
0
  6
HIDDEN
 62
     7
370
     0
100
AcDbLine
 10
121.3561511421
 20
103.0612134345
 30
0.0
 11
155.1561511421
 21
103.0612134345
 31
0.0
  0
LINE
  5
17E
330
1F
100
AcDbEntity
  8
0
  6
HIDDEN
 62
     7
370
     0
100
AcDbLine
 10
155.1561511421
 20
115.0612134345
 30
0.0
 11
121.3561511421
 21
115.0612134345
 31
0.0
  0
LINE
  5
17F
330
1F
100
AcDbEntity
  8
0
  6
HIDDEN
 62
     7
370
     0
100
AcDbLine
 10
155.1561511421
 20
103.0612134345
 30
0.0
 11
156.2076572254
 21
104.8112134345
 31
0.0
  0
LINE
  5
180
330
1F
100
AcDbEntity
  8
0
  6
HIDDEN
 62
     7
370
     0
100
AcDbLine
 10
156.2076572254
 20
113.3112134345
 30
0.0
 11
155.1561511421
 21
115.0612134345
 31
0.0
  0
LINE
  5
181
330
1F
100
AcDbEntity
  8
0
  6
HIDDEN
 62
     7
370
     0
100
AcDbLine
 10
252.6429752309
 20
114.605503806
 30
0.0
 11
249.5561511421
 21
114.0612134345
 31
0.0
  0
LINE
  5
182
330
1F
100
AcDbEntity
  8
0
  6
HIDDEN
 62
     7
370
     0
100
AcDbLine
 10
249.5561511421
 20
104.0612134345
 30
0.0
 11
252.6429752309
 21
103.5169230629
 31
0.0
  0
ARC
  5
183
330
1F
100
AcDbEntity
  8
0
  6
HIDDEN
 62
     7
370
     0
100
AcDbCircle
 10
211.9561511421
 20
104.1612134345
 30
0.0
 40
0.4000000000000341
100
AcDbArc
 50
180.0
 51
270.0
  0
ARC
  5
184
330
1F
100
AcDbEntity
  8
0
  6
HIDDEN
 62
     7
370
     0
100
AcDbCircle
 10
211.9561511421
 20
113.9612134345
 30
0.0
 40
0.4000000000000341
100
AcDbArc
 50
90.0
 51
180.0
  0
LINE
  5
185
330
1F
100
AcDbEntity
  8
0
  6
HIDDEN
 62
     7
370
     0
100
AcDbLine
 10
215.0561511421
 20
103.7612134345
 30
0.0
 11
221.161377124
 21
103.7612134345
 31
0.0
  0
LINE
  5
186
330
1F
100
AcDbEntity
  8
0
  6
HIDDEN
 62
     7
370
     0
100
AcDbLine
 10
211.9561511421
 20
103.7612134345
 30
0.0
 11
212.0582160689
 21
103.7612134345
 31
0.0
  0
LINE
  5
187
330
1F
100
AcDbEntity
  8
0
  6
HIDDEN
 62
     7
370
     0
100
AcDbLine
 10
212.0604109056
 20
114.3612134345
 30
0.0
 11
211.9561511421
 21
114.3612134345
 31
0.0
  0
LINE
  5
188
330
1F
100
AcDbEntity
  8
0
  6
HIDDEN
 62
     7
370
     0
100
AcDbLine
 10
221.161377124
 20
114.3612134345
 30
0.0
 11
215.0508390558
 21
114.3612134345
 31
0.0
  0
ARC
  5
189
330
1F
100
AcDbEntity
  8
0
  6
HIDDEN
 62
     7
370
     0
100
AcDbCircle
 10
221.161377124
 20
104.1612134345
 30
0.0
 40
0.3999999999999915
100
AcDbArc
 50
270.0
 51
290.0
  0
ARC
  5
18A
330
1F
100
AcDbEntity
  8
0
  6
HIDDEN
 62
     7
370
     0
100
AcDbCircle
 10
221.161377124
 20
113.9612134345
 30
0.0
 40
0.3999999999999915
100
AcDbArc
 50
70.0
 51
90.0
  0
LINE
  5
18B
330
1F
100
AcDbEntity
  8
0
  6
HIDDEN
 62
     7
370
     0
100
AcDbLine
 10
221.2981851813
 20
103.7853363861
 30
0.0
 11
222.0561511421
 21
104.0612134345
 31
0.0
  0
LINE
  5
18C
330
1F
100
AcDbEntity
  8
0
  6
HIDDEN
 62
     7
370
     0
100
AcDbLine
 10
222.0561511421
 20
114.0612134345
 30
0.0
 11
221.2981851813
 21
114.3370904828
 31
0.0
  0
LINE
  5
18D
330
1F
100
AcDbEntity
  8
0
  6
HIDDEN
 62
     7
370
     0
100
AcDbLine
 10
222.0561511421
 20
104.0612134345
 30
0.0
 11
249.5561511421
 21
104.0612134345
 31
0.0
  0
LINE
  5
18E
330
1F
100
AcDbEntity
  8
0
  6
HIDDEN
 62
     7
370
     0
100
AcDbLine
 10
249.5561511421
 20
114.0612134345
 30
0.0
 11
222.0561511421
 21
114.0612134345
 31
0.0
  0
LINE
  5
18F
330
1F
100
AcDbEntity
  8
0
  6
HIDDEN
 62
     7
370
     0
100
AcDbLine
 10
156.2076572254
 20
104.8112134345
 30
0.0
 11
191.0555056778
 21
104.8112134345
 31
0.0
  0
LINE
  5
190
330
1F
100
AcDbEntity
  8
0
  6
HIDDEN
 62
     7
370
     0
100
AcDbLine
 10
191.0555056778
 20
113.3112134345
 30
0.0
 11
156.2076572254
 21
113.3112134345
 31
0.0
  0
LINE
  5
191
330
1F
100
AcDbEntity
  8
0
  6
HIDDEN
 62
     7
370
     0
100
AcDbLine
 10
191.0555056778
 20
104.8112134345
 30
0.0
 11
191.5061511421
 21
105.5612134345
 31
0.0
  0
LINE
  5
192
330
1F
100
AcDbEntity
  8
0
  6
HIDDEN
 62
     7
370
     0
100
AcDbLine
 10
191.5061511421
 20
112.5612134345
 30
0.0
 11
191.0555056778
 21
113.3112134345
 31
0.0
  0
LINE
  5
193
330
1F
100
AcDbEntity
  8
0
  6
HIDDEN
 62
     7
370
     0
100
AcDbLine
 10
211.5561511421
 20
113.0612134345
 30
0.0
 11
211.0561511421
 21
112.5612134345
 31
0.0
  0
LINE
  5
194
330
1F
100
AcDbEntity
  8
0
  6
HIDDEN
 62
     7
370
     0
100
AcDbLine
 10
211.0561511421
 20
105.5612134345
 30
0.0
 11
211.5561511421
 21
105.0612134345
 31
0.0
  0
LINE
  5
195
330
1F
100
AcDbEntity
  8
0
  6
HIDDEN
 62
     7
370
     0
100
AcDbLine
 10
191.5061511421
 20
105.5612134345
 30
0.0
 11
211.0561511421
 21
105.5612134345
 31
0.0
  0
LINE
  5
196
330
1F
100
AcDbEntity
  8
0
  6
HIDDEN
 62
     7
370
     0
100
AcDbLine
 10
211.0561511421
 20
112.5612134345
 30
0.0
 11
191.5061511421
 21
112.5612134345
 31
0.0
  0
LINE
  5
197
330
1F
100
AcDbEntity
  8
0
  6
HIDDEN
 62
     7
370
     0
100
AcDbLine
 10
158.5061511421
 20
126.0612134345
 30
0.0
 11
159.5061511421
 21
125.4838631653
 31
0.0
  0
LINE
  5
198
330
1F
100
AcDbEntity
  8
0
  6
HIDDEN
 62
     7
370
     0
100
AcDbLine
 10
164.5061511421
 20
125.4838631653
 30
0.0
 11
165.5061511421
 21
126.0612134345
 31
0.0
  0
LINE
  5
199
330
1F
100
AcDbEntity
  8
0
  6
HIDDEN
 62
     7
370
     0
100
AcDbLine
 10
165.5061511421
 20
92.0612134345
 30
0.0
 11
164.5061511421
 21
92.6385637036
 31
0.0
  0
LINE
  5
19A
330
1F
100
AcDbEntity
  8
0
  6
HIDDEN
 62
     7
370
     0
100
AcDbLine
 10
159.5061511421
 20
92.6385637036
 30
0.0
 11
158.5061511421
 21
92.0612134345
 31
0.0
  0
LINE
  5
19B
330
1F
100
AcDbEntity
  8
0
  6
HIDDEN
 62
     7
370
     0
100
AcDbLine
 10
159.5061511421
 20
125.4838631653
 30
0.0
 11
159.5061511421
 21
117.0612134345
 31
0.0
  0
LINE
  5
19C
330
1F
100
AcDbEntity
  8
0
  6
HIDDEN
 62
     7
370
     0
100
AcDbLine
 10
164.5061511421
 20
117.0612134345
 30
0.0
 11
164.5061511421
 21
125.4838631653
 31
0.0
  0
LINE
  5
19D
330
1F
100
AcDbEntity
  8
0
  6
HIDDEN
 62
     7
370
     0
100
AcDbLine
 10
159.5061511421
 20
117.0612134345
 30
0.0
 11
162.0061511421
 21
115.5590618869
 31
0.0
  0
LINE
  5
19E
330
1F
100
AcDbEntity
  8
0
  6
HIDDEN
 62
     7
370
     0
100
AcDbLine
 10
162.0061511421
 20
115.5590618869
 30
0.0
 11
164.5061511421
 21
117.0612134345
 31
0.0
  0
LINE
  5
19F
330
1F
100
AcDbEntity
  8
0
  6
HIDDEN
 62
     7
370
     0
100
AcDbLine
 10
164.5061511421
 20
92.6385637036
 30
0.0
 11
164.5061511421
 21
101.0612134345
 31
0.0
  0
LINE
  5
1A0
330
1F
100
AcDbEntity
  8
0
  6
HIDDEN
 62
     7
370
     0
100
AcDbLine
 10
159.5061511421
 20
101.0612134345
 30
0.0
 11
159.5061511421
 21
92.6385637036
 31
0.0
  0
LINE
  5
1A1
330
1F
100
AcDbEntity
  8
0
  6
HIDDEN
 62
     7
370
     0
100
AcDbLine
 10
164.5061511421
 20
101.0612134345
 30
0.0
 11
162.0061511421
 21
102.563364982
 31
0.0
  0
LINE
  5
1A2
330
1F
100
AcDbEntity
  8
0
  6
HIDDEN
 62
     7
370
     0
100
AcDbLine
 10
162.0061511421
 20
102.563364982
 30
0.0
 11
159.5061511421
 21
101.0612134345
 31
0.0
  0
LINE
  5
1A3
330
1F
100
AcDbEntity
  8
0
  6
HIDDEN
 62
     7
370
     0
100
AcDbLine
 10
212.0561511421
 20
117.4333661178
 30
0.0
 11
212.0561511421
 21
114.3600113443
 31
0.0
  0
LINE
  5
1A4
330
1F
100
AcDbEntity
  8
0
  6
HIDDEN
 62
     7
370
     0
100
AcDbLine
 10
212.0561511421
 20
119.8612134345
 30
0.0
 11
212.0561511421
 21
119.7992960557
 31
0.0
  0
LINE
  5
1A5
330
1F
100
AcDbEntity
  8
0
  6
HIDDEN
 62
     7
370
     0
100
AcDbLine
 10
215.0561511421
 20
119.8014451712
 30
0.0
 11
215.0561511421
 21
119.8612134345
 31
0.0
  0
LINE
  5
1A6
330
1F
100
AcDbEntity
  8
0
  6
HIDDEN
 62
     7
370
     0
100
AcDbLine
 10
215.0561511421
 20
114.3597128618
 30
0.0
 11
215.0561511421
 21
117.3032730525
 31
0.0
  0
LINE
  5
1A7
330
1F
100
AcDbEntity
  8
0
  6
HIDDEN
 62
     7
370
     0
100
AcDbLine
 10
212.0561511421
 20
103.7617932803
 30
0.0
 11
212.0561511421
 21
100.6910687111
 31
0.0
  0
LINE
  5
1A8
330
1F
100
AcDbEntity
  8
0
  6
HIDDEN
 62
     7
370
     0
100
AcDbLine
 10
215.0561511421
 20
100.8081056408
 30
0.0
 11
215.0561511421
 21
103.7612134345
 31
0.0
  0
LINE
  5
1A9
330
1F
100
AcDbEntity
  8
0
  6
HIDDEN
 62
     7
370
     0
100
AcDbLine
 10
213.7292660724
 20
98.2650914635
 30
0.0
 11
253.0561511421
 21
99.8102489862
 31
0.0
  0
LINE
  5
1AA
330
1F
100
AcDbEntity
  8
0
  6
HIDDEN
 62
     7
370
     0
100
AcDbLine
 10
212.1368354259
 20
98.202524693
 30
0.0
 11
213.4052579116
 21
98.2523611482
 31
0.0
  0
LINE
  5
1AB
330
1F
100
AcDbEntity
  8
0
  6
HIDDEN
 62
     7
370
     0
100
AcDbLine
 10
253.0561511421
 20
102.3121778827
 30
0.0
 11
215.0468411536
 21
100.818788026
 31
0.0
  0
LINE
  5
1AC
330
1F
100
AcDbEntity
  8
0
  6
HIDDEN
 62
     7
370
     0
100
AcDbLine
 10
215.0561511421
 20
117.3032730525
 30
0.0
 11
253.0561511421
 21
115.8102489862
 31
0.0
  0
LINE
  5
1AD
330
1F
100
AcDbEntity
  8
0
  6
HIDDEN
 62
     7
370
     0
100
AcDbLine
 10
253.0561511421
 20
118.3121778827
 30
0.0
 11
215.0530964454
 21
119.8053219684
 31
0.0
  0
LINE
  5
1AE
330
1F
100
AcDbEntity
  8
0
  6
HIDDEN
 62
     7
370
     0
100
AcDbLine
 10
212.0386858865
 20
100.7005972836
 30
0.0
 11
211.3372639346
 21
99.4220738918
 31
0.0
  0
LINE
  5
1AF
330
1F
100
AcDbEntity
  8
0
  6
HIDDEN
 62
     7
370
     0
100
AcDbLine
 10
211.3372639346
 20
99.4220738918
 30
0.0
 11
212.1368354259
 21
98.202524693
 31
0.0
  0
LINE
  5
1B0
330
1F
100
AcDbEntity
  8
0
  6
HIDDEN
 62
     7
370
     0
100
AcDbLine
 10
212.0594899622
 20
119.8019307383
 30
0.0
 11
211.3372639346
 21
118.7003529771
 31
0.0
  0
LINE
  5
1B1
330
1F
100
AcDbEntity
  8
0
  6
HIDDEN
 62
     7
370
     0
100
AcDbLine
 10
211.3372639346
 20
118.7003529771
 30
0.0
 11
212.0386858865
 21
117.4218295853
 31
0.0
  0
LINE
  5
1B2
330
1F
100
AcDbEntity
  8
0
  6
HIDDEN
 62
     7
370
     0
100
AcDbLine
 10
213.4042638
 20
98.2511856283
 30
0.0
 11
213.5561511421
 21
98.1599225059
 31
0.0
  0
LINE
  5
1B3
330
1F
100
AcDbEntity
  8
0
  6
HIDDEN
 62
     7
370
     0
100
AcDbLine
 10
213.5561511421
 20
98.1599225059
 30
0.0
 11
213.7299212855
 21
98.2643341419
 31
0.0
  0
LINE
  5
1B4
330
1F
100
AcDbEntity
  8
0
  6
HIDDEN
 62
     7
370
     0
100
AcDbLine
 10
97.0561511421
 20
156.6138193307
 30
0.0
 11
97.0561511421
 21
154.738275072
 31
0.0
  0
LINE
  5
1B5
330
1F
100
AcDbEntity
  8
0
  6
HIDDEN
 62
     7
370
     0
100
AcDbLine
 10
107.0561511421
 20
154.7327668136
 30
0.0
 11
107.0561511421
 21
156.6080848979
 31
0.0
  0
LINE
  5
1B6
330
1F
100
AcDbEntity
  8
0
  6
HIDDEN
 62
     7
370
     0
100
AcDbLine
 10
43.2138646772
 20
139.7189269695
 30
0.0
 11
43.2129347801
 21
139.7179970725
 31
0.0
  0
DIMENSION
  5
1B7
330
1F
100
AcDbEntity
  8
VERMASSUNG
100
AcDbDimension
  2
*D1
 10
39.1953412784
 20
59.0612134345
 30
0.0
 11
39.1953412784
 21
109.0612134345
 31
0.0
 70
   160
  1
HSK A %%c<>
 71
     2
 42
-1.0
  3
SLDDIMSTYLE0
100
AcDbAlignedDimension
 13
93.5561511421
 23
159.0612134345
 33
0.0
 14
93.5561511421
 24
59.0612134345
 34
0.0
 50
90.0
100
AcDbRotatedDimension
  0
DIMENSION
  5
1C4
330
1F
100
AcDbEntity
  8
VERMASSUNG
100
AcDbDimension
  2
*D2
 10
253.0561511421
 20
157.0612134345
 30
0.0
 11
232.3061511421
 21
157.0612134345
 31
0.0
 70
   160
 71
     2
 42
-1.0
  3
SLDDIMSTYLE1
100
AcDbAlignedDimension
 13
211.5561511421
 23
113.9612134345
 33
0.0
 14
253.0561511421
 24
119.2124324511
 34
0.0
 50
0.0
100
AcDbRotatedDimension
  0
DIMENSION
  5
1CF
330
1F
100
AcDbEntity
  8
VERMASSUNG
100
AcDbDimension
  2
*D3
 10
260.5894907909
 20
114.0612134345
 30
0.0
 11
260.5894907909
 21
109.0612134345
 31
0.0
 70
   160
  1
%%c<>
 71
     2
 42
-1.0
  3
SLDDIMSTYLE2
100
AcDbAlignedDimension
 13
249.5561511421
 23
104.0612134345
 33
0.0
 14
249.5561511421
 24
114.0612134345
 34
0.0
 50
90.0
100
AcDbRotatedDimension
  0
DIMENSION
  5
1DB
330
1F
100
AcDbEntity
  8
VERMASSUNG
100
AcDbDimension
  2
*D4
 10
266.5894907909
 20
121.0612134345
 30
0.0
 11
266.5894907909
 21
109.0612134345
 31
0.0
 70
   160
  1
%%c<>
 71
     2
 42
-1.0
  3
SLDDIMSTYLE3
100
AcDbAlignedDimension
 13
253.0561511421
 23
97.0612134345
 33
0.0
 14
253.0561511421
 24
121.0612134345
 34
0.0
 50
90.0
100
AcDbRotatedDimension
  0
DIMENSION
  5
1E7
330
1F
100
AcDbEntity
  8
VERMASSUNG
100
AcDbDimension
  2
*D5
 10
253.0561511421
 20
169.0612134345
 30
0.0
 11
173.0561511421
 21
169.0612134345
 31
0.0
 70
   160
 71
     2
 42
-1.0
  3
SLDDIMSTYLE0
100
AcDbAlignedDimension
 13
93.0561511421
 23
158.5612134345
 33
0.0
 14
253.0561511421
 24
119.2124324511
 34
0.0
100
AcDbRotatedDimension
  0
DIMENSION
  5
1F1
330
1F
100
AcDbEntity
  8
VERMASSUNG
100
AcDbDimension
  2
*D6
 10
253.0561511421
 20
163.0612134345
 30
0.0
 11
187.5311511421
 21
163.0612134345
 31
0.0
 70
   160
 71
     2
 42
-1.0
  3
SLDDIMSTYLE0
100
AcDbAlignedDimension
 13
122.0061511421
 23
157.0299532553
 33
0.0
 14
253.0561511421
 24
119.2124324511
 34
0.0
100
AcDbRotatedDimension
  0
DIMENSION
  5
1FB
330
1F
100
AcDbEntity
  8
VERMASSUNG
100
AcDbDimension
  2
*D7
 10
253.0561511421
 20
175.0612134345
 30
0.0
 11
148.1061511421
 21
175.0612134345
 31
0.0
 70
   160
 71
     2
 42
-1.0
  3
SLDDIMSTYLE0
100
AcDbAlignedDimension
 13
43.1561511421
 23
139.563883177
 33
0.0
 14
253.0561511421
 24
119.2124324511
 34
0.0
100
AcDbRotatedDimension
  0
DIMENSION
  5
205
330
1F
100
AcDbEntity
  8
VERMASSUNG
100
AcDbDimension
  2
*D8
 10
272.5894907909
 20
92.0612134345
 30
0.0
 11
272.5894907909
 21
109.0612134345
 31
0.0
 70
   160
  1
%%c<>
 71
     2
 42
-1.0
  3
SLDDIMSTYLE0
100
AcDbAlignedDimension
 13
171.0061511421
 23
126.0612134345
 33
0.0
 14
171.0061511421
 24
92.0612134345
 34
0.0
 50
90.0
100
AcDbRotatedDimension
  0
LINE
  5
210
330
1F
100
AcDbEntity
  8
VERMASSUNG
  6
CENTERX2
370
     0
100
AcDbLine
 10
40.9056817811
 20
109.0612134345
 30
0.0
 11
255.0198266522
 21
109.0612134345
 31
0.0
  0
OLE2FRAME
  5
211
330
1F
100
AcDbEntity
  8
0
100
AcDbOle2Frame
 70
     2
  3
Bitmap Image
 10
13.8511154363
 20
38.264191557
 30
0.0
 11
51.6290888628
 21
31.9806341108
 31
0.0
 71
     2
 72
     0
 73
     1
 90
    12928
310
80552BED0767C5B32B40DDAF6807D121434000000000000000006FFBDDFB85D0
310
4940DDAF6807D121434000000000000000006FFBDDFB85D04940416F4BD60AFB
310
3F4000000000000000002BED0767C5B32B40416F4BD60AFB3F40000000000000
310
0000000000000100000000010000010000000100000000000100000000320000
310
D0CF11E0A1B11AE1000000000000000000000000000000003E000300FEFF0900
310
0600000000000000000000000100000001000000000000000010000002000000
310
01000000FEFFFFFF0000000000000000FFFFFFFFFFFFFFFFFFFFFFFFFFFFFFFF
310
FFFFFFFFFFFFFFFFFFFFFFFFFFFFFFFFFFFFFFFFFFFFFFFFFFFFFFFFFFFFFFFF
310
FFFFFFFFFFFFFFFFFFFFFFFFFFFFFFFFFFFFFFFFFFFFFFFFFFFFFFFFFFFFFFFF
310
FFFFFFFFFFFFFFFFFFFFFFFFFFFFFFFFFFFFFFFFFFFFFFFFFFFFFFFFFFFFFFFF
310
FFFFFFFFFFFFFFFFFFFFFFFFFFFFFFFFFFFFFFFFFFFFFFFFFFFFFFFFFFFFFFFF
310
FFFFFFFFFFFFFFFFFFFFFFFFFFFFFFFFFFFFFFFFFFFFFFFFFFFFFFFFFFFFFFFF
310
FFFFFFFFFFFFFFFFFFFFFFFFFFFFFFFFFFFFFFFFFFFFFFFFFFFFFFFFFFFFFFFF
310
FFFFFFFFFFFFFFFFFFFFFFFFFFFFFFFFFFFFFFFFFFFFFFFFFFFFFFFFFFFFFFFF
310
FFFFFFFFFFFFFFFFFFFFFFFFFFFFFFFFFFFFFFFFFFFFFFFFFFFFFFFFFFFFFFFF
310
FFFFFFFFFFFFFFFFFFFFFFFFFFFFFFFFFFFFFFFFFFFFFFFFFFFFFFFFFFFFFFFF
310
FFFFFFFFFFFFFFFFFFFFFFFFFFFFFFFFFFFFFFFFFFFFFFFFFFFFFFFFFFFFFFFF
310
FFFFFFFFFFFFFFFFFFFFFFFFFFFFFFFFFFFFFFFFFFFFFFFFFFFFFFFFFFFFFFFF
310
FFFFFFFFFFFFFFFFFFFFFFFFFFFFFFFFFFFFFFFFFFFFFFFFFFFFFFFFFFFFFFFF
310
FFFFFFFFFFFFFFFFFFFFFFFFFFFFFFFFFFFFFFFFFFFFFFFFFFFFFFFFFFFFFFFF
310
FDFFFFFFFEFFFFFFFEFFFFFFFEFFFFFF05000000060000000700000008000000
310
090000000A0000000B0000000C0000000D0000000E0000000F00000010000000
310
11000000120000001300000014000000150000001600000017000000FEFFFFFF
310
FFFFFFFFFFFFFFFFFFFFFFFFFFFFFFFFFFFFFFFFFFFFFFFFFFFFFFFFFFFFFFFF
310
FFFFFFFFFFFFFFFFFFFFFFFFFFFFFFFFFFFFFFFFFFFFFFFFFFFFFFFFFFFFFFFF
310
FFFFFFFFFFFFFFFFFFFFFFFFFFFFFFFFFFFFFFFFFFFFFFFFFFFFFFFFFFFFFFFF
310
FFFFFFFFFFFFFFFFFFFFFFFFFFFFFFFFFFFFFFFFFFFFFFFFFFFFFFFFFFFFFFFF
310
FFFFFFFFFFFFFFFFFFFFFFFFFFFFFFFFFFFFFFFFFFFFFFFFFFFFFFFFFFFFFFFF
310
FFFFFFFFFFFFFFFFFFFFFFFFFFFFFFFFFFFFFFFFFFFFFFFFFFFFFFFFFFFFFFFF
310
FFFFFFFFFFFFFFFFFFFFFFFFFFFFFFFFFFFFFFFFFFFFFFFFFFFFFFFFFFFFFFFF
310
FFFFFFFFFFFFFFFFFFFFFFFFFFFFFFFFFFFFFFFFFFFFFFFFFFFFFFFFFFFFFFFF
310
FFFFFFFFFFFFFFFFFFFFFFFFFFFFFFFFFFFFFFFFFFFFFFFFFFFFFFFFFFFFFFFF
310
FFFFFFFFFFFFFFFFFFFFFFFFFFFFFFFFFFFFFFFFFFFFFFFFFFFFFFFFFFFFFFFF
310
FFFFFFFFFFFFFFFFFFFFFFFFFFFFFFFFFFFFFFFFFFFFFFFFFFFFFFFFFFFFFFFF
310
FFFFFFFFFFFFFFFFFFFFFFFFFFFFFFFFFFFFFFFFFFFFFFFFFFFFFFFFFFFFFFFF
310
FFFFFFFFFFFFFFFFFFFFFFFFFFFFFFFFFFFFFFFFFFFFFFFFFFFFFFFFFFFFFFFF
310
52006F006F007400200045006E00740072007900000000000000000000000000
310
0000000000000000000000000000000000000000000000000000000000000000
310
16000500FFFFFFFFFFFFFFFF020000000A00030000000000C000000000000046
310
000000000000000000000000205D15EC9905CC0103000000C000000000000000
310
01004F006C006500000000000000000000000000000000000000000000000000
310
0000000000000000000000000000000000000000000000000000000000000000
310
0A000200FFFFFFFFFFFFFFFFFFFFFFFF00000000000000000000000000000000
310
0000000000000000000000000000000000000000000000001400000000000000
310
010043006F006D0070004F0062006A0000000000000000000000000000000000
310
0000000000000000000000000000000000000000000000000000000000000000
310
120002010100000003000000FFFFFFFF00000000000000000000000000000000
310
0000000000000000000000000000000000000000010000004D00000000000000
310
01004F006C006500310030004E00610074006900760065000000000000000000
310
0000000000000000000000000000000000000000000000000000000000000000
310
1A000200FFFFFFFFFFFFFFFFFFFFFFFF00000000000000000000000000000000
310
0000000000000000000000000000000000000000040000002426000000000000
310
FEFFFFFF02000000FEFFFFFFFFFFFFFFFFFFFFFFFFFFFFFFFFFFFFFFFFFFFFFF
310
FFFFFFFFFFFFFFFFFFFFFFFFFFFFFFFFFFFFFFFFFFFFFFFFFFFFFFFFFFFFFFFF
310
FFFFFFFFFFFFFFFFFFFFFFFFFFFFFFFFFFFFFFFFFFFFFFFFFFFFFFFFFFFFFFFF
310
FFFFFFFFFFFFFFFFFFFFFFFFFFFFFFFFFFFFFFFFFFFFFFFFFFFFFFFFFFFFFFFF
310
FFFFFFFFFFFFFFFFFFFFFFFFFFFFFFFFFFFFFFFFFFFFFFFFFFFFFFFFFFFFFFFF
310
FFFFFFFFFFFFFFFFFFFFFFFFFFFFFFFFFFFFFFFFFFFFFFFFFFFFFFFFFFFFFFFF
310
FFFFFFFFFFFFFFFFFFFFFFFFFFFFFFFFFFFFFFFFFFFFFFFFFFFFFFFFFFFFFFFF
310
FFFFFFFFFFFFFFFFFFFFFFFFFFFFFFFFFFFFFFFFFFFFFFFFFFFFFFFFFFFFFFFF
310
FFFFFFFFFFFFFFFFFFFFFFFFFFFFFFFFFFFFFFFFFFFFFFFFFFFFFFFFFFFFFFFF
310
FFFFFFFFFFFFFFFFFFFFFFFFFFFFFFFFFFFFFFFFFFFFFFFFFFFFFFFFFFFFFFFF
310
FFFFFFFFFFFFFFFFFFFFFFFFFFFFFFFFFFFFFFFFFFFFFFFFFFFFFFFFFFFFFFFF
310
FFFFFFFFFFFFFFFFFFFFFFFFFFFFFFFFFFFFFFFFFFFFFFFFFFFFFFFFFFFFFFFF
310
FFFFFFFFFFFFFFFFFFFFFFFFFFFFFFFFFFFFFFFFFFFFFFFFFFFFFFFFFFFFFFFF
310
FFFFFFFFFFFFFFFFFFFFFFFFFFFFFFFFFFFFFFFFFFFFFFFFFFFFFFFFFFFFFFFF
310
FFFFFFFFFFFFFFFFFFFFFFFFFFFFFFFFFFFFFFFFFFFFFFFFFFFFFFFFFFFFFFFF
310
FFFFFFFFFFFFFFFFFFFFFFFFFFFFFFFFFFFFFFFFFFFFFFFFFFFFFFFFFFFFFFFF
310
0100000200000000000000000000000000000000000000007D00820000000005
310
980A250000000000980A250000000000E8164700000000003417470000000000
310
0100FEFF030A0000FFFFFFFF0A00030000000000C00000000000004607000000
310
5042727573680007000000504272757368000700000050427275736800F439B2
310
71000000000000000000000000000000A6167C00000000009816770000000000
310
94156500000000007A15B20000000000C815650000000000D015B80000000000
310
B8155D0000000000DC155B0000000000C214830000000000C614940000000000
310
12159800000000001E15940000000000C4149D00000000001415B30000000000
310
E21483000000000034159400000000008C1485000000000072146C0000000000
310
1014DA0000000000061494000000000032149B00000000003A149E0000000000
310
D813BC0000000000A413280100000000AC131D01000000008A13F10000000000
310
360B1B0000000000AE0A4200000000000C0B4000000000002E0B610000000000
310
780A510000000000100B400000000000480A460000000000640A450000000000
310
0A073D00000000002E078E00000000000407380000000000F2063A0000000000
310
1C07860000000000AA06150000000000EA06B80000000000EC063E0000000000
310
1E07CC0200000000AE06450000000000300784000000000044076A0200000000
310
20260000424D0E260000000000003E00000028000000B40200006E0000000100
310
01000000000000000000130B0000130B00000200000002000000000000FFFFFF
310
FFFFFFFFFFFFFFFFFFFFFFFFFFFFFFFFFFFFFFFFFFFFFFFFFFFFFFFFFFFFFFFF
310
FFFFFFFFFFFFFFFFFFFFFFFFFFFFFFFFFFFFFFFFFFFFFFFFFFFFFFFFFFFFFFFF
310
FFFFFFFFFFFFFFFFFFFFFFFFFFFFFFFFFFFFFFFFFFFFFFFFF000FFFFFFFFFFFF
310
FFFFFFFFFFFFFFFFFFFFFFFFFFFFFFFFFFFFFFFFFFFFFFFFFFFFFFFFFFFFFFFF
310
FFFFFFFFFFFFFFFFFFFFFFFFFFFFFFFFFFFFFFFFFFFFFFFFFFFFFFFFFFFFFFFF
310
FFFFFFFFFFFFFFFFFFFFFFFFFFFFFFFFF000FFFFFFFFFFFFFFFFFFFFFFFFFFFF
310
FFFFFFFFFFFFFFFFFFFFFFFFFFFFFFFFFFFFFFFFFFFFFFFFFFFFFFFFFFFFFFFF
310
FFFFFFFFFFFFFFFFFFFFFFFFFFFFFFFFFFFFFFFFFFFFFFFFFFFFFFFFFFFFFFFF
310
FFFFFFFFFFFFFFFFF000FFFFFFFFFFFFFFFFFFFFFFFFFFFFFFFFFFFFFFFFFFFF
310
FFFFFFFFFFFFFFFFFFFFFFFFFFFFFFFFFFFFFFFFFFFFFFFFFFFFFFFFFFFFFFFF
310
FFFFFFFFFFFFFFFFFFFFFFFFFFFFFFFFFFFFFFFFFFFFFFFFFFFFFFFFFFFFFFFF
310
F000FFFFFFFFFFFFFFFFFFFFFFFFFFFFFFFFFFFFFFFFFFFFFFFFFFFFFFFFFFFF
310
FFFFFFFFFFFFFFFFFFFFFFFFFFFFFFFFFFFFFFFFFFFFFFFFFFFFFFFFFFFFFFFF
310
FFFFFFFFFFFFFFFFFFFFFFFFFFFFFFFFFFFFFFFFFFFFFFFFF000FFFFFFFFFFFF
310
FFFFFFFFFFFFFFFFFFFFFFFFFFFFFFFFFFFFFFFFFFFFFFFFFFFFFFFFFFFFFFFF
310
FFFFFFFFFFFFFFFFFFFFFFFFFFFFFFFFFFFFFFFFFFFFFFFFFFFFFFFFFFFFFFFF
310
FFFFFFFFFFFFFFFFFFFFFFFFFFFFFFFFF000FFFFFFFFFFFFFFFFFFFFFFFFFFFF
310
FFFFFFFFFFFFFFFFFFFFFFFFFFFFFFFFFFFFFFFFFFFFFFFFFFFFFFFFFFFFFFFF
310
FFFFFFFFFFFFFFFFFFFFFFFFFFFFFFFFFFFFFFFFFFFFFFFFFFFFFFFFFFFFFFFF
310
FFFFFFFFFFFFFFFFF000FFFFFFFFFFFFFFFFFFFFFFFFFFFFFFFFFFFFFFFFFFFF
310
FFFFFFFFFFFFFFFFFFFFFFFFFFFFFFFFFFFFFFFFFFFFFFFFFFFFFFFFFFFFFFFF
310
FFFFFFFFFFFFFFFFFFFFFFFFFFFFFFFFFFFFFFFFFFFFFFFFFFFFFFFFFFFFFFFF
310
F000FFFFFFFFFFFFFFFFFFFFFFFFFFFFFFFFFFFFFFFFFFFFFFFFFFFFFFFFFFFF
310
FFFFFFFFFFFFFFFFFFFFFFFFFFFFFFFFFFFFFFFFFFFFFFFFFFFFFFFFFFFFFFFF
310
FFFFFFFFFFFFFFFFFFFFFFFFFFFFFFFFFFFFFFFFFFFFFFFFF000FFFFFFFFFFFF
310
FFFFFFFFFFFFFFFFFFFFFFFFFFFFFFFFFFFFFFFFFFFFFFFFFFFFFFFFFFFFFFFF
310
FFFFFFFFFFFFFFFFFFFFFFFFFFFFFFFFFFFFFFFFFFFFFFFFFFFFFFFFFFFFFFFF
310
FFFFFFFFFFFFFFFFFFFFFFFFFFFFFFFFF000FFFFFFFFFFFFFFFFFFFFFFFFFFFF
310
FFFFFFFFFFFFFFFFFFFFFFFFFFFFFFFFFFFFFFFFFFFFFFFFFFFFFFFFFFFFFFFF
310
FFFFFFFFFFFFFFFFFFFFFFFFFFFFFFFFFFFFFFFFFFFFFFFFFFFFFFFFFFFFFFFF
310
FFFFFFFFFFFFFFFFF000FFFFFFFFFFFFFFFFFFFFFFFFFFFFFFFFFFFFFFFFFFFF
310
FFFFFFFFFFFFFFFFFFFFFFFFFFFFFFFFFFFFFFFFFFFFFFFFFFFFFFFFFFFFFFFF
310
FFFFFFFFFFFFFFFFFFFFFFFFFFFFFFFFFFFFFFFFFFFFFFFFFFFFFFFFFFFFFFFF
310
F000FFFFFFFFFFFFFFFFFFFFFFFFFFFFFFFFFFFFFFFFFFFFFFFFFFFFFFFFFFFF
310
FFFFFFFFFFFFFFFFFFFFFFFFFFFFFFFFFFFFFFFFFFFFFFFFFFFFFFFFFFFFFFFF
310
FFFFFFFFFFFFFFFFFFFFFFFFFFFFFFFFFFFFFFFFFFFFFFFFF000FFFFFFFFFFFF
310
FFFFFFFFFFFFFFFFFFFFFFFFFFFFFFFFFFFFFFFFFFFFFFFFFFFFFFFFFFFFFFFF
310
FFFFFFFFFFFFFFFFFFFFFFFFFFFFFFFFFFFFFFFFFFFFFFFFFFFFFFFFFFFFFFFF
310
FFFFFFFFFFFFFFFFFFFFFFFFFFFFFFFFF000FFFFFFFFFFFFFFFFFFFFFFFFFFFF
310
FFFFFFFFFFFFFFFFFFFFFFFFFFFFFFFFFFFFFFFFFFFFFFFFFFFFFFFFFFFFFFFF
310
FFFFFFFFFFFFFFFFFFFFFFFFFFFFFFFFFFFFFFFFFFFFFFFFFFFFFFFFFFFFFFFF
310
FFFFFFFFFFFFFFFFF000FFFFFFFFFFFFFFFFFFFFFFFFFFFFFFFFFFFFFFFFFFFF
310
FFFFFFFFFFFFFFFFFFFFFFFFFFFFFFFFFFFFFFFFFFFFFFFFFFFFFFFFFFFFFFFF
310
FFFFFFFFFFFFFFFFFFFFFFFFFFFFFFFFFFFFFFFFFFFFFFFFFFFFFFFFFFFFFFFF
310
F000FFFFFFFFFFFFFFFFFFFFFFFFFFFFFFFFFFFFFFFFFFFFFFFFFFFFFFFFFFFF
310
FFFFFFFFFFFFFFFFFFFFFFFFFFFFFFFFFFFFFFFFFFFFFFFFFFFFFFFFFFFFFFFF
310
FFFFFFFFFFFFFFFFFFFFFFFFFFFFFFFFFFFFFFFFFFFFFFFFF000FFFFFFFFFFFF
310
FFFFFFFFFFFFFFFFFFFFFFFFFFFFFFFFFFFFFFFFFFFFFFFFFFFFFFFFFFFFFFFF
310
FFFFFFFFFFFFFFFFFFFFFFFFFFFFFFFFFFFFFFFFFFFFFFFFFFFFFFFFFFFFFFFF
310
FFFFFFFFFFFFFFFFFFFFFFFFFFFFFFFFF000FFFFFFFFFFFFFFFFFFFFFFFFFFFF
310
FFFFFFFFFFFFFFFFFFFFFFFFFFFFFFFFFFFFFFFFFFFFFFFFFFFFFFFFFFFFFFFF
310
FFFFFFFFFFFFFFFFFFFFFFFFFFFFFFFFFFFFFFFFFFFFFFFFFFFFFFFFFFFFFFFF
310
FFFFFFFFFFFFFFFFF000FFFFF80003FFFFFFFFFFFFFFFFFFFFFFFFFFFFFFFFFF
310
FFFFF00007FFFFFFFFFF00007FFFFFF800000000000000007FFFFFFFFFFFFFFF
310
FFFFFFFC001FFFFFFFFFFFFFFC001FFFFFFFFFFFFFFFFFFFFFFFFFFE0007FFFF
310
F000FFFF8000007FFFFFFFF8000FFFFFC0007FFFFF80007FFFFF0000007FFFFF
310
FFF8000007FFFFF800000000000000007FFFFFF0001FFFFFFFFFFFC00001FFFF
310
FFFFFFFFC00001FFFFFFFF000000000003FFFFE000007FFFF000FFFE0000000F
310
FFFFFFF0000FFFFF80007FFFFF80007FFFFC0000001FFFFFFFC0000001FFFFF8
310
00000000000000007FFFFFF0001FFFFFFFFFFE0000003FFFFFFFFFFE0000003F
310
FFFFFF000000000003FFFF0000000FFFF000FFF800000003FFFFFFF00007FFFF
310
80007FFFFF80007FFFF000000007FFFFFF000000003FFFF80000000000000000
310
7FFFFFF0001FFFFFFFFFF80000000FFFFFFFFFF80000000FFFFFFF0000000000
310
03FFFC00000003FFF000FFE000000000FFFFFFF00007FFFF80003FFFFF80007F
310
FFC000000001FFFFFC000000001FFFF800000000000000007FFFFFF0001FFFFF
310
FFFFE000000003FFFFFFFFE000000003FFFFFF000000000003FFF000000000FF
310
F000FF80000000007FFFFFF00007FFFF80003FFFFF80007FFF8000000000FFFF
310
F80000000007FFF800000000000000007FFFFFF0001FFFFFFFFFC000000001FF
310
FFFFFFC000000001FFFFFF000000000003FFC0000000007FF000FF0000000000
310
3FFFFFE00007FFFF00003FFFFF80007FFE00000000003FFFF00000000003FFF8
310
00000000000000007FFFFFF0001FFFFFFFFF8000000000FFFFFFFF8000000000
310
FFFFFF000000000003FF80000000003FF000FE00000000001FFFFFE00003FFFF
310
00003FFFFF80007FFC00000000001FFFE00000000001FFF8000001FFFE000000
310
7FFFFFF0001FFFFFFFFE00000000003FFFFFFE00000000003FFFFF0000000000
310
03FF00000000001FF000FC00000000000FFFFFE00003FFFF00001FFFFF80007F
310
F800000000001FFFC00000000000FFF8000001FFFE0000007FFFFFF0001FFFFF
310
FFFC00000000001FFFFFFC00000000001FFFFF000000000003FE00000000000F
310
F000F8000000000007FFFFE00003FFFF00001FFFFF80007FF800000000000FFF
310
800000000000FFF8000001FFFE0000007FFFFFF0001FFFFFFFF800000000000F
310
FFFFF800000000000FFFFF000000000003FC000000000007F000F80000000000
310
03FFFFC00003FFFE00001FFFFF80007FF0000000000007FF0000000000007FF8
310
000001FFFE0000007FFFFFF0001FFFFFFFF0000000000007FFFFF00000000000
310
07FFFF000000000003F8000000000003F000F0000000000003FFFFC00001FFFE
310
00001FFFFF80007FE0000000000007FE0000000000003FF8000001FFFE000000
310
7FFFFFF0001FFFFFFFF0000000000007FFFFF0000000000007FFFF0000000000
310
03F800001F800003F000E00001FFF00001FFFFC00001FFFE00000FFFFF80007F
310
E00001FFE00003FE00001FFF00003FF8000001FFFE0000007FFFFFF0001FFFFF
310
FFE000003E000003FFFFE000003E000003FFFF000000000003F00001FFF80001
310
F000E00007FFFC0001FFFFC00001FFFE00000FFFFF80007FC0000FFFFC0003FC
310
0000FFFFC0001FF8000001FFFE0000007FFFFFF0001FFFFFFFC00003FFE00001
310
FFFFC00003FFE00001FFFF0001FFFFFFFFF00007FFFE0001F000E0000FFFFF00
310
00FFFF800001FFFC00000FFFFF80007FC0001FFFFE0001FC0001FFFFE0001FF8
310
000001FFFE0000007FFFFFF0001FFFFFFF80000FFFF80000FFFF80000FFFF800
310
00FFFF0003FFFFFFFFE0000FFFFF8000F000C0003FFFFF8000FFFF800000FFFC
310
000007FFFF80007F80003FFFFF0001FC0003FFFFF0001FF8000001FFFE000000
310
7FFFFFF0001FFFFFFF80003FFFFE0000FFFF80003FFFFE0000FFFF0003FFFFFF
310
FFE0003FFFFF8000F000C0003FFFFF8000FFFF800000FFFC000007FFFF80007F
310
80007FFFFF8001F80007FFFFF8000FF8000001FFFE0000007FFFFFF0001FFFFF
310
FF00007FFFFF00007FFF00007FFFFF00007FFF0003FFFFFFFFE0003FFFFFC000
310
F000C0007FFFFFC000FFFF000000FFFC000007FFFF80007F8000FFFFFF8000F8
310
000FFFFFF8000FF8000001FFFE0000007FFFFFF0001FFFFFFF0000FFFFFF8000
310
7FFF0000FFFFFF80007FFF0003FFFFFFFFC0007FFFFFC00070008000FFFFFFC0
310
00FFFF000000FFF8000007FFFF80007F8000FFFFFF8000F8000FFFFFF8000FF8
310
000001FFFE0000007FFFFFF0001FFFFFFE0001FFFFFFC0003FFE0001FFFFFFC0
310
003FFF0003FFFFFFFFC0007FFFFFE00070008000FFFFFFC0007FFF0000007FF8
310
000003FFFF80007F0001FFFFFF8000F8000FFFFFF8000FF8000001FFFE000000
310
7FFFFFF0001FFFFFFE0001FFFFFFC0003FFE0001FFFFFFC0003FFF0003FFFFFF
310
FFC000FFFFFFE00070008000FFFFFFC0007FFF0000007FF8000003FFFF80007F
310
0001FFFFFF8000F8001FFFFFF8000FF8000001FFFE0000007FFFFFF0001FFFFF
310
FE0003FFFFFFE0003FFE0003FFFFFFE0003FFF0003FFFFFFFFC000FFFFFFE000
310
70008000FFFFFFC0007FFE0000007FF8000003FFFF80007F0001FFFFFF8000F0
310
001FFFFFF8000FF8000001FFFE0000007FFFFFF0001FFFFFFC0003FFFFFFE000
310
1FFC0003FFFFFFE0001FFF0003FFFFFFFFC000FFFFFFC00070008000FFFFFF80
310
007FFE0000007FF0000003FFFF80007F0001FFFFFF0000F0001FFFFFF8000FF8
310
000001FFFE0000007FFFFFF0001FFFFFFC0007FFFFFFF0001FFC0007FFFFFFF0
310
001FFF0003FFFFFFFFC000FFFFFFC00070008001FFFFFF0000FFFE0000003FF0
310
000001FFFF80007F0001FFFFFF0000F8001FFFFFF0000FF8000001FFFE000000
310
7FFFFFF0001FFFFFFC0007FFFFFFF0001FFC0007FFFFFFF0001FFF0003FFFFFF
310
FFC001FFFFFF80007000FFFFFFFFFE0000FFFE0008003FF0008001FFFF80007F
310
FFFFFFFFFC0000FFFFFFFFFFE0000FF8000001FFFE0000007FFFFFF0001FFFFF
310
F8000FFFFFFFF8000FF8000FFFFFFFF8000FFF0003FFFFFFFFFFFFFFFFFF0000
310
7000FFFFFFFFFC0000FFFC0008003FF0008001FFFF80007FFFFFFFFFF80001FF
310
FFFFFFFF80000FF8000001FFFE0000007FFFFFF0001FFFFFF8000FFFFFFFF800
310
0FF8000FFFFFFFF8000FFF0003FFFFFFFFFFFFFFFFFE0000F000FFFFFFFFE000
310
00FFFC000C003FE000C001FFFF80007FFFFFFFFFC00001FFFFFFFFFE00001FF8
310
000001FFFE0000007FFFFFF0001FFFFFF8000FFFFFFFF8000FF8000FFFFFFFF8
310
000FFF0003FFFFFFFFFFFFFFFFF00000F000FFFFFFFE000001FFFC000C001FE0
310
00C000FFFF80007FFFFFFFFE000001FFFFFFFFE000001FF80FFFFFFFFFFFFFC0
310
7FFFFFF0001FFFFFF8000FFFFFFFF8000FF8000FFFFFFFF8000FFF0003FFFFFF
310
FFFFFFFFFF800000F000FFFFFFC0000001FFFC001C001FE001C000FFFF80007F
310
FFFFFF80000003FFFFFFF80000001FF80FFFFFFFFFFFFFC07FFFFFF0001FFFFF
310
F8001FFFFFFFFC000FF8001FFFFFFFFC000FFF0003FFFFFFFFFFFFFFF0000001
310
F000FFFFF800000001FFF8001C001FE001C000FFFF80007FFFFFF800000003FF
310
FFFF800000003FF80FFFFFFFFFFFFFC07FFFFFF0001FFFFFF8001FFFFFFFFC00
310
0FF8001FFFFFFFFC000FFF0003FFFFFFFFFFFFFE00000001F000FFFFC0000000
310
03FFF8001E001FC001E000FFFF80007FFFFF8000000007FFFFFC000000003FF8
310
0FFFFFFFFFFFFFC07FFFFFF0001FFFFFF8001FFFFFFFFC000FF8001FFFFFFFFC
310
000FFF0003FFFFFFFFFFFFE000000003F000FFFE0000000007FFF8001E000FC0
310
01E0007FFF80007FFFFE0000000007FFFFE0000000007FF80FFFFFFFFFFFFFC0
310
7FFFFFF0001FFFFFF0001FFFFFFFFC0007F0001FFFFFFFFC0007FF0003FFFFFF
310
FFFFFF0000000003F000FFF80000000007FFF8001E000FC003E0007FFF80007F
310
FFF0000000000FFFFF8000000000FFF80FFFFFFFFFFFFFC07FFFFFF0001FFFFF
310
F0001FFFFFFFFC0007F0001FFFFFFFFC0007FF0003FFFFFFFFFFFC0000000007
310
F000FFE0000000000FFFF0003E000FC003E0007FFF80007FFFC0000000001FFF
310
FE0000000001FFF80FFFFFFFFFFFFFC07FFFFFF0001FFFFFF0001FFFFFFFFC00
310
07F0001FFFFFFFFC0007FF0003FFFFFFFFFFF0000000000FF000FFC000000000
310
1FFFF0003F000F8003F0003FFF80007FFF80000000003FFFF80000000003FFF8
310
0FFFFFFFFFFFFFC07FFFFFF0001FFFFFF0001FFFFFFFFC0007F0001FFFFFFFFC
310
0007FF0003FFFFFFFFFFE0000000001FF000FF00000000007FFFF0003F000780
310
03F0003FFF80007FFF00000000007FFFF00000000007FFF80FFFFFFFFFFFFFC0
310
7FFFFFF0001FFFFFF0001FFFFFFFFC0007F0001FFFFFFFFC0007FF0003FFFFFF
310
FFFF80000000007FF000FE0000000000FFFFE0003F00078007F0003FFF80007F
310
FE0000000001FFFFE0000000001FFFF80FFFFFFFFFFFFFC07FFFFFF0001FFFFF
310
F0001FFFFFFFFC0007F0001FFFFFFFFC0007FF0003FFFFFFFFFF0000000000FF
310
F000FC0000000003FFFFE0007F00078007F0003FFF80007FFC0000000007FFFF
310
C0000000007FFFF80FFFFFFFFFFFFFC07FFFFFF0001FFFFFF8001FFFFFFFFC00
310
0FF8001FFFFFFFFC000FFF0003FFFFFFFFFE0000000003FFF000FC000000000F
310
FFFFE0007F80070007F8001FFF80007FF8000000001FFFFF8000000001FFFFF8
310
0FFFFFFFFFFFFFC07FFFFFF0001FFFFFF8001FFFFFFFFC000FF8001FFFFFFFFC
310
000FFF0003FFFFFFFFFC000000000FFFF000F8000000007FFFFFE0007F800700
310
07F8001FFF80007FF000000000FFFFFF800000000FFFFFF80FFFFFFFFFFFFFC0
310
7FFFFFF0001FFFFFF8000FFFFFFFF8000FF8000FFFFFFFF8000FFF0003FFFFFF
310
FFFC000000007FFFF000F800000007FFFFFFC0007F8003000FF8001FFF80007F
310
F000000007FFFFFF000000007FFFFFF80FFFFFFFFFFFFFC07FFFFFF0001FFFFF
310
F8000FFFFFFFF8000FF8000FFFFFFFF8000FFF0003FFFFFFFFF80000000FFFFF
310
F000F0000000FFFFFFFFC000FF8003000FF8001FFF80007FE0000000FFFFFFFF
310
0000000FFFFFFFF8000001FFFE0000007FFFFFF0001FFFFFF8000FFFFFFFF800
310
0FF8000FFFFFFFF8000FFF0003FFFFFFFFF8000000FFFFFFF000F000000FFFFF
310
FFFFC000FFC002000FF8000FFF80007FE000001FFFFFFFFE000001FFFFFFFFF8
310
000001FFFE0000007FFFFFF0001FFFFFF8000FFFFFFFF8000FF8000FFFFFFFF8
310
000FFF0003FFFFFFFFF000001FFFFFFFF000E00000FFFFFFFFFFC000FFC00200
310
0FFC000FFF80007FE00001FFFFFFFFFE00001FFFFFFFFFF8000001FFFE000000
310
7FFFFFF0001FFFFFFC000FFFFFFFF8001FFC000FFFFFFFF8001FFF0003FFFFFF
310
FFF00001FFFFFFFFF000E00007FFFFFFFFFF8000FFC000001FFC000FFF80007F
310
C0000FFFFFFFFFFE0000FFFFFFFFFFF8000001FFFE0000007FFFFFF0001FFFFF
310
FC0007FFFFFFF0001FFC0007FFFFFFF0001FFF0003FFFFFFFFF00007FFFFFFFF
310
F000E0001FFFFFFFFFFF8000FFC000001FFC000FFF80007FC0003FFFFFFFFFFE
310
0001FFFFFFFFFFF8000001FFFE0000007FFFFFF0001FFFFFFC0007FFFFFFF000
310
1FFC0007FFFFFFF0001FFF0003FFFFFFFFF0001FFFFFFFFFF000E0003FFFFF00
310
03FF8001FFE000001FFC0007FF80007FC0007FFFFF0007FC0003FFFFF0003FF8
310
000001FFFE0000007FFFFFF0001FFFFFFC0003FFFFFFE0001FFC0003FFFFFFE0
310
001FFF0003FFFFFFFFF0003FFFFFFFFFF000E0003FFFFF0001FF8001FFE00000
310
1FFE0007FF80007FC0007FFFFE0003FC0007FFFFE0003FF8000001FFFE000000
310
7FFFFFF0001FFFFFFE0003FFFFFFE0003FFE0003FFFFFFE0003FFF0003FFFFFF
310
FFF0003FFFFF8001F000E0003FFFFF0001FF0001FFE000001FFE0007FF80007F
310
C0007FFFFE0003FC0007FFFFE0003FF8000001FFFE0000007FFFFFF0001FFFFF
310
FE0001FFFFFFC0003FFE0001FFFFFFC0003FFF0003FFFFFFFFF0003FFFFF0001
310
F000E0003FFFFF0003FF0001FFE000003FFE0007FF80007FC0007FFFFE0003FC
310
0007FFFFE0003FF8000001FFFE0000007FFFFFF0001FFFFFFF0001FFFFFFC000
310
7FFF0001FFFFFFC0007FFF0003FFFFFFFFF0003FFFFF0001F000E0003FFFFE00
310
03FF0003FFF000003FFE0003FF80007FC0007FFFFC0003FE0007FFFFE0003FF8
310
000001FFFE0000007FFFFFF0001FFFFFFF0000FFFFFF80007FFF0000FFFFFF80
310
007FFF0003FFFFFFFFF0003FFFFF0001F000E0003FFFFE0003FF0003FFF00000
310
3FFF0003FF80007FC0007FFFFC0007FE0007FFFFC0003FF8000001FFFE000000
310
7FFFFFF0001FFFFFFF80007FFFFF0000FFFF80007FFFFF0000FFFF0003FFFFFF
310
FFF0003FFFFF0003F000E0003FFFFC0003FE0003FFF000003FFF0003FF80007F
310
E0003FFFF80007FE0003FFFFC0007FF8000001FFFE0000007FFFFFF0001FFFFF
310
FF80003FFFFE0000FFFF80003FFFFE0000FFFF0003FFFFFFFFF0001FFFFE0003
310
F000F0001FFFF80003FE0003FFF000007FFF0001FF80007FE0003FFFF00007FE
310
0001FFFF80007FF8000001FFFE0000007FFFFFF0001FFFFFFFC0000FFFF80001
310
FFFFC0000FFFF80001FFFF0003FFFFFFFFF0001FFFFC0003F000F0000FFFF000
310
07FE0007FFF800007FFF0001FF80007FE0001FFFE00007FF0000FFFE00007FF8
310
000001FFFE0000007FFFFFF0001FFFFFFFC00003FFE00001FFFFC00003FFE000
310
01FFFF0003FFFFFFFFF8000FFFF80003F000F00003FFC00007FC0007FFF80000
310
7FFF8001FF80007FF00007FF80000FFF00007FF80000FFF8000001FFFE000000
310
7F80000000000001FFE000003E000003FFFFE000003E000003FFFF0003FFFFFF
310
FFF80003FFE00007F000F800000000000FFC0007FFF800007FFF8001FF80007F
310
F000000000000FFF000000000000FFF8000001FFFE0000007F80000000000001
310
FFF0000000000007FFFFF0000000000007FFFF0003FFFFFFFFFC00007E000007
310
F000F800000000000FFC0007FFF80000FFFF8000FF80007FF800000000001FFF
310
800000000001FFF8000001FFFE0000007F80000000000001FFF800000000000F
310
FFFFF800000000000FFFFF0003FFFFFFFFFC00000000000FF000FC0000000000
310
1FFC0007FFFC0000FFFF8000FF80007FF800000000003FFFC00000000001FFF8
310
000001FFFE0000007F80000000000001FFF800000000000FFFFFF80000000000
310
0FFFFF0003FFFFFFFFFE00000000001FF000FE00000000003FF8000FFFFC0000
310
FFFF8000FF80007FFC00000000003FFFC00000000003FFF8000001FFFE000000
310
7F80000000000001FFFC00000000001FFFFFFC00000000001FFFFF0003FFFFFF
310
FFFF00000000001FF000FF00000000003FF8000FFFFC0000FFFFC000FF80007F
310
FE00000000007FFFE00000000007FFF8000001FFFE0000007F80000000000001
310
FFFE00000000003FFFFFFE00000000003FFFFF0003FFFFFFFFFF80000000003F
310
F000FF80000000007FF8000FFFFC0001FFFFC0007F80007FFF0000000000FFFF
310
F0000000000FFFF800000000000000007F80000000000001FFFF8000000000FF
310
FFFFFF8000000000FFFFFF0003FFFFFFFFFFC0000000007FF000FFC000000000
310
FFF8000FFFFE0001FFFFC0007F80007FFF8000000001FFFFF8000000001FFFF8
310
00000000000000007F80000000000001FFFFC000000001FFFFFFFFC000000001
310
FFFFFF0003FFFFFFFFFFE000000000FFF000FFE000000003FFF0001FFFFE0001
310
FFFFC0007F80007FFFC000000007FFFFFE000000003FFFF80000000000000000
310
7F80000000000001FFFFE000000003FFFFFFFFE000000003FFFFFF0003FFFFFF
310
FFFFF000000003FFF000FFF80000000FFFF0001FFFFE0001FFFFE0007F80007F
310
FFF00000000FFFFFFF00000000FFFFF800000000000000007F80000000000001
310
FFFFF80000000FFFFFFFFFF80000000FFFFFFF0003FFFFFFFFFFFC0000000FFF
310
F000FFFE0000003FFFF0001FFFFE0003FFFFE0003F80007FFFFC0000003FFFFF
310
FFC0000003FFFFF800000000000000007F80000000000001FFFFFE0000003FFF
310
FFFFFFFE0000003FFFFFFF0003FFFFFFFFFFFF0000003FFFF000FFFF800000FF
310
FFF0001FFFFF0003FFFFE0003F80007FFFFF000001FFFFFFFFF800001FFFFFF8
310
00000000000000007F80000000000001FFFFFFC00001FFFFFFFFFFFFC00001FF
310
FFFFFF0003FFFFFFFFFFFFC00000FFFFF000FFFFF8000FFFFFFFFFFFFFFFFFFF
310
FFFFFFFFFFFFFFFFFFFFF0001FFFFFFFFFFF0000FFFFFFF80000000000000000
310
7FFFFFFFFFFFFFFFFFFFFFFC001FFFFFFFFFFFFFFC001FFFFFFFFFFFFFFFFFFF
310
FFFFFFFC001FFFFFF000FFFFFFFFFFFFFFFFFFFFFFFFFFFFFFFFFFFFFFFFFFFF
310
FFFFFFFFFFFFFFFFFFFFFFFFFFFFFFFFFFFFFFFFFFFFFFFFFFFFFFFFFFFFFFFF
310
FFFFFFFFFFFFFFFFFFFFFFFFFFFFFFFFFFFFFFFFFFFFFFFFFFFFFFFFFFFFFFFF
310
F000FFFFFFFFFFFFFFFFFFFFFFFFFFFFFFFFFFFFFFFFFFFFFFFFFFFFFFFFFFFF
310
FFFFFFFFFFFFFFFFFFFFFFFFFFFFFFFFFFFFFFFFFFFFFFFFFFFFFFFFFFFFFFFF
310
FFFFFFFFFFFFFFFFFFFFFFFFFFFFFFFFFFFFFFFFFFFFFFFFF000FFFFFFFFFFFF
310
FFFFFFFFFFFFFFFFFFFFFFFFFFFFFFFFFFFFFFFFFFFFFFFFFFFFFFFFFFFFFFFF
310
FFFFFFFFFFFFFFFFFFFFFFFFFFFFFFFFFFFFFFFFFFFFFFFFFFFFFFFFFFFFFFFF
310
FFFFFFFFFFFFFFFFFFFFFFFFFFFFFFFFF000FFFFFFFFFFFFFFFFFFFFFFFFFFFF
310
FFFFFFFFFFFFFFFFFFFFFFFFFFFFFFFFFFFFFFFFFFFFFFFFFFFFFFFFFFFFFFFF
310
FFFFFFFFFFFFFFFFFFFFFFFFFFFFFFFFFFFFFFFFFFFFFFFFFFFFFFFFFFFFFFFF
310
FFFFFFFFFFFFFFFFF000FFFFFFFFFFFFFFFFFFFFFFFFFFFFFFFFFFFFFFFFFFFF
310
FFFFFFFFFFFFFFFFFFFFFFFFFFFFFFFFFFFFFFFFFFFFFFFFFFFFFFFFFFFFFFFF
310
FFFFFFFFFFFFFFFFFFFFFFFFFFFFFFFFFFFFFFFFFFFFFFFFFFFFFFFFFFFFFFFF
310
F000FFFFFFFFFFFFFFFFFFFFFFFFFFFFFFFFFFFFFFFFFFFFFFFFFFFFFFFFFFFF
310
FFFFFFFFFFFFFFFFFFFFFFFFFFFFFFFFFFFFFFFFFFFFFFFFFFFFFFFFFFFFFFFF
310
FFFFFFFFFFFFFFFFFFFFFFFFFFFFFFFFFFFFFFFFFFFFFFFFF000FFFFFFFFFFFF
310
FFFFFFFFFFFFFFFFFFFFFFFFFFFFFFFFFFFFFFFFFFFFFFFFFFFFFFFFFFFFFFFF
310
FFFFFFFFFFFFFFFFFFFFFFFFFFFFFFFFFFFFFFFFFFFFFFFFFFFFFFFFFFFFFFFF
310
FFFFFFFFFFFFFFFFFFFFFFFFFFFFFFFFF000FFFFFFFFFFFFFFFFFFFFFFFFFFFF
310
FFFFFFFFFFFFFFFFFFFFFFFFFFFFFFFFFFFFFFFFFFFFFFFFFFFFFFFFFFFFFFFF
310
FFFFFFFFFFFFFFFFFFFFFFFFFFFFFFFFFFFFFFFFFFFFFFFFFFFFFFFFFFFFFFFF
310
FFFFFFFFFFFFFFFFF000FFFFFFFFFFFFFFFFFFFFFFFFFFFFFFFFFFFFFFFFFFFF
310
FFFFFFFFFFFFFFFFFFFFFFFFFFFFFFFFFFFFFFFFFFFFFFFFFFFFFFFFFFFFFFFF
310
FFFFFFFFFFFFFFFFFFFFFFFFFFFFFFFFFFFFFFFFFFFFFFFFFFFFFFFFFFFFFFFF
310
F000FFFFFFFFFFFFFFFFFFFFFFFFFFFFFFFFFFFFFFFFFFFFFFFFFFFFFFFFFFFF
310
FFFFFFFFFFFFFFFFFFFFFFFFFFFFFFFFFFFFFFFFFFFFFFFFFFFFFFFFFFFFFFFF
310
FFFFFFFFFFFFFFFFFFFFFFFFFFFFFFFFFFFFFFFFFFFFFFFFF000FFFFFFFFFFFF
310
FFFFFFFFFFFFFFFFFFFFFFFFFFFFFFFFFFFFFFFFFFFFFFFFFFFFFFFFFFFFFFFF
310
FFFFFFFFFFFFFFFFFFFFFFFFFFFFFFFFFFFFFFFFFFFFFFFFFFFFFFFFFFFFFFFF
310
FFFFFFFFFFFFFFFFFFFFFFFFFFFFFFFFF000FFFFFFFFFFFFFFFFFFFFFFFFFFFF
310
FFFFFFFFFFFFFFFFFFFFFFFFFFFFFFFFFFFFFFFFFFFFFFFFFFFFFFFFFFFFFFFF
310
FFFFFFFFFFFFFFFFFFFFFFFFFFFFFFFFFFFFFFFFFFFFFFFFFFFFFFFFFFFFFFFF
310
FFFFFFFFFFFFFFFFF000FFFFFFFFFFFFFFFFFFFFFFFFFFFFFFFFFFFFFFFFFFFF
310
FFFFFFFFFFFFFFFFFFFFFFFFFFFFFFFFFFFFFFFFFFFFFFFFFFFFFFFFFFFFFFFF
310
FFFFFFFFFFFFFFFFFFFFFFFFFFFFFFFFFFFFFFFFFFFFFFFFFFFFFFFFFFFFFFFF
310
F000FFFFFFFFFFFFFFFFFFFFFFFFFFFFFFFFFFFFFFFFFFFFFFFFFFFFFFFFFFFF
310
FFFFFFFFFFFFFFFFFFFFFFFFFFFFFFFFFFFFFFFFFFFFFFFFFFFFFFFFFFFFFFFF
310
FFFFFFFFFFFFFFFFFFFFFFFFFFFFFFFFFFFFFFFFFFFFFFFFF000FFFFFFFFFFFF
310
FFFFFFFFFFFFFFFFFFFFFFFFFFFFFFFFFFFFFFFFFFFFFFFFFFFFFFFFFFFFFFFF
310
FFFFFFFFFFFFFFFFFFFFFFFFFFFFFFFFFFFFFFFFFFFFFFFFFFFFFFFFFFFFFFFF
310
FFFFFFFFFFFFFFFFFFFFFFFFFFFFFFFFF000FFFFFFFFFFFFFFFFFFFFFFFFFFFF
310
FFFFFFFFFFFFFFFFFFFFFFFFFFFFFFFFFFFFFFFFFFFFFFFFFFFFFFFFFFFFFFFF
310
FFFFFFFFFFFFFFFFFFFFFFFFFFFFFFFFFFFFFFFFFFFFFFFFFFFFFFFFFFFFFFFF
310
FFFFFFFFFFFFFFFFF000FFFFFFFFFFFFFFFFFFFFFFFFFFFFFFFFFFFFFFFFFFFF
310
FFFFFFFFFFFFFFFFFFFFFFFFFFFFFFFFFFFFFFFFFFFFFFFFFFFFFFFFFFFFFFFF
310
FFFFFFFFFFFFFFFFFFFFFFFFFFFFFFFFFFFFFFFFFFFFFFFFFFFFFFFFFFFFFFFF
310
F000FFFFFFFFFFFFFFFFFFFFFFFFFFFFFFFFFFFFFFFFFFFFFFFFFFFFFFFFFFFF
310
FFFFFFFFFFFFFFFFFFFFFFFFFFFFFFFFFFFFFFFFFFFFFFFFFFFFFFFFFFFFFFFF
310
FFFFFFFFFFFFFFFFFFFFFFFFFFFFFFFFFFFFFFFFFFFFFFFFF000FFFFFFFFFFFF
310
FFFFFFFFFFFFFFFFFFFFFFFFFFFFFFFFFFFFFFFFFFFFFFFFFFFFFFFFFFFFFFFF
310
FFFFFFFFFFFFFFFFFFFFFFFFFFFFFFFFFFFFFFFFFFFFFFFFFFFFFFFFFFFFFFFF
310
FFFFFFFFFFFFFFFFFFFFFFFFFFFFFFFFF000FFFFFFFFFFFFFFFFFFFFFFFFFFFF
310
FFFFFFFFFFFFFFFFFFFFFFFFFFFFFFFFFFFFFFFFFFFFFFFFFFFFFFFFFFFFFFFF
310
FFFFFFFFFFFFFFFFFFFFFFFFFFFFFFFFFFFFFFFFFFFFFFFFFFFFFFFFFFFFFFFF
310
FFFFFFFFFFFFFFFFF000FFFFFFFFFFFFFFFFFFFFFFFFFFFFFFFFFFFFFFFFFFFF
310
FFFFFFFFFFFFFFFFFFFFFFFFFFFFFFFFFFFFFFFFFFFFFFFFFFFFFFFFFFFFFFFF
310
FFFFFFFFFFFFFFFFFFFFFFFFFFFFFFFFFFFFFFFFFFFFFFFFFFFFFFFFFFFFFFFF
310
F000FFFFFFFFFFFFFFFFFFFFFFFFFFFFFFFFFFFFFFFFFFFFFFFFFFFFFFFFFFFF
310
FFFFFFFFFFFFFFFFFFFFFFFFFFFFFFFFFFFFFFFFFFFFFFFFFFFFFFFFFFFFFFFF
310
FFFFFFFFFFFFFFFFFFFFFFFFFFFFFFFFFFFFFFFFFFFFFFFFF000FFFFFFFFFFFF
310
FFFFFFFFFFFFFFFFFFFFFFFFFFFFFFFFFFFFFFFFFFFFFFFFFFFFFFFFFFFFFFFF
310
FFFFFFFFFFFFFFFFFFFFFFFFFFFFFFFFFFFFFFFFFFFFFFFFFFFFFFFFFFFFFFFF
310
FFFFFFFFFFFFFFFFFFFFFFFFFFFFFFFFF0000000000000000000000000000000
310
00000000000000000000000042006C00610063006B0000000000000000000000
310
0000000000000000000000000000000000000000000000000000000000000000
310
0000000000000000000000000000FFFFFFFFFFFFFFFFFFFFFFFFFFFFFFFFFFFF
310
FFFFFFFFFFFFFFFFFFFFFFFFFFFFFFFFFFFFFFFFFFFFFFFFFFFFFFFFFFFFFFFF
310
FFFFFFFFFFFFFFFFFFFFFFFF6476000800000000FFFFFFFF20FF202026000000
310
1E00000008000000060000000000000011000000200000008403000000000000
310
6000000060000000200002FB200020000000002B00FFFFFF40002200E8030000
310
A80400001C020000AF0000804A20004000000000000000000100000000000000
310
616C000800000000E40100007001000002000000270000001100000000000000
310
00000000BC0200000000000003020122420065006C006C00200047006F007400
310
680069006300200053007400640020004C006900670068007400000000000000
310
00000000000000000000000000000000420065006C006C0047006F0074006800
310
690063005300740064002D0042006F006C006400000000000000000000000000
310
0000000000000000000000000000000000000000000000000000000000000000
310
0000000000000000000000000000000000000000000000000000000000000000
  1
OLE
  0
ENDSEC
  0
SECTION
  2
OBJECTS
  0
DICTIONARY
  5
C
330
0
100
AcDbDictionary
281
     1
  3
ACAD_GROUP
350
D
  3
ACAD_LAYOUT
350
1A
  3
ACAD_MLEADERSTYLE
350
213
  3
ACAD_MLINESTYLE
350
17
  3
ACAD_PLOTSETTINGS
350
19
  3
ACAD_PLOTSTYLENAME
350
E
  3
ACAD_TABLESTYLE
350
212
  3
ACAD_VISUALSTYLE
350
2A
  3
AcDbVariableDictionary
350
214
  0
DICTIONARY
  5
D
102
{ACAD_REACTORS
330
C
102
}
330
C
100
AcDbDictionary
281
     1
  0
DICTIONARY
  5
1A
102
{ACAD_REACTORS
330
C
102
}
330
C
100
AcDbDictionary
281
     1
  3
Layout1
350
1E
  3
Layout2
350
26
  3
Model
350
22
  0
DICTIONARY
  5
213
102
{ACAD_REACTORS
330
C
102
}
330
C
100
AcDbDictionary
281
     1
  0
DICTIONARY
  5
17
102
{ACAD_REACTORS
330
C
102
}
330
C
100
AcDbDictionary
281
     1
  3
Standard
350
18
  0
DICTIONARY
  5
19
102
{ACAD_REACTORS
330
C
102
}
330
C
100
AcDbDictionary
281
     1
  0
ACDBDICTIONARYWDFLT
  5
E
102
{ACAD_REACTORS
330
C
102
}
330
C
100
AcDbDictionary
281
     1
  3
Normal
350
F
100
AcDbDictionaryWithDefault
340
F
  0
DICTIONARY
  5
212
102
{ACAD_REACTORS
330
C
102
}
330
C
100
AcDbDictionary
281
     1
  0
DICTIONARY
  5
2A
102
{ACAD_REACTORS
330
C
102
}
330
C
100
AcDbDictionary
281
     1
  3
2dWireframe
350
2F
  3
3D Hidden
350
31
  3
3dWireframe
350
30
  3
Basic
350
32
  3
Brighten
350
36
  3
ColorChange
350
3A
  3
Conceptual
350
34
  3
Dim
350
35
  3
Facepattern
350
39
  3
Flat
350
2B
  3
FlatWithEdges
350
2C
  3
Gouraud
350
2D
  3
GouraudWithEdges
350
2E
  3
Linepattern
350
38
  3
Realistic
350
33
  3
Thicken
350
37
  0
DICTIONARY
  5
214
102
{ACAD_REACTORS
330
C
102
}
330
C
100
AcDbDictionary
281
     1
  3
PSOLHEIGHT
350
216
  3
PSOLWIDTH
350
215
  0
LAYOUT
  5
1E
102
{ACAD_REACTORS
330
1A
102
}
330
1A
100
AcDbPlotSettings
  1

  2
none_device
  4

  6

 40
0.0
 41
0.0
 42
0.0
 43
0.0
 44
0.0
 45
0.0
 46
0.0
 47
0.0
 48
0.0
 49
0.0
140
0.0
141
0.0
142
1.0
143
1.0
 70
   688
 72
     0
 73
     0
 74
     5
  7

 75
    16
147
1.0
148
0.0
149
0.0
100
AcDbLayout
  1
Layout1
 70
     1
 71
     1
 10
0.0
 20
0.0
 11
420.0
 21
297.0
 12
0.0
 22
0.0
 32
0.0
 14
1.0000000000E+20
 24
1.0000000000E+20
 34
1.0000000000E+20
 15
-1.0000000000E+20
 25
-1.0000000000E+20
 35
-1.0000000000E+20
146
0.0
 13
0.0
 23
0.0
 33
0.0
 16
1.0
 26
0.0
 36
0.0
 17
0.0
 27
1.0
 37
0.0
 76
     0
330
1B
  0
LAYOUT
  5
26
102
{ACAD_REACTORS
330
1A
102
}
330
1A
100
AcDbPlotSettings
  1

  2
none_device
  4

  6

 40
0.0
 41
0.0
 42
0.0
 43
0.0
 44
0.0
 45
0.0
 46
0.0
 47
0.0
 48
0.0
 49
0.0
140
0.0
141
0.0
142
1.0
143
1.0
 70
   688
 72
     0
 73
     0
 74
     5
  7

 75
    16
147
1.0
148
0.0
149
0.0
100
AcDbLayout
  1
Layout2
 70
     1
 71
     2
 10
0.0
 20
0.0
 11
0.0
 21
0.0
 12
0.0
 22
0.0
 32
0.0
 14
0.0
 24
0.0
 34
0.0
 15
0.0
 25
0.0
 35
0.0
146
0.0
 13
0.0
 23
0.0
 33
0.0
 16
1.0
 26
0.0
 36
0.0
 17
0.0
 27
1.0
 37
0.0
 76
     0
330
23
  0
LAYOUT
  5
22
102
{ACAD_REACTORS
330
1A
102
}
330
1A
100
AcDbPlotSettings
  1

  2
none_device
  4

  6

 40
0.0
 41
0.0
 42
0.0
 43
0.0
 44
0.0
 45
0.0
 46
0.0
 47
0.0
 48
0.0
 49
0.0
140
0.0
141
0.0
142
1.0
143
1.0
 70
  1712
 72
     0
 73
     0
 74
     0
  7

 75
     0
147
1.0
148
0.0
149
0.0
100
AcDbLayout
  1
Model
 70
     1
 71
     0
 10
0.0
 20
0.0
 11
297.0
 21
210.0
 12
0.0
 22
0.0
 32
0.0
 14
0.0
 24
0.0
 34
0.0
 15
297.0
 25
210.0
 35
0.0
146
0.0
 13
0.0
 23
0.0
 33
0.0
 16
1.0
 26
0.0
 36
0.0
 17
0.0
 27
1.0
 37
0.0
 76
     0
330
1F
331
29
  0
MLINESTYLE
  5
18
102
{ACAD_REACTORS
330
17
102
}
330
17
100
AcDbMlineStyle
  2
Standard
 70
     0
  3

 62
   256
 51
90.0
 52
90.0
 71
     2
 49
0.5
 62
   256
  6
BYLAYER
 49
-0.5
 62
   256
  6
BYLAYER
  0
ACDBPLACEHOLDER
  5
F
102
{ACAD_REACTORS
330
E
102
}
330
E
  0
VISUALSTYLE
  5
2F
102
{ACAD_REACTORS
330
2A
102
}
330
2A
100
AcDbVisualStyle
  2
2dWireframe
 70
     4
 71
     0
 72
     2
 73
     0
 90
        0
 40
-0.6
 41
-30.0
 62
     5
 63
     7
 74
     1
 91
        4
 64
     7
 65
   257
 75
     1
175
     1
 42
1.0
 92
        0
 66
   257
 43
1.0
 76
     1
 77
     6
 78
     2
 67
     7
 79
     5
170
     0
171
     0
290
     0
174
     0
 93
        1
 44
0.0
173
     0
291
     0
 45
0.0
1001
ACAD
1000
AcDbSavedByObjectVersion
1070
     0
  0
VISUALSTYLE
  5
31
102
{ACAD_REACTORS
330
2A
102
}
330
2A
100
AcDbVisualStyle
  2
3D Hidden
 70
     6
 71
     1
 72
     2
 73
     2
 90
        0
 40
-0.6
 41
-30.0
 62
     5
 63
     7
 74
     2
 91
        2
 64
     7
 65
   257
 75
     2
175
     1
 42
40.0
 92
        0
 66
   257
 43
1.0
 76
     1
 77
     6
 78
     2
 67
     7
 79
     3
170
     0
171
     0
290
     0
174
     0
 93
        1
 44
0.0
173
     0
291
     0
 45
0.0
1001
ACAD
1000
AcDbSavedByObjectVersion
1070
     0
  0
VISUALSTYLE
  5
30
102
{ACAD_REACTORS
330
2A
102
}
330
2A
100
AcDbVisualStyle
  2
3dWireframe
 70
     5
 71
     0
 72
     2
 73
     0
 90
        0
 40
-0.6
 41
-30.0
 62
     5
 63
     7
 74
     1
 91
        4
 64
     7
 65
   257
 75
     1
175
     1
 42
1.0
 92
        0
 66
   257
 43
1.0
 76
     1
 77
     6
 78
     2
 67
     7
 79
     5
170
     0
171
     0
290
     0
174
     0
 93
        1
 44
0.0
173
     0
291
     0
 45
0.0
1001
ACAD
1000
AcDbSavedByObjectVersion
1070
     0
  0
VISUALSTYLE
  5
32
102
{ACAD_REACTORS
330
2A
102
}
330
2A
100
AcDbVisualStyle
  2
Basic
 70
     7
 71
     1
 72
     0
 73
     1
 90
        0
 40
-0.6
 41
-30.0
 62
     5
 63
     7
 74
     0
 91
        4
 64
     7
 65
   257
 75
     1
175
     1
 42
1.0
 92
        8
 66
     7
 43
1.0
 76
     1
 77
     6
 78
     2
 67
     7
 79
     5
170
     0
171
     0
290
     0
174
     0
 93
        1
 44
0.0
173
     0
291
     1
 45
0.0
1001
ACAD
1000
AcDbSavedByObjectVersion
1070
     0
  0
VISUALSTYLE
  5
36
102
{ACAD_REACTORS
330
2A
102
}
330
2A
100
AcDbVisualStyle
  2
Brighten
 70
    12
 71
     2
 72
     2
 73
     0
 90
        0
 40
-0.6
 41
-30.0
 62
     5
 63
     7
 74
     1
 91
        4
 64
     7
 65
   257
 75
     1
175
     1
 42
1.0
 92
        8
 66
     7
 43
1.0
 76
     1
 77
     6
 78
     2
 67
     7
 79
     5
170
     0
171
     0
290
     0
174
     0
 93
        1
 44
50.0
173
     0
291
     1
 45
0.0
1001
ACAD
1000
AcDbSavedByObjectVersion
1070
     0
  0
VISUALSTYLE
  5
3A
102
{ACAD_REACTORS
330
2A
102
}
330
2A
100
AcDbVisualStyle
  2
ColorChange
 70
    16
 71
     2
 72
     2
 73
     3
 90
        0
 40
-0.6
 41
-30.0
 62
     5
 63
     8
 74
     1
 91
        4
 64
     7
 65
   257
 75
     1
175
     1
 42
1.0
 92
        8
 66
     8
 43
1.0
 76
     1
 77
     6
 78
     2
 67
     7
 79
     5
170
     0
171
     0
290
     0
174
     0
 93
        1
 44
0.0
173
     0
291
     1
 45
0.0
1001
ACAD
1000
AcDbSavedByObjectVersion
1070
     0
  0
VISUALSTYLE
  5
34
102
{ACAD_REACTORS
330
2A
102
}
330
2A
100
AcDbVisualStyle
  2
Conceptual
 70
     9
 71
     3
 72
     2
 73
     0
 90
        0
 40
-0.6
 41
-30.0
 62
     5
 63
     7
 74
     2
 91
        2
 64
     7
 65
   257
 75
     1
175
     1
 42
40.0
 92
        8
 66
     7
 43
1.0
 76
     1
 77
     6
 78
     2
 67
     7
 79
     3
170
     0
171
     0
290
     0
174
     0
 93
        1
 44
0.0
173
     0
291
     0
 45
0.0
1001
ACAD
1000
AcDbSavedByObjectVersion
1070
     0
  0
VISUALSTYLE
  5
35
102
{ACAD_REACTORS
330
2A
102
}
330
2A
100
AcDbVisualStyle
  2
Dim
 70
    11
 71
     2
 72
     2
 73
     0
 90
        0
 40
-0.6
 41
-30.0
 62
     5
 63
     7
 74
     1
 91
        4
 64
     7
 65
   257
 75
     1
175
     1
 42
1.0
 92
        8
 66
     7
 43
1.0
 76
     1
 77
     6
 78
     2
 67
     7
 79
     5
170
     0
171
     0
290
     0
174
     0
 93
        1
 44
-50.0
173
     0
291
     1
 45
0.0
1001
ACAD
1000
AcDbSavedByObjectVersion
1070
     0
  0
VISUALSTYLE
  5
39
102
{ACAD_REACTORS
330
2A
102
}
330
2A
100
AcDbVisualStyle
  2
Facepattern
 70
    15
 71
     2
 72
     2
 73
     0
 90
        0
 40
-0.6
 41
-30.0
 62
     5
 63
     7
 74
     1
 91
        4
 64
     7
 65
   257
 75
     1
175
     1
 42
1.0
 92
        8
 66
     7
 43
1.0
 76
     1
 77
     6
 78
     2
 67
     7
 79
     5
170
     0
171
     0
290
     0
174
     0
 93
        1
 44
0.0
173
     0
291
     1
 45
0.0
1001
ACAD
1000
AcDbSavedByObjectVersion
1070
     0
  0
VISUALSTYLE
  5
2B
102
{ACAD_REACTORS
330
2A
102
}
330
2A
100
AcDbVisualStyle
  2
Flat
 70
     0
 71
     2
 72
     1
 73
     1
 90
        2
 40
-0.6
 41
30.0
 62
     5
 63
     7
 74
     0
 91
        4
 64
     7
 65
   257
 75
     1
175
     1
 42
1.0
 92
        8
 66
     7
 43
1.0
 76
     1
 77
     6
 78
     2
 67
     7
 79
     5
170
     0
171
     0
290
     0
174
     0
 93
       13
 44
0.0
173
     0
291
     1
 45
0.0
1001
ACAD
1000
AcDbSavedByObjectVersion
1070
     0
  0
VISUALSTYLE
  5
2C
102
{ACAD_REACTORS
330
2A
102
}
330
2A
100
AcDbVisualStyle
  2
FlatWithEdges
 70
     1
 71
     2
 72
     1
 73
     1
 90
        2
 40
-0.6
 41
30.0
 62
     5
 63
     7
 74
     1
 91
        4
 64
     7
 65
   257
 75
     1
175
     1
 42
1.0
 92
        0
 66
   257
 43
1.0
 76
     1
 77
     6
 78
     2
 67
     7
 79
     5
170
     0
171
     0
290
     0
174
     0
 93
       13
 44
0.0
173
     0
291
     1
 45
0.0
1001
ACAD
1000
AcDbSavedByObjectVersion
1070
     0
  0
VISUALSTYLE
  5
2D
102
{ACAD_REACTORS
330
2A
102
}
330
2A
100
AcDbVisualStyle
  2
Gouraud
 70
     2
 71
     2
 72
     2
 73
     1
 90
        2
 40
-0.6
 41
30.0
 62
     5
 63
     7
 74
     0
 91
        4
 64
     7
 65
   257
 75
     1
175
     1
 42
1.0
 92
        0
 66
     7
 43
1.0
 76
     1
 77
     6
 78
     2
 67
     7
 79
     5
170
     0
171
     0
290
     0
174
     0
 93
       13
 44
0.0
173
     0
291
     1
 45
0.0
1001
ACAD
1000
AcDbSavedByObjectVersion
1070
     0
  0
VISUALSTYLE
  5
2E
102
{ACAD_REACTORS
330
2A
102
}
330
2A
100
AcDbVisualStyle
  2
GouraudWithEdges
 70
     3
 71
     2
 72
     2
 73
     1
 90
        2
 40
-0.6
 41
30.0
 62
     5
 63
     7
 74
     1
 91
        4
 64
     7
 65
   257
 75
     1
175
     1
 42
1.0
 92
        0
 66
   257
 43
1.0
 76
     1
 77
     6
 78
     2
 67
     7
 79
     5
170
     0
171
     0
290
     0
174
     0
 93
       13
 44
0.0
173
     0
291
     1
 45
0.0
1001
ACAD
1000
AcDbSavedByObjectVersion
1070
     0
  0
VISUALSTYLE
  5
38
102
{ACAD_REACTORS
330
2A
102
}
330
2A
100
AcDbVisualStyle
  2
Linepattern
 70
    14
 71
     2
 72
     2
 73
     0
 90
        0
 40
-0.6
 41
-30.0
 62
     5
 63
     7
 74
     1
 91
        4
 64
     7
 65
   257
 75
     7
175
     7
 42
1.0
 92
        8
 66
     7
 43
1.0
 76
     1
 77
     6
 78
     2
 67
     7
 79
     5
170
     0
171
     0
290
     0
174
     0
 93
        1
 44
0.0
173
     0
291
     1
 45
0.0
1001
ACAD
1000
AcDbSavedByObjectVersion
1070
     0
  0
VISUALSTYLE
  5
33
102
{ACAD_REACTORS
330
2A
102
}
330
2A
100
AcDbVisualStyle
  2
Realistic
 70
     8
 71
     2
 72
     2
 73
     0
 90
        0
 40
-0.6
 41
-30.0
 62
     5
 63
     7
 74
     1
 91
        0
 64
     7
 65
   257
 75
     1
175
     1
 42
1.0
 92
        8
 66
     8
 43
1.0
 76
     1
 77
     6
 78
     2
 67
     7
 79
     5
170
     0
171
     0
290
     0
174
     0
 93
       13
 44
0.0
173
     0
291
     0
 45
0.0
1001
ACAD
1000
AcDbSavedByObjectVersion
1070
     0
  0
VISUALSTYLE
  5
37
102
{ACAD_REACTORS
330
2A
102
}
330
2A
100
AcDbVisualStyle
  2
Thicken
 70
    13
 71
     2
 72
     2
 73
     0
 90
        0
 40
-0.6
 41
-30.0
 62
     5
 63
     7
 74
     1
 91
        4
 64
     7
 65
   257
 75
     1
175
     1
 42
1.0
 92
       12
 66
     7
 43
1.0
 76
     1
 77
     6
 78
     2
 67
     7
 79
     5
170
     0
171
     0
290
     0
174
     0
 93
        1
 44
0.0
173
     0
291
     1
 45
0.0
1001
ACAD
1000
AcDbSavedByObjectVersion
1070
     0
  0
DICTIONARYVAR
  5
216
102
{ACAD_REACTORS
330
214
102
}
330
214
100
DictionaryVariables
280
     0
  1
80.000000
  0
DICTIONARYVAR
  5
215
102
{ACAD_REACTORS
330
214
102
}
330
214
100
DictionaryVariables
280
     0
  1
5.000000
  0
ENDSEC
  0
EOF
