  0
SECTION
  2
HEADER
  9
$ACADVER
  1
AC1015
  9
$ACADMAINTVER
 70
     6
  9
$DWGCODEPAGE
  3
ANSI_1252
  9
$INSBASE
 10
0.0
 20
0.0
 30
0.0
  9
$EXTMIN
 10
0.0
 20
0.0
 30
0.0
  9
$EXTMAX
 10
297.0
 20
210.0
 30
0.0
  9
$LIMMIN
 10
0.0
 20
0.0
  9
$LIMMAX
 10
297.0
 20
210.0
  9
$ORTHOMODE
 70
     0
  9
$REGENMODE
 70
     1
  9
$FILLMODE
 70
     1
  9
$QTEXTMODE
 70
     0
  9
$MIRRTEXT
 70
     1
  9
$LTSCALE
 40
1.0
  9
$ATTMODE
 70
     1
  9
$TEXTSIZE
 40
2.0
  9
$TRACEWID
 40
1.0
  9
$TEXTSTYLE
  7
Standard
  9
$CLAYER
  8
0
  9
$CELTYPE
  6
ByLayer
  9
$CECOLOR
 62
   256
  9
$CELTSCALE
 40
1.0
  9
$DISPSILH
 70
     0
  9
$DIMSCALE
 40
1.0
  9
$DIMASZ
 40
3.0
  9
$DIMEXO
 40
0.0
  9
$DIMDLI
 40
3.75
  9
$DIMRND
 40
0.0
  9
$DIMDLE
 40
0.0
  9
$DIMEXE
 40
1.0
  9
$DIMTP
 40
0.0
  9
$DIMTM
 40
0.0
  9
$DIMTXT
 40
2.0
  9
$DIMCEN
 40
2.5
  9
$DIMTSZ
 40
0.0
  9
$DIMTOL
 70
     0
  9
$DIMLIM
 70
     0
  9
$DIMTIH
 70
     1
  9
$DIMTOH
 70
     1
  9
$DIMSE1
 70
     0
  9
$DIMSE2
 70
     0
  9
$DIMTAD
 70
     1
  9
$DIMZIN
 70
     0
  9
$DIMBLK
  1

  9
$DIMASO
 70
     1
  9
$DIMSHO
 70
     1
  9
$DIMPOST
  1

  9
$DIMAPOST
  1

  9
$DIMALT
 70
     0
  9
$DIMALTD
 70
     3
  9
$DIMALTF
 40
0.0393700787
  9
$DIMLFAC
 40
1.0
  9
$DIMTOFL
 70
     1
  9
$DIMTVP
 40
0.0
  9
$DIMTIX
 70
     0
  9
$DIMSOXD
 70
     0
  9
$DIMSAH
 70
     0
  9
$DIMBLK1
  1

  9
$DIMBLK2
  1

  9
$DIMSTYLE
  2
ISO-25
  9
$DIMCLRD
 70
     0
  9
$DIMCLRE
 70
     0
  9
$DIMCLRT
 70
     0
  9
$DIMTFAC
 40
1.0
  9
$DIMGAP
 40
1.524
  9
$DIMJUST
 70
     0
  9
$DIMSD1
 70
     0
  9
$DIMSD2
 70
     0
  9
$DIMTOLJ
 70
     0
  9
$DIMTZIN
 70
     0
  9
$DIMALTZ
 70
     0
  9
$DIMALTTZ
 70
     0
  9
$DIMUPT
 70
     0
  9
$DIMDEC
 70
     2
  9
$DIMTDEC
 70
     3
  9
$DIMALTU
 70
     2
  9
$DIMALTTD
 70
     3
  9
$DIMTXSTY
  7
Standard
  9
$DIMAUNIT
 70
     0
  9
$DIMADEC
 70
     2
  9
$DIMALTRND
 40
0.0
  9
$DIMAZIN
 70
     0
  9
$DIMDSEP
 70
    44
  9
$DIMATFIT
 70
     3
  9
$DIMFRAC
 70
     0
  9
$DIMLDRBLK
  1

  9
$DIMLUNIT
 70
     2
  9
$DIMLWD
 70
    -2
  9
$DIMLWE
 70
    -2
  9
$DIMTMOVE
 70
     0
  9
$LUNITS
 70
     2
  9
$LUPREC
 70
     2
  9
$SKETCHINC
 40
1.0
  9
$FILLETRAD
 40
10.0
  9
$AUNITS
 70
     0
  9
$AUPREC
 70
     2
  9
$MENU
  1
.
  9
$ELEVATION
 40
0.0
  9
$PELEVATION
 40
0.0
  9
$THICKNESS
 40
0.0
  9
$LIMCHECK
 70
     0
  9
$CHAMFERA
 40
10.0
  9
$CHAMFERB
 40
10.0
  9
$CHAMFERC
 40
20.0
  9
$CHAMFERD
 40
0.0
  9
$SKPOLY
 70
     0
  9
$TDCREATE
 40
2455680.5719975
  9
$TDUCREATE
 40
2455680.488664167
  9
$TDUPDATE
 40
2455680.571997512
  9
$TDUUPDATE
 40
2455680.488664178
  9
$TDINDWG
 40
0.0000000116
  9
$TDUSRTIMER
 40
0.0000000116
  9
$USRTIMER
 70
     1
  9
$ANGBASE
 50
0.0
  9
$ANGDIR
 70
     0
  9
$PDMODE
 70
     0
  9
$PDSIZE
 40
-1.0
  9
$PLINEWID
 40
0.0
  9
$SPLFRAME
 70
     0
  9
$SPLINETYPE
 70
     6
  9
$SPLINESEGS
 70
     8
  9
$HANDSEED
  5
20C
  9
$SURFTAB1
 70
     6
  9
$SURFTAB2
 70
     6
  9
$SURFTYPE
 70
     6
  9
$SURFU
 70
     6
  9
$SURFV
 70
     6
  9
$UCSBASE
  2

  9
$UCSNAME
  2

  9
$UCSORG
 10
0.0
 20
0.0
 30
0.0
  9
$UCSXDIR
 10
1.0
 20
0.0
 30
0.0
  9
$UCSYDIR
 10
0.0
 20
1.0
 30
0.0
  9
$UCSORTHOREF
  2

  9
$UCSORTHOVIEW
 70
     0
  9
$UCSORGTOP
 10
0.0
 20
0.0
 30
0.0
  9
$UCSORGBOTTOM
 10
0.0
 20
0.0
 30
0.0
  9
$UCSORGLEFT
 10
0.0
 20
0.0
 30
0.0
  9
$UCSORGRIGHT
 10
0.0
 20
0.0
 30
0.0
  9
$UCSORGFRONT
 10
0.0
 20
0.0
 30
0.0
  9
$UCSORGBACK
 10
0.0
 20
0.0
 30
0.0
  9
$PUCSBASE
  2

  9
$PUCSNAME
  2

  9
$PUCSORG
 10
0.0
 20
0.0
 30
0.0
  9
$PUCSXDIR
 10
1.0
 20
0.0
 30
0.0
  9
$PUCSYDIR
 10
0.0
 20
1.0
 30
0.0
  9
$PUCSORTHOREF
  2

  9
$PUCSORTHOVIEW
 70
     0
  9
$PUCSORGTOP
 10
0.0
 20
0.0
 30
0.0
  9
$PUCSORGBOTTOM
 10
0.0
 20
0.0
 30
0.0
  9
$PUCSORGLEFT
 10
0.0
 20
0.0
 30
0.0
  9
$PUCSORGRIGHT
 10
0.0
 20
0.0
 30
0.0
  9
$PUCSORGFRONT
 10
0.0
 20
0.0
 30
0.0
  9
$PUCSORGBACK
 10
0.0
 20
0.0
 30
0.0
  9
$USERI1
 70
     0
  9
$USERI2
 70
     0
  9
$USERI3
 70
     0
  9
$USERI4
 70
     0
  9
$USERI5
 70
     0
  9
$USERR1
 40
0.0
  9
$USERR2
 40
0.0
  9
$USERR3
 40
0.0
  9
$USERR4
 40
0.0
  9
$USERR5
 40
0.0
  9
$WORLDVIEW
 70
     1
  9
$SHADEDGE
 70
     3
  9
$SHADEDIF
 70
    70
  9
$TILEMODE
 70
     1
  9
$MAXACTVP
 70
    64
  9
$PINSBASE
 10
0.0
 20
0.0
 30
0.0
  9
$PLIMCHECK
 70
     0
  9
$PEXTMIN
 10
1.0000000000E+20
 20
1.0000000000E+20
 30
1.0000000000E+20
  9
$PEXTMAX
 10
-1.0000000000E+20
 20
-1.0000000000E+20
 30
-1.0000000000E+20
  9
$PLIMMIN
 10
0.0
 20
0.0
  9
$PLIMMAX
 10
420.0
 20
297.0
  9
$UNITMODE
 70
     0
  9
$VISRETAIN
 70
     1
  9
$PLINEGEN
 70
     0
  9
$PSLTSCALE
 70
     1
  9
$TREEDEPTH
 70
  3020
  9
$CMLSTYLE
  2
Standard
  9
$CMLJUST
 70
     0
  9
$CMLSCALE
 40
20.0
  9
$PROXYGRAPHICS
 70
     1
  9
$MEASUREMENT
 70
     1
  9
$CELWEIGHT
370
    -1
  9
$ENDCAPS
280
     0
  9
$JOINSTYLE
280
     0
  9
$LWDISPLAY
290
     1
  9
$INSUNITS
 70
     4
  9
$HYPERLINKBASE
  1

  9
$STYLESHEET
  1

  9
$XEDIT
290
     1
  9
$CEPSNTYPE
380
     0
  9
$PSTYLEMODE
290
     1
  9
$FINGERPRINTGUID
  2
{799F9978-F0DE-4517-A917-E1D63C7D5572}
  9
$VERSIONGUID
  2
{FAEB1C32-E019-11D5-929B-00C0DF256EC4}
  9
$EXTNAMES
290
     1
  9
$PSVPSCALE
 40
0.0
  9
$OLESTARTUP
290
     0
  0
ENDSEC
  0
SECTION
  2
CLASSES
  0
CLASS
  1
ACDBDICTIONARYWDFLT
  2
AcDbDictionaryWithDefault
  3
ObjectDBX Classes
 90
        0
280
     0
281
     0
  0
CLASS
  1
VISUALSTYLE
  2
AcDbVisualStyle
  3
ObjectDBX Classes
 90
     4095
280
     0
281
     0
  0
CLASS
  1
DICTIONARYVAR
  2
AcDbDictionaryVar
  3
ObjectDBX Classes
 90
        0
280
     0
281
     0
  0
CLASS
  1
ACDBPLACEHOLDER
  2
AcDbPlaceHolder
  3
ObjectDBX Classes
 90
        0
280
     0
281
     0
  0
CLASS
  1
LAYOUT
  2
AcDbLayout
  3
ObjectDBX Classes
 90
        0
280
     0
281
     0
  0
ENDSEC
  0
SECTION
  2
TABLES
  0
TABLE
  2
VPORT
  5
8
330
0
100
AcDbSymbolTable
 70
     1
  0
VPORT
  5
29
330
8
100
AcDbSymbolTableRecord
100
AcDbViewportTableRecord
  2
*Active
 70
     0
 10
0.0
 20
0.0
 11
1.0
 21
1.0
 12
148.5
 22
105.0
 13
0.0
 23
0.0
 14
10.0
 24
10.0
 15
10.0
 25
10.0
 16
0.0
 26
0.0
 36
1.0
 17
0.0
 27
0.0
 37
0.0
 40
210.0
 41
1.4142857143
 42
50.0
 43
0.0
 44
0.0
 50
0.0
 51
0.0
 71
     0
 72
  2000
 73
     1
 74
     3
 75
     0
 76
     0
 77
     0
 78
     0
281
     0
 65
     1
110
0.0
120
0.0
130
0.0
111
1.0
121
0.0
131
0.0
112
0.0
122
1.0
132
0.0
 79
     0
146
0.0
  0
ENDTAB
  0
TABLE
  2
LTYPE
  5
5
330
0
100
AcDbSymbolTable
 70
     6
  0
LTYPE
  5
14
330
5
100
AcDbSymbolTableRecord
100
AcDbLinetypeTableRecord
  2
ByBlock
 70
     0
  3

 72
    65
 73
     0
 40
0.0
  0
LTYPE
  5
15
330
5
100
AcDbSymbolTableRecord
100
AcDbLinetypeTableRecord
  2
ByLayer
 70
     0
  3

 72
    65
 73
     0
 40
0.0
  0
LTYPE
  5
16
330
5
100
AcDbSymbolTableRecord
100
AcDbLinetypeTableRecord
  2
Continuous
 70
     0
  3
Solid line
 72
    65
 73
     0
 40
0.0
  0
LTYPE
  5
3B
330
5
100
AcDbSymbolTableRecord
100
AcDbLinetypeTableRecord
  2
HIDDEN
 70
     0
  3
Hidden __ __ __ __ __ __ __ __ __ __ __ __ __ __
 72
    65
 73
     2
 40
1.905
 49
1.27
 74
     0
 49
-0.635
 74
     0
  0
LTYPE
  5
3C
330
5
100
AcDbSymbolTableRecord
100
AcDbLinetypeTableRecord
  2
PHANTOM
 70
     0
  3
Phantom ______  __  __  ______  __  __  ______
 72
    65
 73
     6
 40
12.7
 49
6.35
 74
     0
 49
-1.27
 74
     0
 49
1.27
 74
     0
 49
-1.27
 74
     0
 49
1.27
 74
     0
 49
-1.27
 74
     0
  0
LTYPE
  5
3D
330
5
100
AcDbSymbolTableRecord
100
AcDbLinetypeTableRecord
  2
CENTER
 70
     0
  3
Center ____ _ ____ _ ____ _ ____ _ ____ _ ____
 72
    65
 73
     4
 40
10.16
 49
6.35
 74
     0
 49
-1.27
 74
     0
 49
1.27
 74
     0
 49
-1.27
 74
     0
  0
LTYPE
  5
3E
330
5
100
AcDbSymbolTableRecord
100
AcDbLinetypeTableRecord
  2
CENTERX2
 70
     0
  3
Center (2x) ________  __  ________  __  _____
 72
    65
 73
     4
 40
20.32
 49
12.7
 74
     0
 49
-2.54
 74
     0
 49
2.54
 74
     0
 49
-2.54
 74
     0
  0
LTYPE
  5
3F
330
5
100
AcDbSymbolTableRecord
100
AcDbLinetypeTableRecord
  2
DOT2
 70
     0
  3
Dot (.5x) ........................................
 72
    65
 73
     2
 40
0.635
 49
0.0
 74
     0
 49
-0.635
 74
     0
  0
ENDTAB
  0
TABLE
  2
LAYER
  5
2
330
0
100
AcDbSymbolTable
 70
     5
  0
LAYER
  5
10
330
2
100
AcDbSymbolTableRecord
100
AcDbLayerTableRecord
  2
0
 70
     0
 62
     7
  6
Continuous
370
    -3
390
F
  0
LAYER
  5
40
330
2
100
AcDbSymbolTableRecord
100
AcDbLayerTableRecord
  2
FORMAT
 70
     0
 62
     7
  6
Continuous
370
    -3
390
F
  0
LAYER
  5
41
330
2
100
AcDbSymbolTableRecord
100
AcDbLayerTableRecord
  2
VERMASSUNG
 70
     0
 62
     7
  6
Continuous
370
    -3
390
F
  0
LAYER
  5
42
330
2
100
AcDbSymbolTableRecord
100
AcDbLayerTableRecord
  2
KOPF_DÜNN
 70
     0
 62
     7
  6
Continuous
370
    -3
390
F
  0
LAYER
  5
43
330
2
100
AcDbSymbolTableRecord
100
AcDbLayerTableRecord
  2
KOPF_DICK
 70
     0
 62
     7
  6
Continuous
370
    15
390
F
  0
ENDTAB
  0
TABLE
  2
STYLE
  5
3
330
0
100
AcDbSymbolTable
 70
     3
  0
STYLE
  5
11
330
3
100
AcDbSymbolTableRecord
100
AcDbTextStyleTableRecord
  2
Standard
 70
     0
 40
0.0
 41
1.0
 50
0.0
 71
     0
 42
2.5
  3
txt
  4

  0
STYLE
  5
44
330
3
100
AcDbSymbolTableRecord
100
AcDbTextStyleTableRecord
  2
SLDTEXTSTYLE0
 70
     0
 40
0.0
 41
0.7
 50
0.0
 71
     0
 42
0.2
  3
TXT
  4

  0
STYLE
  5
48
330
3
100
AcDbSymbolTableRecord
100
AcDbTextStyleTableRecord
  2
SLDTEXTSTYLE1
 70
     0
 40
0.0
 41
0.65
 50
0.0
 71
     0
 42
0.2
  3
TXT
  4

  0
ENDTAB
  0
TABLE
  2
VIEW
  5
6
330
0
100
AcDbSymbolTable
 70
     0
  0
ENDTAB
  0
TABLE
  2
UCS
  5
7
330
0
100
AcDbSymbolTable
 70
     0
  0
ENDTAB
  0
TABLE
  2
APPID
  5
9
330
0
100
AcDbSymbolTable
 70
     1
  0
APPID
  5
12
330
9
100
AcDbSymbolTableRecord
100
AcDbRegAppTableRecord
  2
ACAD
 70
     0
  0
ENDTAB
  0
TABLE
  2
DIMSTYLE
  5
A
330
0
100
AcDbSymbolTable
 70
     5
100
AcDbDimStyleTable
  0
DIMSTYLE
105
27
330
A
100
AcDbSymbolTableRecord
100
AcDbDimStyleTableRecord
  2
ISO-25
 70
     0
 41
2.5
 42
0.625
 43
3.75
 44
1.25
 73
     0
 74
     0
 77
     1
 78
     8
140
2.5
141
2.5
143
0.0393700787
147
0.625
171
     3
172
     1
271
     2
272
     2
274
     3
278
    44
283
     0
284
     8
340
11
  0
DIMSTYLE
105
1AD
102
{ACAD_REACTORS
330
1AC
330
1DC
330
1E6
330
1F0
330
1FA
102
}
330
A
100
AcDbSymbolTableRecord
100
AcDbDimStyleTableRecord
  2
SLDDIMSTYLE0
 70
     0
 41
3.0
 44
0.0
 45
0.000000001
 73
     0
 74
     0
 77
     1
 78
    12
140
2.0
147
0.5
173
     1
271
     2
272
     3
284
    12
340
44
  0
DIMSTYLE
105
1BA
102
{ACAD_REACTORS
330
1B9
102
}
330
A
100
AcDbSymbolTableRecord
100
AcDbDimStyleTableRecord
  2
SLDDIMSTYLE1
 70
     0
 41
3.0
 44
0.0
 45
0.000000001
 73
     0
 74
     0
 77
     1
 78
    12
140
2.0
147
0.5
173
     1
271
     2
272
     2
284
    12
340
44
  0
DIMSTYLE
105
1C5
102
{ACAD_REACTORS
330
1C4
102
}
330
A
100
AcDbSymbolTableRecord
100
AcDbDimStyleTableRecord
  2
SLDDIMSTYLE2
 70
     0
 41
3.0
 44
0.0
 45
0.000000001
 73
     0
 74
     0
 77
     1
 78
    12
140
2.0
147
0.5
173
     1
271
     2
272
     2
284
    12
340
44
  0
DIMSTYLE
105
1D1
102
{ACAD_REACTORS
330
1D0
102
}
330
A
100
AcDbSymbolTableRecord
100
AcDbDimStyleTableRecord
  2
SLDDIMSTYLE3
 70
     0
 41
3.0
 44
0.0
 45
0.000000001
 73
     0
 74
     0
 77
     1
 78
    12
140
2.0
147
0.5
173
     1
271
     2
272
     3
284
    12
340
44
  0
ENDTAB
  0
TABLE
  2
BLOCK_RECORD
  5
1
330
0
100
AcDbSymbolTable
 70
     9
  0
BLOCK_RECORD
  5
1F
330
1
100
AcDbSymbolTableRecord
100
AcDbBlockTableRecord
  2
*Model_Space
340
22
  0
BLOCK_RECORD
  5
1B
330
1
100
AcDbSymbolTableRecord
100
AcDbBlockTableRecord
  2
*Paper_Space
340
1E
  0
BLOCK_RECORD
  5
23
330
1
100
AcDbSymbolTableRecord
100
AcDbBlockTableRecord
  2
*Paper_Space0
340
26
  0
BLOCK_RECORD
  5
1AE
330
1
100
AcDbSymbolTableRecord
100
AcDbBlockTableRecord
  2
*D1
340
0
  0
BLOCK_RECORD
  5
1BB
330
1
100
AcDbSymbolTableRecord
100
AcDbBlockTableRecord
  2
*D2
340
0
  0
BLOCK_RECORD
  5
1C6
330
1
100
AcDbSymbolTableRecord
100
AcDbBlockTableRecord
  2
*D3
340
0
  0
BLOCK_RECORD
  5
1D2
330
1
100
AcDbSymbolTableRecord
100
AcDbBlockTableRecord
  2
*D4
340
0
  0
BLOCK_RECORD
  5
1DD
330
1
100
AcDbSymbolTableRecord
100
AcDbBlockTableRecord
  2
*D5
340
0
  0
BLOCK_RECORD
  5
1E7
330
1
100
AcDbSymbolTableRecord
100
AcDbBlockTableRecord
  2
*D6
340
0
  0
BLOCK_RECORD
  5
1F1
330
1
100
AcDbSymbolTableRecord
100
AcDbBlockTableRecord
  2
*D7
340
0
  0
BLOCK_RECORD
  5
1FB
330
1
100
AcDbSymbolTableRecord
100
AcDbBlockTableRecord
  2
*D8
340
0
  0
ENDTAB
  0
ENDSEC
  0
SECTION
  2
BLOCKS
  0
BLOCK
  5
20
330
1F
100
AcDbEntity
  8
0
100
AcDbBlockBegin
  2
*Model_Space
 70
     0
 10
0.0
 20
0.0
 30
0.0
  3
*Model_Space
  1

  0
ENDBLK
  5
21
330
1F
100
AcDbEntity
  8
0
100
AcDbBlockEnd
  0
BLOCK
  5
1C
330
1B
100
AcDbEntity
 67
     1
  8
0
100
AcDbBlockBegin
  2
*Paper_Space
 70
     0
 10
0.0
 20
0.0
 30
0.0
  3
*Paper_Space
  1

  0
ENDBLK
  5
1D
330
1B
100
AcDbEntity
 67
     1
  8
0
100
AcDbBlockEnd
  0
BLOCK
  5
24
330
23
100
AcDbEntity
  8
0
100
AcDbBlockBegin
  2
*Paper_Space0
 70
     0
 10
0.0
 20
0.0
 30
0.0
  3
*Paper_Space0
  1

  0
ENDBLK
  5
25
330
23
100
AcDbEntity
  8
0
100
AcDbBlockEnd
  0
BLOCK
  5
1AF
330
1AE
100
AcDbEntity
  8
0
100
AcDbBlockBegin
  2
*D1
 70
     1
 10
0.0
 20
0.0
 30
0.0
  3
*D1
  1

  0
SOLID
  5
1B1
330
1AE
100
AcDbEntity
  8
VERMASSUNG
100
AcDbTrace
 10
51.9591549296
 20
160.22156013
 30
0.0
 11
51.5091549296
 21
157.22156013
 31
0.0
 12
52.4091549296
 22
157.22156013
 32
0.0
 13
52.4091549296
 23
157.22156013
 33
0.0
  0
SOLID
  5
1B2
330
1AE
100
AcDbEntity
  8
VERMASSUNG
100
AcDbTrace
 10
51.9591549296
 20
60.22156013
 30
0.0
 11
52.4091549296
 21
63.22156013
 31
0.0
 12
51.5091549296
 22
63.22156013
 32
0.0
 13
51.5091549296
 23
63.22156013
 33
0.0
  0
LINE
  5
1B3
330
1AE
100
AcDbEntity
  8
VERMASSUNG
100
AcDbLine
 10
108.7882204812
 20
160.22156013
 30
0.0
 11
50.9591549296
 21
160.22156013
 31
0.0
  0
LINE
  5
1B4
330
1AE
100
AcDbEntity
  8
VERMASSUNG
100
AcDbLine
 10
108.7882204812
 20
60.22156013
 30
0.0
 11
50.9591549296
 21
60.22156013
 31
0.0
  0
LINE
  5
1B5
330
1AE
100
AcDbEntity
  8
VERMASSUNG
100
AcDbLine
 10
51.9591549296
 20
160.22156013
 30
0.0
 11
51.9591549296
 21
60.22156013
 31
0.0
  0
MTEXT
  5
1B6
330
1AE
100
AcDbEntity
  8
VERMASSUNG
100
AcDbMText
 10
49.1810194405
 20
102.0179089924
 30
0.0
 40
2.0
 41
0.0
 71
     1
 72
     1
  1
HSK A 
  7
SLDTEXTSTYLE0
 11
-7.044195017643634E-15
 21
1.0
 31
0.0
 73
     1
 44
1.0
  0
MTEXT
  5
1B7
330
1AE
100
AcDbEntity
  8
VERMASSUNG
100
AcDbMText
 10
49.38101945
 20
111.0179095363
 30
0.0
 40
2.0
 41
0.0
 71
     1
 72
     1
  1
%%c
  7
SLDTEXTSTYLE0
 11
-7.044195017643634E-15
 21
1.0
 31
0.0
 73
     1
 44
1.0
  0
MTEXT
  5
1B8
330
1AE
100
AcDbEntity
  8
VERMASSUNG
100
AcDbMText
 10
49.3810195664
 20
114.6262361863
 30
0.0
 40
2.0
 41
0.0
 71
     1
 72
     1
  1
100
  7
SLDTEXTSTYLE0
 11
-7.044195017643634E-15
 21
1.0
 31
0.0
 73
     1
 44
1.0
  0
ENDBLK
  5
1B0
330
1AE
100
AcDbEntity
  8
0
100
AcDbBlockEnd
  0
BLOCK
  5
1BC
330
1BB
100
AcDbEntity
  8
0
100
AcDbBlockBegin
  2
*D2
 70
     1
 10
0.0
 20
0.0
 30
0.0
  3
*D2
  1

  0
SOLID
  5
1BE
330
1BB
100
AcDbEntity
  8
VERMASSUNG
100
AcDbTrace
 10
196.7882204812
 20
161.2768147346
 30
0.0
 11
199.7882204812
 21
160.8268147346
 31
0.0
 12
199.7882204812
 22
161.7268147346
 32
0.0
 13
199.7882204812
 23
161.7268147346
 33
0.0
  0
SOLID
  5
1BF
330
1BB
100
AcDbEntity
  8
VERMASSUNG
100
AcDbTrace
 10
238.2882204812
 20
161.2768147346
 30
0.0
 11
235.2882204812
 21
161.7268147346
 31
0.0
 12
235.2882204812
 22
160.8268147346
 32
0.0
 13
235.2882204812
 23
160.8268147346
 33
0.0
  0
LINE
  5
1C0
330
1BB
100
AcDbEntity
  8
VERMASSUNG
100
AcDbLine
 10
196.7882204812
 20
115.12156013
 30
0.0
 11
196.7882204812
 21
162.2768147346
 31
0.0
  0
LINE
  5
1C1
330
1BB
100
AcDbEntity
  8
VERMASSUNG
100
AcDbLine
 10
238.2882204812
 20
120.3727791467
 30
0.0
 11
238.2882204812
 21
162.2768147346
 31
0.0
  0
LINE
  5
1C2
330
1BB
100
AcDbEntity
  8
VERMASSUNG
100
AcDbLine
 10
196.7882204812
 20
161.2768147346
 30
0.0
 11
238.2882204812
 21
161.2768147346
 31
0.0
  0
MTEXT
  5
1C3
330
1BB
100
AcDbEntity
  8
VERMASSUNG
100
AcDbMText
 10
215.2384133306
 20
163.8549500977
 30
0.0
 40
2.0
 41
0.0
 71
     1
 72
     1
  1
41.5
  7
SLDTEXTSTYLE0
 73
     1
 44
1.0
  0
ENDBLK
  5
1BD
330
1BB
100
AcDbEntity
  8
0
100
AcDbBlockEnd
  0
BLOCK
  5
1C7
330
1C6
100
AcDbEntity
  8
0
100
AcDbBlockBegin
  2
*D3
 70
     1
 10
0.0
 20
0.0
 30
0.0
  3
*D3
  1

  0
SOLID
  5
1C9
330
1C6
100
AcDbEntity
  8
VERMASSUNG
100
AcDbTrace
 10
245.2729144095
 20
105.22156013
 30
0.0
 11
245.7229144095
 21
108.22156013
 31
0.0
 12
244.8229144095
 22
108.22156013
 32
0.0
 13
244.8229144095
 23
108.22156013
 33
0.0
  0
SOLID
  5
1CA
330
1C6
100
AcDbEntity
  8
VERMASSUNG
100
AcDbTrace
 10
245.2729144095
 20
115.22156013
 30
0.0
 11
244.8229144095
 21
112.22156013
 31
0.0
 12
245.7229144095
 22
112.22156013
 32
0.0
 13
245.7229144095
 23
112.22156013
 33
0.0
  0
LINE
  5
1CB
330
1C6
100
AcDbEntity
  8
VERMASSUNG
100
AcDbLine
 10
234.7882204812
 20
105.22156013
 30
0.0
 11
246.2729144095
 21
105.22156013
 31
0.0
  0
LINE
  5
1CC
330
1C6
100
AcDbEntity
  8
VERMASSUNG
100
AcDbLine
 10
234.7882204812
 20
115.22156013
 30
0.0
 11
246.2729144095
 21
115.22156013
 31
0.0
  0
LINE
  5
1CD
330
1C6
100
AcDbEntity
  8
VERMASSUNG
100
AcDbLine
 10
245.2729144095
 20
105.22156013
 30
0.0
 11
245.2729144095
 21
115.22156013
 31
0.0
  0
MTEXT
  5
1CE
330
1C6
100
AcDbEntity
  8
VERMASSUNG
100
AcDbMText
 10
242.69477893
 20
107.2174225352
 30
0.0
 40
2.0
 41
0.0
 71
     1
 72
     1
  1
%%c
  7
SLDTEXTSTYLE0
 11
6.123233995736766E-17
 21
1.0
 31
0.0
 73
     1
 44
1.0
  0
MTEXT
  5
1CF
330
1C6
100
AcDbEntity
  8
VERMASSUNG
100
AcDbMText
 10
242.6947790464
 20
110.8261007584
 30
0.0
 40
2.0
 41
0.0
 71
     1
 72
     1
  1
10
  7
SLDTEXTSTYLE0
 11
6.123233995736766E-17
 21
1.0
 31
0.0
 73
     1
 44
1.0
  0
ENDBLK
  5
1C8
330
1C6
100
AcDbEntity
  8
0
100
AcDbBlockEnd
  0
BLOCK
  5
1D3
330
1D2
100
AcDbEntity
  8
0
100
AcDbBlockBegin
  2
*D4
 70
     1
 10
0.0
 20
0.0
 30
0.0
  3
*D4
  1

  0
SOLID
  5
1D5
330
1D2
100
AcDbEntity
  8
VERMASSUNG
100
AcDbTrace
 10
251.2729144095
 20
98.22156013
 30
0.0
 11
251.7229144095
 21
101.22156013
 31
0.0
 12
250.8229144095
 22
101.22156013
 32
0.0
 13
250.8229144095
 23
101.22156013
 33
0.0
  0
SOLID
  5
1D6
330
1D2
100
AcDbEntity
  8
VERMASSUNG
100
AcDbTrace
 10
251.2729144095
 20
122.22156013
 30
0.0
 11
250.8229144095
 21
119.22156013
 31
0.0
 12
251.7229144095
 22
119.22156013
 32
0.0
 13
251.7229144095
 23
119.22156013
 33
0.0
  0
LINE
  5
1D7
330
1D2
100
AcDbEntity
  8
VERMASSUNG
100
AcDbLine
 10
238.2882204812
 20
98.22156013
 30
0.0
 11
252.2729144095
 21
98.22156013
 31
0.0
  0
LINE
  5
1D8
330
1D2
100
AcDbEntity
  8
VERMASSUNG
100
AcDbLine
 10
238.2882204812
 20
122.22156013
 30
0.0
 11
252.2729144095
 21
122.22156013
 31
0.0
  0
LINE
  5
1D9
330
1D2
100
AcDbEntity
  8
VERMASSUNG
100
AcDbLine
 10
251.2729144095
 20
98.22156013
 30
0.0
 11
251.2729144095
 21
122.22156013
 31
0.0
  0
MTEXT
  5
1DA
330
1D2
100
AcDbEntity
  8
VERMASSUNG
100
AcDbMText
 10
248.69477893
 20
106.9180530878
 30
0.0
 40
2.0
 41
0.0
 71
     1
 72
     1
  1
%%c
  7
SLDTEXTSTYLE0
 11
6.123233995736766E-17
 21
1.0
 31
0.0
 73
     1
 44
1.0
  0
MTEXT
  5
1DB
330
1D2
100
AcDbEntity
  8
VERMASSUNG
100
AcDbMText
 10
248.6947790464
 20
110.5267313109
 30
0.0
 40
2.0
 41
0.0
 71
     1
 72
     1
  1
24
  7
SLDTEXTSTYLE0
 11
6.123233995736766E-17
 21
1.0
 31
0.0
 73
     1
 44
1.0
  0
ENDBLK
  5
1D4
330
1D2
100
AcDbEntity
  8
0
100
AcDbBlockEnd
  0
BLOCK
  5
1DE
330
1DD
100
AcDbEntity
  8
0
100
AcDbBlockBegin
  2
*D5
 70
     1
 10
0.0
 20
0.0
 30
0.0
  3
*D5
  1

  0
SOLID
  5
1E0
330
1DD
100
AcDbEntity
  8
VERMASSUNG
100
AcDbTrace
 10
108.2882204812
 20
173.2768147346
 30
0.0
 11
111.2882204812
 21
172.8268147346
 31
0.0
 12
111.2882204812
 22
173.7268147346
 32
0.0
 13
111.2882204812
 23
173.7268147346
 33
0.0
  0
SOLID
  5
1E1
330
1DD
100
AcDbEntity
  8
VERMASSUNG
100
AcDbTrace
 10
238.2882204812
 20
173.2768147346
 30
0.0
 11
235.2882204812
 21
173.7268147346
 31
0.0
 12
235.2882204812
 22
172.8268147346
 32
0.0
 13
235.2882204812
 23
172.8268147346
 33
0.0
  0
LINE
  5
1E2
330
1DD
100
AcDbEntity
  8
VERMASSUNG
100
AcDbLine
 10
108.2882204812
 20
159.72156013
 30
0.0
 11
108.2882204812
 21
174.2768147346
 31
0.0
  0
LINE
  5
1E3
330
1DD
100
AcDbEntity
  8
VERMASSUNG
100
AcDbLine
 10
238.2882204812
 20
120.3727791467
 30
0.0
 11
238.2882204812
 21
174.2768147346
 31
0.0
  0
LINE
  5
1E4
330
1DD
100
AcDbEntity
  8
VERMASSUNG
100
AcDbLine
 10
108.2882204812
 20
173.2768147346
 30
0.0
 11
238.2882204812
 21
173.2768147346
 31
0.0
  0
MTEXT
  5
1E5
330
1DD
100
AcDbEntity
  8
VERMASSUNG
100
AcDbMText
 10
171.3887329406
 20
175.8549500977
 30
0.0
 40
2.0
 41
0.0
 71
     1
 72
     1
  1
130
  7
SLDTEXTSTYLE0
 73
     1
 44
1.0
  0
ENDBLK
  5
1DF
330
1DD
100
AcDbEntity
  8
0
100
AcDbBlockEnd
  0
BLOCK
  5
1E8
330
1E7
100
AcDbEntity
  8
0
100
AcDbBlockBegin
  2
*D6
 70
     1
 10
0.0
 20
0.0
 30
0.0
  3
*D6
  1

  0
SOLID
  5
1EA
330
1E7
100
AcDbEntity
  8
VERMASSUNG
100
AcDbTrace
 10
137.2382204812
 20
167.2768147346
 30
0.0
 11
140.2382204812
 21
166.8268147346
 31
0.0
 12
140.2382204812
 22
167.7268147346
 32
0.0
 13
140.2382204812
 23
167.7268147346
 33
0.0
  0
SOLID
  5
1EB
330
1E7
100
AcDbEntity
  8
VERMASSUNG
100
AcDbTrace
 10
238.2882204812
 20
167.2768147346
 30
0.0
 11
235.2882204812
 21
167.7268147346
 31
0.0
 12
235.2882204812
 22
166.8268147346
 32
0.0
 13
235.2882204812
 23
166.8268147346
 33
0.0
  0
LINE
  5
1EC
330
1E7
100
AcDbEntity
  8
VERMASSUNG
100
AcDbLine
 10
137.2382204812
 20
158.1902999509
 30
0.0
 11
137.2382204812
 21
168.2768147346
 31
0.0
  0
LINE
  5
1ED
330
1E7
100
AcDbEntity
  8
VERMASSUNG
100
AcDbLine
 10
238.2882204812
 20
120.3727791467
 30
0.0
 11
238.2882204812
 21
168.2768147346
 31
0.0
  0
LINE
  5
1EE
330
1E7
100
AcDbEntity
  8
VERMASSUNG
100
AcDbLine
 10
137.2382204812
 20
167.2768147346
 30
0.0
 11
238.2882204812
 21
167.2768147346
 31
0.0
  0
MTEXT
  5
1EF
330
1E7
100
AcDbEntity
  8
VERMASSUNG
100
AcDbMText
 10
184.3634046632
 20
169.8549500977
 30
0.0
 40
2.0
 41
0.0
 71
     1
 72
     1
  1
101.05
  7
SLDTEXTSTYLE0
 73
     1
 44
1.0
  0
ENDBLK
  5
1E9
330
1E7
100
AcDbEntity
  8
0
100
AcDbBlockEnd
  0
BLOCK
  5
1F2
330
1F1
100
AcDbEntity
  8
0
100
AcDbBlockBegin
  2
*D7
 70
     1
 10
0.0
 20
0.0
 30
0.0
  3
*D7
  1

  0
SOLID
  5
1F4
330
1F1
100
AcDbEntity
  8
VERMASSUNG
100
AcDbTrace
 10
58.3882204812
 20
179.2768147346
 30
0.0
 11
61.3882204812
 21
178.8268147346
 31
0.0
 12
61.3882204812
 22
179.7268147346
 32
0.0
 13
61.3882204812
 23
179.7268147346
 33
0.0
  0
SOLID
  5
1F5
330
1F1
100
AcDbEntity
  8
VERMASSUNG
100
AcDbTrace
 10
238.2882204812
 20
179.2768147346
 30
0.0
 11
235.2882204812
 21
179.7268147346
 31
0.0
 12
235.2882204812
 22
178.8268147346
 32
0.0
 13
235.2882204812
 23
178.8268147346
 33
0.0
  0
LINE
  5
1F6
330
1F1
100
AcDbEntity
  8
VERMASSUNG
100
AcDbLine
 10
58.3882204812
 20
140.7242298726
 30
0.0
 11
58.3882204812
 21
180.2768147346
 31
0.0
  0
LINE
  5
1F7
330
1F1
100
AcDbEntity
  8
VERMASSUNG
100
AcDbLine
 10
238.2882204812
 20
120.3727791467
 30
0.0
 11
238.2882204812
 21
180.2768147346
 31
0.0
  0
LINE
  5
1F8
330
1F1
100
AcDbEntity
  8
VERMASSUNG
100
AcDbLine
 10
58.3882204812
 20
179.2768147346
 30
0.0
 11
238.2882204812
 21
179.2768147346
 31
0.0
  0
MTEXT
  5
1F9
330
1F1
100
AcDbEntity
  8
VERMASSUNG
100
AcDbMText
 10
145.438514089
 20
181.8549500977
 30
0.0
 40
2.0
 41
0.0
 71
     1
 72
     1
  1
179.9
  7
SLDTEXTSTYLE0
 73
     1
 44
1.0
  0
ENDBLK
  5
1F3
330
1F1
100
AcDbEntity
  8
0
100
AcDbBlockEnd
  0
BLOCK
  5
1FC
330
1FB
100
AcDbEntity
  8
0
100
AcDbBlockBegin
  2
*D8
 70
     1
 10
0.0
 20
0.0
 30
0.0
  3
*D8
  1

  0
SOLID
  5
1FE
330
1FB
100
AcDbEntity
  8
VERMASSUNG
100
AcDbTrace
 10
257.2729144095
 20
127.22156013
 30
0.0
 11
256.8229144095
 21
124.22156013
 31
0.0
 12
257.7229144095
 22
124.22156013
 32
0.0
 13
257.7229144095
 23
124.22156013
 33
0.0
  0
SOLID
  5
1FF
330
1FB
100
AcDbEntity
  8
VERMASSUNG
100
AcDbTrace
 10
257.2729144095
 20
93.22156013
 30
0.0
 11
257.7229144095
 21
96.22156013
 31
0.0
 12
256.8229144095
 22
96.22156013
 32
0.0
 13
256.8229144095
 23
96.22156013
 33
0.0
  0
LINE
  5
200
330
1FB
100
AcDbEntity
  8
VERMASSUNG
100
AcDbLine
 10
159.2382204812
 20
127.22156013
 30
0.0
 11
258.2729144095
 21
127.22156013
 31
0.0
  0
LINE
  5
201
330
1FB
100
AcDbEntity
  8
VERMASSUNG
100
AcDbLine
 10
159.2382204812
 20
93.22156013
 30
0.0
 11
258.2729144095
 21
93.22156013
 31
0.0
  0
LINE
  5
202
330
1FB
100
AcDbEntity
  8
VERMASSUNG
100
AcDbLine
 10
257.2729144095
 20
127.22156013
 30
0.0
 11
257.2729144095
 21
93.22156013
 31
0.0
  0
MTEXT
  5
203
330
1FB
100
AcDbEntity
  8
VERMASSUNG
100
AcDbMText
 10
254.69477893
 20
106.9180530878
 30
0.0
 40
2.0
 41
0.0
 71
     1
 72
     1
  1
%%c
  7
SLDTEXTSTYLE0
 11
-7.044195017643634E-15
 21
1.0
 31
0.0
 73
     1
 44
1.0
  0
MTEXT
  5
204
330
1FB
100
AcDbEntity
  8
VERMASSUNG
100
AcDbMText
 10
254.6947790464
 20
110.5267313109
 30
0.0
 40
2.0
 41
0.0
 71
     1
 72
     1
  1
34
  7
SLDTEXTSTYLE0
 11
-7.044195017643634E-15
 21
1.0
 31
0.0
 73
     1
 44
1.0
  0
ENDBLK
  5
1FD
330
1FB
100
AcDbEntity
  8
0
100
AcDbBlockEnd
  0
ENDSEC
  0
SECTION
  2
ENTITIES
  0
MTEXT
  5
45
330
1F
100
AcDbEntity
  8
KOPF_DÜNN
100
AcDbMText
 10
13.8892156294
 20
23.8442973028
 30
0.0
 40
3.0
 41
0.0
 71
     1
 72
     1
  1
HA0.S10.K21.130
  7
SLDTEXTSTYLE0
 73
     1
 44
1.0
  0
MTEXT
  5
46
330
1F
100
AcDbEntity
  8
VERMASSUNG
100
AcDbMText
 10
13.9329988022
 20
28.8834360957
 30
0.0
 40
3.0
 41
0.0
 71
     1
 72
     1
  1
Schrumpffutter_Heat shrink chuck
  7
SLDTEXTSTYLE0
 73
     1
 44
1.0
  0
MTEXT
  5
47
330
1F
100
AcDbEntity
  8
VERMASSUNG
100
AcDbMText
 10
98.8601118557
 20
13.8365368179
 30
0.0
 40
2.0
 41
0.0
 71
     1
 72
     1
  1
Datum: 28.04.2011
  7
SLDTEXTSTYLE0
 73
     1
 44
1.0
  0
MTEXT
  5
49
330
1F
100
AcDbEntity
  8
VERMASSUNG
100
AcDbMText
 10
13.933048693
 20
18.0482802738
 30
0.0
 40
2.0
 41
0.0
 71
     1
 72
     1
  1
DIN 69 893 HSK A 100
  7
SLDTEXTSTYLE1
 73
     1
 44
1.0
  0
MTEXT
  5
4A
330
1F
100
AcDbEntity
  8
VERMASSUNG
100
AcDbMText
 10
13.9808475933
 20
13.9090973692
 30
0.0
 40
2.0
 41
0.0
 71
     1
 72
     1
  1
Gewicht: 2524g
  7
SLDTEXTSTYLE0
 73
     1
 44
1.0
  0
LINE
  5
4B
330
1F
100
AcDbEntity
  8
0
  6
Continuous
 62
     7
370
    15
100
AcDbLine
 10
238.2882204812
 20
100.8571918697
 30
0.0
 11
238.3655426883
 21
101.0041572121
 31
0.0
  0
LINE
  5
4C
330
1F
100
AcDbEntity
  8
0
  6
Continuous
 62
     7
370
    15
100
AcDbLine
 10
238.3066529647
 20
119.4412768315
 30
0.0
 11
238.2882204812
 21
119.47631122
 31
0.0
  0
ARC
  5
4D
330
1F
100
AcDbEntity
  8
0
  6
Continuous
 62
     7
370
    15
100
AcDbCircle
 10
108.7882204812
 20
60.72156013
 30
0.0
 40
0.5
100
AcDbArc
 50
180.0
 51
270.0
  0
ARC
  5
4E
330
1F
100
AcDbEntity
  8
0
  6
Continuous
 62
     7
370
    15
100
AcDbCircle
 10
108.7882204812
 20
159.72156013
 30
0.0
 40
0.5
100
AcDbArc
 50
90.0
 51
180.0
  0
LINE
  5
4F
330
1F
100
AcDbEntity
  8
0
  6
Continuous
 62
     7
370
    15
100
AcDbLine
 10
108.7882204812
 20
60.22156013
 30
0.0
 11
113.2382204812
 21
60.22156013
 31
0.0
  0
LINE
  5
50
330
1F
100
AcDbEntity
  8
0
  6
Continuous
 62
     7
370
    15
100
AcDbLine
 10
113.2722933137
 20
160.22156013
 30
0.0
 11
108.7882204812
 21
160.22156013
 31
0.0
  0
ARC
  5
51
330
1F
100
AcDbEntity
  8
0
  6
Continuous
 62
     7
370
    15
100
AcDbCircle
 10
107.3912835628
 20
71.5930748056
 30
0.0
 40
0.9962338214386983
100
AcDbArc
 50
25.7988228126
 51
90.0
  0
ARC
  5
52
330
1F
100
AcDbEntity
  8
0
  6
Continuous
 62
     7
370
    15
100
AcDbCircle
 10
107.3912835628
 20
148.8500454545
 30
0.0
 40
0.9962338214387044
100
AcDbArc
 50
270.0
 51
334.2011771874
  0
LINE
  5
53
330
1F
100
AcDbEntity
  8
0
  6
Continuous
 62
     7
370
    15
100
AcDbLine
 10
105.7882204812
 20
72.339308627
 30
0.0
 11
106.5940666356
 21
72.5552344533
 31
0.0
  0
LINE
  5
54
330
1F
100
AcDbEntity
  8
0
  6
Continuous
 62
     7
370
    15
100
AcDbLine
 10
106.5940666356
 20
147.8878858067
 30
0.0
 11
105.7882204812
 21
148.103811633
 31
0.0
  0
LINE
  5
55
330
1F
100
AcDbEntity
  8
0
  6
Continuous
 62
     7
370
    15
100
AcDbLine
 10
86.8075415626
 20
147.1528758154
 30
0.0
 11
68.4882204812
 21
146.2350741581
 31
0.0
  0
LINE
  5
56
330
1F
100
AcDbEntity
  8
0
  6
Continuous
 62
     7
370
    15
100
AcDbLine
 10
105.7882204812
 20
148.103811633
 30
0.0
 11
99.7201813267
 21
147.7998016553
 31
0.0
  0
LINE
  5
57
330
1F
100
AcDbEntity
  8
0
  6
Continuous
 62
     7
370
    15
100
AcDbLine
 10
99.7203046032
 20
72.6433124285
 30
0.0
 11
105.7882204812
 21
72.339308627
 31
0.0
  0
LINE
  5
58
330
1F
100
AcDbEntity
  8
0
  6
Continuous
 62
     7
370
    15
100
AcDbLine
 10
73.4882204812
 20
73.9575451
 30
0.0
 11
86.8081716351
 21
73.2902128778
 31
0.0
  0
ARC
  5
59
330
1F
100
AcDbEntity
  8
0
  6
Continuous
 62
     7
370
    15
100
AcDbCircle
 10
106.8528856807
 20
71.589308627
 30
0.0
 40
1.0
100
AcDbArc
 50
90.0
 51
105.0
  0
ARC
  5
5A
330
1F
100
AcDbEntity
  8
0
  6
Continuous
 62
     7
370
    15
100
AcDbCircle
 10
106.8528856807
 20
148.853811633
 30
0.0
 40
1.000000000000023
100
AcDbArc
 50
255.0
 51
270.0
  0
LINE
  5
5B
330
1F
100
AcDbEntity
  8
0
  6
Continuous
 62
     7
370
    15
100
AcDbLine
 10
106.8528856807
 20
72.589308627
 30
0.0
 11
107.3912835628
 21
72.589308627
 31
0.0
  0
LINE
  5
5C
330
1F
100
AcDbEntity
  8
0
  6
Continuous
 62
     7
370
    15
100
AcDbLine
 10
107.3912835628
 20
147.853811633
 30
0.0
 11
106.8528856807
 21
147.853811633
 31
0.0
  0
ARC
  5
5D
330
1F
100
AcDbEntity
  8
0
  6
Continuous
 62
     7
370
    15
100
AcDbCircle
 10
142.2382204812
 20
88.22156013
 30
0.0
 40
4.999999999999986
100
AcDbArc
 50
90.0
 51
180.0
  0
ARC
  5
5E
330
1F
100
AcDbEntity
  8
0
  6
Continuous
 62
     7
370
    15
100
AcDbCircle
 10
142.2382204812
 20
132.22156013
 30
0.0
 40
5.000000000000014
100
AcDbArc
 50
180.0
 51
270.0
  0
LINE
  5
5F
330
1F
100
AcDbEntity
  8
0
  6
Continuous
 62
     7
370
    15
100
AcDbLine
 10
60.0382204812
 20
77.97156013
 30
0.0
 11
71.5882204812
 21
77.97156013
 31
0.0
  0
ARC
  5
60
330
1F
100
AcDbEntity
  8
0
  6
Continuous
 62
     7
370
    15
100
AcDbCircle
 10
187.1487919551
 20
-295.77843987
 30
0.0
 40
390.0
100
AcDbArc
 50
90.0
 51
94.1039132162
  0
ARC
  5
61
330
1F
100
AcDbEntity
  8
0
  6
Continuous
 62
     7
370
    15
100
AcDbCircle
 10
187.1487919551
 20
516.22156013
 30
0.0
 40
390.0000000000001
100
AcDbArc
 50
265.8960867838
 51
270.0
  0
LINE
  5
62
330
1F
100
AcDbEntity
  8
0
  6
Continuous
 62
     7
370
    15
100
AcDbLine
 10
153.7369984114
 20
93.22156013
 30
0.0
 11
159.2382204812
 21
93.22156013
 31
0.0
  0
LINE
  5
63
330
1F
100
AcDbEntity
  8
0
  6
Continuous
 62
     7
370
    15
100
AcDbLine
 10
142.2382204812
 20
93.22156013
 30
0.0
 11
146.7485753853
 21
93.22156013
 31
0.0
  0
LINE
  5
64
330
1F
100
AcDbEntity
  8
0
  6
Continuous
 62
     7
370
    15
100
AcDbLine
 10
146.7402180833
 20
127.22156013
 30
0.0
 11
142.2382204812
 21
127.22156013
 31
0.0
  0
LINE
  5
65
330
1F
100
AcDbEntity
  8
0
  6
Continuous
 62
     7
370
    15
100
AcDbLine
 10
159.2382204812
 20
127.22156013
 30
0.0
 11
153.7342271111
 21
127.22156013
 31
0.0
  0
ARC
  5
66
330
1F
100
AcDbEntity
  8
0
  6
Continuous
 62
     7
370
    15
100
AcDbCircle
 10
71.5882204812
 20
76.07156013
 30
0.0
 40
1.900000000000006
100
AcDbArc
 50
35.6630613694
 51
90.0
  0
ARC
  5
67
330
1F
100
AcDbEntity
  8
0
  6
Continuous
 62
     7
370
    15
100
AcDbCircle
 10
66.5882204812
 20
144.37156013
 30
0.0
 40
1.899999999999996
100
AcDbArc
 50
270.0
 51
310.9212832533
  0
LINE
  5
68
330
1F
100
AcDbEntity
  8
0
  6
Continuous
 62
     7
370
    15
100
AcDbLine
 10
60.0382204812
 20
142.47156013
 30
0.0
 11
58.4450041193
 21
140.8783437681
 31
0.0
  0
LINE
  5
69
330
1F
100
AcDbEntity
  8
0
  6
Continuous
 62
     7
370
    15
100
AcDbLine
 10
58.4457433817
 20
79.5640372296
 30
0.0
 11
60.0382204812
 21
77.97156013
 31
0.0
  0
LINE
  5
6A
330
1F
100
AcDbEntity
  8
0
  6
Continuous
 62
     7
370
    15
100
AcDbLine
 10
66.5882204812
 20
142.47156013
 30
0.0
 11
60.0382204812
 21
142.47156013
 31
0.0
  0
LINE
  5
6B
330
1F
100
AcDbEntity
  8
0
  6
Continuous
 62
     7
370
    15
100
AcDbLine
 10
187.1487919551
 20
94.22156013
 30
0.0
 11
187.4634015365
 21
94.22156013
 31
0.0
  0
LINE
  5
6C
330
1F
100
AcDbEntity
  8
0
  6
Continuous
 62
     7
370
    15
100
AcDbLine
 10
187.4634015365
 20
126.22156013
 30
0.0
 11
187.1487919551
 21
126.22156013
 31
0.0
  0
LINE
  5
6D
330
1F
100
AcDbEntity
  8
0
  6
Continuous
 62
     7
370
    15
100
AcDbLine
 10
187.4634015365
 20
94.22156013
 30
0.0
 11
236.4451386727
 21
98.0765064459
 31
0.0
  0
LINE
  5
6E
330
1F
100
AcDbEntity
  8
0
  6
Continuous
 62
     7
370
    15
100
AcDbLine
 10
236.4451386727
 20
122.3666138142
 30
0.0
 11
187.4634015365
 21
126.22156013
 31
0.0
  0
ARC
  5
6F
330
1F
100
AcDbEntity
  8
0
  6
Continuous
 62
     7
370
    15
100
AcDbCircle
 10
236.2882204812
 20
100.0703411133
 30
0.0
 40
2.000000000000028
100
AcDbArc
 50
274.5
 51
0.0
  0
ARC
  5
70
330
1F
100
AcDbEntity
  8
0
  6
Continuous
 62
     7
370
    15
100
AcDbCircle
 10
236.2882204812
 20
120.3727791467
 30
0.0
 40
2.000000000000028
100
AcDbArc
 50
0.0
 51
85.5
  0
LINE
  5
71
330
1F
100
AcDbEntity
  8
0
  6
Continuous
 62
     7
370
    15
100
AcDbLine
 10
238.2882204812
 20
102.972138799
 30
0.0
 11
238.3655426883
 21
101.0041572121
 31
0.0
  0
LINE
  5
72
330
1F
100
AcDbEntity
  8
0
  6
Continuous
 62
     7
370
    15
100
AcDbLine
 10
238.3002386167
 20
119.278020773
 30
0.0
 11
238.2882204812
 21
118.972138799
 31
0.0
  0
LINE
  5
73
330
1F
100
AcDbEntity
  8
0
  6
Continuous
 62
     7
370
    15
100
AcDbLine
 10
238.3066529647
 20
119.4412768315
 30
0.0
 11
238.3002386167
 21
119.278020773
 31
0.0
  0
LINE
  5
74
330
1F
100
AcDbEntity
  8
0
  6
Continuous
 62
     7
370
    15
100
AcDbLine
 10
131.5502495021
 20
61.446566537
 30
0.0
 11
131.5502495021
 21
141.57156013
 31
0.0
  0
SPLINE
  5
75
330
1F
100
AcDbEntity
  8
0
  6
Continuous
 62
     7
370
    15
100
AcDbSpline
210
0.0
220
0.0
230
1.0
 70
     8
 71
     3
 72
     8
 73
     4
 74
     0
 42
0.00000001
 43
0.00000001
 40
0.0
 40
0.0
 40
0.0
 40
0.0
 40
1.0
 40
1.0
 40
1.0
 40
1.0
 10
131.5502495021298
 20
61.44656653698211
 30
0.0
 10
131.0991447727296
 20
62.24752646880203
 30
0.0
 10
130.6484469454863
 20
63.0487164803627
 30
0.0
 10
130.1982204812084
 20
63.85017184298746
 30
0.0
  0
LINE
  5
76
330
1F
100
AcDbEntity
  8
0
  6
Continuous
 62
     7
370
    15
100
AcDbLine
 10
130.1982204812
 20
63.850171843
 30
0.0
 11
130.1982204812
 21
141.57156013
 31
0.0
  0
SPLINE
  5
77
330
1F
100
AcDbEntity
  8
0
  6
Continuous
 62
     7
370
    15
100
AcDbSpline
210
0.0
220
0.0
230
1.0
 70
    24
 71
     3
 72
     8
 73
     4
 74
     0
 42
0.00000001
 43
0.00000001
 40
0.0
 40
0.0
 40
0.0
 40
0.0
 40
1.0
 40
1.0
 40
1.0
 40
1.0
 10
130.1982204812085
 20
141.5715601300109
 30
0.0
 10
130.6424333635624
 20
141.5715601300109
 30
0.0
 10
131.0934479298016
 20
141.5715601300109
 30
0.0
 10
131.5502495021298
 20
141.5715601300109
 30
0.0
  0
LINE
  5
78
330
1F
100
AcDbEntity
  8
0
  6
Continuous
 62
     7
370
    15
100
AcDbLine
 10
108.2882204812
 20
60.72156013
 30
0.0
 11
108.2882204812
 21
159.7215601255
 31
0.0
  0
LINE
  5
79
330
1F
100
AcDbEntity
  8
0
  6
Continuous
 62
     7
370
    15
100
AcDbLine
 10
126.3782204812
 20
63.850171843
 30
0.0
 11
126.3782204812
 21
141.57156013
 31
0.0
  0
SPLINE
  5
7A
330
1F
100
AcDbEntity
  8
0
  6
Continuous
 62
     7
370
    15
100
AcDbSpline
210
0.0
220
0.0
230
1.0
 70
     8
 71
     3
 72
     8
 73
     4
 74
     0
 42
0.00000001
 43
0.00000001
 40
0.0
 40
0.0
 40
0.0
 40
0.0
 40
1.0
 40
1.0
 40
1.0
 40
1.0
 10
126.3782204812084
 20
63.85017184298746
 30
0.0
 10
125.9279940169307
 20
63.0487164803627
 30
0.0
 10
125.4772961896873
 20
62.24752646880203
 30
0.0
 10
125.026191460287
 20
61.44656653698211
 30
0.0
  0
LINE
  5
7B
330
1F
100
AcDbEntity
  8
0
  6
Continuous
 62
     7
370
    15
100
AcDbLine
 10
125.0261914603
 20
61.446566537
 30
0.0
 11
125.0261914603
 21
141.57156013
 31
0.0
  0
SPLINE
  5
7C
330
1F
100
AcDbEntity
  8
0
  6
Continuous
 62
     7
370
    15
100
AcDbSpline
210
0.0
220
0.0
230
1.0
 70
    24
 71
     3
 72
     8
 73
     4
 74
     0
 42
0.00000001
 43
0.00000001
 40
0.0
 40
0.0
 40
0.0
 40
0.0
 40
1.0
 40
1.0
 40
1.0
 40
1.0
 10
125.026191460287
 20
141.5715601300109
 30
0.0
 10
125.4829930326153
 20
141.5715601300109
 30
0.0
 10
125.9340075988545
 20
141.5715601300109
 30
0.0
 10
126.3782204812084
 20
141.5715601300109
 30
0.0
  0
LINE
  5
7D
330
1F
100
AcDbEntity
  8
0
  6
Continuous
 62
     7
370
    15
100
AcDbLine
 10
136.2382204812
 20
61.446566537
 30
0.0
 11
131.5502495021
 21
61.446566537
 31
0.0
  0
LINE
  5
7E
330
1F
100
AcDbEntity
  8
0
  6
Continuous
 62
     7
370
    15
100
AcDbLine
 10
131.5502495021
 20
141.57156013
 30
0.0
 11
136.2382204812
 21
141.57156013
 31
0.0
  0
LINE
  5
7F
330
1F
100
AcDbEntity
  8
0
  6
Continuous
 62
     7
370
    15
100
AcDbLine
 10
137.2382204812
 20
62.4722145848
 30
0.0
 11
137.2382204812
 21
141.57156013
 31
0.0
  0
SPLINE
  5
80
330
1F
100
AcDbEntity
  8
0
  6
Continuous
 62
     7
370
    15
100
AcDbSpline
210
0.0
220
0.0
230
1.0
 70
     8
 71
     3
 72
    14
 73
    10
 74
     0
 42
0.00000001
 43
0.00000001
 40
0.0
 40
0.0
 40
0.0
 40
0.0
 40
0.25
 40
0.25
 40
0.5
 40
0.5
 40
0.75
 40
0.75
 40
1.0
 40
1.0
 40
1.0
 40
1.0
 10
137.2382204812085
 20
62.47221458475762
 30
0.0
 10
137.2382204812085
 20
62.33878888870309
 30
0.0
 10
137.2129093812976
 20
62.20694108085873
 30
0.0
 10
137.1145746174529
 20
61.96041853216463
 30
0.0
 10
137.0414306131968
 20
61.84661334392408
 30
0.0
 10
136.8579925521011
 20
61.65615616697681
 30
0.0
 10
136.7463062177625
 20
61.5785213031269
 30
0.0
 10
136.5038027874562
 20
61.47422989301442
 30
0.0
 10
136.370428358762
 20
61.44656653698207
 30
0.0
 10
136.2382204812085
 20
61.44656653698208
 30
0.0
  0
SPLINE
  5
81
330
1F
100
AcDbEntity
  8
0
  6
Continuous
 62
     7
370
    15
100
AcDbSpline
210
0.0
220
0.0
230
1.0
 70
    24
 71
     3
 72
    12
 73
     8
 74
     0
 42
0.00000001
 43
0.00000001
 40
0.0
 40
0.0
 40
0.0
 40
0.0
 40
0.2500000000000032
 40
0.2500000000000032
 40
0.5000000000000064
 40
0.5000000000000064
 40
1.0
 40
1.0
 40
1.0
 40
1.0
 10
136.2382204812085
 20
141.5715601300109
 30
0.0
 10
136.3903107181534
 20
141.5715601300109
 30
0.0
 10
136.5387699792289
 20
141.5715601300109
 30
0.0
 10
136.7961736114946
 20
141.5715601300109
 30
0.0
 10
136.9052783593365
 20
141.5715601300109
 30
0.0
 10
137.159337835744
 20
141.5715601300109
 30
0.0
 10
137.2382204812085
 20
141.5715601300109
 30
0.0
 10
137.2382204812085
 20
141.5715601300109
 30
0.0
  0
SPLINE
  5
82
330
1F
100
AcDbEntity
  8
0
  6
Continuous
 62
     7
370
    15
100
AcDbSpline
210
0.0
220
0.0
230
1.0
 70
     8
 71
     3
 72
    80
 73
    76
 74
     0
 42
0.00000001
 43
0.00000001
 40
-0.0312500000000001
 40
-0.0312500000000001
 40
0.0
 40
0.0
 40
0.0312499999999995
 40
0.0312499999999995
 40
0.0468749999999993
 40
0.0468749999999993
 40
0.0624999999999991
 40
0.0624999999999991
 40
0.0937499999999988
 40
0.0937499999999988
 40
0.1249999999999986
 40
0.1249999999999986
 40
0.1562499999999983
 40
0.1562499999999983
 40
0.1874999999999981
 40
0.1874999999999981
 40
0.2187499999999978
 40
0.2187499999999978
 40
0.2499999999999976
 40
0.2499999999999976
 40
0.2812499999999973
 40
0.2812499999999973
 40
0.3124999999999971
 40
0.3124999999999971
 40
0.3281249999999971
 40
0.3281249999999971
 40
0.3437499999999971
 40
0.3437499999999971
 40
0.3749999999999973
 40
0.3749999999999973
 40
0.4062499999999975
 40
0.4062499999999975
 40
0.4218749999999975
 40
0.4218749999999975
 40
0.4374999999999974
 40
0.4374999999999974
 40
0.4687499999999973
 40
0.4687499999999973
 40
0.4999999999999972
 40
0.4999999999999972
 40
0.531249999999997
 40
0.531249999999997
 40
0.562499999999997
 40
0.562499999999997
 40
0.5937499999999969
 40
0.5937499999999969
 40
0.6249999999999969
 40
0.6249999999999969
 40
0.6562499999999968
 40
0.6562499999999968
 40
0.6874999999999968
 40
0.6874999999999968
 40
0.7031249999999968
 40
0.7031249999999968
 40
0.7187499999999969
 40
0.7187499999999969
 40
0.7499999999999973
 40
0.7499999999999973
 40
0.7812499999999979
 40
0.7812499999999979
 40
0.7968749999999982
 40
0.7968749999999982
 40
0.8124999999999984
 40
0.8124999999999984
 40
0.8437499999999988
 40
0.8437499999999988
 40
0.874999999999999
 40
0.874999999999999
 40
0.9062499999999993
 40
0.9062499999999993
 40
0.9374999999999996
 40
0.9374999999999996
 40
0.9687499999999999
 40
0.9687499999999999
 40
1.0
 40
1.0
 40
1.03125
 40
1.03125
 10
116.9576751684321
 20
153.6361895936422
 30
0.0
 10
117.6187657939848
 20
153.6361895936422
 30
0.0
 10
117.9437459232364
 20
153.6523978250243
 30
0.0
 10
118.4232193344828
 20
153.699762457044
 30
0.0
 10
118.5817011523236
 20
153.7194166689346
 30
0.0
 10
118.8959206848279
 20
153.7665278251272
 30
0.0
 10
119.0520409685083
 20
153.7941091446219
 30
0.0
 10
119.5060949974649
 20
153.8866449314157
 30
0.0
 10
119.7931983804047
 20
153.9617153650122
 30
0.0
 10
120.3365529364317
 20
154.1369536736228
 30
0.0
 10
120.5936565476373
 20
154.2379549714611
 30
0.0
 10
121.0545628025761
 20
154.4553111699219
 30
0.0
 10
121.2614605117911
 20
154.5724755016942
 30
0.0
 10
121.6269858257833
 20
154.8225454259228
 30
0.0
 10
121.7821913479092
 20
154.9534915146818
 30
0.0
 10
122.0316217345089
 20
155.2192264583941
 30
0.0
 10
122.1277116902941
 20
155.3559800517051
 30
0.0
 10
122.2562305394877
 20
155.6300456265441
 30
0.0
 10
122.2880414096655
 20
155.7649857170129
 30
0.0
 10
122.2883980594387
 20
156.0304573540817
 30
0.0
 10
122.2559008072417
 20
156.1622818312229
 30
0.0
 10
122.1282753335272
 20
156.4117314308433
 30
0.0
 10
122.0338469324753
 20
156.5301641227713
 30
0.0
 10
121.8459861124897
 20
156.6990333198654
 30
0.0
 10
121.7751581136865
 20
156.7541193149856
 30
0.0
 10
121.6204362217212
 20
156.859372143474
 30
0.0
 10
121.5364597515379
 20
156.9097073722344
 30
0.0
 10
121.2651360818934
 20
157.0542832047724
 30
0.0
 10
121.0585868632911
 20
157.1421447911894
 30
0.0
 10
120.5919767231021
 20
157.3018658841889
 30
0.0
 10
120.3396111534766
 20
157.3711041806561
 30
0.0
 10
119.9337098117979
 20
157.4608915698859
 30
0.0
 10
119.7938091943204
 20
157.4884575319722
 30
0.0
 10
119.5045852590735
 20
157.5389483328985
 30
0.0
 10
119.3547458027842
 20
157.5619117717492
 30
0.0
 10
118.9006292331734
 20
157.622542288168
 30
0.0
 10
118.5889780144366
 20
157.6526163169638
 30
0.0
 10
117.9479815495242
 20
157.6932059042225
 30
0.0
 10
117.616453921572
 20
157.7035181344385
 30
0.0
 10
116.9636628765005
 20
157.7035937016043
 30
0.0
 10
116.6391266714687
 20
157.6936920961366
 30
0.0
 10
115.9938572220523
 20
157.6532055656113
 30
0.0
 10
115.6781142158896
 20
157.6227442657267
 30
0.0
 10
115.0762249209059
 20
157.5425935942901
 30
0.0
 10
114.7854756900944
 20
157.4923113624829
 30
0.0
 10
114.2385638984099
 20
157.3716411797099
 30
0.0
 10
113.986786534573
 20
157.3024173205399
 30
0.0
 10
113.5253985419519
 20
157.1449655928993
 30
0.0
 10
113.3141292623538
 20
157.0556171182255
 30
0.0
 10
112.9508249099776
 20
156.8623692475247
 30
0.0
 10
112.7970182615348
 20
156.7582412556453
 30
0.0
 10
112.6083987919374
 20
156.5896168694619
 30
0.0
 10
112.5523683057283
 20
156.530988467787
 30
0.0
 10
112.4567945439921
 20
156.4115335529607
 30
0.0
 10
112.4170316269671
 20
156.3506137641225
 30
0.0
 10
112.321259876655
 20
156.1642090379486
 30
0.0
 10
112.2885370375289
 20
156.0350962201536
 30
0.0
 10
112.2879084511998
 20
155.7664392971977
 30
0.0
 10
112.3200945959346
 20
155.631068556441
 30
0.0
 10
112.4150052977901
 20
155.427518248205
 30
0.0
 10
112.4544720811891
 20
155.3595463241416
 30
0.0
 10
112.54940207991
 20
155.2234541010106
 30
0.0
 10
112.6051589076734
 20
155.1551040008012
 30
0.0
 10
112.7930990256432
 20
154.9544009877591
 30
0.0
 10
112.9464604953594
 20
154.8250127139464
 30
0.0
 10
113.3087247302398
 20
154.5763472818966
 30
0.0
 10
113.5195732037057
 20
154.4565376395284
 30
0.0
 10
113.9802431740246
 20
154.2390153519557
 30
0.0
 10
114.2316175536084
 20
154.1399302521198
 30
0.0
 10
114.7775254405066
 20
153.963257778203
 30
0.0
 10
115.0683480151578
 20
153.8872006900689
 30
0.0
 10
115.6696746299378
 20
153.7643557127159
 30
0.0
 10
115.9841932145502
 20
153.7166495876628
 30
0.0
 10
116.6307746706701
 20
153.6524010525432
 30
0.0
 10
116.9576751684321
 20
153.6361895936422
 30
0.0
 10
117.6187657939848
 20
153.6361895936422
 30
0.0
  0
LINE
  5
83
330
1F
100
AcDbEntity
  8
0
  6
Continuous
 62
     7
370
    15
100
AcDbLine
 10
113.2382204812
 20
141.57156013
 30
0.0
 11
125.0261914603
 21
141.57156013
 31
0.0
  0
LINE
  5
84
330
1F
100
AcDbEntity
  8
0
  6
Continuous
 62
     7
370
    15
100
AcDbLine
 10
125.0261914603
 20
61.446566537
 30
0.0
 11
123.2382204812
 21
61.446566537
 31
0.0
  0
SPLINE
  5
85
330
1F
100
AcDbEntity
  8
0
  6
Continuous
 62
     7
370
    15
100
AcDbSpline
210
0.0
220
0.0
230
1.0
 70
     8
 71
     3
 72
    30
 73
    26
 74
     0
 42
0.00000001
 43
0.00000001
 40
0.0
 40
0.0
 40
0.0
 40
0.0
 40
0.1250000000000002
 40
0.1250000000000002
 40
0.1875000000000003
 40
0.1875000000000003
 40
0.2500000000000004
 40
0.2500000000000004
 40
0.3750000000000001
 40
0.3750000000000001
 40
0.4374999999999998
 40
0.4374999999999998
 40
0.4999999999999996
 40
0.4999999999999996
 40
0.6249999999999996
 40
0.6249999999999996
 40
0.6874999999999997
 40
0.6874999999999997
 40
0.7499999999999997
 40
0.7499999999999997
 40
0.8124999999999998
 40
0.8124999999999998
 40
0.8749999999999999
 40
0.8749999999999999
 40
1.0
 40
1.0
 40
1.0
 40
1.0
 10
123.2382204812084
 20
61.44656653698211
 30
0.0
 10
122.5754757873634
 20
61.44656653698212
 30
0.0
 10
121.9242199282477
 20
61.43172646039331
 30
0.0
 10
120.9637693899894
 20
61.38935689616368
 30
0.0
 10
120.6463779467565
 20
61.37187879338452
 30
0.0
 10
120.0172144452016
 20
61.3305505068322
 30
0.0
 10
119.7050662587599
 20
61.30662523337451
 30
0.0
 10
118.7977589569116
 20
61.2278187169076
 30
0.0
 10
118.2243339992704
 20
61.16551269693114
 30
0.0
 10
117.4104571296957
 20
61.06238337669177
 30
0.0
 10
117.1456509331259
 20
61.02619945764526
 30
0.0
 10
116.6387435223115
 20
60.95240467344476
 30
0.0
 10
116.397349370958
 20
60.91493081467311
 30
0.0
 10
115.7082078988257
 20
60.80221887133338
 30
0.0
 10
115.2951530839615
 20
60.7266827738596
 30
0.0
 10
114.7469982645864
 20
60.6182895168421
 30
0.0
 10
114.5775356572408
 20
60.58321728517884
 30
0.0
 10
114.2695184092254
 20
60.51698182457899
 30
0.0
 10
114.1301383886171
 20
60.48565512782427
 30
0.0
 10
113.8803528759903
 20
60.42724635624334
 30
0.0
 10
113.7699467633364
 20
60.40016312106049
 30
0.0
 10
113.5786889096987
 20
60.35090336644691
 30
0.0
 10
113.4975693914144
 20
60.32864138663926
 30
0.0
 10
113.303422471306
 20
60.27107447947098
 30
0.0
 10
113.2382204812084
 20
60.24481487468499
 30
0.0
 10
113.2382204812084
 20
60.23156113021096
 30
0.0
  0
LINE
  5
86
330
1F
100
AcDbEntity
  8
0
  6
Continuous
 62
     7
370
    15
100
AcDbLine
 10
113.2382204812
 20
60.2315611302
 30
0.0
 11
113.2382204812
 21
60.22156013
 31
0.0
  0
SPLINE
  5
87
330
1F
100
AcDbEntity
  8
0
  6
Continuous
 62
     7
370
    15
100
AcDbSpline
210
0.0
220
0.0
230
1.0
 70
     8
 71
     3
 72
    17
 73
    13
 74
     0
 42
0.00000001
 43
0.00000001
 40
0.0
 40
0.0
 40
0.0
 40
0.0
 40
0.104384384054747
 40
0.2118345768143993
 40
0.316208200519045
 40
0.4235375806108392
 40
0.5292276236193852
 40
0.6379275864803491
 40
0.7444714844189683
 40
0.8541836219421859
 40
0.9593080534965217
 40
1.0
 40
1.0
 40
1.0
 40
1.0
 10
123.2382204812084
 20
159.2113549856745
 30
0.0
 10
122.6902820333491
 20
159.2167231894232
 30
0.0
 10
121.5783119788843
 20
159.2276172630882
 30
0.0
 10
119.9654560656694
 20
159.3127946373471
 30
0.0
 10
118.4319428486925
 20
159.4391693436397
 30
0.0
 10
117.0409219993558
 20
159.5960721642165
 30
0.0
 10
115.8054054821255
 20
159.7677709937371
 30
0.0
 10
114.7820497149702
 20
159.9331072698381
 30
0.0
 10
113.9817077167051
 20
160.0768207494247
 30
0.0
 10
113.4713756147915
 20
160.1749755566039
 30
0.0
 10
113.231467185967
 20
160.2229039534737
 30
0.0
 10
113.2633859653868
 20
160.2165365542341
 30
0.0
 10
113.272293313669
 20
160.2147596491109
 30
0.0
  0
LINE
  5
88
330
1F
100
AcDbEntity
  8
0
  6
Continuous
 62
     7
370
    15
100
AcDbLine
 10
125.0261914603
 20
159.2113549857
 30
0.0
 11
123.2382204812
 21
159.2113549857
 31
0.0
  0
LINE
  5
89
330
1F
100
AcDbEntity
  8
0
  6
Continuous
 62
     7
370
    15
100
AcDbLine
 10
125.0261914603
 20
149.1725228909
 30
0.0
 11
125.0261914603
 21
159.2113549857
 31
0.0
  0
LINE
  5
8A
330
1F
100
AcDbEntity
  8
0
  6
Continuous
 62
     7
370
    15
100
AcDbLine
 10
122.9461873294
 20
149.1725228909
 30
0.0
 11
125.0261914603
 21
149.1725228909
 31
0.0
  0
SPLINE
  5
8B
330
1F
100
AcDbEntity
  8
0
  6
Continuous
 62
     7
370
    15
100
AcDbSpline
210
0.0
220
0.0
230
1.0
 70
     8
 71
     3
 72
    22
 73
    18
 74
     0
 42
0.00000001
 43
0.00000001
 40
0.0
 40
0.0
 40
0.0
 40
0.0
 40
0.2500000000000002
 40
0.2500000000000002
 40
0.3750000000000003
 40
0.3750000000000003
 40
0.5000000000000004
 40
0.5000000000000004
 40
0.6250000000000004
 40
0.6250000000000004
 40
0.7500000000000004
 40
0.7500000000000004
 40
0.8750000000000004
 40
0.8750000000000004
 40
0.9375000000000002
 40
0.9375000000000002
 40
1.0
 40
1.0
 40
1.0
 40
1.0
 10
113.2382204812084
 20
141.5715601300109
 30
0.0
 10
113.4409454371275
 20
142.5908064718756
 30
0.0
 10
113.7556891589229
 20
143.5499146218148
 30
0.0
 10
114.4637446285939
 20
144.8923936993241
 30
0.0
 10
114.7422072588115
 20
145.3266022820642
 30
0.0
 10
115.3809746654487
 20
146.1382299975662
 30
0.0
 10
115.7413883452389
 20
146.5175102905031
 30
0.0
 10
116.5589205772282
 20
147.2204688695241
 30
0.0
 10
117.0200885605153
 20
147.5454976872247
 30
0.0
 10
118.0180788069991
 20
148.1105130106156
 30
0.0
 10
118.5578380009914
 20
148.3542166048221
 30
0.0
 10
119.7324309650227
 20
148.758416532467
 30
0.0
 10
120.3441671510146
 20
148.9108537255125
 30
0.0
 10
121.2960763758763
 20
149.0661812731213
 30
0.0
 10
121.619309540137
 20
149.1056860531713
 30
0.0
 10
122.2783727114122
 20
149.15899517384
 30
0.0
 10
122.6124367219862
 20
149.1725228908979
 30
0.0
 10
122.9461873293878
 20
149.1725228908978
 30
0.0
  0
SPLINE
  5
8C
330
1F
100
AcDbEntity
  8
0
  6
Continuous
 62
     7
370
    15
100
AcDbSpline
210
0.0
220
0.0
230
1.0
 70
     8
 71
     3
 72
    14
 73
    10
 74
     0
 42
0.00000001
 43
0.00000001
 40
0.0
 40
0.0
 40
0.0
 40
0.0
 40
0.25
 40
0.25
 40
0.5
 40
0.5
 40
0.75
 40
0.75
 40
1.0
 40
1.0
 40
1.0
 40
1.0
 10
130.1982204812085
 20
64.75838134761602
 30
0.0
 10
130.1982204812085
 20
64.86542542861042
 30
0.0
 10
130.1781027940503
 20
64.97066056885286
 30
0.0
 10
130.0996116047847
 20
65.16851105570053
 30
0.0
 10
130.0414549799835
 20
65.25956281926547
 30
0.0
 10
129.8949397243654
 20
65.41272891319025
 30
0.0
 10
129.8062971757243
 20
65.47502335939966
 30
0.0
 10
129.610573852924
 20
65.55981714493564
 30
0.0
 10
129.505342661853
 20
65.58188467196128
 30
0.0
 10
129.3982204812085
 20
65.58188467196128
 30
0.0
  0
SPLINE
  5
8D
330
1F
100
AcDbEntity
  8
0
  6
Continuous
 62
     7
370
    15
100
AcDbSpline
210
0.0
220
0.0
230
1.0
 70
    24
 71
     3
 72
    14
 73
    10
 74
     0
 42
0.00000001
 43
0.00000001
 40
0.0
 40
0.0
 40
0.0
 40
0.0
 40
0.25
 40
0.25
 40
0.5
 40
0.5
 40
0.75
 40
0.75
 40
1.0
 40
1.0
 40
1.0
 40
1.0
 10
129.3982204812085
 20
141.5715601300109
 30
0.0
 10
129.5219902459736
 20
141.5715601300109
 30
0.0
 10
129.6463573499805
 20
141.5715601300109
 30
0.0
 10
129.8527138187065
 20
141.5715601300109
 30
0.0
 10
129.9380419621249
 20
141.5715601300109
 30
0.0
 10
130.0702340208401
 20
141.5715601300109
 30
0.0
 10
130.1188792645907
 20
141.5715601300109
 30
0.0
 10
130.1824150563195
 20
141.5715601300109
 30
0.0
 10
130.1982204812085
 20
141.5715601300109
 30
0.0
 10
130.1982204812085
 20
141.5715601300109
 30
0.0
  0
SPLINE
  5
8E
330
1F
100
AcDbEntity
  8
0
  6
Continuous
 62
     7
370
    15
100
AcDbSpline
210
0.0
220
0.0
230
1.0
 70
     8
 71
     3
 72
    12
 73
     8
 74
     0
 42
0.00000001
 43
0.00000001
 40
0.0
 40
0.0
 40
0.0
 40
0.0
 40
0.25
 40
0.25
 40
0.5
 40
0.5
 40
1.0
 40
1.0
 40
1.0
 40
1.0
 10
127.1782204812084
 20
65.58188467196128
 30
0.0
 10
127.0724598278595
 20
65.58188467196128
 30
0.0
 10
126.9644721996766
 20
65.55934516596088
 30
0.0
 10
126.769877534411
 20
65.47477453396556
 30
0.0
 10
126.6810056215721
 20
65.41229288120678
 30
0.0
 10
126.4618133292463
 20
65.18290392973461
 30
0.0
 10
126.3782204812084
 20
64.97032059221222
 30
0.0
 10
126.3782204812084
 20
64.75838134761602
 30
0.0
  0
SPLINE
  5
8F
330
1F
100
AcDbEntity
  8
0
  6
Continuous
 62
     7
370
    15
100
AcDbSpline
210
0.0
220
0.0
230
1.0
 70
    24
 71
     3
 72
    14
 73
    10
 74
     0
 42
0.00000001
 43
0.00000001
 40
0.0
 40
0.0
 40
0.0
 40
0.0
 40
0.25
 40
0.25
 40
0.5
 40
0.5
 40
0.75
 40
0.75
 40
1.0
 40
1.0
 40
1.0
 40
1.0
 10
126.3782204812084
 20
141.5715601300109
 30
0.0
 10
126.3782204812084
 20
141.5715601300109
 30
0.0
 10
126.3939348016744
 20
141.5715601300109
 30
0.0
 10
126.4576187801428
 20
141.5715601300109
 30
0.0
 10
126.5062219745532
 20
141.5715601300109
 30
0.0
 10
126.6389054969788
 20
141.5715601300109
 30
0.0
 10
126.7240076012895
 20
141.5715601300109
 30
0.0
 10
126.9304498361995
 20
141.5715601300109
 30
0.0
 10
127.0545307778225
 20
141.5715601300109
 30
0.0
 10
127.1782204812084
 20
141.5715601300109
 30
0.0
  0
LINE
  5
90
330
1F
100
AcDbEntity
  8
0
  6
Continuous
 62
     7
370
    15
100
AcDbLine
 10
129.3982204812
 20
65.581884672
 30
0.0
 11
127.1782204812
 21
65.581884672
 31
0.0
  0
LINE
  5
91
330
1F
100
AcDbEntity
  8
0
  6
Continuous
 62
     7
370
    15
100
AcDbLine
 10
127.1782204812
 20
141.57156013
 30
0.0
 11
129.3982204812
 21
141.57156013
 31
0.0
  0
LINE
  5
92
330
1F
100
AcDbEntity
  8
0
  6
Continuous
 62
     7
370
    15
100
AcDbLine
 10
105.7882204812
 20
72.339308627
 30
0.0
 11
105.7882204812
 21
148.103811633
 31
0.0
  0
LINE
  5
93
330
1F
100
AcDbEntity
  8
0
  6
Continuous
 62
     7
370
    15
100
AcDbLine
 10
73.4882204812
 20
73.9575451
 30
0.0
 11
73.4882204812
 21
76.3522268646
 31
0.0
  0
SPLINE
  5
94
330
1F
100
AcDbEntity
  8
0
  6
Continuous
 62
     7
370
    15
100
AcDbSpline
210
0.0
220
0.0
230
1.0
 70
     8
 71
     3
 72
    14
 73
    10
 74
     0
 42
0.00000001
 43
0.00000001
 40
0.0
 40
0.0
 40
0.0
 40
0.0
 40
0.25
 40
0.25
 40
0.5
 40
0.5
 40
0.75
 40
0.75
 40
1.0
 40
1.0
 40
1.0
 40
1.0
 10
72.48379800987149
 20
78.05507878626739
 30
0.0
 10
72.57256658781681
 20
77.89654465495943
 30
0.0
 10
72.69428442649573
 20
77.74410197807089
 30
0.0
 10
72.92933403635256
 20
77.44696735424196
 30
0.0
 10
73.04496422256945
 20
77.3022847106246
 30
0.0
 10
73.24536915599728
 20
77.0189955081212
 30
0.0
 10
73.33076944798158
 20
76.88044151508433
 30
0.0
 10
73.45247508169884
 20
76.60905748505081
 30
0.0
 10
73.48822048121147
 20
76.47692161641619
 30
0.0
 10
73.48822048121146
 20
76.35222686464542
 30
0.0
  0
SPLINE
  5
95
330
1F
100
AcDbEntity
  8
0
  6
Continuous
 62
     7
370
    15
100
AcDbSpline
210
0.0
220
0.0
230
1.0
 70
     8
 71
     3
 72
    14
 73
    10
 74
     0
 42
0.00000001
 43
0.00000001
 40
0.0
 40
0.0
 40
0.0
 40
0.0
 40
0.124999999999999
 40
0.124999999999999
 40
0.249999999999998
 40
0.249999999999998
 40
0.5000000000000007
 40
0.5000000000000007
 40
1.0
 40
1.0
 40
1.0
 40
1.0
 10
71.58822048120844
 20
78.6839087253675
 30
0.0
 10
71.65580278099294
 20
78.6910646104689
 30
0.0
 10
71.72829035874085
 20
78.68664014042986
 30
0.0
 10
71.86058146800679
 20
78.65693398265952
 30
0.0
 10
71.91785884739696
 20
78.63364970108131
 30
0.0
 10
72.06750927459724
 20
78.55616446123098
 30
0.0
 10
72.14122257011873
 20
78.49431263432962
 30
0.0
 10
72.32903055344497
 20
78.3096351816813
 30
0.0
 10
72.41307085980642
 20
78.18139225839008
 30
0.0
 10
72.4837980098727
 20
78.0550787862675
 30
0.0
  0
SPLINE
  5
96
330
1F
100
AcDbEntity
  8
0
  6
Continuous
 62
     7
370
    15
100
AcDbSpline
210
0.0
220
0.0
230
1.0
 70
     8
 71
     3
 72
     8
 73
     4
 74
     0
 42
0.00000001
 43
0.00000001
 40
0.0
 40
0.0
 40
0.0
 40
0.0
 40
1.0
 40
1.0
 40
1.0
 40
1.0
 10
68.04358009312766
 20
78.26586014057571
 30
0.0
 10
69.20887840383654
 20
78.42104761246233
 30
0.0
 10
70.39349361787635
 20
78.55740625077264
 30
0.0
 10
71.58822048120844
 20
78.68390872536752
 30
0.0
  0
SPLINE
  5
97
330
1F
100
AcDbEntity
  8
0
  6
Continuous
 62
     7
370
    15
100
AcDbSpline
210
0.0
220
0.0
230
1.0
 70
     8
 71
     3
 72
    14
 73
    10
 74
     0
 42
0.00000001
 43
0.00000001
 40
0.0
 40
0.0
 40
0.0
 40
0.0
 40
0.4999999999999972
 40
0.4999999999999972
 40
0.7499999999999971
 40
0.7499999999999971
 40
0.8749999999999986
 40
0.8749999999999986
 40
1.0
 40
1.0
 40
1.0
 40
1.0
 10
60.28814559717975
 20
77.9757279614458
 30
0.0
 10
61.59644715971349
 20
77.98274268518693
 30
0.0
 10
62.90150653437031
 20
77.99815126163139
 30
0.0
 10
64.84738258585864
 20
78.05204781709807
 30
0.0
 10
65.49408008959763
 20
78.07507938170077
 30
0.0
 10
66.45792245345197
 20
78.12602190657152
 30
0.0
 10
66.77816114538605
 20
78.14575682880474
 30
0.0
 10
67.41485637172846
 20
78.19524395727629
 30
0.0
 10
67.73157178001138
 20
78.22430873620551
 30
0.0
 10
68.04358009312769
 20
78.26586014057568
 30
0.0
  0
SPLINE
  5
98
330
1F
100
AcDbEntity
  8
0
  6
Continuous
 62
     7
370
    15
100
AcDbSpline
210
0.0
220
0.0
230
1.0
 70
     8
 71
     3
 72
    12
 73
     8
 74
     0
 42
0.00000001
 43
0.00000001
 40
0.0
 40
0.0
 40
0.0
 40
0.0
 40
0.2500000000000009
 40
0.2500000000000009
 40
0.5000000000000018
 40
0.5000000000000018
 40
1.0
 40
1.0
 40
1.0
 40
1.0
 10
66.58822048120845
 20
142.3080830215073
 30
0.0
 10
66.06952165938027
 20
142.3406057963556
 30
0.0
 10
65.54781008617528
 20
142.3639025375261
 30
0.0
 10
64.50151806967969
 20
142.4017480519482
 30
0.0
 10
63.97684644400943
 20
142.4160165264443
 30
0.0
 10
62.4000004214702
 20
142.4502260139026
 30
0.0
 10
61.34504510692329
 20
142.4617255178465
 30
0.0
 10
60.28814559717806
 20
142.467392298576
 30
0.0
  0
SPLINE
  5
99
330
1F
100
AcDbEntity
  8
0
  6
Continuous
 62
     7
370
    15
100
AcDbSpline
210
0.0
220
0.0
230
1.0
 70
     8
 71
     3
 72
    20
 73
    16
 74
     0
 42
0.00000001
 43
0.00000001
 40
0.0
 40
0.0
 40
0.0
 40
0.0
 40
0.2500000000000011
 40
0.2500000000000011
 40
0.5000000000000021
 40
0.5000000000000021
 40
0.7500000000000031
 40
0.7500000000000031
 40
0.8750000000000008
 40
0.8750000000000008
 40
0.9375000000000006
 40
0.9375000000000006
 40
0.9687500000000003
 40
0.9687500000000003
 40
1.0
 40
1.0
 40
1.0
 40
1.0
 10
68.48822048120844
 20
143.9661688669955
 30
0.0
 10
68.48822048120844
 20
143.8304865472487
 30
0.0
 10
68.43950869199182
 20
143.6893995611086
 30
0.0
 10
68.27034726876663
 20
143.3973278423781
 30
0.0
 10
68.14856685484833
 20
143.2456791002877
 30
0.0
 10
67.85101976009881
 20
142.9432706601346
 30
0.0
 10
67.67710715439604
 20
142.7906820240113
 30
0.0
 10
67.3576923205142
 20
142.565411260169
 30
0.0
 10
67.24265154506695
 20
142.4906881656582
 30
0.0
 10
67.03556722105053
 20
142.3912777564013
 30
0.0
 10
66.95945938624415
 20
142.3597126640567
 30
0.0
 10
66.8280648466908
 20
142.3252692798637
 30
0.0
 10
66.78151162768933
 20
142.316217708096
 30
0.0
 10
66.68517827660862
 20
142.3060420592576
 30
0.0
 10
66.63591885325317
 20
142.3050923005826
 30
0.0
 10
66.58822048120646
 20
142.3080830214972
 30
0.0
  0
LINE
  5
9A
330
1F
100
AcDbEntity
  8
0
  6
Continuous
 62
     7
370
    15
100
AcDbLine
 10
68.4882204812
 20
143.966168867
 30
0.0
 11
68.4882204812
 21
146.2350741581
 31
0.0
  0
SPLINE
  5
9B
330
1F
100
AcDbEntity
  8
0
  6
Continuous
 62
     7
370
    15
100
AcDbSpline
210
0.0
220
0.0
230
1.0
 70
     8
 71
     3
 72
    24
 73
    20
 74
     0
 42
0.00000001
 43
0.00000001
 40
0.0
 40
0.0
 40
0.0
 40
0.0
 40
0.0002934293894791
 40
0.062808005175641
 40
0.1260453927228619
 40
0.18907467666103
 40
0.2513200540860133
 40
0.3133304633786588
 40
0.3759158453762907
 40
0.4383740564599686
 40
0.5000631094857209
 40
0.5616593988040849
 40
0.6245050380644152
 40
0.6872231506510951
 40
0.7494953263230465
 40
0.8117583797535242
 40
0.8747365508229858
 40
0.9378980306234599
 40
1.0
 40
1.0
 40
1.0
 40
1.0
 10
86.80817674504787
 20
73.29031487169854
 30
0.0
 10
86.8079818921631
 20
73.29029056430456
 30
0.0
 10
86.76627400115194
 20
73.28508761265034
 30
0.0
 10
86.91139239268237
 20
73.30372223598086
 30
0.0
 10
87.26647133422163
 20
73.3462420145296
 30
0.0
 10
87.87104697176478
 20
73.41437829813142
 30
0.0
 10
88.67748228058097
 20
73.4876338351473
 30
0.0
 10
89.66295970449995
 20
73.55215317596517
 30
0.0
 10
90.7946293011795
 20
73.59071740402625
 30
0.0
 10
92.01692177134177
 20
73.59441191002765
 30
0.0
 10
93.28425045279361
 20
73.55198592997867
 30
0.0
 10
94.55073598322014
 20
73.4637387891977
 30
0.0
 10
95.76687334704006
 20
73.33534551893104
 30
0.0
 10
96.89228384288084
 20
73.1827045303385
 30
0.0
 10
97.86970090443481
 20
73.02092991523416
 30
0.0
 10
98.67296638297732
 20
72.86840102213327
 30
0.0
 10
99.26145990597854
 20
72.74438727886587
 30
0.0
 10
99.65036601763059
 20
72.6594633525896
 30
0.0
 10
99.69712714836862
 20
72.64873704131081
 30
0.0
 10
99.72030995491102
 20
72.6434192486192
 30
0.0
  0
SPLINE
  5
9C
330
1F
100
AcDbEntity
  8
0
  6
Continuous
 62
     7
370
    15
100
AcDbSpline
210
0.0
220
0.0
230
1.0
 70
     8
 71
     3
 72
    41
 73
    37
 74
     0
 42
0.00000001
 43
0.00000001
 40
0.0
 40
0.0
 40
0.0
 40
0.0
 40
0.0619930061482746
 40
0.1254347783466151
 40
0.1886508898234768
 40
0.2510246408607227
 40
0.3131658188976554
 40
0.3756581641417402
 40
0.4382227146727798
 40
0.4998044922940677
 40
0.56151641971787
 40
0.6240683094121985
 40
0.686725723240935
 40
0.7488365305144522
 40
0.8110685944253986
 40
0.8741742884451361
 40
0.9373212787645211
 40
0.9685511709617411
 40
0.9842086872487193
 40
0.9920641182531791
 40
0.996000486125535
 40
0.9979710794120144
 40
0.9989570090489596
 40
0.9994501359395065
 40
0.9996967403802177
 40
0.9998200529090742
 40
0.9998817117580818
 40
0.999912541829664
 40
0.9999279570273361
 40
0.9999356646666602
 40
0.9999395184964466
 40
0.9999414454138695
 40
0.9999424088732151
 40
0.9999433723329806
 40
0.9999501697010513
 40
1.0
 40
1.0
 40
1.0
 40
1.0
 10
99.72018862443302
 20
147.7996559934511
 30
0.0
 10
99.69661697908943
 20
147.7943465138013
 30
0.0
 10
99.64892282304436
 20
147.7836034728617
 30
0.0
 10
99.25688083361881
 20
147.6983743364063
 30
0.0
 10
98.66636678434861
 20
147.5738055577655
 30
0.0
 10
97.86232933830352
 20
147.4208586116137
 30
0.0
 10
96.886253938122
 20
147.2591020576601
 30
0.0
 10
95.76444520284151
 20
147.1068692897279
 30
0.0
 10
94.55091428305425
 20
146.9790893485265
 30
0.0
 10
93.28608357665505
 20
146.8912407968439
 30
0.0
 10
92.01804053921232
 20
146.8488553129733
 30
0.0
 10
90.79453318151121
 20
146.852591120945
 30
0.0
 10
89.6610346410972
 20
146.8911865913931
 30
0.0
 10
88.674928830123
 20
146.9556259626842
 30
0.0
 10
87.86630102133577
 20
147.0291357699653
 30
0.0
 10
87.26968232622657
 20
147.0964494547771
 30
0.0
 10
86.95429103676851
 20
147.1344140060451
 30
0.0
 10
86.84422446797058
 20
147.148213065377
 30
0.0
 10
86.81680508015639
 20
147.1516991392976
 30
0.0
 10
86.80988302932688
 20
147.152578364991
 30
0.0
 10
86.80811478914346
 20
147.1527991395973
 30
0.0
 10
86.8076544099701
 20
147.152854342308
 30
0.0
 10
86.80753025128529
 20
147.1528680820951
 30
0.0
 10
86.8074946967921
 20
147.1528714779261
 30
0.0
 10
86.80748355272202
 20
147.1528723062464
 30
0.0
 10
86.80747963952591
 20
147.1528725028352
 30
0.0
 10
86.8074780973211
 20
147.1528725467652
 30
0.0
 10
86.80747743031958
 20
147.152872555072
 30
0.0
 10
86.80747712214183
 20
147.1528725559023
 30
0.0
 10
86.80747697537578
 20
147.1528725553571
 30
0.0
 10
86.80747690242333
 20
147.1528725550272
 30
0.0
 10
86.80747686803095
 20
147.1528725545899
 30
0.0
 10
86.80747684578579
 20
147.1528725546784
 30
0.0
 10
86.80747681867635
 20
147.1528725518434
 30
0.0
 10
86.80747429911499
 20
147.1528728386986
 30
0.0
 10
86.80751038903303
 20
147.1528682185979
 30
0.0
 10
86.80754214685568
 20
147.1528641530764
 30
0.0
  0
SPLINE
  5
9D
330
1F
100
AcDbEntity
  8
0
  6
Continuous
 62
     7
370
    15
100
AcDbSpline
210
0.0
220
0.0
230
1.0
 70
     8
 71
     3
 72
    20
 73
    16
 74
     0
 42
0.00000001
 43
0.00000001
 40
0.0
 40
0.0
 40
0.0
 40
0.0
 40
0.249999999999986
 40
0.249999999999986
 40
0.3749999999999789
 40
0.3749999999999789
 40
0.4374999999999789
 40
0.4374999999999789
 40
0.4999999999999789
 40
0.4999999999999789
 40
0.6249999999999835
 40
0.6249999999999835
 40
0.7499999999999879
 40
0.7499999999999879
 40
1.0
 40
1.0
 40
1.0
 40
1.0
 10
58.67903471292446
 20
79.54307697731022
 30
0.0
 10
58.70530693013787
 20
79.56239491839267
 30
0.0
 10
58.7359870723927
 20
79.57678362949446
 30
0.0
 10
58.80745794277463
 20
79.56987926765844
 30
0.0
 10
58.83548497981897
 20
79.56271326431002
 30
0.0
 10
58.89056856931647
 20
79.53301423760644
 30
0.0
 10
58.9114598978689
 20
79.5195405950451
 30
0.0
 10
58.95666854531436
 20
79.48434232952908
 30
0.0
 10
58.98107275770993
 20
79.46243410080183
 30
0.0
 10
59.05240507576137
 20
79.39030924080629
 30
0.0
 10
59.09430186058165
 20
79.33796869985622
 30
0.0
 10
59.16587781943753
 20
79.24048530795548
 30
0.0
 10
59.19670580925482
 20
79.19373153807706
 30
0.0
 10
59.2798057420904
 20
79.06043832223794
 30
0.0
 10
59.3246606474607
 20
78.97780092432274
 30
0.0
 10
59.36477272291327
 20
78.89869402953195
 30
0.0
  0
SPLINE
  5
9E
330
1F
100
AcDbEntity
  8
0
  6
Continuous
 62
     7
370
    15
100
AcDbSpline
210
0.0
220
0.0
230
1.0
 70
     8
 71
     3
 72
    14
 73
    10
 74
     0
 42
0.00000001
 43
0.00000001
 40
0.0
 40
0.0
 40
0.0
 40
0.0
 40
0.25
 40
0.25
 40
0.5
 40
0.5
 40
0.75
 40
0.75
 40
1.0
 40
1.0
 40
1.0
 40
1.0
 10
58.38822048120845
 20
79.718890387443
 30
0.0
 10
58.38822048120846
 20
79.67764345641865
 30
0.0
 10
58.39683019758971
 20
79.64073648413617
 30
0.0
 10
58.42791637716005
 20
79.57983642423676
 30
0.0
 10
58.45030593064411
 20
79.55565550469707
 30
0.0
 10
58.50504986182023
 20
79.5216879138138
 30
0.0
 10
58.53750010140542
 20
79.51176782984562
 30
0.0
 10
58.60750161613348
 20
79.51041662094077
 30
0.0
 10
58.64571211625602
 20
79.51857489763694
 30
0.0
 10
58.67903471292911
 20
79.54307697730502
 30
0.0
  0
LINE
  5
9F
330
1F
100
AcDbEntity
  8
0
  6
Continuous
 62
     7
370
    15
100
AcDbLine
 10
58.3882204812
 20
79.7188903874
 30
0.0
 11
58.3882204812
 21
140.7242298726
 31
0.0
  0
SPLINE
  5
A0
330
1F
100
AcDbEntity
  8
0
  6
Continuous
 62
     7
370
    15
100
AcDbSpline
210
0.0
220
0.0
230
1.0
 70
     8
 71
     3
 72
    10
 73
     6
 74
     0
 42
0.00000001
 43
0.00000001
 40
0.0
 40
0.0
 40
0.0
 40
0.0
 40
0.0592402688376383
 40
0.6438088530391344
 40
1.0
 40
1.0
 40
1.0
 40
1.0
 10
58.6790347129291
 20
140.9000432827168
 30
0.0
 10
58.6742024553079
 20
140.9032921893484
 30
0.0
 10
58.62168665317316
 20
140.9386005175041
 30
0.0
 10
58.52273645549438
 20
140.9448548140627
 30
0.0
 10
58.47330793060304
 20
140.8896545763738
 30
0.0
 10
58.45459326585874
 20
140.8687546214505
 30
0.0
  0
SPLINE
  5
A1
330
1F
100
AcDbEntity
  8
0
  6
Continuous
 62
     7
370
    15
100
AcDbSpline
210
0.0
220
0.0
230
1.0
 70
     8
 71
     3
 72
     8
 73
     4
 74
     0
 42
0.00000001
 43
0.00000001
 40
0.0
 40
0.0
 40
0.0
 40
0.0
 40
1.0
 40
1.0
 40
1.0
 40
1.0
 10
58.41185415014466
 20
140.8318093736485
 30
0.0
 10
58.39650511150862
 20
140.8012993186526
 30
0.0
 10
58.38822048120845
 20
140.7649877631402
 30
0.0
 10
58.38822048120845
 20
140.7242298725788
 30
0.0
  0
SPLINE
  5
A2
330
1F
100
AcDbEntity
  8
0
  6
Continuous
 62
     7
370
    15
100
AcDbSpline
210
0.0
220
0.0
230
1.0
 70
     8
 71
     3
 72
    20
 73
    16
 74
     0
 42
0.00000001
 43
0.00000001
 40
0.0
 40
0.0
 40
0.0
 40
0.0
 40
0.2500000000000037
 40
0.2500000000000037
 40
0.3750000000000055
 40
0.3750000000000055
 40
0.5000000000000073
 40
0.5000000000000073
 40
0.5625000000000057
 40
0.5625000000000057
 40
0.625000000000004
 40
0.625000000000004
 40
0.7500000000000027
 40
0.7500000000000027
 40
1.0
 40
1.0
 40
1.0
 40
1.0
 10
59.36477272291088
 20
141.5444262304891
 30
0.0
 10
59.32477650508705
 20
141.4655478239316
 30
0.0
 10
59.27966287724939
 20
141.3824181772401
 30
0.0
 10
59.19640866288287
 20
141.2489295128892
 30
0.0
 10
59.16618933426236
 20
141.2030644570072
 30
0.0
 10
59.09410109912094
 20
141.1048729046023
 30
0.0
 10
59.05218378170984
 20
141.0525630850787
 30
0.0
 10
58.98093317715838
 20
140.9805571823442
 30
0.0
 10
58.95669736477907
 20
140.9587869700427
 30
0.0
 10
58.91109917459442
 20
140.9233123117137
 30
0.0
 10
58.89029668499471
 20
140.9099421275361
 30
0.0
 10
58.83535568657558
 20
140.8803722154009
 30
0.0
 10
58.80728669848878
 20
140.8732456930989
 30
0.0
 10
58.73678386842595
 20
140.8663713216162
 30
0.0
 10
58.70535978063507
 20
140.8806864807034
 30
0.0
 10
58.67903471292647
 20
140.9000432827139
 30
0.0
  0
SPLINE
  5
A3
330
1F
100
AcDbEntity
  8
0
  6
Continuous
 62
     7
370
    15
100
AcDbSpline
210
0.0
220
0.0
230
1.0
 70
     8
 71
     3
 72
    10
 73
     6
 74
     0
 42
0.00000001
 43
0.00000001
 40
0.0
 40
0.0
 40
0.0
 40
0.0
 40
0.4999999999999989
 40
0.4999999999999989
 40
1.0
 40
1.0
 40
1.0
 40
1.0
 10
60.03822048120846
 20
142.4698453318309
 30
0.0
 10
59.91333221045826
 20
142.3388490537594
 30
0.0
 10
59.79188209239781
 20
142.1951362170944
 30
0.0
 10
59.56229811744038
 20
141.8845659244052
 30
0.0
 10
59.4520231420444
 20
141.7164968513421
 30
0.0
 10
59.36477272291088
 20
141.5444262304891
 30
0.0
  0
SPLINE
  5
A4
330
1F
100
AcDbEntity
  8
0
  6
Continuous
 62
     7
370
    15
100
AcDbSpline
210
0.0
220
0.0
230
1.0
 70
     8
 71
     3
 72
     8
 73
     4
 74
     0
 42
0.00000001
 43
0.00000001
 40
0.0
 40
0.0
 40
0.0
 40
0.0
 40
1.0
 40
1.0
 40
1.0
 40
1.0
 10
60.28814559717419
 20
142.4673922985755
 30
0.0
 10
60.20112756732583
 20
142.4678588633626
 30
0.0
 10
60.1181735409459
 20
142.4688988829387
 30
0.0
 10
60.03822048120615
 20
142.469845331831
 30
0.0
  0
SPLINE
  5
A5
330
1F
100
AcDbEntity
  8
0
  6
Continuous
 62
     7
370
    15
100
AcDbSpline
210
0.0
220
0.0
230
1.0
 70
     8
 71
     3
 72
     8
 73
     4
 74
     0
 42
0.00000001
 43
0.00000001
 40
0.0
 40
0.0
 40
0.0
 40
0.0
 40
1.0
 40
1.0
 40
1.0
 40
1.0
 10
60.03822048120615
 20
77.97327492819083
 30
0.0
 10
60.11817354094642
 20
77.97422137708311
 30
0.0
 10
60.2011275673269
 20
77.97526139665923
 30
0.0
 10
60.28814559717588
 20
77.97572796144631
 30
0.0
  0
SPLINE
  5
A6
330
1F
100
AcDbEntity
  8
0
  6
Continuous
 62
     7
370
    15
100
AcDbSpline
210
0.0
220
0.0
230
1.0
 70
     8
 71
     3
 72
    10
 73
     6
 74
     0
 42
0.00000001
 43
0.00000001
 40
0.0
 40
0.0
 40
0.0
 40
0.0
 40
0.4999999999999989
 40
0.4999999999999989
 40
1.0
 40
1.0
 40
1.0
 40
1.0
 10
59.36477272290995
 20
78.89869402953452
 30
0.0
 10
59.45202314204342
 20
78.72662340868114
 30
0.0
 10
59.56229811743959
 20
78.5585543356177
 30
0.0
 10
59.79188209239742
 20
78.24798404292791
 30
0.0
 10
59.91333221045805
 20
78.10427120626262
 30
0.0
 10
60.03822048120846
 20
77.97327492819092
 30
0.0
  0
LINE
  5
A7
330
1F
100
AcDbEntity
  8
0
  6
Continuous
 62
     7
370
    15
100
AcDbLine
 10
136.2382204812
 20
159.2113549857
 30
0.0
 11
131.5502495021
 21
159.2113549857
 31
0.0
  0
LINE
  5
A8
330
1F
100
AcDbEntity
  8
0
  6
Continuous
 62
     7
370
    15
100
AcDbLine
 10
131.5502495021
 20
149.1725228909
 30
0.0
 11
136.2382204812
 21
149.1725228909
 31
0.0
  0
LINE
  5
A9
330
1F
100
AcDbEntity
  8
0
  6
Continuous
 62
     7
370
    15
100
AcDbLine
 10
131.5502495021
 20
149.1725228909
 30
0.0
 11
131.5502495021
 21
159.2113549857
 31
0.0
  0
SPLINE
  5
AA
330
1F
100
AcDbEntity
  8
0
  6
Continuous
 62
     7
370
    15
100
AcDbSpline
210
0.0
220
0.0
230
1.0
 70
     8
 71
     3
 72
     8
 73
     4
 74
     0
 42
0.00000001
 43
0.00000001
 40
0.0
 40
0.0
 40
0.0
 40
0.0
 40
1.0
 40
1.0
 40
1.0
 40
1.0
 10
125.026191460287
 20
149.1725228908979
 30
0.0
 10
125.4831178140866
 20
148.1566049212236
 30
0.0
 10
125.9343234558896
 20
147.1378090921324
 30
0.0
 10
126.3782204812084
 20
146.1170076361488
 30
0.0
  0
LINE
  5
AB
330
1F
100
AcDbEntity
  8
0
  6
Continuous
 62
     7
370
    15
100
AcDbLine
 10
126.3782204812
 20
146.1170076361
 30
0.0
 11
126.3782204812
 21
144.9357953225
 31
0.0
  0
SPLINE
  5
AC
330
1F
100
AcDbEntity
  8
0
  6
Continuous
 62
     7
370
    15
100
AcDbSpline
210
0.0
220
0.0
230
1.0
 70
     8
 71
     3
 72
    14
 73
    10
 74
     0
 42
0.00000001
 43
0.00000001
 40
0.0
 40
0.0
 40
0.0
 40
0.0
 40
0.25
 40
0.25
 40
0.5
 40
0.5
 40
0.75
 40
0.75
 40
1.0
 40
1.0
 40
1.0
 40
1.0
 10
126.3782204812084
 20
144.935795322508
 30
0.0
 10
126.3782204812084
 20
144.8119284457188
 30
0.0
 10
126.394079608836
 20
144.6876687688813
 30
0.0
 10
126.4574412543559
 20
144.4500604064754
 30
0.0
 10
126.5060309624053
 20
144.3332800217229
 30
0.0
 10
126.6383165671801
 20
144.1244774931139
 30
0.0
 10
126.7236413584407
 20
144.0299667895213
 30
0.0
 10
126.9305326067469
 20
143.892009988719
 30
0.0
 10
127.0545005526369
 20
143.8500915430834
 30
0.0
 10
127.1782204812084
 20
143.8500915430834
 30
0.0
  0
LINE
  5
AD
330
1F
100
AcDbEntity
  8
0
  6
Continuous
 62
     7
370
    15
100
AcDbLine
 10
127.1782204812
 20
143.8500915431
 30
0.0
 11
129.3982204812
 21
143.8500915431
 31
0.0
  0
SPLINE
  5
AE
330
1F
100
AcDbEntity
  8
0
  6
Continuous
 62
     7
370
    15
100
AcDbSpline
210
0.0
220
0.0
230
1.0
 70
     8
 71
     3
 72
    12
 73
     8
 74
     0
 42
0.00000001
 43
0.00000001
 40
0.0
 40
0.0
 40
0.0
 40
0.0
 40
0.250000000000002
 40
0.250000000000002
 40
0.500000000000004
 40
0.500000000000004
 40
1.0
 40
1.0
 40
1.0
 40
1.0
 10
129.3982204812085
 20
143.8500915430834
 30
0.0
 10
129.5219214311884
 20
143.8500915430834
 30
0.0
 10
129.6460180434586
 20
143.8920851548159
 30
0.0
 10
129.8526732065456
 20
144.0298804814603
 30
0.0
 10
129.9377139732725
 20
144.1238540799252
 30
0.0
 10
130.1371925417461
 20
144.4386422861461
 30
0.0
 10
130.1982204812085
 20
144.6888812783737
 30
0.0
 10
130.1982204812085
 20
144.935795322508
 30
0.0
  0
LINE
  5
AF
330
1F
100
AcDbEntity
  8
0
  6
Continuous
 62
     7
370
    15
100
AcDbLine
 10
130.1982204812
 20
144.9357953225
 30
0.0
 11
130.1982204812
 21
146.1170076361
 31
0.0
  0
SPLINE
  5
B0
330
1F
100
AcDbEntity
  8
0
  6
Continuous
 62
     7
370
    15
100
AcDbSpline
210
0.0
220
0.0
230
1.0
 70
     8
 71
     3
 72
     8
 73
     4
 74
     0
 42
0.00000001
 43
0.00000001
 40
0.0
 40
0.0
 40
0.0
 40
0.0
 40
1.0
 40
1.0
 40
1.0
 40
1.0
 10
130.1982204812085
 20
146.1170076361487
 30
0.0
 10
130.642370492234
 20
147.1383908671004
 30
0.0
 10
131.0934448024919
 20
148.1568754038687
 30
0.0
 10
131.5502495021298
 20
149.1725228908978
 30
0.0
  0
SPLINE
  5
B1
330
1F
100
AcDbEntity
  8
0
  6
Continuous
 62
     7
370
    15
100
AcDbSpline
210
0.0
220
0.0
230
1.0
 70
     8
 71
     3
 72
    16
 73
    12
 74
     0
 42
0.00000001
 43
0.00000001
 40
0.0
 40
0.0
 40
0.0
 40
0.0
 40
0.1249999999999978
 40
0.1249999999999978
 40
0.2499999999999955
 40
0.2499999999999955
 40
0.499999999999997
 40
0.499999999999997
 40
0.7499999999999984
 40
0.7499999999999984
 40
1.0
 40
1.0
 40
1.0
 40
1.0
 10
136.2382204812085
 20
149.1725228908979
 30
0.0
 10
136.3138581876196
 20
149.1725228908979
 30
0.0
 10
136.3901738520379
 20
149.1611778907629
 30
0.0
 10
136.5345845899298
 20
149.1185253401244
 30
0.0
 10
136.6030310390382
 20
149.0875910154415
 30
0.0
 10
136.7979622916514
 20
148.968334643674
 30
0.0
 10
136.9058034654323
 20
148.8581826300534
 30
0.0
 10
137.0745162136443
 20
148.6100465443953
 30
0.0
 10
137.1368806263678
 20
148.4697042203916
 30
0.0
 10
137.2181845508762
 20
148.181432528903
 30
0.0
 10
137.2382204812085
 20
148.0306275559232
 30
0.0
 10
137.2382204812085
 20
147.8802576645779
 30
0.0
  0
LINE
  5
B2
330
1F
100
AcDbEntity
  8
0
  6
Continuous
 62
     7
370
    15
100
AcDbLine
 10
137.2382204812
 20
147.8802576646
 30
0.0
 11
137.2382204812
 21
141.57156013
 31
0.0
  0
SPLINE
  5
B3
330
1F
100
AcDbEntity
  8
0
  6
Continuous
 62
     7
370
    15
100
AcDbSpline
210
0.0
220
0.0
230
1.0
 70
     8
 71
     3
 72
     8
 73
     4
 74
     0
 42
0.00000001
 43
0.00000001
 40
0.0
 40
0.0
 40
0.0
 40
0.0
 40
1.0
 40
1.0
 40
1.0
 40
1.0
 10
126.3782204812084
 20
156.8188309907158
 30
0.0
 10
125.9279122455239
 20
157.6165461158294
 30
0.0
 10
125.4772184290003
 20
158.4140444154866
 30
0.0
 10
125.026191460287
 20
159.2113549856745
 30
0.0
  0
LINE
  5
B4
330
1F
100
AcDbEntity
  8
0
  6
Continuous
 62
     7
370
    15
100
AcDbLine
 10
126.3782204812
 20
146.1170076361
 30
0.0
 11
126.3782204812
 21
156.8188309907
 31
0.0
  0
SPLINE
  5
B5
330
1F
100
AcDbEntity
  8
0
  6
Continuous
 62
     7
370
    15
100
AcDbSpline
210
0.0
220
0.0
230
1.0
 70
     8
 71
     3
 72
    12
 73
     8
 74
     0
 42
0.00000001
 43
0.00000001
 40
0.0
 40
0.0
 40
0.0
 40
0.0
 40
0.4999999999999953
 40
0.4999999999999953
 40
0.7499999999999977
 40
0.7499999999999977
 40
1.0
 40
1.0
 40
1.0
 40
1.0
 10
137.2382204812085
 20
158.1902999508568
 30
0.0
 10
137.2382204812085
 20
158.4555693836232
 30
0.0
 10
137.133613737722
 20
158.7180844892756
 30
0.0
 10
136.8569453859767
 20
159.0036220953128
 30
0.0
 10
136.7465801266247
 20
159.0799437121742
 30
0.0
 10
136.502508078009
 20
159.1842858770144
 30
0.0
 10
136.3707556166772
 20
159.2113549856745
 30
0.0
 10
136.2382204812085
 20
159.2113549856745
 30
0.0
  0
LINE
  5
B6
330
1F
100
AcDbEntity
  8
0
  6
Continuous
 62
     7
370
    15
100
AcDbLine
 10
137.2382204812
 20
147.8802576646
 30
0.0
 11
137.2382204812
 21
158.1902999509
 31
0.0
  0
SPLINE
  5
B7
330
1F
100
AcDbEntity
  8
0
  6
Continuous
 62
     7
370
    15
100
AcDbSpline
210
0.0
220
0.0
230
1.0
 70
     8
 71
     3
 72
    10
 73
     6
 74
     0
 42
0.00000001
 43
0.00000001
 40
0.0
 40
0.0
 40
0.0
 40
0.0
 40
0.5
 40
0.5
 40
1.0
 40
1.0
 40
1.0
 40
1.0
 10
127.1782204812084
 20
155.0958358901834
 30
0.0
 10
126.9656841673521
 20
155.0958358901834
 30
0.0
 10
126.7557479956981
 20
155.1872484768135
 30
0.0
 10
126.4620408546868
 20
155.4919933427177
 30
0.0
 10
126.3782204812084
 20
155.7041483126264
 30
0.0
 10
126.3782204812084
 20
155.9151113708589
 30
0.0
  0
SPLINE
  5
B8
330
1F
100
AcDbEntity
  8
0
  6
Continuous
 62
     7
370
    15
100
AcDbSpline
210
0.0
220
0.0
230
1.0
 70
     8
 71
     3
 72
    14
 73
    10
 74
     0
 42
0.00000001
 43
0.00000001
 40
0.0
 40
0.0
 40
0.0
 40
0.0
 40
0.25
 40
0.25
 40
0.5
 40
0.5
 40
0.75
 40
0.75
 40
1.0
 40
1.0
 40
1.0
 40
1.0
 10
130.1982204812085
 20
155.9151113708589
 30
0.0
 10
130.1982204812085
 20
155.8087546771065
 30
0.0
 10
130.1778329250672
 20
155.7029141893464
 30
0.0
 10
130.0991985796057
 20
155.50634927581
 30
0.0
 10
130.040467219967
 20
155.4151785335229
 30
0.0
 10
129.8938583143645
 20
155.2632674444912
 30
0.0
 10
129.804452994338
 20
155.2011986076717
 30
0.0
 10
129.6105622617376
 20
155.117930559913
 30
0.0
 10
129.5040572718478
 20
155.0958358901833
 30
0.0
 10
129.3982204812085
 20
155.0958358901833
 30
0.0
  0
SPLINE
  5
B9
330
1F
100
AcDbEntity
  8
0
  6
Continuous
 62
     7
370
    15
100
AcDbSpline
210
0.0
220
0.0
230
1.0
 70
     8
 71
     3
 72
     8
 73
     4
 74
     0
 42
0.00000001
 43
0.00000001
 40
0.0
 40
0.0
 40
0.0
 40
0.0
 40
1.0
 40
1.0
 40
1.0
 40
1.0
 10
131.5502495021298
 20
159.2113549856745
 30
0.0
 10
131.0992225334166
 20
158.4140444154866
 30
0.0
 10
130.648528716893
 20
157.6165461158294
 30
0.0
 10
130.1982204812085
 20
156.8188309907158
 30
0.0
  0
LINE
  5
BA
330
1F
100
AcDbEntity
  8
0
  6
Continuous
 62
     7
370
    15
100
AcDbLine
 10
130.1982204812
 20
146.1170076361
 30
0.0
 11
130.1982204812
 21
156.8188309907
 31
0.0
  0
LINE
  5
BB
330
1F
100
AcDbEntity
  8
0
  6
Continuous
 62
     7
370
    15
100
AcDbLine
 10
129.3982204812
 20
155.0958358902
 30
0.0
 11
127.1782204812
 21
155.0958358902
 31
0.0
  0
ARC
  5
BC
330
1F
100
AcDbEntity
  8
0
  6
Continuous
 62
     7
370
    15
100
AcDbCircle
 10
117.2884945413
 20
142.7883336456
 30
0.0
 40
11.44864639011347
100
AcDbArc
 50
77.6649884509
 51
102.4018279774
  0
LINE
  5
BD
330
1F
100
AcDbEntity
  8
0
  6
Continuous
 62
     7
370
    15
100
AcDbLine
 10
60.0382204812
 20
77.97156013
 30
0.0
 11
60.0382204812
 21
77.9732749282
 31
0.0
  0
LINE
  5
BE
330
1F
100
AcDbEntity
  8
0
  6
Continuous
 62
     7
370
    15
100
AcDbLine
 10
159.2382204812
 20
93.22156013
 30
0.0
 11
159.2382204812
 21
127.22156013
 31
0.0
  0
SPLINE
  5
BF
330
1F
100
AcDbEntity
  8
0
  6
Continuous
 62
     7
370
    15
100
AcDbSpline
210
0.0
220
0.0
230
1.0
 70
     8
 71
     3
 72
    37
 73
    33
 74
     0
 42
0.00000001
 43
0.00000001
 40
0.0
 40
0.0
 40
0.0
 40
0.0
 40
0.0392082674721527
 40
0.061772285270461
 40
0.0824993429531819
 40
0.124582190756497
 40
0.1459656004379273
 40
0.1682643626245656
 40
0.2134680386877016
 40
0.2363947677783502
 40
0.2617822342811121
 40
0.3132472624548513
 40
0.3393544177005676
 40
0.3681000854996985
 40
0.4264410736046838
 40
0.4560857751342142
 40
0.4870369945912171
 40
0.5499505762700437
 40
0.5819857289179776
 40
0.6134814457590136
 40
0.6452036883143566
 40
0.6776635973566102
 40
0.7103905437966898
 40
0.7406864992394617
 40
0.8025359961814186
 40
0.8342375053655077
 40
0.8568043247967096
 40
0.9026526567983079
 40
0.9260082882235716
 40
0.9485799697760544
 40
0.9946195106363281
 40
1.0
 40
1.0
 40
1.0
 40
1.0
 10
153.7342271111134
 20
127.2209562784712
 30
0.0
 10
153.7301281485383
 20
127.2203292519212
 30
0.0
 10
153.7236702685599
 20
127.2193413770311
 30
0.0
 10
153.6649532333894
 20
127.2105262115222
 30
0.0
 10
153.5836739802636
 20
127.1985126673113
 30
0.0
 10
153.4699085081849
 20
127.1821042627319
 30
0.0
 10
153.3248555255348
 20
127.1621317201307
 30
0.0
 10
153.1548871779534
 20
127.139541890336
 30
0.0
 10
152.9533776664914
 20
127.1143726072471
 30
0.0
 10
152.7209209267117
 20
127.0878201005728
 30
0.0
 10
152.4562974049006
 20
127.0596626741137
 30
0.0
 10
152.1587336906952
 20
127.0319159780698
 30
0.0
 10
151.8330034528799
 20
127.0066450757039
 30
0.0
 10
151.4740898223702
 20
126.9828439785012
 30
0.0
 10
151.0872153045189
 20
126.964384577573
 30
0.0
 10
150.6845931120256
 20
126.953367819202
 30
0.0
 10
150.2626171997011
 20
126.9477311977682
 30
0.0
 10
149.8298178858067
 20
126.9515153419352
 30
0.0
 10
149.4030997120137
 20
126.9646401990656
 30
0.0
 10
149.087413506273
 20
126.9788893332685
 30
0.0
 10
148.7785374641985
 20
126.9971357681905
 30
0.0
 10
148.4765713895848
 20
127.0190746100968
 30
0.0
 10
148.192542930521
 20
127.043430238431
 30
0.0
 10
147.8419629783896
 20
127.0776272596559
 30
0.0
 10
147.5284880979261
 20
127.1134563567719
 30
0.0
 10
147.2799110522643
 20
127.1450287174831
 30
0.0
 10
147.0910004240477
 20
127.1702523533329
 30
0.0
 10
146.9498003293416
 20
127.1902240651941
 30
0.0
 10
146.8459844372395
 20
127.205405313016
 30
0.0
 10
146.770168887174
 20
127.2166936396651
 30
0.0
 10
146.7340897725851
 20
127.2221869859887
 30
0.0
 10
146.739637572561
 20
127.2213452538219
 30
0.0
 10
146.7402180832809
 20
127.2212571766475
 30
0.0
  0
SPLINE
  5
C0
330
1F
100
AcDbEntity
  8
0
  6
Continuous
 62
     7
370
    15
100
AcDbSpline
210
0.0
220
0.0
230
1.0
 70
     8
 71
     3
 72
     9
 73
     5
 74
     0
 42
0.00000001
 43
0.00000001
 40
0.0
 40
0.0
 40
0.0
 40
0.0
 40
0.3854829157794664
 40
1.0
 40
1.0
 40
1.0
 40
1.0
 10
147.4964199823047
 20
127.1182857506178
 30
0.0
 10
147.5443840119572
 20
127.1124342102085
 30
0.0
 10
147.6688098365246
 20
127.0972544443362
 30
0.0
 10
147.8132068648612
 20
127.081847965447
 30
0.0
 10
147.9019413056847
 20
127.072380420962
 30
0.0
  0
SPLINE
  5
C1
330
1F
100
AcDbEntity
  8
0
  6
Continuous
 62
     7
370
    15
100
AcDbSpline
210
0.0
220
0.0
230
1.0
 70
     8
 71
     3
 72
    66
 73
    62
 74
     0
 42
0.00000001
 43
0.00000001
 40
-0.0625000000000006
 40
-0.0625000000000006
 40
0.0
 40
0.0
 40
0.0624999999999991
 40
0.0624999999999991
 40
0.0937499999999991
 40
0.0937499999999991
 40
0.1249999999999991
 40
0.1249999999999991
 40
0.1562499999999992
 40
0.1562499999999992
 40
0.1874999999999992
 40
0.1874999999999992
 40
0.2187499999999992
 40
0.2187499999999992
 40
0.2499999999999992
 40
0.2499999999999992
 40
0.2812499999999993
 40
0.2812499999999993
 40
0.3124999999999993
 40
0.3124999999999993
 40
0.3437499999999994
 40
0.3437499999999994
 40
0.3749999999999994
 40
0.3749999999999994
 40
0.4062499999999994
 40
0.4062499999999994
 40
0.4374999999999995
 40
0.4374999999999995
 40
0.4687499999999996
 40
0.4687499999999996
 40
0.4999999999999996
 40
0.4999999999999996
 40
0.5312499999999996
 40
0.5312499999999996
 40
0.5624999999999996
 40
0.5624999999999996
 40
0.5937499999999996
 40
0.5937499999999996
 40
0.6249999999999996
 40
0.6249999999999996
 40
0.6562499999999996
 40
0.6562499999999996
 40
0.6874999999999996
 40
0.6874999999999996
 40
0.7187499999999996
 40
0.7187499999999996
 40
0.7499999999999994
 40
0.7499999999999994
 40
0.7812499999999994
 40
0.7812499999999994
 40
0.8124999999999994
 40
0.8124999999999994
 40
0.8437499999999994
 40
0.8437499999999994
 40
0.8749999999999994
 40
0.8749999999999994
 40
0.9062499999999994
 40
0.9062499999999994
 40
0.9374999999999994
 40
0.9374999999999994
 40
1.0
 40
1.0
 40
1.062499999999999
 40
1.062499999999999
 10
147.5628183008155
 20
112.2042956303415
 30
0.0
 10
148.241064313104
 20
112.7332013472507
 30
0.0
 10
148.6198587058095
 20
112.9289747104692
 30
0.0
 10
149.2327386414324
 20
113.1269580938818
 30
0.0
 10
149.4401926046866
 20
113.1752552379813
 30
0.0
 10
149.8611253011245
 20
113.238264984128
 30
0.0
 10
150.0761725195537
 20
113.2529184033931
 30
0.0
 10
150.5051054408567
 20
113.2472668228012
 30
0.0
 10
150.7169259363772
 20
113.2272687430179
 30
0.0
 10
151.1353808744393
 20
113.1535517499439
 30
0.0
 10
151.343361700757
 20
113.0993576604657
 30
0.0
 10
151.7476229347513
 20
112.9566809561323
 30
0.0
 10
151.9410795752349
 20
112.8694664663851
 30
0.0
 10
152.3105337352207
 20
112.6628585280876
 30
0.0
 10
152.4874736605503
 20
112.5427414481258
 30
0.0
 10
152.8177015461028
 20
112.269239998488
 30
0.0
 10
152.9672247782846
 20
112.1192434731211
 30
0.0
 10
153.233818599846
 20
111.7914694654201
 30
0.0
 10
153.3519717891388
 20
111.611652160957
 30
0.0
 10
153.5450935371656
 20
111.2284705906775
 30
0.0
 10
153.6184410926852
 20
111.0293951016413
 30
0.0
 10
153.7166948327812
 20
110.6155649731996
 30
0.0
 10
153.741036332284
 20
110.3978395154119
 30
0.0
 10
153.7348662365352
 20
109.9707422836833
 30
0.0
 10
153.7052738932361
 20
109.7579810607877
 30
0.0
 10
153.5939453640338
 20
109.340839859929
 30
0.0
 10
153.5142024602373
 20
109.1427171067849
 30
0.0
 10
153.310923345055
 20
108.7653934979524
 30
0.0
 10
153.1873319163171
 20
108.5873852684838
 30
0.0
 10
152.909720428916
 20
108.2636349190646
 30
0.0
 10
152.7529742930097
 20
108.1146075299341
 30
0.0
 10
152.4164543159784
 20
107.850129336015
 30
0.0
 10
152.2374064848549
 20
107.7346686296868
 30
0.0
 10
151.8590871867436
 20
107.5349477095876
 30
0.0
 10
151.659367324194
 20
107.4509730682836
 30
0.0
 10
151.2537424418643
 20
107.3188922270837
 30
0.0
 10
151.0461781662079
 20
107.2698097998239
 30
0.0
 10
150.6215629563388
 20
107.2053491951554
 30
0.0
 10
150.4058616866322
 20
107.19050592003
 30
0.0
 10
149.9796173144796
 20
107.1953786576008
 30
0.0
 10
149.7673599235239
 20
107.2147942619951
 30
0.0
 10
149.3446244169328
 20
107.2886245110617
 30
0.0
 10
149.1354316847159
 20
107.3431795420694
 30
0.0
 10
148.7342991586012
 20
107.484262431573
 30
0.0
 10
148.5404605895668
 20
107.5710459782108
 30
0.0
 10
148.1670777972128
 20
107.7793673958306
 30
0.0
 10
147.9881732546635
 20
107.9011419643626
 30
0.0
 10
147.6615268602178
 20
108.1714667794113
 30
0.0
 10
147.51164016414
 20
108.3210356991595
 30
0.0
 10
147.2418025629834
 20
108.6525203862742
 30
0.0
 10
147.1228512082039
 20
108.834341104334
 30
0.0
 10
146.9311427486492
 20
109.2153962690703
 30
0.0
 10
146.8559450347497
 20
109.4195604288041
 30
0.0
 10
146.7580485526614
 20
109.8376340484389
 30
0.0
 10
146.7349929516737
 20
110.049603812286
 30
0.0
 10
146.7421658803369
 20
110.4795862177805
 30
0.0
 10
146.773156570973
 20
110.6950535923835
 30
0.0
 10
146.8846793085257
 20
111.1079084244242
 30
0.0
 10
146.9666669376876
 20
111.3102439700791
 30
0.0
 10
147.2733624452485
 20
111.8745421879286
 30
0.0
 10
147.5628183008155
 20
112.2042956303415
 30
0.0
 10
148.241064313104
 20
112.7332013472507
 30
0.0
  0
SPLINE
  5
C2
330
1F
100
AcDbEntity
  8
0
  6
Continuous
 62
     7
370
    15
100
AcDbSpline
210
0.0
220
0.0
230
1.0
 70
     8
 71
     3
 72
    37
 73
    33
 74
     0
 42
0.00000001
 43
0.00000001
 40
0.0
 40
0.0
 40
0.0
 40
0.0
 40
0.0243233406197266
 40
0.047384671798545
 40
0.068069545567698
 40
0.1100860600096828
 40
0.1314480565192198
 40
0.1533430675181551
 40
0.1977346139040885
 40
0.2202529371221348
 40
0.2450549321275039
 40
0.2953283104322632
 40
0.3208270291703489
 40
0.3490477819293828
 40
0.4063088942459439
 40
0.4353946967332747
 40
0.466089659711623
 40
0.5284668779915359
 40
0.560217985133741
 40
0.5917307544983484
 40
0.6234670090947039
 40
0.6559258483608665
 40
0.688643779537608
 40
0.7192999382127234
 40
0.781849418388961
 40
0.8138830978441064
 40
0.837054820154582
 40
0.8841268542439934
 40
0.9081044387475615
 40
0.9312816497571346
 40
0.9785815619411129
 40
1.0
 40
1.0
 40
1.0
 40
1.0
 10
146.7485753852542
 20
93.2231294648997
 30
0.0
 10
146.7465060825708
 20
93.22281688570895
 30
0.0
 10
146.7424748423708
 20
93.22220794540767
 30
0.0
 10
146.7801011766626
 20
93.22789443233813
 30
0.0
 10
146.8452445104983
 20
93.23761905098502
 30
0.0
 10
146.944626734681
 20
93.25217281489391
 30
0.0
 10
147.0754791598444
 20
93.27056217142426
 30
0.0
 10
147.2302232870033
 20
93.29164016198467
 30
0.0
 10
147.4161893109058
 20
93.31562939965121
 30
0.0
 10
147.6331302077585
 20
93.34146481316901
 30
0.0
 10
147.8811259183955
 20
93.36919765987497
 30
0.0
 10
148.1620491712486
 20
93.39717836968117
 30
0.0
 10
148.4721342397549
 20
93.42348070388942
 30
0.0
 10
148.8161559115744
 20
93.4489856051253
 30
0.0
 10
149.189781337898
 20
93.47005978075575
 30
0.0
 10
149.5820822030644
 20
93.48446480277221
 30
0.0
 10
149.997109608018
 20
93.49403207479504
 30
0.0
 10
150.4266684578532
 20
93.49458669798577
 30
0.0
 10
150.8542198824326
 20
93.4857125915759
 30
0.0
 10
151.1733377259849
 20
93.4744504277057
 30
0.0
 10
151.4882125351045
 20
93.45885167467318
 30
0.0
 10
151.7978649658089
 20
93.43918332237041
 30
0.0
 10
152.092313017887
 20
93.4164809319005
 30
0.0
 10
152.4604844585585
 20
93.38352238977872
 30
0.0
 10
152.7954065742226
 20
93.34757698292118
 30
0.0
 10
153.0678496312644
 20
93.3145232711909
 30
0.0
 10
153.2801468948568
 20
93.28721407084169
 30
0.0
 10
153.4446217315052
 20
93.26457182099945
 30
0.0
 10
153.5714537520221
 20
93.24636699323888
 30
0.0
 10
153.6712429070334
 20
93.23170537612542
 30
0.0
 10
153.7310358847686
 20
93.22265006589751
 30
0.0
 10
153.7355815869233
 20
93.2219603648311
 30
0.0
 10
153.7369984113915
 20
93.22174539576507
 30
0.0
  0
SPLINE
  5
C3
330
1F
100
AcDbEntity
  8
0
  6
Continuous
 62
     7
370
    15
100
AcDbSpline
210
0.0
220
0.0
230
1.0
 70
     8
 71
     3
 72
     9
 73
     5
 74
     0
 42
0.00000001
 43
0.00000001
 40
0.0
 40
0.0
 40
0.0
 40
0.0
 40
0.1017170788007978
 40
1.0
 40
1.0
 40
1.0
 40
1.0
 10
148.1928112715889
 20
93.39881765188125
 30
0.0
 10
148.1821621793486
 20
93.39796503706927
 30
0.0
 10
148.0774689226627
 20
93.38958281825185
 30
0.0
 10
147.9850024023222
 20
93.37965649013937
 30
0.0
 10
147.9019413063177
 20
93.37073983912569
 30
0.0
  0
CIRCLE
  5
C4
330
1F
100
AcDbEntity
  8
0
  6
Continuous
 62
     7
370
    15
100
AcDbCircle
 10
150.2382204812
 20
110.22156013
 30
0.0
 40
2.5
  0
LINE
  5
C5
330
1F
100
AcDbEntity
  8
0
  6
Continuous
 62
     7
370
    15
100
AcDbLine
 10
60.0382204812
 20
142.47156013
 30
0.0
 11
60.0382204812
 21
142.4698453318
 31
0.0
  0
LINE
  5
C6
330
1F
100
AcDbEntity
  8
0
  6
Continuous
 62
     7
370
    15
100
AcDbLine
 10
187.4634015365
 20
94.22156013
 30
0.0
 11
187.4634015365
 21
126.22156013
 31
0.0
  0
LINE
  5
C7
330
1F
100
AcDbEntity
  8
0
  6
Continuous
 62
     7
370
    15
100
AcDbLine
 10
238.2882204812
 20
100.0703411133
 30
0.0
 11
238.2882204812
 21
120.3727791279
 31
0.0
  0
LINE
  5
C8
330
1F
100
AcDbEntity
  8
0
  6
HIDDEN
 62
     7
370
     0
100
AcDbLine
 10
196.2882204812
 20
106.22156013
 30
0.0
 11
196.2882204812
 21
114.22156013
 31
0.0
  0
LINE
  5
C9
330
1F
100
AcDbEntity
  8
0
  6
HIDDEN
 62
     7
370
     0
100
AcDbLine
 10
180.7882204812
 20
106.22156013
 30
0.0
 11
180.7882204812
 21
114.22156013
 31
0.0
  0
LINE
  5
CA
330
1F
100
AcDbEntity
  8
0
  6
HIDDEN
 62
     7
370
     0
100
AcDbLine
 10
180.2882204812
 20
106.72156013
 30
0.0
 11
180.2882204812
 21
113.72156013
 31
0.0
  0
LINE
  5
CB
330
1F
100
AcDbEntity
  8
0
  6
HIDDEN
 62
     7
370
     0
100
AcDbLine
 10
200.2882204812
 20
109.22156013
 30
0.0
 11
198.2882204812
 21
109.22156013
 31
0.0
  0
LINE
  5
CC
330
1F
100
AcDbEntity
  8
0
  6
HIDDEN
 62
     7
370
     0
100
AcDbLine
 10
200.2882204812
 20
106.72156013
 30
0.0
 11
200.2882204812
 21
109.22156013
 31
0.0
  0
LINE
  5
CD
330
1F
100
AcDbEntity
  8
0
  6
HIDDEN
 62
     7
370
     0
100
AcDbLine
 10
200.2882204812
 20
111.22156013
 30
0.0
 11
200.2882204812
 21
113.72156013
 31
0.0
  0
LINE
  5
CE
330
1F
100
AcDbEntity
  8
0
  6
HIDDEN
 62
     7
370
     0
100
AcDbLine
 10
198.2882204812
 20
111.22156013
 30
0.0
 11
200.2882204812
 21
111.22156013
 31
0.0
  0
LINE
  5
CF
330
1F
100
AcDbEntity
  8
0
  6
HIDDEN
 62
     7
370
     0
100
AcDbLine
 10
198.2882204812
 20
109.22156013
 30
0.0
 11
198.2882204812
 21
111.22156013
 31
0.0
  0
LINE
  5
D0
330
1F
100
AcDbEntity
  8
0
  6
HIDDEN
 62
     7
370
     0
100
AcDbLine
 10
195.2882204812
 20
110.22156013
 30
0.0
 11
198.2882204812
 21
110.22156013
 31
0.0
  0
LINE
  5
D1
330
1F
100
AcDbEntity
  8
0
  6
HIDDEN
 62
     7
370
     0
100
AcDbLine
 10
195.2882204812
 20
110.22156013
 30
0.0
 11
195.2882204812
 21
109.22156013
 31
0.0
  0
LINE
  5
D2
330
1F
100
AcDbEntity
  8
0
  6
HIDDEN
 62
     7
370
     0
100
AcDbLine
 10
195.2882204812
 20
111.22156013
 30
0.0
 11
195.2882204812
 21
110.22156013
 31
0.0
  0
LINE
  5
D3
330
1F
100
AcDbEntity
  8
0
  6
HIDDEN
 62
     7
370
     0
100
AcDbLine
 10
185.2882204811
 20
110.22156013
 30
0.0
 11
185.2882204811
 21
111.22156013
 31
0.0
  0
LINE
  5
D4
330
1F
100
AcDbEntity
  8
0
  6
HIDDEN
 62
     7
370
     0
100
AcDbLine
 10
185.2882204811
 20
110.22156013
 30
0.0
 11
180.2882204812
 21
110.22156013
 31
0.0
  0
LINE
  5
D5
330
1F
100
AcDbEntity
  8
0
  6
HIDDEN
 62
     7
370
     0
100
AcDbLine
 10
185.2882204811
 20
109.22156013
 30
0.0
 11
185.2882204811
 21
110.22156013
 31
0.0
  0
LINE
  5
D6
330
1F
100
AcDbEntity
  8
0
  6
HIDDEN
 62
     7
370
     0
100
AcDbLine
 10
185.2882204811
 20
108.22156013
 30
0.0
 11
185.2882204811
 21
109.22156013
 31
0.0
  0
LINE
  5
D7
330
1F
100
AcDbEntity
  8
0
  6
HIDDEN
 62
     7
370
     0
100
AcDbLine
 10
185.2882204811
 20
111.22156013
 30
0.0
 11
185.2882204811
 21
112.22156013
 31
0.0
  0
LINE
  5
D8
330
1F
100
AcDbEntity
  8
0
  6
HIDDEN
 62
     7
370
     0
100
AcDbLine
 10
195.2882204812
 20
109.22156013
 30
0.0
 11
195.2882204812
 21
108.22156013
 31
0.0
  0
LINE
  5
D9
330
1F
100
AcDbEntity
  8
0
  6
HIDDEN
 62
     7
370
     0
100
AcDbLine
 10
195.2882204812
 20
112.22156013
 30
0.0
 11
195.2882204812
 21
111.22156013
 31
0.0
  0
LINE
  5
DA
330
1F
100
AcDbEntity
  8
0
  6
HIDDEN
 62
     7
370
     0
100
AcDbLine
 10
185.2882204811
 20
108.22156013
 30
0.0
 11
180.2882204811
 21
108.22156013
 31
0.0
  0
LINE
  5
DB
330
1F
100
AcDbEntity
  8
0
  6
HIDDEN
 62
     7
370
     0
100
AcDbLine
 10
195.2882204812
 20
112.22156013
 30
0.0
 11
200.2882204812
 21
112.22156013
 31
0.0
  0
LINE
  5
DC
330
1F
100
AcDbEntity
  8
0
  6
HIDDEN
 62
     7
370
     0
100
AcDbLine
 10
195.2882204812
 20
108.22156013
 30
0.0
 11
200.2882204812
 21
108.22156013
 31
0.0
  0
LINE
  5
DD
330
1F
100
AcDbEntity
  8
0
  6
HIDDEN
 62
     7
370
     0
100
AcDbLine
 10
185.2882204811
 20
112.22156013
 30
0.0
 11
180.2882204811
 21
112.22156013
 31
0.0
  0
LINE
  5
DE
330
1F
100
AcDbEntity
  8
0
  6
HIDDEN
 62
     7
370
     0
100
AcDbLine
 10
238.2697879977
 20
103.4412768315
 30
0.0
 11
238.2882204812
 21
102.972138799
 31
0.0
  0
LINE
  5
DF
330
1F
100
AcDbEntity
  8
0
  6
HIDDEN
 62
     7
370
     0
100
AcDbLine
 10
238.096953724
 20
103.7152025766
 30
0.0
 11
238.2147331712
 21
100.7175154678
 31
0.0
  0
LINE
  5
E0
330
1F
100
AcDbEntity
  8
0
  6
HIDDEN
 62
     7
370
     0
100
AcDbLine
 10
232.7630159201
 20
103.5056315895
 30
0.0
 11
232.8807953673
 21
100.5079444807
 31
0.0
  0
LINE
  5
E1
330
1F
100
AcDbEntity
  8
0
  6
HIDDEN
 62
     7
370
     0
100
AcDbLine
 10
232.2830313098
 20
102.9863871635
 30
0.0
 11
232.3615509413
 21
100.987929091
 31
0.0
  0
LINE
  5
E2
330
1F
100
AcDbEntity
  8
0
  6
HIDDEN
 62
     7
370
     0
100
AcDbLine
 10
236.3192072705
 20
102.1441973903
 30
0.0
 11
236.2897624087
 21
102.8936191674
 31
0.0
  0
LINE
  5
E3
330
1F
100
AcDbEntity
  8
0
  6
HIDDEN
 62
     7
370
     0
100
AcDbLine
 10
236.3486521324
 20
101.3947756131
 30
0.0
 11
236.3192072705
 21
102.1441973903
 31
0.0
  0
LINE
  5
E4
330
1F
100
AcDbEntity
  8
0
  6
HIDDEN
 62
     7
370
     0
100
AcDbLine
 10
236.3192072705
 20
102.1441973903
 30
0.0
 11
238.317665343
 21
102.2227170218
 31
0.0
  0
LINE
  5
E5
330
1F
100
AcDbEntity
  8
0
  6
HIDDEN
 62
     7
370
     0
100
AcDbLine
 10
236.2897624087
 20
102.8936191674
 30
0.0
 11
238.2882204812
 21
102.972138799
 31
0.0
  0
LINE
  5
E6
330
1F
100
AcDbEntity
  8
0
  6
HIDDEN
 62
     7
370
     0
100
AcDbLine
 10
236.3486521324
 20
101.3947756131
 30
0.0
 11
238.3471102048
 21
101.4732952446
 31
0.0
  0
LINE
  5
E7
330
1F
100
AcDbEntity
  8
0
  6
HIDDEN
 62
     7
370
     0
100
AcDbLine
 10
232.8140159168
 20
119.7366826028
 30
0.0
 11
232.7041261964
 21
116.9398024541
 31
0.0
  0
LINE
  5
E8
330
1F
100
AcDbEntity
  8
0
  6
HIDDEN
 62
     7
370
     0
100
AcDbLine
 10
232.8219056437
 20
119.9374895628
 30
0.0
 11
232.8140159168
 21
119.7366826028
 31
0.0
  0
LINE
  5
E9
330
1F
100
AcDbEntity
  8
0
  6
HIDDEN
 62
     7
370
     0
100
AcDbLine
 10
232.2974013997
 20
119.3236336459
 30
0.0
 11
232.2241415862
 21
117.4590468801
 31
0.0
  0
LINE
  5
EA
330
1F
100
AcDbEntity
  8
0
  6
HIDDEN
 62
     7
370
     0
100
AcDbLine
 10
232.3026612177
 20
119.4575049526
 30
0.0
 11
232.2974013997
 21
119.3236336459
 31
0.0
  0
LINE
  5
EB
330
1F
100
AcDbEntity
  8
0
  6
HIDDEN
 62
     7
370
     0
100
AcDbLine
 10
238.1479537207
 20
119.5271116157
 30
0.0
 11
238.0380640003
 21
116.730231467
 31
0.0
  0
LINE
  5
EC
330
1F
100
AcDbEntity
  8
0
  6
HIDDEN
 62
     7
370
     0
100
AcDbLine
 10
238.1558434476
 20
119.7279185757
 30
0.0
 11
238.1479537207
 21
119.5271116157
 31
0.0
  0
LINE
  5
ED
330
1F
100
AcDbEntity
  8
0
  6
HIDDEN
 62
     7
370
     0
100
AcDbLine
 10
238.2882204812
 20
118.972138799
 30
0.0
 11
238.2108982741
 21
117.0041572121
 31
0.0
  0
LINE
  5
EE
330
1F
100
AcDbEntity
  8
0
  6
HIDDEN
 62
     7
370
     0
100
AcDbLine
 10
236.2603175469
 20
118.3012366533
 30
0.0
 11
236.2897624087
 21
119.0506584305
 31
0.0
  0
LINE
  5
EF
330
1F
100
AcDbEntity
  8
0
  6
HIDDEN
 62
     7
370
     0
100
AcDbLine
 10
236.2603175469
 20
118.3012366533
 30
0.0
 11
236.2308726851
 21
117.5518148761
 31
0.0
  0
LINE
  5
F0
330
1F
100
AcDbEntity
  8
0
  6
HIDDEN
 62
     7
370
     0
100
AcDbLine
 10
236.2603175469
 20
118.3012366533
 30
0.0
 11
238.2587756194
 21
118.2227170218
 31
0.0
  0
LINE
  5
F1
330
1F
100
AcDbEntity
  8
0
  6
HIDDEN
 62
     7
370
     0
100
AcDbLine
 10
236.2308726851
 20
117.5518148761
 30
0.0
 11
238.2293307576
 21
117.4732952446
 31
0.0
  0
LINE
  5
F2
330
1F
100
AcDbEntity
  8
0
  6
HIDDEN
 62
     7
370
     0
100
AcDbLine
 10
236.2897624087
 20
119.0506584305
 30
0.0
 11
238.2882204812
 21
118.972138799
 31
0.0
  0
SPLINE
  5
F3
330
1F
100
AcDbEntity
  8
0
  6
HIDDEN
 62
     7
370
     0
100
AcDbSpline
210
0.0
220
0.0
230
1.0
 70
     8
 71
     3
 72
    80
 73
    76
 74
     0
 42
0.00000001
 43
0.00000001
 40
-0.03125
 40
-0.03125
 40
0.0
 40
0.0
 40
0.0312500000000002
 40
0.0312500000000002
 40
0.0468750000000002
 40
0.0468750000000002
 40
0.0625000000000001
 40
0.0625000000000001
 40
0.0937499999999999
 40
0.0937499999999999
 40
0.1249999999999997
 40
0.1249999999999997
 40
0.1562499999999995
 40
0.1562499999999995
 40
0.1874999999999993
 40
0.1874999999999993
 40
0.2187499999999991
 40
0.2187499999999991
 40
0.2499999999999989
 40
0.2499999999999989
 40
0.2812499999999987
 40
0.2812499999999987
 40
0.3124999999999984
 40
0.3124999999999984
 40
0.3281249999999985
 40
0.3281249999999985
 40
0.3437499999999986
 40
0.3437499999999986
 40
0.3749999999999986
 40
0.3749999999999986
 40
0.4062499999999987
 40
0.4062499999999987
 40
0.4218749999999989
 40
0.4218749999999989
 40
0.4374999999999991
 40
0.4374999999999991
 40
0.4687499999999993
 40
0.4687499999999993
 40
0.4999999999999994
 40
0.4999999999999994
 40
0.5312499999999997
 40
0.5312499999999997
 40
0.5624999999999998
 40
0.5624999999999998
 40
0.59375
 40
0.59375
 40
0.6250000000000001
 40
0.6250000000000001
 40
0.6562500000000003
 40
0.6562500000000003
 40
0.6875000000000006
 40
0.6875000000000006
 40
0.7031250000000007
 40
0.7031250000000007
 40
0.7187500000000007
 40
0.7187500000000007
 40
0.7500000000000003
 40
0.7500000000000003
 40
0.78125
 40
0.78125
 40
0.7968749999999998
 40
0.7968749999999998
 40
0.8124999999999997
 40
0.8124999999999997
 40
0.8437499999999998
 40
0.8437499999999998
 40
0.8749999999999998
 40
0.8749999999999998
 40
0.9062499999999999
 40
0.9062499999999999
 40
0.9375
 40
0.9375
 40
0.96875
 40
0.96875
 40
1.0
 40
1.0
 40
1.03125
 40
1.03125
 10
116.9576751684321
 20
159.0811093864889
 30
0.0
 10
117.6187657939847
 20
159.0811093864889
 30
0.0
 10
117.9437459232364
 20
159.0742112406621
 30
0.0
 10
118.4232193344828
 20
159.0536848126816
 30
0.0
 10
118.5817011523236
 20
159.045128585594
 30
0.0
 10
118.8959206848279
 20
159.0244022103764
 30
0.0
 10
119.0520409685083
 20
159.01217491017
 30
0.0
 10
119.5060949974649
 20
158.9706056163407
 30
0.0
 10
119.7931983804047
 20
158.936261331243
 30
0.0
 10
120.3365529364317
 20
158.8529372069207
 30
0.0
 10
120.5936565476373
 20
158.8034989841462
 30
0.0
 10
121.0545628025761
 20
158.6921192543863
 30
0.0
 10
121.2614605117911
 20
158.6298247408742
 30
0.0
 10
121.6269858257833
 20
158.4898950980032
 30
0.0
 10
121.7821913479092
 20
158.4132792002541
 30
0.0
 10
122.0316217345089
 20
158.2493205803984
 30
0.0
 10
122.1277116902941
 20
158.1607637263027
 30
0.0
 10
122.2562305394877
 20
157.9732830441969
 30
0.0
 10
122.2880414096654
 20
157.8760465827424
 30
0.0
 10
122.2883980594387
 20
157.6744139434153
 30
0.0
 10
122.2559008072416
 20
157.5688651515773
 30
0.0
 10
122.1282753335272
 20
157.3587503688887
 30
0.0
 10
122.0338469324753
 20
157.2536848609197
 30
0.0
 10
121.8459861124897
 20
157.0968071536687
 30
0.0
 10
121.7751581136865
 20
157.044373419963
 30
0.0
 10
121.6204362217212
 20
156.9419349743333
 30
0.0
 10
121.5364597515378
 20
156.8917872456814
 30
0.0
 10
121.2651360818934
 20
156.7447712892479
 30
0.0
 10
121.0585868632911
 20
156.6512834688134
 30
0.0
 10
120.5919767231021
 20
156.4754966111991
 30
0.0
 10
120.3396111534766
 20
156.3961181361154
 30
0.0
 10
119.9337098117979
 20
156.2906356986213
 30
0.0
 10
119.7938091943204
 20
156.2577501337812
 30
0.0
 10
119.5045852590735
 20
156.1968346545525
 30
0.0
 10
119.3547458027842
 20
156.1687540829101
 30
0.0
 10
118.9006292331734
 20
156.0939520408674
 30
0.0
 10
118.5889780144366
 20
156.0559139826212
 30
0.0
 10
117.9479815495242
 20
156.0043020560971
 30
0.0
 10
117.616453921572
 20
155.9909881225756
 30
0.0
 10
116.9636628765005
 20
155.9908910362475
 30
0.0
 10
116.6391266714687
 20
156.0036791214086
 30
0.0
 10
115.9938572220523
 20
156.0551693110045
 30
0.0
 10
115.6781142158896
 20
156.0936938903246
 30
0.0
 10
115.0762249209059
 20
156.1925964531826
 30
0.0
 10
114.7854756900944
 20
156.2537005511076
 30
0.0
 10
114.2385638984099
 20
156.3955099842183
 30
0.0
 10
113.986786534573
 20
156.4748444687975
 30
0.0
 10
113.5253985419519
 20
156.648223213459
 30
0.0
 10
113.3141292623538
 20
156.743383158213
 30
0.0
 10
112.9508249099776
 20
156.9399556815889
 30
0.0
 10
112.7970182615348
 20
157.0417119099953
 30
0.0
 10
112.6083987919374
 20
157.1984978727808
 30
0.0
 10
112.5523683057283
 20
157.2517519065308
 30
0.0
 10
112.4567945439921
 20
157.3575564680835
 30
0.0
 10
112.4170316269671
 20
157.4102095324391
 30
0.0
 10
112.321259876655
 20
157.5672832518983
 30
0.0
 10
112.2885370375289
 20
157.6708082872254
 30
0.0
 10
112.2879084511998
 20
157.8750230214525
 30
0.0
 10
112.3200945959346
 20
157.9725268590373
 30
0.0
 10
112.4150052977901
 20
158.1118539093889
 30
0.0
 10
112.4544720811891
 20
158.1571706408934
 30
0.0
 10
112.54940207991
 20
158.2456104618822
 30
0.0
 10
112.6051589076734
 20
158.2888647123422
 30
0.0
 10
112.7930990256432
 20
158.4127561869321
 30
0.0
 10
112.9464604953594
 20
158.4884584777062
 30
0.0
 10
113.3087247302398
 20
158.6277128491644
 30
0.0
 10
113.5195732037057
 20
158.6914746906931
 30
0.0
 10
113.9802431740246
 20
158.802971530161
 30
0.0
 10
114.2316175536084
 20
158.8514976024776
 30
0.0
 10
114.7775254405066
 20
158.9355515858581
 30
0.0
 10
115.0683480151578
 20
158.9703501395248
 30
0.0
 10
115.6696746299378
 20
159.0255466042886
 30
0.0
 10
115.9841932145502
 20
159.0463644530425
 30
0.0
 10
116.6307746706701
 20
159.0742117859532
 30
0.0
 10
116.9576751684321
 20
159.0811093864889
 30
0.0
 10
117.6187657939847
 20
159.0811093864889
 30
0.0
  0
LINE
  5
F4
330
1F
100
AcDbEntity
  8
0
  6
HIDDEN
 62
     7
370
     0
100
AcDbLine
 10
125.0261914603
 20
149.1725228909
 30
0.0
 11
125.0261914603
 21
141.57156013
 31
0.0
  0
LINE
  5
F5
330
1F
100
AcDbEntity
  8
0
  6
HIDDEN
 62
     7
370
     0
100
AcDbLine
 10
88.7016452306
 20
73.4857537677
 30
0.0
 11
88.4316895298
 21
73.4618276685
 31
0.0
  0
SPLINE
  5
F6
330
1F
100
AcDbEntity
  8
0
  6
HIDDEN
 62
     7
370
     0
100
AcDbSpline
210
0.0
220
0.0
230
1.0
 70
     8
 71
     3
 72
    12
 73
     8
 74
     0
 42
0.00000001
 43
0.00000001
 40
0.0
 40
0.0
 40
0.0
 40
0.0
 40
0.1661348616735903
 40
0.3322013257393936
 40
0.5008932044678248
 40
0.752137078264078
 40
1.0
 40
1.0
 40
1.0
 40
1.0
 10
86.80754214685568
 20
147.1528641530764
 30
0.0
 10
86.81793477096373
 20
147.151486029015
 30
0.0
 10
86.83871574054369
 20
147.1487303482649
 30
0.0
 10
87.01201522999061
 20
147.1271269733029
 30
0.0
 10
87.33396681923433
 20
147.089262021361
 30
0.0
 10
87.85513265515365
 20
147.0288782546448
 30
0.0
 10
88.42069059499138
 20
146.9810851174954
 30
0.0
 10
88.70155401867942
 20
146.957350424402
 30
0.0
  0
SPLINE
  5
F7
330
1F
100
AcDbEntity
  8
0
  6
HIDDEN
 62
     7
370
     0
100
AcDbSpline
210
0.0
220
0.0
230
1.0
 70
     8
 71
     3
 72
    33
 73
    29
 74
     0
 42
0.00000001
 43
0.00000001
 40
0.0
 40
0.0
 40
0.0
 40
0.0
 40
0.0315773698875104
 40
0.0633753287769057
 40
0.0958656851178231
 40
0.1285943208117605
 40
0.1601713694082662
 40
0.2244011681247345
 40
0.2571344568799636
 40
0.2885965627565487
 40
0.3526214070085076
 40
0.3852675959519929
 40
0.4162212184009612
 40
0.4791910353915302
 40
0.5112817741273479
 40
0.5421256322990662
 40
0.6048360558905652
 40
0.6367710793564881
 40
0.6680663384719832
 40
0.7316979547407203
 40
0.7641081282919966
 40
0.7957194290717577
 40
0.8275524266255816
 40
0.8600900250720824
 40
0.8928737620729298
 40
0.9241775068323748
 40
0.9878778414776339
 40
1.0
 40
1.0
 40
1.0
 40
1.0
 10
98.5414261363995
 20
78.85523790926385
 30
0.0
 10
98.45755498939424
 20
78.86911164764558
 30
0.0
 10
98.2892267994503
 20
78.89695604173033
 30
0.0
 10
97.9898722031088
 20
78.94338868196074
 30
0.0
 10
97.65587273584995
 20
78.99200128398157
 30
0.0
 10
97.29010277396266
 20
79.04114921716881
 30
0.0
 10
96.76672285927378
 20
79.10521500276144
 30
0.0
 10
96.19029565067922
 20
79.16499651716656
 30
0.0
 10
95.57515850382767
 20
79.21499612463062
 30
0.0
 10
94.93884277774475
 20
79.25713611731402
 30
0.0
 10
94.27506224030604
 20
79.28577084205206
 30
0.0
 10
93.60299648872294
 20
79.29803029313565
 30
0.0
 10
92.93354790529119
 20
79.29935958424394
 30
0.0
 10
92.26836333817724
 20
79.28449906133449
 30
0.0
 10
91.62207209928674
 20
79.25464109694532
 30
0.0
 10
90.99288214842838
 20
79.21589786888403
 30
0.0
 10
90.3931664562491
 20
79.16531963512416
 30
0.0
 10
89.83486689012729
 20
79.10691962065764
 30
0.0
 10
89.30467201973973
 20
79.04459638928812
 30
0.0
 10
88.82550531742814
 20
78.97918781475255
 30
0.0
 10
88.41058733223328
 20
78.91639891114659
 30
0.0
 10
88.13331494830724
 20
78.8718943123252
 30
0.0
 10
87.89175966274607
 20
78.83118536289022
 30
0.0
 10
87.68626765839765
 20
78.79512823224074
 30
0.0
 10
87.52210323465341
 20
78.76537120728838
 30
0.0
 10
87.36266928808813
 20
78.73578589386398
 30
0.0
 10
87.28443106013951
 20
78.72083661485912
 30
0.0
 10
87.29215585048433
 20
78.72230903746033
 30
0.0
 10
87.29339085515377
 20
78.7225444417505
 30
0.0
  0
SPLINE
  5
F8
330
1F
100
AcDbEntity
  8
0
  6
HIDDEN
 62
     7
370
     0
100
AcDbSpline
210
0.0
220
0.0
230
1.0
 70
     8
 71
     3
 72
    32
 73
    28
 74
     0
 42
0.00000001
 43
0.00000001
 40
0.0
 40
0.0
 40
0.0
 40
0.0
 40
0.020356822172105
 40
0.0512207857583794
 40
0.1139954454389432
 40
0.1459779869097674
 40
0.1769364677636727
 40
0.2398766914470389
 40
0.2719275468465721
 40
0.3033698011481659
 40
0.3673099924152954
 40
0.3998847012176188
 40
0.4314690120325909
 40
0.4957360700021212
 40
0.5285028301030422
 40
0.5596434488300034
 40
0.6230067766607702
 40
0.6553079823205556
 40
0.6861132872619372
 40
0.748756262689177
 40
0.7806634244345373
 40
0.8117607067089887
 40
0.8749825776111492
 40
0.9071778073885584
 40
0.9301738434827028
 40
0.9765719131095674
 40
1.0
 40
1.0
 40
1.0
 40
1.0
 10
87.29339085515377
 20
141.7205758182713
 30
0.0
 10
87.29303380324752
 20
141.7206432971982
 30
0.0
 10
87.29213540766104
 20
141.7208130841929
 30
0.0
 10
87.35472915421366
 20
141.7089188430055
 30
0.0
 10
87.49654033567718
 20
141.6822719660859
 30
0.0
 10
87.7205849275527
 20
141.6418898946733
 30
0.0
 10
87.99512704338692
 20
141.5940206529228
 30
0.0
 10
88.34381833239446
 20
141.536550767643
 30
0.0
 10
88.76009429477187
 20
141.4740562205885
 30
0.0
 10
89.22168834163466
 20
141.4095305389492
 30
0.0
 10
89.74522629072982
 20
141.344950161966
 30
0.0
 10
90.31742376518456
 20
141.2861947970812
 30
0.0
 10
90.91963013563654
 20
141.232821940699
 30
0.0
 10
91.56085664241802
 20
141.1899593788667
 30
0.0
 10
92.22194196041417
 20
141.1618953328457
 30
0.0
 10
92.88865291486073
 20
141.144306675306
 30
0.0
 10
93.56254213546767
 20
141.1428600270652
 30
0.0
 10
94.22689161941545
 20
141.1577855662031
 30
0.0
 10
94.8784258935751
 20
141.1827922914268
 30
0.0
 10
95.5090851062311
 20
141.2218963341086
 30
0.0
 10
96.10662408205357
 20
141.2719974918923
 30
0.0
 10
96.68062205000832
 20
141.3281686583755
 30
0.0
 10
97.21157176340162
 20
141.3910826870643
 30
0.0
 10
97.65495264466573
 20
141.4511861891179
 30
0.0
 10
98.00647329223935
 20
141.5020759061031
 30
0.0
 10
98.29614080221621
 20
141.547198382641
 30
0.0
 10
98.4798035666139
 20
141.5776613945284
 30
0.0
 10
98.5414261363995
 20
141.587882350758
 30
0.0
  0
SPLINE
  5
F9
330
1F
100
AcDbEntity
  8
0
  6
HIDDEN
 62
     7
370
     0
100
AcDbSpline
210
0.0
220
0.0
230
1.0
 70
     8
 71
     3
 72
    13
 73
     9
 74
     0
 42
0.00000001
 43
0.00000001
 40
0.0
 40
0.0
 40
0.0
 40
0.0
 40
0.1623836687590154
 40
0.3259036967521354
 40
0.4929930053128654
 40
0.6613109974968223
 40
0.8237250587268701
 40
1.0
 40
1.0
 40
1.0
 40
1.0
 10
98.5414261363995
 20
141.587882350758
 30
0.0
 10
98.61701564689513
 20
141.6002581232149
 30
0.0
 10
98.76872364249887
 20
141.6250962736563
 30
0.0
 10
98.95162251889472
 20
141.6523546185311
 30
0.0
 10
99.10068485967899
 20
141.6734744780561
 30
0.0
 10
99.20463505889911
 20
141.6874608614247
 30
0.0
 10
99.27996489720574
 20
141.6972535610171
 30
0.0
 10
99.27173623171981
 20
141.6961823714187
 30
0.0
 10
99.26745351951313
 20
141.6956248573508
 30
0.0
  0
SPLINE
  5
FA
330
1F
100
AcDbEntity
  8
0
  6
HIDDEN
 62
     7
370
     0
100
AcDbSpline
210
0.0
220
0.0
230
1.0
 70
     8
 71
     3
 72
    13
 73
     9
 74
     0
 42
0.00000001
 43
0.00000001
 40
0.0
 40
0.0
 40
0.0
 40
0.0
 40
0.1539979175619511
 40
0.3222783140682305
 40
0.4885514651576366
 40
0.6560338488010076
 40
0.8273499398628251
 40
1.0
 40
1.0
 40
1.0
 40
1.0
 10
99.26745404979833
 20
78.7474953340721
 30
0.0
 10
99.2726383557972
 20
78.74682368148959
 30
0.0
 10
99.2834877843049
 20
78.74541808415836
 30
0.0
 10
99.21414861825752
 20
78.75440468251993
 30
0.0
 10
99.1140316526525
 20
78.76781873403895
 30
0.0
 10
98.96750375015806
 20
78.78845929983189
 30
0.0
 10
98.78128988857289
 20
78.81602475604076
 30
0.0
 10
98.62158717341062
 20
78.84213310706528
 30
0.0
 10
98.5414261363995
 20
78.85523790926385
 30
0.0
  0
LINE
  5
FB
330
1F
100
AcDbEntity
  8
0
  6
HIDDEN
 62
     7
370
     0
100
AcDbLine
 10
78.2848448082
 20
83.72156013
 30
0.0
 11
78.2848448082
 21
136.72156013
 31
0.0
  0
LINE
  5
FC
330
1F
100
AcDbEntity
  8
0
  6
HIDDEN
 62
     7
370
     0
100
AcDbLine
 10
117.5722980996
 20
83.72156013
 30
0.0
 11
117.5722980996
 21
136.72156013
 31
0.0
  0
LINE
  5
FD
330
1F
100
AcDbEntity
  8
0
  6
HIDDEN
 62
     7
370
     0
100
AcDbLine
 10
120.7382204812
 20
85.34656013
 30
0.0
 11
120.7382204812
 21
135.0965601122
 31
0.0
  0
SPLINE
  5
FE
330
1F
100
AcDbEntity
  8
0
  6
HIDDEN
 62
     7
370
     0
100
AcDbSpline
210
0.0
220
0.0
230
1.0
 70
     8
 71
     3
 72
    20
 73
    16
 74
     0
 42
0.00000001
 43
0.00000001
 40
0.0
 40
0.0
 40
0.0
 40
0.0
 40
0.2499999999999978
 40
0.2499999999999978
 40
0.3749999999999982
 40
0.3749999999999982
 40
0.4999999999999986
 40
0.4999999999999986
 40
0.6249999999999989
 40
0.6249999999999989
 40
0.7499999999999992
 40
0.7499999999999992
 40
0.8749999999999997
 40
0.8749999999999997
 40
1.0
 40
1.0
 40
1.0
 40
1.0
 10
68.48822048120844
 20
135.4500737604252
 30
0.0
 10
68.48822048120844
 20
135.370870773893
 30
0.0
 10
68.44123798599571
 20
135.28977455549
 30
0.0
 10
68.30341639521814
 20
135.1695778637391
 30
0.0
 10
68.24713411130816
 20
135.130651159737
 30
0.0
 10
68.11404925984094
 20
135.0554624273126
 30
0.0
 10
68.03620931760787
 20
135.0188202219707
 30
0.0
 10
67.86357696149354
 20
134.9512296891388
 30
0.0
 10
67.76918396440246
 20
134.9202715073632
 30
0.0
 10
67.56374665808731
 20
134.8647470859935
 30
0.0
 10
67.45140041810014
 20
134.8400385721603
 30
0.0
 10
67.21915955420049
 20
134.8002423450521
 30
0.0
 10
67.09844891177777
 20
134.784822507655
 30
0.0
 10
66.84737805250874
 20
134.7637425328154
 30
0.0
 10
66.71785605609296
 20
134.7582652877944
 30
0.0
 10
66.58822048120847
 20
134.7582652877944
 30
0.0
  0
LINE
  5
FF
330
1F
100
AcDbEntity
  8
0
  6
HIDDEN
 62
     7
370
     0
100
AcDbLine
 10
66.5882204812
 20
134.7582652878
 30
0.0
 11
60.0382204812
 21
134.7582652878
 31
0.0
  0
LINE
  5
100
330
1F
100
AcDbEntity
  8
0
  6
HIDDEN
 62
     7
370
     0
100
AcDbLine
 10
60.0382204812
 20
85.6848549722
 30
0.0
 11
71.5882204812
 21
85.6848549722
 31
0.0
  0
SPLINE
  5
101
330
1F
100
AcDbEntity
  8
0
  6
HIDDEN
 62
     7
370
     0
100
AcDbSpline
210
0.0
220
0.0
230
1.0
 70
     8
 71
     3
 72
    18
 73
    14
 74
     0
 42
0.00000001
 43
0.00000001
 40
0.0
 40
0.0
 40
0.0
 40
0.0
 40
0.1249999999999982
 40
0.1249999999999982
 40
0.2499999999999964
 40
0.2499999999999964
 40
0.4999999999999988
 40
0.4999999999999988
 40
0.7500000000000011
 40
0.7500000000000011
 40
0.8750000000000006
 40
0.8750000000000006
 40
1.0
 40
1.0
 40
1.0
 40
1.0
 10
71.58822048120844
 20
85.68485497222741
 30
0.0
 10
71.71768779416568
 20
85.6848549722274
 30
0.0
 10
71.84469854306231
 20
85.67950197363476
 30
0.0
 10
72.09406186425956
 20
85.65876400094598
 30
0.0
 10
72.21768551888799
 20
85.64309209669169
 30
0.0
 10
72.56671785582202
 20
85.5833973682896
 30
0.0
 10
72.77722962062883
 20
85.52563218860863
 30
0.0
 10
73.12114629832833
 20
85.39111034733112
 30
0.0
 10
73.25749669984616
 20
85.31344123382571
 30
0.0
 10
73.39453475640869
 20
85.19415009973838
 30
0.0
 10
73.4297537751216
 20
85.15323109060333
 30
0.0
 10
73.47637735206014
 20
85.07257509731329
 30
0.0
 10
73.48822048120847
 20
85.03260657712045
 30
0.0
 10
73.48822048120846
 20
84.99304649959662
 30
0.0
  0
LINE
  5
102
330
1F
100
AcDbEntity
  8
0
  6
HIDDEN
 62
     7
370
     0
100
AcDbLine
 10
60.0382204812
 20
85.6848549722
 30
0.0
 11
60.0382204812
 21
134.7582652878
 31
0.0
  0
LWPOLYLINE
  5
103
330
1F
100
AcDbEntity
  8
0
  6
HIDDEN
 62
     7
370
     0
100
AcDbPolyline
 90
       14
 70
   128
 43
0.0
 10
117.2882204812
 20
150.1652906933
 10
118.3630726823
 20
150.2128370767
 10
119.387665989
 20
150.353253011
 10
120.3140915572
 20
150.5799728031
 10
121.0990307568
 20
150.8823952875
 10
121.7057807034
 20
151.2463795249
 10
122.1059704438
 20
151.654906017
 10
122.2808875505
 20
152.088872519
 10
122.2223530939
 20
152.5279872396
 10
121.9331040803
 20
152.9517176626
 10
121.426665472
 20
153.3402506242
 10
120.7267177755
 20
153.6754187551
 10
119.8659897671
 20
153.9415499658
 10
119.7342389496
 20
153.9726905093
  0
LWPOLYLINE
  5
104
330
1F
100
AcDbEntity
  8
0
  6
HIDDEN
 62
     7
370
     0
100
AcDbPolyline
 90
       14
 70
   128
 43
0.0
 10
114.8297089749
 20
153.9698307593
 10
114.7104511953
 20
153.9415499658
 10
113.8497231869
 20
153.6754187551
 10
113.1497754904
 20
153.3402506242
 10
112.6433368821
 20
152.9517176626
 10
112.3540878685
 20
152.5279872396
 10
112.295553412
 20
152.088872519
 10
112.4704705186
 20
151.654906017
 10
112.870660259
 20
151.2463795249
 10
113.4774102056
 20
150.8823952875
 10
114.2623494052
 20
150.5799728031
 10
115.1887749734
 20
150.353253011
 10
116.2133682802
 20
150.2128370767
 10
117.2882204812
 20
150.1652906933
  0
LINE
  5
105
330
1F
100
AcDbEntity
  8
0
  6
HIDDEN
 62
     7
370
     0
100
AcDbLine
 10
60.0382204812
 20
82.85156013
 30
0.0
 11
60.0382204812
 21
77.9732749282
 31
0.0
  0
LINE
  5
106
330
1F
100
AcDbEntity
  8
0
  6
HIDDEN
 62
     7
370
     0
100
AcDbLine
 10
73.4882204812
 20
82.85156013
 30
0.0
 11
73.4882204812
 21
76.3522268646
 31
0.0
  0
LINE
  5
107
330
1F
100
AcDbEntity
  8
0
  6
HIDDEN
 62
     7
370
     0
100
AcDbLine
 10
68.4882204812
 20
137.59156013
 30
0.0
 11
68.4882204812
 21
143.966168867
 31
0.0
  0
LINE
  5
108
330
1F
100
AcDbEntity
  8
0
  6
HIDDEN
 62
     7
370
     0
100
AcDbLine
 10
60.0382204812
 20
137.59156013
 30
0.0
 11
60.0382204812
 21
142.4698453318
 31
0.0
  0
LINE
  5
109
330
1F
100
AcDbEntity
  8
0
  6
HIDDEN
 62
     7
370
     0
100
AcDbLine
 10
132.5882204812
 20
97.22156013
 30
0.0
 11
132.5882204812
 21
123.22156013
 31
0.0
  0
LINE
  5
10A
330
1F
100
AcDbEntity
  8
0
  6
HIDDEN
 62
     7
370
     0
100
AcDbLine
 10
136.5882204812
 20
97.22156013
 30
0.0
 11
136.5882204812
 21
123.22156013
 31
0.0
  0
LINE
  5
10B
330
1F
100
AcDbEntity
  8
0
  6
HIDDEN
 62
     7
370
     0
100
AcDbLine
 10
121.4882204812
 20
98.97156013
 30
0.0
 11
121.4882204812
 21
121.47156013
 31
0.0
  0
ELLIPSE
  5
10C
330
1F
100
AcDbEntity
  8
0
  6
HIDDEN
 62
     7
370
     0
100
AcDbEllipse
 10
52.1035472809
 20
110.22156013
 30
0.0
 11
31.08108570811661
 21
-1.421085471520200E-14
 31
0.0
210
0.0
220
0.0
230
1.0
 40
0.8164965809
 41
4.915995335118103
 42
4.970536038964788
  0
ELLIPSE
  5
10D
330
1F
100
AcDbEntity
  8
0
  6
HIDDEN
 62
     7
370
     0
100
AcDbEllipse
 10
52.1035472809
 20
110.22156013
 30
0.0
 11
31.08108570811661
 21
1.421085471520200E-14
 31
0.0
210
0.0
220
0.0
230
1.0
 40
0.8164965809
 41
1.312649268214811
 42
1.367189972061496
  0
LINE
  5
10E
330
1F
100
AcDbEntity
  8
0
  6
HIDDEN
 62
     7
370
     0
100
AcDbLine
 10
137.2382204812
 20
66.32156013
 30
0.0
 11
123.2382204812
 21
66.32156013
 31
0.0
  0
LINE
  5
10F
330
1F
100
AcDbEntity
  8
0
  6
HIDDEN
 62
     7
370
     0
100
AcDbLine
 10
113.2382204812
 20
60.2315611302
 30
0.0
 11
113.2382204812
 21
66.32156013
 31
0.0
  0
LINE
  5
110
330
1F
100
AcDbEntity
  8
0
  6
HIDDEN
 62
     7
370
     0
100
AcDbLine
 10
123.2382204812
 20
66.32156013
 30
0.0
 11
113.2382204812
 21
66.32156013
 31
0.0
  0
LINE
  5
111
330
1F
100
AcDbEntity
  8
0
  6
HIDDEN
 62
     7
370
     0
100
AcDbLine
 10
73.4882204812
 20
82.85156013
 30
0.0
 11
73.4882204812
 21
84.9930464996
 31
0.0
  0
LINE
  5
112
330
1F
100
AcDbEntity
  8
0
  6
HIDDEN
 62
     7
370
     0
100
AcDbLine
 10
60.0382204812
 20
82.85156013
 30
0.0
 11
60.0382204812
 21
85.6848549722
 31
0.0
  0
LINE
  5
113
330
1F
100
AcDbEntity
  8
0
  6
HIDDEN
 62
     7
370
     0
100
AcDbLine
 10
60.0382204812
 20
137.59156013
 30
0.0
 11
60.0382204812
 21
134.7582652878
 31
0.0
  0
LINE
  5
114
330
1F
100
AcDbEntity
  8
0
  6
HIDDEN
 62
     7
370
     0
100
AcDbLine
 10
68.4882204812
 20
137.59156013
 30
0.0
 11
68.4882204812
 21
135.4500737604
 31
0.0
  0
LINE
  5
115
330
1F
100
AcDbEntity
  8
0
  6
HIDDEN
 62
     7
370
     0
100
AcDbLine
 10
123.2382204812
 20
154.12156013
 30
0.0
 11
113.2382204812
 21
154.12156013
 31
0.0
  0
LINE
  5
116
330
1F
100
AcDbEntity
  8
0
  6
HIDDEN
 62
     7
370
     0
100
AcDbLine
 10
137.2382204812
 20
154.12156013
 30
0.0
 11
123.2382204812
 21
154.12156013
 31
0.0
  0
SPLINE
  5
117
330
1F
100
AcDbEntity
  8
0
  6
HIDDEN
 62
     7
370
     0
100
AcDbSpline
210
0.0
220
0.0
230
1.0
 70
     8
 71
     3
 72
    30
 73
    26
 74
     0
 42
0.00000001
 43
0.00000001
 40
0.0
 40
0.0
 40
0.0
 40
0.0
 40
0.0531447579710286
 40
0.1125253797131272
 40
0.1779224397116067
 40
0.2129463966942924
 40
0.2494993914504459
 40
0.291265086659374
 40
0.3261073096855474
 40
0.3540223481619386
 40
0.3750075548588426
 40
0.4414649788272059
 40
0.5001823658063147
 40
0.5546968713669163
 40
0.6144408573423134
 40
0.6794659595165392
 40
0.71402283460044
 40
0.7499196792688061
 40
0.7913840357566979
 40
0.826050848459345
 40
0.8539163335767396
 40
0.8749776390184348
 40
0.9411638663008652
 40
0.9999141571670602
 40
1.0
 40
1.0
 40
1.0
 40
1.0
 10
99.28776077058949
 20
73.12163324457904
 30
0.0
 10
99.27156382672003
 20
73.126533851546
 30
0.0
 10
99.2372694329043
 20
73.13691008959533
 30
0.0
 10
98.9359500701603
 20
73.2125643772146
 30
0.0
 10
98.49378114966582
 20
73.30885070769313
 30
0.0
 10
97.99894848558601
 20
73.40851553562541
 30
0.0
 10
97.52847279597849
 20
73.5007936819522
 30
0.0
 10
96.99755137739707
 20
73.5964257147034
 30
0.0
 10
96.45940087384346
 20
73.68207595778783
 30
0.0
 10
96.00135353985407
 20
73.74936775079567
 30
0.0
 10
95.34578921863067
 20
73.83771591977734
 30
0.0
 10
94.46248278070657
 20
73.93437400401784
 30
0.0
 10
93.3338210479689
 20
74.02114918078395
 30
0.0
 10
92.24405929822935
 20
74.05922787849612
 30
0.0
 10
91.1480310197971
 20
74.06107831325986
 30
0.0
 10
90.24263977285379
 20
74.03491685767469
 30
0.0
 10
89.54633706243867
 20
73.9983096325458
 30
0.0
 10
89.01965733416363
 20
73.95929275706872
 30
0.0
 10
88.553011219131
 20
73.91708362959682
 30
0.0
 10
88.18179594340718
 20
73.8800795400274
 30
0.0
 10
87.92774946616514
 20
73.85137877958309
 30
0.0
 10
87.62669431345567
 20
73.81499882899321
 30
0.0
 10
87.37121051865267
 20
73.78221866200644
 30
0.0
 10
87.27198979370486
 20
73.76588077729839
 30
0.0
 10
87.28827035098905
 20
73.76847436347106
 30
0.0
 10
87.28829410457502
 20
73.76847814755358
 30
0.0
  0
SPLINE
  5
118
330
1F
100
AcDbEntity
  8
0
  6
HIDDEN
 62
     7
370
     0
100
AcDbSpline
210
0.0
220
0.0
230
1.0
 70
     8
 71
     3
 72
    30
 73
    26
 74
     0
 42
0.00000001
 43
0.00000001
 40
0.0
 40
0.0
 40
0.0
 40
0.0
 40
0.0001123288057695
 40
0.0285431152663135
 40
0.0588466796063202
 40
0.091027196450477
 40
0.1250880910051604
 40
0.1546766141497773
 40
0.1963554560485685
 40
0.2501101496291966
 40
0.320525387238388
 40
0.3856104300246703
 40
0.445403860889207
 40
0.4999571692316274
 40
0.5283494388508946
 40
0.558634027028705
 40
0.5908185964995195
 40
0.6249094714581434
 40
0.6541844575853767
 40
0.6958630078636641
 40
0.7499307292180327
 40
0.8215905285694356
 40
0.8871422909715975
 40
0.9466378748868088
 40
1.0
 40
1.0
 40
1.0
 40
1.0
 10
87.28831581330833
 20
146.6745718390393
 30
0.0
 10
87.28828395355019
 20
146.6745787861655
 30
0.0
 10
87.28018828527932
 20
146.6763440735577
 30
0.0
 10
87.30884976294873
 20
146.6708891548327
 30
0.0
 10
87.38223660910295
 20
146.6603463074865
 30
0.0
 10
87.5258931526537
 20
146.6406610998331
 30
0.0
 10
87.72692885261118
 20
146.6158218359779
 30
0.0
 10
88.00955940188022
 20
146.5816133708391
 30
0.0
 10
88.42296852745487
 20
146.5379334740791
 30
0.0
 10
89.09925602863711
 20
146.4748904065458
 30
0.0
 10
90.03768692955305
 20
146.4135932361131
 30
0.0
 10
91.14718014304896
 20
146.3823047926126
 30
0.0
 10
92.24466087373769
 20
146.3839599602093
 30
0.0
 10
93.14469211219499
 20
146.4152661623066
 30
0.0
 10
93.85603303804592
 20
146.462099311109
 30
0.0
 10
94.4214499390367
 20
146.509266173005
 30
0.0
 10
95.01037336186502
 20
146.568705179555
 30
0.0
 10
95.57478301434253
 20
146.635062386163
 30
0.0
 10
96.16897920827869
 20
146.7169817925945
 30
0.0
 10
96.83558736924918
 20
146.8186297753449
 30
0.0
 10
97.63692011494943
 20
146.9607686859452
 30
0.0
 10
98.38943009945734
 20
147.1120132567116
 30
0.0
 10
98.93471659442352
 20
147.229864129971
 30
0.0
 10
99.23743812592237
 20
147.3060933617202
 30
0.0
 10
99.2717285765354
 20
147.3165456712148
 30
0.0
 10
99.28794201318541
 20
147.3214878010149
 30
0.0
  0
LINE
  5
119
330
1F
100
AcDbEntity
  8
0
  6
HIDDEN
 62
     7
370
     0
100
AcDbLine
 10
234.7882204812
 20
105.22156013
 30
0.0
 11
234.7882204812
 21
115.22156013
 31
0.0
  0
SPLINE
  5
11A
330
1F
100
AcDbEntity
  8
0
  6
HIDDEN
 62
     7
370
     0
100
AcDbSpline
210
0.0
220
0.0
230
1.0
 70
     8
 71
     3
 72
    17
 73
    13
 74
     0
 42
0.00000001
 43
0.00000001
 40
0.0
 40
0.0
 40
0.0
 40
0.0
 40
0.1029003775096876
 40
0.2088649274801682
 40
0.3117436565763956
 40
0.4174672306314475
 40
0.5229650528762703
 40
0.6314095129410096
 40
0.738691209971363
 40
0.8492405839286739
 40
0.9537383451346176
 40
1.0
 40
1.0
 40
1.0
 40
1.0
 10
198.7882204812084
 20
115.3048661408665
 30
0.0
 10
198.8694569874517
 20
115.3060039226494
 30
0.0
 10
199.0343490645836
 20
115.3083133671366
 30
0.0
 10
199.2733676952128
 20
115.3263361134646
 30
0.0
 10
199.5005033084092
 20
115.3529874003264
 30
0.0
 10
199.707606404196
 20
115.386139646598
 30
0.0
 10
199.8928644345062
 20
115.4226082841244
 30
0.0
 10
200.0482163442949
 20
115.4581159214745
 30
0.0
 10
200.170940705972
 20
115.4892703263915
 30
0.0
 10
200.2501951620174
 20
115.5108194037888
 30
0.0
 10
200.2882572799773
 20
115.521569271163
 30
0.0
 10
200.2841643432127
 20
115.5204138943576
 30
0.0
 10
200.2829083949415
 20
115.5200593583399
 30
0.0
  0
LINE
  5
11B
330
1F
100
AcDbEntity
  8
0
  6
HIDDEN
 62
     7
370
     0
100
AcDbLine
 10
198.898615328
 20
115.3074984551
 30
0.0
 11
198.7728148896
 21
115.3052056937
 31
0.0
  0
SPLINE
  5
11C
330
1F
100
AcDbEntity
  8
0
  6
HIDDEN
 62
     7
370
     0
100
AcDbSpline
210
0.0
220
0.0
230
1.0
 70
     8
 71
     3
 72
    17
 73
    13
 74
     0
 42
0.00000001
 43
0.00000001
 40
0.0
 40
0.0
 40
0.0
 40
0.0
 40
0.0699347432071595
 40
0.1755084928048024
 40
0.2772783482571624
 40
0.3818405248814544
 40
0.4866085079501031
 40
0.5942644635702271
 40
0.7015732177526766
 40
0.8121002947477597
 40
0.9049416487452179
 40
1.0
 40
1.0
 40
1.0
 40
1.0
 10
197.2924802447424
 20
115.5203570768905
 30
0.0
 10
197.2925681603571
 20
115.5203302822486
 30
0.0
 10
197.2927887937122
 20
115.520263038315
 30
0.0
 10
197.3390909013492
 20
115.5072551089275
 30
0.0
 10
197.4239033005181
 20
115.4844664407569
 30
0.0
 10
197.5455424559823
 20
115.4539755478257
 30
0.0
 10
197.7022820855175
 20
115.4186525423867
 30
0.0
 10
197.8904104506859
 20
115.3822615681298
 30
0.0
 10
198.1077804799312
 20
115.3484877032287
 30
0.0
 10
198.3350055473389
 20
115.3234380691453
 30
0.0
 10
198.5648590061832
 20
115.3077455105061
 30
0.0
 10
198.7131833049858
 20
115.3058334507709
 30
0.0
 10
198.7882204812084
 20
115.3048661408665
 30
0.0
  0
SPLINE
  5
11D
330
1F
100
AcDbEntity
  8
0
  6
HIDDEN
 62
     7
370
     0
100
AcDbSpline
210
0.0
220
0.0
230
1.0
 70
     8
 71
     3
 72
    26
 73
    22
 74
     0
 42
0.00000001
 43
0.00000001
 40
0.0
 40
0.0
 40
0.0
 40
0.0
 40
0.0515002071229709
 40
0.1045293690368004
 40
0.1560200192976403
 40
0.2089406319056947
 40
0.2616328246352753
 40
0.3157930593095692
 40
0.3694519113851883
 40
0.4247430590262238
 40
0.4770253680685972
 40
0.530925052656729
 40
0.5816085817981921
 40
0.6337302604790942
 40
0.6850879945363625
 40
0.7378326729494339
 40
0.7910524461529184
 40
0.845795508871029
 40
0.8992376035135335
 40
0.9543306614834867
 40
1.0
 40
1.0
 40
1.0
 40
1.0
 10
200.2882204812084
 20
104.9215601300109
 30
0.0
 10
200.2843850077507
 20
104.92265214956
 30
0.0
 10
200.2766001920599
 20
104.9248686088874
 30
0.0
 10
200.2141127288681
 20
104.9422444215595
 30
0.0
 10
200.1156817153927
 20
104.9681755498738
 30
0.0
 10
199.9814316938449
 20
105.0007845014969
 30
0.0
 10
199.8126897602277
 20
105.0370885992695
 30
0.0
 10
199.6144521424529
 20
105.0729677595361
 30
0.0
 10
199.3888534035736
 20
105.1046822929097
 30
0.0
 10
199.1475504631019
 20
105.1275786041556
 30
0.0
 10
198.8950118238279
 20
105.1392153081542
 30
0.0
 10
198.6463157649416
 20
105.1382830777907
 30
0.0
 10
198.4023100604404
 20
105.1254357403495
 30
0.0
 10
198.1729874377608
 20
105.1027554507685
 30
0.0
 10
197.9577550940368
 20
105.0721856131733
 30
0.0
 10
197.7635666908157
 20
105.0370400827191
 30
0.0
 10
197.5936588424099
 20
105.0005091631029
 30
0.0
 10
197.4562035826212
 20
104.9670412709847
 30
0.0
 10
197.3563343243663
 20
104.940623173764
 30
0.0
 10
197.2973224976155
 20
104.9241486331644
 30
0.0
 10
197.2924801455627
 20
104.9227678797621
 30
0.0
 10
197.2902854080135
 20
104.9221420699687
 30
0.0
  0
LINE
  5
11E
330
1F
100
AcDbEntity
  8
0
  6
HIDDEN
 62
     7
370
     0
100
AcDbLine
 10
196.7882204812
 20
105.32156013
 30
0.0
 11
196.7882204812
 21
115.1215595398
 31
0.0
  0
LINE
  5
11F
330
1F
100
AcDbEntity
  8
0
  6
HIDDEN
 62
     7
370
     0
100
AcDbLine
 10
207.2882204812
 20
105.22156013
 30
0.0
 11
207.2882204812
 21
115.22156013
 31
0.0
  0
LINE
  5
120
330
1F
100
AcDbEntity
  8
0
  6
HIDDEN
 62
     7
370
     0
100
AcDbLine
 10
176.1875750169
 20
105.97156013
 30
0.0
 11
176.1875750169
 21
114.47156013
 31
0.0
  0
LINE
  5
121
330
1F
100
AcDbEntity
  8
0
  6
HIDDEN
 62
     7
370
     0
100
AcDbLine
 10
176.6382204812
 20
106.72156013
 30
0.0
 11
176.6382204812
 21
113.72156013
 31
0.0
  0
LINE
  5
122
330
1F
100
AcDbEntity
  8
0
  6
HIDDEN
 62
     7
370
     0
100
AcDbLine
 10
150.2382204812
 20
126.6442098608
 30
0.0
 11
152.7382204812
 21
126.6442098608
 31
0.0
  0
LINE
  5
123
330
1F
100
AcDbEntity
  8
0
  6
HIDDEN
 62
     7
370
     0
100
AcDbLine
 10
147.7382204812
 20
126.6442098608
 30
0.0
 11
150.2382204812
 21
126.6442098608
 31
0.0
  0
LINE
  5
124
330
1F
100
AcDbEntity
  8
0
  6
HIDDEN
 62
     7
370
     0
100
AcDbLine
 10
152.7382204812
 20
93.7989103992
 30
0.0
 11
147.7382204812
 21
93.7989103992
 31
0.0
  0
LINE
  5
125
330
1F
100
AcDbEntity
  8
0
  6
HIDDEN
 62
     7
370
     0
100
AcDbLine
 10
150.2382204812
 20
117.22156013
 30
0.0
 11
152.7382204812
 21
117.22156013
 31
0.0
  0
LINE
  5
126
330
1F
100
AcDbEntity
  8
0
  6
HIDDEN
 62
     7
370
     0
100
AcDbLine
 10
147.7382204812
 20
117.22156013
 30
0.0
 11
150.2382204812
 21
117.22156013
 31
0.0
  0
LINE
  5
127
330
1F
100
AcDbEntity
  8
0
  6
HIDDEN
 62
     7
370
     0
100
AcDbLine
 10
152.7382204812
 20
103.22156013
 30
0.0
 11
147.7382204812
 21
103.22156013
 31
0.0
  0
SPLINE
  5
128
330
1F
100
AcDbEntity
  8
0
  6
HIDDEN
 62
     7
370
     0
100
AcDbSpline
210
0.0
220
0.0
230
1.0
 70
     8
 71
     3
 72
    23
 73
    19
 74
     0
 42
0.00000001
 43
0.00000001
 40
0.0
 40
0.0
 40
0.0
 40
0.0
 40
0.0836711452412591
 40
0.1669670145748515
 40
0.2243099826452901
 40
0.2832946732816687
 40
0.3419543751334503
 40
0.4020846727875675
 40
0.4681027110220932
 40
0.5347900787377963
 40
0.5917868126990626
 40
0.6414129224068968
 40
0.6923654590757007
 40
0.7987982992318139
 40
0.8951124472230727
 40
0.942882323931576
 40
0.9925639663361601
 40
1.0
 40
1.0
 40
1.0
 40
1.0
 10
200.2882204812085
 20
118.4636197480486
 30
0.0
 10
200.2800186590333
 20
118.4737359743478
 30
0.0
 10
200.2636518009161
 20
118.4939230543628
 30
0.0
 10
200.1590801205804
 20
118.6259319680475
 30
0.0
 10
200.0441099357197
 20
118.7786733341464
 30
0.0
 10
199.9312902873105
 20
118.9381391786003
 30
0.0
 10
199.8145503477006
 20
119.1216144259514
 30
0.0
 10
199.7024716387433
 20
119.3351742016301
 30
0.0
 10
199.6165893611712
 20
119.5874392416033
 30
0.0
 10
199.6122022919927
 20
119.8598100136439
 30
0.0
 10
199.6824226309126
 20
120.0898343617717
 30
0.0
 10
199.7747972282215
 20
120.2762624589671
 30
0.0
 10
199.9118078101191
 20
120.4962304796078
 30
0.0
 10
200.0836384844439
 20
120.7221425155455
 30
0.0
 10
200.2168518172886
 20
120.8820639032497
 30
0.0
 10
200.2713400189094
 20
120.9459460833953
 30
0.0
 10
200.2944078084182
 20
120.9727717806689
 30
0.0
 10
200.2860848479
 20
120.9630566586278
 30
0.0
 10
200.2850012986581
 20
120.9617918667189
 30
0.0
  0
SPLINE
  5
129
330
1F
100
AcDbEntity
  8
0
  6
HIDDEN
 62
     7
370
     0
100
AcDbSpline
210
0.0
220
0.0
230
1.0
 70
     8
 71
     3
 72
     9
 73
     5
 74
     0
 42
0.00000001
 43
0.00000001
 40
0.0
 40
0.0
 40
0.0
 40
0.0
 40
0.8118227762719856
 40
1.0
 40
1.0
 40
1.0
 40
1.0
 10
197.2954962281161
 20
120.9596427512848
 30
0.0
 10
197.3009175214721
 20
120.9598882274473
 30
0.0
 10
197.3075954486189
 20
120.9601906039877
 30
0.0
 10
197.3561041026184
 20
120.9825681276288
 30
0.0
 10
197.3652323264549
 20
120.9867790679014
 30
0.0
  0
SPLINE
  5
12A
330
1F
100
AcDbEntity
  8
0
  6
HIDDEN
 62
     7
370
     0
100
AcDbSpline
210
0.0
220
0.0
230
1.0
 70
     8
 71
     3
 72
    18
 73
    14
 74
     0
 42
0.00000001
 43
0.00000001
 40
0.0
 40
0.0
 40
0.0
 40
0.0
 40
0.0466971613279875
 40
0.1363769787593204
 40
0.2326306798296375
 40
0.3475043521259693
 40
0.4621478747803879
 40
0.5330524836027789
 40
0.604461199315501
 40
0.6892719424147034
 40
0.8263072955290589
 40
0.9686572885092576
 40
1.0
 40
1.0
 40
1.0
 40
1.0
 10
197.2987255310158
 20
118.5937128133154
 30
0.0
 10
197.2965895970799
 20
118.5912228400354
 30
0.0
 10
197.2903516972005
 20
118.5839509840283
 30
0.0
 10
197.3643610793445
 20
118.6702307465249
 30
0.0
 10
197.5038933403938
 20
118.839311276455
 30
0.0
 10
197.6988486784277
 20
119.0973706371535
 30
0.0
 10
197.87558669839
 20
119.3927770557229
 30
0.0
 10
197.9659929962672
 20
119.6950487763745
 30
0.0
 10
197.956739516763
 20
119.9812912990563
 30
0.0
 10
197.8337553924997
 20
120.3161911253832
 30
0.0
 10
197.6162024230141
 20
120.6586354649594
 30
0.0
 10
197.4434663262311
 20
120.8870112036416
 30
0.0
 10
197.3771915563871
 20
120.9715280666495
 30
0.0
 10
197.3652323264548
 20
120.9867790679015
 30
0.0
  0
LINE
  5
12B
330
1F
100
AcDbEntity
  8
0
  6
HIDDEN
 62
     7
370
     0
100
AcDbLine
 10
200.2882204812
 20
121.22156013
 30
0.0
 11
197.2882204812
 21
121.22156013
 31
0.0
  0
LWPOLYLINE
  5
12C
330
1F
100
AcDbEntity
  8
0
  6
HIDDEN
 62
     7
370
     0
100
AcDbPolyline
 90
       25
 70
   128
 43
0.0
 10
200.2867782047
 20
99.4792483795
 10
200.2817621598
 20
99.485081225
 10
200.2558034167
 20
99.5154194924
 10
200.2148505531
 20
99.5638212049
 10
200.1590989565
 20
99.630921057
 10
200.0667121391
 20
99.7459218529
 10
199.9586614977
 20
99.8888557453
 10
199.8471470376
 20
100.0520437772
 10
199.7389083702
 20
100.2415060284
 10
199.6841774794
 20
100.3650726116
 10
199.6418850125
 20
100.499900731
 10
199.621807694
 20
100.6164514412
 10
199.6181831294
 20
100.7388170934
 10
199.6315501696
 20
100.8568183718
 10
199.6601560934
 20
100.9738298089
 10
199.7267229195
 20
101.1464579527
 10
199.8108705634
 20
101.3088354587
 10
199.9362037377
 20
101.5092735108
 10
200.0620026008
 20
101.6873587903
 10
200.1440135037
 20
101.7963928764
 10
200.2136202524
 20
101.8859237903
 10
200.2551729426
 20
101.9383157425
 10
200.2811308096
 20
101.9706988741
 10
200.2882204812
 20
101.979500512
 10
200.2882204812
 20
101.979500512
  0
LINE
  5
12D
330
1F
100
AcDbEntity
  8
0
  6
HIDDEN
 62
     7
370
     0
100
AcDbLine
 10
198.7882204812
 20
99.22156013
 30
0.0
 11
200.2882204812
 21
99.22156013
 31
0.0
  0
LINE
  5
12E
330
1F
100
AcDbEntity
  8
0
  6
HIDDEN
 62
     7
370
     0
100
AcDbLine
 10
197.2882204812
 20
99.22156013
 30
0.0
 11
198.7882204812
 21
99.22156013
 31
0.0
  0
SPLINE
  5
12F
330
1F
100
AcDbEntity
  8
0
  6
HIDDEN
 62
     7
370
     0
100
AcDbSpline
210
0.0
220
0.0
230
1.0
 70
     8
 71
     3
 72
    10
 73
     6
 74
     0
 42
0.00000001
 43
0.00000001
 40
0.0
 40
0.0
 40
0.0
 40
0.0
 40
0.4362912146710894
 40
0.884166332288905
 40
1.0
 40
1.0
 40
1.0
 40
1.0
 10
197.3652323264548
 20
99.45634119212043
 30
0.0
 10
197.3462503359311
 20
99.46467758708982
 30
0.0
 10
197.3077823668853
 20
99.48157171540767
 30
0.0
 10
197.2859283737427
 20
99.48654241930751
 30
0.0
 10
197.2903970236839
 20
99.48531439202608
 30
0.0
 10
197.291315263963
 20
99.48506205090996
 30
0.0
  0
SPLINE
  5
130
330
1F
100
AcDbEntity
  8
0
  6
HIDDEN
 62
     7
370
     0
100
AcDbSpline
210
0.0
220
0.0
230
1.0
 70
     8
 71
     3
 72
    27
 73
    23
 74
     0
 42
0.00000001
 43
0.00000001
 40
0.0
 40
0.0
 40
0.0
 40
0.0
 40
0.0614884942567675
 40
0.1250585419731966
 40
0.1864242998319578
 40
0.2490433695042085
 40
0.300530068939735
 40
0.3530355514486391
 40
0.3877023662723706
 40
0.4232128711911452
 40
0.4579447844002768
 40
0.4938964366929914
 40
0.5368756992085769
 40
0.5810433850489789
 40
0.6477006456754146
 40
0.7162193838779797
 40
0.7841910006272085
 40
0.8545600986009234
 40
0.9018628477617767
 40
0.9504537548214733
 40
0.9978004356545156
 40
1.0
 40
1.0
 40
1.0
 40
1.0
 10
197.3652323264549
 20
99.45634119212039
 30
0.0
 10
197.3898347060866
 20
99.48778856399197
 30
0.0
 10
197.4398723230914
 20
99.55174788715782
 30
0.0
 10
197.5379291599161
 20
99.68250212826482
 30
0.0
 10
197.6441723516218
 20
99.83320417239956
 30
0.0
 10
197.7460899947965
 20
99.99258138894814
 30
0.0
 10
197.8370520613207
 20
100.1590702984253
 30
0.0
 10
197.9016567427533
 20
100.3104944967737
 30
0.0
 10
197.9421940645641
 20
100.4539316196815
 30
0.0
 10
197.9606348699586
 20
100.582043499933
 30
0.0
 10
197.9589698235575
 20
100.7137104052957
 30
0.0
 10
197.9352614107381
 20
100.8516761725035
 30
0.0
 10
197.8882519171464
 20
100.99293763329
 30
0.0
 10
197.8110652453045
 20
101.1557696887648
 30
0.0
 10
197.7066443254408
 20
101.3268436999935
 30
0.0
 10
197.5855353805489
 20
101.4965509712871
 30
0.0
 10
197.4706184846235
 20
101.6438050802719
 30
0.0
 10
197.3846179120355
 20
101.7482023225565
 30
0.0
 10
197.3272368338406
 20
101.8161305003587
 30
0.0
 10
197.2977084421478
 20
101.8506179169161
 30
0.0
 10
197.2850471897955
 20
101.8653218388309
 30
0.0
 10
197.2885325070914
 20
101.8612672091444
 30
0.0
 10
197.2886872348539
 20
101.8610872072319
 30
0.0
  0
LINE
  5
131
330
1F
100
AcDbEntity
  8
0
  6
HIDDEN
 62
     7
370
     0
100
AcDbLine
 10
197.2707552256
 20
118.5821762808
 30
0.0
 11
197.3652323265
 21
120.9867790679
 31
0.0
  0
LINE
  5
132
330
1F
100
AcDbEntity
  8
0
  6
HIDDEN
 62
     7
370
     0
100
AcDbLine
 10
197.2707552256
 20
101.8609439792
 30
0.0
 11
197.3652323265
 21
99.4563411921
 31
0.0
  0
LWPOLYLINE
  5
133
330
1F
100
AcDbEntity
  8
0
  6
HIDDEN
 62
     7
370
     0
100
AcDbPolyline
 90
       30
 70
   128
 43
0.0
 10
117.2882204812
 20
155.5342659818
 10
118.3630726823
 20
155.4981427538
 10
119.387665989
 20
155.3914621517
 10
120.3140915572
 20
155.2192124419
 10
121.0990307568
 20
154.9894478295
 10
121.7057807034
 20
154.7129118523
 10
122.1059704438
 20
154.4025350253
 10
122.2808875505
 20
154.072830224
 10
122.2223530939
 20
153.7392140783
 10
121.9331040803
 20
153.4172861086
 10
121.426665472
 20
153.1220993088
 10
120.7267177755
 20
152.8674562857
 10
119.8659897671
 20
152.665263864
 10
118.8847281319
 20
152.5249763366
 10
117.8288155733
 20
152.4531533923
 10
116.7476253891
 20
152.4531533923
 10
115.6917128305
 20
152.5249763366
 10
114.7104511953
 20
152.665263864
 10
113.8497231869
 20
152.8674562857
 10
113.1497754904
 20
153.1220993088
 10
112.6433368821
 20
153.4172861086
 10
112.3540878685
 20
153.7392140783
 10
112.295553412
 20
154.072830224
 10
112.4704705186
 20
154.4025350253
 10
112.870660259
 20
154.7129118523
 10
113.4774102056
 20
154.9894478295
 10
114.2623494052
 20
155.2192124419
 10
115.1887749734
 20
155.3914621517
 10
116.2133682802
 20
155.4981427538
 10
117.2882204812
 20
155.5342659818
  0
LINE
  5
134
330
1F
100
AcDbEntity
  8
0
  6
HIDDEN
 62
     7
370
     0
100
AcDbLine
 10
131.5502495021
 20
149.1725228909
 30
0.0
 11
131.5502495021
 21
141.57156013
 31
0.0
  0
LINE
  5
135
330
1F
100
AcDbEntity
  8
0
  6
HIDDEN
 62
     7
370
     0
100
AcDbLine
 10
130.1982204812
 20
144.9357953225
 30
0.0
 11
130.1982204812
 21
141.57156013
 31
0.0
  0
LINE
  5
136
330
1F
100
AcDbEntity
  8
0
  6
HIDDEN
 62
     7
370
     0
100
AcDbLine
 10
126.3782204812
 20
144.9357953225
 30
0.0
 11
126.3782204812
 21
141.57156013
 31
0.0
  0
CIRCLE
  5
137
330
1F
100
AcDbEntity
  8
0
  6
HIDDEN
 62
     7
370
     0
100
AcDbCircle
 10
115.2882204812
 20
110.22156013
 30
0.0
 40
5.0
  0
LINE
  5
138
330
1F
100
AcDbEntity
  8
0
  6
HIDDEN
 62
     7
370
     0
100
AcDbLine
 10
196.2882204812
 20
106.22156013
 30
0.0
 11
196.7882204812
 21
106.72156013
 31
0.0
  0
LINE
  5
139
330
1F
100
AcDbEntity
  8
0
  6
HIDDEN
 62
     7
370
     0
100
AcDbLine
 10
196.7882204812
 20
113.72156013
 30
0.0
 11
196.2882204812
 21
114.22156013
 31
0.0
  0
LINE
  5
13A
330
1F
100
AcDbEntity
  8
0
  6
HIDDEN
 62
     7
370
     0
100
AcDbLine
 10
180.7882204812
 20
106.22156013
 30
0.0
 11
196.2882204812
 21
106.22156013
 31
0.0
  0
LINE
  5
13B
330
1F
100
AcDbEntity
  8
0
  6
HIDDEN
 62
     7
370
     0
100
AcDbLine
 10
196.2882204812
 20
114.22156013
 30
0.0
 11
180.7882204812
 21
114.22156013
 31
0.0
  0
LINE
  5
13C
330
1F
100
AcDbEntity
  8
0
  6
HIDDEN
 62
     7
370
     0
100
AcDbLine
 10
180.7882204812
 20
114.22156013
 30
0.0
 11
180.2882204812
 21
113.72156013
 31
0.0
  0
LINE
  5
13D
330
1F
100
AcDbEntity
  8
0
  6
HIDDEN
 62
     7
370
     0
100
AcDbLine
 10
180.2882204812
 20
106.72156013
 30
0.0
 11
180.7882204812
 21
106.22156013
 31
0.0
  0
LINE
  5
13E
330
1F
100
AcDbEntity
  8
0
  6
HIDDEN
 62
     7
370
     0
100
AcDbLine
 10
196.7882204812
 20
106.72156013
 30
0.0
 11
200.2882204812
 21
106.72156013
 31
0.0
  0
LINE
  5
13F
330
1F
100
AcDbEntity
  8
0
  6
HIDDEN
 62
     7
370
     0
100
AcDbLine
 10
200.2882204812
 20
113.72156013
 30
0.0
 11
196.7882204812
 21
113.72156013
 31
0.0
  0
LINE
  5
140
330
1F
100
AcDbEntity
  8
0
  6
HIDDEN
 62
     7
370
     0
100
AcDbLine
 10
185.2882204811
 20
108.22156013
 30
0.0
 11
195.2882204812
 21
108.22156013
 31
0.0
  0
LINE
  5
141
330
1F
100
AcDbEntity
  8
0
  6
HIDDEN
 62
     7
370
     0
100
AcDbLine
 10
195.2882204812
 20
112.22156013
 30
0.0
 11
185.2882204811
 21
112.22156013
 31
0.0
  0
LINE
  5
142
330
1F
100
AcDbEntity
  8
0
  6
HIDDEN
 62
     7
370
     0
100
AcDbLine
 10
238.2147331712
 20
100.7175154678
 30
0.0
 11
238.2882204812
 21
100.8571918697
 31
0.0
  0
LINE
  5
143
330
1F
100
AcDbEntity
  8
0
  6
HIDDEN
 62
     7
370
     0
100
AcDbLine
 10
238.2697879977
 20
103.4412768315
 30
0.0
 11
238.096953724
 21
103.7152025766
 31
0.0
  0
LINE
  5
144
330
1F
100
AcDbEntity
  8
0
  6
HIDDEN
 62
     7
370
     0
100
AcDbLine
 10
238.096953724
 20
103.7152025766
 30
0.0
 11
232.7630159201
 21
103.5056315895
 31
0.0
  0
LINE
  5
145
330
1F
100
AcDbEntity
  8
0
  6
HIDDEN
 62
     7
370
     0
100
AcDbLine
 10
232.8807953673
 20
100.5079444807
 30
0.0
 11
238.2147331712
 21
100.7175154678
 31
0.0
  0
LINE
  5
146
330
1F
100
AcDbEntity
  8
0
  6
HIDDEN
 62
     7
370
     0
100
AcDbLine
 10
232.7630159201
 20
103.5056315895
 30
0.0
 11
232.2830313098
 21
102.9863871635
 31
0.0
  0
LINE
  5
147
330
1F
100
AcDbEntity
  8
0
  6
HIDDEN
 62
     7
370
     0
100
AcDbLine
 10
232.3615509413
 20
100.987929091
 30
0.0
 11
232.8807953673
 21
100.5079444807
 31
0.0
  0
LINE
  5
148
330
1F
100
AcDbEntity
  8
0
  6
HIDDEN
 62
     7
370
     0
100
AcDbLine
 10
232.8219056437
 20
119.9374895628
 30
0.0
 11
232.3026612177
 21
119.4575049526
 31
0.0
  0
LINE
  5
149
330
1F
100
AcDbEntity
  8
0
  6
HIDDEN
 62
     7
370
     0
100
AcDbLine
 10
232.2241415862
 20
117.4590468801
 30
0.0
 11
232.7041261964
 21
116.9398024541
 31
0.0
  0
LINE
  5
14A
330
1F
100
AcDbEntity
  8
0
  6
HIDDEN
 62
     7
370
     0
100
AcDbLine
 10
238.1558434476
 20
119.7279185757
 30
0.0
 11
232.8219056437
 21
119.9374895628
 31
0.0
  0
LINE
  5
14B
330
1F
100
AcDbEntity
  8
0
  6
HIDDEN
 62
     7
370
     0
100
AcDbLine
 10
232.7041261964
 20
116.9398024541
 30
0.0
 11
238.0380640003
 21
116.730231467
 31
0.0
  0
LINE
  5
14C
330
1F
100
AcDbEntity
  8
0
  6
HIDDEN
 62
     7
370
     0
100
AcDbLine
 10
238.0380640003
 20
116.730231467
 30
0.0
 11
238.2108982741
 21
117.0041572121
 31
0.0
  0
LINE
  5
14D
330
1F
100
AcDbEntity
  8
0
  6
HIDDEN
 62
     7
370
     0
100
AcDbLine
 10
238.2882204812
 20
119.47631122
 30
0.0
 11
238.1558434476
 21
119.7279185757
 31
0.0
  0
LINE
  5
14E
330
1F
100
AcDbEntity
  8
0
  6
HIDDEN
 62
     7
370
     0
100
AcDbLine
 10
108.2882204812
 20
70.8168771734
 30
0.0
 11
108.3778221051
 21
71.4544258554
 31
0.0
  0
LINE
  5
14F
330
1F
100
AcDbEntity
  8
0
  6
HIDDEN
 62
     7
370
     0
100
AcDbLine
 10
108.3778221051
 20
148.9886944047
 30
0.0
 11
108.2882204812
 21
149.6262430866
 31
0.0
  0
ARC
  5
150
330
1F
100
AcDbEntity
  8
0
  6
HIDDEN
 62
     7
370
     0
100
AcDbCircle
 10
107.3912835628
 20
71.5930748056
 30
0.0
 40
0.9962338214386983
100
AcDbArc
 50
352.0
 51
0.0
  0
ARC
  5
151
330
1F
100
AcDbEntity
  8
0
  6
HIDDEN
 62
     7
370
     0
100
AcDbCircle
 10
107.3912835628
 20
71.5930748056
 30
0.0
 40
0.9962338214386983
100
AcDbArc
 50
0.0
 51
25.7988228126
  0
ARC
  5
152
330
1F
100
AcDbEntity
  8
0
  6
HIDDEN
 62
     7
370
     0
100
AcDbCircle
 10
107.3912835628
 20
148.8500454545
 30
0.0
 40
0.9962338214386963
100
AcDbArc
 50
348.75
 51
8.0
  0
LWPOLYLINE
  5
153
330
1F
100
AcDbEntity
  8
0
  6
HIDDEN
 62
     7
370
     0
100
AcDbPolyline
 90
        3
 70
   128
 43
0.0
 10
108.3683750307
 20
148.6556898774
 10
108.3116836
 20
148.4688032762
 10
108.2882204812
 20
148.4164719413
  0
LINE
  5
154
330
1F
100
AcDbEntity
  8
0
  6
HIDDEN
 62
     7
370
     0
100
AcDbLine
 10
108.3875173842
 20
71.5930748056
 30
0.0
 11
108.3875173842
 21
148.8500454545
 31
0.0
  0
LINE
  5
155
330
1F
100
AcDbEntity
  8
0
  6
HIDDEN
 62
     7
370
     0
100
AcDbLine
 10
81.7489464234
 20
78.72156013
 30
0.0
 11
87.2933908552
 21
78.72156013
 31
0.0
  0
LINE
  5
156
330
1F
100
AcDbEntity
  8
0
  6
HIDDEN
 62
     7
370
     0
100
AcDbLine
 10
87.2933908552
 20
141.72156013
 30
0.0
 11
81.7489464234
 21
141.72156013
 31
0.0
  0
ARC
  5
157
330
1F
100
AcDbEntity
  8
0
  6
HIDDEN
 62
     7
370
     0
100
AcDbCircle
 10
98.5414261364
 20
90.72156013
 30
0.0
 40
12.00000000000001
100
AcDbArc
 50
273.4750678888
 51
324.3146652873
  0
ARC
  5
158
330
1F
100
AcDbEntity
  8
0
  6
HIDDEN
 62
     7
370
     0
100
AcDbCircle
 10
98.5414261364
 20
129.72156013
 30
0.0
 40
12.0
100
AcDbArc
 50
35.6853347127
 51
86.5284337865
  0
ARC
  5
159
330
1F
100
AcDbEntity
  8
0
  6
HIDDEN
 62
     7
370
     0
100
AcDbCircle
 10
81.7489464234
 20
79.72156013
 30
0.0
 40
1.000000000000008
100
AcDbArc
 50
210.0
 51
270.0
  0
ARC
  5
15A
330
1F
100
AcDbEntity
  8
0
  6
HIDDEN
 62
     7
370
     0
100
AcDbCircle
 10
81.7489464234
 20
140.72156013
 30
0.0
 40
1.000000000000008
100
AcDbArc
 50
90.0
 51
150.0
  0
LINE
  5
15B
330
1F
100
AcDbEntity
  8
0
  6
HIDDEN
 62
     7
370
     0
100
AcDbLine
 10
80.8829210196
 20
141.22156013
 30
0.0
 11
78.2848448082
 21
136.72156013
 31
0.0
  0
LINE
  5
15C
330
1F
100
AcDbEntity
  8
0
  6
HIDDEN
 62
     7
370
     0
100
AcDbLine
 10
78.2848448082
 20
83.72156013
 30
0.0
 11
80.8829210196
 21
79.22156013
 31
0.0
  0
ARC
  5
15D
330
1F
100
AcDbEntity
  8
0
  6
HIDDEN
 62
     7
370
     0
100
AcDbCircle
 10
118.7382204812
 20
85.34656013
 30
0.0
 40
2.0
100
AcDbArc
 50
234.3409123039
 51
0.0
  0
ARC
  5
15E
330
1F
100
AcDbEntity
  8
0
  6
HIDDEN
 62
     7
370
     0
100
AcDbCircle
 10
118.7382204812
 20
135.09656013
 30
0.0
 40
2.000000000000012
100
AcDbArc
 50
0.0
 51
125.6590876961
  0
LINE
  5
15F
330
1F
100
AcDbEntity
  8
0
  6
HIDDEN
 62
     7
370
     0
100
AcDbLine
 10
73.4882204812
 20
83.72156013
 30
0.0
 11
78.2848448082
 21
83.72156013
 31
0.0
  0
LINE
  5
160
330
1F
100
AcDbEntity
  8
0
  6
HIDDEN
 62
     7
370
     0
100
AcDbLine
 10
78.2848448082
 20
136.72156013
 30
0.0
 11
68.4882204812
 21
136.72156013
 31
0.0
  0
LINE
  5
161
330
1F
100
AcDbEntity
  8
0
  6
HIDDEN
 62
     7
370
     0
100
AcDbLine
 10
108.2882204812
 20
83.72156013
 30
0.0
 11
117.5722980996
 21
83.72156013
 31
0.0
  0
LINE
  5
162
330
1F
100
AcDbEntity
  8
0
  6
HIDDEN
 62
     7
370
     0
100
AcDbLine
 10
117.5722980996
 20
136.72156013
 30
0.0
 11
108.2882204812
 21
136.72156013
 31
0.0
  0
LINE
  5
163
330
1F
100
AcDbEntity
  8
0
  6
HIDDEN
 62
     7
370
     0
100
AcDbLine
 10
112.2882204812
 20
155.8987230121
 30
0.0
 11
112.2882204812
 21
152.1989739087
 31
0.0
  0
LINE
  5
164
330
1F
100
AcDbEntity
  8
0
  6
HIDDEN
 62
     7
370
     0
100
AcDbLine
 10
122.2882204812
 20
152.1989739087
 30
0.0
 11
122.2882204812
 21
155.8973510629
 31
0.0
  0
LINE
  5
165
330
1F
100
AcDbEntity
  8
0
  6
HIDDEN
 62
     7
370
     0
100
AcDbLine
 10
132.5882204812
 20
97.22156013
 30
0.0
 11
136.5882204812
 21
97.22156013
 31
0.0
  0
LINE
  5
166
330
1F
100
AcDbEntity
  8
0
  6
HIDDEN
 62
     7
370
     0
100
AcDbLine
 10
136.5882204812
 20
123.22156013
 30
0.0
 11
132.5882204812
 21
123.22156013
 31
0.0
  0
LINE
  5
167
330
1F
100
AcDbEntity
  8
0
  6
HIDDEN
 62
     7
370
     0
100
AcDbLine
 10
120.7382204812
 20
98.22156013
 30
0.0
 11
121.4882204812
 21
98.97156013
 31
0.0
  0
LINE
  5
168
330
1F
100
AcDbEntity
  8
0
  6
HIDDEN
 62
     7
370
     0
100
AcDbLine
 10
121.4882204812
 20
121.47156013
 30
0.0
 11
120.7382204812
 21
122.22156013
 31
0.0
  0
LINE
  5
169
330
1F
100
AcDbEntity
  8
0
  6
HIDDEN
 62
     7
370
     0
100
AcDbLine
 10
121.4882204812
 20
98.97156013
 30
0.0
 11
132.5882204812
 21
98.97156013
 31
0.0
  0
LINE
  5
16A
330
1F
100
AcDbEntity
  8
0
  6
HIDDEN
 62
     7
370
     0
100
AcDbLine
 10
132.5882204812
 20
121.47156013
 30
0.0
 11
121.4882204812
 21
121.47156013
 31
0.0
  0
LINE
  5
16B
330
1F
100
AcDbEntity
  8
0
  6
HIDDEN
 62
     7
370
     0
100
AcDbLine
 10
113.2382204812
 20
160.22156013
 30
0.0
 11
113.2382204812
 21
154.12156013
 31
0.0
  0
LINE
  5
16C
330
1F
100
AcDbEntity
  8
0
  6
HIDDEN
 62
     7
370
     0
100
AcDbLine
 10
99.7209330973
 20
72.6432805594
 30
0.0
 11
99.2882238108
 21
73.1215052768
 31
0.0
  0
LINE
  5
16D
330
1F
100
AcDbEntity
  8
0
  6
HIDDEN
 62
     7
370
     0
100
AcDbLine
 10
87.2882209392
 20
73.7684666335
 30
0.0
 11
86.807593634
 21
73.2902419226
 31
0.0
  0
LINE
  5
16E
330
1F
100
AcDbEntity
  8
0
  6
HIDDEN
 62
     7
370
     0
100
AcDbLine
 10
86.8074752925
 20
147.1528724213
 30
0.0
 11
87.2882207566
 21
146.6745927494
 31
0.0
  0
LINE
  5
16F
330
1F
100
AcDbEntity
  8
0
  6
HIDDEN
 62
     7
370
     0
100
AcDbLine
 10
99.2882204833
 20
147.3215651367
 30
0.0
 11
99.7210421531
 21
147.7998448096
 31
0.0
  0
LINE
  5
170
330
1F
100
AcDbEntity
  8
0
  6
HIDDEN
 62
     7
370
     0
100
AcDbLine
 10
99.2882204812
 20
73.0213764342
 30
0.0
 11
99.2882204812
 21
78.747495236
 31
0.0
  0
LINE
  5
171
330
1F
100
AcDbEntity
  8
0
  6
HIDDEN
 62
     7
370
     0
100
AcDbLine
 10
87.2882204812
 20
78.7225443294
 30
0.0
 11
87.2882204812
 21
73.768505048
 31
0.0
  0
LINE
  5
172
330
1F
100
AcDbEntity
  8
0
  6
HIDDEN
 62
     7
370
     0
100
AcDbLine
 10
99.2882204812
 20
141.695625024
 30
0.0
 11
99.2882204812
 21
147.4215689628
 31
0.0
  0
LINE
  5
173
330
1F
100
AcDbEntity
  8
0
  6
HIDDEN
 62
     7
370
     0
100
AcDbLine
 10
87.2882204812
 20
146.6745822501
 30
0.0
 11
87.2882204812
 21
141.7205759307
 31
0.0
  0
ARC
  5
174
330
1F
100
AcDbEntity
  8
0
  6
HIDDEN
 62
     7
370
     0
100
AcDbCircle
 10
237.7882204812
 20
104.1848658819
 30
0.0
 40
0.5
100
AcDbArc
 50
360.0
 51
80.0
  0
ARC
  5
175
330
1F
100
AcDbEntity
  8
0
  6
HIDDEN
 62
     7
370
     0
100
AcDbCircle
 10
237.7882204812
 20
116.2582543781
 30
0.0
 40
0.5
100
AcDbArc
 50
280.0
 51
0.0
  0
LINE
  5
176
330
1F
100
AcDbEntity
  8
0
  6
HIDDEN
 62
     7
370
     0
100
AcDbLine
 10
237.87504457
 20
115.7658505016
 30
0.0
 11
234.7882204812
 21
115.22156013
 31
0.0
  0
LINE
  5
177
330
1F
100
AcDbEntity
  8
0
  6
HIDDEN
 62
     7
370
     0
100
AcDbLine
 10
234.7882204812
 20
105.22156013
 30
0.0
 11
237.87504457
 21
104.6772697584
 31
0.0
  0
LINE
  5
178
330
1F
100
AcDbEntity
  8
0
  6
HIDDEN
 62
     7
370
     0
100
AcDbLine
 10
200.2882204812
 20
104.92156013
 30
0.0
 11
206.3934464631
 21
104.92156013
 31
0.0
  0
LINE
  5
179
330
1F
100
AcDbEntity
  8
0
  6
HIDDEN
 62
     7
370
     0
100
AcDbLine
 10
197.1882204812
 20
104.92156013
 30
0.0
 11
197.290285408
 21
104.92156013
 31
0.0
  0
LINE
  5
17A
330
1F
100
AcDbEntity
  8
0
  6
HIDDEN
 62
     7
370
     0
100
AcDbLine
 10
197.2924802447
 20
115.52156013
 30
0.0
 11
197.1882204812
 21
115.52156013
 31
0.0
  0
LINE
  5
17B
330
1F
100
AcDbEntity
  8
0
  6
HIDDEN
 62
     7
370
     0
100
AcDbLine
 10
206.3934464631
 20
115.52156013
 30
0.0
 11
200.2829083949
 21
115.52156013
 31
0.0
  0
ARC
  5
17C
330
1F
100
AcDbEntity
  8
0
  6
HIDDEN
 62
     7
370
     0
100
AcDbCircle
 10
197.1882204812
 20
105.32156013
 30
0.0
 40
0.3999999999999915
100
AcDbArc
 50
180.0
 51
270.0
  0
ARC
  5
17D
330
1F
100
AcDbEntity
  8
0
  6
HIDDEN
 62
     7
370
     0
100
AcDbCircle
 10
197.1882204812
 20
115.12156013
 30
0.0
 40
0.3999999999999915
100
AcDbArc
 50
90.0
 51
180.0
  0
ARC
  5
17E
330
1F
100
AcDbEntity
  8
0
  6
HIDDEN
 62
     7
370
     0
100
AcDbCircle
 10
206.3934464631
 20
105.32156013
 30
0.0
 40
0.3999999999999977
100
AcDbArc
 50
270.0
 51
290.0
  0
ARC
  5
17F
330
1F
100
AcDbEntity
  8
0
  6
HIDDEN
 62
     7
370
     0
100
AcDbCircle
 10
206.3934464631
 20
115.12156013
 30
0.0
 40
0.3999999999999977
100
AcDbArc
 50
70.0
 51
90.0
  0
LINE
  5
180
330
1F
100
AcDbEntity
  8
0
  6
HIDDEN
 62
     7
370
     0
100
AcDbLine
 10
206.5302545204
 20
104.9456830817
 30
0.0
 11
207.2882204812
 21
105.22156013
 31
0.0
  0
LINE
  5
181
330
1F
100
AcDbEntity
  8
0
  6
HIDDEN
 62
     7
370
     0
100
AcDbLine
 10
207.2882204812
 20
115.22156013
 30
0.0
 11
206.5302545204
 21
115.4974371783
 31
0.0
  0
LINE
  5
182
330
1F
100
AcDbEntity
  8
0
  6
HIDDEN
 62
     7
370
     0
100
AcDbLine
 10
207.2882204812
 20
105.22156013
 30
0.0
 11
234.7882204812
 21
105.22156013
 31
0.0
  0
LINE
  5
183
330
1F
100
AcDbEntity
  8
0
  6
HIDDEN
 62
     7
370
     0
100
AcDbLine
 10
234.7882204812
 20
115.22156013
 30
0.0
 11
207.2882204812
 21
115.22156013
 31
0.0
  0
LINE
  5
184
330
1F
100
AcDbEntity
  8
0
  6
HIDDEN
 62
     7
370
     0
100
AcDbLine
 10
136.5882204812
 20
105.97156013
 30
0.0
 11
176.1875750169
 21
105.97156013
 31
0.0
  0
LINE
  5
185
330
1F
100
AcDbEntity
  8
0
  6
HIDDEN
 62
     7
370
     0
100
AcDbLine
 10
176.1875750169
 20
114.47156013
 30
0.0
 11
136.5882204812
 21
114.47156013
 31
0.0
  0
LINE
  5
186
330
1F
100
AcDbEntity
  8
0
  6
HIDDEN
 62
     7
370
     0
100
AcDbLine
 10
176.1875750169
 20
105.97156013
 30
0.0
 11
176.6382204812
 21
106.72156013
 31
0.0
  0
LINE
  5
187
330
1F
100
AcDbEntity
  8
0
  6
HIDDEN
 62
     7
370
     0
100
AcDbLine
 10
176.6382204812
 20
113.72156013
 30
0.0
 11
176.1875750169
 21
114.47156013
 31
0.0
  0
LINE
  5
188
330
1F
100
AcDbEntity
  8
0
  6
HIDDEN
 62
     7
370
     0
100
AcDbLine
 10
196.7882204812
 20
114.22156013
 30
0.0
 11
196.2882204812
 21
113.72156013
 31
0.0
  0
LINE
  5
189
330
1F
100
AcDbEntity
  8
0
  6
HIDDEN
 62
     7
370
     0
100
AcDbLine
 10
196.2882204812
 20
106.72156013
 30
0.0
 11
196.7882204812
 21
106.22156013
 31
0.0
  0
LINE
  5
18A
330
1F
100
AcDbEntity
  8
0
  6
HIDDEN
 62
     7
370
     0
100
AcDbLine
 10
176.6382204812
 20
106.72156013
 30
0.0
 11
196.2882204812
 21
106.72156013
 31
0.0
  0
LINE
  5
18B
330
1F
100
AcDbEntity
  8
0
  6
HIDDEN
 62
     7
370
     0
100
AcDbLine
 10
196.2882204812
 20
113.72156013
 30
0.0
 11
176.6382204812
 21
113.72156013
 31
0.0
  0
LINE
  5
18C
330
1F
100
AcDbEntity
  8
0
  6
HIDDEN
 62
     7
370
     0
100
AcDbLine
 10
146.7382204812
 20
127.22156013
 30
0.0
 11
147.7382204812
 21
126.6442098608
 31
0.0
  0
LINE
  5
18D
330
1F
100
AcDbEntity
  8
0
  6
HIDDEN
 62
     7
370
     0
100
AcDbLine
 10
152.7382204812
 20
126.6442098608
 30
0.0
 11
153.7382204812
 21
127.22156013
 31
0.0
  0
LINE
  5
18E
330
1F
100
AcDbEntity
  8
0
  6
HIDDEN
 62
     7
370
     0
100
AcDbLine
 10
153.7382204812
 20
93.22156013
 30
0.0
 11
152.7382204812
 21
93.7989103992
 31
0.0
  0
LINE
  5
18F
330
1F
100
AcDbEntity
  8
0
  6
HIDDEN
 62
     7
370
     0
100
AcDbLine
 10
147.7382204812
 20
93.7989103992
 30
0.0
 11
146.7382204812
 21
93.22156013
 31
0.0
  0
LINE
  5
190
330
1F
100
AcDbEntity
  8
0
  6
HIDDEN
 62
     7
370
     0
100
AcDbLine
 10
147.7382204812
 20
126.6442098608
 30
0.0
 11
147.7382204812
 21
117.22156013
 31
0.0
  0
LINE
  5
191
330
1F
100
AcDbEntity
  8
0
  6
HIDDEN
 62
     7
370
     0
100
AcDbLine
 10
152.7382204812
 20
117.22156013
 30
0.0
 11
152.7382204812
 21
126.6442098608
 31
0.0
  0
LINE
  5
192
330
1F
100
AcDbEntity
  8
0
  6
HIDDEN
 62
     7
370
     0
100
AcDbLine
 10
147.7382204812
 20
117.22156013
 30
0.0
 11
150.2382204812
 21
115.7194085824
 31
0.0
  0
LINE
  5
193
330
1F
100
AcDbEntity
  8
0
  6
HIDDEN
 62
     7
370
     0
100
AcDbLine
 10
150.2382204812
 20
115.7194085824
 30
0.0
 11
152.7382204812
 21
117.22156013
 31
0.0
  0
LINE
  5
194
330
1F
100
AcDbEntity
  8
0
  6
HIDDEN
 62
     7
370
     0
100
AcDbLine
 10
152.7382204812
 20
93.7989103992
 30
0.0
 11
152.7382204812
 21
103.22156013
 31
0.0
  0
LINE
  5
195
330
1F
100
AcDbEntity
  8
0
  6
HIDDEN
 62
     7
370
     0
100
AcDbLine
 10
147.7382204812
 20
103.22156013
 30
0.0
 11
147.7382204812
 21
93.7989103992
 31
0.0
  0
LINE
  5
196
330
1F
100
AcDbEntity
  8
0
  6
HIDDEN
 62
     7
370
     0
100
AcDbLine
 10
152.7382204812
 20
103.22156013
 30
0.0
 11
150.2382204812
 21
104.7237116776
 31
0.0
  0
LINE
  5
197
330
1F
100
AcDbEntity
  8
0
  6
HIDDEN
 62
     7
370
     0
100
AcDbLine
 10
150.2382204812
 20
104.7237116776
 30
0.0
 11
147.7382204812
 21
103.22156013
 31
0.0
  0
LINE
  5
198
330
1F
100
AcDbEntity
  8
0
  6
HIDDEN
 62
     7
370
     0
100
AcDbLine
 10
197.2882204812
 20
118.5937128133
 30
0.0
 11
197.2882204812
 21
115.5203580399
 31
0.0
  0
LINE
  5
199
330
1F
100
AcDbEntity
  8
0
  6
HIDDEN
 62
     7
370
     0
100
AcDbLine
 10
197.2882204812
 20
121.22156013
 30
0.0
 11
197.2882204812
 21
120.9596427513
 31
0.0
  0
LINE
  5
19A
330
1F
100
AcDbEntity
  8
0
  6
HIDDEN
 62
     7
370
     0
100
AcDbLine
 10
200.2882204812
 20
120.9617918667
 30
0.0
 11
200.2882204812
 21
121.22156013
 31
0.0
  0
LINE
  5
19B
330
1F
100
AcDbEntity
  8
0
  6
HIDDEN
 62
     7
370
     0
100
AcDbLine
 10
200.2882204812
 20
115.5200595573
 30
0.0
 11
200.2882204812
 21
118.463619748
 31
0.0
  0
LINE
  5
19C
330
1F
100
AcDbEntity
  8
0
  6
HIDDEN
 62
     7
370
     0
100
AcDbLine
 10
197.2882204812
 20
99.4850620509
 30
0.0
 11
197.2882204812
 21
99.22156013
 31
0.0
  0
LINE
  5
19D
330
1F
100
AcDbEntity
  8
0
  6
HIDDEN
 62
     7
370
     0
100
AcDbLine
 10
197.2882204812
 20
104.9221399759
 30
0.0
 11
197.2882204812
 21
101.8610872072
 31
0.0
  0
LINE
  5
19E
330
1F
100
AcDbEntity
  8
0
  6
HIDDEN
 62
     7
370
     0
100
AcDbLine
 10
200.2882204812
 20
101.979500512
 30
0.0
 11
200.2882204812
 21
104.92156013
 31
0.0
  0
LINE
  5
19F
330
1F
100
AcDbEntity
  8
0
  6
HIDDEN
 62
     7
370
     0
100
AcDbLine
 10
200.2882204812
 20
99.22156013
 30
0.0
 11
200.2882204812
 21
99.4792483795
 31
0.0
  0
LINE
  5
1A0
330
1F
100
AcDbEntity
  8
0
  6
HIDDEN
 62
     7
370
     0
100
AcDbLine
 10
197.2882204812
 20
99.22156013
 30
0.0
 11
198.7882204812
 21
98.3202692015
 31
0.0
  0
LINE
  5
1A1
330
1F
100
AcDbEntity
  8
0
  6
HIDDEN
 62
     7
370
     0
100
AcDbLine
 10
198.7882204812
 20
98.3202692015
 30
0.0
 11
200.2882204812
 21
99.22156013
 31
0.0
  0
LINE
  5
1A2
330
1F
100
AcDbEntity
  8
0
  6
HIDDEN
 62
     7
370
     0
100
AcDbLine
 10
200.2868469959
 20
99.4775176511
 30
0.0
 11
238.2882204812
 21
100.9705956818
 31
0.0
  0
LINE
  5
1A3
330
1F
100
AcDbEntity
  8
0
  6
HIDDEN
 62
     7
370
     0
100
AcDbLine
 10
238.2882204812
 20
103.4725245783
 30
0.0
 11
200.2882204812
 21
101.979500512
 31
0.0
  0
LINE
  5
1A4
330
1F
100
AcDbEntity
  8
0
  6
HIDDEN
 62
     7
370
     0
100
AcDbLine
 10
200.2882204812
 20
118.463619748
 30
0.0
 11
238.2882204812
 21
116.9705956818
 31
0.0
  0
LINE
  5
1A5
330
1F
100
AcDbEntity
  8
0
  6
HIDDEN
 62
     7
370
     0
100
AcDbLine
 10
238.2882204812
 20
119.4725245783
 30
0.0
 11
200.2851657845
 21
120.9656686639
 31
0.0
  0
LINE
  5
1A6
330
1F
100
AcDbEntity
  8
0
  6
HIDDEN
 62
     7
370
     0
100
AcDbLine
 10
197.2915593014
 20
120.9622774339
 30
0.0
 11
196.5693332738
 21
119.8606996726
 31
0.0
  0
LINE
  5
1A7
330
1F
100
AcDbEntity
  8
0
  6
HIDDEN
 62
     7
370
     0
100
AcDbLine
 10
196.5693332738
 20
119.8606996726
 30
0.0
 11
197.2707552256
 21
118.5821762808
 31
0.0
  0
LINE
  5
1A8
330
1F
100
AcDbEntity
  8
0
  6
HIDDEN
 62
     7
370
     0
100
AcDbLine
 10
197.2707552256
 20
101.8609439792
 30
0.0
 11
196.5693332738
 21
100.5824205874
 31
0.0
  0
LINE
  5
1A9
330
1F
100
AcDbEntity
  8
0
  6
HIDDEN
 62
     7
370
     0
100
AcDbLine
 10
196.5693332738
 20
100.5824205874
 30
0.0
 11
197.2895522555
 21
99.4839040798
 31
0.0
  0
LINE
  5
1AA
330
1F
100
AcDbEntity
  8
0
  6
HIDDEN
 62
     7
370
     0
100
AcDbLine
 10
112.2882204812
 20
157.774271428
 30
0.0
 11
112.2882204812
 21
155.8987230121
 31
0.0
  0
LINE
  5
1AB
330
1F
100
AcDbEntity
  8
0
  6
HIDDEN
 62
     7
370
     0
100
AcDbLine
 10
122.2882204812
 20
155.8973510629
 30
0.0
 11
122.2882204812
 21
157.7728431452
 31
0.0
  0
DIMENSION
  5
1AC
330
1F
100
AcDbEntity
  8
VERMASSUNG
100
AcDbDimension
  2
*D1
 10
51.9591549296
 20
60.22156013
 30
0.0
 11
51.9591549296
 21
110.22156013
 31
0.0
 70
   160
  1
HSK A %%c<>
 71
     2
 42
-1.0
  3
SLDDIMSTYLE0
100
AcDbAlignedDimension
 13
108.7882204812
 23
160.22156013
 33
0.0
 14
108.7882204812
 24
60.22156013
 34
0.0
 50
90.0
100
AcDbRotatedDimension
  0
DIMENSION
  5
1B9
330
1F
100
AcDbEntity
  8
VERMASSUNG
100
AcDbDimension
  2
*D2
 10
238.2882204812
 20
161.2768147346
 30
0.0
 11
217.5382204812
 21
161.2768147346
 31
0.0
 70
   160
 71
     2
 42
-1.0
  3
SLDDIMSTYLE1
100
AcDbAlignedDimension
 13
196.7882204812
 23
115.12156013
 33
0.0
 14
238.2882204812
 24
120.3727791467
 34
0.0
 50
0.0
100
AcDbRotatedDimension
  0
DIMENSION
  5
1C4
330
1F
100
AcDbEntity
  8
VERMASSUNG
100
AcDbDimension
  2
*D3
 10
245.2729144095
 20
115.22156013
 30
0.0
 11
245.2729144095
 21
110.22156013
 31
0.0
 70
   160
  1
%%c<>
 71
     2
 42
-1.0
  3
SLDDIMSTYLE2
100
AcDbAlignedDimension
 13
234.7882204812
 23
105.22156013
 33
0.0
 14
234.7882204812
 24
115.22156013
 34
0.0
 50
90.0
100
AcDbRotatedDimension
  0
DIMENSION
  5
1D0
330
1F
100
AcDbEntity
  8
VERMASSUNG
100
AcDbDimension
  2
*D4
 10
251.2729144095
 20
122.22156013
 30
0.0
 11
251.2729144095
 21
110.22156013
 31
0.0
 70
   160
  1
%%c<>
 71
     2
 42
-1.0
  3
SLDDIMSTYLE3
100
AcDbAlignedDimension
 13
238.2882204812
 23
98.22156013
 33
0.0
 14
238.2882204812
 24
122.22156013
 34
0.0
 50
90.0
100
AcDbRotatedDimension
  0
DIMENSION
  5
1DC
330
1F
100
AcDbEntity
  8
VERMASSUNG
100
AcDbDimension
  2
*D5
 10
238.2882204812
 20
173.2768147346
 30
0.0
 11
173.2882204812
 21
173.2768147346
 31
0.0
 70
   160
 71
     2
 42
-1.0
  3
SLDDIMSTYLE0
100
AcDbAlignedDimension
 13
108.2882204812
 23
159.72156013
 33
0.0
 14
238.2882204812
 24
120.3727791467
 34
0.0
100
AcDbRotatedDimension
  0
DIMENSION
  5
1E6
330
1F
100
AcDbEntity
  8
VERMASSUNG
100
AcDbDimension
  2
*D6
 10
238.2882204812
 20
167.2768147346
 30
0.0
 11
187.7632204812
 21
167.2768147346
 31
0.0
 70
   160
 71
     2
 42
-1.0
  3
SLDDIMSTYLE0
100
AcDbAlignedDimension
 13
137.2382204812
 23
158.1902999509
 33
0.0
 14
238.2882204812
 24
120.3727791467
 34
0.0
100
AcDbRotatedDimension
  0
DIMENSION
  5
1F0
330
1F
100
AcDbEntity
  8
VERMASSUNG
100
AcDbDimension
  2
*D7
 10
238.2882204812
 20
179.2768147346
 30
0.0
 11
148.3382204812
 21
179.2768147346
 31
0.0
 70
   160
 71
     2
 42
-1.0
  3
SLDDIMSTYLE0
100
AcDbAlignedDimension
 13
58.3882204812
 23
140.7242298726
 33
0.0
 14
238.2882204812
 24
120.3727791467
 34
0.0
100
AcDbRotatedDimension
  0
DIMENSION
  5
1FA
330
1F
100
AcDbEntity
  8
VERMASSUNG
100
AcDbDimension
  2
*D8
 10
257.2729144095
 20
93.22156013
 30
0.0
 11
257.2729144095
 21
110.22156013
 31
0.0
 70
   160
  1
%%c<>
 71
     2
 42
-1.0
  3
SLDDIMSTYLE0
100
AcDbAlignedDimension
 13
159.2382204812
 23
127.22156013
 33
0.0
 14
159.2382204812
 24
93.22156013
 34
0.0
 50
90.0
100
AcDbRotatedDimension
  0
LINE
  5
205
330
1F
100
AcDbEntity
  8
VERMASSUNG
  6
CENTERX2
370
     0
100
AcDbLine
 10
54.2798483207
 20
110.22156013
 30
0.0
 11
240.2882204812
 21
110.22156013
 31
0.0
  0
OLE2FRAME
  5
206
330
1F
100
AcDbEntity
  8
0
100
AcDbOle2Frame
 70
     2
  3
Bitmap Image
 10
13.8511154363
 20
38.264191557
 30
0.0
 11
51.6290888628
 21
31.9806341108
 31
0.0
 71
     2
 72
     0
 73
     1
 90
    12928
310
80552BED0767C5B32B40DDAF6807D121434000000000000000006FFBDDFB85D0
310
4940DDAF6807D121434000000000000000006FFBDDFB85D04940416F4BD60AFB
310
3F4000000000000000002BED0767C5B32B40416F4BD60AFB3F40000000000000
310
0000000000000100000000010000010000000100000000000100000000320000
310
D0CF11E0A1B11AE1000000000000000000000000000000003E000300FEFF0900
310
0600000000000000000000000100000001000000000000000010000002000000
310
01000000FEFFFFFF0000000000000000FFFFFFFFFFFFFFFFFFFFFFFFFFFFFFFF
310
FFFFFFFFFFFFFFFFFFFFFFFFFFFFFFFFFFFFFFFFFFFFFFFFFFFFFFFFFFFFFFFF
310
FFFFFFFFFFFFFFFFFFFFFFFFFFFFFFFFFFFFFFFFFFFFFFFFFFFFFFFFFFFFFFFF
310
FFFFFFFFFFFFFFFFFFFFFFFFFFFFFFFFFFFFFFFFFFFFFFFFFFFFFFFFFFFFFFFF
310
FFFFFFFFFFFFFFFFFFFFFFFFFFFFFFFFFFFFFFFFFFFFFFFFFFFFFFFFFFFFFFFF
310
FFFFFFFFFFFFFFFFFFFFFFFFFFFFFFFFFFFFFFFFFFFFFFFFFFFFFFFFFFFFFFFF
310
FFFFFFFFFFFFFFFFFFFFFFFFFFFFFFFFFFFFFFFFFFFFFFFFFFFFFFFFFFFFFFFF
310
FFFFFFFFFFFFFFFFFFFFFFFFFFFFFFFFFFFFFFFFFFFFFFFFFFFFFFFFFFFFFFFF
310
FFFFFFFFFFFFFFFFFFFFFFFFFFFFFFFFFFFFFFFFFFFFFFFFFFFFFFFFFFFFFFFF
310
FFFFFFFFFFFFFFFFFFFFFFFFFFFFFFFFFFFFFFFFFFFFFFFFFFFFFFFFFFFFFFFF
310
FFFFFFFFFFFFFFFFFFFFFFFFFFFFFFFFFFFFFFFFFFFFFFFFFFFFFFFFFFFFFFFF
310
FFFFFFFFFFFFFFFFFFFFFFFFFFFFFFFFFFFFFFFFFFFFFFFFFFFFFFFFFFFFFFFF
310
FFFFFFFFFFFFFFFFFFFFFFFFFFFFFFFFFFFFFFFFFFFFFFFFFFFFFFFFFFFFFFFF
310
FFFFFFFFFFFFFFFFFFFFFFFFFFFFFFFFFFFFFFFFFFFFFFFFFFFFFFFFFFFFFFFF
310
FDFFFFFFFEFFFFFFFEFFFFFFFEFFFFFF05000000060000000700000008000000
310
090000000A0000000B0000000C0000000D0000000E0000000F00000010000000
310
11000000120000001300000014000000150000001600000017000000FEFFFFFF
310
FFFFFFFFFFFFFFFFFFFFFFFFFFFFFFFFFFFFFFFFFFFFFFFFFFFFFFFFFFFFFFFF
310
FFFFFFFFFFFFFFFFFFFFFFFFFFFFFFFFFFFFFFFFFFFFFFFFFFFFFFFFFFFFFFFF
310
FFFFFFFFFFFFFFFFFFFFFFFFFFFFFFFFFFFFFFFFFFFFFFFFFFFFFFFFFFFFFFFF
310
FFFFFFFFFFFFFFFFFFFFFFFFFFFFFFFFFFFFFFFFFFFFFFFFFFFFFFFFFFFFFFFF
310
FFFFFFFFFFFFFFFFFFFFFFFFFFFFFFFFFFFFFFFFFFFFFFFFFFFFFFFFFFFFFFFF
310
FFFFFFFFFFFFFFFFFFFFFFFFFFFFFFFFFFFFFFFFFFFFFFFFFFFFFFFFFFFFFFFF
310
FFFFFFFFFFFFFFFFFFFFFFFFFFFFFFFFFFFFFFFFFFFFFFFFFFFFFFFFFFFFFFFF
310
FFFFFFFFFFFFFFFFFFFFFFFFFFFFFFFFFFFFFFFFFFFFFFFFFFFFFFFFFFFFFFFF
310
FFFFFFFFFFFFFFFFFFFFFFFFFFFFFFFFFFFFFFFFFFFFFFFFFFFFFFFFFFFFFFFF
310
FFFFFFFFFFFFFFFFFFFFFFFFFFFFFFFFFFFFFFFFFFFFFFFFFFFFFFFFFFFFFFFF
310
FFFFFFFFFFFFFFFFFFFFFFFFFFFFFFFFFFFFFFFFFFFFFFFFFFFFFFFFFFFFFFFF
310
FFFFFFFFFFFFFFFFFFFFFFFFFFFFFFFFFFFFFFFFFFFFFFFFFFFFFFFFFFFFFFFF
310
FFFFFFFFFFFFFFFFFFFFFFFFFFFFFFFFFFFFFFFFFFFFFFFFFFFFFFFFFFFFFFFF
310
52006F006F007400200045006E00740072007900000000000000000000000000
310
0000000000000000000000000000000000000000000000000000000000000000
310
16000500FFFFFFFFFFFFFFFF020000000A00030000000000C000000000000046
310
00000000000000000000000050FC07859905CC0103000000C000000000000000
310
01004F006C006500000000000000000000000000000000000000000000000000
310
0000000000000000000000000000000000000000000000000000000000000000
310
0A000200FFFFFFFFFFFFFFFFFFFFFFFF00000000000000000000000000000000
310
0000000000000000000000000000000000000000000000001400000000000000
310
010043006F006D0070004F0062006A0000000000000000000000000000000000
310
0000000000000000000000000000000000000000000000000000000000000000
310
120002010100000003000000FFFFFFFF00000000000000000000000000000000
310
0000000000000000000000000000000000000000010000004D00000000000000
310
01004F006C006500310030004E00610074006900760065000000000000000000
310
0000000000000000000000000000000000000000000000000000000000000000
310
1A000200FFFFFFFFFFFFFFFFFFFFFFFF00000000000000000000000000000000
310
0000000000000000000000000000000000000000040000002426000000000000
310
FEFFFFFF02000000FEFFFFFFFFFFFFFFFFFFFFFFFFFFFFFFFFFFFFFFFFFFFFFF
310
FFFFFFFFFFFFFFFFFFFFFFFFFFFFFFFFFFFFFFFFFFFFFFFFFFFFFFFFFFFFFFFF
310
FFFFFFFFFFFFFFFFFFFFFFFFFFFFFFFFFFFFFFFFFFFFFFFFFFFFFFFFFFFFFFFF
310
FFFFFFFFFFFFFFFFFFFFFFFFFFFFFFFFFFFFFFFFFFFFFFFFFFFFFFFFFFFFFFFF
310
FFFFFFFFFFFFFFFFFFFFFFFFFFFFFFFFFFFFFFFFFFFFFFFFFFFFFFFFFFFFFFFF
310
FFFFFFFFFFFFFFFFFFFFFFFFFFFFFFFFFFFFFFFFFFFFFFFFFFFFFFFFFFFFFFFF
310
FFFFFFFFFFFFFFFFFFFFFFFFFFFFFFFFFFFFFFFFFFFFFFFFFFFFFFFFFFFFFFFF
310
FFFFFFFFFFFFFFFFFFFFFFFFFFFFFFFFFFFFFFFFFFFFFFFFFFFFFFFFFFFFFFFF
310
FFFFFFFFFFFFFFFFFFFFFFFFFFFFFFFFFFFFFFFFFFFFFFFFFFFFFFFFFFFFFFFF
310
FFFFFFFFFFFFFFFFFFFFFFFFFFFFFFFFFFFFFFFFFFFFFFFFFFFFFFFFFFFFFFFF
310
FFFFFFFFFFFFFFFFFFFFFFFFFFFFFFFFFFFFFFFFFFFFFFFFFFFFFFFFFFFFFFFF
310
FFFFFFFFFFFFFFFFFFFFFFFFFFFFFFFFFFFFFFFFFFFFFFFFFFFFFFFFFFFFFFFF
310
FFFFFFFFFFFFFFFFFFFFFFFFFFFFFFFFFFFFFFFFFFFFFFFFFFFFFFFFFFFFFFFF
310
FFFFFFFFFFFFFFFFFFFFFFFFFFFFFFFFFFFFFFFFFFFFFFFFFFFFFFFFFFFFFFFF
310
FFFFFFFFFFFFFFFFFFFFFFFFFFFFFFFFFFFFFFFFFFFFFFFFFFFFFFFFFFFFFFFF
310
FFFFFFFFFFFFFFFFFFFFFFFFFFFFFFFFFFFFFFFFFFFFFFFFFFFFFFFFFFFFFFFF
310
010000020000000000000000000000000000000066006F0072006D0061007400
310
69006F006E000000000000000000000000000000000000000000000000000000
310
0100FEFF030A0000FFFFFFFF0A00030000000000C00000000000004607000000
310
5042727573680007000000504272757368000700000050427275736800F439B2
310
71000000000000000000000000006F0072006B00730049006E0066006F007200
310
6D006100740069006F006E000000000000000000000000000000000000000000
310
2E0002012100000007000000FFFFFFFF00000000000000000000000000000000
310
000000000000000000000000000000000000000000000000A808000000000000
310
5400680069007200640050007400790000000000000000000000000000000000
310
0000000000000000000000000000000000000000000000000000000000000000
310
12000100FFFFFFFFFFFFFFFF1000000000000000000000000000000000000000
310
00000000C0D8AA7E9FD5C601C07812C5C274CA01000000000000000000000000
310
54006800690072006400500074007900530074006F0072006500000000000000
310
0000000000000000000000000000000000000000000000000000000000000000
310
1C00010104000000060000000D00000000000000000000000000000000000000
310
00000000C0D8AA7E9FD5C60130512C779905CC01000000000000000000000000
310
20260000424D0E260000000000003E00000028000000B40200006E0000000100
310
01000000000000000000130B0000130B00000200000002000000000000FFFFFF
310
FFFFFFFFFFFFFFFFFFFFFFFFFFFFFFFFFFFFFFFFFFFFFFFFFFFFFFFFFFFFFFFF
310
FFFFFFFFFFFFFFFFFFFFFFFFFFFFFFFFFFFFFFFFFFFFFFFFFFFFFFFFFFFFFFFF
310
FFFFFFFFFFFFFFFFFFFFFFFFFFFFFFFFFFFFFFFFFFFFFFFFF000FFFFFFFFFFFF
310
FFFFFFFFFFFFFFFFFFFFFFFFFFFFFFFFFFFFFFFFFFFFFFFFFFFFFFFFFFFFFFFF
310
FFFFFFFFFFFFFFFFFFFFFFFFFFFFFFFFFFFFFFFFFFFFFFFFFFFFFFFFFFFFFFFF
310
FFFFFFFFFFFFFFFFFFFFFFFFFFFFFFFFF000FFFFFFFFFFFFFFFFFFFFFFFFFFFF
310
FFFFFFFFFFFFFFFFFFFFFFFFFFFFFFFFFFFFFFFFFFFFFFFFFFFFFFFFFFFFFFFF
310
FFFFFFFFFFFFFFFFFFFFFFFFFFFFFFFFFFFFFFFFFFFFFFFFFFFFFFFFFFFFFFFF
310
FFFFFFFFFFFFFFFFF000FFFFFFFFFFFFFFFFFFFFFFFFFFFFFFFFFFFFFFFFFFFF
310
FFFFFFFFFFFFFFFFFFFFFFFFFFFFFFFFFFFFFFFFFFFFFFFFFFFFFFFFFFFFFFFF
310
FFFFFFFFFFFFFFFFFFFFFFFFFFFFFFFFFFFFFFFFFFFFFFFFFFFFFFFFFFFFFFFF
310
F000FFFFFFFFFFFFFFFFFFFFFFFFFFFFFFFFFFFFFFFFFFFFFFFFFFFFFFFFFFFF
310
FFFFFFFFFFFFFFFFFFFFFFFFFFFFFFFFFFFFFFFFFFFFFFFFFFFFFFFFFFFFFFFF
310
FFFFFFFFFFFFFFFFFFFFFFFFFFFFFFFFFFFFFFFFFFFFFFFFF000FFFFFFFFFFFF
310
FFFFFFFFFFFFFFFFFFFFFFFFFFFFFFFFFFFFFFFFFFFFFFFFFFFFFFFFFFFFFFFF
310
FFFFFFFFFFFFFFFFFFFFFFFFFFFFFFFFFFFFFFFFFFFFFFFFFFFFFFFFFFFFFFFF
310
FFFFFFFFFFFFFFFFFFFFFFFFFFFFFFFFF000FFFFFFFFFFFFFFFFFFFFFFFFFFFF
310
FFFFFFFFFFFFFFFFFFFFFFFFFFFFFFFFFFFFFFFFFFFFFFFFFFFFFFFFFFFFFFFF
310
FFFFFFFFFFFFFFFFFFFFFFFFFFFFFFFFFFFFFFFFFFFFFFFFFFFFFFFFFFFFFFFF
310
FFFFFFFFFFFFFFFFF000FFFFFFFFFFFFFFFFFFFFFFFFFFFFFFFFFFFFFFFFFFFF
310
FFFFFFFFFFFFFFFFFFFFFFFFFFFFFFFFFFFFFFFFFFFFFFFFFFFFFFFFFFFFFFFF
310
FFFFFFFFFFFFFFFFFFFFFFFFFFFFFFFFFFFFFFFFFFFFFFFFFFFFFFFFFFFFFFFF
310
F000FFFFFFFFFFFFFFFFFFFFFFFFFFFFFFFFFFFFFFFFFFFFFFFFFFFFFFFFFFFF
310
FFFFFFFFFFFFFFFFFFFFFFFFFFFFFFFFFFFFFFFFFFFFFFFFFFFFFFFFFFFFFFFF
310
FFFFFFFFFFFFFFFFFFFFFFFFFFFFFFFFFFFFFFFFFFFFFFFFF000FFFFFFFFFFFF
310
FFFFFFFFFFFFFFFFFFFFFFFFFFFFFFFFFFFFFFFFFFFFFFFFFFFFFFFFFFFFFFFF
310
FFFFFFFFFFFFFFFFFFFFFFFFFFFFFFFFFFFFFFFFFFFFFFFFFFFFFFFFFFFFFFFF
310
FFFFFFFFFFFFFFFFFFFFFFFFFFFFFFFFF000FFFFFFFFFFFFFFFFFFFFFFFFFFFF
310
FFFFFFFFFFFFFFFFFFFFFFFFFFFFFFFFFFFFFFFFFFFFFFFFFFFFFFFFFFFFFFFF
310
FFFFFFFFFFFFFFFFFFFFFFFFFFFFFFFFFFFFFFFFFFFFFFFFFFFFFFFFFFFFFFFF
310
FFFFFFFFFFFFFFFFF000FFFFFFFFFFFFFFFFFFFFFFFFFFFFFFFFFFFFFFFFFFFF
310
FFFFFFFFFFFFFFFFFFFFFFFFFFFFFFFFFFFFFFFFFFFFFFFFFFFFFFFFFFFFFFFF
310
FFFFFFFFFFFFFFFFFFFFFFFFFFFFFFFFFFFFFFFFFFFFFFFFFFFFFFFFFFFFFFFF
310
F000FFFFFFFFFFFFFFFFFFFFFFFFFFFFFFFFFFFFFFFFFFFFFFFFFFFFFFFFFFFF
310
FFFFFFFFFFFFFFFFFFFFFFFFFFFFFFFFFFFFFFFFFFFFFFFFFFFFFFFFFFFFFFFF
310
FFFFFFFFFFFFFFFFFFFFFFFFFFFFFFFFFFFFFFFFFFFFFFFFF000FFFFFFFFFFFF
310
FFFFFFFFFFFFFFFFFFFFFFFFFFFFFFFFFFFFFFFFFFFFFFFFFFFFFFFFFFFFFFFF
310
FFFFFFFFFFFFFFFFFFFFFFFFFFFFFFFFFFFFFFFFFFFFFFFFFFFFFFFFFFFFFFFF
310
FFFFFFFFFFFFFFFFFFFFFFFFFFFFFFFFF000FFFFFFFFFFFFFFFFFFFFFFFFFFFF
310
FFFFFFFFFFFFFFFFFFFFFFFFFFFFFFFFFFFFFFFFFFFFFFFFFFFFFFFFFFFFFFFF
310
FFFFFFFFFFFFFFFFFFFFFFFFFFFFFFFFFFFFFFFFFFFFFFFFFFFFFFFFFFFFFFFF
310
FFFFFFFFFFFFFFFFF000FFFFFFFFFFFFFFFFFFFFFFFFFFFFFFFFFFFFFFFFFFFF
310
FFFFFFFFFFFFFFFFFFFFFFFFFFFFFFFFFFFFFFFFFFFFFFFFFFFFFFFFFFFFFFFF
310
FFFFFFFFFFFFFFFFFFFFFFFFFFFFFFFFFFFFFFFFFFFFFFFFFFFFFFFFFFFFFFFF
310
F000FFFFFFFFFFFFFFFFFFFFFFFFFFFFFFFFFFFFFFFFFFFFFFFFFFFFFFFFFFFF
310
FFFFFFFFFFFFFFFFFFFFFFFFFFFFFFFFFFFFFFFFFFFFFFFFFFFFFFFFFFFFFFFF
310
FFFFFFFFFFFFFFFFFFFFFFFFFFFFFFFFFFFFFFFFFFFFFFFFF000FFFFFFFFFFFF
310
FFFFFFFFFFFFFFFFFFFFFFFFFFFFFFFFFFFFFFFFFFFFFFFFFFFFFFFFFFFFFFFF
310
FFFFFFFFFFFFFFFFFFFFFFFFFFFFFFFFFFFFFFFFFFFFFFFFFFFFFFFFFFFFFFFF
310
FFFFFFFFFFFFFFFFFFFFFFFFFFFFFFFFF000FFFFFFFFFFFFFFFFFFFFFFFFFFFF
310
FFFFFFFFFFFFFFFFFFFFFFFFFFFFFFFFFFFFFFFFFFFFFFFFFFFFFFFFFFFFFFFF
310
FFFFFFFFFFFFFFFFFFFFFFFFFFFFFFFFFFFFFFFFFFFFFFFFFFFFFFFFFFFFFFFF
310
FFFFFFFFFFFFFFFFF000FFFFF80003FFFFFFFFFFFFFFFFFFFFFFFFFFFFFFFFFF
310
FFFFF00007FFFFFFFFFF00007FFFFFF800000000000000007FFFFFFFFFFFFFFF
310
FFFFFFFC001FFFFFFFFFFFFFFC001FFFFFFFFFFFFFFFFFFFFFFFFFFE0007FFFF
310
F000FFFF8000007FFFFFFFF8000FFFFFC0007FFFFF80007FFFFF0000007FFFFF
310
FFF8000007FFFFF800000000000000007FFFFFF0001FFFFFFFFFFFC00001FFFF
310
FFFFFFFFC00001FFFFFFFF000000000003FFFFE000007FFFF000FFFE0000000F
310
FFFFFFF0000FFFFF80007FFFFF80007FFFFC0000001FFFFFFFC0000001FFFFF8
310
00000000000000007FFFFFF0001FFFFFFFFFFE0000003FFFFFFFFFFE0000003F
310
FFFFFF000000000003FFFF0000000FFFF000FFF800000003FFFFFFF00007FFFF
310
80007FFFFF80007FFFF000000007FFFFFF000000003FFFF80000000000000000
310
7FFFFFF0001FFFFFFFFFF80000000FFFFFFFFFF80000000FFFFFFF0000000000
310
03FFFC00000003FFF000FFE000000000FFFFFFF00007FFFF80003FFFFF80007F
310
FFC000000001FFFFFC000000001FFFF800000000000000007FFFFFF0001FFFFF
310
FFFFE000000003FFFFFFFFE000000003FFFFFF000000000003FFF000000000FF
310
F000FF80000000007FFFFFF00007FFFF80003FFFFF80007FFF8000000000FFFF
310
F80000000007FFF800000000000000007FFFFFF0001FFFFFFFFFC000000001FF
310
FFFFFFC000000001FFFFFF000000000003FFC0000000007FF000FF0000000000
310
3FFFFFE00007FFFF00003FFFFF80007FFE00000000003FFFF00000000003FFF8
310
00000000000000007FFFFFF0001FFFFFFFFF8000000000FFFFFFFF8000000000
310
FFFFFF000000000003FF80000000003FF000FE00000000001FFFFFE00003FFFF
310
00003FFFFF80007FFC00000000001FFFE00000000001FFF8000001FFFE000000
310
7FFFFFF0001FFFFFFFFE00000000003FFFFFFE00000000003FFFFF0000000000
310
03FF00000000001FF000FC00000000000FFFFFE00003FFFF00001FFFFF80007F
310
F800000000001FFFC00000000000FFF8000001FFFE0000007FFFFFF0001FFFFF
310
FFFC00000000001FFFFFFC00000000001FFFFF000000000003FE00000000000F
310
F000F8000000000007FFFFE00003FFFF00001FFFFF80007FF800000000000FFF
310
800000000000FFF8000001FFFE0000007FFFFFF0001FFFFFFFF800000000000F
310
FFFFF800000000000FFFFF000000000003FC000000000007F000F80000000000
310
03FFFFC00003FFFE00001FFFFF80007FF0000000000007FF0000000000007FF8
310
000001FFFE0000007FFFFFF0001FFFFFFFF0000000000007FFFFF00000000000
310
07FFFF000000000003F8000000000003F000F0000000000003FFFFC00001FFFE
310
00001FFFFF80007FE0000000000007FE0000000000003FF8000001FFFE000000
310
7FFFFFF0001FFFFFFFF0000000000007FFFFF0000000000007FFFF0000000000
310
03F800001F800003F000E00001FFF00001FFFFC00001FFFE00000FFFFF80007F
310
E00001FFE00003FE00001FFF00003FF8000001FFFE0000007FFFFFF0001FFFFF
310
FFE000003E000003FFFFE000003E000003FFFF000000000003F00001FFF80001
310
F000E00007FFFC0001FFFFC00001FFFE00000FFFFF80007FC0000FFFFC0003FC
310
0000FFFFC0001FF8000001FFFE0000007FFFFFF0001FFFFFFFC00003FFE00001
310
FFFFC00003FFE00001FFFF0001FFFFFFFFF00007FFFE0001F000E0000FFFFF00
310
00FFFF800001FFFC00000FFFFF80007FC0001FFFFE0001FC0001FFFFE0001FF8
310
000001FFFE0000007FFFFFF0001FFFFFFF80000FFFF80000FFFF80000FFFF800
310
00FFFF0003FFFFFFFFE0000FFFFF8000F000C0003FFFFF8000FFFF800000FFFC
310
000007FFFF80007F80003FFFFF0001FC0003FFFFF0001FF8000001FFFE000000
310
7FFFFFF0001FFFFFFF80003FFFFE0000FFFF80003FFFFE0000FFFF0003FFFFFF
310
FFE0003FFFFF8000F000C0003FFFFF8000FFFF800000FFFC000007FFFF80007F
310
80007FFFFF8001F80007FFFFF8000FF8000001FFFE0000007FFFFFF0001FFFFF
310
FF00007FFFFF00007FFF00007FFFFF00007FFF0003FFFFFFFFE0003FFFFFC000
310
F000C0007FFFFFC000FFFF000000FFFC000007FFFF80007F8000FFFFFF8000F8
310
000FFFFFF8000FF8000001FFFE0000007FFFFFF0001FFFFFFF0000FFFFFF8000
310
7FFF0000FFFFFF80007FFF0003FFFFFFFFC0007FFFFFC00070008000FFFFFFC0
310
00FFFF000000FFF8000007FFFF80007F8000FFFFFF8000F8000FFFFFF8000FF8
310
000001FFFE0000007FFFFFF0001FFFFFFE0001FFFFFFC0003FFE0001FFFFFFC0
310
003FFF0003FFFFFFFFC0007FFFFFE00070008000FFFFFFC0007FFF0000007FF8
310
000003FFFF80007F0001FFFFFF8000F8000FFFFFF8000FF8000001FFFE000000
310
7FFFFFF0001FFFFFFE0001FFFFFFC0003FFE0001FFFFFFC0003FFF0003FFFFFF
310
FFC000FFFFFFE00070008000FFFFFFC0007FFF0000007FF8000003FFFF80007F
310
0001FFFFFF8000F8001FFFFFF8000FF8000001FFFE0000007FFFFFF0001FFFFF
310
FE0003FFFFFFE0003FFE0003FFFFFFE0003FFF0003FFFFFFFFC000FFFFFFE000
310
70008000FFFFFFC0007FFE0000007FF8000003FFFF80007F0001FFFFFF8000F0
310
001FFFFFF8000FF8000001FFFE0000007FFFFFF0001FFFFFFC0003FFFFFFE000
310
1FFC0003FFFFFFE0001FFF0003FFFFFFFFC000FFFFFFC00070008000FFFFFF80
310
007FFE0000007FF0000003FFFF80007F0001FFFFFF0000F0001FFFFFF8000FF8
310
000001FFFE0000007FFFFFF0001FFFFFFC0007FFFFFFF0001FFC0007FFFFFFF0
310
001FFF0003FFFFFFFFC000FFFFFFC00070008001FFFFFF0000FFFE0000003FF0
310
000001FFFF80007F0001FFFFFF0000F8001FFFFFF0000FF8000001FFFE000000
310
7FFFFFF0001FFFFFFC0007FFFFFFF0001FFC0007FFFFFFF0001FFF0003FFFFFF
310
FFC001FFFFFF80007000FFFFFFFFFE0000FFFE0008003FF0008001FFFF80007F
310
FFFFFFFFFC0000FFFFFFFFFFE0000FF8000001FFFE0000007FFFFFF0001FFFFF
310
F8000FFFFFFFF8000FF8000FFFFFFFF8000FFF0003FFFFFFFFFFFFFFFFFF0000
310
7000FFFFFFFFFC0000FFFC0008003FF0008001FFFF80007FFFFFFFFFF80001FF
310
FFFFFFFF80000FF8000001FFFE0000007FFFFFF0001FFFFFF8000FFFFFFFF800
310
0FF8000FFFFFFFF8000FFF0003FFFFFFFFFFFFFFFFFE0000F000FFFFFFFFE000
310
00FFFC000C003FE000C001FFFF80007FFFFFFFFFC00001FFFFFFFFFE00001FF8
310
000001FFFE0000007FFFFFF0001FFFFFF8000FFFFFFFF8000FF8000FFFFFFFF8
310
000FFF0003FFFFFFFFFFFFFFFFF00000F000FFFFFFFE000001FFFC000C001FE0
310
00C000FFFF80007FFFFFFFFE000001FFFFFFFFE000001FF80FFFFFFFFFFFFFC0
310
7FFFFFF0001FFFFFF8000FFFFFFFF8000FF8000FFFFFFFF8000FFF0003FFFFFF
310
FFFFFFFFFF800000F000FFFFFFC0000001FFFC001C001FE001C000FFFF80007F
310
FFFFFF80000003FFFFFFF80000001FF80FFFFFFFFFFFFFC07FFFFFF0001FFFFF
310
F8001FFFFFFFFC000FF8001FFFFFFFFC000FFF0003FFFFFFFFFFFFFFF0000001
310
F000FFFFF800000001FFF8001C001FE001C000FFFF80007FFFFFF800000003FF
310
FFFF800000003FF80FFFFFFFFFFFFFC07FFFFFF0001FFFFFF8001FFFFFFFFC00
310
0FF8001FFFFFFFFC000FFF0003FFFFFFFFFFFFFE00000001F000FFFFC0000000
310
03FFF8001E001FC001E000FFFF80007FFFFF8000000007FFFFFC000000003FF8
310
0FFFFFFFFFFFFFC07FFFFFF0001FFFFFF8001FFFFFFFFC000FF8001FFFFFFFFC
310
000FFF0003FFFFFFFFFFFFE000000003F000FFFE0000000007FFF8001E000FC0
310
01E0007FFF80007FFFFE0000000007FFFFE0000000007FF80FFFFFFFFFFFFFC0
310
7FFFFFF0001FFFFFF0001FFFFFFFFC0007F0001FFFFFFFFC0007FF0003FFFFFF
310
FFFFFF0000000003F000FFF80000000007FFF8001E000FC003E0007FFF80007F
310
FFF0000000000FFFFF8000000000FFF80FFFFFFFFFFFFFC07FFFFFF0001FFFFF
310
F0001FFFFFFFFC0007F0001FFFFFFFFC0007FF0003FFFFFFFFFFFC0000000007
310
F000FFE0000000000FFFF0003E000FC003E0007FFF80007FFFC0000000001FFF
310
FE0000000001FFF80FFFFFFFFFFFFFC07FFFFFF0001FFFFFF0001FFFFFFFFC00
310
07F0001FFFFFFFFC0007FF0003FFFFFFFFFFF0000000000FF000FFC000000000
310
1FFFF0003F000F8003F0003FFF80007FFF80000000003FFFF80000000003FFF8
310
0FFFFFFFFFFFFFC07FFFFFF0001FFFFFF0001FFFFFFFFC0007F0001FFFFFFFFC
310
0007FF0003FFFFFFFFFFE0000000001FF000FF00000000007FFFF0003F000780
310
03F0003FFF80007FFF00000000007FFFF00000000007FFF80FFFFFFFFFFFFFC0
310
7FFFFFF0001FFFFFF0001FFFFFFFFC0007F0001FFFFFFFFC0007FF0003FFFFFF
310
FFFF80000000007FF000FE0000000000FFFFE0003F00078007F0003FFF80007F
310
FE0000000001FFFFE0000000001FFFF80FFFFFFFFFFFFFC07FFFFFF0001FFFFF
310
F0001FFFFFFFFC0007F0001FFFFFFFFC0007FF0003FFFFFFFFFF0000000000FF
310
F000FC0000000003FFFFE0007F00078007F0003FFF80007FFC0000000007FFFF
310
C0000000007FFFF80FFFFFFFFFFFFFC07FFFFFF0001FFFFFF8001FFFFFFFFC00
310
0FF8001FFFFFFFFC000FFF0003FFFFFFFFFE0000000003FFF000FC000000000F
310
FFFFE0007F80070007F8001FFF80007FF8000000001FFFFF8000000001FFFFF8
310
0FFFFFFFFFFFFFC07FFFFFF0001FFFFFF8001FFFFFFFFC000FF8001FFFFFFFFC
310
000FFF0003FFFFFFFFFC000000000FFFF000F8000000007FFFFFE0007F800700
310
07F8001FFF80007FF000000000FFFFFF800000000FFFFFF80FFFFFFFFFFFFFC0
310
7FFFFFF0001FFFFFF8000FFFFFFFF8000FF8000FFFFFFFF8000FFF0003FFFFFF
310
FFFC000000007FFFF000F800000007FFFFFFC0007F8003000FF8001FFF80007F
310
F000000007FFFFFF000000007FFFFFF80FFFFFFFFFFFFFC07FFFFFF0001FFFFF
310
F8000FFFFFFFF8000FF8000FFFFFFFF8000FFF0003FFFFFFFFF80000000FFFFF
310
F000F0000000FFFFFFFFC000FF8003000FF8001FFF80007FE0000000FFFFFFFF
310
0000000FFFFFFFF8000001FFFE0000007FFFFFF0001FFFFFF8000FFFFFFFF800
310
0FF8000FFFFFFFF8000FFF0003FFFFFFFFF8000000FFFFFFF000F000000FFFFF
310
FFFFC000FFC002000FF8000FFF80007FE000001FFFFFFFFE000001FFFFFFFFF8
310
000001FFFE0000007FFFFFF0001FFFFFF8000FFFFFFFF8000FF8000FFFFFFFF8
310
000FFF0003FFFFFFFFF000001FFFFFFFF000E00000FFFFFFFFFFC000FFC00200
310
0FFC000FFF80007FE00001FFFFFFFFFE00001FFFFFFFFFF8000001FFFE000000
310
7FFFFFF0001FFFFFFC000FFFFFFFF8001FFC000FFFFFFFF8001FFF0003FFFFFF
310
FFF00001FFFFFFFFF000E00007FFFFFFFFFF8000FFC000001FFC000FFF80007F
310
C0000FFFFFFFFFFE0000FFFFFFFFFFF8000001FFFE0000007FFFFFF0001FFFFF
310
FC0007FFFFFFF0001FFC0007FFFFFFF0001FFF0003FFFFFFFFF00007FFFFFFFF
310
F000E0001FFFFFFFFFFF8000FFC000001FFC000FFF80007FC0003FFFFFFFFFFE
310
0001FFFFFFFFFFF8000001FFFE0000007FFFFFF0001FFFFFFC0007FFFFFFF000
310
1FFC0007FFFFFFF0001FFF0003FFFFFFFFF0001FFFFFFFFFF000E0003FFFFF00
310
03FF8001FFE000001FFC0007FF80007FC0007FFFFF0007FC0003FFFFF0003FF8
310
000001FFFE0000007FFFFFF0001FFFFFFC0003FFFFFFE0001FFC0003FFFFFFE0
310
001FFF0003FFFFFFFFF0003FFFFFFFFFF000E0003FFFFF0001FF8001FFE00000
310
1FFE0007FF80007FC0007FFFFE0003FC0007FFFFE0003FF8000001FFFE000000
310
7FFFFFF0001FFFFFFE0003FFFFFFE0003FFE0003FFFFFFE0003FFF0003FFFFFF
310
FFF0003FFFFF8001F000E0003FFFFF0001FF0001FFE000001FFE0007FF80007F
310
C0007FFFFE0003FC0007FFFFE0003FF8000001FFFE0000007FFFFFF0001FFFFF
310
FE0001FFFFFFC0003FFE0001FFFFFFC0003FFF0003FFFFFFFFF0003FFFFF0001
310
F000E0003FFFFF0003FF0001FFE000003FFE0007FF80007FC0007FFFFE0003FC
310
0007FFFFE0003FF8000001FFFE0000007FFFFFF0001FFFFFFF0001FFFFFFC000
310
7FFF0001FFFFFFC0007FFF0003FFFFFFFFF0003FFFFF0001F000E0003FFFFE00
310
03FF0003FFF000003FFE0003FF80007FC0007FFFFC0003FE0007FFFFE0003FF8
310
000001FFFE0000007FFFFFF0001FFFFFFF0000FFFFFF80007FFF0000FFFFFF80
310
007FFF0003FFFFFFFFF0003FFFFF0001F000E0003FFFFE0003FF0003FFF00000
310
3FFF0003FF80007FC0007FFFFC0007FE0007FFFFC0003FF8000001FFFE000000
310
7FFFFFF0001FFFFFFF80007FFFFF0000FFFF80007FFFFF0000FFFF0003FFFFFF
310
FFF0003FFFFF0003F000E0003FFFFC0003FE0003FFF000003FFF0003FF80007F
310
E0003FFFF80007FE0003FFFFC0007FF8000001FFFE0000007FFFFFF0001FFFFF
310
FF80003FFFFE0000FFFF80003FFFFE0000FFFF0003FFFFFFFFF0001FFFFE0003
310
F000F0001FFFF80003FE0003FFF000007FFF0001FF80007FE0003FFFF00007FE
310
0001FFFF80007FF8000001FFFE0000007FFFFFF0001FFFFFFFC0000FFFF80001
310
FFFFC0000FFFF80001FFFF0003FFFFFFFFF0001FFFFC0003F000F0000FFFF000
310
07FE0007FFF800007FFF0001FF80007FE0001FFFE00007FF0000FFFE00007FF8
310
000001FFFE0000007FFFFFF0001FFFFFFFC00003FFE00001FFFFC00003FFE000
310
01FFFF0003FFFFFFFFF8000FFFF80003F000F00003FFC00007FC0007FFF80000
310
7FFF8001FF80007FF00007FF80000FFF00007FF80000FFF8000001FFFE000000
310
7F80000000000001FFE000003E000003FFFFE000003E000003FFFF0003FFFFFF
310
FFF80003FFE00007F000F800000000000FFC0007FFF800007FFF8001FF80007F
310
F000000000000FFF000000000000FFF8000001FFFE0000007F80000000000001
310
FFF0000000000007FFFFF0000000000007FFFF0003FFFFFFFFFC00007E000007
310
F000F800000000000FFC0007FFF80000FFFF8000FF80007FF800000000001FFF
310
800000000001FFF8000001FFFE0000007F80000000000001FFF800000000000F
310
FFFFF800000000000FFFFF0003FFFFFFFFFC00000000000FF000FC0000000000
310
1FFC0007FFFC0000FFFF8000FF80007FF800000000003FFFC00000000001FFF8
310
000001FFFE0000007F80000000000001FFF800000000000FFFFFF80000000000
310
0FFFFF0003FFFFFFFFFE00000000001FF000FE00000000003FF8000FFFFC0000
310
FFFF8000FF80007FFC00000000003FFFC00000000003FFF8000001FFFE000000
310
7F80000000000001FFFC00000000001FFFFFFC00000000001FFFFF0003FFFFFF
310
FFFF00000000001FF000FF00000000003FF8000FFFFC0000FFFFC000FF80007F
310
FE00000000007FFFE00000000007FFF8000001FFFE0000007F80000000000001
310
FFFE00000000003FFFFFFE00000000003FFFFF0003FFFFFFFFFF80000000003F
310
F000FF80000000007FF8000FFFFC0001FFFFC0007F80007FFF0000000000FFFF
310
F0000000000FFFF800000000000000007F80000000000001FFFF8000000000FF
310
FFFFFF8000000000FFFFFF0003FFFFFFFFFFC0000000007FF000FFC000000000
310
FFF8000FFFFE0001FFFFC0007F80007FFF8000000001FFFFF8000000001FFFF8
310
00000000000000007F80000000000001FFFFC000000001FFFFFFFFC000000001
310
FFFFFF0003FFFFFFFFFFE000000000FFF000FFE000000003FFF0001FFFFE0001
310
FFFFC0007F80007FFFC000000007FFFFFE000000003FFFF80000000000000000
310
7F80000000000001FFFFE000000003FFFFFFFFE000000003FFFFFF0003FFFFFF
310
FFFFF000000003FFF000FFF80000000FFFF0001FFFFE0001FFFFE0007F80007F
310
FFF00000000FFFFFFF00000000FFFFF800000000000000007F80000000000001
310
FFFFF80000000FFFFFFFFFF80000000FFFFFFF0003FFFFFFFFFFFC0000000FFF
310
F000FFFE0000003FFFF0001FFFFE0003FFFFE0003F80007FFFFC0000003FFFFF
310
FFC0000003FFFFF800000000000000007F80000000000001FFFFFE0000003FFF
310
FFFFFFFE0000003FFFFFFF0003FFFFFFFFFFFF0000003FFFF000FFFF800000FF
310
FFF0001FFFFF0003FFFFE0003F80007FFFFF000001FFFFFFFFF800001FFFFFF8
310
00000000000000007F80000000000001FFFFFFC00001FFFFFFFFFFFFC00001FF
310
FFFFFF0003FFFFFFFFFFFFC00000FFFFF000FFFFF8000FFFFFFFFFFFFFFFFFFF
310
FFFFFFFFFFFFFFFFFFFFF0001FFFFFFFFFFF0000FFFFFFF80000000000000000
310
7FFFFFFFFFFFFFFFFFFFFFFC001FFFFFFFFFFFFFFC001FFFFFFFFFFFFFFFFFFF
310
FFFFFFFC001FFFFFF000FFFFFFFFFFFFFFFFFFFFFFFFFFFFFFFFFFFFFFFFFFFF
310
FFFFFFFFFFFFFFFFFFFFFFFFFFFFFFFFFFFFFFFFFFFFFFFFFFFFFFFFFFFFFFFF
310
FFFFFFFFFFFFFFFFFFFFFFFFFFFFFFFFFFFFFFFFFFFFFFFFFFFFFFFFFFFFFFFF
310
F000FFFFFFFFFFFFFFFFFFFFFFFFFFFFFFFFFFFFFFFFFFFFFFFFFFFFFFFFFFFF
310
FFFFFFFFFFFFFFFFFFFFFFFFFFFFFFFFFFFFFFFFFFFFFFFFFFFFFFFFFFFFFFFF
310
FFFFFFFFFFFFFFFFFFFFFFFFFFFFFFFFFFFFFFFFFFFFFFFFF000FFFFFFFFFFFF
310
FFFFFFFFFFFFFFFFFFFFFFFFFFFFFFFFFFFFFFFFFFFFFFFFFFFFFFFFFFFFFFFF
310
FFFFFFFFFFFFFFFFFFFFFFFFFFFFFFFFFFFFFFFFFFFFFFFFFFFFFFFFFFFFFFFF
310
FFFFFFFFFFFFFFFFFFFFFFFFFFFFFFFFF000FFFFFFFFFFFFFFFFFFFFFFFFFFFF
310
FFFFFFFFFFFFFFFFFFFFFFFFFFFFFFFFFFFFFFFFFFFFFFFFFFFFFFFFFFFFFFFF
310
FFFFFFFFFFFFFFFFFFFFFFFFFFFFFFFFFFFFFFFFFFFFFFFFFFFFFFFFFFFFFFFF
310
FFFFFFFFFFFFFFFFF000FFFFFFFFFFFFFFFFFFFFFFFFFFFFFFFFFFFFFFFFFFFF
310
FFFFFFFFFFFFFFFFFFFFFFFFFFFFFFFFFFFFFFFFFFFFFFFFFFFFFFFFFFFFFFFF
310
FFFFFFFFFFFFFFFFFFFFFFFFFFFFFFFFFFFFFFFFFFFFFFFFFFFFFFFFFFFFFFFF
310
F000FFFFFFFFFFFFFFFFFFFFFFFFFFFFFFFFFFFFFFFFFFFFFFFFFFFFFFFFFFFF
310
FFFFFFFFFFFFFFFFFFFFFFFFFFFFFFFFFFFFFFFFFFFFFFFFFFFFFFFFFFFFFFFF
310
FFFFFFFFFFFFFFFFFFFFFFFFFFFFFFFFFFFFFFFFFFFFFFFFF000FFFFFFFFFFFF
310
FFFFFFFFFFFFFFFFFFFFFFFFFFFFFFFFFFFFFFFFFFFFFFFFFFFFFFFFFFFFFFFF
310
FFFFFFFFFFFFFFFFFFFFFFFFFFFFFFFFFFFFFFFFFFFFFFFFFFFFFFFFFFFFFFFF
310
FFFFFFFFFFFFFFFFFFFFFFFFFFFFFFFFF000FFFFFFFFFFFFFFFFFFFFFFFFFFFF
310
FFFFFFFFFFFFFFFFFFFFFFFFFFFFFFFFFFFFFFFFFFFFFFFFFFFFFFFFFFFFFFFF
310
FFFFFFFFFFFFFFFFFFFFFFFFFFFFFFFFFFFFFFFFFFFFFFFFFFFFFFFFFFFFFFFF
310
FFFFFFFFFFFFFFFFF000FFFFFFFFFFFFFFFFFFFFFFFFFFFFFFFFFFFFFFFFFFFF
310
FFFFFFFFFFFFFFFFFFFFFFFFFFFFFFFFFFFFFFFFFFFFFFFFFFFFFFFFFFFFFFFF
310
FFFFFFFFFFFFFFFFFFFFFFFFFFFFFFFFFFFFFFFFFFFFFFFFFFFFFFFFFFFFFFFF
310
F000FFFFFFFFFFFFFFFFFFFFFFFFFFFFFFFFFFFFFFFFFFFFFFFFFFFFFFFFFFFF
310
FFFFFFFFFFFFFFFFFFFFFFFFFFFFFFFFFFFFFFFFFFFFFFFFFFFFFFFFFFFFFFFF
310
FFFFFFFFFFFFFFFFFFFFFFFFFFFFFFFFFFFFFFFFFFFFFFFFF000FFFFFFFFFFFF
310
FFFFFFFFFFFFFFFFFFFFFFFFFFFFFFFFFFFFFFFFFFFFFFFFFFFFFFFFFFFFFFFF
310
FFFFFFFFFFFFFFFFFFFFFFFFFFFFFFFFFFFFFFFFFFFFFFFFFFFFFFFFFFFFFFFF
310
FFFFFFFFFFFFFFFFFFFFFFFFFFFFFFFFF000FFFFFFFFFFFFFFFFFFFFFFFFFFFF
310
FFFFFFFFFFFFFFFFFFFFFFFFFFFFFFFFFFFFFFFFFFFFFFFFFFFFFFFFFFFFFFFF
310
FFFFFFFFFFFFFFFFFFFFFFFFFFFFFFFFFFFFFFFFFFFFFFFFFFFFFFFFFFFFFFFF
310
FFFFFFFFFFFFFFFFF000FFFFFFFFFFFFFFFFFFFFFFFFFFFFFFFFFFFFFFFFFFFF
310
FFFFFFFFFFFFFFFFFFFFFFFFFFFFFFFFFFFFFFFFFFFFFFFFFFFFFFFFFFFFFFFF
310
FFFFFFFFFFFFFFFFFFFFFFFFFFFFFFFFFFFFFFFFFFFFFFFFFFFFFFFFFFFFFFFF
310
F000FFFFFFFFFFFFFFFFFFFFFFFFFFFFFFFFFFFFFFFFFFFFFFFFFFFFFFFFFFFF
310
FFFFFFFFFFFFFFFFFFFFFFFFFFFFFFFFFFFFFFFFFFFFFFFFFFFFFFFFFFFFFFFF
310
FFFFFFFFFFFFFFFFFFFFFFFFFFFFFFFFFFFFFFFFFFFFFFFFF000FFFFFFFFFFFF
310
FFFFFFFFFFFFFFFFFFFFFFFFFFFFFFFFFFFFFFFFFFFFFFFFFFFFFFFFFFFFFFFF
310
FFFFFFFFFFFFFFFFFFFFFFFFFFFFFFFFFFFFFFFFFFFFFFFFFFFFFFFFFFFFFFFF
310
FFFFFFFFFFFFFFFFFFFFFFFFFFFFFFFFF000FFFFFFFFFFFFFFFFFFFFFFFFFFFF
310
FFFFFFFFFFFFFFFFFFFFFFFFFFFFFFFFFFFFFFFFFFFFFFFFFFFFFFFFFFFFFFFF
310
FFFFFFFFFFFFFFFFFFFFFFFFFFFFFFFFFFFFFFFFFFFFFFFFFFFFFFFFFFFFFFFF
310
FFFFFFFFFFFFFFFFF000FFFFFFFFFFFFFFFFFFFFFFFFFFFFFFFFFFFFFFFFFFFF
310
FFFFFFFFFFFFFFFFFFFFFFFFFFFFFFFFFFFFFFFFFFFFFFFFFFFFFFFFFFFFFFFF
310
FFFFFFFFFFFFFFFFFFFFFFFFFFFFFFFFFFFFFFFFFFFFFFFFFFFFFFFFFFFFFFFF
310
F000FFFFFFFFFFFFFFFFFFFFFFFFFFFFFFFFFFFFFFFFFFFFFFFFFFFFFFFFFFFF
310
FFFFFFFFFFFFFFFFFFFFFFFFFFFFFFFFFFFFFFFFFFFFFFFFFFFFFFFFFFFFFFFF
310
FFFFFFFFFFFFFFFFFFFFFFFFFFFFFFFFFFFFFFFFFFFFFFFFF000FFFFFFFFFFFF
310
FFFFFFFFFFFFFFFFFFFFFFFFFFFFFFFFFFFFFFFFFFFFFFFFFFFFFFFFFFFFFFFF
310
FFFFFFFFFFFFFFFFFFFFFFFFFFFFFFFFFFFFFFFFFFFFFFFFFFFFFFFFFFFFFFFF
310
FFFFFFFFFFFFFFFFFFFFFFFFFFFFFFFFF000FFFFFFFFFFFFFFFFFFFFFFFFFFFF
310
FFFFFFFFFFFFFFFFFFFFFFFFFFFFFFFFFFFFFFFFFFFFFFFFFFFFFFFFFFFFFFFF
310
FFFFFFFFFFFFFFFFFFFFFFFFFFFFFFFFFFFFFFFFFFFFFFFFFFFFFFFFFFFFFFFF
310
FFFFFFFFFFFFFFFFF000FFFFFFFFFFFFFFFFFFFFFFFFFFFFFFFFFFFFFFFFFFFF
310
FFFFFFFFFFFFFFFFFFFFFFFFFFFFFFFFFFFFFFFFFFFFFFFFFFFFFFFFFFFFFFFF
310
FFFFFFFFFFFFFFFFFFFFFFFFFFFFFFFFFFFFFFFFFFFFFFFFFFFFFFFFFFFFFFFF
310
F000FFFFFFFFFFFFFFFFFFFFFFFFFFFFFFFFFFFFFFFFFFFFFFFFFFFFFFFFFFFF
310
FFFFFFFFFFFFFFFFFFFFFFFFFFFFFFFFFFFFFFFFFFFFFFFFFFFFFFFFFFFFFFFF
310
FFFFFFFFFFFFFFFFFFFFFFFFFFFFFFFFFFFFFFFFFFFFFFFFF000FFFFFFFFFFFF
310
FFFFFFFFFFFFFFFFFFFFFFFFFFFFFFFFFFFFFFFFFFFFFFFFFFFFFFFFFFFFFFFF
310
FFFFFFFFFFFFFFFFFFFFFFFFFFFFFFFFFFFFFFFFFFFFFFFFFFFFFFFFFFFFFFFF
310
FFFFFFFFFFFFFFFFFFFFFFFFFFFFFFFFF0000000000000000000000000000000
310
0000000001000000000000000100000001000000010000000100000000000000
310
0100000000000000010000000100000001000000010000000100000000000000
310
0100000001000000010000000100000001000000010000000100000001000000
310
0100000001000000010000000100000001000000010000000100000001000000
310
0100000001000000010000000100000001000000010000000100000001000000
310
0100000001000000000000000100000001000000010000000100000001000000
310
0100000001000000010000000100000001000000010000000100000001000000
310
0100000001000000010000000100000001000000010000000100000001000000
310
0100000001000000010000000100000000000000010000000100000001000000
310
0100000001000000010000000000000001000000010000000100000001000000
310
0100000001000000000000000100000001000000010000000100000001000000
310
0100000001000000010000000100000001000000010000000100000001000000
310
0100000001000000010000000100000001000000010000000100000001000000
310
0100000001000000010000000100000001000000010000000100000001000000
310
0100000001000000010000000100000001000000000000000100000001000000
  1
OLE
  0
ENDSEC
  0
SECTION
  2
OBJECTS
  0
DICTIONARY
  5
C
330
0
100
AcDbDictionary
281
     1
  3
ACAD_GROUP
350
D
  3
ACAD_LAYOUT
350
1A
  3
ACAD_MLEADERSTYLE
350
208
  3
ACAD_MLINESTYLE
350
17
  3
ACAD_PLOTSETTINGS
350
19
  3
ACAD_PLOTSTYLENAME
350
E
  3
ACAD_TABLESTYLE
350
207
  3
ACAD_VISUALSTYLE
350
2A
  3
AcDbVariableDictionary
350
209
  0
DICTIONARY
  5
D
102
{ACAD_REACTORS
330
C
102
}
330
C
100
AcDbDictionary
281
     1
  0
DICTIONARY
  5
1A
102
{ACAD_REACTORS
330
C
102
}
330
C
100
AcDbDictionary
281
     1
  3
Layout1
350
1E
  3
Layout2
350
26
  3
Model
350
22
  0
DICTIONARY
  5
208
102
{ACAD_REACTORS
330
C
102
}
330
C
100
AcDbDictionary
281
     1
  0
DICTIONARY
  5
17
102
{ACAD_REACTORS
330
C
102
}
330
C
100
AcDbDictionary
281
     1
  3
Standard
350
18
  0
DICTIONARY
  5
19
102
{ACAD_REACTORS
330
C
102
}
330
C
100
AcDbDictionary
281
     1
  0
ACDBDICTIONARYWDFLT
  5
E
102
{ACAD_REACTORS
330
C
102
}
330
C
100
AcDbDictionary
281
     1
  3
Normal
350
F
100
AcDbDictionaryWithDefault
340
F
  0
DICTIONARY
  5
207
102
{ACAD_REACTORS
330
C
102
}
330
C
100
AcDbDictionary
281
     1
  0
DICTIONARY
  5
2A
102
{ACAD_REACTORS
330
C
102
}
330
C
100
AcDbDictionary
281
     1
  3
2dWireframe
350
2F
  3
3D Hidden
350
31
  3
3dWireframe
350
30
  3
Basic
350
32
  3
Brighten
350
36
  3
ColorChange
350
3A
  3
Conceptual
350
34
  3
Dim
350
35
  3
Facepattern
350
39
  3
Flat
350
2B
  3
FlatWithEdges
350
2C
  3
Gouraud
350
2D
  3
GouraudWithEdges
350
2E
  3
Linepattern
350
38
  3
Realistic
350
33
  3
Thicken
350
37
  0
DICTIONARY
  5
209
102
{ACAD_REACTORS
330
C
102
}
330
C
100
AcDbDictionary
281
     1
  3
PSOLHEIGHT
350
20B
  3
PSOLWIDTH
350
20A
  0
LAYOUT
  5
1E
102
{ACAD_REACTORS
330
1A
102
}
330
1A
100
AcDbPlotSettings
  1

  2
none_device
  4

  6

 40
0.0
 41
0.0
 42
0.0
 43
0.0
 44
0.0
 45
0.0
 46
0.0
 47
0.0
 48
0.0
 49
0.0
140
0.0
141
0.0
142
1.0
143
1.0
 70
   688
 72
     0
 73
     0
 74
     5
  7

 75
    16
147
1.0
148
0.0
149
0.0
100
AcDbLayout
  1
Layout1
 70
     1
 71
     1
 10
0.0
 20
0.0
 11
420.0
 21
297.0
 12
0.0
 22
0.0
 32
0.0
 14
1.0000000000E+20
 24
1.0000000000E+20
 34
1.0000000000E+20
 15
-1.0000000000E+20
 25
-1.0000000000E+20
 35
-1.0000000000E+20
146
0.0
 13
0.0
 23
0.0
 33
0.0
 16
1.0
 26
0.0
 36
0.0
 17
0.0
 27
1.0
 37
0.0
 76
     0
330
1B
  0
LAYOUT
  5
26
102
{ACAD_REACTORS
330
1A
102
}
330
1A
100
AcDbPlotSettings
  1

  2
none_device
  4

  6

 40
0.0
 41
0.0
 42
0.0
 43
0.0
 44
0.0
 45
0.0
 46
0.0
 47
0.0
 48
0.0
 49
0.0
140
0.0
141
0.0
142
1.0
143
1.0
 70
   688
 72
     0
 73
     0
 74
     5
  7

 75
    16
147
1.0
148
0.0
149
0.0
100
AcDbLayout
  1
Layout2
 70
     1
 71
     2
 10
0.0
 20
0.0
 11
0.0
 21
0.0
 12
0.0
 22
0.0
 32
0.0
 14
0.0
 24
0.0
 34
0.0
 15
0.0
 25
0.0
 35
0.0
146
0.0
 13
0.0
 23
0.0
 33
0.0
 16
1.0
 26
0.0
 36
0.0
 17
0.0
 27
1.0
 37
0.0
 76
     0
330
23
  0
LAYOUT
  5
22
102
{ACAD_REACTORS
330
1A
102
}
330
1A
100
AcDbPlotSettings
  1

  2
none_device
  4

  6

 40
0.0
 41
0.0
 42
0.0
 43
0.0
 44
0.0
 45
0.0
 46
0.0
 47
0.0
 48
0.0
 49
0.0
140
0.0
141
0.0
142
1.0
143
1.0
 70
  1712
 72
     0
 73
     0
 74
     0
  7

 75
     0
147
1.0
148
0.0
149
0.0
100
AcDbLayout
  1
Model
 70
     1
 71
     0
 10
0.0
 20
0.0
 11
297.0
 21
210.0
 12
0.0
 22
0.0
 32
0.0
 14
0.0
 24
0.0
 34
0.0
 15
297.0
 25
210.0
 35
0.0
146
0.0
 13
0.0
 23
0.0
 33
0.0
 16
1.0
 26
0.0
 36
0.0
 17
0.0
 27
1.0
 37
0.0
 76
     0
330
1F
331
29
  0
MLINESTYLE
  5
18
102
{ACAD_REACTORS
330
17
102
}
330
17
100
AcDbMlineStyle
  2
Standard
 70
     0
  3

 62
   256
 51
90.0
 52
90.0
 71
     2
 49
0.5
 62
   256
  6
BYLAYER
 49
-0.5
 62
   256
  6
BYLAYER
  0
ACDBPLACEHOLDER
  5
F
102
{ACAD_REACTORS
330
E
102
}
330
E
  0
VISUALSTYLE
  5
2F
102
{ACAD_REACTORS
330
2A
102
}
330
2A
100
AcDbVisualStyle
  2
2dWireframe
 70
     4
 71
     0
 72
     2
 73
     0
 90
        0
 40
-0.6
 41
-30.0
 62
     5
 63
     7
 74
     1
 91
        4
 64
     7
 65
   257
 75
     1
175
     1
 42
1.0
 92
        0
 66
   257
 43
1.0
 76
     1
 77
     6
 78
     2
 67
     7
 79
     5
170
     0
171
     0
290
     0
174
     0
 93
        1
 44
0.0
173
     0
291
     0
 45
0.0
1001
ACAD
1000
AcDbSavedByObjectVersion
1070
     0
  0
VISUALSTYLE
  5
31
102
{ACAD_REACTORS
330
2A
102
}
330
2A
100
AcDbVisualStyle
  2
3D Hidden
 70
     6
 71
     1
 72
     2
 73
     2
 90
        0
 40
-0.6
 41
-30.0
 62
     5
 63
     7
 74
     2
 91
        2
 64
     7
 65
   257
 75
     2
175
     1
 42
40.0
 92
        0
 66
   257
 43
1.0
 76
     1
 77
     6
 78
     2
 67
     7
 79
     3
170
     0
171
     0
290
     0
174
     0
 93
        1
 44
0.0
173
     0
291
     0
 45
0.0
1001
ACAD
1000
AcDbSavedByObjectVersion
1070
     0
  0
VISUALSTYLE
  5
30
102
{ACAD_REACTORS
330
2A
102
}
330
2A
100
AcDbVisualStyle
  2
3dWireframe
 70
     5
 71
     0
 72
     2
 73
     0
 90
        0
 40
-0.6
 41
-30.0
 62
     5
 63
     7
 74
     1
 91
        4
 64
     7
 65
   257
 75
     1
175
     1
 42
1.0
 92
        0
 66
   257
 43
1.0
 76
     1
 77
     6
 78
     2
 67
     7
 79
     5
170
     0
171
     0
290
     0
174
     0
 93
        1
 44
0.0
173
     0
291
     0
 45
0.0
1001
ACAD
1000
AcDbSavedByObjectVersion
1070
     0
  0
VISUALSTYLE
  5
32
102
{ACAD_REACTORS
330
2A
102
}
330
2A
100
AcDbVisualStyle
  2
Basic
 70
     7
 71
     1
 72
     0
 73
     1
 90
        0
 40
-0.6
 41
-30.0
 62
     5
 63
     7
 74
     0
 91
        4
 64
     7
 65
   257
 75
     1
175
     1
 42
1.0
 92
        8
 66
     7
 43
1.0
 76
     1
 77
     6
 78
     2
 67
     7
 79
     5
170
     0
171
     0
290
     0
174
     0
 93
        1
 44
0.0
173
     0
291
     1
 45
0.0
1001
ACAD
1000
AcDbSavedByObjectVersion
1070
     0
  0
VISUALSTYLE
  5
36
102
{ACAD_REACTORS
330
2A
102
}
330
2A
100
AcDbVisualStyle
  2
Brighten
 70
    12
 71
     2
 72
     2
 73
     0
 90
        0
 40
-0.6
 41
-30.0
 62
     5
 63
     7
 74
     1
 91
        4
 64
     7
 65
   257
 75
     1
175
     1
 42
1.0
 92
        8
 66
     7
 43
1.0
 76
     1
 77
     6
 78
     2
 67
     7
 79
     5
170
     0
171
     0
290
     0
174
     0
 93
        1
 44
50.0
173
     0
291
     1
 45
0.0
1001
ACAD
1000
AcDbSavedByObjectVersion
1070
     0
  0
VISUALSTYLE
  5
3A
102
{ACAD_REACTORS
330
2A
102
}
330
2A
100
AcDbVisualStyle
  2
ColorChange
 70
    16
 71
     2
 72
     2
 73
     3
 90
        0
 40
-0.6
 41
-30.0
 62
     5
 63
     8
 74
     1
 91
        4
 64
     7
 65
   257
 75
     1
175
     1
 42
1.0
 92
        8
 66
     8
 43
1.0
 76
     1
 77
     6
 78
     2
 67
     7
 79
     5
170
     0
171
     0
290
     0
174
     0
 93
        1
 44
0.0
173
     0
291
     1
 45
0.0
1001
ACAD
1000
AcDbSavedByObjectVersion
1070
     0
  0
VISUALSTYLE
  5
34
102
{ACAD_REACTORS
330
2A
102
}
330
2A
100
AcDbVisualStyle
  2
Conceptual
 70
     9
 71
     3
 72
     2
 73
     0
 90
        0
 40
-0.6
 41
-30.0
 62
     5
 63
     7
 74
     2
 91
        2
 64
     7
 65
   257
 75
     1
175
     1
 42
40.0
 92
        8
 66
     7
 43
1.0
 76
     1
 77
     6
 78
     2
 67
     7
 79
     3
170
     0
171
     0
290
     0
174
     0
 93
        1
 44
0.0
173
     0
291
     0
 45
0.0
1001
ACAD
1000
AcDbSavedByObjectVersion
1070
     0
  0
VISUALSTYLE
  5
35
102
{ACAD_REACTORS
330
2A
102
}
330
2A
100
AcDbVisualStyle
  2
Dim
 70
    11
 71
     2
 72
     2
 73
     0
 90
        0
 40
-0.6
 41
-30.0
 62
     5
 63
     7
 74
     1
 91
        4
 64
     7
 65
   257
 75
     1
175
     1
 42
1.0
 92
        8
 66
     7
 43
1.0
 76
     1
 77
     6
 78
     2
 67
     7
 79
     5
170
     0
171
     0
290
     0
174
     0
 93
        1
 44
-50.0
173
     0
291
     1
 45
0.0
1001
ACAD
1000
AcDbSavedByObjectVersion
1070
     0
  0
VISUALSTYLE
  5
39
102
{ACAD_REACTORS
330
2A
102
}
330
2A
100
AcDbVisualStyle
  2
Facepattern
 70
    15
 71
     2
 72
     2
 73
     0
 90
        0
 40
-0.6
 41
-30.0
 62
     5
 63
     7
 74
     1
 91
        4
 64
     7
 65
   257
 75
     1
175
     1
 42
1.0
 92
        8
 66
     7
 43
1.0
 76
     1
 77
     6
 78
     2
 67
     7
 79
     5
170
     0
171
     0
290
     0
174
     0
 93
        1
 44
0.0
173
     0
291
     1
 45
0.0
1001
ACAD
1000
AcDbSavedByObjectVersion
1070
     0
  0
VISUALSTYLE
  5
2B
102
{ACAD_REACTORS
330
2A
102
}
330
2A
100
AcDbVisualStyle
  2
Flat
 70
     0
 71
     2
 72
     1
 73
     1
 90
        2
 40
-0.6
 41
30.0
 62
     5
 63
     7
 74
     0
 91
        4
 64
     7
 65
   257
 75
     1
175
     1
 42
1.0
 92
        8
 66
     7
 43
1.0
 76
     1
 77
     6
 78
     2
 67
     7
 79
     5
170
     0
171
     0
290
     0
174
     0
 93
       13
 44
0.0
173
     0
291
     1
 45
0.0
1001
ACAD
1000
AcDbSavedByObjectVersion
1070
     0
  0
VISUALSTYLE
  5
2C
102
{ACAD_REACTORS
330
2A
102
}
330
2A
100
AcDbVisualStyle
  2
FlatWithEdges
 70
     1
 71
     2
 72
     1
 73
     1
 90
        2
 40
-0.6
 41
30.0
 62
     5
 63
     7
 74
     1
 91
        4
 64
     7
 65
   257
 75
     1
175
     1
 42
1.0
 92
        0
 66
   257
 43
1.0
 76
     1
 77
     6
 78
     2
 67
     7
 79
     5
170
     0
171
     0
290
     0
174
     0
 93
       13
 44
0.0
173
     0
291
     1
 45
0.0
1001
ACAD
1000
AcDbSavedByObjectVersion
1070
     0
  0
VISUALSTYLE
  5
2D
102
{ACAD_REACTORS
330
2A
102
}
330
2A
100
AcDbVisualStyle
  2
Gouraud
 70
     2
 71
     2
 72
     2
 73
     1
 90
        2
 40
-0.6
 41
30.0
 62
     5
 63
     7
 74
     0
 91
        4
 64
     7
 65
   257
 75
     1
175
     1
 42
1.0
 92
        0
 66
     7
 43
1.0
 76
     1
 77
     6
 78
     2
 67
     7
 79
     5
170
     0
171
     0
290
     0
174
     0
 93
       13
 44
0.0
173
     0
291
     1
 45
0.0
1001
ACAD
1000
AcDbSavedByObjectVersion
1070
     0
  0
VISUALSTYLE
  5
2E
102
{ACAD_REACTORS
330
2A
102
}
330
2A
100
AcDbVisualStyle
  2
GouraudWithEdges
 70
     3
 71
     2
 72
     2
 73
     1
 90
        2
 40
-0.6
 41
30.0
 62
     5
 63
     7
 74
     1
 91
        4
 64
     7
 65
   257
 75
     1
175
     1
 42
1.0
 92
        0
 66
   257
 43
1.0
 76
     1
 77
     6
 78
     2
 67
     7
 79
     5
170
     0
171
     0
290
     0
174
     0
 93
       13
 44
0.0
173
     0
291
     1
 45
0.0
1001
ACAD
1000
AcDbSavedByObjectVersion
1070
     0
  0
VISUALSTYLE
  5
38
102
{ACAD_REACTORS
330
2A
102
}
330
2A
100
AcDbVisualStyle
  2
Linepattern
 70
    14
 71
     2
 72
     2
 73
     0
 90
        0
 40
-0.6
 41
-30.0
 62
     5
 63
     7
 74
     1
 91
        4
 64
     7
 65
   257
 75
     7
175
     7
 42
1.0
 92
        8
 66
     7
 43
1.0
 76
     1
 77
     6
 78
     2
 67
     7
 79
     5
170
     0
171
     0
290
     0
174
     0
 93
        1
 44
0.0
173
     0
291
     1
 45
0.0
1001
ACAD
1000
AcDbSavedByObjectVersion
1070
     0
  0
VISUALSTYLE
  5
33
102
{ACAD_REACTORS
330
2A
102
}
330
2A
100
AcDbVisualStyle
  2
Realistic
 70
     8
 71
     2
 72
     2
 73
     0
 90
        0
 40
-0.6
 41
-30.0
 62
     5
 63
     7
 74
     1
 91
        0
 64
     7
 65
   257
 75
     1
175
     1
 42
1.0
 92
        8
 66
     8
 43
1.0
 76
     1
 77
     6
 78
     2
 67
     7
 79
     5
170
     0
171
     0
290
     0
174
     0
 93
       13
 44
0.0
173
     0
291
     0
 45
0.0
1001
ACAD
1000
AcDbSavedByObjectVersion
1070
     0
  0
VISUALSTYLE
  5
37
102
{ACAD_REACTORS
330
2A
102
}
330
2A
100
AcDbVisualStyle
  2
Thicken
 70
    13
 71
     2
 72
     2
 73
     0
 90
        0
 40
-0.6
 41
-30.0
 62
     5
 63
     7
 74
     1
 91
        4
 64
     7
 65
   257
 75
     1
175
     1
 42
1.0
 92
       12
 66
     7
 43
1.0
 76
     1
 77
     6
 78
     2
 67
     7
 79
     5
170
     0
171
     0
290
     0
174
     0
 93
        1
 44
0.0
173
     0
291
     1
 45
0.0
1001
ACAD
1000
AcDbSavedByObjectVersion
1070
     0
  0
DICTIONARYVAR
  5
20B
102
{ACAD_REACTORS
330
209
102
}
330
209
100
DictionaryVariables
280
     0
  1
80.000000
  0
DICTIONARYVAR
  5
20A
102
{ACAD_REACTORS
330
209
102
}
330
209
100
DictionaryVariables
280
     0
  1
5.000000
  0
ENDSEC
  0
EOF
